  0
SECTION
  2
HEADER
  9
$ACADVER
  1
AC1015
  9
$ACADMAINTVER
 70
    20
  9
$DWGCODEPAGE
  3
ANSI_1252
  9
$INSBASE
 10
0.0
 20
0.0
 30
0.0
  9
$EXTMIN
 10
22.39837893564072
 20
177.1682765767541
 30
-0.0015258207003583
  9
$EXTMAX
 10
734.4039937765383
 20
560.5682391796354
 30
0.0000000349246037
  9
$LIMMIN
 10
0.0
 20
0.0
  9
$LIMMAX
 10
1050.0
 20
1050.0
  9
$ORTHOMODE
 70
     0
  9
$REGENMODE
 70
     1
  9
$FILLMODE
 70
     1
  9
$QTEXTMODE
 70
     0
  9
$MIRRTEXT
 70
     0
  9
$LTSCALE
 40
5.0
  9
$ATTMODE
 70
     1
  9
$TEXTSIZE
 40
10.0
  9
$TRACEWID
 40
0.05
  9
$TEXTSTYLE
  7
STANDARD
  9
$CLAYER
  8
0
  9
$CELTYPE
  6
BYLAYER
  9
$CECOLOR
 62
   256
  9
$CELTSCALE
 40
1.0
  9
$DISPSILH
 70
     0
  9
$DIMSCALE
 40
5.0
  9
$DIMASZ
 40
2.5
  9
$DIMEXO
 40
1.0
  9
$DIMDLI
 40
7.0
  9
$DIMRND
 40
0.0
  9
$DIMDLE
 40
0.0
  9
$DIMEXE
 40
1.0
  9
$DIMTP
 40
0.1
  9
$DIMTM
 40
0.1
  9
$DIMTXT
 40
3.5
  9
$DIMCEN
 40
0.0
  9
$DIMTSZ
 40
0.0
  9
$DIMTOL
 70
     0
  9
$DIMLIM
 70
     0
  9
$DIMTIH
 70
     0
  9
$DIMTOH
 70
     0
  9
$DIMSE1
 70
     0
  9
$DIMSE2
 70
     0
  9
$DIMTAD
 70
     1
  9
$DIMZIN
 70
    12
  9
$DIMBLK
  1

  9
$DIMASO
 70
     1
  9
$DIMSHO
 70
     1
  9
$DIMPOST
  1

  9
$DIMAPOST
  1
"
  9
$DIMALT
 70
     0
  9
$DIMALTD
 70
     2
  9
$DIMALTF
 40
0.03937
  9
$DIMLFAC
 40
1.0
  9
$DIMTOFL
 70
     1
  9
$DIMTVP
 40
0.0
  9
$DIMTIX
 70
     0
  9
$DIMSOXD
 70
     0
  9
$DIMSAH
 70
     0
  9
$DIMBLK1
  1

  9
$DIMBLK2
  1

  9
$DIMSTYLE
  2
GEN-ISO
  9
$DIMCLRD
 70
   256
  9
$DIMCLRE
 70
   256
  9
$DIMCLRT
 70
     2
  9
$DIMTFAC
 40
0.71
  9
$DIMGAP
 40
0.6
  9
$DIMJUST
 70
     0
  9
$DIMSD1
 70
     0
  9
$DIMSD2
 70
     0
  9
$DIMTOLJ
 70
     0
  9
$DIMTZIN
 70
     0
  9
$DIMALTZ
 70
     0
  9
$DIMALTTZ
 70
     0
  9
$DIMUPT
 70
     0
  9
$DIMDEC
 70
     2
  9
$DIMTDEC
 70
     3
  9
$DIMALTU
 70
     2
  9
$DIMALTTD
 70
     4
  9
$DIMTXSTY
  7
STANDARD
  9
$DIMAUNIT
 70
     0
  9
$DIMADEC
 70
     0
  9
$DIMALTRND
 40
0.0
  9
$DIMAZIN
 70
     0
  9
$DIMDSEP
 70
    46
  9
$DIMATFIT
 70
     3
  9
$DIMFRAC
 70
     0
  9
$DIMLDRBLK
  1

  9
$DIMLUNIT
 70
     2
  9
$DIMLWD
 70
    -2
  9
$DIMLWE
 70
    -2
  9
$DIMTMOVE
 70
     0
  9
$LUNITS
 70
     2
  9
$LUPREC
 70
     2
  9
$SKETCHINC
 40
0.1
  9
$FILLETRAD
 40
12.5
  9
$AUNITS
 70
     0
  9
$AUPREC
 70
     2
  9
$MENU
  1
.
  9
$ELEVATION
 40
0.0
  9
$PELEVATION
 40
0.0
  9
$THICKNESS
 40
0.0
  9
$LIMCHECK
 70
     0
  9
$CHAMFERA
 40
12.5
  9
$CHAMFERB
 40
12.5
  9
$CHAMFERC
 40
0.0
  9
$CHAMFERD
 40
0.0
  9
$SKPOLY
 70
     0
  9
$TDCREATE
 40
2451296.363089977
  9
$TDUCREATE
 40
2451296.279756643
  9
$TDUPDATE
 40
2454020.022132639
  9
$TDUUPDATE
 40
2454019.938799306
  9
$TDINDWG
 40
0.0022051273
  9
$TDUSRTIMER
 40
0.0022051273
  9
$USRTIMER
 70
     1
  9
$ANGBASE
 50
0.0
  9
$ANGDIR
 70
     0
  9
$PDMODE
 70
     0
  9
$PDSIZE
 40
0.0
  9
$PLINEWID
 40
0.0
  9
$SPLFRAME
 70
     0
  9
$SPLINETYPE
 70
     6
  9
$SPLINESEGS
 70
     8
  9
$HANDSEED
  5
159C
  9
$SURFTAB1
 70
     6
  9
$SURFTAB2
 70
     6
  9
$SURFTYPE
 70
     6
  9
$SURFU
 70
     6
  9
$SURFV
 70
     6
  9
$UCSBASE
  2

  9
$UCSNAME
  2

  9
$UCSORG
 10
0.0
 20
0.0
 30
0.0
  9
$UCSXDIR
 10
1.0
 20
0.0
 30
0.0
  9
$UCSYDIR
 10
0.0
 20
1.0
 30
0.0
  9
$UCSORTHOREF
  2

  9
$UCSORTHOVIEW
 70
     0
  9
$UCSORGTOP
 10
0.0
 20
0.0
 30
0.0
  9
$UCSORGBOTTOM
 10
0.0
 20
0.0
 30
0.0
  9
$UCSORGLEFT
 10
0.0
 20
0.0
 30
0.0
  9
$UCSORGRIGHT
 10
0.0
 20
0.0
 30
0.0
  9
$UCSORGFRONT
 10
0.0
 20
0.0
 30
0.0
  9
$UCSORGBACK
 10
0.0
 20
0.0
 30
0.0
  9
$PUCSBASE
  2

  9
$PUCSNAME
  2

  9
$PUCSORG
 10
0.0
 20
0.0
 30
0.0
  9
$PUCSXDIR
 10
1.0
 20
0.0
 30
0.0
  9
$PUCSYDIR
 10
0.0
 20
1.0
 30
0.0
  9
$PUCSORTHOREF
  2

  9
$PUCSORTHOVIEW
 70
     0
  9
$PUCSORGTOP
 10
0.0
 20
0.0
 30
0.0
  9
$PUCSORGBOTTOM
 10
0.0
 20
0.0
 30
0.0
  9
$PUCSORGLEFT
 10
0.0
 20
0.0
 30
0.0
  9
$PUCSORGRIGHT
 10
0.0
 20
0.0
 30
0.0
  9
$PUCSORGFRONT
 10
0.0
 20
0.0
 30
0.0
  9
$PUCSORGBACK
 10
0.0
 20
0.0
 30
0.0
  9
$USERI1
 70
     0
  9
$USERI2
 70
     0
  9
$USERI3
 70
     0
  9
$USERI4
 70
     0
  9
$USERI5
 70
     0
  9
$USERR1
 40
0.0
  9
$USERR2
 40
0.0
  9
$USERR3
 40
0.0
  9
$USERR4
 40
0.0
  9
$USERR5
 40
0.0
  9
$WORLDVIEW
 70
     1
  9
$SHADEDGE
 70
     3
  9
$SHADEDIF
 70
    70
  9
$TILEMODE
 70
     1
  9
$MAXACTVP
 70
    48
  9
$PINSBASE
 10
0.0
 20
0.0
 30
0.0
  9
$PLIMCHECK
 70
     0
  9
$PEXTMIN
 10
0.0
 20
0.0
 30
0.0
  9
$PEXTMAX
 10
419.8999999999999
 20
296.9
 30
0.0
  9
$PLIMMIN
 10
0.0
 20
0.0
  9
$PLIMMAX
 10
419.8999999999999
 20
296.9
  9
$UNITMODE
 70
     0
  9
$VISRETAIN
 70
     1
  9
$PLINEGEN
 70
     1
  9
$PSLTSCALE
 70
     1
  9
$TREEDEPTH
 70
 -3020
  9
$CMLSTYLE
  2
STANDARD
  9
$CMLJUST
 70
     0
  9
$CMLSCALE
 40
1.0
  9
$PROXYGRAPHICS
 70
     1
  9
$MEASUREMENT
 70
     1
  9
$CELWEIGHT
370
    -1
  9
$ENDCAPS
280
     0
  9
$JOINSTYLE
280
     0
  9
$LWDISPLAY
290
     0
  9
$INSUNITS
 70
     0
  9
$HYPERLINKBASE
  1

  9
$STYLESHEET
  1

  9
$XEDIT
290
     1
  9
$CEPSNTYPE
380
     0
  9
$PSTYLEMODE
290
     1
  9
$FINGERPRINTGUID
  2
{55A88AD8-03E8-4178-9A11-2B3D190EA36D}
  9
$VERSIONGUID
  2
{B1208403-CA0F-48B5-8E93-2E3A467906EF}
  9
$EXTNAMES
290
     1
  9
$PSVPSCALE
 40
0.0
  9
$OLESTARTUP
290
     0
  0
ENDSEC
  0
SECTION
  2
CLASSES
  0
CLASS
  1
ACDBDICTIONARYWDFLT
  2
AcDbDictionaryWithDefault
  3
ObjectDBX Classes
 90
        0
280
     0
281
     0
  0
CLASS
  1
TABLESTYLE
  2
AcDbTableStyle
  3
ObjectDBX Classes
 90
     2047
280
     0
281
     0
  0
CLASS
  1
AMGSETTINGSOBJ
  2
AmgSettingsObj
  3
"AcadM|Product Description: AutoCAD Mechanical 2000|Company: Autodesk"
 90
        0
280
     0
281
     0
  0
CLASS
  1
ACME_DOCUMENT
  2
AcMeDbDoc
  3
AcMeServices
 90
        0
280
     0
281
     0
  0
CLASS
  1
ACMESCOPE
  2
AcMeScope
  3
AcMeServices
 90
        0
280
     0
281
     0
  0
CLASS
  1
ACMECOMMANDHISTORY
  2
AcMeCommandHistory
  3
AcMeServices
 90
        0
280
     0
281
     0
  0
CLASS
  1
ACIMSYSVARMAN
  2
AcImSysVarManager
  3
AcMeServices
 90
        0
280
     0
281
     0
  0
CLASS
  1
ACIMINTSYSVAR
  2
AcImIntSysVar
  3
AcMeServices
 90
        0
280
     0
281
     0
  0
CLASS
  1
ACMEDRAWINGMAN
  2
AcMeDrawingMan
  3
AcMeServices
 90
        0
280
     0
281
     0
  0
CLASS
  1
ACMEVIEW
  2
AcMeView
  3
AcMeServices
 90
        0
280
     0
281
     0
  0
CLASS
  1
ACDBENTITYCACHE
  2
AcMeEntityCache
  3
AcMeServices
 90
        0
280
     0
281
     0
  0
CLASS
  1
GSMANAGER
  2
AcMeGSManager
  3
AcMeServices
 90
        0
280
     0
281
     0
  0
CLASS
  1
AMDTINTERNALREACTOR
  2
AmdtInternalReactor
  3
AcMeServices
 90
        0
280
     0
281
     0
  0
CLASS
  1
ACMESTATEMGR
  2
AcMeStateMgr
  3
AcMeServices
 90
        0
280
     0
281
     0
  0
CLASS
  1
ACGREFMASTER
  2
AcGrefMaster
  3
AcAttribServices
 90
        0
280
     0
281
     0
  0
CLASS
  1
AM_DRAWING_MGR
  2
AcDmDwgMgr
  3
AcMechDwgViewMgmt
 90
        0
280
     0
281
     0
  0
CLASS
  1
AM_DWG_DOCUMENT
  2
AcDmDwgDocument
  3
AcMechDwgViewMgmt
 90
        0
280
     0
281
     0
  0
CLASS
  1
AM_DWG_SHEET
  2
AcDmSheet
  3
AcMechDwgViewMgmt
 90
        0
280
     0
281
     0
  0
CLASS
  1
AM_VIEWDIMPARMAP
  2
AcDmViewDimParMap
  3
AcMechDwgViewMgmt
 90
        0
280
     0
281
     0
  0
CLASS
  1
ACIMREALSYSVAR
  2
AcImRealSysVar
  3
AcMeServices
 90
        0
280
     0
281
     0
  0
CLASS
  1
AM_DWGMGR_NAME
  2
AcDmDwgMgrName
  3
AcMechDwgViewMgmt
 90
        0
280
     0
281
     0
  0
CLASS
  1
ACME_DATABASE
  2
AcMeDbDatabase
  3
AcMeServices
 90
        0
280
     0
281
     0
  0
CLASS
  1
ACRFINSADJUSTERMGR
  2
AcRfInsAdjusterMgr
  3
AcMeServices
 90
        0
280
     0
281
     0
  0
CLASS
  1
ACGREFACADMASTER
  2
AcGrefacadMaster
  3
AcGrefServices
 90
        0
280
     0
281
     0
  0
CLASS
  1
AMDTMENUSTATEMGR
  2
AmdtMenuStateMgr
  3
McadcomServices
 90
        0
280
     0
281
     0
  0
CLASS
  1
AMDTMCOMMENUSTATE
  2
AmdtMcomMenuState
  3
McadcomServices
 90
        0
280
     0
281
     0
  0
CLASS
  1
AMIMASTER
  2
AmiMaster
  3
AmiServices
 90
        0
280
     0
281
     0
  0
CLASS
  1
MAPIAMMOUDLE
  2
MApiAmModule
  3
MApiAmServices
 90
        0
280
     0
281
     0
  0
CLASS
  1
ACIMSTRSYSVAR
  2
AcImStrSysVar
  3
AcMeServices
 90
        0
280
     0
281
     0
  0
CLASS
  1
AMDTADMENUSTATE
  2
AmdtAdMenuState
  3
DesignerServices
 90
        0
280
     0
281
     0
  0
CLASS
  1
ADAPPL
  2
AcAdAppl
  3
DesignerServices
 90
        0
280
     0
281
     0
  0
CLASS
  1
DEPMGR
  2
AcAdDepMgr
  3
DesignerServices
 90
        0
280
     0
281
     0
  0
CLASS
  1
PARAMMGR
  2
AcAdParamMgr
  3
DesignerServices
 90
        0
280
     0
281
     0
  0
CLASS
  1
PARAMSCOPE
  2
AcAdParamScope
  3
DesignerServices
 90
        0
280
     0
281
     0
  0
CLASS
  1
NAMEDAPPL
  2
AcAdNamedAppl
  3
DesignerServices
 90
        0
280
     0
281
     0
  0
CLASS
  1
AMDTDMMENUSTATE
  2
AmdtDmMenuState
  3
AcMechDwgViewMgmt
 90
        0
280
     0
281
     0
  0
CLASS
  1
AMDTAMMENUSTATE
  2
AmdtAmMenuState
  3
DesignerAssemblies
 90
        0
280
     0
281
     0
  0
CLASS
  1
ACAMPROJECT
  2
AcAmProject
  3
DesignerAssemblies
 90
        0
280
     0
281
     0
  0
CLASS
  1
ACAMGRCOMPDEF
  2
AcAmGrCompDef
  3
DesignerAssemblies
 90
        0
280
     0
281
     0
  0
CLASS
  1
ACCMCONTEXT
  2
AcCmContext
  3
DesignerAssemblies
 90
        0
280
     0
281
     0
  0
CLASS
  1
ACAMCOMPDEF
  2
AcAmCompDef
  3
DesignerAssemblies
 90
        0
280
     0
281
     0
  0
CLASS
  1
ACAMCOMPDEFMGR
  2
AcAmCompDefMgr
  3
DesignerAssemblies
 90
        0
280
     0
281
     0
  0
CLASS
  1
AMCONTEXTMGR
  2
AcAmContextMgr
  3
DesignerAssemblies
 90
        0
280
     0
281
     0
  0
CLASS
  1
ACAMCONTEXTMODELER
  2
AcAmContextModeler
  3
DesignerAssemblies
 90
        0
280
     0
281
     0
  0
CLASS
  1
ACMDATADICTIONARY
  2
AcmDataDictionary
  3
"AcmSymBB|Product Description: AutoCAD Mechanical 2004 DX|Company: Autodesk"
 90
        0
280
     0
281
     0
  0
CLASS
  1
CATALOGSTATE
  2
AcAmCatalogState
  3
DesignerAssemblies
 90
        0
280
     0
281
     0
  0
CLASS
  1
ACAMGRCOMPDEFSET
  2
AcAmGrCompDefSet
  3
DesignerAssemblies
 90
        0
280
     0
281
     0
  0
CLASS
  1
AMDTBROWSERDBTAB
  2
AmdtBrowserDbTab
  3
McadcomServices
 90
        0
280
     0
281
     0
  0
CLASS
  1
CBROWSERAPPOBJECT
  2
CBrowserAppObject
  3
McadcomServices
 90
        0
280
     0
281
     0
  0
CLASS
  1
DM_PLACEHOLDER
  2
AcDmSelsetPlaceholder
  3
AcMechDwgViewMgmt
 90
        0
280
     0
281
     0
  0
CLASS
  1
ACMSTANDARDDIN
  2
AcmStandardDIN
  3
"Amdt_StdImp|Product Description: AutoCAD Mechanical 2004 DX|Company: Autodesk"
 90
        0
280
     0
281
     0
  0
CLASS
  1
AMGOBJPROPCFG
  2
AmgObjPropCfg
  3
"AmgLay|Product Description: AutoCAD Mechanical 2000|Company: Autodesk"
 90
        1
280
     0
281
     0
  0
CLASS
  1
AMDTEDGESTANDARDDIN13715
  2
AmdtEdgeStdDIN13715
  3
"Amdt_StdImp|Product Description: AutoCAD Mechanical 2004 DX|Company: Autodesk"
 90
        0
280
     0
281
     0
  0
CLASS
  1
ACMSURFSTANDARDDIN
  2
AcmSurfTextStdDIN
  3
"Amdt_StdImp|Product Description: AutoCAD Mechanical 2004 DX|Company: Autodesk"
 90
        0
280
     0
281
     0
  0
CLASS
  1
ACMFCFSTANDARDDIN
  2
AcmFCFStdDIN
  3
"Amdt_StdImp|Product Description: AutoCAD Mechanical 2004 DX|Company: Autodesk"
 90
        0
280
     0
281
     0
  0
CLASS
  1
ACMWELDSTANDARDDIN
  2
AcmWeldingStdDIN
  3
"Amdt_StdImp|Product Description: AutoCAD Mechanical 2004 DX|Company: Autodesk"
 90
        0
280
     0
281
     0
  0
CLASS
  1
ACMIDSTANDARDDIN
  2
AcmIdStdDIN
  3
"Amdt_StdImp|Product Description: AutoCAD Mechanical 2004 DX|Company: Autodesk"
 90
        0
280
     0
281
     0
  0
CLASS
  1
ACMDATUMSTANDARDDIN
  2
AcmDatumStdDIN
  3
"Amdt_StdImp|Product Description: AutoCAD Mechanical 2004 DX|Company: Autodesk"
 90
        0
280
     0
281
     0
  0
CLASS
  1
ACMBOMSTANDARDDIN
  2
AcmBOMStdDIN
  3
"Amdt_StdImp|Product Description: AutoCAD Mechanical 2004 DX|Company: Autodesk"
 90
        0
280
     0
281
     0
  0
CLASS
  1
ACMDETAILSTANDARDDIN
  2
AmdtDetailSymStdDIN
  3
"Amdt_StdImp|Product Description: AutoCAD Mechanical 2004 DX|Company: Autodesk"
 90
        0
280
     0
281
     0
  0
CLASS
  1
ACMSECTIONSTANDARDDIN
  2
AmdtSectionSymStdDIN
  3
"Amdt_StdImp|Product Description: AutoCAD Mechanical 2004 DX|Company: Autodesk"
 90
        0
280
     0
281
     0
  0
CLASS
  1
ACMCENTERLINESTANDARDDIN
  2
AmdtCenterLineStdDIN
  3
"Amdt_StdImp|Product Description: AutoCAD Mechanical 2004 DX|Company: Autodesk"
 90
        0
280
     0
281
     0
  0
CLASS
  1
ACMTHREADLINESTANDARDDIN
  2
AmdtThreadLineStdDIN
  3
"Amdt_StdImp|Product Description: AutoCAD Mechanical 2004 DX|Company: Autodesk"
 90
        0
280
     0
281
     0
  0
CLASS
  1
ACMNOTESTANDARDDIN
  2
AmdtNoteStdDIN
  3
"Amdt_StdImp|Product Description: AutoCAD Mechanical 2004 DX|Company: Autodesk"
 90
        0
280
     0
281
     0
  0
CLASS
  1
AMDTNOTETEMPLATEDB
  2
AmdtNoteTemplateDB
  3
AMDT_STDIMP_MODULE_NAME
 90
        0
280
     0
281
     0
  0
CLASS
  1
ACAMGLAYSTD
  2
AcAmgLayStd
  3
"AcAmgLayStd|Product Description: AutoCAD Mechanical 2000|Company: Autodesk"
 90
        0
280
     0
281
     0
  0
CLASS
  1
ACAMGDIMSTD
  2
AcAmgDimStd
  3
"AcAmgDimStd|Product Description: AutoCAD Mechanical 2000|Company: Autodesk"
 90
        0
280
     0
281
     0
  0
CLASS
  1
ACAMGHOLECHARTSTDDIN
  2
AcAmgHoleChartStdDIN
  3
ACMSYMBB_MODULE_NAME
 90
        0
280
     0
281
     0
  0
CLASS
  1
ACAMGTITLESTD
  2
AcAmgTitleStd
  3
"TITLEAPP"
 90
        0
280
     0
281
     0
  0
CLASS
  1
ACAMGFILTERDAT
  2
AcAmgFilterDat
  3
"AcadM|Product Description: AutoCAD Mechanical 2000|Company: Autodesk"
 90
        0
280
     0
281
     0
  0
CLASS
  1
DICTIONARYVAR
  2
AcDbDictionaryVar
  3
ObjectDBX Classes
 90
        0
280
     0
281
     0
  0
CLASS
  1
ACDBPLACEHOLDER
  2
AcDbPlaceHolder
  3
ObjectDBX Classes
 90
        0
280
     0
281
     0
  0
CLASS
  1
LAYOUT
  2
AcDbLayout
  3
ObjectDBX Classes
 90
        0
280
     0
281
     0
  0
ENDSEC
  0
SECTION
  2
TABLES
  0
TABLE
  2
VPORT
  5
12D8
330
0
100
AcDbSymbolTable
 70
     4
  0
VPORT
  5
1596
330
12D8
100
AcDbSymbolTableRecord
100
AcDbViewportTableRecord
  2
*Active
 70
     0
 10
0.0
 20
0.0
 11
1.0
 21
1.0
 12
378.4011863560895
 22
368.8682578781948
 13
0.0
 23
0.0
 14
5.0
 24
5.0
 15
50.0
 25
50.0
 16
0.0
 26
0.0
 36
1.0
 17
0.0
 27
0.0
 37
0.0
 40
478.7182387613532
 41
1.494545454545454
 42
50.0
 43
0.0
 44
0.0
 50
0.0
 51
0.0
 71
     0
 72
  1000
 73
     1
 74
     1
 75
     0
 76
     0
 77
     0
 78
     0
281
     0
 65
     0
110
0.0
120
0.0
130
0.0
111
1.0
121
0.0
131
0.0
112
0.0
122
1.0
132
0.0
 79
     0
146
0.0
  0
ENDTAB
  0
TABLE
  2
LTYPE
  5
12D5
330
0
100
AcDbSymbolTable
 70
    20
  0
LTYPE
  5
12E2
330
12D5
100
AcDbSymbolTableRecord
100
AcDbLinetypeTableRecord
  2
BYBLOCK
 70
     0
  3

 72
    65
 73
     0
 40
0.0
  0
LTYPE
  5
12E3
330
12D5
100
AcDbSymbolTableRecord
100
AcDbLinetypeTableRecord
  2
BYLAYER
 70
     0
  3

 72
    65
 73
     0
 40
0.0
  0
LTYPE
  5
12E4
330
12D5
100
AcDbSymbolTableRecord
100
AcDbLinetypeTableRecord
  2
CONTINUOUS
 70
     0
  3
Solid line
 72
    65
 73
     0
 40
0.0
  0
LTYPE
  5
12F3
330
12D5
100
AcDbSymbolTableRecord
100
AcDbLinetypeTableRecord
  2
GEN7
 70
     0
  3
____ _ ____ _ ____ _ ____ _ ____ _ ____ _ ____ _ ____ _ ____ _
 72
    65
 73
     4
 40
22.0
 49
10.75
 74
     0
 49
-3.75
 74
     0
 49
3.75
 74
     0
 49
-3.75
 74
     0
  0
LTYPE
  5
14C8
330
12D5
100
AcDbSymbolTableRecord
100
AcDbLinetypeTableRecord
  2
HIDDEN
 70
     0
  3
Verdeckt
 72
    65
 73
     2
 40
9.525
 49
6.349999999999999
 74
     0
 49
-3.174999999999999
 74
     0
  0
LTYPE
  5
14C9
330
12D5
100
AcDbSymbolTableRecord
100
AcDbLinetypeTableRecord
  2
PHANTOM2
 70
     0
  3
Phantom (.5x) ___ _ _ ___ _ _ ___ _ _ ___ _ _
 72
    65
 73
     6
 40
31.75
 49
15.875
 74
     0
 49
-3.174999999999999
 74
     0
 49
3.174999999999999
 74
     0
 49
-3.174999999999999
 74
     0
 49
3.174999999999999
 74
     0
 49
-3.174999999999999
 74
     0
  0
LTYPE
  5
14CA
330
12D5
100
AcDbSymbolTableRecord
100
AcDbLinetypeTableRecord
  2
CENTER
 70
     0
  3
Mitte ____ _ ____ _ ____ _ ____ _ ____ _ ____
 72
    65
 73
     4
 40
50.8
 49
31.75
 74
     0
 49
-6.349999999999999
 74
     0
 49
6.349999999999999
 74
     0
 49
-6.349999999999999
 74
     0
  0
LTYPE
  5
1501
330
12D5
100
AcDbSymbolTableRecord
100
AcDbLinetypeTableRecord
  2
Amconstr
 70
     0
  3
_______________________
 72
    65
 73
     2
 40
9999.0
 49
9999.0
 74
     0
 49
0.0
 74
     0
  0
LTYPE
  5
1506
330
12D5
100
AcDbSymbolTableRecord
100
AcDbLinetypeTableRecord
  2
Amzigzag
 70
     0
  3
/\/-/\/-/\/-/\/-/\/-/\/
 72
    65
 73
     2
 40
11.0001
 49
0.0001
 74
     4
 75
   136
340
1505
 46
0.04
 50
0.0
 44
0.0
 45
0.0
 49
-11.0
 74
     0
  0
LTYPE
  5
1507
330
12D5
100
AcDbSymbolTableRecord
100
AcDbLinetypeTableRecord
  2
AM_DIN_F_W050
 70
     0
  3
__ __ __ __ __ __ __ __ __ __ __ __ __ __ __
 72
    65
 73
     2
 40
6.25
 49
4.75
 74
     0
 49
-1.5
 74
     0
  0
LTYPE
  5
1508
330
12D5
100
AcDbSymbolTableRecord
100
AcDbLinetypeTableRecord
  2
AM_DIN_G_W050
 70
     0
  3
____ . ____ . ____ . ____ . ____ . ____ . ____
 72
    65
 73
     4
 40
13.75
 49
9.75
 74
     0
 49
-1.5
 74
     0
 49
1.0
 74
     0
 49
-1.5
 74
     0
  0
LTYPE
  5
1509
330
12D5
100
AcDbSymbolTableRecord
100
AcDbLinetypeTableRecord
  2
AM_DIN_K_W050
 70
     0
  3
_____ . . _____ . . _____ . . ____ .. ____
 72
    65
 73
     6
 40
16.25
 49
9.75
 74
     0
 49
-1.5
 74
     0
 49
1.0
 74
     0
 49
-1.5
 74
     0
 49
1.0
 74
     0
 49
-1.5
 74
     0
  0
LTYPE
  5
150A
330
12D5
100
AcDbSymbolTableRecord
100
AcDbLinetypeTableRecord
  2
AM_DIN_G_W050x2
 70
     0
  3
__ . __ . __ . __ . __ . __
 72
    65
 73
     4
 40
6.875
 49
4.75
 74
     0
 49
-0.875
 74
     0
 49
0.375
 74
     0
 49
-0.875
 74
     0
  0
LTYPE
  5
150B
330
12D5
100
AcDbSymbolTableRecord
100
AcDbLinetypeTableRecord
  2
AM_DIN_F_W050x2
 70
     0
  3
 _ _ _ _ _ _ _ _ _ _ _ _
 72
    65
 73
     2
 40
3.125
 49
2.25
 74
     0
 49
-0.875
 74
     0
  0
LTYPE
  5
151A
330
12D5
100
AcDbSymbolTableRecord
100
AcDbLinetypeTableRecord
  2
ACDINWELD
 70
     0
  3
_ _ _ _ _
 72
    65
 73
     2
 40
2.0
 49
2.0
 74
     0
 49
-1.0
 74
     0
  0
LTYPE
  5
151B
330
12D5
100
AcDbSymbolTableRecord
100
AcDbLinetypeTableRecord
  2
ACDINTGB
 70
     0
  3
__ . . __ . .
 72
    65
 73
     6
 40
9.0
 49
4.0
 74
     0
 49
-1.0
 74
     0
 49
1.0
 74
     0
 49
-1.0
 74
     0
 49
1.0
 74
     0
 49
-1.0
 74
     0
  0
LTYPE
  5
151C
330
12D5
100
AcDbSymbolTableRecord
100
AcDbLinetypeTableRecord
  2
ACDINTGL
 70
     0
  3
_ _ _ _ _
 72
    65
 73
     2
 40
3.0
 49
2.0
 74
     0
 49
-1.0
 74
     0
  0
ENDTAB
  0
TABLE
  2
LAYER
  5
12D2
330
0
100
AcDbSymbolTable
 70
    13
  0
LAYER
  5
12DE
330
12D2
100
AcDbSymbolTableRecord
100
AcDbLayerTableRecord
  2
0
 70
     0
 62
     7
  6
CONTINUOUS
370
    -3
390
148C
  0
LAYER
  5
12F9
330
12D2
100
AcDbSymbolTableRecord
100
AcDbLayerTableRecord
  2
4
 70
     0
 62
     3
  6
CONTINUOUS
370
    -3
390
148C
  0
LAYER
  5
12FB
330
12D2
100
AcDbSymbolTableRecord
100
AcDbLayerTableRecord
  2
5
 70
     0
 62
     3
  6
CONTINUOUS
370
    -3
390
148C
  0
LAYER
  5
12FD
330
12D2
100
AcDbSymbolTableRecord
100
AcDbLayerTableRecord
  2
7
 70
     0
 62
     4
  6
GEN7
370
    -3
390
148C
  0
LAYER
  5
12FE
330
12D2
100
AcDbSymbolTableRecord
100
AcDbLayerTableRecord
  2
8
 70
     0
 62
     1
  6
CONTINUOUS
370
    -3
390
148C
  0
LAYER
  5
12FF
330
12D2
100
AcDbSymbolTableRecord
100
AcDbLayerTableRecord
  2
SCHRAFFUR_RAND
 70
     1
 62
    36
  6
CONTINUOUS
370
    -3
390
148C
  0
LAYER
  5
1313
330
12D2
100
AcDbSymbolTableRecord
100
AcDbLayerTableRecord
  2
MAßLINIEN
 70
     0
 62
    30
  6
GEN7
370
    -3
390
148C
  0
LAYER
  5
132D
330
12D2
100
AcDbSymbolTableRecord
100
AcDbLayerTableRecord
  2
DEFPOINTS
 70
     0
 62
     7
  6
CONTINUOUS
290
     0
370
    -3
390
148C
  0
ENDTAB
  0
TABLE
  2
STYLE
  5
12D3
330
0
100
AcDbSymbolTable
 70
     4
  0
STYLE
  5
12DF
330
12D3
100
AcDbSymbolTableRecord
100
AcDbTextStyleTableRecord
  2
STANDARD
 70
     0
 40
0.0
 41
1.0
 50
0.0
 71
     0
 42
10.0
  3
ISOCP.SHX
  4

  0
STYLE
  5
1505
330
12D3
100
AcDbSymbolTableRecord
100
AcDbTextStyleTableRecord
  2

 70
     1
 40
0.0
 41
1.0
 50
0.0
 71
     0
 42
0.2
  3
genltshp.shx
  4

  0
STYLE
  5
150C
330
12D3
100
AcDbSymbolTableRecord
100
AcDbTextStyleTableRecord
  2
ACDINTS
 70
     0
 40
1.0
 41
1.0
 50
0.0
 71
     0
 42
0.2
  3
isocp.shx
  4

  0
STYLE
  5
1519
330
12D3
100
AcDbSymbolTableRecord
100
AcDbTextStyleTableRecord
  2
ACDINGDT
 70
     0
 40
0.0
 41
1.0
 50
0.0
 71
     0
 42
0.2
  3
AMGDT
  4

  0
ENDTAB
  0
TABLE
  2
VIEW
  5
12D6
330
0
100
AcDbSymbolTable
 70
     6
  0
VIEW
  5
1370
330
12D6
100
AcDbSymbolTableRecord
100
AcDbViewTableRecord
  2
GEN1
 70
     0
 40
525.0
 10
403.491903
 20
787.5
 41
806.983806
 11
0.0
 21
0.0
 31
1.0
 12
0.0
 22
0.0
 32
0.0
 42
50.0
 43
0.0
 44
0.0
 50
0.0
 71
     0
281
     0
 72
     0
  0
VIEW
  5
1371
330
12D6
100
AcDbSymbolTableRecord
100
AcDbViewTableRecord
  2
GEN2
 70
     0
 40
525.0
 10
646.508097
 20
787.5
 41
806.983806
 11
0.0
 21
0.0
 31
1.0
 12
0.0
 22
0.0
 32
0.0
 42
50.0
 43
0.0
 44
0.0
 50
0.0
 71
     0
281
     0
 72
     0
  0
VIEW
  5
1372
330
12D6
100
AcDbSymbolTableRecord
100
AcDbViewTableRecord
  2
GEN3
 70
     0
 40
525.0
 10
403.491903
 20
262.5
 41
806.983806
 11
0.0
 21
0.0
 31
1.0
 12
0.0
 22
0.0
 32
0.0
 42
50.0
 43
0.0
 44
0.0
 50
0.0
 71
     0
281
     0
 72
     0
  0
VIEW
  5
1373
330
12D6
100
AcDbSymbolTableRecord
100
AcDbViewTableRecord
  2
GEN4
 70
     0
 40
525.0
 10
646.508097
 20
262.5
 41
806.983806
 11
0.0
 21
0.0
 31
1.0
 12
0.0
 22
0.0
 32
0.0
 42
50.0
 43
0.0
 44
0.0
 50
0.0
 71
     0
281
     0
 72
     0
  0
VIEW
  5
1374
330
12D6
100
AcDbSymbolTableRecord
100
AcDbViewTableRecord
  2
GEN5
 70
     0
 40
525.0
 10
525.0
 20
525.0
 41
806.983806
 11
0.0
 21
0.0
 31
1.0
 12
0.0
 22
0.0
 32
0.0
 42
50.0
 43
0.0
 44
0.0
 50
0.0
 71
     0
281
     0
 72
     0
  0
VIEW
  5
1375
330
12D6
100
AcDbSymbolTableRecord
100
AcDbViewTableRecord
  2
GEN6
 70
     0
 40
1049.9895
 10
525.0
 20
525.0
 41
1613.951472
 11
0.0
 21
0.0
 31
1.0
 12
0.0
 22
0.0
 32
0.0
 42
50.0
 43
0.0
 44
0.0
 50
0.0
 71
     0
281
     0
 72
     0
  0
ENDTAB
  0
TABLE
  2
UCS
  5
12D7
330
0
100
AcDbSymbolTable
 70
     0
  0
ENDTAB
  0
TABLE
  2
APPID
  5
12D9
330
0
100
AcDbSymbolTable
 70
    36
  0
APPID
  5
12E0
330
12D9
100
AcDbSymbolTableRecord
100
AcDbRegAppTableRecord
  2
ACAD
 70
     0
  0
APPID
  5
133E
330
12D9
100
AcDbSymbolTableRecord
100
AcDbRegAppTableRecord
  2
GENIUS_GENCFG_13
 70
     0
1001
GENIUS_DUMCFG0_13
1000
DUM
1001
GENIUS_GENCFG0_13
1000
GEN@INFO_POS@XLATE
1001
GENIUS_GENCFG1_13
1000
GEN@INFO_POS
1001
GENIUS_GENCFG2_13
1000
GEN@LAYER@DEFS
1001
GENIUS_GENCFG3_13
1000
GEN@LAYER@ENTSORT
1001
GENIUS_GENCFG4_13
1000
GEN
1001
GENIUS_GEVCFG0_13
1000
GEV
  0
APPID
  5
133F
330
12D9
100
AcDbSymbolTableRecord
100
AcDbRegAppTableRecord
  2
GENIUS_DUMCFG0_13
 70
     0
1001
GENIUS_GENCFG_13
1071
925195446
1000
133F
1000
DUM
1070
     0
  0
APPID
  5
1340
330
12D9
100
AcDbSymbolTableRecord
100
AcDbRegAppTableRecord
  2
GENIUS_GENCFG0_13
 70
     0
1001
GENIUS_GENCFG_13
1071
1022849278
1000
1340
1000
GEN@INFO_POS@XLATE
1070
     7
1000
GenCfgObject
1000
GenCfgShort
1000
GenCfgReal
1000
GenCfgBool
1000
GenCfgString
1000
GenCfgDim
1000
GenCfgAttrInf
1000
INFOPOINTS
1070
     0
1002
{
1000
GENINF14
1070
     0
1002
{
1000
2GENINF
1070
     4
1000
2
1002
{
1002
}
1000
5GENINF
1070
     4
1000
5
1002
{
1002
}
1000
7GENINF
1070
     4
1000
7
1002
{
1002
}
1000
9GENINF
1070
     4
1000
9
1002
{
1002
}
1000
11GENINF
1070
     4
1000
11
1002
{
1002
}
1000
14GENINF
1070
     4
1000
14
1002
{
1002
}
1002
}
1000
GENINF13
1070
     0
1002
{
1000
2GENINF
1070
     4
1000
2
1002
{
1002
}
1000
3GENINF
1070
     4
1000
3
1002
{
1002
}
1000
4GENINF
1070
     4
1000
4
1002
{
1002
}
1000
5GENINF
1070
     4
1000
5
1002
{
1002
}
1000
6GENINF
1070
     4
1000
6
1002
{
1002
}
1000
7GENINF
1070
     4
1000
7
1002
{
1002
}
1000
8GENINF
1070
     4
1000
8
1002
{
1002
}
1000
9GENINF
1070
     4
1000
9
1002
{
1002
}
1000
10GENINF
1070
     4
1000
10
1002
{
1002
}
1000
11GENINF
1070
     4
1000
11
1002
{
1002
}
1000
12GENINF
1070
     4
1000
12
1002
{
1002
}
1000
13GENINF
1070
     4
1000
13
1002
{
1002
}
1000
14GENINF
1070
     4
1000
14
1002
{
1002
}
1000
15GENINF
1070
     4
1000
15
1002
{
1002
}
1000
16GENINF
1070
     4
1000
16
1002
{
1002
}
1000
17GENINF
1070
     4
1000
17
1002
{
1002
}
1000
18GENINF
1070
     4
1000
18
1002
{
1002
}
1000
19GENINF
1070
     4
1000
19
1002
{
1002
}
1000
20GENINF
1070
     4
1000
20
1002
{
1002
}
1000
21GENINF
1070
     4
1000
21
1002
{
1002
}
1000
22GENINF
1070
     4
1000
22
1002
{
1002
}
1000
23GENINF
1070
     4
1000
23
1002
{
1002
}
1000
24GENINF
1070
     4
1000
24
1002
{
1002
}
1000
0GENINF
1070
     4
1000
0
1002
{
1002
}
1002
}
1000
GENINFO
1070
     0
1002
{
1000
3GENINF
1070
     4
1000
3
1002
{
1002
}
1000
4GENINF
1070
     4
1000
4
1002
{
1002
}
1000
5GENINF
1070
     4
1000
5
1002
{
1002
}
1000
6GENINF
1070
     4
1000
6
1002
{
1002
}
1000
7GENINF
1070
     4
1000
7
1002
{
1002
}
1000
8GENINF
1070
     4
1000
8
1002
{
1002
}
1000
9GENINF
1070
     4
1000
9
1002
{
1002
}
1000
10GENINF
1070
     4
1000
10
1002
{
1002
}
1000
11GENINF
1070
     4
1000
11
1002
{
1002
}
1000
12GENINF
1070
     4
1000
12
1002
{
1002
}
1000
13GENINF
1070
     4
1000
13
1002
{
1002
}
1000
14GENINF
1070
     4
1000
14
1002
{
1002
}
1000
15GENINF
1070
     4
1000
15
1002
{
1002
}
1000
16GENINF
1070
     4
1000
16
1002
{
1002
}
1000
17GENINF
1070
     4
1000
17
1002
{
1002
}
1000
18GENINF
1070
     4
1000
18
1002
{
1002
}
1000
19GENINF
1070
     4
1000
19
1002
{
1002
}
1000
20GENINF
1070
     4
1000
20
1002
{
1002
}
1000
21GENINF
1070
     4
1000
21
1002
{
1002
}
1000
22GENINF
1070
     4
1000
22
1002
{
1002
}
1002
}
1000
DININFO
1070
     0
1002
{
1000
ST-NAME1
1070
     4
1000
5
1002
{
1002
}
1000
ST-NAME2
1070
     4
1000
6
1002
{
1002
}
1000
ST-NORM1
1070
     4
1000
7
1002
{
1002
}
1000
ST-NORM2
1070
     4
1000
8
1002
{
1002
}
1000
ST-MAT1
1070
     4
1000
9
1002
{
1002
}
1000
ST-MAT2
1070
     4
1000
10
1002
{
1002
}
1002
}
1002
}
1000
POS_NUMBERS
1070
     0
1002
{
1000
GENPOS14
1070
     0
1002
{
1000
1GENPOS
1070
     4
1000
1
1002
{
1002
}
1000
2GENPOS
1070
     4
1000
2
1002
{
1002
}
1000
5GENPOS
1070
     4
1000
5
1002
{
1002
}
1000
7GENPOS
1070
     4
1000
7
1002
{
1002
}
1000
9GENPOS
1070
     4
1000
9
1002
{
1002
}
1000
11GENPOS
1070
     4
1000
11
1002
{
1002
}
1000
14GENPOS
1070
     4
1000
14
1002
{
1002
}
1002
}
1000
GENPOS13
1070
     0
1002
{
1000
1GENPOS
1070
     4
1000
1
1002
{
1002
}
1000
2GENPOS
1070
     4
1000
2
1002
{
1002
}
1000
3GENPOS
1070
     4
1000
3
1002
{
1002
}
1000
4GENPOS
1070
     4
1000
4
1002
{
1002
}
1000
5GENPOS
1070
     4
1000
5
1002
{
1002
}
1000
6GENPOS
1070
     4
1000
6
1002
{
1002
}
1000
7GENPOS
1070
     4
1000
7
1002
{
1002
}
1000
8GENPOS
1070
     4
1000
8
1002
{
1002
}
1000
9GENPOS
1070
     4
1000
9
1002
{
1002
}
1000
10GENPOS
1070
     4
1000
10
1002
{
1002
}
1000
11GENPOS
1070
     4
1000
11
1002
{
1002
}
1000
12GENPOS
1070
     4
1000
12
1002
{
1002
}
1000
13GENPOS
1070
     4
1000
13
1002
{
1002
}
1000
14GENPOS
1070
     4
1000
14
1002
{
1002
}
1000
15GENPOS
1070
     4
1000
15
1002
{
1002
}
1000
16GENPOS
1070
     4
1000
16
1002
{
1002
}
1000
17GENPOS
1070
     4
1000
17
1002
{
1002
}
1000
18GENPOS
1070
     4
1000
18
1002
{
1002
}
1000
19GENPOS
1070
     4
1000
19
1002
{
1002
}
1000
20GENPOS
1070
     4
1000
20
1002
{
1002
}
1000
21GENPOS
1070
     4
1000
21
1002
{
1002
}
1000
22GENPOS
1070
     4
1000
22
1002
{
1002
}
1000
23GENPOS
1070
     4
1000
23
1002
{
1002
}
1000
24GENPOS
1070
     4
1000
24
1002
{
1002
}
1000
0GENPOS
1070
     4
1000
0
1002
{
1002
}
1002
}
1000
GENPOS
1070
     0
1002
{
1000
1GENPOS
1070
     4
1000
1
1002
{
1002
}
1000
2GENPOS
1070
     4
1000
2
1002
{
1002
}
1000
3GENPOS
1070
     4
1000
3
1002
{
1002
}
1000
4GENPOS
1070
     4
1000
4
1002
{
1002
}
1000
5GENPOS
1070
     4
1000
5
1002
{
1002
}
1000
6GENPOS
1070
     4
1000
6
1002
{
1002
}
1000
7GENPOS
1070
     4
1000
7
1002
{
1002
}
1000
8GENPOS
1070
     4
1000
8
1002
{
1002
}
1000
9GENPOS
1070
     4
1000
9
1002
{
1002
}
1000
10GENPOS
1070
     4
1000
10
1002
{
1002
}
1000
11GENPOS
1070
     4
1000
11
1002
{
1002
}
1000
12GENPOS
1070
     4
1000
12
1002
{
1002
}
1000
13GENPOS
1070
     4
1000
13
1002
{
1002
}
1000
14GENPOS
1070
     4
1000
14
1002
{
1002
}
1000
15GENPOS
1070
     4
1000
15
1002
{
1002
}
1000
16GENPOS
1070
     4
1000
16
1002
{
1002
}
1000
17GENPOS
1070
     4
1000
17
1002
{
1002
}
1000
18GENPOS
1070
     4
1000
18
1002
{
1002
}
1000
19GENPOS
1070
     4
1000
19
1002
{
1002
}
1000
20GENPOS
1070
     4
1000
20
1002
{
1002
}
1000
21GENPOS
1070
     4
1000
21
1002
{
1002
}
1000
22GENPOS
1070
     4
1000
22
1002
{
1002
}
1000
23GENPOS
1070
     4
1000
23
1002
{
1002
}
1002
}
1000
DIN985
1070
     0
1002
{
1000
POSITION
1070
     4
1000
1
1002
{
1002
}
1000
MENGE
1070
     4
1000
2
1002
{
1002
}
1000
BLATT
1070
     4
1000
3
1002
{
1002
}
1000
BENENN
1070
     4
1000
5
1002
{
1002
}
1000
BENENN2
1070
     4
1000
6
1002
{
1002
}
1000
NORM
1070
     4
1000
7
1002
{
1002
}
1000
NORM2
1070
     4
1000
8
1002
{
1002
}
1000
WERKSTOFF
1070
     4
1000
9
1002
{
1002
}
1000
WERKSTOFF2
1070
     4
1000
10
1002
{
1002
}
1002
}
1000
DIN986
1070
     0
1002
{
1000
POSITION
1070
     4
1000
1
1002
{
1002
}
1000
MENGE
1070
     4
1000
2
1002
{
1002
}
1000
BLATT
1070
     4
1000
3
1002
{
1002
}
1000
BENENN
1070
     4
1000
5
1002
{
1002
}
1000
BENENN2
1070
     4
1000
6
1002
{
1002
}
1000
NORM
1070
     4
1000
7
1002
{
1002
}
1000
NORM2
1070
     4
1000
8
1002
{
1002
}
1000
WERKSTOFF
1070
     4
1000
9
1002
{
1002
}
1000
WERKSTOFF2
1070
     4
1000
10
1002
{
1002
}
1002
}
1000
DIN987
1070
     0
1002
{
1000
POSITION
1070
     4
1000
1
1002
{
1002
}
1000
MENGE
1070
     4
1000
2
1002
{
1002
}
1000
BLATT
1070
     4
1000
3
1002
{
1002
}
1000
BENENN
1070
     4
1000
5
1002
{
1002
}
1000
BENENN2
1070
     4
1000
6
1002
{
1002
}
1000
NORM
1070
     4
1000
7
1002
{
1002
}
1000
NORM2
1070
     4
1000
8
1002
{
1002
}
1000
WERKSTOFF
1070
     4
1000
9
1002
{
1002
}
1000
WERKSTOFF2
1070
     4
1000
10
1002
{
1002
}
1002
}
1002
}
  0
APPID
  5
1341
330
12D9
100
AcDbSymbolTableRecord
100
AcDbRegAppTableRecord
  2
GENIUS_GENCFG1_13
 70
     0
1001
GENIUS_GENCFG_13
1071
1022849278
1000
1341
1000
GEN@INFO_POS
1070
     7
1000
GenCfgObject
1000
GenCfgShort
1000
GenCfgReal
1000
GenCfgBool
1000
GenCfgString
1000
GenCfgDim
1000
GenCfgAttrInf
1000
DescrText
1070
     4
1000
5, ,6, ,7, ,8
1002
{
1002
}
1000
DescrText2
1070
     4
1000
26
1002
{
1002
}
1000
VisibleAttr1
1070
     4
1000
1
1002
{
1002
}
1000
VisibleAttr2
1070
     4
1000
26
1002
{
1002
}
1000
UpdateBlock
1070
     3
1070
     1
1002
{
1002
}
1000
Attrib
1070
     0
1002
{
1000
0
1070
     6
1002
{
1000
Prompt
1070
     4
1000
(genmsg gendwg 103)
1002
{
1002
}
1000
Value
1070
     4
1000

1002
{
1002
}
1000
EditFlag
1070
     1
1070
     0
1002
{
1002
}
1000
PosInDDATTE
1070
     1
1070
    27
1002
{
1002
}
1000
FieldLen
1070
     1
1070
    -1
1002
{
1002
}
1002
}
1000
1
1070
     6
1002
{
1000
Prompt
1070
     4
1000
(genmsg gendwg 31)
1002
{
1002
}
1000
Value
1070
     4
1000
1
1002
{
1002
}
1000
EditFlag
1070
     1
1070
     1
1002
{
1002
}
1000
PosInDDATTE
1070
     1
1070
     1
1002
{
1002
}
1000
FieldLen
1070
     1
1070
    -1
1002
{
1002
}
1002
}
1000
2
1070
     6
1002
{
1000
Prompt
1070
     4
1000
(genmsg gendwg 32)
1002
{
1002
}
1000
Value
1070
     4
1000
1
1002
{
1002
}
1000
EditFlag
1070
     1
1070
     1
1002
{
1002
}
1000
PosInDDATTE
1070
     1
1070
     2
1002
{
1002
}
1000
FieldLen
1070
     1
1070
    -1
1002
{
1002
}
1002
}
1000
3
1070
     6
1002
{
1000
Prompt
1070
     4
1000
(genmsg gendwg 33)
1002
{
1002
}
1000
Value
1070
     4
1000

1002
{
1002
}
1000
EditFlag
1070
     1
1070
     1
1002
{
1002
}
1000
PosInDDATTE
1070
     1
1070
     3
1002
{
1002
}
1000
FieldLen
1070
     1
1070
    -1
1002
{
1002
}
1002
}
1000
4
1070
     6
1002
{
1000
Prompt
1070
     4
1000
(genmsg gendwg 34)
1002
{
1002
}
1000
Value
1070
     4
1000

1002
{
1002
}
1000
EditFlag
1070
     1
1070
     1
1002
{
1002
}
1000
PosInDDATTE
1070
     1
1070
     4
1002
{
1002
}
1000
FieldLen
1070
     1
1070
    -1
1002
{
1002
}
1002
}
1000
5
1070
     6
1002
{
1000
Prompt
1070
     4
1000
(genmsg gendwg 35)
1002
{
1002
}
1000
Value
1070
     4
1000

1002
{
1002
}
1000
EditFlag
1070
     1
1070
     1
1002
{
1002
}
1000
PosInDDATTE
1070
     1
1070
     5
1002
{
1002
}
1000
FieldLen
1070
     1
1070
    -1
1002
{
1002
}
1002
}
1000
6
1070
     6
1002
{
1000
Prompt
1070
     4
1000
(genmsg gendwg 36)
1002
{
1002
}
1000
Value
1070
     4
1000

1002
{
1002
}
1000
EditFlag
1070
     1
1070
     1
1002
{
1002
}
1000
PosInDDATTE
1070
     1
1070
     6
1002
{
1002
}
1000
FieldLen
1070
     1
1070
    -1
1002
{
1002
}
1002
}
1000
7
1070
     6
1002
{
1000
Prompt
1070
     4
1000
(genmsg gendwg 37)
1002
{
1002
}
1000
Value
1070
     4
1000

1002
{
1002
}
1000
EditFlag
1070
     1
1070
     1
1002
{
1002
}
1000
PosInDDATTE
1070
     1
1070
     7
1002
{
1002
}
1000
FieldLen
1070
     1
1070
    -1
1002
{
1002
}
1002
}
1000
8
1070
     6
1002
{
1000
Prompt
1070
     4
1000
(genmsg gendwg 38)
1002
{
1002
}
1000
Value
1070
     4
1000

1002
{
1002
}
1000
EditFlag
1070
     1
1070
     1
1002
{
1002
}
1000
PosInDDATTE
1070
     1
1070
     8
1002
{
1002
}
1000
FieldLen
1070
     1
1070
    -1
1002
{
1002
}
1002
}
1000
9
1070
     6
1002
{
1000
Prompt
1070
     4
1000
(genmsg gendwg 39)
1002
{
1002
}
1000
Value
1070
     4
1000

1002
{
1002
}
1000
EditFlag
1070
     1
1070
     1
1002
{
1002
}
1000
PosInDDATTE
1070
     1
1070
     9
1002
{
1002
}
1000
FieldLen
1070
     1
1070
    -1
1002
{
1002
}
1002
}
1000
10
1070
     6
1002
{
1000
Prompt
1070
     4
1000
(genmsg gendwg 40)
1002
{
1002
}
1000
Value
1070
     4
1000

1002
{
1002
}
1000
EditFlag
1070
     1
1070
     1
1002
{
1002
}
1000
PosInDDATTE
1070
     1
1070
    10
1002
{
1002
}
1000
FieldLen
1070
     1
1070
    -1
1002
{
1002
}
1002
}
1000
11
1070
     6
1002
{
1000
Prompt
1070
     4
1000
(genmsg gendwg 41)
1002
{
1002
}
1000
Value
1070
     4
1000

1002
{
1002
}
1000
EditFlag
1070
     1
1070
     1
1002
{
1002
}
1000
PosInDDATTE
1070
     1
1070
    11
1002
{
1002
}
1000
FieldLen
1070
     1
1070
    -1
1002
{
1002
}
1002
}
1000
12
1070
     6
1002
{
1000
Prompt
1070
     4
1000
(genmsg gendwg 42)
1002
{
1002
}
1000
Value
1070
     4
1000

1002
{
1002
}
1000
EditFlag
1070
     1
1070
     1
1002
{
1002
}
1000
PosInDDATTE
1070
     1
1070
    12
1002
{
1002
}
1000
FieldLen
1070
     1
1070
    -1
1002
{
1002
}
1002
}
1000
13
1070
     6
1002
{
1000
Prompt
1070
     4
1000
(genmsg gendwg 43)
1002
{
1002
}
1000
Value
1070
     4
1000

1002
{
1002
}
1000
EditFlag
1070
     1
1070
     1
1002
{
1002
}
1000
PosInDDATTE
1070
     1
1070
    13
1002
{
1002
}
1000
FieldLen
1070
     1
1070
    -1
1002
{
1002
}
1002
}
1000
14
1070
     6
1002
{
1000
Prompt
1070
     4
1000
(genmsg gendwg 44)
1002
{
1002
}
1000
Value
1070
     4
1000

1002
{
1002
}
1000
EditFlag
1070
     1
1070
     1
1002
{
1002
}
1000
PosInDDATTE
1070
     1
1070
    14
1002
{
1002
}
1000
FieldLen
1070
     1
1070
    -1
1002
{
1002
}
1002
}
1000
15
1070
     6
1002
{
1000
Prompt
1070
     4
1000
(genmsg gendwg 45)
1002
{
1002
}
1000
Value
1070
     4
1000

1002
{
1002
}
1000
EditFlag
1070
     1
1070
     1
1002
{
1002
}
1000
PosInDDATTE
1070
     1
1070
    15
1002
{
1002
}
1000
FieldLen
1070
     1
1070
    -1
1002
{
1002
}
1002
}
1000
16
1070
     6
1002
{
1000
Prompt
1070
     4
1000
(genmsg gendwg 46)
1002
{
1002
}
1000
Value
1070
     4
1000

1002
{
1002
}
1000
EditFlag
1070
     1
1070
     1
1002
{
1002
}
1000
PosInDDATTE
1070
     1
1070
    16
1002
{
1002
}
1000
FieldLen
1070
     1
1070
    -1
1002
{
1002
}
1002
}
1000
17
1070
     6
1002
{
1000
Prompt
1070
     4
1000
(genmsg gendwg 47)
1002
{
1002
}
1000
Value
1070
     4
1000

1002
{
1002
}
1000
EditFlag
1070
     1
1070
     1
1002
{
1002
}
1000
PosInDDATTE
1070
     1
1070
    17
1002
{
1002
}
1000
FieldLen
1070
     1
1070
    -1
1002
{
1002
}
1002
}
1000
18
1070
     6
1002
{
1000
Prompt
1070
     4
1000
(genmsg gendwg 48)
1002
{
1002
}
1000
Value
1070
     4
1000

1002
{
1002
}
1000
EditFlag
1070
     1
1070
     1
1002
{
1002
}
1000
PosInDDATTE
1070
     1
1070
    18
1002
{
1002
}
1000
FieldLen
1070
     1
1070
    -1
1002
{
1002
}
1002
}
1000
19
1070
     6
1002
{
1000
Prompt
1070
     4
1000
(genmsg gendwg 99)
1002
{
1002
}
1000
Value
1070
     4
1000

1002
{
1002
}
1000
EditFlag
1070
     1
1070
     1
1002
{
1002
}
1000
PosInDDATTE
1070
     1
1070
    19
1002
{
1002
}
1000
FieldLen
1070
     1
1070
    -1
1002
{
1002
}
1002
}
1000
20
1070
     6
1002
{
1000
Prompt
1070
     4
1000
(genmsg gendwg 100)
1002
{
1002
}
1000
Value
1070
     4
1000

1002
{
1002
}
1000
EditFlag
1070
     1
1070
     1
1002
{
1002
}
1000
PosInDDATTE
1070
     1
1070
    20
1002
{
1002
}
1000
FieldLen
1070
     1
1070
    -1
1002
{
1002
}
1002
}
1000
21
1070
     6
1002
{
1000
Prompt
1070
     4
1000
(genmsg gendwg 101)
1002
{
1002
}
1000
Value
1070
     4
1000

1002
{
1002
}
1000
EditFlag
1070
     1
1070
     1
1002
{
1002
}
1000
PosInDDATTE
1070
     1
1070
    21
1002
{
1002
}
1000
FieldLen
1070
     1
1070
    -1
1002
{
1002
}
1002
}
1000
22
1070
     6
1002
{
1000
Prompt
1070
     4
1000
(genmsg gendwg 102)
1002
{
1002
}
1000
Value
1070
     4
1000

1002
{
1002
}
1000
EditFlag
1070
     1
1070
     1
1002
{
1002
}
1000
PosInDDATTE
1070
     1
1070
    22
1002
{
1002
}
1000
FieldLen
1070
     1
1070
    -1
1002
{
1002
}
1002
}
1000
23
1070
     6
1002
{
1000
Prompt
1070
     4
1000
(genmsg gendwg 30)
1002
{
1002
}
1000
Value
1070
     4
1000

1002
{
1002
}
1000
EditFlag
1070
     1
1070
     1
1002
{
1002
}
1000
PosInDDATTE
1070
     1
1070
    23
1002
{
1002
}
1000
FieldLen
1070
     1
1070
    -1
1002
{
1002
}
1002
}
1000
24
1070
     6
1002
{
1000
Prompt
1070
     4
1000
(genmsg gendwg 104)
1002
{
1002
}
1000
Value
1070
     4
1000

1002
{
1002
}
1000
EditFlag
1070
     1
1070
     1
1002
{
1002
}
1000
PosInDDATTE
1070
     1
1070
    24
1002
{
1002
}
1000
FieldLen
1070
     1
1070
    -1
1002
{
1002
}
1002
}
1000
25
1070
     6
1002
{
1000
Prompt
1070
     4
1000
(genmsg gendwg 105)
1002
{
1002
}
1000
Value
1070
     4
1000

1002
{
1002
}
1000
EditFlag
1070
     1
1070
     1
1002
{
1002
}
1000
PosInDDATTE
1070
     1
1070
    25
1002
{
1002
}
1000
FieldLen
1070
     1
1070
    -1
1002
{
1002
}
1002
}
1000
26
1070
     6
1002
{
1000
Prompt
1070
     4
1000
(genmsg gendwg 106)
1002
{
1002
}
1000
Value
1070
     4
1000

1002
{
1002
}
1000
EditFlag
1070
     1
1070
     1
1002
{
1002
}
1000
PosInDDATTE
1070
     1
1070
    26
1002
{
1002
}
1000
FieldLen
1070
     1
1070
    -1
1002
{
1002
}
1002
}
1000
27
1070
     6
1002
{
1000
Prompt
1070
     4
1000
(genmsg gendwg 109)
1002
{
1002
}
1000
Value
1070
     4
1000

1002
{
1002
}
1000
EditFlag
1070
     1
1070
     2
1002
{
1002
}
1000
PosInDDATTE
1070
     1
1070
    27
1002
{
1002
}
1000
FieldLen
1070
     1
1070
    -1
1002
{
1002
}
1002
}
1002
}
1000
Xlate
1070
     0
1002
{
1000
>
1002
}
  0
APPID
  5
1342
330
12D9
100
AcDbSymbolTableRecord
100
AcDbRegAppTableRecord
  2
GENIUS_GENCFG2_13
 70
     0
1001
GENIUS_GENCFG_13
1071
1022849278
1000
1342
1000
GEN@LAYER@DEFS
1070
     9
1000
GenCfgObject
1000
GenCfgShort
1000
GenCfgReal
1000
GenCfgBool
1000
GenCfgString
1000
GenCfgDim
1000
GenCfgAttrInf
1000
GenCfgLaySection
1000
GenCfgLayer
1000
Basic
1070
     0
1002
{
1000
0
1070
     8
1000
0
1002
{
1000
Color
1070
     1
1070
     7
1002
{
1002
}
1000
LType
1070
     4
1000
CONTINUOUS
1002
{
1002
}
1000
Base
1070
     3
1070
     0
1002
{
1002
}
1002
}
1000
1
1070
     8
1000
1
1002
{
1000
Color
1070
     1
1070
    14
1002
{
1002
}
1000
LType
1070
     4
1000
CONTINUOUS
1002
{
1002
}
1000
Base
1070
     3
1070
     0
1002
{
1002
}
1002
}
1000
2
1070
     8
1000
2
1002
{
1000
Color
1070
     1
1070
     5
1002
{
1002
}
1000
LType
1070
     4
1000
CONTINUOUS
1002
{
1002
}
1000
Base
1070
     3
1070
     0
1002
{
1002
}
1002
}
1000
3
1070
     8
1000
3
1002
{
1000
Color
1070
     1
1070
     6
1002
{
1002
}
1000
LType
1070
     4
1000
GEN3
1002
{
1002
}
1000
Base
1070
     3
1070
     0
1002
{
1002
}
1002
}
1000
4
1070
     8
1000
4
1002
{
1000
Color
1070
     1
1070
     3
1002
{
1002
}
1000
LType
1070
     4
1000
CONTINUOUS
1002
{
1002
}
1000
Base
1070
     3
1070
     0
1002
{
1002
}
1002
}
1000
5
1070
     8
1000
5
1002
{
1000
Color
1070
     1
1070
     3
1002
{
1002
}
1000
LType
1070
     4
1000
CONTINUOUS
1002
{
1002
}
1000
Base
1070
     3
1070
     0
1002
{
1002
}
1002
}
1000
6
1070
     8
1000
6
1002
{
1000
Color
1070
     1
1070
     2
1002
{
1002
}
1000
LType
1070
     4
1000
CONTINUOUS
1002
{
1002
}
1000
Base
1070
     3
1070
     0
1002
{
1002
}
1002
}
1000
7
1070
     8
1000
7
1002
{
1000
Color
1070
     1
1070
     4
1002
{
1002
}
1000
LType
1070
     4
1000
GEN7
1002
{
1002
}
1000
Base
1070
     3
1070
     0
1002
{
1002
}
1002
}
1000
8
1070
     8
1000
8
1002
{
1000
Color
1070
     1
1070
     1
1002
{
1002
}
1000
LType
1070
     4
1000
CONTINUOUS
1002
{
1002
}
1000
Base
1070
     3
1070
     0
1002
{
1002
}
1002
}
1000
3A
1070
     8
1000
3A
1002
{
1000
Color
1070
     1
1070
     6
1002
{
1002
}
1000
LType
1070
     4
1000
GEN3A
1002
{
1002
}
1000
Base
1070
     3
1070
     0
1002
{
1002
}
1002
}
1000
7A
1070
     8
1000
7A
1002
{
1000
Color
1070
     1
1070
     4
1002
{
1002
}
1000
LType
1070
     4
1000
GEN7A
1002
{
1002
}
1000
Base
1070
     3
1070
     0
1002
{
1002
}
1002
}
1000
2A
1070
     8
1000
2A
1002
{
1000
Color
1070
     1
1070
     7
1002
{
1002
}
1000
LType
1070
     4
1000
GEN7
1002
{
1002
}
1000
Base
1070
     3
1070
     0
1002
{
1002
}
1002
}
1000
4A
1070
     8
1000
4A
1002
{
1000
Color
1070
     1
1070
     3
1002
{
1002
}
1000
LType
1070
     4
1000
GEN4A
1002
{
1002
}
1000
Base
1070
     3
1070
     0
1002
{
1002
}
1002
}
1000
9
1070
     8
1000
9
1002
{
1000
Color
1070
     1
1070
   253
1002
{
1002
}
1000
LType
1070
     4
1000
CONTINUOUS
1002
{
1002
}
1000
Base
1070
     3
1070
     0
1002
{
1002
}
1002
}
1000
IP
1070
     8
1000
IP
1002
{
1000
Color
1070
     1
1070
     7
1002
{
1002
}
1000
LType
1070
     4
1000
CONTINUOUS
1002
{
1002
}
1000
Base
1070
     3
1070
     0
1002
{
1002
}
1002
}
1002
}
1000
Standard
1070
     0
1002
{
1000
0N
1070
     8
1000
0N
1002
{
1000
Color
1070
     1
1070
     7
1002
{
1002
}
1000
LType
1070
     4
1000
CONTINUOUS
1002
{
1002
}
1000
Base
1070
     3
1070
     0
1002
{
1002
}
1002
}
1000
1N
1070
     8
1000
1N
1002
{
1000
Color
1070
     1
1070
    14
1002
{
1002
}
1000
LType
1070
     4
1000
CONTINUOUS
1002
{
1002
}
1000
Base
1070
     3
1070
     0
1002
{
1002
}
1002
}
1000
2N
1070
     8
1000
2N
1002
{
1000
Color
1070
     1
1070
     5
1002
{
1002
}
1000
LType
1070
     4
1000
CONTINUOUS
1002
{
1002
}
1000
Base
1070
     3
1070
     0
1002
{
1002
}
1002
}
1000
3N
1070
     8
1000
3N
1002
{
1000
Color
1070
     1
1070
     6
1002
{
1002
}
1000
LType
1070
     4
1000
GEN3
1002
{
1002
}
1000
Base
1070
     3
1070
     0
1002
{
1002
}
1002
}
1000
4N
1070
     8
1000
4N
1002
{
1000
Color
1070
     1
1070
     3
1002
{
1002
}
1000
LType
1070
     4
1000
CONTINUOUS
1002
{
1002
}
1000
Base
1070
     3
1070
     0
1002
{
1002
}
1002
}
1000
5N
1070
     8
1000
5N
1002
{
1000
Color
1070
     1
1070
     3
1002
{
1002
}
1000
LType
1070
     4
1000
CONTINUOUS
1002
{
1002
}
1000
Base
1070
     3
1070
     0
1002
{
1002
}
1002
}
1000
6N
1070
     8
1000
6N
1002
{
1000
Color
1070
     1
1070
     2
1002
{
1002
}
1000
LType
1070
     4
1000
CONTINUOUS
1002
{
1002
}
1000
Base
1070
     3
1070
     0
1002
{
1002
}
1002
}
1000
7N
1070
     8
1000
7N
1002
{
1000
Color
1070
     1
1070
     4
1002
{
1002
}
1000
LType
1070
     4
1000
GEN7
1002
{
1002
}
1000
Base
1070
     3
1070
     0
1002
{
1002
}
1002
}
1000
8N
1070
     8
1000
8N
1002
{
1000
Color
1070
     1
1070
     1
1002
{
1002
}
1000
LType
1070
     4
1000
CONTINUOUS
1002
{
1002
}
1000
Base
1070
     3
1070
     0
1002
{
1002
}
1002
}
1000
3AN
1070
     8
1000
3AN
1002
{
1000
Color
1070
     1
1070
     6
1002
{
1002
}
1000
LType
1070
     4
1000
GEN3A
1002
{
1002
}
1000
Base
1070
     3
1070
     0
1002
{
1002
}
1002
}
1000
7AN
1070
     8
1000
7AN
1002
{
1000
Color
1070
     1
1070
     4
1002
{
1002
}
1000
LType
1070
     4
1000
GEN7A
1002
{
1002
}
1000
Base
1070
     3
1070
     0
1002
{
1002
}
1002
}
1000
2AN
1070
     8
1000
2AN
1002
{
1000
Color
1070
     1
1070
     7
1002
{
1002
}
1000
LType
1070
     4
1000
GEN7
1002
{
1002
}
1000
Base
1070
     3
1070
     0
1002
{
1002
}
1002
}
1000
4AN
1070
     8
1000
4AN
1002
{
1000
Color
1070
     1
1070
     3
1002
{
1002
}
1000
LType
1070
     4
1000
GEN4A
1002
{
1002
}
1000
Base
1070
     3
1070
     0
1002
{
1002
}
1002
}
1000
9N
1070
     8
1000
9N
1002
{
1000
Color
1070
     1
1070
   253
1002
{
1002
}
1000
LType
1070
     4
1000
CONTINUOUS
1002
{
1002
}
1000
Base
1070
     3
1070
     0
1002
{
1002
}
1002
}
1000
IPN
1070
     8
1000
IPN
1002
{
1000
Color
1070
     1
1070
     7
1002
{
1002
}
1000
LType
1070
     4
1000
CONTINUOUS
1002
{
1002
}
1000
Base
1070
     3
1070
     0
1002
{
1002
}
1002
}
1002
}
1000
Extra
1070
     0
1002
{
1000
Klin
1070
     8
1000
KLIN
1002
{
1000
Color
1070
     1
1070
     1
1002
{
1002
}
1000
LType
1070
     4
1000
CONTINUOUS
1002
{
1002
}
1000
Base
1070
     3
1070
     1
1002
{
1002
}
1002
}
1000
Info
1070
     8
1000
INFO
1002
{
1000
Color
1070
     1
1070
     4
1002
{
1002
}
1000
LType
1070
     4
1000
CONTINUOUS
1002
{
1002
}
1000
Base
1070
     3
1070
     1
1002
{
1002
}
1002
}
1000
Rahm2
1070
     8
1000
RAHM2
1002
{
1000
Color
1070
     1
1070
     1
1002
{
1002
}
1000
LType
1070
     4
1000
CONTINUOUS
1002
{
1002
}
1000
Base
1070
     3
1070
     1
1002
{
1002
}
1002
}
1000
Rahm3
1070
     8
1000
RAHM3
1002
{
1000
Color
1070
     1
1070
     2
1002
{
1002
}
1000
LType
1070
     4
1000
CONTINUOUS
1002
{
1002
}
1000
Base
1070
     3
1070
     1
1002
{
1002
}
1002
}
1000
Rahm5
1070
     8
1000
RAHM5
1002
{
1000
Color
1070
     1
1070
     7
1002
{
1002
}
1000
LType
1070
     4
1000
CONTINUOUS
1002
{
1002
}
1000
Base
1070
     3
1070
     1
1002
{
1002
}
1002
}
1000
View
1070
     8
1000
VIEW
1002
{
1000
Color
1070
     1
1070
     1
1002
{
1002
}
1000
LType
1070
     4
1000
CONTINUOUS
1002
{
1002
}
1000
Base
1070
     3
1070
     1
1002
{
1002
}
1002
}
1000
Behind
1070
     8
1000
BEHIND
1002
{
1000
Color
1070
     1
1070
   253
1002
{
1002
}
1000
LType
1070
     4
1000
CONTINUOUS
1002
{
1002
}
1000
Base
1070
     3
1070
     1
1002
{
1002
}
1002
}
1002
}
  0
APPID
  5
1343
330
12D9
100
AcDbSymbolTableRecord
100
AcDbRegAppTableRecord
  2
GENIUS_GENCFG3_13
 70
     0
1001
GENIUS_GENCFG_13
1071
1022849278
1000
1343
1000
GEN@LAYER@ENTSORT
1070
    10
1000
GenCfgObject
1000
GenCfgShort
1000
GenCfgReal
1000
GenCfgBool
1000
GenCfgString
1000
GenCfgDim
1000
GenCfgAttrInf
1000
GenCfgLaySection
1000
GenCfgLayer
1000
GenCfgEntSort
1000
ADDL
1070
     9
1000
5
1002
{
1000
Class
1070
     4
1000
SYM
1002
{
1002
}
1000
Color
1070
     1
1070
     1
1002
{
1002
}
1000
LType
1070
     4
1000
BYLAYER
1002
{
1002
}
1002
}
1000
ALTR
1070
     9
1000
4
1002
{
1000
Class
1070
     4
1000

1002
{
1002
}
1000
Color
1070
     1
1070
     7
1002
{
1002
}
1000
LType
1070
     4
1000
GEN3A
1002
{
1002
}
1002
}
1000
BELI
1070
     9
1000
4
1002
{
1000
Class
1070
     4
1000

1002
{
1002
}
1000
Color
1070
     1
1070
   256
1002
{
1002
}
1000
LType
1070
     4
1000
BYLAYER
1002
{
1002
}
1002
}
1000
BHNV
1070
     9
1000
9
1002
{
1000
Class
1070
     4
1000
INV
1002
{
1002
}
1000
Color
1070
     1
1070
   256
1002
{
1002
}
1000
LType
1070
     4
1000
BYLAYER
1002
{
1002
}
1002
}
1000
BHNVS
1070
     9
1000
BEHIND
1002
{
1000
Class
1070
     4
1000
INV
1002
{
1002
}
1000
Color
1070
     1
1070
   256
1002
{
1002
}
1000
LType
1070
     4
1000
BYLAYER
1002
{
1002
}
1002
}
1000
BLID
1070
     9
1000
4A
1002
{
1000
Class
1070
     4
1000

1002
{
1002
}
1000
Color
1070
     1
1070
   256
1002
{
1002
}
1000
LType
1070
     4
1000
BYLAYER
1002
{
1002
}
1002
}
1000
BOAP
1070
     9
1000
4A
1002
{
1000
Class
1070
     4
1000

1002
{
1002
}
1000
Color
1070
     1
1070
   256
1002
{
1002
}
1000
LType
1070
     4
1000
BYLAYER
1002
{
1002
}
1002
}
1000
BOR2
1070
     9
1000
RAHM2
1002
{
1000
Class
1070
     4
1000
SPZ,SYM
1002
{
1002
}
1000
Color
1070
     1
1070
   256
1002
{
1002
}
1000
LType
1070
     4
1000
BYLAYER
1002
{
1002
}
1002
}
1000
BOR3
1070
     9
1000
RAHM3
1002
{
1000
Class
1070
     4
1000
SPZ,SYM
1002
{
1002
}
1000
Color
1070
     1
1070
   256
1002
{
1002
}
1000
LType
1070
     4
1000
BYLAYER
1002
{
1002
}
1002
}
1000
BOR5
1070
     9
1000
RAHM5
1002
{
1000
Class
1070
     4
1000
SPZ,SYM
1002
{
1002
}
1000
Color
1070
     1
1070
   256
1002
{
1002
}
1000
LType
1070
     4
1000
BYLAYER
1002
{
1002
}
1002
}
1000
BOR7
1070
     9
1000
RAHM5
1002
{
1000
Class
1070
     4
1000
SPZ,SYM
1002
{
1002
}
1000
Color
1070
     1
1070
     7
1002
{
1002
}
1000
LType
1070
     4
1000
CONTINUOUS
1002
{
1002
}
1002
}
1000
BPAP
1070
     9
1000
4A
1002
{
1000
Class
1070
     4
1000

1002
{
1002
}
1000
Color
1070
     1
1070
   256
1002
{
1002
}
1000
LType
1070
     4
1000
BYLAYER
1002
{
1002
}
1002
}
1000
BPEX
1070
     9
1000
4A
1002
{
1000
Class
1070
     4
1000

1002
{
1002
}
1000
Color
1070
     1
1070
   256
1002
{
1002
}
1000
LType
1070
     4
1000
BYLAYER
1002
{
1002
}
1002
}
1000
BTDI
1070
     9
1000
5
1002
{
1000
Class
1070
     4
1000
DIM,SYM
1002
{
1002
}
1000
Color
1070
     1
1070
   256
1002
{
1002
}
1000
LType
1070
     4
1000
BYLAYER
1002
{
1002
}
1002
}
1000
CAL2
1070
     9
1000
4
1002
{
1000
Class
1070
     4
1000
SYM
1002
{
1002
}
1000
Color
1070
     1
1070
   256
1002
{
1002
}
1000
LType
1070
     4
1000
BYLAYER
1002
{
1002
}
1002
}
1000
CAL3
1070
     9
1000
4
1002
{
1000
Class
1070
     4
1000
SYM
1002
{
1002
}
1000
Color
1070
     1
1070
     2
1002
{
1002
}
1000
LType
1070
     4
1000
BYLAYER
1002
{
1002
}
1002
}
1000
CAL5
1070
     9
1000
4
1002
{
1000
Class
1070
     4
1000
SYM
1002
{
1002
}
1000
Color
1070
     1
1070
     7
1002
{
1002
}
1000
LType
1070
     4
1000
BYLAYER
1002
{
1002
}
1002
}
1000
CAL7
1070
     9
1000
4
1002
{
1000
Class
1070
     4
1000
SYM
1002
{
1002
}
1000
Color
1070
     1
1070
     5
1002
{
1002
}
1000
LType
1070
     4
1000
BYLAYER
1002
{
1002
}
1002
}
1000
CENN
1070
     9
1000
7A
1002
{
1000
Class
1070
     4
1000
CEN
1002
{
1002
}
1000
Color
1070
     1
1070
   256
1002
{
1002
}
1000
LType
1070
     4
1000
BYLAYER
1002
{
1002
}
1002
}
1000
CENW
1070
     9
1000
7
1002
{
1000
Class
1070
     4
1000
CEN
1002
{
1002
}
1000
Color
1070
     1
1070
   256
1002
{
1002
}
1000
LType
1070
     4
1000
BYLAYER
1002
{
1002
}
1002
}
1000
CLIN
1070
     9
1000
KLIN
1002
{
1000
Class
1070
     4
1000
SPZ
1002
{
1002
}
1000
Color
1070
     1
1070
   256
1002
{
1002
}
1000
LType
1070
     4
1000
BYLAYER
1002
{
1002
}
1002
}
1000
CON1
1070
     9
1000
0
1002
{
1000
Class
1070
     4
1000
CON,BGD
1002
{
1002
}
1000
Color
1070
     1
1070
   256
1002
{
1002
}
1000
LType
1070
     4
1000
BYLAYER
1002
{
1002
}
1002
}
1000
CON2
1070
     9
1000
1
1002
{
1000
Class
1070
     4
1000
CON,BGD
1002
{
1002
}
1000
Color
1070
     1
1070
   256
1002
{
1002
}
1000
LType
1070
     4
1000
BYLAYER
1002
{
1002
}
1002
}
1000
CON3
1070
     9
1000
2
1002
{
1000
Class
1070
     4
1000
CON,BGD
1002
{
1002
}
1000
Color
1070
     1
1070
   256
1002
{
1002
}
1000
LType
1070
     4
1000
BYLAYER
1002
{
1002
}
1002
}
1000
CON4
1070
     9
1000
2
1002
{
1000
Class
1070
     4
1000
CON,BGD
1002
{
1002
}
1000
Color
1070
     1
1070
   256
1002
{
1002
}
1000
LType
1070
     4
1000
BYLAYER
1002
{
1002
}
1002
}
1000
DERP
1070
     9
1000
4
1002
{
1000
Class
1070
     4
1000

1002
{
1002
}
1000
Color
1070
     1
1070
   256
1002
{
1002
}
1000
LType
1070
     4
1000
BYLAYER
1002
{
1002
}
1002
}
1000
DETA
1070
     9
1000
4
1002
{
1000
Class
1070
     4
1000

1002
{
1002
}
1000
Color
1070
     1
1070
   256
1002
{
1002
}
1000
LType
1070
     4
1000
BYLAYER
1002
{
1002
}
1002
}
1000
DIAG
1070
     9
1000
5
1002
{
1000
Class
1070
     4
1000
SYM
1002
{
1002
}
1000
Color
1070
     1
1070
   256
1002
{
1002
}
1000
LType
1070
     4
1000
BYLAYER
1002
{
1002
}
1002
}
1000
DILI
1070
     9
1000
5
1002
{
1000
Class
1070
     4
1000
DIM,SYM
1002
{
1002
}
1000
Color
1070
     1
1070
   256
1002
{
1002
}
1000
LType
1070
     4
1000
BYLAYER
1002
{
1002
}
1002
}
1000
DITO2
1070
     9
1000
5
1002
{
1000
Class
1070
     4
1000
DIM,SYM
1002
{
1002
}
1000
Color
1070
     1
1070
     3
1002
{
1002
}
1000
LType
1070
     4
1000
BYLAYER
1002
{
1002
}
1002
}
1000
DITO3
1070
     9
1000
5
1002
{
1000
Class
1070
     4
1000
DIM,SYM
1002
{
1002
}
1000
Color
1070
     1
1070
     2
1002
{
1002
}
1000
LType
1070
     4
1000
BYLAYER
1002
{
1002
}
1002
}
1000
DITX
1070
     9
1000
5
1002
{
1000
Class
1070
     4
1000
DIM,SYM
1002
{
1002
}
1000
Color
1070
     1
1070
     2
1002
{
1002
}
1000
LType
1070
     4
1000
CONTINUOUS
1002
{
1002
}
1002
}
1000
DIXL
1070
     9
1000
5
1002
{
1000
Class
1070
     4
1000
DIM,SYM
1002
{
1002
}
1000
Color
1070
     1
1070
   256
1002
{
1002
}
1000
LType
1070
     4
1000
BYLAYER
1002
{
1002
}
1002
}
1000
EXMP
1070
     9
1000
4A
1002
{
1000
Class
1070
     4
1000

1002
{
1002
}
1000
Color
1070
     1
1070
   256
1002
{
1002
}
1000
LType
1070
     4
1000
BYLAYER
1002
{
1002
}
1002
}
1000
FEMN
1070
     9
1000
8
1002
{
1000
Class
1070
     4
1000

1002
{
1002
}
1000
Color
1070
     1
1070
   256
1002
{
1002
}
1000
LType
1070
     4
1000
BYLAYER
1002
{
1002
}
1002
}
1000
FEMPN
1070
     9
1000
8
1002
{
1000
Class
1070
     4
1000
SYM
1002
{
1002
}
1000
Color
1070
     1
1070
     3
1002
{
1002
}
1000
LType
1070
     4
1000
BYLAYER
1002
{
1002
}
1002
}
1000
FEMSP
1070
     9
1000
4A
1002
{
1000
Class
1070
     4
1000

1002
{
1002
}
1000
Color
1070
     1
1070
   256
1002
{
1002
}
1000
LType
1070
     4
1000
CONTINUOUS
1002
{
1002
}
1002
}
1000
FEMST
1070
     9
1000
4A
1002
{
1000
Class
1070
     4
1000
SYM
1002
{
1002
}
1000
Color
1070
     1
1070
     3
1002
{
1002
}
1000
LType
1070
     4
1000
BYLAYER
1002
{
1002
}
1002
}
1000
FEMVN
1070
     9
1000
2
1002
{
1000
Class
1070
     4
1000
CON
1002
{
1002
}
1000
Color
1070
     1
1070
   256
1002
{
1002
}
1000
LType
1070
     4
1000
BYLAYER
1002
{
1002
}
1002
}
1000
FEMVT
1070
     9
1000
2
1002
{
1000
Class
1070
     4
1000
SYM
1002
{
1002
}
1000
Color
1070
     1
1070
     3
1002
{
1002
}
1000
LType
1070
     4
1000
BYLAYER
1002
{
1002
}
1002
}
1000
FLAT
1070
     9
1000
0
1002
{
1000
Class
1070
     4
1000

1002
{
1002
}
1000
Color
1070
     1
1070
   256
1002
{
1002
}
1000
LType
1070
     4
1000
BYLAYER
1002
{
1002
}
1002
}
1000
FRAR
1070
     9
1000
4A
1002
{
1000
Class
1070
     4
1000

1002
{
1002
}
1000
Color
1070
     1
1070
   256
1002
{
1002
}
1000
LType
1070
     4
1000
BYLAYER
1002
{
1002
}
1002
}
1000
GRLI
1070
     9
1000
5
1002
{
1000
Class
1070
     4
1000
SYM
1002
{
1002
}
1000
Color
1070
     1
1070
   256
1002
{
1002
}
1000
LType
1070
     4
1000
BYLAYER
1002
{
1002
}
1002
}
1000
GVLI
1070
     9
1000
4A
1002
{
1000
Class
1070
     4
1000

1002
{
1002
}
1000
Color
1070
     1
1070
   256
1002
{
1002
}
1000
LType
1070
     4
1000
BYLAYER
1002
{
1002
}
1002
}
1000
HATC
1070
     9
1000
8
1002
{
1000
Class
1070
     4
1000
HTC,BGD
1002
{
1002
}
1000
Color
1070
     1
1070
   256
1002
{
1002
}
1000
LType
1070
     4
1000
BYLAYER
1002
{
1002
}
1002
}
1000
HIDN
1070
     9
1000
3A
1002
{
1000
Class
1070
     4
1000
HID,BGD
1002
{
1002
}
1000
Color
1070
     1
1070
   256
1002
{
1002
}
1000
LType
1070
     4
1000
BYLAYER
1002
{
1002
}
1002
}
1000
HIDW
1070
     9
1000
3
1002
{
1000
Class
1070
     4
1000
HID,BGD
1002
{
1002
}
1000
Color
1070
     1
1070
   256
1002
{
1002
}
1000
LType
1070
     4
1000
BYLAYER
1002
{
1002
}
1002
}
1000
HLIN
1070
     9
1000
4
1002
{
1000
Class
1070
     4
1000
BGD
1002
{
1002
}
1000
Color
1070
     1
1070
   256
1002
{
1002
}
1000
LType
1070
     4
1000
BYLAYER
1002
{
1002
}
1002
}
1000
HOCN
1070
     9
1000
7A
1002
{
1000
Class
1070
     4
1000
CEN
1002
{
1002
}
1000
Color
1070
     1
1070
   256
1002
{
1002
}
1000
LType
1070
     4
1000
BYLAYER
1002
{
1002
}
1002
}
1000
HOCW
1070
     9
1000
7
1002
{
1000
Class
1070
     4
1000
CEN
1002
{
1002
}
1000
Color
1070
     1
1070
   256
1002
{
1002
}
1000
LType
1070
     4
1000
BYLAYER
1002
{
1002
}
1002
}
1000
INFO
1070
     9
1000
INFO
1002
{
1000
Class
1070
     4
1000
SPZ,SYM
1002
{
1002
}
1000
Color
1070
     1
1070
   256
1002
{
1002
}
1000
LType
1070
     4
1000
BYLAYER
1002
{
1002
}
1002
}
1000
LADI
1070
     9
1000
4
1002
{
1000
Class
1070
     4
1000
BGD
1002
{
1002
}
1000
Color
1070
     1
1070
   256
1002
{
1002
}
1000
LType
1070
     4
1000
BYLAYER
1002
{
1002
}
1002
}
1000
LEAD
1070
     9
1000
5
1002
{
1000
Class
1070
     4
1000
SYM
1002
{
1002
}
1000
Color
1070
     1
1070
   256
1002
{
1002
}
1000
LType
1070
     4
1000
BYLAYER
1002
{
1002
}
1002
}
1000
N_ADDL
1070
     9
1000
5N
1002
{
1000
Class
1070
     4
1000
SYM
1002
{
1002
}
1000
Color
1070
     1
1070
     1
1002
{
1002
}
1000
LType
1070
     4
1000
BYLAYER
1002
{
1002
}
1002
}
1000
N_BHNV
1070
     9
1000
9N
1002
{
1000
Class
1070
     4
1000
INV
1002
{
1002
}
1000
Color
1070
     1
1070
   256
1002
{
1002
}
1000
LType
1070
     4
1000
BYLAYER
1002
{
1002
}
1002
}
1000
N_CON1
1070
     9
1000
0N
1002
{
1000
Class
1070
     4
1000
CON,BGD
1002
{
1002
}
1000
Color
1070
     1
1070
   256
1002
{
1002
}
1000
LType
1070
     4
1000
BYLAYER
1002
{
1002
}
1002
}
1000
N_CON2
1070
     9
1000
1N
1002
{
1000
Class
1070
     4
1000
CON,BGD
1002
{
1002
}
1000
Color
1070
     1
1070
   256
1002
{
1002
}
1000
LType
1070
     4
1000
BYLAYER
1002
{
1002
}
1002
}
1000
N_CON3
1070
     9
1000
2N
1002
{
1000
Class
1070
     4
1000
CON,BGD
1002
{
1002
}
1000
Color
1070
     1
1070
   256
1002
{
1002
}
1000
LType
1070
     4
1000
BYLAYER
1002
{
1002
}
1002
}
1000
N_CON4
1070
     9
1000
2N
1002
{
1000
Class
1070
     4
1000
CON,BGD
1002
{
1002
}
1000
Color
1070
     1
1070
   256
1002
{
1002
}
1000
LType
1070
     4
1000
BYLAYER
1002
{
1002
}
1002
}
1000
N_CENN
1070
     9
1000
7AN
1002
{
1000
Class
1070
     4
1000
CEN
1002
{
1002
}
1000
Color
1070
     1
1070
   256
1002
{
1002
}
1000
LType
1070
     4
1000
BYLAYER
1002
{
1002
}
1002
}
1000
N_CENW
1070
     9
1000
7N
1002
{
1000
Class
1070
     4
1000
CEN
1002
{
1002
}
1000
Color
1070
     1
1070
   256
1002
{
1002
}
1000
LType
1070
     4
1000
BYLAYER
1002
{
1002
}
1002
}
1000
N_DILI
1070
     9
1000
5N
1002
{
1000
Class
1070
     4
1000
DIM,SYM
1002
{
1002
}
1000
Color
1070
     1
1070
   256
1002
{
1002
}
1000
LType
1070
     4
1000
BYLAYER
1002
{
1002
}
1002
}
1000
N_DITX
1070
     9
1000
5N
1002
{
1000
Class
1070
     4
1000
DIM,SYM
1002
{
1002
}
1000
Color
1070
     1
1070
     2
1002
{
1002
}
1000
LType
1070
     4
1000
CONTINUOUS
1002
{
1002
}
1002
}
1000
N_DIXL
1070
     9
1000
5N
1002
{
1000
Class
1070
     4
1000
DIM,SYM
1002
{
1002
}
1000
Color
1070
     1
1070
   256
1002
{
1002
}
1000
LType
1070
     4
1000
BYLAYER
1002
{
1002
}
1002
}
1000
N_HATC
1070
     9
1000
8N
1002
{
1000
Class
1070
     4
1000
HTC,BGD
1002
{
1002
}
1000
Color
1070
     1
1070
   256
1002
{
1002
}
1000
LType
1070
     4
1000
BYLAYER
1002
{
1002
}
1002
}
1000
N_HIDN
1070
     9
1000
3AN
1002
{
1000
Class
1070
     4
1000
HID,BGD
1002
{
1002
}
1000
Color
1070
     1
1070
   256
1002
{
1002
}
1000
LType
1070
     4
1000
BYLAYER
1002
{
1002
}
1002
}
1000
N_HIDW
1070
     9
1000
3N
1002
{
1000
Class
1070
     4
1000
HID,BGD
1002
{
1002
}
1000
Color
1070
     1
1070
   256
1002
{
1002
}
1000
LType
1070
     4
1000
BYLAYER
1002
{
1002
}
1002
}
1000
N_NGIP
1070
     9
1000
IPN
1002
{
1000
Class
1070
     4
1000

1002
{
1002
}
1000
Color
1070
     1
1070
   256
1002
{
1002
}
1000
LType
1070
     4
1000
BYLAYER
1002
{
1002
}
1002
}
1000
N_PHAN
1070
     9
1000
4AN
1002
{
1000
Class
1070
     4
1000

1002
{
1002
}
1000
Color
1070
     1
1070
   256
1002
{
1002
}
1000
LType
1070
     4
1000
BYLAYER
1002
{
1002
}
1002
}
1000
N_POSL
1070
     9
1000
5N
1002
{
1000
Class
1070
     4
1000
SYM
1002
{
1002
}
1000
Color
1070
     1
1070
   256
1002
{
1002
}
1000
LType
1070
     4
1000
BYLAYER
1002
{
1002
}
1002
}
1000
N_TCON
1070
     9
1000
0N
1002
{
1000
Class
1070
     4
1000
CON,BGD
1002
{
1002
}
1000
Color
1070
     1
1070
   256
1002
{
1002
}
1000
LType
1070
     4
1000
BYLAYER
1002
{
1002
}
1002
}
1000
N_THLI
1070
     9
1000
4N
1002
{
1000
Class
1070
     4
1000
BGD
1002
{
1002
}
1000
Color
1070
     1
1070
   256
1002
{
1002
}
1000
LType
1070
     4
1000
BYLAYER
1002
{
1002
}
1002
}
1000
N_TLEN
1070
     9
1000
0N
1002
{
1000
Class
1070
     4
1000
CON,BGD
1002
{
1002
}
1000
Color
1070
     1
1070
   256
1002
{
1002
}
1000
LType
1070
     4
1000
BYLAYER
1002
{
1002
}
1002
}
1000
N_TXT3
1070
     9
1000
6N
1002
{
1000
Class
1070
     4
1000
SYM
1002
{
1002
}
1000
Color
1070
     1
1070
   256
1002
{
1002
}
1000
LType
1070
     4
1000
BYLAYER
1002
{
1002
}
1002
}
1000
N_VPLI
1070
     9
1000
2AN
1002
{
1000
Class
1070
     4
1000

1002
{
1002
}
1000
Color
1070
     1
1070
   256
1002
{
1002
}
1000
LType
1070
     4
1000
BYLAYER
1002
{
1002
}
1002
}
1000
NGIP
1070
     9
1000
IP
1002
{
1000
Class
1070
     4
1000

1002
{
1002
}
1000
Color
1070
     1
1070
   256
1002
{
1002
}
1000
LType
1070
     4
1000
BYLAYER
1002
{
1002
}
1002
}
1000
PAL2
1070
     9
1000
RAHM2
1002
{
1000
Class
1070
     4
1000
SPZ,SYM
1002
{
1002
}
1000
Color
1070
     1
1070
   256
1002
{
1002
}
1000
LType
1070
     4
1000
BYLAYER
1002
{
1002
}
1002
}
1000
PAL3
1070
     9
1000
RAHM3
1002
{
1000
Class
1070
     4
1000
SPZ,SYM
1002
{
1002
}
1000
Color
1070
     1
1070
   256
1002
{
1002
}
1000
LType
1070
     4
1000
BYLAYER
1002
{
1002
}
1002
}
1000
PAL5
1070
     9
1000
RAHM5
1002
{
1000
Class
1070
     4
1000
SPZ,SYM
1002
{
1002
}
1000
Color
1070
     1
1070
   256
1002
{
1002
}
1000
LType
1070
     4
1000
BYLAYER
1002
{
1002
}
1002
}
1000
PAL7
1070
     9
1000
RAHM5
1002
{
1000
Class
1070
     4
1000
SPZ,SYM
1002
{
1002
}
1000
Color
1070
     1
1070
     7
1002
{
1002
}
1000
LType
1070
     4
1000
CONTINUOUS
1002
{
1002
}
1002
}
1000
PHAN
1070
     9
1000
4A
1002
{
1000
Class
1070
     4
1000

1002
{
1002
}
1000
Color
1070
     1
1070
   256
1002
{
1002
}
1000
LType
1070
     4
1000
BYLAYER
1002
{
1002
}
1002
}
1000
POSL
1070
     9
1000
5
1002
{
1000
Class
1070
     4
1000
SYM
1002
{
1002
}
1000
Color
1070
     1
1070
   256
1002
{
1002
}
1000
LType
1070
     4
1000
BYLAYER
1002
{
1002
}
1002
}
1000
POSN
1070
     9
1000
6
1002
{
1000
Class
1070
     4
1000
SYM
1002
{
1002
}
1000
Color
1070
     1
1070
     7
1002
{
1002
}
1000
LType
1070
     4
1000
BYLAYER
1002
{
1002
}
1002
}
1000
POSREF
1070
     9
1000
6
1002
{
1000
Class
1070
     4
1000
SYM
1002
{
1002
}
1000
Color
1070
     1
1070
     5
1002
{
1002
}
1000
LType
1070
     4
1000
BYLAYER
1002
{
1002
}
1002
}
1000
POSX
1070
     9
1000
5
1002
{
1000
Class
1070
     4
1000
SYM
1002
{
1002
}
1000
Color
1070
     1
1070
     2
1002
{
1002
}
1000
LType
1070
     4
1000
CONTINUOUS
1002
{
1002
}
1002
}
1000
PSEC
1070
     9
1000
4A
1002
{
1000
Class
1070
     4
1000

1002
{
1002
}
1000
Color
1070
     1
1070
   256
1002
{
1002
}
1000
LType
1070
     4
1000
BYLAYER
1002
{
1002
}
1002
}
1000
RCGN
1070
     9
1000
7A
1002
{
1000
Class
1070
     4
1000
CEN
1002
{
1002
}
1000
Color
1070
     1
1070
   256
1002
{
1002
}
1000
LType
1070
     4
1000
BYLAYER
1002
{
1002
}
1002
}
1000
RCGW
1070
     9
1000
7
1002
{
1000
Class
1070
     4
1000
CEN
1002
{
1002
}
1000
Color
1070
     1
1070
   256
1002
{
1002
}
1000
LType
1070
     4
1000
BYLAYER
1002
{
1002
}
1002
}
1000
RFDI
1070
     9
1000
4
1002
{
1000
Class
1070
     4
1000
BGD
1002
{
1002
}
1000
Color
1070
     1
1070
   256
1002
{
1002
}
1000
LType
1070
     4
1000
BYLAYER
1002
{
1002
}
1002
}
1000
RQTR
1070
     9
1000
4
1002
{
1000
Class
1070
     4
1000

1002
{
1002
}
1000
Color
1070
     1
1070
     7
1002
{
1002
}
1000
LType
1070
     4
1000
GEN7A
1002
{
1002
}
1002
}
1000
RSBO
1070
     9
1000
4
1002
{
1000
Class
1070
     4
1000
BGD
1002
{
1002
}
1000
Color
1070
     1
1070
   256
1002
{
1002
}
1000
LType
1070
     4
1000
BYLAYER
1002
{
1002
}
1002
}
1000
SBRK
1070
     9
1000
4
1002
{
1000
Class
1070
     4
1000
BGD
1002
{
1002
}
1000
Color
1070
     1
1070
   256
1002
{
1002
}
1000
LType
1070
     4
1000
BYLAYER
1002
{
1002
}
1002
}
1000
SCEN
1070
     9
1000
7
1002
{
1000
Class
1070
     4
1000

1002
{
1002
}
1000
Color
1070
     1
1070
   256
1002
{
1002
}
1000
LType
1070
     4
1000
CONTINUOUS
1002
{
1002
}
1002
}
1000
SECT
1070
     9
1000
4
1002
{
1000
Class
1070
     4
1000
BGD
1002
{
1002
}
1000
Color
1070
     1
1070
   256
1002
{
1002
}
1000
LType
1070
     4
1000
BYLAYER
1002
{
1002
}
1002
}
1000
SELN
1070
     9
1000
7A
1002
{
1000
Class
1070
     4
1000

1002
{
1002
}
1000
Color
1070
     1
1070
   256
1002
{
1002
}
1000
LType
1070
     4
1000
BYLAYER
1002
{
1002
}
1002
}
1000
SELW
1070
     9
1000
7
1002
{
1000
Class
1070
     4
1000

1002
{
1002
}
1000
Color
1070
     1
1070
   256
1002
{
1002
}
1000
LType
1070
     4
1000
BYLAYER
1002
{
1002
}
1002
}
1000
SSYS
1070
     9
1000
0
1002
{
1000
Class
1070
     4
1000

1002
{
1002
}
1000
Color
1070
     1
1070
   256
1002
{
1002
}
1000
LType
1070
     4
1000
BYLAYER
1002
{
1002
}
1002
}
1000
STLI
1070
     9
1000
4
1002
{
1000
Class
1070
     4
1000

1002
{
1002
}
1000
Color
1070
     1
1070
     7
1002
{
1002
}
1000
LType
1070
     4
1000
GEN3A
1002
{
1002
}
1002
}
1000
SYB1
1070
     9
1000
5
1002
{
1000
Class
1070
     4
1000
SYM
1002
{
1002
}
1000
Color
1070
     1
1070
   256
1002
{
1002
}
1000
LType
1070
     4
1000
BYLAYER
1002
{
1002
}
1002
}
1000
SYB2
1070
     9
1000
5
1002
{
1000
Class
1070
     4
1000
SYM
1002
{
1002
}
1000
Color
1070
     1
1070
   256
1002
{
1002
}
1000
LType
1070
     4
1000
BYLAYER
1002
{
1002
}
1002
}
1000
SYB3
1070
     9
1000
6
1002
{
1000
Class
1070
     4
1000
SYM
1002
{
1002
}
1000
Color
1070
     1
1070
   256
1002
{
1002
}
1000
LType
1070
     4
1000
CONTINUOUS
1002
{
1002
}
1002
}
1000
SYB5
1070
     9
1000
5
1002
{
1000
Class
1070
     4
1000
SYM
1002
{
1002
}
1000
Color
1070
     1
1070
     7
1002
{
1002
}
1000
LType
1070
     4
1000
BYLAYER
1002
{
1002
}
1002
}
1000
SYMN
1070
     9
1000
7A
1002
{
1000
Class
1070
     4
1000
CEN
1002
{
1002
}
1000
Color
1070
     1
1070
   256
1002
{
1002
}
1000
LType
1070
     4
1000
BYLAYER
1002
{
1002
}
1002
}
1000
SYMW
1070
     9
1000
7
1002
{
1000
Class
1070
     4
1000
CEN
1002
{
1002
}
1000
Color
1070
     1
1070
   256
1002
{
1002
}
1000
LType
1070
     4
1000
BYLAYER
1002
{
1002
}
1002
}
1000
TCON
1070
     9
1000
0
1002
{
1000
Class
1070
     4
1000
CON,BGD
1002
{
1002
}
1000
Color
1070
     1
1070
   256
1002
{
1002
}
1000
LType
1070
     4
1000
BYLAYER
1002
{
1002
}
1002
}
1000
THLI
1070
     9
1000
4
1002
{
1000
Class
1070
     4
1000
BGD
1002
{
1002
}
1000
Color
1070
     1
1070
   256
1002
{
1002
}
1000
LType
1070
     4
1000
BYLAYER
1002
{
1002
}
1002
}
1000
TIT2
1070
     9
1000
RAHM2
1002
{
1000
Class
1070
     4
1000
SPZ,SYM
1002
{
1002
}
1000
Color
1070
     1
1070
   256
1002
{
1002
}
1000
LType
1070
     4
1000
BYLAYER
1002
{
1002
}
1002
}
1000
TIT3
1070
     9
1000
RAHM3
1002
{
1000
Class
1070
     4
1000
SPZ,SYM
1002
{
1002
}
1000
Color
1070
     1
1070
   256
1002
{
1002
}
1000
LType
1070
     4
1000
BYLAYER
1002
{
1002
}
1002
}
1000
TIT5
1070
     9
1000
RAHM5
1002
{
1000
Class
1070
     4
1000
SPZ,SYM
1002
{
1002
}
1000
Color
1070
     1
1070
   256
1002
{
1002
}
1000
LType
1070
     4
1000
BYLAYER
1002
{
1002
}
1002
}
1000
TIT7
1070
     9
1000
RAHM5
1002
{
1000
Class
1070
     4
1000
SPZ,SYM
1002
{
1002
}
1000
Color
1070
     1
1070
     7
1002
{
1002
}
1000
LType
1070
     4
1000
CONTINUOUS
1002
{
1002
}
1002
}
1000
TLEN
1070
     9
1000
0
1002
{
1000
Class
1070
     4
1000
CON,BGD
1002
{
1002
}
1000
Color
1070
     1
1070
   256
1002
{
1002
}
1000
LType
1070
     4
1000
BYLAYER
1002
{
1002
}
1002
}
1000
TRKN
1070
     9
1000
7A
1002
{
1000
Class
1070
     4
1000

1002
{
1002
}
1000
Color
1070
     1
1070
   256
1002
{
1002
}
1000
LType
1070
     4
1000
BYLAYER
1002
{
1002
}
1002
}
1000
TRKW
1070
     9
1000
7
1002
{
1000
Class
1070
     4
1000

1002
{
1002
}
1000
Color
1070
     1
1070
   256
1002
{
1002
}
1000
LType
1070
     4
1000
BYLAYER
1002
{
1002
}
1002
}
1000
TRLI
1070
     9
1000
4
1002
{
1000
Class
1070
     4
1000
BGD
1002
{
1002
}
1000
Color
1070
     1
1070
   256
1002
{
1002
}
1000
LType
1070
     4
1000
BYLAYER
1002
{
1002
}
1002
}
1000
TXT1
1070
     9
1000
6
1002
{
1000
Class
1070
     4
1000
SYM
1002
{
1002
}
1000
Color
1070
     1
1070
     2
1002
{
1002
}
1000
LType
1070
     4
1000
BYLAYER
1002
{
1002
}
1002
}
1000
TXT2
1070
     9
1000
6
1002
{
1000
Class
1070
     4
1000
SYM
1002
{
1002
}
1000
Color
1070
     1
1070
     2
1002
{
1002
}
1000
LType
1070
     4
1000
BYLAYER
1002
{
1002
}
1002
}
1000
TXT3
1070
     9
1000
6
1002
{
1000
Class
1070
     4
1000
SYM
1002
{
1002
}
1000
Color
1070
     1
1070
   256
1002
{
1002
}
1000
LType
1070
     4
1000
BYLAYER
1002
{
1002
}
1002
}
1000
TXT5
1070
     9
1000
6
1002
{
1000
Class
1070
     4
1000
SYM
1002
{
1002
}
1000
Color
1070
     1
1070
     7
1002
{
1002
}
1000
LType
1070
     4
1000
BYLAYER
1002
{
1002
}
1002
}
1000
TXT7
1070
     9
1000
6
1002
{
1000
Class
1070
     4
1000
SYM
1002
{
1002
}
1000
Color
1070
     1
1070
     7
1002
{
1002
}
1000
LType
1070
     4
1000
BYLAYER
1002
{
1002
}
1002
}
1000
VIEW
1070
     9
1000
VIEW
1002
{
1000
Class
1070
     4
1000
SPZ
1002
{
1002
}
1000
Color
1070
     1
1070
   256
1002
{
1002
}
1000
LType
1070
     4
1000
BYLAYER
1002
{
1002
}
1002
}
1000
VPLI
1070
     9
1000
2A
1002
{
1000
Class
1070
     4
1000

1002
{
1002
}
1000
Color
1070
     1
1070
   256
1002
{
1002
}
1000
LType
1070
     4
1000
BYLAYER
1002
{
1002
}
1002
}
1000
ZIZA
1070
     9
1000
4
1002
{
1000
Class
1070
     4
1000
BGD
1002
{
1002
}
1000
Color
1070
     1
1070
   256
1002
{
1002
}
1000
LType
1070
     4
1000
GENZIGZAG
1002
{
1002
}
1002
}
  0
APPID
  5
1344
330
12D9
100
AcDbSymbolTableRecord
100
AcDbRegAppTableRecord
  2
GENIUS_GENCFG4_13
 70
     0
1001
GENIUS_GENCFG_13
1071
1022849290
1000
1344
1000
GEN
1070
     9
1000
GenCfgObject
1000
GenCfgShort
1000
GenCfgReal
1000
GenCfgBool
1000
GenCfgString
1000
GenCfgDim
1000
GenCfgLaySection
1000
GenCfgLType
1000
GenCfgFilter
1000
Balloon
1070
     0
1002
{
1000
GenIF
1070
     1
1070
     0
1002
{
1002
}
1000
GenPosInc
1070
     1
1070
     1
1002
{
1002
}
1000
GenPosBlk
1070
     1
1070
     8
1002
{
1002
}
1000
GenPosVar
1070
     1
1070
     0
1002
{
1002
}
1000
GenZiCir
1070
     2
1040
1.5
1002
{
1002
}
1000
MaxCharForCenteredText
1070
     1
1070
    30
1002
{
1002
}
1000
Snap
1070
     0
1002
{
1000
ActivationRadius
1070
     2
1040
1.0
1002
{
1002
}
1000
M
1070
     0
1002
{
1000
SnapStepX
1070
     2
1040
20.0
1002
{
1002
}
1000
SnapStepY
1070
     2
1040
10.0
1002
{
1002
}
1002
}
1000
I
1070
     0
1002
{
1000
SnapStepX
1070
     2
1040
1.0
1002
{
1002
}
1000
SnapStepY
1070
     2
1040
0.5
1002
{
1002
}
1002
}
1002
}
1002
}
1000
Centerline
1070
     0
1002
{
1000
ScaleNot
1070
     3
1070
     0
1002
{
1002
}
1000
M
1070
     0
1002
{
1000
GenCenAng
1070
     4
1000
45|90|135
1002
{
1002
}
1000
GenCenDia
1070
     2
1040
10.0
1002
{
1002
}
1000
GenCenDias
1070
     4
1000
10|20|30
1002
{
1002
}
1000
GenCenDist
1070
     2
1040
3.0
1002
{
1002
}
1000
GenCenLen
1070
     2
1040
10.0
1002
{
1002
}
1000
GenCenOff
1070
     2
1040
10.0
1002
{
1002
}
1002
}
1000
I
1070
     0
1002
{
1000
GenCenAng
1070
     4
1000
45|90|135
1002
{
1002
}
1000
GenCenDia
1070
     2
1040
0.5
1002
{
1002
}
1000
GenCenDias
1070
     4
1000
0.5|1.0|1.5
1002
{
1002
}
1000
GenCenDist
1070
     2
1040
0.125
1002
{
1002
}
1000
GenCenLen
1070
     2
1040
0.5
1002
{
1002
}
1000
GenCenOff
1070
     2
1040
0.5
1002
{
1002
}
1002
}
1002
}
1000
CLine
1070
     0
1002
{
1000
CAngArray
1070
     4
1000
30|45|60
1002
{
1002
}
1000
Typ
1070
     4
1000
XLINE
1002
{
1002
}
1000
M
1070
     0
1002
{
1000
CLinArray
1070
     4
1000
10|20|30
1002
{
1002
}
1002
}
1000
I
1070
     0
1002
{
1000
CLinArray
1070
     4
1000
0.125|0.25|0.5
1002
{
1002
}
1002
}
1002
}
1000
Detail
1070
     0
1002
{
1002
}
1000
Dimension
1070
     5
1002
{
1000
DIMALT
1070
     1
1070
     0
1002
{
1002
}
1000
DIMALTD
1070
     1
1070
     2
1002
{
1002
}
1000
DIMALTTD
1070
     1
1070
     4
1002
{
1002
}
1000
DIMALTTZ
1070
     1
1070
     0
1002
{
1002
}
1000
DIMALTU
1070
     1
1070
     2
1002
{
1002
}
1000
DIMALTZ
1070
     1
1070
     0
1002
{
1002
}
1000
DIMAUNIT
1070
     1
1070
     0
1002
{
1002
}
1000
DIMBLK
1070
     4
1000

1002
{
1002
}
1000
DIMBLK1
1070
     4
1000

1002
{
1002
}
1000
DIMBLK2
1070
     4
1000

1002
{
1002
}
1000
DIMCLRD
1070
     1
1070
   256
1002
{
1002
}
1000
DIMCLRE
1070
     1
1070
   256
1002
{
1002
}
1000
DIMCLRT
1070
     1
1070
     2
1002
{
1002
}
1000
DIMDLE
1070
     2
1040
0.0
1002
{
1002
}
1000
DIMFIT
1070
     1
1070
     3
1002
{
1002
}
1000
DIMJUST
1070
     1
1070
     0
1002
{
1002
}
1000
DIMLFAC
1070
     2
1040
1.0
1002
{
1002
}
1000
DIMLIM
1070
     1
1070
     0
1002
{
1002
}
1000
DIMPOST
1070
     4
1000

1002
{
1002
}
1000
DIMRND
1070
     2
1040
0.0
1002
{
1002
}
1000
DIMSAH
1070
     1
1070
     0
1002
{
1002
}
1000
DIMSCALE
1070
     2
1040
1.0
1002
{
1002
}
1000
DIMSD1
1070
     1
1070
     0
1002
{
1002
}
1000
DIMSD2
1070
     1
1070
     0
1002
{
1002
}
1000
DIMSE1
1070
     1
1070
     0
1002
{
1002
}
1000
DIMSE2
1070
     1
1070
     0
1002
{
1002
}
1000
DIMSOXD
1070
     1
1070
     0
1002
{
1002
}
1000
DIMTAD
1070
     1
1070
     0
1002
{
1002
}
1000
DIMTFAC
1070
     2
1040
0.71
1002
{
1002
}
1000
DIMTIH
1070
     1
1070
     0
1002
{
1002
}
1000
DIMTIX
1070
     1
1070
     0
1002
{
1002
}
1000
DIMTM
1070
     2
1040
0.1
1002
{
1002
}
1000
DIMTOFL
1070
     1
1070
     0
1002
{
1002
}
1000
DIMTOH
1070
     1
1070
     0
1002
{
1002
}
1000
DIMTOL
1070
     1
1070
     0
1002
{
1002
}
1000
DIMTOLJ
1070
     1
1070
     1
1002
{
1002
}
1000
DIMTP
1070
     2
1040
0.1
1002
{
1002
}
1000
DIMTSZ
1070
     2
1040
0.0
1002
{
1002
}
1000
DIMTVP
1070
     2
1040
0.0
1002
{
1002
}
1000
DIMTXSTY
1070
     4
1000
STANDARD
1002
{
1002
}
1000
DIMTZIN
1070
     1
1070
     0
1002
{
1002
}
1000
DIMUNIT
1070
     1
1070
     2
1002
{
1002
}
1000
DIMUPT
1070
     1
1070
     0
1002
{
1002
}
1000
M
1070
     0
1002
{
1000
DIMALTF
1070
     2
1040
0.03937
1002
{
1002
}
1000
DIMAPOST
1070
     4
1000
"
1002
{
1002
}
1000
DIMASZ
1070
     2
1040
2.5
1002
{
1002
}
1000
DIMCEN
1070
     2
1040
0.0
1002
{
1002
}
1000
DIMDEC
1070
     1
1070
     2
1002
{
1002
}
1000
DIMDLI
1070
     2
1040
7.0
1002
{
1002
}
1000
DIMEXE
1070
     2
1040
1.0
1002
{
1002
}
1000
DIMEXO
1070
     2
1040
1.0
1002
{
1002
}
1000
DIMGAP
1070
     2
1040
0.6
1002
{
1002
}
1000
DIMTDEC
1070
     1
1070
     3
1002
{
1002
}
1000
DIMTXT
1070
     2
1040
3.5
1002
{
1002
}
1000
DIMZIN
1070
     1
1070
     8
1002
{
1002
}
1002
}
1000
I
1070
     0
1002
{
1000
DIMALTF
1070
     2
1040
25.4
1002
{
1002
}
1000
DIMAPOST
1070
     4
1000
mm
1002
{
1002
}
1000
DIMASZ
1070
     2
1040
0.1
1002
{
1002
}
1000
DIMCEN
1070
     2
1040
0.0
1002
{
1002
}
1000
DIMDEC
1070
     1
1070
     4
1002
{
1002
}
1000
DIMDLI
1070
     2
1040
0.5
1002
{
1002
}
1000
DIMEXE
1070
     2
1040
0.1
1002
{
1002
}
1000
DIMEXO
1070
     2
1040
0.05
1002
{
1002
}
1000
DIMGAP
1070
     2
1040
0.06
1002
{
1002
}
1000
DIMTDEC
1070
     1
1070
     4
1002
{
1002
}
1000
DIMTXT
1070
     2
1040
0.12
1002
{
1002
}
1000
DIMZIN
1070
     1
1070
     7
1002
{
1002
}
1002
}
1000
GEN-ISO
1070
     5
1002
{
1000
NAME
1070
     4
1000
GEN-ISO
1002
{
1002
}
1000
DIMTAD
1070
     1
1070
     1
1002
{
1002
}
1000
DIMTOLJ
1070
     1
1070
     0
1002
{
1002
}
1000
DIMTOFL
1070
     1
1070
     1
1002
{
1002
}
1000
M
1070
     0
1002
{
1002
}
1000
I
1070
     0
1002
{
1002
}
1002
}
1000
GEN-ISO-POS
1070
     5
1002
{
1000
NAME
1070
     4
1000
GEN-ISO-POS
1002
{
1002
}
1000
DIMTOLJ
1070
     1
1070
     0
1002
{
1002
}
1000
DIMTXSTY
1070
     4
1000
STANDARD
1002
{
1002
}
1000
M
1070
     0
1002
{
1000
DIMASZ
1070
     2
1040
2.5
1002
{
1002
}
1000
DIMGAP
1070
     2
1040
1.5
1002
{
1002
}
1000
DIMTXT
1070
     2
1040
5.0
1002
{
1002
}
1002
}
1000
I
1070
     0
1002
{
1000
DIMASZ
1070
     2
1040
0.1
1002
{
1002
}
1000
DIMGAP
1070
     2
1040
0.06
1002
{
1002
}
1000
DIMTXT
1070
     2
1040
0.2
1002
{
1002
}
1002
}
1002
}
1000
GEN-ISO-CIR
1070
     5
1002
{
1000
NAME
1070
     4
1000
GEN-ISO$3
1002
{
1002
}
1000
DIMFIT
1070
     1
1070
     0
1002
{
1002
}
1000
DIMTAD
1070
     1
1070
     1
1002
{
1002
}
1000
DIMTOH
1070
     1
1070
     1
1002
{
1002
}
1000
DIMTOLJ
1070
     1
1070
     0
1002
{
1002
}
1000
DIMUPT
1070
     1
1070
     1
1002
{
1002
}
1000
M
1070
     0
1002
{
1002
}
1000
I
1070
     0
1002
{
1002
}
1002
}
1000
GEN-ISO-RAD
1070
     5
1002
{
1000
NAME
1070
     4
1000
GEN-ISO$4
1002
{
1002
}
1000
DIMFIT
1070
     1
1070
     0
1002
{
1002
}
1000
DIMTAD
1070
     1
1070
     1
1002
{
1002
}
1000
DIMTIH
1070
     1
1070
     0
1002
{
1002
}
1000
DIMTIX
1070
     1
1070
     0
1002
{
1002
}
1000
DIMTOH
1070
     1
1070
     1
1002
{
1002
}
1000
DIMTOLJ
1070
     1
1070
     0
1002
{
1002
}
1000
DIMTOFL
1070
     1
1070
     0
1002
{
1002
}
1000
DIMUPT
1070
     1
1070
     1
1002
{
1002
}
1000
M
1070
     0
1002
{
1002
}
1000
I
1070
     0
1002
{
1002
}
1002
}
1000
GEN-ISO-ORD
1070
     5
1002
{
1000
NAME
1070
     4
1000
GEN-ISO$6
1002
{
1002
}
1000
DIMTOLJ
1070
     1
1070
     0
1002
{
1002
}
1000
M
1070
     0
1002
{
1002
}
1000
I
1070
     0
1002
{
1002
}
1002
}
1000
GEN-ISO-AXE-F
1070
     5
1002
{
1000
NAME
1070
     4
1000
GEN-ISO-AXE-F
1002
{
1002
}
1000
DIMSE1
1070
     1
1070
     1
1002
{
1002
}
1000
DIMSE2
1070
     1
1070
     1
1002
{
1002
}
1000
DIMTAD
1070
     1
1070
     1
1002
{
1002
}
1000
DIMTOLJ
1070
     1
1070
     0
1002
{
1002
}
1000
DIMTOFL
1070
     1
1070
     1
1002
{
1002
}
1000
M
1070
     0
1002
{
1002
}
1000
I
1070
     0
1002
{
1002
}
1002
}
1000
GEN-ISO-AXE-H
1070
     5
1002
{
1000
NAME
1070
     4
1000
GEN-ISO-AXE-H
1002
{
1002
}
1000
DIMBLK1
1070
     4
1000
GENAXEH
1002
{
1002
}
1000
DIMLFAC
1070
     2
1040
2.0
1002
{
1002
}
1000
DIMSAH
1070
     1
1070
     1
1002
{
1002
}
1000
DIMSE1
1070
     1
1070
     1
1002
{
1002
}
1000
DIMSE2
1070
     1
1070
     1
1002
{
1002
}
1000
DIMTAD
1070
     1
1070
     1
1002
{
1002
}
1000
DIMTOLJ
1070
     1
1070
     0
1002
{
1002
}
1000
DIMTOFL
1070
     1
1070
     1
1002
{
1002
}
1000
M
1070
     0
1002
{
1002
}
1000
I
1070
     0
1002
{
1002
}
1002
}
1000
GEN-ANSI
1070
     5
1002
{
1000
NAME
1070
     4
1000
GEN-ANSI
1002
{
1002
}
1000
DIMTIH
1070
     1
1070
     1
1002
{
1002
}
1000
DIMTOH
1070
     1
1070
     1
1002
{
1002
}
1000
DIMTAD
1070
     1
1070
     0
1002
{
1002
}
1000
DIMTOLJ
1070
     1
1070
     1
1002
{
1002
}
1000
M
1070
     0
1002
{
1002
}
1000
I
1070
     0
1002
{
1002
}
1002
}
1000
GEN-ANSI-POS
1070
     5
1002
{
1000
NAME
1070
     4
1000
GEN-ANSI-POS
1002
{
1002
}
1000
DIMTOLJ
1070
     1
1070
     1
1002
{
1002
}
1000
DIMTXSTY
1070
     4
1000
STANDARD
1002
{
1002
}
1000
M
1070
     0
1002
{
1000
DIMASZ
1070
     2
1040
2.5
1002
{
1002
}
1000
DIMGAP
1070
     2
1040
1.5
1002
{
1002
}
1000
DIMTXT
1070
     2
1040
5.0
1002
{
1002
}
1002
}
1000
I
1070
     0
1002
{
1000
DIMASZ
1070
     2
1040
0.1
1002
{
1002
}
1000
DIMGAP
1070
     2
1040
0.06
1002
{
1002
}
1000
DIMTXT
1070
     2
1040
0.2
1002
{
1002
}
1002
}
1002
}
1000
GEN-ANSI-CIR
1070
     5
1002
{
1000
NAME
1070
     4
1000
GEN-ANSI$3
1002
{
1002
}
1000
DIMFIT
1070
     1
1070
     0
1002
{
1002
}
1000
DIMTAD
1070
     1
1070
     0
1002
{
1002
}
1000
DIMTIH
1070
     1
1070
     1
1002
{
1002
}
1000
DIMTIX
1070
     1
1070
     0
1002
{
1002
}
1000
DIMTOFL
1070
     1
1070
     0
1002
{
1002
}
1000
DIMTOH
1070
     1
1070
     1
1002
{
1002
}
1000
DIMTOLJ
1070
     1
1070
     1
1002
{
1002
}
1000
DIMUPT
1070
     1
1070
     1
1002
{
1002
}
1000
M
1070
     0
1002
{
1002
}
1000
I
1070
     0
1002
{
1002
}
1002
}
1000
GEN-ANSI-RAD
1070
     5
1002
{
1000
NAME
1070
     4
1000
GEN-ANSI$4
1002
{
1002
}
1000
DIMFIT
1070
     1
1070
     0
1002
{
1002
}
1000
DIMTAD
1070
     1
1070
     0
1002
{
1002
}
1000
DIMTIH
1070
     1
1070
     1
1002
{
1002
}
1000
DIMTIX
1070
     1
1070
     0
1002
{
1002
}
1000
DIMTOFL
1070
     1
1070
     0
1002
{
1002
}
1000
DIMTOH
1070
     1
1070
     1
1002
{
1002
}
1000
DIMTOLJ
1070
     1
1070
     1
1002
{
1002
}
1000
DIMUPT
1070
     1
1070
     1
1002
{
1002
}
1000
M
1070
     0
1002
{
1002
}
1000
I
1070
     0
1002
{
1002
}
1002
}
1000
GEN-ANSI-ORD
1070
     5
1002
{
1000
NAME
1070
     4
1000
GEN-ANSI$6
1002
{
1002
}
1000
DIMTAD
1070
     1
1070
     0
1002
{
1002
}
1000
DIMTIH
1070
     1
1070
     1
1002
{
1002
}
1000
DIMTOH
1070
     1
1070
     1
1002
{
1002
}
1000
DIMTOLJ
1070
     1
1070
     1
1002
{
1002
}
1000
M
1070
     0
1002
{
1002
}
1000
I
1070
     0
1002
{
1002
}
1002
}
1000
GEN-ANSI-AXE-F
1070
     5
1002
{
1000
NAME
1070
     4
1000
GEN-ANSI-AXE-F
1002
{
1002
}
1000
DIMBLK1
1070
     4
1000
GENAXEH
1002
{
1002
}
1000
DIMSAH
1070
     1
1070
     1
1002
{
1002
}
1000
DIMSE1
1070
     1
1070
     1
1002
{
1002
}
1000
DIMSE2
1070
     1
1070
     1
1002
{
1002
}
1000
DIMTAD
1070
     1
1070
     0
1002
{
1002
}
1000
DIMTIH
1070
     1
1070
     1
1002
{
1002
}
1000
DIMTOH
1070
     1
1070
     1
1002
{
1002
}
1000
DIMTOLJ
1070
     1
1070
     1
1002
{
1002
}
1000
M
1070
     0
1002
{
1002
}
1000
I
1070
     0
1002
{
1002
}
1002
}
1000
GEN-ANSI-AXE-H
1070
     5
1002
{
1000
NAME
1070
     4
1000
GEN-ANSI-AXE-H
1002
{
1002
}
1000
DIMBLK1
1070
     4
1000
GENAXEH
1002
{
1002
}
1000
DIMLFAC
1070
     2
1040
2.0
1002
{
1002
}
1000
DIMSAH
1070
     1
1070
     1
1002
{
1002
}
1000
DIMSE1
1070
     1
1070
     1
1002
{
1002
}
1000
DIMSE2
1070
     1
1070
     1
1002
{
1002
}
1000
DIMTAD
1070
     1
1070
     0
1002
{
1002
}
1000
DIMTOFL
1070
     1
1070
     1
1002
{
1002
}
1000
DIMTOLJ
1070
     1
1070
     1
1002
{
1002
}
1000
M
1070
     0
1002
{
1002
}
1000
I
1070
     0
1002
{
1002
}
1002
}
1002
}
1000
DimSet
1070
     0
1002
{
1000
ChainSum
1070
     3
1070
     0
1002
{
1002
}
1000
DimDclTyp0
1070
     4
1000
dim23
1002
{
1002
}
1000
HorBra
1070
     3
1070
     0
1002
{
1002
}
1000
StrDia
1070
     4
1000
%%c<>
1002
{
1002
}
1000
StrRad
1070
     4
1000
R<>
1002
{
1002
}
1000
TextMinus
1070
     4
1000
<>
1002
{
1002
}
1000
TextPlus
1070
     4
1000
<>
1002
{
1002
}
1000
M
1070
     0
1002
{
1000
DimdliFirst
1070
     2
1040
10.0
1002
{
1002
}
1000
PointMakeDist
1070
     2
1040
10.0
1002
{
1002
}
1002
}
1000
I
1070
     0
1002
{
1000
DimdliFirst
1070
     2
1040
0.5
1002
{
1002
}
1000
PointMakeDist
1070
     2
1040
0.5
1002
{
1002
}
1002
}
1000
FitGrade
1070
     4
1000
h7
1002
{
1002
}
1002
}
1000
Drawing
1070
     0
1002
{
1000
ChamferDimMode
1070
     1
1070
     2
1002
{
1002
}
1000
Gen_Fiso
1070
    -3
1040
1.0
1002
{
1002
}
1000
GenDimStil
1070
     4
1000
ISO
1002
{
1002
}
1000
GenDwgUScale
1070
     2
1040
1.0
1002
{
1002
}
1000
GenInch
1070
     4
1000
M
1002
{
1002
}
1000
GenPlotScale
1070
     4
1000
1:5
1002
{
1002
}
1000
Revisi
1070
     4
1000
0
1002
{
1002
}
1000
Version
1070
    -5
1000
14.01/Apr  1 1998
1002
{
1002
}
1000
Platform
1070
    -5
1000
WINNT
1002
{
1002
}
1002
}
1000
DwgVar
1070
     0
1002
{
1000
M
1070
     0
1002
{
1002
}
1000
I
1070
     0
1002
{
1002
}
1002
}
1000
Hatch
1070
     0
1002
{
1000
GenHtcFlag
1070
     3
1070
     0
1002
{
1002
}
1002
}
1000
Info_Pos
1070
     0
1002
{
1000
>
1002
}
1000
Layer
1070
     6
1002
{
1000
Defs
1070
     0
1002
{
1000
>
1002
}
1000
EntSort
1070
     0
1002
{
1000
>
1002
}
1000
Match
1070
     0
1002
{
1002
}
1000
Settings
1070
     0
1002
{
1000
FocGrNC
1070
     3
1070
     0
1002
{
1002
}
1000
FocGrLo
1070
     3
1070
     0
1002
{
1002
}
1000
FocLoNC
1070
     3
1070
     0
1002
{
1002
}
1000
FocusCol
1070
     1
1070
   253
1002
{
1002
}
1000
GenStdLG
1070
     4
1000

1002
{
1002
}
1000
LayMatch
1070
     3
1070
     0
1002
{
1002
}
1000
LgOff
1070
     3
1070
     0
1002
{
1002
}
1000
CurLG
1070
    -5
1000

1002
{
1002
}
1002
}
1002
}
1000
LType
1070
     0
1002
{
1000
GEN3
1070
     7
1000
genius.lin
1002
{
1002
}
1000
GEN7
1070
     7
1000
genius.lin
1002
{
1002
}
1000
GEN4A
1070
     7
1000
genius.lin
1002
{
1002
}
1000
GEN3A
1070
     7
1000
genius.lin
1002
{
1002
}
1000
GEN7A
1070
     7
1000
genius.lin
1002
{
1002
}
1000
GENZIGZAG
1070
     7
1000
genius.lin
1002
{
1002
}
1002
}
1000
Objecter
1070
     0
1002
{
1000
CreateGroups
1070
     3
1070
     0
1002
{
1002
}
1000
LaySwitch
1070
     3
1070
     1
1002
{
1002
}
1000
LastObj
1070
    -5
1000
1377
1002
{
1002
}
1000
TimeStamp
1070
    -5
1000
20020531.14461723
1002
{
1002
}
1002
}
1000
OSWiz
1070
     0
1002
{
1000
Filter
1070
     0
1002
{
1000
HATCH
1070
     8
1002
{
1000
EntityType
1070
     4
1000
LINE
1002
{
1002
}
1000
Layer
1070
     4
1000
8,8N,*-8,*-8N
1002
{
1002
}
1000
Linetype
1070
     4
1000
*
1002
{
1002
}
1000
Color
1070
     4
1000
*
1002
{
1002
}
1000
ApplyInDims
1070
     3
1070
     1
1002
{
1002
}
1002
}
1000
SYMBOLS
1070
     8
1002
{
1000
EntityType
1070
     4
1000
*
1002
{
1002
}
1000
Layer
1070
     4
1000
[5-6],[5-6]N,*-[5-6],*-[5-6]N
1002
{
1002
}
1000
Linetype
1070
     4
1000
*
1002
{
1002
}
1000
Color
1070
     4
1000
*
1002
{
1002
}
1000
ApplyInDims
1070
     3
1070
     1
1002
{
1002
}
1002
}
1000
FEM
1070
     8
1002
{
1000
EntityType
1070
     4
1000
*
1002
{
1002
}
1000
Layer
1070
     4
1000
4A,4AN,*-4A,*-4AN
1002
{
1002
}
1000
Linetype
1070
     4
1000
*
1002
{
1002
}
1000
Color
1070
     4
1000
*
1002
{
1002
}
1000
ApplyInDims
1070
     3
1070
     1
1002
{
1002
}
1002
}
1002
}
1002
}
1000
PaList
1070
     0
1002
{
1000
AutoUpdatePartList
1070
     1
1070
     0
1002
{
1002
}
1000
ReadInfoPoint
1070
     3
1070
     0
1002
{
1002
}
1000
ReadPosNr
1070
     3
1070
     1
1002
{
1002
}
1000
RevStr
1070
     4
1000
0
1002
{
1002
}
1002
}
1000
Paper
1070
     0
1002
{
1002
}
1000
PartDB
1070
     0
1002
{
1000
GenDbOwner
1070
     4
1000

1002
{
1002
}
1002
}
1000
System
1070
     0
1002
{
1000
Menu
1070
     4
1000
GEV
1002
{
1002
}
1002
}
1000
Title
1070
     0
1002
{
1000
MakeView
1070
     1
1070
     2
1002
{
1002
}
1002
}
1000
Tools
1070
     0
1002
{
1000
Trans
1070
     0
1002
{
1000
Drawingtranslation
1070
    -4
1070
     1
1002
{
1002
}
1000
upreserve
1070
     3
1070
     0
1002
{
1002
}
1000
originally_on
1070
    -4
1070
     0
1002
{
1002
}
1000
sourcelang
1070
    -5
1000
D
1002
{
1002
}
1002
}
1002
}
  0
APPID
  5
1345
330
12D9
100
AcDbSymbolTableRecord
100
AcDbRegAppTableRecord
  2
GENIUS_GEVCFG0_13
 70
     0
1001
GENIUS_GENCFG_13
1071
1022849278
1000
1345
1000
GEV
1070
     1
1000
GenCfgObject
1000
VED
1070
     0
1002
{
1002
}
  0
APPID
  5
1346
330
12D9
100
AcDbSymbolTableRecord
100
AcDbRegAppTableRecord
  2
GEV_VCCNULL_SWITCH_OFF
 70
     0
  0
APPID
  5
1347
330
12D9
100
AcDbSymbolTableRecord
100
AcDbRegAppTableRecord
  2
GENIUS_GENDTOL_13
 70
     0
  0
APPID
  5
1348
330
12D9
100
AcDbSymbolTableRecord
100
AcDbRegAppTableRecord
  2
GENIUS_GENOENT_13
 70
     0
  0
APPID
  5
1349
330
12D9
100
AcDbSymbolTableRecord
100
AcDbRegAppTableRecord
  2
GENIUS_GENBLLY_14
 70
     0
  0
APPID
  5
134A
330
12D9
100
AcDbSymbolTableRecord
100
AcDbRegAppTableRecord
  2
GENIUS_GENODEF_13
 70
     0
  0
APPID
  5
134B
330
12D9
100
AcDbSymbolTableRecord
100
AcDbRegAppTableRecord
  2
GENIUS_GENOBJ-N-CRS_13
 70
     0
  0
APPID
  5
134C
330
12D9
100
AcDbSymbolTableRecord
100
AcDbRegAppTableRecord
  2
GENIUS_GENOREF_13
 70
     0
  0
APPID
  5
134D
330
12D9
100
AcDbSymbolTableRecord
100
AcDbRegAppTableRecord
  2
GENIUS_GENOLIS_13
 70
     0
  0
APPID
  5
134E
330
12D9
100
AcDbSymbolTableRecord
100
AcDbRegAppTableRecord
  2
GENIUS_GEFCFG0_13
 70
     0
  0
APPID
  5
134F
330
12D9
100
AcDbSymbolTableRecord
100
AcDbRegAppTableRecord
  2
GENIUS_VERSION2
 70
     0
  0
APPID
  5
1350
330
12D9
100
AcDbSymbolTableRecord
100
AcDbRegAppTableRecord
  2
GENIUS_GENREC_14
 70
     0
  0
APPID
  5
1351
330
12D9
100
AcDbSymbolTableRecord
100
AcDbRegAppTableRecord
  2
GENIUS_GENOBJ-N-REC_13
 70
     0
  0
APPID
  5
1352
330
12D9
100
AcDbSymbolTableRecord
100
AcDbRegAppTableRecord
  2
GENIUS_GENOBJ-N-TIT_13
 70
     0
  0
APPID
  5
1353
330
12D9
100
AcDbSymbolTableRecord
100
AcDbRegAppTableRecord
  2
GENIUS_GENTITLE_13
 70
     0
  0
APPID
  5
1354
330
12D9
100
AcDbSymbolTableRecord
100
AcDbRegAppTableRecord
  2
GENIUS_GENZVEED_13
 70
     0
  0
APPID
  5
1355
330
12D9
100
AcDbSymbolTableRecord
100
AcDbRegAppTableRecord
  2
GENIUS_GENOBJ-N-SDF_13
 70
     0
  0
APPID
  5
1356
330
12D9
100
AcDbSymbolTableRecord
100
AcDbRegAppTableRecord
  2
GENIUS_GENSCREG_13
 70
     0
  0
APPID
  5
1357
330
12D9
100
AcDbSymbolTableRecord
100
AcDbRegAppTableRecord
  2
GENIUS_GENBLKED_14
 70
     0
  0
APPID
  5
149B
330
12D9
100
AcDbSymbolTableRecord
100
AcDbRegAppTableRecord
  2
MCAD_NO_VIS
 70
     0
  0
APPID
  5
149C
330
12D9
100
AcDbSymbolTableRecord
100
AcDbRegAppTableRecord
  2
ACAD_TEMP_GRAPHIC
 70
     0
  0
APPID
  5
14CC
330
12D9
100
AcDbSymbolTableRecord
100
AcDbRegAppTableRecord
  2
AD_DRAW
 70
     0
  0
APPID
  5
14CF
330
12D9
100
AcDbSymbolTableRecord
100
AcDbRegAppTableRecord
  2
ACATTRIBSERVICES
 70
     0
  0
APPID
  5
14EF
330
12D9
100
AcDbSymbolTableRecord
100
AcDbRegAppTableRecord
  2
DESIGNERASSEMBLIES
 70
     0
  0
APPID
  5
14F5
330
12D9
100
AcDbSymbolTableRecord
100
AcDbRegAppTableRecord
  2
ACADM_DIM_EDIT
 70
     0
  0
APPID
  5
14F6
330
12D9
100
AcDbSymbolTableRecord
100
AcDbRegAppTableRecord
  2
AMDT_DM_ADJ
 70
     0
  0
APPID
  5
1528
330
12D9
100
AcDbSymbolTableRecord
100
AcDbRegAppTableRecord
  2
ACAD_DSTYLE_DIMARC_LENGTH_SYMBOL
 70
     0
  0
APPID
  5
1529
330
12D9
100
AcDbSymbolTableRecord
100
AcDbRegAppTableRecord
  2
ACAD_DSTYLE_DIMJOGGED_JOGANGLE_SYMBOL
 70
     0
  0
ENDTAB
  0
TABLE
  2
DIMSTYLE
  5
12DA
330
0
100
AcDbSymbolTable
 70
     9
100
AcDbDimStyleTable
 71
     1
340
1300
  0
DIMSTYLE
105
1300
102
{ACAD_REACTORS
330
1104
330
1298
330
1205
330
120F
330
1219
102
}
330
12DA
100
AcDbSymbolTableRecord
100
AcDbDimStyleTableRecord
  2
GEN-ISO
 70
     0
  4
"
 40
5.0
 41
2.5
 42
1.0
 43
7.0
 44
1.0
 47
0.1
 48
0.1
 73
     0
 74
     0
 77
     1
 78
     8
140
3.5
141
0.0
143
0.03937
146
0.71
147
0.6
172
     1
176
   256
177
   256
178
     2
271
     2
272
     3
274
     4
283
     0
340
12DF
  0
DIMSTYLE
105
1527
330
12DA
100
AcDbSymbolTableRecord
100
AcDbDimStyleTableRecord
  2
AM_DIN
 70
     0
  4
"
 41
2.5
 42
1.0
 43
10.0
 44
1.0
 47
0.1
 48
0.1
 73
     0
 74
     0
 77
     1
 78
     8
 79
     2
140
3.5
141
0.0
143
0.0393701
146
0.71
147
1.5
172
     1
176
   256
177
   256
178
     2
271
     2
272
     3
274
     4
283
     0
284
     8
340
12DF
371
    -1
372
    -1
1001
ACAD_DSTYLE_DIMARC_LENGTH_SYMBOL
1070
   379
1070
     0
1001
ACAD_DSTYLE_DIMJOGGED_JOGANGLE_SYMBOL
1070
   384
1040
1.570796326794896
  0
DIMSTYLE
105
1538
330
12DA
100
AcDbSymbolTableRecord
100
AcDbDimStyleTableRecord
  2
AM_DIN$3
 70
     0
  4
"
 41
2.5
 42
1.0
 43
10.0
 44
1.0
 47
0.1
 48
0.1
 73
     0
 77
     1
 78
     8
 79
     2
140
3.5
141
0.0
143
0.0393701
146
0.71
147
1.5
176
   256
177
   256
178
     2
271
     2
272
     3
274
     4
283
     0
284
     8
288
     1
289
     0
340
12DF
371
    -1
372
    -1
1001
ACAD_DSTYLE_DIMARC_LENGTH_SYMBOL
1070
   379
1070
     0
1001
ACAD_DSTYLE_DIMJOGGED_JOGANGLE_SYMBOL
1070
   384
1040
1.570796326794896
  0
DIMSTYLE
105
153D
330
12DA
100
AcDbSymbolTableRecord
100
AcDbDimStyleTableRecord
  2
AM_DIN$4
 70
     0
  4
"
 41
2.5
 42
1.0
 43
10.0
 44
1.0
 47
0.1
 48
0.1
 73
     0
 77
     1
 78
     8
 79
     2
140
3.5
141
0.0
143
0.0393701
146
0.71
147
1.5
176
   256
177
   256
178
     2
271
     2
272
     3
274
     4
283
     0
284
     8
288
     1
289
     0
340
12DF
371
    -1
372
    -1
1001
ACAD_DSTYLE_DIMARC_LENGTH_SYMBOL
1070
   379
1070
     0
1001
ACAD_DSTYLE_DIMJOGGED_JOGANGLE_SYMBOL
1070
   384
1040
1.570796326794896
  0
DIMSTYLE
105
1542
330
12DA
100
AcDbSymbolTableRecord
100
AcDbDimStyleTableRecord
  2
AM_DIN$6
 70
     0
  4
"
 41
2.5
 42
1.0
 43
10.0
 44
1.0
 47
0.1
 48
0.1
 73
     0
 74
     0
 78
     8
 79
     2
140
3.5
141
0.0
143
0.0393701
146
0.71
147
1.5
172
     1
176
   256
177
   256
178
     2
271
     2
272
     3
274
     4
283
     0
284
     8
340
12DF
371
    -1
372
    -1
1001
ACAD_DSTYLE_DIMARC_LENGTH_SYMBOL
1070
   379
1070
     0
1001
ACAD_DSTYLE_DIMJOGGED_JOGANGLE_SYMBOL
1070
   384
1040
1.570796326794896
  0
DIMSTYLE
105
1547
330
12DA
100
AcDbSymbolTableRecord
100
AcDbDimStyleTableRecord
  2
AM_DIN$7
 70
     0
  4
"
 41
2.5
 42
1.0
 43
10.0
 44
1.0
 47
0.1
 48
0.1
 73
     0
 74
     0
 77
     1
 78
     8
 79
     2
140
5.0
141
0.0
143
0.0393701
146
0.71
147
1.5
172
     1
176
   256
177
   256
178
     2
271
     2
272
     3
274
     4
283
     0
284
     8
340
12DF
371
    -1
372
    -1
1001
ACAD_DSTYLE_DIMARC_LENGTH_SYMBOL
1070
   379
1070
     0
1001
ACAD_DSTYLE_DIMJOGGED_JOGANGLE_SYMBOL
1070
   384
1040
1.570796326794896
  0
DIMSTYLE
105
154C
330
12DA
100
AcDbSymbolTableRecord
100
AcDbDimStyleTableRecord
  2
AM_DIN$SF
 70
     0
  4
"
 41
2.5
 42
1.0
 43
10.0
 44
1.0
 47
0.1
 48
0.1
 73
     0
 74
     0
 75
     1
 76
     1
 77
     1
 78
     8
 79
     2
140
3.5
141
0.0
143
0.0393701
146
0.71
147
1.5
172
     1
176
   256
177
   256
178
     2
271
     2
272
     3
274
     4
283
     0
284
     8
340
12DF
371
    -1
372
    -1
1001
ACAD_DSTYLE_DIMARC_LENGTH_SYMBOL
1070
   379
1070
     0
1001
ACAD_DSTYLE_DIMJOGGED_JOGANGLE_SYMBOL
1070
   384
1040
1.570796326794896
  0
DIMSTYLE
105
1555
330
12DA
100
AcDbSymbolTableRecord
100
AcDbDimStyleTableRecord
  2
AM_DIN$SH
 70
     0
  4
"
 41
2.5
 42
1.0
 43
10.0
 44
1.0
 47
0.1
 48
0.1
 73
     0
 74
     0
 75
     1
 76
     1
 77
     1
 78
     8
 79
     2
140
3.5
141
0.0
143
0.0393701
144
2.0
146
0.71
147
1.5
172
     1
173
     1
176
   256
177
   256
178
     2
271
     2
272
     3
274
     4
283
     0
284
     8
340
12DF
343
154D
371
    -1
372
    -1
1001
ACAD_DSTYLE_DIMARC_LENGTH_SYMBOL
1070
   379
1070
     0
1001
ACAD_DSTYLE_DIMJOGGED_JOGANGLE_SYMBOL
1070
   384
1040
1.570796326794896
  0
ENDTAB
  0
TABLE
  2
BLOCK_RECORD
  5
12D1
330
0
100
AcDbSymbolTable
 70
    19
  0
BLOCK_RECORD
  5
12E8
330
12D1
100
AcDbSymbolTableRecord
100
AcDbBlockTableRecord
  2
*MODEL_SPACE
340
1493
  0
BLOCK_RECORD
  5
12E5
330
12D1
100
AcDbSymbolTableRecord
100
AcDbBlockTableRecord
  2
*PAPER_SPACE
340
1494
  0
BLOCK_RECORD
  5
1303
330
12D1
100
AcDbSymbolTableRecord
100
AcDbBlockTableRecord
  2
*X0
340
0
102
{BLKREFS
331
1119
102
}
  0
BLOCK_RECORD
  5
1304
330
12D1
100
AcDbSymbolTableRecord
100
AcDbBlockTableRecord
  2
*X1
340
0
102
{BLKREFS
331
1131
102
}
  0
BLOCK_RECORD
  5
1305
330
12D1
100
AcDbSymbolTableRecord
100
AcDbBlockTableRecord
  2
*X2
340
0
102
{BLKREFS
331
1153
102
}
  0
BLOCK_RECORD
  5
1306
330
12D1
100
AcDbSymbolTableRecord
100
AcDbBlockTableRecord
  2
*X3
340
0
102
{BLKREFS
331
11FB
102
}
  0
BLOCK_RECORD
  5
130A
330
12D1
100
AcDbSymbolTableRecord
100
AcDbBlockTableRecord
  2
*X4
340
0
102
{BLKREFS
331
128D
102
}
  0
BLOCK_RECORD
  5
1315
330
12D1
100
AcDbSymbolTableRecord
100
AcDbBlockTableRecord
  2
KATALOG_LEER
340
0
102
{BLKREFS
331
1359
331
1376
102
}
  0
BLOCK_RECORD
  5
1378
330
12D1
100
AcDbSymbolTableRecord
100
AcDbBlockTableRecord
  2
*D7
340
0
  0
BLOCK_RECORD
  5
13BA
330
12D1
100
AcDbSymbolTableRecord
100
AcDbBlockTableRecord
  2
*D10
340
0
  0
BLOCK_RECORD
  5
13D1
330
12D1
100
AcDbSymbolTableRecord
100
AcDbBlockTableRecord
  2
*D11
340
0
  0
BLOCK_RECORD
  5
13E8
330
12D1
100
AcDbSymbolTableRecord
100
AcDbBlockTableRecord
  2
*D12
340
0
  0
BLOCK_RECORD
  5
13FF
330
12D1
100
AcDbSymbolTableRecord
100
AcDbBlockTableRecord
  2
*D13
340
0
  0
BLOCK_RECORD
  5
154D
330
12D1
100
AcDbSymbolTableRecord
100
AcDbBlockTableRecord
  2
GENAXEH
340
0
  0
ENDTAB
  0
ENDSEC
  0
SECTION
  2
BLOCKS
  0
BLOCK
  5
12E9
330
12E8
100
AcDbEntity
  8
0
100
AcDbBlockBegin
  2
*MODEL_SPACE
 70
     0
 10
0.0
 20
0.0
 30
0.0
  3
*MODEL_SPACE
  1

  0
ENDBLK
  5
12EA
330
12E8
100
AcDbEntity
  8
0
100
AcDbBlockEnd
  0
BLOCK
  5
12E6
330
12E5
100
AcDbEntity
 67
     1
  8
0
100
AcDbBlockBegin
  2
*PAPER_SPACE
 70
     0
 10
0.0
 20
0.0
 30
0.0
  3
*PAPER_SPACE
  1

  0
ENDBLK
  5
12E7
330
12E5
100
AcDbEntity
 67
     1
  8
0
100
AcDbBlockEnd
  0
BLOCK
  5
1115
330
1303
100
AcDbEntity
  8
0
100
AcDbBlockBegin
  2
*X0
 70
     1
 10
0.0
 20
0.0
 30
0.0
  3
*X0
  1

  0
LINE
  5
1116
330
1303
100
AcDbEntity
  8
8
100
AcDbLine
 10
259.469
 20
333.68
 30
0.0
 11
268.184
 21
324.966
 31
0.0
  0
LINE
  5
1117
330
1303
100
AcDbEntity
  8
8
100
AcDbLine
 10
268.946
 20
333.184
 30
0.0
 11
269.3259999999999
 21
332.804
 31
0.0
  0
ENDBLK
  5
1118
330
1303
100
AcDbEntity
  8
0
100
AcDbBlockEnd
  0
BLOCK
  5
112D
330
1304
100
AcDbEntity
  8
0
100
AcDbBlockBegin
  2
*X1
 70
     1
 10
0.0
 20
0.0
 30
0.0
  3
*X1
  1

  0
LINE
  5
112E
330
1304
100
AcDbEntity
  8
8
100
AcDbLine
 10
219.49
 20
337.7390000000001
 30
0.0
 11
229.632
 21
327.596
 31
0.0
  0
LINE
  5
112F
330
1304
100
AcDbEntity
  8
8
100
AcDbLine
 10
228.966
 20
337.2419999999999
 30
0.0
 11
238.9
 21
327.308
 31
0.0
  0
ENDBLK
  5
1130
330
1304
100
AcDbEntity
  8
0
100
AcDbBlockEnd
  0
BLOCK
  5
1149
330
1305
100
AcDbEntity
  8
0
100
AcDbBlockBegin
  2
*X2
 70
     1
 10
0.0
 20
0.0
 30
0.0
  3
*X2
  1

  0
LINE
  5
114A
330
1305
100
AcDbEntity
  8
8
100
AcDbLine
 10
475.504
 20
333.171
 30
0.0
 11
483.813
 21
324.863
 31
0.0
  0
LINE
  5
114B
330
1305
100
AcDbEntity
  8
8
100
AcDbLine
 10
484.037
 20
333.6180000000001
 30
0.0
 11
492.0709999999999
 21
325.585
 31
0.0
  0
LINE
  5
114C
330
1305
100
AcDbEntity
  8
8
100
AcDbLine
 10
492.8969999999999
 20
333.739
 30
0.0
 11
500.3289999999999
 21
326.307
 31
0.0
  0
LINE
  5
114D
330
1305
100
AcDbEntity
  8
8
100
AcDbLine
 10
501.8769999999999
 20
333.739
 30
0.0
 11
508.586
 21
327.03
 31
0.0
  0
LINE
  5
114E
330
1305
100
AcDbEntity
  8
8
100
AcDbLine
 10
509.9649999999999
 20
334.631
 30
0.0
 11
516.844
 21
327.7519999999999
 31
0.0
  0
LINE
  5
114F
330
1305
100
AcDbEntity
  8
8
100
AcDbLine
 10
516.3039999999999
 20
337.272
 30
0.0
 11
523.7319999999999
 21
329.845
 31
0.0
  0
LINE
  5
1150
330
1305
100
AcDbEntity
  8
8
100
AcDbLine
 10
524.838
 20
337.72
 30
0.0
 11
530.316
 21
332.241
 31
0.0
  0
LINE
  5
1151
330
1305
100
AcDbEntity
  8
8
100
AcDbLine
 10
533.3769999999999
 20
338.16
 30
0.0
 11
535.345
 21
336.193
 31
0.0
  0
ENDBLK
  5
1152
330
1305
100
AcDbEntity
  8
0
100
AcDbBlockEnd
  0
BLOCK
  5
11A8
330
1306
100
AcDbEntity
  8
0
100
AcDbBlockBegin
  2
*X3
 70
     1
 10
0.0
 20
0.0
 30
0.0
  3
*X3
  1

  0
LINE
  5
11A9
330
1306
100
AcDbEntity
  8
8
100
AcDbLine
 10
692.2979999999999
 20
139.47
 30
0.0
 11
698.4989999999998
 21
145.671
 31
0.0
  0
LINE
  5
11AA
330
1306
100
AcDbEntity
  8
8
100
AcDbLine
 10
683.765
 20
139.917
 30
0.0
 11
690.8969999999999
 21
147.05
 31
0.0
  0
LINE
  5
11AB
330
1306
100
AcDbEntity
  8
8
100
AcDbLine
 10
675.232
 20
140.365
 30
0.0
 11
682.0989999999999
 21
147.232
 31
0.0
  0
LINE
  5
11AC
330
1306
100
AcDbEntity
  8
8
100
AcDbLine
 10
666.6989999999999
 20
140.812
 30
0.0
 11
672.395
 21
146.508
 31
0.0
  0
LINE
  5
11AD
330
1306
100
AcDbEntity
  8
8
100
AcDbLine
 10
658.166
 20
141.2589999999999
 30
0.0
 11
663.8619999999999
 21
146.956
 31
0.0
  0
LINE
  5
11AE
330
1306
100
AcDbEntity
  8
8
100
AcDbLine
 10
649.6319999999999
 20
141.706
 30
0.0
 11
655.329
 21
147.403
 31
0.0
  0
LINE
  5
11AF
330
1306
100
AcDbEntity
  8
8
100
AcDbLine
 10
641.099
 20
142.153
 30
0.0
 11
646.7959999999999
 21
147.85
 31
0.0
  0
LINE
  5
11B0
330
1306
100
AcDbEntity
  8
8
100
AcDbLine
 10
632.566
 20
142.601
 30
0.0
 11
638.263
 21
148.297
 31
0.0
  0
LINE
  5
11B1
330
1306
100
AcDbEntity
  8
8
100
AcDbLine
 10
624.033
 20
143.048
 30
0.0
 11
629.7299999999999
 21
148.744
 31
0.0
  0
LINE
  5
11B2
330
1306
100
AcDbEntity
  8
8
100
AcDbLine
 10
615.5
 20
143.495
 30
0.0
 11
621.1969999999999
 21
149.192
 31
0.0
  0
LINE
  5
11B3
330
1306
100
AcDbEntity
  8
8
100
AcDbLine
 10
606.967
 20
143.942
 30
0.0
 11
612.664
 21
149.639
 31
0.0
  0
LINE
  5
11B4
330
1306
100
AcDbEntity
  8
8
100
AcDbLine
 10
598.4339999999999
 20
144.389
 30
0.0
 11
604.131
 21
150.086
 31
0.0
  0
LINE
  5
11B5
330
1306
100
AcDbEntity
  8
8
100
AcDbLine
 10
589.9009999999999
 20
144.837
 30
0.0
 11
595.5980000000001
 21
150.533
 31
0.0
  0
LINE
  5
11B6
330
1306
100
AcDbEntity
  8
8
100
AcDbLine
 10
581.368
 20
145.284
 30
0.0
 11
587.065
 21
150.98
 31
0.0
  0
LINE
  5
11B7
330
1306
100
AcDbEntity
  8
8
100
AcDbLine
 10
572.835
 20
145.731
 30
0.0
 11
578.5319999999999
 21
151.428
 31
0.0
  0
LINE
  5
11B8
330
1306
100
AcDbEntity
  8
8
100
AcDbLine
 10
564.3019999999999
 20
146.178
 30
0.0
 11
569.999
 21
151.875
 31
0.0
  0
LINE
  5
11B9
330
1306
100
AcDbEntity
  8
8
100
AcDbLine
 10
555.769
 20
146.625
 30
0.0
 11
561.465
 21
152.322
 31
0.0
  0
LINE
  5
11BA
330
1306
100
AcDbEntity
  8
8
100
AcDbLine
 10
547.236
 20
147.073
 30
0.0
 11
552.932
 21
152.769
 31
0.0
  0
LINE
  5
11BB
330
1306
100
AcDbEntity
  8
8
100
AcDbLine
 10
538.703
 20
147.52
 30
0.0
 11
544.399
 21
153.216
 31
0.0
  0
LINE
  5
11BC
330
1306
100
AcDbEntity
  8
8
100
AcDbLine
 10
530.1699999999999
 20
147.967
 30
0.0
 11
535.8659999999999
 21
153.664
 31
0.0
  0
LINE
  5
11BD
330
1306
100
AcDbEntity
  8
8
100
AcDbLine
 10
521.6369999999999
 20
148.414
 30
0.0
 11
527.333
 21
154.111
 31
0.0
  0
LINE
  5
11BE
330
1306
100
AcDbEntity
  8
8
100
AcDbLine
 10
513.104
 20
148.861
 30
0.0
 11
518.7999999999999
 21
154.558
 31
0.0
  0
LINE
  5
11BF
330
1306
100
AcDbEntity
  8
8
100
AcDbLine
 10
504.5709999999999
 20
149.309
 30
0.0
 11
510.2669999999999
 21
155.005
 31
0.0
  0
LINE
  5
11C0
330
1306
100
AcDbEntity
  8
8
100
AcDbLine
 10
496.037
 20
149.756
 30
0.0
 11
501.734
 21
155.452
 31
0.0
  0
LINE
  5
11C1
330
1306
100
AcDbEntity
  8
8
100
AcDbLine
 10
487.504
 20
150.203
 30
0.0
 11
493.201
 21
155.9
 31
0.0
  0
LINE
  5
11C2
330
1306
100
AcDbEntity
  8
8
100
AcDbLine
 10
478.971
 20
150.65
 30
0.0
 11
484.668
 21
156.347
 31
0.0
  0
LINE
  5
11C3
330
1306
100
AcDbEntity
  8
8
100
AcDbLine
 10
470.438
 20
151.097
 30
0.0
 11
476.135
 21
156.794
 31
0.0
  0
LINE
  5
11C4
330
1306
100
AcDbEntity
  8
8
100
AcDbLine
 10
461.9049999999999
 20
151.545
 30
0.0
 11
467.602
 21
157.241
 31
0.0
  0
LINE
  5
11C5
330
1306
100
AcDbEntity
  8
8
100
AcDbLine
 10
453.3719999999999
 20
151.992
 30
0.0
 11
459.069
 21
157.688
 31
0.0
  0
LINE
  5
11C6
330
1306
100
AcDbEntity
  8
8
100
AcDbLine
 10
444.8389999999999
 20
152.439
 30
0.0
 11
450.536
 21
158.136
 31
0.0
  0
LINE
  5
11C7
330
1306
100
AcDbEntity
  8
8
100
AcDbLine
 10
436.3059999999999
 20
152.886
 30
0.0
 11
442.003
 21
158.583
 31
0.0
  0
LINE
  5
11C8
330
1306
100
AcDbEntity
  8
8
100
AcDbLine
 10
427.773
 20
153.333
 30
0.0
 11
433.47
 21
159.03
 31
0.0
  0
LINE
  5
11C9
330
1306
100
AcDbEntity
  8
8
100
AcDbLine
 10
419.24
 20
153.781
 30
0.0
 11
424.9369999999999
 21
159.477
 31
0.0
  0
LINE
  5
11CA
330
1306
100
AcDbEntity
  8
8
100
AcDbLine
 10
410.707
 20
154.228
 30
0.0
 11
416.4039999999999
 21
159.924
 31
0.0
  0
LINE
  5
11CB
330
1306
100
AcDbEntity
  8
8
100
AcDbLine
 10
402.174
 20
154.675
 30
0.0
 11
407.87
 21
160.372
 31
0.0
  0
LINE
  5
11CC
330
1306
100
AcDbEntity
  8
8
100
AcDbLine
 10
393.641
 20
155.122
 30
0.0
 11
399.337
 21
160.819
 31
0.0
  0
LINE
  5
11CD
330
1306
100
AcDbEntity
  8
8
100
AcDbLine
 10
385.108
 20
155.569
 30
0.0
 11
390.804
 21
161.266
 31
0.0
  0
LINE
  5
11CE
330
1306
100
AcDbEntity
  8
8
100
AcDbLine
 10
376.575
 20
156.017
 30
0.0
 11
382.271
 21
161.713
 31
0.0
  0
LINE
  5
11CF
330
1306
100
AcDbEntity
  8
8
100
AcDbLine
 10
368.042
 20
156.464
 30
0.0
 11
373.7380000000001
 21
162.16
 31
0.0
  0
LINE
  5
11D0
330
1306
100
AcDbEntity
  8
8
100
AcDbLine
 10
359.509
 20
156.911
 30
0.0
 11
365.205
 21
162.608
 31
0.0
  0
LINE
  5
11D1
330
1306
100
AcDbEntity
  8
8
100
AcDbLine
 10
350.975
 20
157.358
 30
0.0
 11
356.672
 21
163.055
 31
0.0
  0
LINE
  5
11D2
330
1306
100
AcDbEntity
  8
8
100
AcDbLine
 10
342.442
 20
157.805
 30
0.0
 11
348.139
 21
163.502
 31
0.0
  0
LINE
  5
11D3
330
1306
100
AcDbEntity
  8
8
100
AcDbLine
 10
333.909
 20
158.253
 30
0.0
 11
339.606
 21
163.949
 31
0.0
  0
LINE
  5
11D4
330
1306
100
AcDbEntity
  8
8
100
AcDbLine
 10
325.376
 20
158.7
 30
0.0
 11
331.073
 21
164.396
 31
0.0
  0
LINE
  5
11D5
330
1306
100
AcDbEntity
  8
8
100
AcDbLine
 10
316.843
 20
159.147
 30
0.0
 11
322.54
 21
164.844
 31
0.0
  0
LINE
  5
11D6
330
1306
100
AcDbEntity
  8
8
100
AcDbLine
 10
308.535
 20
159.819
 30
0.0
 11
314.007
 21
165.291
 31
0.0
  0
LINE
  5
11D7
330
1306
100
AcDbEntity
  8
8
100
AcDbLine
 10
301.518
 20
161.782
 30
0.0
 11
305.87
 21
166.134
 31
0.0
  0
LINE
  5
11D8
330
1306
100
AcDbEntity
  8
8
100
AcDbLine
 10
295.948
 20
165.192
 30
0.0
 11
299.765
 21
169.009
 31
0.0
  0
LINE
  5
11D9
330
1306
100
AcDbEntity
  8
8
100
AcDbLine
 10
291.516
 20
169.741
 30
0.0
 11
295.213
 21
173.437
 31
0.0
  0
LINE
  5
11DA
330
1306
100
AcDbEntity
  8
8
100
AcDbLine
 10
288.233
 20
175.438
 30
0.0
 11
292.077
 21
179.282
 31
0.0
  0
LINE
  5
11DB
330
1306
100
AcDbEntity
  8
8
100
AcDbLine
 10
286.445
 20
182.63
 30
0.0
 11
291.089
 21
187.274
 31
0.0
  0
LINE
  5
11DC
330
1306
100
AcDbEntity
  8
8
100
AcDbLine
 10
285.952
 20
191.117
 30
0.0
 11
290.786
 21
195.952
 31
0.0
  0
LINE
  5
11DD
330
1306
100
AcDbEntity
  8
8
100
AcDbLine
 10
285.649
 20
199.794
 30
0.0
 11
290.483
 21
204.629
 31
0.0
  0
LINE
  5
11DE
330
1306
100
AcDbEntity
  8
8
100
AcDbLine
 10
285.346
 20
208.472
 30
0.0
 11
290.18
 21
213.306
 31
0.0
  0
LINE
  5
11DF
330
1306
100
AcDbEntity
  8
8
100
AcDbLine
 10
285.043
 20
217.149
 30
0.0
 11
289.877
 21
221.983
 31
0.0
  0
LINE
  5
11E0
330
1306
100
AcDbEntity
  8
8
100
AcDbLine
 10
284.74
 20
225.826
 30
0.0
 11
289.574
 21
230.661
 31
0.0
  0
LINE
  5
11E1
330
1306
100
AcDbEntity
  8
8
100
AcDbLine
 10
284.437
 20
234.503
 30
0.0
 11
289.271
 21
239.338
 31
0.0
  0
LINE
  5
11E2
330
1306
100
AcDbEntity
  8
8
100
AcDbLine
 10
284.134
 20
243.181
 30
0.0
 11
288.968
 21
248.015
 31
0.0
  0
LINE
  5
11E3
330
1306
100
AcDbEntity
  8
8
100
AcDbLine
 10
283.8309999999999
 20
251.858
 30
0.0
 11
288.665
 21
256.692
 31
0.0
  0
LINE
  5
11E4
330
1306
100
AcDbEntity
  8
8
100
AcDbLine
 10
283.528
 20
260.535
 30
0.0
 11
291.345
 21
268.3520000000001
 31
0.0
  0
LINE
  5
11E5
330
1306
100
AcDbEntity
  8
8
100
AcDbLine
 10
283.225
 20
269.212
 30
0.0
 11
288.059
 21
274.047
 31
0.0
  0
LINE
  5
11E6
330
1306
100
AcDbEntity
  8
8
100
AcDbLine
 10
282.921
 20
277.89
 30
0.0
 11
287.756
 21
282.724
 31
0.0
  0
LINE
  5
11E7
330
1306
100
AcDbEntity
  8
8
100
AcDbLine
 10
282.618
 20
286.567
 30
0.0
 11
287.453
 21
291.401
 31
0.0
  0
LINE
  5
11E8
330
1306
100
AcDbEntity
  8
8
100
AcDbLine
 10
282.315
 20
295.244
 30
0.0
 11
287.149
 21
300.078
 31
0.0
  0
LINE
  5
11E9
330
1306
100
AcDbEntity
  8
8
100
AcDbLine
 10
282.012
 20
303.921
 30
0.0
 11
286.846
 21
308.755
 31
0.0
  0
LINE
  5
11EA
330
1306
100
AcDbEntity
  8
8
100
AcDbLine
 10
279.815
 20
310.704
 30
0.0
 11
285.508
 21
316.398
 31
0.0
  0
LINE
  5
11EB
330
1306
100
AcDbEntity
  8
8
100
AcDbLine
 10
250.767
 20
290.636
 30
0.0
 11
258.649
 21
298.519
 31
0.0
  0
LINE
  5
11EC
330
1306
100
AcDbEntity
  8
8
100
AcDbLine
 10
273.289
 20
313.158
 30
0.0
 11
278.763
 21
318.633
 31
0.0
  0
LINE
  5
11ED
330
1306
100
AcDbEntity
  8
8
100
AcDbLine
 10
242.384
 20
291.234
 30
0.0
 11
260.861
 21
309.71
 31
0.0
  0
LINE
  5
11EE
330
1306
100
AcDbEntity
  8
8
100
AcDbLine
 10
265.031
 20
313.881
 30
0.0
 11
275.313
 21
324.163
 31
0.0
  0
LINE
  5
11EF
330
1306
100
AcDbEntity
  8
8
100
AcDbLine
 10
237.487
 20
295.317
 30
0.0
 11
243.345
 21
301.174
 31
0.0
  0
LINE
  5
11F0
330
1306
100
AcDbEntity
  8
8
100
AcDbLine
 10
252.345
 20
310.174
 30
0.0
 11
262.312
 21
320.142
 31
0.0
  0
LINE
  5
11F1
330
1306
100
AcDbEntity
  8
8
100
AcDbLine
 10
235.189
 20
301.999
 30
0.0
 11
242.345
 21
309.155
 31
0.0
  0
LINE
  5
11F2
330
1306
100
AcDbEntity
  8
8
100
AcDbLine
 10
252.345
 20
319.155
 30
0.0
 11
254.054
 21
320.864
 31
0.0
  0
LINE
  5
11F3
330
1306
100
AcDbEntity
  8
8
100
AcDbLine
 10
233.843
 20
309.633
 30
0.0
 11
242.345
 21
318.135
 31
0.0
  0
LINE
  5
11F4
330
1306
100
AcDbEntity
  8
8
100
AcDbLine
 10
231.677
 20
316.448
 30
0.0
 11
237.538
 21
322.309
 31
0.0
  0
LINE
  5
11F5
330
1306
100
AcDbEntity
  8
8
100
AcDbLine
 10
223.984
 20
317.735
 30
0.0
 11
229.28
 21
323.031
 31
0.0
  0
LINE
  5
11F6
330
1306
100
AcDbEntity
  8
8
100
AcDbLine
 10
217.107
 20
319.838
 30
0.0
 11
221.912
 21
324.643
 31
0.0
  0
LINE
  5
11F7
330
1306
100
AcDbEntity
  8
8
100
AcDbLine
 10
210.229
 20
321.941
 30
0.0
 11
215.034
 21
326.746
 31
0.0
  0
LINE
  5
11F8
330
1306
100
AcDbEntity
  8
8
100
AcDbLine
 10
201.471
 20
322.163
 30
0.0
 11
208.157
 21
328.848
 31
0.0
  0
LINE
  5
11F9
330
1306
100
AcDbEntity
  8
8
100
AcDbLine
 10
192.491
 20
322.163
 30
0.0
 11
201.279
 21
330.9509999999999
 31
0.0
  0
ENDBLK
  5
11FA
330
1306
100
AcDbEntity
  8
0
100
AcDbBlockEnd
  0
BLOCK
  5
1268
330
130A
100
AcDbEntity
  8
0
100
AcDbBlockBegin
  2
*X4
 70
     1
 10
0.0
 20
0.0
 30
0.0
  3
*X4
  1

  0
LINE
  5
1269
330
130A
100
AcDbEntity
  8
8
100
AcDbLine
 10
700.871
 20
291.727
 30
0.0
 11
706.446
 21
297.302
 31
0.0
  0
LINE
  5
126A
330
130A
100
AcDbEntity
  8
8
100
AcDbLine
 10
692.333
 20
292.17
 30
0.0
 11
699.4769999999999
 21
299.314
 31
0.0
  0
LINE
  5
126B
330
130A
100
AcDbEntity
  8
8
100
AcDbLine
 10
684.921
 20
293.738
 30
0.0
 11
690.944
 21
299.761
 31
0.0
  0
LINE
  5
126C
330
130A
100
AcDbEntity
  8
8
100
AcDbLine
 10
676.689
 20
294.487
 30
0.0
 11
682.4110000000001
 21
300.208
 31
0.0
  0
LINE
  5
126D
330
130A
100
AcDbEntity
  8
8
100
AcDbLine
 10
668.1560000000001
 20
294.934
 30
0.0
 11
673.878
 21
300.655
 31
0.0
  0
LINE
  5
126E
330
130A
100
AcDbEntity
  8
8
100
AcDbLine
 10
659.623
 20
295.381
 30
0.0
 11
665.3439999999999
 21
301.102
 31
0.0
  0
LINE
  5
126F
330
130A
100
AcDbEntity
  8
8
100
AcDbLine
 10
651.09
 20
295.828
 30
0.0
 11
656.811
 21
301.55
 31
0.0
  0
LINE
  5
1270
330
130A
100
AcDbEntity
  8
8
100
AcDbLine
 10
642.557
 20
296.275
 30
0.0
 11
648.2779999999999
 21
301.997
 31
0.0
  0
LINE
  5
1271
330
130A
100
AcDbEntity
  8
8
100
AcDbLine
 10
634.024
 20
296.723
 30
0.0
 11
639.745
 21
302.444
 31
0.0
  0
LINE
  5
1272
330
130A
100
AcDbEntity
  8
8
100
AcDbLine
 10
625.4909999999999
 20
297.17
 30
0.0
 11
631.212
 21
302.891
 31
0.0
  0
LINE
  5
1273
330
130A
100
AcDbEntity
  8
8
100
AcDbLine
 10
616.958
 20
297.617
 30
0.0
 11
622.679
 21
303.338
 31
0.0
  0
LINE
  5
1274
330
130A
100
AcDbEntity
  8
8
100
AcDbLine
 10
608.4249999999999
 20
298.064
 30
0.0
 11
614.1459999999999
 21
303.785
 31
0.0
  0
LINE
  5
1275
330
130A
100
AcDbEntity
  8
8
100
AcDbLine
 10
599.8919999999999
 20
298.511
 30
0.0
 11
605.613
 21
304.233
 31
0.0
  0
LINE
  5
1276
330
130A
100
AcDbEntity
  8
8
100
AcDbLine
 10
591.359
 20
298.959
 30
0.0
 11
597.08
 21
304.68
 31
0.0
  0
LINE
  5
1277
330
130A
100
AcDbEntity
  8
8
100
AcDbLine
 10
582.826
 20
299.406
 30
0.0
 11
588.547
 21
305.127
 31
0.0
  0
LINE
  5
1278
330
130A
100
AcDbEntity
  8
8
100
AcDbLine
 10
574.293
 20
299.853
 30
0.0
 11
580.0139999999999
 21
305.574
 31
0.0
  0
LINE
  5
1279
330
130A
100
AcDbEntity
  8
8
100
AcDbLine
 10
565.7589999999999
 20
300.3
 30
0.0
 11
571.4809999999999
 21
306.021
 31
0.0
  0
LINE
  5
127A
330
130A
100
AcDbEntity
  8
8
100
AcDbLine
 10
557.5479999999999
 20
301.069
 30
0.0
 11
562.948
 21
306.469
 31
0.0
  0
LINE
  5
127B
330
130A
100
AcDbEntity
  8
8
100
AcDbLine
 10
552.4049999999999
 20
304.906
 30
0.0
 11
556.114
 21
308.616
 31
0.0
  0
LINE
  5
127C
330
130A
100
AcDbEntity
  8
8
100
AcDbLine
 10
550.0239999999999
 20
311.505
 30
0.0
 11
554.1059999999999
 21
315.588
 31
0.0
  0
LINE
  5
127D
330
130A
100
AcDbEntity
  8
8
100
AcDbLine
 10
548.1259999999999
 20
318.588
 30
0.0
 11
552.208
 21
322.67
 31
0.0
  0
LINE
  5
127E
330
130A
100
AcDbEntity
  8
8
100
AcDbLine
 10
542.721
 20
322.163
 30
0.0
 11
550.311
 21
329.753
 31
0.0
  0
LINE
  5
127F
330
130A
100
AcDbEntity
  8
8
100
AcDbLine
 10
533.104
 20
321.526
 30
0.0
 11
542.1409999999999
 21
330.5630000000001
 31
0.0
  0
LINE
  5
1280
330
130A
100
AcDbEntity
  8
8
100
AcDbLine
 10
520.169
 20
317.572
 30
0.0
 11
529.206
 21
326.6090000000001
 31
0.0
  0
LINE
  5
1281
330
130A
100
AcDbEntity
  8
8
100
AcDbLine
 10
510.1669999999999
 20
316.55
 30
0.0
 11
516.7669999999999
 21
323.15
 31
0.0
  0
LINE
  5
1282
330
130A
100
AcDbEntity
  8
8
100
AcDbLine
 10
453.345
 20
268.708
 30
0.0
 11
461.7399999999999
 21
277.103
 31
0.0
  0
LINE
  5
1283
330
130A
100
AcDbEntity
  8
8
100
AcDbLine
 10
500.326
 20
315.689
 30
0.0
 11
506.9259999999999
 21
322.289
 31
0.0
  0
LINE
  5
1284
330
130A
100
AcDbEntity
  8
8
100
AcDbLine
 10
456.8789999999999
 20
281.223
 30
0.0
 11
462.065
 21
286.408
 31
0.0
  0
LINE
  5
1285
330
130A
100
AcDbEntity
  8
8
100
AcDbLine
 10
490.485
 20
314.828
 30
0.0
 11
496.583
 21
320.926
 31
0.0
  0
LINE
  5
1286
330
130A
100
AcDbEntity
  8
8
100
AcDbLine
 10
457.2049999999999
 20
290.528
 30
0.0
 11
462.3899999999999
 21
295.713
 31
0.0
  0
LINE
  5
1287
330
130A
100
AcDbEntity
  8
8
100
AcDbLine
 10
480.643
 20
313.967
 30
0.0
 11
487.244
 21
320.567
 31
0.0
  0
LINE
  5
1288
330
130A
100
AcDbEntity
  8
8
100
AcDbLine
 10
457.5299999999999
 20
299.834
 30
0.0
 11
462.7149999999999
 21
305.018
 31
0.0
  0
LINE
  5
1289
330
130A
100
AcDbEntity
  8
8
100
AcDbLine
 10
470.8019999999999
 20
313.106
 30
0.0
 11
477.402
 21
319.706
 31
0.0
  0
LINE
  5
128A
330
130A
100
AcDbEntity
  8
8
100
AcDbLine
 10
457.91
 20
309.194
 30
0.0
 11
465.3789999999999
 21
316.663
 31
0.0
  0
LINE
  5
128B
330
130A
100
AcDbEntity
  8
8
100
AcDbLine
 10
465.847
 20
317.131
 30
0.0
 11
472.879
 21
324.163
 31
0.0
  0
ENDBLK
  5
128C
330
130A
100
AcDbEntity
  8
0
100
AcDbBlockEnd
  0
BLOCK
  5
1316
330
1315
100
AcDbEntity
  8
0
100
AcDbBlockBegin
  2
KATALOG_LEER
 70
     0
 10
0.0
 20
0.0
 30
0.0
  3
KATALOG_LEER
  1

  0
ENDBLK
  5
1317
330
1315
100
AcDbEntity
  8
0
100
AcDbBlockEnd
  0
BLOCK
  5
1458
330
1378
100
AcDbEntity
  8
0
100
AcDbBlockBegin
  2
*D7
 70
     1
 10
0.0
 20
0.0
 30
0.0
  3
*D7
  1

  0
LINE
  5
155D
330
1378
100
AcDbEntity
  8
5
370
    -2
100
AcDbLine
 10
146.238001
 20
437.99532
 30
0.0
 11
146.238001
 21
545.00732
 31
0.0
  0
LINE
  5
155E
330
1378
100
AcDbEntity
  8
5
370
    -2
100
AcDbLine
 10
506.238001
 20
437.99532
 30
0.0
 11
506.238001
 21
545.00732
 31
0.0
  0
LINE
  5
155F
330
1378
100
AcDbEntity
  8
5
370
    -2
100
AcDbLine
 10
171.238001
 20
540.00732
 30
0.0
 11
481.238001
 21
540.00732
 31
0.0
  0
SOLID
  5
1560
330
1378
100
AcDbEntity
  8
5
100
AcDbTrace
 10
171.238001
 20
544.1739866666666
 30
0.0
 11
171.238001
 21
535.8406533333334
 31
0.0
 12
146.238001
 22
540.00732
 32
0.0
 13
146.238001
 23
540.00732
 33
0.0
  0
SOLID
  5
1561
330
1378
100
AcDbEntity
  8
5
100
AcDbTrace
 10
481.238001
 20
544.1739866666666
 30
0.0
 11
481.238001
 21
535.8406533333334
 31
0.0
 12
506.238001
 22
540.00732
 32
0.0
 13
506.238001
 23
540.00732
 33
0.0
  0
MTEXT
  5
1562
330
1378
100
AcDbEntity
  8
5
 62
     2
100
AcDbMText
 10
324.899001
 20
551.75732
 30
0.0
 40
17.5
 41
0.0
 71
     5
 72
     1
  1
%%c 360
 73
     1
 44
1.0
1001
ACAD
1000
MTEXTBEGIN
1070
    73
1070
     1
1070
    44
1040
1.0
1070
    74
1070
     0
1000
MTEXTEND
  0
POINT
  5
1563
330
1378
100
AcDbEntity
  8
DEFPOINTS
 62
     0
100
AcDbPoint
 10
146.238001
 20
432.99532
 30
0.0
  0
POINT
  5
1564
330
1378
100
AcDbEntity
  8
DEFPOINTS
 62
     0
100
AcDbPoint
 10
506.238001
 20
432.99532
 30
0.0
  0
POINT
  5
1565
330
1378
100
AcDbEntity
  8
DEFPOINTS
 62
     0
100
AcDbPoint
 10
506.238001
 20
540.00732
 30
0.0
  0
ENDBLK
  5
1462
330
1378
100
AcDbEntity
  8
0
100
AcDbBlockEnd
  0
BLOCK
  5
13C6
330
13BA
100
AcDbEntity
  8
0
100
AcDbBlockBegin
  2
*D10
 70
     1
 10
0.0
 20
0.0
 30
0.0
  3
*D10
  1

  0
LINE
  5
156D
330
13BA
100
AcDbEntity
  8
5
370
    -2
100
AcDbLine
 10
226.239001
 20
451.9953199999999
 30
0.0
 11
226.239001
 21
516.13432
 31
0.0
  0
LINE
  5
156E
330
13BA
100
AcDbEntity
  8
5
370
    -2
100
AcDbLine
 10
426.2390009999999
 20
451.9953199999999
 30
0.0
 11
426.2390009999999
 21
516.13432
 31
0.0
  0
LINE
  5
156F
330
13BA
100
AcDbEntity
  8
5
370
    -2
100
AcDbLine
 10
251.239001
 20
511.13432
 30
0.0
 11
401.2390009999999
 21
511.13432
 31
0.0
  0
SOLID
  5
1570
330
13BA
100
AcDbEntity
  8
5
100
AcDbTrace
 10
251.239001
 20
515.3009866666666
 30
0.0
 11
251.239001
 21
506.9676533333333
 31
0.0
 12
226.239001
 22
511.13432
 32
0.0
 13
226.239001
 23
511.13432
 33
0.0
  0
SOLID
  5
1571
330
13BA
100
AcDbEntity
  8
5
100
AcDbTrace
 10
401.2390009999999
 20
515.3009866666666
 30
0.0
 11
401.2390009999999
 21
506.9676533333333
 31
0.0
 12
426.2390009999999
 22
511.13432
 32
0.0
 13
426.2390009999999
 23
511.13432
 33
0.0
  0
MTEXT
  5
1572
330
13BA
100
AcDbEntity
  8
5
 62
     2
100
AcDbMText
 10
325.197001
 20
522.8860424409448
 30
0.0
 40
17.5
 41
0.0
 71
     5
 72
     1
  1
%%c 200
 73
     1
 44
1.0
1001
ACAD
1000
MTEXTBEGIN
1070
    73
1070
     1
1070
    44
1040
1.0
1070
    74
1070
     0
1000
MTEXTEND
  0
POINT
  5
1573
330
13BA
100
AcDbEntity
  8
DEFPOINTS
 62
     0
100
AcDbPoint
 10
226.239001
 20
446.9953199999999
 30
0.0
  0
POINT
  5
1574
330
13BA
100
AcDbEntity
  8
DEFPOINTS
 62
     0
100
AcDbPoint
 10
426.2390009999999
 20
446.9953199999999
 30
0.0
  0
POINT
  5
1575
330
13BA
100
AcDbEntity
  8
DEFPOINTS
 62
     0
100
AcDbPoint
 10
426.2390009999999
 20
511.13432
 30
0.0
  0
ENDBLK
  5
13D0
330
13BA
100
AcDbEntity
  8
0
100
AcDbBlockEnd
  0
BLOCK
  5
13DD
330
13D1
100
AcDbEntity
  8
0
100
AcDbBlockBegin
  2
*D11
 70
     1
 10
0.0
 20
0.0
 30
0.0
  3
*D11
  1

  0
LINE
  5
1588
330
13D1
100
AcDbEntity
  8
5
370
    -2
100
AcDbLine
 10
146.567001
 20
442.88532
 30
0.0
 11
37.09800100000008
 21
442.88532
 31
0.0
  0
LINE
  5
1589
330
13D1
100
AcDbEntity
  8
5
370
    -2
100
AcDbLine
 10
321.239001
 20
267.0703200000001
 30
0.0
 11
37.09800100000001
 21
267.0703200000001
 31
0.0
  0
LINE
  5
158A
330
13D1
100
AcDbEntity
  8
5
370
    -2
100
AcDbLine
 10
42.09800100000007
 20
417.88532
 30
0.0
 11
42.09800100000005
 21
292.0703200000001
 31
0.0
  0
SOLID
  5
158B
330
13D1
100
AcDbEntity
  8
5
100
AcDbTrace
 10
37.93133433333341
 20
417.88532
 30
0.0
 11
46.26466766666673
 21
417.88532
 31
0.0
 12
42.09800100000008
 22
442.88532
 32
0.0
 13
42.09800100000008
 23
442.88532
 33
0.0
  0
SOLID
  5
158C
330
13D1
100
AcDbEntity
  8
5
100
AcDbTrace
 10
37.93133433333338
 20
292.0703200000001
 30
0.0
 11
46.26466766666671
 21
292.0703200000001
 31
0.0
 12
42.09800100000004
 22
267.0703200000001
 32
0.0
 13
42.09800100000004
 23
267.0703200000001
 33
0.0
  0
MTEXT
  5
158D
330
13D1
100
AcDbEntity
  8
5
 62
     2
100
AcDbMText
 10
30.348001
 20
362.13332
 30
0.0
 40
17.5
 41
0.0
 71
     5
 72
     1
  1
176
 11
0.0000000000000001
 21
1.0
 31
0.0
 73
     1
 44
1.0
1001
ACAD
1000
MTEXTBEGIN
1070
    73
1070
     1
1070
    44
1040
1.0
1070
    74
1070
     0
1000
MTEXTEND
  0
POINT
  5
158E
330
13D1
100
AcDbEntity
  8
DEFPOINTS
 62
     0
100
AcDbPoint
 10
151.567001
 20
442.88532
 30
0.0
  0
POINT
  5
158F
330
13D1
100
AcDbEntity
  8
DEFPOINTS
 62
     0
100
AcDbPoint
 10
326.239001
 20
267.0703200000001
 30
0.0
  0
POINT
  5
1590
330
13D1
100
AcDbEntity
  8
DEFPOINTS
 62
     0
100
AcDbPoint
 10
42.09800100000004
 20
267.0703200000001
 30
0.0
  0
ENDBLK
  5
13E7
330
13D1
100
AcDbEntity
  8
0
100
AcDbBlockEnd
  0
BLOCK
  5
13F4
330
13E8
100
AcDbEntity
  8
0
100
AcDbBlockBegin
  2
*D12
 70
     1
 10
0.0
 20
0.0
 30
0.0
  3
*D12
  1

  0
LINE
  5
157F
330
13E8
100
AcDbEntity
  8
5
370
    -2
100
AcDbLine
 10
326.239001
 20
262.07032
 30
0.0
 11
326.239001
 21
177.22232
 31
0.0
  0
LINE
  5
1580
330
13E8
100
AcDbEntity
  8
5
370
    -2
100
AcDbLine
 10
656.239001
 20
324.88532
 30
0.0
 11
656.239001
 21
177.22232
 31
0.0
  0
LINE
  5
1581
330
13E8
100
AcDbEntity
  8
5
370
    -2
100
AcDbLine
 10
351.239001
 20
182.22232
 30
0.0
 11
631.239001
 21
182.22232
 31
0.0
  0
SOLID
  5
1582
330
13E8
100
AcDbEntity
  8
5
100
AcDbTrace
 10
351.239001
 20
186.3889866666666
 30
0.0
 11
351.239001
 21
178.0556533333333
 31
0.0
 12
326.239001
 22
182.22232
 32
0.0
 13
326.239001
 23
182.22232
 33
0.0
  0
SOLID
  5
1583
330
13E8
100
AcDbEntity
  8
5
100
AcDbTrace
 10
631.239001
 20
186.3889866666666
 30
0.0
 11
631.239001
 21
178.0556533333333
 31
0.0
 12
656.239001
 22
182.22232
 32
0.0
 13
656.239001
 23
182.22232
 33
0.0
  0
MTEXT
  5
1584
330
13E8
100
AcDbEntity
  8
5
 62
     2
100
AcDbMText
 10
491.239001
 20
193.97232
 30
0.0
 40
17.5
 41
0.0
 71
     5
 72
     1
  1
330
 73
     1
 44
1.0
1001
ACAD
1000
MTEXTBEGIN
1070
    73
1070
     1
1070
    44
1040
1.0
1070
    74
1070
     0
1000
MTEXTEND
  0
POINT
  5
1585
330
13E8
100
AcDbEntity
  8
DEFPOINTS
 62
     0
100
AcDbPoint
 10
326.239001
 20
267.0703200000001
 30
0.0
  0
POINT
  5
1586
330
13E8
100
AcDbEntity
  8
DEFPOINTS
 62
     0
100
AcDbPoint
 10
656.239001
 20
329.88532
 30
0.0
  0
POINT
  5
1587
330
13E8
100
AcDbEntity
  8
DEFPOINTS
 62
     0
100
AcDbPoint
 10
656.239001
 20
182.22232
 30
0.0
  0
ENDBLK
  5
13FE
330
13E8
100
AcDbEntity
  8
0
100
AcDbBlockEnd
  0
BLOCK
  5
140B
330
13FF
100
AcDbEntity
  8
0
100
AcDbBlockBegin
  2
*D13
 70
     1
 10
0.0
 20
0.0
 30
0.0
  3
*D13
  1

  0
LINE
  5
1576
330
13FF
100
AcDbEntity
  8
5
370
    -2
100
AcDbLine
 10
505.9100009999999
 20
442.88532
 30
0.0
 11
734.3310010000001
 21
442.8853199999999
 31
0.0
  0
LINE
  5
1577
330
13FF
100
AcDbEntity
  8
5
370
    -2
100
AcDbLine
 10
661.239001
 20
329.88532
 30
0.0
 11
734.3310010000001
 21
329.88532
 31
0.0
  0
LINE
  5
1578
330
13FF
100
AcDbEntity
  8
5
370
    -2
100
AcDbLine
 10
729.3310010000001
 20
417.8853199999999
 30
0.0
 11
729.3310010000001
 21
354.88532
 31
0.0
  0
SOLID
  5
1579
330
13FF
100
AcDbEntity
  8
5
100
AcDbTrace
 10
725.1643343333334
 20
417.8853199999999
 30
0.0
 11
733.4976676666667
 21
417.8853199999999
 31
0.0
 12
729.3310010000001
 22
442.8853199999999
 32
0.0
 13
729.3310010000001
 23
442.8853199999999
 33
0.0
  0
SOLID
  5
157A
330
13FF
100
AcDbEntity
  8
5
100
AcDbTrace
 10
725.1643343333334
 20
354.88532
 30
0.0
 11
733.4976676666667
 21
354.88532
 31
0.0
 12
729.3310010000001
 22
329.88532
 32
0.0
 13
729.3310010000001
 23
329.88532
 33
0.0
  0
MTEXT
  5
157B
330
13FF
100
AcDbEntity
  8
5
 62
     2
100
AcDbMText
 10
717.581001
 20
385.15932
 30
0.0
 40
17.5
 41
0.0
 71
     5
 72
     1
  1
113
 11
0.0000000000000001
 21
1.0
 31
0.0
 73
     1
 44
1.0
1001
ACAD
1000
MTEXTBEGIN
1070
    73
1070
     1
1070
    44
1040
1.0
1070
    74
1070
     0
1000
MTEXTEND
  0
POINT
  5
157C
330
13FF
100
AcDbEntity
  8
DEFPOINTS
 62
     0
100
AcDbPoint
 10
500.910001
 20
442.88532
 30
0.0
  0
POINT
  5
157D
330
13FF
100
AcDbEntity
  8
DEFPOINTS
 62
     0
100
AcDbPoint
 10
656.239001
 20
329.88532
 30
0.0
  0
POINT
  5
157E
330
13FF
100
AcDbEntity
  8
DEFPOINTS
 62
     0
100
AcDbPoint
 10
729.3310010000001
 20
329.88532
 30
0.0
  0
ENDBLK
  5
1415
330
13FF
100
AcDbEntity
  8
0
100
AcDbBlockEnd
  0
BLOCK
  5
154F
330
154D
100
AcDbEntity
  8
0
100
AcDbBlockBegin
  2
GENAXEH
 70
     0
 10
0.0
 20
0.0
 30
0.0
  3
GENAXEH
  1

  0
LINE
  5
154E
330
154D
100
AcDbEntity
  8
0
100
AcDbLine
 10
-1.0
 20
0.0
 30
0.0
 11
1.0
 21
0.0
 31
0.0
  0
ENDBLK
  5
1550
330
154D
100
AcDbEntity
  8
0
100
AcDbBlockEnd
  0
ENDSEC
  0
SECTION
  2
ENTITIES
  0
LINE
  5
1001
330
12E8
100
AcDbEntity
  8
MAßLINIEN
 62
     4
100
AcDbLine
 10
326.239001
 20
466.3813199999999
 30
0.0
 11
326.239001
 21
267.0703200000001
 31
0.0
  0
LINE
  5
1002
330
12E8
100
AcDbEntity
  8
0
100
AcDbLine
 10
426.2390009999999
 20
446.9953199999999
 30
0.0
 11
226.239001
 21
446.9953199999999
 31
0.0
  0
LINE
  5
1003
330
12E8
100
AcDbEntity
  8
0
100
AcDbLine
 10
419.9000009999999
 20
430.9953199999999
 30
0.0
 11
339.677001
 21
430.9953199999999
 31
0.0
  0
LINE
  5
1004
330
12E8
100
AcDbEntity
  8
0
100
AcDbLine
 10
419.7170009999999
 20
427.4953199999999
 30
0.0
 11
413.121001
 21
427.4953199999999
 31
0.0
  0
LINE
  5
1005
330
12E8
100
AcDbEntity
  8
0
100
AcDbLine
 10
338.738001
 20
427.4953199999999
 30
0.0
 11
339.676001
 21
430.9953199999999
 31
0.0
  0
LINE
  5
1006
330
12E8
100
AcDbEntity
  8
0
100
AcDbLine
 10
313.738001
 20
427.4953199999999
 30
0.0
 11
312.801001
 21
430.9953199999999
 31
0.0
  0
LINE
  5
1007
330
12E8
100
AcDbEntity
  8
0
100
AcDbLine
 10
239.356001
 20
427.4953199999999
 30
0.0
 11
232.760001
 21
427.4953199999999
 31
0.0
  0
LINE
  5
1008
330
12E8
100
AcDbEntity
  8
0
100
AcDbLine
 10
338.739001
 20
427.4953199999999
 30
0.0
 11
313.739001
 21
427.4953199999999
 31
0.0
  0
LINE
  5
1009
330
12E8
100
AcDbEntity
  8
0
100
AcDbLine
 10
312.801001
 20
430.9953199999999
 30
0.0
 11
232.577001
 21
430.9953199999999
 31
0.0
  0
LINE
  5
100A
330
12E8
100
AcDbEntity
  8
0
100
AcDbLine
 10
238.738001
 20
430.9953199999999
 30
0.0
 11
240.738001
 21
419.65332
 31
0.0
  0
LINE
  5
100B
330
12E8
100
AcDbEntity
  8
0
100
AcDbLine
 10
413.738001
 20
430.9953199999999
 30
0.0
 11
411.7380009999999
 21
419.65332
 31
0.0
  0
LINE
  5
100C
330
12E8
100
AcDbEntity
  8
0
100
AcDbLine
 10
411.7390009999999
 20
419.65332
 30
0.0
 11
240.739001
 21
419.65332
 31
0.0
  0
LINE
  5
100D
330
12E8
100
AcDbEntity
  8
0
100
AcDbLine
 10
231.738001
 20
446.99432
 30
0.0
 11
232.760001
 21
427.4953199999999
 31
0.0
  0
LINE
  5
100E
330
12E8
100
AcDbEntity
  8
0
100
AcDbLine
 10
420.7380009999999
 20
446.9953199999999
 30
0.0
 11
419.716001
 21
427.4953199999999
 31
0.0
  0
LINE
  5
100F
330
12E8
100
AcDbEntity
  8
0
100
AcDbLine
 10
163.397001
 20
432.99532
 30
0.0
 11
146.239001
 21
432.99532
 31
0.0
  0
LINE
  5
1010
330
12E8
100
AcDbEntity
  8
0
100
AcDbLine
 10
499.1440009999999
 20
432.99532
 30
0.0
 11
489.0800009999999
 21
432.99532
 31
0.0
  0
LINE
  5
1011
330
12E8
100
AcDbEntity
  8
0
100
AcDbLine
 10
146.238001
 20
432.99532
 30
0.0
 11
148.421001
 21
441.14232
 31
0.0
  0
LINE
  5
1012
330
12E8
100
AcDbEntity
  8
0
100
AcDbLine
 10
509.600001
 20
420.44832
 30
0.0
 11
504.055001
 21
441.14232
 31
0.0
  0
ARC
  5
1013
330
12E8
100
AcDbEntity
  8
0
100
AcDbCircle
 10
501.6410009999999
 20
440.49532
 30
0.0
 40
2.5
100
AcDbArc
 50
15.0
 51
107.0
  0
ARC
  5
1014
330
12E8
100
AcDbEntity
  8
0
100
AcDbCircle
 10
150.837001
 20
440.49532
 30
0.0
 40
2.5
100
AcDbArc
 50
73.0
 51
165.0
  0
LINE
  5
1015
330
12E8
100
AcDbEntity
  8
0
100
AcDbLine
 10
500.910001
 20
442.88532
 30
0.0
 11
472.2390009999999
 21
434.1203199999999
 31
0.0
  0
LINE
  5
1016
330
12E8
100
AcDbEntity
  8
0
100
AcDbLine
 10
489.0800009999999
 20
432.99532
 30
0.0
 11
473.390001
 21
428.1983199999999
 31
0.0
  0
LINE
  5
1017
330
12E8
100
AcDbEntity
  8
0
100
AcDbLine
 10
151.567001
 20
442.88632
 30
0.0
 11
180.238001
 21
434.1203199999999
 31
0.0
  0
LINE
  5
1018
330
12E8
100
AcDbEntity
  8
0
100
AcDbLine
 10
163.396001
 20
432.99532
 30
0.0
 11
179.087001
 21
428.1983199999999
 31
0.0
  0
LINE
  5
1019
330
12E8
100
AcDbEntity
  8
0
100
AcDbLine
 10
180.238001
 20
434.1203199999999
 30
0.0
 11
194.600001
 21
432.86432
 31
0.0
  0
LINE
  5
101A
330
12E8
100
AcDbEntity
  8
0
100
AcDbLine
 10
472.238001
 20
434.1203199999999
 30
0.0
 11
457.8770009999999
 21
432.86432
 31
0.0
  0
ARC
  5
101B
330
12E8
100
AcDbEntity
  8
0
100
AcDbCircle
 10
201.239001
 20
412.99532
 30
0.0
 40
12.0
100
AcDbArc
 50
190.243
 51
350.0
  0
LINE
  5
101C
330
12E8
100
AcDbEntity
  8
0
100
AcDbLine
 10
473.3890009999999
 20
428.1983199999999
 30
0.0
 11
447.9380009999999
 21
425.97132
 31
0.0
  0
LINE
  5
101D
330
12E8
100
AcDbEntity
  8
0
100
AcDbLine
 10
179.087001
 20
428.1983199999999
 30
0.0
 11
184.576001
 21
427.71832
 31
0.0
  0
LINE
  5
101E
330
12E8
100
AcDbEntity
  8
0
100
AcDbLine
 10
213.056001
 20
410.91132
 30
0.0
 11
215.144001
 21
422.75232
 31
0.0
  0
LINE
  5
101F
330
12E8
100
AcDbEntity
  8
0
100
AcDbLine
 10
189.421001
 20
410.91132
 30
0.0
 11
186.820001
 21
425.66132
 31
0.0
  0
LINE
  5
1020
330
12E8
100
AcDbEntity
  8
0
100
AcDbLine
 10
217.824001
 20
424.80932
 30
0.0
 11
228.558001
 21
423.8703199999999
 31
0.0
  0
ARC
  5
1021
330
12E8
100
AcDbEntity
  8
0
100
AcDbCircle
 10
184.358001
 20
425.22732
 30
0.0
 40
2.5
100
AcDbArc
 50
10.001
 51
85.0
  0
ARC
  5
1022
330
12E8
100
AcDbEntity
  8
0
100
AcDbCircle
 10
217.606001
 20
422.31832
 30
0.0
 40
2.5
100
AcDbArc
 50
84.999
 51
170.0009999999999
  0
LINE
  5
1023
330
12E8
100
AcDbEntity
  8
0
100
AcDbLine
 10
449.174001
 20
426.07932
 30
0.0
 11
423.918001
 21
423.8703199999999
 31
0.0
  0
LINE
  5
1024
330
12E8
100
AcDbEntity
  8
0
100
AcDbLine
 10
429.710001
 20
434.9953199999999
 30
0.0
 11
420.1100009999999
 21
434.9953199999999
 31
0.0
  0
LINE
  5
1025
330
12E8
100
AcDbEntity
  8
0
100
AcDbLine
 10
232.367001
 20
434.9953199999999
 30
0.0
 11
225.189001
 21
434.9953199999999
 31
0.0
  0
LINE
  5
1026
330
12E8
100
AcDbEntity
  8
0
100
AcDbLine
 10
206.238001
 20
431.84632
 30
0.0
 11
219.728001
 21
430.66532
 31
0.0
  0
LINE
  5
1027
330
12E8
100
AcDbEntity
  8
0
100
AcDbLine
 10
206.239001
 20
431.75832
 30
0.0
 11
195.239001
 21
431.75832
 31
0.0
  0
LINE
  5
1028
330
12E8
100
AcDbEntity
  8
0
100
AcDbLine
 10
195.238001
 20
431.75832
 30
0.0
 11
194.600001
 21
432.86432
 31
0.0
  0
LINE
  5
1029
330
12E8
100
AcDbEntity
  8
0
100
AcDbLine
 10
445.2400009999999
 20
431.75832
 30
0.0
 11
430.196001
 21
430.44232
 31
0.0
  0
LINE
  5
102A
330
12E8
100
AcDbEntity
  8
0
100
AcDbLine
 10
427.7710009999999
 20
431.75832
 30
0.0
 11
429.6820009999999
 21
431.75832
 31
0.0
  0
LINE
  5
102B
330
12E8
100
AcDbEntity
  8
0
100
AcDbLine
 10
457.2380009999999
 20
431.75832
 30
0.0
 11
457.8770009999999
 21
432.86432
 31
0.0
  0
LINE
  5
102C
330
12E8
100
AcDbEntity
  8
0
100
AcDbLine
 10
197.239001
 20
419.25832
 30
0.0
 11
197.239001
 21
411.25832
 31
0.0
  0
LINE
  5
102D
330
12E8
100
AcDbEntity
  8
0
100
AcDbLine
 10
205.239001
 20
419.25832
 30
0.0
 11
205.239001
 21
411.25832
 31
0.0
  0
LINE
  5
102E
330
12E8
100
AcDbEntity
  8
0
100
AcDbLine
 10
206.239001
 20
431.75832
 30
0.0
 11
206.239001
 21
420.25832
 31
0.0
  0
LINE
  5
102F
330
12E8
100
AcDbEntity
  8
0
100
AcDbLine
 10
196.239001
 20
431.75832
 30
0.0
 11
196.239001
 21
420.25832
 31
0.0
  0
LINE
  5
1030
330
12E8
100
AcDbEntity
  8
0
100
AcDbLine
 10
196.239001
 20
416.75832
 30
0.0
 11
206.239001
 21
416.75832
 31
0.0
  0
LINE
  5
1031
330
12E8
100
AcDbEntity
  8
0
100
AcDbLine
 10
205.239001
 20
411.25832
 30
0.0
 11
197.239001
 21
411.25832
 31
0.0
  0
LINE
  5
1032
330
12E8
100
AcDbEntity
  8
0
100
AcDbLine
 10
457.8770009999999
 20
432.86332
 30
0.0
 11
439.6750009999999
 21
432.86332
 31
0.0
  0
LINE
  5
1033
330
12E8
100
AcDbEntity
  8
0
100
AcDbLine
 10
194.600001
 20
432.86432
 30
0.0
 11
196.239001
 21
432.86432
 31
0.0
  0
LINE
  5
1034
330
12E8
100
AcDbEntity
  8
0
100
AcDbLine
 10
205.239001
 20
411.25932
 30
0.0
 11
201.239001
 21
408.9493199999999
 31
0.0
  0
LINE
  5
1035
330
12E8
100
AcDbEntity
  8
0
100
AcDbLine
 10
197.239001
 20
411.25832
 30
0.0
 11
201.239001
 21
408.9493199999999
 31
0.0
  0
LINE
  5
1036
330
12E8
100
AcDbEntity
  8
0
100
AcDbLine
 10
283.483001
 20
434.9953199999999
 30
0.0
 11
275.3310009999999
 21
434.9953199999999
 31
0.0
  0
LINE
  5
1037
330
12E8
100
AcDbEntity
  8
0
100
AcDbLine
 10
272.903001
 20
436.89732
 30
0.0
 11
270.415001
 21
446.9953199999999
 31
0.0
  0
LINE
  5
1038
330
12E8
100
AcDbEntity
  8
0
100
AcDbLine
 10
281.421001
 20
436.61032
 30
0.0
 11
285.351001
 21
446.9953199999999
 31
0.0
  0
LINE
  5
1039
330
12E8
100
AcDbEntity
  8
0
100
AcDbLine
 10
288.1170009999999
 20
446.9953199999999
 30
0.0
 11
285.926001
 21
436.9613199999999
 31
0.0
  0
ARC
  5
103A
330
12E8
100
AcDbEntity
  8
0
100
AcDbCircle
 10
279.083001
 20
437.49532
 30
0.0
 40
2.5
100
AcDbArc
 50
270.002
 51
339.271
  0
ARC
  5
103B
330
12E8
100
AcDbEntity
  8
0
100
AcDbCircle
 10
283.483001
 20
437.49532
 30
0.0
 40
2.5
100
AcDbArc
 50
269.998
 51
347.683
  0
ARC
  5
103C
330
12E8
100
AcDbEntity
  8
0
100
AcDbCircle
 10
275.3310009999999
 20
437.49532
 30
0.0
 40
2.5
100
AcDbArc
 50
193.844
 51
269.998
  0
LINE
  5
103D
330
12E8
100
AcDbEntity
  8
0
100
AcDbLine
 10
368.994001
 20
434.9953199999999
 30
0.0
 11
377.147001
 21
434.9953199999999
 31
0.0
  0
LINE
  5
103E
330
12E8
100
AcDbEntity
  8
0
100
AcDbLine
 10
379.5740009999999
 20
436.89732
 30
0.0
 11
382.063001
 21
446.9953199999999
 31
0.0
  0
LINE
  5
103F
330
12E8
100
AcDbEntity
  8
0
100
AcDbLine
 10
371.056001
 20
436.61032
 30
0.0
 11
367.126001
 21
446.9953199999999
 31
0.0
  0
LINE
  5
1040
330
12E8
100
AcDbEntity
  8
0
100
AcDbLine
 10
364.361001
 20
446.99432
 30
0.0
 11
366.551001
 21
436.9613199999999
 31
0.0
  0
ARC
  5
1041
330
12E8
100
AcDbEntity
  8
0
100
AcDbCircle
 10
373.394001
 20
437.49532
 30
0.0
 40
2.5
100
AcDbArc
 50
200.729
 51
269.998
  0
ARC
  5
1042
330
12E8
100
AcDbEntity
  8
0
100
AcDbCircle
 10
368.994001
 20
437.49532
 30
0.0
 40
2.5
100
AcDbArc
 50
192.317
 51
270.003
  0
ARC
  5
1043
330
12E8
100
AcDbEntity
  8
0
100
AcDbCircle
 10
377.147001
 20
437.49532
 30
0.0
 40
2.5
100
AcDbArc
 50
270.002
 51
346.156
  0
LINE
  5
1044
330
12E8
100
AcDbEntity
  8
0
100
AcDbLine
 10
219.728001
 20
430.66532
 30
0.0
 11
222.281001
 21
430.44232
 31
0.0
  0
LINE
  5
1045
330
12E8
100
AcDbEntity
  8
0
100
AcDbLine
 10
226.238001
 20
446.9953199999999
 30
0.0
 11
224.989001
 21
432.71532
 31
0.0
  0
ARC
  5
1046
330
12E8
100
AcDbEntity
  8
0
100
AcDbCircle
 10
222.4990009999999
 20
432.93332
 30
0.0
 40
2.5
100
AcDbArc
 50
265.0
 51
355.0019999999999
  0
LINE
  5
1047
330
12E8
100
AcDbEntity
  8
0
100
AcDbLine
 10
426.2390009999999
 20
446.9953199999999
 30
0.0
 11
427.488001
 21
432.71432
 31
0.0
  0
ARC
  5
1048
330
12E8
100
AcDbEntity
  8
0
100
AcDbCircle
 10
429.9780009999999
 20
432.93232
 30
0.0
 40
2.5
100
AcDbArc
 50
184.999
 51
274.998
  0
LINE
  5
1049
330
12E8
100
AcDbEntity
  8
4
100
AcDbLine
 10
524.0690009999999
 20
347.12732
 30
0.0
 11
504.858001
 21
418.82732
 31
0.0
  0
ARC
  5
104A
330
12E8
100
AcDbEntity
  8
0
100
AcDbCircle
 10
499.1440009999999
 20
430.4953199999999
 30
0.0
 40
2.5
100
AcDbArc
 50
14.999
 51
90.0
  0
LINE
  5
104B
330
12E8
100
AcDbEntity
  8
0
100
AcDbLine
 10
407.2390009999999
 20
376.99532
 30
0.0
 11
244.816001
 21
376.99532
 31
0.0
  0
LINE
  5
104C
330
12E8
100
AcDbEntity
  8
0
100
AcDbLine
 10
408.0090009999999
 20
381.99532
 30
0.0
 11
244.467001
 21
381.99532
 31
0.0
  0
LINE
  5
104D
330
12E8
100
AcDbEntity
  8
0
100
AcDbLine
 10
245.070001
 20
295.6013200000001
 30
0.0
 11
242.318001
 21
374.40832
 31
0.0
  0
ARC
  5
104E
330
12E8
100
AcDbEntity
  8
0
100
AcDbCircle
 10
408.0090009999999
 20
384.49532
 30
0.0
 40
2.5
100
AcDbArc
 50
270.0
 51
0.0
  0
LINE
  5
104F
330
12E8
100
AcDbEntity
  8
0
100
AcDbLine
 10
407.2390009999999
 20
381.99532
 30
0.0
 11
407.2390009999999
 21
377.13132
 31
0.0
  0
ARC
  5
1050
330
12E8
100
AcDbEntity
  8
0
100
AcDbCircle
 10
244.467001
 20
384.49532
 30
0.0
 40
2.5
100
AcDbArc
 50
182.0
 51
269.997
  0
LINE
  5
1051
330
12E8
100
AcDbEntity
  8
0
100
AcDbLine
 10
245.239001
 20
381.99532
 30
0.0
 11
245.239001
 21
376.99532
 31
0.0
  0
LINE
  5
1052
330
12E8
100
AcDbEntity
  8
0
100
AcDbLine
 10
241.969001
 20
384.40832
 30
0.0
 11
240.738001
 21
419.65332
 31
0.0
  0
ARC
  5
1053
330
12E8
100
AcDbEntity
  8
0
100
AcDbCircle
 10
244.816001
 20
374.49532
 30
0.0
 40
2.5
100
AcDbArc
 50
90.005
 51
182.0
  0
LINE
  5
1054
330
12E8
100
AcDbEntity
  8
0
100
AcDbLine
 10
240.076001
 20
295.35232
 30
0.0
 11
235.856001
 21
416.1803199999999
 31
0.0
  0
LINE
  5
1055
330
12E8
100
AcDbEntity
  8
0
100
AcDbLine
 10
415.589001
 20
386.64632
 30
0.0
 11
416.6690009999999
 21
417.56732
 31
0.0
  0
LINE
  5
1056
330
12E8
100
AcDbEntity
  8
0
100
AcDbLine
 10
410.508001
 20
384.40832
 30
0.0
 11
411.7380009999999
 21
419.65332
 31
0.0
  0
ARC
  5
1057
330
12E8
100
AcDbEntity
  8
0
100
AcDbCircle
 10
424.6150009999999
 20
415.9003199999999
 30
0.0
 40
8.0
100
AcDbArc
 50
95.0
 51
178.0
  0
ARC
  5
1058
330
12E8
100
AcDbEntity
  8
0
100
AcDbCircle
 10
227.861001
 20
415.9003199999999
 30
0.0
 40
8.0
100
AcDbArc
 50
2.0
 51
85.0
  0
ARC
  5
1059
330
12E8
100
AcDbEntity
  8
0
100
AcDbCircle
 10
405.595001
 20
386.99532
 30
0.0
 40
10.0
100
AcDbArc
 50
270.0
 51
358.0
  0
LINE
  5
105A
330
12E8
100
AcDbEntity
  8
0
100
AcDbLine
 10
163.239001
 20
448.99532
 30
0.0
 11
191.791001
 21
448.99532
 31
0.0
  0
LINE
  5
105B
330
12E8
100
AcDbEntity
  8
0
100
AcDbLine
 10
222.767001
 20
434.9953199999999
 30
0.0
 11
225.189001
 21
434.9953199999999
 31
0.0
  0
LINE
  5
105C
330
12E8
100
AcDbEntity
  8
0
100
AcDbLine
 10
429.239001
 20
443.9953199999999
 30
0.0
 11
440.2360009999999
 21
444.57132
 31
0.0
  0
LINE
  5
105D
330
12E8
100
AcDbEntity
  8
0
100
AcDbLine
 10
212.240001
 20
444.57132
 30
0.0
 11
223.239001
 21
443.9953199999999
 31
0.0
  0
LINE
  5
105E
330
12E8
100
AcDbEntity
  8
0
100
AcDbLine
 10
189.510001
 20
444.57132
 30
0.0
 11
196.239001
 21
444.57132
 31
0.0
  0
LINE
  5
105F
330
12E8
100
AcDbEntity
  8
0
100
AcDbLine
 10
222.903001
 20
437.58032
 30
0.0
 11
223.239001
 21
443.9953199999999
 31
0.0
  0
LINE
  5
1060
330
12E8
100
AcDbEntity
  8
0
100
AcDbLine
 10
429.5750009999999
 20
437.58032
 30
0.0
 11
429.239001
 21
443.9953199999999
 31
0.0
  0
LINE
  5
1061
330
12E8
100
AcDbEntity
  8
0
100
AcDbLine
 10
180.238001
 20
438.7163199999999
 30
0.0
 11
196.238001
 21
437.31632
 31
0.0
  0
LINE
  5
1062
330
12E8
100
AcDbEntity
  8
0
100
AcDbLine
 10
429.710001
 20
434.9953199999999
 30
0.0
 11
472.2390009999999
 21
438.7163199999999
 31
0.0
  0
ARC
  5
1063
330
12E8
100
AcDbEntity
  8
0
100
AcDbCircle
 10
220.406001
 20
437.71132
 30
0.0
 40
2.5
100
AcDbArc
 50
265.001
 51
357.0
  0
LINE
  5
1064
330
12E8
100
AcDbEntity
  8
0
100
AcDbLine
 10
193.900001
 20
439.81132
 30
0.0
 11
194.739001
 21
444.57132
 31
0.0
  0
LINE
  5
1065
330
12E8
100
AcDbEntity
  8
0
100
AcDbLine
 10
208.885001
 20
438.06932
 30
0.0
 11
207.738001
 21
444.57132
 31
0.0
  0
ARC
  5
1066
330
12E8
100
AcDbEntity
  8
0
100
AcDbCircle
 10
211.347001
 20
438.50432
 30
0.0
 40
2.5
100
AcDbArc
 50
190.0
 51
265.0
  0
ARC
  5
1067
330
12E8
100
AcDbEntity
  8
0
100
AcDbCircle
 10
191.437001
 20
440.24532
 30
0.0
 40
2.5
100
AcDbArc
 50
265.0
 51
350.0
  0
ARC
  5
1068
330
12E8
100
AcDbEntity
  8
0
100
AcDbCircle
 10
432.0710009999999
 20
437.71132
 30
0.0
 40
2.5
100
AcDbArc
 50
183.0
 51
275.0
  0
LINE
  5
1069
330
12E8
100
AcDbEntity
  8
0
100
AcDbLine
 10
466.2960009999999
 20
447.90032
 30
0.0
 11
487.1340009999999
 21
448.9923199999999
 31
0.0
  0
LINE
  5
106A
330
12E8
100
AcDbEntity
  8
0
100
AcDbLine
 10
462.9670009999999
 20
444.57132
 30
0.0
 11
466.2960009999999
 21
447.90032
 31
0.0
  0
LINE
  5
106B
330
12E8
100
AcDbEntity
  8
0
100
AcDbLine
 10
165.343001
 20
448.9923199999999
 30
0.0
 11
186.181001
 21
447.90032
 31
0.0
  0
LINE
  5
106C
330
12E8
100
AcDbEntity
  8
0
100
AcDbLine
 10
189.510001
 20
444.57132
 30
0.0
 11
186.182001
 21
447.90032
 31
0.0
  0
LINE
  5
106D
330
12E8
100
AcDbEntity
  8
0
100
AcDbLine
 10
489.2390009999999
 20
448.99532
 30
0.0
 11
489.2390009999999
 21
446.65432
 31
0.0
  0
LINE
  5
106E
330
12E8
100
AcDbEntity
  8
0
100
AcDbLine
 10
163.239001
 20
448.99532
 30
0.0
 11
163.239001
 21
446.65432
 31
0.0
  0
LINE
  5
106F
330
12E8
100
AcDbEntity
  8
4
100
AcDbLine
 10
222.902001
 20
437.58032
 30
0.0
 11
222.767001
 21
434.9953199999999
 31
0.0
  0
LINE
  5
1070
330
12E8
100
AcDbEntity
  8
0
100
AcDbLine
 10
164.884001
 20
444.3043199999999
 30
0.0
 11
180.239001
 21
438.71532
 31
0.0
  0
ARC
  5
1071
330
12E8
100
AcDbEntity
  8
0
100
AcDbCircle
 10
165.739001
 20
446.65432
 30
0.0
 40
2.5
100
AcDbArc
 50
180.0
 51
250.0
  0
LINE
  5
1072
330
12E8
100
AcDbEntity
  8
0
100
AcDbLine
 10
472.2390009999999
 20
438.7163199999999
 30
0.0
 11
487.5940009999999
 21
444.30532
 31
0.0
  0
ARC
  5
1073
330
12E8
100
AcDbEntity
  8
0
100
AcDbCircle
 10
486.739001
 20
446.65432
 30
0.0
 40
2.5
100
AcDbArc
 50
290.0
 51
0.0
  0
LINE
  5
1074
330
12E8
100
AcDbEntity
  8
0
100
AcDbLine
 10
368.262001
 20
443.9953199999999
 30
0.0
 11
381.323001
 21
443.9953199999999
 31
0.0
  0
LINE
  5
1075
330
12E8
100
AcDbEntity
  8
0
100
AcDbLine
 10
210.6910009999999
 20
448.99532
 30
0.0
 11
316.790001
 21
448.99532
 31
0.0
  0
LINE
  5
1076
330
12E8
100
AcDbEntity
  8
0
100
AcDbLine
 10
206.239001
 20
444.57132
 30
0.0
 11
212.240001
 21
444.57132
 31
0.0
  0
LINE
  5
1077
330
12E8
100
AcDbEntity
  8
0
100
AcDbLine
 10
206.239001
 20
432.86432
 30
0.0
 11
224.998001
 21
432.86432
 31
0.0
  0
LINE
  5
1078
330
12E8
100
AcDbEntity
  8
0
100
AcDbLine
 10
206.238001
 20
436.44132
 30
0.0
 11
222.767001
 21
434.9953199999999
 31
0.0
  0
LINE
  5
1079
330
12E8
100
AcDbEntity
  8
0
100
AcDbLine
 10
426.4510009999999
 20
444.57132
 30
0.0
 11
429.6810009999999
 21
444.57132
 31
0.0
  0
LINE
  5
107A
330
12E8
100
AcDbEntity
  8
0
100
AcDbLine
 10
426.501001
 20
443.9953199999999
 30
0.0
 11
429.239001
 21
443.9953199999999
 31
0.0
  0
LINE
  5
107B
330
12E8
100
AcDbEntity
  8
0
100
AcDbLine
 10
223.239001
 20
443.9953199999999
 30
0.0
 11
225.976001
 21
443.9953199999999
 31
0.0
  0
LINE
  5
107C
330
12E8
100
AcDbEntity
  8
0
100
AcDbLine
 10
271.154001
 20
443.9953199999999
 30
0.0
 11
284.216001
 21
443.9953199999999
 31
0.0
  0
LINE
  5
107D
330
12E8
100
AcDbEntity
  8
0
100
AcDbLine
 10
186.181001
 20
447.90032
 30
0.0
 11
319.152001
 21
447.90032
 31
0.0
  0
ARC
  5
107E
330
12E8
100
AcDbEntity
  8
0
100
AcDbCircle
 10
326.239001
 20
441.72532
 30
0.0
 40
14.175
100
AcDbArc
 50
70.53499999999999
 51
109.461
  0
ARC
  5
107F
330
12E8
100
AcDbEntity
  8
0
100
AcDbCircle
 10
326.239001
 20
462.07532
 30
0.0
 40
14.175
100
AcDbArc
 50
250.541
 51
289.467
  0
LINE
  5
1080
330
12E8
100
AcDbEntity
  8
0
100
AcDbLine
 10
330.966001
 20
448.71132
 30
0.0
 11
330.966001
 21
455.08932
 31
0.0
  0
LINE
  5
1081
330
12E8
100
AcDbEntity
  8
0
100
AcDbLine
 10
321.517001
 20
448.71332
 30
0.0
 11
321.5160009999999
 21
455.08732
 31
0.0
  0
LINE
  5
1082
330
12E8
100
AcDbEntity
  8
0
100
AcDbLine
 10
333.131001
 20
447.90032
 30
0.0
 11
319.350001
 21
447.90032
 31
0.0
  0
LINE
  5
1083
330
12E8
100
AcDbEntity
  8
0
100
AcDbLine
 10
333.128001
 20
455.90032
 30
0.0
 11
319.350001
 21
455.90032
 31
0.0
  0
LINE
  5
1084
330
12E8
100
AcDbEntity
  8
0
100
AcDbLine
 10
335.689001
 20
448.71132
 30
0.0
 11
334.778001
 21
448.18432
 31
0.0
  0
ARC
  5
1085
330
12E8
100
AcDbEntity
  8
0
100
AcDbCircle
 10
333.327001
 20
451.74732
 30
0.0
 40
3.846999999999999
100
AcDbArc
 50
232.15
 51
292.155
  0
LINE
  5
1086
330
12E8
100
AcDbEntity
  8
0
100
AcDbLine
 10
335.690001
 20
448.71332
 30
0.0
 11
335.692001
 21
455.08832
 31
0.0
  0
ARC
  5
1087
330
12E8
100
AcDbEntity
  8
0
100
AcDbCircle
 10
333.327001
 20
452.05232
 30
0.0
 40
3.848
100
AcDbArc
 50
67.765
 51
127.832
  0
LINE
  5
1088
330
12E8
100
AcDbEntity
  8
0
100
AcDbLine
 10
335.691001
 20
455.09032
 30
0.0
 11
334.783001
 21
455.61432
 31
0.0
  0
ARC
  5
1089
330
12E8
100
AcDbEntity
  8
0
100
AcDbCircle
 10
319.152001
 20
451.75032
 30
0.0
 40
3.848999999999999
100
AcDbArc
 50
247.8140000000001
 51
307.865
  0
LINE
  5
108A
330
12E8
100
AcDbEntity
  8
0
100
AcDbLine
 10
317.6990009999999
 20
448.18532
 30
0.0
 11
316.791001
 21
448.70932
 31
0.0
  0
LINE
  5
108B
330
12E8
100
AcDbEntity
  8
0
100
AcDbLine
 10
316.790001
 20
448.71132
 30
0.0
 11
316.792001
 21
455.08632
 31
0.0
  0
LINE
  5
108C
330
12E8
100
AcDbEntity
  8
0
100
AcDbLine
 10
317.731001
 20
455.6273199999999
 30
0.0
 11
316.794001
 21
455.08732
 31
0.0
  0
ARC
  5
108D
330
12E8
100
AcDbEntity
  8
0
100
AcDbCircle
 10
319.152001
 20
452.05232
 30
0.0
 40
3.848
100
AcDbArc
 50
52.122
 51
111.668
  0
ARC
  5
108E
330
12E8
100
AcDbEntity
  8
0
100
AcDbCircle
 10
201.239001
 20
441.72532
 30
0.0
 40
14.175
100
AcDbArc
 50
70.53499999999999
 51
109.461
  0
ARC
  5
108F
330
12E8
100
AcDbEntity
  8
0
100
AcDbCircle
 10
201.239001
 20
462.07532
 30
0.0
 40
14.175
100
AcDbArc
 50
250.541
 51
289.467
  0
LINE
  5
1090
330
12E8
100
AcDbEntity
  8
0
100
AcDbLine
 10
205.966001
 20
448.71132
 30
0.0
 11
205.966001
 21
455.08932
 31
0.0
  0
LINE
  5
1091
330
12E8
100
AcDbEntity
  8
0
100
AcDbLine
 10
196.517001
 20
448.71332
 30
0.0
 11
196.516001
 21
455.08732
 31
0.0
  0
LINE
  5
1092
330
12E8
100
AcDbEntity
  8
0
100
AcDbLine
 10
208.127001
 20
455.90032
 30
0.0
 11
194.350001
 21
455.90032
 31
0.0
  0
LINE
  5
1093
330
12E8
100
AcDbEntity
  8
0
100
AcDbLine
 10
210.689001
 20
448.70932
 30
0.0
 11
209.797001
 21
448.19332
 31
0.0
  0
ARC
  5
1094
330
12E8
100
AcDbEntity
  8
0
100
AcDbCircle
 10
208.326001
 20
451.74732
 30
0.0
 40
3.846999999999999
100
AcDbArc
 50
232.166
 51
292.469
  0
LINE
  5
1095
330
12E8
100
AcDbEntity
  8
0
100
AcDbLine
 10
210.6900009999999
 20
448.71132
 30
0.0
 11
210.6910009999999
 21
455.08632
 31
0.0
  0
ARC
  5
1096
330
12E8
100
AcDbEntity
  8
0
100
AcDbCircle
 10
208.326001
 20
452.05232
 30
0.0
 40
3.848
100
AcDbArc
 50
67.922
 51
127.832
  0
LINE
  5
1097
330
12E8
100
AcDbEntity
  8
0
100
AcDbLine
 10
210.6900009999999
 20
455.08832
 30
0.0
 11
209.773001
 21
455.61832
 31
0.0
  0
ARC
  5
1098
330
12E8
100
AcDbEntity
  8
0
100
AcDbCircle
 10
194.152001
 20
451.75032
 30
0.0
 40
3.848999999999999
100
AcDbArc
 50
247.657
 51
307.865
  0
LINE
  5
1099
330
12E8
100
AcDbEntity
  8
0
100
AcDbLine
 10
192.688001
 20
448.19032
 30
0.0
 11
191.792001
 21
448.7083199999999
 31
0.0
  0
LINE
  5
109A
330
12E8
100
AcDbEntity
  8
0
100
AcDbLine
 10
191.791001
 20
448.7103199999999
 30
0.0
 11
191.792001
 21
455.09132
 31
0.0
  0
LINE
  5
109B
330
12E8
100
AcDbEntity
  8
0
100
AcDbLine
 10
192.706001
 20
455.61832
 30
0.0
 11
191.793001
 21
455.09332
 31
0.0
  0
ARC
  5
109C
330
12E8
100
AcDbEntity
  8
0
100
AcDbCircle
 10
194.152001
 20
452.05232
 30
0.0
 40
3.848
100
AcDbArc
 50
52.122
 51
112.06
  0
LINE
  5
109D
330
12E8
100
AcDbEntity
  8
0
100
AcDbLine
 10
335.690001
 20
448.99532
 30
0.0
 11
425.232001
 21
448.99532
 31
0.0
  0
LINE
  5
109E
330
12E8
100
AcDbEntity
  8
0
100
AcDbLine
 10
334.287001
 20
447.90032
 30
0.0
 11
466.2960009999999
 21
447.90032
 31
0.0
  0
ARC
  5
109F
330
12E8
100
AcDbEntity
  8
0
100
AcDbCircle
 10
434.682001
 20
441.72532
 30
0.0
 40
14.175
100
AcDbArc
 50
70.536
 51
109.464
  0
ARC
  5
10A0
330
12E8
100
AcDbEntity
  8
0
100
AcDbCircle
 10
434.6810009999999
 20
462.07532
 30
0.0
 40
14.175
100
AcDbArc
 50
250.536
 51
289.464
  0
LINE
  5
10A1
330
12E8
100
AcDbEntity
  8
0
100
AcDbLine
 10
439.407001
 20
448.71232
 30
0.0
 11
439.407001
 21
455.08832
 31
0.0
  0
LINE
  5
10A2
330
12E8
100
AcDbEntity
  8
0
100
AcDbLine
 10
429.957001
 20
448.71232
 30
0.0
 11
429.957001
 21
455.08832
 31
0.0
  0
LINE
  5
10A3
330
12E8
100
AcDbEntity
  8
0
100
AcDbLine
 10
441.5680009999999
 20
455.90032
 30
0.0
 11
427.793001
 21
455.90032
 31
0.0
  0
LINE
  5
10A4
330
12E8
100
AcDbEntity
  8
0
100
AcDbLine
 10
444.1300009999999
 20
448.70632
 30
0.0
 11
443.2520009999999
 21
448.19832
 31
0.0
  0
ARC
  5
10A5
330
12E8
100
AcDbEntity
  8
0
100
AcDbCircle
 10
441.769001
 20
451.74832
 30
0.0
 40
3.848
100
AcDbArc
 50
232.138
 51
292.671
  0
LINE
  5
10A6
330
12E8
100
AcDbEntity
  8
0
100
AcDbLine
 10
444.132001
 20
448.7083199999999
 30
0.0
 11
444.132001
 21
455.08932
 31
0.0
  0
ARC
  5
10A7
330
12E8
100
AcDbEntity
  8
0
100
AcDbCircle
 10
441.769001
 20
452.05232
 30
0.0
 40
3.848
100
AcDbArc
 50
67.786
 51
127.859
  0
LINE
  5
10A8
330
12E8
100
AcDbEntity
  8
0
100
AcDbLine
 10
444.1310009999999
 20
455.09132
 30
0.0
 11
443.224001
 21
455.61432
 31
0.0
  0
ARC
  5
10A9
330
12E8
100
AcDbEntity
  8
0
100
AcDbCircle
 10
427.594001
 20
451.74732
 30
0.0
 40
3.846999999999999
100
AcDbArc
 50
247.681
 51
307.865
  0
LINE
  5
10AA
330
12E8
100
AcDbEntity
  8
0
100
AcDbLine
 10
426.132001
 20
448.18932
 30
0.0
 11
425.2330009999999
 21
448.7083199999999
 31
0.0
  0
LINE
  5
10AB
330
12E8
100
AcDbEntity
  8
0
100
AcDbLine
 10
425.232001
 20
448.7103199999999
 30
0.0
 11
425.232001
 21
455.08432
 31
0.0
  0
LINE
  5
10AC
330
12E8
100
AcDbEntity
  8
0
100
AcDbLine
 10
426.1710009999999
 20
455.62832
 30
0.0
 11
425.2330009999999
 21
455.08732
 31
0.0
  0
ARC
  5
10AD
330
12E8
100
AcDbEntity
  8
0
100
AcDbCircle
 10
427.594001
 20
452.05232
 30
0.0
 40
3.848
100
AcDbArc
 50
52.137
 51
111.694
  0
LINE
  5
10AE
330
12E8
100
AcDbEntity
  8
0
100
AcDbLine
 10
444.132001
 20
448.99532
 30
0.0
 11
489.2390009999999
 21
448.99532
 31
0.0
  0
LINE
  5
10AF
330
12E8
100
AcDbEntity
  8
0
100
AcDbLine
 10
439.681001
 20
447.90032
 30
0.0
 11
439.681001
 21
444.57132
 31
0.0
  0
LINE
  5
10B0
330
12E8
100
AcDbEntity
  8
0
100
AcDbLine
 10
429.6810009999999
 20
447.90032
 30
0.0
 11
429.6810009999999
 21
444.0183199999999
 31
0.0
  0
LINE
  5
10B1
330
12E8
100
AcDbEntity
  8
0
100
AcDbLine
 10
429.7000009999999
 20
434.9953199999999
 30
0.0
 11
429.6740009999999
 21
430.45132
 31
0.0
  0
LINE
  5
10B2
330
12E8
100
AcDbEntity
  8
0
100
AcDbLine
 10
439.6570009999999
 20
435.86532
 30
0.0
 11
439.684001
 21
431.27232
 31
0.0
  0
LINE
  5
10B3
330
12E8
100
AcDbEntity
  8
0
100
AcDbLine
 10
439.681001
 20
431.75832
 30
0.0
 11
457.2390009999999
 21
431.75832
 31
0.0
  0
LINE
  5
10B4
330
12E8
100
AcDbEntity
  8
0
100
AcDbLine
 10
429.6880009999999
 20
432.86332
 30
0.0
 11
427.479001
 21
432.86332
 31
0.0
  0
LINE
  5
10B5
330
12E8
100
AcDbEntity
  8
4
100
AcDbLine
 10
430.6790009999999
 20
431.27232
 30
0.0
 11
430.6740009999999
 21
430.48432
 31
0.0
  0
LINE
  5
10B6
330
12E8
100
AcDbEntity
  8
4
100
AcDbLine
 10
438.6810009999999
 20
447.90032
 30
0.0
 11
438.6810009999999
 21
444.4903199999999
 31
0.0
  0
LINE
  5
10B7
330
12E8
100
AcDbEntity
  8
4
100
AcDbLine
 10
430.6810009999999
 20
447.90032
 30
0.0
 11
430.6810009999999
 21
444.07132
 31
0.0
  0
LINE
  5
10B8
330
12E8
100
AcDbEntity
  8
0
100
AcDbLine
 10
429.6790009999999
 20
431.27232
 30
0.0
 11
439.684001
 21
431.27232
 31
0.0
  0
LINE
  5
10B9
330
12E8
100
AcDbEntity
  8
0
100
AcDbLine
 10
429.6790009999999
 20
434.27232
 30
0.0
 11
439.684001
 21
434.27232
 31
0.0
  0
LINE
  5
10BA
330
12E8
100
AcDbEntity
  8
0
100
AcDbLine
 10
439.681001
 20
444.57132
 30
0.0
 11
462.9670009999999
 21
444.57132
 31
0.0
  0
LINE
  5
10BB
330
12E8
100
AcDbEntity
  8
7
 48
0.409
100
AcDbLine
 10
434.682001
 20
466.86132
 30
0.0
 11
434.682001
 21
430.83432
 31
0.0
  0
LINE
  5
10BC
330
12E8
100
AcDbEntity
  8
4
100
AcDbLine
 10
430.6780009999999
 20
461.27232
 30
0.0
 11
430.6780009999999
 21
455.90032
 31
0.0
  0
LINE
  5
10BD
330
12E8
100
AcDbEntity
  8
4
100
AcDbLine
 10
438.6850009999999
 20
461.27232
 30
0.0
 11
438.6850009999999
 21
455.90032
 31
0.0
  0
LINE
  5
10BE
330
12E8
100
AcDbEntity
  8
0
100
AcDbLine
 10
429.6820009999999
 20
460.27232
 30
0.0
 11
429.6820009999999
 21
455.90032
 31
0.0
  0
LINE
  5
10BF
330
12E8
100
AcDbEntity
  8
0
100
AcDbLine
 10
439.6820009999999
 20
460.27232
 30
0.0
 11
439.6820009999999
 21
455.90032
 31
0.0
  0
LINE
  5
10C0
330
12E8
100
AcDbEntity
  8
0
100
AcDbLine
 10
197.239001
 20
455.90032
 30
0.0
 11
197.239001
 21
461.27232
 31
0.0
  0
LINE
  5
10C1
330
12E8
100
AcDbEntity
  8
0
100
AcDbLine
 10
205.239001
 20
461.27232
 30
0.0
 11
205.239001
 21
455.90032
 31
0.0
  0
LINE
  5
10C2
330
12E8
100
AcDbEntity
  8
0
100
AcDbLine
 10
206.239001
 20
460.27232
 30
0.0
 11
206.239001
 21
455.90032
 31
0.0
  0
LINE
  5
10C3
330
12E8
100
AcDbEntity
  8
0
100
AcDbLine
 10
196.239001
 20
460.27232
 30
0.0
 11
196.239001
 21
455.90032
 31
0.0
  0
LINE
  5
10C4
330
12E8
100
AcDbEntity
  8
0
100
AcDbLine
 10
197.239001
 20
447.90032
 30
0.0
 11
197.239001
 21
434.75832
 31
0.0
  0
LINE
  5
10C5
330
12E8
100
AcDbEntity
  8
0
100
AcDbLine
 10
196.239001
 20
447.90032
 30
0.0
 11
196.239001
 21
431.75832
 31
0.0
  0
LINE
  5
10C6
330
12E8
100
AcDbEntity
  8
0
100
AcDbLine
 10
205.239001
 20
447.90032
 30
0.0
 11
205.239001
 21
434.75832
 31
0.0
  0
LINE
  5
10C7
330
12E8
100
AcDbEntity
  8
0
100
AcDbLine
 10
206.239001
 20
447.90032
 30
0.0
 11
206.239001
 21
431.75832
 31
0.0
  0
LINE
  5
10C8
330
12E8
100
AcDbEntity
  8
0
100
AcDbLine
 10
196.239001
 20
434.75832
 30
0.0
 11
206.239001
 21
434.75832
 31
0.0
  0
LINE
  5
10C9
330
12E8
100
AcDbEntity
  8
0
100
AcDbLine
 10
197.239001
 20
419.25832
 30
0.0
 11
205.239001
 21
419.25832
 31
0.0
  0
LINE
  5
10CA
330
12E8
100
AcDbEntity
  8
0
100
AcDbLine
 10
196.239001
 20
420.25832
 30
0.0
 11
206.239001
 21
420.25832
 31
0.0
  0
LINE
  5
10CB
330
12E8
100
AcDbEntity
  8
0
100
AcDbLine
 10
205.239001
 20
419.25832
 30
0.0
 11
206.239001
 21
420.25832
 31
0.0
  0
LINE
  5
10CC
330
12E8
100
AcDbEntity
  8
0
100
AcDbLine
 10
197.239001
 20
419.2573199999999
 30
0.0
 11
196.239001
 21
420.2573199999999
 31
0.0
  0
LINE
  5
10CD
330
12E8
100
AcDbEntity
  8
4
100
AcDbLine
 10
196.239001
 20
420.25832
 30
0.0
 11
196.239001
 21
416.75832
 31
0.0
  0
LINE
  5
10CE
330
12E8
100
AcDbEntity
  8
4
100
AcDbLine
 10
206.239001
 20
420.25832
 30
0.0
 11
206.239001
 21
416.75832
 31
0.0
  0
LINE
  5
10CF
330
12E8
100
AcDbEntity
  8
4
100
AcDbLine
 10
197.239001
 20
419.25832
 30
0.0
 11
197.239001
 21
431.75832
 31
0.0
  0
LINE
  5
10D0
330
12E8
100
AcDbEntity
  8
4
100
AcDbLine
 10
205.239001
 20
431.75832
 30
0.0
 11
205.239001
 21
419.25832
 31
0.0
  0
LINE
  5
10D1
330
12E8
100
AcDbEntity
  8
7
 48
0.7879999999999999
100
AcDbLine
 10
201.239001
 20
398.75732
 30
0.0
 11
201.239001
 21
468.14232
 31
0.0
  0
LINE
  5
10D2
330
12E8
100
AcDbEntity
  8
0
100
AcDbLine
 10
321.239001
 20
460.27232
 30
0.0
 11
321.239001
 21
455.90032
 31
0.0
  0
LINE
  5
10D3
330
12E8
100
AcDbEntity
  8
4
100
AcDbLine
 10
322.239001
 20
455.90032
 30
0.0
 11
322.239001
 21
461.27232
 31
0.0
  0
LINE
  5
10D4
330
12E8
100
AcDbEntity
  8
4
100
AcDbLine
 10
330.239001
 20
461.27232
 30
0.0
 11
330.239001
 21
455.90032
 31
0.0
  0
LINE
  5
10D5
330
12E8
100
AcDbEntity
  8
0
100
AcDbLine
 10
331.239001
 20
455.90032
 30
0.0
 11
331.239001
 21
460.27232
 31
0.0
  0
LINE
  5
10D6
330
12E8
100
AcDbEntity
  8
0
100
AcDbLine
 10
438.6850009999999
 20
461.27232
 30
0.0
 11
430.6780009999999
 21
461.27232
 31
0.0
  0
LINE
  5
10D7
330
12E8
100
AcDbEntity
  8
0
100
AcDbLine
 10
429.6810009999999
 20
460.27232
 30
0.0
 11
439.681001
 21
460.27232
 31
0.0
  0
LINE
  5
10D8
330
12E8
100
AcDbEntity
  8
0
100
AcDbLine
 10
430.6790009999999
 20
461.27232
 30
0.0
 11
429.6820009999999
 21
460.27232
 31
0.0
  0
LINE
  5
10D9
330
12E8
100
AcDbEntity
  8
0
100
AcDbLine
 10
438.6850009999999
 20
461.27232
 30
0.0
 11
439.681001
 21
460.27232
 31
0.0
  0
LINE
  5
10DA
330
12E8
100
AcDbEntity
  8
0
100
AcDbLine
 10
197.239001
 20
461.27232
 30
0.0
 11
205.239001
 21
461.27232
 31
0.0
  0
LINE
  5
10DB
330
12E8
100
AcDbEntity
  8
0
100
AcDbLine
 10
196.239001
 20
460.27232
 30
0.0
 11
206.239001
 21
460.27232
 31
0.0
  0
LINE
  5
10DC
330
12E8
100
AcDbEntity
  8
0
100
AcDbLine
 10
321.239001
 20
460.27232
 30
0.0
 11
331.239001
 21
460.27232
 31
0.0
  0
LINE
  5
10DD
330
12E8
100
AcDbEntity
  8
0
100
AcDbLine
 10
322.239001
 20
461.27232
 30
0.0
 11
330.239001
 21
461.27232
 31
0.0
  0
LINE
  5
10DE
330
12E8
100
AcDbEntity
  8
0
100
AcDbLine
 10
322.239001
 20
461.27232
 30
0.0
 11
321.239001
 21
460.27232
 31
0.0
  0
LINE
  5
10DF
330
12E8
100
AcDbEntity
  8
0
100
AcDbLine
 10
330.239001
 20
461.27232
 30
0.0
 11
331.239001
 21
460.27232
 31
0.0
  0
LINE
  5
10E0
330
12E8
100
AcDbEntity
  8
0
100
AcDbLine
 10
197.239001
 20
461.27232
 30
0.0
 11
196.239001
 21
460.27232
 31
0.0
  0
LINE
  5
10E1
330
12E8
100
AcDbEntity
  8
0
100
AcDbLine
 10
205.239001
 20
461.27232
 30
0.0
 11
206.239001
 21
460.27232
 31
0.0
  0
LINE
  5
10E2
330
12E8
100
AcDbEntity
  8
0
100
AcDbLine
 10
151.567001
 20
442.88532
 30
0.0
 11
168.782001
 21
442.88532
 31
0.0
  0
LINE
  5
10E3
330
12E8
100
AcDbEntity
  8
0
100
AcDbLine
 10
483.6950009999999
 20
442.88532
 30
0.0
 11
500.910001
 21
442.88532
 31
0.0
  0
LINE
  5
10E4
330
12E8
100
AcDbEntity
  8
0
100
AcDbLine
 10
652.052001
 20
249.99532
 30
0.0
 11
660.4260009999999
 21
409.77632
 31
0.0
  0
LINE
  5
10E5
330
12E8
100
AcDbEntity
  8
0
100
AcDbLine
 10
637.4640009999999
 20
258.26132
 30
0.0
 11
645.053001
 21
403.06332
 31
0.0
  0
LINE
  5
10E6
330
12E8
100
AcDbEntity
  8
0
100
AcDbLine
 10
629.3970009999999
 20
257.17832
 30
0.0
 11
637.1420009999999
 21
404.97532
 31
0.0
  0
LINE
  5
10E7
330
12E8
100
AcDbEntity
  8
0
100
AcDbLine
 10
660.033001
 20
402.28632
 30
0.0
 11
645.053001
 21
403.06332
 31
0.0
  0
LINE
  5
10E8
330
12E8
100
AcDbEntity
  8
0
100
AcDbLine
 10
645.053001
 20
403.06332
 30
0.0
 11
637.1420009999999
 21
404.97532
 31
0.0
  0
LINE
  5
10E9
330
12E8
100
AcDbEntity
  8
0
100
AcDbLine
 10
629.3970009999999
 20
257.17832
 30
0.0
 11
637.4640009999999
 21
258.26132
 31
0.0
  0
LINE
  5
10EA
330
12E8
100
AcDbEntity
  8
0
100
AcDbLine
 10
637.4640009999999
 20
258.26132
 30
0.0
 11
652.4440009999999
 21
257.48532
 31
0.0
  0
LINE
  5
10EB
330
12E8
100
AcDbEntity
  8
MAßLINIEN
 62
     4
100
AcDbLine
 10
491.8830009999999
 20
338.49932
 30
0.0
 11
656.239001
 21
329.88532
 31
0.0
  0
LINE
  5
10EC
330
12E8
100
AcDbEntity
  8
0
100
AcDbLine
 10
264.699001
 20
270.29532
 30
0.0
 11
652.052001
 21
249.99532
 31
0.0
  0
LINE
  5
10ED
330
12E8
100
AcDbEntity
  8
0
100
AcDbLine
 10
264.011001
 20
276.32732
 30
0.0
 11
629.3970009999999
 21
257.17832
 31
0.0
  0
LINE
  5
10EE
330
12E8
100
AcDbEntity
  8
0
100
AcDbLine
 10
513.994001
 20
411.42932
 30
0.0
 11
637.1420009999999
 21
404.97532
 31
0.0
  0
LINE
  5
10EF
330
12E8
100
AcDbEntity
  8
0
100
AcDbLine
 10
513.254001
 20
417.48932
 30
0.0
 11
660.4260009999999
 21
409.77632
 31
0.0
  0
ARC
  5
10F0
330
12E8
100
AcDbEntity
  8
0
100
AcDbCircle
 10
265.058001
 20
296.29932
 30
0.0
 40
20.0
100
AcDbArc
 50
182.0
 51
267.0
  0
ARC
  5
10F1
330
12E8
100
AcDbEntity
  8
0
100
AcDbCircle
 10
266.060001
 20
296.26032
 30
0.0
 40
26.0
100
AcDbArc
 50
182.0
 51
267.0
  0
ARC
  5
10F2
330
12E8
100
AcDbEntity
  8
0
100
AcDbCircle
 10
513.4640009999999
 20
421.48332
 30
0.0
 40
4.0
100
AcDbArc
 50
194.999
 51
267.0
  0
ARC
  5
10F3
330
12E8
100
AcDbEntity
  8
0
100
AcDbCircle
 10
514.5170009999999
 20
421.41532
 30
0.0
 40
10.0
100
AcDbArc
 50
194.999
 51
267.0
  0
ARC
  5
10F4
330
12E8
100
AcDbEntity
  8
0
100
AcDbCircle
 10
434.682001
 20
412.99532
 30
0.0
 40
12.0
100
AcDbArc
 50
190.0
 51
350.0
  0
LINE
  5
10F5
330
12E8
100
AcDbEntity
  8
0
100
AcDbLine
 10
422.8640009999999
 20
410.91132
 30
0.0
 11
421.6290009999999
 21
417.91432
 31
0.0
  0
LINE
  5
10F6
330
12E8
100
AcDbEntity
  8
0
100
AcDbLine
 10
446.499001
 20
410.91132
 30
0.0
 11
448.8410009999999
 21
424.19032
 31
0.0
  0
ARC
  5
10F7
330
12E8
100
AcDbEntity
  8
0
100
AcDbCircle
 10
451.303001
 20
423.75632
 30
0.0
 40
2.5
100
AcDbArc
 50
95.0
 51
170.0
  0
ARC
  5
10F8
330
12E8
100
AcDbEntity
  8
0
100
AcDbCircle
 10
419.167001
 20
417.47932
 30
0.0
 40
2.5
100
AcDbArc
 50
10.0
 51
178.0
  0
LINE
  5
10F9
330
12E8
100
AcDbEntity
  8
0
100
AcDbLine
 10
501.5580009999999
 20
431.14232
 30
0.0
 11
504.858001
 21
418.82732
 31
0.0
  0
DIMENSION
  5
1104
330
12E8
100
AcDbEntity
  8
5
100
AcDbDimension
  2
*D7
 10
506.238001
 20
540.00732
 30
0.0
 11
324.899001
 21
540.00732
 31
0.0
 70
   160
  1
%%c 360
 71
     5
 42
360.0
  3
GEN-ISO
100
AcDbAlignedDimension
 13
146.238001
 23
432.99532
 33
0.0
 14
506.238001
 24
432.99532
 34
0.0
100
AcDbRotatedDimension
1001
ACAD
1000
DSTYLE
1002
{
1070
    41
1040
5.0
1002
}
  0
POLYLINE
  5
1105
330
12E8
100
AcDbEntity
  8
SCHRAFFUR_RAND
100
AcDb2dPolyline
 66
     1
 10
0.0
 20
0.0
 30
0.0
 70
     1
  0
VERTEX
  5
1106
330
1105
100
AcDbEntity
  8
SCHRAFFUR_RAND
100
AcDbVertex
100
AcDb2dVertex
 10
211.129001
 20
436.0133199999999
 30
0.0
  0
VERTEX
  5
1107
330
1105
100
AcDbEntity
  8
SCHRAFFUR_RAND
100
AcDbVertex
100
AcDb2dVertex
 10
220.188001
 20
435.22132
 30
0.0
  0
VERTEX
  5
1108
330
1105
100
AcDbEntity
  8
SCHRAFFUR_RAND
100
AcDbVertex
100
AcDb2dVertex
 10
221.192001
 20
435.2933199999999
 30
0.0
  0
VERTEX
  5
1109
330
1105
100
AcDbEntity
  8
SCHRAFFUR_RAND
100
AcDbVertex
100
AcDb2dVertex
 10
222.074001
 20
435.79232
 30
0.0
  0
VERTEX
  5
110A
330
1105
100
AcDbEntity
  8
SCHRAFFUR_RAND
100
AcDbVertex
100
AcDb2dVertex
 10
222.691001
 20
436.5973199999999
 30
0.0
  0
VERTEX
  5
110B
330
1105
100
AcDbEntity
  8
SCHRAFFUR_RAND
100
AcDbVertex
100
AcDb2dVertex
 10
222.903001
 20
437.58032
 30
0.0
  0
VERTEX
  5
110C
330
1105
100
AcDbEntity
  8
SCHRAFFUR_RAND
100
AcDbVertex
100
AcDb2dVertex
 10
223.239001
 20
443.9953199999999
 30
0.0
  0
VERTEX
  5
110D
330
1105
100
AcDbEntity
  8
SCHRAFFUR_RAND
100
AcDbVertex
100
AcDb2dVertex
 10
212.240001
 20
444.57132
 30
0.0
  0
VERTEX
  5
110E
330
1105
100
AcDbEntity
  8
SCHRAFFUR_RAND
100
AcDbVertex
100
AcDb2dVertex
 10
207.739001
 20
444.57132
 30
0.0
  0
VERTEX
  5
110F
330
1105
100
AcDbEntity
  8
SCHRAFFUR_RAND
100
AcDbVertex
100
AcDb2dVertex
 10
208.885001
 20
438.06932
 30
0.0
  0
VERTEX
  5
1110
330
1105
100
AcDbEntity
  8
SCHRAFFUR_RAND
100
AcDbVertex
100
AcDb2dVertex
 10
209.118001
 20
437.28132
 30
0.0
  0
VERTEX
  5
1111
330
1105
100
AcDbEntity
  8
SCHRAFFUR_RAND
100
AcDbVertex
100
AcDb2dVertex
 10
209.630001
 20
436.62932
 30
0.0
  0
VERTEX
  5
1112
330
1105
100
AcDbEntity
  8
SCHRAFFUR_RAND
100
AcDbVertex
100
AcDb2dVertex
 10
210.323001
 20
436.17732
 30
0.0
  0
VERTEX
  5
1113
330
1105
100
AcDbEntity
  8
SCHRAFFUR_RAND
100
AcDbVertex
100
AcDb2dVertex
 10
211.129001
 20
436.0133199999999
 30
0.0
  0
SEQEND
  5
1114
330
1105
100
AcDbEntity
  8
SCHRAFFUR_RAND
  0
INSERT
  5
1119
330
12E8
100
AcDbEntity
  8
8
100
AcDbBlockReference
  2
*X0
 10
-46.10599899999999
 20
110.83232
 30
0.0
1001
ACAD
1000
HATCH
1002
{
1070
    19
1000
ANSI31,_I
1040
6.349999999999999
1040
-0.7850000000000001
1002
}
  0
POLYLINE
  5
111A
330
12E8
100
AcDbEntity
  8
SCHRAFFUR_RAND
100
AcDb2dPolyline
 66
     1
 10
0.0
 20
0.0
 30
0.0
 70
     1
  0
VERTEX
  5
111B
330
111A
100
AcDbEntity
  8
SCHRAFFUR_RAND
100
AcDbVertex
100
AcDb2dVertex
 10
165.343001
 20
448.9923199999999
 30
0.0
  0
VERTEX
  5
111C
330
111A
100
AcDbEntity
  8
SCHRAFFUR_RAND
100
AcDbVertex
100
AcDb2dVertex
 10
163.239001
 20
448.99532
 30
0.0
  0
VERTEX
  5
111D
330
111A
100
AcDbEntity
  8
SCHRAFFUR_RAND
100
AcDbVertex
100
AcDb2dVertex
 10
163.239001
 20
446.65432
 30
0.0
  0
VERTEX
  5
111E
330
111A
100
AcDbEntity
  8
SCHRAFFUR_RAND
100
AcDbVertex
100
AcDb2dVertex
 10
163.322001
 20
445.89132
 30
0.0
  0
VERTEX
  5
111F
330
111A
100
AcDbEntity
  8
SCHRAFFUR_RAND
100
AcDbVertex
100
AcDb2dVertex
 10
163.662001
 20
445.20032
 30
0.0
  0
VERTEX
  5
1120
330
111A
100
AcDbEntity
  8
SCHRAFFUR_RAND
100
AcDbVertex
100
AcDb2dVertex
 10
164.196001
 20
444.64332
 30
0.0
  0
VERTEX
  5
1121
330
111A
100
AcDbEntity
  8
SCHRAFFUR_RAND
100
AcDbVertex
100
AcDb2dVertex
 10
164.884001
 20
444.3043199999999
 30
0.0
  0
VERTEX
  5
1122
330
111A
100
AcDbEntity
  8
SCHRAFFUR_RAND
100
AcDbVertex
100
AcDb2dVertex
 10
180.239001
 20
438.7163199999999
 30
0.0
  0
VERTEX
  5
1123
330
111A
100
AcDbEntity
  8
SCHRAFFUR_RAND
100
AcDbVertex
100
AcDb2dVertex
 10
191.219001
 20
437.75532
 30
0.0
  0
VERTEX
  5
1124
330
111A
100
AcDbEntity
  8
SCHRAFFUR_RAND
100
AcDbVertex
100
AcDb2dVertex
 10
192.147001
 20
437.81232
 30
0.0
  0
VERTEX
  5
1125
330
111A
100
AcDbEntity
  8
SCHRAFFUR_RAND
100
AcDbVertex
100
AcDb2dVertex
 10
192.981001
 20
438.2353199999999
 30
0.0
  0
VERTEX
  5
1126
330
111A
100
AcDbEntity
  8
SCHRAFFUR_RAND
100
AcDbVertex
100
AcDb2dVertex
 10
193.604001
 20
438.9303199999999
 30
0.0
  0
VERTEX
  5
1127
330
111A
100
AcDbEntity
  8
SCHRAFFUR_RAND
100
AcDbVertex
100
AcDb2dVertex
 10
193.900001
 20
439.81132
 30
0.0
  0
VERTEX
  5
1128
330
111A
100
AcDbEntity
  8
SCHRAFFUR_RAND
100
AcDbVertex
100
AcDb2dVertex
 10
194.739001
 20
444.57132
 30
0.0
  0
VERTEX
  5
1129
330
111A
100
AcDbEntity
  8
SCHRAFFUR_RAND
100
AcDbVertex
100
AcDb2dVertex
 10
189.510001
 20
444.57132
 30
0.0
  0
VERTEX
  5
112A
330
111A
100
AcDbEntity
  8
SCHRAFFUR_RAND
100
AcDbVertex
100
AcDb2dVertex
 10
186.181001
 20
447.90032
 30
0.0
  0
VERTEX
  5
112B
330
111A
100
AcDbEntity
  8
SCHRAFFUR_RAND
100
AcDbVertex
100
AcDb2dVertex
 10
165.343001
 20
448.9923199999999
 30
0.0
  0
SEQEND
  5
112C
330
111A
100
AcDbEntity
  8
SCHRAFFUR_RAND
  0
INSERT
  5
1131
330
12E8
100
AcDbEntity
  8
8
100
AcDbBlockReference
  2
*X1
 10
-46.10599899999999
 20
110.83232
 30
0.0
1001
ACAD
1000
HATCH
1002
{
1070
    19
1000
ANSI31,_I
1040
6.349999999999999
1040
-0.7850000000000001
1002
}
  0
POLYLINE
  5
1132
330
12E8
100
AcDbEntity
  8
SCHRAFFUR_RAND
100
AcDb2dPolyline
 66
     1
 10
0.0
 20
0.0
 30
0.0
 70
     1
  0
VERTEX
  5
1133
330
1132
100
AcDbEntity
  8
SCHRAFFUR_RAND
100
AcDbVertex
100
AcDb2dVertex
 10
432.289001
 20
435.22132
 30
0.0
  0
VERTEX
  5
1134
330
1132
100
AcDbEntity
  8
SCHRAFFUR_RAND
100
AcDbVertex
100
AcDb2dVertex
 10
472.2390009999999
 20
438.7163199999999
 30
0.0
  0
VERTEX
  5
1135
330
1132
100
AcDbEntity
  8
SCHRAFFUR_RAND
100
AcDbVertex
100
AcDb2dVertex
 10
487.5940009999999
 20
444.3043199999999
 30
0.0
  0
VERTEX
  5
1136
330
1132
100
AcDbEntity
  8
SCHRAFFUR_RAND
100
AcDbVertex
100
AcDb2dVertex
 10
488.1460009999999
 20
444.5673199999999
 30
0.0
  0
VERTEX
  5
1137
330
1132
100
AcDbEntity
  8
SCHRAFFUR_RAND
100
AcDbVertex
100
AcDb2dVertex
 10
488.609001
 20
444.97032
 30
0.0
  0
VERTEX
  5
1138
330
1132
100
AcDbEntity
  8
SCHRAFFUR_RAND
100
AcDbVertex
100
AcDb2dVertex
 10
488.9600009999999
 20
445.47232
 30
0.0
  0
VERTEX
  5
1139
330
1132
100
AcDbEntity
  8
SCHRAFFUR_RAND
100
AcDbVertex
100
AcDb2dVertex
 10
489.1800009999999
 20
446.0453199999999
 30
0.0
  0
VERTEX
  5
113A
330
1132
100
AcDbEntity
  8
SCHRAFFUR_RAND
100
AcDbVertex
100
AcDb2dVertex
 10
489.2390009999999
 20
446.65432
 30
0.0
  0
VERTEX
  5
113B
330
1132
100
AcDbEntity
  8
SCHRAFFUR_RAND
100
AcDbVertex
100
AcDb2dVertex
 10
489.2390009999999
 20
448.99532
 30
0.0
  0
VERTEX
  5
113C
330
1132
100
AcDbEntity
  8
SCHRAFFUR_RAND
100
AcDbVertex
100
AcDb2dVertex
 10
487.1340009999999
 20
448.9923199999999
 30
0.0
  0
VERTEX
  5
113D
330
1132
100
AcDbEntity
  8
SCHRAFFUR_RAND
100
AcDbVertex
100
AcDb2dVertex
 10
466.2960009999999
 20
447.90032
 30
0.0
  0
VERTEX
  5
113E
330
1132
100
AcDbEntity
  8
SCHRAFFUR_RAND
100
AcDbVertex
100
AcDb2dVertex
 10
462.9670009999999
 20
444.57132
 30
0.0
  0
VERTEX
  5
113F
330
1132
100
AcDbEntity
  8
SCHRAFFUR_RAND
100
AcDbVertex
100
AcDb2dVertex
 10
440.2370009999999
 20
444.57132
 30
0.0
  0
VERTEX
  5
1140
330
1132
100
AcDbEntity
  8
SCHRAFFUR_RAND
100
AcDbVertex
100
AcDb2dVertex
 10
429.239001
 20
443.9953199999999
 30
0.0
  0
VERTEX
  5
1141
330
1132
100
AcDbEntity
  8
SCHRAFFUR_RAND
100
AcDbVertex
100
AcDb2dVertex
 10
429.5750009999999
 20
437.58032
 30
0.0
  0
VERTEX
  5
1142
330
1132
100
AcDbEntity
  8
SCHRAFFUR_RAND
100
AcDbVertex
100
AcDb2dVertex
 10
429.6830009999999
 20
436.92032
 30
0.0
  0
VERTEX
  5
1143
330
1132
100
AcDbEntity
  8
SCHRAFFUR_RAND
100
AcDbVertex
100
AcDb2dVertex
 10
429.9770009999999
 20
436.31632
 30
0.0
  0
VERTEX
  5
1144
330
1132
100
AcDbEntity
  8
SCHRAFFUR_RAND
100
AcDbVertex
100
AcDb2dVertex
 10
430.4200009999999
 20
435.81232
 30
0.0
  0
VERTEX
  5
1145
330
1132
100
AcDbEntity
  8
SCHRAFFUR_RAND
100
AcDbVertex
100
AcDb2dVertex
 10
430.9810009999999
 20
435.44332
 30
0.0
  0
VERTEX
  5
1146
330
1132
100
AcDbEntity
  8
SCHRAFFUR_RAND
100
AcDbVertex
100
AcDb2dVertex
 10
431.620001
 20
435.23632
 30
0.0
  0
VERTEX
  5
1147
330
1132
100
AcDbEntity
  8
SCHRAFFUR_RAND
100
AcDbVertex
100
AcDb2dVertex
 10
432.289001
 20
435.22132
 30
0.0
  0
SEQEND
  5
1148
330
1132
100
AcDbEntity
  8
SCHRAFFUR_RAND
  0
INSERT
  5
1153
330
12E8
100
AcDbEntity
  8
8
100
AcDbBlockReference
  2
*X2
 10
-46.10599899999999
 20
110.83232
 30
0.0
1001
ACAD
1000
HATCH
1002
{
1070
    19
1000
ANSI31,_I
1040
6.349999999999999
1040
-0.7850000000000001
1002
}
  0
POLYLINE
  5
1154
330
12E8
100
AcDbEntity
  8
SCHRAFFUR_RAND
100
AcDb2dPolyline
 66
     1
 10
0.0
 20
0.0
 30
0.0
 70
     1
  0
VERTEX
  5
1155
330
1154
100
AcDbEntity
  8
SCHRAFFUR_RAND
100
AcDbVertex
100
AcDb2dVertex
 10
232.577001
 20
430.9953199999999
 30
0.0
  0
VERTEX
  5
1156
330
1154
100
AcDbEntity
  8
SCHRAFFUR_RAND
100
AcDbVertex
100
AcDb2dVertex
 10
232.367001
 20
434.9953199999999
 30
0.0
  0
VERTEX
  5
1157
330
1154
100
AcDbEntity
  8
SCHRAFFUR_RAND
100
AcDbVertex
100
AcDb2dVertex
 10
225.189001
 20
434.9953199999999
 30
0.0
  0
VERTEX
  5
1158
330
1154
100
AcDbEntity
  8
SCHRAFFUR_RAND
100
AcDbVertex
100
AcDb2dVertex
 10
224.989001
 20
432.71532
 30
0.0
  0
VERTEX
  5
1159
330
1154
100
AcDbEntity
  8
SCHRAFFUR_RAND
100
AcDbVertex
100
AcDb2dVertex
 10
224.6550009999999
 20
431.42332
 30
0.0
  0
VERTEX
  5
115A
330
1154
100
AcDbEntity
  8
SCHRAFFUR_RAND
100
AcDbVertex
100
AcDb2dVertex
 10
223.612001
 20
430.54732
 30
0.0
  0
VERTEX
  5
115B
330
1154
100
AcDbEntity
  8
SCHRAFFUR_RAND
100
AcDbVertex
100
AcDb2dVertex
 10
222.281001
 20
430.44232
 30
0.0
  0
VERTEX
  5
115C
330
1154
100
AcDbEntity
  8
SCHRAFFUR_RAND
100
AcDbVertex
100
AcDb2dVertex
 10
219.728001
 20
430.66532
 30
0.0
  0
VERTEX
  5
115D
330
1154
100
AcDbEntity
  8
SCHRAFFUR_RAND
100
AcDbVertex
100
AcDb2dVertex
 10
206.239001
 20
431.84632
 30
0.0
  0
VERTEX
  5
115E
330
1154
100
AcDbEntity
  8
SCHRAFFUR_RAND
100
AcDbVertex
100
AcDb2dVertex
 10
206.239001
 20
420.25832
 30
0.0
  0
VERTEX
  5
115F
330
1154
100
AcDbEntity
  8
SCHRAFFUR_RAND
100
AcDbVertex
100
AcDb2dVertex
 10
206.239001
 20
416.75832
 30
0.0
  0
VERTEX
  5
1160
330
1154
100
AcDbEntity
  8
SCHRAFFUR_RAND
100
AcDbVertex
100
AcDb2dVertex
 10
205.239001
 20
416.75832
 30
0.0
  0
VERTEX
  5
1161
330
1154
100
AcDbEntity
  8
SCHRAFFUR_RAND
100
AcDbVertex
100
AcDb2dVertex
 10
205.239001
 20
411.25832
 30
0.0
  0
VERTEX
  5
1162
330
1154
100
AcDbEntity
  8
SCHRAFFUR_RAND
100
AcDbVertex
100
AcDb2dVertex
 10
201.239001
 20
408.94832
 30
0.0
  0
VERTEX
  5
1163
330
1154
100
AcDbEntity
  8
SCHRAFFUR_RAND
100
AcDbVertex
100
AcDb2dVertex
 10
197.239001
 20
411.25832
 30
0.0
  0
VERTEX
  5
1164
330
1154
100
AcDbEntity
  8
SCHRAFFUR_RAND
100
AcDbVertex
100
AcDb2dVertex
 10
197.239001
 20
416.75832
 30
0.0
  0
VERTEX
  5
1165
330
1154
100
AcDbEntity
  8
SCHRAFFUR_RAND
100
AcDbVertex
100
AcDb2dVertex
 10
196.239001
 20
416.75832
 30
0.0
  0
VERTEX
  5
1166
330
1154
100
AcDbEntity
  8
SCHRAFFUR_RAND
100
AcDbVertex
100
AcDb2dVertex
 10
196.239001
 20
420.25832
 30
0.0
  0
VERTEX
  5
1167
330
1154
100
AcDbEntity
  8
SCHRAFFUR_RAND
100
AcDbVertex
100
AcDb2dVertex
 10
196.239001
 20
431.75832
 30
0.0
  0
VERTEX
  5
1168
330
1154
100
AcDbEntity
  8
SCHRAFFUR_RAND
100
AcDbVertex
100
AcDb2dVertex
 10
195.239001
 20
431.75832
 30
0.0
  0
VERTEX
  5
1169
330
1154
100
AcDbEntity
  8
SCHRAFFUR_RAND
100
AcDbVertex
100
AcDb2dVertex
 10
194.600001
 20
432.86432
 30
0.0
  0
VERTEX
  5
116A
330
1154
100
AcDbEntity
  8
SCHRAFFUR_RAND
100
AcDbVertex
100
AcDb2dVertex
 10
180.239001
 20
434.1203199999999
 30
0.0
  0
VERTEX
  5
116B
330
1154
100
AcDbEntity
  8
SCHRAFFUR_RAND
100
AcDbVertex
100
AcDb2dVertex
 10
151.567001
 20
442.88532
 30
0.0
  0
VERTEX
  5
116C
330
1154
100
AcDbEntity
  8
SCHRAFFUR_RAND
100
AcDbVertex
100
AcDb2dVertex
 10
150.215001
 20
443.05332
 30
0.0
  0
VERTEX
  5
116D
330
1154
100
AcDbEntity
  8
SCHRAFFUR_RAND
100
AcDbVertex
100
AcDb2dVertex
 10
148.997001
 20
442.37832
 30
0.0
  0
VERTEX
  5
116E
330
1154
100
AcDbEntity
  8
SCHRAFFUR_RAND
100
AcDbVertex
100
AcDb2dVertex
 10
148.421001
 20
441.14232
 30
0.0
  0
VERTEX
  5
116F
330
1154
100
AcDbEntity
  8
SCHRAFFUR_RAND
100
AcDbVertex
100
AcDb2dVertex
 10
146.239001
 20
432.99532
 30
0.0
  0
VERTEX
  5
1170
330
1154
100
AcDbEntity
  8
SCHRAFFUR_RAND
100
AcDbVertex
100
AcDb2dVertex
 10
163.397001
 20
432.99532
 30
0.0
  0
VERTEX
  5
1171
330
1154
100
AcDbEntity
  8
SCHRAFFUR_RAND
100
AcDbVertex
100
AcDb2dVertex
 10
179.088001
 20
428.19732
 30
0.0
  0
VERTEX
  5
1172
330
1154
100
AcDbEntity
  8
SCHRAFFUR_RAND
100
AcDbVertex
100
AcDb2dVertex
 10
184.576001
 20
427.71832
 30
0.0
  0
VERTEX
  5
1173
330
1154
100
AcDbEntity
  8
SCHRAFFUR_RAND
100
AcDbVertex
100
AcDb2dVertex
 10
186.047001
 20
427.07032
 30
0.0
  0
VERTEX
  5
1174
330
1154
100
AcDbEntity
  8
SCHRAFFUR_RAND
100
AcDbVertex
100
AcDb2dVertex
 10
186.821001
 20
425.66132
 30
0.0
  0
VERTEX
  5
1175
330
1154
100
AcDbEntity
  8
SCHRAFFUR_RAND
100
AcDbVertex
100
AcDb2dVertex
 10
189.422001
 20
410.91132
 30
0.0
  0
VERTEX
  5
1176
330
1154
100
AcDbEntity
  8
SCHRAFFUR_RAND
100
AcDbVertex
100
AcDb2dVertex
 10
190.755001
 20
406.89032
 30
0.0
  0
VERTEX
  5
1177
330
1154
100
AcDbEntity
  8
SCHRAFFUR_RAND
100
AcDbVertex
100
AcDb2dVertex
 10
193.470001
 20
403.67632
 30
0.0
  0
VERTEX
  5
1178
330
1154
100
AcDbEntity
  8
SCHRAFFUR_RAND
100
AcDbVertex
100
AcDb2dVertex
 10
197.119001
 20
401.58332
 30
0.0
  0
VERTEX
  5
1179
330
1154
100
AcDbEntity
  8
SCHRAFFUR_RAND
100
AcDbVertex
100
AcDb2dVertex
 10
201.264001
 20
400.86332
 30
0.0
  0
VERTEX
  5
117A
330
1154
100
AcDbEntity
  8
SCHRAFFUR_RAND
100
AcDbVertex
100
AcDb2dVertex
 10
205.406001
 20
401.60132
 30
0.0
  0
VERTEX
  5
117B
330
1154
100
AcDbEntity
  8
SCHRAFFUR_RAND
100
AcDbVertex
100
AcDb2dVertex
 10
209.047001
 20
403.70932
 30
0.0
  0
VERTEX
  5
117C
330
1154
100
AcDbEntity
  8
SCHRAFFUR_RAND
100
AcDbVertex
100
AcDb2dVertex
 10
211.749001
 20
406.93432
 30
0.0
  0
VERTEX
  5
117D
330
1154
100
AcDbEntity
  8
SCHRAFFUR_RAND
100
AcDbVertex
100
AcDb2dVertex
 10
213.056001
 20
410.91132
 30
0.0
  0
VERTEX
  5
117E
330
1154
100
AcDbEntity
  8
SCHRAFFUR_RAND
100
AcDbVertex
100
AcDb2dVertex
 10
215.144001
 20
422.75232
 30
0.0
  0
VERTEX
  5
117F
330
1154
100
AcDbEntity
  8
SCHRAFFUR_RAND
100
AcDbVertex
100
AcDb2dVertex
 10
215.542001
 20
423.95132
 30
0.0
  0
VERTEX
  5
1180
330
1154
100
AcDbEntity
  8
SCHRAFFUR_RAND
100
AcDbVertex
100
AcDb2dVertex
 10
216.564001
 20
424.73532
 30
0.0
  0
VERTEX
  5
1181
330
1154
100
AcDbEntity
  8
SCHRAFFUR_RAND
100
AcDbVertex
100
AcDb2dVertex
 10
217.824001
 20
424.80932
 30
0.0
  0
VERTEX
  5
1182
330
1154
100
AcDbEntity
  8
SCHRAFFUR_RAND
100
AcDbVertex
100
AcDb2dVertex
 10
228.558001
 20
423.8703199999999
 30
0.0
  0
VERTEX
  5
1183
330
1154
100
AcDbEntity
  8
SCHRAFFUR_RAND
100
AcDbVertex
100
AcDb2dVertex
 10
231.394001
 20
423.22532
 30
0.0
  0
VERTEX
  5
1184
330
1154
100
AcDbEntity
  8
SCHRAFFUR_RAND
100
AcDbVertex
100
AcDb2dVertex
 10
233.760001
 20
421.49832
 30
0.0
  0
VERTEX
  5
1185
330
1154
100
AcDbEntity
  8
SCHRAFFUR_RAND
100
AcDbVertex
100
AcDb2dVertex
 10
235.361001
 20
419.04532
 30
0.0
  0
VERTEX
  5
1186
330
1154
100
AcDbEntity
  8
SCHRAFFUR_RAND
100
AcDbVertex
100
AcDb2dVertex
 10
235.857001
 20
416.1803199999999
 30
0.0
  0
VERTEX
  5
1187
330
1154
100
AcDbEntity
  8
SCHRAFFUR_RAND
100
AcDbVertex
100
AcDb2dVertex
 10
240.076001
 20
295.35232
 30
0.0
  0
VERTEX
  5
1188
330
1154
100
AcDbEntity
  8
SCHRAFFUR_RAND
100
AcDbVertex
100
AcDb2dVertex
 10
240.961001
 20
288.9843200000001
 30
0.0
  0
VERTEX
  5
1189
330
1154
100
AcDbEntity
  8
SCHRAFFUR_RAND
100
AcDbVertex
100
AcDb2dVertex
 10
243.505001
 20
283.06232
 30
0.0
  0
VERTEX
  5
118A
330
1154
100
AcDbEntity
  8
SCHRAFFUR_RAND
100
AcDbVertex
100
AcDb2dVertex
 10
247.421001
 20
277.94332
 30
0.0
  0
VERTEX
  5
118B
330
1154
100
AcDbEntity
  8
SCHRAFFUR_RAND
100
AcDbVertex
100
AcDb2dVertex
 10
252.471001
 20
273.93932
 30
0.0
  0
VERTEX
  5
118C
330
1154
100
AcDbEntity
  8
SCHRAFFUR_RAND
100
AcDbVertex
100
AcDb2dVertex
 10
258.347001
 20
271.29232
 30
0.0
  0
VERTEX
  5
118D
330
1154
100
AcDbEntity
  8
SCHRAFFUR_RAND
100
AcDbVertex
100
AcDb2dVertex
 10
264.699001
 20
270.29532
 30
0.0
  0
VERTEX
  5
118E
330
1154
100
AcDbEntity
  8
SCHRAFFUR_RAND
100
AcDbVertex
100
AcDb2dVertex
 10
652.052001
 20
249.99532
 30
0.0
  0
VERTEX
  5
118F
330
1154
100
AcDbEntity
  8
SCHRAFFUR_RAND
100
AcDbVertex
100
AcDb2dVertex
 10
652.4440009999999
 20
257.48532
 30
0.0
  0
VERTEX
  5
1190
330
1154
100
AcDbEntity
  8
SCHRAFFUR_RAND
100
AcDbVertex
100
AcDb2dVertex
 10
637.4640009999999
 20
258.26132
 30
0.0
  0
VERTEX
  5
1191
330
1154
100
AcDbEntity
  8
SCHRAFFUR_RAND
100
AcDbVertex
100
AcDb2dVertex
 10
629.3970009999999
 20
257.17832
 30
0.0
  0
VERTEX
  5
1192
330
1154
100
AcDbEntity
  8
SCHRAFFUR_RAND
100
AcDbVertex
100
AcDb2dVertex
 10
264.011001
 20
276.32732
 30
0.0
  0
VERTEX
  5
1193
330
1154
100
AcDbEntity
  8
SCHRAFFUR_RAND
100
AcDbVertex
100
AcDb2dVertex
 10
259.116001
 20
277.06432
 30
0.0
  0
VERTEX
  5
1194
330
1154
100
AcDbEntity
  8
SCHRAFFUR_RAND
100
AcDbVertex
100
AcDb2dVertex
 10
254.589001
 20
279.10332
 30
0.0
  0
VERTEX
  5
1195
330
1154
100
AcDbEntity
  8
SCHRAFFUR_RAND
100
AcDbVertex
100
AcDb2dVertex
 10
250.699001
 20
282.18832
 30
0.0
  0
VERTEX
  5
1196
330
1154
100
AcDbEntity
  8
SCHRAFFUR_RAND
100
AcDbVertex
100
AcDb2dVertex
 10
247.682001
 20
286.13232
 30
0.0
  0
VERTEX
  5
1197
330
1154
100
AcDbEntity
  8
SCHRAFFUR_RAND
100
AcDbVertex
100
AcDb2dVertex
 10
245.722001
 20
290.69432
 30
0.0
  0
VERTEX
  5
1198
330
1154
100
AcDbEntity
  8
SCHRAFFUR_RAND
100
AcDbVertex
100
AcDb2dVertex
 10
245.071001
 20
295.6013200000001
 30
0.0
  0
VERTEX
  5
1199
330
1154
100
AcDbEntity
  8
SCHRAFFUR_RAND
100
AcDbVertex
100
AcDb2dVertex
 10
242.319001
 20
374.40832
 30
0.0
  0
VERTEX
  5
119A
330
1154
100
AcDbEntity
  8
SCHRAFFUR_RAND
100
AcDbVertex
100
AcDb2dVertex
 10
242.507001
 20
375.75832
 30
0.0
  0
VERTEX
  5
119B
330
1154
100
AcDbEntity
  8
SCHRAFFUR_RAND
100
AcDbVertex
100
AcDb2dVertex
 10
243.474001
 20
376.75932
 30
0.0
  0
VERTEX
  5
119C
330
1154
100
AcDbEntity
  8
SCHRAFFUR_RAND
100
AcDbVertex
100
AcDb2dVertex
 10
244.816001
 20
376.99532
 30
0.0
  0
VERTEX
  5
119D
330
1154
100
AcDbEntity
  8
SCHRAFFUR_RAND
100
AcDbVertex
100
AcDb2dVertex
 10
245.239001
 20
376.99532
 30
0.0
  0
VERTEX
  5
119E
330
1154
100
AcDbEntity
  8
SCHRAFFUR_RAND
100
AcDbVertex
100
AcDb2dVertex
 10
245.239001
 20
381.99532
 30
0.0
  0
VERTEX
  5
119F
330
1154
100
AcDbEntity
  8
SCHRAFFUR_RAND
100
AcDbVertex
100
AcDb2dVertex
 10
244.467001
 20
381.99532
 30
0.0
  0
VERTEX
  5
11A0
330
1154
100
AcDbEntity
  8
SCHRAFFUR_RAND
100
AcDbVertex
100
AcDb2dVertex
 10
243.177001
 20
382.2003200000001
 30
0.0
  0
VERTEX
  5
11A1
330
1154
100
AcDbEntity
  8
SCHRAFFUR_RAND
100
AcDbVertex
100
AcDb2dVertex
 10
242.219001
 20
383.12632
 30
0.0
  0
VERTEX
  5
11A2
330
1154
100
AcDbEntity
  8
SCHRAFFUR_RAND
100
AcDbVertex
100
AcDb2dVertex
 10
241.969001
 20
384.40832
 30
0.0
  0
VERTEX
  5
11A3
330
1154
100
AcDbEntity
  8
SCHRAFFUR_RAND
100
AcDbVertex
100
AcDb2dVertex
 10
240.738001
 20
419.65332
 30
0.0
  0
VERTEX
  5
11A4
330
1154
100
AcDbEntity
  8
SCHRAFFUR_RAND
100
AcDbVertex
100
AcDb2dVertex
 10
239.356001
 20
427.4953199999999
 30
0.0
  0
VERTEX
  5
11A5
330
1154
100
AcDbEntity
  8
SCHRAFFUR_RAND
100
AcDbVertex
100
AcDb2dVertex
 10
232.760001
 20
427.4953199999999
 30
0.0
  0
VERTEX
  5
11A6
330
1154
100
AcDbEntity
  8
SCHRAFFUR_RAND
100
AcDbVertex
100
AcDb2dVertex
 10
232.577001
 20
430.9953199999999
 30
0.0
  0
SEQEND
  5
11A7
330
1154
100
AcDbEntity
  8
SCHRAFFUR_RAND
  0
INSERT
  5
11FB
330
12E8
100
AcDbEntity
  8
8
100
AcDbBlockReference
  2
*X3
 10
-46.10599899999999
 20
110.83232
 30
0.0
1001
ACAD
1000
HATCH
1002
{
1070
    19
1000
ANSI31,_I
1040
6.349999999999999
1040
0.7850000000000001
1002
}
  0
DIMENSION
  5
1205
330
12E8
100
AcDbEntity
  8
5
100
AcDbDimension
  2
*D13
 10
729.3310010000001
 20
329.88532
 30
0.0
 11
729.3310009999999
 21
385.15932
 31
0.0
 70
   160
  1
113
 71
     5
 42
112.9999999999999
  3
GEN-ISO
100
AcDbAlignedDimension
 13
500.910001
 23
442.88532
 33
0.0
 14
656.239001
 24
329.88532
 34
0.0
 50
270.0
100
AcDbRotatedDimension
1001
ACAD
1000
DSTYLE
1002
{
1070
    41
1040
5.0
1002
}
  0
DIMENSION
  5
120F
330
12E8
100
AcDbEntity
  8
5
100
AcDbDimension
  2
*D12
 10
656.239001
 20
182.22232
 30
0.0
 11
491.239001
 21
182.22232
 31
0.0
 70
   160
  1
330
 71
     5
 42
330.0000000000001
  3
GEN-ISO
100
AcDbAlignedDimension
 13
326.239001
 23
267.0703200000001
 33
0.0
 14
656.239001
 24
329.88532
 34
0.0
100
AcDbRotatedDimension
1001
ACAD
1000
DSTYLE
1002
{
1070
    41
1040
5.0
1002
}
  0
DIMENSION
  5
1219
330
12E8
100
AcDbEntity
  8
5
100
AcDbDimension
  2
*D11
 10
42.09800100000004
 20
267.0703200000001
 30
0.0
 11
42.098001
 21
362.13332
 31
0.0
 70
   160
  1
176
 71
     5
 42
175.815
  3
GEN-ISO
100
AcDbAlignedDimension
 13
151.567001
 23
442.88532
 33
0.0
 14
326.239001
 24
267.0703200000001
 34
0.0
 50
270.0
100
AcDbRotatedDimension
1001
ACAD
1000
DSTYLE
1002
{
1070
    41
1040
5.0
1002
}
  0
POLYLINE
  5
121A
330
12E8
100
AcDbEntity
  8
SCHRAFFUR_RAND
100
AcDb2dPolyline
 66
     1
 10
0.0
 20
0.0
 30
0.0
 70
     1
  0
VERTEX
  5
121B
330
121A
100
AcDbEntity
  8
SCHRAFFUR_RAND
100
AcDbVertex
100
AcDb2dVertex
 10
420.1100009999999
 20
434.9953199999999
 30
0.0
  0
VERTEX
  5
121C
330
121A
100
AcDbEntity
  8
SCHRAFFUR_RAND
100
AcDbVertex
100
AcDb2dVertex
 10
419.9000009999999
 20
430.9953199999999
 30
0.0
  0
VERTEX
  5
121D
330
121A
100
AcDbEntity
  8
SCHRAFFUR_RAND
100
AcDbVertex
100
AcDb2dVertex
 10
419.7170009999999
 20
427.4953199999999
 30
0.0
  0
VERTEX
  5
121E
330
121A
100
AcDbEntity
  8
SCHRAFFUR_RAND
100
AcDbVertex
100
AcDb2dVertex
 10
413.121001
 20
427.4953199999999
 30
0.0
  0
VERTEX
  5
121F
330
121A
100
AcDbEntity
  8
SCHRAFFUR_RAND
100
AcDbVertex
100
AcDb2dVertex
 10
411.7380009999999
 20
419.65332
 30
0.0
  0
VERTEX
  5
1220
330
121A
100
AcDbEntity
  8
SCHRAFFUR_RAND
100
AcDbVertex
100
AcDb2dVertex
 10
410.5090009999999
 20
384.49532
 30
0.0
  0
VERTEX
  5
1221
330
121A
100
AcDbEntity
  8
SCHRAFFUR_RAND
100
AcDbVertex
100
AcDb2dVertex
 10
410.508001
 20
384.40832
 30
0.0
  0
VERTEX
  5
1222
330
121A
100
AcDbEntity
  8
SCHRAFFUR_RAND
100
AcDbVertex
100
AcDb2dVertex
 10
410.3560009999999
 20
383.52332
 30
0.0
  0
VERTEX
  5
1223
330
121A
100
AcDbEntity
  8
SCHRAFFUR_RAND
100
AcDbVertex
100
AcDb2dVertex
 10
409.8050009999999
 20
382.69932
 30
0.0
  0
VERTEX
  5
1224
330
121A
100
AcDbEntity
  8
SCHRAFFUR_RAND
100
AcDbVertex
100
AcDb2dVertex
 10
408.9810009999999
 20
382.14832
 30
0.0
  0
VERTEX
  5
1225
330
121A
100
AcDbEntity
  8
SCHRAFFUR_RAND
100
AcDbVertex
100
AcDb2dVertex
 10
408.0090009999999
 20
381.99532
 30
0.0
  0
VERTEX
  5
1226
330
121A
100
AcDbEntity
  8
SCHRAFFUR_RAND
100
AcDbVertex
100
AcDb2dVertex
 10
407.2390009999999
 20
381.99532
 30
0.0
  0
VERTEX
  5
1227
330
121A
100
AcDbEntity
  8
SCHRAFFUR_RAND
100
AcDbVertex
100
AcDb2dVertex
 10
407.2390009999999
 20
377.13132
 30
0.0
  0
VERTEX
  5
1228
330
121A
100
AcDbEntity
  8
SCHRAFFUR_RAND
100
AcDbVertex
100
AcDb2dVertex
 10
407.7800009999999
 20
377.19632
 30
0.0
  0
VERTEX
  5
1229
330
121A
100
AcDbEntity
  8
SCHRAFFUR_RAND
100
AcDbVertex
100
AcDb2dVertex
 10
409.8610009999999
 20
377.90632
 30
0.0
  0
VERTEX
  5
122A
330
121A
100
AcDbEntity
  8
SCHRAFFUR_RAND
100
AcDbVertex
100
AcDb2dVertex
 10
411.737001
 20
379.05332
 30
0.0
  0
VERTEX
  5
122B
330
121A
100
AcDbEntity
  8
SCHRAFFUR_RAND
100
AcDbVertex
100
AcDb2dVertex
 10
413.318001
 20
380.58032
 30
0.0
  0
VERTEX
  5
122C
330
121A
100
AcDbEntity
  8
SCHRAFFUR_RAND
100
AcDbVertex
100
AcDb2dVertex
 10
414.529001
 20
382.41532
 30
0.0
  0
VERTEX
  5
122D
330
121A
100
AcDbEntity
  8
SCHRAFFUR_RAND
100
AcDbVertex
100
AcDb2dVertex
 10
415.3120009999999
 20
384.46932
 30
0.0
  0
VERTEX
  5
122E
330
121A
100
AcDbEntity
  8
SCHRAFFUR_RAND
100
AcDbVertex
100
AcDb2dVertex
 10
415.589001
 20
386.64632
 30
0.0
  0
VERTEX
  5
122F
330
121A
100
AcDbEntity
  8
SCHRAFFUR_RAND
100
AcDbVertex
100
AcDb2dVertex
 10
416.6200009999999
 20
416.1793199999999
 30
0.0
  0
VERTEX
  5
1230
330
121A
100
AcDbEntity
  8
SCHRAFFUR_RAND
100
AcDbVertex
100
AcDb2dVertex
 10
416.6690009999999
 20
417.56732
 30
0.0
  0
VERTEX
  5
1231
330
121A
100
AcDbEntity
  8
SCHRAFFUR_RAND
100
AcDbVertex
100
AcDb2dVertex
 10
416.8840009999999
 20
418.59332
 30
0.0
  0
VERTEX
  5
1232
330
121A
100
AcDbEntity
  8
SCHRAFFUR_RAND
100
AcDbVertex
100
AcDb2dVertex
 10
417.328001
 20
419.16032
 30
0.0
  0
VERTEX
  5
1233
330
121A
100
AcDbEntity
  8
SCHRAFFUR_RAND
100
AcDbVertex
100
AcDb2dVertex
 10
417.6290009999999
 20
419.8793199999999
 30
0.0
  0
VERTEX
  5
1234
330
121A
100
AcDbEntity
  8
SCHRAFFUR_RAND
100
AcDbVertex
100
AcDb2dVertex
 10
418.7830009999999
 20
421.43432
 30
0.0
  0
VERTEX
  5
1235
330
121A
100
AcDbEntity
  8
SCHRAFFUR_RAND
100
AcDbVertex
100
AcDb2dVertex
 10
420.2760009999999
 20
422.66832
 30
0.0
  0
VERTEX
  5
1236
330
121A
100
AcDbEntity
  8
SCHRAFFUR_RAND
100
AcDbVertex
100
AcDb2dVertex
 10
422.020001
 20
423.51032
 30
0.0
  0
VERTEX
  5
1237
330
121A
100
AcDbEntity
  8
SCHRAFFUR_RAND
100
AcDbVertex
100
AcDb2dVertex
 10
423.918001
 20
423.8703199999999
 30
0.0
  0
VERTEX
  5
1238
330
121A
100
AcDbEntity
  8
SCHRAFFUR_RAND
100
AcDbVertex
100
AcDb2dVertex
 10
447.9380009999999
 20
425.97132
 30
0.0
  0
VERTEX
  5
1239
330
121A
100
AcDbEntity
  8
SCHRAFFUR_RAND
100
AcDbVertex
100
AcDb2dVertex
 10
449.174001
 20
426.07932
 30
0.0
  0
VERTEX
  5
123A
330
121A
100
AcDbEntity
  8
SCHRAFFUR_RAND
100
AcDbVertex
100
AcDb2dVertex
 10
451.0850009999999
 20
426.24632
 30
0.0
  0
VERTEX
  5
123B
330
121A
100
AcDbEntity
  8
SCHRAFFUR_RAND
100
AcDbVertex
100
AcDb2dVertex
 10
473.390001
 20
428.1983199999999
 30
0.0
  0
VERTEX
  5
123C
330
121A
100
AcDbEntity
  8
SCHRAFFUR_RAND
100
AcDbVertex
100
AcDb2dVertex
 10
489.0800009999999
 20
432.99532
 30
0.0
  0
VERTEX
  5
123D
330
121A
100
AcDbEntity
  8
SCHRAFFUR_RAND
100
AcDbVertex
100
AcDb2dVertex
 10
499.1440009999999
 20
432.99532
 30
0.0
  0
VERTEX
  5
123E
330
121A
100
AcDbEntity
  8
SCHRAFFUR_RAND
100
AcDbVertex
100
AcDb2dVertex
 10
499.9600009999999
 20
432.90032
 30
0.0
  0
VERTEX
  5
123F
330
121A
100
AcDbEntity
  8
SCHRAFFUR_RAND
100
AcDbVertex
100
AcDb2dVertex
 10
500.6900009999999
 20
432.51032
 30
0.0
  0
VERTEX
  5
1240
330
121A
100
AcDbEntity
  8
SCHRAFFUR_RAND
100
AcDbVertex
100
AcDb2dVertex
 10
501.255001
 20
431.90632
 30
0.0
  0
VERTEX
  5
1241
330
121A
100
AcDbEntity
  8
SCHRAFFUR_RAND
100
AcDbVertex
100
AcDb2dVertex
 10
501.5580009999999
 20
431.14232
 30
0.0
  0
VERTEX
  5
1242
330
121A
100
AcDbEntity
  8
SCHRAFFUR_RAND
100
AcDbVertex
100
AcDb2dVertex
 10
504.858001
 20
418.82732
 30
0.0
  0
VERTEX
  5
1243
330
121A
100
AcDbEntity
  8
SCHRAFFUR_RAND
100
AcDbVertex
100
AcDb2dVertex
 10
505.5720009999999
 20
416.8573199999999
 30
0.0
  0
VERTEX
  5
1244
330
121A
100
AcDbEntity
  8
SCHRAFFUR_RAND
100
AcDbVertex
100
AcDb2dVertex
 10
506.7150009999999
 20
415.09732
 30
0.0
  0
VERTEX
  5
1245
330
121A
100
AcDbEntity
  8
SCHRAFFUR_RAND
100
AcDbVertex
100
AcDb2dVertex
 10
508.1990009999999
 20
413.61332
 30
0.0
  0
VERTEX
  5
1246
330
121A
100
AcDbEntity
  8
SCHRAFFUR_RAND
100
AcDbVertex
100
AcDb2dVertex
 10
509.959001
 20
412.4703199999999
 30
0.0
  0
VERTEX
  5
1247
330
121A
100
AcDbEntity
  8
SCHRAFFUR_RAND
100
AcDbVertex
100
AcDb2dVertex
 10
511.9190009999999
 20
411.71732
 30
0.0
  0
VERTEX
  5
1248
330
121A
100
AcDbEntity
  8
SCHRAFFUR_RAND
100
AcDbVertex
100
AcDb2dVertex
 10
513.994001
 20
411.42932
 30
0.0
  0
VERTEX
  5
1249
330
121A
100
AcDbEntity
  8
SCHRAFFUR_RAND
100
AcDbVertex
100
AcDb2dVertex
 10
637.1420009999999
 20
404.97532
 30
0.0
  0
VERTEX
  5
124A
330
121A
100
AcDbEntity
  8
SCHRAFFUR_RAND
100
AcDbVertex
100
AcDb2dVertex
 10
645.053001
 20
403.06332
 30
0.0
  0
VERTEX
  5
124B
330
121A
100
AcDbEntity
  8
SCHRAFFUR_RAND
100
AcDbVertex
100
AcDb2dVertex
 10
660.033001
 20
402.28632
 30
0.0
  0
VERTEX
  5
124C
330
121A
100
AcDbEntity
  8
SCHRAFFUR_RAND
100
AcDbVertex
100
AcDb2dVertex
 10
660.4260009999999
 20
409.77632
 30
0.0
  0
VERTEX
  5
124D
330
121A
100
AcDbEntity
  8
SCHRAFFUR_RAND
100
AcDbVertex
100
AcDb2dVertex
 10
513.254001
 20
417.48932
 30
0.0
  0
VERTEX
  5
124E
330
121A
100
AcDbEntity
  8
SCHRAFFUR_RAND
100
AcDbVertex
100
AcDb2dVertex
 10
512.0160009999999
 20
417.71232
 30
0.0
  0
VERTEX
  5
124F
330
121A
100
AcDbEntity
  8
SCHRAFFUR_RAND
100
AcDbVertex
100
AcDb2dVertex
 10
510.9210009999999
 20
418.34432
 30
0.0
  0
VERTEX
  5
1250
330
121A
100
AcDbEntity
  8
SCHRAFFUR_RAND
100
AcDbVertex
100
AcDb2dVertex
 10
510.076001
 20
419.2833199999999
 30
0.0
  0
VERTEX
  5
1251
330
121A
100
AcDbEntity
  8
SCHRAFFUR_RAND
100
AcDbVertex
100
AcDb2dVertex
 10
509.600001
 20
420.44832
 30
0.0
  0
VERTEX
  5
1252
330
121A
100
AcDbEntity
  8
SCHRAFFUR_RAND
100
AcDbVertex
100
AcDb2dVertex
 10
504.055001
 20
441.14232
 30
0.0
  0
VERTEX
  5
1253
330
121A
100
AcDbEntity
  8
SCHRAFFUR_RAND
100
AcDbVertex
100
AcDb2dVertex
 10
503.6420009999999
 20
442.0593199999999
 30
0.0
  0
VERTEX
  5
1254
330
121A
100
AcDbEntity
  8
SCHRAFFUR_RAND
100
AcDbVertex
100
AcDb2dVertex
 10
502.8720009999999
 20
442.7163199999999
 30
0.0
  0
VERTEX
  5
1255
330
121A
100
AcDbEntity
  8
SCHRAFFUR_RAND
100
AcDbVertex
100
AcDb2dVertex
 10
501.906001
 20
443.0213199999999
 30
0.0
  0
VERTEX
  5
1256
330
121A
100
AcDbEntity
  8
SCHRAFFUR_RAND
100
AcDbVertex
100
AcDb2dVertex
 10
500.910001
 20
442.88532
 30
0.0
  0
VERTEX
  5
1257
330
121A
100
AcDbEntity
  8
SCHRAFFUR_RAND
100
AcDbVertex
100
AcDb2dVertex
 10
472.2390009999999
 20
434.1203199999999
 30
0.0
  0
VERTEX
  5
1258
330
121A
100
AcDbEntity
  8
SCHRAFFUR_RAND
100
AcDbVertex
100
AcDb2dVertex
 10
457.8770009999999
 20
432.86432
 30
0.0
  0
VERTEX
  5
1259
330
121A
100
AcDbEntity
  8
SCHRAFFUR_RAND
100
AcDbVertex
100
AcDb2dVertex
 10
457.2380009999999
 20
431.75832
 30
0.0
  0
VERTEX
  5
125A
330
121A
100
AcDbEntity
  8
SCHRAFFUR_RAND
100
AcDbVertex
100
AcDb2dVertex
 10
445.2400009999999
 20
431.75832
 30
0.0
  0
VERTEX
  5
125B
330
121A
100
AcDbEntity
  8
SCHRAFFUR_RAND
100
AcDbVertex
100
AcDb2dVertex
 10
439.684001
 20
431.27232
 30
0.0
  0
VERTEX
  5
125C
330
121A
100
AcDbEntity
  8
SCHRAFFUR_RAND
100
AcDbVertex
100
AcDb2dVertex
 10
434.682001
 20
430.83432
 30
0.0
  0
VERTEX
  5
125D
330
121A
100
AcDbEntity
  8
SCHRAFFUR_RAND
100
AcDbVertex
100
AcDb2dVertex
 10
430.6740009999999
 20
430.48432
 30
0.0
  0
VERTEX
  5
125E
330
121A
100
AcDbEntity
  8
SCHRAFFUR_RAND
100
AcDbVertex
100
AcDb2dVertex
 10
430.196001
 20
430.44232
 30
0.0
  0
VERTEX
  5
125F
330
121A
100
AcDbEntity
  8
SCHRAFFUR_RAND
100
AcDbVertex
100
AcDb2dVertex
 10
429.6740009999999
 20
430.45132
 30
0.0
  0
VERTEX
  5
1260
330
121A
100
AcDbEntity
  8
SCHRAFFUR_RAND
100
AcDbVertex
100
AcDb2dVertex
 10
429.2150009999999
 20
430.51032
 30
0.0
  0
VERTEX
  5
1261
330
121A
100
AcDbEntity
  8
SCHRAFFUR_RAND
100
AcDbVertex
100
AcDb2dVertex
 10
428.3460009999999
 20
430.98732
 30
0.0
  0
VERTEX
  5
1262
330
121A
100
AcDbEntity
  8
SCHRAFFUR_RAND
100
AcDbVertex
100
AcDb2dVertex
 10
427.7710009999999
 20
431.75832
 30
0.0
  0
VERTEX
  5
1263
330
121A
100
AcDbEntity
  8
SCHRAFFUR_RAND
100
AcDbVertex
100
AcDb2dVertex
 10
427.488001
 20
432.71432
 30
0.0
  0
VERTEX
  5
1264
330
121A
100
AcDbEntity
  8
SCHRAFFUR_RAND
100
AcDbVertex
100
AcDb2dVertex
 10
427.479001
 20
432.86332
 30
0.0
  0
VERTEX
  5
1265
330
121A
100
AcDbEntity
  8
SCHRAFFUR_RAND
100
AcDbVertex
100
AcDb2dVertex
 10
427.2880009999999
 20
434.9953199999999
 30
0.0
  0
VERTEX
  5
1266
330
121A
100
AcDbEntity
  8
SCHRAFFUR_RAND
100
AcDbVertex
100
AcDb2dVertex
 10
420.1100009999999
 20
434.9953199999999
 30
0.0
  0
SEQEND
  5
1267
330
121A
100
AcDbEntity
  8
SCHRAFFUR_RAND
  0
INSERT
  5
128D
330
12E8
100
AcDbEntity
  8
8
100
AcDbBlockReference
  2
*X4
 10
-46.10599899999999
 20
110.83232
 30
0.0
1001
ACAD
1000
HATCH
1002
{
1070
    19
1000
ANSI31,_I
1040
6.349999999999999
1040
0.7850000000000001
1002
}
  0
DIMENSION
  5
1298
330
12E8
100
AcDbEntity
  8
5
100
AcDbDimension
  2
*D10
 10
426.2390009999999
 20
511.13432
 30
0.0
 11
325.197001
 21
511.13432
 31
0.0
 70
   160
  1
%%c 200
 71
     5
 42
200.0
  3
GEN-ISO
100
AcDbAlignedDimension
 13
226.239001
 23
446.9953199999999
 33
0.0
 14
426.2390009999999
 24
446.9953199999999
 34
0.0
100
AcDbRotatedDimension
1001
ACAD
1000
DSTYLE
1002
{
1070
    41
1040
5.0
1002
}
  0
INSERT
  5
1376
330
12E8
100
AcDbEntity
  8
0
100
AcDbBlockReference
  2
KATALOG_LEER
 10
251.839706
 20
11.304483
 30
0.0
 41
5.0
 42
5.0
 43
5.0
1001
GENIUS_GENOREF_13
1005
1377
  0
POINT
  5
1377
330
12E8
100
AcDbEntity
  8
0
 60
     1
100
AcDbPoint
 10
0.0
 20
0.0
 30
0.0
1001
GENIUS_GENOBJ-N-TIT_13
1002
{
1000
OWNER
1000
GEN
1002
}
1001
GENIUS_GENOENT_13
1002
{
1000
MYREF
1005
1377
1002
}
1002
{
1000
GRP
1005
0
1002
}
1001
GENIUS_GENOLIS_13
1002
{
1000
ENT
1005
1376
1002
}
1001
GENIUS_GENTITLE_13
1002
{
1000
SCALE
1000
1:5
1002
}
1002
{
1000
BORDER
1000
KATALOG
1002
}
1002
{
1000
TITLE
1000
KATALOG_LEER
1002
}
1002
{
1000
UNCHG
1002
{
1000
GEN-TITLE-SCA
1000
GEN-TITLE-SIZ
1002
}
1002
}
1002
{
1000
HRA
1005
136F
1002
}
1002
{
1000
HTIT
1005
1376
1002
}
1002
{
1000
GENIUSID
1005
1377
1002
}
1001
GENIUS_GENODEF_13
1002
{
1000
HIER
1070
     1
1002
}
1002
{
1000
MANEDIT
1070
     1
1002
}
1002
{
1000
NOSEL
1070
     0
1002
}
1002
{
1000
BEHIND
1070
     0
1002
}
1002
{
1000
REACTOR
1002
}
  0
ENDSEC
  0
SECTION
  2
OBJECTS
  0
DICTIONARY
  5
12DC
330
0
100
AcDbDictionary
281
     1
  3
ACAD_COLOR
350
148E
  3
ACAD_GROUP
350
12DD
  3
ACAD_LAYOUT
350
1491
  3
ACAD_MATERIAL
350
148D
  3
ACAD_MLINESTYLE
350
12EB
  3
ACAD_PLOTSETTINGS
350
1492
  3
ACAD_PLOTSTYLENAME
350
148B
  3
ACAD_TABLESTYLE
350
148F
  3
ACDBHEADERROUNDTRIPXREC
350
1597
  3
AcDbVariableDictionary
350
1592
  3
AcmDictionary
350
14F0
  3
AMG
350
1496
  3
AMGSNAPSETTINGS
350
1566
  0
DICTIONARY
  5
148E
102
{ACAD_REACTORS
330
12DC
102
}
330
12DC
100
AcDbDictionary
281
     1
  0
DICTIONARY
  5
12DD
102
{ACAD_REACTORS
330
12DC
102
}
330
12DC
100
AcDbDictionary
281
     1
  0
DICTIONARY
  5
1491
102
{ACAD_REACTORS
330
12DC
102
}
330
12DC
100
AcDbDictionary
281
     1
  3
Layout1
350
1494
  3
Model
350
1493
  0
DICTIONARY
  5
148D
102
{ACAD_REACTORS
330
12DC
102
}
330
12DC
100
AcDbDictionary
281
     1
  0
DICTIONARY
  5
12EB
102
{ACAD_REACTORS
330
12DC
102
}
330
12DC
100
AcDbDictionary
281
     1
  3
STANDARD
350
12EC
  0
DICTIONARY
  5
1492
102
{ACAD_REACTORS
330
12DC
102
}
330
12DC
100
AcDbDictionary
281
     1
  0
ACDBDICTIONARYWDFLT
  5
148B
102
{ACAD_REACTORS
330
12DC
102
}
330
12DC
100
AcDbDictionary
281
     1
  3
Normal
350
148C
100
AcDbDictionaryWithDefault
340
148C
  0
DICTIONARY
  5
148F
102
{ACAD_REACTORS
330
12DC
102
}
330
12DC
100
AcDbDictionary
281
     1
  3
Standard
350
1490
  0
DICTIONARY
  5
1597
102
{ACAD_REACTORS
330
12DC
102
}
330
12DC
100
AcDbDictionary
281
     1
  0
DICTIONARY
  5
1592
102
{ACAD_REACTORS
330
12DC
102
}
330
12DC
100
AcDbDictionary
281
     1
  3
CTABLESTYLE
350
1593
  3
DIMASSOC
350
1594
  3
PROJECTNAME
350
1595
  0
DICTIONARY
  5
14F0
102
{ACAD_REACTORS
330
12DC
102
}
330
12DC
100
AcDbDictionary
281
     1
  3
AcmStdDictionary
350
14FB
  3
AMDTSECTSYM_ARROWCOLOR
350
151E
  0
DICTIONARY
  5
1496
102
{ACAD_REACTORS
330
12DC
102
}
330
12DC
100
AcDbDictionary
281
     1
  0
DICTIONARY
  5
1566
102
{ACAD_REACTORS
330
12DC
102
}
330
12DC
100
AcDbDictionary
281
     1
  0
LAYOUT
  5
1494
102
{ACAD_XDICTIONARY
360
159A
102
}
102
{ACAD_REACTORS
330
1491
102
}
330
1491
100
AcDbPlotSettings
  1

  2
Xerox Document Centre CS50 PS
  4

  6

 40
0.0
 41
0.0
 42
0.0
 43
0.0
 44
0.0
 45
0.0
 46
0.0
 47
0.0
 48
0.0
 49
0.0
140
0.0
141
0.0
142
1.0
143
1.0
 70
   688
 72
     0
 73
     0
 74
     5
  7

 75
    16
147
1.0
148
0.0
149
0.0
100
AcDbLayout
  1
Layout1
 70
     1
 71
     1
 10
0.0
 20
0.0
 11
419.8999999999999
 21
296.9
 12
0.0
 22
0.0
 32
0.0
 14
0.0
 24
0.0
 34
0.0
 15
419.8999999999999
 25
296.9
 35
0.0
146
0.0
 13
0.0
 23
0.0
 33
0.0
 16
1.0
 26
0.0
 36
0.0
 17
0.0
 27
1.0
 37
0.0
 76
     0
330
12E5
  0
LAYOUT
  5
1493
102
{ACAD_XDICTIONARY
360
1598
102
}
102
{ACAD_REACTORS
330
1491
102
}
330
1491
100
AcDbPlotSettings
  1

  2
Xerox Document Centre CS50 PS
  4

  6

 40
0.0
 41
0.0
 42
0.0
 43
0.0
 44
0.0
 45
0.0
 46
0.0
 47
0.0
 48
0.0
 49
0.0
140
0.0
141
0.0
142
1.0
143
1.0
 70
  1712
 72
     0
 73
     0
 74
     0
  7

 75
     0
147
1.0
148
0.0
149
0.0
100
AcDbLayout
  1
Model
 70
     1
 71
     0
 10
0.0
 20
0.0
 11
12.0
 21
9.0
 12
0.0
 22
0.0
 32
0.0
 14
0.0
 24
0.0
 34
0.0
 15
0.0
 25
0.0
 35
0.0
146
0.0
 13
0.0
 23
0.0
 33
0.0
 16
1.0
 26
0.0
 36
0.0
 17
0.0
 27
1.0
 37
0.0
 76
     0
330
12E8
  0
MLINESTYLE
  5
12EC
102
{ACAD_REACTORS
330
12EB
102
}
330
12EB
100
AcDbMlineStyle
  2
STANDARD
 70
     0
  3

 62
   256
 51
90.0
 52
90.0
 71
     2
 49
0.5
 62
   256
  6
BYLAYER
 49
-0.5
 62
   256
  6
BYLAYER
  0
ACDBPLACEHOLDER
  5
148C
102
{ACAD_REACTORS
330
148B
102
}
330
148B
  0
TABLESTYLE
  5
1490
102
{ACAD_REACTORS
330
148F
102
}
330
148F
100
AcDbTableStyle
  3
Standard
 70
     0
 71
     0
 40
1.5
 41
1.5
280
     0
281
     0
  7
STANDARD
140
4.5
170
     2
 62
     0
 63
     7
283
     0
274
    -2
284
     1
 64
     0
275
    -2
285
     1
 65
     0
276
    -2
286
     1
 66
     0
277
    -2
287
     1
 67
     0
278
    -2
288
     1
 68
     0
279
    -2
289
     1
 69
     0
  7
STANDARD
140
6.0
170
     5
 62
     0
 63
     7
283
     0
274
    -2
284
     1
 64
     0
275
    -2
285
     1
 65
     0
276
    -2
286
     1
 66
     0
277
    -2
287
     1
 67
     0
278
    -2
288
     1
 68
     0
279
    -2
289
     1
 69
     0
  7
STANDARD
140
4.5
170
     5
 62
     0
 63
     7
283
     0
274
    -2
284
     1
 64
     0
275
    -2
285
     1
 65
     0
276
    -2
286
     1
 66
     0
277
    -2
287
     1
 67
     0
278
    -2
288
     1
 68
     0
279
    -2
289
     1
 69
     0
  0
DICTIONARYVAR
  5
1593
102
{ACAD_REACTORS
330
1592
102
}
330
1592
100
DictionaryVariables
280
     0
  1
STANDARD
  0
DICTIONARYVAR
  5
1594
102
{ACAD_REACTORS
330
1592
102
}
330
1592
100
DictionaryVariables
280
     0
  1
1
  0
DICTIONARYVAR
  5
1595
102
{ACAD_REACTORS
330
1592
102
}
330
1592
100
DictionaryVariables
280
     0
  1

  0
DICTIONARY
  5
14FB
102
{ACAD_REACTORS
330
14F0
102
}
330
14F0
100
AcDbDictionary
281
     1
  0
XRECORD
  5
151E
102
{ACAD_REACTORS
330
14F0
102
}
330
14F0
100
AcDbXrecord
280
     1
 90
-1023410169
  0
DICTIONARY
  5
159A
330
1494
100
AcDbDictionary
280
     1
281
     1
  3
ACAD_XREC_ROUNDTRIP
360
159B
  0
DICTIONARY
  5
1598
330
1493
100
AcDbDictionary
280
     1
281
     1
  3
ACAD_XREC_ROUNDTRIP
360
1599
  0
XRECORD
  5
159B
102
{ACAD_REACTORS
330
159A
102
}
330
159A
100
AcDbXrecord
280
     1
102
SHADEPLOT
 70
     0
102
SHADEPLOTRESLEVEL
 70
     2
102
SHADEPLOTCUSTOMDPI
 70
   300
  0
XRECORD
  5
1599
102
{ACAD_REACTORS
330
1598
102
}
330
1598
100
AcDbXrecord
280
     1
102
SHADEPLOT
 70
     0
102
SHADEPLOTRESLEVEL
 70
     2
102
SHADEPLOTCUSTOMDPI
 70
   300
  0
ENDSEC
  0
EOF
