  0
SECTION
  2
HEADER
  9
$ACADVER
  1
AC1015
  9
$ACADMAINTVER
 70
    20
  9
$DWGCODEPAGE
  3
ANSI_1252
  9
$INSBASE
 10
0.0
 20
0.0
 30
0.0
  9
$EXTMIN
 10
45.8702112383562
 20
174.5246913685982
 30
-0.0015258207003583
  9
$EXTMAX
 10
729.5974752162551
 20
539.4996661570616
 30
0.0000000349246037
  9
$LIMMIN
 10
0.0
 20
0.0
  9
$LIMMAX
 10
1050.0
 20
1050.0
  9
$ORTHOMODE
 70
     0
  9
$REGENMODE
 70
     1
  9
$FILLMODE
 70
     1
  9
$QTEXTMODE
 70
     0
  9
$MIRRTEXT
 70
     0
  9
$LTSCALE
 40
5.0
  9
$ATTMODE
 70
     1
  9
$TEXTSIZE
 40
10.0
  9
$TRACEWID
 40
0.05
  9
$TEXTSTYLE
  7
STANDARD
  9
$CLAYER
  8
0
  9
$CELTYPE
  6
BYLAYER
  9
$CECOLOR
 62
   256
  9
$CELTSCALE
 40
1.0
  9
$DISPSILH
 70
     0
  9
$DIMSCALE
 40
5.0
  9
$DIMASZ
 40
2.5
  9
$DIMEXO
 40
1.0
  9
$DIMDLI
 40
7.0
  9
$DIMRND
 40
0.0
  9
$DIMDLE
 40
0.0
  9
$DIMEXE
 40
1.0
  9
$DIMTP
 40
0.1
  9
$DIMTM
 40
0.1
  9
$DIMTXT
 40
3.5
  9
$DIMCEN
 40
0.0
  9
$DIMTSZ
 40
0.0
  9
$DIMTOL
 70
     0
  9
$DIMLIM
 70
     0
  9
$DIMTIH
 70
     0
  9
$DIMTOH
 70
     0
  9
$DIMSE1
 70
     0
  9
$DIMSE2
 70
     0
  9
$DIMTAD
 70
     1
  9
$DIMZIN
 70
    12
  9
$DIMBLK
  1

  9
$DIMASO
 70
     1
  9
$DIMSHO
 70
     1
  9
$DIMPOST
  1

  9
$DIMAPOST
  1
"
  9
$DIMALT
 70
     0
  9
$DIMALTD
 70
     2
  9
$DIMALTF
 40
0.03937
  9
$DIMLFAC
 40
1.0
  9
$DIMTOFL
 70
     1
  9
$DIMTVP
 40
0.0
  9
$DIMTIX
 70
     0
  9
$DIMSOXD
 70
     0
  9
$DIMSAH
 70
     0
  9
$DIMBLK1
  1

  9
$DIMBLK2
  1

  9
$DIMSTYLE
  2
GEN-ISO
  9
$DIMCLRD
 70
   256
  9
$DIMCLRE
 70
   256
  9
$DIMCLRT
 70
     2
  9
$DIMTFAC
 40
0.71
  9
$DIMGAP
 40
0.6
  9
$DIMJUST
 70
     0
  9
$DIMSD1
 70
     0
  9
$DIMSD2
 70
     0
  9
$DIMTOLJ
 70
     0
  9
$DIMTZIN
 70
     0
  9
$DIMALTZ
 70
     0
  9
$DIMALTTZ
 70
     0
  9
$DIMUPT
 70
     0
  9
$DIMDEC
 70
     2
  9
$DIMTDEC
 70
     3
  9
$DIMALTU
 70
     2
  9
$DIMALTTD
 70
     4
  9
$DIMTXSTY
  7
STANDARD
  9
$DIMAUNIT
 70
     0
  9
$DIMADEC
 70
     0
  9
$DIMALTRND
 40
0.0
  9
$DIMAZIN
 70
     0
  9
$DIMDSEP
 70
    46
  9
$DIMATFIT
 70
     3
  9
$DIMFRAC
 70
     0
  9
$DIMLDRBLK
  1

  9
$DIMLUNIT
 70
     2
  9
$DIMLWD
 70
    -2
  9
$DIMLWE
 70
    -2
  9
$DIMTMOVE
 70
     0
  9
$LUNITS
 70
     2
  9
$LUPREC
 70
     2
  9
$SKETCHINC
 40
0.1
  9
$FILLETRAD
 40
12.5
  9
$AUNITS
 70
     0
  9
$AUPREC
 70
     2
  9
$MENU
  1
.
  9
$ELEVATION
 40
0.0
  9
$PELEVATION
 40
0.0
  9
$THICKNESS
 40
0.0
  9
$LIMCHECK
 70
     0
  9
$CHAMFERA
 40
12.5
  9
$CHAMFERB
 40
12.5
  9
$CHAMFERC
 40
0.0
  9
$CHAMFERD
 40
0.0
  9
$SKPOLY
 70
     0
  9
$TDCREATE
 40
2451296.350451424
  9
$TDUCREATE
 40
2451296.267118090
  9
$TDUPDATE
 40
2454020.021233426
  9
$TDUUPDATE
 40
2454019.937900092
  9
$TDINDWG
 40
0.0035026157
  9
$TDUSRTIMER
 40
0.0035025000
  9
$USRTIMER
 70
     1
  9
$ANGBASE
 50
0.0
  9
$ANGDIR
 70
     0
  9
$PDMODE
 70
     0
  9
$PDSIZE
 40
0.0
  9
$PLINEWID
 40
0.0
  9
$SPLFRAME
 70
     0
  9
$SPLINETYPE
 70
     6
  9
$SPLINESEGS
 70
     8
  9
$HANDSEED
  5
1560
  9
$SURFTAB1
 70
     6
  9
$SURFTAB2
 70
     6
  9
$SURFTYPE
 70
     6
  9
$SURFU
 70
     6
  9
$SURFV
 70
     6
  9
$UCSBASE
  2

  9
$UCSNAME
  2

  9
$UCSORG
 10
0.0
 20
0.0
 30
0.0
  9
$UCSXDIR
 10
1.0
 20
0.0
 30
0.0
  9
$UCSYDIR
 10
0.0
 20
1.0
 30
0.0
  9
$UCSORTHOREF
  2

  9
$UCSORTHOVIEW
 70
     0
  9
$UCSORGTOP
 10
0.0
 20
0.0
 30
0.0
  9
$UCSORGBOTTOM
 10
0.0
 20
0.0
 30
0.0
  9
$UCSORGLEFT
 10
0.0
 20
0.0
 30
0.0
  9
$UCSORGRIGHT
 10
0.0
 20
0.0
 30
0.0
  9
$UCSORGFRONT
 10
0.0
 20
0.0
 30
0.0
  9
$UCSORGBACK
 10
0.0
 20
0.0
 30
0.0
  9
$PUCSBASE
  2

  9
$PUCSNAME
  2

  9
$PUCSORG
 10
0.0
 20
0.0
 30
0.0
  9
$PUCSXDIR
 10
1.0
 20
0.0
 30
0.0
  9
$PUCSYDIR
 10
0.0
 20
1.0
 30
0.0
  9
$PUCSORTHOREF
  2

  9
$PUCSORTHOVIEW
 70
     0
  9
$PUCSORGTOP
 10
0.0
 20
0.0
 30
0.0
  9
$PUCSORGBOTTOM
 10
0.0
 20
0.0
 30
0.0
  9
$PUCSORGLEFT
 10
0.0
 20
0.0
 30
0.0
  9
$PUCSORGRIGHT
 10
0.0
 20
0.0
 30
0.0
  9
$PUCSORGFRONT
 10
0.0
 20
0.0
 30
0.0
  9
$PUCSORGBACK
 10
0.0
 20
0.0
 30
0.0
  9
$USERI1
 70
     0
  9
$USERI2
 70
     0
  9
$USERI3
 70
     0
  9
$USERI4
 70
     0
  9
$USERI5
 70
     0
  9
$USERR1
 40
0.0
  9
$USERR2
 40
0.0
  9
$USERR3
 40
0.0
  9
$USERR4
 40
0.0
  9
$USERR5
 40
0.0
  9
$WORLDVIEW
 70
     1
  9
$SHADEDGE
 70
     3
  9
$SHADEDIF
 70
    70
  9
$TILEMODE
 70
     1
  9
$MAXACTVP
 70
    48
  9
$PINSBASE
 10
0.0
 20
0.0
 30
0.0
  9
$PLIMCHECK
 70
     0
  9
$PEXTMIN
 10
0.0
 20
0.0
 30
0.0
  9
$PEXTMAX
 10
419.8999999999999
 20
296.9
 30
0.0
  9
$PLIMMIN
 10
0.0
 20
0.0
  9
$PLIMMAX
 10
419.8999999999999
 20
296.9
  9
$UNITMODE
 70
     0
  9
$VISRETAIN
 70
     1
  9
$PLINEGEN
 70
     1
  9
$PSLTSCALE
 70
     1
  9
$TREEDEPTH
 70
 -3020
  9
$CMLSTYLE
  2
STANDARD
  9
$CMLJUST
 70
     0
  9
$CMLSCALE
 40
1.0
  9
$PROXYGRAPHICS
 70
     1
  9
$MEASUREMENT
 70
     1
  9
$CELWEIGHT
370
    -1
  9
$ENDCAPS
280
     0
  9
$JOINSTYLE
280
     0
  9
$LWDISPLAY
290
     0
  9
$INSUNITS
 70
     0
  9
$HYPERLINKBASE
  1

  9
$STYLESHEET
  1

  9
$XEDIT
290
     1
  9
$CEPSNTYPE
380
     0
  9
$PSTYLEMODE
290
     1
  9
$FINGERPRINTGUID
  2
{D3A71AFB-A4D3-4791-81ED-A6C79C8E055C}
  9
$VERSIONGUID
  2
{BDE6CCA6-7964-4484-9D01-D28D4A7CDFF7}
  9
$EXTNAMES
290
     1
  9
$PSVPSCALE
 40
0.0
  9
$OLESTARTUP
290
     0
  0
ENDSEC
  0
SECTION
  2
CLASSES
  0
CLASS
  1
ACDBDICTIONARYWDFLT
  2
AcDbDictionaryWithDefault
  3
ObjectDBX Classes
 90
        0
280
     0
281
     0
  0
CLASS
  1
TABLESTYLE
  2
AcDbTableStyle
  3
ObjectDBX Classes
 90
     2047
280
     0
281
     0
  0
CLASS
  1
AMGSETTINGSOBJ
  2
AmgSettingsObj
  3
"AcadM|Product Description: AutoCAD Mechanical 2000|Company: Autodesk"
 90
        0
280
     0
281
     0
  0
CLASS
  1
ACME_DOCUMENT
  2
AcMeDbDoc
  3
AcMeServices
 90
        0
280
     0
281
     0
  0
CLASS
  1
ACMESCOPE
  2
AcMeScope
  3
AcMeServices
 90
        0
280
     0
281
     0
  0
CLASS
  1
ACMECOMMANDHISTORY
  2
AcMeCommandHistory
  3
AcMeServices
 90
        0
280
     0
281
     0
  0
CLASS
  1
ACIMSYSVARMAN
  2
AcImSysVarManager
  3
AcMeServices
 90
        0
280
     0
281
     0
  0
CLASS
  1
ACIMINTSYSVAR
  2
AcImIntSysVar
  3
AcMeServices
 90
        0
280
     0
281
     0
  0
CLASS
  1
ACMEDRAWINGMAN
  2
AcMeDrawingMan
  3
AcMeServices
 90
        0
280
     0
281
     0
  0
CLASS
  1
ACMEVIEW
  2
AcMeView
  3
AcMeServices
 90
        0
280
     0
281
     0
  0
CLASS
  1
ACDBENTITYCACHE
  2
AcMeEntityCache
  3
AcMeServices
 90
        0
280
     0
281
     0
  0
CLASS
  1
GSMANAGER
  2
AcMeGSManager
  3
AcMeServices
 90
        0
280
     0
281
     0
  0
CLASS
  1
AMDTINTERNALREACTOR
  2
AmdtInternalReactor
  3
AcMeServices
 90
        0
280
     0
281
     0
  0
CLASS
  1
ACMESTATEMGR
  2
AcMeStateMgr
  3
AcMeServices
 90
        0
280
     0
281
     0
  0
CLASS
  1
ACGREFMASTER
  2
AcGrefMaster
  3
AcAttribServices
 90
        0
280
     0
281
     0
  0
CLASS
  1
AM_DRAWING_MGR
  2
AcDmDwgMgr
  3
AcMechDwgViewMgmt
 90
        0
280
     0
281
     0
  0
CLASS
  1
AM_DWG_DOCUMENT
  2
AcDmDwgDocument
  3
AcMechDwgViewMgmt
 90
        0
280
     0
281
     0
  0
CLASS
  1
AM_DWG_SHEET
  2
AcDmSheet
  3
AcMechDwgViewMgmt
 90
        0
280
     0
281
     0
  0
CLASS
  1
AM_VIEWDIMPARMAP
  2
AcDmViewDimParMap
  3
AcMechDwgViewMgmt
 90
        0
280
     0
281
     0
  0
CLASS
  1
ACIMREALSYSVAR
  2
AcImRealSysVar
  3
AcMeServices
 90
        0
280
     0
281
     0
  0
CLASS
  1
AM_DWGMGR_NAME
  2
AcDmDwgMgrName
  3
AcMechDwgViewMgmt
 90
        0
280
     0
281
     0
  0
CLASS
  1
ACME_DATABASE
  2
AcMeDbDatabase
  3
AcMeServices
 90
        0
280
     0
281
     0
  0
CLASS
  1
ACRFINSADJUSTERMGR
  2
AcRfInsAdjusterMgr
  3
AcMeServices
 90
        0
280
     0
281
     0
  0
CLASS
  1
ACGREFACADMASTER
  2
AcGrefacadMaster
  3
AcGrefServices
 90
        0
280
     0
281
     0
  0
CLASS
  1
AMDTMENUSTATEMGR
  2
AmdtMenuStateMgr
  3
McadcomServices
 90
        0
280
     0
281
     0
  0
CLASS
  1
AMDTMCOMMENUSTATE
  2
AmdtMcomMenuState
  3
McadcomServices
 90
        0
280
     0
281
     0
  0
CLASS
  1
AMIMASTER
  2
AmiMaster
  3
AmiServices
 90
        0
280
     0
281
     0
  0
CLASS
  1
MAPIAMMOUDLE
  2
MApiAmModule
  3
MApiAmServices
 90
        0
280
     0
281
     0
  0
CLASS
  1
ACIMSTRSYSVAR
  2
AcImStrSysVar
  3
AcMeServices
 90
        0
280
     0
281
     0
  0
CLASS
  1
AMDTADMENUSTATE
  2
AmdtAdMenuState
  3
DesignerServices
 90
        0
280
     0
281
     0
  0
CLASS
  1
ADAPPL
  2
AcAdAppl
  3
DesignerServices
 90
        0
280
     0
281
     0
  0
CLASS
  1
DEPMGR
  2
AcAdDepMgr
  3
DesignerServices
 90
        0
280
     0
281
     0
  0
CLASS
  1
PARAMMGR
  2
AcAdParamMgr
  3
DesignerServices
 90
        0
280
     0
281
     0
  0
CLASS
  1
PARAMSCOPE
  2
AcAdParamScope
  3
DesignerServices
 90
        0
280
     0
281
     0
  0
CLASS
  1
NAMEDAPPL
  2
AcAdNamedAppl
  3
DesignerServices
 90
        0
280
     0
281
     0
  0
CLASS
  1
AMDTDMMENUSTATE
  2
AmdtDmMenuState
  3
AcMechDwgViewMgmt
 90
        0
280
     0
281
     0
  0
CLASS
  1
AMDTAMMENUSTATE
  2
AmdtAmMenuState
  3
DesignerAssemblies
 90
        0
280
     0
281
     0
  0
CLASS
  1
ACAMPROJECT
  2
AcAmProject
  3
DesignerAssemblies
 90
        0
280
     0
281
     0
  0
CLASS
  1
ACAMGRCOMPDEF
  2
AcAmGrCompDef
  3
DesignerAssemblies
 90
        0
280
     0
281
     0
  0
CLASS
  1
ACCMCONTEXT
  2
AcCmContext
  3
DesignerAssemblies
 90
        0
280
     0
281
     0
  0
CLASS
  1
ACAMCOMPDEF
  2
AcAmCompDef
  3
DesignerAssemblies
 90
        0
280
     0
281
     0
  0
CLASS
  1
ACAMCOMPDEFMGR
  2
AcAmCompDefMgr
  3
DesignerAssemblies
 90
        0
280
     0
281
     0
  0
CLASS
  1
AMCONTEXTMGR
  2
AcAmContextMgr
  3
DesignerAssemblies
 90
        0
280
     0
281
     0
  0
CLASS
  1
ACAMCONTEXTMODELER
  2
AcAmContextModeler
  3
DesignerAssemblies
 90
        0
280
     0
281
     0
  0
CLASS
  1
ACMDATADICTIONARY
  2
AcmDataDictionary
  3
"AcmSymBB|Product Description: AutoCAD Mechanical 2004 DX|Company: Autodesk"
 90
        0
280
     0
281
     0
  0
CLASS
  1
CATALOGSTATE
  2
AcAmCatalogState
  3
DesignerAssemblies
 90
        0
280
     0
281
     0
  0
CLASS
  1
ACAMGRCOMPDEFSET
  2
AcAmGrCompDefSet
  3
DesignerAssemblies
 90
        0
280
     0
281
     0
  0
CLASS
  1
AMDTBROWSERDBTAB
  2
AmdtBrowserDbTab
  3
McadcomServices
 90
        0
280
     0
281
     0
  0
CLASS
  1
CBROWSERAPPOBJECT
  2
CBrowserAppObject
  3
McadcomServices
 90
        0
280
     0
281
     0
  0
CLASS
  1
DM_PLACEHOLDER
  2
AcDmSelsetPlaceholder
  3
AcMechDwgViewMgmt
 90
        0
280
     0
281
     0
  0
CLASS
  1
ACMSTANDARDDIN
  2
AcmStandardDIN
  3
"Amdt_StdImp|Product Description: AutoCAD Mechanical 2004 DX|Company: Autodesk"
 90
        0
280
     0
281
     0
  0
CLASS
  1
AMGOBJPROPCFG
  2
AmgObjPropCfg
  3
"AmgLay|Product Description: AutoCAD Mechanical 2000|Company: Autodesk"
 90
        1
280
     0
281
     0
  0
CLASS
  1
AMDTEDGESTANDARDDIN13715
  2
AmdtEdgeStdDIN13715
  3
"Amdt_StdImp|Product Description: AutoCAD Mechanical 2004 DX|Company: Autodesk"
 90
        0
280
     0
281
     0
  0
CLASS
  1
ACMSURFSTANDARDDIN
  2
AcmSurfTextStdDIN
  3
"Amdt_StdImp|Product Description: AutoCAD Mechanical 2004 DX|Company: Autodesk"
 90
        0
280
     0
281
     0
  0
CLASS
  1
ACMFCFSTANDARDDIN
  2
AcmFCFStdDIN
  3
"Amdt_StdImp|Product Description: AutoCAD Mechanical 2004 DX|Company: Autodesk"
 90
        0
280
     0
281
     0
  0
CLASS
  1
ACMWELDSTANDARDDIN
  2
AcmWeldingStdDIN
  3
"Amdt_StdImp|Product Description: AutoCAD Mechanical 2004 DX|Company: Autodesk"
 90
        0
280
     0
281
     0
  0
CLASS
  1
ACMIDSTANDARDDIN
  2
AcmIdStdDIN
  3
"Amdt_StdImp|Product Description: AutoCAD Mechanical 2004 DX|Company: Autodesk"
 90
        0
280
     0
281
     0
  0
CLASS
  1
ACMDATUMSTANDARDDIN
  2
AcmDatumStdDIN
  3
"Amdt_StdImp|Product Description: AutoCAD Mechanical 2004 DX|Company: Autodesk"
 90
        0
280
     0
281
     0
  0
CLASS
  1
ACMBOMSTANDARDDIN
  2
AcmBOMStdDIN
  3
"Amdt_StdImp|Product Description: AutoCAD Mechanical 2004 DX|Company: Autodesk"
 90
        0
280
     0
281
     0
  0
CLASS
  1
ACMDETAILSTANDARDDIN
  2
AmdtDetailSymStdDIN
  3
"Amdt_StdImp|Product Description: AutoCAD Mechanical 2004 DX|Company: Autodesk"
 90
        0
280
     0
281
     0
  0
CLASS
  1
ACMSECTIONSTANDARDDIN
  2
AmdtSectionSymStdDIN
  3
"Amdt_StdImp|Product Description: AutoCAD Mechanical 2004 DX|Company: Autodesk"
 90
        0
280
     0
281
     0
  0
CLASS
  1
ACMCENTERLINESTANDARDDIN
  2
AmdtCenterLineStdDIN
  3
"Amdt_StdImp|Product Description: AutoCAD Mechanical 2004 DX|Company: Autodesk"
 90
        0
280
     0
281
     0
  0
CLASS
  1
ACMTHREADLINESTANDARDDIN
  2
AmdtThreadLineStdDIN
  3
"Amdt_StdImp|Product Description: AutoCAD Mechanical 2004 DX|Company: Autodesk"
 90
        0
280
     0
281
     0
  0
CLASS
  1
ACMNOTESTANDARDDIN
  2
AmdtNoteStdDIN
  3
"Amdt_StdImp|Product Description: AutoCAD Mechanical 2004 DX|Company: Autodesk"
 90
        0
280
     0
281
     0
  0
CLASS
  1
AMDTNOTETEMPLATEDB
  2
AmdtNoteTemplateDB
  3
AMDT_STDIMP_MODULE_NAME
 90
        0
280
     0
281
     0
  0
CLASS
  1
ACAMGLAYSTD
  2
AcAmgLayStd
  3
"AcAmgLayStd|Product Description: AutoCAD Mechanical 2000|Company: Autodesk"
 90
        0
280
     0
281
     0
  0
CLASS
  1
ACAMGDIMSTD
  2
AcAmgDimStd
  3
"AcAmgDimStd|Product Description: AutoCAD Mechanical 2000|Company: Autodesk"
 90
        0
280
     0
281
     0
  0
CLASS
  1
ACAMGHOLECHARTSTDDIN
  2
AcAmgHoleChartStdDIN
  3
ACMSYMBB_MODULE_NAME
 90
        0
280
     0
281
     0
  0
CLASS
  1
ACAMGTITLESTD
  2
AcAmgTitleStd
  3
"TITLEAPP"
 90
        0
280
     0
281
     0
  0
CLASS
  1
ACAMGFILTERDAT
  2
AcAmgFilterDat
  3
"AcadM|Product Description: AutoCAD Mechanical 2000|Company: Autodesk"
 90
        0
280
     0
281
     0
  0
CLASS
  1
DICTIONARYVAR
  2
AcDbDictionaryVar
  3
ObjectDBX Classes
 90
        0
280
     0
281
     0
  0
CLASS
  1
ACDBPLACEHOLDER
  2
AcDbPlaceHolder
  3
ObjectDBX Classes
 90
        0
280
     0
281
     0
  0
CLASS
  1
LAYOUT
  2
AcDbLayout
  3
ObjectDBX Classes
 90
        0
280
     0
281
     0
  0
ENDSEC
  0
SECTION
  2
TABLES
  0
TABLE
  2
VPORT
  5
12BE
330
0
100
AcDbSymbolTable
 70
     4
  0
VPORT
  5
155A
330
12BE
100
AcDbSymbolTableRecord
100
AcDbViewportTableRecord
  2
*Active
 70
     0
 10
0.0
 20
0.0
 11
1.0
 21
1.0
 12
387.7338432273057
 22
357.01217876283
 13
0.0
 23
0.0
 14
5.0
 24
5.0
 15
50.0
 25
50.0
 16
0.0
 26
0.0
 36
1.0
 17
0.0
 27
0.0
 37
0.0
 40
459.7052393719661
 41
1.494545454545454
 42
50.0
 43
0.0
 44
0.0
 50
0.0
 51
0.0
 71
     0
 72
  1000
 73
     1
 74
     1
 75
     0
 76
     0
 77
     0
 78
     0
281
     0
 65
     0
110
0.0
120
0.0
130
0.0
111
1.0
121
0.0
131
0.0
112
0.0
122
1.0
132
0.0
 79
     0
146
0.0
  0
ENDTAB
  0
TABLE
  2
LTYPE
  5
12BB
330
0
100
AcDbSymbolTable
 70
    20
  0
LTYPE
  5
12C8
330
12BB
100
AcDbSymbolTableRecord
100
AcDbLinetypeTableRecord
  2
BYBLOCK
 70
     0
  3

 72
    65
 73
     0
 40
0.0
  0
LTYPE
  5
12C9
330
12BB
100
AcDbSymbolTableRecord
100
AcDbLinetypeTableRecord
  2
BYLAYER
 70
     0
  3

 72
    65
 73
     0
 40
0.0
  0
LTYPE
  5
12CA
330
12BB
100
AcDbSymbolTableRecord
100
AcDbLinetypeTableRecord
  2
CONTINUOUS
 70
     0
  3
Solid line
 72
    65
 73
     0
 40
0.0
  0
LTYPE
  5
12D9
330
12BB
100
AcDbSymbolTableRecord
100
AcDbLinetypeTableRecord
  2
GEN7
 70
     0
  3
____ _ ____ _ ____ _ ____ _ ____ _ ____ _ ____ _ ____ _ ____ _
 72
    65
 73
     4
 40
22.0
 49
10.75
 74
     0
 49
-3.75
 74
     0
 49
3.75
 74
     0
 49
-3.75
 74
     0
  0
LTYPE
  5
148C
330
12BB
100
AcDbSymbolTableRecord
100
AcDbLinetypeTableRecord
  2
HIDDEN
 70
     0
  3
Verdeckt
 72
    65
 73
     2
 40
9.525
 49
6.349999999999999
 74
     0
 49
-3.174999999999999
 74
     0
  0
LTYPE
  5
148D
330
12BB
100
AcDbSymbolTableRecord
100
AcDbLinetypeTableRecord
  2
PHANTOM2
 70
     0
  3
Phantom (.5x) ___ _ _ ___ _ _ ___ _ _ ___ _ _
 72
    65
 73
     6
 40
31.75
 49
15.875
 74
     0
 49
-3.174999999999999
 74
     0
 49
3.174999999999999
 74
     0
 49
-3.174999999999999
 74
     0
 49
3.174999999999999
 74
     0
 49
-3.174999999999999
 74
     0
  0
LTYPE
  5
148E
330
12BB
100
AcDbSymbolTableRecord
100
AcDbLinetypeTableRecord
  2
CENTER
 70
     0
  3
Mitte ____ _ ____ _ ____ _ ____ _ ____ _ ____
 72
    65
 73
     4
 40
50.8
 49
31.75
 74
     0
 49
-6.349999999999999
 74
     0
 49
6.349999999999999
 74
     0
 49
-6.349999999999999
 74
     0
  0
LTYPE
  5
14C5
330
12BB
100
AcDbSymbolTableRecord
100
AcDbLinetypeTableRecord
  2
Amconstr
 70
     0
  3
_______________________
 72
    65
 73
     2
 40
9999.0
 49
9999.0
 74
     0
 49
0.0
 74
     0
  0
LTYPE
  5
14CA
330
12BB
100
AcDbSymbolTableRecord
100
AcDbLinetypeTableRecord
  2
Amzigzag
 70
     0
  3
/\/-/\/-/\/-/\/-/\/-/\/
 72
    65
 73
     2
 40
11.0001
 49
0.0001
 74
     4
 75
   136
340
14C9
 46
0.04
 50
0.0
 44
0.0
 45
0.0
 49
-11.0
 74
     0
  0
LTYPE
  5
14CB
330
12BB
100
AcDbSymbolTableRecord
100
AcDbLinetypeTableRecord
  2
AM_DIN_F_W050
 70
     0
  3
__ __ __ __ __ __ __ __ __ __ __ __ __ __ __
 72
    65
 73
     2
 40
6.25
 49
4.75
 74
     0
 49
-1.5
 74
     0
  0
LTYPE
  5
14CC
330
12BB
100
AcDbSymbolTableRecord
100
AcDbLinetypeTableRecord
  2
AM_DIN_G_W050
 70
     0
  3
____ . ____ . ____ . ____ . ____ . ____ . ____
 72
    65
 73
     4
 40
13.75
 49
9.75
 74
     0
 49
-1.5
 74
     0
 49
1.0
 74
     0
 49
-1.5
 74
     0
  0
LTYPE
  5
14CD
330
12BB
100
AcDbSymbolTableRecord
100
AcDbLinetypeTableRecord
  2
AM_DIN_K_W050
 70
     0
  3
_____ . . _____ . . _____ . . ____ .. ____
 72
    65
 73
     6
 40
16.25
 49
9.75
 74
     0
 49
-1.5
 74
     0
 49
1.0
 74
     0
 49
-1.5
 74
     0
 49
1.0
 74
     0
 49
-1.5
 74
     0
  0
LTYPE
  5
14CE
330
12BB
100
AcDbSymbolTableRecord
100
AcDbLinetypeTableRecord
  2
AM_DIN_G_W050x2
 70
     0
  3
__ . __ . __ . __ . __ . __
 72
    65
 73
     4
 40
6.875
 49
4.75
 74
     0
 49
-0.875
 74
     0
 49
0.375
 74
     0
 49
-0.875
 74
     0
  0
LTYPE
  5
14CF
330
12BB
100
AcDbSymbolTableRecord
100
AcDbLinetypeTableRecord
  2
AM_DIN_F_W050x2
 70
     0
  3
 _ _ _ _ _ _ _ _ _ _ _ _
 72
    65
 73
     2
 40
3.125
 49
2.25
 74
     0
 49
-0.875
 74
     0
  0
LTYPE
  5
14DE
330
12BB
100
AcDbSymbolTableRecord
100
AcDbLinetypeTableRecord
  2
ACDINWELD
 70
     0
  3
_ _ _ _ _
 72
    65
 73
     2
 40
2.0
 49
2.0
 74
     0
 49
-1.0
 74
     0
  0
LTYPE
  5
14DF
330
12BB
100
AcDbSymbolTableRecord
100
AcDbLinetypeTableRecord
  2
ACDINTGB
 70
     0
  3
__ . . __ . .
 72
    65
 73
     6
 40
9.0
 49
4.0
 74
     0
 49
-1.0
 74
     0
 49
1.0
 74
     0
 49
-1.0
 74
     0
 49
1.0
 74
     0
 49
-1.0
 74
     0
  0
LTYPE
  5
14E0
330
12BB
100
AcDbSymbolTableRecord
100
AcDbLinetypeTableRecord
  2
ACDINTGL
 70
     0
  3
_ _ _ _ _
 72
    65
 73
     2
 40
3.0
 49
2.0
 74
     0
 49
-1.0
 74
     0
  0
ENDTAB
  0
TABLE
  2
LAYER
  5
12B8
330
0
100
AcDbSymbolTable
 70
    13
  0
LAYER
  5
12C4
330
12B8
100
AcDbSymbolTableRecord
100
AcDbLayerTableRecord
  2
0
 70
     0
 62
     7
  6
CONTINUOUS
370
    -3
390
1450
  0
LAYER
  5
12DF
330
12B8
100
AcDbSymbolTableRecord
100
AcDbLayerTableRecord
  2
4
 70
     0
 62
     3
  6
CONTINUOUS
370
    -3
390
1450
  0
LAYER
  5
12E1
330
12B8
100
AcDbSymbolTableRecord
100
AcDbLayerTableRecord
  2
5
 70
     0
 62
     3
  6
CONTINUOUS
370
    -3
390
1450
  0
LAYER
  5
12E3
330
12B8
100
AcDbSymbolTableRecord
100
AcDbLayerTableRecord
  2
7
 70
     0
 62
     4
  6
GEN7
370
    -3
390
1450
  0
LAYER
  5
12E4
330
12B8
100
AcDbSymbolTableRecord
100
AcDbLayerTableRecord
  2
8
 70
     0
 62
     1
  6
CONTINUOUS
370
    -3
390
1450
  0
LAYER
  5
12E5
330
12B8
100
AcDbSymbolTableRecord
100
AcDbLayerTableRecord
  2
SCHRAFFUR_RAND
 70
     1
 62
    36
  6
CONTINUOUS
370
    -3
390
1450
  0
LAYER
  5
12F9
330
12B8
100
AcDbSymbolTableRecord
100
AcDbLayerTableRecord
  2
MAßLINIEN
 70
     0
 62
    30
  6
GEN7
370
    -3
390
1450
  0
LAYER
  5
1313
330
12B8
100
AcDbSymbolTableRecord
100
AcDbLayerTableRecord
  2
DEFPOINTS
 70
     0
 62
     7
  6
CONTINUOUS
290
     0
370
    -3
390
1450
  0
ENDTAB
  0
TABLE
  2
STYLE
  5
12B9
330
0
100
AcDbSymbolTable
 70
     4
  0
STYLE
  5
12C5
330
12B9
100
AcDbSymbolTableRecord
100
AcDbTextStyleTableRecord
  2
STANDARD
 70
     0
 40
0.0
 41
1.0
 50
0.0
 71
     0
 42
10.0
  3
ISOCP.SHX
  4

  0
STYLE
  5
14C9
330
12B9
100
AcDbSymbolTableRecord
100
AcDbTextStyleTableRecord
  2

 70
     1
 40
0.0
 41
1.0
 50
0.0
 71
     0
 42
0.2
  3
genltshp.shx
  4

  0
STYLE
  5
14D0
330
12B9
100
AcDbSymbolTableRecord
100
AcDbTextStyleTableRecord
  2
ACDINTS
 70
     0
 40
1.0
 41
1.0
 50
0.0
 71
     0
 42
0.2
  3
isocp.shx
  4

  0
STYLE
  5
14DD
330
12B9
100
AcDbSymbolTableRecord
100
AcDbTextStyleTableRecord
  2
ACDINGDT
 70
     0
 40
0.0
 41
1.0
 50
0.0
 71
     0
 42
0.2
  3
AMGDT
  4

  0
ENDTAB
  0
TABLE
  2
VIEW
  5
12BC
330
0
100
AcDbSymbolTable
 70
     6
  0
VIEW
  5
1356
330
12BC
100
AcDbSymbolTableRecord
100
AcDbViewTableRecord
  2
GEN1
 70
     0
 40
525.0
 10
403.491903
 20
787.5
 41
806.983806
 11
0.0
 21
0.0
 31
1.0
 12
0.0
 22
0.0
 32
0.0
 42
50.0
 43
0.0
 44
0.0
 50
0.0
 71
     0
281
     0
 72
     0
  0
VIEW
  5
1357
330
12BC
100
AcDbSymbolTableRecord
100
AcDbViewTableRecord
  2
GEN2
 70
     0
 40
525.0
 10
646.508097
 20
787.5
 41
806.983806
 11
0.0
 21
0.0
 31
1.0
 12
0.0
 22
0.0
 32
0.0
 42
50.0
 43
0.0
 44
0.0
 50
0.0
 71
     0
281
     0
 72
     0
  0
VIEW
  5
1358
330
12BC
100
AcDbSymbolTableRecord
100
AcDbViewTableRecord
  2
GEN3
 70
     0
 40
525.0
 10
403.491903
 20
262.5
 41
806.983806
 11
0.0
 21
0.0
 31
1.0
 12
0.0
 22
0.0
 32
0.0
 42
50.0
 43
0.0
 44
0.0
 50
0.0
 71
     0
281
     0
 72
     0
  0
VIEW
  5
1359
330
12BC
100
AcDbSymbolTableRecord
100
AcDbViewTableRecord
  2
GEN4
 70
     0
 40
525.0
 10
646.508097
 20
262.5
 41
806.983806
 11
0.0
 21
0.0
 31
1.0
 12
0.0
 22
0.0
 32
0.0
 42
50.0
 43
0.0
 44
0.0
 50
0.0
 71
     0
281
     0
 72
     0
  0
VIEW
  5
135A
330
12BC
100
AcDbSymbolTableRecord
100
AcDbViewTableRecord
  2
GEN5
 70
     0
 40
525.0
 10
525.0
 20
525.0
 41
806.983806
 11
0.0
 21
0.0
 31
1.0
 12
0.0
 22
0.0
 32
0.0
 42
50.0
 43
0.0
 44
0.0
 50
0.0
 71
     0
281
     0
 72
     0
  0
VIEW
  5
135B
330
12BC
100
AcDbSymbolTableRecord
100
AcDbViewTableRecord
  2
GEN6
 70
     0
 40
1049.9895
 10
525.0
 20
525.0
 41
1613.951472
 11
0.0
 21
0.0
 31
1.0
 12
0.0
 22
0.0
 32
0.0
 42
50.0
 43
0.0
 44
0.0
 50
0.0
 71
     0
281
     0
 72
     0
  0
ENDTAB
  0
TABLE
  2
UCS
  5
12BD
330
0
100
AcDbSymbolTable
 70
     0
  0
ENDTAB
  0
TABLE
  2
APPID
  5
12BF
330
0
100
AcDbSymbolTable
 70
    36
  0
APPID
  5
12C6
330
12BF
100
AcDbSymbolTableRecord
100
AcDbRegAppTableRecord
  2
ACAD
 70
     0
  0
APPID
  5
1324
330
12BF
100
AcDbSymbolTableRecord
100
AcDbRegAppTableRecord
  2
GENIUS_GENCFG_13
 70
     0
1001
GENIUS_DUMCFG0_13
1000
DUM
1001
GENIUS_GENCFG0_13
1000
GEN@INFO_POS@XLATE
1001
GENIUS_GENCFG1_13
1000
GEN@INFO_POS
1001
GENIUS_GENCFG2_13
1000
GEN@LAYER@DEFS
1001
GENIUS_GENCFG3_13
1000
GEN@LAYER@ENTSORT
1001
GENIUS_GENCFG4_13
1000
GEN
1001
GENIUS_GEVCFG0_13
1000
GEV
  0
APPID
  5
1325
330
12BF
100
AcDbSymbolTableRecord
100
AcDbRegAppTableRecord
  2
GENIUS_DUMCFG0_13
 70
     0
1001
GENIUS_GENCFG_13
1071
925194334
1000
1325
1000
DUM
1070
     0
  0
APPID
  5
1326
330
12BF
100
AcDbSymbolTableRecord
100
AcDbRegAppTableRecord
  2
GENIUS_GENCFG0_13
 70
     0
1001
GENIUS_GENCFG_13
1071
1022848971
1000
1326
1000
GEN@INFO_POS@XLATE
1070
     7
1000
GenCfgObject
1000
GenCfgShort
1000
GenCfgReal
1000
GenCfgBool
1000
GenCfgString
1000
GenCfgDim
1000
GenCfgAttrInf
1000
INFOPOINTS
1070
     0
1002
{
1000
GENINF14
1070
     0
1002
{
1000
2GENINF
1070
     4
1000
2
1002
{
1002
}
1000
5GENINF
1070
     4
1000
5
1002
{
1002
}
1000
7GENINF
1070
     4
1000
7
1002
{
1002
}
1000
9GENINF
1070
     4
1000
9
1002
{
1002
}
1000
11GENINF
1070
     4
1000
11
1002
{
1002
}
1000
14GENINF
1070
     4
1000
14
1002
{
1002
}
1002
}
1000
GENINF13
1070
     0
1002
{
1000
2GENINF
1070
     4
1000
2
1002
{
1002
}
1000
3GENINF
1070
     4
1000
3
1002
{
1002
}
1000
4GENINF
1070
     4
1000
4
1002
{
1002
}
1000
5GENINF
1070
     4
1000
5
1002
{
1002
}
1000
6GENINF
1070
     4
1000
6
1002
{
1002
}
1000
7GENINF
1070
     4
1000
7
1002
{
1002
}
1000
8GENINF
1070
     4
1000
8
1002
{
1002
}
1000
9GENINF
1070
     4
1000
9
1002
{
1002
}
1000
10GENINF
1070
     4
1000
10
1002
{
1002
}
1000
11GENINF
1070
     4
1000
11
1002
{
1002
}
1000
12GENINF
1070
     4
1000
12
1002
{
1002
}
1000
13GENINF
1070
     4
1000
13
1002
{
1002
}
1000
14GENINF
1070
     4
1000
14
1002
{
1002
}
1000
15GENINF
1070
     4
1000
15
1002
{
1002
}
1000
16GENINF
1070
     4
1000
16
1002
{
1002
}
1000
17GENINF
1070
     4
1000
17
1002
{
1002
}
1000
18GENINF
1070
     4
1000
18
1002
{
1002
}
1000
19GENINF
1070
     4
1000
19
1002
{
1002
}
1000
20GENINF
1070
     4
1000
20
1002
{
1002
}
1000
21GENINF
1070
     4
1000
21
1002
{
1002
}
1000
22GENINF
1070
     4
1000
22
1002
{
1002
}
1000
23GENINF
1070
     4
1000
23
1002
{
1002
}
1000
24GENINF
1070
     4
1000
24
1002
{
1002
}
1000
0GENINF
1070
     4
1000
0
1002
{
1002
}
1002
}
1000
GENINFO
1070
     0
1002
{
1000
3GENINF
1070
     4
1000
3
1002
{
1002
}
1000
4GENINF
1070
     4
1000
4
1002
{
1002
}
1000
5GENINF
1070
     4
1000
5
1002
{
1002
}
1000
6GENINF
1070
     4
1000
6
1002
{
1002
}
1000
7GENINF
1070
     4
1000
7
1002
{
1002
}
1000
8GENINF
1070
     4
1000
8
1002
{
1002
}
1000
9GENINF
1070
     4
1000
9
1002
{
1002
}
1000
10GENINF
1070
     4
1000
10
1002
{
1002
}
1000
11GENINF
1070
     4
1000
11
1002
{
1002
}
1000
12GENINF
1070
     4
1000
12
1002
{
1002
}
1000
13GENINF
1070
     4
1000
13
1002
{
1002
}
1000
14GENINF
1070
     4
1000
14
1002
{
1002
}
1000
15GENINF
1070
     4
1000
15
1002
{
1002
}
1000
16GENINF
1070
     4
1000
16
1002
{
1002
}
1000
17GENINF
1070
     4
1000
17
1002
{
1002
}
1000
18GENINF
1070
     4
1000
18
1002
{
1002
}
1000
19GENINF
1070
     4
1000
19
1002
{
1002
}
1000
20GENINF
1070
     4
1000
20
1002
{
1002
}
1000
21GENINF
1070
     4
1000
21
1002
{
1002
}
1000
22GENINF
1070
     4
1000
22
1002
{
1002
}
1002
}
1000
DININFO
1070
     0
1002
{
1000
ST-NAME1
1070
     4
1000
5
1002
{
1002
}
1000
ST-NAME2
1070
     4
1000
6
1002
{
1002
}
1000
ST-NORM1
1070
     4
1000
7
1002
{
1002
}
1000
ST-NORM2
1070
     4
1000
8
1002
{
1002
}
1000
ST-MAT1
1070
     4
1000
9
1002
{
1002
}
1000
ST-MAT2
1070
     4
1000
10
1002
{
1002
}
1002
}
1002
}
1000
POS_NUMBERS
1070
     0
1002
{
1000
GENPOS14
1070
     0
1002
{
1000
1GENPOS
1070
     4
1000
1
1002
{
1002
}
1000
2GENPOS
1070
     4
1000
2
1002
{
1002
}
1000
5GENPOS
1070
     4
1000
5
1002
{
1002
}
1000
7GENPOS
1070
     4
1000
7
1002
{
1002
}
1000
9GENPOS
1070
     4
1000
9
1002
{
1002
}
1000
11GENPOS
1070
     4
1000
11
1002
{
1002
}
1000
14GENPOS
1070
     4
1000
14
1002
{
1002
}
1002
}
1000
GENPOS13
1070
     0
1002
{
1000
1GENPOS
1070
     4
1000
1
1002
{
1002
}
1000
2GENPOS
1070
     4
1000
2
1002
{
1002
}
1000
3GENPOS
1070
     4
1000
3
1002
{
1002
}
1000
4GENPOS
1070
     4
1000
4
1002
{
1002
}
1000
5GENPOS
1070
     4
1000
5
1002
{
1002
}
1000
6GENPOS
1070
     4
1000
6
1002
{
1002
}
1000
7GENPOS
1070
     4
1000
7
1002
{
1002
}
1000
8GENPOS
1070
     4
1000
8
1002
{
1002
}
1000
9GENPOS
1070
     4
1000
9
1002
{
1002
}
1000
10GENPOS
1070
     4
1000
10
1002
{
1002
}
1000
11GENPOS
1070
     4
1000
11
1002
{
1002
}
1000
12GENPOS
1070
     4
1000
12
1002
{
1002
}
1000
13GENPOS
1070
     4
1000
13
1002
{
1002
}
1000
14GENPOS
1070
     4
1000
14
1002
{
1002
}
1000
15GENPOS
1070
     4
1000
15
1002
{
1002
}
1000
16GENPOS
1070
     4
1000
16
1002
{
1002
}
1000
17GENPOS
1070
     4
1000
17
1002
{
1002
}
1000
18GENPOS
1070
     4
1000
18
1002
{
1002
}
1000
19GENPOS
1070
     4
1000
19
1002
{
1002
}
1000
20GENPOS
1070
     4
1000
20
1002
{
1002
}
1000
21GENPOS
1070
     4
1000
21
1002
{
1002
}
1000
22GENPOS
1070
     4
1000
22
1002
{
1002
}
1000
23GENPOS
1070
     4
1000
23
1002
{
1002
}
1000
24GENPOS
1070
     4
1000
24
1002
{
1002
}
1000
0GENPOS
1070
     4
1000
0
1002
{
1002
}
1002
}
1000
GENPOS
1070
     0
1002
{
1000
1GENPOS
1070
     4
1000
1
1002
{
1002
}
1000
2GENPOS
1070
     4
1000
2
1002
{
1002
}
1000
3GENPOS
1070
     4
1000
3
1002
{
1002
}
1000
4GENPOS
1070
     4
1000
4
1002
{
1002
}
1000
5GENPOS
1070
     4
1000
5
1002
{
1002
}
1000
6GENPOS
1070
     4
1000
6
1002
{
1002
}
1000
7GENPOS
1070
     4
1000
7
1002
{
1002
}
1000
8GENPOS
1070
     4
1000
8
1002
{
1002
}
1000
9GENPOS
1070
     4
1000
9
1002
{
1002
}
1000
10GENPOS
1070
     4
1000
10
1002
{
1002
}
1000
11GENPOS
1070
     4
1000
11
1002
{
1002
}
1000
12GENPOS
1070
     4
1000
12
1002
{
1002
}
1000
13GENPOS
1070
     4
1000
13
1002
{
1002
}
1000
14GENPOS
1070
     4
1000
14
1002
{
1002
}
1000
15GENPOS
1070
     4
1000
15
1002
{
1002
}
1000
16GENPOS
1070
     4
1000
16
1002
{
1002
}
1000
17GENPOS
1070
     4
1000
17
1002
{
1002
}
1000
18GENPOS
1070
     4
1000
18
1002
{
1002
}
1000
19GENPOS
1070
     4
1000
19
1002
{
1002
}
1000
20GENPOS
1070
     4
1000
20
1002
{
1002
}
1000
21GENPOS
1070
     4
1000
21
1002
{
1002
}
1000
22GENPOS
1070
     4
1000
22
1002
{
1002
}
1000
23GENPOS
1070
     4
1000
23
1002
{
1002
}
1002
}
1000
DIN985
1070
     0
1002
{
1000
POSITION
1070
     4
1000
1
1002
{
1002
}
1000
MENGE
1070
     4
1000
2
1002
{
1002
}
1000
BLATT
1070
     4
1000
3
1002
{
1002
}
1000
BENENN
1070
     4
1000
5
1002
{
1002
}
1000
BENENN2
1070
     4
1000
6
1002
{
1002
}
1000
NORM
1070
     4
1000
7
1002
{
1002
}
1000
NORM2
1070
     4
1000
8
1002
{
1002
}
1000
WERKSTOFF
1070
     4
1000
9
1002
{
1002
}
1000
WERKSTOFF2
1070
     4
1000
10
1002
{
1002
}
1002
}
1000
DIN986
1070
     0
1002
{
1000
POSITION
1070
     4
1000
1
1002
{
1002
}
1000
MENGE
1070
     4
1000
2
1002
{
1002
}
1000
BLATT
1070
     4
1000
3
1002
{
1002
}
1000
BENENN
1070
     4
1000
5
1002
{
1002
}
1000
BENENN2
1070
     4
1000
6
1002
{
1002
}
1000
NORM
1070
     4
1000
7
1002
{
1002
}
1000
NORM2
1070
     4
1000
8
1002
{
1002
}
1000
WERKSTOFF
1070
     4
1000
9
1002
{
1002
}
1000
WERKSTOFF2
1070
     4
1000
10
1002
{
1002
}
1002
}
1000
DIN987
1070
     0
1002
{
1000
POSITION
1070
     4
1000
1
1002
{
1002
}
1000
MENGE
1070
     4
1000
2
1002
{
1002
}
1000
BLATT
1070
     4
1000
3
1002
{
1002
}
1000
BENENN
1070
     4
1000
5
1002
{
1002
}
1000
BENENN2
1070
     4
1000
6
1002
{
1002
}
1000
NORM
1070
     4
1000
7
1002
{
1002
}
1000
NORM2
1070
     4
1000
8
1002
{
1002
}
1000
WERKSTOFF
1070
     4
1000
9
1002
{
1002
}
1000
WERKSTOFF2
1070
     4
1000
10
1002
{
1002
}
1002
}
1002
}
  0
APPID
  5
1327
330
12BF
100
AcDbSymbolTableRecord
100
AcDbRegAppTableRecord
  2
GENIUS_GENCFG1_13
 70
     0
1001
GENIUS_GENCFG_13
1071
1022848972
1000
1327
1000
GEN@INFO_POS
1070
     7
1000
GenCfgObject
1000
GenCfgShort
1000
GenCfgReal
1000
GenCfgBool
1000
GenCfgString
1000
GenCfgDim
1000
GenCfgAttrInf
1000
DescrText
1070
     4
1000
5, ,6, ,7, ,8
1002
{
1002
}
1000
DescrText2
1070
     4
1000
26
1002
{
1002
}
1000
VisibleAttr1
1070
     4
1000
1
1002
{
1002
}
1000
VisibleAttr2
1070
     4
1000
26
1002
{
1002
}
1000
UpdateBlock
1070
     3
1070
     1
1002
{
1002
}
1000
Attrib
1070
     0
1002
{
1000
0
1070
     6
1002
{
1000
Prompt
1070
     4
1000
(genmsg gendwg 103)
1002
{
1002
}
1000
Value
1070
     4
1000

1002
{
1002
}
1000
EditFlag
1070
     1
1070
     0
1002
{
1002
}
1000
PosInDDATTE
1070
     1
1070
    27
1002
{
1002
}
1000
FieldLen
1070
     1
1070
    -1
1002
{
1002
}
1002
}
1000
1
1070
     6
1002
{
1000
Prompt
1070
     4
1000
(genmsg gendwg 31)
1002
{
1002
}
1000
Value
1070
     4
1000
1
1002
{
1002
}
1000
EditFlag
1070
     1
1070
     1
1002
{
1002
}
1000
PosInDDATTE
1070
     1
1070
     1
1002
{
1002
}
1000
FieldLen
1070
     1
1070
    -1
1002
{
1002
}
1002
}
1000
2
1070
     6
1002
{
1000
Prompt
1070
     4
1000
(genmsg gendwg 32)
1002
{
1002
}
1000
Value
1070
     4
1000
1
1002
{
1002
}
1000
EditFlag
1070
     1
1070
     1
1002
{
1002
}
1000
PosInDDATTE
1070
     1
1070
     2
1002
{
1002
}
1000
FieldLen
1070
     1
1070
    -1
1002
{
1002
}
1002
}
1000
3
1070
     6
1002
{
1000
Prompt
1070
     4
1000
(genmsg gendwg 33)
1002
{
1002
}
1000
Value
1070
     4
1000

1002
{
1002
}
1000
EditFlag
1070
     1
1070
     1
1002
{
1002
}
1000
PosInDDATTE
1070
     1
1070
     3
1002
{
1002
}
1000
FieldLen
1070
     1
1070
    -1
1002
{
1002
}
1002
}
1000
4
1070
     6
1002
{
1000
Prompt
1070
     4
1000
(genmsg gendwg 34)
1002
{
1002
}
1000
Value
1070
     4
1000

1002
{
1002
}
1000
EditFlag
1070
     1
1070
     1
1002
{
1002
}
1000
PosInDDATTE
1070
     1
1070
     4
1002
{
1002
}
1000
FieldLen
1070
     1
1070
    -1
1002
{
1002
}
1002
}
1000
5
1070
     6
1002
{
1000
Prompt
1070
     4
1000
(genmsg gendwg 35)
1002
{
1002
}
1000
Value
1070
     4
1000

1002
{
1002
}
1000
EditFlag
1070
     1
1070
     1
1002
{
1002
}
1000
PosInDDATTE
1070
     1
1070
     5
1002
{
1002
}
1000
FieldLen
1070
     1
1070
    -1
1002
{
1002
}
1002
}
1000
6
1070
     6
1002
{
1000
Prompt
1070
     4
1000
(genmsg gendwg 36)
1002
{
1002
}
1000
Value
1070
     4
1000

1002
{
1002
}
1000
EditFlag
1070
     1
1070
     1
1002
{
1002
}
1000
PosInDDATTE
1070
     1
1070
     6
1002
{
1002
}
1000
FieldLen
1070
     1
1070
    -1
1002
{
1002
}
1002
}
1000
7
1070
     6
1002
{
1000
Prompt
1070
     4
1000
(genmsg gendwg 37)
1002
{
1002
}
1000
Value
1070
     4
1000

1002
{
1002
}
1000
EditFlag
1070
     1
1070
     1
1002
{
1002
}
1000
PosInDDATTE
1070
     1
1070
     7
1002
{
1002
}
1000
FieldLen
1070
     1
1070
    -1
1002
{
1002
}
1002
}
1000
8
1070
     6
1002
{
1000
Prompt
1070
     4
1000
(genmsg gendwg 38)
1002
{
1002
}
1000
Value
1070
     4
1000

1002
{
1002
}
1000
EditFlag
1070
     1
1070
     1
1002
{
1002
}
1000
PosInDDATTE
1070
     1
1070
     8
1002
{
1002
}
1000
FieldLen
1070
     1
1070
    -1
1002
{
1002
}
1002
}
1000
9
1070
     6
1002
{
1000
Prompt
1070
     4
1000
(genmsg gendwg 39)
1002
{
1002
}
1000
Value
1070
     4
1000

1002
{
1002
}
1000
EditFlag
1070
     1
1070
     1
1002
{
1002
}
1000
PosInDDATTE
1070
     1
1070
     9
1002
{
1002
}
1000
FieldLen
1070
     1
1070
    -1
1002
{
1002
}
1002
}
1000
10
1070
     6
1002
{
1000
Prompt
1070
     4
1000
(genmsg gendwg 40)
1002
{
1002
}
1000
Value
1070
     4
1000

1002
{
1002
}
1000
EditFlag
1070
     1
1070
     1
1002
{
1002
}
1000
PosInDDATTE
1070
     1
1070
    10
1002
{
1002
}
1000
FieldLen
1070
     1
1070
    -1
1002
{
1002
}
1002
}
1000
11
1070
     6
1002
{
1000
Prompt
1070
     4
1000
(genmsg gendwg 41)
1002
{
1002
}
1000
Value
1070
     4
1000

1002
{
1002
}
1000
EditFlag
1070
     1
1070
     1
1002
{
1002
}
1000
PosInDDATTE
1070
     1
1070
    11
1002
{
1002
}
1000
FieldLen
1070
     1
1070
    -1
1002
{
1002
}
1002
}
1000
12
1070
     6
1002
{
1000
Prompt
1070
     4
1000
(genmsg gendwg 42)
1002
{
1002
}
1000
Value
1070
     4
1000

1002
{
1002
}
1000
EditFlag
1070
     1
1070
     1
1002
{
1002
}
1000
PosInDDATTE
1070
     1
1070
    12
1002
{
1002
}
1000
FieldLen
1070
     1
1070
    -1
1002
{
1002
}
1002
}
1000
13
1070
     6
1002
{
1000
Prompt
1070
     4
1000
(genmsg gendwg 43)
1002
{
1002
}
1000
Value
1070
     4
1000

1002
{
1002
}
1000
EditFlag
1070
     1
1070
     1
1002
{
1002
}
1000
PosInDDATTE
1070
     1
1070
    13
1002
{
1002
}
1000
FieldLen
1070
     1
1070
    -1
1002
{
1002
}
1002
}
1000
14
1070
     6
1002
{
1000
Prompt
1070
     4
1000
(genmsg gendwg 44)
1002
{
1002
}
1000
Value
1070
     4
1000

1002
{
1002
}
1000
EditFlag
1070
     1
1070
     1
1002
{
1002
}
1000
PosInDDATTE
1070
     1
1070
    14
1002
{
1002
}
1000
FieldLen
1070
     1
1070
    -1
1002
{
1002
}
1002
}
1000
15
1070
     6
1002
{
1000
Prompt
1070
     4
1000
(genmsg gendwg 45)
1002
{
1002
}
1000
Value
1070
     4
1000

1002
{
1002
}
1000
EditFlag
1070
     1
1070
     1
1002
{
1002
}
1000
PosInDDATTE
1070
     1
1070
    15
1002
{
1002
}
1000
FieldLen
1070
     1
1070
    -1
1002
{
1002
}
1002
}
1000
16
1070
     6
1002
{
1000
Prompt
1070
     4
1000
(genmsg gendwg 46)
1002
{
1002
}
1000
Value
1070
     4
1000

1002
{
1002
}
1000
EditFlag
1070
     1
1070
     1
1002
{
1002
}
1000
PosInDDATTE
1070
     1
1070
    16
1002
{
1002
}
1000
FieldLen
1070
     1
1070
    -1
1002
{
1002
}
1002
}
1000
17
1070
     6
1002
{
1000
Prompt
1070
     4
1000
(genmsg gendwg 47)
1002
{
1002
}
1000
Value
1070
     4
1000

1002
{
1002
}
1000
EditFlag
1070
     1
1070
     1
1002
{
1002
}
1000
PosInDDATTE
1070
     1
1070
    17
1002
{
1002
}
1000
FieldLen
1070
     1
1070
    -1
1002
{
1002
}
1002
}
1000
18
1070
     6
1002
{
1000
Prompt
1070
     4
1000
(genmsg gendwg 48)
1002
{
1002
}
1000
Value
1070
     4
1000

1002
{
1002
}
1000
EditFlag
1070
     1
1070
     1
1002
{
1002
}
1000
PosInDDATTE
1070
     1
1070
    18
1002
{
1002
}
1000
FieldLen
1070
     1
1070
    -1
1002
{
1002
}
1002
}
1000
19
1070
     6
1002
{
1000
Prompt
1070
     4
1000
(genmsg gendwg 99)
1002
{
1002
}
1000
Value
1070
     4
1000

1002
{
1002
}
1000
EditFlag
1070
     1
1070
     1
1002
{
1002
}
1000
PosInDDATTE
1070
     1
1070
    19
1002
{
1002
}
1000
FieldLen
1070
     1
1070
    -1
1002
{
1002
}
1002
}
1000
20
1070
     6
1002
{
1000
Prompt
1070
     4
1000
(genmsg gendwg 100)
1002
{
1002
}
1000
Value
1070
     4
1000

1002
{
1002
}
1000
EditFlag
1070
     1
1070
     1
1002
{
1002
}
1000
PosInDDATTE
1070
     1
1070
    20
1002
{
1002
}
1000
FieldLen
1070
     1
1070
    -1
1002
{
1002
}
1002
}
1000
21
1070
     6
1002
{
1000
Prompt
1070
     4
1000
(genmsg gendwg 101)
1002
{
1002
}
1000
Value
1070
     4
1000

1002
{
1002
}
1000
EditFlag
1070
     1
1070
     1
1002
{
1002
}
1000
PosInDDATTE
1070
     1
1070
    21
1002
{
1002
}
1000
FieldLen
1070
     1
1070
    -1
1002
{
1002
}
1002
}
1000
22
1070
     6
1002
{
1000
Prompt
1070
     4
1000
(genmsg gendwg 102)
1002
{
1002
}
1000
Value
1070
     4
1000

1002
{
1002
}
1000
EditFlag
1070
     1
1070
     1
1002
{
1002
}
1000
PosInDDATTE
1070
     1
1070
    22
1002
{
1002
}
1000
FieldLen
1070
     1
1070
    -1
1002
{
1002
}
1002
}
1000
23
1070
     6
1002
{
1000
Prompt
1070
     4
1000
(genmsg gendwg 30)
1002
{
1002
}
1000
Value
1070
     4
1000

1002
{
1002
}
1000
EditFlag
1070
     1
1070
     1
1002
{
1002
}
1000
PosInDDATTE
1070
     1
1070
    23
1002
{
1002
}
1000
FieldLen
1070
     1
1070
    -1
1002
{
1002
}
1002
}
1000
24
1070
     6
1002
{
1000
Prompt
1070
     4
1000
(genmsg gendwg 104)
1002
{
1002
}
1000
Value
1070
     4
1000

1002
{
1002
}
1000
EditFlag
1070
     1
1070
     1
1002
{
1002
}
1000
PosInDDATTE
1070
     1
1070
    24
1002
{
1002
}
1000
FieldLen
1070
     1
1070
    -1
1002
{
1002
}
1002
}
1000
25
1070
     6
1002
{
1000
Prompt
1070
     4
1000
(genmsg gendwg 105)
1002
{
1002
}
1000
Value
1070
     4
1000

1002
{
1002
}
1000
EditFlag
1070
     1
1070
     1
1002
{
1002
}
1000
PosInDDATTE
1070
     1
1070
    25
1002
{
1002
}
1000
FieldLen
1070
     1
1070
    -1
1002
{
1002
}
1002
}
1000
26
1070
     6
1002
{
1000
Prompt
1070
     4
1000
(genmsg gendwg 106)
1002
{
1002
}
1000
Value
1070
     4
1000

1002
{
1002
}
1000
EditFlag
1070
     1
1070
     1
1002
{
1002
}
1000
PosInDDATTE
1070
     1
1070
    26
1002
{
1002
}
1000
FieldLen
1070
     1
1070
    -1
1002
{
1002
}
1002
}
1000
27
1070
     6
1002
{
1000
Prompt
1070
     4
1000
(genmsg gendwg 109)
1002
{
1002
}
1000
Value
1070
     4
1000

1002
{
1002
}
1000
EditFlag
1070
     1
1070
     2
1002
{
1002
}
1000
PosInDDATTE
1070
     1
1070
    27
1002
{
1002
}
1000
FieldLen
1070
     1
1070
    -1
1002
{
1002
}
1002
}
1002
}
1000
Xlate
1070
     0
1002
{
1000
>
1002
}
  0
APPID
  5
1328
330
12BF
100
AcDbSymbolTableRecord
100
AcDbRegAppTableRecord
  2
GENIUS_GENCFG2_13
 70
     0
1001
GENIUS_GENCFG_13
1071
1022848972
1000
1328
1000
GEN@LAYER@DEFS
1070
     9
1000
GenCfgObject
1000
GenCfgShort
1000
GenCfgReal
1000
GenCfgBool
1000
GenCfgString
1000
GenCfgDim
1000
GenCfgAttrInf
1000
GenCfgLaySection
1000
GenCfgLayer
1000
Basic
1070
     0
1002
{
1000
0
1070
     8
1000
0
1002
{
1000
Color
1070
     1
1070
     7
1002
{
1002
}
1000
LType
1070
     4
1000
CONTINUOUS
1002
{
1002
}
1000
Base
1070
     3
1070
     0
1002
{
1002
}
1002
}
1000
1
1070
     8
1000
1
1002
{
1000
Color
1070
     1
1070
    14
1002
{
1002
}
1000
LType
1070
     4
1000
CONTINUOUS
1002
{
1002
}
1000
Base
1070
     3
1070
     0
1002
{
1002
}
1002
}
1000
2
1070
     8
1000
2
1002
{
1000
Color
1070
     1
1070
     5
1002
{
1002
}
1000
LType
1070
     4
1000
CONTINUOUS
1002
{
1002
}
1000
Base
1070
     3
1070
     0
1002
{
1002
}
1002
}
1000
3
1070
     8
1000
3
1002
{
1000
Color
1070
     1
1070
     6
1002
{
1002
}
1000
LType
1070
     4
1000
GEN3
1002
{
1002
}
1000
Base
1070
     3
1070
     0
1002
{
1002
}
1002
}
1000
4
1070
     8
1000
4
1002
{
1000
Color
1070
     1
1070
     3
1002
{
1002
}
1000
LType
1070
     4
1000
CONTINUOUS
1002
{
1002
}
1000
Base
1070
     3
1070
     0
1002
{
1002
}
1002
}
1000
5
1070
     8
1000
5
1002
{
1000
Color
1070
     1
1070
     3
1002
{
1002
}
1000
LType
1070
     4
1000
CONTINUOUS
1002
{
1002
}
1000
Base
1070
     3
1070
     0
1002
{
1002
}
1002
}
1000
6
1070
     8
1000
6
1002
{
1000
Color
1070
     1
1070
     2
1002
{
1002
}
1000
LType
1070
     4
1000
CONTINUOUS
1002
{
1002
}
1000
Base
1070
     3
1070
     0
1002
{
1002
}
1002
}
1000
7
1070
     8
1000
7
1002
{
1000
Color
1070
     1
1070
     4
1002
{
1002
}
1000
LType
1070
     4
1000
GEN7
1002
{
1002
}
1000
Base
1070
     3
1070
     0
1002
{
1002
}
1002
}
1000
8
1070
     8
1000
8
1002
{
1000
Color
1070
     1
1070
     1
1002
{
1002
}
1000
LType
1070
     4
1000
CONTINUOUS
1002
{
1002
}
1000
Base
1070
     3
1070
     0
1002
{
1002
}
1002
}
1000
3A
1070
     8
1000
3A
1002
{
1000
Color
1070
     1
1070
     6
1002
{
1002
}
1000
LType
1070
     4
1000
GEN3A
1002
{
1002
}
1000
Base
1070
     3
1070
     0
1002
{
1002
}
1002
}
1000
7A
1070
     8
1000
7A
1002
{
1000
Color
1070
     1
1070
     4
1002
{
1002
}
1000
LType
1070
     4
1000
GEN7A
1002
{
1002
}
1000
Base
1070
     3
1070
     0
1002
{
1002
}
1002
}
1000
2A
1070
     8
1000
2A
1002
{
1000
Color
1070
     1
1070
     7
1002
{
1002
}
1000
LType
1070
     4
1000
GEN7
1002
{
1002
}
1000
Base
1070
     3
1070
     0
1002
{
1002
}
1002
}
1000
4A
1070
     8
1000
4A
1002
{
1000
Color
1070
     1
1070
     3
1002
{
1002
}
1000
LType
1070
     4
1000
GEN4A
1002
{
1002
}
1000
Base
1070
     3
1070
     0
1002
{
1002
}
1002
}
1000
9
1070
     8
1000
9
1002
{
1000
Color
1070
     1
1070
   253
1002
{
1002
}
1000
LType
1070
     4
1000
CONTINUOUS
1002
{
1002
}
1000
Base
1070
     3
1070
     0
1002
{
1002
}
1002
}
1000
IP
1070
     8
1000
IP
1002
{
1000
Color
1070
     1
1070
     7
1002
{
1002
}
1000
LType
1070
     4
1000
CONTINUOUS
1002
{
1002
}
1000
Base
1070
     3
1070
     0
1002
{
1002
}
1002
}
1002
}
1000
Standard
1070
     0
1002
{
1000
0N
1070
     8
1000
0N
1002
{
1000
Color
1070
     1
1070
     7
1002
{
1002
}
1000
LType
1070
     4
1000
CONTINUOUS
1002
{
1002
}
1000
Base
1070
     3
1070
     0
1002
{
1002
}
1002
}
1000
1N
1070
     8
1000
1N
1002
{
1000
Color
1070
     1
1070
    14
1002
{
1002
}
1000
LType
1070
     4
1000
CONTINUOUS
1002
{
1002
}
1000
Base
1070
     3
1070
     0
1002
{
1002
}
1002
}
1000
2N
1070
     8
1000
2N
1002
{
1000
Color
1070
     1
1070
     5
1002
{
1002
}
1000
LType
1070
     4
1000
CONTINUOUS
1002
{
1002
}
1000
Base
1070
     3
1070
     0
1002
{
1002
}
1002
}
1000
3N
1070
     8
1000
3N
1002
{
1000
Color
1070
     1
1070
     6
1002
{
1002
}
1000
LType
1070
     4
1000
GEN3
1002
{
1002
}
1000
Base
1070
     3
1070
     0
1002
{
1002
}
1002
}
1000
4N
1070
     8
1000
4N
1002
{
1000
Color
1070
     1
1070
     3
1002
{
1002
}
1000
LType
1070
     4
1000
CONTINUOUS
1002
{
1002
}
1000
Base
1070
     3
1070
     0
1002
{
1002
}
1002
}
1000
5N
1070
     8
1000
5N
1002
{
1000
Color
1070
     1
1070
     3
1002
{
1002
}
1000
LType
1070
     4
1000
CONTINUOUS
1002
{
1002
}
1000
Base
1070
     3
1070
     0
1002
{
1002
}
1002
}
1000
6N
1070
     8
1000
6N
1002
{
1000
Color
1070
     1
1070
     2
1002
{
1002
}
1000
LType
1070
     4
1000
CONTINUOUS
1002
{
1002
}
1000
Base
1070
     3
1070
     0
1002
{
1002
}
1002
}
1000
7N
1070
     8
1000
7N
1002
{
1000
Color
1070
     1
1070
     4
1002
{
1002
}
1000
LType
1070
     4
1000
GEN7
1002
{
1002
}
1000
Base
1070
     3
1070
     0
1002
{
1002
}
1002
}
1000
8N
1070
     8
1000
8N
1002
{
1000
Color
1070
     1
1070
     1
1002
{
1002
}
1000
LType
1070
     4
1000
CONTINUOUS
1002
{
1002
}
1000
Base
1070
     3
1070
     0
1002
{
1002
}
1002
}
1000
3AN
1070
     8
1000
3AN
1002
{
1000
Color
1070
     1
1070
     6
1002
{
1002
}
1000
LType
1070
     4
1000
GEN3A
1002
{
1002
}
1000
Base
1070
     3
1070
     0
1002
{
1002
}
1002
}
1000
7AN
1070
     8
1000
7AN
1002
{
1000
Color
1070
     1
1070
     4
1002
{
1002
}
1000
LType
1070
     4
1000
GEN7A
1002
{
1002
}
1000
Base
1070
     3
1070
     0
1002
{
1002
}
1002
}
1000
2AN
1070
     8
1000
2AN
1002
{
1000
Color
1070
     1
1070
     7
1002
{
1002
}
1000
LType
1070
     4
1000
GEN7
1002
{
1002
}
1000
Base
1070
     3
1070
     0
1002
{
1002
}
1002
}
1000
4AN
1070
     8
1000
4AN
1002
{
1000
Color
1070
     1
1070
     3
1002
{
1002
}
1000
LType
1070
     4
1000
GEN4A
1002
{
1002
}
1000
Base
1070
     3
1070
     0
1002
{
1002
}
1002
}
1000
9N
1070
     8
1000
9N
1002
{
1000
Color
1070
     1
1070
   253
1002
{
1002
}
1000
LType
1070
     4
1000
CONTINUOUS
1002
{
1002
}
1000
Base
1070
     3
1070
     0
1002
{
1002
}
1002
}
1000
IPN
1070
     8
1000
IPN
1002
{
1000
Color
1070
     1
1070
     7
1002
{
1002
}
1000
LType
1070
     4
1000
CONTINUOUS
1002
{
1002
}
1000
Base
1070
     3
1070
     0
1002
{
1002
}
1002
}
1002
}
1000
Extra
1070
     0
1002
{
1000
Klin
1070
     8
1000
KLIN
1002
{
1000
Color
1070
     1
1070
     1
1002
{
1002
}
1000
LType
1070
     4
1000
CONTINUOUS
1002
{
1002
}
1000
Base
1070
     3
1070
     1
1002
{
1002
}
1002
}
1000
Info
1070
     8
1000
INFO
1002
{
1000
Color
1070
     1
1070
     4
1002
{
1002
}
1000
LType
1070
     4
1000
CONTINUOUS
1002
{
1002
}
1000
Base
1070
     3
1070
     1
1002
{
1002
}
1002
}
1000
Rahm2
1070
     8
1000
RAHM2
1002
{
1000
Color
1070
     1
1070
     1
1002
{
1002
}
1000
LType
1070
     4
1000
CONTINUOUS
1002
{
1002
}
1000
Base
1070
     3
1070
     1
1002
{
1002
}
1002
}
1000
Rahm3
1070
     8
1000
RAHM3
1002
{
1000
Color
1070
     1
1070
     2
1002
{
1002
}
1000
LType
1070
     4
1000
CONTINUOUS
1002
{
1002
}
1000
Base
1070
     3
1070
     1
1002
{
1002
}
1002
}
1000
Rahm5
1070
     8
1000
RAHM5
1002
{
1000
Color
1070
     1
1070
     7
1002
{
1002
}
1000
LType
1070
     4
1000
CONTINUOUS
1002
{
1002
}
1000
Base
1070
     3
1070
     1
1002
{
1002
}
1002
}
1000
View
1070
     8
1000
VIEW
1002
{
1000
Color
1070
     1
1070
     1
1002
{
1002
}
1000
LType
1070
     4
1000
CONTINUOUS
1002
{
1002
}
1000
Base
1070
     3
1070
     1
1002
{
1002
}
1002
}
1000
Behind
1070
     8
1000
BEHIND
1002
{
1000
Color
1070
     1
1070
   253
1002
{
1002
}
1000
LType
1070
     4
1000
CONTINUOUS
1002
{
1002
}
1000
Base
1070
     3
1070
     1
1002
{
1002
}
1002
}
1002
}
  0
APPID
  5
1329
330
12BF
100
AcDbSymbolTableRecord
100
AcDbRegAppTableRecord
  2
GENIUS_GENCFG3_13
 70
     0
1001
GENIUS_GENCFG_13
1071
1022848972
1000
1329
1000
GEN@LAYER@ENTSORT
1070
    10
1000
GenCfgObject
1000
GenCfgShort
1000
GenCfgReal
1000
GenCfgBool
1000
GenCfgString
1000
GenCfgDim
1000
GenCfgAttrInf
1000
GenCfgLaySection
1000
GenCfgLayer
1000
GenCfgEntSort
1000
ADDL
1070
     9
1000
5
1002
{
1000
Class
1070
     4
1000
SYM
1002
{
1002
}
1000
Color
1070
     1
1070
     1
1002
{
1002
}
1000
LType
1070
     4
1000
BYLAYER
1002
{
1002
}
1002
}
1000
ALTR
1070
     9
1000
4
1002
{
1000
Class
1070
     4
1000

1002
{
1002
}
1000
Color
1070
     1
1070
     7
1002
{
1002
}
1000
LType
1070
     4
1000
GEN3A
1002
{
1002
}
1002
}
1000
BELI
1070
     9
1000
4
1002
{
1000
Class
1070
     4
1000

1002
{
1002
}
1000
Color
1070
     1
1070
   256
1002
{
1002
}
1000
LType
1070
     4
1000
BYLAYER
1002
{
1002
}
1002
}
1000
BHNV
1070
     9
1000
9
1002
{
1000
Class
1070
     4
1000
INV
1002
{
1002
}
1000
Color
1070
     1
1070
   256
1002
{
1002
}
1000
LType
1070
     4
1000
BYLAYER
1002
{
1002
}
1002
}
1000
BHNVS
1070
     9
1000
BEHIND
1002
{
1000
Class
1070
     4
1000
INV
1002
{
1002
}
1000
Color
1070
     1
1070
   256
1002
{
1002
}
1000
LType
1070
     4
1000
BYLAYER
1002
{
1002
}
1002
}
1000
BLID
1070
     9
1000
4A
1002
{
1000
Class
1070
     4
1000

1002
{
1002
}
1000
Color
1070
     1
1070
   256
1002
{
1002
}
1000
LType
1070
     4
1000
BYLAYER
1002
{
1002
}
1002
}
1000
BOAP
1070
     9
1000
4A
1002
{
1000
Class
1070
     4
1000

1002
{
1002
}
1000
Color
1070
     1
1070
   256
1002
{
1002
}
1000
LType
1070
     4
1000
BYLAYER
1002
{
1002
}
1002
}
1000
BOR2
1070
     9
1000
RAHM2
1002
{
1000
Class
1070
     4
1000
SPZ,SYM
1002
{
1002
}
1000
Color
1070
     1
1070
   256
1002
{
1002
}
1000
LType
1070
     4
1000
BYLAYER
1002
{
1002
}
1002
}
1000
BOR3
1070
     9
1000
RAHM3
1002
{
1000
Class
1070
     4
1000
SPZ,SYM
1002
{
1002
}
1000
Color
1070
     1
1070
   256
1002
{
1002
}
1000
LType
1070
     4
1000
BYLAYER
1002
{
1002
}
1002
}
1000
BOR5
1070
     9
1000
RAHM5
1002
{
1000
Class
1070
     4
1000
SPZ,SYM
1002
{
1002
}
1000
Color
1070
     1
1070
   256
1002
{
1002
}
1000
LType
1070
     4
1000
BYLAYER
1002
{
1002
}
1002
}
1000
BOR7
1070
     9
1000
RAHM5
1002
{
1000
Class
1070
     4
1000
SPZ,SYM
1002
{
1002
}
1000
Color
1070
     1
1070
     7
1002
{
1002
}
1000
LType
1070
     4
1000
CONTINUOUS
1002
{
1002
}
1002
}
1000
BPAP
1070
     9
1000
4A
1002
{
1000
Class
1070
     4
1000

1002
{
1002
}
1000
Color
1070
     1
1070
   256
1002
{
1002
}
1000
LType
1070
     4
1000
BYLAYER
1002
{
1002
}
1002
}
1000
BPEX
1070
     9
1000
4A
1002
{
1000
Class
1070
     4
1000

1002
{
1002
}
1000
Color
1070
     1
1070
   256
1002
{
1002
}
1000
LType
1070
     4
1000
BYLAYER
1002
{
1002
}
1002
}
1000
BTDI
1070
     9
1000
5
1002
{
1000
Class
1070
     4
1000
DIM,SYM
1002
{
1002
}
1000
Color
1070
     1
1070
   256
1002
{
1002
}
1000
LType
1070
     4
1000
BYLAYER
1002
{
1002
}
1002
}
1000
CAL2
1070
     9
1000
4
1002
{
1000
Class
1070
     4
1000
SYM
1002
{
1002
}
1000
Color
1070
     1
1070
   256
1002
{
1002
}
1000
LType
1070
     4
1000
BYLAYER
1002
{
1002
}
1002
}
1000
CAL3
1070
     9
1000
4
1002
{
1000
Class
1070
     4
1000
SYM
1002
{
1002
}
1000
Color
1070
     1
1070
     2
1002
{
1002
}
1000
LType
1070
     4
1000
BYLAYER
1002
{
1002
}
1002
}
1000
CAL5
1070
     9
1000
4
1002
{
1000
Class
1070
     4
1000
SYM
1002
{
1002
}
1000
Color
1070
     1
1070
     7
1002
{
1002
}
1000
LType
1070
     4
1000
BYLAYER
1002
{
1002
}
1002
}
1000
CAL7
1070
     9
1000
4
1002
{
1000
Class
1070
     4
1000
SYM
1002
{
1002
}
1000
Color
1070
     1
1070
     5
1002
{
1002
}
1000
LType
1070
     4
1000
BYLAYER
1002
{
1002
}
1002
}
1000
CENN
1070
     9
1000
7A
1002
{
1000
Class
1070
     4
1000
CEN
1002
{
1002
}
1000
Color
1070
     1
1070
   256
1002
{
1002
}
1000
LType
1070
     4
1000
BYLAYER
1002
{
1002
}
1002
}
1000
CENW
1070
     9
1000
7
1002
{
1000
Class
1070
     4
1000
CEN
1002
{
1002
}
1000
Color
1070
     1
1070
   256
1002
{
1002
}
1000
LType
1070
     4
1000
BYLAYER
1002
{
1002
}
1002
}
1000
CLIN
1070
     9
1000
KLIN
1002
{
1000
Class
1070
     4
1000
SPZ
1002
{
1002
}
1000
Color
1070
     1
1070
   256
1002
{
1002
}
1000
LType
1070
     4
1000
BYLAYER
1002
{
1002
}
1002
}
1000
CON1
1070
     9
1000
0
1002
{
1000
Class
1070
     4
1000
CON,BGD
1002
{
1002
}
1000
Color
1070
     1
1070
   256
1002
{
1002
}
1000
LType
1070
     4
1000
BYLAYER
1002
{
1002
}
1002
}
1000
CON2
1070
     9
1000
1
1002
{
1000
Class
1070
     4
1000
CON,BGD
1002
{
1002
}
1000
Color
1070
     1
1070
   256
1002
{
1002
}
1000
LType
1070
     4
1000
BYLAYER
1002
{
1002
}
1002
}
1000
CON3
1070
     9
1000
2
1002
{
1000
Class
1070
     4
1000
CON,BGD
1002
{
1002
}
1000
Color
1070
     1
1070
   256
1002
{
1002
}
1000
LType
1070
     4
1000
BYLAYER
1002
{
1002
}
1002
}
1000
CON4
1070
     9
1000
2
1002
{
1000
Class
1070
     4
1000
CON,BGD
1002
{
1002
}
1000
Color
1070
     1
1070
   256
1002
{
1002
}
1000
LType
1070
     4
1000
BYLAYER
1002
{
1002
}
1002
}
1000
DERP
1070
     9
1000
4
1002
{
1000
Class
1070
     4
1000

1002
{
1002
}
1000
Color
1070
     1
1070
   256
1002
{
1002
}
1000
LType
1070
     4
1000
BYLAYER
1002
{
1002
}
1002
}
1000
DETA
1070
     9
1000
4
1002
{
1000
Class
1070
     4
1000

1002
{
1002
}
1000
Color
1070
     1
1070
   256
1002
{
1002
}
1000
LType
1070
     4
1000
BYLAYER
1002
{
1002
}
1002
}
1000
DIAG
1070
     9
1000
5
1002
{
1000
Class
1070
     4
1000
SYM
1002
{
1002
}
1000
Color
1070
     1
1070
   256
1002
{
1002
}
1000
LType
1070
     4
1000
BYLAYER
1002
{
1002
}
1002
}
1000
DILI
1070
     9
1000
5
1002
{
1000
Class
1070
     4
1000
DIM,SYM
1002
{
1002
}
1000
Color
1070
     1
1070
   256
1002
{
1002
}
1000
LType
1070
     4
1000
BYLAYER
1002
{
1002
}
1002
}
1000
DITO2
1070
     9
1000
5
1002
{
1000
Class
1070
     4
1000
DIM,SYM
1002
{
1002
}
1000
Color
1070
     1
1070
     3
1002
{
1002
}
1000
LType
1070
     4
1000
BYLAYER
1002
{
1002
}
1002
}
1000
DITO3
1070
     9
1000
5
1002
{
1000
Class
1070
     4
1000
DIM,SYM
1002
{
1002
}
1000
Color
1070
     1
1070
     2
1002
{
1002
}
1000
LType
1070
     4
1000
BYLAYER
1002
{
1002
}
1002
}
1000
DITX
1070
     9
1000
5
1002
{
1000
Class
1070
     4
1000
DIM,SYM
1002
{
1002
}
1000
Color
1070
     1
1070
     2
1002
{
1002
}
1000
LType
1070
     4
1000
CONTINUOUS
1002
{
1002
}
1002
}
1000
DIXL
1070
     9
1000
5
1002
{
1000
Class
1070
     4
1000
DIM,SYM
1002
{
1002
}
1000
Color
1070
     1
1070
   256
1002
{
1002
}
1000
LType
1070
     4
1000
BYLAYER
1002
{
1002
}
1002
}
1000
EXMP
1070
     9
1000
4A
1002
{
1000
Class
1070
     4
1000

1002
{
1002
}
1000
Color
1070
     1
1070
   256
1002
{
1002
}
1000
LType
1070
     4
1000
BYLAYER
1002
{
1002
}
1002
}
1000
FEMN
1070
     9
1000
8
1002
{
1000
Class
1070
     4
1000

1002
{
1002
}
1000
Color
1070
     1
1070
   256
1002
{
1002
}
1000
LType
1070
     4
1000
BYLAYER
1002
{
1002
}
1002
}
1000
FEMPN
1070
     9
1000
8
1002
{
1000
Class
1070
     4
1000
SYM
1002
{
1002
}
1000
Color
1070
     1
1070
     3
1002
{
1002
}
1000
LType
1070
     4
1000
BYLAYER
1002
{
1002
}
1002
}
1000
FEMSP
1070
     9
1000
4A
1002
{
1000
Class
1070
     4
1000

1002
{
1002
}
1000
Color
1070
     1
1070
   256
1002
{
1002
}
1000
LType
1070
     4
1000
CONTINUOUS
1002
{
1002
}
1002
}
1000
FEMST
1070
     9
1000
4A
1002
{
1000
Class
1070
     4
1000
SYM
1002
{
1002
}
1000
Color
1070
     1
1070
     3
1002
{
1002
}
1000
LType
1070
     4
1000
BYLAYER
1002
{
1002
}
1002
}
1000
FEMVN
1070
     9
1000
2
1002
{
1000
Class
1070
     4
1000
CON
1002
{
1002
}
1000
Color
1070
     1
1070
   256
1002
{
1002
}
1000
LType
1070
     4
1000
BYLAYER
1002
{
1002
}
1002
}
1000
FEMVT
1070
     9
1000
2
1002
{
1000
Class
1070
     4
1000
SYM
1002
{
1002
}
1000
Color
1070
     1
1070
     3
1002
{
1002
}
1000
LType
1070
     4
1000
BYLAYER
1002
{
1002
}
1002
}
1000
FLAT
1070
     9
1000
0
1002
{
1000
Class
1070
     4
1000

1002
{
1002
}
1000
Color
1070
     1
1070
   256
1002
{
1002
}
1000
LType
1070
     4
1000
BYLAYER
1002
{
1002
}
1002
}
1000
FRAR
1070
     9
1000
4A
1002
{
1000
Class
1070
     4
1000

1002
{
1002
}
1000
Color
1070
     1
1070
   256
1002
{
1002
}
1000
LType
1070
     4
1000
BYLAYER
1002
{
1002
}
1002
}
1000
GRLI
1070
     9
1000
5
1002
{
1000
Class
1070
     4
1000
SYM
1002
{
1002
}
1000
Color
1070
     1
1070
   256
1002
{
1002
}
1000
LType
1070
     4
1000
BYLAYER
1002
{
1002
}
1002
}
1000
GVLI
1070
     9
1000
4A
1002
{
1000
Class
1070
     4
1000

1002
{
1002
}
1000
Color
1070
     1
1070
   256
1002
{
1002
}
1000
LType
1070
     4
1000
BYLAYER
1002
{
1002
}
1002
}
1000
HATC
1070
     9
1000
8
1002
{
1000
Class
1070
     4
1000
HTC,BGD
1002
{
1002
}
1000
Color
1070
     1
1070
   256
1002
{
1002
}
1000
LType
1070
     4
1000
BYLAYER
1002
{
1002
}
1002
}
1000
HIDN
1070
     9
1000
3A
1002
{
1000
Class
1070
     4
1000
HID,BGD
1002
{
1002
}
1000
Color
1070
     1
1070
   256
1002
{
1002
}
1000
LType
1070
     4
1000
BYLAYER
1002
{
1002
}
1002
}
1000
HIDW
1070
     9
1000
3
1002
{
1000
Class
1070
     4
1000
HID,BGD
1002
{
1002
}
1000
Color
1070
     1
1070
   256
1002
{
1002
}
1000
LType
1070
     4
1000
BYLAYER
1002
{
1002
}
1002
}
1000
HLIN
1070
     9
1000
4
1002
{
1000
Class
1070
     4
1000
BGD
1002
{
1002
}
1000
Color
1070
     1
1070
   256
1002
{
1002
}
1000
LType
1070
     4
1000
BYLAYER
1002
{
1002
}
1002
}
1000
HOCN
1070
     9
1000
7A
1002
{
1000
Class
1070
     4
1000
CEN
1002
{
1002
}
1000
Color
1070
     1
1070
   256
1002
{
1002
}
1000
LType
1070
     4
1000
BYLAYER
1002
{
1002
}
1002
}
1000
HOCW
1070
     9
1000
7
1002
{
1000
Class
1070
     4
1000
CEN
1002
{
1002
}
1000
Color
1070
     1
1070
   256
1002
{
1002
}
1000
LType
1070
     4
1000
BYLAYER
1002
{
1002
}
1002
}
1000
INFO
1070
     9
1000
INFO
1002
{
1000
Class
1070
     4
1000
SPZ,SYM
1002
{
1002
}
1000
Color
1070
     1
1070
   256
1002
{
1002
}
1000
LType
1070
     4
1000
BYLAYER
1002
{
1002
}
1002
}
1000
LADI
1070
     9
1000
4
1002
{
1000
Class
1070
     4
1000
BGD
1002
{
1002
}
1000
Color
1070
     1
1070
   256
1002
{
1002
}
1000
LType
1070
     4
1000
BYLAYER
1002
{
1002
}
1002
}
1000
LEAD
1070
     9
1000
5
1002
{
1000
Class
1070
     4
1000
SYM
1002
{
1002
}
1000
Color
1070
     1
1070
   256
1002
{
1002
}
1000
LType
1070
     4
1000
BYLAYER
1002
{
1002
}
1002
}
1000
N_ADDL
1070
     9
1000
5N
1002
{
1000
Class
1070
     4
1000
SYM
1002
{
1002
}
1000
Color
1070
     1
1070
     1
1002
{
1002
}
1000
LType
1070
     4
1000
BYLAYER
1002
{
1002
}
1002
}
1000
N_BHNV
1070
     9
1000
9N
1002
{
1000
Class
1070
     4
1000
INV
1002
{
1002
}
1000
Color
1070
     1
1070
   256
1002
{
1002
}
1000
LType
1070
     4
1000
BYLAYER
1002
{
1002
}
1002
}
1000
N_CON1
1070
     9
1000
0N
1002
{
1000
Class
1070
     4
1000
CON,BGD
1002
{
1002
}
1000
Color
1070
     1
1070
   256
1002
{
1002
}
1000
LType
1070
     4
1000
BYLAYER
1002
{
1002
}
1002
}
1000
N_CON2
1070
     9
1000
1N
1002
{
1000
Class
1070
     4
1000
CON,BGD
1002
{
1002
}
1000
Color
1070
     1
1070
   256
1002
{
1002
}
1000
LType
1070
     4
1000
BYLAYER
1002
{
1002
}
1002
}
1000
N_CON3
1070
     9
1000
2N
1002
{
1000
Class
1070
     4
1000
CON,BGD
1002
{
1002
}
1000
Color
1070
     1
1070
   256
1002
{
1002
}
1000
LType
1070
     4
1000
BYLAYER
1002
{
1002
}
1002
}
1000
N_CON4
1070
     9
1000
2N
1002
{
1000
Class
1070
     4
1000
CON,BGD
1002
{
1002
}
1000
Color
1070
     1
1070
   256
1002
{
1002
}
1000
LType
1070
     4
1000
BYLAYER
1002
{
1002
}
1002
}
1000
N_CENN
1070
     9
1000
7AN
1002
{
1000
Class
1070
     4
1000
CEN
1002
{
1002
}
1000
Color
1070
     1
1070
   256
1002
{
1002
}
1000
LType
1070
     4
1000
BYLAYER
1002
{
1002
}
1002
}
1000
N_CENW
1070
     9
1000
7N
1002
{
1000
Class
1070
     4
1000
CEN
1002
{
1002
}
1000
Color
1070
     1
1070
   256
1002
{
1002
}
1000
LType
1070
     4
1000
BYLAYER
1002
{
1002
}
1002
}
1000
N_DILI
1070
     9
1000
5N
1002
{
1000
Class
1070
     4
1000
DIM,SYM
1002
{
1002
}
1000
Color
1070
     1
1070
   256
1002
{
1002
}
1000
LType
1070
     4
1000
BYLAYER
1002
{
1002
}
1002
}
1000
N_DITX
1070
     9
1000
5N
1002
{
1000
Class
1070
     4
1000
DIM,SYM
1002
{
1002
}
1000
Color
1070
     1
1070
     2
1002
{
1002
}
1000
LType
1070
     4
1000
CONTINUOUS
1002
{
1002
}
1002
}
1000
N_DIXL
1070
     9
1000
5N
1002
{
1000
Class
1070
     4
1000
DIM,SYM
1002
{
1002
}
1000
Color
1070
     1
1070
   256
1002
{
1002
}
1000
LType
1070
     4
1000
BYLAYER
1002
{
1002
}
1002
}
1000
N_HATC
1070
     9
1000
8N
1002
{
1000
Class
1070
     4
1000
HTC,BGD
1002
{
1002
}
1000
Color
1070
     1
1070
   256
1002
{
1002
}
1000
LType
1070
     4
1000
BYLAYER
1002
{
1002
}
1002
}
1000
N_HIDN
1070
     9
1000
3AN
1002
{
1000
Class
1070
     4
1000
HID,BGD
1002
{
1002
}
1000
Color
1070
     1
1070
   256
1002
{
1002
}
1000
LType
1070
     4
1000
BYLAYER
1002
{
1002
}
1002
}
1000
N_HIDW
1070
     9
1000
3N
1002
{
1000
Class
1070
     4
1000
HID,BGD
1002
{
1002
}
1000
Color
1070
     1
1070
   256
1002
{
1002
}
1000
LType
1070
     4
1000
BYLAYER
1002
{
1002
}
1002
}
1000
N_NGIP
1070
     9
1000
IPN
1002
{
1000
Class
1070
     4
1000

1002
{
1002
}
1000
Color
1070
     1
1070
   256
1002
{
1002
}
1000
LType
1070
     4
1000
BYLAYER
1002
{
1002
}
1002
}
1000
N_PHAN
1070
     9
1000
4AN
1002
{
1000
Class
1070
     4
1000

1002
{
1002
}
1000
Color
1070
     1
1070
   256
1002
{
1002
}
1000
LType
1070
     4
1000
BYLAYER
1002
{
1002
}
1002
}
1000
N_POSL
1070
     9
1000
5N
1002
{
1000
Class
1070
     4
1000
SYM
1002
{
1002
}
1000
Color
1070
     1
1070
   256
1002
{
1002
}
1000
LType
1070
     4
1000
BYLAYER
1002
{
1002
}
1002
}
1000
N_TCON
1070
     9
1000
0N
1002
{
1000
Class
1070
     4
1000
CON,BGD
1002
{
1002
}
1000
Color
1070
     1
1070
   256
1002
{
1002
}
1000
LType
1070
     4
1000
BYLAYER
1002
{
1002
}
1002
}
1000
N_THLI
1070
     9
1000
4N
1002
{
1000
Class
1070
     4
1000
BGD
1002
{
1002
}
1000
Color
1070
     1
1070
   256
1002
{
1002
}
1000
LType
1070
     4
1000
BYLAYER
1002
{
1002
}
1002
}
1000
N_TLEN
1070
     9
1000
0N
1002
{
1000
Class
1070
     4
1000
CON,BGD
1002
{
1002
}
1000
Color
1070
     1
1070
   256
1002
{
1002
}
1000
LType
1070
     4
1000
BYLAYER
1002
{
1002
}
1002
}
1000
N_TXT3
1070
     9
1000
6N
1002
{
1000
Class
1070
     4
1000
SYM
1002
{
1002
}
1000
Color
1070
     1
1070
   256
1002
{
1002
}
1000
LType
1070
     4
1000
BYLAYER
1002
{
1002
}
1002
}
1000
N_VPLI
1070
     9
1000
2AN
1002
{
1000
Class
1070
     4
1000

1002
{
1002
}
1000
Color
1070
     1
1070
   256
1002
{
1002
}
1000
LType
1070
     4
1000
BYLAYER
1002
{
1002
}
1002
}
1000
NGIP
1070
     9
1000
IP
1002
{
1000
Class
1070
     4
1000

1002
{
1002
}
1000
Color
1070
     1
1070
   256
1002
{
1002
}
1000
LType
1070
     4
1000
BYLAYER
1002
{
1002
}
1002
}
1000
PAL2
1070
     9
1000
RAHM2
1002
{
1000
Class
1070
     4
1000
SPZ,SYM
1002
{
1002
}
1000
Color
1070
     1
1070
   256
1002
{
1002
}
1000
LType
1070
     4
1000
BYLAYER
1002
{
1002
}
1002
}
1000
PAL3
1070
     9
1000
RAHM3
1002
{
1000
Class
1070
     4
1000
SPZ,SYM
1002
{
1002
}
1000
Color
1070
     1
1070
   256
1002
{
1002
}
1000
LType
1070
     4
1000
BYLAYER
1002
{
1002
}
1002
}
1000
PAL5
1070
     9
1000
RAHM5
1002
{
1000
Class
1070
     4
1000
SPZ,SYM
1002
{
1002
}
1000
Color
1070
     1
1070
   256
1002
{
1002
}
1000
LType
1070
     4
1000
BYLAYER
1002
{
1002
}
1002
}
1000
PAL7
1070
     9
1000
RAHM5
1002
{
1000
Class
1070
     4
1000
SPZ,SYM
1002
{
1002
}
1000
Color
1070
     1
1070
     7
1002
{
1002
}
1000
LType
1070
     4
1000
CONTINUOUS
1002
{
1002
}
1002
}
1000
PHAN
1070
     9
1000
4A
1002
{
1000
Class
1070
     4
1000

1002
{
1002
}
1000
Color
1070
     1
1070
   256
1002
{
1002
}
1000
LType
1070
     4
1000
BYLAYER
1002
{
1002
}
1002
}
1000
POSL
1070
     9
1000
5
1002
{
1000
Class
1070
     4
1000
SYM
1002
{
1002
}
1000
Color
1070
     1
1070
   256
1002
{
1002
}
1000
LType
1070
     4
1000
BYLAYER
1002
{
1002
}
1002
}
1000
POSN
1070
     9
1000
6
1002
{
1000
Class
1070
     4
1000
SYM
1002
{
1002
}
1000
Color
1070
     1
1070
     7
1002
{
1002
}
1000
LType
1070
     4
1000
BYLAYER
1002
{
1002
}
1002
}
1000
POSREF
1070
     9
1000
6
1002
{
1000
Class
1070
     4
1000
SYM
1002
{
1002
}
1000
Color
1070
     1
1070
     5
1002
{
1002
}
1000
LType
1070
     4
1000
BYLAYER
1002
{
1002
}
1002
}
1000
POSX
1070
     9
1000
5
1002
{
1000
Class
1070
     4
1000
SYM
1002
{
1002
}
1000
Color
1070
     1
1070
     2
1002
{
1002
}
1000
LType
1070
     4
1000
CONTINUOUS
1002
{
1002
}
1002
}
1000
PSEC
1070
     9
1000
4A
1002
{
1000
Class
1070
     4
1000

1002
{
1002
}
1000
Color
1070
     1
1070
   256
1002
{
1002
}
1000
LType
1070
     4
1000
BYLAYER
1002
{
1002
}
1002
}
1000
RCGN
1070
     9
1000
7A
1002
{
1000
Class
1070
     4
1000
CEN
1002
{
1002
}
1000
Color
1070
     1
1070
   256
1002
{
1002
}
1000
LType
1070
     4
1000
BYLAYER
1002
{
1002
}
1002
}
1000
RCGW
1070
     9
1000
7
1002
{
1000
Class
1070
     4
1000
CEN
1002
{
1002
}
1000
Color
1070
     1
1070
   256
1002
{
1002
}
1000
LType
1070
     4
1000
BYLAYER
1002
{
1002
}
1002
}
1000
RFDI
1070
     9
1000
4
1002
{
1000
Class
1070
     4
1000
BGD
1002
{
1002
}
1000
Color
1070
     1
1070
   256
1002
{
1002
}
1000
LType
1070
     4
1000
BYLAYER
1002
{
1002
}
1002
}
1000
RQTR
1070
     9
1000
4
1002
{
1000
Class
1070
     4
1000

1002
{
1002
}
1000
Color
1070
     1
1070
     7
1002
{
1002
}
1000
LType
1070
     4
1000
GEN7A
1002
{
1002
}
1002
}
1000
RSBO
1070
     9
1000
4
1002
{
1000
Class
1070
     4
1000
BGD
1002
{
1002
}
1000
Color
1070
     1
1070
   256
1002
{
1002
}
1000
LType
1070
     4
1000
BYLAYER
1002
{
1002
}
1002
}
1000
SBRK
1070
     9
1000
4
1002
{
1000
Class
1070
     4
1000
BGD
1002
{
1002
}
1000
Color
1070
     1
1070
   256
1002
{
1002
}
1000
LType
1070
     4
1000
BYLAYER
1002
{
1002
}
1002
}
1000
SCEN
1070
     9
1000
7
1002
{
1000
Class
1070
     4
1000

1002
{
1002
}
1000
Color
1070
     1
1070
   256
1002
{
1002
}
1000
LType
1070
     4
1000
CONTINUOUS
1002
{
1002
}
1002
}
1000
SECT
1070
     9
1000
4
1002
{
1000
Class
1070
     4
1000
BGD
1002
{
1002
}
1000
Color
1070
     1
1070
   256
1002
{
1002
}
1000
LType
1070
     4
1000
BYLAYER
1002
{
1002
}
1002
}
1000
SELN
1070
     9
1000
7A
1002
{
1000
Class
1070
     4
1000

1002
{
1002
}
1000
Color
1070
     1
1070
   256
1002
{
1002
}
1000
LType
1070
     4
1000
BYLAYER
1002
{
1002
}
1002
}
1000
SELW
1070
     9
1000
7
1002
{
1000
Class
1070
     4
1000

1002
{
1002
}
1000
Color
1070
     1
1070
   256
1002
{
1002
}
1000
LType
1070
     4
1000
BYLAYER
1002
{
1002
}
1002
}
1000
SSYS
1070
     9
1000
0
1002
{
1000
Class
1070
     4
1000

1002
{
1002
}
1000
Color
1070
     1
1070
   256
1002
{
1002
}
1000
LType
1070
     4
1000
BYLAYER
1002
{
1002
}
1002
}
1000
STLI
1070
     9
1000
4
1002
{
1000
Class
1070
     4
1000

1002
{
1002
}
1000
Color
1070
     1
1070
     7
1002
{
1002
}
1000
LType
1070
     4
1000
GEN3A
1002
{
1002
}
1002
}
1000
SYB1
1070
     9
1000
5
1002
{
1000
Class
1070
     4
1000
SYM
1002
{
1002
}
1000
Color
1070
     1
1070
   256
1002
{
1002
}
1000
LType
1070
     4
1000
BYLAYER
1002
{
1002
}
1002
}
1000
SYB2
1070
     9
1000
5
1002
{
1000
Class
1070
     4
1000
SYM
1002
{
1002
}
1000
Color
1070
     1
1070
   256
1002
{
1002
}
1000
LType
1070
     4
1000
BYLAYER
1002
{
1002
}
1002
}
1000
SYB3
1070
     9
1000
6
1002
{
1000
Class
1070
     4
1000
SYM
1002
{
1002
}
1000
Color
1070
     1
1070
   256
1002
{
1002
}
1000
LType
1070
     4
1000
CONTINUOUS
1002
{
1002
}
1002
}
1000
SYB5
1070
     9
1000
5
1002
{
1000
Class
1070
     4
1000
SYM
1002
{
1002
}
1000
Color
1070
     1
1070
     7
1002
{
1002
}
1000
LType
1070
     4
1000
BYLAYER
1002
{
1002
}
1002
}
1000
SYMN
1070
     9
1000
7A
1002
{
1000
Class
1070
     4
1000
CEN
1002
{
1002
}
1000
Color
1070
     1
1070
   256
1002
{
1002
}
1000
LType
1070
     4
1000
BYLAYER
1002
{
1002
}
1002
}
1000
SYMW
1070
     9
1000
7
1002
{
1000
Class
1070
     4
1000
CEN
1002
{
1002
}
1000
Color
1070
     1
1070
   256
1002
{
1002
}
1000
LType
1070
     4
1000
BYLAYER
1002
{
1002
}
1002
}
1000
TCON
1070
     9
1000
0
1002
{
1000
Class
1070
     4
1000
CON,BGD
1002
{
1002
}
1000
Color
1070
     1
1070
   256
1002
{
1002
}
1000
LType
1070
     4
1000
BYLAYER
1002
{
1002
}
1002
}
1000
THLI
1070
     9
1000
4
1002
{
1000
Class
1070
     4
1000
BGD
1002
{
1002
}
1000
Color
1070
     1
1070
   256
1002
{
1002
}
1000
LType
1070
     4
1000
BYLAYER
1002
{
1002
}
1002
}
1000
TIT2
1070
     9
1000
RAHM2
1002
{
1000
Class
1070
     4
1000
SPZ,SYM
1002
{
1002
}
1000
Color
1070
     1
1070
   256
1002
{
1002
}
1000
LType
1070
     4
1000
BYLAYER
1002
{
1002
}
1002
}
1000
TIT3
1070
     9
1000
RAHM3
1002
{
1000
Class
1070
     4
1000
SPZ,SYM
1002
{
1002
}
1000
Color
1070
     1
1070
   256
1002
{
1002
}
1000
LType
1070
     4
1000
BYLAYER
1002
{
1002
}
1002
}
1000
TIT5
1070
     9
1000
RAHM5
1002
{
1000
Class
1070
     4
1000
SPZ,SYM
1002
{
1002
}
1000
Color
1070
     1
1070
   256
1002
{
1002
}
1000
LType
1070
     4
1000
BYLAYER
1002
{
1002
}
1002
}
1000
TIT7
1070
     9
1000
RAHM5
1002
{
1000
Class
1070
     4
1000
SPZ,SYM
1002
{
1002
}
1000
Color
1070
     1
1070
     7
1002
{
1002
}
1000
LType
1070
     4
1000
CONTINUOUS
1002
{
1002
}
1002
}
1000
TLEN
1070
     9
1000
0
1002
{
1000
Class
1070
     4
1000
CON,BGD
1002
{
1002
}
1000
Color
1070
     1
1070
   256
1002
{
1002
}
1000
LType
1070
     4
1000
BYLAYER
1002
{
1002
}
1002
}
1000
TRKN
1070
     9
1000
7A
1002
{
1000
Class
1070
     4
1000

1002
{
1002
}
1000
Color
1070
     1
1070
   256
1002
{
1002
}
1000
LType
1070
     4
1000
BYLAYER
1002
{
1002
}
1002
}
1000
TRKW
1070
     9
1000
7
1002
{
1000
Class
1070
     4
1000

1002
{
1002
}
1000
Color
1070
     1
1070
   256
1002
{
1002
}
1000
LType
1070
     4
1000
BYLAYER
1002
{
1002
}
1002
}
1000
TRLI
1070
     9
1000
4
1002
{
1000
Class
1070
     4
1000
BGD
1002
{
1002
}
1000
Color
1070
     1
1070
   256
1002
{
1002
}
1000
LType
1070
     4
1000
BYLAYER
1002
{
1002
}
1002
}
1000
TXT1
1070
     9
1000
6
1002
{
1000
Class
1070
     4
1000
SYM
1002
{
1002
}
1000
Color
1070
     1
1070
     2
1002
{
1002
}
1000
LType
1070
     4
1000
BYLAYER
1002
{
1002
}
1002
}
1000
TXT2
1070
     9
1000
6
1002
{
1000
Class
1070
     4
1000
SYM
1002
{
1002
}
1000
Color
1070
     1
1070
     2
1002
{
1002
}
1000
LType
1070
     4
1000
BYLAYER
1002
{
1002
}
1002
}
1000
TXT3
1070
     9
1000
6
1002
{
1000
Class
1070
     4
1000
SYM
1002
{
1002
}
1000
Color
1070
     1
1070
   256
1002
{
1002
}
1000
LType
1070
     4
1000
BYLAYER
1002
{
1002
}
1002
}
1000
TXT5
1070
     9
1000
6
1002
{
1000
Class
1070
     4
1000
SYM
1002
{
1002
}
1000
Color
1070
     1
1070
     7
1002
{
1002
}
1000
LType
1070
     4
1000
BYLAYER
1002
{
1002
}
1002
}
1000
TXT7
1070
     9
1000
6
1002
{
1000
Class
1070
     4
1000
SYM
1002
{
1002
}
1000
Color
1070
     1
1070
     7
1002
{
1002
}
1000
LType
1070
     4
1000
BYLAYER
1002
{
1002
}
1002
}
1000
VIEW
1070
     9
1000
VIEW
1002
{
1000
Class
1070
     4
1000
SPZ
1002
{
1002
}
1000
Color
1070
     1
1070
   256
1002
{
1002
}
1000
LType
1070
     4
1000
BYLAYER
1002
{
1002
}
1002
}
1000
VPLI
1070
     9
1000
2A
1002
{
1000
Class
1070
     4
1000

1002
{
1002
}
1000
Color
1070
     1
1070
   256
1002
{
1002
}
1000
LType
1070
     4
1000
BYLAYER
1002
{
1002
}
1002
}
1000
ZIZA
1070
     9
1000
4
1002
{
1000
Class
1070
     4
1000
BGD
1002
{
1002
}
1000
Color
1070
     1
1070
   256
1002
{
1002
}
1000
LType
1070
     4
1000
GENZIGZAG
1002
{
1002
}
1002
}
  0
APPID
  5
132A
330
12BF
100
AcDbSymbolTableRecord
100
AcDbRegAppTableRecord
  2
GENIUS_GENCFG4_13
 70
     0
1001
GENIUS_GENCFG_13
1071
1022848978
1000
132A
1000
GEN
1070
     9
1000
GenCfgObject
1000
GenCfgShort
1000
GenCfgReal
1000
GenCfgBool
1000
GenCfgString
1000
GenCfgDim
1000
GenCfgLaySection
1000
GenCfgLType
1000
GenCfgFilter
1000
Balloon
1070
     0
1002
{
1000
GenIF
1070
     1
1070
     0
1002
{
1002
}
1000
GenPosInc
1070
     1
1070
     1
1002
{
1002
}
1000
GenPosBlk
1070
     1
1070
     8
1002
{
1002
}
1000
GenPosVar
1070
     1
1070
     0
1002
{
1002
}
1000
GenZiCir
1070
     2
1040
1.5
1002
{
1002
}
1000
MaxCharForCenteredText
1070
     1
1070
    30
1002
{
1002
}
1000
Snap
1070
     0
1002
{
1000
ActivationRadius
1070
     2
1040
1.0
1002
{
1002
}
1000
M
1070
     0
1002
{
1000
SnapStepX
1070
     2
1040
20.0
1002
{
1002
}
1000
SnapStepY
1070
     2
1040
10.0
1002
{
1002
}
1002
}
1000
I
1070
     0
1002
{
1000
SnapStepX
1070
     2
1040
1.0
1002
{
1002
}
1000
SnapStepY
1070
     2
1040
0.5
1002
{
1002
}
1002
}
1002
}
1002
}
1000
Centerline
1070
     0
1002
{
1000
ScaleNot
1070
     3
1070
     0
1002
{
1002
}
1000
M
1070
     0
1002
{
1000
GenCenAng
1070
     4
1000
45|90|135
1002
{
1002
}
1000
GenCenDia
1070
     2
1040
10.0
1002
{
1002
}
1000
GenCenDias
1070
     4
1000
10|20|30
1002
{
1002
}
1000
GenCenDist
1070
     2
1040
3.0
1002
{
1002
}
1000
GenCenLen
1070
     2
1040
10.0
1002
{
1002
}
1000
GenCenOff
1070
     2
1040
10.0
1002
{
1002
}
1002
}
1000
I
1070
     0
1002
{
1000
GenCenAng
1070
     4
1000
45|90|135
1002
{
1002
}
1000
GenCenDia
1070
     2
1040
0.5
1002
{
1002
}
1000
GenCenDias
1070
     4
1000
0.5|1.0|1.5
1002
{
1002
}
1000
GenCenDist
1070
     2
1040
0.125
1002
{
1002
}
1000
GenCenLen
1070
     2
1040
0.5
1002
{
1002
}
1000
GenCenOff
1070
     2
1040
0.5
1002
{
1002
}
1002
}
1002
}
1000
CLine
1070
     0
1002
{
1000
CAngArray
1070
     4
1000
30|45|60
1002
{
1002
}
1000
Typ
1070
     4
1000
XLINE
1002
{
1002
}
1000
M
1070
     0
1002
{
1000
CLinArray
1070
     4
1000
10|20|30
1002
{
1002
}
1002
}
1000
I
1070
     0
1002
{
1000
CLinArray
1070
     4
1000
0.125|0.25|0.5
1002
{
1002
}
1002
}
1002
}
1000
Detail
1070
     0
1002
{
1002
}
1000
Dimension
1070
     5
1002
{
1000
DIMALT
1070
     1
1070
     0
1002
{
1002
}
1000
DIMALTD
1070
     1
1070
     2
1002
{
1002
}
1000
DIMALTTD
1070
     1
1070
     4
1002
{
1002
}
1000
DIMALTTZ
1070
     1
1070
     0
1002
{
1002
}
1000
DIMALTU
1070
     1
1070
     2
1002
{
1002
}
1000
DIMALTZ
1070
     1
1070
     0
1002
{
1002
}
1000
DIMAUNIT
1070
     1
1070
     0
1002
{
1002
}
1000
DIMBLK
1070
     4
1000

1002
{
1002
}
1000
DIMBLK1
1070
     4
1000

1002
{
1002
}
1000
DIMBLK2
1070
     4
1000

1002
{
1002
}
1000
DIMCLRD
1070
     1
1070
   256
1002
{
1002
}
1000
DIMCLRE
1070
     1
1070
   256
1002
{
1002
}
1000
DIMCLRT
1070
     1
1070
     2
1002
{
1002
}
1000
DIMDLE
1070
     2
1040
0.0
1002
{
1002
}
1000
DIMFIT
1070
     1
1070
     3
1002
{
1002
}
1000
DIMJUST
1070
     1
1070
     0
1002
{
1002
}
1000
DIMLFAC
1070
     2
1040
1.0
1002
{
1002
}
1000
DIMLIM
1070
     1
1070
     0
1002
{
1002
}
1000
DIMPOST
1070
     4
1000

1002
{
1002
}
1000
DIMRND
1070
     2
1040
0.0
1002
{
1002
}
1000
DIMSAH
1070
     1
1070
     0
1002
{
1002
}
1000
DIMSCALE
1070
     2
1040
1.0
1002
{
1002
}
1000
DIMSD1
1070
     1
1070
     0
1002
{
1002
}
1000
DIMSD2
1070
     1
1070
     0
1002
{
1002
}
1000
DIMSE1
1070
     1
1070
     0
1002
{
1002
}
1000
DIMSE2
1070
     1
1070
     0
1002
{
1002
}
1000
DIMSOXD
1070
     1
1070
     0
1002
{
1002
}
1000
DIMTAD
1070
     1
1070
     0
1002
{
1002
}
1000
DIMTFAC
1070
     2
1040
0.71
1002
{
1002
}
1000
DIMTIH
1070
     1
1070
     0
1002
{
1002
}
1000
DIMTIX
1070
     1
1070
     0
1002
{
1002
}
1000
DIMTM
1070
     2
1040
0.1
1002
{
1002
}
1000
DIMTOFL
1070
     1
1070
     0
1002
{
1002
}
1000
DIMTOH
1070
     1
1070
     0
1002
{
1002
}
1000
DIMTOL
1070
     1
1070
     0
1002
{
1002
}
1000
DIMTOLJ
1070
     1
1070
     1
1002
{
1002
}
1000
DIMTP
1070
     2
1040
0.1
1002
{
1002
}
1000
DIMTSZ
1070
     2
1040
0.0
1002
{
1002
}
1000
DIMTVP
1070
     2
1040
0.0
1002
{
1002
}
1000
DIMTXSTY
1070
     4
1000
STANDARD
1002
{
1002
}
1000
DIMTZIN
1070
     1
1070
     0
1002
{
1002
}
1000
DIMUNIT
1070
     1
1070
     2
1002
{
1002
}
1000
DIMUPT
1070
     1
1070
     0
1002
{
1002
}
1000
M
1070
     0
1002
{
1000
DIMALTF
1070
     2
1040
0.03937
1002
{
1002
}
1000
DIMAPOST
1070
     4
1000
"
1002
{
1002
}
1000
DIMASZ
1070
     2
1040
2.5
1002
{
1002
}
1000
DIMCEN
1070
     2
1040
0.0
1002
{
1002
}
1000
DIMDEC
1070
     1
1070
     2
1002
{
1002
}
1000
DIMDLI
1070
     2
1040
7.0
1002
{
1002
}
1000
DIMEXE
1070
     2
1040
1.0
1002
{
1002
}
1000
DIMEXO
1070
     2
1040
1.0
1002
{
1002
}
1000
DIMGAP
1070
     2
1040
0.6
1002
{
1002
}
1000
DIMTDEC
1070
     1
1070
     3
1002
{
1002
}
1000
DIMTXT
1070
     2
1040
3.5
1002
{
1002
}
1000
DIMZIN
1070
     1
1070
     8
1002
{
1002
}
1002
}
1000
I
1070
     0
1002
{
1000
DIMALTF
1070
     2
1040
25.4
1002
{
1002
}
1000
DIMAPOST
1070
     4
1000
mm
1002
{
1002
}
1000
DIMASZ
1070
     2
1040
0.1
1002
{
1002
}
1000
DIMCEN
1070
     2
1040
0.0
1002
{
1002
}
1000
DIMDEC
1070
     1
1070
     4
1002
{
1002
}
1000
DIMDLI
1070
     2
1040
0.5
1002
{
1002
}
1000
DIMEXE
1070
     2
1040
0.1
1002
{
1002
}
1000
DIMEXO
1070
     2
1040
0.05
1002
{
1002
}
1000
DIMGAP
1070
     2
1040
0.06
1002
{
1002
}
1000
DIMTDEC
1070
     1
1070
     4
1002
{
1002
}
1000
DIMTXT
1070
     2
1040
0.12
1002
{
1002
}
1000
DIMZIN
1070
     1
1070
     7
1002
{
1002
}
1002
}
1000
GEN-ISO
1070
     5
1002
{
1000
NAME
1070
     4
1000
GEN-ISO
1002
{
1002
}
1000
DIMTAD
1070
     1
1070
     1
1002
{
1002
}
1000
DIMTOLJ
1070
     1
1070
     0
1002
{
1002
}
1000
DIMTOFL
1070
     1
1070
     1
1002
{
1002
}
1000
M
1070
     0
1002
{
1002
}
1000
I
1070
     0
1002
{
1002
}
1002
}
1000
GEN-ISO-POS
1070
     5
1002
{
1000
NAME
1070
     4
1000
GEN-ISO-POS
1002
{
1002
}
1000
DIMTOLJ
1070
     1
1070
     0
1002
{
1002
}
1000
DIMTXSTY
1070
     4
1000
STANDARD
1002
{
1002
}
1000
M
1070
     0
1002
{
1000
DIMASZ
1070
     2
1040
2.5
1002
{
1002
}
1000
DIMGAP
1070
     2
1040
1.5
1002
{
1002
}
1000
DIMTXT
1070
     2
1040
5.0
1002
{
1002
}
1002
}
1000
I
1070
     0
1002
{
1000
DIMASZ
1070
     2
1040
0.1
1002
{
1002
}
1000
DIMGAP
1070
     2
1040
0.06
1002
{
1002
}
1000
DIMTXT
1070
     2
1040
0.2
1002
{
1002
}
1002
}
1002
}
1000
GEN-ISO-CIR
1070
     5
1002
{
1000
NAME
1070
     4
1000
GEN-ISO$3
1002
{
1002
}
1000
DIMFIT
1070
     1
1070
     0
1002
{
1002
}
1000
DIMTAD
1070
     1
1070
     1
1002
{
1002
}
1000
DIMTOH
1070
     1
1070
     1
1002
{
1002
}
1000
DIMTOLJ
1070
     1
1070
     0
1002
{
1002
}
1000
DIMUPT
1070
     1
1070
     1
1002
{
1002
}
1000
M
1070
     0
1002
{
1002
}
1000
I
1070
     0
1002
{
1002
}
1002
}
1000
GEN-ISO-RAD
1070
     5
1002
{
1000
NAME
1070
     4
1000
GEN-ISO$4
1002
{
1002
}
1000
DIMFIT
1070
     1
1070
     0
1002
{
1002
}
1000
DIMTAD
1070
     1
1070
     1
1002
{
1002
}
1000
DIMTIH
1070
     1
1070
     0
1002
{
1002
}
1000
DIMTIX
1070
     1
1070
     0
1002
{
1002
}
1000
DIMTOH
1070
     1
1070
     1
1002
{
1002
}
1000
DIMTOLJ
1070
     1
1070
     0
1002
{
1002
}
1000
DIMTOFL
1070
     1
1070
     0
1002
{
1002
}
1000
DIMUPT
1070
     1
1070
     1
1002
{
1002
}
1000
M
1070
     0
1002
{
1002
}
1000
I
1070
     0
1002
{
1002
}
1002
}
1000
GEN-ISO-ORD
1070
     5
1002
{
1000
NAME
1070
     4
1000
GEN-ISO$6
1002
{
1002
}
1000
DIMTOLJ
1070
     1
1070
     0
1002
{
1002
}
1000
M
1070
     0
1002
{
1002
}
1000
I
1070
     0
1002
{
1002
}
1002
}
1000
GEN-ISO-AXE-F
1070
     5
1002
{
1000
NAME
1070
     4
1000
GEN-ISO-AXE-F
1002
{
1002
}
1000
DIMSE1
1070
     1
1070
     1
1002
{
1002
}
1000
DIMSE2
1070
     1
1070
     1
1002
{
1002
}
1000
DIMTAD
1070
     1
1070
     1
1002
{
1002
}
1000
DIMTOLJ
1070
     1
1070
     0
1002
{
1002
}
1000
DIMTOFL
1070
     1
1070
     1
1002
{
1002
}
1000
M
1070
     0
1002
{
1002
}
1000
I
1070
     0
1002
{
1002
}
1002
}
1000
GEN-ISO-AXE-H
1070
     5
1002
{
1000
NAME
1070
     4
1000
GEN-ISO-AXE-H
1002
{
1002
}
1000
DIMBLK1
1070
     4
1000
GENAXEH
1002
{
1002
}
1000
DIMLFAC
1070
     2
1040
2.0
1002
{
1002
}
1000
DIMSAH
1070
     1
1070
     1
1002
{
1002
}
1000
DIMSE1
1070
     1
1070
     1
1002
{
1002
}
1000
DIMSE2
1070
     1
1070
     1
1002
{
1002
}
1000
DIMTAD
1070
     1
1070
     1
1002
{
1002
}
1000
DIMTOLJ
1070
     1
1070
     0
1002
{
1002
}
1000
DIMTOFL
1070
     1
1070
     1
1002
{
1002
}
1000
M
1070
     0
1002
{
1002
}
1000
I
1070
     0
1002
{
1002
}
1002
}
1000
GEN-ANSI
1070
     5
1002
{
1000
NAME
1070
     4
1000
GEN-ANSI
1002
{
1002
}
1000
DIMTIH
1070
     1
1070
     1
1002
{
1002
}
1000
DIMTOH
1070
     1
1070
     1
1002
{
1002
}
1000
DIMTAD
1070
     1
1070
     0
1002
{
1002
}
1000
DIMTOLJ
1070
     1
1070
     1
1002
{
1002
}
1000
M
1070
     0
1002
{
1002
}
1000
I
1070
     0
1002
{
1002
}
1002
}
1000
GEN-ANSI-POS
1070
     5
1002
{
1000
NAME
1070
     4
1000
GEN-ANSI-POS
1002
{
1002
}
1000
DIMTOLJ
1070
     1
1070
     1
1002
{
1002
}
1000
DIMTXSTY
1070
     4
1000
STANDARD
1002
{
1002
}
1000
M
1070
     0
1002
{
1000
DIMASZ
1070
     2
1040
2.5
1002
{
1002
}
1000
DIMGAP
1070
     2
1040
1.5
1002
{
1002
}
1000
DIMTXT
1070
     2
1040
5.0
1002
{
1002
}
1002
}
1000
I
1070
     0
1002
{
1000
DIMASZ
1070
     2
1040
0.1
1002
{
1002
}
1000
DIMGAP
1070
     2
1040
0.06
1002
{
1002
}
1000
DIMTXT
1070
     2
1040
0.2
1002
{
1002
}
1002
}
1002
}
1000
GEN-ANSI-CIR
1070
     5
1002
{
1000
NAME
1070
     4
1000
GEN-ANSI$3
1002
{
1002
}
1000
DIMFIT
1070
     1
1070
     0
1002
{
1002
}
1000
DIMTAD
1070
     1
1070
     0
1002
{
1002
}
1000
DIMTIH
1070
     1
1070
     1
1002
{
1002
}
1000
DIMTIX
1070
     1
1070
     0
1002
{
1002
}
1000
DIMTOFL
1070
     1
1070
     0
1002
{
1002
}
1000
DIMTOH
1070
     1
1070
     1
1002
{
1002
}
1000
DIMTOLJ
1070
     1
1070
     1
1002
{
1002
}
1000
DIMUPT
1070
     1
1070
     1
1002
{
1002
}
1000
M
1070
     0
1002
{
1002
}
1000
I
1070
     0
1002
{
1002
}
1002
}
1000
GEN-ANSI-RAD
1070
     5
1002
{
1000
NAME
1070
     4
1000
GEN-ANSI$4
1002
{
1002
}
1000
DIMFIT
1070
     1
1070
     0
1002
{
1002
}
1000
DIMTAD
1070
     1
1070
     0
1002
{
1002
}
1000
DIMTIH
1070
     1
1070
     1
1002
{
1002
}
1000
DIMTIX
1070
     1
1070
     0
1002
{
1002
}
1000
DIMTOFL
1070
     1
1070
     0
1002
{
1002
}
1000
DIMTOH
1070
     1
1070
     1
1002
{
1002
}
1000
DIMTOLJ
1070
     1
1070
     1
1002
{
1002
}
1000
DIMUPT
1070
     1
1070
     1
1002
{
1002
}
1000
M
1070
     0
1002
{
1002
}
1000
I
1070
     0
1002
{
1002
}
1002
}
1000
GEN-ANSI-ORD
1070
     5
1002
{
1000
NAME
1070
     4
1000
GEN-ANSI$6
1002
{
1002
}
1000
DIMTAD
1070
     1
1070
     0
1002
{
1002
}
1000
DIMTIH
1070
     1
1070
     1
1002
{
1002
}
1000
DIMTOH
1070
     1
1070
     1
1002
{
1002
}
1000
DIMTOLJ
1070
     1
1070
     1
1002
{
1002
}
1000
M
1070
     0
1002
{
1002
}
1000
I
1070
     0
1002
{
1002
}
1002
}
1000
GEN-ANSI-AXE-F
1070
     5
1002
{
1000
NAME
1070
     4
1000
GEN-ANSI-AXE-F
1002
{
1002
}
1000
DIMBLK1
1070
     4
1000
GENAXEH
1002
{
1002
}
1000
DIMSAH
1070
     1
1070
     1
1002
{
1002
}
1000
DIMSE1
1070
     1
1070
     1
1002
{
1002
}
1000
DIMSE2
1070
     1
1070
     1
1002
{
1002
}
1000
DIMTAD
1070
     1
1070
     0
1002
{
1002
}
1000
DIMTIH
1070
     1
1070
     1
1002
{
1002
}
1000
DIMTOH
1070
     1
1070
     1
1002
{
1002
}
1000
DIMTOLJ
1070
     1
1070
     1
1002
{
1002
}
1000
M
1070
     0
1002
{
1002
}
1000
I
1070
     0
1002
{
1002
}
1002
}
1000
GEN-ANSI-AXE-H
1070
     5
1002
{
1000
NAME
1070
     4
1000
GEN-ANSI-AXE-H
1002
{
1002
}
1000
DIMBLK1
1070
     4
1000
GENAXEH
1002
{
1002
}
1000
DIMLFAC
1070
     2
1040
2.0
1002
{
1002
}
1000
DIMSAH
1070
     1
1070
     1
1002
{
1002
}
1000
DIMSE1
1070
     1
1070
     1
1002
{
1002
}
1000
DIMSE2
1070
     1
1070
     1
1002
{
1002
}
1000
DIMTAD
1070
     1
1070
     0
1002
{
1002
}
1000
DIMTOFL
1070
     1
1070
     1
1002
{
1002
}
1000
DIMTOLJ
1070
     1
1070
     1
1002
{
1002
}
1000
M
1070
     0
1002
{
1002
}
1000
I
1070
     0
1002
{
1002
}
1002
}
1002
}
1000
DimSet
1070
     0
1002
{
1000
ChainSum
1070
     3
1070
     0
1002
{
1002
}
1000
DimDclTyp0
1070
     4
1000
dim23
1002
{
1002
}
1000
HorBra
1070
     3
1070
     0
1002
{
1002
}
1000
StrDia
1070
     4
1000
%%c<>
1002
{
1002
}
1000
StrRad
1070
     4
1000
R<>
1002
{
1002
}
1000
TextMinus
1070
     4
1000
<>
1002
{
1002
}
1000
TextPlus
1070
     4
1000
<>
1002
{
1002
}
1000
M
1070
     0
1002
{
1000
DimdliFirst
1070
     2
1040
10.0
1002
{
1002
}
1000
PointMakeDist
1070
     2
1040
10.0
1002
{
1002
}
1002
}
1000
I
1070
     0
1002
{
1000
DimdliFirst
1070
     2
1040
0.5
1002
{
1002
}
1000
PointMakeDist
1070
     2
1040
0.5
1002
{
1002
}
1002
}
1000
FitGrade
1070
     4
1000
h7
1002
{
1002
}
1002
}
1000
Drawing
1070
     0
1002
{
1000
ChamferDimMode
1070
     1
1070
     2
1002
{
1002
}
1000
Gen_Fiso
1070
    -3
1040
1.0
1002
{
1002
}
1000
GenDimStil
1070
     4
1000
ISO
1002
{
1002
}
1000
GenDwgUScale
1070
     2
1040
1.0
1002
{
1002
}
1000
GenInch
1070
     4
1000
M
1002
{
1002
}
1000
GenPlotScale
1070
     4
1000
1:5
1002
{
1002
}
1000
Revisi
1070
     4
1000
0
1002
{
1002
}
1000
Version
1070
    -5
1000
14.01/Apr  1 1998
1002
{
1002
}
1000
Platform
1070
    -5
1000
WINNT
1002
{
1002
}
1002
}
1000
DwgVar
1070
     0
1002
{
1000
M
1070
     0
1002
{
1002
}
1000
I
1070
     0
1002
{
1002
}
1002
}
1000
Hatch
1070
     0
1002
{
1000
GenHtcFlag
1070
     3
1070
     0
1002
{
1002
}
1002
}
1000
Info_Pos
1070
     0
1002
{
1000
>
1002
}
1000
Layer
1070
     6
1002
{
1000
Defs
1070
     0
1002
{
1000
>
1002
}
1000
EntSort
1070
     0
1002
{
1000
>
1002
}
1000
Match
1070
     0
1002
{
1002
}
1000
Settings
1070
     0
1002
{
1000
FocGrNC
1070
     3
1070
     0
1002
{
1002
}
1000
FocGrLo
1070
     3
1070
     0
1002
{
1002
}
1000
FocLoNC
1070
     3
1070
     0
1002
{
1002
}
1000
FocusCol
1070
     1
1070
   253
1002
{
1002
}
1000
GenStdLG
1070
     4
1000

1002
{
1002
}
1000
LayMatch
1070
     3
1070
     0
1002
{
1002
}
1000
LgOff
1070
     3
1070
     0
1002
{
1002
}
1000
CurLG
1070
    -5
1000

1002
{
1002
}
1002
}
1002
}
1000
LType
1070
     0
1002
{
1000
GEN3
1070
     7
1000
genius.lin
1002
{
1002
}
1000
GEN7
1070
     7
1000
genius.lin
1002
{
1002
}
1000
GEN4A
1070
     7
1000
genius.lin
1002
{
1002
}
1000
GEN3A
1070
     7
1000
genius.lin
1002
{
1002
}
1000
GEN7A
1070
     7
1000
genius.lin
1002
{
1002
}
1000
GENZIGZAG
1070
     7
1000
genius.lin
1002
{
1002
}
1002
}
1000
Objecter
1070
     0
1002
{
1000
CreateGroups
1070
     3
1070
     0
1002
{
1002
}
1000
LaySwitch
1070
     3
1070
     1
1002
{
1002
}
1000
LastObj
1070
    -5
1000
135D
1002
{
1002
}
1000
TimeStamp
1070
    -5
1000
20020531.14424780
1002
{
1002
}
1002
}
1000
OSWiz
1070
     0
1002
{
1000
Filter
1070
     0
1002
{
1000
HATCH
1070
     8
1002
{
1000
EntityType
1070
     4
1000
LINE
1002
{
1002
}
1000
Layer
1070
     4
1000
8,8N,*-8,*-8N
1002
{
1002
}
1000
Linetype
1070
     4
1000
*
1002
{
1002
}
1000
Color
1070
     4
1000
*
1002
{
1002
}
1000
ApplyInDims
1070
     3
1070
     1
1002
{
1002
}
1002
}
1000
SYMBOLS
1070
     8
1002
{
1000
EntityType
1070
     4
1000
*
1002
{
1002
}
1000
Layer
1070
     4
1000
[5-6],[5-6]N,*-[5-6],*-[5-6]N
1002
{
1002
}
1000
Linetype
1070
     4
1000
*
1002
{
1002
}
1000
Color
1070
     4
1000
*
1002
{
1002
}
1000
ApplyInDims
1070
     3
1070
     1
1002
{
1002
}
1002
}
1000
FEM
1070
     8
1002
{
1000
EntityType
1070
     4
1000
*
1002
{
1002
}
1000
Layer
1070
     4
1000
4A,4AN,*-4A,*-4AN
1002
{
1002
}
1000
Linetype
1070
     4
1000
*
1002
{
1002
}
1000
Color
1070
     4
1000
*
1002
{
1002
}
1000
ApplyInDims
1070
     3
1070
     1
1002
{
1002
}
1002
}
1002
}
1002
}
1000
PaList
1070
     0
1002
{
1000
AutoUpdatePartList
1070
     1
1070
     0
1002
{
1002
}
1000
ReadInfoPoint
1070
     3
1070
     0
1002
{
1002
}
1000
ReadPosNr
1070
     3
1070
     1
1002
{
1002
}
1000
RevStr
1070
     4
1000
0
1002
{
1002
}
1002
}
1000
Paper
1070
     0
1002
{
1002
}
1000
PartDB
1070
     0
1002
{
1000
GenDbOwner
1070
     4
1000

1002
{
1002
}
1002
}
1000
System
1070
     0
1002
{
1000
Menu
1070
     4
1000
GEV
1002
{
1002
}
1002
}
1000
Title
1070
     0
1002
{
1000
MakeView
1070
     1
1070
     2
1002
{
1002
}
1002
}
1000
Tools
1070
     0
1002
{
1000
Trans
1070
     0
1002
{
1000
Drawingtranslation
1070
    -4
1070
     1
1002
{
1002
}
1000
upreserve
1070
     3
1070
     0
1002
{
1002
}
1000
originally_on
1070
    -4
1070
     0
1002
{
1002
}
1000
sourcelang
1070
    -5
1000
D
1002
{
1002
}
1002
}
1002
}
  0
APPID
  5
132B
330
12BF
100
AcDbSymbolTableRecord
100
AcDbRegAppTableRecord
  2
GENIUS_GEVCFG0_13
 70
     0
1001
GENIUS_GENCFG_13
1071
1022848972
1000
132B
1000
GEV
1070
     1
1000
GenCfgObject
1000
VED
1070
     0
1002
{
1002
}
  0
APPID
  5
132C
330
12BF
100
AcDbSymbolTableRecord
100
AcDbRegAppTableRecord
  2
GEV_VCCNULL_SWITCH_OFF
 70
     0
  0
APPID
  5
132D
330
12BF
100
AcDbSymbolTableRecord
100
AcDbRegAppTableRecord
  2
GENIUS_GENDTOL_13
 70
     0
  0
APPID
  5
132E
330
12BF
100
AcDbSymbolTableRecord
100
AcDbRegAppTableRecord
  2
GENIUS_GENOENT_13
 70
     0
  0
APPID
  5
132F
330
12BF
100
AcDbSymbolTableRecord
100
AcDbRegAppTableRecord
  2
GENIUS_GENBLLY_14
 70
     0
  0
APPID
  5
1330
330
12BF
100
AcDbSymbolTableRecord
100
AcDbRegAppTableRecord
  2
GENIUS_GENODEF_13
 70
     0
  0
APPID
  5
1331
330
12BF
100
AcDbSymbolTableRecord
100
AcDbRegAppTableRecord
  2
GENIUS_GENOBJ-N-CRS_13
 70
     0
  0
APPID
  5
1332
330
12BF
100
AcDbSymbolTableRecord
100
AcDbRegAppTableRecord
  2
GENIUS_GENOREF_13
 70
     0
  0
APPID
  5
1333
330
12BF
100
AcDbSymbolTableRecord
100
AcDbRegAppTableRecord
  2
GENIUS_GENOLIS_13
 70
     0
  0
APPID
  5
1334
330
12BF
100
AcDbSymbolTableRecord
100
AcDbRegAppTableRecord
  2
GENIUS_GEFCFG0_13
 70
     0
  0
APPID
  5
1335
330
12BF
100
AcDbSymbolTableRecord
100
AcDbRegAppTableRecord
  2
GENIUS_VERSION2
 70
     0
  0
APPID
  5
1336
330
12BF
100
AcDbSymbolTableRecord
100
AcDbRegAppTableRecord
  2
GENIUS_GENREC_14
 70
     0
  0
APPID
  5
1337
330
12BF
100
AcDbSymbolTableRecord
100
AcDbRegAppTableRecord
  2
GENIUS_GENOBJ-N-REC_13
 70
     0
  0
APPID
  5
1338
330
12BF
100
AcDbSymbolTableRecord
100
AcDbRegAppTableRecord
  2
GENIUS_GENOBJ-N-TIT_13
 70
     0
  0
APPID
  5
1339
330
12BF
100
AcDbSymbolTableRecord
100
AcDbRegAppTableRecord
  2
GENIUS_GENTITLE_13
 70
     0
  0
APPID
  5
133A
330
12BF
100
AcDbSymbolTableRecord
100
AcDbRegAppTableRecord
  2
GENIUS_GENZVEED_13
 70
     0
  0
APPID
  5
133B
330
12BF
100
AcDbSymbolTableRecord
100
AcDbRegAppTableRecord
  2
GENIUS_GENOBJ-N-SDF_13
 70
     0
  0
APPID
  5
133C
330
12BF
100
AcDbSymbolTableRecord
100
AcDbRegAppTableRecord
  2
GENIUS_GENSCREG_13
 70
     0
  0
APPID
  5
133D
330
12BF
100
AcDbSymbolTableRecord
100
AcDbRegAppTableRecord
  2
GENIUS_GENBLKED_14
 70
     0
  0
APPID
  5
145F
330
12BF
100
AcDbSymbolTableRecord
100
AcDbRegAppTableRecord
  2
MCAD_NO_VIS
 70
     0
  0
APPID
  5
1460
330
12BF
100
AcDbSymbolTableRecord
100
AcDbRegAppTableRecord
  2
ACAD_TEMP_GRAPHIC
 70
     0
  0
APPID
  5
1490
330
12BF
100
AcDbSymbolTableRecord
100
AcDbRegAppTableRecord
  2
AD_DRAW
 70
     0
  0
APPID
  5
1493
330
12BF
100
AcDbSymbolTableRecord
100
AcDbRegAppTableRecord
  2
ACATTRIBSERVICES
 70
     0
  0
APPID
  5
14B3
330
12BF
100
AcDbSymbolTableRecord
100
AcDbRegAppTableRecord
  2
DESIGNERASSEMBLIES
 70
     0
  0
APPID
  5
14B9
330
12BF
100
AcDbSymbolTableRecord
100
AcDbRegAppTableRecord
  2
ACADM_DIM_EDIT
 70
     0
  0
APPID
  5
14BA
330
12BF
100
AcDbSymbolTableRecord
100
AcDbRegAppTableRecord
  2
AMDT_DM_ADJ
 70
     0
  0
APPID
  5
14EC
330
12BF
100
AcDbSymbolTableRecord
100
AcDbRegAppTableRecord
  2
ACAD_DSTYLE_DIMARC_LENGTH_SYMBOL
 70
     0
  0
APPID
  5
14ED
330
12BF
100
AcDbSymbolTableRecord
100
AcDbRegAppTableRecord
  2
ACAD_DSTYLE_DIMJOGGED_JOGANGLE_SYMBOL
 70
     0
  0
ENDTAB
  0
TABLE
  2
DIMSTYLE
  5
12C0
330
0
100
AcDbSymbolTable
 70
    10
100
AcDbDimStyleTable
 71
     1
340
12E6
  0
DIMSTYLE
105
12E6
102
{ACAD_REACTORS
330
1104
330
127C
330
1167
330
115D
330
1271
102
}
330
12C0
100
AcDbSymbolTableRecord
100
AcDbDimStyleTableRecord
  2
GEN-ISO
 70
     0
  4
"
 40
5.0
 41
2.5
 42
1.0
 43
7.0
 44
1.0
 47
0.1
 48
0.1
 73
     0
 74
     0
 77
     1
 78
     8
140
3.5
141
0.0
143
0.03937
146
0.71
147
0.6
172
     1
176
   256
177
   256
178
     2
271
     2
272
     3
274
     4
283
     0
340
12C5
  0
DIMSTYLE
105
14EB
330
12C0
100
AcDbSymbolTableRecord
100
AcDbDimStyleTableRecord
  2
AM_DIN
 70
     0
  4
"
 41
2.5
 42
1.0
 43
10.0
 44
1.0
 47
0.1
 48
0.1
 73
     0
 74
     0
 77
     1
 78
     8
 79
     2
140
3.5
141
0.0
143
0.0393701
146
0.71
147
1.5
172
     1
176
   256
177
   256
178
     2
271
     2
272
     3
274
     4
283
     0
284
     8
340
12C5
371
    -1
372
    -1
1001
ACAD_DSTYLE_DIMARC_LENGTH_SYMBOL
1070
   379
1070
     0
1001
ACAD_DSTYLE_DIMJOGGED_JOGANGLE_SYMBOL
1070
   384
1040
1.570796326794896
  0
DIMSTYLE
105
14FC
330
12C0
100
AcDbSymbolTableRecord
100
AcDbDimStyleTableRecord
  2
AM_DIN$3
 70
     0
  4
"
 41
2.5
 42
1.0
 43
10.0
 44
1.0
 47
0.1
 48
0.1
 73
     0
 77
     1
 78
     8
 79
     2
140
3.5
141
0.0
143
0.0393701
146
0.71
147
1.5
176
   256
177
   256
178
     2
271
     2
272
     3
274
     4
283
     0
284
     8
288
     1
289
     0
340
12C5
371
    -1
372
    -1
1001
ACAD_DSTYLE_DIMARC_LENGTH_SYMBOL
1070
   379
1070
     0
1001
ACAD_DSTYLE_DIMJOGGED_JOGANGLE_SYMBOL
1070
   384
1040
1.570796326794896
  0
DIMSTYLE
105
1501
330
12C0
100
AcDbSymbolTableRecord
100
AcDbDimStyleTableRecord
  2
AM_DIN$4
 70
     0
  4
"
 41
2.5
 42
1.0
 43
10.0
 44
1.0
 47
0.1
 48
0.1
 73
     0
 77
     1
 78
     8
 79
     2
140
3.5
141
0.0
143
0.0393701
146
0.71
147
1.5
176
   256
177
   256
178
     2
271
     2
272
     3
274
     4
283
     0
284
     8
288
     1
289
     0
340
12C5
371
    -1
372
    -1
1001
ACAD_DSTYLE_DIMARC_LENGTH_SYMBOL
1070
   379
1070
     0
1001
ACAD_DSTYLE_DIMJOGGED_JOGANGLE_SYMBOL
1070
   384
1040
1.570796326794896
  0
DIMSTYLE
105
1506
330
12C0
100
AcDbSymbolTableRecord
100
AcDbDimStyleTableRecord
  2
AM_DIN$6
 70
     0
  4
"
 41
2.5
 42
1.0
 43
10.0
 44
1.0
 47
0.1
 48
0.1
 73
     0
 74
     0
 78
     8
 79
     2
140
3.5
141
0.0
143
0.0393701
146
0.71
147
1.5
172
     1
176
   256
177
   256
178
     2
271
     2
272
     3
274
     4
283
     0
284
     8
340
12C5
371
    -1
372
    -1
1001
ACAD_DSTYLE_DIMARC_LENGTH_SYMBOL
1070
   379
1070
     0
1001
ACAD_DSTYLE_DIMJOGGED_JOGANGLE_SYMBOL
1070
   384
1040
1.570796326794896
  0
DIMSTYLE
105
150B
330
12C0
100
AcDbSymbolTableRecord
100
AcDbDimStyleTableRecord
  2
AM_DIN$7
 70
     0
  4
"
 41
2.5
 42
1.0
 43
10.0
 44
1.0
 47
0.1
 48
0.1
 73
     0
 74
     0
 77
     1
 78
     8
 79
     2
140
5.0
141
0.0
143
0.0393701
146
0.71
147
1.5
172
     1
176
   256
177
   256
178
     2
271
     2
272
     3
274
     4
283
     0
284
     8
340
12C5
371
    -1
372
    -1
1001
ACAD_DSTYLE_DIMARC_LENGTH_SYMBOL
1070
   379
1070
     0
1001
ACAD_DSTYLE_DIMJOGGED_JOGANGLE_SYMBOL
1070
   384
1040
1.570796326794896
  0
DIMSTYLE
105
1510
330
12C0
100
AcDbSymbolTableRecord
100
AcDbDimStyleTableRecord
  2
AM_DIN$SF
 70
     0
  4
"
 41
2.5
 42
1.0
 43
10.0
 44
1.0
 47
0.1
 48
0.1
 73
     0
 74
     0
 75
     1
 76
     1
 77
     1
 78
     8
 79
     2
140
3.5
141
0.0
143
0.0393701
146
0.71
147
1.5
172
     1
176
   256
177
   256
178
     2
271
     2
272
     3
274
     4
283
     0
284
     8
340
12C5
371
    -1
372
    -1
1001
ACAD_DSTYLE_DIMARC_LENGTH_SYMBOL
1070
   379
1070
     0
1001
ACAD_DSTYLE_DIMJOGGED_JOGANGLE_SYMBOL
1070
   384
1040
1.570796326794896
  0
DIMSTYLE
105
1519
330
12C0
100
AcDbSymbolTableRecord
100
AcDbDimStyleTableRecord
  2
AM_DIN$SH
 70
     0
  4
"
 41
2.5
 42
1.0
 43
10.0
 44
1.0
 47
0.1
 48
0.1
 73
     0
 74
     0
 75
     1
 76
     1
 77
     1
 78
     8
 79
     2
140
3.5
141
0.0
143
0.0393701
144
2.0
146
0.71
147
1.5
172
     1
173
     1
176
   256
177
   256
178
     2
271
     2
272
     3
274
     4
283
     0
284
     8
340
12C5
343
1511
371
    -1
372
    -1
1001
ACAD_DSTYLE_DIMARC_LENGTH_SYMBOL
1070
   379
1070
     0
1001
ACAD_DSTYLE_DIMJOGGED_JOGANGLE_SYMBOL
1070
   384
1040
1.570796326794896
  0
ENDTAB
  0
TABLE
  2
BLOCK_RECORD
  5
12B7
330
0
100
AcDbSymbolTable
 70
    19
  0
BLOCK_RECORD
  5
12CE
330
12B7
100
AcDbSymbolTableRecord
100
AcDbBlockTableRecord
  2
*MODEL_SPACE
340
1457
  0
BLOCK_RECORD
  5
12CB
330
12B7
100
AcDbSymbolTableRecord
100
AcDbBlockTableRecord
  2
*PAPER_SPACE
340
1458
  0
BLOCK_RECORD
  5
12E9
330
12B7
100
AcDbSymbolTableRecord
100
AcDbBlockTableRecord
  2
*X0
340
0
102
{BLKREFS
331
1119
102
}
  0
BLOCK_RECORD
  5
12EA
330
12B7
100
AcDbSymbolTableRecord
100
AcDbBlockTableRecord
  2
*X1
340
0
102
{BLKREFS
331
1131
102
}
  0
BLOCK_RECORD
  5
12EB
330
12B7
100
AcDbSymbolTableRecord
100
AcDbBlockTableRecord
  2
*X2
340
0
102
{BLKREFS
331
1153
102
}
  0
BLOCK_RECORD
  5
12EE
330
12B7
100
AcDbSymbolTableRecord
100
AcDbBlockTableRecord
  2
*X3
340
0
102
{BLKREFS
331
1208
102
}
  0
BLOCK_RECORD
  5
12EF
330
12B7
100
AcDbSymbolTableRecord
100
AcDbBlockTableRecord
  2
*X4
340
0
102
{BLKREFS
331
1267
102
}
  0
BLOCK_RECORD
  5
12FB
330
12B7
100
AcDbSymbolTableRecord
100
AcDbBlockTableRecord
  2
KATALOG_LEER
340
0
102
{BLKREFS
331
133F
331
135C
102
}
  0
BLOCK_RECORD
  5
135E
330
12B7
100
AcDbSymbolTableRecord
100
AcDbBlockTableRecord
  2
*D7
340
0
  0
BLOCK_RECORD
  5
13A0
330
12B7
100
AcDbSymbolTableRecord
100
AcDbBlockTableRecord
  2
*D10
340
0
  0
BLOCK_RECORD
  5
13B7
330
12B7
100
AcDbSymbolTableRecord
100
AcDbBlockTableRecord
  2
*D11
340
0
  0
BLOCK_RECORD
  5
13CE
330
12B7
100
AcDbSymbolTableRecord
100
AcDbBlockTableRecord
  2
*D12
340
0
  0
BLOCK_RECORD
  5
13E5
330
12B7
100
AcDbSymbolTableRecord
100
AcDbBlockTableRecord
  2
*D13
340
0
  0
BLOCK_RECORD
  5
1511
330
12B7
100
AcDbSymbolTableRecord
100
AcDbBlockTableRecord
  2
GENAXEH
340
0
  0
ENDTAB
  0
ENDSEC
  0
SECTION
  2
BLOCKS
  0
BLOCK
  5
12CF
330
12CE
100
AcDbEntity
  8
0
100
AcDbBlockBegin
  2
*MODEL_SPACE
 70
     0
 10
0.0
 20
0.0
 30
0.0
  3
*MODEL_SPACE
  1

  0
ENDBLK
  5
12D0
330
12CE
100
AcDbEntity
  8
0
100
AcDbBlockEnd
  0
BLOCK
  5
12CC
330
12CB
100
AcDbEntity
 67
     1
  8
0
100
AcDbBlockBegin
  2
*PAPER_SPACE
 70
     0
 10
0.0
 20
0.0
 30
0.0
  3
*PAPER_SPACE
  1

  0
ENDBLK
  5
12CD
330
12CB
100
AcDbEntity
 67
     1
  8
0
100
AcDbBlockEnd
  0
BLOCK
  5
1115
330
12E9
100
AcDbEntity
  8
0
100
AcDbBlockBegin
  2
*X0
 70
     1
 10
0.0
 20
0.0
 30
0.0
  3
*X0
  1

  0
LINE
  5
1116
330
12E9
100
AcDbEntity
  8
8
100
AcDbLine
 10
260.335
 20
379.919
 30
0.0
 11
269.05
 21
371.204
 31
0.0
  0
LINE
  5
1117
330
12E9
100
AcDbEntity
  8
8
100
AcDbLine
 10
269.812
 20
379.422
 30
0.0
 11
270.192
 21
379.042
 31
0.0
  0
ENDBLK
  5
1118
330
12E9
100
AcDbEntity
  8
0
100
AcDbBlockEnd
  0
BLOCK
  5
112D
330
12EA
100
AcDbEntity
  8
0
100
AcDbBlockBegin
  2
*X1
 70
     1
 10
0.0
 20
0.0
 30
0.0
  3
*X1
  1

  0
LINE
  5
112E
330
12EA
100
AcDbEntity
  8
8
100
AcDbLine
 10
220.355
 20
383.977
 30
0.0
 11
230.498
 21
373.835
 31
0.0
  0
LINE
  5
112F
330
12EA
100
AcDbEntity
  8
8
100
AcDbLine
 10
229.832
 20
383.481
 30
0.0
 11
239.766
 21
373.547
 31
0.0
  0
ENDBLK
  5
1130
330
12EA
100
AcDbEntity
  8
0
100
AcDbBlockEnd
  0
BLOCK
  5
1149
330
12EB
100
AcDbEntity
  8
0
100
AcDbBlockBegin
  2
*X2
 70
     1
 10
0.0
 20
0.0
 30
0.0
  3
*X2
  1

  0
LINE
  5
114A
330
12EB
100
AcDbEntity
  8
8
100
AcDbLine
 10
476.37
 20
379.41
 30
0.0
 11
484.679
 21
371.101
 31
0.0
  0
LINE
  5
114B
330
12EB
100
AcDbEntity
  8
8
100
AcDbLine
 10
484.9029999999999
 20
379.857
 30
0.0
 11
492.9369999999999
 21
371.824
 31
0.0
  0
LINE
  5
114C
330
12EB
100
AcDbEntity
  8
8
100
AcDbLine
 10
493.763
 20
379.978
 30
0.0
 11
501.194
 21
372.546
 31
0.0
  0
LINE
  5
114D
330
12EB
100
AcDbEntity
  8
8
100
AcDbLine
 10
502.743
 20
379.978
 30
0.0
 11
509.452
 21
373.268
 31
0.0
  0
LINE
  5
114E
330
12EB
100
AcDbEntity
  8
8
100
AcDbLine
 10
510.8309999999999
 20
380.87
 30
0.0
 11
517.71
 21
373.991
 31
0.0
  0
LINE
  5
114F
330
12EB
100
AcDbEntity
  8
8
100
AcDbLine
 10
517.1699999999999
 20
383.511
 30
0.0
 11
524.5980000000001
 21
376.083
 31
0.0
  0
LINE
  5
1150
330
12EB
100
AcDbEntity
  8
8
100
AcDbLine
 10
525.7029999999999
 20
383.958
 30
0.0
 11
531.1819999999999
 21
378.479
 31
0.0
  0
LINE
  5
1151
330
12EB
100
AcDbEntity
  8
8
100
AcDbLine
 10
534.243
 20
384.399
 30
0.0
 11
536.21
 21
382.431
 31
0.0
  0
ENDBLK
  5
1152
330
12EB
100
AcDbEntity
  8
0
100
AcDbBlockEnd
  0
BLOCK
  5
11BA
330
12EE
100
AcDbEntity
  8
0
100
AcDbBlockBegin
  2
*X3
 70
     1
 10
0.0
 20
0.0
 30
0.0
  3
*X3
  1

  0
LINE
  5
11BB
330
12EE
100
AcDbEntity
  8
8
100
AcDbLine
 10
673.7489999999999
 20
211.195
 30
0.0
 11
680.0229999999999
 21
217.469
 31
0.0
  0
LINE
  5
11BC
330
12EE
100
AcDbEntity
  8
8
100
AcDbLine
 10
665.216
 20
211.642
 30
0.0
 11
672.3519999999999
 21
218.779
 31
0.0
  0
LINE
  5
11BD
330
12EE
100
AcDbEntity
  8
8
100
AcDbLine
 10
656.683
 20
212.09
 30
0.0
 11
663.5449999999999
 21
218.953
 31
0.0
  0
LINE
  5
11BE
330
12EE
100
AcDbEntity
  8
8
100
AcDbLine
 10
648.1489999999999
 20
212.537
 30
0.0
 11
653.859
 21
218.246
 31
0.0
  0
LINE
  5
11BF
330
12EE
100
AcDbEntity
  8
8
100
AcDbLine
 10
639.616
 20
212.984
 30
0.0
 11
645.326
 21
218.693
 31
0.0
  0
LINE
  5
11C0
330
12EE
100
AcDbEntity
  8
8
100
AcDbLine
 10
631.0830000000001
 20
213.431
 30
0.0
 11
636.7919999999998
 21
219.14
 31
0.0
  0
LINE
  5
11C1
330
12EE
100
AcDbEntity
  8
8
100
AcDbLine
 10
622.5499999999999
 20
213.878
 30
0.0
 11
628.2589999999999
 21
219.587
 31
0.0
  0
LINE
  5
11C2
330
12EE
100
AcDbEntity
  8
8
100
AcDbLine
 10
614.0169999999999
 20
214.326
 30
0.0
 11
619.7259999999999
 21
220.035
 31
0.0
  0
LINE
  5
11C3
330
12EE
100
AcDbEntity
  8
8
100
AcDbLine
 10
605.484
 20
214.773
 30
0.0
 11
611.193
 21
220.482
 31
0.0
  0
LINE
  5
11C4
330
12EE
100
AcDbEntity
  8
8
100
AcDbLine
 10
596.951
 20
215.22
 30
0.0
 11
602.66
 21
220.929
 31
0.0
  0
LINE
  5
11C5
330
12EE
100
AcDbEntity
  8
8
100
AcDbLine
 10
588.4179999999999
 20
215.667
 30
0.0
 11
594.1269999999999
 21
221.376
 31
0.0
  0
LINE
  5
11C6
330
12EE
100
AcDbEntity
  8
8
100
AcDbLine
 10
579.8849999999999
 20
216.114
 30
0.0
 11
585.594
 21
221.823
 31
0.0
  0
LINE
  5
11C7
330
12EE
100
AcDbEntity
  8
8
100
AcDbLine
 10
571.3519999999999
 20
216.562
 30
0.0
 11
577.061
 21
222.271
 31
0.0
  0
LINE
  5
11C8
330
12EE
100
AcDbEntity
  8
8
100
AcDbLine
 10
562.819
 20
217.009
 30
0.0
 11
568.528
 21
222.718
 31
0.0
  0
LINE
  5
11C9
330
12EE
100
AcDbEntity
  8
8
100
AcDbLine
 10
554.2859999999999
 20
217.456
 30
0.0
 11
559.9949999999999
 21
223.165
 31
0.0
  0
LINE
  5
11CA
330
12EE
100
AcDbEntity
  8
8
100
AcDbLine
 10
545.753
 20
217.903
 30
0.0
 11
551.4619999999999
 21
223.612
 31
0.0
  0
LINE
  5
11CB
330
12EE
100
AcDbEntity
  8
8
100
AcDbLine
 10
537.22
 20
218.35
 30
0.0
 11
542.9289999999999
 21
224.059
 31
0.0
  0
LINE
  5
11CC
330
12EE
100
AcDbEntity
  8
8
100
AcDbLine
 10
528.687
 20
218.798
 30
0.0
 11
534.396
 21
224.507
 31
0.0
  0
LINE
  5
11CD
330
12EE
100
AcDbEntity
  8
8
100
AcDbLine
 10
520.154
 20
219.245
 30
0.0
 11
525.8630000000001
 21
224.954
 31
0.0
  0
LINE
  5
11CE
330
12EE
100
AcDbEntity
  8
8
100
AcDbLine
 10
511.6209999999999
 20
219.692
 30
0.0
 11
517.33
 21
225.401
 31
0.0
  0
LINE
  5
11CF
330
12EE
100
AcDbEntity
  8
8
100
AcDbLine
 10
503.088
 20
220.139
 30
0.0
 11
508.7969999999999
 21
225.848
 31
0.0
  0
LINE
  5
11D0
330
12EE
100
AcDbEntity
  8
8
100
AcDbLine
 10
494.554
 20
220.586
 30
0.0
 11
500.264
 21
226.295
 31
0.0
  0
LINE
  5
11D1
330
12EE
100
AcDbEntity
  8
8
100
AcDbLine
 10
486.0209999999999
 20
221.034
 30
0.0
 11
491.73
 21
226.743
 31
0.0
  0
LINE
  5
11D2
330
12EE
100
AcDbEntity
  8
8
100
AcDbLine
 10
477.488
 20
221.481
 30
0.0
 11
483.1969999999999
 21
227.19
 31
0.0
  0
LINE
  5
11D3
330
12EE
100
AcDbEntity
  8
8
100
AcDbLine
 10
468.9549999999999
 20
221.928
 30
0.0
 11
474.664
 21
227.637
 31
0.0
  0
LINE
  5
11D4
330
12EE
100
AcDbEntity
  8
8
100
AcDbLine
 10
460.4219999999999
 20
222.375
 30
0.0
 11
466.1309999999999
 21
228.084
 31
0.0
  0
LINE
  5
11D5
330
12EE
100
AcDbEntity
  8
8
100
AcDbLine
 10
451.8889999999999
 20
222.822
 30
0.0
 11
457.598
 21
228.531
 31
0.0
  0
LINE
  5
11D6
330
12EE
100
AcDbEntity
  8
8
100
AcDbLine
 10
443.3559999999999
 20
223.27
 30
0.0
 11
449.065
 21
228.979
 31
0.0
  0
LINE
  5
11D7
330
12EE
100
AcDbEntity
  8
8
100
AcDbLine
 10
434.823
 20
223.717
 30
0.0
 11
440.5319999999999
 21
229.426
 31
0.0
  0
LINE
  5
11D8
330
12EE
100
AcDbEntity
  8
8
100
AcDbLine
 10
426.29
 20
224.164
 30
0.0
 11
431.999
 21
229.873
 31
0.0
  0
LINE
  5
11D9
330
12EE
100
AcDbEntity
  8
8
100
AcDbLine
 10
417.7569999999999
 20
224.611
 30
0.0
 11
423.4659999999999
 21
230.32
 31
0.0
  0
LINE
  5
11DA
330
12EE
100
AcDbEntity
  8
8
100
AcDbLine
 10
409.224
 20
225.058
 30
0.0
 11
414.933
 21
230.767
 31
0.0
  0
LINE
  5
11DB
330
12EE
100
AcDbEntity
  8
8
100
AcDbLine
 10
400.6909999999999
 20
225.506
 30
0.0
 11
406.4
 21
231.215
 31
0.0
  0
LINE
  5
11DC
330
12EE
100
AcDbEntity
  8
8
100
AcDbLine
 10
392.158
 20
225.953
 30
0.0
 11
397.867
 21
231.662
 31
0.0
  0
LINE
  5
11DD
330
12EE
100
AcDbEntity
  8
8
100
AcDbLine
 10
383.625
 20
226.4
 30
0.0
 11
389.334
 21
232.109
 31
0.0
  0
LINE
  5
11DE
330
12EE
100
AcDbEntity
  8
8
100
AcDbLine
 10
375.092
 20
226.847
 30
0.0
 11
380.801
 21
232.556
 31
0.0
  0
LINE
  5
11DF
330
12EE
100
AcDbEntity
  8
8
100
AcDbLine
 10
366.559
 20
227.294
 30
0.0
 11
372.268
 21
233.003
 31
0.0
  0
LINE
  5
11E0
330
12EE
100
AcDbEntity
  8
8
100
AcDbLine
 10
358.026
 20
227.742
 30
0.0
 11
363.735
 21
233.451
 31
0.0
  0
LINE
  5
11E1
330
12EE
100
AcDbEntity
  8
8
100
AcDbLine
 10
349.493
 20
228.189
 30
0.0
 11
355.202
 21
233.898
 31
0.0
  0
LINE
  5
11E2
330
12EE
100
AcDbEntity
  8
8
100
AcDbLine
 10
340.959
 20
228.636
 30
0.0
 11
346.669
 21
234.345
 31
0.0
  0
LINE
  5
11E3
330
12EE
100
AcDbEntity
  8
8
100
AcDbLine
 10
332.426
 20
229.083
 30
0.0
 11
338.135
 21
234.792
 31
0.0
  0
LINE
  5
11E4
330
12EE
100
AcDbEntity
  8
8
100
AcDbLine
 10
323.893
 20
229.53
 30
0.0
 11
329.602
 21
235.239
 31
0.0
  0
LINE
  5
11E5
330
12EE
100
AcDbEntity
  8
8
100
AcDbLine
 10
315.36
 20
229.978
 30
0.0
 11
321.069
 21
235.687
 31
0.0
  0
LINE
  5
11E6
330
12EE
100
AcDbEntity
  8
8
100
AcDbLine
 10
307.175
 20
230.772
 30
0.0
 11
312.536
 21
236.134
 31
0.0
  0
LINE
  5
11E7
330
12EE
100
AcDbEntity
  8
8
100
AcDbLine
 10
300.425
 20
233.003
 30
0.0
 11
304.648
 21
237.226
 31
0.0
  0
LINE
  5
11E8
330
12EE
100
AcDbEntity
  8
8
100
AcDbLine
 10
295.063
 20
236.621
 30
0.0
 11
298.811
 21
240.369
 31
0.0
  0
LINE
  5
11E9
330
12EE
100
AcDbEntity
  8
8
100
AcDbLine
 10
290.827
 20
241.365
 30
0.0
 11
294.517
 21
245.055
 31
0.0
  0
LINE
  5
11EA
330
12EE
100
AcDbEntity
  8
8
100
AcDbLine
 10
287.752
 20
247.27
 30
0.0
 11
291.846
 21
251.364
 31
0.0
  0
LINE
  5
11EB
330
12EE
100
AcDbEntity
  8
8
100
AcDbLine
 10
286.261
 20
254.76
 30
0.0
 11
291.046
 21
259.545
 31
0.0
  0
LINE
  5
11EC
330
12EE
100
AcDbEntity
  8
8
100
AcDbLine
 10
285.908
 20
263.388
 30
0.0
 11
290.743
 21
268.222
 31
0.0
  0
LINE
  5
11ED
330
12EE
100
AcDbEntity
  8
8
100
AcDbLine
 10
285.605
 20
272.065
 30
0.0
 11
290.44
 21
276.899
 31
0.0
  0
LINE
  5
11EE
330
12EE
100
AcDbEntity
  8
8
100
AcDbLine
 10
285.302
 20
280.742
 30
0.0
 11
290.137
 21
285.576
 31
0.0
  0
LINE
  5
11EF
330
12EE
100
AcDbEntity
  8
8
100
AcDbLine
 10
284.999
 20
289.419
 30
0.0
 11
289.834
 21
294.254
 31
0.0
  0
LINE
  5
11F0
330
12EE
100
AcDbEntity
  8
8
100
AcDbLine
 10
284.696
 20
298.097
 30
0.0
 11
289.531
 21
302.931
 31
0.0
  0
LINE
  5
11F1
330
12EE
100
AcDbEntity
  8
8
100
AcDbLine
 10
284.393
 20
306.774
 30
0.0
 11
292.21
 21
314.591
 31
0.0
  0
LINE
  5
11F2
330
12EE
100
AcDbEntity
  8
8
100
AcDbLine
 10
284.09
 20
315.451
 30
0.0
 11
288.925
 21
320.286
 31
0.0
  0
LINE
  5
11F3
330
12EE
100
AcDbEntity
  8
8
100
AcDbLine
 10
283.787
 20
324.128
 30
0.0
 11
288.622
 21
328.963
 31
0.0
  0
LINE
  5
11F4
330
12EE
100
AcDbEntity
  8
8
100
AcDbLine
 10
283.484
 20
332.806
 30
0.0
 11
288.319
 21
337.64
 31
0.0
  0
LINE
  5
11F5
330
12EE
100
AcDbEntity
  8
8
100
AcDbLine
 10
283.181
 20
341.483
 30
0.0
 11
288.015
 21
346.3169999999999
 31
0.0
  0
LINE
  5
11F6
330
12EE
100
AcDbEntity
  8
8
100
AcDbLine
 10
282.878
 20
350.16
 30
0.0
 11
287.712
 21
354.994
 31
0.0
  0
LINE
  5
11F7
330
12EE
100
AcDbEntity
  8
8
100
AcDbLine
 10
280.699
 20
356.961
 30
0.0
 11
286.374
 21
362.636
 31
0.0
  0
LINE
  5
11F8
330
12EE
100
AcDbEntity
  8
8
100
AcDbLine
 10
251.691
 20
336.934
 30
0.0
 11
259.451
 21
344.694
 31
0.0
  0
LINE
  5
11F9
330
12EE
100
AcDbEntity
  8
8
100
AcDbLine
 10
274.155
 20
359.397
 30
0.0
 11
279.629
 21
364.871
 31
0.0
  0
LINE
  5
11FA
330
12EE
100
AcDbEntity
  8
8
100
AcDbLine
 10
243.311
 20
337.533
 30
0.0
 11
261.727
 21
355.949
 31
0.0
  0
LINE
  5
11FB
330
12EE
100
AcDbEntity
  8
8
100
AcDbLine
 10
265.897
 20
360.119
 30
0.0
 11
276.179
 21
370.401
 31
0.0
  0
LINE
  5
11FC
330
12EE
100
AcDbEntity
  8
8
100
AcDbLine
 10
238.291
 20
341.494
 30
0.0
 11
244.21
 21
347.413
 31
0.0
  0
LINE
  5
11FD
330
12EE
100
AcDbEntity
  8
8
100
AcDbLine
 10
253.21
 20
356.413
 30
0.0
 11
263.177
 21
366.38
 31
0.0
  0
LINE
  5
11FE
330
12EE
100
AcDbEntity
  8
8
100
AcDbLine
 10
236.055
 20
348.238
 30
0.0
 11
243.21
 21
355.393
 31
0.0
  0
LINE
  5
11FF
330
12EE
100
AcDbEntity
  8
8
100
AcDbLine
 10
253.21
 20
365.393
 30
0.0
 11
254.92
 21
367.103
 31
0.0
  0
LINE
  5
1200
330
12EE
100
AcDbEntity
  8
8
100
AcDbLine
 10
234.709
 20
355.872
 30
0.0
 11
243.21
 21
364.374
 31
0.0
  0
LINE
  5
1201
330
12EE
100
AcDbEntity
  8
8
100
AcDbLine
 10
232.543
 20
362.686
 30
0.0
 11
238.404
 21
368.547
 31
0.0
  0
LINE
  5
1202
330
12EE
100
AcDbEntity
  8
8
100
AcDbLine
 10
224.85
 20
363.974
 30
0.0
 11
230.146
 21
369.27
 31
0.0
  0
LINE
  5
1203
330
12EE
100
AcDbEntity
  8
8
100
AcDbLine
 10
217.973
 20
366.077
 30
0.0
 11
222.778
 21
370.8819999999999
 31
0.0
  0
LINE
  5
1204
330
12EE
100
AcDbEntity
  8
8
100
AcDbLine
 10
211.095
 20
368.179
 30
0.0
 11
215.9
 21
372.984
 31
0.0
  0
LINE
  5
1205
330
12EE
100
AcDbEntity
  8
8
100
AcDbLine
 10
202.337
 20
368.401
 30
0.0
 11
209.022
 21
375.087
 31
0.0
  0
LINE
  5
1206
330
12EE
100
AcDbEntity
  8
8
100
AcDbLine
 10
193.357
 20
368.401
 30
0.0
 11
202.145
 21
377.19
 31
0.0
  0
ENDBLK
  5
1207
330
12EE
100
AcDbEntity
  8
0
100
AcDbBlockEnd
  0
BLOCK
  5
1245
330
12EF
100
AcDbEntity
  8
0
100
AcDbBlockBegin
  2
*X4
 70
     1
 10
0.0
 20
0.0
 30
0.0
  3
*X4
  1

  0
LINE
  5
1246
330
12EF
100
AcDbEntity
  8
8
100
AcDbLine
 10
675.603
 20
338.773
 30
0.0
 11
682.7389999999999
 21
345.909
 31
0.0
  0
LINE
  5
1247
330
12EF
100
AcDbEntity
  8
8
100
AcDbLine
 10
667.727
 20
339.878
 30
0.0
 11
674.206
 21
346.357
 31
0.0
  0
LINE
  5
1248
330
12EF
100
AcDbEntity
  8
8
100
AcDbLine
 10
659.9639999999999
 20
341.095
 30
0.0
 11
665.673
 21
346.804
 31
0.0
  0
LINE
  5
1249
330
12EF
100
AcDbEntity
  8
8
100
AcDbLine
 10
651.431
 20
341.542
 30
0.0
 11
657.1399999999999
 21
347.251
 31
0.0
  0
LINE
  5
124A
330
12EF
100
AcDbEntity
  8
8
100
AcDbLine
 10
642.898
 20
341.989
 30
0.0
 11
648.6069999999999
 21
347.6980000000001
 31
0.0
  0
LINE
  5
124B
330
12EF
100
AcDbEntity
  8
8
100
AcDbLine
 10
634.365
 20
342.436
 30
0.0
 11
640.074
 21
348.145
 31
0.0
  0
LINE
  5
124C
330
12EF
100
AcDbEntity
  8
8
100
AcDbLine
 10
625.832
 20
342.883
 30
0.0
 11
631.5409999999999
 21
348.592
 31
0.0
  0
LINE
  5
124D
330
12EF
100
AcDbEntity
  8
8
100
AcDbLine
 10
617.2989999999999
 20
343.331
 30
0.0
 11
623.008
 21
349.04
 31
0.0
  0
LINE
  5
124E
330
12EF
100
AcDbEntity
  8
8
100
AcDbLine
 10
608.7659999999999
 20
343.778
 30
0.0
 11
614.475
 21
349.487
 31
0.0
  0
LINE
  5
124F
330
12EF
100
AcDbEntity
  8
8
100
AcDbLine
 10
600.233
 20
344.225
 30
0.0
 11
605.942
 21
349.934
 31
0.0
  0
LINE
  5
1250
330
12EF
100
AcDbEntity
  8
8
100
AcDbLine
 10
591.7
 20
344.672
 30
0.0
 11
597.409
 21
350.381
 31
0.0
  0
LINE
  5
1251
330
12EF
100
AcDbEntity
  8
8
100
AcDbLine
 10
583.1659999999999
 20
345.119
 30
0.0
 11
588.8759999999999
 21
350.828
 31
0.0
  0
LINE
  5
1252
330
12EF
100
AcDbEntity
  8
8
100
AcDbLine
 10
574.633
 20
345.567
 30
0.0
 11
580.342
 21
351.276
 31
0.0
  0
LINE
  5
1253
330
12EF
100
AcDbEntity
  8
8
100
AcDbLine
 10
566.1
 20
346.014
 30
0.0
 11
571.809
 21
351.723
 31
0.0
  0
LINE
  5
1254
330
12EF
100
AcDbEntity
  8
8
100
AcDbLine
 10
558.077
 20
346.971
 30
0.0
 11
563.2759999999999
 21
352.17
 31
0.0
  0
LINE
  5
1255
330
12EF
100
AcDbEntity
  8
8
100
AcDbLine
 10
553.19
 20
351.064
 30
0.0
 11
556.9199999999999
 21
354.794
 31
0.0
  0
LINE
  5
1256
330
12EF
100
AcDbEntity
  8
8
100
AcDbLine
 10
550.889
 20
357.744
 30
0.0
 11
554.9719999999999
 21
361.826
 31
0.0
  0
LINE
  5
1257
330
12EF
100
AcDbEntity
  8
8
100
AcDbLine
 10
548.9919999999999
 20
364.826
 30
0.0
 11
553.074
 21
368.909
 31
0.0
  0
LINE
  5
1258
330
12EF
100
AcDbEntity
  8
8
100
AcDbLine
 10
543.587
 20
368.401
 30
0.0
 11
551.1759999999999
 21
375.991
 31
0.0
  0
LINE
  5
1259
330
12EF
100
AcDbEntity
  8
8
100
AcDbLine
 10
533.97
 20
367.765
 30
0.0
 11
543.0069999999999
 21
376.802
 31
0.0
  0
LINE
  5
125A
330
12EF
100
AcDbEntity
  8
8
100
AcDbLine
 10
521.035
 20
363.81
 30
0.0
 11
530.072
 21
372.847
 31
0.0
  0
LINE
  5
125B
330
12EF
100
AcDbEntity
  8
8
100
AcDbLine
 10
511.033
 20
362.788
 30
0.0
 11
517.633
 21
369.388
 31
0.0
  0
LINE
  5
125C
330
12EF
100
AcDbEntity
  8
8
100
AcDbLine
 10
454.2099999999999
 20
314.946
 30
0.0
 11
462.6059999999999
 21
323.341
 31
0.0
  0
LINE
  5
125D
330
12EF
100
AcDbEntity
  8
8
100
AcDbLine
 10
501.1919999999999
 20
361.927
 30
0.0
 11
507.7919999999999
 21
368.528
 31
0.0
  0
LINE
  5
125E
330
12EF
100
AcDbEntity
  8
8
100
AcDbLine
 10
457.746
 20
327.462
 30
0.0
 11
462.931
 21
332.647
 31
0.0
  0
LINE
  5
125F
330
12EF
100
AcDbEntity
  8
8
100
AcDbLine
 10
491.3499999999999
 20
361.066
 30
0.0
 11
497.449
 21
367.165
 31
0.0
  0
LINE
  5
1260
330
12EF
100
AcDbEntity
  8
8
100
AcDbLine
 10
458.0709999999999
 20
336.768
 30
0.0
 11
463.255
 21
341.952
 31
0.0
  0
LINE
  5
1261
330
12EF
100
AcDbEntity
  8
8
100
AcDbLine
 10
481.509
 20
360.205
 30
0.0
 11
488.109
 21
366.806
 31
0.0
  0
LINE
  5
1262
330
12EF
100
AcDbEntity
  8
8
100
AcDbLine
 10
458.3959999999999
 20
346.073
 30
0.0
 11
463.5799999999999
 21
351.257
 31
0.0
  0
LINE
  5
1263
330
12EF
100
AcDbEntity
  8
8
100
AcDbLine
 10
471.668
 20
359.344
 30
0.0
 11
478.268
 21
365.945
 31
0.0
  0
LINE
  5
1264
330
12EF
100
AcDbEntity
  8
8
100
AcDbLine
 10
458.776
 20
355.4330000000001
 30
0.0
 11
466.2449999999999
 21
362.901
 31
0.0
  0
LINE
  5
1265
330
12EF
100
AcDbEntity
  8
8
100
AcDbLine
 10
466.713
 20
363.37
 30
0.0
 11
473.7449999999999
 21
370.401
 31
0.0
  0
ENDBLK
  5
1266
330
12EF
100
AcDbEntity
  8
0
100
AcDbBlockEnd
  0
BLOCK
  5
12FC
330
12FB
100
AcDbEntity
  8
0
100
AcDbBlockBegin
  2
KATALOG_LEER
 70
     0
 10
0.0
 20
0.0
 30
0.0
  3
KATALOG_LEER
  1

  0
ENDBLK
  5
12FD
330
12FB
100
AcDbEntity
  8
0
100
AcDbBlockEnd
  0
BLOCK
  5
1416
330
135E
100
AcDbEntity
  8
0
100
AcDbBlockBegin
  2
*D7
 70
     1
 10
0.0
 20
0.0
 30
0.0
  3
*D7
  1

  0
LINE
  5
1521
330
135E
100
AcDbEntity
  8
5
370
    -2
100
AcDbLine
 10
156.633123
 20
414.1818699999999
 30
0.0
 11
156.633123
 21
523.9748699999999
 31
0.0
  0
LINE
  5
1522
330
135E
100
AcDbEntity
  8
5
370
    -2
100
AcDbLine
 10
516.633123
 20
414.1818699999999
 30
0.0
 11
516.633123
 21
523.9748699999999
 31
0.0
  0
LINE
  5
1523
330
135E
100
AcDbEntity
  8
5
370
    -2
100
AcDbLine
 10
181.633123
 20
518.9748699999999
 30
0.0
 11
491.633123
 21
518.9748699999999
 31
0.0
  0
SOLID
  5
1524
330
135E
100
AcDbEntity
  8
5
100
AcDbTrace
 10
181.633123
 20
523.1415366666666
 30
0.0
 11
181.633123
 21
514.8082033333333
 31
0.0
 12
156.633123
 22
518.9748699999999
 32
0.0
 13
156.633123
 23
518.9748699999999
 33
0.0
  0
SOLID
  5
1525
330
135E
100
AcDbEntity
  8
5
100
AcDbTrace
 10
491.633123
 20
523.1415366666666
 30
0.0
 11
491.633123
 21
514.8082033333333
 31
0.0
 12
516.633123
 22
518.9748699999999
 32
0.0
 13
516.633123
 23
518.9748699999999
 33
0.0
  0
MTEXT
  5
1526
330
135E
100
AcDbEntity
  8
5
 62
     2
100
AcDbMText
 10
334.254123
 20
530.72487
 30
0.0
 40
17.5
 41
0.0
 71
     5
 72
     1
  1
%%c 360
 73
     1
 44
1.0
1001
ACAD
1000
MTEXTBEGIN
1070
    73
1070
     1
1070
    44
1040
1.0
1070
    74
1070
     0
1000
MTEXTEND
  0
POINT
  5
1527
330
135E
100
AcDbEntity
  8
DEFPOINTS
 62
     0
100
AcDbPoint
 10
156.633123
 20
409.18187
 30
0.0
  0
POINT
  5
1528
330
135E
100
AcDbEntity
  8
DEFPOINTS
 62
     0
100
AcDbPoint
 10
516.633123
 20
409.18187
 30
0.0
  0
POINT
  5
1529
330
135E
100
AcDbEntity
  8
DEFPOINTS
 62
     0
100
AcDbPoint
 10
516.633123
 20
518.9748699999999
 30
0.0
  0
ENDBLK
  5
1420
330
135E
100
AcDbEntity
  8
0
100
AcDbBlockEnd
  0
BLOCK
  5
13AC
330
13A0
100
AcDbEntity
  8
0
100
AcDbBlockBegin
  2
*D10
 70
     1
 10
0.0
 20
0.0
 30
0.0
  3
*D10
  1

  0
LINE
  5
1531
330
13A0
100
AcDbEntity
  8
5
370
    -2
100
AcDbLine
 10
236.633123
 20
428.18187
 30
0.0
 11
236.633123
 21
489.34887
 31
0.0
  0
LINE
  5
1532
330
13A0
100
AcDbEntity
  8
5
370
    -2
100
AcDbLine
 10
436.6331230000001
 20
428.18187
 30
0.0
 11
436.6331230000001
 21
489.34887
 31
0.0
  0
LINE
  5
1533
330
13A0
100
AcDbEntity
  8
5
370
    -2
100
AcDbLine
 10
261.633123
 20
484.34887
 30
0.0
 11
411.6331230000001
 21
484.34887
 31
0.0
  0
SOLID
  5
1534
330
13A0
100
AcDbEntity
  8
5
100
AcDbTrace
 10
261.633123
 20
488.5155366666666
 30
0.0
 11
261.633123
 21
480.1822033333333
 31
0.0
 12
236.633123
 22
484.34887
 32
0.0
 13
236.633123
 23
484.34887
 33
0.0
  0
SOLID
  5
1535
330
13A0
100
AcDbEntity
  8
5
100
AcDbTrace
 10
411.6331230000001
 20
488.5155366666666
 30
0.0
 11
411.6331230000001
 21
480.1822033333333
 31
0.0
 12
436.6331230000001
 22
484.34887
 32
0.0
 13
436.6331230000001
 23
484.34887
 33
0.0
  0
MTEXT
  5
1536
330
13A0
100
AcDbEntity
  8
5
 62
     2
100
AcDbMText
 10
335.119123
 20
496.1005924409449
 30
0.0
 40
17.5
 41
0.0
 71
     5
 72
     1
  1
%%c 200
 73
     1
 44
1.0
1001
ACAD
1000
MTEXTBEGIN
1070
    73
1070
     1
1070
    44
1040
1.0
1070
    74
1070
     0
1000
MTEXTEND
  0
POINT
  5
1537
330
13A0
100
AcDbEntity
  8
DEFPOINTS
 62
     0
100
AcDbPoint
 10
236.633123
 20
423.1818699999999
 30
0.0
  0
POINT
  5
1538
330
13A0
100
AcDbEntity
  8
DEFPOINTS
 62
     0
100
AcDbPoint
 10
436.6331230000001
 20
423.1818699999999
 30
0.0
  0
POINT
  5
1539
330
13A0
100
AcDbEntity
  8
DEFPOINTS
 62
     0
100
AcDbPoint
 10
436.6331230000001
 20
484.34887
 30
0.0
  0
ENDBLK
  5
13B6
330
13A0
100
AcDbEntity
  8
0
100
AcDbBlockEnd
  0
BLOCK
  5
13C3
330
13B7
100
AcDbEntity
  8
0
100
AcDbBlockBegin
  2
*D11
 70
     1
 10
0.0
 20
0.0
 30
0.0
  3
*D11
  1

  0
LINE
  5
154C
330
13B7
100
AcDbEntity
  8
5
370
    -2
100
AcDbLine
 10
156.962123
 20
419.07287
 30
0.0
 11
60.54812300000008
 21
419.0728700000001
 31
0.0
  0
LINE
  5
154D
330
13B7
100
AcDbEntity
  8
5
370
    -2
100
AcDbLine
 10
331.633123
 20
268.07287
 30
0.0
 11
60.54812300000003
 21
268.0728700000001
 31
0.0
  0
LINE
  5
154E
330
13B7
100
AcDbEntity
  8
5
370
    -2
100
AcDbLine
 10
65.54812300000008
 20
394.0728700000001
 30
0.0
 11
65.54812300000006
 21
293.0728700000001
 31
0.0
  0
SOLID
  5
154F
330
13B7
100
AcDbEntity
  8
5
100
AcDbTrace
 10
61.38145633333341
 20
394.0728700000001
 30
0.0
 11
69.71478966666674
 21
394.0728700000001
 31
0.0
 12
65.54812300000008
 22
419.0728700000001
 32
0.0
 13
65.54812300000008
 23
419.0728700000001
 33
0.0
  0
SOLID
  5
1550
330
13B7
100
AcDbEntity
  8
5
100
AcDbTrace
 10
61.38145633333339
 20
293.0728700000001
 30
0.0
 11
69.71478966666673
 21
293.0728700000001
 31
0.0
 12
65.54812300000005
 22
268.0728700000001
 32
0.0
 13
65.54812300000005
 23
268.0728700000001
 33
0.0
  0
MTEXT
  5
1551
330
13B7
100
AcDbEntity
  8
5
 62
     2
100
AcDbMText
 10
53.79812300000001
 20
342.46187
 30
0.0
 40
17.5
 41
0.0
 71
     5
 72
     1
  1
151
 11
0.0000000000000001
 21
1.0
 31
0.0
 73
     1
 44
1.0
1001
ACAD
1000
MTEXTBEGIN
1070
    73
1070
     1
1070
    44
1040
1.0
1070
    74
1070
     0
1000
MTEXTEND
  0
POINT
  5
1552
330
13B7
100
AcDbEntity
  8
DEFPOINTS
 62
     0
100
AcDbPoint
 10
161.962123
 20
419.07287
 30
0.0
  0
POINT
  5
1553
330
13B7
100
AcDbEntity
  8
DEFPOINTS
 62
     0
100
AcDbPoint
 10
336.633123
 20
268.07287
 30
0.0
  0
POINT
  5
1554
330
13B7
100
AcDbEntity
  8
DEFPOINTS
 62
     0
100
AcDbPoint
 10
65.54812300000005
 20
268.0728700000001
 30
0.0
  0
ENDBLK
  5
13CD
330
13B7
100
AcDbEntity
  8
0
100
AcDbBlockEnd
  0
BLOCK
  5
13DA
330
13CE
100
AcDbEntity
  8
0
100
AcDbBlockBegin
  2
*D12
 70
     1
 10
0.0
 20
0.0
 30
0.0
  3
*D12
  1

  0
LINE
  5
153A
330
13CE
100
AcDbEntity
  8
5
370
    -2
100
AcDbLine
 10
516.3051229999999
 20
419.07287
 30
0.0
 11
729.5821230000001
 21
419.0728699999999
 31
0.0
  0
LINE
  5
153B
330
13CE
100
AcDbEntity
  8
5
370
    -2
100
AcDbLine
 10
651.633123
 20
319.07287
 30
0.0
 11
729.5821230000001
 21
319.07287
 31
0.0
  0
LINE
  5
153C
330
13CE
100
AcDbEntity
  8
5
370
    -2
100
AcDbLine
 10
724.5821230000001
 20
394.07287
 30
0.0
 11
724.5821230000001
 21
344.07287
 31
0.0
  0
SOLID
  5
153D
330
13CE
100
AcDbEntity
  8
5
100
AcDbTrace
 10
720.4154563333335
 20
394.07287
 30
0.0
 11
728.7487896666667
 21
394.07287
 31
0.0
 12
724.5821230000001
 22
419.0728699999999
 32
0.0
 13
724.5821230000001
 23
419.0728699999999
 33
0.0
  0
SOLID
  5
153E
330
13CE
100
AcDbEntity
  8
5
100
AcDbTrace
 10
720.4154563333335
 20
344.07287
 30
0.0
 11
728.7487896666667
 21
344.07287
 31
0.0
 12
724.5821230000001
 22
319.07287
 32
0.0
 13
724.5821230000001
 23
319.07287
 33
0.0
  0
MTEXT
  5
153F
330
13CE
100
AcDbEntity
  8
5
 62
     2
100
AcDbMText
 10
712.832123
 20
365.40187
 30
0.0
 40
17.5
 41
0.0
 71
     5
 72
     1
  1
100
 11
0.0000000000000001
 21
1.0
 31
0.0
 73
     1
 44
1.0
1001
ACAD
1000
MTEXTBEGIN
1070
    73
1070
     1
1070
    44
1040
1.0
1070
    74
1070
     0
1000
MTEXTEND
  0
POINT
  5
1540
330
13CE
100
AcDbEntity
  8
DEFPOINTS
 62
     0
100
AcDbPoint
 10
511.305123
 20
419.07287
 30
0.0
  0
POINT
  5
1541
330
13CE
100
AcDbEntity
  8
DEFPOINTS
 62
     0
100
AcDbPoint
 10
646.633123
 20
319.07287
 30
0.0
  0
POINT
  5
1542
330
13CE
100
AcDbEntity
  8
DEFPOINTS
 62
     0
100
AcDbPoint
 10
724.5821230000001
 20
319.07287
 30
0.0
  0
ENDBLK
  5
13E4
330
13CE
100
AcDbEntity
  8
0
100
AcDbBlockEnd
  0
BLOCK
  5
13F1
330
13E5
100
AcDbEntity
  8
0
100
AcDbBlockBegin
  2
*D13
 70
     1
 10
0.0
 20
0.0
 30
0.0
  3
*D13
  1

  0
LINE
  5
1543
330
13E5
100
AcDbEntity
  8
5
370
    -2
100
AcDbLine
 10
336.633123
 20
268.73487
 30
0.0
 11
336.633123
 21
174.58387
 31
0.0
  0
LINE
  5
1544
330
13E5
100
AcDbEntity
  8
5
370
    -2
100
AcDbLine
 10
646.633123
 20
314.07287
 30
0.0
 11
646.633123
 21
174.58387
 31
0.0
  0
LINE
  5
1545
330
13E5
100
AcDbEntity
  8
5
370
    -2
100
AcDbLine
 10
361.633123
 20
179.58387
 30
0.0
 11
621.633123
 21
179.58387
 31
0.0
  0
SOLID
  5
1546
330
13E5
100
AcDbEntity
  8
5
100
AcDbTrace
 10
361.633123
 20
183.7505366666666
 30
0.0
 11
361.633123
 21
175.4172033333333
 31
0.0
 12
336.633123
 22
179.58387
 32
0.0
 13
336.633123
 23
179.58387
 33
0.0
  0
SOLID
  5
1547
330
13E5
100
AcDbEntity
  8
5
100
AcDbTrace
 10
621.633123
 20
183.7505366666666
 30
0.0
 11
621.633123
 21
175.4172033333333
 31
0.0
 12
646.633123
 22
179.58387
 32
0.0
 13
646.633123
 23
179.58387
 33
0.0
  0
MTEXT
  5
1548
330
13E5
100
AcDbEntity
  8
5
 62
     2
100
AcDbMText
 10
482.496123
 20
191.33387
 30
0.0
 40
17.5
 41
0.0
 71
     5
 72
     1
  1
310
 73
     1
 44
1.0
1001
ACAD
1000
MTEXTBEGIN
1070
    73
1070
     1
1070
    44
1040
1.0
1070
    74
1070
     0
1000
MTEXTEND
  0
POINT
  5
1549
330
13E5
100
AcDbEntity
  8
DEFPOINTS
 62
     0
100
AcDbPoint
 10
336.633123
 20
273.73487
 30
0.0
  0
POINT
  5
154A
330
13E5
100
AcDbEntity
  8
DEFPOINTS
 62
     0
100
AcDbPoint
 10
646.633123
 20
319.07287
 30
0.0
  0
POINT
  5
154B
330
13E5
100
AcDbEntity
  8
DEFPOINTS
 62
     0
100
AcDbPoint
 10
646.633123
 20
179.58387
 30
0.0
  0
ENDBLK
  5
13FB
330
13E5
100
AcDbEntity
  8
0
100
AcDbBlockEnd
  0
BLOCK
  5
1513
330
1511
100
AcDbEntity
  8
0
100
AcDbBlockBegin
  2
GENAXEH
 70
     0
 10
0.0
 20
0.0
 30
0.0
  3
GENAXEH
  1

  0
LINE
  5
1512
330
1511
100
AcDbEntity
  8
0
100
AcDbLine
 10
-1.0
 20
0.0
 30
0.0
 11
1.0
 21
0.0
 31
0.0
  0
ENDBLK
  5
1514
330
1511
100
AcDbEntity
  8
0
100
AcDbBlockEnd
  0
ENDSEC
  0
SECTION
  2
ENTITIES
  0
LINE
  5
1001
330
12CE
100
AcDbEntity
  8
MAßLINIEN
 62
     4
100
AcDbLine
 10
336.633123
 20
442.56887
 30
0.0
 11
336.633123
 21
273.73487
 31
0.0
  0
LINE
  5
1002
330
12CE
100
AcDbEntity
  8
0
100
AcDbLine
 10
436.6331230000001
 20
423.1818699999999
 30
0.0
 11
236.633123
 21
423.1818699999999
 31
0.0
  0
LINE
  5
1003
330
12CE
100
AcDbEntity
  8
0
100
AcDbLine
 10
430.295123
 20
407.1818699999999
 30
0.0
 11
350.071123
 21
407.1818699999999
 31
0.0
  0
LINE
  5
1004
330
12CE
100
AcDbEntity
  8
0
100
AcDbLine
 10
430.111123
 20
403.68187
 30
0.0
 11
423.516123
 21
403.68187
 31
0.0
  0
LINE
  5
1005
330
12CE
100
AcDbEntity
  8
0
100
AcDbLine
 10
349.133123
 20
403.68187
 30
0.0
 11
350.071123
 21
407.1818699999999
 31
0.0
  0
LINE
  5
1006
330
12CE
100
AcDbEntity
  8
0
100
AcDbLine
 10
324.133123
 20
403.68287
 30
0.0
 11
323.195123
 21
407.18287
 31
0.0
  0
LINE
  5
1007
330
12CE
100
AcDbEntity
  8
0
100
AcDbLine
 10
249.751123
 20
403.68187
 30
0.0
 11
243.155123
 21
403.68187
 31
0.0
  0
LINE
  5
1008
330
12CE
100
AcDbEntity
  8
0
100
AcDbLine
 10
349.133123
 20
403.68187
 30
0.0
 11
324.133123
 21
403.68187
 31
0.0
  0
LINE
  5
1009
330
12CE
100
AcDbEntity
  8
0
100
AcDbLine
 10
323.196123
 20
407.1818699999999
 30
0.0
 11
242.972123
 21
407.1818699999999
 31
0.0
  0
LINE
  5
100A
330
12CE
100
AcDbEntity
  8
0
100
AcDbLine
 10
249.133123
 20
407.1818699999999
 30
0.0
 11
251.133123
 21
395.83987
 31
0.0
  0
LINE
  5
100B
330
12CE
100
AcDbEntity
  8
0
100
AcDbLine
 10
424.1331230000001
 20
407.18287
 30
0.0
 11
422.133123
 21
395.83987
 31
0.0
  0
LINE
  5
100C
330
12CE
100
AcDbEntity
  8
0
100
AcDbLine
 10
422.133123
 20
395.83987
 30
0.0
 11
251.133123
 21
395.83987
 31
0.0
  0
LINE
  5
100D
330
12CE
100
AcDbEntity
  8
0
100
AcDbLine
 10
242.133123
 20
423.1818699999999
 30
0.0
 11
243.155123
 21
403.68187
 31
0.0
  0
LINE
  5
100E
330
12CE
100
AcDbEntity
  8
0
100
AcDbLine
 10
431.133123
 20
423.1818699999999
 30
0.0
 11
430.111123
 21
403.68187
 31
0.0
  0
LINE
  5
100F
330
12CE
100
AcDbEntity
  8
0
100
AcDbLine
 10
173.792123
 20
409.18187
 30
0.0
 11
156.633123
 21
409.18187
 31
0.0
  0
LINE
  5
1010
330
12CE
100
AcDbEntity
  8
0
100
AcDbLine
 10
509.538123
 20
409.18187
 30
0.0
 11
499.475123
 21
409.18187
 31
0.0
  0
LINE
  5
1011
330
12CE
100
AcDbEntity
  8
0
100
AcDbLine
 10
156.633123
 20
409.18187
 30
0.0
 11
158.816123
 21
417.3288699999999
 31
0.0
  0
LINE
  5
1012
330
12CE
100
AcDbEntity
  8
0
100
AcDbLine
 10
520.148123
 20
396.06187
 30
0.0
 11
514.4501230000001
 21
417.3288699999999
 31
0.0
  0
ARC
  5
1013
330
12CE
100
AcDbEntity
  8
0
100
AcDbCircle
 10
512.0361230000001
 20
416.68187
 30
0.0
 40
2.5
100
AcDbArc
 50
15.0
 51
107.0
  0
ARC
  5
1014
330
12CE
100
AcDbEntity
  8
0
100
AcDbCircle
 10
161.232123
 20
416.68187
 30
0.0
 40
2.5
100
AcDbArc
 50
73.0
 51
165.0
  0
LINE
  5
1015
330
12CE
100
AcDbEntity
  8
0
100
AcDbLine
 10
511.305123
 20
419.07287
 30
0.0
 11
482.633123
 21
410.3068699999999
 31
0.0
  0
LINE
  5
1016
330
12CE
100
AcDbEntity
  8
0
100
AcDbLine
 10
499.475123
 20
409.18187
 30
0.0
 11
483.784123
 21
404.38487
 31
0.0
  0
LINE
  5
1017
330
12CE
100
AcDbEntity
  8
0
100
AcDbLine
 10
161.962123
 20
419.07287
 30
0.0
 11
190.633123
 21
410.3068699999999
 31
0.0
  0
LINE
  5
1018
330
12CE
100
AcDbEntity
  8
0
100
AcDbLine
 10
173.791123
 20
409.18187
 30
0.0
 11
189.482123
 21
404.38487
 31
0.0
  0
LINE
  5
1019
330
12CE
100
AcDbEntity
  8
0
100
AcDbLine
 10
190.633123
 20
410.30787
 30
0.0
 11
204.995123
 21
409.0508699999999
 31
0.0
  0
LINE
  5
101A
330
12CE
100
AcDbEntity
  8
0
100
AcDbLine
 10
482.633123
 20
410.30787
 30
0.0
 11
468.271123
 21
409.0508699999999
 31
0.0
  0
ARC
  5
101B
330
12CE
100
AcDbEntity
  8
0
100
AcDbCircle
 10
211.633123
 20
389.18187
 30
0.0
 40
12.0
100
AcDbArc
 50
190.243
 51
350.0
  0
LINE
  5
101C
330
12CE
100
AcDbEntity
  8
0
100
AcDbLine
 10
483.784123
 20
404.38487
 30
0.0
 11
459.5681230000001
 21
402.26687
 31
0.0
  0
LINE
  5
101D
330
12CE
100
AcDbEntity
  8
0
100
AcDbLine
 10
189.482123
 20
404.38587
 30
0.0
 11
194.971123
 21
403.90487
 31
0.0
  0
LINE
  5
101E
330
12CE
100
AcDbEntity
  8
0
100
AcDbLine
 10
223.451123
 20
387.09887
 30
0.0
 11
225.538123
 21
398.93987
 31
0.0
  0
LINE
  5
101F
330
12CE
100
AcDbEntity
  8
0
100
AcDbLine
 10
199.816123
 20
387.09887
 30
0.0
 11
197.215123
 21
401.84887
 31
0.0
  0
LINE
  5
1020
330
12CE
100
AcDbEntity
  8
0
100
AcDbLine
 10
228.219123
 20
400.9968699999999
 30
0.0
 11
238.953123
 21
400.05687
 31
0.0
  0
ARC
  5
1021
330
12CE
100
AcDbEntity
  8
0
100
AcDbCircle
 10
194.753123
 20
401.4148699999999
 30
0.0
 40
2.5
100
AcDbArc
 50
10.001
 51
85.0
  0
ARC
  5
1022
330
12CE
100
AcDbEntity
  8
0
100
AcDbCircle
 10
228.001123
 20
398.50587
 30
0.0
 40
2.5
100
AcDbArc
 50
84.999
 51
170.0009999999999
  0
LINE
  5
1023
330
12CE
100
AcDbEntity
  8
0
100
AcDbLine
 10
459.5681230000001
 20
402.26687
 30
0.0
 11
434.313123
 21
400.05687
 31
0.0
  0
LINE
  5
1024
330
12CE
100
AcDbEntity
  8
0
100
AcDbLine
 10
440.105123
 20
411.1818699999999
 30
0.0
 11
430.504123
 21
411.1818699999999
 31
0.0
  0
LINE
  5
1025
330
12CE
100
AcDbEntity
  8
0
100
AcDbLine
 10
242.762123
 20
411.1818699999999
 30
0.0
 11
235.584123
 21
411.1818699999999
 31
0.0
  0
LINE
  5
1026
330
12CE
100
AcDbEntity
  8
0
100
AcDbLine
 10
216.633123
 20
408.0328699999999
 30
0.0
 11
230.123123
 21
406.8528699999999
 31
0.0
  0
LINE
  5
1027
330
12CE
100
AcDbEntity
  8
0
100
AcDbLine
 10
216.633123
 20
407.94487
 30
0.0
 11
205.633123
 21
407.94487
 31
0.0
  0
LINE
  5
1028
330
12CE
100
AcDbEntity
  8
0
100
AcDbLine
 10
205.633123
 20
407.94487
 30
0.0
 11
204.995123
 21
409.0508699999999
 31
0.0
  0
LINE
  5
1029
330
12CE
100
AcDbEntity
  8
0
100
AcDbLine
 10
455.635123
 20
407.9458699999999
 30
0.0
 11
440.591123
 21
406.62887
 31
0.0
  0
LINE
  5
102A
330
12CE
100
AcDbEntity
  8
0
100
AcDbLine
 10
438.166123
 20
407.9458699999999
 30
0.0
 11
440.076123
 21
407.9458699999999
 31
0.0
  0
LINE
  5
102B
330
12CE
100
AcDbEntity
  8
0
100
AcDbLine
 10
467.633123
 20
407.9458699999999
 30
0.0
 11
468.271123
 21
409.0508699999999
 31
0.0
  0
LINE
  5
102C
330
12CE
100
AcDbEntity
  8
0
100
AcDbLine
 10
207.633123
 20
395.44487
 30
0.0
 11
207.633123
 21
387.44587
 31
0.0
  0
LINE
  5
102D
330
12CE
100
AcDbEntity
  8
0
100
AcDbLine
 10
215.633123
 20
395.44487
 30
0.0
 11
215.633123
 21
387.44587
 31
0.0
  0
LINE
  5
102E
330
12CE
100
AcDbEntity
  8
0
100
AcDbLine
 10
216.633123
 20
407.94487
 30
0.0
 11
216.633123
 21
396.4448700000001
 31
0.0
  0
LINE
  5
102F
330
12CE
100
AcDbEntity
  8
0
100
AcDbLine
 10
206.633123
 20
407.94487
 30
0.0
 11
206.633123
 21
396.4448700000001
 31
0.0
  0
LINE
  5
1030
330
12CE
100
AcDbEntity
  8
0
100
AcDbLine
 10
206.633123
 20
392.94587
 30
0.0
 11
216.633123
 21
392.94587
 31
0.0
  0
LINE
  5
1031
330
12CE
100
AcDbEntity
  8
0
100
AcDbLine
 10
215.633123
 20
387.44587
 30
0.0
 11
207.633123
 21
387.44587
 31
0.0
  0
LINE
  5
1032
330
12CE
100
AcDbEntity
  8
0
100
AcDbLine
 10
468.271123
 20
409.0508699999999
 30
0.0
 11
450.070123
 21
409.0508699999999
 31
0.0
  0
LINE
  5
1033
330
12CE
100
AcDbEntity
  8
0
100
AcDbLine
 10
204.995123
 20
409.0508699999999
 30
0.0
 11
206.633123
 21
409.0508699999999
 31
0.0
  0
LINE
  5
1034
330
12CE
100
AcDbEntity
  8
0
100
AcDbLine
 10
215.633123
 20
387.44587
 30
0.0
 11
211.634123
 21
385.13587
 31
0.0
  0
LINE
  5
1035
330
12CE
100
AcDbEntity
  8
0
100
AcDbLine
 10
207.633123
 20
387.44587
 30
0.0
 11
211.633123
 21
385.13587
 31
0.0
  0
LINE
  5
1036
330
12CE
100
AcDbEntity
  8
0
100
AcDbLine
 10
293.878123
 20
411.1818699999999
 30
0.0
 11
285.726123
 21
411.1818699999999
 31
0.0
  0
LINE
  5
1037
330
12CE
100
AcDbEntity
  8
0
100
AcDbLine
 10
283.298123
 20
413.0838699999999
 30
0.0
 11
280.809123
 21
423.18287
 31
0.0
  0
LINE
  5
1038
330
12CE
100
AcDbEntity
  8
0
100
AcDbLine
 10
291.816123
 20
412.79787
 30
0.0
 11
295.746123
 21
423.18287
 31
0.0
  0
LINE
  5
1039
330
12CE
100
AcDbEntity
  8
0
100
AcDbLine
 10
298.511123
 20
423.1818699999999
 30
0.0
 11
296.321123
 21
413.14887
 31
0.0
  0
ARC
  5
103A
330
12CE
100
AcDbEntity
  8
0
100
AcDbCircle
 10
289.478123
 20
413.68187
 30
0.0
 40
2.5
100
AcDbArc
 50
270.002
 51
339.271
  0
ARC
  5
103B
330
12CE
100
AcDbEntity
  8
0
100
AcDbCircle
 10
293.878123
 20
413.68187
 30
0.0
 40
2.5
100
AcDbArc
 50
269.998
 51
347.683
  0
ARC
  5
103C
330
12CE
100
AcDbEntity
  8
0
100
AcDbCircle
 10
285.726123
 20
413.68187
 30
0.0
 40
2.5
100
AcDbArc
 50
193.844
 51
269.998
  0
LINE
  5
103D
330
12CE
100
AcDbEntity
  8
0
100
AcDbLine
 10
379.389123
 20
411.1818699999999
 30
0.0
 11
387.541123
 21
411.1818699999999
 31
0.0
  0
LINE
  5
103E
330
12CE
100
AcDbEntity
  8
0
100
AcDbLine
 10
389.969123
 20
413.0838699999999
 30
0.0
 11
392.457123
 21
423.1818699999999
 31
0.0
  0
LINE
  5
103F
330
12CE
100
AcDbEntity
  8
0
100
AcDbLine
 10
381.451123
 20
412.79687
 30
0.0
 11
377.521123
 21
423.18287
 31
0.0
  0
LINE
  5
1040
330
12CE
100
AcDbEntity
  8
0
100
AcDbLine
 10
374.756123
 20
423.1818699999999
 30
0.0
 11
376.946123
 21
413.14887
 31
0.0
  0
ARC
  5
1041
330
12CE
100
AcDbEntity
  8
0
100
AcDbCircle
 10
383.789123
 20
413.68187
 30
0.0
 40
2.5
100
AcDbArc
 50
200.729
 51
269.998
  0
ARC
  5
1042
330
12CE
100
AcDbEntity
  8
0
100
AcDbCircle
 10
379.389123
 20
413.68187
 30
0.0
 40
2.5
100
AcDbArc
 50
192.317
 51
270.003
  0
ARC
  5
1043
330
12CE
100
AcDbEntity
  8
0
100
AcDbCircle
 10
387.541123
 20
413.68187
 30
0.0
 40
2.5
100
AcDbArc
 50
270.002
 51
346.156
  0
LINE
  5
1044
330
12CE
100
AcDbEntity
  8
0
100
AcDbLine
 10
230.123123
 20
406.8528699999999
 30
0.0
 11
232.675123
 21
406.62987
 31
0.0
  0
LINE
  5
1045
330
12CE
100
AcDbEntity
  8
0
100
AcDbLine
 10
236.633123
 20
423.1818699999999
 30
0.0
 11
235.384123
 21
408.90187
 31
0.0
  0
ARC
  5
1046
330
12CE
100
AcDbEntity
  8
0
100
AcDbCircle
 10
232.894123
 20
409.1198699999999
 30
0.0
 40
2.5
100
AcDbArc
 50
265.0
 51
355.0019999999999
  0
LINE
  5
1047
330
12CE
100
AcDbEntity
  8
0
100
AcDbLine
 10
436.6331230000001
 20
423.1818699999999
 30
0.0
 11
437.8831230000001
 21
408.90187
 31
0.0
  0
ARC
  5
1048
330
12CE
100
AcDbEntity
  8
0
100
AcDbCircle
 10
440.3731229999999
 20
409.1198699999999
 30
0.0
 40
2.5
100
AcDbArc
 50
184.999
 51
274.998
  0
LINE
  5
1049
330
12CE
100
AcDbEntity
  8
0
100
AcDbLine
 10
536.1561230000001
 20
317.00087
 30
0.0
 11
515.403123
 21
394.45387
 31
0.0
  0
ARC
  5
104A
330
12CE
100
AcDbEntity
  8
0
100
AcDbCircle
 10
509.538123
 20
406.6818699999999
 30
0.0
 40
2.5
100
AcDbArc
 50
14.999
 51
90.0
  0
LINE
  5
104B
330
12CE
100
AcDbEntity
  8
0
100
AcDbLine
 10
417.633123
 20
353.18187
 30
0.0
 11
255.211123
 21
353.18187
 31
0.0
  0
LINE
  5
104C
330
12CE
100
AcDbEntity
  8
0
100
AcDbLine
 10
418.404123
 20
358.18187
 30
0.0
 11
254.862123
 21
358.18187
 31
0.0
  0
LINE
  5
104D
330
12CE
100
AcDbEntity
  8
0
100
AcDbLine
 10
254.608123
 20
296.31587
 30
0.0
 11
252.713123
 21
350.59487
 31
0.0
  0
ARC
  5
104E
330
12CE
100
AcDbEntity
  8
0
100
AcDbCircle
 10
418.404123
 20
360.68187
 30
0.0
 40
2.5
100
AcDbArc
 50
270.0
 51
0.0
  0
LINE
  5
104F
330
12CE
100
AcDbEntity
  8
0
100
AcDbLine
 10
417.633123
 20
358.18187
 30
0.0
 11
417.633123
 21
353.3178700000001
 31
0.0
  0
ARC
  5
1050
330
12CE
100
AcDbEntity
  8
0
100
AcDbCircle
 10
254.862123
 20
360.68187
 30
0.0
 40
2.5
100
AcDbArc
 50
182.0
 51
269.997
  0
LINE
  5
1051
330
12CE
100
AcDbEntity
  8
0
100
AcDbLine
 10
255.633123
 20
358.18187
 30
0.0
 11
255.633123
 21
353.18187
 31
0.0
  0
LINE
  5
1052
330
12CE
100
AcDbEntity
  8
0
100
AcDbLine
 10
252.364123
 20
360.59487
 30
0.0
 11
251.133123
 21
395.83987
 31
0.0
  0
ARC
  5
1053
330
12CE
100
AcDbEntity
  8
0
100
AcDbCircle
 10
255.211123
 20
350.68187
 30
0.0
 40
2.5
100
AcDbArc
 50
90.005
 51
182.0
  0
LINE
  5
1054
330
12CE
100
AcDbEntity
  8
0
100
AcDbLine
 10
249.614123
 20
296.05387
 30
0.0
 11
246.251123
 21
392.36687
 31
0.0
  0
LINE
  5
1055
330
12CE
100
AcDbEntity
  8
0
100
AcDbLine
 10
425.9841230000001
 20
362.83287
 30
0.0
 11
427.063123
 21
393.75387
 31
0.0
  0
LINE
  5
1056
330
12CE
100
AcDbEntity
  8
0
100
AcDbLine
 10
420.902123
 20
360.59487
 30
0.0
 11
422.133123
 21
395.83987
 31
0.0
  0
ARC
  5
1057
330
12CE
100
AcDbEntity
  8
0
100
AcDbCircle
 10
435.0101229999999
 20
392.08787
 30
0.0
 40
8.0
100
AcDbArc
 50
95.0
 51
178.0
  0
ARC
  5
1058
330
12CE
100
AcDbEntity
  8
0
100
AcDbCircle
 10
238.256123
 20
392.08787
 30
0.0
 40
8.0
100
AcDbArc
 50
2.0
 51
85.0
  0
ARC
  5
1059
330
12CE
100
AcDbEntity
  8
0
100
AcDbCircle
 10
415.990123
 20
363.18187
 30
0.0
 40
10.0
100
AcDbArc
 50
270.0
 51
358.0
  0
LINE
  5
105A
330
12CE
100
AcDbEntity
  8
0
100
AcDbLine
 10
173.633123
 20
425.18187
 30
0.0
 11
202.186123
 21
425.18187
 31
0.0
  0
LINE
  5
105B
330
12CE
100
AcDbEntity
  8
0
100
AcDbLine
 10
233.162123
 20
411.1818699999999
 30
0.0
 11
235.584123
 21
411.1818699999999
 31
0.0
  0
LINE
  5
105C
330
12CE
100
AcDbEntity
  8
0
100
AcDbLine
 10
439.633123
 20
420.18287
 30
0.0
 11
450.631123
 21
420.75887
 31
0.0
  0
LINE
  5
105D
330
12CE
100
AcDbEntity
  8
0
100
AcDbLine
 10
222.635123
 20
420.75887
 30
0.0
 11
233.634123
 21
420.18187
 31
0.0
  0
LINE
  5
105E
330
12CE
100
AcDbEntity
  8
0
100
AcDbLine
 10
199.905123
 20
420.75887
 30
0.0
 11
206.633123
 21
420.75887
 31
0.0
  0
LINE
  5
105F
330
12CE
100
AcDbEntity
  8
0
100
AcDbLine
 10
233.297123
 20
413.76787
 30
0.0
 11
233.634123
 21
420.18187
 31
0.0
  0
LINE
  5
1060
330
12CE
100
AcDbEntity
  8
0
100
AcDbLine
 10
439.970123
 20
413.76787
 30
0.0
 11
439.633123
 21
420.18287
 31
0.0
  0
LINE
  5
1061
330
12CE
100
AcDbEntity
  8
0
100
AcDbLine
 10
190.633123
 20
414.90287
 30
0.0
 11
206.633123
 21
413.50287
 31
0.0
  0
LINE
  5
1062
330
12CE
100
AcDbEntity
  8
0
100
AcDbLine
 10
440.105123
 20
411.18287
 30
0.0
 11
482.633123
 21
414.90287
 31
0.0
  0
ARC
  5
1063
330
12CE
100
AcDbEntity
  8
0
100
AcDbCircle
 10
230.801123
 20
413.89887
 30
0.0
 40
2.5
100
AcDbArc
 50
265.001
 51
357.0
  0
LINE
  5
1064
330
12CE
100
AcDbEntity
  8
0
100
AcDbLine
 10
204.294123
 20
415.99887
 30
0.0
 11
205.134123
 21
420.75887
 31
0.0
  0
LINE
  5
1065
330
12CE
100
AcDbEntity
  8
0
100
AcDbLine
 10
219.279123
 20
414.2568699999999
 30
0.0
 11
218.133123
 21
420.75787
 31
0.0
  0
ARC
  5
1066
330
12CE
100
AcDbEntity
  8
0
100
AcDbCircle
 10
221.742123
 20
414.69087
 30
0.0
 40
2.5
100
AcDbArc
 50
190.0
 51
265.0
  0
ARC
  5
1067
330
12CE
100
AcDbEntity
  8
0
100
AcDbCircle
 10
201.832123
 20
416.43287
 30
0.0
 40
2.5
100
AcDbArc
 50
265.0
 51
350.0
  0
ARC
  5
1068
330
12CE
100
AcDbEntity
  8
0
100
AcDbCircle
 10
442.466123
 20
413.89887
 30
0.0
 40
2.5
100
AcDbArc
 50
183.0
 51
275.0
  0
LINE
  5
1069
330
12CE
100
AcDbEntity
  8
0
100
AcDbLine
 10
476.691123
 20
424.08687
 30
0.0
 11
497.529123
 21
425.17987
 31
0.0
  0
LINE
  5
106A
330
12CE
100
AcDbEntity
  8
0
100
AcDbLine
 10
473.362123
 20
420.75887
 30
0.0
 11
476.691123
 21
424.08787
 31
0.0
  0
LINE
  5
106B
330
12CE
100
AcDbEntity
  8
0
100
AcDbLine
 10
175.738123
 20
425.17987
 30
0.0
 11
196.576123
 21
424.08787
 31
0.0
  0
LINE
  5
106C
330
12CE
100
AcDbEntity
  8
0
100
AcDbLine
 10
199.905123
 20
420.75887
 30
0.0
 11
196.576123
 21
424.08687
 31
0.0
  0
LINE
  5
106D
330
12CE
100
AcDbEntity
  8
0
100
AcDbLine
 10
499.633123
 20
425.18187
 30
0.0
 11
499.633123
 21
422.84087
 31
0.0
  0
LINE
  5
106E
330
12CE
100
AcDbEntity
  8
0
100
AcDbLine
 10
173.633123
 20
425.18187
 30
0.0
 11
173.633123
 21
422.84087
 31
0.0
  0
LINE
  5
106F
330
12CE
100
AcDbEntity
  8
4
100
AcDbLine
 10
233.297123
 20
413.76787
 30
0.0
 11
233.162123
 21
411.1818699999999
 31
0.0
  0
LINE
  5
1070
330
12CE
100
AcDbEntity
  8
0
100
AcDbLine
 10
175.279123
 20
420.49187
 30
0.0
 11
190.634123
 21
414.90287
 31
0.0
  0
ARC
  5
1071
330
12CE
100
AcDbEntity
  8
0
100
AcDbCircle
 10
176.133123
 20
422.84087
 30
0.0
 40
2.5
100
AcDbArc
 50
180.0
 51
250.0
  0
LINE
  5
1072
330
12CE
100
AcDbEntity
  8
0
100
AcDbLine
 10
482.633123
 20
414.90287
 30
0.0
 11
497.988123
 21
420.49187
 31
0.0
  0
ARC
  5
1073
330
12CE
100
AcDbEntity
  8
0
100
AcDbCircle
 10
497.133123
 20
422.84087
 30
0.0
 40
2.5
100
AcDbArc
 50
290.0
 51
0.0
  0
LINE
  5
1074
330
12CE
100
AcDbEntity
  8
0
100
AcDbLine
 10
378.656123
 20
420.18187
 30
0.0
 11
391.718123
 21
420.18187
 31
0.0
  0
LINE
  5
1075
330
12CE
100
AcDbEntity
  8
0
100
AcDbLine
 10
221.086123
 20
425.18187
 30
0.0
 11
327.185123
 21
425.18187
 31
0.0
  0
LINE
  5
1076
330
12CE
100
AcDbEntity
  8
0
100
AcDbLine
 10
216.633123
 20
420.75887
 30
0.0
 11
222.635123
 21
420.75887
 31
0.0
  0
LINE
  5
1077
330
12CE
100
AcDbEntity
  8
0
100
AcDbLine
 10
216.633123
 20
409.0508699999999
 30
0.0
 11
235.393123
 21
409.0508699999999
 31
0.0
  0
LINE
  5
1078
330
12CE
100
AcDbEntity
  8
0
100
AcDbLine
 10
216.633123
 20
412.6288699999999
 30
0.0
 11
233.161123
 21
411.18287
 31
0.0
  0
LINE
  5
1079
330
12CE
100
AcDbEntity
  8
0
100
AcDbLine
 10
436.845123
 20
420.75887
 30
0.0
 11
440.076123
 21
420.75887
 31
0.0
  0
LINE
  5
107A
330
12CE
100
AcDbEntity
  8
0
100
AcDbLine
 10
436.896123
 20
420.18287
 30
0.0
 11
439.633123
 21
420.18287
 31
0.0
  0
LINE
  5
107B
330
12CE
100
AcDbEntity
  8
0
100
AcDbLine
 10
233.634123
 20
420.18187
 30
0.0
 11
236.371123
 21
420.18187
 31
0.0
  0
LINE
  5
107C
330
12CE
100
AcDbEntity
  8
0
100
AcDbLine
 10
281.549123
 20
420.18187
 30
0.0
 11
294.610123
 21
420.18187
 31
0.0
  0
LINE
  5
107D
330
12CE
100
AcDbEntity
  8
0
100
AcDbLine
 10
196.576123
 20
424.08787
 30
0.0
 11
329.547123
 21
424.08787
 31
0.0
  0
ARC
  5
107E
330
12CE
100
AcDbEntity
  8
0
100
AcDbCircle
 10
336.633123
 20
417.9128699999999
 30
0.0
 40
14.175
100
AcDbArc
 50
70.53499999999999
 51
109.461
  0
ARC
  5
107F
330
12CE
100
AcDbEntity
  8
0
100
AcDbCircle
 10
336.633123
 20
438.26287
 30
0.0
 40
14.175
100
AcDbArc
 50
250.541
 51
289.467
  0
LINE
  5
1080
330
12CE
100
AcDbEntity
  8
0
100
AcDbLine
 10
341.361123
 20
424.89787
 30
0.0
 11
341.361123
 21
431.27687
 31
0.0
  0
LINE
  5
1081
330
12CE
100
AcDbEntity
  8
0
100
AcDbLine
 10
331.911123
 20
424.89987
 30
0.0
 11
331.911123
 21
431.27487
 31
0.0
  0
LINE
  5
1082
330
12CE
100
AcDbEntity
  8
0
100
AcDbLine
 10
343.526123
 20
424.08787
 30
0.0
 11
329.745123
 21
424.08787
 31
0.0
  0
LINE
  5
1083
330
12CE
100
AcDbEntity
  8
0
100
AcDbLine
 10
343.522123
 20
432.08787
 30
0.0
 11
329.745123
 21
432.08787
 31
0.0
  0
LINE
  5
1084
330
12CE
100
AcDbEntity
  8
0
100
AcDbLine
 10
346.084123
 20
424.89787
 30
0.0
 11
345.173123
 21
424.37187
 31
0.0
  0
ARC
  5
1085
330
12CE
100
AcDbEntity
  8
0
100
AcDbCircle
 10
343.721123
 20
427.93387
 30
0.0
 40
3.846999999999999
100
AcDbArc
 50
232.15
 51
292.155
  0
LINE
  5
1086
330
12CE
100
AcDbEntity
  8
0
100
AcDbLine
 10
346.085123
 20
424.90087
 30
0.0
 11
346.087123
 21
431.27487
 31
0.0
  0
ARC
  5
1087
330
12CE
100
AcDbEntity
  8
0
100
AcDbCircle
 10
343.721123
 20
428.2398699999999
 30
0.0
 40
3.848
100
AcDbArc
 50
67.765
 51
127.832
  0
LINE
  5
1088
330
12CE
100
AcDbEntity
  8
0
100
AcDbLine
 10
346.085123
 20
431.27687
 30
0.0
 11
345.178123
 21
431.80087
 31
0.0
  0
ARC
  5
1089
330
12CE
100
AcDbEntity
  8
0
100
AcDbCircle
 10
329.547123
 20
427.93687
 30
0.0
 40
3.848999999999999
100
AcDbArc
 50
247.8140000000001
 51
307.865
  0
LINE
  5
108A
330
12CE
100
AcDbEntity
  8
0
100
AcDbLine
 10
328.093123
 20
424.37287
 30
0.0
 11
327.186123
 21
424.89687
 31
0.0
  0
LINE
  5
108B
330
12CE
100
AcDbEntity
  8
0
100
AcDbLine
 10
327.185123
 20
424.89887
 30
0.0
 11
327.186123
 21
431.27287
 31
0.0
  0
LINE
  5
108C
330
12CE
100
AcDbEntity
  8
0
100
AcDbLine
 10
328.126123
 20
431.81487
 30
0.0
 11
327.188123
 21
431.27487
 31
0.0
  0
ARC
  5
108D
330
12CE
100
AcDbEntity
  8
0
100
AcDbCircle
 10
329.546123
 20
428.23887
 30
0.0
 40
3.848
100
AcDbArc
 50
52.122
 51
111.668
  0
ARC
  5
108E
330
12CE
100
AcDbEntity
  8
0
100
AcDbCircle
 10
211.633123
 20
417.9128699999999
 30
0.0
 40
14.175
100
AcDbArc
 50
70.53499999999999
 51
109.461
  0
ARC
  5
108F
330
12CE
100
AcDbEntity
  8
0
100
AcDbCircle
 10
211.633123
 20
438.26287
 30
0.0
 40
14.175
100
AcDbArc
 50
250.541
 51
289.467
  0
LINE
  5
1090
330
12CE
100
AcDbEntity
  8
0
100
AcDbLine
 10
216.361123
 20
424.89787
 30
0.0
 11
216.361123
 21
431.27687
 31
0.0
  0
LINE
  5
1091
330
12CE
100
AcDbEntity
  8
0
100
AcDbLine
 10
206.911123
 20
424.89987
 30
0.0
 11
206.911123
 21
431.27487
 31
0.0
  0
LINE
  5
1092
330
12CE
100
AcDbEntity
  8
0
100
AcDbLine
 10
218.522123
 20
432.08787
 30
0.0
 11
204.745123
 21
432.08787
 31
0.0
  0
LINE
  5
1093
330
12CE
100
AcDbEntity
  8
0
100
AcDbLine
 10
221.084123
 20
424.89587
 30
0.0
 11
220.192123
 21
424.37987
 31
0.0
  0
ARC
  5
1094
330
12CE
100
AcDbEntity
  8
0
100
AcDbCircle
 10
218.721123
 20
427.93487
 30
0.0
 40
3.846999999999999
100
AcDbArc
 50
232.166
 51
292.469
  0
LINE
  5
1095
330
12CE
100
AcDbEntity
  8
0
100
AcDbLine
 10
221.085123
 20
424.89787
 30
0.0
 11
221.086123
 21
431.27387
 31
0.0
  0
ARC
  5
1096
330
12CE
100
AcDbEntity
  8
0
100
AcDbCircle
 10
218.721123
 20
428.2398699999999
 30
0.0
 40
3.848
100
AcDbArc
 50
67.922
 51
127.832
  0
LINE
  5
1097
330
12CE
100
AcDbEntity
  8
0
100
AcDbLine
 10
221.085123
 20
431.2758699999999
 30
0.0
 11
220.168123
 21
431.80587
 31
0.0
  0
ARC
  5
1098
330
12CE
100
AcDbEntity
  8
0
100
AcDbCircle
 10
204.547123
 20
427.93687
 30
0.0
 40
3.848999999999999
100
AcDbArc
 50
247.657
 51
307.865
  0
LINE
  5
1099
330
12CE
100
AcDbEntity
  8
0
100
AcDbLine
 10
203.083123
 20
424.37687
 30
0.0
 11
202.187123
 21
424.89487
 31
0.0
  0
LINE
  5
109A
330
12CE
100
AcDbEntity
  8
0
100
AcDbLine
 10
202.186123
 20
424.89687
 30
0.0
 11
202.186123
 21
431.2778699999999
 31
0.0
  0
LINE
  5
109B
330
12CE
100
AcDbEntity
  8
0
100
AcDbLine
 10
203.101123
 20
431.80587
 30
0.0
 11
202.188123
 21
431.27987
 31
0.0
  0
ARC
  5
109C
330
12CE
100
AcDbEntity
  8
0
100
AcDbCircle
 10
204.546123
 20
428.23887
 30
0.0
 40
3.848
100
AcDbArc
 50
52.122
 51
112.06
  0
LINE
  5
109D
330
12CE
100
AcDbEntity
  8
0
100
AcDbLine
 10
346.085123
 20
425.18187
 30
0.0
 11
435.626123
 21
425.18187
 31
0.0
  0
LINE
  5
109E
330
12CE
100
AcDbEntity
  8
0
100
AcDbLine
 10
344.682123
 20
424.08787
 30
0.0
 11
476.691123
 21
424.08787
 31
0.0
  0
ARC
  5
109F
330
12CE
100
AcDbEntity
  8
0
100
AcDbCircle
 10
445.076123
 20
417.9128699999999
 30
0.0
 40
14.175
100
AcDbArc
 50
70.536
 51
109.464
  0
ARC
  5
10A0
330
12CE
100
AcDbEntity
  8
0
100
AcDbCircle
 10
445.076123
 20
438.26287
 30
0.0
 40
14.175
100
AcDbArc
 50
250.536
 51
289.464
  0
LINE
  5
10A1
330
12CE
100
AcDbEntity
  8
0
100
AcDbLine
 10
449.801123
 20
424.89887
 30
0.0
 11
449.801123
 21
431.2758699999999
 31
0.0
  0
LINE
  5
10A2
330
12CE
100
AcDbEntity
  8
0
100
AcDbLine
 10
440.351123
 20
424.89987
 30
0.0
 11
440.351123
 21
431.27487
 31
0.0
  0
LINE
  5
10A3
330
12CE
100
AcDbEntity
  8
0
100
AcDbLine
 10
451.962123
 20
432.08687
 30
0.0
 11
438.188123
 21
432.08687
 31
0.0
  0
LINE
  5
10A4
330
12CE
100
AcDbEntity
  8
0
100
AcDbLine
 10
454.525123
 20
424.89287
 30
0.0
 11
453.647123
 21
424.38487
 31
0.0
  0
ARC
  5
10A5
330
12CE
100
AcDbEntity
  8
0
100
AcDbCircle
 10
452.164123
 20
427.93487
 30
0.0
 40
3.848
100
AcDbArc
 50
232.138
 51
292.671
  0
LINE
  5
10A6
330
12CE
100
AcDbEntity
  8
0
100
AcDbLine
 10
454.526123
 20
424.89487
 30
0.0
 11
454.526123
 21
431.2758699999999
 31
0.0
  0
ARC
  5
10A7
330
12CE
100
AcDbEntity
  8
0
100
AcDbCircle
 10
452.164123
 20
428.2398699999999
 30
0.0
 40
3.848
100
AcDbArc
 50
67.786
 51
127.859
  0
LINE
  5
10A8
330
12CE
100
AcDbEntity
  8
0
100
AcDbLine
 10
454.525123
 20
431.27887
 30
0.0
 11
453.619123
 21
431.80187
 31
0.0
  0
ARC
  5
10A9
330
12CE
100
AcDbEntity
  8
0
100
AcDbCircle
 10
437.9891230000001
 20
427.93487
 30
0.0
 40
3.846999999999999
100
AcDbArc
 50
247.681
 51
307.865
  0
LINE
  5
10AA
330
12CE
100
AcDbEntity
  8
0
100
AcDbLine
 10
436.527123
 20
424.3758699999999
 30
0.0
 11
435.627123
 21
424.89487
 31
0.0
  0
LINE
  5
10AB
330
12CE
100
AcDbEntity
  8
0
100
AcDbLine
 10
435.626123
 20
424.89687
 30
0.0
 11
435.626123
 21
431.27187
 31
0.0
  0
LINE
  5
10AC
330
12CE
100
AcDbEntity
  8
0
100
AcDbLine
 10
436.566123
 20
431.81487
 30
0.0
 11
435.627123
 21
431.27387
 31
0.0
  0
ARC
  5
10AD
330
12CE
100
AcDbEntity
  8
0
100
AcDbCircle
 10
437.9891230000001
 20
428.2398699999999
 30
0.0
 40
3.848
100
AcDbArc
 50
52.137
 51
111.694
  0
LINE
  5
10AE
330
12CE
100
AcDbEntity
  8
0
100
AcDbLine
 10
454.526123
 20
425.18187
 30
0.0
 11
499.633123
 21
425.18187
 31
0.0
  0
LINE
  5
10AF
330
12CE
100
AcDbEntity
  8
0
100
AcDbLine
 10
450.0761230000001
 20
424.08787
 30
0.0
 11
450.0761230000001
 21
420.75887
 31
0.0
  0
LINE
  5
10B0
330
12CE
100
AcDbEntity
  8
0
100
AcDbLine
 10
440.076123
 20
424.08787
 30
0.0
 11
440.076123
 21
420.20587
 31
0.0
  0
LINE
  5
10B1
330
12CE
100
AcDbEntity
  8
0
100
AcDbLine
 10
440.095123
 20
411.1818699999999
 30
0.0
 11
440.069123
 21
406.63887
 31
0.0
  0
LINE
  5
10B2
330
12CE
100
AcDbEntity
  8
0
100
AcDbLine
 10
450.052123
 20
412.05287
 30
0.0
 11
450.079123
 21
407.45987
 31
0.0
  0
LINE
  5
10B3
330
12CE
100
AcDbEntity
  8
0
100
AcDbLine
 10
450.0761230000001
 20
407.9458699999999
 30
0.0
 11
467.633123
 21
407.9458699999999
 31
0.0
  0
LINE
  5
10B4
330
12CE
100
AcDbEntity
  8
0
100
AcDbLine
 10
440.083123
 20
409.0508699999999
 30
0.0
 11
437.8741230000001
 21
409.0508699999999
 31
0.0
  0
LINE
  5
10B5
330
12CE
100
AcDbEntity
  8
4
100
AcDbLine
 10
441.073123
 20
407.45987
 30
0.0
 11
441.069123
 21
406.67087
 31
0.0
  0
LINE
  5
10B6
330
12CE
100
AcDbEntity
  8
4
100
AcDbLine
 10
449.076123
 20
424.08787
 30
0.0
 11
449.076123
 21
420.67687
 31
0.0
  0
LINE
  5
10B7
330
12CE
100
AcDbEntity
  8
4
100
AcDbLine
 10
441.076123
 20
424.08787
 30
0.0
 11
441.076123
 21
420.25787
 31
0.0
  0
LINE
  5
10B8
330
12CE
100
AcDbEntity
  8
0
100
AcDbLine
 10
440.073123
 20
407.45987
 30
0.0
 11
450.079123
 21
407.45987
 31
0.0
  0
LINE
  5
10B9
330
12CE
100
AcDbEntity
  8
0
100
AcDbLine
 10
440.073123
 20
410.45987
 30
0.0
 11
450.079123
 21
410.45987
 31
0.0
  0
LINE
  5
10BA
330
12CE
100
AcDbEntity
  8
0
100
AcDbLine
 10
450.0761230000001
 20
420.75887
 30
0.0
 11
473.362123
 21
420.75887
 31
0.0
  0
LINE
  5
10BB
330
12CE
100
AcDbEntity
  8
7
 48
0.409
100
AcDbLine
 10
445.076123
 20
443.04787
 30
0.0
 11
445.076123
 21
407.02187
 31
0.0
  0
LINE
  5
10BC
330
12CE
100
AcDbEntity
  8
4
100
AcDbLine
 10
441.073123
 20
437.4598699999999
 30
0.0
 11
441.073123
 21
432.08687
 31
0.0
  0
LINE
  5
10BD
330
12CE
100
AcDbEntity
  8
4
100
AcDbLine
 10
449.080123
 20
437.4598699999999
 30
0.0
 11
449.080123
 21
432.08687
 31
0.0
  0
LINE
  5
10BE
330
12CE
100
AcDbEntity
  8
0
100
AcDbLine
 10
440.076123
 20
436.45987
 30
0.0
 11
440.076123
 21
432.08687
 31
0.0
  0
LINE
  5
10BF
330
12CE
100
AcDbEntity
  8
0
100
AcDbLine
 10
450.0761230000001
 20
436.45987
 30
0.0
 11
450.0761230000001
 21
432.08687
 31
0.0
  0
LINE
  5
10C0
330
12CE
100
AcDbEntity
  8
0
100
AcDbLine
 10
207.633123
 20
432.08787
 30
0.0
 11
207.633123
 21
437.4598699999999
 31
0.0
  0
LINE
  5
10C1
330
12CE
100
AcDbEntity
  8
0
100
AcDbLine
 10
215.633123
 20
437.4598699999999
 30
0.0
 11
215.633123
 21
432.08787
 31
0.0
  0
LINE
  5
10C2
330
12CE
100
AcDbEntity
  8
0
100
AcDbLine
 10
216.633123
 20
436.45987
 30
0.0
 11
216.633123
 21
432.08787
 31
0.0
  0
LINE
  5
10C3
330
12CE
100
AcDbEntity
  8
0
100
AcDbLine
 10
206.633123
 20
436.45987
 30
0.0
 11
206.633123
 21
432.08787
 31
0.0
  0
LINE
  5
10C4
330
12CE
100
AcDbEntity
  8
0
100
AcDbLine
 10
207.633123
 20
424.08787
 30
0.0
 11
207.633123
 21
410.94487
 31
0.0
  0
LINE
  5
10C5
330
12CE
100
AcDbEntity
  8
0
100
AcDbLine
 10
206.633123
 20
424.08787
 30
0.0
 11
206.633123
 21
407.94487
 31
0.0
  0
LINE
  5
10C6
330
12CE
100
AcDbEntity
  8
0
100
AcDbLine
 10
215.633123
 20
424.08787
 30
0.0
 11
215.633123
 21
410.94487
 31
0.0
  0
LINE
  5
10C7
330
12CE
100
AcDbEntity
  8
0
100
AcDbLine
 10
216.633123
 20
424.08787
 30
0.0
 11
216.633123
 21
407.94487
 31
0.0
  0
LINE
  5
10C8
330
12CE
100
AcDbEntity
  8
0
100
AcDbLine
 10
206.633123
 20
410.94487
 30
0.0
 11
216.633123
 21
410.94487
 31
0.0
  0
LINE
  5
10C9
330
12CE
100
AcDbEntity
  8
0
100
AcDbLine
 10
207.633123
 20
395.44487
 30
0.0
 11
215.633123
 21
395.44487
 31
0.0
  0
LINE
  5
10CA
330
12CE
100
AcDbEntity
  8
0
100
AcDbLine
 10
206.633123
 20
396.4448700000001
 30
0.0
 11
216.633123
 21
396.4448700000001
 31
0.0
  0
LINE
  5
10CB
330
12CE
100
AcDbEntity
  8
0
100
AcDbLine
 10
215.633123
 20
395.44487
 30
0.0
 11
216.633123
 21
396.4448700000001
 31
0.0
  0
LINE
  5
10CC
330
12CE
100
AcDbEntity
  8
0
100
AcDbLine
 10
207.633123
 20
395.44487
 30
0.0
 11
206.634123
 21
396.4448700000001
 31
0.0
  0
LINE
  5
10CD
330
12CE
100
AcDbEntity
  8
4
100
AcDbLine
 10
206.633123
 20
396.4448700000001
 30
0.0
 11
206.633123
 21
392.94587
 31
0.0
  0
LINE
  5
10CE
330
12CE
100
AcDbEntity
  8
4
100
AcDbLine
 10
216.633123
 20
396.4448700000001
 30
0.0
 11
216.633123
 21
392.94587
 31
0.0
  0
LINE
  5
10CF
330
12CE
100
AcDbEntity
  8
4
100
AcDbLine
 10
207.633123
 20
395.44487
 30
0.0
 11
207.633123
 21
407.94487
 31
0.0
  0
LINE
  5
10D0
330
12CE
100
AcDbEntity
  8
4
100
AcDbLine
 10
215.633123
 20
407.94487
 30
0.0
 11
215.633123
 21
395.44487
 31
0.0
  0
LINE
  5
10D1
330
12CE
100
AcDbEntity
  8
7
 48
0.7879999999999999
100
AcDbLine
 10
211.633123
 20
374.94387
 30
0.0
 11
211.633123
 21
444.32987
 31
0.0
  0
LINE
  5
10D2
330
12CE
100
AcDbEntity
  8
0
100
AcDbLine
 10
331.633123
 20
436.45987
 30
0.0
 11
331.633123
 21
432.08787
 31
0.0
  0
LINE
  5
10D3
330
12CE
100
AcDbEntity
  8
4
100
AcDbLine
 10
332.633123
 20
432.08787
 30
0.0
 11
332.633123
 21
437.4598699999999
 31
0.0
  0
LINE
  5
10D4
330
12CE
100
AcDbEntity
  8
4
100
AcDbLine
 10
340.633123
 20
437.4598699999999
 30
0.0
 11
340.633123
 21
432.08787
 31
0.0
  0
LINE
  5
10D5
330
12CE
100
AcDbEntity
  8
0
100
AcDbLine
 10
341.633123
 20
432.08787
 30
0.0
 11
341.633123
 21
436.45987
 31
0.0
  0
LINE
  5
10D6
330
12CE
100
AcDbEntity
  8
0
100
AcDbLine
 10
449.080123
 20
437.4598699999999
 30
0.0
 11
441.073123
 21
437.4598699999999
 31
0.0
  0
LINE
  5
10D7
330
12CE
100
AcDbEntity
  8
0
100
AcDbLine
 10
440.076123
 20
436.45987
 30
0.0
 11
450.0761230000001
 21
436.45987
 31
0.0
  0
LINE
  5
10D8
330
12CE
100
AcDbEntity
  8
0
100
AcDbLine
 10
441.073123
 20
437.45887
 30
0.0
 11
440.076123
 21
436.4588699999999
 31
0.0
  0
LINE
  5
10D9
330
12CE
100
AcDbEntity
  8
0
100
AcDbLine
 10
449.080123
 20
437.45887
 30
0.0
 11
450.0761230000001
 21
436.45987
 31
0.0
  0
LINE
  5
10DA
330
12CE
100
AcDbEntity
  8
0
100
AcDbLine
 10
207.633123
 20
437.4598699999999
 30
0.0
 11
215.633123
 21
437.4598699999999
 31
0.0
  0
LINE
  5
10DB
330
12CE
100
AcDbEntity
  8
0
100
AcDbLine
 10
206.633123
 20
436.45987
 30
0.0
 11
216.633123
 21
436.45987
 31
0.0
  0
LINE
  5
10DC
330
12CE
100
AcDbEntity
  8
0
100
AcDbLine
 10
331.633123
 20
436.45987
 30
0.0
 11
341.633123
 21
436.45987
 31
0.0
  0
LINE
  5
10DD
330
12CE
100
AcDbEntity
  8
0
100
AcDbLine
 10
332.633123
 20
437.4598699999999
 30
0.0
 11
340.633123
 21
437.4598699999999
 31
0.0
  0
LINE
  5
10DE
330
12CE
100
AcDbEntity
  8
0
100
AcDbLine
 10
332.633123
 20
437.45887
 30
0.0
 11
331.633123
 21
436.4588699999999
 31
0.0
  0
LINE
  5
10DF
330
12CE
100
AcDbEntity
  8
0
100
AcDbLine
 10
340.633123
 20
437.4598699999999
 30
0.0
 11
341.634123
 21
436.4588699999999
 31
0.0
  0
LINE
  5
10E0
330
12CE
100
AcDbEntity
  8
0
100
AcDbLine
 10
207.634123
 20
437.45887
 30
0.0
 11
206.634123
 21
436.4588699999999
 31
0.0
  0
LINE
  5
10E1
330
12CE
100
AcDbEntity
  8
0
100
AcDbLine
 10
215.633123
 20
437.45887
 30
0.0
 11
216.633123
 21
436.45987
 31
0.0
  0
LINE
  5
10E2
330
12CE
100
AcDbEntity
  8
0
100
AcDbLine
 10
161.962123
 20
419.07287
 30
0.0
 11
179.177123
 21
419.07287
 31
0.0
  0
LINE
  5
10E3
330
12CE
100
AcDbEntity
  8
0
100
AcDbLine
 10
494.090123
 20
419.07287
 30
0.0
 11
511.305123
 21
419.07287
 31
0.0
  0
LINE
  5
10E4
330
12CE
100
AcDbEntity
  8
0
100
AcDbLine
 10
643.101123
 20
251.66587
 30
0.0
 11
650.166123
 21
386.47987
 31
0.0
  0
LINE
  5
10E5
330
12CE
100
AcDbEntity
  8
MAßLINIEN
 62
     4
100
AcDbLine
 10
495.821123
 20
326.97687
 30
0.0
 11
646.633123
 21
319.07287
 31
0.0
  0
LINE
  5
10E6
330
12CE
100
AcDbEntity
  8
0
100
AcDbLine
 10
628.514123
 20
259.93987
 30
0.0
 11
634.7941229999999
 21
379.77587
 31
0.0
  0
LINE
  5
10E7
330
12CE
100
AcDbEntity
  8
0
100
AcDbLine
 10
620.525123
 20
260.35887
 30
0.0
 11
626.884123
 21
381.69187
 31
0.0
  0
LINE
  5
10E8
330
12CE
100
AcDbEntity
  8
0
100
AcDbLine
 10
523.803123
 20
393.10287
 30
0.0
 11
650.166123
 21
386.47987
 31
0.0
  0
LINE
  5
10E9
330
12CE
100
AcDbEntity
  8
0
100
AcDbLine
 10
524.539123
 20
387.0558700000001
 30
0.0
 11
626.884123
 21
381.69187
 31
0.0
  0
LINE
  5
10EA
330
12CE
100
AcDbEntity
  8
0
100
AcDbLine
 10
634.7941229999999
 20
379.77587
 30
0.0
 11
649.774123
 21
378.99087
 31
0.0
  0
LINE
  5
10EB
330
12CE
100
AcDbEntity
  8
0
100
AcDbLine
 10
628.514123
 20
259.93987
 30
0.0
 11
643.4931230000001
 21
259.15487
 31
0.0
  0
LINE
  5
10EC
330
12CE
100
AcDbEntity
  8
0
100
AcDbLine
 10
273.549123
 20
277.04087
 30
0.0
 11
620.446123
 21
258.86087
 31
0.0
  0
LINE
  5
10ED
330
12CE
100
AcDbEntity
  8
0
100
AcDbLine
 10
274.238123
 20
270.99687
 30
0.0
 11
643.101123
 21
251.66587
 31
0.0
  0
LINE
  5
10EE
330
12CE
100
AcDbEntity
  8
0
100
AcDbLine
 10
620.446123
 20
258.86087
 30
0.0
 11
628.514123
 21
259.93987
 31
0.0
  0
LINE
  5
10EF
330
12CE
100
AcDbEntity
  8
0
100
AcDbLine
 10
626.884123
 20
381.69187
 30
0.0
 11
634.7941229999999
 21
379.77587
 31
0.0
  0
ARC
  5
10F0
330
12CE
100
AcDbEntity
  8
0
100
AcDbCircle
 10
524.012123
 20
397.09687
 30
0.0
 40
4.0
100
AcDbArc
 50
195.0
 51
267.0
  0
ARC
  5
10F1
330
12CE
100
AcDbEntity
  8
0
100
AcDbCircle
 10
525.062123
 20
397.04187
 30
0.0
 40
10.0
100
AcDbArc
 50
194.999
 51
267.0
  0
ARC
  5
10F2
330
12CE
100
AcDbEntity
  8
0
100
AcDbCircle
 10
274.596123
 20
297.01387
 30
0.0
 40
20.0
100
AcDbArc
 50
182.0
 51
267.0
  0
ARC
  5
10F3
330
12CE
100
AcDbEntity
  8
0
100
AcDbCircle
 10
275.599123
 20
296.96087
 30
0.0
 40
26.0
100
AcDbArc
 50
182.0
 51
267.0
  0
LINE
  5
10F4
330
12CE
100
AcDbEntity
  8
0
100
AcDbLine
 10
511.953123
 20
407.3288699999999
 30
0.0
 11
515.403123
 21
394.45387
 31
0.0
  0
ARC
  5
10F5
330
12CE
100
AcDbEntity
  8
0
100
AcDbCircle
 10
445.076123
 20
389.18187
 30
0.0
 40
12.0
100
AcDbArc
 50
190.0
 51
0.0
  0
LINE
  5
10F6
330
12CE
100
AcDbEntity
  8
0
100
AcDbLine
 10
456.894123
 20
387.09887
 30
0.0
 11
459.235123
 21
400.37787
 31
0.0
  0
LINE
  5
10F7
330
12CE
100
AcDbEntity
  8
0
100
AcDbLine
 10
433.259123
 20
387.09887
 30
0.0
 11
432.024123
 21
394.1008700000001
 31
0.0
  0
ARC
  5
10F8
330
12CE
100
AcDbEntity
  8
0
100
AcDbCircle
 10
461.697123
 20
399.94387
 30
0.0
 40
2.5
100
AcDbArc
 50
95.0
 51
170.0
  0
ARC
  5
10F9
330
12CE
100
AcDbEntity
  8
0
100
AcDbCircle
 10
429.562123
 20
393.66687
 30
0.0
 40
2.5
100
AcDbArc
 50
10.0
 51
178.0
  0
DIMENSION
  5
1104
330
12CE
100
AcDbEntity
  8
5
100
AcDbDimension
  2
*D7
 10
516.633123
 20
518.9748699999999
 30
0.0
 11
334.254123
 21
518.9748699999999
 31
0.0
 70
   160
  1
%%c 360
 71
     5
 42
360.0
  3
GEN-ISO
100
AcDbAlignedDimension
 13
156.633123
 23
409.18187
 33
0.0
 14
516.633123
 24
409.18187
 34
0.0
100
AcDbRotatedDimension
1001
ACAD
1000
DSTYLE
1002
{
1070
    41
1040
5.0
1002
}
  0
POLYLINE
  5
1105
330
12CE
100
AcDbEntity
  8
SCHRAFFUR_RAND
100
AcDb2dPolyline
 66
     1
 10
0.0
 20
0.0
 30
0.0
 70
     1
  0
VERTEX
  5
1106
330
1105
100
AcDbEntity
  8
SCHRAFFUR_RAND
100
AcDbVertex
100
AcDb2dVertex
 10
221.524123
 20
412.20087
 30
0.0
  0
VERTEX
  5
1107
330
1105
100
AcDbEntity
  8
SCHRAFFUR_RAND
100
AcDbVertex
100
AcDb2dVertex
 10
230.583123
 20
411.40787
 30
0.0
  0
VERTEX
  5
1108
330
1105
100
AcDbEntity
  8
SCHRAFFUR_RAND
100
AcDbVertex
100
AcDb2dVertex
 10
231.587123
 20
411.48087
 30
0.0
  0
VERTEX
  5
1109
330
1105
100
AcDbEntity
  8
SCHRAFFUR_RAND
100
AcDbVertex
100
AcDb2dVertex
 10
232.469123
 20
411.97987
 30
0.0
  0
VERTEX
  5
110A
330
1105
100
AcDbEntity
  8
SCHRAFFUR_RAND
100
AcDbVertex
100
AcDb2dVertex
 10
233.086123
 20
412.78387
 30
0.0
  0
VERTEX
  5
110B
330
1105
100
AcDbEntity
  8
SCHRAFFUR_RAND
100
AcDbVertex
100
AcDb2dVertex
 10
233.297123
 20
413.76787
 30
0.0
  0
VERTEX
  5
110C
330
1105
100
AcDbEntity
  8
SCHRAFFUR_RAND
100
AcDbVertex
100
AcDb2dVertex
 10
233.633123
 20
420.18187
 30
0.0
  0
VERTEX
  5
110D
330
1105
100
AcDbEntity
  8
SCHRAFFUR_RAND
100
AcDbVertex
100
AcDb2dVertex
 10
222.635123
 20
420.75887
 30
0.0
  0
VERTEX
  5
110E
330
1105
100
AcDbEntity
  8
SCHRAFFUR_RAND
100
AcDbVertex
100
AcDb2dVertex
 10
218.134123
 20
420.75887
 30
0.0
  0
VERTEX
  5
110F
330
1105
100
AcDbEntity
  8
SCHRAFFUR_RAND
100
AcDbVertex
100
AcDb2dVertex
 10
219.280123
 20
414.2568699999999
 30
0.0
  0
VERTEX
  5
1110
330
1105
100
AcDbEntity
  8
SCHRAFFUR_RAND
100
AcDbVertex
100
AcDb2dVertex
 10
219.513123
 20
413.46787
 30
0.0
  0
VERTEX
  5
1111
330
1105
100
AcDbEntity
  8
SCHRAFFUR_RAND
100
AcDbVertex
100
AcDb2dVertex
 10
220.025123
 20
412.8168699999999
 30
0.0
  0
VERTEX
  5
1112
330
1105
100
AcDbEntity
  8
SCHRAFFUR_RAND
100
AcDbVertex
100
AcDb2dVertex
 10
220.718123
 20
412.3638699999999
 30
0.0
  0
VERTEX
  5
1113
330
1105
100
AcDbEntity
  8
SCHRAFFUR_RAND
100
AcDbVertex
100
AcDb2dVertex
 10
221.524123
 20
412.20087
 30
0.0
  0
SEQEND
  5
1114
330
1105
100
AcDbEntity
  8
SCHRAFFUR_RAND
  0
INSERT
  5
1119
330
12CE
100
AcDbEntity
  8
8
100
AcDbBlockReference
  2
*X0
 10
-36.576877
 20
40.78087
 30
0.0
1001
ACAD
1000
HATCH
1002
{
1070
    19
1000
ANSI31,_I
1040
6.349999999999999
1040
-0.7850000000000001
1002
}
  0
POLYLINE
  5
111A
330
12CE
100
AcDbEntity
  8
SCHRAFFUR_RAND
100
AcDb2dPolyline
 66
     1
 10
0.0
 20
0.0
 30
0.0
 70
     1
  0
VERTEX
  5
111B
330
111A
100
AcDbEntity
  8
SCHRAFFUR_RAND
100
AcDbVertex
100
AcDb2dVertex
 10
175.738123
 20
425.17987
 30
0.0
  0
VERTEX
  5
111C
330
111A
100
AcDbEntity
  8
SCHRAFFUR_RAND
100
AcDbVertex
100
AcDb2dVertex
 10
173.633123
 20
425.18187
 30
0.0
  0
VERTEX
  5
111D
330
111A
100
AcDbEntity
  8
SCHRAFFUR_RAND
100
AcDbVertex
100
AcDb2dVertex
 10
173.633123
 20
422.84087
 30
0.0
  0
VERTEX
  5
111E
330
111A
100
AcDbEntity
  8
SCHRAFFUR_RAND
100
AcDbVertex
100
AcDb2dVertex
 10
173.716123
 20
422.0788699999999
 30
0.0
  0
VERTEX
  5
111F
330
111A
100
AcDbEntity
  8
SCHRAFFUR_RAND
100
AcDbVertex
100
AcDb2dVertex
 10
174.057123
 20
421.38687
 30
0.0
  0
VERTEX
  5
1120
330
111A
100
AcDbEntity
  8
SCHRAFFUR_RAND
100
AcDbVertex
100
AcDb2dVertex
 10
174.590123
 20
420.82987
 30
0.0
  0
VERTEX
  5
1121
330
111A
100
AcDbEntity
  8
SCHRAFFUR_RAND
100
AcDbVertex
100
AcDb2dVertex
 10
175.279123
 20
420.49187
 30
0.0
  0
VERTEX
  5
1122
330
111A
100
AcDbEntity
  8
SCHRAFFUR_RAND
100
AcDbVertex
100
AcDb2dVertex
 10
190.634123
 20
414.90287
 30
0.0
  0
VERTEX
  5
1123
330
111A
100
AcDbEntity
  8
SCHRAFFUR_RAND
100
AcDbVertex
100
AcDb2dVertex
 10
201.614123
 20
413.94187
 30
0.0
  0
VERTEX
  5
1124
330
111A
100
AcDbEntity
  8
SCHRAFFUR_RAND
100
AcDbVertex
100
AcDb2dVertex
 10
202.542123
 20
413.99987
 30
0.0
  0
VERTEX
  5
1125
330
111A
100
AcDbEntity
  8
SCHRAFFUR_RAND
100
AcDbVertex
100
AcDb2dVertex
 10
203.376123
 20
414.42187
 30
0.0
  0
VERTEX
  5
1126
330
111A
100
AcDbEntity
  8
SCHRAFFUR_RAND
100
AcDbVertex
100
AcDb2dVertex
 10
203.999123
 20
415.11787
 30
0.0
  0
VERTEX
  5
1127
330
111A
100
AcDbEntity
  8
SCHRAFFUR_RAND
100
AcDbVertex
100
AcDb2dVertex
 10
204.295123
 20
415.99887
 30
0.0
  0
VERTEX
  5
1128
330
111A
100
AcDbEntity
  8
SCHRAFFUR_RAND
100
AcDbVertex
100
AcDb2dVertex
 10
205.134123
 20
420.75887
 30
0.0
  0
VERTEX
  5
1129
330
111A
100
AcDbEntity
  8
SCHRAFFUR_RAND
100
AcDbVertex
100
AcDb2dVertex
 10
199.905123
 20
420.75887
 30
0.0
  0
VERTEX
  5
112A
330
111A
100
AcDbEntity
  8
SCHRAFFUR_RAND
100
AcDbVertex
100
AcDb2dVertex
 10
196.576123
 20
424.08787
 30
0.0
  0
VERTEX
  5
112B
330
111A
100
AcDbEntity
  8
SCHRAFFUR_RAND
100
AcDbVertex
100
AcDb2dVertex
 10
175.738123
 20
425.17987
 30
0.0
  0
SEQEND
  5
112C
330
111A
100
AcDbEntity
  8
SCHRAFFUR_RAND
  0
INSERT
  5
1131
330
12CE
100
AcDbEntity
  8
8
100
AcDbBlockReference
  2
*X1
 10
-36.576877
 20
40.78087
 30
0.0
1001
ACAD
1000
HATCH
1002
{
1070
    19
1000
ANSI31,_I
1040
6.349999999999999
1040
-0.7850000000000001
1002
}
  0
POLYLINE
  5
1132
330
12CE
100
AcDbEntity
  8
SCHRAFFUR_RAND
100
AcDb2dPolyline
 66
     1
 10
0.0
 20
0.0
 30
0.0
 70
     1
  0
VERTEX
  5
1133
330
1132
100
AcDbEntity
  8
SCHRAFFUR_RAND
100
AcDbVertex
100
AcDb2dVertex
 10
442.684123
 20
411.40787
 30
0.0
  0
VERTEX
  5
1134
330
1132
100
AcDbEntity
  8
SCHRAFFUR_RAND
100
AcDbVertex
100
AcDb2dVertex
 10
482.633123
 20
414.90287
 30
0.0
  0
VERTEX
  5
1135
330
1132
100
AcDbEntity
  8
SCHRAFFUR_RAND
100
AcDbVertex
100
AcDb2dVertex
 10
497.988123
 20
420.49187
 30
0.0
  0
VERTEX
  5
1136
330
1132
100
AcDbEntity
  8
SCHRAFFUR_RAND
100
AcDbVertex
100
AcDb2dVertex
 10
498.540123
 20
420.75487
 30
0.0
  0
VERTEX
  5
1137
330
1132
100
AcDbEntity
  8
SCHRAFFUR_RAND
100
AcDbVertex
100
AcDb2dVertex
 10
499.003123
 20
421.1568699999999
 30
0.0
  0
VERTEX
  5
1138
330
1132
100
AcDbEntity
  8
SCHRAFFUR_RAND
100
AcDbVertex
100
AcDb2dVertex
 10
499.355123
 20
421.65987
 30
0.0
  0
VERTEX
  5
1139
330
1132
100
AcDbEntity
  8
SCHRAFFUR_RAND
100
AcDbVertex
100
AcDb2dVertex
 10
499.575123
 20
422.23187
 30
0.0
  0
VERTEX
  5
113A
330
1132
100
AcDbEntity
  8
SCHRAFFUR_RAND
100
AcDbVertex
100
AcDb2dVertex
 10
499.633123
 20
422.84087
 30
0.0
  0
VERTEX
  5
113B
330
1132
100
AcDbEntity
  8
SCHRAFFUR_RAND
100
AcDbVertex
100
AcDb2dVertex
 10
499.633123
 20
425.18187
 30
0.0
  0
VERTEX
  5
113C
330
1132
100
AcDbEntity
  8
SCHRAFFUR_RAND
100
AcDbVertex
100
AcDb2dVertex
 10
497.529123
 20
425.17987
 30
0.0
  0
VERTEX
  5
113D
330
1132
100
AcDbEntity
  8
SCHRAFFUR_RAND
100
AcDbVertex
100
AcDb2dVertex
 10
476.691123
 20
424.08687
 30
0.0
  0
VERTEX
  5
113E
330
1132
100
AcDbEntity
  8
SCHRAFFUR_RAND
100
AcDbVertex
100
AcDb2dVertex
 10
473.362123
 20
420.75887
 30
0.0
  0
VERTEX
  5
113F
330
1132
100
AcDbEntity
  8
SCHRAFFUR_RAND
100
AcDbVertex
100
AcDb2dVertex
 10
450.631123
 20
420.75887
 30
0.0
  0
VERTEX
  5
1140
330
1132
100
AcDbEntity
  8
SCHRAFFUR_RAND
100
AcDbVertex
100
AcDb2dVertex
 10
439.633123
 20
420.18187
 30
0.0
  0
VERTEX
  5
1141
330
1132
100
AcDbEntity
  8
SCHRAFFUR_RAND
100
AcDbVertex
100
AcDb2dVertex
 10
439.970123
 20
413.76787
 30
0.0
  0
VERTEX
  5
1142
330
1132
100
AcDbEntity
  8
SCHRAFFUR_RAND
100
AcDbVertex
100
AcDb2dVertex
 10
440.077123
 20
413.10687
 30
0.0
  0
VERTEX
  5
1143
330
1132
100
AcDbEntity
  8
SCHRAFFUR_RAND
100
AcDbVertex
100
AcDb2dVertex
 10
440.372123
 20
412.50387
 30
0.0
  0
VERTEX
  5
1144
330
1132
100
AcDbEntity
  8
SCHRAFFUR_RAND
100
AcDbVertex
100
AcDb2dVertex
 10
440.815123
 20
411.99887
 30
0.0
  0
VERTEX
  5
1145
330
1132
100
AcDbEntity
  8
SCHRAFFUR_RAND
100
AcDbVertex
100
AcDb2dVertex
 10
441.376123
 20
411.63087
 30
0.0
  0
VERTEX
  5
1146
330
1132
100
AcDbEntity
  8
SCHRAFFUR_RAND
100
AcDbVertex
100
AcDb2dVertex
 10
442.015123
 20
411.42287
 30
0.0
  0
VERTEX
  5
1147
330
1132
100
AcDbEntity
  8
SCHRAFFUR_RAND
100
AcDbVertex
100
AcDb2dVertex
 10
442.684123
 20
411.40787
 30
0.0
  0
SEQEND
  5
1148
330
1132
100
AcDbEntity
  8
SCHRAFFUR_RAND
  0
INSERT
  5
1153
330
12CE
100
AcDbEntity
  8
8
100
AcDbBlockReference
  2
*X2
 10
-36.576877
 20
40.78087
 30
0.0
1001
ACAD
1000
HATCH
1002
{
1070
    19
1000
ANSI31,_I
1040
6.349999999999999
1040
-0.7850000000000001
1002
}
  0
DIMENSION
  5
115D
330
12CE
100
AcDbEntity
  8
5
100
AcDbDimension
  2
*D13
 10
646.633123
 20
179.58387
 30
0.0
 11
482.496123
 21
179.58387
 31
0.0
 70
   160
  1
310
 71
     5
 42
310.0
  3
GEN-ISO
100
AcDbAlignedDimension
 13
336.633123
 23
273.73487
 33
0.0
 14
646.633123
 24
319.07287
 34
0.0
100
AcDbRotatedDimension
1001
ACAD
1000
DSTYLE
1002
{
1070
    41
1040
5.0
1002
}
  0
DIMENSION
  5
1167
330
12CE
100
AcDbEntity
  8
5
100
AcDbDimension
  2
*D12
 10
724.5821230000001
 20
319.07287
 30
0.0
 11
724.582123
 21
365.40187
 31
0.0
 70
   160
  1
100
 71
     5
 42
99.99999999999994
  3
GEN-ISO
100
AcDbAlignedDimension
 13
511.305123
 23
419.07287
 33
0.0
 14
646.633123
 24
319.07287
 34
0.0
 50
270.0
100
AcDbRotatedDimension
1001
ACAD
1000
DSTYLE
1002
{
1070
    41
1040
5.0
1002
}
  0
POLYLINE
  5
1168
330
12CE
100
AcDbEntity
  8
SCHRAFFUR_RAND
100
AcDb2dPolyline
 66
     1
 10
0.0
 20
0.0
 30
0.0
 70
     1
  0
VERTEX
  5
1169
330
1168
100
AcDbEntity
  8
SCHRAFFUR_RAND
100
AcDbVertex
100
AcDb2dVertex
 10
251.133123
 20
395.83987
 30
0.0
  0
VERTEX
  5
116A
330
1168
100
AcDbEntity
  8
SCHRAFFUR_RAND
100
AcDbVertex
100
AcDb2dVertex
 10
249.751123
 20
403.68187
 30
0.0
  0
VERTEX
  5
116B
330
1168
100
AcDbEntity
  8
SCHRAFFUR_RAND
100
AcDbVertex
100
AcDb2dVertex
 10
243.155123
 20
403.68187
 30
0.0
  0
VERTEX
  5
116C
330
1168
100
AcDbEntity
  8
SCHRAFFUR_RAND
100
AcDbVertex
100
AcDb2dVertex
 10
242.972123
 20
407.1818699999999
 30
0.0
  0
VERTEX
  5
116D
330
1168
100
AcDbEntity
  8
SCHRAFFUR_RAND
100
AcDbVertex
100
AcDb2dVertex
 10
242.762123
 20
411.1818699999999
 30
0.0
  0
VERTEX
  5
116E
330
1168
100
AcDbEntity
  8
SCHRAFFUR_RAND
100
AcDbVertex
100
AcDb2dVertex
 10
235.584123
 20
411.1818699999999
 30
0.0
  0
VERTEX
  5
116F
330
1168
100
AcDbEntity
  8
SCHRAFFUR_RAND
100
AcDbVertex
100
AcDb2dVertex
 10
235.384123
 20
408.90187
 30
0.0
  0
VERTEX
  5
1170
330
1168
100
AcDbEntity
  8
SCHRAFFUR_RAND
100
AcDbVertex
100
AcDb2dVertex
 10
235.071123
 20
407.59587
 30
0.0
  0
VERTEX
  5
1171
330
1168
100
AcDbEntity
  8
SCHRAFFUR_RAND
100
AcDbVertex
100
AcDb2dVertex
 10
234.017123
 20
406.71087
 30
0.0
  0
VERTEX
  5
1172
330
1168
100
AcDbEntity
  8
SCHRAFFUR_RAND
100
AcDbVertex
100
AcDb2dVertex
 10
232.676123
 20
406.62987
 30
0.0
  0
VERTEX
  5
1173
330
1168
100
AcDbEntity
  8
SCHRAFFUR_RAND
100
AcDbVertex
100
AcDb2dVertex
 10
230.123123
 20
406.8528699999999
 30
0.0
  0
VERTEX
  5
1174
330
1168
100
AcDbEntity
  8
SCHRAFFUR_RAND
100
AcDbVertex
100
AcDb2dVertex
 10
216.633123
 20
408.0328699999999
 30
0.0
  0
VERTEX
  5
1175
330
1168
100
AcDbEntity
  8
SCHRAFFUR_RAND
100
AcDbVertex
100
AcDb2dVertex
 10
216.633123
 20
396.4448700000001
 30
0.0
  0
VERTEX
  5
1176
330
1168
100
AcDbEntity
  8
SCHRAFFUR_RAND
100
AcDbVertex
100
AcDb2dVertex
 10
216.633123
 20
392.94587
 30
0.0
  0
VERTEX
  5
1177
330
1168
100
AcDbEntity
  8
SCHRAFFUR_RAND
100
AcDbVertex
100
AcDb2dVertex
 10
215.633123
 20
392.94587
 30
0.0
  0
VERTEX
  5
1178
330
1168
100
AcDbEntity
  8
SCHRAFFUR_RAND
100
AcDbVertex
100
AcDb2dVertex
 10
215.633123
 20
387.44587
 30
0.0
  0
VERTEX
  5
1179
330
1168
100
AcDbEntity
  8
SCHRAFFUR_RAND
100
AcDbVertex
100
AcDb2dVertex
 10
211.634123
 20
385.13587
 30
0.0
  0
VERTEX
  5
117A
330
1168
100
AcDbEntity
  8
SCHRAFFUR_RAND
100
AcDbVertex
100
AcDb2dVertex
 10
207.633123
 20
387.44587
 30
0.0
  0
VERTEX
  5
117B
330
1168
100
AcDbEntity
  8
SCHRAFFUR_RAND
100
AcDbVertex
100
AcDb2dVertex
 10
207.633123
 20
392.94587
 30
0.0
  0
VERTEX
  5
117C
330
1168
100
AcDbEntity
  8
SCHRAFFUR_RAND
100
AcDbVertex
100
AcDb2dVertex
 10
206.633123
 20
392.94587
 30
0.0
  0
VERTEX
  5
117D
330
1168
100
AcDbEntity
  8
SCHRAFFUR_RAND
100
AcDbVertex
100
AcDb2dVertex
 10
206.633123
 20
396.4448700000001
 30
0.0
  0
VERTEX
  5
117E
330
1168
100
AcDbEntity
  8
SCHRAFFUR_RAND
100
AcDbVertex
100
AcDb2dVertex
 10
206.633123
 20
407.94487
 30
0.0
  0
VERTEX
  5
117F
330
1168
100
AcDbEntity
  8
SCHRAFFUR_RAND
100
AcDbVertex
100
AcDb2dVertex
 10
205.633123
 20
407.94487
 30
0.0
  0
VERTEX
  5
1180
330
1168
100
AcDbEntity
  8
SCHRAFFUR_RAND
100
AcDbVertex
100
AcDb2dVertex
 10
204.995123
 20
409.0508699999999
 30
0.0
  0
VERTEX
  5
1181
330
1168
100
AcDbEntity
  8
SCHRAFFUR_RAND
100
AcDbVertex
100
AcDb2dVertex
 10
190.633123
 20
410.3068699999999
 30
0.0
  0
VERTEX
  5
1182
330
1168
100
AcDbEntity
  8
SCHRAFFUR_RAND
100
AcDbVertex
100
AcDb2dVertex
 10
161.962123
 20
419.07287
 30
0.0
  0
VERTEX
  5
1183
330
1168
100
AcDbEntity
  8
SCHRAFFUR_RAND
100
AcDbVertex
100
AcDb2dVertex
 10
160.604123
 20
419.26487
 30
0.0
  0
VERTEX
  5
1184
330
1168
100
AcDbEntity
  8
SCHRAFFUR_RAND
100
AcDbVertex
100
AcDb2dVertex
 10
159.374123
 20
418.5838699999999
 30
0.0
  0
VERTEX
  5
1185
330
1168
100
AcDbEntity
  8
SCHRAFFUR_RAND
100
AcDbVertex
100
AcDb2dVertex
 10
158.816123
 20
417.3288699999999
 30
0.0
  0
VERTEX
  5
1186
330
1168
100
AcDbEntity
  8
SCHRAFFUR_RAND
100
AcDbVertex
100
AcDb2dVertex
 10
156.633123
 20
409.18187
 30
0.0
  0
VERTEX
  5
1187
330
1168
100
AcDbEntity
  8
SCHRAFFUR_RAND
100
AcDbVertex
100
AcDb2dVertex
 10
173.792123
 20
409.18187
 30
0.0
  0
VERTEX
  5
1188
330
1168
100
AcDbEntity
  8
SCHRAFFUR_RAND
100
AcDbVertex
100
AcDb2dVertex
 10
189.483123
 20
404.38487
 30
0.0
  0
VERTEX
  5
1189
330
1168
100
AcDbEntity
  8
SCHRAFFUR_RAND
100
AcDbVertex
100
AcDb2dVertex
 10
194.971123
 20
403.90487
 30
0.0
  0
VERTEX
  5
118A
330
1168
100
AcDbEntity
  8
SCHRAFFUR_RAND
100
AcDbVertex
100
AcDb2dVertex
 10
196.442123
 20
403.25787
 30
0.0
  0
VERTEX
  5
118B
330
1168
100
AcDbEntity
  8
SCHRAFFUR_RAND
100
AcDbVertex
100
AcDb2dVertex
 10
197.216123
 20
401.84887
 30
0.0
  0
VERTEX
  5
118C
330
1168
100
AcDbEntity
  8
SCHRAFFUR_RAND
100
AcDbVertex
100
AcDb2dVertex
 10
199.816123
 20
387.09887
 30
0.0
  0
VERTEX
  5
118D
330
1168
100
AcDbEntity
  8
SCHRAFFUR_RAND
100
AcDbVertex
100
AcDb2dVertex
 10
201.445123
 20
382.54887
 30
0.0
  0
VERTEX
  5
118E
330
1168
100
AcDbEntity
  8
SCHRAFFUR_RAND
100
AcDbVertex
100
AcDb2dVertex
 10
204.815123
 20
379.11587
 30
0.0
  0
VERTEX
  5
118F
330
1168
100
AcDbEntity
  8
SCHRAFFUR_RAND
100
AcDbVertex
100
AcDb2dVertex
 10
209.254123
 20
377.25987
 30
0.0
  0
VERTEX
  5
1190
330
1168
100
AcDbEntity
  8
SCHRAFFUR_RAND
100
AcDbVertex
100
AcDb2dVertex
 10
214.064123
 20
377.26987
 30
0.0
  0
VERTEX
  5
1191
330
1168
100
AcDbEntity
  8
SCHRAFFUR_RAND
100
AcDbVertex
100
AcDb2dVertex
 10
218.495123
 20
379.14487
 30
0.0
  0
VERTEX
  5
1192
330
1168
100
AcDbEntity
  8
SCHRAFFUR_RAND
100
AcDbVertex
100
AcDb2dVertex
 10
221.851123
 20
382.59187
 30
0.0
  0
VERTEX
  5
1193
330
1168
100
AcDbEntity
  8
SCHRAFFUR_RAND
100
AcDbVertex
100
AcDb2dVertex
 10
223.451123
 20
387.09887
 30
0.0
  0
VERTEX
  5
1194
330
1168
100
AcDbEntity
  8
SCHRAFFUR_RAND
100
AcDbVertex
100
AcDb2dVertex
 10
225.539123
 20
398.93987
 30
0.0
  0
VERTEX
  5
1195
330
1168
100
AcDbEntity
  8
SCHRAFFUR_RAND
100
AcDbVertex
100
AcDb2dVertex
 10
226.480123
 20
400.48887
 30
0.0
  0
VERTEX
  5
1196
330
1168
100
AcDbEntity
  8
SCHRAFFUR_RAND
100
AcDbVertex
100
AcDb2dVertex
 10
228.219123
 20
400.9968699999999
 30
0.0
  0
VERTEX
  5
1197
330
1168
100
AcDbEntity
  8
SCHRAFFUR_RAND
100
AcDbVertex
100
AcDb2dVertex
 10
238.953123
 20
400.05687
 30
0.0
  0
VERTEX
  5
1198
330
1168
100
AcDbEntity
  8
SCHRAFFUR_RAND
100
AcDbVertex
100
AcDb2dVertex
 10
241.800123
 20
399.43587
 30
0.0
  0
VERTEX
  5
1199
330
1168
100
AcDbEntity
  8
SCHRAFFUR_RAND
100
AcDbVertex
100
AcDb2dVertex
 10
244.174123
 20
397.70287
 30
0.0
  0
VERTEX
  5
119A
330
1168
100
AcDbEntity
  8
SCHRAFFUR_RAND
100
AcDbVertex
100
AcDb2dVertex
 10
245.779123
 20
395.24287
 30
0.0
  0
VERTEX
  5
119B
330
1168
100
AcDbEntity
  8
SCHRAFFUR_RAND
100
AcDbVertex
100
AcDb2dVertex
 10
246.252123
 20
392.36687
 30
0.0
  0
VERTEX
  5
119C
330
1168
100
AcDbEntity
  8
SCHRAFFUR_RAND
100
AcDbVertex
100
AcDb2dVertex
 10
249.615123
 20
296.05387
 30
0.0
  0
VERTEX
  5
119D
330
1168
100
AcDbEntity
  8
SCHRAFFUR_RAND
100
AcDbVertex
100
AcDb2dVertex
 10
250.476123
 20
289.67787
 30
0.0
  0
VERTEX
  5
119E
330
1168
100
AcDbEntity
  8
SCHRAFFUR_RAND
100
AcDbVertex
100
AcDb2dVertex
 10
253.022123
 20
283.75087
 30
0.0
  0
VERTEX
  5
119F
330
1168
100
AcDbEntity
  8
SCHRAFFUR_RAND
100
AcDbVertex
100
AcDb2dVertex
 10
256.942123
 20
278.62687
 30
0.0
  0
VERTEX
  5
11A0
330
1168
100
AcDbEntity
  8
SCHRAFFUR_RAND
100
AcDbVertex
100
AcDb2dVertex
 10
261.997123
 20
274.6178700000001
 30
0.0
  0
VERTEX
  5
11A1
330
1168
100
AcDbEntity
  8
SCHRAFFUR_RAND
100
AcDbVertex
100
AcDb2dVertex
 10
267.879123
 20
271.96887
 30
0.0
  0
VERTEX
  5
11A2
330
1168
100
AcDbEntity
  8
SCHRAFFUR_RAND
100
AcDbVertex
100
AcDb2dVertex
 10
274.238123
 20
270.99687
 30
0.0
  0
VERTEX
  5
11A3
330
1168
100
AcDbEntity
  8
SCHRAFFUR_RAND
100
AcDbVertex
100
AcDb2dVertex
 10
643.101123
 20
251.66487
 30
0.0
  0
VERTEX
  5
11A4
330
1168
100
AcDbEntity
  8
SCHRAFFUR_RAND
100
AcDbVertex
100
AcDb2dVertex
 10
643.4931230000001
 20
259.15487
 30
0.0
  0
VERTEX
  5
11A5
330
1168
100
AcDbEntity
  8
SCHRAFFUR_RAND
100
AcDbVertex
100
AcDb2dVertex
 10
628.514123
 20
259.93987
 30
0.0
  0
VERTEX
  5
11A6
330
1168
100
AcDbEntity
  8
SCHRAFFUR_RAND
100
AcDbVertex
100
AcDb2dVertex
 10
620.446123
 20
258.86087
 30
0.0
  0
VERTEX
  5
11A7
330
1168
100
AcDbEntity
  8
SCHRAFFUR_RAND
100
AcDbVertex
100
AcDb2dVertex
 10
336.633123
 20
273.73487
 30
0.0
  0
VERTEX
  5
11A8
330
1168
100
AcDbEntity
  8
SCHRAFFUR_RAND
100
AcDbVertex
100
AcDb2dVertex
 10
273.550123
 20
277.04087
 30
0.0
  0
VERTEX
  5
11A9
330
1168
100
AcDbEntity
  8
SCHRAFFUR_RAND
100
AcDbVertex
100
AcDb2dVertex
 10
267.702123
 20
278.07087
 30
0.0
  0
VERTEX
  5
11AA
330
1168
100
AcDbEntity
  8
SCHRAFFUR_RAND
100
AcDbVertex
100
AcDb2dVertex
 10
262.465123
 20
280.91487
 30
0.0
  0
VERTEX
  5
11AB
330
1168
100
AcDbEntity
  8
SCHRAFFUR_RAND
100
AcDbVertex
100
AcDb2dVertex
 10
258.289123
 20
285.16487
 30
0.0
  0
VERTEX
  5
11AC
330
1168
100
AcDbEntity
  8
SCHRAFFUR_RAND
100
AcDbVertex
100
AcDb2dVertex
 10
255.537123
 20
290.45087
 30
0.0
  0
VERTEX
  5
11AD
330
1168
100
AcDbEntity
  8
SCHRAFFUR_RAND
100
AcDbVertex
100
AcDb2dVertex
 10
254.609123
 20
296.31587
 30
0.0
  0
VERTEX
  5
11AE
330
1168
100
AcDbEntity
  8
SCHRAFFUR_RAND
100
AcDbVertex
100
AcDb2dVertex
 10
252.713123
 20
350.59487
 30
0.0
  0
VERTEX
  5
11AF
330
1168
100
AcDbEntity
  8
SCHRAFFUR_RAND
100
AcDbVertex
100
AcDb2dVertex
 10
252.879123
 20
351.9568700000001
 30
0.0
  0
VERTEX
  5
11B0
330
1168
100
AcDbEntity
  8
SCHRAFFUR_RAND
100
AcDbVertex
100
AcDb2dVertex
 10
253.856123
 20
352.96887
 30
0.0
  0
VERTEX
  5
11B1
330
1168
100
AcDbEntity
  8
SCHRAFFUR_RAND
100
AcDbVertex
100
AcDb2dVertex
 10
255.211123
 20
353.18187
 30
0.0
  0
VERTEX
  5
11B2
330
1168
100
AcDbEntity
  8
SCHRAFFUR_RAND
100
AcDbVertex
100
AcDb2dVertex
 10
255.633123
 20
353.18187
 30
0.0
  0
VERTEX
  5
11B3
330
1168
100
AcDbEntity
  8
SCHRAFFUR_RAND
100
AcDbVertex
100
AcDb2dVertex
 10
255.633123
 20
358.18187
 30
0.0
  0
VERTEX
  5
11B4
330
1168
100
AcDbEntity
  8
SCHRAFFUR_RAND
100
AcDbVertex
100
AcDb2dVertex
 10
254.862123
 20
358.18187
 30
0.0
  0
VERTEX
  5
11B5
330
1168
100
AcDbEntity
  8
SCHRAFFUR_RAND
100
AcDbVertex
100
AcDb2dVertex
 10
253.560123
 20
358.36487
 30
0.0
  0
VERTEX
  5
11B6
330
1168
100
AcDbEntity
  8
SCHRAFFUR_RAND
100
AcDbVertex
100
AcDb2dVertex
 10
252.592123
 20
359.29987
 30
0.0
  0
VERTEX
  5
11B7
330
1168
100
AcDbEntity
  8
SCHRAFFUR_RAND
100
AcDbVertex
100
AcDb2dVertex
 10
252.364123
 20
360.59487
 30
0.0
  0
VERTEX
  5
11B8
330
1168
100
AcDbEntity
  8
SCHRAFFUR_RAND
100
AcDbVertex
100
AcDb2dVertex
 10
251.133123
 20
395.83987
 30
0.0
  0
SEQEND
  5
11B9
330
1168
100
AcDbEntity
  8
SCHRAFFUR_RAND
  0
INSERT
  5
1208
330
12CE
100
AcDbEntity
  8
8
100
AcDbBlockReference
  2
*X3
 10
-36.576877
 20
40.78087
 30
0.0
1001
ACAD
1000
HATCH
1002
{
1070
    19
1000
ANSI31,_I
1040
6.349999999999999
1040
0.7850000000000001
1002
}
  0
POLYLINE
  5
1209
330
12CE
100
AcDbEntity
  8
SCHRAFFUR_RAND
100
AcDb2dPolyline
 66
     1
 10
0.0
 20
0.0
 30
0.0
 70
     1
  0
VERTEX
  5
120A
330
1209
100
AcDbEntity
  8
SCHRAFFUR_RAND
100
AcDbVertex
100
AcDb2dVertex
 10
430.504123
 20
411.1818699999999
 30
0.0
  0
VERTEX
  5
120B
330
1209
100
AcDbEntity
  8
SCHRAFFUR_RAND
100
AcDbVertex
100
AcDb2dVertex
 10
430.295123
 20
407.1818699999999
 30
0.0
  0
VERTEX
  5
120C
330
1209
100
AcDbEntity
  8
SCHRAFFUR_RAND
100
AcDbVertex
100
AcDb2dVertex
 10
430.111123
 20
403.68187
 30
0.0
  0
VERTEX
  5
120D
330
1209
100
AcDbEntity
  8
SCHRAFFUR_RAND
100
AcDbVertex
100
AcDb2dVertex
 10
423.516123
 20
403.68187
 30
0.0
  0
VERTEX
  5
120E
330
1209
100
AcDbEntity
  8
SCHRAFFUR_RAND
100
AcDbVertex
100
AcDb2dVertex
 10
422.133123
 20
395.83987
 30
0.0
  0
VERTEX
  5
120F
330
1209
100
AcDbEntity
  8
SCHRAFFUR_RAND
100
AcDbVertex
100
AcDb2dVertex
 10
420.902123
 20
360.59487
 30
0.0
  0
VERTEX
  5
1210
330
1209
100
AcDbEntity
  8
SCHRAFFUR_RAND
100
AcDbVertex
100
AcDb2dVertex
 10
420.706123
 20
359.35287
 30
0.0
  0
VERTEX
  5
1211
330
1209
100
AcDbEntity
  8
SCHRAFFUR_RAND
100
AcDbVertex
100
AcDb2dVertex
 10
419.733123
 20
358.38087
 30
0.0
  0
VERTEX
  5
1212
330
1209
100
AcDbEntity
  8
SCHRAFFUR_RAND
100
AcDbVertex
100
AcDb2dVertex
 10
418.404123
 20
358.18187
 30
0.0
  0
VERTEX
  5
1213
330
1209
100
AcDbEntity
  8
SCHRAFFUR_RAND
100
AcDbVertex
100
AcDb2dVertex
 10
417.633123
 20
358.18187
 30
0.0
  0
VERTEX
  5
1214
330
1209
100
AcDbEntity
  8
SCHRAFFUR_RAND
100
AcDbVertex
100
AcDb2dVertex
 10
417.633123
 20
353.18187
 30
0.0
  0
VERTEX
  5
1215
330
1209
100
AcDbEntity
  8
SCHRAFFUR_RAND
100
AcDbVertex
100
AcDb2dVertex
 10
419.795123
 20
353.76387
 30
0.0
  0
VERTEX
  5
1216
330
1209
100
AcDbEntity
  8
SCHRAFFUR_RAND
100
AcDbVertex
100
AcDb2dVertex
 10
423.046123
 20
355.8748700000001
 30
0.0
  0
VERTEX
  5
1217
330
1209
100
AcDbEntity
  8
SCHRAFFUR_RAND
100
AcDbVertex
100
AcDb2dVertex
 10
425.269123
 20
359.05087
 30
0.0
  0
VERTEX
  5
1218
330
1209
100
AcDbEntity
  8
SCHRAFFUR_RAND
100
AcDbVertex
100
AcDb2dVertex
 10
425.9841230000001
 20
362.83287
 30
0.0
  0
VERTEX
  5
1219
330
1209
100
AcDbEntity
  8
SCHRAFFUR_RAND
100
AcDbVertex
100
AcDb2dVertex
 10
427.015123
 20
392.36687
 30
0.0
  0
VERTEX
  5
121A
330
1209
100
AcDbEntity
  8
SCHRAFFUR_RAND
100
AcDbVertex
100
AcDb2dVertex
 10
427.487123
 20
395.24187
 30
0.0
  0
VERTEX
  5
121B
330
1209
100
AcDbEntity
  8
SCHRAFFUR_RAND
100
AcDbVertex
100
AcDb2dVertex
 10
429.0921230000001
 20
397.70287
 30
0.0
  0
VERTEX
  5
121C
330
1209
100
AcDbEntity
  8
SCHRAFFUR_RAND
100
AcDbVertex
100
AcDb2dVertex
 10
431.466123
 20
399.43587
 30
0.0
  0
VERTEX
  5
121D
330
1209
100
AcDbEntity
  8
SCHRAFFUR_RAND
100
AcDbVertex
100
AcDb2dVertex
 10
434.313123
 20
400.05687
 30
0.0
  0
VERTEX
  5
121E
330
1209
100
AcDbEntity
  8
SCHRAFFUR_RAND
100
AcDbVertex
100
AcDb2dVertex
 10
445.048123
 20
400.99587
 30
0.0
  0
VERTEX
  5
121F
330
1209
100
AcDbEntity
  8
SCHRAFFUR_RAND
100
AcDbVertex
100
AcDb2dVertex
 10
478.296123
 20
403.90487
 30
0.0
  0
VERTEX
  5
1220
330
1209
100
AcDbEntity
  8
SCHRAFFUR_RAND
100
AcDbVertex
100
AcDb2dVertex
 10
483.784123
 20
404.38487
 30
0.0
  0
VERTEX
  5
1221
330
1209
100
AcDbEntity
  8
SCHRAFFUR_RAND
100
AcDbVertex
100
AcDb2dVertex
 10
499.475123
 20
409.18187
 30
0.0
  0
VERTEX
  5
1222
330
1209
100
AcDbEntity
  8
SCHRAFFUR_RAND
100
AcDbVertex
100
AcDb2dVertex
 10
509.538123
 20
409.18187
 30
0.0
  0
VERTEX
  5
1223
330
1209
100
AcDbEntity
  8
SCHRAFFUR_RAND
100
AcDbVertex
100
AcDb2dVertex
 10
511.060123
 20
408.66587
 30
0.0
  0
VERTEX
  5
1224
330
1209
100
AcDbEntity
  8
SCHRAFFUR_RAND
100
AcDbVertex
100
AcDb2dVertex
 10
511.953123
 20
407.3288699999999
 30
0.0
  0
VERTEX
  5
1225
330
1209
100
AcDbEntity
  8
SCHRAFFUR_RAND
100
AcDbVertex
100
AcDb2dVertex
 10
515.403123
 20
394.45387
 30
0.0
  0
VERTEX
  5
1226
330
1209
100
AcDbEntity
  8
SCHRAFFUR_RAND
100
AcDbVertex
100
AcDb2dVertex
 10
517.168123
 20
390.64987
 30
0.0
  0
VERTEX
  5
1227
330
1209
100
AcDbEntity
  8
SCHRAFFUR_RAND
100
AcDbVertex
100
AcDb2dVertex
 10
520.451123
 20
387.99187
 30
0.0
  0
VERTEX
  5
1228
330
1209
100
AcDbEntity
  8
SCHRAFFUR_RAND
100
AcDbVertex
100
AcDb2dVertex
 10
524.539123
 20
387.0558700000001
 30
0.0
  0
VERTEX
  5
1229
330
1209
100
AcDbEntity
  8
SCHRAFFUR_RAND
100
AcDbVertex
100
AcDb2dVertex
 10
626.884123
 20
381.69187
 30
0.0
  0
VERTEX
  5
122A
330
1209
100
AcDbEntity
  8
SCHRAFFUR_RAND
100
AcDbVertex
100
AcDb2dVertex
 10
634.7941229999999
 20
379.77587
 30
0.0
  0
VERTEX
  5
122B
330
1209
100
AcDbEntity
  8
SCHRAFFUR_RAND
100
AcDbVertex
100
AcDb2dVertex
 10
649.774123
 20
378.99087
 30
0.0
  0
VERTEX
  5
122C
330
1209
100
AcDbEntity
  8
SCHRAFFUR_RAND
100
AcDbVertex
100
AcDb2dVertex
 10
650.166123
 20
386.47987
 30
0.0
  0
VERTEX
  5
122D
330
1209
100
AcDbEntity
  8
SCHRAFFUR_RAND
100
AcDbVertex
100
AcDb2dVertex
 10
523.803123
 20
393.10287
 30
0.0
  0
VERTEX
  5
122E
330
1209
100
AcDbEntity
  8
SCHRAFFUR_RAND
100
AcDbVertex
100
AcDb2dVertex
 10
522.125123
 20
393.39287
 30
0.0
  0
VERTEX
  5
122F
330
1209
100
AcDbEntity
  8
SCHRAFFUR_RAND
100
AcDbVertex
100
AcDb2dVertex
 10
520.781123
 20
394.48087
 30
0.0
  0
VERTEX
  5
1230
330
1209
100
AcDbEntity
  8
SCHRAFFUR_RAND
100
AcDbVertex
100
AcDb2dVertex
 10
520.148123
 20
396.06187
 30
0.0
  0
VERTEX
  5
1231
330
1209
100
AcDbEntity
  8
SCHRAFFUR_RAND
100
AcDbVertex
100
AcDb2dVertex
 10
514.4501230000001
 20
417.3288699999999
 30
0.0
  0
VERTEX
  5
1232
330
1209
100
AcDbEntity
  8
SCHRAFFUR_RAND
100
AcDbVertex
100
AcDb2dVertex
 10
513.893123
 20
418.5838699999999
 30
0.0
  0
VERTEX
  5
1233
330
1209
100
AcDbEntity
  8
SCHRAFFUR_RAND
100
AcDbVertex
100
AcDb2dVertex
 10
512.664123
 20
419.26487
 30
0.0
  0
VERTEX
  5
1234
330
1209
100
AcDbEntity
  8
SCHRAFFUR_RAND
100
AcDbVertex
100
AcDb2dVertex
 10
511.305123
 20
419.07287
 30
0.0
  0
VERTEX
  5
1235
330
1209
100
AcDbEntity
  8
SCHRAFFUR_RAND
100
AcDbVertex
100
AcDb2dVertex
 10
482.633123
 20
410.3068699999999
 30
0.0
  0
VERTEX
  5
1236
330
1209
100
AcDbEntity
  8
SCHRAFFUR_RAND
100
AcDbVertex
100
AcDb2dVertex
 10
468.271123
 20
409.0508699999999
 30
0.0
  0
VERTEX
  5
1237
330
1209
100
AcDbEntity
  8
SCHRAFFUR_RAND
100
AcDbVertex
100
AcDb2dVertex
 10
467.633123
 20
407.94487
 30
0.0
  0
VERTEX
  5
1238
330
1209
100
AcDbEntity
  8
SCHRAFFUR_RAND
100
AcDbVertex
100
AcDb2dVertex
 10
455.635123
 20
407.9458699999999
 30
0.0
  0
VERTEX
  5
1239
330
1209
100
AcDbEntity
  8
SCHRAFFUR_RAND
100
AcDbVertex
100
AcDb2dVertex
 10
450.079123
 20
407.4588699999999
 30
0.0
  0
VERTEX
  5
123A
330
1209
100
AcDbEntity
  8
SCHRAFFUR_RAND
100
AcDbVertex
100
AcDb2dVertex
 10
445.076123
 20
407.02187
 30
0.0
  0
VERTEX
  5
123B
330
1209
100
AcDbEntity
  8
SCHRAFFUR_RAND
100
AcDbVertex
100
AcDb2dVertex
 10
441.069123
 20
406.67087
 30
0.0
  0
VERTEX
  5
123C
330
1209
100
AcDbEntity
  8
SCHRAFFUR_RAND
100
AcDbVertex
100
AcDb2dVertex
 10
440.591123
 20
406.62887
 30
0.0
  0
VERTEX
  5
123D
330
1209
100
AcDbEntity
  8
SCHRAFFUR_RAND
100
AcDbVertex
100
AcDb2dVertex
 10
440.069123
 20
406.63887
 30
0.0
  0
VERTEX
  5
123E
330
1209
100
AcDbEntity
  8
SCHRAFFUR_RAND
100
AcDbVertex
100
AcDb2dVertex
 10
439.250123
 20
406.71087
 30
0.0
  0
VERTEX
  5
123F
330
1209
100
AcDbEntity
  8
SCHRAFFUR_RAND
100
AcDbVertex
100
AcDb2dVertex
 10
438.196123
 20
407.59487
 30
0.0
  0
VERTEX
  5
1240
330
1209
100
AcDbEntity
  8
SCHRAFFUR_RAND
100
AcDbVertex
100
AcDb2dVertex
 10
438.166123
 20
407.9458699999999
 30
0.0
  0
VERTEX
  5
1241
330
1209
100
AcDbEntity
  8
SCHRAFFUR_RAND
100
AcDbVertex
100
AcDb2dVertex
 10
437.8831230000001
 20
408.90187
 30
0.0
  0
VERTEX
  5
1242
330
1209
100
AcDbEntity
  8
SCHRAFFUR_RAND
100
AcDbVertex
100
AcDb2dVertex
 10
437.683123
 20
411.1818699999999
 30
0.0
  0
VERTEX
  5
1243
330
1209
100
AcDbEntity
  8
SCHRAFFUR_RAND
100
AcDbVertex
100
AcDb2dVertex
 10
430.504123
 20
411.1818699999999
 30
0.0
  0
SEQEND
  5
1244
330
1209
100
AcDbEntity
  8
SCHRAFFUR_RAND
  0
INSERT
  5
1267
330
12CE
100
AcDbEntity
  8
8
100
AcDbBlockReference
  2
*X4
 10
-36.576877
 20
40.78087
 30
0.0
1001
ACAD
1000
HATCH
1002
{
1070
    19
1000
ANSI31,_I
1040
6.349999999999999
1040
0.7850000000000001
1002
}
  0
DIMENSION
  5
1271
330
12CE
100
AcDbEntity
  8
5
100
AcDbDimension
  2
*D11
 10
65.54812300000005
 20
268.0728700000001
 30
0.0
 11
65.548123
 21
342.46187
 31
0.0
 70
   160
  1
151
 71
     5
 42
151.0
  3
GEN-ISO
100
AcDbAlignedDimension
 13
161.962123
 23
419.07287
 33
0.0
 14
336.633123
 24
268.07287
 34
0.0
 50
270.0
100
AcDbRotatedDimension
1001
ACAD
1000
DSTYLE
1002
{
1070
    41
1040
5.0
1002
}
  0
DIMENSION
  5
127C
330
12CE
100
AcDbEntity
  8
5
100
AcDbDimension
  2
*D10
 10
436.6331230000001
 20
484.34887
 30
0.0
 11
335.119123
 21
484.34887
 31
0.0
 70
   160
  1
%%c 200
 71
     5
 42
200.0
  3
GEN-ISO
100
AcDbAlignedDimension
 13
236.633123
 23
423.1818699999999
 33
0.0
 14
436.6331230000001
 24
423.1818699999999
 34
0.0
100
AcDbRotatedDimension
1001
ACAD
1000
DSTYLE
1002
{
1070
    41
1040
5.0
1002
}
  0
INSERT
  5
135C
330
12CE
100
AcDbEntity
  8
0
100
AcDbBlockReference
  2
KATALOG_LEER
 10
251.839706
 20
11.304483
 30
0.0
 41
5.0
 42
5.0
 43
5.0
1001
GENIUS_GENOREF_13
1005
135D
  0
POINT
  5
135D
330
12CE
100
AcDbEntity
  8
0
 60
     1
100
AcDbPoint
 10
0.0
 20
0.0
 30
0.0
1001
GENIUS_GENOBJ-N-TIT_13
1002
{
1000
OWNER
1000
GEN
1002
}
1001
GENIUS_GENOENT_13
1002
{
1000
MYREF
1005
135D
1002
}
1002
{
1000
GRP
1005
0
1002
}
1001
GENIUS_GENOLIS_13
1002
{
1000
ENT
1005
135C
1002
}
1001
GENIUS_GENTITLE_13
1002
{
1000
SCALE
1000
1:5
1002
}
1002
{
1000
BORDER
1000
KATALOG
1002
}
1002
{
1000
TITLE
1000
KATALOG_LEER
1002
}
1002
{
1000
UNCHG
1002
{
1000
GEN-TITLE-SCA
1000
GEN-TITLE-SIZ
1002
}
1002
}
1002
{
1000
HRA
1005
1355
1002
}
1002
{
1000
HTIT
1005
135C
1002
}
1002
{
1000
GENIUSID
1005
135D
1002
}
1001
GENIUS_GENODEF_13
1002
{
1000
HIER
1070
     1
1002
}
1002
{
1000
MANEDIT
1070
     1
1002
}
1002
{
1000
NOSEL
1070
     0
1002
}
1002
{
1000
BEHIND
1070
     0
1002
}
1002
{
1000
REACTOR
1002
}
  0
ENDSEC
  0
SECTION
  2
OBJECTS
  0
DICTIONARY
  5
12C2
330
0
100
AcDbDictionary
281
     1
  3
ACAD_COLOR
350
1452
  3
ACAD_GROUP
350
12C3
  3
ACAD_LAYOUT
350
1455
  3
ACAD_MATERIAL
350
1451
  3
ACAD_MLINESTYLE
350
12D1
  3
ACAD_PLOTSETTINGS
350
1456
  3
ACAD_PLOTSTYLENAME
350
144F
  3
ACAD_TABLESTYLE
350
1453
  3
ACDBHEADERROUNDTRIPXREC
350
155B
  3
AcDbVariableDictionary
350
1556
  3
AcmDictionary
350
14B4
  3
AMG
350
145A
  3
AMGSNAPSETTINGS
350
152A
  0
DICTIONARY
  5
1452
102
{ACAD_REACTORS
330
12C2
102
}
330
12C2
100
AcDbDictionary
281
     1
  0
DICTIONARY
  5
12C3
102
{ACAD_REACTORS
330
12C2
102
}
330
12C2
100
AcDbDictionary
281
     1
  0
DICTIONARY
  5
1455
102
{ACAD_REACTORS
330
12C2
102
}
330
12C2
100
AcDbDictionary
281
     1
  3
Layout1
350
1458
  3
Model
350
1457
  0
DICTIONARY
  5
1451
102
{ACAD_REACTORS
330
12C2
102
}
330
12C2
100
AcDbDictionary
281
     1
  0
DICTIONARY
  5
12D1
102
{ACAD_REACTORS
330
12C2
102
}
330
12C2
100
AcDbDictionary
281
     1
  3
STANDARD
350
12D2
  0
DICTIONARY
  5
1456
102
{ACAD_REACTORS
330
12C2
102
}
330
12C2
100
AcDbDictionary
281
     1
  0
ACDBDICTIONARYWDFLT
  5
144F
102
{ACAD_REACTORS
330
12C2
102
}
330
12C2
100
AcDbDictionary
281
     1
  3
Normal
350
1450
100
AcDbDictionaryWithDefault
340
1450
  0
DICTIONARY
  5
1453
102
{ACAD_REACTORS
330
12C2
102
}
330
12C2
100
AcDbDictionary
281
     1
  3
Standard
350
1454
  0
DICTIONARY
  5
155B
102
{ACAD_REACTORS
330
12C2
102
}
330
12C2
100
AcDbDictionary
281
     1
  0
DICTIONARY
  5
1556
102
{ACAD_REACTORS
330
12C2
102
}
330
12C2
100
AcDbDictionary
281
     1
  3
CTABLESTYLE
350
1557
  3
DIMASSOC
350
1558
  3
PROJECTNAME
350
1559
  0
DICTIONARY
  5
14B4
102
{ACAD_REACTORS
330
12C2
102
}
330
12C2
100
AcDbDictionary
281
     1
  3
AcmStdDictionary
350
14BF
  3
AMDTSECTSYM_ARROWCOLOR
350
14E2
  0
DICTIONARY
  5
145A
102
{ACAD_REACTORS
330
12C2
102
}
330
12C2
100
AcDbDictionary
281
     1
  0
DICTIONARY
  5
152A
102
{ACAD_REACTORS
330
12C2
102
}
330
12C2
100
AcDbDictionary
281
     1
  0
LAYOUT
  5
1458
102
{ACAD_XDICTIONARY
360
155E
102
}
102
{ACAD_REACTORS
330
1455
102
}
330
1455
100
AcDbPlotSettings
  1

  2
Xerox Document Centre CS50 PS
  4

  6

 40
0.0
 41
0.0
 42
0.0
 43
0.0
 44
0.0
 45
0.0
 46
0.0
 47
0.0
 48
0.0
 49
0.0
140
0.0
141
0.0
142
1.0
143
1.0
 70
   688
 72
     0
 73
     0
 74
     5
  7

 75
    16
147
1.0
148
0.0
149
0.0
100
AcDbLayout
  1
Layout1
 70
     1
 71
     1
 10
0.0
 20
0.0
 11
419.8999999999999
 21
296.9
 12
0.0
 22
0.0
 32
0.0
 14
0.0
 24
0.0
 34
0.0
 15
419.8999999999999
 25
296.9
 35
0.0
146
0.0
 13
0.0
 23
0.0
 33
0.0
 16
1.0
 26
0.0
 36
0.0
 17
0.0
 27
1.0
 37
0.0
 76
     0
330
12CB
  0
LAYOUT
  5
1457
102
{ACAD_XDICTIONARY
360
155C
102
}
102
{ACAD_REACTORS
330
1455
102
}
330
1455
100
AcDbPlotSettings
  1

  2
Xerox Document Centre CS50 PS
  4

  6

 40
0.0
 41
0.0
 42
0.0
 43
0.0
 44
0.0
 45
0.0
 46
0.0
 47
0.0
 48
0.0
 49
0.0
140
0.0
141
0.0
142
1.0
143
1.0
 70
  1712
 72
     0
 73
     0
 74
     0
  7

 75
     0
147
1.0
148
0.0
149
0.0
100
AcDbLayout
  1
Model
 70
     1
 71
     0
 10
0.0
 20
0.0
 11
12.0
 21
9.0
 12
0.0
 22
0.0
 32
0.0
 14
0.0
 24
0.0
 34
0.0
 15
0.0
 25
0.0
 35
0.0
146
0.0
 13
0.0
 23
0.0
 33
0.0
 16
1.0
 26
0.0
 36
0.0
 17
0.0
 27
1.0
 37
0.0
 76
     0
330
12CE
  0
MLINESTYLE
  5
12D2
102
{ACAD_REACTORS
330
12D1
102
}
330
12D1
100
AcDbMlineStyle
  2
STANDARD
 70
     0
  3

 62
   256
 51
90.0
 52
90.0
 71
     2
 49
0.5
 62
   256
  6
BYLAYER
 49
-0.5
 62
   256
  6
BYLAYER
  0
ACDBPLACEHOLDER
  5
1450
102
{ACAD_REACTORS
330
144F
102
}
330
144F
  0
TABLESTYLE
  5
1454
102
{ACAD_REACTORS
330
1453
102
}
330
1453
100
AcDbTableStyle
  3
Standard
 70
     0
 71
     0
 40
1.5
 41
1.5
280
     0
281
     0
  7
STANDARD
140
4.5
170
     2
 62
     0
 63
     7
283
     0
274
    -2
284
     1
 64
     0
275
    -2
285
     1
 65
     0
276
    -2
286
     1
 66
     0
277
    -2
287
     1
 67
     0
278
    -2
288
     1
 68
     0
279
    -2
289
     1
 69
     0
  7
STANDARD
140
6.0
170
     5
 62
     0
 63
     7
283
     0
274
    -2
284
     1
 64
     0
275
    -2
285
     1
 65
     0
276
    -2
286
     1
 66
     0
277
    -2
287
     1
 67
     0
278
    -2
288
     1
 68
     0
279
    -2
289
     1
 69
     0
  7
STANDARD
140
4.5
170
     5
 62
     0
 63
     7
283
     0
274
    -2
284
     1
 64
     0
275
    -2
285
     1
 65
     0
276
    -2
286
     1
 66
     0
277
    -2
287
     1
 67
     0
278
    -2
288
     1
 68
     0
279
    -2
289
     1
 69
     0
  0
DICTIONARYVAR
  5
1557
102
{ACAD_REACTORS
330
1556
102
}
330
1556
100
DictionaryVariables
280
     0
  1
STANDARD
  0
DICTIONARYVAR
  5
1558
102
{ACAD_REACTORS
330
1556
102
}
330
1556
100
DictionaryVariables
280
     0
  1
1
  0
DICTIONARYVAR
  5
1559
102
{ACAD_REACTORS
330
1556
102
}
330
1556
100
DictionaryVariables
280
     0
  1

  0
DICTIONARY
  5
14BF
102
{ACAD_REACTORS
330
14B4
102
}
330
14B4
100
AcDbDictionary
281
     1
  0
XRECORD
  5
14E2
102
{ACAD_REACTORS
330
14B4
102
}
330
14B4
100
AcDbXrecord
280
     1
 90
-1023410169
  0
DICTIONARY
  5
155E
330
1458
100
AcDbDictionary
280
     1
281
     1
  3
ACAD_XREC_ROUNDTRIP
360
155F
  0
DICTIONARY
  5
155C
330
1457
100
AcDbDictionary
280
     1
281
     1
  3
ACAD_XREC_ROUNDTRIP
360
155D
  0
XRECORD
  5
155F
102
{ACAD_REACTORS
330
155E
102
}
330
155E
100
AcDbXrecord
280
     1
102
SHADEPLOT
 70
     0
102
SHADEPLOTRESLEVEL
 70
     2
102
SHADEPLOTCUSTOMDPI
 70
   300
  0
XRECORD
  5
155D
102
{ACAD_REACTORS
330
155C
102
}
330
155C
100
AcDbXrecord
280
     1
102
SHADEPLOT
 70
     0
102
SHADEPLOTRESLEVEL
 70
     2
102
SHADEPLOTCUSTOMDPI
 70
   300
  0
ENDSEC
  0
EOF
