  0
SECTION
  2
HEADER
  9
$ACADVER
  1
AC1015
  9
$ACADMAINTVER
 70
    20
  9
$DWGCODEPAGE
  3
ANSI_1252
  9
$INSBASE
 10
0.0
 20
0.0
 30
0.0
  9
$EXTMIN
 10
46.67129766506969
 20
183.2565334197793
 30
-0.0000000349181948
  9
$EXTMAX
 10
703.0014058493557
 20
495.2796954024579
 30
0.0000000814935746
  9
$LIMMIN
 10
0.0
 20
0.0
  9
$LIMMAX
 10
1050.0
 20
1050.0
  9
$ORTHOMODE
 70
     0
  9
$REGENMODE
 70
     1
  9
$FILLMODE
 70
     1
  9
$QTEXTMODE
 70
     0
  9
$MIRRTEXT
 70
     0
  9
$LTSCALE
 40
5.0
  9
$ATTMODE
 70
     1
  9
$TEXTSIZE
 40
10.0
  9
$TRACEWID
 40
0.05
  9
$TEXTSTYLE
  7
STANDARD
  9
$CLAYER
  8
0
  9
$CELTYPE
  6
BYLAYER
  9
$CECOLOR
 62
   256
  9
$CELTSCALE
 40
1.0
  9
$DISPSILH
 70
     0
  9
$DIMSCALE
 40
5.0
  9
$DIMASZ
 40
2.5
  9
$DIMEXO
 40
1.0
  9
$DIMDLI
 40
7.0
  9
$DIMRND
 40
0.0
  9
$DIMDLE
 40
0.0
  9
$DIMEXE
 40
1.0
  9
$DIMTP
 40
0.1
  9
$DIMTM
 40
0.1
  9
$DIMTXT
 40
3.5
  9
$DIMCEN
 40
0.0
  9
$DIMTSZ
 40
0.0
  9
$DIMTOL
 70
     0
  9
$DIMLIM
 70
     0
  9
$DIMTIH
 70
     0
  9
$DIMTOH
 70
     0
  9
$DIMSE1
 70
     0
  9
$DIMSE2
 70
     0
  9
$DIMTAD
 70
     1
  9
$DIMZIN
 70
    12
  9
$DIMBLK
  1

  9
$DIMASO
 70
     1
  9
$DIMSHO
 70
     1
  9
$DIMPOST
  1

  9
$DIMAPOST
  1
"
  9
$DIMALT
 70
     0
  9
$DIMALTD
 70
     2
  9
$DIMALTF
 40
0.0393701
  9
$DIMLFAC
 40
1.0
  9
$DIMTOFL
 70
     1
  9
$DIMTVP
 40
0.0
  9
$DIMTIX
 70
     0
  9
$DIMSOXD
 70
     0
  9
$DIMSAH
 70
     0
  9
$DIMBLK1
  1

  9
$DIMBLK2
  1

  9
$DIMSTYLE
  2
GEN-ISO
  9
$DIMCLRD
 70
   256
  9
$DIMCLRE
 70
   256
  9
$DIMCLRT
 70
     2
  9
$DIMTFAC
 40
0.71
  9
$DIMGAP
 40
0.6
  9
$DIMJUST
 70
     0
  9
$DIMSD1
 70
     0
  9
$DIMSD2
 70
     0
  9
$DIMTOLJ
 70
     0
  9
$DIMTZIN
 70
     0
  9
$DIMALTZ
 70
     0
  9
$DIMALTTZ
 70
     0
  9
$DIMUPT
 70
     0
  9
$DIMDEC
 70
     2
  9
$DIMTDEC
 70
     3
  9
$DIMALTU
 70
     2
  9
$DIMALTTD
 70
     4
  9
$DIMTXSTY
  7
STANDARD
  9
$DIMAUNIT
 70
     0
  9
$DIMADEC
 70
     0
  9
$DIMALTRND
 40
0.0
  9
$DIMAZIN
 70
     0
  9
$DIMDSEP
 70
    46
  9
$DIMATFIT
 70
     3
  9
$DIMFRAC
 70
     0
  9
$DIMLDRBLK
  1

  9
$DIMLUNIT
 70
     2
  9
$DIMLWD
 70
    -2
  9
$DIMLWE
 70
    -2
  9
$DIMTMOVE
 70
     0
  9
$LUNITS
 70
     2
  9
$LUPREC
 70
     2
  9
$SKETCHINC
 40
0.1
  9
$FILLETRAD
 40
12.5
  9
$AUNITS
 70
     0
  9
$AUPREC
 70
     2
  9
$MENU
  1
.
  9
$ELEVATION
 40
0.0
  9
$PELEVATION
 40
0.0
  9
$THICKNESS
 40
0.0
  9
$LIMCHECK
 70
     0
  9
$CHAMFERA
 40
12.5
  9
$CHAMFERB
 40
12.5
  9
$CHAMFERC
 40
0.0
  9
$CHAMFERD
 40
0.0
  9
$SKPOLY
 70
     0
  9
$TDCREATE
 40
2451295.622320127
  9
$TDUCREATE
 40
2451295.538986794
  9
$TDUPDATE
 40
2454020.020308368
  9
$TDUUPDATE
 40
2454019.936975035
  9
$TDINDWG
 40
0.0133833565
  9
$TDUSRTIMER
 40
0.0133833565
  9
$USRTIMER
 70
     1
  9
$ANGBASE
 50
0.0
  9
$ANGDIR
 70
     0
  9
$PDMODE
 70
     0
  9
$PDSIZE
 40
0.0
  9
$PLINEWID
 40
0.0
  9
$SPLFRAME
 70
     0
  9
$SPLINETYPE
 70
     6
  9
$SPLINESEGS
 70
     8
  9
$HANDSEED
  5
16CC
  9
$SURFTAB1
 70
     6
  9
$SURFTAB2
 70
     6
  9
$SURFTYPE
 70
     6
  9
$SURFU
 70
     6
  9
$SURFV
 70
     6
  9
$UCSBASE
  2

  9
$UCSNAME
  2

  9
$UCSORG
 10
0.0
 20
0.0
 30
0.0
  9
$UCSXDIR
 10
1.0
 20
0.0
 30
0.0
  9
$UCSYDIR
 10
0.0
 20
1.0
 30
0.0
  9
$UCSORTHOREF
  2

  9
$UCSORTHOVIEW
 70
     0
  9
$UCSORGTOP
 10
0.0
 20
0.0
 30
0.0
  9
$UCSORGBOTTOM
 10
0.0
 20
0.0
 30
0.0
  9
$UCSORGLEFT
 10
0.0
 20
0.0
 30
0.0
  9
$UCSORGRIGHT
 10
0.0
 20
0.0
 30
0.0
  9
$UCSORGFRONT
 10
0.0
 20
0.0
 30
0.0
  9
$UCSORGBACK
 10
0.0
 20
0.0
 30
0.0
  9
$PUCSBASE
  2

  9
$PUCSNAME
  2

  9
$PUCSORG
 10
0.0
 20
0.0
 30
0.0
  9
$PUCSXDIR
 10
1.0
 20
0.0
 30
0.0
  9
$PUCSYDIR
 10
0.0
 20
1.0
 30
0.0
  9
$PUCSORTHOREF
  2

  9
$PUCSORTHOVIEW
 70
     0
  9
$PUCSORGTOP
 10
0.0
 20
0.0
 30
0.0
  9
$PUCSORGBOTTOM
 10
0.0
 20
0.0
 30
0.0
  9
$PUCSORGLEFT
 10
0.0
 20
0.0
 30
0.0
  9
$PUCSORGRIGHT
 10
0.0
 20
0.0
 30
0.0
  9
$PUCSORGFRONT
 10
0.0
 20
0.0
 30
0.0
  9
$PUCSORGBACK
 10
0.0
 20
0.0
 30
0.0
  9
$USERI1
 70
     0
  9
$USERI2
 70
     0
  9
$USERI3
 70
     0
  9
$USERI4
 70
     0
  9
$USERI5
 70
     0
  9
$USERR1
 40
0.0
  9
$USERR2
 40
0.0
  9
$USERR3
 40
0.0
  9
$USERR4
 40
0.0
  9
$USERR5
 40
0.0
  9
$WORLDVIEW
 70
     1
  9
$SHADEDGE
 70
     3
  9
$SHADEDIF
 70
    70
  9
$TILEMODE
 70
     1
  9
$MAXACTVP
 70
    48
  9
$PINSBASE
 10
0.0
 20
0.0
 30
0.0
  9
$PLIMCHECK
 70
     0
  9
$PEXTMIN
 10
0.0
 20
0.0
 30
0.0
  9
$PEXTMAX
 10
419.8999999999999
 20
296.9
 30
0.0
  9
$PLIMMIN
 10
0.0
 20
0.0
  9
$PLIMMAX
 10
419.8999999999999
 20
296.9
  9
$UNITMODE
 70
     0
  9
$VISRETAIN
 70
     1
  9
$PLINEGEN
 70
     1
  9
$PSLTSCALE
 70
     1
  9
$TREEDEPTH
 70
 -3020
  9
$CMLSTYLE
  2
STANDARD
  9
$CMLJUST
 70
     0
  9
$CMLSCALE
 40
1.0
  9
$PROXYGRAPHICS
 70
     1
  9
$MEASUREMENT
 70
     1
  9
$CELWEIGHT
370
    -1
  9
$ENDCAPS
280
     0
  9
$JOINSTYLE
280
     0
  9
$LWDISPLAY
290
     0
  9
$INSUNITS
 70
     0
  9
$HYPERLINKBASE
  1

  9
$STYLESHEET
  1

  9
$XEDIT
290
     1
  9
$CEPSNTYPE
380
     0
  9
$PSTYLEMODE
290
     1
  9
$FINGERPRINTGUID
  2
{DED0A9FD-42C8-476A-8FD7-EDBFFBF72AC7}
  9
$VERSIONGUID
  2
{205D0158-661B-421F-9931-F7DCE2BA1861}
  9
$EXTNAMES
290
     1
  9
$PSVPSCALE
 40
0.0
  9
$OLESTARTUP
290
     0
  0
ENDSEC
  0
SECTION
  2
CLASSES
  0
CLASS
  1
ACDBDICTIONARYWDFLT
  2
AcDbDictionaryWithDefault
  3
ObjectDBX Classes
 90
        0
280
     0
281
     0
  0
CLASS
  1
TABLESTYLE
  2
AcDbTableStyle
  3
ObjectDBX Classes
 90
     2047
280
     0
281
     0
  0
CLASS
  1
ACME_DOCUMENT
  2
AcMeDbDoc
  3
AcMeServices
 90
        0
280
     0
281
     0
  0
CLASS
  1
AMGSETTINGSOBJ
  2
AmgSettingsObj
  3
"AcadM|Product Description: AutoCAD Mechanical 2000|Company: Autodesk"
 90
        0
280
     0
281
     0
  0
CLASS
  1
ACMESCOPE
  2
AcMeScope
  3
AcMeServices
 90
        0
280
     0
281
     0
  0
CLASS
  1
ACMECOMMANDHISTORY
  2
AcMeCommandHistory
  3
AcMeServices
 90
        0
280
     0
281
     0
  0
CLASS
  1
ACIMSYSVARMAN
  2
AcImSysVarManager
  3
AcMeServices
 90
        0
280
     0
281
     0
  0
CLASS
  1
ACIMINTSYSVAR
  2
AcImIntSysVar
  3
AcMeServices
 90
        0
280
     0
281
     0
  0
CLASS
  1
ACMEDRAWINGMAN
  2
AcMeDrawingMan
  3
AcMeServices
 90
        0
280
     0
281
     0
  0
CLASS
  1
ACMEVIEW
  2
AcMeView
  3
AcMeServices
 90
        0
280
     0
281
     0
  0
CLASS
  1
ACDBENTITYCACHE
  2
AcMeEntityCache
  3
AcMeServices
 90
        0
280
     0
281
     0
  0
CLASS
  1
GSMANAGER
  2
AcMeGSManager
  3
AcMeServices
 90
        0
280
     0
281
     0
  0
CLASS
  1
AMDTINTERNALREACTOR
  2
AmdtInternalReactor
  3
AcMeServices
 90
        0
280
     0
281
     0
  0
CLASS
  1
ACMESTATEMGR
  2
AcMeStateMgr
  3
AcMeServices
 90
        0
280
     0
281
     0
  0
CLASS
  1
ACGREFMASTER
  2
AcGrefMaster
  3
AcAttribServices
 90
        0
280
     0
281
     0
  0
CLASS
  1
AM_DRAWING_MGR
  2
AcDmDwgMgr
  3
AcMechDwgViewMgmt
 90
        0
280
     0
281
     0
  0
CLASS
  1
AM_DWG_DOCUMENT
  2
AcDmDwgDocument
  3
AcMechDwgViewMgmt
 90
        0
280
     0
281
     0
  0
CLASS
  1
AM_DWG_SHEET
  2
AcDmSheet
  3
AcMechDwgViewMgmt
 90
        0
280
     0
281
     0
  0
CLASS
  1
AM_VIEWDIMPARMAP
  2
AcDmViewDimParMap
  3
AcMechDwgViewMgmt
 90
        0
280
     0
281
     0
  0
CLASS
  1
ACIMREALSYSVAR
  2
AcImRealSysVar
  3
AcMeServices
 90
        0
280
     0
281
     0
  0
CLASS
  1
AM_DWGMGR_NAME
  2
AcDmDwgMgrName
  3
AcMechDwgViewMgmt
 90
        0
280
     0
281
     0
  0
CLASS
  1
ACME_DATABASE
  2
AcMeDbDatabase
  3
AcMeServices
 90
        0
280
     0
281
     0
  0
CLASS
  1
ACRFINSADJUSTERMGR
  2
AcRfInsAdjusterMgr
  3
AcMeServices
 90
        0
280
     0
281
     0
  0
CLASS
  1
ACGREFACADMASTER
  2
AcGrefacadMaster
  3
AcGrefServices
 90
        0
280
     0
281
     0
  0
CLASS
  1
AMDTMENUSTATEMGR
  2
AmdtMenuStateMgr
  3
McadcomServices
 90
        0
280
     0
281
     0
  0
CLASS
  1
AMDTMCOMMENUSTATE
  2
AmdtMcomMenuState
  3
McadcomServices
 90
        0
280
     0
281
     0
  0
CLASS
  1
AMIMASTER
  2
AmiMaster
  3
AmiServices
 90
        0
280
     0
281
     0
  0
CLASS
  1
MAPIAMMOUDLE
  2
MApiAmModule
  3
MApiAmServices
 90
        0
280
     0
281
     0
  0
CLASS
  1
ACIMSTRSYSVAR
  2
AcImStrSysVar
  3
AcMeServices
 90
        0
280
     0
281
     0
  0
CLASS
  1
AMDTADMENUSTATE
  2
AmdtAdMenuState
  3
DesignerServices
 90
        0
280
     0
281
     0
  0
CLASS
  1
ADAPPL
  2
AcAdAppl
  3
DesignerServices
 90
        0
280
     0
281
     0
  0
CLASS
  1
DEPMGR
  2
AcAdDepMgr
  3
DesignerServices
 90
        0
280
     0
281
     0
  0
CLASS
  1
PARAMMGR
  2
AcAdParamMgr
  3
DesignerServices
 90
        0
280
     0
281
     0
  0
CLASS
  1
PARAMSCOPE
  2
AcAdParamScope
  3
DesignerServices
 90
        0
280
     0
281
     0
  0
CLASS
  1
NAMEDAPPL
  2
AcAdNamedAppl
  3
DesignerServices
 90
        0
280
     0
281
     0
  0
CLASS
  1
AMDTDMMENUSTATE
  2
AmdtDmMenuState
  3
AcMechDwgViewMgmt
 90
        0
280
     0
281
     0
  0
CLASS
  1
AMDTAMMENUSTATE
  2
AmdtAmMenuState
  3
DesignerAssemblies
 90
        0
280
     0
281
     0
  0
CLASS
  1
ACAMPROJECT
  2
AcAmProject
  3
DesignerAssemblies
 90
        0
280
     0
281
     0
  0
CLASS
  1
ACAMGRCOMPDEF
  2
AcAmGrCompDef
  3
DesignerAssemblies
 90
        0
280
     0
281
     0
  0
CLASS
  1
ACCMCONTEXT
  2
AcCmContext
  3
DesignerAssemblies
 90
        0
280
     0
281
     0
  0
CLASS
  1
ACAMCOMPDEF
  2
AcAmCompDef
  3
DesignerAssemblies
 90
        0
280
     0
281
     0
  0
CLASS
  1
ACAMCOMPDEFMGR
  2
AcAmCompDefMgr
  3
DesignerAssemblies
 90
        0
280
     0
281
     0
  0
CLASS
  1
AMCONTEXTMGR
  2
AcAmContextMgr
  3
DesignerAssemblies
 90
        0
280
     0
281
     0
  0
CLASS
  1
ACAMCONTEXTMODELER
  2
AcAmContextModeler
  3
DesignerAssemblies
 90
        0
280
     0
281
     0
  0
CLASS
  1
ACMDATADICTIONARY
  2
AcmDataDictionary
  3
"AcmSymBB|Product Description: AutoCAD Mechanical 2004 DX|Company: Autodesk"
 90
        0
280
     0
281
     0
  0
CLASS
  1
CATALOGSTATE
  2
AcAmCatalogState
  3
DesignerAssemblies
 90
        0
280
     0
281
     0
  0
CLASS
  1
ACAMGRCOMPDEFSET
  2
AcAmGrCompDefSet
  3
DesignerAssemblies
 90
        0
280
     0
281
     0
  0
CLASS
  1
AMDTBROWSERDBTAB
  2
AmdtBrowserDbTab
  3
McadcomServices
 90
        0
280
     0
281
     0
  0
CLASS
  1
CBROWSERAPPOBJECT
  2
CBrowserAppObject
  3
McadcomServices
 90
        0
280
     0
281
     0
  0
CLASS
  1
DM_PLACEHOLDER
  2
AcDmSelsetPlaceholder
  3
AcMechDwgViewMgmt
 90
        0
280
     0
281
     0
  0
CLASS
  1
ACMSTANDARDDIN
  2
AcmStandardDIN
  3
"Amdt_StdImp|Product Description: AutoCAD Mechanical 2004 DX|Company: Autodesk"
 90
        0
280
     0
281
     0
  0
CLASS
  1
AMGOBJPROPCFG
  2
AmgObjPropCfg
  3
"AmgLay|Product Description: AutoCAD Mechanical 2000|Company: Autodesk"
 90
        1
280
     0
281
     0
  0
CLASS
  1
AMDTEDGESTANDARDDIN13715
  2
AmdtEdgeStdDIN13715
  3
"Amdt_StdImp|Product Description: AutoCAD Mechanical 2004 DX|Company: Autodesk"
 90
        0
280
     0
281
     0
  0
CLASS
  1
ACMSURFSTANDARDDIN
  2
AcmSurfTextStdDIN
  3
"Amdt_StdImp|Product Description: AutoCAD Mechanical 2004 DX|Company: Autodesk"
 90
        0
280
     0
281
     0
  0
CLASS
  1
ACMFCFSTANDARDDIN
  2
AcmFCFStdDIN
  3
"Amdt_StdImp|Product Description: AutoCAD Mechanical 2004 DX|Company: Autodesk"
 90
        0
280
     0
281
     0
  0
CLASS
  1
ACMWELDSTANDARDDIN
  2
AcmWeldingStdDIN
  3
"Amdt_StdImp|Product Description: AutoCAD Mechanical 2004 DX|Company: Autodesk"
 90
        0
280
     0
281
     0
  0
CLASS
  1
ACMIDSTANDARDDIN
  2
AcmIdStdDIN
  3
"Amdt_StdImp|Product Description: AutoCAD Mechanical 2004 DX|Company: Autodesk"
 90
        0
280
     0
281
     0
  0
CLASS
  1
ACMDATUMSTANDARDDIN
  2
AcmDatumStdDIN
  3
"Amdt_StdImp|Product Description: AutoCAD Mechanical 2004 DX|Company: Autodesk"
 90
        0
280
     0
281
     0
  0
CLASS
  1
ACMBOMSTANDARDDIN
  2
AcmBOMStdDIN
  3
"Amdt_StdImp|Product Description: AutoCAD Mechanical 2004 DX|Company: Autodesk"
 90
        0
280
     0
281
     0
  0
CLASS
  1
ACMDETAILSTANDARDDIN
  2
AmdtDetailSymStdDIN
  3
"Amdt_StdImp|Product Description: AutoCAD Mechanical 2004 DX|Company: Autodesk"
 90
        0
280
     0
281
     0
  0
CLASS
  1
ACMSECTIONSTANDARDDIN
  2
AmdtSectionSymStdDIN
  3
"Amdt_StdImp|Product Description: AutoCAD Mechanical 2004 DX|Company: Autodesk"
 90
        0
280
     0
281
     0
  0
CLASS
  1
ACMCENTERLINESTANDARDDIN
  2
AmdtCenterLineStdDIN
  3
"Amdt_StdImp|Product Description: AutoCAD Mechanical 2004 DX|Company: Autodesk"
 90
        0
280
     0
281
     0
  0
CLASS
  1
ACMTHREADLINESTANDARDDIN
  2
AmdtThreadLineStdDIN
  3
"Amdt_StdImp|Product Description: AutoCAD Mechanical 2004 DX|Company: Autodesk"
 90
        0
280
     0
281
     0
  0
CLASS
  1
ACMNOTESTANDARDDIN
  2
AmdtNoteStdDIN
  3
"Amdt_StdImp|Product Description: AutoCAD Mechanical 2004 DX|Company: Autodesk"
 90
        0
280
     0
281
     0
  0
CLASS
  1
AMDTNOTETEMPLATEDB
  2
AmdtNoteTemplateDB
  3
AMDT_STDIMP_MODULE_NAME
 90
        0
280
     0
281
     0
  0
CLASS
  1
ACAMGLAYSTD
  2
AcAmgLayStd
  3
"AcAmgLayStd|Product Description: AutoCAD Mechanical 2000|Company: Autodesk"
 90
        0
280
     0
281
     0
  0
CLASS
  1
ACAMGDIMSTD
  2
AcAmgDimStd
  3
"AcAmgDimStd|Product Description: AutoCAD Mechanical 2000|Company: Autodesk"
 90
        0
280
     0
281
     0
  0
CLASS
  1
ACAMGHOLECHARTSTDDIN
  2
AcAmgHoleChartStdDIN
  3
ACMSYMBB_MODULE_NAME
 90
        0
280
     0
281
     0
  0
CLASS
  1
ACAMGTITLESTD
  2
AcAmgTitleStd
  3
"TITLEAPP"
 90
        0
280
     0
281
     0
  0
CLASS
  1
ACAMGFILTERDAT
  2
AcAmgFilterDat
  3
"AcadM|Product Description: AutoCAD Mechanical 2000|Company: Autodesk"
 90
        0
280
     0
281
     0
  0
CLASS
  1
DICTIONARYVAR
  2
AcDbDictionaryVar
  3
ObjectDBX Classes
 90
        0
280
     0
281
     0
  0
CLASS
  1
ACDBPLACEHOLDER
  2
AcDbPlaceHolder
  3
ObjectDBX Classes
 90
        0
280
     0
281
     0
  0
CLASS
  1
LAYOUT
  2
AcDbLayout
  3
ObjectDBX Classes
 90
        0
280
     0
281
     0
  0
ENDSEC
  0
SECTION
  2
TABLES
  0
TABLE
  2
VPORT
  5
12B5
330
0
100
AcDbSymbolTable
 70
     5
  0
VPORT
  5
16C6
330
12B5
100
AcDbSymbolTableRecord
100
AcDbViewportTableRecord
  2
*Active
 70
     0
 10
0.0
 20
0.0
 11
1.0
 21
1.0
 12
374.8363517572127
 22
339.2681144111187
 13
0.0
 23
0.0
 14
5.0
 24
5.0
 15
50.0
 25
50.0
 16
0.0
 26
0.0
 36
1.0
 17
0.0
 27
0.0
 37
0.0
 40
441.2847130513702
 41
1.494545454545454
 42
50.0
 43
0.0
 44
0.0
 50
0.0
 51
0.0
 71
     0
 72
  1000
 73
     1
 74
     1
 75
     0
 76
     0
 77
     0
 78
     0
281
     0
 65
     1
110
0.0
120
0.0
130
0.0
111
1.0
121
0.0
131
0.0
112
0.0
122
1.0
132
0.0
 79
     0
146
0.0
  0
ENDTAB
  0
TABLE
  2
LTYPE
  5
12B2
330
0
100
AcDbSymbolTable
 70
    25
  0
LTYPE
  5
12BF
330
12B2
100
AcDbSymbolTableRecord
100
AcDbLinetypeTableRecord
  2
BYBLOCK
 70
     0
  3

 72
    65
 73
     0
 40
0.0
  0
LTYPE
  5
12C0
330
12B2
100
AcDbSymbolTableRecord
100
AcDbLinetypeTableRecord
  2
BYLAYER
 70
     0
  3

 72
    65
 73
     0
 40
0.0
  0
LTYPE
  5
12C1
330
12B2
100
AcDbSymbolTableRecord
100
AcDbLinetypeTableRecord
  2
CONTINUOUS
 70
     0
  3
Solid line
 72
    65
 73
     0
 40
0.0
  0
LTYPE
  5
12D0
330
12B2
100
AcDbSymbolTableRecord
100
AcDbLinetypeTableRecord
  2
GEN7
 70
     0
  3
____ _ ____ _ ____ _ ____ _ ____ _ ____ _ ____ _ ____ _ ____ _
 72
    65
 73
     4
 40
22.0
 49
10.75
 74
     0
 49
-3.75
 74
     0
 49
3.75
 74
     0
 49
-3.75
 74
     0
  0
LTYPE
  5
15B7
330
12B2
100
AcDbSymbolTableRecord
100
AcDbLinetypeTableRecord
  2
HIDDEN
 70
     0
  3
Verdeckt
 72
    65
 73
     2
 40
9.525
 49
6.349999999999999
 74
     0
 49
-3.174999999999999
 74
     0
  0
LTYPE
  5
15B8
330
12B2
100
AcDbSymbolTableRecord
100
AcDbLinetypeTableRecord
  2
PHANTOM2
 70
     0
  3
Phantom (.5x) ___ _ _ ___ _ _ ___ _ _ ___ _ _
 72
    65
 73
     6
 40
31.75
 49
15.875
 74
     0
 49
-3.174999999999999
 74
     0
 49
3.174999999999999
 74
     0
 49
-3.174999999999999
 74
     0
 49
3.174999999999999
 74
     0
 49
-3.174999999999999
 74
     0
  0
LTYPE
  5
15B9
330
12B2
100
AcDbSymbolTableRecord
100
AcDbLinetypeTableRecord
  2
CENTER
 70
     0
  3
Mitte ____ _ ____ _ ____ _ ____ _ ____ _ ____
 72
    65
 73
     4
 40
50.8
 49
31.75
 74
     0
 49
-6.349999999999999
 74
     0
 49
6.349999999999999
 74
     0
 49
-6.349999999999999
 74
     0
  0
LTYPE
  5
15ED
330
12B2
100
AcDbSymbolTableRecord
100
AcDbLinetypeTableRecord
  2
AM_ISO02W050
 70
     0
  3
__ __ __ __ __ __ __ __ __ __ __ __ __ __ __
 72
    65
 73
     2
 40
7.5
 49
6.0
 74
     0
 49
-1.5
 74
     0
  0
LTYPE
  5
15F7
330
12B2
100
AcDbSymbolTableRecord
100
AcDbLinetypeTableRecord
  2
AM_DIN_G_W050
 70
     0
  3
____ . ____ . ____ . ____ . ____ . ____ . ____
 72
    65
 73
     4
 40
13.75
 49
9.75
 74
     0
 49
-1.5
 74
     0
 49
1.0
 74
     0
 49
-1.5
 74
     0
  0
LTYPE
  5
1609
330
12B2
100
AcDbSymbolTableRecord
100
AcDbLinetypeTableRecord
  2
ACDINWELD
 70
     0
  3
_ _ _ _ _
 72
    65
 73
     2
 40
2.0
 49
2.0
 74
     0
 49
-1.0
 74
     0
  0
LTYPE
  5
160A
330
12B2
100
AcDbSymbolTableRecord
100
AcDbLinetypeTableRecord
  2
ACDINTGB
 70
     0
  3
__ . . __ . .
 72
    65
 73
     6
 40
9.0
 49
4.0
 74
     0
 49
-1.0
 74
     0
 49
1.0
 74
     0
 49
-1.0
 74
     0
 49
1.0
 74
     0
 49
-1.0
 74
     0
  0
LTYPE
  5
160B
330
12B2
100
AcDbSymbolTableRecord
100
AcDbLinetypeTableRecord
  2
ACDINTGL
 70
     0
  3
_ _ _ _ _
 72
    65
 73
     2
 40
3.0
 49
2.0
 74
     0
 49
-1.0
 74
     0
  0
LTYPE
  5
164B
330
12B2
100
AcDbSymbolTableRecord
100
AcDbLinetypeTableRecord
  2
gen3
 70
     0
  3
-- -- -- -- -- -- -- -- -- -- -- -- -- -- --
 72
    65
 73
     2
 40
6.25
 49
4.75
 74
     0
 49
-1.5
 74
     0
  0
LTYPE
  5
164C
330
12B2
100
AcDbSymbolTableRecord
100
AcDbLinetypeTableRecord
  2
gen3a
 70
     0
  3
 - - - - -
 72
    65
 73
     2
 40
3.125
 49
2.25
 74
     0
 49
-0.875
 74
     0
  0
LTYPE
  5
164D
330
12B2
100
AcDbSymbolTableRecord
100
AcDbLinetypeTableRecord
  2
gen7a
 70
     0
  3
__ . __ . __
 72
    65
 73
     4
 40
6.875
 49
4.75
 74
     0
 49
-0.875
 74
     0
 49
0.375
 74
     0
 49
-0.875
 74
     0
  0
LTYPE
  5
164E
330
12B2
100
AcDbSymbolTableRecord
100
AcDbLinetypeTableRecord
  2
gen4a
 70
     0
  3
_____ . . _____ . . _____ . . ____ .. ____
 72
    65
 73
     6
 40
16.25
 49
9.75
 74
     0
 49
-1.5
 74
     0
 49
1.0
 74
     0
 49
-1.5
 74
     0
 49
1.0
 74
     0
 49
-1.5
 74
     0
  0
LTYPE
  5
164F
330
12B2
100
AcDbSymbolTableRecord
100
AcDbLinetypeTableRecord
  2
genzigzag
 70
     0
  3
/\/-/\/-/\/-/\/-/\/-/\/
 72
    65
 73
     2
 40
12.0001
 49
0.0001
 74
     4
 75
   135
340
15F4
 46
2.0
 50
0.0
 44
0.0
 45
0.0
 49
-12.0
 74
     0
  0
ENDTAB
  0
TABLE
  2
LAYER
  5
12AF
330
0
100
AcDbSymbolTable
 70
    10
  0
LAYER
  5
12BB
330
12AF
100
AcDbSymbolTableRecord
100
AcDbLayerTableRecord
  2
0
 70
     0
 62
     7
  6
CONTINUOUS
370
    -3
390
1579
  0
LAYER
  5
12D6
330
12AF
100
AcDbSymbolTableRecord
100
AcDbLayerTableRecord
  2
4
 70
     0
 62
     3
  6
CONTINUOUS
370
    -3
390
1579
  0
LAYER
  5
12D8
330
12AF
100
AcDbSymbolTableRecord
100
AcDbLayerTableRecord
  2
5
 70
     0
 62
     3
  6
CONTINUOUS
370
    -3
390
1579
  0
LAYER
  5
12DA
330
12AF
100
AcDbSymbolTableRecord
100
AcDbLayerTableRecord
  2
7
 70
     0
 62
     4
  6
GEN7
370
    -3
390
1579
  0
LAYER
  5
12DB
330
12AF
100
AcDbSymbolTableRecord
100
AcDbLayerTableRecord
  2
8
 70
     0
 62
     1
  6
CONTINUOUS
370
    -3
390
1579
  0
LAYER
  5
12DC
330
12AF
100
AcDbSymbolTableRecord
100
AcDbLayerTableRecord
  2
SCHRAFFUR_RAND
 70
     1
 62
    36
  6
CONTINUOUS
370
    -3
390
1579
  0
LAYER
  5
130A
330
12AF
100
AcDbSymbolTableRecord
100
AcDbLayerTableRecord
  2
DEFPOINTS
 70
     0
 62
     7
  6
CONTINUOUS
290
     0
370
    -3
390
1579
  0
LAYER
  5
1554
330
12AF
100
AcDbSymbolTableRecord
100
AcDbLayerTableRecord
  2
MAßLINIEN
 70
     0
 62
    30
  6
GEN7
370
    -3
390
1579
  0
ENDTAB
  0
TABLE
  2
STYLE
  5
12B0
330
0
100
AcDbSymbolTable
 70
     4
  0
STYLE
  5
12BC
330
12B0
100
AcDbSymbolTableRecord
100
AcDbTextStyleTableRecord
  2
STANDARD
 70
     0
 40
0.0
 41
1.0
 50
0.0
 71
     0
 42
10.0
  3
ISOCP.SHX
  4

  0
STYLE
  5
15F4
330
12B0
100
AcDbSymbolTableRecord
100
AcDbTextStyleTableRecord
  2

 70
     1
 40
0.0
 41
1.0
 50
0.0
 71
     0
 42
0.2
  3
genltshp.shx
  4

  0
STYLE
  5
15FB
330
12B0
100
AcDbSymbolTableRecord
100
AcDbTextStyleTableRecord
  2
ACDINTS
 70
     0
 40
1.0
 41
1.0
 50
0.0
 71
     0
 42
0.2
  3
isocp.shx
  4

  0
STYLE
  5
1608
330
12B0
100
AcDbSymbolTableRecord
100
AcDbTextStyleTableRecord
  2
ACDINGDT
 70
     0
 40
0.0
 41
1.0
 50
0.0
 71
     0
 42
0.2
  3
AMGDT
  4

  0
ENDTAB
  0
TABLE
  2
VIEW
  5
12B3
330
0
100
AcDbSymbolTable
 70
     6
  0
VIEW
  5
134D
330
12B3
100
AcDbSymbolTableRecord
100
AcDbViewTableRecord
  2
GEN1
 70
     0
 40
524.9999999999999
 10
403.4919028340079
 20
787.4999999999998
 41
806.9838056680159
 11
0.0
 21
0.0
 31
1.0
 12
0.0
 22
0.0
 32
0.0
 42
50.0
 43
0.0
 44
0.0
 50
0.0
 71
     0
281
     0
 72
     0
  0
VIEW
  5
134E
330
12B3
100
AcDbSymbolTableRecord
100
AcDbViewTableRecord
  2
GEN2
 70
     0
 40
524.9999999999999
 10
646.508097165992
 20
787.4999999999998
 41
806.9838056680159
 11
0.0
 21
0.0
 31
1.0
 12
0.0
 22
0.0
 32
0.0
 42
50.0
 43
0.0
 44
0.0
 50
0.0
 71
     0
281
     0
 72
     0
  0
VIEW
  5
134F
330
12B3
100
AcDbSymbolTableRecord
100
AcDbViewTableRecord
  2
GEN3
 70
     0
 40
524.9999999999999
 10
403.4919028340079
 20
262.5
 41
806.9838056680159
 11
0.0
 21
0.0
 31
1.0
 12
0.0
 22
0.0
 32
0.0
 42
50.0
 43
0.0
 44
0.0
 50
0.0
 71
     0
281
     0
 72
     0
  0
VIEW
  5
1350
330
12B3
100
AcDbSymbolTableRecord
100
AcDbViewTableRecord
  2
GEN4
 70
     0
 40
524.9999999999999
 10
646.508097165992
 20
262.5
 41
806.9838056680159
 11
0.0
 21
0.0
 31
1.0
 12
0.0
 22
0.0
 32
0.0
 42
50.0
 43
0.0
 44
0.0
 50
0.0
 71
     0
281
     0
 72
     0
  0
VIEW
  5
1351
330
12B3
100
AcDbSymbolTableRecord
100
AcDbViewTableRecord
  2
GEN5
 70
     0
 40
524.9999999999998
 10
525.0
 20
524.9999999999999
 41
806.9838056680159
 11
0.0
 21
0.0
 31
1.0
 12
0.0
 22
0.0
 32
0.0
 42
50.0
 43
0.0
 44
0.0
 50
0.0
 71
     0
281
     0
 72
     0
  0
VIEW
  5
1352
330
12B3
100
AcDbSymbolTableRecord
100
AcDbViewTableRecord
  2
GEN6
 70
     0
 40
1049.9895
 10
525.0
 20
524.9999999999999
 41
1613.951471659919
 11
0.0
 21
0.0
 31
1.0
 12
0.0
 22
0.0
 32
0.0
 42
50.0
 43
0.0
 44
0.0
 50
0.0
 71
     0
281
     0
 72
     0
  0
ENDTAB
  0
TABLE
  2
UCS
  5
12B4
330
0
100
AcDbSymbolTable
 70
     0
  0
ENDTAB
  0
TABLE
  2
APPID
  5
12B6
330
0
100
AcDbSymbolTable
 70
    37
  0
APPID
  5
12BD
330
12B6
100
AcDbSymbolTableRecord
100
AcDbRegAppTableRecord
  2
ACAD
 70
     0
  0
APPID
  5
131B
330
12B6
100
AcDbSymbolTableRecord
100
AcDbRegAppTableRecord
  2
GENIUS_GENCFG_13
 70
     0
1001
GENIUS_GENCFG0_13
1000
GEN@INFO_POS@XLATE
1001
GENIUS_GENCFG1_13
1000
GEN@INFO_POS
1001
GENIUS_GENCFG2_13
1000
GEN@LAYER@DEFS
1001
GENIUS_GENCFG3_13
1000
GEN@LAYER@ENTSORT
1001
GENIUS_GENCFG4_13
1000
GEN
1001
GENIUS_GEVCFG0_13
1000
GEV
1001
GENIUS_DUMCFG0_13
1000
DUM
  0
APPID
  5
131C
330
12B6
100
AcDbSymbolTableRecord
100
AcDbRegAppTableRecord
  2
GENIUS_DUMCFG0_13
 70
     0
1001
GENIUS_GENCFG_13
1071
925131942
1000
131C
1000
DUM
1070
     0
  0
APPID
  5
131D
330
12B6
100
AcDbSymbolTableRecord
100
AcDbRegAppTableRecord
  2
GENIUS_GENCFG0_13
 70
     0
1001
GENIUS_GENCFG_13
1071
955978259
1000
131D
1000
GEN@INFO_POS@XLATE
1070
     8
1000
GenCfgObject
1000
GenCfgShort
1000
GenCfgReal
1000
GenCfgBool
1000
GenCfgString
1000
GenCfgDim
1000
GenCfgPoint
1000
GenCfgAttrInf
1000
INFOPOINTS
1070
     0
1002
{
1000
GENINF14
1070
     0
1002
{
1000
2GENINF
1070
     4
1000
2
1002
{
1002
}
1000
5GENINF
1070
     4
1000
5
1002
{
1002
}
1000
7GENINF
1070
     4
1000
7
1002
{
1002
}
1000
9GENINF
1070
     4
1000
9
1002
{
1002
}
1000
11GENINF
1070
     4
1000
11
1002
{
1002
}
1000
14GENINF
1070
     4
1000
14
1002
{
1002
}
1002
}
1000
GENINF13
1070
     0
1002
{
1000
2GENINF
1070
     4
1000
2
1002
{
1002
}
1000
3GENINF
1070
     4
1000
3
1002
{
1002
}
1000
4GENINF
1070
     4
1000
4
1002
{
1002
}
1000
5GENINF
1070
     4
1000
5
1002
{
1002
}
1000
6GENINF
1070
     4
1000
6
1002
{
1002
}
1000
7GENINF
1070
     4
1000
7
1002
{
1002
}
1000
8GENINF
1070
     4
1000
8
1002
{
1002
}
1000
9GENINF
1070
     4
1000
9
1002
{
1002
}
1000
10GENINF
1070
     4
1000
10
1002
{
1002
}
1000
11GENINF
1070
     4
1000
11
1002
{
1002
}
1000
12GENINF
1070
     4
1000
12
1002
{
1002
}
1000
13GENINF
1070
     4
1000
13
1002
{
1002
}
1000
14GENINF
1070
     4
1000
14
1002
{
1002
}
1000
15GENINF
1070
     4
1000
15
1002
{
1002
}
1000
16GENINF
1070
     4
1000
16
1002
{
1002
}
1000
17GENINF
1070
     4
1000
17
1002
{
1002
}
1000
18GENINF
1070
     4
1000
18
1002
{
1002
}
1000
19GENINF
1070
     4
1000
19
1002
{
1002
}
1000
20GENINF
1070
     4
1000
20
1002
{
1002
}
1000
21GENINF
1070
     4
1000
21
1002
{
1002
}
1000
22GENINF
1070
     4
1000
22
1002
{
1002
}
1000
23GENINF
1070
     4
1000
23
1002
{
1002
}
1000
24GENINF
1070
     4
1000
24
1002
{
1002
}
1000
0GENINF
1070
     4
1000
0
1002
{
1002
}
1002
}
1000
GENINFO
1070
     0
1002
{
1000
3GENINF
1070
     4
1000
3
1002
{
1002
}
1000
4GENINF
1070
     4
1000
4
1002
{
1002
}
1000
5GENINF
1070
     4
1000
5
1002
{
1002
}
1000
6GENINF
1070
     4
1000
6
1002
{
1002
}
1000
7GENINF
1070
     4
1000
7
1002
{
1002
}
1000
8GENINF
1070
     4
1000
8
1002
{
1002
}
1000
9GENINF
1070
     4
1000
9
1002
{
1002
}
1000
10GENINF
1070
     4
1000
10
1002
{
1002
}
1000
11GENINF
1070
     4
1000
11
1002
{
1002
}
1000
12GENINF
1070
     4
1000
12
1002
{
1002
}
1000
13GENINF
1070
     4
1000
13
1002
{
1002
}
1000
14GENINF
1070
     4
1000
14
1002
{
1002
}
1000
15GENINF
1070
     4
1000
15
1002
{
1002
}
1000
16GENINF
1070
     4
1000
16
1002
{
1002
}
1000
17GENINF
1070
     4
1000
17
1002
{
1002
}
1000
18GENINF
1070
     4
1000
18
1002
{
1002
}
1000
19GENINF
1070
     4
1000
19
1002
{
1002
}
1000
20GENINF
1070
     4
1000
20
1002
{
1002
}
1000
21GENINF
1070
     4
1000
21
1002
{
1002
}
1000
22GENINF
1070
     4
1000
22
1002
{
1002
}
1002
}
1000
DININFO
1070
     0
1002
{
1000
ST-NAME1
1070
     4
1000
5
1002
{
1002
}
1000
ST-NAME2
1070
     4
1000
6
1002
{
1002
}
1000
ST-NORM1
1070
     4
1000
7
1002
{
1002
}
1000
ST-NORM2
1070
     4
1000
8
1002
{
1002
}
1000
ST-MAT1
1070
     4
1000
9
1002
{
1002
}
1000
ST-MAT2
1070
     4
1000
10
1002
{
1002
}
1002
}
1002
}
1000
POS_NUMBERS
1070
     0
1002
{
1000
GENPOS14
1070
     0
1002
{
1000
1GENPOS
1070
     4
1000
1
1002
{
1002
}
1000
2GENPOS
1070
     4
1000
2
1002
{
1002
}
1000
5GENPOS
1070
     4
1000
5
1002
{
1002
}
1000
7GENPOS
1070
     4
1000
7
1002
{
1002
}
1000
9GENPOS
1070
     4
1000
9
1002
{
1002
}
1000
11GENPOS
1070
     4
1000
11
1002
{
1002
}
1000
14GENPOS
1070
     4
1000
14
1002
{
1002
}
1002
}
1000
GENPOS13
1070
     0
1002
{
1000
1GENPOS
1070
     4
1000
1
1002
{
1002
}
1000
2GENPOS
1070
     4
1000
2
1002
{
1002
}
1000
3GENPOS
1070
     4
1000
3
1002
{
1002
}
1000
4GENPOS
1070
     4
1000
4
1002
{
1002
}
1000
5GENPOS
1070
     4
1000
5
1002
{
1002
}
1000
6GENPOS
1070
     4
1000
6
1002
{
1002
}
1000
7GENPOS
1070
     4
1000
7
1002
{
1002
}
1000
8GENPOS
1070
     4
1000
8
1002
{
1002
}
1000
9GENPOS
1070
     4
1000
9
1002
{
1002
}
1000
10GENPOS
1070
     4
1000
10
1002
{
1002
}
1000
11GENPOS
1070
     4
1000
11
1002
{
1002
}
1000
12GENPOS
1070
     4
1000
12
1002
{
1002
}
1000
13GENPOS
1070
     4
1000
13
1002
{
1002
}
1000
14GENPOS
1070
     4
1000
14
1002
{
1002
}
1000
15GENPOS
1070
     4
1000
15
1002
{
1002
}
1000
16GENPOS
1070
     4
1000
16
1002
{
1002
}
1000
17GENPOS
1070
     4
1000
17
1002
{
1002
}
1000
18GENPOS
1070
     4
1000
18
1002
{
1002
}
1000
19GENPOS
1070
     4
1000
19
1002
{
1002
}
1000
20GENPOS
1070
     4
1000
20
1002
{
1002
}
1000
21GENPOS
1070
     4
1000
21
1002
{
1002
}
1000
22GENPOS
1070
     4
1000
22
1002
{
1002
}
1000
23GENPOS
1070
     4
1000
23
1002
{
1002
}
1000
24GENPOS
1070
     4
1000
24
1002
{
1002
}
1000
0GENPOS
1070
     4
1000
0
1002
{
1002
}
1002
}
1000
GENPOS
1070
     0
1002
{
1000
1GENPOS
1070
     4
1000
1
1002
{
1002
}
1000
2GENPOS
1070
     4
1000
2
1002
{
1002
}
1000
3GENPOS
1070
     4
1000
3
1002
{
1002
}
1000
4GENPOS
1070
     4
1000
4
1002
{
1002
}
1000
5GENPOS
1070
     4
1000
5
1002
{
1002
}
1000
6GENPOS
1070
     4
1000
6
1002
{
1002
}
1000
7GENPOS
1070
     4
1000
7
1002
{
1002
}
1000
8GENPOS
1070
     4
1000
8
1002
{
1002
}
1000
9GENPOS
1070
     4
1000
9
1002
{
1002
}
1000
10GENPOS
1070
     4
1000
10
1002
{
1002
}
1000
11GENPOS
1070
     4
1000
11
1002
{
1002
}
1000
12GENPOS
1070
     4
1000
12
1002
{
1002
}
1000
13GENPOS
1070
     4
1000
13
1002
{
1002
}
1000
14GENPOS
1070
     4
1000
14
1002
{
1002
}
1000
15GENPOS
1070
     4
1000
15
1002
{
1002
}
1000
16GENPOS
1070
     4
1000
16
1002
{
1002
}
1000
17GENPOS
1070
     4
1000
17
1002
{
1002
}
1000
18GENPOS
1070
     4
1000
18
1002
{
1002
}
1000
19GENPOS
1070
     4
1000
19
1002
{
1002
}
1000
20GENPOS
1070
     4
1000
20
1002
{
1002
}
1000
21GENPOS
1070
     4
1000
21
1002
{
1002
}
1000
22GENPOS
1070
     4
1000
22
1002
{
1002
}
1000
23GENPOS
1070
     4
1000
23
1002
{
1002
}
1002
}
1000
DIN985
1070
     0
1002
{
1000
POSITION
1070
     4
1000
1
1002
{
1002
}
1000
MENGE
1070
     4
1000
2
1002
{
1002
}
1000
BLATT
1070
     4
1000
3
1002
{
1002
}
1000
BENENN
1070
     4
1000
5
1002
{
1002
}
1000
BENENN2
1070
     4
1000
6
1002
{
1002
}
1000
NORM
1070
     4
1000
7
1002
{
1002
}
1000
NORM2
1070
     4
1000
8
1002
{
1002
}
1000
WERKSTOFF
1070
     4
1000
9
1002
{
1002
}
1000
WERKSTOFF2
1070
     4
1000
10
1002
{
1002
}
1002
}
1000
DIN986
1070
     0
1002
{
1000
POSITION
1070
     4
1000
1
1002
{
1002
}
1000
MENGE
1070
     4
1000
2
1002
{
1002
}
1000
BLATT
1070
     4
1000
3
1002
{
1002
}
1000
BENENN
1070
     4
1000
5
1002
{
1002
}
1000
BENENN2
1070
     4
1000
6
1002
{
1002
}
1000
NORM
1070
     4
1000
7
1002
{
1002
}
1000
NORM2
1070
     4
1000
8
1002
{
1002
}
1000
WERKSTOFF
1070
     4
1000
9
1002
{
1002
}
1000
WERKSTOFF2
1070
     4
1000
10
1002
{
1002
}
1002
}
1000
DIN987
1070
     0
1002
{
1000
POSITION
1070
     4
1000
1
1002
{
1002
}
1000
MENGE
1070
     4
1000
2
1002
{
1002
}
1000
BLATT
1070
     4
1000
3
1002
{
1002
}
1000
BENENN
1070
     4
1000
5
1002
{
1002
}
1000
BENENN2
1070
     4
1000
6
1002
{
1002
}
1000
NORM
1070
     4
1000
7
1002
{
1002
}
1000
NORM2
1070
     4
1000
8
1002
{
1002
}
1000
WERKSTOFF
1070
     4
1000
9
1002
{
1002
}
1000
WERKSTOFF2
1070
     4
1000
10
1002
{
1002
}
1002
}
1002
}
  0
APPID
  5
131E
330
12B6
100
AcDbSymbolTableRecord
100
AcDbRegAppTableRecord
  2
GENIUS_GENCFG1_13
 70
     0
1001
GENIUS_GENCFG_13
1071
955978259
1000
131E
1000
GEN@INFO_POS
1070
     8
1000
GenCfgObject
1000
GenCfgShort
1000
GenCfgReal
1000
GenCfgBool
1000
GenCfgString
1000
GenCfgDim
1000
GenCfgPoint
1000
GenCfgAttrInf
1000
DescrText
1070
     4
1000
5, ,6, ,7, ,8
1002
{
1002
}
1000
DescrText2
1070
     4
1000
26
1002
{
1002
}
1000
VisibleAttr1
1070
     4
1000
1
1002
{
1002
}
1000
VisibleAttr2
1070
     4
1000
26
1002
{
1002
}
1000
UpdateBlock
1070
     3
1070
     1
1002
{
1002
}
1000
Attrib
1070
     0
1002
{
1000
0
1070
     7
1002
{
1000
Prompt
1070
     4
1000
(genmsg gendwg 103)
1002
{
1002
}
1000
Value
1070
     4
1000

1002
{
1002
}
1000
EditFlag
1070
     1
1070
     0
1002
{
1002
}
1000
PosInDDATTE
1070
     1
1070
    27
1002
{
1002
}
1000
FieldLen
1070
     1
1070
    -1
1002
{
1002
}
1002
}
1000
1
1070
     7
1002
{
1000
Prompt
1070
     4
1000
(genmsg gendwg 31)
1002
{
1002
}
1000
Value
1070
     4
1000
1
1002
{
1002
}
1000
EditFlag
1070
     1
1070
     1
1002
{
1002
}
1000
PosInDDATTE
1070
     1
1070
     1
1002
{
1002
}
1000
FieldLen
1070
     1
1070
    -1
1002
{
1002
}
1002
}
1000
2
1070
     7
1002
{
1000
Prompt
1070
     4
1000
(genmsg gendwg 32)
1002
{
1002
}
1000
Value
1070
     4
1000
1
1002
{
1002
}
1000
EditFlag
1070
     1
1070
     1
1002
{
1002
}
1000
PosInDDATTE
1070
     1
1070
     2
1002
{
1002
}
1000
FieldLen
1070
     1
1070
    -1
1002
{
1002
}
1002
}
1000
3
1070
     7
1002
{
1000
Prompt
1070
     4
1000
(genmsg gendwg 33)
1002
{
1002
}
1000
Value
1070
     4
1000

1002
{
1002
}
1000
EditFlag
1070
     1
1070
     1
1002
{
1002
}
1000
PosInDDATTE
1070
     1
1070
     3
1002
{
1002
}
1000
FieldLen
1070
     1
1070
    -1
1002
{
1002
}
1002
}
1000
4
1070
     7
1002
{
1000
Prompt
1070
     4
1000
(genmsg gendwg 34)
1002
{
1002
}
1000
Value
1070
     4
1000

1002
{
1002
}
1000
EditFlag
1070
     1
1070
     1
1002
{
1002
}
1000
PosInDDATTE
1070
     1
1070
     4
1002
{
1002
}
1000
FieldLen
1070
     1
1070
    -1
1002
{
1002
}
1002
}
1000
5
1070
     7
1002
{
1000
Prompt
1070
     4
1000
(genmsg gendwg 35)
1002
{
1002
}
1000
Value
1070
     4
1000

1002
{
1002
}
1000
EditFlag
1070
     1
1070
     1
1002
{
1002
}
1000
PosInDDATTE
1070
     1
1070
     5
1002
{
1002
}
1000
FieldLen
1070
     1
1070
    -1
1002
{
1002
}
1002
}
1000
6
1070
     7
1002
{
1000
Prompt
1070
     4
1000
(genmsg gendwg 36)
1002
{
1002
}
1000
Value
1070
     4
1000

1002
{
1002
}
1000
EditFlag
1070
     1
1070
     1
1002
{
1002
}
1000
PosInDDATTE
1070
     1
1070
     6
1002
{
1002
}
1000
FieldLen
1070
     1
1070
    -1
1002
{
1002
}
1002
}
1000
7
1070
     7
1002
{
1000
Prompt
1070
     4
1000
(genmsg gendwg 37)
1002
{
1002
}
1000
Value
1070
     4
1000

1002
{
1002
}
1000
EditFlag
1070
     1
1070
     1
1002
{
1002
}
1000
PosInDDATTE
1070
     1
1070
     7
1002
{
1002
}
1000
FieldLen
1070
     1
1070
    -1
1002
{
1002
}
1002
}
1000
8
1070
     7
1002
{
1000
Prompt
1070
     4
1000
(genmsg gendwg 38)
1002
{
1002
}
1000
Value
1070
     4
1000

1002
{
1002
}
1000
EditFlag
1070
     1
1070
     1
1002
{
1002
}
1000
PosInDDATTE
1070
     1
1070
     8
1002
{
1002
}
1000
FieldLen
1070
     1
1070
    -1
1002
{
1002
}
1002
}
1000
9
1070
     7
1002
{
1000
Prompt
1070
     4
1000
(genmsg gendwg 39)
1002
{
1002
}
1000
Value
1070
     4
1000

1002
{
1002
}
1000
EditFlag
1070
     1
1070
     1
1002
{
1002
}
1000
PosInDDATTE
1070
     1
1070
     9
1002
{
1002
}
1000
FieldLen
1070
     1
1070
    -1
1002
{
1002
}
1002
}
1000
10
1070
     7
1002
{
1000
Prompt
1070
     4
1000
(genmsg gendwg 40)
1002
{
1002
}
1000
Value
1070
     4
1000

1002
{
1002
}
1000
EditFlag
1070
     1
1070
     1
1002
{
1002
}
1000
PosInDDATTE
1070
     1
1070
    10
1002
{
1002
}
1000
FieldLen
1070
     1
1070
    -1
1002
{
1002
}
1002
}
1000
11
1070
     7
1002
{
1000
Prompt
1070
     4
1000
(genmsg gendwg 41)
1002
{
1002
}
1000
Value
1070
     4
1000

1002
{
1002
}
1000
EditFlag
1070
     1
1070
     1
1002
{
1002
}
1000
PosInDDATTE
1070
     1
1070
    11
1002
{
1002
}
1000
FieldLen
1070
     1
1070
    -1
1002
{
1002
}
1002
}
1000
12
1070
     7
1002
{
1000
Prompt
1070
     4
1000
(genmsg gendwg 42)
1002
{
1002
}
1000
Value
1070
     4
1000

1002
{
1002
}
1000
EditFlag
1070
     1
1070
     1
1002
{
1002
}
1000
PosInDDATTE
1070
     1
1070
    12
1002
{
1002
}
1000
FieldLen
1070
     1
1070
    -1
1002
{
1002
}
1002
}
1000
13
1070
     7
1002
{
1000
Prompt
1070
     4
1000
(genmsg gendwg 43)
1002
{
1002
}
1000
Value
1070
     4
1000

1002
{
1002
}
1000
EditFlag
1070
     1
1070
     1
1002
{
1002
}
1000
PosInDDATTE
1070
     1
1070
    13
1002
{
1002
}
1000
FieldLen
1070
     1
1070
    -1
1002
{
1002
}
1002
}
1000
14
1070
     7
1002
{
1000
Prompt
1070
     4
1000
(genmsg gendwg 44)
1002
{
1002
}
1000
Value
1070
     4
1000

1002
{
1002
}
1000
EditFlag
1070
     1
1070
     1
1002
{
1002
}
1000
PosInDDATTE
1070
     1
1070
    14
1002
{
1002
}
1000
FieldLen
1070
     1
1070
    -1
1002
{
1002
}
1002
}
1000
15
1070
     7
1002
{
1000
Prompt
1070
     4
1000
(genmsg gendwg 45)
1002
{
1002
}
1000
Value
1070
     4
1000

1002
{
1002
}
1000
EditFlag
1070
     1
1070
     1
1002
{
1002
}
1000
PosInDDATTE
1070
     1
1070
    15
1002
{
1002
}
1000
FieldLen
1070
     1
1070
    -1
1002
{
1002
}
1002
}
1000
16
1070
     7
1002
{
1000
Prompt
1070
     4
1000
(genmsg gendwg 46)
1002
{
1002
}
1000
Value
1070
     4
1000

1002
{
1002
}
1000
EditFlag
1070
     1
1070
     1
1002
{
1002
}
1000
PosInDDATTE
1070
     1
1070
    16
1002
{
1002
}
1000
FieldLen
1070
     1
1070
    -1
1002
{
1002
}
1002
}
1000
17
1070
     7
1002
{
1000
Prompt
1070
     4
1000
(genmsg gendwg 47)
1002
{
1002
}
1000
Value
1070
     4
1000

1002
{
1002
}
1000
EditFlag
1070
     1
1070
     1
1002
{
1002
}
1000
PosInDDATTE
1070
     1
1070
    17
1002
{
1002
}
1000
FieldLen
1070
     1
1070
    -1
1002
{
1002
}
1002
}
1000
18
1070
     7
1002
{
1000
Prompt
1070
     4
1000
(genmsg gendwg 48)
1002
{
1002
}
1000
Value
1070
     4
1000

1002
{
1002
}
1000
EditFlag
1070
     1
1070
     1
1002
{
1002
}
1000
PosInDDATTE
1070
     1
1070
    18
1002
{
1002
}
1000
FieldLen
1070
     1
1070
    -1
1002
{
1002
}
1002
}
1000
19
1070
     7
1002
{
1000
Prompt
1070
     4
1000
(genmsg gendwg 99)
1002
{
1002
}
1000
Value
1070
     4
1000

1002
{
1002
}
1000
EditFlag
1070
     1
1070
     1
1002
{
1002
}
1000
PosInDDATTE
1070
     1
1070
    19
1002
{
1002
}
1000
FieldLen
1070
     1
1070
    -1
1002
{
1002
}
1002
}
1000
20
1070
     7
1002
{
1000
Prompt
1070
     4
1000
(genmsg gendwg 100)
1002
{
1002
}
1000
Value
1070
     4
1000

1002
{
1002
}
1000
EditFlag
1070
     1
1070
     1
1002
{
1002
}
1000
PosInDDATTE
1070
     1
1070
    20
1002
{
1002
}
1000
FieldLen
1070
     1
1070
    -1
1002
{
1002
}
1002
}
1000
21
1070
     7
1002
{
1000
Prompt
1070
     4
1000
(genmsg gendwg 101)
1002
{
1002
}
1000
Value
1070
     4
1000

1002
{
1002
}
1000
EditFlag
1070
     1
1070
     1
1002
{
1002
}
1000
PosInDDATTE
1070
     1
1070
    21
1002
{
1002
}
1000
FieldLen
1070
     1
1070
    -1
1002
{
1002
}
1002
}
1000
22
1070
     7
1002
{
1000
Prompt
1070
     4
1000
(genmsg gendwg 102)
1002
{
1002
}
1000
Value
1070
     4
1000

1002
{
1002
}
1000
EditFlag
1070
     1
1070
     1
1002
{
1002
}
1000
PosInDDATTE
1070
     1
1070
    22
1002
{
1002
}
1000
FieldLen
1070
     1
1070
    -1
1002
{
1002
}
1002
}
1000
23
1070
     7
1002
{
1000
Prompt
1070
     4
1000
(genmsg gendwg 30)
1002
{
1002
}
1000
Value
1070
     4
1000

1002
{
1002
}
1000
EditFlag
1070
     1
1070
     1
1002
{
1002
}
1000
PosInDDATTE
1070
     1
1070
    23
1002
{
1002
}
1000
FieldLen
1070
     1
1070
    -1
1002
{
1002
}
1002
}
1000
24
1070
     7
1002
{
1000
Prompt
1070
     4
1000
(genmsg gendwg 104)
1002
{
1002
}
1000
Value
1070
     4
1000

1002
{
1002
}
1000
EditFlag
1070
     1
1070
     1
1002
{
1002
}
1000
PosInDDATTE
1070
     1
1070
    24
1002
{
1002
}
1000
FieldLen
1070
     1
1070
    -1
1002
{
1002
}
1002
}
1000
25
1070
     7
1002
{
1000
Prompt
1070
     4
1000
(genmsg gendwg 105)
1002
{
1002
}
1000
Value
1070
     4
1000

1002
{
1002
}
1000
EditFlag
1070
     1
1070
     1
1002
{
1002
}
1000
PosInDDATTE
1070
     1
1070
    25
1002
{
1002
}
1000
FieldLen
1070
     1
1070
    -1
1002
{
1002
}
1002
}
1000
26
1070
     7
1002
{
1000
Prompt
1070
     4
1000
(genmsg gendwg 106)
1002
{
1002
}
1000
Value
1070
     4
1000

1002
{
1002
}
1000
EditFlag
1070
     1
1070
     1
1002
{
1002
}
1000
PosInDDATTE
1070
     1
1070
    26
1002
{
1002
}
1000
FieldLen
1070
     1
1070
    -1
1002
{
1002
}
1002
}
1000
27
1070
     7
1002
{
1000
Prompt
1070
     4
1000
(genmsg gendwg 109)
1002
{
1002
}
1000
Value
1070
     4
1000

1002
{
1002
}
1000
EditFlag
1070
     1
1070
     2
1002
{
1002
}
1000
PosInDDATTE
1070
     1
1070
    27
1002
{
1002
}
1000
FieldLen
1070
     1
1070
    -1
1002
{
1002
}
1002
}
1002
}
1000
Xlate
1070
     0
1002
{
1000
>
1002
}
  0
APPID
  5
131F
330
12B6
100
AcDbSymbolTableRecord
100
AcDbRegAppTableRecord
  2
GENIUS_GENCFG2_13
 70
     0
1001
GENIUS_GENCFG_13
1071
955978259
1000
131F
1000
GEN@LAYER@DEFS
1070
    10
1000
GenCfgObject
1000
GenCfgShort
1000
GenCfgReal
1000
GenCfgBool
1000
GenCfgString
1000
GenCfgDim
1000
GenCfgPoint
1000
GenCfgAttrInf
1000
GenCfgLaySection
1000
GenCfgLayer
1000
Basic
1070
     0
1002
{
1000
0
1070
     9
1000
0
1002
{
1000
Color
1070
     1
1070
     7
1002
{
1002
}
1000
LType
1070
     4
1000
CONTINUOUS
1002
{
1002
}
1000
Base
1070
     3
1070
     0
1002
{
1002
}
1002
}
1000
1
1070
     9
1000
1
1002
{
1000
Color
1070
     1
1070
    14
1002
{
1002
}
1000
LType
1070
     4
1000
CONTINUOUS
1002
{
1002
}
1000
Base
1070
     3
1070
     0
1002
{
1002
}
1002
}
1000
2
1070
     9
1000
2
1002
{
1000
Color
1070
     1
1070
     5
1002
{
1002
}
1000
LType
1070
     4
1000
CONTINUOUS
1002
{
1002
}
1000
Base
1070
     3
1070
     0
1002
{
1002
}
1002
}
1000
3
1070
     9
1000
3
1002
{
1000
Color
1070
     1
1070
     6
1002
{
1002
}
1000
LType
1070
     4
1000
GEN3
1002
{
1002
}
1000
Base
1070
     3
1070
     0
1002
{
1002
}
1002
}
1000
4
1070
     9
1000
4
1002
{
1000
Color
1070
     1
1070
     3
1002
{
1002
}
1000
LType
1070
     4
1000
CONTINUOUS
1002
{
1002
}
1000
Base
1070
     3
1070
     0
1002
{
1002
}
1002
}
1000
5
1070
     9
1000
5
1002
{
1000
Color
1070
     1
1070
     3
1002
{
1002
}
1000
LType
1070
     4
1000
CONTINUOUS
1002
{
1002
}
1000
Base
1070
     3
1070
     0
1002
{
1002
}
1002
}
1000
6
1070
     9
1000
6
1002
{
1000
Color
1070
     1
1070
     2
1002
{
1002
}
1000
LType
1070
     4
1000
CONTINUOUS
1002
{
1002
}
1000
Base
1070
     3
1070
     0
1002
{
1002
}
1002
}
1000
7
1070
     9
1000
7
1002
{
1000
Color
1070
     1
1070
     4
1002
{
1002
}
1000
LType
1070
     4
1000
GEN7
1002
{
1002
}
1000
Base
1070
     3
1070
     0
1002
{
1002
}
1002
}
1000
8
1070
     9
1000
8
1002
{
1000
Color
1070
     1
1070
     1
1002
{
1002
}
1000
LType
1070
     4
1000
CONTINUOUS
1002
{
1002
}
1000
Base
1070
     3
1070
     0
1002
{
1002
}
1002
}
1000
3A
1070
     9
1000
3A
1002
{
1000
Color
1070
     1
1070
     6
1002
{
1002
}
1000
LType
1070
     4
1000
GEN3A
1002
{
1002
}
1000
Base
1070
     3
1070
     0
1002
{
1002
}
1002
}
1000
7A
1070
     9
1000
7A
1002
{
1000
Color
1070
     1
1070
     4
1002
{
1002
}
1000
LType
1070
     4
1000
GEN7A
1002
{
1002
}
1000
Base
1070
     3
1070
     0
1002
{
1002
}
1002
}
1000
2A
1070
     9
1000
2A
1002
{
1000
Color
1070
     1
1070
     7
1002
{
1002
}
1000
LType
1070
     4
1000
GEN7
1002
{
1002
}
1000
Base
1070
     3
1070
     0
1002
{
1002
}
1002
}
1000
4A
1070
     9
1000
4A
1002
{
1000
Color
1070
     1
1070
     3
1002
{
1002
}
1000
LType
1070
     4
1000
GEN4A
1002
{
1002
}
1000
Base
1070
     3
1070
     0
1002
{
1002
}
1002
}
1000
9
1070
     9
1000
9
1002
{
1000
Color
1070
     1
1070
   253
1002
{
1002
}
1000
LType
1070
     4
1000
CONTINUOUS
1002
{
1002
}
1000
Base
1070
     3
1070
     0
1002
{
1002
}
1002
}
1000
IP
1070
     9
1000
IP
1002
{
1000
Color
1070
     1
1070
     7
1002
{
1002
}
1000
LType
1070
     4
1000
CONTINUOUS
1002
{
1002
}
1000
Base
1070
     3
1070
     0
1002
{
1002
}
1002
}
1002
}
1000
Standard
1070
     0
1002
{
1000
0N
1070
     9
1000
0N
1002
{
1000
Color
1070
     1
1070
     7
1002
{
1002
}
1000
LType
1070
     4
1000
CONTINUOUS
1002
{
1002
}
1000
Base
1070
     3
1070
     0
1002
{
1002
}
1002
}
1000
1N
1070
     9
1000
1N
1002
{
1000
Color
1070
     1
1070
    14
1002
{
1002
}
1000
LType
1070
     4
1000
CONTINUOUS
1002
{
1002
}
1000
Base
1070
     3
1070
     0
1002
{
1002
}
1002
}
1000
2N
1070
     9
1000
2N
1002
{
1000
Color
1070
     1
1070
     5
1002
{
1002
}
1000
LType
1070
     4
1000
CONTINUOUS
1002
{
1002
}
1000
Base
1070
     3
1070
     0
1002
{
1002
}
1002
}
1000
3N
1070
     9
1000
3N
1002
{
1000
Color
1070
     1
1070
     6
1002
{
1002
}
1000
LType
1070
     4
1000
GEN3
1002
{
1002
}
1000
Base
1070
     3
1070
     0
1002
{
1002
}
1002
}
1000
4N
1070
     9
1000
4N
1002
{
1000
Color
1070
     1
1070
     3
1002
{
1002
}
1000
LType
1070
     4
1000
CONTINUOUS
1002
{
1002
}
1000
Base
1070
     3
1070
     0
1002
{
1002
}
1002
}
1000
5N
1070
     9
1000
5N
1002
{
1000
Color
1070
     1
1070
     3
1002
{
1002
}
1000
LType
1070
     4
1000
CONTINUOUS
1002
{
1002
}
1000
Base
1070
     3
1070
     0
1002
{
1002
}
1002
}
1000
6N
1070
     9
1000
6N
1002
{
1000
Color
1070
     1
1070
     2
1002
{
1002
}
1000
LType
1070
     4
1000
CONTINUOUS
1002
{
1002
}
1000
Base
1070
     3
1070
     0
1002
{
1002
}
1002
}
1000
7N
1070
     9
1000
7N
1002
{
1000
Color
1070
     1
1070
     4
1002
{
1002
}
1000
LType
1070
     4
1000
GEN7
1002
{
1002
}
1000
Base
1070
     3
1070
     0
1002
{
1002
}
1002
}
1000
8N
1070
     9
1000
8N
1002
{
1000
Color
1070
     1
1070
     1
1002
{
1002
}
1000
LType
1070
     4
1000
CONTINUOUS
1002
{
1002
}
1000
Base
1070
     3
1070
     0
1002
{
1002
}
1002
}
1000
3AN
1070
     9
1000
3AN
1002
{
1000
Color
1070
     1
1070
     6
1002
{
1002
}
1000
LType
1070
     4
1000
GEN3A
1002
{
1002
}
1000
Base
1070
     3
1070
     0
1002
{
1002
}
1002
}
1000
7AN
1070
     9
1000
7AN
1002
{
1000
Color
1070
     1
1070
     4
1002
{
1002
}
1000
LType
1070
     4
1000
GEN7A
1002
{
1002
}
1000
Base
1070
     3
1070
     0
1002
{
1002
}
1002
}
1000
2AN
1070
     9
1000
2AN
1002
{
1000
Color
1070
     1
1070
     7
1002
{
1002
}
1000
LType
1070
     4
1000
GEN7
1002
{
1002
}
1000
Base
1070
     3
1070
     0
1002
{
1002
}
1002
}
1000
4AN
1070
     9
1000
4AN
1002
{
1000
Color
1070
     1
1070
     3
1002
{
1002
}
1000
LType
1070
     4
1000
GEN4A
1002
{
1002
}
1000
Base
1070
     3
1070
     0
1002
{
1002
}
1002
}
1000
9N
1070
     9
1000
9N
1002
{
1000
Color
1070
     1
1070
   253
1002
{
1002
}
1000
LType
1070
     4
1000
CONTINUOUS
1002
{
1002
}
1000
Base
1070
     3
1070
     0
1002
{
1002
}
1002
}
1000
IPN
1070
     9
1000
IPN
1002
{
1000
Color
1070
     1
1070
     7
1002
{
1002
}
1000
LType
1070
     4
1000
CONTINUOUS
1002
{
1002
}
1000
Base
1070
     3
1070
     0
1002
{
1002
}
1002
}
1002
}
1000
Extra
1070
     0
1002
{
1000
Klin
1070
     9
1000
KLIN
1002
{
1000
Color
1070
     1
1070
     1
1002
{
1002
}
1000
LType
1070
     4
1000
CONTINUOUS
1002
{
1002
}
1000
Base
1070
     3
1070
     1
1002
{
1002
}
1002
}
1000
Info
1070
     9
1000
INFO
1002
{
1000
Color
1070
     1
1070
     4
1002
{
1002
}
1000
LType
1070
     4
1000
CONTINUOUS
1002
{
1002
}
1000
Base
1070
     3
1070
     1
1002
{
1002
}
1002
}
1000
Rahm2
1070
     9
1000
RAHM2
1002
{
1000
Color
1070
     1
1070
     1
1002
{
1002
}
1000
LType
1070
     4
1000
CONTINUOUS
1002
{
1002
}
1000
Base
1070
     3
1070
     1
1002
{
1002
}
1002
}
1000
Rahm3
1070
     9
1000
RAHM3
1002
{
1000
Color
1070
     1
1070
     2
1002
{
1002
}
1000
LType
1070
     4
1000
CONTINUOUS
1002
{
1002
}
1000
Base
1070
     3
1070
     1
1002
{
1002
}
1002
}
1000
Rahm5
1070
     9
1000
RAHM5
1002
{
1000
Color
1070
     1
1070
     7
1002
{
1002
}
1000
LType
1070
     4
1000
CONTINUOUS
1002
{
1002
}
1000
Base
1070
     3
1070
     1
1002
{
1002
}
1002
}
1000
View
1070
     9
1000
VIEW
1002
{
1000
Color
1070
     1
1070
     1
1002
{
1002
}
1000
LType
1070
     4
1000
CONTINUOUS
1002
{
1002
}
1000
Base
1070
     3
1070
     1
1002
{
1002
}
1002
}
1000
Behind
1070
     9
1000
BEHIND
1002
{
1000
Color
1070
     1
1070
   253
1002
{
1002
}
1000
LType
1070
     4
1000
CONTINUOUS
1002
{
1002
}
1000
Base
1070
     3
1070
     1
1002
{
1002
}
1002
}
1002
}
  0
APPID
  5
1320
330
12B6
100
AcDbSymbolTableRecord
100
AcDbRegAppTableRecord
  2
GENIUS_GENCFG3_13
 70
     0
1001
GENIUS_GENCFG_13
1071
955978259
1000
1320
1000
GEN@LAYER@ENTSORT
1070
    11
1000
GenCfgObject
1000
GenCfgShort
1000
GenCfgReal
1000
GenCfgBool
1000
GenCfgString
1000
GenCfgDim
1000
GenCfgPoint
1000
GenCfgAttrInf
1000
GenCfgLaySection
1000
GenCfgLayer
1000
GenCfgEntSort
1000
ADDL
1070
    10
1000
5
1002
{
1000
Class
1070
     4
1000
SYM
1002
{
1002
}
1000
Color
1070
     1
1070
     1
1002
{
1002
}
1000
LType
1070
     4
1000
BYLAYER
1002
{
1002
}
1002
}
1000
ALTR
1070
    10
1000
4
1002
{
1000
Class
1070
     4
1000

1002
{
1002
}
1000
Color
1070
     1
1070
     7
1002
{
1002
}
1000
LType
1070
     4
1000
GEN3A
1002
{
1002
}
1002
}
1000
BELI
1070
    10
1000
4
1002
{
1000
Class
1070
     4
1000

1002
{
1002
}
1000
Color
1070
     1
1070
   256
1002
{
1002
}
1000
LType
1070
     4
1000
BYLAYER
1002
{
1002
}
1002
}
1000
BHNV
1070
    10
1000
9
1002
{
1000
Class
1070
     4
1000
INV
1002
{
1002
}
1000
Color
1070
     1
1070
   256
1002
{
1002
}
1000
LType
1070
     4
1000
BYLAYER
1002
{
1002
}
1002
}
1000
BHNVS
1070
    10
1000
BEHIND
1002
{
1000
Class
1070
     4
1000
INV
1002
{
1002
}
1000
Color
1070
     1
1070
   256
1002
{
1002
}
1000
LType
1070
     4
1000
BYLAYER
1002
{
1002
}
1002
}
1000
BLID
1070
    10
1000
4A
1002
{
1000
Class
1070
     4
1000

1002
{
1002
}
1000
Color
1070
     1
1070
   256
1002
{
1002
}
1000
LType
1070
     4
1000
BYLAYER
1002
{
1002
}
1002
}
1000
BOAP
1070
    10
1000
4A
1002
{
1000
Class
1070
     4
1000

1002
{
1002
}
1000
Color
1070
     1
1070
   256
1002
{
1002
}
1000
LType
1070
     4
1000
BYLAYER
1002
{
1002
}
1002
}
1000
BOR2
1070
    10
1000
RAHM2
1002
{
1000
Class
1070
     4
1000
SPZ,SYM
1002
{
1002
}
1000
Color
1070
     1
1070
   256
1002
{
1002
}
1000
LType
1070
     4
1000
BYLAYER
1002
{
1002
}
1002
}
1000
BOR3
1070
    10
1000
RAHM3
1002
{
1000
Class
1070
     4
1000
SPZ,SYM
1002
{
1002
}
1000
Color
1070
     1
1070
   256
1002
{
1002
}
1000
LType
1070
     4
1000
BYLAYER
1002
{
1002
}
1002
}
1000
BOR5
1070
    10
1000
RAHM5
1002
{
1000
Class
1070
     4
1000
SPZ,SYM
1002
{
1002
}
1000
Color
1070
     1
1070
   256
1002
{
1002
}
1000
LType
1070
     4
1000
BYLAYER
1002
{
1002
}
1002
}
1000
BOR7
1070
    10
1000
RAHM5
1002
{
1000
Class
1070
     4
1000
SPZ,SYM
1002
{
1002
}
1000
Color
1070
     1
1070
     7
1002
{
1002
}
1000
LType
1070
     4
1000
CONTINUOUS
1002
{
1002
}
1002
}
1000
BPAP
1070
    10
1000
4A
1002
{
1000
Class
1070
     4
1000

1002
{
1002
}
1000
Color
1070
     1
1070
   256
1002
{
1002
}
1000
LType
1070
     4
1000
BYLAYER
1002
{
1002
}
1002
}
1000
BPEX
1070
    10
1000
4A
1002
{
1000
Class
1070
     4
1000

1002
{
1002
}
1000
Color
1070
     1
1070
   256
1002
{
1002
}
1000
LType
1070
     4
1000
BYLAYER
1002
{
1002
}
1002
}
1000
BTDI
1070
    10
1000
5
1002
{
1000
Class
1070
     4
1000
DIM,SYM
1002
{
1002
}
1000
Color
1070
     1
1070
   256
1002
{
1002
}
1000
LType
1070
     4
1000
BYLAYER
1002
{
1002
}
1002
}
1000
CAL2
1070
    10
1000
4
1002
{
1000
Class
1070
     4
1000
SYM
1002
{
1002
}
1000
Color
1070
     1
1070
   256
1002
{
1002
}
1000
LType
1070
     4
1000
BYLAYER
1002
{
1002
}
1002
}
1000
CAL3
1070
    10
1000
4
1002
{
1000
Class
1070
     4
1000
SYM
1002
{
1002
}
1000
Color
1070
     1
1070
     2
1002
{
1002
}
1000
LType
1070
     4
1000
BYLAYER
1002
{
1002
}
1002
}
1000
CAL5
1070
    10
1000
4
1002
{
1000
Class
1070
     4
1000
SYM
1002
{
1002
}
1000
Color
1070
     1
1070
     7
1002
{
1002
}
1000
LType
1070
     4
1000
BYLAYER
1002
{
1002
}
1002
}
1000
CAL7
1070
    10
1000
4
1002
{
1000
Class
1070
     4
1000
SYM
1002
{
1002
}
1000
Color
1070
     1
1070
     5
1002
{
1002
}
1000
LType
1070
     4
1000
BYLAYER
1002
{
1002
}
1002
}
1000
CENN
1070
    10
1000
7A
1002
{
1000
Class
1070
     4
1000
CEN
1002
{
1002
}
1000
Color
1070
     1
1070
   256
1002
{
1002
}
1000
LType
1070
     4
1000
BYLAYER
1002
{
1002
}
1002
}
1000
CENW
1070
    10
1000
7
1002
{
1000
Class
1070
     4
1000
CEN
1002
{
1002
}
1000
Color
1070
     1
1070
   256
1002
{
1002
}
1000
LType
1070
     4
1000
BYLAYER
1002
{
1002
}
1002
}
1000
CLIN
1070
    10
1000
KLIN
1002
{
1000
Class
1070
     4
1000
SPZ
1002
{
1002
}
1000
Color
1070
     1
1070
   256
1002
{
1002
}
1000
LType
1070
     4
1000
BYLAYER
1002
{
1002
}
1002
}
1000
CON1
1070
    10
1000
0
1002
{
1000
Class
1070
     4
1000
CON,BGD
1002
{
1002
}
1000
Color
1070
     1
1070
   256
1002
{
1002
}
1000
LType
1070
     4
1000
BYLAYER
1002
{
1002
}
1002
}
1000
CON2
1070
    10
1000
1
1002
{
1000
Class
1070
     4
1000
CON,BGD
1002
{
1002
}
1000
Color
1070
     1
1070
   256
1002
{
1002
}
1000
LType
1070
     4
1000
BYLAYER
1002
{
1002
}
1002
}
1000
CON3
1070
    10
1000
2
1002
{
1000
Class
1070
     4
1000
CON,BGD
1002
{
1002
}
1000
Color
1070
     1
1070
   256
1002
{
1002
}
1000
LType
1070
     4
1000
BYLAYER
1002
{
1002
}
1002
}
1000
CON4
1070
    10
1000
2
1002
{
1000
Class
1070
     4
1000
CON,BGD
1002
{
1002
}
1000
Color
1070
     1
1070
   256
1002
{
1002
}
1000
LType
1070
     4
1000
BYLAYER
1002
{
1002
}
1002
}
1000
DERP
1070
    10
1000
4
1002
{
1000
Class
1070
     4
1000

1002
{
1002
}
1000
Color
1070
     1
1070
   256
1002
{
1002
}
1000
LType
1070
     4
1000
BYLAYER
1002
{
1002
}
1002
}
1000
DETA
1070
    10
1000
4
1002
{
1000
Class
1070
     4
1000

1002
{
1002
}
1000
Color
1070
     1
1070
   256
1002
{
1002
}
1000
LType
1070
     4
1000
BYLAYER
1002
{
1002
}
1002
}
1000
DIAG
1070
    10
1000
5
1002
{
1000
Class
1070
     4
1000
SYM
1002
{
1002
}
1000
Color
1070
     1
1070
   256
1002
{
1002
}
1000
LType
1070
     4
1000
BYLAYER
1002
{
1002
}
1002
}
1000
DILI
1070
    10
1000
5
1002
{
1000
Class
1070
     4
1000
DIM,SYM
1002
{
1002
}
1000
Color
1070
     1
1070
   256
1002
{
1002
}
1000
LType
1070
     4
1000
BYLAYER
1002
{
1002
}
1002
}
1000
DITO2
1070
    10
1000
5
1002
{
1000
Class
1070
     4
1000
DIM,SYM
1002
{
1002
}
1000
Color
1070
     1
1070
     3
1002
{
1002
}
1000
LType
1070
     4
1000
BYLAYER
1002
{
1002
}
1002
}
1000
DITO3
1070
    10
1000
5
1002
{
1000
Class
1070
     4
1000
DIM,SYM
1002
{
1002
}
1000
Color
1070
     1
1070
     2
1002
{
1002
}
1000
LType
1070
     4
1000
BYLAYER
1002
{
1002
}
1002
}
1000
DITX
1070
    10
1000
5
1002
{
1000
Class
1070
     4
1000
DIM,SYM
1002
{
1002
}
1000
Color
1070
     1
1070
     2
1002
{
1002
}
1000
LType
1070
     4
1000
CONTINUOUS
1002
{
1002
}
1002
}
1000
DIXL
1070
    10
1000
5
1002
{
1000
Class
1070
     4
1000
DIM,SYM
1002
{
1002
}
1000
Color
1070
     1
1070
   256
1002
{
1002
}
1000
LType
1070
     4
1000
BYLAYER
1002
{
1002
}
1002
}
1000
EXMP
1070
    10
1000
4A
1002
{
1000
Class
1070
     4
1000

1002
{
1002
}
1000
Color
1070
     1
1070
   256
1002
{
1002
}
1000
LType
1070
     4
1000
BYLAYER
1002
{
1002
}
1002
}
1000
FEMN
1070
    10
1000
8
1002
{
1000
Class
1070
     4
1000

1002
{
1002
}
1000
Color
1070
     1
1070
   256
1002
{
1002
}
1000
LType
1070
     4
1000
BYLAYER
1002
{
1002
}
1002
}
1000
FEMPN
1070
    10
1000
8
1002
{
1000
Class
1070
     4
1000
SYM
1002
{
1002
}
1000
Color
1070
     1
1070
     3
1002
{
1002
}
1000
LType
1070
     4
1000
BYLAYER
1002
{
1002
}
1002
}
1000
FEMSP
1070
    10
1000
4A
1002
{
1000
Class
1070
     4
1000

1002
{
1002
}
1000
Color
1070
     1
1070
   256
1002
{
1002
}
1000
LType
1070
     4
1000
CONTINUOUS
1002
{
1002
}
1002
}
1000
FEMST
1070
    10
1000
4A
1002
{
1000
Class
1070
     4
1000
SYM
1002
{
1002
}
1000
Color
1070
     1
1070
     3
1002
{
1002
}
1000
LType
1070
     4
1000
BYLAYER
1002
{
1002
}
1002
}
1000
FEMVN
1070
    10
1000
2
1002
{
1000
Class
1070
     4
1000
CON
1002
{
1002
}
1000
Color
1070
     1
1070
   256
1002
{
1002
}
1000
LType
1070
     4
1000
BYLAYER
1002
{
1002
}
1002
}
1000
FEMVT
1070
    10
1000
2
1002
{
1000
Class
1070
     4
1000
SYM
1002
{
1002
}
1000
Color
1070
     1
1070
     3
1002
{
1002
}
1000
LType
1070
     4
1000
BYLAYER
1002
{
1002
}
1002
}
1000
FLAT
1070
    10
1000
0
1002
{
1000
Class
1070
     4
1000

1002
{
1002
}
1000
Color
1070
     1
1070
   256
1002
{
1002
}
1000
LType
1070
     4
1000
BYLAYER
1002
{
1002
}
1002
}
1000
FRAR
1070
    10
1000
4A
1002
{
1000
Class
1070
     4
1000

1002
{
1002
}
1000
Color
1070
     1
1070
   256
1002
{
1002
}
1000
LType
1070
     4
1000
BYLAYER
1002
{
1002
}
1002
}
1000
GRLI
1070
    10
1000
5
1002
{
1000
Class
1070
     4
1000
SYM
1002
{
1002
}
1000
Color
1070
     1
1070
   256
1002
{
1002
}
1000
LType
1070
     4
1000
BYLAYER
1002
{
1002
}
1002
}
1000
GVLI
1070
    10
1000
4A
1002
{
1000
Class
1070
     4
1000

1002
{
1002
}
1000
Color
1070
     1
1070
   256
1002
{
1002
}
1000
LType
1070
     4
1000
BYLAYER
1002
{
1002
}
1002
}
1000
HATC
1070
    10
1000
8
1002
{
1000
Class
1070
     4
1000
HTC,BGD
1002
{
1002
}
1000
Color
1070
     1
1070
   256
1002
{
1002
}
1000
LType
1070
     4
1000
BYLAYER
1002
{
1002
}
1002
}
1000
HIDN
1070
    10
1000
3A
1002
{
1000
Class
1070
     4
1000
HID,BGD
1002
{
1002
}
1000
Color
1070
     1
1070
   256
1002
{
1002
}
1000
LType
1070
     4
1000
BYLAYER
1002
{
1002
}
1002
}
1000
HIDW
1070
    10
1000
3
1002
{
1000
Class
1070
     4
1000
HID,BGD
1002
{
1002
}
1000
Color
1070
     1
1070
   256
1002
{
1002
}
1000
LType
1070
     4
1000
BYLAYER
1002
{
1002
}
1002
}
1000
HLIN
1070
    10
1000
4
1002
{
1000
Class
1070
     4
1000
BGD
1002
{
1002
}
1000
Color
1070
     1
1070
   256
1002
{
1002
}
1000
LType
1070
     4
1000
BYLAYER
1002
{
1002
}
1002
}
1000
HOCN
1070
    10
1000
7A
1002
{
1000
Class
1070
     4
1000
CEN
1002
{
1002
}
1000
Color
1070
     1
1070
   256
1002
{
1002
}
1000
LType
1070
     4
1000
BYLAYER
1002
{
1002
}
1002
}
1000
HOCW
1070
    10
1000
7
1002
{
1000
Class
1070
     4
1000
CEN
1002
{
1002
}
1000
Color
1070
     1
1070
   256
1002
{
1002
}
1000
LType
1070
     4
1000
BYLAYER
1002
{
1002
}
1002
}
1000
INFO
1070
    10
1000
INFO
1002
{
1000
Class
1070
     4
1000
SPZ,SYM
1002
{
1002
}
1000
Color
1070
     1
1070
   256
1002
{
1002
}
1000
LType
1070
     4
1000
BYLAYER
1002
{
1002
}
1002
}
1000
LADI
1070
    10
1000
4
1002
{
1000
Class
1070
     4
1000
BGD
1002
{
1002
}
1000
Color
1070
     1
1070
   256
1002
{
1002
}
1000
LType
1070
     4
1000
BYLAYER
1002
{
1002
}
1002
}
1000
LEAD
1070
    10
1000
5
1002
{
1000
Class
1070
     4
1000
SYM
1002
{
1002
}
1000
Color
1070
     1
1070
   256
1002
{
1002
}
1000
LType
1070
     4
1000
BYLAYER
1002
{
1002
}
1002
}
1000
N_ADDL
1070
    10
1000
5N
1002
{
1000
Class
1070
     4
1000
SYM
1002
{
1002
}
1000
Color
1070
     1
1070
     1
1002
{
1002
}
1000
LType
1070
     4
1000
BYLAYER
1002
{
1002
}
1002
}
1000
N_BHNV
1070
    10
1000
9N
1002
{
1000
Class
1070
     4
1000
INV
1002
{
1002
}
1000
Color
1070
     1
1070
   256
1002
{
1002
}
1000
LType
1070
     4
1000
BYLAYER
1002
{
1002
}
1002
}
1000
N_CON1
1070
    10
1000
0N
1002
{
1000
Class
1070
     4
1000
CON,BGD
1002
{
1002
}
1000
Color
1070
     1
1070
   256
1002
{
1002
}
1000
LType
1070
     4
1000
BYLAYER
1002
{
1002
}
1002
}
1000
N_CON2
1070
    10
1000
1N
1002
{
1000
Class
1070
     4
1000
CON,BGD
1002
{
1002
}
1000
Color
1070
     1
1070
   256
1002
{
1002
}
1000
LType
1070
     4
1000
BYLAYER
1002
{
1002
}
1002
}
1000
N_CON3
1070
    10
1000
2N
1002
{
1000
Class
1070
     4
1000
CON,BGD
1002
{
1002
}
1000
Color
1070
     1
1070
   256
1002
{
1002
}
1000
LType
1070
     4
1000
BYLAYER
1002
{
1002
}
1002
}
1000
N_CON4
1070
    10
1000
2N
1002
{
1000
Class
1070
     4
1000
CON,BGD
1002
{
1002
}
1000
Color
1070
     1
1070
   256
1002
{
1002
}
1000
LType
1070
     4
1000
BYLAYER
1002
{
1002
}
1002
}
1000
N_CENN
1070
    10
1000
7AN
1002
{
1000
Class
1070
     4
1000
CEN
1002
{
1002
}
1000
Color
1070
     1
1070
   256
1002
{
1002
}
1000
LType
1070
     4
1000
BYLAYER
1002
{
1002
}
1002
}
1000
N_CENW
1070
    10
1000
7N
1002
{
1000
Class
1070
     4
1000
CEN
1002
{
1002
}
1000
Color
1070
     1
1070
   256
1002
{
1002
}
1000
LType
1070
     4
1000
BYLAYER
1002
{
1002
}
1002
}
1000
N_DILI
1070
    10
1000
5N
1002
{
1000
Class
1070
     4
1000
DIM,SYM
1002
{
1002
}
1000
Color
1070
     1
1070
   256
1002
{
1002
}
1000
LType
1070
     4
1000
BYLAYER
1002
{
1002
}
1002
}
1000
N_DITX
1070
    10
1000
5N
1002
{
1000
Class
1070
     4
1000
DIM,SYM
1002
{
1002
}
1000
Color
1070
     1
1070
     2
1002
{
1002
}
1000
LType
1070
     4
1000
CONTINUOUS
1002
{
1002
}
1002
}
1000
N_DIXL
1070
    10
1000
5N
1002
{
1000
Class
1070
     4
1000
DIM,SYM
1002
{
1002
}
1000
Color
1070
     1
1070
   256
1002
{
1002
}
1000
LType
1070
     4
1000
BYLAYER
1002
{
1002
}
1002
}
1000
N_HATC
1070
    10
1000
8N
1002
{
1000
Class
1070
     4
1000
HTC,BGD
1002
{
1002
}
1000
Color
1070
     1
1070
   256
1002
{
1002
}
1000
LType
1070
     4
1000
BYLAYER
1002
{
1002
}
1002
}
1000
N_HIDN
1070
    10
1000
3AN
1002
{
1000
Class
1070
     4
1000
HID,BGD
1002
{
1002
}
1000
Color
1070
     1
1070
   256
1002
{
1002
}
1000
LType
1070
     4
1000
BYLAYER
1002
{
1002
}
1002
}
1000
N_HIDW
1070
    10
1000
3N
1002
{
1000
Class
1070
     4
1000
HID,BGD
1002
{
1002
}
1000
Color
1070
     1
1070
   256
1002
{
1002
}
1000
LType
1070
     4
1000
BYLAYER
1002
{
1002
}
1002
}
1000
N_NGIP
1070
    10
1000
IPN
1002
{
1000
Class
1070
     4
1000

1002
{
1002
}
1000
Color
1070
     1
1070
   256
1002
{
1002
}
1000
LType
1070
     4
1000
BYLAYER
1002
{
1002
}
1002
}
1000
N_PHAN
1070
    10
1000
4AN
1002
{
1000
Class
1070
     4
1000

1002
{
1002
}
1000
Color
1070
     1
1070
   256
1002
{
1002
}
1000
LType
1070
     4
1000
BYLAYER
1002
{
1002
}
1002
}
1000
N_POSL
1070
    10
1000
5N
1002
{
1000
Class
1070
     4
1000
SYM
1002
{
1002
}
1000
Color
1070
     1
1070
   256
1002
{
1002
}
1000
LType
1070
     4
1000
BYLAYER
1002
{
1002
}
1002
}
1000
N_TCON
1070
    10
1000
0N
1002
{
1000
Class
1070
     4
1000
CON,BGD
1002
{
1002
}
1000
Color
1070
     1
1070
   256
1002
{
1002
}
1000
LType
1070
     4
1000
BYLAYER
1002
{
1002
}
1002
}
1000
N_THLI
1070
    10
1000
4N
1002
{
1000
Class
1070
     4
1000
BGD
1002
{
1002
}
1000
Color
1070
     1
1070
   256
1002
{
1002
}
1000
LType
1070
     4
1000
BYLAYER
1002
{
1002
}
1002
}
1000
N_TLEN
1070
    10
1000
0N
1002
{
1000
Class
1070
     4
1000
CON,BGD
1002
{
1002
}
1000
Color
1070
     1
1070
   256
1002
{
1002
}
1000
LType
1070
     4
1000
BYLAYER
1002
{
1002
}
1002
}
1000
N_TXT3
1070
    10
1000
6N
1002
{
1000
Class
1070
     4
1000
SYM
1002
{
1002
}
1000
Color
1070
     1
1070
   256
1002
{
1002
}
1000
LType
1070
     4
1000
BYLAYER
1002
{
1002
}
1002
}
1000
N_VPLI
1070
    10
1000
2AN
1002
{
1000
Class
1070
     4
1000

1002
{
1002
}
1000
Color
1070
     1
1070
   256
1002
{
1002
}
1000
LType
1070
     4
1000
BYLAYER
1002
{
1002
}
1002
}
1000
NGIP
1070
    10
1000
IP
1002
{
1000
Class
1070
     4
1000

1002
{
1002
}
1000
Color
1070
     1
1070
   256
1002
{
1002
}
1000
LType
1070
     4
1000
BYLAYER
1002
{
1002
}
1002
}
1000
PAL2
1070
    10
1000
RAHM2
1002
{
1000
Class
1070
     4
1000
SPZ,SYM
1002
{
1002
}
1000
Color
1070
     1
1070
   256
1002
{
1002
}
1000
LType
1070
     4
1000
BYLAYER
1002
{
1002
}
1002
}
1000
PAL3
1070
    10
1000
RAHM3
1002
{
1000
Class
1070
     4
1000
SPZ,SYM
1002
{
1002
}
1000
Color
1070
     1
1070
   256
1002
{
1002
}
1000
LType
1070
     4
1000
BYLAYER
1002
{
1002
}
1002
}
1000
PAL5
1070
    10
1000
RAHM5
1002
{
1000
Class
1070
     4
1000
SPZ,SYM
1002
{
1002
}
1000
Color
1070
     1
1070
   256
1002
{
1002
}
1000
LType
1070
     4
1000
BYLAYER
1002
{
1002
}
1002
}
1000
PAL7
1070
    10
1000
RAHM5
1002
{
1000
Class
1070
     4
1000
SPZ,SYM
1002
{
1002
}
1000
Color
1070
     1
1070
     7
1002
{
1002
}
1000
LType
1070
     4
1000
CONTINUOUS
1002
{
1002
}
1002
}
1000
PHAN
1070
    10
1000
4A
1002
{
1000
Class
1070
     4
1000

1002
{
1002
}
1000
Color
1070
     1
1070
   256
1002
{
1002
}
1000
LType
1070
     4
1000
BYLAYER
1002
{
1002
}
1002
}
1000
POSL
1070
    10
1000
5
1002
{
1000
Class
1070
     4
1000
SYM
1002
{
1002
}
1000
Color
1070
     1
1070
   256
1002
{
1002
}
1000
LType
1070
     4
1000
BYLAYER
1002
{
1002
}
1002
}
1000
POSN
1070
    10
1000
6
1002
{
1000
Class
1070
     4
1000
SYM
1002
{
1002
}
1000
Color
1070
     1
1070
     7
1002
{
1002
}
1000
LType
1070
     4
1000
BYLAYER
1002
{
1002
}
1002
}
1000
POSREF
1070
    10
1000
6
1002
{
1000
Class
1070
     4
1000
SYM
1002
{
1002
}
1000
Color
1070
     1
1070
     5
1002
{
1002
}
1000
LType
1070
     4
1000
BYLAYER
1002
{
1002
}
1002
}
1000
POSX
1070
    10
1000
5
1002
{
1000
Class
1070
     4
1000
SYM
1002
{
1002
}
1000
Color
1070
     1
1070
     2
1002
{
1002
}
1000
LType
1070
     4
1000
CONTINUOUS
1002
{
1002
}
1002
}
1000
PSEC
1070
    10
1000
4A
1002
{
1000
Class
1070
     4
1000

1002
{
1002
}
1000
Color
1070
     1
1070
   256
1002
{
1002
}
1000
LType
1070
     4
1000
BYLAYER
1002
{
1002
}
1002
}
1000
RCGN
1070
    10
1000
7A
1002
{
1000
Class
1070
     4
1000
CEN
1002
{
1002
}
1000
Color
1070
     1
1070
   256
1002
{
1002
}
1000
LType
1070
     4
1000
BYLAYER
1002
{
1002
}
1002
}
1000
RCGW
1070
    10
1000
7
1002
{
1000
Class
1070
     4
1000
CEN
1002
{
1002
}
1000
Color
1070
     1
1070
   256
1002
{
1002
}
1000
LType
1070
     4
1000
BYLAYER
1002
{
1002
}
1002
}
1000
RFDI
1070
    10
1000
4
1002
{
1000
Class
1070
     4
1000
BGD
1002
{
1002
}
1000
Color
1070
     1
1070
   256
1002
{
1002
}
1000
LType
1070
     4
1000
BYLAYER
1002
{
1002
}
1002
}
1000
RQTR
1070
    10
1000
4
1002
{
1000
Class
1070
     4
1000

1002
{
1002
}
1000
Color
1070
     1
1070
     7
1002
{
1002
}
1000
LType
1070
     4
1000
GEN7A
1002
{
1002
}
1002
}
1000
RSBO
1070
    10
1000
4
1002
{
1000
Class
1070
     4
1000
BGD
1002
{
1002
}
1000
Color
1070
     1
1070
   256
1002
{
1002
}
1000
LType
1070
     4
1000
BYLAYER
1002
{
1002
}
1002
}
1000
SBRK
1070
    10
1000
4
1002
{
1000
Class
1070
     4
1000
BGD
1002
{
1002
}
1000
Color
1070
     1
1070
   256
1002
{
1002
}
1000
LType
1070
     4
1000
BYLAYER
1002
{
1002
}
1002
}
1000
SCEN
1070
    10
1000
7
1002
{
1000
Class
1070
     4
1000

1002
{
1002
}
1000
Color
1070
     1
1070
   256
1002
{
1002
}
1000
LType
1070
     4
1000
CONTINUOUS
1002
{
1002
}
1002
}
1000
SECT
1070
    10
1000
4
1002
{
1000
Class
1070
     4
1000
BGD
1002
{
1002
}
1000
Color
1070
     1
1070
   256
1002
{
1002
}
1000
LType
1070
     4
1000
BYLAYER
1002
{
1002
}
1002
}
1000
SELN
1070
    10
1000
7A
1002
{
1000
Class
1070
     4
1000

1002
{
1002
}
1000
Color
1070
     1
1070
   256
1002
{
1002
}
1000
LType
1070
     4
1000
BYLAYER
1002
{
1002
}
1002
}
1000
SELW
1070
    10
1000
7
1002
{
1000
Class
1070
     4
1000

1002
{
1002
}
1000
Color
1070
     1
1070
   256
1002
{
1002
}
1000
LType
1070
     4
1000
BYLAYER
1002
{
1002
}
1002
}
1000
SSYS
1070
    10
1000
0
1002
{
1000
Class
1070
     4
1000

1002
{
1002
}
1000
Color
1070
     1
1070
   256
1002
{
1002
}
1000
LType
1070
     4
1000
BYLAYER
1002
{
1002
}
1002
}
1000
STLI
1070
    10
1000
4
1002
{
1000
Class
1070
     4
1000

1002
{
1002
}
1000
Color
1070
     1
1070
     7
1002
{
1002
}
1000
LType
1070
     4
1000
GEN3A
1002
{
1002
}
1002
}
1000
SYB1
1070
    10
1000
5
1002
{
1000
Class
1070
     4
1000
SYM
1002
{
1002
}
1000
Color
1070
     1
1070
   256
1002
{
1002
}
1000
LType
1070
     4
1000
BYLAYER
1002
{
1002
}
1002
}
1000
SYB2
1070
    10
1000
5
1002
{
1000
Class
1070
     4
1000
SYM
1002
{
1002
}
1000
Color
1070
     1
1070
   256
1002
{
1002
}
1000
LType
1070
     4
1000
BYLAYER
1002
{
1002
}
1002
}
1000
SYB3
1070
    10
1000
6
1002
{
1000
Class
1070
     4
1000
SYM
1002
{
1002
}
1000
Color
1070
     1
1070
   256
1002
{
1002
}
1000
LType
1070
     4
1000
CONTINUOUS
1002
{
1002
}
1002
}
1000
SYB5
1070
    10
1000
5
1002
{
1000
Class
1070
     4
1000
SYM
1002
{
1002
}
1000
Color
1070
     1
1070
     7
1002
{
1002
}
1000
LType
1070
     4
1000
BYLAYER
1002
{
1002
}
1002
}
1000
SYMN
1070
    10
1000
7A
1002
{
1000
Class
1070
     4
1000
CEN
1002
{
1002
}
1000
Color
1070
     1
1070
   256
1002
{
1002
}
1000
LType
1070
     4
1000
BYLAYER
1002
{
1002
}
1002
}
1000
SYMW
1070
    10
1000
7
1002
{
1000
Class
1070
     4
1000
CEN
1002
{
1002
}
1000
Color
1070
     1
1070
   256
1002
{
1002
}
1000
LType
1070
     4
1000
BYLAYER
1002
{
1002
}
1002
}
1000
TCON
1070
    10
1000
0
1002
{
1000
Class
1070
     4
1000
CON,BGD
1002
{
1002
}
1000
Color
1070
     1
1070
   256
1002
{
1002
}
1000
LType
1070
     4
1000
BYLAYER
1002
{
1002
}
1002
}
1000
THLI
1070
    10
1000
4
1002
{
1000
Class
1070
     4
1000
BGD
1002
{
1002
}
1000
Color
1070
     1
1070
   256
1002
{
1002
}
1000
LType
1070
     4
1000
BYLAYER
1002
{
1002
}
1002
}
1000
TIT2
1070
    10
1000
RAHM2
1002
{
1000
Class
1070
     4
1000
SPZ,SYM
1002
{
1002
}
1000
Color
1070
     1
1070
   256
1002
{
1002
}
1000
LType
1070
     4
1000
BYLAYER
1002
{
1002
}
1002
}
1000
TIT3
1070
    10
1000
RAHM3
1002
{
1000
Class
1070
     4
1000
SPZ,SYM
1002
{
1002
}
1000
Color
1070
     1
1070
   256
1002
{
1002
}
1000
LType
1070
     4
1000
BYLAYER
1002
{
1002
}
1002
}
1000
TIT5
1070
    10
1000
RAHM5
1002
{
1000
Class
1070
     4
1000
SPZ,SYM
1002
{
1002
}
1000
Color
1070
     1
1070
   256
1002
{
1002
}
1000
LType
1070
     4
1000
BYLAYER
1002
{
1002
}
1002
}
1000
TIT7
1070
    10
1000
RAHM5
1002
{
1000
Class
1070
     4
1000
SPZ,SYM
1002
{
1002
}
1000
Color
1070
     1
1070
     7
1002
{
1002
}
1000
LType
1070
     4
1000
CONTINUOUS
1002
{
1002
}
1002
}
1000
TLEN
1070
    10
1000
0
1002
{
1000
Class
1070
     4
1000
CON,BGD
1002
{
1002
}
1000
Color
1070
     1
1070
   256
1002
{
1002
}
1000
LType
1070
     4
1000
BYLAYER
1002
{
1002
}
1002
}
1000
TRKN
1070
    10
1000
7A
1002
{
1000
Class
1070
     4
1000

1002
{
1002
}
1000
Color
1070
     1
1070
   256
1002
{
1002
}
1000
LType
1070
     4
1000
BYLAYER
1002
{
1002
}
1002
}
1000
TRKW
1070
    10
1000
7
1002
{
1000
Class
1070
     4
1000

1002
{
1002
}
1000
Color
1070
     1
1070
   256
1002
{
1002
}
1000
LType
1070
     4
1000
BYLAYER
1002
{
1002
}
1002
}
1000
TRLI
1070
    10
1000
4
1002
{
1000
Class
1070
     4
1000
BGD
1002
{
1002
}
1000
Color
1070
     1
1070
   256
1002
{
1002
}
1000
LType
1070
     4
1000
BYLAYER
1002
{
1002
}
1002
}
1000
TXT1
1070
    10
1000
6
1002
{
1000
Class
1070
     4
1000
SYM
1002
{
1002
}
1000
Color
1070
     1
1070
     2
1002
{
1002
}
1000
LType
1070
     4
1000
BYLAYER
1002
{
1002
}
1002
}
1000
TXT2
1070
    10
1000
6
1002
{
1000
Class
1070
     4
1000
SYM
1002
{
1002
}
1000
Color
1070
     1
1070
     2
1002
{
1002
}
1000
LType
1070
     4
1000
BYLAYER
1002
{
1002
}
1002
}
1000
TXT3
1070
    10
1000
6
1002
{
1000
Class
1070
     4
1000
SYM
1002
{
1002
}
1000
Color
1070
     1
1070
   256
1002
{
1002
}
1000
LType
1070
     4
1000
BYLAYER
1002
{
1002
}
1002
}
1000
TXT5
1070
    10
1000
6
1002
{
1000
Class
1070
     4
1000
SYM
1002
{
1002
}
1000
Color
1070
     1
1070
     7
1002
{
1002
}
1000
LType
1070
     4
1000
BYLAYER
1002
{
1002
}
1002
}
1000
TXT7
1070
    10
1000
6
1002
{
1000
Class
1070
     4
1000
SYM
1002
{
1002
}
1000
Color
1070
     1
1070
     7
1002
{
1002
}
1000
LType
1070
     4
1000
BYLAYER
1002
{
1002
}
1002
}
1000
VIEW
1070
    10
1000
VIEW
1002
{
1000
Class
1070
     4
1000
SPZ
1002
{
1002
}
1000
Color
1070
     1
1070
   256
1002
{
1002
}
1000
LType
1070
     4
1000
BYLAYER
1002
{
1002
}
1002
}
1000
VPLI
1070
    10
1000
2A
1002
{
1000
Class
1070
     4
1000

1002
{
1002
}
1000
Color
1070
     1
1070
   256
1002
{
1002
}
1000
LType
1070
     4
1000
BYLAYER
1002
{
1002
}
1002
}
1000
ZIZA
1070
    10
1000
4
1002
{
1000
Class
1070
     4
1000
BGD
1002
{
1002
}
1000
Color
1070
     1
1070
   256
1002
{
1002
}
1000
LType
1070
     4
1000
GENZIGZAG
1002
{
1002
}
1002
}
  0
APPID
  5
1321
330
12B6
100
AcDbSymbolTableRecord
100
AcDbRegAppTableRecord
  2
GENIUS_GENCFG4_13
 70
     0
1001
GENIUS_GENCFG_13
1071
955978868
1000
1321
1000
GEN
1070
    10
1000
GenCfgObject
1000
GenCfgShort
1000
GenCfgReal
1000
GenCfgBool
1000
GenCfgString
1000
GenCfgDim
1000
GenCfgPoint
1000
GenCfgLaySection
1000
GenCfgLType
1000
GenCfgFilter
1000
Balloon
1070
     0
1002
{
1000
GenIF
1070
     1
1070
     0
1002
{
1002
}
1000
GenPosInc
1070
     1
1070
     1
1002
{
1002
}
1000
GenPosBlk
1070
     1
1070
     8
1002
{
1002
}
1000
GenPosVar
1070
     1
1070
     0
1002
{
1002
}
1000
GenZiCir
1070
     2
1040
1.5
1002
{
1002
}
1000
MaxCharForCenteredText
1070
     1
1070
    30
1002
{
1002
}
1000
Snap
1070
     0
1002
{
1000
ActivationRadius
1070
     2
1040
1.0
1002
{
1002
}
1000
M
1070
     0
1002
{
1000
SnapStepX
1070
     2
1040
20.0
1002
{
1002
}
1000
SnapStepY
1070
     2
1040
10.0
1002
{
1002
}
1002
}
1000
I
1070
     0
1002
{
1000
SnapStepX
1070
     2
1040
1.0
1002
{
1002
}
1000
SnapStepY
1070
     2
1040
0.5
1002
{
1002
}
1002
}
1002
}
1002
}
1000
Centerline
1070
     0
1002
{
1000
ScaleNot
1070
     3
1070
     0
1002
{
1002
}
1000
M
1070
     0
1002
{
1000
GenCenAng
1070
     4
1000
45|90|135
1002
{
1002
}
1000
GenCenDia
1070
     2
1040
10.0
1002
{
1002
}
1000
GenCenDias
1070
     4
1000
10|20|30
1002
{
1002
}
1000
GenCenDist
1070
     2
1040
3.0
1002
{
1002
}
1000
GenCenLen
1070
     2
1040
10.0
1002
{
1002
}
1000
GenCenOff
1070
     2
1040
10.0
1002
{
1002
}
1002
}
1000
I
1070
     0
1002
{
1000
GenCenAng
1070
     4
1000
45|90|135
1002
{
1002
}
1000
GenCenDia
1070
     2
1040
0.5
1002
{
1002
}
1000
GenCenDias
1070
     4
1000
0.5|1.0|1.5
1002
{
1002
}
1000
GenCenDist
1070
     2
1040
0.125
1002
{
1002
}
1000
GenCenLen
1070
     2
1040
0.5
1002
{
1002
}
1000
GenCenOff
1070
     2
1040
0.5
1002
{
1002
}
1002
}
1002
}
1000
CLine
1070
     0
1002
{
1000
CAngArray
1070
     4
1000
30|45|60
1002
{
1002
}
1000
Typ
1070
     4
1000
XLINE
1002
{
1002
}
1000
M
1070
     0
1002
{
1000
CLinArray
1070
     4
1000
10|20|30
1002
{
1002
}
1002
}
1000
I
1070
     0
1002
{
1000
CLinArray
1070
     4
1000
0.125|0.25|0.5
1002
{
1002
}
1002
}
1002
}
1000
Detail
1070
     0
1002
{
1002
}
1000
Dimension
1070
     5
1002
{
1000
DIMALT
1070
     1
1070
     0
1002
{
1002
}
1000
DIMALTD
1070
     1
1070
     2
1002
{
1002
}
1000
DIMALTTD
1070
     1
1070
     4
1002
{
1002
}
1000
DIMALTTZ
1070
     1
1070
     0
1002
{
1002
}
1000
DIMALTU
1070
     1
1070
     2
1002
{
1002
}
1000
DIMALTZ
1070
     1
1070
     0
1002
{
1002
}
1000
DIMAUNIT
1070
     1
1070
     0
1002
{
1002
}
1000
DIMBLK
1070
     4
1000

1002
{
1002
}
1000
DIMBLK1
1070
     4
1000

1002
{
1002
}
1000
DIMBLK2
1070
     4
1000

1002
{
1002
}
1000
DIMCLRD
1070
     1
1070
   256
1002
{
1002
}
1000
DIMCLRE
1070
     1
1070
   256
1002
{
1002
}
1000
DIMCLRT
1070
     1
1070
     2
1002
{
1002
}
1000
DIMDLE
1070
     2
1040
0.0
1002
{
1002
}
1000
DIMFIT
1070
     1
1070
     3
1002
{
1002
}
1000
DIMJUST
1070
     1
1070
     0
1002
{
1002
}
1000
DIMLFAC
1070
     2
1040
1.0
1002
{
1002
}
1000
DIMLIM
1070
     1
1070
     0
1002
{
1002
}
1000
DIMPOST
1070
     4
1000

1002
{
1002
}
1000
DIMRND
1070
     2
1040
0.0
1002
{
1002
}
1000
DIMSAH
1070
     1
1070
     0
1002
{
1002
}
1000
DIMSCALE
1070
     2
1040
1.0
1002
{
1002
}
1000
DIMSD1
1070
     1
1070
     0
1002
{
1002
}
1000
DIMSD2
1070
     1
1070
     0
1002
{
1002
}
1000
DIMSE1
1070
     1
1070
     0
1002
{
1002
}
1000
DIMSE2
1070
     1
1070
     0
1002
{
1002
}
1000
DIMSOXD
1070
     1
1070
     0
1002
{
1002
}
1000
DIMTAD
1070
     1
1070
     0
1002
{
1002
}
1000
DIMTFAC
1070
     2
1040
0.71
1002
{
1002
}
1000
DIMTIH
1070
     1
1070
     0
1002
{
1002
}
1000
DIMTIX
1070
     1
1070
     0
1002
{
1002
}
1000
DIMTM
1070
     2
1040
0.1
1002
{
1002
}
1000
DIMTOFL
1070
     1
1070
     0
1002
{
1002
}
1000
DIMTOH
1070
     1
1070
     0
1002
{
1002
}
1000
DIMTOL
1070
     1
1070
     0
1002
{
1002
}
1000
DIMTOLJ
1070
     1
1070
     1
1002
{
1002
}
1000
DIMTP
1070
     2
1040
0.1
1002
{
1002
}
1000
DIMTSZ
1070
     2
1040
0.0
1002
{
1002
}
1000
DIMTVP
1070
     2
1040
0.0
1002
{
1002
}
1000
DIMTXSTY
1070
     4
1000
STANDARD
1002
{
1002
}
1000
DIMTZIN
1070
     1
1070
     0
1002
{
1002
}
1000
DIMUNIT
1070
     1
1070
     2
1002
{
1002
}
1000
DIMUPT
1070
     1
1070
     0
1002
{
1002
}
1000
M
1070
     0
1002
{
1000
DIMALTF
1070
     2
1040
0.0393701
1002
{
1002
}
1000
DIMAPOST
1070
     4
1000
"
1002
{
1002
}
1000
DIMASZ
1070
     2
1040
2.5
1002
{
1002
}
1000
DIMCEN
1070
     2
1040
0.0
1002
{
1002
}
1000
DIMDEC
1070
     1
1070
     2
1002
{
1002
}
1000
DIMDLI
1070
     2
1040
7.0
1002
{
1002
}
1000
DIMEXE
1070
     2
1040
1.0
1002
{
1002
}
1000
DIMEXO
1070
     2
1040
1.0
1002
{
1002
}
1000
DIMGAP
1070
     2
1040
0.6
1002
{
1002
}
1000
DIMTDEC
1070
     1
1070
     3
1002
{
1002
}
1000
DIMTXT
1070
     2
1040
3.5
1002
{
1002
}
1000
DIMZIN
1070
     1
1070
     8
1002
{
1002
}
1002
}
1000
I
1070
     0
1002
{
1000
DIMALTF
1070
     2
1040
25.4
1002
{
1002
}
1000
DIMAPOST
1070
     4
1000
mm
1002
{
1002
}
1000
DIMASZ
1070
     2
1040
0.1
1002
{
1002
}
1000
DIMCEN
1070
     2
1040
0.0
1002
{
1002
}
1000
DIMDEC
1070
     1
1070
     4
1002
{
1002
}
1000
DIMDLI
1070
     2
1040
0.5
1002
{
1002
}
1000
DIMEXE
1070
     2
1040
0.1
1002
{
1002
}
1000
DIMEXO
1070
     2
1040
0.05
1002
{
1002
}
1000
DIMGAP
1070
     2
1040
0.06
1002
{
1002
}
1000
DIMTDEC
1070
     1
1070
     4
1002
{
1002
}
1000
DIMTXT
1070
     2
1040
0.12
1002
{
1002
}
1000
DIMZIN
1070
     1
1070
     7
1002
{
1002
}
1002
}
1000
GEN-ISO
1070
     5
1002
{
1000
NAME
1070
     4
1000
GEN-ISO
1002
{
1002
}
1000
DIMTAD
1070
     1
1070
     1
1002
{
1002
}
1000
DIMTOLJ
1070
     1
1070
     0
1002
{
1002
}
1000
DIMTOFL
1070
     1
1070
     1
1002
{
1002
}
1000
M
1070
     0
1002
{
1002
}
1000
I
1070
     0
1002
{
1002
}
1002
}
1000
GEN-ISO-POS
1070
     5
1002
{
1000
NAME
1070
     4
1000
GEN-ISO-POS
1002
{
1002
}
1000
DIMTOLJ
1070
     1
1070
     0
1002
{
1002
}
1000
DIMTXSTY
1070
     4
1000
STANDARD
1002
{
1002
}
1000
M
1070
     0
1002
{
1000
DIMASZ
1070
     2
1040
2.5
1002
{
1002
}
1000
DIMGAP
1070
     2
1040
1.5
1002
{
1002
}
1000
DIMTXT
1070
     2
1040
5.0
1002
{
1002
}
1002
}
1000
I
1070
     0
1002
{
1000
DIMASZ
1070
     2
1040
0.1
1002
{
1002
}
1000
DIMGAP
1070
     2
1040
0.06
1002
{
1002
}
1000
DIMTXT
1070
     2
1040
0.2
1002
{
1002
}
1002
}
1002
}
1000
GEN-ISO-CIR
1070
     5
1002
{
1000
NAME
1070
     4
1000
GEN-ISO$3
1002
{
1002
}
1000
DIMFIT
1070
     1
1070
     0
1002
{
1002
}
1000
DIMTAD
1070
     1
1070
     1
1002
{
1002
}
1000
DIMTOH
1070
     1
1070
     1
1002
{
1002
}
1000
DIMTOLJ
1070
     1
1070
     0
1002
{
1002
}
1000
DIMUPT
1070
     1
1070
     1
1002
{
1002
}
1000
M
1070
     0
1002
{
1002
}
1000
I
1070
     0
1002
{
1002
}
1002
}
1000
GEN-ISO-RAD
1070
     5
1002
{
1000
NAME
1070
     4
1000
GEN-ISO$4
1002
{
1002
}
1000
DIMFIT
1070
     1
1070
     0
1002
{
1002
}
1000
DIMTAD
1070
     1
1070
     1
1002
{
1002
}
1000
DIMTIH
1070
     1
1070
     0
1002
{
1002
}
1000
DIMTIX
1070
     1
1070
     0
1002
{
1002
}
1000
DIMTOH
1070
     1
1070
     1
1002
{
1002
}
1000
DIMTOLJ
1070
     1
1070
     0
1002
{
1002
}
1000
DIMTOFL
1070
     1
1070
     0
1002
{
1002
}
1000
DIMUPT
1070
     1
1070
     1
1002
{
1002
}
1000
M
1070
     0
1002
{
1002
}
1000
I
1070
     0
1002
{
1002
}
1002
}
1000
GEN-ISO-ORD
1070
     5
1002
{
1000
NAME
1070
     4
1000
GEN-ISO$6
1002
{
1002
}
1000
DIMTOLJ
1070
     1
1070
     0
1002
{
1002
}
1000
M
1070
     0
1002
{
1002
}
1000
I
1070
     0
1002
{
1002
}
1002
}
1000
GEN-ISO-AXE-F
1070
     5
1002
{
1000
NAME
1070
     4
1000
GEN-ISO-AXE-F
1002
{
1002
}
1000
DIMSE1
1070
     1
1070
     1
1002
{
1002
}
1000
DIMSE2
1070
     1
1070
     1
1002
{
1002
}
1000
DIMTAD
1070
     1
1070
     1
1002
{
1002
}
1000
DIMTOLJ
1070
     1
1070
     0
1002
{
1002
}
1000
DIMTOFL
1070
     1
1070
     1
1002
{
1002
}
1000
M
1070
     0
1002
{
1002
}
1000
I
1070
     0
1002
{
1002
}
1002
}
1000
GEN-ISO-AXE-H
1070
     5
1002
{
1000
NAME
1070
     4
1000
GEN-ISO-AXE-H
1002
{
1002
}
1000
DIMBLK1
1070
     4
1000
GENAXEH
1002
{
1002
}
1000
DIMLFAC
1070
     2
1040
2.0
1002
{
1002
}
1000
DIMSAH
1070
     1
1070
     1
1002
{
1002
}
1000
DIMSE1
1070
     1
1070
     1
1002
{
1002
}
1000
DIMSE2
1070
     1
1070
     1
1002
{
1002
}
1000
DIMTAD
1070
     1
1070
     1
1002
{
1002
}
1000
DIMTOLJ
1070
     1
1070
     0
1002
{
1002
}
1000
DIMTOFL
1070
     1
1070
     1
1002
{
1002
}
1000
M
1070
     0
1002
{
1002
}
1000
I
1070
     0
1002
{
1002
}
1002
}
1000
GEN-ANSI
1070
     5
1002
{
1000
NAME
1070
     4
1000
GEN-ANSI
1002
{
1002
}
1000
DIMTIH
1070
     1
1070
     1
1002
{
1002
}
1000
DIMTOH
1070
     1
1070
     1
1002
{
1002
}
1000
DIMTAD
1070
     1
1070
     0
1002
{
1002
}
1000
DIMTOLJ
1070
     1
1070
     1
1002
{
1002
}
1000
M
1070
     0
1002
{
1002
}
1000
I
1070
     0
1002
{
1002
}
1002
}
1000
GEN-ANSI-POS
1070
     5
1002
{
1000
NAME
1070
     4
1000
GEN-ANSI-POS
1002
{
1002
}
1000
DIMTOLJ
1070
     1
1070
     1
1002
{
1002
}
1000
DIMTXSTY
1070
     4
1000
STANDARD
1002
{
1002
}
1000
M
1070
     0
1002
{
1000
DIMASZ
1070
     2
1040
2.5
1002
{
1002
}
1000
DIMGAP
1070
     2
1040
1.5
1002
{
1002
}
1000
DIMTXT
1070
     2
1040
5.0
1002
{
1002
}
1002
}
1000
I
1070
     0
1002
{
1000
DIMASZ
1070
     2
1040
0.1
1002
{
1002
}
1000
DIMGAP
1070
     2
1040
0.06
1002
{
1002
}
1000
DIMTXT
1070
     2
1040
0.2
1002
{
1002
}
1002
}
1002
}
1000
GEN-ANSI-CIR
1070
     5
1002
{
1000
NAME
1070
     4
1000
GEN-ANSI$3
1002
{
1002
}
1000
DIMFIT
1070
     1
1070
     0
1002
{
1002
}
1000
DIMTAD
1070
     1
1070
     0
1002
{
1002
}
1000
DIMTIH
1070
     1
1070
     1
1002
{
1002
}
1000
DIMTIX
1070
     1
1070
     0
1002
{
1002
}
1000
DIMTOFL
1070
     1
1070
     0
1002
{
1002
}
1000
DIMTOH
1070
     1
1070
     1
1002
{
1002
}
1000
DIMTOLJ
1070
     1
1070
     1
1002
{
1002
}
1000
DIMUPT
1070
     1
1070
     1
1002
{
1002
}
1000
M
1070
     0
1002
{
1002
}
1000
I
1070
     0
1002
{
1002
}
1002
}
1000
GEN-ANSI-RAD
1070
     5
1002
{
1000
NAME
1070
     4
1000
GEN-ANSI$4
1002
{
1002
}
1000
DIMFIT
1070
     1
1070
     0
1002
{
1002
}
1000
DIMTAD
1070
     1
1070
     0
1002
{
1002
}
1000
DIMTIH
1070
     1
1070
     1
1002
{
1002
}
1000
DIMTIX
1070
     1
1070
     0
1002
{
1002
}
1000
DIMTOFL
1070
     1
1070
     0
1002
{
1002
}
1000
DIMTOH
1070
     1
1070
     1
1002
{
1002
}
1000
DIMTOLJ
1070
     1
1070
     1
1002
{
1002
}
1000
DIMUPT
1070
     1
1070
     1
1002
{
1002
}
1000
M
1070
     0
1002
{
1002
}
1000
I
1070
     0
1002
{
1002
}
1002
}
1000
GEN-ANSI-ORD
1070
     5
1002
{
1000
NAME
1070
     4
1000
GEN-ANSI$6
1002
{
1002
}
1000
DIMTAD
1070
     1
1070
     0
1002
{
1002
}
1000
DIMTIH
1070
     1
1070
     1
1002
{
1002
}
1000
DIMTOH
1070
     1
1070
     1
1002
{
1002
}
1000
DIMTOLJ
1070
     1
1070
     1
1002
{
1002
}
1000
M
1070
     0
1002
{
1002
}
1000
I
1070
     0
1002
{
1002
}
1002
}
1000
GEN-ANSI-AXE-F
1070
     5
1002
{
1000
NAME
1070
     4
1000
GEN-ANSI-AXE-F
1002
{
1002
}
1000
DIMBLK1
1070
     4
1000
GENAXEH
1002
{
1002
}
1000
DIMSAH
1070
     1
1070
     1
1002
{
1002
}
1000
DIMSE1
1070
     1
1070
     1
1002
{
1002
}
1000
DIMSE2
1070
     1
1070
     1
1002
{
1002
}
1000
DIMTAD
1070
     1
1070
     0
1002
{
1002
}
1000
DIMTIH
1070
     1
1070
     1
1002
{
1002
}
1000
DIMTOH
1070
     1
1070
     1
1002
{
1002
}
1000
DIMTOLJ
1070
     1
1070
     1
1002
{
1002
}
1000
M
1070
     0
1002
{
1002
}
1000
I
1070
     0
1002
{
1002
}
1002
}
1000
GEN-ANSI-AXE-H
1070
     5
1002
{
1000
NAME
1070
     4
1000
GEN-ANSI-AXE-H
1002
{
1002
}
1000
DIMBLK1
1070
     4
1000
GENAXEH
1002
{
1002
}
1000
DIMLFAC
1070
     2
1040
2.0
1002
{
1002
}
1000
DIMSAH
1070
     1
1070
     1
1002
{
1002
}
1000
DIMSE1
1070
     1
1070
     1
1002
{
1002
}
1000
DIMSE2
1070
     1
1070
     1
1002
{
1002
}
1000
DIMTAD
1070
     1
1070
     0
1002
{
1002
}
1000
DIMTOFL
1070
     1
1070
     1
1002
{
1002
}
1000
DIMTOLJ
1070
     1
1070
     1
1002
{
1002
}
1000
M
1070
     0
1002
{
1002
}
1000
I
1070
     0
1002
{
1002
}
1002
}
1002
}
1000
DimSet
1070
     0
1002
{
1000
ChainSum
1070
     3
1070
     0
1002
{
1002
}
1000
DimDclTyp0
1070
     4
1000
dim23
1002
{
1002
}
1000
HorBra
1070
     3
1070
     0
1002
{
1002
}
1000
StrDia
1070
     4
1000
%%c<>
1002
{
1002
}
1000
StrRad
1070
     4
1000
R<>
1002
{
1002
}
1000
TextMinus
1070
     4
1000
<>
1002
{
1002
}
1000
TextPlus
1070
     4
1000
<>
1002
{
1002
}
1000
M
1070
     0
1002
{
1000
DimdliFirst
1070
     2
1040
10.0
1002
{
1002
}
1000
PointMakeDist
1070
     2
1040
10.0
1002
{
1002
}
1002
}
1000
I
1070
     0
1002
{
1000
DimdliFirst
1070
     2
1040
0.5
1002
{
1002
}
1000
PointMakeDist
1070
     2
1040
0.5
1002
{
1002
}
1002
}
1000
FitGrade
1070
     4
1000
h7
1002
{
1002
}
1002
}
1000
Drawing
1070
     0
1002
{
1000
ChamferDimMode
1070
     1
1070
     2
1002
{
1002
}
1000
Gen_Fiso
1070
    -3
1040
1.0
1002
{
1002
}
1000
GenDimStil
1070
     4
1000
ISO
1002
{
1002
}
1000
GenDwgUScale
1070
     2
1040
1.0
1002
{
1002
}
1000
GenInch
1070
     4
1000
M
1002
{
1002
}
1000
GenPlotScale
1070
     4
1000
1:5
1002
{
1002
}
1000
Revisi
1070
     4
1000
0
1002
{
1002
}
1000
Version
1070
    -5
1000
14.01/Apr  1 1998
1002
{
1002
}
1000
Platform
1070
    -5
1000
WINNT
1002
{
1002
}
1002
}
1000
DwgVar
1070
     0
1002
{
1000
M
1070
     0
1002
{
1000
FILLETRAD
1070
     2
1040
0.000001
1002
{
1002
}
1000
LIMMAX
1070
     6
1010
-1.000000000000000E+20
1020
0.0
1030
0.0
1002
{
1002
}
1002
}
1000
I
1070
     0
1002
{
1002
}
1002
}
1000
Hatch
1070
     0
1002
{
1000
GenHtcFlag
1070
     3
1070
     0
1002
{
1002
}
1002
}
1000
Info_Pos
1070
     0
1002
{
1000
>
1002
}
1000
Layer
1070
     7
1002
{
1000
Defs
1070
     0
1002
{
1000
>
1002
}
1000
EntSort
1070
     0
1002
{
1000
>
1002
}
1000
Match
1070
     0
1002
{
1002
}
1000
Settings
1070
     0
1002
{
1000
FocGrNC
1070
     3
1070
     0
1002
{
1002
}
1000
FocGrLo
1070
     3
1070
     0
1002
{
1002
}
1000
FocLoNC
1070
     3
1070
     0
1002
{
1002
}
1000
FocusCol
1070
     1
1070
   253
1002
{
1002
}
1000
GenStdLG
1070
     4
1000

1002
{
1002
}
1000
LayMatch
1070
     3
1070
     0
1002
{
1002
}
1000
LgOff
1070
     3
1070
     0
1002
{
1002
}
1000
CurLG
1070
    -5
1000

1002
{
1002
}
1002
}
1002
}
1000
LType
1070
     0
1002
{
1000
GEN3
1070
     8
1000
genius.lin
1002
{
1002
}
1000
GEN7
1070
     8
1000
genius.lin
1002
{
1002
}
1000
GEN4A
1070
     8
1000
genius.lin
1002
{
1002
}
1000
GEN3A
1070
     8
1000
genius.lin
1002
{
1002
}
1000
GEN7A
1070
     8
1000
genius.lin
1002
{
1002
}
1000
GENZIGZAG
1070
     8
1000
genius.lin
1002
{
1002
}
1002
}
1000
Objecter
1070
     0
1002
{
1000
CreateGroups
1070
     3
1070
     0
1002
{
1002
}
1000
LaySwitch
1070
     3
1070
     1
1002
{
1002
}
1000
LastObj
1070
    -5
1000
1354
1002
{
1002
}
1000
TimeStamp
1070
    -5
1000
20000417.15305211
1002
{
1002
}
1002
}
1000
OSWiz
1070
     0
1002
{
1000
Filter
1070
     0
1002
{
1000
HATCH
1070
     9
1002
{
1000
EntityType
1070
     4
1000
LINE
1002
{
1002
}
1000
Layer
1070
     4
1000
8,8N,*-8,*-8N
1002
{
1002
}
1000
Linetype
1070
     4
1000
*
1002
{
1002
}
1000
Color
1070
     4
1000
*
1002
{
1002
}
1000
ApplyInDims
1070
     3
1070
     1
1002
{
1002
}
1002
}
1000
SYMBOLS
1070
     9
1002
{
1000
EntityType
1070
     4
1000
*
1002
{
1002
}
1000
Layer
1070
     4
1000
[5-6],[5-6]N,*-[5-6],*-[5-6]N
1002
{
1002
}
1000
Linetype
1070
     4
1000
*
1002
{
1002
}
1000
Color
1070
     4
1000
*
1002
{
1002
}
1000
ApplyInDims
1070
     3
1070
     1
1002
{
1002
}
1002
}
1000
FEM
1070
     9
1002
{
1000
EntityType
1070
     4
1000
*
1002
{
1002
}
1000
Layer
1070
     4
1000
4A,4AN,*-4A,*-4AN
1002
{
1002
}
1000
Linetype
1070
     4
1000
*
1002
{
1002
}
1000
Color
1070
     4
1000
*
1002
{
1002
}
1000
ApplyInDims
1070
     3
1070
     1
1002
{
1002
}
1002
}
1002
}
1002
}
1000
PaList
1070
     0
1002
{
1000
AutoUpdatePartList
1070
     1
1070
     0
1002
{
1002
}
1000
ReadInfoPoint
1070
     3
1070
     0
1002
{
1002
}
1000
ReadPosNr
1070
     3
1070
     1
1002
{
1002
}
1000
RevStr
1070
     4
1000
0
1002
{
1002
}
1002
}
1000
Paper
1070
     0
1002
{
1002
}
1000
PartDB
1070
     0
1002
{
1000
GenDbOwner
1070
     4
1000

1002
{
1002
}
1002
}
1000
System
1070
     0
1002
{
1000
Menu
1070
     4
1000
GEV
1002
{
1002
}
1002
}
1000
Title
1070
     0
1002
{
1000
MakeView
1070
     1
1070
     2
1002
{
1002
}
1002
}
1000
Tools
1070
     0
1002
{
1000
Trans
1070
     0
1002
{
1000
Drawingtranslation
1070
    -4
1070
     1
1002
{
1002
}
1000
upreserve
1070
     3
1070
     0
1002
{
1002
}
1000
originally_on
1070
    -4
1070
     0
1002
{
1002
}
1000
sourcelang
1070
    -5
1000
D
1002
{
1002
}
1002
}
1002
}
  0
APPID
  5
1322
330
12B6
100
AcDbSymbolTableRecord
100
AcDbRegAppTableRecord
  2
GENIUS_GEVCFG0_13
 70
     0
1001
GENIUS_GENCFG_13
1071
955978259
1000
1322
1000
GEV
1070
     1
1000
GenCfgObject
1000
VED
1070
     0
1002
{
1002
}
  0
APPID
  5
1323
330
12B6
100
AcDbSymbolTableRecord
100
AcDbRegAppTableRecord
  2
GEV_VCCNULL_SWITCH_OFF
 70
     0
  0
APPID
  5
1324
330
12B6
100
AcDbSymbolTableRecord
100
AcDbRegAppTableRecord
  2
GENIUS_GENDTOL_13
 70
     0
  0
APPID
  5
1325
330
12B6
100
AcDbSymbolTableRecord
100
AcDbRegAppTableRecord
  2
GENIUS_GENOENT_13
 70
     0
  0
APPID
  5
1326
330
12B6
100
AcDbSymbolTableRecord
100
AcDbRegAppTableRecord
  2
GENIUS_GENBLLY_14
 70
     0
  0
APPID
  5
1327
330
12B6
100
AcDbSymbolTableRecord
100
AcDbRegAppTableRecord
  2
GENIUS_GENODEF_13
 70
     0
  0
APPID
  5
1328
330
12B6
100
AcDbSymbolTableRecord
100
AcDbRegAppTableRecord
  2
GENIUS_GENOBJ-N-CRS_13
 70
     0
  0
APPID
  5
1329
330
12B6
100
AcDbSymbolTableRecord
100
AcDbRegAppTableRecord
  2
GENIUS_GENOREF_13
 70
     0
  0
APPID
  5
132A
330
12B6
100
AcDbSymbolTableRecord
100
AcDbRegAppTableRecord
  2
GENIUS_GENOLIS_13
 70
     0
  0
APPID
  5
132B
330
12B6
100
AcDbSymbolTableRecord
100
AcDbRegAppTableRecord
  2
GENIUS_GEFCFG0_13
 70
     0
  0
APPID
  5
132C
330
12B6
100
AcDbSymbolTableRecord
100
AcDbRegAppTableRecord
  2
GENIUS_VERSION2
 70
     0
  0
APPID
  5
132D
330
12B6
100
AcDbSymbolTableRecord
100
AcDbRegAppTableRecord
  2
GENIUS_GENREC_14
 70
     0
  0
APPID
  5
132E
330
12B6
100
AcDbSymbolTableRecord
100
AcDbRegAppTableRecord
  2
GENIUS_GENOBJ-N-REC_13
 70
     0
  0
APPID
  5
132F
330
12B6
100
AcDbSymbolTableRecord
100
AcDbRegAppTableRecord
  2
GENIUS_GENOBJ-N-TIT_13
 70
     0
  0
APPID
  5
1330
330
12B6
100
AcDbSymbolTableRecord
100
AcDbRegAppTableRecord
  2
GENIUS_GENTITLE_13
 70
     0
  0
APPID
  5
1331
330
12B6
100
AcDbSymbolTableRecord
100
AcDbRegAppTableRecord
  2
GENIUS_GENZVEED_13
 70
     0
  0
APPID
  5
1332
330
12B6
100
AcDbSymbolTableRecord
100
AcDbRegAppTableRecord
  2
GENIUS_GENOBJ-N-SDF_13
 70
     0
  0
APPID
  5
1333
330
12B6
100
AcDbSymbolTableRecord
100
AcDbRegAppTableRecord
  2
GENIUS_GENSCREG_13
 70
     0
  0
APPID
  5
1334
330
12B6
100
AcDbSymbolTableRecord
100
AcDbRegAppTableRecord
  2
GENIUS_GENBLKED_14
 70
     0
  0
APPID
  5
158A
330
12B6
100
AcDbSymbolTableRecord
100
AcDbRegAppTableRecord
  2
MCAD_NO_VIS
 70
     0
  0
APPID
  5
158B
330
12B6
100
AcDbSymbolTableRecord
100
AcDbRegAppTableRecord
  2
ACAD_TEMP_GRAPHIC
 70
     0
  0
APPID
  5
15BB
330
12B6
100
AcDbSymbolTableRecord
100
AcDbRegAppTableRecord
  2
AD_DRAW
 70
     0
  0
APPID
  5
15BE
330
12B6
100
AcDbSymbolTableRecord
100
AcDbRegAppTableRecord
  2
ACATTRIBSERVICES
 70
     0
  0
APPID
  5
15DE
330
12B6
100
AcDbSymbolTableRecord
100
AcDbRegAppTableRecord
  2
DESIGNERASSEMBLIES
 70
     0
  0
APPID
  5
15E4
330
12B6
100
AcDbSymbolTableRecord
100
AcDbRegAppTableRecord
  2
ACADM_DIM_EDIT
 70
     0
  0
APPID
  5
15E5
330
12B6
100
AcDbSymbolTableRecord
100
AcDbRegAppTableRecord
  2
AMDT_DM_ADJ
 70
     0
  0
APPID
  5
1617
330
12B6
100
AcDbSymbolTableRecord
100
AcDbRegAppTableRecord
  2
ACAD_DSTYLE_DIMARC_LENGTH_SYMBOL
 70
     0
  0
APPID
  5
1618
330
12B6
100
AcDbSymbolTableRecord
100
AcDbRegAppTableRecord
  2
ACAD_DSTYLE_DIMJOGGED_JOGANGLE_SYMBOL
 70
     0
  0
APPID
  5
16B7
330
12B6
100
AcDbSymbolTableRecord
100
AcDbRegAppTableRecord
  2
GENIUS_GENDIMSH_14
 70
     0
  0
ENDTAB
  0
TABLE
  2
DIMSTYLE
  5
12B7
330
0
100
AcDbSymbolTable
 70
     8
100
AcDbDimStyleTable
 71
     1
340
12DD
  0
DIMSTYLE
105
12DD
102
{ACAD_REACTORS
330
1117
330
11E2
330
110C
330
1102
330
11CD
102
}
330
12B7
100
AcDbSymbolTableRecord
100
AcDbDimStyleTableRecord
  2
GEN-ISO
 70
     0
  4
"
 40
5.0
 41
2.5
 42
1.0
 43
7.0
 44
1.0
 47
0.1
 48
0.1
 73
     0
 74
     0
 77
     1
 78
     8
140
3.5
141
0.0
143
0.0393701
146
0.71
147
0.6
172
     1
176
   256
177
   256
178
     2
271
     2
272
     3
274
     4
283
     0
340
12BC
  0
ENDTAB
  0
TABLE
  2
BLOCK_RECORD
  5
12AE
330
0
100
AcDbSymbolTable
 70
    16
  0
BLOCK_RECORD
  5
12C5
330
12AE
100
AcDbSymbolTableRecord
100
AcDbBlockTableRecord
  2
*MODEL_SPACE
340
1580
  0
BLOCK_RECORD
  5
12C2
330
12AE
100
AcDbSymbolTableRecord
100
AcDbBlockTableRecord
  2
*PAPER_SPACE
340
1581
  0
BLOCK_RECORD
  5
12E2
330
12AE
100
AcDbSymbolTableRecord
100
AcDbBlockTableRecord
  2
*X0
340
0
102
{BLKREFS
331
1174
102
}
  0
BLOCK_RECORD
  5
12E3
330
12AE
100
AcDbSymbolTableRecord
100
AcDbBlockTableRecord
  2
*X1
340
0
102
{BLKREFS
331
1189
102
}
  0
BLOCK_RECORD
  5
12E4
330
12AE
100
AcDbSymbolTableRecord
100
AcDbBlockTableRecord
  2
*X2
340
0
102
{BLKREFS
331
11A1
102
}
  0
BLOCK_RECORD
  5
12E5
330
12AE
100
AcDbSymbolTableRecord
100
AcDbBlockTableRecord
  2
*X3
340
0
102
{BLKREFS
331
11C3
102
}
  0
BLOCK_RECORD
  5
12E9
330
12AE
100
AcDbSymbolTableRecord
100
AcDbBlockTableRecord
  2
*X4
340
0
102
{BLKREFS
331
127F
102
}
  0
BLOCK_RECORD
  5
12F2
330
12AE
100
AcDbSymbolTableRecord
100
AcDbBlockTableRecord
  2
KATALOG_LEER
340
0
102
{BLKREFS
331
1353
331
1336
102
}
  0
BLOCK_RECORD
  5
1355
330
12AE
100
AcDbSymbolTableRecord
100
AcDbBlockTableRecord
  2
*D7
340
0
  0
BLOCK_RECORD
  5
137C
330
12AE
100
AcDbSymbolTableRecord
100
AcDbBlockTableRecord
  2
*D9
340
0
  0
BLOCK_RECORD
  5
13AE
330
12AE
100
AcDbSymbolTableRecord
100
AcDbBlockTableRecord
  2
*D11
340
0
  0
BLOCK_RECORD
  5
13C5
330
12AE
100
AcDbSymbolTableRecord
100
AcDbBlockTableRecord
  2
*D12
340
0
  0
BLOCK_RECORD
  5
13DC
330
12AE
100
AcDbSymbolTableRecord
100
AcDbBlockTableRecord
  2
*D13
340
0
  0
ENDTAB
  0
ENDSEC
  0
SECTION
  2
BLOCKS
  0
BLOCK
  5
12C6
330
12C5
100
AcDbEntity
  8
0
100
AcDbBlockBegin
  2
*MODEL_SPACE
 70
     0
 10
0.0
 20
0.0
 30
0.0
  3
*MODEL_SPACE
  1

  0
ENDBLK
  5
12C7
330
12C5
100
AcDbEntity
  8
0
100
AcDbBlockEnd
  0
BLOCK
  5
12C3
330
12C2
100
AcDbEntity
 67
     1
  8
0
100
AcDbBlockBegin
  2
*PAPER_SPACE
 70
     0
 10
0.0
 20
0.0
 30
0.0
  3
*PAPER_SPACE
  1

  0
ENDBLK
  5
12C4
330
12C2
100
AcDbEntity
 67
     1
  8
0
100
AcDbBlockEnd
  0
BLOCK
  5
1153
330
12E2
100
AcDbEntity
  8
0
100
AcDbBlockBegin
  2
*X0
 70
     1
 10
0.0
 20
0.0
 30
0.0
  3
*X0
  1

  0
LINE
  5
1154
330
12E2
100
AcDbEntity
  8
8
100
AcDbLine
 10
661.7769999999999
 20
305.565
 30
0.0
 11
667.651
 21
311.439
 31
0.0
  0
LINE
  5
1155
330
12E2
100
AcDbEntity
  8
8
100
AcDbLine
 10
653.851
 20
306.619
 30
0.0
 11
659.118
 21
311.886
 31
0.0
  0
LINE
  5
1156
330
12E2
100
AcDbEntity
  8
8
100
AcDbLine
 10
645.8269999999999
 20
307.576
 30
0.0
 11
650.585
 21
312.333
 31
0.0
  0
LINE
  5
1157
330
12E2
100
AcDbEntity
  8
8
100
AcDbLine
 10
637.2939999999999
 20
308.023
 30
0.0
 11
642.052
 21
312.78
 31
0.0
  0
LINE
  5
1158
330
12E2
100
AcDbEntity
  8
8
100
AcDbLine
 10
628.7609999999999
 20
308.47
 30
0.0
 11
633.5189999999999
 21
313.227
 31
0.0
  0
LINE
  5
1159
330
12E2
100
AcDbEntity
  8
8
100
AcDbLine
 10
620.228
 20
308.917
 30
0.0
 11
624.9859999999999
 21
313.675
 31
0.0
  0
LINE
  5
115A
330
12E2
100
AcDbEntity
  8
8
100
AcDbLine
 10
611.695
 20
309.3640000000001
 30
0.0
 11
616.452
 21
314.122
 31
0.0
  0
LINE
  5
115B
330
12E2
100
AcDbEntity
  8
8
100
AcDbLine
 10
603.1619999999999
 20
309.812
 30
0.0
 11
607.9189999999999
 21
314.569
 31
0.0
  0
LINE
  5
115C
330
12E2
100
AcDbEntity
  8
8
100
AcDbLine
 10
594.629
 20
310.259
 30
0.0
 11
599.3859999999999
 21
315.016
 31
0.0
  0
LINE
  5
115D
330
12E2
100
AcDbEntity
  8
8
100
AcDbLine
 10
586.096
 20
310.706
 30
0.0
 11
590.853
 21
315.463
 31
0.0
  0
LINE
  5
115E
330
12E2
100
AcDbEntity
  8
8
100
AcDbLine
 10
577.5629999999999
 20
311.153
 30
0.0
 11
582.32
 21
315.911
 31
0.0
  0
LINE
  5
115F
330
12E2
100
AcDbEntity
  8
8
100
AcDbLine
 10
569.0299999999999
 20
311.6
 30
0.0
 11
573.7869999999999
 21
316.358
 31
0.0
  0
LINE
  5
1160
330
12E2
100
AcDbEntity
  8
8
100
AcDbLine
 10
560.4969999999999
 20
312.048
 30
0.0
 11
565.254
 21
316.805
 31
0.0
  0
LINE
  5
1161
330
12E2
100
AcDbEntity
  8
8
100
AcDbLine
 10
551.964
 20
312.495
 30
0.0
 11
556.721
 21
317.252
 31
0.0
  0
LINE
  5
1162
330
12E2
100
AcDbEntity
  8
8
100
AcDbLine
 10
543.431
 20
312.942
 30
0.0
 11
548.188
 21
317.699
 31
0.0
  0
LINE
  5
1163
330
12E2
100
AcDbEntity
  8
8
100
AcDbLine
 10
537.096
 20
315.587
 30
0.0
 11
540.5299999999999
 21
319.022
 31
0.0
  0
LINE
  5
1164
330
12E2
100
AcDbEntity
  8
8
100
AcDbLine
 10
534.1639999999999
 20
321.636
 30
0.0
 11
538.5399999999999
 21
326.012
 31
0.0
  0
LINE
  5
1165
330
12E2
100
AcDbEntity
  8
8
100
AcDbLine
 10
525.8119999999999
 20
322.264
 30
0.0
 11
535.7319999999999
 21
332.184
 31
0.0
  0
LINE
  5
1166
330
12E2
100
AcDbEntity
  8
8
100
AcDbLine
 10
514.3849999999999
 20
319.818
 30
0.0
 11
523.422
 21
328.8540000000001
 31
0.0
  0
LINE
  5
1167
330
12E2
100
AcDbEntity
  8
8
100
AcDbLine
 10
502.705
 20
317.118
 30
0.0
 11
510.487
 21
324.9
 31
0.0
  0
LINE
  5
1168
330
12E2
100
AcDbEntity
  8
8
100
AcDbLine
 10
444.5369999999999
 20
267.93
 30
0.0
 11
447.135
 21
270.528
 31
0.0
  0
LINE
  5
1169
330
12E2
100
AcDbEntity
  8
8
100
AcDbLine
 10
492.734
 20
316.127
 30
0.0
 11
499.464
 21
322.857
 31
0.0
  0
LINE
  5
116A
330
12E2
100
AcDbEntity
  8
8
100
AcDbLine
 10
443.9049999999999
 20
276.278
 30
0.0
 11
449.089
 21
281.462
 31
0.0
  0
LINE
  5
116B
330
12E2
100
AcDbEntity
  8
8
100
AcDbLine
 10
482.9439999999999
 20
315.318
 30
0.0
 11
488.654
 21
321.027
 31
0.0
  0
LINE
  5
116C
330
12E2
100
AcDbEntity
  8
8
100
AcDbLine
 10
444.23
 20
285.583
 30
0.0
 11
449.4139999999999
 21
290.767
 31
0.0
  0
LINE
  5
116D
330
12E2
100
AcDbEntity
  8
8
100
AcDbLine
 10
473.1539999999999
 20
314.508
 30
0.0
 11
479.674
 21
321.027
 31
0.0
  0
LINE
  5
116E
330
12E2
100
AcDbEntity
  8
8
100
AcDbLine
 10
444.5549999999999
 20
294.888
 30
0.0
 11
449.739
 21
300.072
 31
0.0
  0
LINE
  5
116F
330
12E2
100
AcDbEntity
  8
8
100
AcDbLine
 10
463.3399999999999
 20
313.674
 30
0.0
 11
469.9399999999999
 21
320.274
 31
0.0
  0
LINE
  5
1170
330
12E2
100
AcDbEntity
  8
8
100
AcDbLine
 10
444.88
 20
304.194
 30
0.0
 11
461.293
 21
320.607
 31
0.0
  0
LINE
  5
1171
330
12E2
100
AcDbEntity
  8
8
100
AcDbLine
 10
445.9909999999999
 20
314.285
 30
0.0
 11
448.47
 21
316.764
 31
0.0
  0
LINE
  5
1172
330
12E2
100
AcDbEntity
  8
8
100
AcDbLine
 10
453.275
 20
321.569
 30
0.0
 11
455.97
 21
324.264
 31
0.0
  0
ENDBLK
  5
1173
330
12E2
100
AcDbEntity
  8
0
100
AcDbBlockEnd
  0
BLOCK
  5
1185
330
12E3
100
AcDbEntity
  8
0
100
AcDbBlockBegin
  2
*X1
 70
     1
 10
0.0
 20
0.0
 30
0.0
  3
*X1
  1

  0
LINE
  5
1186
330
12E3
100
AcDbEntity
  8
8
100
AcDbLine
 10
246.669
 20
333.782
 30
0.0
 11
255.384
 21
325.067
 31
0.0
  0
LINE
  5
1187
330
12E3
100
AcDbEntity
  8
8
100
AcDbLine
 10
256.146
 20
333.285
 30
0.0
 11
256.526
 21
332.905
 31
0.0
  0
ENDBLK
  5
1188
330
12E3
100
AcDbEntity
  8
0
100
AcDbBlockEnd
  0
BLOCK
  5
119D
330
12E4
100
AcDbEntity
  8
0
100
AcDbBlockBegin
  2
*X2
 70
     1
 10
0.0
 20
0.0
 30
0.0
  3
*X2
  1

  0
LINE
  5
119E
330
12E4
100
AcDbEntity
  8
8
100
AcDbLine
 10
206.69
 20
337.84
 30
0.0
 11
216.833
 21
327.6969999999999
 31
0.0
  0
LINE
  5
119F
330
12E4
100
AcDbEntity
  8
8
100
AcDbLine
 10
216.167
 20
337.343
 30
0.0
 11
226.101
 21
327.409
 31
0.0
  0
ENDBLK
  5
11A0
330
12E4
100
AcDbEntity
  8
0
100
AcDbBlockEnd
  0
BLOCK
  5
11B9
330
12E5
100
AcDbEntity
  8
0
100
AcDbBlockBegin
  2
*X3
 70
     1
 10
0.0
 20
0.0
 30
0.0
  3
*X3
  1

  0
LINE
  5
11BA
330
12E5
100
AcDbEntity
  8
8
100
AcDbLine
 10
462.7049999999999
 20
333.272
 30
0.0
 11
471.013
 21
324.964
 31
0.0
  0
LINE
  5
11BB
330
12E5
100
AcDbEntity
  8
8
100
AcDbLine
 10
471.238
 20
333.72
 30
0.0
 11
479.2709999999999
 21
325.686
 31
0.0
  0
LINE
  5
11BC
330
12E5
100
AcDbEntity
  8
8
100
AcDbLine
 10
480.0969999999999
 20
333.84
 30
0.0
 11
487.5289999999999
 21
326.409
 31
0.0
  0
LINE
  5
11BD
330
12E5
100
AcDbEntity
  8
8
100
AcDbLine
 10
489.0769999999999
 20
333.84
 30
0.0
 11
495.7869999999999
 21
327.131
 31
0.0
  0
LINE
  5
11BE
330
12E5
100
AcDbEntity
  8
8
100
AcDbLine
 10
497.1659999999999
 20
334.732
 30
0.0
 11
504.0449999999999
 21
327.854
 31
0.0
  0
LINE
  5
11BF
330
12E5
100
AcDbEntity
  8
8
100
AcDbLine
 10
503.505
 20
337.374
 30
0.0
 11
510.933
 21
329.946
 31
0.0
  0
LINE
  5
11C0
330
12E5
100
AcDbEntity
  8
8
100
AcDbLine
 10
512.0379999999999
 20
337.821
 30
0.0
 11
517.5169999999999
 21
332.342
 31
0.0
  0
LINE
  5
11C1
330
12E5
100
AcDbEntity
  8
8
100
AcDbLine
 10
520.5779999999999
 20
338.261
 30
0.0
 11
522.5449999999999
 21
336.294
 31
0.0
  0
ENDBLK
  5
11C2
330
12E5
100
AcDbEntity
  8
0
100
AcDbBlockEnd
  0
BLOCK
  5
1236
330
12E9
100
AcDbEntity
  8
0
100
AcDbBlockBegin
  2
*X4
 70
     1
 10
0.0
 20
0.0
 30
0.0
  3
*X4
  1

  0
LINE
  5
1237
330
12E9
100
AcDbEntity
  8
8
100
AcDbLine
 10
655.2999999999999
 20
201.935
 30
0.0
 11
661.5439999999999
 21
208.179
 31
0.0
  0
LINE
  5
1238
330
12E9
100
AcDbEntity
  8
8
100
AcDbLine
 10
646.7669999999999
 20
202.382
 30
0.0
 11
652.3099999999999
 21
207.925
 31
0.0
  0
LINE
  5
1239
330
12E9
100
AcDbEntity
  8
8
100
AcDbLine
 10
638.234
 20
202.829
 30
0.0
 11
643.076
 21
207.671
 31
0.0
  0
LINE
  5
123A
330
12E9
100
AcDbEntity
  8
8
100
AcDbLine
 10
629.701
 20
203.277
 30
0.0
 11
634.4590000000001
 21
208.034
 31
0.0
  0
LINE
  5
123B
330
12E9
100
AcDbEntity
  8
8
100
AcDbLine
 10
621.168
 20
203.724
 30
0.0
 11
625.9259999999999
 21
208.481
 31
0.0
  0
LINE
  5
123C
330
12E9
100
AcDbEntity
  8
8
100
AcDbLine
 10
612.635
 20
204.171
 30
0.0
 11
617.393
 21
208.929
 31
0.0
  0
LINE
  5
123D
330
12E9
100
AcDbEntity
  8
8
100
AcDbLine
 10
604.1019999999999
 20
204.618
 30
0.0
 11
608.86
 21
209.376
 31
0.0
  0
LINE
  5
123E
330
12E9
100
AcDbEntity
  8
8
100
AcDbLine
 10
595.5689999999999
 20
205.065
 30
0.0
 11
600.326
 21
209.823
 31
0.0
  0
LINE
  5
123F
330
12E9
100
AcDbEntity
  8
8
100
AcDbLine
 10
587.0359999999999
 20
205.513
 30
0.0
 11
591.793
 21
210.27
 31
0.0
  0
LINE
  5
1240
330
12E9
100
AcDbEntity
  8
8
100
AcDbLine
 10
578.503
 20
205.96
 30
0.0
 11
583.26
 21
210.717
 31
0.0
  0
LINE
  5
1241
330
12E9
100
AcDbEntity
  8
8
100
AcDbLine
 10
569.9699999999999
 20
206.407
 30
0.0
 11
574.7269999999999
 21
211.165
 31
0.0
  0
LINE
  5
1242
330
12E9
100
AcDbEntity
  8
8
100
AcDbLine
 10
561.437
 20
206.854
 30
0.0
 11
566.1939999999999
 21
211.612
 31
0.0
  0
LINE
  5
1243
330
12E9
100
AcDbEntity
  8
8
100
AcDbLine
 10
552.904
 20
207.301
 30
0.0
 11
557.6609999999999
 21
212.059
 31
0.0
  0
LINE
  5
1244
330
12E9
100
AcDbEntity
  8
8
100
AcDbLine
 10
544.371
 20
207.749
 30
0.0
 11
549.128
 21
212.506
 31
0.0
  0
LINE
  5
1245
330
12E9
100
AcDbEntity
  8
8
100
AcDbLine
 10
535.8380000000001
 20
208.196
 30
0.0
 11
540.595
 21
212.953
 31
0.0
  0
LINE
  5
1246
330
12E9
100
AcDbEntity
  8
8
100
AcDbLine
 10
527.3049999999999
 20
208.643
 30
0.0
 11
532.0619999999999
 21
213.401
 31
0.0
  0
LINE
  5
1247
330
12E9
100
AcDbEntity
  8
8
100
AcDbLine
 10
518.771
 20
209.09
 30
0.0
 11
523.5289999999999
 21
213.848
 31
0.0
  0
LINE
  5
1248
330
12E9
100
AcDbEntity
  8
8
100
AcDbLine
 10
510.2380000000001
 20
209.537
 30
0.0
 11
514.996
 21
214.295
 31
0.0
  0
LINE
  5
1249
330
12E9
100
AcDbEntity
  8
8
100
AcDbLine
 10
501.705
 20
209.985
 30
0.0
 11
506.463
 21
214.742
 31
0.0
  0
LINE
  5
124A
330
12E9
100
AcDbEntity
  8
8
100
AcDbLine
 10
493.1719999999999
 20
210.432
 30
0.0
 11
497.93
 21
215.189
 31
0.0
  0
LINE
  5
124B
330
12E9
100
AcDbEntity
  8
8
100
AcDbLine
 10
484.639
 20
210.879
 30
0.0
 11
489.397
 21
215.637
 31
0.0
  0
LINE
  5
124C
330
12E9
100
AcDbEntity
  8
8
100
AcDbLine
 10
476.1059999999999
 20
211.326
 30
0.0
 11
480.864
 21
216.084
 31
0.0
  0
LINE
  5
124D
330
12E9
100
AcDbEntity
  8
8
100
AcDbLine
 10
467.573
 20
211.773
 30
0.0
 11
472.3309999999999
 21
216.531
 31
0.0
  0
LINE
  5
124E
330
12E9
100
AcDbEntity
  8
8
100
AcDbLine
 10
459.04
 20
212.221
 30
0.0
 11
463.7979999999999
 21
216.978
 31
0.0
  0
LINE
  5
124F
330
12E9
100
AcDbEntity
  8
8
100
AcDbLine
 10
450.5069999999999
 20
212.668
 30
0.0
 11
455.2649999999999
 21
217.425
 31
0.0
  0
LINE
  5
1250
330
12E9
100
AcDbEntity
  8
8
100
AcDbLine
 10
441.974
 20
213.115
 30
0.0
 11
446.731
 21
217.873
 31
0.0
  0
LINE
  5
1251
330
12E9
100
AcDbEntity
  8
8
100
AcDbLine
 10
433.441
 20
213.562
 30
0.0
 11
438.198
 21
218.32
 31
0.0
  0
LINE
  5
1252
330
12E9
100
AcDbEntity
  8
8
100
AcDbLine
 10
424.908
 20
214.009
 30
0.0
 11
429.665
 21
218.767
 31
0.0
  0
LINE
  5
1253
330
12E9
100
AcDbEntity
  8
8
100
AcDbLine
 10
416.375
 20
214.457
 30
0.0
 11
421.1319999999999
 21
219.214
 31
0.0
  0
LINE
  5
1254
330
12E9
100
AcDbEntity
  8
8
100
AcDbLine
 10
407.8419999999999
 20
214.904
 30
0.0
 11
412.5989999999999
 21
219.661
 31
0.0
  0
LINE
  5
1255
330
12E9
100
AcDbEntity
  8
8
100
AcDbLine
 10
399.309
 20
215.351
 30
0.0
 11
404.0659999999999
 21
220.109
 31
0.0
  0
LINE
  5
1256
330
12E9
100
AcDbEntity
  8
8
100
AcDbLine
 10
390.776
 20
215.798
 30
0.0
 11
395.533
 21
220.556
 31
0.0
  0
LINE
  5
1257
330
12E9
100
AcDbEntity
  8
8
100
AcDbLine
 10
382.2430000000001
 20
216.245
 30
0.0
 11
387.0
 21
221.003
 31
0.0
  0
LINE
  5
1258
330
12E9
100
AcDbEntity
  8
8
100
AcDbLine
 10
373.71
 20
216.693
 30
0.0
 11
378.467
 21
221.45
 31
0.0
  0
LINE
  5
1259
330
12E9
100
AcDbEntity
  8
8
100
AcDbLine
 10
365.176
 20
217.14
 30
0.0
 11
369.934
 21
221.897
 31
0.0
  0
LINE
  5
125A
330
12E9
100
AcDbEntity
  8
8
100
AcDbLine
 10
356.643
 20
217.587
 30
0.0
 11
361.401
 21
222.345
 31
0.0
  0
LINE
  5
125B
330
12E9
100
AcDbEntity
  8
8
100
AcDbLine
 10
348.11
 20
218.034
 30
0.0
 11
352.868
 21
222.792
 31
0.0
  0
LINE
  5
125C
330
12E9
100
AcDbEntity
  8
8
100
AcDbLine
 10
339.577
 20
218.481
 30
0.0
 11
344.335
 21
223.239
 31
0.0
  0
LINE
  5
125D
330
12E9
100
AcDbEntity
  8
8
100
AcDbLine
 10
331.044
 20
218.929
 30
0.0
 11
335.802
 21
223.686
 31
0.0
  0
LINE
  5
125E
330
12E9
100
AcDbEntity
  8
8
100
AcDbLine
 10
322.511
 20
219.376
 30
0.0
 11
327.269
 21
224.133
 31
0.0
  0
LINE
  5
125F
330
12E9
100
AcDbEntity
  8
8
100
AcDbLine
 10
313.978
 20
219.823
 30
0.0
 11
318.736
 21
224.58
 31
0.0
  0
LINE
  5
1260
330
12E9
100
AcDbEntity
  8
8
100
AcDbLine
 10
305.445
 20
220.27
 30
0.0
 11
310.203
 21
225.028
 31
0.0
  0
LINE
  5
1261
330
12E9
100
AcDbEntity
  8
8
100
AcDbLine
 10
296.982
 20
220.787
 30
0.0
 11
301.67
 21
225.475
 31
0.0
  0
LINE
  5
1262
330
12E9
100
AcDbEntity
  8
8
100
AcDbLine
 10
289.54
 20
222.325
 30
0.0
 11
293.657
 21
226.442
 31
0.0
  0
LINE
  5
1263
330
12E9
100
AcDbEntity
  8
8
100
AcDbLine
 10
283.572
 20
225.338
 30
0.0
 11
287.268
 21
229.034
 31
0.0
  0
LINE
  5
1264
330
12E9
100
AcDbEntity
  8
8
100
AcDbLine
 10
278.679
 20
229.425
 30
0.0
 11
282.337
 21
233.083
 31
0.0
  0
LINE
  5
1265
330
12E9
100
AcDbEntity
  8
8
100
AcDbLine
 10
274.809
 20
234.536
 30
0.0
 11
278.672
 21
238.399
 31
0.0
  0
LINE
  5
1266
330
12E9
100
AcDbEntity
  8
8
100
AcDbLine
 10
272.115
 20
240.822
 30
0.0
 11
276.588
 21
245.295
 31
0.0
  0
LINE
  5
1267
330
12E9
100
AcDbEntity
  8
8
100
AcDbLine
 10
271.14
 20
248.827
 30
0.0
 11
275.974
 21
253.661
 31
0.0
  0
LINE
  5
1268
330
12E9
100
AcDbEntity
  8
8
100
AcDbLine
 10
270.837
 20
257.504
 30
0.0
 11
275.672
 21
262.339
 31
0.0
  0
LINE
  5
1269
330
12E9
100
AcDbEntity
  8
8
100
AcDbLine
 10
270.534
 20
266.181
 30
0.0
 11
276.129
 21
271.777
 31
0.0
  0
LINE
  5
126A
330
12E9
100
AcDbEntity
  8
8
100
AcDbLine
 10
270.231
 20
274.859
 30
0.0
 11
275.065
 21
279.693
 31
0.0
  0
LINE
  5
126B
330
12E9
100
AcDbEntity
  8
8
100
AcDbLine
 10
269.928
 20
283.536
 30
0.0
 11
274.762
 21
288.37
 31
0.0
  0
LINE
  5
126C
330
12E9
100
AcDbEntity
  8
8
100
AcDbLine
 10
269.625
 20
292.213
 30
0.0
 11
274.459
 21
297.047
 31
0.0
  0
LINE
  5
126D
330
12E9
100
AcDbEntity
  8
8
100
AcDbLine
 10
269.322
 20
300.891
 30
0.0
 11
274.156
 21
305.725
 31
0.0
  0
LINE
  5
126E
330
12E9
100
AcDbEntity
  8
8
100
AcDbLine
 10
268.33
 20
308.879
 30
0.0
 11
273.195
 21
313.743
 31
0.0
  0
LINE
  5
126F
330
12E9
100
AcDbEntity
  8
8
100
AcDbLine
 10
263.297
 20
312.826
 30
0.0
 11
267.235
 21
316.764
 31
0.0
  0
LINE
  5
1270
330
12E9
100
AcDbEntity
  8
8
100
AcDbLine
 10
231.93
 20
290.439
 30
0.0
 11
247.367
 21
305.876
 31
0.0
  0
LINE
  5
1271
330
12E9
100
AcDbEntity
  8
8
100
AcDbLine
 10
255.212
 20
313.721
 30
0.0
 11
265.678
 21
324.187
 31
0.0
  0
LINE
  5
1272
330
12E9
100
AcDbEntity
  8
8
100
AcDbLine
 10
226.231
 20
293.721
 30
0.0
 11
232.125
 21
299.615
 31
0.0
  0
LINE
  5
1273
330
12E9
100
AcDbEntity
  8
8
100
AcDbLine
 10
239.545
 20
307.034
 30
0.0
 11
252.492
 21
319.982
 31
0.0
  0
LINE
  5
1274
330
12E9
100
AcDbEntity
  8
8
100
AcDbLine
 10
222.987
 20
299.457
 30
0.0
 11
229.557
 21
306.027
 31
0.0
  0
LINE
  5
1275
330
12E9
100
AcDbEntity
  8
8
100
AcDbLine
 10
239.545
 20
316.015
 30
0.0
 11
244.235
 21
320.704
 31
0.0
  0
LINE
  5
1276
330
12E9
100
AcDbEntity
  8
8
100
AcDbLine
 10
221.53
 20
306.98
 30
0.0
 11
229.545
 21
314.995
 31
0.0
  0
LINE
  5
1277
330
12E9
100
AcDbEntity
  8
8
100
AcDbLine
 10
220.184
 20
314.614
 30
0.0
 11
227.719
 21
322.149
 31
0.0
  0
LINE
  5
1278
330
12E9
100
AcDbEntity
  8
8
100
AcDbLine
 10
213.923
 20
317.333
 30
0.0
 11
219.461
 21
322.871
 31
0.0
  0
LINE
  5
1279
330
12E9
100
AcDbEntity
  8
8
100
AcDbLine
 10
206.789
 20
319.18
 30
0.0
 11
211.595
 21
323.985
 31
0.0
  0
LINE
  5
127A
330
12E9
100
AcDbEntity
  8
8
100
AcDbLine
 10
199.912
 20
321.283
 30
0.0
 11
204.717
 21
326.088
 31
0.0
  0
LINE
  5
127B
330
12E9
100
AcDbEntity
  8
8
100
AcDbLine
 10
193.034
 20
323.386
 30
0.0
 11
197.839
 21
328.191
 31
0.0
  0
LINE
  5
127C
330
12E9
100
AcDbEntity
  8
8
100
AcDbLine
 10
184.823
 20
324.155
 30
0.0
 11
190.962
 21
330.293
 31
0.0
  0
LINE
  5
127D
330
12E9
100
AcDbEntity
  8
8
100
AcDbLine
 10
180.337
 20
328.649
 30
0.0
 11
183.843
 21
332.155
 31
0.0
  0
ENDBLK
  5
127E
330
12E9
100
AcDbEntity
  8
0
100
AcDbBlockEnd
  0
BLOCK
  5
12F3
330
12F2
100
AcDbEntity
  8
0
100
AcDbBlockBegin
  2
KATALOG_LEER
 70
     0
 10
0.0
 20
0.0
 30
0.0
  3
KATALOG_LEER
  1

  0
ENDBLK
  5
12F4
330
12F2
100
AcDbEntity
  8
0
100
AcDbBlockEnd
  0
BLOCK
  5
1559
330
1355
100
AcDbEntity
  8
0
100
AcDbBlockBegin
  2
*D7
 70
     1
 10
0.0
 20
0.0
 30
0.0
  3
*D7
  1

  0
LINE
  5
168E
330
1355
100
AcDbEntity
  8
5
370
    -2
100
AcDbLine
 10
336.8516605316487
 20
249.0431993504623
 30
0.0
 11
336.8516605316487
 21
183.2773569296064
 31
0.0
  0
LINE
  5
168F
330
1355
100
AcDbEntity
  8
5
370
    -2
100
AcDbLine
 10
646.8516605316485
 20
282.8651993504623
 30
0.0
 11
646.8516605316485
 21
183.2773569296064
 31
0.0
  0
LINE
  5
1690
330
1355
100
AcDbEntity
  8
5
370
    -2
100
AcDbLine
 10
361.8516605316487
 20
188.2773569296064
 30
0.0
 11
621.8516605316485
 21
188.2773569296064
 31
0.0
  0
SOLID
  5
1691
330
1355
100
AcDbEntity
  8
5
100
AcDbTrace
 10
361.8516605316487
 20
192.444023596273
 30
0.0
 11
361.8516605316487
 21
184.1106902629397
 31
0.0
 12
336.8516605316487
 22
188.2773569296064
 32
0.0
 13
336.8516605316487
 23
188.2773569296064
 33
0.0
  0
SOLID
  5
1692
330
1355
100
AcDbEntity
  8
5
100
AcDbTrace
 10
621.8516605316485
 20
192.444023596273
 30
0.0
 11
621.8516605316485
 21
184.1106902629397
 31
0.0
 12
646.8516605316485
 22
188.2773569296064
 32
0.0
 13
646.8516605316485
 23
188.2773569296064
 33
0.0
  0
MTEXT
  5
1693
330
1355
100
AcDbEntity
  8
5
 62
     2
100
AcDbMText
 10
491.8516605316486
 20
201.2773569296064
 30
0.0
 40
20.0
 41
0.0
 71
     5
 72
     1
  1
310
 73
     1
 44
1.0
1001
ACAD
1000
MTEXTBEGIN
1070
    73
1070
     1
1070
    44
1040
1.0
1070
    74
1070
     0
1000
MTEXTEND
  0
POINT
  5
1694
330
1355
100
AcDbEntity
  8
DEFPOINTS
 62
     0
100
AcDbPoint
 10
336.8516605316487
 20
254.0431993504622
 30
0.0
  0
POINT
  5
1695
330
1355
100
AcDbEntity
  8
DEFPOINTS
 62
     0
100
AcDbPoint
 10
646.8516605316485
 20
287.8651993504623
 30
0.0
  0
POINT
  5
1696
330
1355
100
AcDbEntity
  8
DEFPOINTS
 62
     0
100
AcDbPoint
 10
646.8516605316485
 20
188.2773569296064
 30
0.0
  0
ENDBLK
  5
1563
330
1355
100
AcDbEntity
  8
0
100
AcDbBlockEnd
  0
BLOCK
  5
142C
330
137C
100
AcDbEntity
  8
0
100
AcDbBlockBegin
  2
*D9
 70
     1
 10
0.0
 20
0.0
 30
0.0
  3
*D9
  1

  0
LINE
  5
167C
330
137C
100
AcDbEntity
  8
5
370
    -2
100
AcDbLine
 10
236.8516605316487
 20
372.8651993504623
 30
0.0
 11
236.8516605316487
 21
442.2511993504622
 31
0.0
  0
LINE
  5
167D
330
137C
100
AcDbEntity
  8
5
370
    -2
100
AcDbLine
 10
436.8516605316487
 20
372.8651993504623
 30
0.0
 11
436.8516605316487
 21
442.2511993504622
 31
0.0
  0
LINE
  5
167E
330
137C
100
AcDbEntity
  8
5
370
    -2
100
AcDbLine
 10
261.8516605316487
 20
437.2511993504622
 30
0.0
 11
411.8516605316487
 21
437.2511993504622
 31
0.0
  0
SOLID
  5
167F
330
137C
100
AcDbEntity
  8
5
100
AcDbTrace
 10
261.8516605316487
 20
441.4178660171288
 30
0.0
 11
261.8516605316487
 21
433.0845326837955
 31
0.0
 12
236.8516605316487
 22
437.2511993504622
 32
0.0
 13
236.8516605316487
 23
437.2511993504622
 33
0.0
  0
SOLID
  5
1680
330
137C
100
AcDbEntity
  8
5
100
AcDbTrace
 10
411.8516605316487
 20
441.4178660171288
 30
0.0
 11
411.8516605316487
 21
433.0845326837955
 31
0.0
 12
436.8516605316487
 22
437.2511993504622
 32
0.0
 13
436.8516605316487
 23
437.2511993504622
 33
0.0
  0
MTEXT
  5
1681
330
137C
100
AcDbEntity
  8
5
 62
     2
100
AcDbMText
 10
336.8516605316487
 20
450.2531678543992
 30
0.0
 40
20.0
 41
0.0
 71
     5
 72
     1
  1
%%c 200
 73
     1
 44
1.0
1001
ACAD
1000
MTEXTBEGIN
1070
    73
1070
     1
1070
    44
1040
1.0
1070
    74
1070
     0
1000
MTEXTEND
  0
POINT
  5
1682
330
137C
100
AcDbEntity
  8
DEFPOINTS
 62
     0
100
AcDbPoint
 10
236.8516605316487
 20
367.8651993504623
 30
0.0
  0
POINT
  5
1683
330
137C
100
AcDbEntity
  8
DEFPOINTS
 62
     0
100
AcDbPoint
 10
436.8516605316487
 20
367.8651993504623
 30
0.0
  0
POINT
  5
1684
330
137C
100
AcDbEntity
  8
DEFPOINTS
 62
     0
100
AcDbPoint
 10
436.8516605316487
 20
437.2511993504622
 30
0.0
  0
ENDBLK
  5
1436
330
137C
100
AcDbEntity
  8
0
100
AcDbBlockEnd
  0
BLOCK
  5
14C0
330
13AE
100
AcDbEntity
  8
0
100
AcDbBlockBegin
  2
*D11
 70
     1
 10
0.0
 20
0.0
 30
0.0
  3
*D11
  1

  0
LINE
  5
16B8
330
13AE
100
AcDbEntity
  8
5
370
    -2
100
AcDbLine
 10
331.8516605316487
 20
246.0321993504622
 30
0.0
 11
63.70673021861723
 21
246.0321993504623
 31
0.0
  0
LINE
  5
16B9
330
13AE
100
AcDbEntity
  8
5
370
    -2
100
AcDbLine
 10
157.1806605316487
 20
363.7561993504622
 30
0.0
 11
63.70673021861724
 21
363.7561993504623
 31
0.0
  0
LINE
  5
16BA
330
13AE
100
AcDbEntity
  8
5
370
    -2
100
AcDbLine
 10
68.70673021861723
 20
271.0321993504623
 30
0.0
 11
68.70673021861724
 21
338.7561993504623
 31
0.0
  0
SOLID
  5
16BB
330
13AE
100
AcDbEntity
  8
5
100
AcDbTrace
 10
64.54006355195055
 20
271.0321993504623
 30
0.0
 11
72.8733968852839
 21
271.0321993504623
 31
0.0
 12
68.70673021861723
 22
246.0321993504622
 32
0.0
 13
68.70673021861723
 23
246.0321993504622
 33
0.0
  0
SOLID
  5
16BC
330
13AE
100
AcDbEntity
  8
5
100
AcDbTrace
 10
64.54006355195057
 20
338.7561993504623
 30
0.0
 11
72.8733968852839
 21
338.7561993504623
 31
0.0
 12
68.70673021861725
 22
363.7561993504623
 32
0.0
 13
68.70673021861725
 23
363.7561993504623
 33
0.0
  0
MTEXT
  5
16BD
330
13AE
100
AcDbEntity
  8
5
 62
     2
100
AcDbMText
 10
55.70673021861718
 20
305.4048135847633
 30
0.0
 40
20.0
 41
0.0
 71
     5
 72
     1
  1
118
 11
0.0000000000000001
 21
1.0
 31
0.0
 73
     1
 44
1.0
1001
ACAD
1000
MTEXTBEGIN
1070
    73
1070
     1
1070
    44
1040
1.0
1070
    74
1070
     0
1000
MTEXTEND
  0
POINT
  5
16BE
330
13AE
100
AcDbEntity
  8
DEFPOINTS
 62
     0
100
AcDbPoint
 10
336.8516605316487
 20
246.0321993504622
 30
0.0
  0
POINT
  5
16BF
330
13AE
100
AcDbEntity
  8
DEFPOINTS
 62
     0
100
AcDbPoint
 10
162.1806605316487
 20
363.7561993504622
 30
0.0
  0
POINT
  5
16C0
330
13AE
100
AcDbEntity
  8
DEFPOINTS
 62
     0
100
AcDbPoint
 10
68.70673021861725
 20
363.7561993504623
 30
0.0
  0
ENDBLK
  5
14CA
330
13AE
100
AcDbEntity
  8
0
100
AcDbBlockEnd
  0
BLOCK
  5
1421
330
13C5
100
AcDbEntity
  8
0
100
AcDbBlockBegin
  2
*D12
 70
     1
 10
0.0
 20
0.0
 30
0.0
  3
*D12
  1

  0
LINE
  5
166C
330
13C5
100
AcDbEntity
  8
5
370
    -2
100
AcDbLine
 10
156.8506605316487
 20
358.8651993504623
 30
0.0
 11
156.8506605316487
 21
477.2511993504622
 31
0.0
  0
LINE
  5
166D
330
13C5
100
AcDbEntity
  8
5
370
    -2
100
AcDbLine
 10
516.8516605316486
 20
358.8651993504623
 30
0.0
 11
516.8516605316486
 21
477.2511993504622
 31
0.0
  0
LINE
  5
166E
330
13C5
100
AcDbEntity
  8
5
370
    -2
100
AcDbLine
 10
181.8506605316487
 20
472.2511993504622
 30
0.0
 11
491.8516605316486
 21
472.2511993504622
 31
0.0
  0
SOLID
  5
166F
330
13C5
100
AcDbEntity
  8
5
100
AcDbTrace
 10
181.8506605316487
 20
476.4178660171289
 30
0.0
 11
181.8506605316487
 21
468.0845326837955
 31
0.0
 12
156.8506605316487
 22
472.2511993504622
 32
0.0
 13
156.8506605316487
 23
472.2511993504622
 33
0.0
  0
SOLID
  5
1670
330
13C5
100
AcDbEntity
  8
5
100
AcDbTrace
 10
491.8516605316486
 20
476.4178660171289
 30
0.0
 11
491.8516605316486
 21
468.0845326837955
 31
0.0
 12
516.8516605316486
 22
472.2511993504622
 32
0.0
 13
516.8516605316486
 23
472.2511993504622
 33
0.0
  0
MTEXT
  5
1671
330
13C5
100
AcDbEntity
  8
5
 62
     2
100
AcDbMText
 10
336.8511605316486
 20
485.2511993504622
 30
0.0
 40
20.0
 41
0.0
 71
     5
 72
     1
  1
%%c 360
 73
     1
 44
1.0
1001
ACAD
1000
MTEXTBEGIN
1070
    73
1070
     1
1070
    44
1040
1.0
1070
    74
1070
     0
1000
MTEXTEND
  0
POINT
  5
1672
330
13C5
100
AcDbEntity
  8
DEFPOINTS
 62
     0
100
AcDbPoint
 10
156.8506605316487
 20
353.8651993504623
 30
0.0
  0
POINT
  5
1673
330
13C5
100
AcDbEntity
  8
DEFPOINTS
 62
     0
100
AcDbPoint
 10
516.8516605316486
 20
353.8651993504623
 30
0.0
  0
POINT
  5
1674
330
13C5
100
AcDbEntity
  8
DEFPOINTS
 62
     0
100
AcDbPoint
 10
516.8516605316486
 20
472.2511993504622
 30
0.0
  0
ENDBLK
  5
142B
330
13C5
100
AcDbEntity
  8
0
100
AcDbBlockEnd
  0
BLOCK
  5
1444
330
13DC
100
AcDbEntity
  8
0
100
AcDbBlockBegin
  2
*D13
 70
     1
 10
0.0
 20
0.0
 30
0.0
  3
*D13
  1

  0
LINE
  5
1685
330
13DC
100
AcDbEntity
  8
5
370
    -2
100
AcDbLine
 10
516.8806605316488
 20
363.8651993504623
 30
0.0
 11
702.9843327524336
 21
363.8651993504622
 31
0.0
  0
LINE
  5
1686
330
13DC
100
AcDbEntity
  8
5
370
    -2
100
AcDbLine
 10
651.8516605316485
 20
287.8651993504623
 30
0.0
 11
702.9843327524336
 21
287.8651993504623
 31
0.0
  0
LINE
  5
1687
330
13DC
100
AcDbEntity
  8
5
370
    -2
100
AcDbLine
 10
697.9843327524336
 20
338.8651993504622
 30
0.0
 11
697.9843327524336
 21
312.8651993504623
 31
0.0
  0
SOLID
  5
1688
330
13DC
100
AcDbEntity
  8
5
100
AcDbTrace
 10
693.817666085767
 20
338.8651993504622
 30
0.0
 11
702.1509994191002
 21
338.8651993504622
 31
0.0
 12
697.9843327524336
 22
363.8651993504622
 32
0.0
 13
697.9843327524336
 23
363.8651993504622
 33
0.0
  0
SOLID
  5
1689
330
13DC
100
AcDbEntity
  8
5
100
AcDbTrace
 10
693.817666085767
 20
312.8651993504623
 30
0.0
 11
702.1509994191002
 21
312.8651993504623
 31
0.0
 12
697.9843327524336
 22
287.8651993504623
 32
0.0
 13
697.9843327524336
 23
287.8651993504623
 33
0.0
  0
MTEXT
  5
168A
330
13DC
100
AcDbEntity
  8
5
 62
     2
100
AcDbMText
 10
684.9843327524334
 20
325.8651993504623
 30
0.0
 40
20.0
 41
0.0
 71
     5
 72
     1
  1
76
 11
0.0000000000000001
 21
1.0
 31
0.0
 73
     1
 44
1.0
1001
ACAD
1000
MTEXTBEGIN
1070
    73
1070
     1
1070
    44
1040
1.0
1070
    74
1070
     0
1000
MTEXTEND
  0
POINT
  5
168B
330
13DC
100
AcDbEntity
  8
DEFPOINTS
 62
     0
100
AcDbPoint
 10
511.8806605316487
 20
363.8651993504623
 30
0.0
  0
POINT
  5
168C
330
13DC
100
AcDbEntity
  8
DEFPOINTS
 62
     0
100
AcDbPoint
 10
646.8516605316485
 20
287.8651993504623
 30
0.0
  0
POINT
  5
168D
330
13DC
100
AcDbEntity
  8
DEFPOINTS
 62
     0
100
AcDbPoint
 10
697.9843327524336
 20
287.8651993504623
 30
0.0
  0
ENDBLK
  5
144E
330
13DC
100
AcDbEntity
  8
0
100
AcDbBlockEnd
  0
ENDSEC
  0
SECTION
  2
ENTITIES
  0
LINE
  5
1001
330
12C5
100
AcDbEntity
  8
MAßLINIEN
 62
     4
100
AcDbLine
 10
336.8516605316487
 20
387.2511993504622
 30
0.0
 11
336.8516605316487
 21
254.0431993504622
 31
0.0
  0
LINE
  5
1002
330
12C5
100
AcDbEntity
  8
0
100
AcDbLine
 10
436.8516605316487
 20
367.8651993504623
 30
0.0
 11
236.8516605316487
 21
367.8651993504623
 31
0.0
  0
LINE
  5
1003
330
12C5
100
AcDbEntity
  8
0
100
AcDbLine
 10
430.5136605316486
 20
351.8651993504623
 30
0.0
 11
350.2896605316487
 21
351.8651993504623
 31
0.0
  0
LINE
  5
1004
330
12C5
100
AcDbEntity
  8
0
100
AcDbLine
 10
430.3296605316487
 20
348.3651993504623
 30
0.0
 11
423.7346605316487
 21
348.3651993504623
 31
0.0
  0
LINE
  5
1005
330
12C5
100
AcDbEntity
  8
0
100
AcDbLine
 10
349.3516605316487
 20
348.3651993504623
 30
0.0
 11
350.2896605316487
 21
351.8651993504623
 31
0.0
  0
LINE
  5
1006
330
12C5
100
AcDbEntity
  8
0
100
AcDbLine
 10
324.3516605316487
 20
348.3651993504623
 30
0.0
 11
323.4136605316487
 21
351.8651993504623
 31
0.0
  0
LINE
  5
1007
330
12C5
100
AcDbEntity
  8
0
100
AcDbLine
 10
249.9686605316487
 20
348.3651993504623
 30
0.0
 11
243.3736605316487
 21
348.3651993504623
 31
0.0
  0
LINE
  5
1008
330
12C5
100
AcDbEntity
  8
0
100
AcDbLine
 10
349.3516605316487
 20
348.3651993504623
 30
0.0
 11
324.3516605316487
 21
348.3651993504623
 31
0.0
  0
LINE
  5
1009
330
12C5
100
AcDbEntity
  8
0
100
AcDbLine
 10
323.4136605316487
 20
351.8651993504623
 30
0.0
 11
243.1906605316487
 21
351.8651993504623
 31
0.0
  0
LINE
  5
100A
330
12C5
100
AcDbEntity
  8
0
100
AcDbLine
 10
249.3516605316487
 20
351.8651993504623
 30
0.0
 11
251.3506605316487
 21
340.5231993504623
 31
0.0
  0
LINE
  5
100B
330
12C5
100
AcDbEntity
  8
0
100
AcDbLine
 10
424.3516605316487
 20
351.8651993504623
 30
0.0
 11
422.3516605316486
 21
340.5231993504623
 31
0.0
  0
LINE
  5
100C
330
12C5
100
AcDbEntity
  8
0
100
AcDbLine
 10
422.3516605316486
 20
340.5231993504623
 30
0.0
 11
251.3516605316487
 21
340.5231993504623
 31
0.0
  0
LINE
  5
100D
330
12C5
100
AcDbEntity
  8
0
100
AcDbLine
 10
242.3516605316487
 20
367.8651993504623
 30
0.0
 11
243.3736605316487
 21
348.3651993504623
 31
0.0
  0
LINE
  5
100E
330
12C5
100
AcDbEntity
  8
0
100
AcDbLine
 10
431.3516605316486
 20
367.8651993504623
 30
0.0
 11
430.3296605316487
 21
348.3651993504623
 31
0.0
  0
LINE
  5
100F
330
12C5
100
AcDbEntity
  8
0
100
AcDbLine
 10
509.7566605316487
 20
353.8651993504623
 30
0.0
 11
499.6926605316486
 21
353.8651993504623
 31
0.0
  0
LINE
  5
1010
330
12C5
100
AcDbEntity
  8
0
100
AcDbLine
 10
517.4986605316487
 20
351.4491993504622
 30
0.0
 11
514.6686605316485
 21
362.0121993504622
 31
0.0
  0
ARC
  5
1011
330
12C5
100
AcDbEntity
  8
0
100
AcDbCircle
 10
512.2536605316486
 20
361.3651993504622
 30
0.0
 40
2.5
100
AcDbArc
 50
15.0
 51
107.0
  0
LINE
  5
1012
330
12C5
100
AcDbEntity
  8
0
100
AcDbLine
 10
511.5226605316486
 20
363.7561993504622
 30
0.0
 11
482.8516605316487
 21
354.9901993504623
 31
0.0
  0
LINE
  5
1013
330
12C5
100
AcDbEntity
  8
0
100
AcDbLine
 10
499.6926605316486
 20
353.8651993504623
 30
0.0
 11
484.0026605316486
 21
349.0681993504622
 31
0.0
  0
LINE
  5
1014
330
12C5
100
AcDbEntity
  8
0
100
AcDbLine
 10
162.7856605316487
 20
363.5701993504622
 30
0.0
 11
190.8516605316486
 21
354.9901993504623
 31
0.0
  0
LINE
  5
1015
330
12C5
100
AcDbEntity
  8
0
100
AcDbLine
 10
167.8256605316487
 20
355.7561993504622
 30
0.0
 11
189.7006605316487
 21
349.0681993504622
 31
0.0
  0
LINE
  5
1016
330
12C5
100
AcDbEntity
  8
0
100
AcDbLine
 10
190.8516605316486
 20
354.9901993504623
 30
0.0
 11
205.2136605316487
 21
353.7341993504622
 31
0.0
  0
LINE
  5
1017
330
12C5
100
AcDbEntity
  8
0
100
AcDbLine
 10
482.8516605316487
 20
354.9901993504623
 30
0.0
 11
468.4896605316487
 21
353.7341993504622
 31
0.0
  0
ARC
  5
1018
330
12C5
100
AcDbEntity
  8
0
100
AcDbCircle
 10
211.8516605316487
 20
333.8651993504623
 30
0.0
 40
12.0
100
AcDbArc
 50
190.243
 51
350.0
  0
LINE
  5
1019
330
12C5
100
AcDbEntity
  8
0
100
AcDbLine
 10
484.0026605316486
 20
349.0681993504622
 30
0.0
 11
461.6976605316486
 21
347.1171993504622
 31
0.0
  0
LINE
  5
101A
330
12C5
100
AcDbEntity
  8
0
100
AcDbLine
 10
189.7006605316487
 20
349.0681993504622
 30
0.0
 11
195.1896605316486
 21
348.5881993504622
 31
0.0
  0
LINE
  5
101B
330
12C5
100
AcDbEntity
  8
0
100
AcDbLine
 10
223.6686605316487
 20
331.7811993504622
 30
0.0
 11
225.7566605316487
 21
343.6221993504622
 31
0.0
  0
LINE
  5
101C
330
12C5
100
AcDbEntity
  8
0
100
AcDbLine
 10
200.0346605316487
 20
331.7811993504622
 30
0.0
 11
197.4336605316486
 21
346.5321993504622
 31
0.0
  0
LINE
  5
101D
330
12C5
100
AcDbEntity
  8
0
100
AcDbLine
 10
228.4376605316487
 20
345.6791993504622
 30
0.0
 11
239.1716605316487
 21
344.7401993504623
 31
0.0
  0
ARC
  5
101E
330
12C5
100
AcDbEntity
  8
0
100
AcDbCircle
 10
194.9716605316486
 20
346.0971993504622
 30
0.0
 40
2.5
100
AcDbArc
 50
10.001
 51
85.0
  0
ARC
  5
101F
330
12C5
100
AcDbEntity
  8
0
100
AcDbCircle
 10
228.2196605316487
 20
343.1881993504622
 30
0.0
 40
2.5
100
AcDbArc
 50
84.999
 51
170.0009999999999
  0
LINE
  5
1020
330
12C5
100
AcDbEntity
  8
0
100
AcDbLine
 10
460.3716605316487
 20
347.0011993504622
 30
0.0
 11
434.5306605316486
 21
344.7401993504623
 31
0.0
  0
LINE
  5
1021
330
12C5
100
AcDbEntity
  8
0
100
AcDbLine
 10
440.3226605316486
 20
355.8651993504623
 30
0.0
 11
430.7226605316486
 21
355.8651993504623
 31
0.0
  0
LINE
  5
1022
330
12C5
100
AcDbEntity
  8
0
100
AcDbLine
 10
242.9806605316487
 20
355.8651993504623
 30
0.0
 11
235.8016605316487
 21
355.8651993504623
 31
0.0
  0
LINE
  5
1023
330
12C5
100
AcDbEntity
  8
0
100
AcDbLine
 10
216.8516605316487
 20
352.7161993504623
 30
0.0
 11
230.3416605316487
 21
351.5351993504622
 31
0.0
  0
LINE
  5
1024
330
12C5
100
AcDbEntity
  8
0
100
AcDbLine
 10
216.8516605316487
 20
352.6281993504622
 30
0.0
 11
205.8516605316487
 21
352.6281993504622
 31
0.0
  0
LINE
  5
1025
330
12C5
100
AcDbEntity
  8
0
100
AcDbLine
 10
205.8516605316487
 20
352.6281993504622
 30
0.0
 11
205.2126605316487
 21
353.7341993504622
 31
0.0
  0
LINE
  5
1026
330
12C5
100
AcDbEntity
  8
0
100
AcDbLine
 10
455.8536605316486
 20
352.6281993504622
 30
0.0
 11
440.8096605316487
 21
351.3121993504622
 31
0.0
  0
LINE
  5
1027
330
12C5
100
AcDbEntity
  8
0
100
AcDbLine
 10
438.3846605316486
 20
352.6281993504622
 30
0.0
 11
440.2946605316487
 21
352.6281993504622
 31
0.0
  0
LINE
  5
1028
330
12C5
100
AcDbEntity
  8
0
100
AcDbLine
 10
467.8516605316486
 20
352.6281993504622
 30
0.0
 11
468.4896605316487
 21
353.7341993504622
 31
0.0
  0
LINE
  5
1029
330
12C5
100
AcDbEntity
  8
0
100
AcDbLine
 10
207.8516605316487
 20
340.1281993504622
 30
0.0
 11
207.8516605316487
 21
332.1281993504622
 31
0.0
  0
LINE
  5
102A
330
12C5
100
AcDbEntity
  8
0
100
AcDbLine
 10
215.8516605316487
 20
340.1281993504622
 30
0.0
 11
215.8516605316487
 21
332.1281993504622
 31
0.0
  0
LINE
  5
102B
330
12C5
100
AcDbEntity
  8
0
100
AcDbLine
 10
216.8516605316487
 20
352.6281993504622
 30
0.0
 11
216.8516605316487
 21
341.1281993504622
 31
0.0
  0
LINE
  5
102C
330
12C5
100
AcDbEntity
  8
0
100
AcDbLine
 10
206.8516605316486
 20
352.6281993504622
 30
0.0
 11
206.8516605316486
 21
341.1281993504622
 31
0.0
  0
LINE
  5
102D
330
12C5
100
AcDbEntity
  8
0
100
AcDbLine
 10
206.8516605316486
 20
337.6281993504622
 30
0.0
 11
216.8516605316487
 21
337.6281993504622
 31
0.0
  0
LINE
  5
102E
330
12C5
100
AcDbEntity
  8
0
100
AcDbLine
 10
215.8516605316487
 20
332.1281993504622
 30
0.0
 11
207.8516605316487
 21
332.1281993504622
 31
0.0
  0
LINE
  5
102F
330
12C5
100
AcDbEntity
  8
0
100
AcDbLine
 10
468.4896605316487
 20
353.7331993504622
 30
0.0
 11
450.2876605316486
 21
353.7331993504622
 31
0.0
  0
LINE
  5
1030
330
12C5
100
AcDbEntity
  8
0
100
AcDbLine
 10
205.2136605316487
 20
353.7341993504622
 30
0.0
 11
206.8516605316486
 21
353.7341993504622
 31
0.0
  0
LINE
  5
1031
330
12C5
100
AcDbEntity
  8
0
100
AcDbLine
 10
215.8516605316487
 20
332.1281993504622
 30
0.0
 11
211.8516605316487
 21
329.8191993504622
 31
0.0
  0
LINE
  5
1032
330
12C5
100
AcDbEntity
  8
0
100
AcDbLine
 10
207.8516605316487
 20
332.1281993504622
 30
0.0
 11
211.8516605316487
 21
329.8191993504622
 31
0.0
  0
LINE
  5
1033
330
12C5
100
AcDbEntity
  8
0
100
AcDbLine
 10
294.0966605316487
 20
355.8651993504623
 30
0.0
 11
285.9436605316487
 21
355.8651993504623
 31
0.0
  0
LINE
  5
1034
330
12C5
100
AcDbEntity
  8
0
100
AcDbLine
 10
283.5166605316487
 20
357.7671993504622
 30
0.0
 11
281.0276605316487
 21
367.8651993504623
 31
0.0
  0
LINE
  5
1035
330
12C5
100
AcDbEntity
  8
0
100
AcDbLine
 10
292.0336605316487
 20
357.4801993504623
 30
0.0
 11
295.9636605316486
 21
367.8651993504623
 31
0.0
  0
LINE
  5
1036
330
12C5
100
AcDbEntity
  8
0
100
AcDbLine
 10
298.7296605316487
 20
367.8651993504623
 30
0.0
 11
296.5386605316487
 21
357.8321993504622
 31
0.0
  0
ARC
  5
1037
330
12C5
100
AcDbEntity
  8
0
100
AcDbCircle
 10
289.6956605316487
 20
358.3651993504623
 30
0.0
 40
2.5
100
AcDbArc
 50
270.002
 51
339.271
  0
ARC
  5
1038
330
12C5
100
AcDbEntity
  8
0
100
AcDbCircle
 10
294.0966605316487
 20
358.3651993504623
 30
0.0
 40
2.5
100
AcDbArc
 50
269.998
 51
347.683
  0
ARC
  5
1039
330
12C5
100
AcDbEntity
  8
0
100
AcDbCircle
 10
285.9436605316487
 20
358.3651993504623
 30
0.0
 40
2.5
100
AcDbArc
 50
193.844
 51
269.998
  0
LINE
  5
103A
330
12C5
100
AcDbEntity
  8
0
100
AcDbLine
 10
379.6066605316487
 20
355.8651993504623
 30
0.0
 11
387.7596605316487
 21
355.8651993504623
 31
0.0
  0
LINE
  5
103B
330
12C5
100
AcDbEntity
  8
0
100
AcDbLine
 10
390.1866605316487
 20
357.7671993504622
 30
0.0
 11
392.6756605316487
 21
367.8651993504623
 31
0.0
  0
LINE
  5
103C
330
12C5
100
AcDbEntity
  8
0
100
AcDbLine
 10
381.6696605316487
 20
357.4801993504623
 30
0.0
 11
377.7386605316487
 21
367.8661993504622
 31
0.0
  0
LINE
  5
103D
330
12C5
100
AcDbEntity
  8
0
100
AcDbLine
 10
374.9736605316487
 20
367.8651993504623
 30
0.0
 11
377.1646605316487
 21
357.8321993504622
 31
0.0
  0
ARC
  5
103E
330
12C5
100
AcDbEntity
  8
0
100
AcDbCircle
 10
384.0076605316486
 20
358.3651993504623
 30
0.0
 40
2.5
100
AcDbArc
 50
200.729
 51
269.998
  0
ARC
  5
103F
330
12C5
100
AcDbEntity
  8
0
100
AcDbCircle
 10
379.6066605316487
 20
358.3651993504623
 30
0.0
 40
2.5
100
AcDbArc
 50
192.317
 51
270.003
  0
ARC
  5
1040
330
12C5
100
AcDbEntity
  8
0
100
AcDbCircle
 10
387.7596605316487
 20
358.3651993504623
 30
0.0
 40
2.5
100
AcDbArc
 50
270.002
 51
346.156
  0
LINE
  5
1041
330
12C5
100
AcDbEntity
  8
0
100
AcDbLine
 10
230.3416605316487
 20
351.5351993504622
 30
0.0
 11
232.8936605316487
 21
351.3121993504622
 31
0.0
  0
LINE
  5
1042
330
12C5
100
AcDbEntity
  8
0
100
AcDbLine
 10
236.8516605316487
 20
367.8651993504623
 30
0.0
 11
235.6026605316487
 21
353.5851993504623
 31
0.0
  0
ARC
  5
1043
330
12C5
100
AcDbEntity
  8
0
100
AcDbCircle
 10
233.1116605316487
 20
353.8031993504623
 30
0.0
 40
2.5
100
AcDbArc
 50
265.0
 51
355.0019999999999
  0
LINE
  5
1044
330
12C5
100
AcDbEntity
  8
0
100
AcDbLine
 10
436.8516605316487
 20
367.8651993504623
 30
0.0
 11
438.1006605316486
 21
353.5851993504623
 31
0.0
  0
ARC
  5
1045
330
12C5
100
AcDbEntity
  8
0
100
AcDbCircle
 10
440.5916605316487
 20
353.8031993504623
 30
0.0
 40
2.5
100
AcDbArc
 50
184.999
 51
274.998
  0
LINE
  5
1046
330
12C5
100
AcDbEntity
  8
4
100
AcDbLine
 10
528.4796605316487
 20
291.1481993504623
 30
0.0
 11
512.1716605316487
 21
352.0121993504622
 31
0.0
  0
ARC
  5
1047
330
12C5
100
AcDbEntity
  8
0
100
AcDbCircle
 10
509.7566605316487
 20
351.3651993504623
 30
0.0
 40
2.5
100
AcDbArc
 50
14.999
 51
90.0
  0
LINE
  5
1048
330
12C5
100
AcDbEntity
  8
0
100
AcDbLine
 10
417.8516605316486
 20
297.8651993504623
 30
0.0
 11
255.4296605316487
 21
297.8651993504623
 31
0.0
  0
LINE
  5
1049
330
12C5
100
AcDbEntity
  8
0
100
AcDbLine
 10
418.6216605316486
 20
302.8651993504622
 30
0.0
 11
255.0796605316486
 21
302.8651993504622
 31
0.0
  0
LINE
  5
104A
330
12C5
100
AcDbEntity
  8
0
100
AcDbLine
 10
253.4836605316487
 20
279.4361993504622
 30
0.0
 11
252.9306605316487
 21
295.2781993504623
 31
0.0
  0
ARC
  5
104B
330
12C5
100
AcDbEntity
  8
0
100
AcDbCircle
 10
418.6216605316486
 20
305.3651993504623
 30
0.0
 40
2.5
100
AcDbArc
 50
270.0
 51
0.0
  0
LINE
  5
104C
330
12C5
100
AcDbEntity
  8
0
100
AcDbLine
 10
417.8516605316486
 20
302.8651993504622
 30
0.0
 11
417.8516605316486
 21
298.0011993504622
 31
0.0
  0
ARC
  5
104D
330
12C5
100
AcDbEntity
  8
0
100
AcDbCircle
 10
255.0796605316486
 20
305.3651993504623
 30
0.0
 40
2.5
100
AcDbArc
 50
182.0
 51
269.997
  0
LINE
  5
104E
330
12C5
100
AcDbEntity
  8
0
100
AcDbLine
 10
255.8516605316487
 20
302.8651993504622
 30
0.0
 11
255.8516605316487
 21
297.8651993504623
 31
0.0
  0
LINE
  5
104F
330
12C5
100
AcDbEntity
  8
0
100
AcDbLine
 10
252.5816605316486
 20
305.2781993504623
 30
0.0
 11
251.3506605316487
 21
340.5231993504623
 31
0.0
  0
ARC
  5
1050
330
12C5
100
AcDbEntity
  8
0
100
AcDbCircle
 10
255.4296605316487
 20
295.3651993504623
 30
0.0
 40
2.5
100
AcDbArc
 50
90.00499999999998
 51
182.0
  0
LINE
  5
1051
330
12C5
100
AcDbEntity
  8
0
100
AcDbLine
 10
248.4866605316487
 20
279.2621993504622
 30
0.0
 11
246.4686605316487
 21
337.0501993504622
 31
0.0
  0
LINE
  5
1052
330
12C5
100
AcDbEntity
  8
0
100
AcDbLine
 10
426.2016605316486
 20
307.5161993504622
 30
0.0
 11
427.2816605316487
 21
338.4371993504623
 31
0.0
  0
LINE
  5
1053
330
12C5
100
AcDbEntity
  8
0
100
AcDbLine
 10
421.1206605316487
 20
305.2781993504623
 30
0.0
 11
422.3516605316486
 21
340.5231993504623
 31
0.0
  0
ARC
  5
1054
330
12C5
100
AcDbEntity
  8
0
100
AcDbCircle
 10
435.2286605316486
 20
336.7701993504622
 30
0.0
 40
8.0
100
AcDbArc
 50
95.0
 51
178.0
  0
ARC
  5
1055
330
12C5
100
AcDbEntity
  8
0
100
AcDbCircle
 10
238.4746605316487
 20
336.7701993504622
 30
0.0
 40
8.0
100
AcDbArc
 50
2.0
 51
85.0
  0
ARC
  5
1056
330
12C5
100
AcDbEntity
  8
0
100
AcDbCircle
 10
416.2076605316486
 20
307.8651993504623
 30
0.0
 40
10.0
100
AcDbArc
 50
270.0
 51
358.0
  0
LINE
  5
1057
330
12C5
100
AcDbEntity
  8
0
100
AcDbLine
 10
643.9726605316486
 20
232.9401993504622
 30
0.0
 11
649.7296605316487
 21
342.7901993504622
 31
0.0
  0
LINE
  5
1058
330
12C5
100
AcDbEntity
  8
0
100
AcDbLine
 10
519.7826605316485
 20
349.6001993504623
 30
0.0
 11
649.7296605316487
 21
342.7901993504622
 31
0.0
  0
LINE
  5
1059
330
12C5
100
AcDbEntity
  8
MAßLINIEN
 62
     4
100
AcDbLine
 10
517.4706605316487
 20
294.6461993504622
 30
0.0
 11
652.2066605316486
 21
287.5841993504622
 31
0.0
  0
LINE
  5
105A
330
12C5
100
AcDbEntity
  8
0
100
AcDbLine
 10
519.8836605316487
 20
344.5881993504622
 30
0.0
 11
624.5026605316486
 21
339.1051993504623
 31
0.0
  0
LINE
  5
105B
330
12C5
100
AcDbEntity
  8
0
100
AcDbLine
 10
619.2686605316487
 20
239.2421993504622
 30
0.0
 11
624.5026605316486
 21
339.1051993504623
 31
0.0
  0
LINE
  5
105C
330
12C5
100
AcDbEntity
  8
0
100
AcDbLine
 10
624.5026605316486
 20
339.1051993504623
 30
0.0
 11
649.3636605316488
 21
335.7991993504622
 31
0.0
  0
LINE
  5
105D
330
12C5
100
AcDbEntity
  8
0
100
AcDbLine
 10
619.2686605316487
 20
239.2421993504622
 30
0.0
 11
644.3396605316486
 21
239.9311993504622
 31
0.0
  0
ARC
  5
105E
330
12C5
100
AcDbEntity
  8
0
100
AcDbCircle
 10
519.9136605316486
 20
352.0961993504623
 30
0.0
 40
2.5
100
AcDbArc
 50
194.999
 51
267.0
  0
ARC
  5
105F
330
12C5
100
AcDbEntity
  8
0
100
AcDbCircle
 10
520.3026605316486
 20
352.5771993504623
 30
0.0
 40
8.0
100
AcDbArc
 50
194.999
 51
267.0
  0
LINE
  5
1060
330
12C5
100
AcDbEntity
  8
0
100
AcDbLine
 10
275.0046605316486
 20
252.2771993504622
 30
0.0
 11
643.9726605316486
 21
232.9401993504622
 31
0.0
  0
LINE
  5
1061
330
12C5
100
AcDbEntity
  8
0
100
AcDbLine
 10
275.2666605316487
 20
257.2701993504622
 30
0.0
 11
619.2686605316487
 21
239.2421993504622
 31
0.0
  0
ARC
  5
1062
330
12C5
100
AcDbEntity
  8
0
100
AcDbCircle
 10
276.4706605316487
 20
280.2391993504622
 30
0.0
 40
28.0
100
AcDbArc
 50
182.0
 51
267.0
  0
ARC
  5
1063
330
12C5
100
AcDbEntity
  8
0
100
AcDbCircle
 10
276.4706605316487
 20
280.2391993504622
 30
0.0
 40
23.0
100
AcDbArc
 50
182.0
 51
267.0
  0
LINE
  5
1064
330
12C5
100
AcDbEntity
  8
0
100
AcDbLine
 10
321.8716605316487
 20
246.8171993504622
 30
0.0
 11
351.8306605316487
 21
245.2471993504622
 31
0.0
  0
LINE
  5
1065
330
12C5
100
AcDbEntity
  8
0
100
AcDbLine
 10
351.8306605316487
 20
245.2471993504622
 30
0.0
 11
356.6016605316487
 21
248.0011993504622
 31
0.0
  0
LINE
  5
1066
330
12C5
100
AcDbEntity
  8
0
100
AcDbLine
 10
316.1496605316487
 20
250.1211993504622
 30
0.0
 11
321.8716605316487
 21
246.8171993504622
 31
0.0
  0
LINE
  5
1067
330
12C5
100
AcDbEntity
  8
0
100
AcDbLine
 10
173.8516605316486
 20
369.8651993504622
 30
0.0
 11
202.4046605316486
 21
369.8651993504622
 31
0.0
  0
LINE
  5
1068
330
12C5
100
AcDbEntity
  8
0
100
AcDbLine
 10
233.3796605316487
 20
355.8651993504623
 30
0.0
 11
235.8016605316487
 21
355.8651993504623
 31
0.0
  0
LINE
  5
1069
330
12C5
100
AcDbEntity
  8
0
100
AcDbLine
 10
439.8516605316486
 20
364.8651993504623
 30
0.0
 11
450.8496605316486
 21
365.4411993504622
 31
0.0
  0
LINE
  5
106A
330
12C5
100
AcDbEntity
  8
0
100
AcDbLine
 10
222.8536605316487
 20
365.4411993504622
 30
0.0
 11
233.8516605316487
 21
364.8651993504623
 31
0.0
  0
LINE
  5
106B
330
12C5
100
AcDbEntity
  8
0
100
AcDbLine
 10
200.1226605316487
 20
365.4411993504622
 30
0.0
 11
206.8516605316486
 21
365.4411993504622
 31
0.0
  0
LINE
  5
106C
330
12C5
100
AcDbEntity
  8
0
100
AcDbLine
 10
233.5156605316487
 20
358.4501993504622
 30
0.0
 11
233.8516605316487
 21
364.8651993504623
 31
0.0
  0
LINE
  5
106D
330
12C5
100
AcDbEntity
  8
0
100
AcDbLine
 10
440.1876605316486
 20
358.4501993504622
 30
0.0
 11
439.8516605316486
 21
364.8651993504623
 31
0.0
  0
LINE
  5
106E
330
12C5
100
AcDbEntity
  8
0
100
AcDbLine
 10
190.8516605316486
 20
359.5861993504623
 30
0.0
 11
206.8516605316486
 21
358.1861993504622
 31
0.0
  0
LINE
  5
106F
330
12C5
100
AcDbEntity
  8
0
100
AcDbLine
 10
440.3236605316486
 20
355.8651993504623
 30
0.0
 11
482.8516605316487
 21
359.5861993504623
 31
0.0
  0
ARC
  5
1070
330
12C5
100
AcDbEntity
  8
0
100
AcDbCircle
 10
231.0186605316487
 20
358.5811993504623
 30
0.0
 40
2.5
100
AcDbArc
 50
265.001
 51
357.0
  0
LINE
  5
1071
330
12C5
100
AcDbEntity
  8
0
100
AcDbLine
 10
204.5126605316486
 20
360.6811993504622
 30
0.0
 11
205.3516605316487
 21
365.4411993504622
 31
0.0
  0
LINE
  5
1072
330
12C5
100
AcDbEntity
  8
0
100
AcDbLine
 10
219.4976605316487
 20
358.9401993504622
 30
0.0
 11
218.3516605316487
 21
365.4411993504622
 31
0.0
  0
ARC
  5
1073
330
12C5
100
AcDbEntity
  8
0
100
AcDbCircle
 10
221.9596605316487
 20
359.3741993504623
 30
0.0
 40
2.5
100
AcDbArc
 50
190.0
 51
265.0
  0
ARC
  5
1074
330
12C5
100
AcDbEntity
  8
0
100
AcDbCircle
 10
202.0506605316487
 20
361.1151993504623
 30
0.0
 40
2.5
100
AcDbArc
 50
265.0
 51
350.0
  0
ARC
  5
1075
330
12C5
100
AcDbEntity
  8
0
100
AcDbCircle
 10
442.6846605316486
 20
358.5811993504623
 30
0.0
 40
2.5
100
AcDbArc
 50
183.0
 51
275.0
  0
LINE
  5
1076
330
12C5
100
AcDbEntity
  8
0
100
AcDbLine
 10
476.9086605316486
 20
368.7701993504622
 30
0.0
 11
497.7466605316487
 21
369.8621993504622
 31
0.0
  0
LINE
  5
1077
330
12C5
100
AcDbEntity
  8
0
100
AcDbLine
 10
473.5796605316487
 20
365.4421993504623
 30
0.0
 11
476.9086605316486
 21
368.7701993504622
 31
0.0
  0
LINE
  5
1078
330
12C5
100
AcDbEntity
  8
0
100
AcDbLine
 10
175.9566605316487
 20
369.8621993504622
 30
0.0
 11
196.7946605316486
 21
368.7701993504622
 31
0.0
  0
LINE
  5
1079
330
12C5
100
AcDbEntity
  8
0
100
AcDbLine
 10
200.1226605316487
 20
365.4421993504623
 30
0.0
 11
196.7946605316486
 21
368.7701993504622
 31
0.0
  0
LINE
  5
107A
330
12C5
100
AcDbEntity
  8
0
100
AcDbLine
 10
499.8516605316486
 20
369.8651993504622
 30
0.0
 11
499.8516605316486
 21
367.5241993504623
 31
0.0
  0
LINE
  5
107B
330
12C5
100
AcDbEntity
  8
0
100
AcDbLine
 10
173.8516605316486
 20
369.8651993504622
 30
0.0
 11
173.8516605316486
 21
367.5241993504623
 31
0.0
  0
LINE
  5
107C
330
12C5
100
AcDbEntity
  8
4
100
AcDbLine
 10
233.5156605316487
 20
358.4501993504622
 30
0.0
 11
233.3806605316487
 21
355.8651993504623
 31
0.0
  0
LINE
  5
107D
330
12C5
100
AcDbEntity
  8
0
100
AcDbLine
 10
175.4966605316487
 20
365.1741993504622
 30
0.0
 11
190.8516605316486
 21
359.5861993504623
 31
0.0
  0
ARC
  5
107E
330
12C5
100
AcDbEntity
  8
0
100
AcDbCircle
 10
176.3516605316486
 20
367.5241993504623
 30
0.0
 40
2.5
100
AcDbArc
 50
180.0
 51
250.0
  0
LINE
  5
107F
330
12C5
100
AcDbEntity
  8
0
100
AcDbLine
 10
482.8516605316487
 20
359.5861993504623
 30
0.0
 11
498.2066605316486
 21
365.1741993504622
 31
0.0
  0
ARC
  5
1080
330
12C5
100
AcDbEntity
  8
0
100
AcDbCircle
 10
497.3516605316486
 20
367.5241993504623
 30
0.0
 40
2.5
100
AcDbArc
 50
290.0
 51
0.0
  0
LINE
  5
1081
330
12C5
100
AcDbEntity
  8
0
100
AcDbLine
 10
378.8746605316487
 20
364.8651993504623
 30
0.0
 11
391.9366605316487
 21
364.8651993504623
 31
0.0
  0
LINE
  5
1082
330
12C5
100
AcDbEntity
  8
0
100
AcDbLine
 10
221.3036605316487
 20
369.8651993504622
 30
0.0
 11
327.4026605316487
 21
369.8651993504622
 31
0.0
  0
LINE
  5
1083
330
12C5
100
AcDbEntity
  8
0
100
AcDbLine
 10
216.8516605316487
 20
365.4411993504622
 30
0.0
 11
222.8536605316487
 21
365.4411993504622
 31
0.0
  0
LINE
  5
1084
330
12C5
100
AcDbEntity
  8
0
100
AcDbLine
 10
216.8516605316487
 20
353.7341993504622
 30
0.0
 11
235.6106605316487
 21
353.7341993504622
 31
0.0
  0
LINE
  5
1085
330
12C5
100
AcDbEntity
  8
0
100
AcDbLine
 10
216.8516605316487
 20
357.3111993504622
 30
0.0
 11
233.3796605316487
 21
355.8651993504623
 31
0.0
  0
LINE
  5
1086
330
12C5
100
AcDbEntity
  8
0
100
AcDbLine
 10
437.0636605316486
 20
365.4411993504622
 30
0.0
 11
440.2946605316487
 21
365.4411993504622
 31
0.0
  0
LINE
  5
1087
330
12C5
100
AcDbEntity
  8
0
100
AcDbLine
 10
437.1136605316486
 20
364.8651993504623
 30
0.0
 11
439.8516605316486
 21
364.8651993504623
 31
0.0
  0
LINE
  5
1088
330
12C5
100
AcDbEntity
  8
0
100
AcDbLine
 10
233.8516605316487
 20
364.8651993504623
 30
0.0
 11
236.5896605316487
 21
364.8651993504623
 31
0.0
  0
LINE
  5
1089
330
12C5
100
AcDbEntity
  8
0
100
AcDbLine
 10
281.7666605316487
 20
364.8651993504623
 30
0.0
 11
294.8286605316487
 21
364.8651993504623
 31
0.0
  0
LINE
  5
108A
330
12C5
100
AcDbEntity
  8
0
100
AcDbLine
 10
196.7946605316486
 20
368.7701993504622
 30
0.0
 11
329.7646605316487
 21
368.7701993504622
 31
0.0
  0
ARC
  5
108B
330
12C5
100
AcDbEntity
  8
0
100
AcDbCircle
 10
336.8516605316487
 20
362.5951993504623
 30
0.0
 40
14.175
100
AcDbArc
 50
70.53499999999999
 51
109.461
  0
ARC
  5
108C
330
12C5
100
AcDbEntity
  8
0
100
AcDbCircle
 10
336.8516605316487
 20
382.9451993504622
 30
0.0
 40
14.175
100
AcDbArc
 50
250.541
 51
289.467
  0
LINE
  5
108D
330
12C5
100
AcDbEntity
  8
0
100
AcDbLine
 10
341.5786605316487
 20
369.5811993504623
 30
0.0
 11
341.5786605316487
 21
375.9591993504622
 31
0.0
  0
LINE
  5
108E
330
12C5
100
AcDbEntity
  8
0
100
AcDbLine
 10
332.1296605316487
 20
369.5831993504622
 30
0.0
 11
332.1286605316486
 21
375.9571993504622
 31
0.0
  0
LINE
  5
108F
330
12C5
100
AcDbEntity
  8
0
100
AcDbLine
 10
343.7436605316486
 20
368.7701993504622
 30
0.0
 11
329.9626605316487
 21
368.7701993504622
 31
0.0
  0
LINE
  5
1090
330
12C5
100
AcDbEntity
  8
0
100
AcDbLine
 10
343.7406605316487
 20
376.7701993504622
 30
0.0
 11
329.9626605316487
 21
376.7701993504622
 31
0.0
  0
LINE
  5
1091
330
12C5
100
AcDbEntity
  8
0
100
AcDbLine
 10
346.3016605316487
 20
369.5811993504623
 30
0.0
 11
345.3906605316487
 21
369.0541993504622
 31
0.0
  0
ARC
  5
1092
330
12C5
100
AcDbEntity
  8
0
100
AcDbCircle
 10
343.9396605316487
 20
372.6171993504622
 30
0.0
 40
3.846999999999999
100
AcDbArc
 50
232.15
 51
292.155
  0
LINE
  5
1093
330
12C5
100
AcDbEntity
  8
0
100
AcDbLine
 10
346.3036605316486
 20
369.5831993504622
 30
0.0
 11
346.3046605316487
 21
375.9581993504622
 31
0.0
  0
ARC
  5
1094
330
12C5
100
AcDbEntity
  8
0
100
AcDbCircle
 10
343.9396605316487
 20
372.9221993504622
 30
0.0
 40
3.848
100
AcDbArc
 50
67.765
 51
127.832
  0
LINE
  5
1095
330
12C5
100
AcDbEntity
  8
0
100
AcDbLine
 10
346.3036605316486
 20
375.9601993504623
 30
0.0
 11
345.3956605316487
 21
376.4841993504623
 31
0.0
  0
ARC
  5
1096
330
12C5
100
AcDbEntity
  8
0
100
AcDbCircle
 10
329.7646605316487
 20
372.6201993504623
 30
0.0
 40
3.848999999999999
100
AcDbArc
 50
247.8140000000001
 51
307.865
  0
LINE
  5
1097
330
12C5
100
AcDbEntity
  8
0
100
AcDbLine
 10
328.3116605316487
 20
369.0551993504622
 30
0.0
 11
327.4046605316487
 21
369.5791993504622
 31
0.0
  0
LINE
  5
1098
330
12C5
100
AcDbEntity
  8
0
100
AcDbLine
 10
327.4026605316487
 20
369.5811993504623
 30
0.0
 11
327.4046605316487
 21
375.9561993504623
 31
0.0
  0
LINE
  5
1099
330
12C5
100
AcDbEntity
  8
0
100
AcDbLine
 10
328.3436605316487
 20
376.4981993504622
 30
0.0
 11
327.4066605316487
 21
375.9581993504622
 31
0.0
  0
ARC
  5
109A
330
12C5
100
AcDbEntity
  8
0
100
AcDbCircle
 10
329.7646605316487
 20
372.9221993504622
 30
0.0
 40
3.848
100
AcDbArc
 50
52.122
 51
111.668
  0
ARC
  5
109B
330
12C5
100
AcDbEntity
  8
0
100
AcDbCircle
 10
211.8516605316487
 20
362.5951993504623
 30
0.0
 40
14.175
100
AcDbArc
 50
70.53499999999999
 51
109.461
  0
ARC
  5
109C
330
12C5
100
AcDbEntity
  8
0
100
AcDbCircle
 10
211.8516605316487
 20
382.9451993504622
 30
0.0
 40
14.175
100
AcDbArc
 50
250.541
 51
289.467
  0
LINE
  5
109D
330
12C5
100
AcDbEntity
  8
0
100
AcDbLine
 10
216.5786605316487
 20
369.5811993504623
 30
0.0
 11
216.5786605316487
 21
375.9591993504622
 31
0.0
  0
LINE
  5
109E
330
12C5
100
AcDbEntity
  8
0
100
AcDbLine
 10
207.1296605316486
 20
369.5831993504622
 30
0.0
 11
207.1286605316487
 21
375.9581993504622
 31
0.0
  0
LINE
  5
109F
330
12C5
100
AcDbEntity
  8
0
100
AcDbLine
 10
218.7406605316487
 20
376.7701993504622
 30
0.0
 11
204.9626605316487
 21
376.7701993504622
 31
0.0
  0
LINE
  5
10A0
330
12C5
100
AcDbEntity
  8
0
100
AcDbLine
 10
221.3026605316486
 20
369.5791993504622
 30
0.0
 11
220.4096605316486
 21
369.0631993504622
 31
0.0
  0
ARC
  5
10A1
330
12C5
100
AcDbEntity
  8
0
100
AcDbCircle
 10
218.9396605316487
 20
372.6171993504622
 30
0.0
 40
3.846999999999999
100
AcDbArc
 50
232.166
 51
292.469
  0
LINE
  5
10A2
330
12C5
100
AcDbEntity
  8
0
100
AcDbLine
 10
221.3036605316487
 20
369.5811993504623
 30
0.0
 11
221.3046605316487
 21
375.9561993504623
 31
0.0
  0
ARC
  5
10A3
330
12C5
100
AcDbEntity
  8
0
100
AcDbCircle
 10
218.9396605316487
 20
372.9231993504622
 30
0.0
 40
3.848
100
AcDbArc
 50
67.922
 51
127.832
  0
LINE
  5
10A4
330
12C5
100
AcDbEntity
  8
0
100
AcDbLine
 10
221.3036605316487
 20
375.9581993504622
 30
0.0
 11
220.3856605316487
 21
376.4881993504622
 31
0.0
  0
ARC
  5
10A5
330
12C5
100
AcDbEntity
  8
0
100
AcDbCircle
 10
204.7656605316487
 20
372.6201993504623
 30
0.0
 40
3.848999999999999
100
AcDbArc
 50
247.657
 51
307.865
  0
LINE
  5
10A6
330
12C5
100
AcDbEntity
  8
0
100
AcDbLine
 10
203.3016605316487
 20
369.0591993504622
 30
0.0
 11
202.4056605316487
 21
369.5781993504622
 31
0.0
  0
LINE
  5
10A7
330
12C5
100
AcDbEntity
  8
0
100
AcDbLine
 10
202.4046605316486
 20
369.5801993504623
 30
0.0
 11
202.4046605316486
 21
375.9611993504623
 31
0.0
  0
LINE
  5
10A8
330
12C5
100
AcDbEntity
  8
0
100
AcDbLine
 10
203.3196605316487
 20
376.4881993504622
 30
0.0
 11
202.4066605316487
 21
375.9631993504622
 31
0.0
  0
ARC
  5
10A9
330
12C5
100
AcDbEntity
  8
0
100
AcDbCircle
 10
204.7646605316487
 20
372.9221993504622
 30
0.0
 40
3.848
100
AcDbArc
 50
52.122
 51
112.06
  0
LINE
  5
10AA
330
12C5
100
AcDbEntity
  8
0
100
AcDbLine
 10
346.3036605316486
 20
369.8651993504622
 30
0.0
 11
435.8446605316486
 21
369.8651993504622
 31
0.0
  0
LINE
  5
10AB
330
12C5
100
AcDbEntity
  8
0
100
AcDbLine
 10
344.8996605316487
 20
368.7701993504622
 30
0.0
 11
476.9086605316486
 21
368.7701993504622
 31
0.0
  0
ARC
  5
10AC
330
12C5
100
AcDbEntity
  8
0
100
AcDbCircle
 10
445.2946605316487
 20
362.5951993504623
 30
0.0
 40
14.175
100
AcDbArc
 50
70.536
 51
109.464
  0
ARC
  5
10AD
330
12C5
100
AcDbEntity
  8
0
100
AcDbCircle
 10
445.2946605316487
 20
382.9451993504622
 30
0.0
 40
14.175
100
AcDbArc
 50
250.536
 51
289.464
  0
LINE
  5
10AE
330
12C5
100
AcDbEntity
  8
0
100
AcDbLine
 10
450.0196605316487
 20
369.5821993504623
 30
0.0
 11
450.0196605316487
 21
375.9581993504622
 31
0.0
  0
LINE
  5
10AF
330
12C5
100
AcDbEntity
  8
0
100
AcDbLine
 10
440.5696605316487
 20
369.5821993504623
 30
0.0
 11
440.5696605316487
 21
375.9581993504622
 31
0.0
  0
LINE
  5
10B0
330
12C5
100
AcDbEntity
  8
0
100
AcDbLine
 10
452.1806605316487
 20
376.7701993504622
 30
0.0
 11
438.4066605316487
 21
376.7701993504622
 31
0.0
  0
LINE
  5
10B1
330
12C5
100
AcDbEntity
  8
0
100
AcDbLine
 10
454.7436605316486
 20
369.5761993504623
 30
0.0
 11
453.8656605316487
 21
369.0681993504622
 31
0.0
  0
ARC
  5
10B2
330
12C5
100
AcDbEntity
  8
0
100
AcDbCircle
 10
452.3816605316486
 20
372.6181993504622
 30
0.0
 40
3.848
100
AcDbArc
 50
232.138
 51
292.671
  0
LINE
  5
10B3
330
12C5
100
AcDbEntity
  8
0
100
AcDbLine
 10
454.7446605316487
 20
369.5781993504622
 30
0.0
 11
454.7446605316487
 21
375.9591993504622
 31
0.0
  0
ARC
  5
10B4
330
12C5
100
AcDbEntity
  8
0
100
AcDbCircle
 10
452.3816605316486
 20
372.9221993504622
 30
0.0
 40
3.848
100
AcDbArc
 50
67.786
 51
127.859
  0
LINE
  5
10B5
330
12C5
100
AcDbEntity
  8
0
100
AcDbLine
 10
454.7436605316486
 20
375.9611993504623
 30
0.0
 11
453.8366605316486
 21
376.4841993504623
 31
0.0
  0
ARC
  5
10B6
330
12C5
100
AcDbEntity
  8
0
100
AcDbCircle
 10
438.2066605316486
 20
372.6181993504622
 30
0.0
 40
3.846999999999999
100
AcDbArc
 50
247.681
 51
307.865
  0
LINE
  5
10B7
330
12C5
100
AcDbEntity
  8
0
100
AcDbLine
 10
436.7456605316487
 20
369.0591993504622
 30
0.0
 11
435.8456605316487
 21
369.5781993504622
 31
0.0
  0
LINE
  5
10B8
330
12C5
100
AcDbEntity
  8
0
100
AcDbLine
 10
435.8446605316486
 20
369.5801993504623
 30
0.0
 11
435.8446605316486
 21
375.9541993504622
 31
0.0
  0
LINE
  5
10B9
330
12C5
100
AcDbEntity
  8
0
100
AcDbLine
 10
436.7846605316486
 20
376.4971993504622
 30
0.0
 11
435.8456605316487
 21
375.9571993504622
 31
0.0
  0
ARC
  5
10BA
330
12C5
100
AcDbEntity
  8
0
100
AcDbCircle
 10
438.2066605316486
 20
372.9221993504622
 30
0.0
 40
3.848
100
AcDbArc
 50
52.137
 51
111.694
  0
LINE
  5
10BB
330
12C5
100
AcDbEntity
  8
0
100
AcDbLine
 10
454.7446605316487
 20
369.8651993504622
 30
0.0
 11
499.8516605316486
 21
369.8651993504622
 31
0.0
  0
LINE
  5
10BC
330
12C5
100
AcDbEntity
  8
0
100
AcDbLine
 10
450.2946605316487
 20
368.7701993504622
 30
0.0
 11
450.2946605316487
 21
365.4411993504622
 31
0.0
  0
LINE
  5
10BD
330
12C5
100
AcDbEntity
  8
0
100
AcDbLine
 10
440.2946605316487
 20
368.7701993504622
 30
0.0
 11
440.2946605316487
 21
364.8881993504622
 31
0.0
  0
LINE
  5
10BE
330
12C5
100
AcDbEntity
  8
0
100
AcDbLine
 10
440.3136605316486
 20
355.8651993504623
 30
0.0
 11
440.2866605316487
 21
351.3211993504623
 31
0.0
  0
LINE
  5
10BF
330
12C5
100
AcDbEntity
  8
0
100
AcDbLine
 10
450.2706605316486
 20
356.7351993504623
 30
0.0
 11
450.2976605316487
 21
352.1421993504622
 31
0.0
  0
LINE
  5
10C0
330
12C5
100
AcDbEntity
  8
0
100
AcDbLine
 10
450.2946605316487
 20
352.6281993504622
 30
0.0
 11
467.8516605316486
 21
352.6281993504622
 31
0.0
  0
LINE
  5
10C1
330
12C5
100
AcDbEntity
  8
0
100
AcDbLine
 10
440.3006605316487
 20
353.7331993504622
 30
0.0
 11
438.0926605316487
 21
353.7331993504622
 31
0.0
  0
LINE
  5
10C2
330
12C5
100
AcDbEntity
  8
4
100
AcDbLine
 10
441.2916605316486
 20
352.1421993504622
 30
0.0
 11
441.2866605316486
 21
351.3541993504622
 31
0.0
  0
LINE
  5
10C3
330
12C5
100
AcDbEntity
  8
4
100
AcDbLine
 10
449.2946605316487
 20
368.7701993504622
 30
0.0
 11
449.2946605316487
 21
365.3601993504623
 31
0.0
  0
LINE
  5
10C4
330
12C5
100
AcDbEntity
  8
4
100
AcDbLine
 10
441.2946605316487
 20
368.7701993504622
 30
0.0
 11
441.2946605316487
 21
364.9411993504622
 31
0.0
  0
LINE
  5
10C5
330
12C5
100
AcDbEntity
  8
0
100
AcDbLine
 10
440.2916605316486
 20
352.1421993504622
 30
0.0
 11
450.2976605316487
 21
352.1421993504622
 31
0.0
  0
LINE
  5
10C6
330
12C5
100
AcDbEntity
  8
0
100
AcDbLine
 10
440.2916605316486
 20
355.1421993504622
 30
0.0
 11
450.2976605316487
 21
355.1421993504622
 31
0.0
  0
LINE
  5
10C7
330
12C5
100
AcDbEntity
  8
0
100
AcDbLine
 10
450.2946605316487
 20
365.4411993504622
 30
0.0
 11
473.5806605316486
 21
365.4411993504622
 31
0.0
  0
LINE
  5
10C8
330
12C5
100
AcDbEntity
  8
7
 48
0.409
100
AcDbLine
 10
445.2946605316487
 20
387.7311993504623
 30
0.0
 11
445.2946605316487
 21
351.7041993504622
 31
0.0
  0
LINE
  5
10C9
330
12C5
100
AcDbEntity
  8
4
100
AcDbLine
 10
441.2916605316486
 20
382.1421993504622
 30
0.0
 11
441.2916605316486
 21
376.7701993504622
 31
0.0
  0
LINE
  5
10CA
330
12C5
100
AcDbEntity
  8
4
100
AcDbLine
 10
449.2976605316486
 20
382.1421993504622
 30
0.0
 11
449.2976605316486
 21
376.7701993504622
 31
0.0
  0
LINE
  5
10CB
330
12C5
100
AcDbEntity
  8
0
100
AcDbLine
 10
440.2946605316487
 20
381.1421993504622
 30
0.0
 11
440.2946605316487
 21
376.7701993504622
 31
0.0
  0
LINE
  5
10CC
330
12C5
100
AcDbEntity
  8
0
100
AcDbLine
 10
450.2946605316487
 20
381.1421993504622
 30
0.0
 11
450.2946605316487
 21
376.7701993504622
 31
0.0
  0
LINE
  5
10CD
330
12C5
100
AcDbEntity
  8
0
100
AcDbLine
 10
207.8516605316487
 20
376.7701993504622
 30
0.0
 11
207.8516605316487
 21
382.1421993504622
 31
0.0
  0
LINE
  5
10CE
330
12C5
100
AcDbEntity
  8
0
100
AcDbLine
 10
215.8516605316487
 20
382.1421993504622
 30
0.0
 11
215.8516605316487
 21
376.7701993504622
 31
0.0
  0
LINE
  5
10CF
330
12C5
100
AcDbEntity
  8
0
100
AcDbLine
 10
216.8516605316487
 20
381.1421993504622
 30
0.0
 11
216.8516605316487
 21
376.7701993504622
 31
0.0
  0
LINE
  5
10D0
330
12C5
100
AcDbEntity
  8
0
100
AcDbLine
 10
206.8516605316486
 20
381.1421993504622
 30
0.0
 11
206.8516605316486
 21
376.7701993504622
 31
0.0
  0
LINE
  5
10D1
330
12C5
100
AcDbEntity
  8
0
100
AcDbLine
 10
207.8516605316487
 20
368.7701993504622
 30
0.0
 11
207.8516605316487
 21
355.6281993504622
 31
0.0
  0
LINE
  5
10D2
330
12C5
100
AcDbEntity
  8
0
100
AcDbLine
 10
206.8516605316486
 20
368.7701993504622
 30
0.0
 11
206.8516605316486
 21
352.6281993504622
 31
0.0
  0
LINE
  5
10D3
330
12C5
100
AcDbEntity
  8
0
100
AcDbLine
 10
215.8516605316487
 20
368.7701993504622
 30
0.0
 11
215.8516605316487
 21
355.6281993504622
 31
0.0
  0
LINE
  5
10D4
330
12C5
100
AcDbEntity
  8
0
100
AcDbLine
 10
216.8516605316487
 20
368.7701993504622
 30
0.0
 11
216.8516605316487
 21
352.6281993504622
 31
0.0
  0
LINE
  5
10D5
330
12C5
100
AcDbEntity
  8
0
100
AcDbLine
 10
206.8516605316486
 20
355.6281993504622
 30
0.0
 11
216.8516605316487
 21
355.6281993504622
 31
0.0
  0
LINE
  5
10D6
330
12C5
100
AcDbEntity
  8
0
100
AcDbLine
 10
207.8516605316487
 20
340.1281993504622
 30
0.0
 11
215.8516605316487
 21
340.1281993504622
 31
0.0
  0
LINE
  5
10D7
330
12C5
100
AcDbEntity
  8
0
100
AcDbLine
 10
206.8516605316486
 20
341.1281993504622
 30
0.0
 11
216.8516605316487
 21
341.1281993504622
 31
0.0
  0
LINE
  5
10D8
330
12C5
100
AcDbEntity
  8
0
100
AcDbLine
 10
215.8516605316487
 20
340.1281993504622
 30
0.0
 11
216.8516605316487
 21
341.1281993504622
 31
0.0
  0
LINE
  5
10D9
330
12C5
100
AcDbEntity
  8
0
100
AcDbLine
 10
207.8516605316487
 20
340.1281993504622
 30
0.0
 11
206.8516605316486
 21
341.1281993504622
 31
0.0
  0
LINE
  5
10DA
330
12C5
100
AcDbEntity
  8
4
100
AcDbLine
 10
206.8516605316486
 20
341.1281993504622
 30
0.0
 11
206.8516605316486
 21
337.6281993504622
 31
0.0
  0
LINE
  5
10DB
330
12C5
100
AcDbEntity
  8
4
100
AcDbLine
 10
216.8516605316487
 20
341.1281993504622
 30
0.0
 11
216.8516605316487
 21
337.6281993504622
 31
0.0
  0
LINE
  5
10DC
330
12C5
100
AcDbEntity
  8
4
100
AcDbLine
 10
207.8516605316487
 20
340.1281993504622
 30
0.0
 11
207.8516605316487
 21
352.6281993504622
 31
0.0
  0
LINE
  5
10DD
330
12C5
100
AcDbEntity
  8
4
100
AcDbLine
 10
215.8516605316487
 20
352.6281993504622
 30
0.0
 11
215.8516605316487
 21
340.1281993504622
 31
0.0
  0
LINE
  5
10DE
330
12C5
100
AcDbEntity
  8
7
 48
0.7879999999999999
100
AcDbLine
 10
211.8516605316487
 20
319.6271993504622
 30
0.0
 11
211.8516605316487
 21
389.0121993504622
 31
0.0
  0
LINE
  5
10DF
330
12C5
100
AcDbEntity
  8
0
100
AcDbLine
 10
331.8516605316487
 20
381.1421993504622
 30
0.0
 11
331.8516605316487
 21
376.7701993504622
 31
0.0
  0
LINE
  5
10E0
330
12C5
100
AcDbEntity
  8
4
100
AcDbLine
 10
332.8516605316487
 20
376.7701993504622
 30
0.0
 11
332.8516605316487
 21
382.1421993504622
 31
0.0
  0
LINE
  5
10E1
330
12C5
100
AcDbEntity
  8
4
100
AcDbLine
 10
340.8516605316487
 20
382.1421993504622
 30
0.0
 11
340.8516605316487
 21
376.7701993504622
 31
0.0
  0
LINE
  5
10E2
330
12C5
100
AcDbEntity
  8
0
100
AcDbLine
 10
341.8516605316487
 20
376.7701993504622
 30
0.0
 11
341.8516605316487
 21
381.1421993504622
 31
0.0
  0
LINE
  5
10E3
330
12C5
100
AcDbEntity
  8
0
100
AcDbLine
 10
449.2976605316486
 20
382.1421993504622
 30
0.0
 11
441.2916605316486
 21
382.1421993504622
 31
0.0
  0
LINE
  5
10E4
330
12C5
100
AcDbEntity
  8
0
100
AcDbLine
 10
440.2946605316487
 20
381.1421993504622
 30
0.0
 11
450.2946605316487
 21
381.1421993504622
 31
0.0
  0
LINE
  5
10E5
330
12C5
100
AcDbEntity
  8
0
100
AcDbLine
 10
441.2916605316486
 20
382.1421993504622
 30
0.0
 11
440.2946605316487
 21
381.1421993504622
 31
0.0
  0
LINE
  5
10E6
330
12C5
100
AcDbEntity
  8
0
100
AcDbLine
 10
449.2976605316486
 20
382.1421993504622
 30
0.0
 11
450.2946605316487
 21
381.1421993504622
 31
0.0
  0
LINE
  5
10E7
330
12C5
100
AcDbEntity
  8
0
100
AcDbLine
 10
207.8516605316487
 20
382.1421993504622
 30
0.0
 11
215.8516605316487
 21
382.1421993504622
 31
0.0
  0
LINE
  5
10E8
330
12C5
100
AcDbEntity
  8
0
100
AcDbLine
 10
206.8516605316486
 20
381.1421993504622
 30
0.0
 11
216.8516605316487
 21
381.1421993504622
 31
0.0
  0
LINE
  5
10E9
330
12C5
100
AcDbEntity
  8
0
100
AcDbLine
 10
331.8516605316487
 20
381.1421993504622
 30
0.0
 11
341.8516605316487
 21
381.1421993504622
 31
0.0
  0
LINE
  5
10EA
330
12C5
100
AcDbEntity
  8
0
100
AcDbLine
 10
332.8516605316487
 20
382.1421993504622
 30
0.0
 11
340.8516605316487
 21
382.1421993504622
 31
0.0
  0
LINE
  5
10EB
330
12C5
100
AcDbEntity
  8
0
100
AcDbLine
 10
332.8516605316487
 20
382.1421993504622
 30
0.0
 11
331.8516605316487
 21
381.1421993504622
 31
0.0
  0
LINE
  5
10EC
330
12C5
100
AcDbEntity
  8
0
100
AcDbLine
 10
340.8516605316487
 20
382.1421993504622
 30
0.0
 11
341.8516605316487
 21
381.1421993504622
 31
0.0
  0
LINE
  5
10ED
330
12C5
100
AcDbEntity
  8
0
100
AcDbLine
 10
207.8516605316487
 20
382.1421993504622
 30
0.0
 11
206.8516605316486
 21
381.1421993504622
 31
0.0
  0
LINE
  5
10EE
330
12C5
100
AcDbEntity
  8
0
100
AcDbLine
 10
215.8516605316487
 20
382.1421993504622
 30
0.0
 11
216.8516605316487
 21
381.1421993504622
 31
0.0
  0
LINE
  5
10EF
330
12C5
100
AcDbEntity
  8
0
100
AcDbLine
 10
162.1806605316487
 20
363.7561993504622
 30
0.0
 11
179.3946605316486
 21
363.7561993504622
 31
0.0
  0
LINE
  5
10F0
330
12C5
100
AcDbEntity
  8
0
100
AcDbLine
 10
494.3086605316486
 20
363.7561993504622
 30
0.0
 11
511.5226605316486
 21
363.7561993504622
 31
0.0
  0
ARC
  5
10F1
330
12C5
100
AcDbEntity
  8
0
100
AcDbCircle
 10
445.2946605316487
 20
333.8651993504623
 30
0.0
 40
12.0
100
AcDbArc
 50
190.0
 51
350.0
  0
LINE
  5
10F2
330
12C5
100
AcDbEntity
  8
0
100
AcDbLine
 10
457.1126605316486
 20
331.7811993504622
 30
0.0
 11
459.4536605316486
 21
345.0601993504622
 31
0.0
  0
LINE
  5
10F3
330
12C5
100
AcDbEntity
  8
0
100
AcDbLine
 10
433.4766605316486
 20
331.7811993504622
 30
0.0
 11
432.2416605316487
 21
338.7841993504622
 31
0.0
  0
ARC
  5
10F4
330
12C5
100
AcDbEntity
  8
0
100
AcDbCircle
 10
461.9156605316486
 20
344.6261993504622
 30
0.0
 40
2.5
100
AcDbArc
 50
95.0
 51
170.0
  0
ARC
  5
10F5
330
12C5
100
AcDbEntity
  8
0
100
AcDbCircle
 10
429.7796605316486
 20
338.3491993504622
 30
0.0
 40
2.5
100
AcDbArc
 50
10.0
 51
178.0
  0
LINE
  5
10F6
330
12C5
100
AcDbEntity
  8
0
100
AcDbLine
 10
156.8506605316487
 20
355.7561993504622
 30
0.0
 11
167.8256605316487
 21
355.7561993504622
 31
0.0
  0
LINE
  5
10F7
330
12C5
100
AcDbEntity
  8
0
100
AcDbLine
 10
156.8506605316487
 20
355.7561993504622
 30
0.0
 11
157.6766605316487
 21
360.4401993504622
 31
0.0
  0
ARC
  5
10F8
330
12C5
100
AcDbEntity
  8
0
100
AcDbCircle
 10
161.6166605316486
 20
359.7451993504622
 30
0.0
 40
4.0
100
AcDbArc
 50
72.99800000000001
 51
169.999
  0
DIMENSION
  5
1102
330
12C5
100
AcDbEntity
  8
5
100
AcDbDimension
  2
*D7
 10
646.8516605316485
 20
188.2773569296064
 30
0.0
 11
491.8516605316486
 21
201.2773569296064
 31
0.0
 70
    32
  1
310
 71
     5
 42
309.9999999999999
  3
GEN-ISO
100
AcDbAlignedDimension
 13
336.8516605316487
 23
254.0431993504622
 33
0.0
 14
646.8516605316485
 24
287.8651993504623
 34
0.0
100
AcDbRotatedDimension
1001
ACAD
1000
DSTYLE
1002
{
1070
    41
1040
5.0
1070
   140
1040
4.0
1002
}
  0
DIMENSION
  5
110C
330
12C5
100
AcDbEntity
  8
5
100
AcDbDimension
  2
*D13
 10
697.9843327524336
 20
287.8651993504623
 30
0.0
 11
684.9843327524334
 21
325.8651993504623
 31
0.0
 70
    32
  1
76
 71
     5
 42
75.99999999999994
  3
GEN-ISO
100
AcDbAlignedDimension
 13
511.8806605316487
 23
363.8651993504623
 33
0.0
 14
646.8516605316485
 24
287.8651993504623
 34
0.0
 50
270.0
100
AcDbRotatedDimension
1001
ACAD
1000
DSTYLE
1002
{
1070
    41
1040
5.0
1070
   140
1040
4.0
1002
}
  0
DIMENSION
  5
1117
330
12C5
100
AcDbEntity
  8
5
100
AcDbDimension
  2
*D12
 10
516.8516605316486
 20
472.2511993504622
 30
0.0
 11
336.8511605316486
 21
485.2511993504622
 31
0.0
 70
    32
  1
%%c 360
 71
     5
 42
360.0009999999999
  3
GEN-ISO
100
AcDbAlignedDimension
 13
156.8506605316487
 23
353.8651993504623
 33
0.0
 14
516.8516605316486
 24
353.8651993504623
 34
0.0
100
AcDbRotatedDimension
1001
ACAD
1000
DSTYLE
1002
{
1070
   140
1040
4.0
1070
    41
1040
5.0
1002
}
  0
POLYLINE
  5
1118
330
12C5
100
AcDbEntity
  8
SCHRAFFUR_RAND
100
AcDb2dPolyline
 66
     1
 10
0.0
 20
0.0
 30
0.0
 70
     1
  0
VERTEX
  5
1119
330
1118
100
AcDbEntity
  8
SCHRAFFUR_RAND
100
AcDbVertex
100
AcDb2dVertex
 10
430.7226605316486
 20
355.8651993504623
 30
0.0
  0
VERTEX
  5
111A
330
1118
100
AcDbEntity
  8
SCHRAFFUR_RAND
100
AcDbVertex
100
AcDb2dVertex
 10
430.5136605316486
 20
351.8651993504623
 30
0.0
  0
VERTEX
  5
111B
330
1118
100
AcDbEntity
  8
SCHRAFFUR_RAND
100
AcDbVertex
100
AcDb2dVertex
 10
430.3296605316487
 20
348.3651993504623
 30
0.0
  0
VERTEX
  5
111C
330
1118
100
AcDbEntity
  8
SCHRAFFUR_RAND
100
AcDbVertex
100
AcDb2dVertex
 10
423.7346605316487
 20
348.3651993504623
 30
0.0
  0
VERTEX
  5
111D
330
1118
100
AcDbEntity
  8
SCHRAFFUR_RAND
100
AcDbVertex
100
AcDb2dVertex
 10
422.3516605316486
 20
340.5231993504623
 30
0.0
  0
VERTEX
  5
111E
330
1118
100
AcDbEntity
  8
SCHRAFFUR_RAND
100
AcDbVertex
100
AcDb2dVertex
 10
421.1206605316487
 20
305.2781993504623
 30
0.0
  0
VERTEX
  5
111F
330
1118
100
AcDbEntity
  8
SCHRAFFUR_RAND
100
AcDbVertex
100
AcDb2dVertex
 10
420.8646605316487
 20
304.0701993504622
 30
0.0
  0
VERTEX
  5
1120
330
1118
100
AcDbEntity
  8
SCHRAFFUR_RAND
100
AcDbVertex
100
AcDb2dVertex
 10
419.9166605316486
 20
303.1221993504622
 30
0.0
  0
VERTEX
  5
1121
330
1118
100
AcDbEntity
  8
SCHRAFFUR_RAND
100
AcDbVertex
100
AcDb2dVertex
 10
418.6216605316486
 20
302.8651993504622
 30
0.0
  0
VERTEX
  5
1122
330
1118
100
AcDbEntity
  8
SCHRAFFUR_RAND
100
AcDbVertex
100
AcDb2dVertex
 10
417.8516605316486
 20
302.8651993504622
 30
0.0
  0
VERTEX
  5
1123
330
1118
100
AcDbEntity
  8
SCHRAFFUR_RAND
100
AcDbVertex
100
AcDb2dVertex
 10
417.8516605316486
 20
298.0711993504623
 30
0.0
  0
VERTEX
  5
1124
330
1118
100
AcDbEntity
  8
SCHRAFFUR_RAND
100
AcDbVertex
100
AcDb2dVertex
 10
419.2586605316487
 20
298.2481993504622
 30
0.0
  0
VERTEX
  5
1125
330
1118
100
AcDbEntity
  8
SCHRAFFUR_RAND
100
AcDbVertex
100
AcDb2dVertex
 10
422.0236605316486
 20
299.6201993504623
 30
0.0
  0
VERTEX
  5
1126
330
1118
100
AcDbEntity
  8
SCHRAFFUR_RAND
100
AcDbVertex
100
AcDb2dVertex
 10
424.2446605316486
 20
301.7651993504622
 30
0.0
  0
VERTEX
  5
1127
330
1118
100
AcDbEntity
  8
SCHRAFFUR_RAND
100
AcDbVertex
100
AcDb2dVertex
 10
425.7126605316487
 20
304.4801993504623
 30
0.0
  0
VERTEX
  5
1128
330
1118
100
AcDbEntity
  8
SCHRAFFUR_RAND
100
AcDbVertex
100
AcDb2dVertex
 10
426.2016605316486
 20
307.5161993504622
 30
0.0
  0
VERTEX
  5
1129
330
1118
100
AcDbEntity
  8
SCHRAFFUR_RAND
100
AcDbVertex
100
AcDb2dVertex
 10
427.2326605316486
 20
337.0491993504622
 30
0.0
  0
VERTEX
  5
112A
330
1118
100
AcDbEntity
  8
SCHRAFFUR_RAND
100
AcDbVertex
100
AcDb2dVertex
 10
427.7676605316487
 20
339.8991993504623
 30
0.0
  0
VERTEX
  5
112B
330
1118
100
AcDbEntity
  8
SCHRAFFUR_RAND
100
AcDbVertex
100
AcDb2dVertex
 10
429.3606605316487
 20
342.3391993504622
 30
0.0
  0
VERTEX
  5
112C
330
1118
100
AcDbEntity
  8
SCHRAFFUR_RAND
100
AcDbVertex
100
AcDb2dVertex
 10
431.7136605316486
 20
344.0571993504621
 30
0.0
  0
VERTEX
  5
112D
330
1118
100
AcDbEntity
  8
SCHRAFFUR_RAND
100
AcDbVertex
100
AcDb2dVertex
 10
434.5306605316486
 20
344.7401993504623
 30
0.0
  0
VERTEX
  5
112E
330
1118
100
AcDbEntity
  8
SCHRAFFUR_RAND
100
AcDbVertex
100
AcDb2dVertex
 10
445.2656605316486
 20
345.6791993504622
 30
0.0
  0
VERTEX
  5
112F
330
1118
100
AcDbEntity
  8
SCHRAFFUR_RAND
100
AcDbVertex
100
AcDb2dVertex
 10
477.4376605316486
 20
348.3401993504623
 30
0.0
  0
VERTEX
  5
1130
330
1118
100
AcDbEntity
  8
SCHRAFFUR_RAND
100
AcDbVertex
100
AcDb2dVertex
 10
478.5146605316486
 20
348.5881993504622
 30
0.0
  0
VERTEX
  5
1131
330
1118
100
AcDbEntity
  8
SCHRAFFUR_RAND
100
AcDbVertex
100
AcDb2dVertex
 10
484.0026605316486
 20
349.0681993504622
 30
0.0
  0
VERTEX
  5
1132
330
1118
100
AcDbEntity
  8
SCHRAFFUR_RAND
100
AcDbVertex
100
AcDb2dVertex
 10
499.6926605316486
 20
353.8651993504623
 30
0.0
  0
VERTEX
  5
1133
330
1118
100
AcDbEntity
  8
SCHRAFFUR_RAND
100
AcDbVertex
100
AcDb2dVertex
 10
509.7566605316487
 20
353.8651993504623
 30
0.0
  0
VERTEX
  5
1134
330
1118
100
AcDbEntity
  8
SCHRAFFUR_RAND
100
AcDbVertex
100
AcDb2dVertex
 10
510.8506605316486
 20
353.7121993504622
 30
0.0
  0
VERTEX
  5
1135
330
1118
100
AcDbEntity
  8
SCHRAFFUR_RAND
100
AcDbVertex
100
AcDb2dVertex
 10
511.7406605316486
 20
353.0301993504622
 30
0.0
  0
VERTEX
  5
1136
330
1118
100
AcDbEntity
  8
SCHRAFFUR_RAND
100
AcDbVertex
100
AcDb2dVertex
 10
512.1716605316487
 20
352.0121993504622
 30
0.0
  0
VERTEX
  5
1137
330
1118
100
AcDbEntity
  8
SCHRAFFUR_RAND
100
AcDbVertex
100
AcDb2dVertex
 10
512.5746605316487
 20
350.5061993504622
 30
0.0
  0
VERTEX
  5
1138
330
1118
100
AcDbEntity
  8
SCHRAFFUR_RAND
100
AcDbVertex
100
AcDb2dVertex
 10
513.5176605316487
 20
348.1711993504622
 30
0.0
  0
VERTEX
  5
1139
330
1118
100
AcDbEntity
  8
SCHRAFFUR_RAND
100
AcDbVertex
100
AcDb2dVertex
 10
515.2116605316487
 20
346.2901993504622
 30
0.0
  0
VERTEX
  5
113A
330
1118
100
AcDbEntity
  8
SCHRAFFUR_RAND
100
AcDbVertex
100
AcDb2dVertex
 10
517.4036605316486
 20
345.0241993504623
 30
0.0
  0
VERTEX
  5
113B
330
1118
100
AcDbEntity
  8
SCHRAFFUR_RAND
100
AcDbVertex
100
AcDb2dVertex
 10
519.8836605316487
 20
344.5881993504622
 30
0.0
  0
VERTEX
  5
113C
330
1118
100
AcDbEntity
  8
SCHRAFFUR_RAND
100
AcDbVertex
100
AcDb2dVertex
 10
624.5026605316486
 20
339.1051993504623
 30
0.0
  0
VERTEX
  5
113D
330
1118
100
AcDbEntity
  8
SCHRAFFUR_RAND
100
AcDbVertex
100
AcDb2dVertex
 10
649.3636605316488
 20
335.7991993504622
 30
0.0
  0
VERTEX
  5
113E
330
1118
100
AcDbEntity
  8
SCHRAFFUR_RAND
100
AcDbVertex
100
AcDb2dVertex
 10
649.7296605316487
 20
342.7901993504622
 30
0.0
  0
VERTEX
  5
113F
330
1118
100
AcDbEntity
  8
SCHRAFFUR_RAND
100
AcDbVertex
100
AcDb2dVertex
 10
519.7826605316485
 20
349.6001993504623
 30
0.0
  0
VERTEX
  5
1140
330
1118
100
AcDbEntity
  8
SCHRAFFUR_RAND
100
AcDbVertex
100
AcDb2dVertex
 10
518.7376605316488
 20
349.7891993504623
 30
0.0
  0
VERTEX
  5
1141
330
1118
100
AcDbEntity
  8
SCHRAFFUR_RAND
100
AcDbVertex
100
AcDb2dVertex
 10
517.9006605316487
 20
350.4671993504623
 30
0.0
  0
VERTEX
  5
1142
330
1118
100
AcDbEntity
  8
SCHRAFFUR_RAND
100
AcDbVertex
100
AcDb2dVertex
 10
517.4986605316487
 20
351.4491993504622
 30
0.0
  0
VERTEX
  5
1143
330
1118
100
AcDbEntity
  8
SCHRAFFUR_RAND
100
AcDbVertex
100
AcDb2dVertex
 10
514.6686605316485
 20
362.0121993504622
 30
0.0
  0
VERTEX
  5
1144
330
1118
100
AcDbEntity
  8
SCHRAFFUR_RAND
100
AcDbVertex
100
AcDb2dVertex
 10
514.0636605316485
 20
363.2171993504623
 30
0.0
  0
VERTEX
  5
1145
330
1118
100
AcDbEntity
  8
SCHRAFFUR_RAND
100
AcDbVertex
100
AcDb2dVertex
 10
512.8656605316487
 20
363.8811993504622
 30
0.0
  0
VERTEX
  5
1146
330
1118
100
AcDbEntity
  8
SCHRAFFUR_RAND
100
AcDbVertex
100
AcDb2dVertex
 10
511.5226605316486
 20
363.7561993504622
 30
0.0
  0
VERTEX
  5
1147
330
1118
100
AcDbEntity
  8
SCHRAFFUR_RAND
100
AcDbVertex
100
AcDb2dVertex
 10
482.8516605316487
 20
354.9901993504623
 30
0.0
  0
VERTEX
  5
1148
330
1118
100
AcDbEntity
  8
SCHRAFFUR_RAND
100
AcDbVertex
100
AcDb2dVertex
 10
468.4896605316487
 20
353.7341993504622
 30
0.0
  0
VERTEX
  5
1149
330
1118
100
AcDbEntity
  8
SCHRAFFUR_RAND
100
AcDbVertex
100
AcDb2dVertex
 10
467.8516605316486
 20
352.6281993504622
 30
0.0
  0
VERTEX
  5
114A
330
1118
100
AcDbEntity
  8
SCHRAFFUR_RAND
100
AcDbVertex
100
AcDb2dVertex
 10
455.8516605316486
 20
352.6281993504622
 30
0.0
  0
VERTEX
  5
114B
330
1118
100
AcDbEntity
  8
SCHRAFFUR_RAND
100
AcDbVertex
100
AcDb2dVertex
 10
440.8096605316487
 20
351.3121993504622
 30
0.0
  0
VERTEX
  5
114C
330
1118
100
AcDbEntity
  8
SCHRAFFUR_RAND
100
AcDbVertex
100
AcDb2dVertex
 10
439.4966605316486
 20
351.4561993504623
 30
0.0
  0
VERTEX
  5
114D
330
1118
100
AcDbEntity
  8
SCHRAFFUR_RAND
100
AcDbVertex
100
AcDb2dVertex
 10
438.4696605316486
 20
352.3171993504623
 30
0.0
  0
VERTEX
  5
114E
330
1118
100
AcDbEntity
  8
SCHRAFFUR_RAND
100
AcDbVertex
100
AcDb2dVertex
 10
438.3846605316486
 20
352.6281993504622
 30
0.0
  0
VERTEX
  5
114F
330
1118
100
AcDbEntity
  8
SCHRAFFUR_RAND
100
AcDbVertex
100
AcDb2dVertex
 10
438.0926605316487
 20
353.7331993504622
 30
0.0
  0
VERTEX
  5
1150
330
1118
100
AcDbEntity
  8
SCHRAFFUR_RAND
100
AcDbVertex
100
AcDb2dVertex
 10
437.9016605316486
 20
355.8651993504623
 30
0.0
  0
VERTEX
  5
1151
330
1118
100
AcDbEntity
  8
SCHRAFFUR_RAND
100
AcDbVertex
100
AcDb2dVertex
 10
430.7226605316486
 20
355.8651993504623
 30
0.0
  0
SEQEND
  5
1152
330
1118
100
AcDbEntity
  8
SCHRAFFUR_RAND
  0
INSERT
  5
1174
330
12C5
100
AcDbEntity
  8
8
100
AcDbBlockReference
  2
*X0
 10
-22.69333946835133
 20
31.60119935046223
 30
0.0
1001
ACAD
1000
HATCH
1002
{
1070
    19
1000
ANSI31,_I
1040
6.349999999999999
1040
0.7850000000000001
1002
}
  0
POLYLINE
  5
1175
330
12C5
100
AcDbEntity
  8
SCHRAFFUR_RAND
100
AcDb2dPolyline
 66
     1
 10
0.0
 20
0.0
 30
0.0
 70
     1
  0
VERTEX
  5
1176
330
1175
100
AcDbEntity
  8
SCHRAFFUR_RAND
100
AcDbVertex
100
AcDb2dVertex
 10
221.7426605316486
 20
356.8831993504622
 30
0.0
  0
VERTEX
  5
1177
330
1175
100
AcDbEntity
  8
SCHRAFFUR_RAND
100
AcDbVertex
100
AcDb2dVertex
 10
230.8016605316487
 20
356.0911993504622
 30
0.0
  0
VERTEX
  5
1178
330
1175
100
AcDbEntity
  8
SCHRAFFUR_RAND
100
AcDbVertex
100
AcDb2dVertex
 10
231.8046605316486
 20
356.1631993504623
 30
0.0
  0
VERTEX
  5
1179
330
1175
100
AcDbEntity
  8
SCHRAFFUR_RAND
100
AcDbVertex
100
AcDb2dVertex
 10
232.6866605316487
 20
356.6631993504623
 30
0.0
  0
VERTEX
  5
117A
330
1175
100
AcDbEntity
  8
SCHRAFFUR_RAND
100
AcDbVertex
100
AcDb2dVertex
 10
233.3036605316487
 20
357.4671993504622
 30
0.0
  0
VERTEX
  5
117B
330
1175
100
AcDbEntity
  8
SCHRAFFUR_RAND
100
AcDbVertex
100
AcDb2dVertex
 10
233.5156605316487
 20
358.4501993504622
 30
0.0
  0
VERTEX
  5
117C
330
1175
100
AcDbEntity
  8
SCHRAFFUR_RAND
100
AcDbVertex
100
AcDb2dVertex
 10
233.8516605316487
 20
364.8651993504623
 30
0.0
  0
VERTEX
  5
117D
330
1175
100
AcDbEntity
  8
SCHRAFFUR_RAND
100
AcDbVertex
100
AcDb2dVertex
 10
222.8536605316487
 20
365.4411993504622
 30
0.0
  0
VERTEX
  5
117E
330
1175
100
AcDbEntity
  8
SCHRAFFUR_RAND
100
AcDbVertex
100
AcDb2dVertex
 10
218.3516605316487
 20
365.4411993504622
 30
0.0
  0
VERTEX
  5
117F
330
1175
100
AcDbEntity
  8
SCHRAFFUR_RAND
100
AcDbVertex
100
AcDb2dVertex
 10
219.4976605316487
 20
358.9401993504622
 30
0.0
  0
VERTEX
  5
1180
330
1175
100
AcDbEntity
  8
SCHRAFFUR_RAND
100
AcDbVertex
100
AcDb2dVertex
 10
219.7316605316487
 20
358.1511993504622
 30
0.0
  0
VERTEX
  5
1181
330
1175
100
AcDbEntity
  8
SCHRAFFUR_RAND
100
AcDbVertex
100
AcDb2dVertex
 10
220.2426605316487
 20
357.4991993504621
 30
0.0
  0
VERTEX
  5
1182
330
1175
100
AcDbEntity
  8
SCHRAFFUR_RAND
100
AcDbVertex
100
AcDb2dVertex
 10
220.9366605316487
 20
357.0471993504622
 30
0.0
  0
VERTEX
  5
1183
330
1175
100
AcDbEntity
  8
SCHRAFFUR_RAND
100
AcDbVertex
100
AcDb2dVertex
 10
221.7426605316486
 20
356.8831993504622
 30
0.0
  0
SEQEND
  5
1184
330
1175
100
AcDbEntity
  8
SCHRAFFUR_RAND
  0
INSERT
  5
1189
330
12C5
100
AcDbEntity
  8
8
100
AcDbBlockReference
  2
*X1
 10
-22.69333946835133
 20
31.60119935046223
 30
0.0
1001
ACAD
1000
HATCH
1002
{
1070
    19
1000
ANSI31,_I
1040
6.349999999999999
1040
-0.7850000000000001
1002
}
  0
POLYLINE
  5
118A
330
12C5
100
AcDbEntity
  8
SCHRAFFUR_RAND
100
AcDb2dPolyline
 66
     1
 10
0.0
 20
0.0
 30
0.0
 70
     1
  0
VERTEX
  5
118B
330
118A
100
AcDbEntity
  8
SCHRAFFUR_RAND
100
AcDbVertex
100
AcDb2dVertex
 10
175.9566605316487
 20
369.8621993504622
 30
0.0
  0
VERTEX
  5
118C
330
118A
100
AcDbEntity
  8
SCHRAFFUR_RAND
100
AcDbVertex
100
AcDb2dVertex
 10
173.8516605316486
 20
369.8651993504622
 30
0.0
  0
VERTEX
  5
118D
330
118A
100
AcDbEntity
  8
SCHRAFFUR_RAND
100
AcDbVertex
100
AcDb2dVertex
 10
173.8516605316486
 20
367.5241993504623
 30
0.0
  0
VERTEX
  5
118E
330
118A
100
AcDbEntity
  8
SCHRAFFUR_RAND
100
AcDbVertex
100
AcDb2dVertex
 10
173.9346605316486
 20
366.7611993504622
 30
0.0
  0
VERTEX
  5
118F
330
118A
100
AcDbEntity
  8
SCHRAFFUR_RAND
100
AcDbVertex
100
AcDb2dVertex
 10
174.2756605316487
 20
366.0701993504622
 30
0.0
  0
VERTEX
  5
1190
330
118A
100
AcDbEntity
  8
SCHRAFFUR_RAND
100
AcDbVertex
100
AcDb2dVertex
 10
174.8086605316487
 20
365.5131993504622
 30
0.0
  0
VERTEX
  5
1191
330
118A
100
AcDbEntity
  8
SCHRAFFUR_RAND
100
AcDbVertex
100
AcDb2dVertex
 10
175.4966605316487
 20
365.1751993504622
 30
0.0
  0
VERTEX
  5
1192
330
118A
100
AcDbEntity
  8
SCHRAFFUR_RAND
100
AcDbVertex
100
AcDb2dVertex
 10
190.8516605316486
 20
359.5861993504623
 30
0.0
  0
VERTEX
  5
1193
330
118A
100
AcDbEntity
  8
SCHRAFFUR_RAND
100
AcDbVertex
100
AcDb2dVertex
 10
201.8326605316487
 20
358.6251993504622
 30
0.0
  0
VERTEX
  5
1194
330
118A
100
AcDbEntity
  8
SCHRAFFUR_RAND
100
AcDbVertex
100
AcDb2dVertex
 10
202.7596605316487
 20
358.6821993504622
 30
0.0
  0
VERTEX
  5
1195
330
118A
100
AcDbEntity
  8
SCHRAFFUR_RAND
100
AcDbVertex
100
AcDb2dVertex
 10
203.5936605316487
 20
359.1051993504623
 30
0.0
  0
VERTEX
  5
1196
330
118A
100
AcDbEntity
  8
SCHRAFFUR_RAND
100
AcDbVertex
100
AcDb2dVertex
 10
204.2176605316487
 20
359.8011993504622
 30
0.0
  0
VERTEX
  5
1197
330
118A
100
AcDbEntity
  8
SCHRAFFUR_RAND
100
AcDbVertex
100
AcDb2dVertex
 10
204.5126605316486
 20
360.6811993504622
 30
0.0
  0
VERTEX
  5
1198
330
118A
100
AcDbEntity
  8
SCHRAFFUR_RAND
100
AcDbVertex
100
AcDb2dVertex
 10
205.3516605316487
 20
365.4411993504622
 30
0.0
  0
VERTEX
  5
1199
330
118A
100
AcDbEntity
  8
SCHRAFFUR_RAND
100
AcDbVertex
100
AcDb2dVertex
 10
200.1226605316487
 20
365.4411993504622
 30
0.0
  0
VERTEX
  5
119A
330
118A
100
AcDbEntity
  8
SCHRAFFUR_RAND
100
AcDbVertex
100
AcDb2dVertex
 10
196.7946605316486
 20
368.7701993504622
 30
0.0
  0
VERTEX
  5
119B
330
118A
100
AcDbEntity
  8
SCHRAFFUR_RAND
100
AcDbVertex
100
AcDb2dVertex
 10
175.9566605316487
 20
369.8621993504622
 30
0.0
  0
SEQEND
  5
119C
330
118A
100
AcDbEntity
  8
SCHRAFFUR_RAND
  0
INSERT
  5
11A1
330
12C5
100
AcDbEntity
  8
8
100
AcDbBlockReference
  2
*X2
 10
-22.69333946835133
 20
31.60119935046223
 30
0.0
1001
ACAD
1000
HATCH
1002
{
1070
    19
1000
ANSI31,_I
1040
6.349999999999999
1040
-0.7850000000000001
1002
}
  0
POLYLINE
  5
11A2
330
12C5
100
AcDbEntity
  8
SCHRAFFUR_RAND
100
AcDb2dPolyline
 66
     1
 10
0.0
 20
0.0
 30
0.0
 70
     1
  0
VERTEX
  5
11A3
330
11A2
100
AcDbEntity
  8
SCHRAFFUR_RAND
100
AcDbVertex
100
AcDb2dVertex
 10
442.9026605316487
 20
356.0911993504622
 30
0.0
  0
VERTEX
  5
11A4
330
11A2
100
AcDbEntity
  8
SCHRAFFUR_RAND
100
AcDbVertex
100
AcDb2dVertex
 10
482.8516605316487
 20
359.5861993504623
 30
0.0
  0
VERTEX
  5
11A5
330
11A2
100
AcDbEntity
  8
SCHRAFFUR_RAND
100
AcDbVertex
100
AcDb2dVertex
 10
498.2066605316486
 20
365.1741993504622
 30
0.0
  0
VERTEX
  5
11A6
330
11A2
100
AcDbEntity
  8
SCHRAFFUR_RAND
100
AcDbVertex
100
AcDb2dVertex
 10
498.7586605316487
 20
365.4381993504622
 30
0.0
  0
VERTEX
  5
11A7
330
11A2
100
AcDbEntity
  8
SCHRAFFUR_RAND
100
AcDbVertex
100
AcDb2dVertex
 10
499.2216605316486
 20
365.8401993504623
 30
0.0
  0
VERTEX
  5
11A8
330
11A2
100
AcDbEntity
  8
SCHRAFFUR_RAND
100
AcDbVertex
100
AcDb2dVertex
 10
499.5736605316486
 20
366.3421993504623
 30
0.0
  0
VERTEX
  5
11A9
330
11A2
100
AcDbEntity
  8
SCHRAFFUR_RAND
100
AcDbVertex
100
AcDb2dVertex
 10
499.7936605316486
 20
366.9151993504622
 30
0.0
  0
VERTEX
  5
11AA
330
11A2
100
AcDbEntity
  8
SCHRAFFUR_RAND
100
AcDbVertex
100
AcDb2dVertex
 10
499.8516605316486
 20
367.5241993504623
 30
0.0
  0
VERTEX
  5
11AB
330
11A2
100
AcDbEntity
  8
SCHRAFFUR_RAND
100
AcDbVertex
100
AcDb2dVertex
 10
499.8516605316486
 20
369.8651993504622
 30
0.0
  0
VERTEX
  5
11AC
330
11A2
100
AcDbEntity
  8
SCHRAFFUR_RAND
100
AcDbVertex
100
AcDb2dVertex
 10
497.7466605316487
 20
369.8621993504622
 30
0.0
  0
VERTEX
  5
11AD
330
11A2
100
AcDbEntity
  8
SCHRAFFUR_RAND
100
AcDbVertex
100
AcDb2dVertex
 10
476.9086605316486
 20
368.7701993504622
 30
0.0
  0
VERTEX
  5
11AE
330
11A2
100
AcDbEntity
  8
SCHRAFFUR_RAND
100
AcDbVertex
100
AcDb2dVertex
 10
473.5806605316486
 20
365.4411993504622
 30
0.0
  0
VERTEX
  5
11AF
330
11A2
100
AcDbEntity
  8
SCHRAFFUR_RAND
100
AcDbVertex
100
AcDb2dVertex
 10
450.8496605316486
 20
365.4411993504622
 30
0.0
  0
VERTEX
  5
11B0
330
11A2
100
AcDbEntity
  8
SCHRAFFUR_RAND
100
AcDbVertex
100
AcDb2dVertex
 10
439.8516605316486
 20
364.8651993504623
 30
0.0
  0
VERTEX
  5
11B1
330
11A2
100
AcDbEntity
  8
SCHRAFFUR_RAND
100
AcDbVertex
100
AcDb2dVertex
 10
440.1876605316486
 20
358.4501993504622
 30
0.0
  0
VERTEX
  5
11B2
330
11A2
100
AcDbEntity
  8
SCHRAFFUR_RAND
100
AcDbVertex
100
AcDb2dVertex
 10
440.2956605316487
 20
357.7901993504622
 30
0.0
  0
VERTEX
  5
11B3
330
11A2
100
AcDbEntity
  8
SCHRAFFUR_RAND
100
AcDbVertex
100
AcDb2dVertex
 10
440.5896605316486
 20
357.1861993504622
 30
0.0
  0
VERTEX
  5
11B4
330
11A2
100
AcDbEntity
  8
SCHRAFFUR_RAND
100
AcDbVertex
100
AcDb2dVertex
 10
441.0336605316486
 20
356.6821993504622
 30
0.0
  0
VERTEX
  5
11B5
330
11A2
100
AcDbEntity
  8
SCHRAFFUR_RAND
100
AcDbVertex
100
AcDb2dVertex
 10
441.5946605316486
 20
356.3131993504622
 30
0.0
  0
VERTEX
  5
11B6
330
11A2
100
AcDbEntity
  8
SCHRAFFUR_RAND
100
AcDbVertex
100
AcDb2dVertex
 10
442.2326605316486
 20
356.1061993504623
 30
0.0
  0
VERTEX
  5
11B7
330
11A2
100
AcDbEntity
  8
SCHRAFFUR_RAND
100
AcDbVertex
100
AcDb2dVertex
 10
442.9026605316487
 20
356.0911993504622
 30
0.0
  0
SEQEND
  5
11B8
330
11A2
100
AcDbEntity
  8
SCHRAFFUR_RAND
  0
INSERT
  5
11C3
330
12C5
100
AcDbEntity
  8
8
100
AcDbBlockReference
  2
*X3
 10
-22.69333946835133
 20
31.60119935046223
 30
0.0
1001
ACAD
1000
HATCH
1002
{
1070
    19
1000
ANSI31,_I
1040
6.349999999999999
1040
-0.7850000000000001
1002
}
  0
DIMENSION
  5
11CD
330
12C5
100
AcDbEntity
  8
5
100
AcDbDimension
  2
*D11
 10
68.70673021861725
 20
363.7561993504623
 30
0.0
 11
68.70673021861718
 21
305.4048135847633
 31
0.0
 70
   160
  1
118
 71
     5
 42
117.724
  3
GEN-ISO
100
AcDbAlignedDimension
 13
336.8516605316487
 23
246.0321993504622
 33
0.0
 14
162.1806605316487
 24
363.7561993504622
 34
0.0
 50
90.0
100
AcDbRotatedDimension
1001
ACAD
1000
DSTYLE
1002
{
1070
    41
1040
5.0
1070
   140
1040
4.0
1002
}
  0
DIMENSION
  5
11E2
330
12C5
100
AcDbEntity
  8
5
100
AcDbDimension
  2
*D9
 10
436.8516605316487
 20
437.2511993504622
 30
0.0
 11
336.8516605316487
 21
450.2531678543992
 31
0.0
 70
    32
  1
%%c 200
 71
     5
 42
200.0
  3
GEN-ISO
100
AcDbAlignedDimension
 13
236.8516605316487
 23
367.8651993504623
 33
0.0
 14
436.8516605316487
 24
367.8651993504623
 34
0.0
100
AcDbRotatedDimension
1001
ACAD
1000
DSTYLE
1002
{
1070
    41
1040
5.0
1070
   140
1040
4.0
1002
}
  0
POLYLINE
  5
11E3
330
12C5
100
AcDbEntity
  8
SCHRAFFUR_RAND
100
AcDb2dPolyline
 66
     1
 10
0.0
 20
0.0
 30
0.0
 70
     1
  0
VERTEX
  5
11E4
330
11E3
100
AcDbEntity
  8
SCHRAFFUR_RAND
100
AcDbVertex
100
AcDb2dVertex
 10
243.1906605316487
 20
351.8651993504623
 30
0.0
  0
VERTEX
  5
11E5
330
11E3
100
AcDbEntity
  8
SCHRAFFUR_RAND
100
AcDbVertex
100
AcDb2dVertex
 10
242.9806605316487
 20
355.8651993504623
 30
0.0
  0
VERTEX
  5
11E6
330
11E3
100
AcDbEntity
  8
SCHRAFFUR_RAND
100
AcDbVertex
100
AcDb2dVertex
 10
235.8016605316487
 20
355.8651993504623
 30
0.0
  0
VERTEX
  5
11E7
330
11E3
100
AcDbEntity
  8
SCHRAFFUR_RAND
100
AcDbVertex
100
AcDb2dVertex
 10
235.6026605316487
 20
353.5851993504623
 30
0.0
  0
VERTEX
  5
11E8
330
11E3
100
AcDbEntity
  8
SCHRAFFUR_RAND
100
AcDbVertex
100
AcDb2dVertex
 10
235.2896605316487
 20
352.2781993504623
 30
0.0
  0
VERTEX
  5
11E9
330
11E3
100
AcDbEntity
  8
SCHRAFFUR_RAND
100
AcDbVertex
100
AcDb2dVertex
 10
234.2356605316487
 20
351.3931993504623
 30
0.0
  0
VERTEX
  5
11EA
330
11E3
100
AcDbEntity
  8
SCHRAFFUR_RAND
100
AcDbVertex
100
AcDb2dVertex
 10
232.8946605316487
 20
351.3121993504622
 30
0.0
  0
VERTEX
  5
11EB
330
11E3
100
AcDbEntity
  8
SCHRAFFUR_RAND
100
AcDbVertex
100
AcDb2dVertex
 10
230.3416605316487
 20
351.5351993504622
 30
0.0
  0
VERTEX
  5
11EC
330
11E3
100
AcDbEntity
  8
SCHRAFFUR_RAND
100
AcDbVertex
100
AcDb2dVertex
 10
216.8526605316487
 20
352.7161993504623
 30
0.0
  0
VERTEX
  5
11ED
330
11E3
100
AcDbEntity
  8
SCHRAFFUR_RAND
100
AcDbVertex
100
AcDb2dVertex
 10
216.8516605316487
 20
341.1281993504622
 30
0.0
  0
VERTEX
  5
11EE
330
11E3
100
AcDbEntity
  8
SCHRAFFUR_RAND
100
AcDbVertex
100
AcDb2dVertex
 10
216.8516605316487
 20
337.6281993504622
 30
0.0
  0
VERTEX
  5
11EF
330
11E3
100
AcDbEntity
  8
SCHRAFFUR_RAND
100
AcDbVertex
100
AcDb2dVertex
 10
215.8516605316487
 20
337.6281993504622
 30
0.0
  0
VERTEX
  5
11F0
330
11E3
100
AcDbEntity
  8
SCHRAFFUR_RAND
100
AcDbVertex
100
AcDb2dVertex
 10
215.8516605316487
 20
332.1281993504622
 30
0.0
  0
VERTEX
  5
11F1
330
11E3
100
AcDbEntity
  8
SCHRAFFUR_RAND
100
AcDbVertex
100
AcDb2dVertex
 10
211.8516605316487
 20
329.8191993504622
 30
0.0
  0
VERTEX
  5
11F2
330
11E3
100
AcDbEntity
  8
SCHRAFFUR_RAND
100
AcDbVertex
100
AcDb2dVertex
 10
207.8516605316487
 20
332.1281993504622
 30
0.0
  0
VERTEX
  5
11F3
330
11E3
100
AcDbEntity
  8
SCHRAFFUR_RAND
100
AcDbVertex
100
AcDb2dVertex
 10
207.8516605316487
 20
337.6281993504622
 30
0.0
  0
VERTEX
  5
11F4
330
11E3
100
AcDbEntity
  8
SCHRAFFUR_RAND
100
AcDbVertex
100
AcDb2dVertex
 10
206.8516605316486
 20
337.6281993504622
 30
0.0
  0
VERTEX
  5
11F5
330
11E3
100
AcDbEntity
  8
SCHRAFFUR_RAND
100
AcDbVertex
100
AcDb2dVertex
 10
206.8516605316486
 20
341.1281993504622
 30
0.0
  0
VERTEX
  5
11F6
330
11E3
100
AcDbEntity
  8
SCHRAFFUR_RAND
100
AcDbVertex
100
AcDb2dVertex
 10
206.8516605316486
 20
352.6281993504622
 30
0.0
  0
VERTEX
  5
11F7
330
11E3
100
AcDbEntity
  8
SCHRAFFUR_RAND
100
AcDbVertex
100
AcDb2dVertex
 10
205.8516605316487
 20
352.6281993504622
 30
0.0
  0
VERTEX
  5
11F8
330
11E3
100
AcDbEntity
  8
SCHRAFFUR_RAND
100
AcDbVertex
100
AcDb2dVertex
 10
205.2136605316487
 20
353.7341993504622
 30
0.0
  0
VERTEX
  5
11F9
330
11E3
100
AcDbEntity
  8
SCHRAFFUR_RAND
100
AcDbVertex
100
AcDb2dVertex
 10
190.8516605316486
 20
354.9901993504623
 30
0.0
  0
VERTEX
  5
11FA
330
11E3
100
AcDbEntity
  8
SCHRAFFUR_RAND
100
AcDbVertex
100
AcDb2dVertex
 10
162.7866605316486
 20
363.5701993504622
 30
0.0
  0
VERTEX
  5
11FB
330
11E3
100
AcDbEntity
  8
SCHRAFFUR_RAND
100
AcDbVertex
100
AcDb2dVertex
 10
162.1806605316487
 20
363.7561993504622
 30
0.0
  0
VERTEX
  5
11FC
330
11E3
100
AcDbEntity
  8
SCHRAFFUR_RAND
100
AcDbVertex
100
AcDb2dVertex
 10
160.5166605316487
 20
363.7561993504622
 30
0.0
  0
VERTEX
  5
11FD
330
11E3
100
AcDbEntity
  8
SCHRAFFUR_RAND
100
AcDbVertex
100
AcDb2dVertex
 10
158.5426605316486
 20
362.5461993504622
 30
0.0
  0
VERTEX
  5
11FE
330
11E3
100
AcDbEntity
  8
SCHRAFFUR_RAND
100
AcDbVertex
100
AcDb2dVertex
 10
157.6776605316486
 20
360.4401993504622
 30
0.0
  0
VERTEX
  5
11FF
330
11E3
100
AcDbEntity
  8
SCHRAFFUR_RAND
100
AcDbVertex
100
AcDb2dVertex
 10
156.8506605316487
 20
355.7561993504622
 30
0.0
  0
VERTEX
  5
1200
330
11E3
100
AcDbEntity
  8
SCHRAFFUR_RAND
100
AcDbVertex
100
AcDb2dVertex
 10
167.8256605316487
 20
355.7561993504622
 30
0.0
  0
VERTEX
  5
1201
330
11E3
100
AcDbEntity
  8
SCHRAFFUR_RAND
100
AcDbVertex
100
AcDb2dVertex
 10
189.7016605316487
 20
349.0681993504622
 30
0.0
  0
VERTEX
  5
1202
330
11E3
100
AcDbEntity
  8
SCHRAFFUR_RAND
100
AcDbVertex
100
AcDb2dVertex
 10
195.1896605316486
 20
348.5881993504622
 30
0.0
  0
VERTEX
  5
1203
330
11E3
100
AcDbEntity
  8
SCHRAFFUR_RAND
100
AcDbVertex
100
AcDb2dVertex
 10
196.6606605316487
 20
347.9401993504622
 30
0.0
  0
VERTEX
  5
1204
330
11E3
100
AcDbEntity
  8
SCHRAFFUR_RAND
100
AcDbVertex
100
AcDb2dVertex
 10
197.4346605316486
 20
346.5321993504622
 30
0.0
  0
VERTEX
  5
1205
330
11E3
100
AcDbEntity
  8
SCHRAFFUR_RAND
100
AcDbVertex
100
AcDb2dVertex
 10
200.0356605316487
 20
331.7811993504622
 30
0.0
  0
VERTEX
  5
1206
330
11E3
100
AcDbEntity
  8
SCHRAFFUR_RAND
100
AcDbVertex
100
AcDb2dVertex
 10
201.6626605316487
 20
327.2311993504623
 30
0.0
  0
VERTEX
  5
1207
330
11E3
100
AcDbEntity
  8
SCHRAFFUR_RAND
100
AcDbVertex
100
AcDb2dVertex
 10
205.0336605316487
 20
323.7991993504622
 30
0.0
  0
VERTEX
  5
1208
330
11E3
100
AcDbEntity
  8
SCHRAFFUR_RAND
100
AcDbVertex
100
AcDb2dVertex
 10
209.4716605316487
 20
321.9421993504623
 30
0.0
  0
VERTEX
  5
1209
330
11E3
100
AcDbEntity
  8
SCHRAFFUR_RAND
100
AcDbVertex
100
AcDb2dVertex
 10
214.2826605316487
 20
321.9521993504622
 30
0.0
  0
VERTEX
  5
120A
330
11E3
100
AcDbEntity
  8
SCHRAFFUR_RAND
100
AcDbVertex
100
AcDb2dVertex
 10
218.7126605316486
 20
323.8271993504623
 30
0.0
  0
VERTEX
  5
120B
330
11E3
100
AcDbEntity
  8
SCHRAFFUR_RAND
100
AcDbVertex
100
AcDb2dVertex
 10
222.0696605316487
 20
327.2751993504622
 30
0.0
  0
VERTEX
  5
120C
330
11E3
100
AcDbEntity
  8
SCHRAFFUR_RAND
100
AcDbVertex
100
AcDb2dVertex
 10
223.6686605316487
 20
331.7811993504622
 30
0.0
  0
VERTEX
  5
120D
330
11E3
100
AcDbEntity
  8
SCHRAFFUR_RAND
100
AcDbVertex
100
AcDb2dVertex
 10
225.7566605316487
 20
343.6221993504622
 30
0.0
  0
VERTEX
  5
120E
330
11E3
100
AcDbEntity
  8
SCHRAFFUR_RAND
100
AcDbVertex
100
AcDb2dVertex
 10
226.6976605316487
 20
345.1721993504622
 30
0.0
  0
VERTEX
  5
120F
330
11E3
100
AcDbEntity
  8
SCHRAFFUR_RAND
100
AcDbVertex
100
AcDb2dVertex
 10
228.4376605316487
 20
345.6791993504622
 30
0.0
  0
VERTEX
  5
1210
330
11E3
100
AcDbEntity
  8
SCHRAFFUR_RAND
100
AcDbVertex
100
AcDb2dVertex
 10
239.1716605316487
 20
344.7401993504623
 30
0.0
  0
VERTEX
  5
1211
330
11E3
100
AcDbEntity
  8
SCHRAFFUR_RAND
100
AcDbVertex
100
AcDb2dVertex
 10
242.0186605316487
 20
344.1191993504622
 30
0.0
  0
VERTEX
  5
1212
330
11E3
100
AcDbEntity
  8
SCHRAFFUR_RAND
100
AcDbVertex
100
AcDb2dVertex
 10
244.3916605316486
 20
342.3861993504622
 30
0.0
  0
VERTEX
  5
1213
330
11E3
100
AcDbEntity
  8
SCHRAFFUR_RAND
100
AcDbVertex
100
AcDb2dVertex
 10
245.9976605316486
 20
339.9251993504622
 30
0.0
  0
VERTEX
  5
1214
330
11E3
100
AcDbEntity
  8
SCHRAFFUR_RAND
100
AcDbVertex
100
AcDb2dVertex
 10
246.4696605316487
 20
337.0501993504622
 30
0.0
  0
VERTEX
  5
1215
330
11E3
100
AcDbEntity
  8
SCHRAFFUR_RAND
100
AcDbVertex
100
AcDb2dVertex
 10
248.4876605316487
 20
279.2621993504622
 30
0.0
  0
VERTEX
  5
1216
330
11E3
100
AcDbEntity
  8
SCHRAFFUR_RAND
100
AcDbVertex
100
AcDb2dVertex
 10
249.4256605316487
 20
272.3991993504622
 30
0.0
  0
VERTEX
  5
1217
330
11E3
100
AcDbEntity
  8
SCHRAFFUR_RAND
100
AcDbVertex
100
AcDb2dVertex
 10
252.1666605316487
 20
266.0181993504622
 30
0.0
  0
VERTEX
  5
1218
330
11E3
100
AcDbEntity
  8
SCHRAFFUR_RAND
100
AcDbVertex
100
AcDb2dVertex
 10
256.3866605316487
 20
260.5021993504622
 30
0.0
  0
VERTEX
  5
1219
330
11E3
100
AcDbEntity
  8
SCHRAFFUR_RAND
100
AcDbVertex
100
AcDb2dVertex
 10
261.8276605316486
 20
256.1871993504622
 30
0.0
  0
VERTEX
  5
121A
330
11E3
100
AcDbEntity
  8
SCHRAFFUR_RAND
100
AcDbVertex
100
AcDb2dVertex
 10
268.1596605316487
 20
253.3351993504622
 30
0.0
  0
VERTEX
  5
121B
330
11E3
100
AcDbEntity
  8
SCHRAFFUR_RAND
100
AcDbVertex
100
AcDb2dVertex
 10
275.0056605316487
 20
252.2771993504622
 30
0.0
  0
VERTEX
  5
121C
330
11E3
100
AcDbEntity
  8
SCHRAFFUR_RAND
100
AcDbVertex
100
AcDb2dVertex
 10
316.1496605316487
 20
250.1211993504622
 30
0.0
  0
VERTEX
  5
121D
330
11E3
100
AcDbEntity
  8
SCHRAFFUR_RAND
100
AcDbVertex
100
AcDb2dVertex
 10
356.6016605316487
 20
248.0011993504622
 30
0.0
  0
VERTEX
  5
121E
330
11E3
100
AcDbEntity
  8
SCHRAFFUR_RAND
100
AcDbVertex
100
AcDb2dVertex
 10
643.9726605316486
 20
232.9401993504622
 30
0.0
  0
VERTEX
  5
121F
330
11E3
100
AcDbEntity
  8
SCHRAFFUR_RAND
100
AcDbVertex
100
AcDb2dVertex
 10
644.3396605316486
 20
239.9311993504622
 30
0.0
  0
VERTEX
  5
1220
330
11E3
100
AcDbEntity
  8
SCHRAFFUR_RAND
100
AcDbVertex
100
AcDb2dVertex
 10
619.2686605316487
 20
239.2421993504622
 30
0.0
  0
VERTEX
  5
1221
330
11E3
100
AcDbEntity
  8
SCHRAFFUR_RAND
100
AcDbVertex
100
AcDb2dVertex
 10
275.2666605316487
 20
257.2701993504622
 30
0.0
  0
VERTEX
  5
1222
330
11E3
100
AcDbEntity
  8
SCHRAFFUR_RAND
100
AcDbVertex
100
AcDb2dVertex
 10
268.5496605316487
 20
258.4771993504622
 30
0.0
  0
VERTEX
  5
1223
330
11E3
100
AcDbEntity
  8
SCHRAFFUR_RAND
100
AcDbVertex
100
AcDb2dVertex
 10
262.5336605316487
 20
261.7441993504622
 30
0.0
  0
VERTEX
  5
1224
330
11E3
100
AcDbEntity
  8
SCHRAFFUR_RAND
100
AcDbVertex
100
AcDb2dVertex
 10
257.7346605316487
 20
266.6271993504622
 30
0.0
  0
VERTEX
  5
1225
330
11E3
100
AcDbEntity
  8
SCHRAFFUR_RAND
100
AcDbVertex
100
AcDb2dVertex
 10
254.5736605316487
 20
272.6991993504622
 30
0.0
  0
VERTEX
  5
1226
330
11E3
100
AcDbEntity
  8
SCHRAFFUR_RAND
100
AcDbVertex
100
AcDb2dVertex
 10
253.4846605316487
 20
279.4361993504622
 30
0.0
  0
VERTEX
  5
1227
330
11E3
100
AcDbEntity
  8
SCHRAFFUR_RAND
100
AcDbVertex
100
AcDb2dVertex
 10
252.9316605316487
 20
295.2781993504623
 30
0.0
  0
VERTEX
  5
1228
330
11E3
100
AcDbEntity
  8
SCHRAFFUR_RAND
100
AcDbVertex
100
AcDb2dVertex
 10
253.0966605316487
 20
296.6401993504622
 30
0.0
  0
VERTEX
  5
1229
330
11E3
100
AcDbEntity
  8
SCHRAFFUR_RAND
100
AcDbVertex
100
AcDb2dVertex
 10
254.0736605316487
 20
297.6521993504622
 30
0.0
  0
VERTEX
  5
122A
330
11E3
100
AcDbEntity
  8
SCHRAFFUR_RAND
100
AcDbVertex
100
AcDb2dVertex
 10
255.4296605316487
 20
297.8651993504623
 30
0.0
  0
VERTEX
  5
122B
330
11E3
100
AcDbEntity
  8
SCHRAFFUR_RAND
100
AcDbVertex
100
AcDb2dVertex
 10
255.8516605316487
 20
297.8651993504623
 30
0.0
  0
VERTEX
  5
122C
330
11E3
100
AcDbEntity
  8
SCHRAFFUR_RAND
100
AcDbVertex
100
AcDb2dVertex
 10
255.8516605316487
 20
302.8651993504622
 30
0.0
  0
VERTEX
  5
122D
330
11E3
100
AcDbEntity
  8
SCHRAFFUR_RAND
100
AcDbVertex
100
AcDb2dVertex
 10
255.0796605316486
 20
302.8651993504622
 30
0.0
  0
VERTEX
  5
122E
330
11E3
100
AcDbEntity
  8
SCHRAFFUR_RAND
100
AcDbVertex
100
AcDb2dVertex
 10
253.7776605316487
 20
303.0471993504622
 30
0.0
  0
VERTEX
  5
122F
330
11E3
100
AcDbEntity
  8
SCHRAFFUR_RAND
100
AcDbVertex
100
AcDb2dVertex
 10
252.8096605316487
 20
303.9831993504622
 30
0.0
  0
VERTEX
  5
1230
330
11E3
100
AcDbEntity
  8
SCHRAFFUR_RAND
100
AcDbVertex
100
AcDb2dVertex
 10
252.5816605316486
 20
305.2781993504623
 30
0.0
  0
VERTEX
  5
1231
330
11E3
100
AcDbEntity
  8
SCHRAFFUR_RAND
100
AcDbVertex
100
AcDb2dVertex
 10
251.3506605316487
 20
340.5231993504623
 30
0.0
  0
VERTEX
  5
1232
330
11E3
100
AcDbEntity
  8
SCHRAFFUR_RAND
100
AcDbVertex
100
AcDb2dVertex
 10
249.9686605316487
 20
348.3651993504623
 30
0.0
  0
VERTEX
  5
1233
330
11E3
100
AcDbEntity
  8
SCHRAFFUR_RAND
100
AcDbVertex
100
AcDb2dVertex
 10
243.3736605316487
 20
348.3651993504623
 30
0.0
  0
VERTEX
  5
1234
330
11E3
100
AcDbEntity
  8
SCHRAFFUR_RAND
100
AcDbVertex
100
AcDb2dVertex
 10
243.1906605316487
 20
351.8651993504623
 30
0.0
  0
SEQEND
  5
1235
330
11E3
100
AcDbEntity
  8
SCHRAFFUR_RAND
  0
INSERT
  5
127F
330
12C5
100
AcDbEntity
  8
8
100
AcDbBlockReference
  2
*X4
 10
-22.69333946835133
 20
31.60119935046223
 30
0.0
1001
ACAD
1000
HATCH
1002
{
1070
    19
1000
ANSI31,_I
1040
6.349999999999999
1040
0.7850000000000001
1002
}
  0
INSERT
  5
1353
330
12C5
100
AcDbEntity
  8
0
100
AcDbBlockReference
  2
KATALOG_LEER
 10
251.8397057689299
 20
11.30448323131759
 30
0.0
 41
5.0
 42
5.0
 43
5.0
1001
GENIUS_GENOREF_13
1005
1354
  0
POINT
  5
1354
330
12C5
100
AcDbEntity
  8
0
 60
     1
100
AcDbPoint
 10
0.0
 20
0.0
 30
0.0
1001
GENIUS_GENOBJ-N-TIT_13
1002
{
1000
OWNER
1000
GEN
1002
}
1001
GENIUS_GENOENT_13
1002
{
1000
MYREF
1005
1354
1002
}
1002
{
1000
GRP
1005
0
1002
}
1001
GENIUS_GENOLIS_13
1002
{
1000
ENT
1005
1353
1002
}
1001
GENIUS_GENTITLE_13
1002
{
1000
SCALE
1000
1:5
1002
}
1002
{
1000
BORDER
1000
KATALOG
1002
}
1002
{
1000
TITLE
1000
KATALOG_LEER
1002
}
1002
{
1000
UNCHG
1002
{
1000
GEN-TITLE-SCA
1000
GEN-TITLE-SIZ
1002
}
1002
}
1002
{
1000
HRA
1005
134C
1002
}
1002
{
1000
HTIT
1005
1353
1002
}
1002
{
1000
GENIUSID
1005
1354
1002
}
1001
GENIUS_GENODEF_13
1002
{
1000
HIER
1070
     1
1002
}
1002
{
1000
MANEDIT
1070
     1
1002
}
1002
{
1000
NOSEL
1070
     0
1002
}
1002
{
1000
BEHIND
1070
     0
1002
}
1002
{
1000
REACTOR
1002
}
  0
ENDSEC
  0
SECTION
  2
OBJECTS
  0
DICTIONARY
  5
12B9
330
0
100
AcDbDictionary
281
     1
  3
ACAD_COLOR
350
157B
  3
ACAD_GROUP
350
12BA
  3
ACAD_LAYOUT
350
157E
  3
ACAD_MATERIAL
350
157A
  3
ACAD_MLINESTYLE
350
12C8
  3
ACAD_PLOTSETTINGS
350
157F
  3
ACAD_PLOTSTYLENAME
350
1578
  3
ACAD_TABLESTYLE
350
157C
  3
ACDBHEADERROUNDTRIPXREC
350
16C7
  3
AcDbVariableDictionary
350
16C2
  3
AcmDictionary
350
15DF
  3
AMG
350
1585
  3
AMGSNAPSETTINGS
350
1675
  0
DICTIONARY
  5
157B
102
{ACAD_REACTORS
330
12B9
102
}
330
12B9
100
AcDbDictionary
281
     1
  0
DICTIONARY
  5
12BA
102
{ACAD_REACTORS
330
12B9
102
}
330
12B9
100
AcDbDictionary
281
     1
  0
DICTIONARY
  5
157E
102
{ACAD_REACTORS
330
12B9
102
}
330
12B9
100
AcDbDictionary
281
     1
  3
Layout1
350
1581
  3
Model
350
1580
  0
DICTIONARY
  5
157A
102
{ACAD_REACTORS
330
12B9
102
}
330
12B9
100
AcDbDictionary
281
     1
  0
DICTIONARY
  5
12C8
102
{ACAD_REACTORS
330
12B9
102
}
330
12B9
100
AcDbDictionary
281
     1
  3
STANDARD
350
12C9
  0
DICTIONARY
  5
157F
102
{ACAD_REACTORS
330
12B9
102
}
330
12B9
100
AcDbDictionary
281
     1
  0
ACDBDICTIONARYWDFLT
  5
1578
102
{ACAD_REACTORS
330
12B9
102
}
330
12B9
100
AcDbDictionary
281
     1
  3
Normal
350
1579
100
AcDbDictionaryWithDefault
340
1579
  0
DICTIONARY
  5
157C
102
{ACAD_REACTORS
330
12B9
102
}
330
12B9
100
AcDbDictionary
281
     1
  3
Standard
350
157D
  0
DICTIONARY
  5
16C7
102
{ACAD_REACTORS
330
12B9
102
}
330
12B9
100
AcDbDictionary
281
     1
  0
DICTIONARY
  5
16C2
102
{ACAD_REACTORS
330
12B9
102
}
330
12B9
100
AcDbDictionary
281
     1
  3
CTABLESTYLE
350
16C3
  3
DIMASSOC
350
16C4
  3
PROJECTNAME
350
16C5
  0
DICTIONARY
  5
15DF
102
{ACAD_REACTORS
330
12B9
102
}
330
12B9
100
AcDbDictionary
281
     1
  3
AcmStdDictionary
350
15EA
  3
AMDTSECTSYM_ARROWCOLOR
350
160D
  0
DICTIONARY
  5
1585
102
{ACAD_REACTORS
330
12B9
102
}
330
12B9
100
AcDbDictionary
281
     1
  0
DICTIONARY
  5
1675
102
{ACAD_REACTORS
330
12B9
102
}
330
12B9
100
AcDbDictionary
281
     1
  0
LAYOUT
  5
1581
102
{ACAD_XDICTIONARY
360
16CA
102
}
102
{ACAD_REACTORS
330
157E
102
}
330
157E
100
AcDbPlotSettings
  1

  2
Xerox Document Centre CS50 PS
  4

  6

 40
0.0
 41
0.0
 42
0.0
 43
0.0
 44
0.0
 45
0.0
 46
0.0
 47
0.0
 48
0.0
 49
0.0
140
0.0
141
0.0
142
1.0
143
1.0
 70
   688
 72
     0
 73
     0
 74
     5
  7

 75
    16
147
1.0
148
0.0
149
0.0
100
AcDbLayout
  1
Layout1
 70
     1
 71
     1
 10
0.0
 20
0.0
 11
419.8999999999999
 21
296.9
 12
0.0
 22
0.0
 32
0.0
 14
0.0
 24
0.0
 34
0.0
 15
419.8999999999999
 25
296.9
 35
0.0
146
0.0
 13
0.0
 23
0.0
 33
0.0
 16
1.0
 26
0.0
 36
0.0
 17
0.0
 27
1.0
 37
0.0
 76
     0
330
12C2
  0
LAYOUT
  5
1580
102
{ACAD_XDICTIONARY
360
16C8
102
}
102
{ACAD_REACTORS
330
157E
102
}
330
157E
100
AcDbPlotSettings
  1

  2
Xerox Document Centre CS50 PS
  4

  6

 40
0.0
 41
0.0
 42
0.0
 43
0.0
 44
0.0
 45
0.0
 46
0.0
 47
0.0
 48
0.0
 49
0.0
140
0.0
141
0.0
142
1.0
143
1.0
 70
  1712
 72
     0
 73
     0
 74
     0
  7

 75
     0
147
1.0
148
0.0
149
0.0
100
AcDbLayout
  1
Model
 70
     1
 71
     0
 10
0.0
 20
0.0
 11
12.0
 21
9.0
 12
0.0
 22
0.0
 32
0.0
 14
0.0
 24
0.0
 34
0.0
 15
0.0
 25
0.0
 35
0.0
146
0.0
 13
0.0
 23
0.0
 33
0.0
 16
1.0
 26
0.0
 36
0.0
 17
0.0
 27
1.0
 37
0.0
 76
     0
330
12C5
  0
MLINESTYLE
  5
12C9
102
{ACAD_REACTORS
330
12C8
102
}
330
12C8
100
AcDbMlineStyle
  2
STANDARD
 70
     0
  3

 62
   256
 51
90.0
 52
90.0
 71
     2
 49
0.5
 62
   256
  6
BYLAYER
 49
-0.5
 62
   256
  6
BYLAYER
  0
ACDBPLACEHOLDER
  5
1579
102
{ACAD_REACTORS
330
1578
102
}
330
1578
  0
TABLESTYLE
  5
157D
102
{ACAD_REACTORS
330
157C
102
}
330
157C
100
AcDbTableStyle
  3
Standard
 70
     0
 71
     0
 40
1.5
 41
1.5
280
     0
281
     0
  7
STANDARD
140
4.5
170
     2
 62
     0
 63
     7
283
     0
274
    -2
284
     1
 64
     0
275
    -2
285
     1
 65
     0
276
    -2
286
     1
 66
     0
277
    -2
287
     1
 67
     0
278
    -2
288
     1
 68
     0
279
    -2
289
     1
 69
     0
  7
STANDARD
140
6.0
170
     5
 62
     0
 63
     7
283
     0
274
    -2
284
     1
 64
     0
275
    -2
285
     1
 65
     0
276
    -2
286
     1
 66
     0
277
    -2
287
     1
 67
     0
278
    -2
288
     1
 68
     0
279
    -2
289
     1
 69
     0
  7
STANDARD
140
4.5
170
     5
 62
     0
 63
     7
283
     0
274
    -2
284
     1
 64
     0
275
    -2
285
     1
 65
     0
276
    -2
286
     1
 66
     0
277
    -2
287
     1
 67
     0
278
    -2
288
     1
 68
     0
279
    -2
289
     1
 69
     0
  0
DICTIONARYVAR
  5
16C3
102
{ACAD_REACTORS
330
16C2
102
}
330
16C2
100
DictionaryVariables
280
     0
  1
STANDARD
  0
DICTIONARYVAR
  5
16C4
102
{ACAD_REACTORS
330
16C2
102
}
330
16C2
100
DictionaryVariables
280
     0
  1
1
  0
DICTIONARYVAR
  5
16C5
102
{ACAD_REACTORS
330
16C2
102
}
330
16C2
100
DictionaryVariables
280
     0
  1

  0
DICTIONARY
  5
15EA
102
{ACAD_REACTORS
330
15DF
102
}
330
15DF
100
AcDbDictionary
281
     1
  0
XRECORD
  5
160D
102
{ACAD_REACTORS
330
15DF
102
}
330
15DF
100
AcDbXrecord
280
     1
 90
-1023410169
  0
DICTIONARY
  5
16CA
330
1581
100
AcDbDictionary
280
     1
281
     1
  3
ACAD_XREC_ROUNDTRIP
360
16CB
  0
DICTIONARY
  5
16C8
330
1580
100
AcDbDictionary
280
     1
281
     1
  3
ACAD_XREC_ROUNDTRIP
360
16C9
  0
XRECORD
  5
16CB
102
{ACAD_REACTORS
330
16CA
102
}
330
16CA
100
AcDbXrecord
280
     1
102
SHADEPLOT
 70
     0
102
SHADEPLOTRESLEVEL
 70
     2
102
SHADEPLOTCUSTOMDPI
 70
   300
  0
XRECORD
  5
16C9
102
{ACAD_REACTORS
330
16C8
102
}
330
16C8
100
AcDbXrecord
280
     1
102
SHADEPLOT
 70
     0
102
SHADEPLOTRESLEVEL
 70
     2
102
SHADEPLOTCUSTOMDPI
 70
   300
  0
ENDSEC
  0
EOF
