  0
SECTION
  2
HEADER
  9
$ACADVER
  1
AC1018
  9
$ACADMAINTVER
 70
   104
  9
$DWGCODEPAGE
  3
ANSI_1252
  9
$LASTSAVEDBY
  1
atittmar
  9
$INSBASE
 10
0.0
 20
0.0
 30
0.0
  9
$EXTMIN
 10
153.1073678688933
 20
127.6054774306981
 30
0.0
  9
$EXTMAX
 10
569.228545
 20
615.2370547637791
 30
0.0
  9
$LIMMIN
 10
0.0
 20
0.0
  9
$LIMMAX
 10
1050.0
 20
1050.0
  9
$ORTHOMODE
 70
     1
  9
$REGENMODE
 70
     1
  9
$FILLMODE
 70
     1
  9
$QTEXTMODE
 70
     0
  9
$MIRRTEXT
 70
     0
  9
$LTSCALE
 40
5.0
  9
$ATTMODE
 70
     1
  9
$TEXTSIZE
 40
12.5
  9
$TRACEWID
 40
0.05
  9
$TEXTSTYLE
  7
STANDARD
  9
$CLAYER
  8
0
  9
$CELTYPE
  6
BYLAYER
  9
$CECOLOR
 62
   256
  9
$CELTSCALE
 40
1.0
  9
$DISPSILH
 70
     0
  9
$DIMSCALE
 40
1.0
  9
$DIMASZ
 40
3.5
  9
$DIMEXO
 40
1.0
  9
$DIMDLI
 40
10.0
  9
$DIMRND
 40
0.0
  9
$DIMDLE
 40
0.0
  9
$DIMEXE
 40
1.0
  9
$DIMTP
 40
0.1
  9
$DIMTM
 40
0.1
  9
$DIMTXT
 40
3.5
  9
$DIMCEN
 40
0.0
  9
$DIMTSZ
 40
0.0
  9
$DIMTOL
 70
     0
  9
$DIMLIM
 70
     0
  9
$DIMTIH
 70
     0
  9
$DIMTOH
 70
     0
  9
$DIMSE1
 70
     0
  9
$DIMSE2
 70
     0
  9
$DIMTAD
 70
     1
  9
$DIMZIN
 70
     8
  9
$DIMBLK
  1

  9
$DIMASO
 70
     1
  9
$DIMSHO
 70
     1
  9
$DIMPOST
  1

  9
$DIMAPOST
  1
"
  9
$DIMALT
 70
     0
  9
$DIMALTD
 70
     2
  9
$DIMALTF
 40
0.0393701
  9
$DIMLFAC
 40
1.0
  9
$DIMTOFL
 70
     1
  9
$DIMTVP
 40
0.0
  9
$DIMTIX
 70
     0
  9
$DIMSOXD
 70
     0
  9
$DIMSAH
 70
     0
  9
$DIMBLK1
  1

  9
$DIMBLK2
  1

  9
$DIMSTYLE
  2
AM_DIN
  9
$DIMCLRD
 70
   256
  9
$DIMCLRE
 70
   256
  9
$DIMCLRT
 70
     2
  9
$DIMTFAC
 40
0.71
  9
$DIMGAP
 40
1.5
  9
$DIMJUST
 70
     0
  9
$DIMSD1
 70
     0
  9
$DIMSD2
 70
     0
  9
$DIMTOLJ
 70
     0
  9
$DIMTZIN
 70
     8
  9
$DIMALTZ
 70
     0
  9
$DIMALTTZ
 70
     0
  9
$DIMUPT
 70
     0
  9
$DIMDEC
 70
     2
  9
$DIMTDEC
 70
     3
  9
$DIMALTU
 70
     2
  9
$DIMALTTD
 70
     4
  9
$DIMTXSTY
  7
STANDARD
  9
$DIMAUNIT
 70
     0
  9
$DIMADEC
 70
     0
  9
$DIMALTRND
 40
0.0
  9
$DIMAZIN
 70
     2
  9
$DIMDSEP
 70
    46
  9
$DIMATFIT
 70
     3
  9
$DIMFRAC
 70
     0
  9
$DIMLDRBLK
  1

  9
$DIMLUNIT
 70
     2
  9
$DIMLWD
 70
    -1
  9
$DIMLWE
 70
    -1
  9
$DIMTMOVE
 70
     0
  9
$LUNITS
 70
     2
  9
$LUPREC
 70
     2
  9
$SKETCHINC
 40
0.1
  9
$FILLETRAD
 40
0.0
  9
$AUNITS
 70
     0
  9
$AUPREC
 70
     2
  9
$MENU
  1
.
  9
$ELEVATION
 40
0.0
  9
$PELEVATION
 40
0.0
  9
$THICKNESS
 40
0.0
  9
$LIMCHECK
 70
     0
  9
$CHAMFERA
 40
12.5
  9
$CHAMFERB
 40
12.5
  9
$CHAMFERC
 40
0.0
  9
$CHAMFERD
 40
0.0
  9
$SKPOLY
 70
     0
  9
$TDCREATE
 40
2451296.341188924
  9
$TDUCREATE
 40
2451296.257855591
  9
$TDUPDATE
 40
2455296.558700637
  9
$TDUUPDATE
 40
2455296.475367303
  9
$TDINDWG
 40
0.0250460764
  9
$TDUSRTIMER
 40
0.0250460764
  9
$USRTIMER
 70
     1
  9
$ANGBASE
 50
0.0
  9
$ANGDIR
 70
     0
  9
$PDMODE
 70
     0
  9
$PDSIZE
 40
0.0
  9
$PLINEWID
 40
0.0
  9
$SPLFRAME
 70
     0
  9
$SPLINETYPE
 70
     6
  9
$SPLINESEGS
 70
     8
  9
$HANDSEED
  5
17B1
  9
$SURFTAB1
 70
     6
  9
$SURFTAB2
 70
     6
  9
$SURFTYPE
 70
     6
  9
$SURFU
 70
     6
  9
$SURFV
 70
     6
  9
$UCSBASE
  2

  9
$UCSNAME
  2

  9
$UCSORG
 10
0.0
 20
0.0
 30
0.0
  9
$UCSXDIR
 10
1.0
 20
0.0
 30
0.0
  9
$UCSYDIR
 10
0.0
 20
1.0
 30
0.0
  9
$UCSORTHOREF
  2

  9
$UCSORTHOVIEW
 70
     0
  9
$UCSORGTOP
 10
0.0
 20
0.0
 30
0.0
  9
$UCSORGBOTTOM
 10
0.0
 20
0.0
 30
0.0
  9
$UCSORGLEFT
 10
0.0
 20
0.0
 30
0.0
  9
$UCSORGRIGHT
 10
0.0
 20
0.0
 30
0.0
  9
$UCSORGFRONT
 10
0.0
 20
0.0
 30
0.0
  9
$UCSORGBACK
 10
0.0
 20
0.0
 30
0.0
  9
$PUCSBASE
  2

  9
$PUCSNAME
  2

  9
$PUCSORG
 10
0.0
 20
0.0
 30
0.0
  9
$PUCSXDIR
 10
1.0
 20
0.0
 30
0.0
  9
$PUCSYDIR
 10
0.0
 20
1.0
 30
0.0
  9
$PUCSORTHOREF
  2

  9
$PUCSORTHOVIEW
 70
     0
  9
$PUCSORGTOP
 10
0.0
 20
0.0
 30
0.0
  9
$PUCSORGBOTTOM
 10
0.0
 20
0.0
 30
0.0
  9
$PUCSORGLEFT
 10
0.0
 20
0.0
 30
0.0
  9
$PUCSORGRIGHT
 10
0.0
 20
0.0
 30
0.0
  9
$PUCSORGFRONT
 10
0.0
 20
0.0
 30
0.0
  9
$PUCSORGBACK
 10
0.0
 20
0.0
 30
0.0
  9
$USERI1
 70
     0
  9
$USERI2
 70
     0
  9
$USERI3
 70
     0
  9
$USERI4
 70
     0
  9
$USERI5
 70
     0
  9
$USERR1
 40
0.0
  9
$USERR2
 40
0.0
  9
$USERR3
 40
0.0
  9
$USERR4
 40
0.0
  9
$USERR5
 40
0.0
  9
$WORLDVIEW
 70
     1
  9
$SHADEDGE
 70
     3
  9
$SHADEDIF
 70
    70
  9
$TILEMODE
 70
     1
  9
$MAXACTVP
 70
    48
  9
$PINSBASE
 10
0.0
 20
0.0
 30
0.0
  9
$PLIMCHECK
 70
     0
  9
$PEXTMIN
 10
0.0
 20
0.0
 30
0.0
  9
$PEXTMAX
 10
209.9
 20
296.9
 30
0.0
  9
$PLIMMIN
 10
0.0
 20
0.0
  9
$PLIMMAX
 10
209.9
 20
296.9
  9
$UNITMODE
 70
     0
  9
$VISRETAIN
 70
     1
  9
$PLINEGEN
 70
     1
  9
$PSLTSCALE
 70
     1
  9
$TREEDEPTH
 70
 -3020
  9
$CMLSTYLE
  2
STANDARD
  9
$CMLJUST
 70
     0
  9
$CMLSCALE
 40
1.0
  9
$PROXYGRAPHICS
 70
     1
  9
$MEASUREMENT
 70
     1
  9
$CELWEIGHT
370
    -1
  9
$ENDCAPS
280
     0
  9
$JOINSTYLE
280
     0
  9
$LWDISPLAY
290
     0
  9
$INSUNITS
 70
     0
  9
$HYPERLINKBASE
  1

  9
$STYLESHEET
  1

  9
$XEDIT
290
     1
  9
$CEPSNTYPE
380
     0
  9
$PSTYLEMODE
290
     1
  9
$FINGERPRINTGUID
  2
{5CF4D642-0E7B-462A-AA38-E35D4A11F631}
  9
$VERSIONGUID
  2
{0FFB930A-C143-4F76-B3B7-F2FE754735CA}
  9
$EXTNAMES
290
     1
  9
$PSVPSCALE
 40
0.0
  9
$OLESTARTUP
290
     0
  9
$SORTENTS
280
   127
  9
$INDEXCTL
280
     0
  9
$HIDETEXT
280
     0
  9
$XCLIPFRAME
290
     0
  9
$HALOGAP
280
     0
  9
$OBSCOLOR
 70
   257
  9
$OBSLTYPE
280
     0
  9
$INTERSECTIONDISPLAY
280
     0
  9
$INTERSECTIONCOLOR
 70
   257
  9
$DIMASSOC
280
     1
  9
$PROJECTNAME
  1

  0
ENDSEC
  0
SECTION
  2
CLASSES
  0
CLASS
  1
ACDBDICTIONARYWDFLT
  2
AcDbDictionaryWithDefault
  3
ObjectDBX Classes
 90
        0
 91
        1
280
     0
281
     0
  0
CLASS
  1
TABLESTYLE
  2
AcDbTableStyle
  3
ObjectDBX Classes
 90
     4095
 91
        1
280
     0
281
     0
  0
CLASS
  1
AMGSETTINGSOBJ
  2
AmgSettingsObj
  3
"AcadM|Product Description: AutoCAD Mechanical|Company: Autodesk, Inc."
 90
     1024
 91
        2
280
     0
281
     0
  0
CLASS
  1
AMGOBJPROPCFG
  2
AmgObjPropCfg
  3
"AmgLay|Product Description: AutoCAD Mechanical|Company: Autodesk, Inc."
 90
     1025
 91
        1
280
     0
281
     0
  0
CLASS
  1
ACMESCOPE
  2
AcMeScope
  3
AcMeServices
 90
     1024
 91
        1
280
     0
281
     0
  0
CLASS
  1
ACGREFMASTER
  2
AcGrefMaster
  3
AcAttribServices
 90
     1024
 91
        1
280
     0
281
     0
  0
CLASS
  1
ACME_DOCUMENT
  2
AcMeDbDoc
  3
AcMeServices
 90
     1024
 91
        2
280
     0
281
     0
  0
CLASS
  1
ACMECOMMANDHISTORY
  2
AcMeCommandHistory
  3
AcMeServices
 90
     1024
 91
        1
280
     0
281
     0
  0
CLASS
  1
ACIMSYSVARMAN
  2
AcImSysVarManager
  3
AcMeServices
 90
     1024
 91
        6
280
     0
281
     0
  0
CLASS
  1
ACIMINTSYSVAR
  2
AcImIntSysVar
  3
AcMeServices
 90
     1024
 91
       27
280
     0
281
     0
  0
CLASS
  1
ACMEDRAWINGMAN
  2
AcMeDrawingMan
  3
AcMeServices
 90
     1024
 91
        1
280
     0
281
     0
  0
CLASS
  1
ACMEVIEW
  2
AcMeView
  3
AcMeServices
 90
     1024
 91
        1
280
     0
281
     0
  0
CLASS
  1
ACDBENTITYCACHE
  2
AcMeEntityCache
  3
AcMeServices
 90
     1024
 91
        1
280
     0
281
     0
  0
CLASS
  1
GSMANAGER
  2
AcMeGSManager
  3
AcMeServices
 90
     1024
 91
        1
280
     0
281
     0
  0
CLASS
  1
AMDTINTERNALREACTOR
  2
AmdtInternalReactor
  3
AcMeServices
 90
     1024
 91
        2
280
     0
281
     0
  0
CLASS
  1
ACMESTATEMGR
  2
AcMeStateMgr
  3
AcMeServices
 90
     1024
 91
        1
280
     0
281
     0
  0
CLASS
  1
AM_DRAWING_MGR
  2
AcDmDwgMgr
  3
AcMechDwgViewMgmt
 90
     1024
 91
        1
280
     0
281
     0
  0
CLASS
  1
AM_DWG_DOCUMENT
  2
AcDmDwgDocument
  3
AcMechDwgViewMgmt
 90
     1024
 91
        1
280
     0
281
     0
  0
CLASS
  1
AM_DWG_SHEET
  2
AcDmSheet
  3
AcMechDwgViewMgmt
 90
     1024
 91
        1
280
     0
281
     0
  0
CLASS
  1
AM_VIEWDIMPARMAP
  2
AcDmViewDimParMap
  3
AcMechDwgViewMgmt
 90
     1024
 91
        1
280
     0
281
     0
  0
CLASS
  1
ACIMREALSYSVAR
  2
AcImRealSysVar
  3
AcMeServices
 90
     1024
 91
        1
280
     0
281
     0
  0
CLASS
  1
AM_DWGMGR_NAME
  2
AcDmDwgMgrName
  3
AcMechDwgViewMgmt
 90
     1024
 91
        1
280
     0
281
     0
  0
CLASS
  1
ACME_DATABASE
  2
AcMeDbDatabase
  3
AcMeServices
 90
     1024
 91
        1
280
     0
281
     0
  0
CLASS
  1
ACRFINSADJUSTERMGR
  2
AcRfInsAdjusterMgr
  3
AcMeServices
 90
     1024
 91
        1
280
     0
281
     0
  0
CLASS
  1
ACGREFACADMASTER
  2
AcGrefacadMaster
  3
AcGrefServices
 90
     1024
 91
        1
280
     0
281
     0
  0
CLASS
  1
AMDTMENUSTATEMGR
  2
AmdtMenuStateMgr
  3
McadcomServices
 90
     1024
 91
        1
280
     0
281
     0
  0
CLASS
  1
AMDTMCOMMENUSTATE
  2
AmdtMcomMenuState
  3
McadcomServices
 90
     1024
 91
        1
280
     0
281
     0
  0
CLASS
  1
AMIMASTER
  2
AmiMaster
  3
AmiServices
 90
     1024
 91
        1
280
     0
281
     0
  0
CLASS
  1
MAPIAMMOUDLE
  2
MApiAmModule
  3
MApiAmServices
 90
     1024
 91
        1
280
     0
281
     0
  0
CLASS
  1
ACMSTANDARDDIN
  2
AcmStandardDIN
  3
"Amdt_StdImp|Product Description: AutoCAD Mechanical|Company: Autodesk, Inc."
 90
     1024
 91
        1
280
     0
281
     0
  0
CLASS
  1
AMDTEDGESTANDARDDIN13715
  2
AmdtEdgeStdDIN13715
  3
"Amdt_StdImp|Product Description: AutoCAD Mechanical|Company: Autodesk, Inc."
 90
     1024
 91
        1
280
     0
281
     0
  0
CLASS
  1
ACMSURFSTANDARDDIN
  2
AcmSurfTextStdDIN
  3
"Amdt_StdImp|Product Description: AutoCAD Mechanical|Company: Autodesk, Inc."
 90
     1024
 91
        0
280
     0
281
     0
  0
CLASS
  1
ACMFCFSTANDARDDIN
  2
AcmFCFStdDIN
  3
"Amdt_StdImp|Product Description: AutoCAD Mechanical|Company: Autodesk, Inc."
 90
     1024
 91
        1
280
     0
281
     0
  0
CLASS
  1
ACMWELDSTANDARDDIN
  2
AcmWeldingStdDIN
  3
"Amdt_StdImp|Product Description: AutoCAD Mechanical|Company: Autodesk, Inc."
 90
     1024
 91
        1
280
     0
281
     0
  0
CLASS
  1
ACMIDSTANDARDDIN
  2
AcmIdStdDIN
  3
"Amdt_StdImp|Product Description: AutoCAD Mechanical|Company: Autodesk, Inc."
 90
     1024
 91
        1
280
     0
281
     0
  0
CLASS
  1
ACMDATUMSTANDARDDIN
  2
AcmDatumStdDIN
  3
"Amdt_StdImp|Product Description: AutoCAD Mechanical|Company: Autodesk, Inc."
 90
     1024
 91
        1
280
     0
281
     0
  0
CLASS
  1
ACMBOMSTANDARDDIN
  2
AcmBOMStdDIN
  3
"Amdt_StdImp|Product Description: AutoCAD Mechanical|Company: Autodesk, Inc."
 90
     1024
 91
        1
280
     0
281
     0
  0
CLASS
  1
ACMDETAILSTANDARDDIN
  2
AmdtDetailSymStdDIN
  3
"Amdt_StdImp|Product Description: AutoCAD Mechanical|Company: Autodesk, Inc."
 90
     1024
 91
        1
280
     0
281
     0
  0
CLASS
  1
ACMSECTIONSTANDARDDIN
  2
AmdtSectionSymStdDIN
  3
"Amdt_StdImp|Product Description: AutoCAD Mechanical|Company: Autodesk, Inc."
 90
     1024
 91
        1
280
     0
281
     0
  0
CLASS
  1
ACMCENTERLINESTANDARDDIN
  2
AmdtCenterLineStdDIN
  3
"Amdt_StdImp|Product Description: AutoCAD Mechanical|Company: Autodesk, Inc."
 90
     1024
 91
        1
280
     0
281
     0
  0
CLASS
  1
ACMTHREADLINESTANDARDDIN
  2
AmdtThreadLineStdDIN
  3
"Amdt_StdImp|Product Description: AutoCAD Mechanical|Company: Autodesk, Inc."
 90
     1024
 91
        1
280
     0
281
     0
  0
CLASS
  1
ACMNOTESTANDARDDIN
  2
AmdtNoteStdDIN
  3
"Amdt_StdImp|Product Description: AutoCAD Mechanical|Company: Autodesk, Inc."
 90
     1024
 91
        1
280
     0
281
     0
  0
CLASS
  1
AMDTNOTETEMPLATEDB
  2
AmdtNoteTemplateDB
  3
AcmSymBB|Product Description: AutoCAD Mechanical|Company: Autodesk, Inc.
 90
     1024
 91
        6
280
     0
281
     0
  0
CLASS
  1
ACAMGLAYSTD
  2
AcAmgLayStd
  3
"AmgLay|Product Description: AutoCAD Mechanical|Company: Autodesk, Inc."
 90
     1024
 91
        1
280
     0
281
     0
  0
CLASS
  1
ACAMGDIMSTD
  2
AcAmgDimStd
  3
"AmgDim|Product Description: AutoCAD Mechanical|Company: Autodesk, Inc."
 90
     1024
 91
        1
280
     0
281
     0
  0
CLASS
  1
ACAMGHOLECHARTSTDDIN
  2
AcAmgHoleChartStdDIN
  3
AmgDim|Product Description: AutoCAD Mechanical|Company: Autodesk, Inc.
 90
     1024
 91
        1
280
     0
281
     0
  0
CLASS
  1
ACAMGTITLESTD
  2
AcAmgTitleStd
  3
"AmgTitle|Product Description: AutoCAD Mechanical|Company: Autodesk, Inc."
 90
     4095
 91
        1
280
     0
281
     0
  0
CLASS
  1
ACMSTANDARDISO
  2
AcmStandardISO
  3
"Amdt_StdImp|Product Description: AutoCAD Mechanical|Company: Autodesk, Inc."
 90
     1024
 91
        0
280
     0
281
     0
  0
CLASS
  1
AMDTEDGESTANDARDISO
  2
AmdtEdgeStdISO
  3
"Amdt_StdImp|Product Description: AutoCAD Mechanical|Company: Autodesk, Inc."
 90
     1024
 91
        0
280
     0
281
     0
  0
CLASS
  1
ACMSURFSTANDARDISO
  2
AcmSurfTextStdISO
  3
"Amdt_StdImp|Product Description: AutoCAD Mechanical|Company: Autodesk, Inc."
 90
     1024
 91
        0
280
     0
281
     0
  0
CLASS
  1
ACMFCFSTANDARDISO
  2
AcmFCFStdISO
  3
"Amdt_StdImp|Product Description: AutoCAD Mechanical|Company: Autodesk, Inc."
 90
     1024
 91
        0
280
     0
281
     0
  0
CLASS
  1
ACMWELDSTANDARDISO
  2
AcmWeldingStdISO
  3
"Amdt_StdImp|Product Description: AutoCAD Mechanical|Company: Autodesk, Inc."
 90
     1024
 91
        0
280
     0
281
     0
  0
CLASS
  1
ACMIDSTANDARDISO
  2
AcmIdStdISO
  3
"Amdt_StdImp|Product Description: AutoCAD Mechanical|Company: Autodesk, Inc."
 90
     1024
 91
        0
280
     0
281
     0
  0
CLASS
  1
ACMDATUMSTANDARDISO
  2
AcmDatumStdISO
  3
"Amdt_StdImp|Product Description: AutoCAD Mechanical|Company: Autodesk, Inc."
 90
     1024
 91
        0
280
     0
281
     0
  0
CLASS
  1
ACMBOMSTANDARDISO
  2
AcmBOMStdISO
  3
"Amdt_StdImp|Product Description: AutoCAD Mechanical|Company: Autodesk, Inc."
 90
     1024
 91
        0
280
     0
281
     0
  0
CLASS
  1
ACMDETAILSTANDARDISO
  2
AmdtDetailSymStdISO
  3
"Amdt_StdImp|Product Description: AutoCAD Mechanical|Company: Autodesk, Inc."
 90
     1024
 91
        0
280
     0
281
     0
  0
CLASS
  1
ACMSECTIONSTANDARDISO
  2
AmdtSectionSymStdISO
  3
"Amdt_StdImp|Product Description: AutoCAD Mechanical|Company: Autodesk, Inc."
 90
     1024
 91
        0
280
     0
281
     0
  0
CLASS
  1
ACMCENTERLINESTANDARDISO
  2
AmdtCenterLineStdISO
  3
"Amdt_StdImp|Product Description: AutoCAD Mechanical|Company: Autodesk, Inc."
 90
     1024
 91
        0
280
     0
281
     0
  0
CLASS
  1
ACMNOTESTANDARDISO
  2
AmdtNoteStdISO
  3
"Amdt_StdImp|Product Description: AutoCAD Mechanical|Company: Autodesk, Inc."
 90
     1024
 91
        0
280
     0
281
     0
  0
CLASS
  1
ACAMGHOLECHARTSTDISO
  2
AcAmgHoleChartStdISO
  3
AmgDim|Product Description: AutoCAD Mechanical|Company: Autodesk, Inc.
 90
     1024
 91
        0
280
     0
281
     0
  0
CLASS
  1
ACMTHREADLINESTANDARDISO
  2
AmdtThreadLineStdISO
  3
"Amdt_StdImp|Product Description: AutoCAD Mechanical|Company: Autodesk, Inc."
 90
     1024
 91
        0
280
     0
281
     0
  0
CLASS
  1
ACIMSTRSYSVAR
  2
AcImStrSysVar
  3
AcMeServices
 90
     1024
 91
        6
280
     0
281
     0
  0
CLASS
  1
AMDTADMENUSTATE
  2
AmdtAdMenuState
  3
DesignerServices
 90
     1024
 91
        1
280
     0
281
     0
  0
CLASS
  1
ADAPPL
  2
AcAdAppl
  3
DesignerServices
 90
     1024
 91
        1
280
     0
281
     0
  0
CLASS
  1
DEPMGR
  2
AcAdDepMgr
  3
DesignerServices
 90
     1024
 91
        1
280
     0
281
     0
  0
CLASS
  1
PARAMMGR
  2
AcAdParamMgr
  3
DesignerServices
 90
     1024
 91
        1
280
     0
281
     0
  0
CLASS
  1
PARAMSCOPE
  2
AcAdParamScope
  3
DesignerServices
 90
     1024
 91
        1
280
     0
281
     0
  0
CLASS
  1
NAMEDAPPL
  2
AcAdNamedAppl
  3
DesignerServices
 90
     1024
 91
        1
280
     0
281
     0
  0
CLASS
  1
AMDTDMMENUSTATE
  2
AmdtDmMenuState
  3
AcMechDwgViewMgmt
 90
     1024
 91
        1
280
     0
281
     0
  0
CLASS
  1
AMDTAMMENUSTATE
  2
AmdtAmMenuState
  3
DesignerAssemblies
 90
     1024
 91
        1
280
     0
281
     0
  0
CLASS
  1
ACAMPROJECT
  2
AcAmProject
  3
DesignerAssemblies
 90
     1024
 91
        1
280
     0
281
     0
  0
CLASS
  1
ACAMGRCOMPDEF
  2
AcAmGrCompDef
  3
DesignerAssemblies
 90
     1024
 91
        1
280
     0
281
     0
  0
CLASS
  1
ACCMCONTEXT
  2
AcCmContext
  3
DesignerAssemblies
 90
     1024
 91
        1
280
     0
281
     0
  0
CLASS
  1
ACAMCOMPDEF
  2
AcAmCompDef
  3
DesignerAssemblies
 90
     1024
 91
        1
280
     0
281
     0
  0
CLASS
  1
ACAMCOMPDEFMGR
  2
AcAmCompDefMgr
  3
DesignerAssemblies
 90
     1024
 91
        1
280
     0
281
     0
  0
CLASS
  1
AMCONTEXTMGR
  2
AcAmContextMgr
  3
DesignerAssemblies
 90
     1024
 91
        1
280
     0
281
     0
  0
CLASS
  1
ACAMCONTEXTMODELER
  2
AcAmContextModeler
  3
DesignerAssemblies
 90
     1024
 91
        1
280
     0
281
     0
  0
CLASS
  1
ACMDATADICTIONARY
  2
AcmDataDictionary
  3
"AcmSymBB|Product Description: AutoCAD Mechanical|Company: Autodesk, Inc."
 90
     1024
 91
        1
280
     0
281
     0
  0
CLASS
  1
CATALOGSTATE
  2
AcAmCatalogState
  3
DesignerAssemblies
 90
     1024
 91
        1
280
     0
281
     0
  0
CLASS
  1
ACAMGRCOMPDEFSET
  2
AcAmGrCompDefSet
  3
DesignerAssemblies
 90
     1024
 91
        1
280
     0
281
     0
  0
CLASS
  1
AMDTBROWSERDBTAB
  2
AmdtBrowserDbTab
  3
McadcomServices
 90
     1024
 91
        1
280
     0
281
     0
  0
CLASS
  1
CBROWSERAPPOBJECT
  2
CBrowserAppObject
  3
McadcomServices
 90
     1024
 91
        3
280
     0
281
     0
  0
CLASS
  1
DM_PLACEHOLDER
  2
AcDmSelsetPlaceholder
  3
AcMechDwgViewMgmt
 90
     1024
 91
        1
280
     0
281
     0
  0
CLASS
  1
ACAMGFILTERDAT
  2
AcAmgFilterDat
  3
"AcadM|Product Description: AutoCAD Mechanical|Company: Autodesk, Inc."
 90
     1024
 91
        0
280
     0
281
     0
  0
CLASS
  1
SORTENTSTABLE
  2
AcDbSortentsTable
  3
ObjectDBX Classes
 90
        0
 91
        1
280
     0
281
     0
  0
CLASS
  1
DICTIONARYVAR
  2
AcDbDictionaryVar
  3
ObjectDBX Classes
 90
        0
 91
        5
280
     0
281
     0
  0
CLASS
  1
EXACXREFPANELOBJECT
  2
ExAcXREFPanelObject
  3
EXAC_ESW
 90
     1025
 91
        1
280
     0
281
     0
  0
CLASS
  1
MATERIAL
  2
AcDbMaterial
  3
ObjectDBX Classes
 90
     1153
 91
        3
280
     0
281
     0
  0
CLASS
  1
VISUALSTYLE
  2
AcDbVisualStyle
  3
ObjectDBX Classes
 90
     4095
 91
       16
280
     0
281
     0
  0
CLASS
  1
SCALE
  2
AcDbScale
  3
ObjectDBX Classes
 90
     1153
 91
       17
280
     0
281
     0
  0
CLASS
  1
MLEADERSTYLE
  2
AcDbMLeaderStyle
  3
ACDB_MLEADERSTYLE_CLASS
 90
     4095
 91
        1
280
     0
281
     0
  0
CLASS
  1
NPOCOLLECTION
  2
AcDbImpNonPersistentObjectsCollection
  3
ObjectDBX Classes
 90
     1153
 91
        1
280
     0
281
     0
  0
CLASS
  1
ACMSURFSTANDARDDIN2002
  2
AcmSurfTextStdDIN2002
  3
"Amdt_StdImp|Product Description: AutoCAD Mechanical|Company: Autodesk, Inc."
 90
     1024
 91
        1
280
     0
281
     0
  0
CLASS
  1
ACMTAPERSTANDARDDIN
  2
AcmTaperStdDIN
  3
"Amdt_StdImp|Product Description: AutoCAD Mechanical|Company: Autodesk, Inc."
 90
     1024
 91
        1
280
     0
281
     0
  0
CLASS
  1
ACMANOOTATIONVIEWSTANDARDDIN
  2
AmdtAnViewStdDIN
  3
"Amdt_StdImp|Product Description: AutoCAD Mechanical|Company: Autodesk, Inc."
 90
     1024
 91
        1
280
     0
281
     0
  0
CLASS
  1
CELLSTYLEMAP
  2
AcDbCellStyleMap
  3
ObjectDBX Classes
 90
     1152
 91
        1
280
     0
281
     0
  0
ENDSEC
  0
SECTION
  2
TABLES
  0
TABLE
  2
VPORT
  5
1299
330
0
100
AcDbSymbolTable
 70
     1
  0
VPORT
  5
16CD
330
1299
100
AcDbSymbolTableRecord
100
AcDbViewportTableRecord
  2
*Active
 70
     0
 10
0.0
 20
0.0
 11
1.0
 21
1.0
 12
435.1332632513478
 22
352.4942570329171
 13
0.0
 23
0.0
 14
5.0
 24
5.0
 15
50.0
 25
50.0
 16
0.0
 26
0.0
 36
1.0
 17
0.0
 27
0.0
 37
0.0
 40
676.210300752852
 41
1.743833017077798
 42
50.0
 43
0.0
 44
0.0
 50
0.0
 51
0.0
 71
     0
 72
  1000
 73
     1
 74
     1
 75
     0
 76
     0
 77
     0
 78
     0
281
     0
 65
     1
110
0.0
120
0.0
130
0.0
111
1.0
121
0.0
131
0.0
112
0.0
122
1.0
132
0.0
 79
     0
146
0.0
  0
ENDTAB
  0
TABLE
  2
LTYPE
  5
1296
330
0
100
AcDbSymbolTable
 70
    23
  0
LTYPE
  5
12A3
330
1296
100
AcDbSymbolTableRecord
100
AcDbLinetypeTableRecord
  2
BYBLOCK
 70
     0
  3

 72
    65
 73
     0
 40
0.0
  0
LTYPE
  5
12A4
330
1296
100
AcDbSymbolTableRecord
100
AcDbLinetypeTableRecord
  2
BYLAYER
 70
     0
  3

 72
    65
 73
     0
 40
0.0
  0
LTYPE
  5
12A5
330
1296
100
AcDbSymbolTableRecord
100
AcDbLinetypeTableRecord
  2
CONTINUOUS
 70
     0
  3
Solid line
 72
    65
 73
     0
 40
0.0
  0
LTYPE
  5
12B4
330
1296
100
AcDbSymbolTableRecord
100
AcDbLinetypeTableRecord
  2
GEN7
 70
     0
  3
____ _ ____ _ ____ _ ____ _ ____ _ ____ _ ____ _ ____ _ ____ _
 72
    65
 73
     4
 40
22.0
 49
10.75
 74
     0
 49
-3.75
 74
     0
 49
3.75
 74
     0
 49
-3.75
 74
     0
  0
LTYPE
  5
14B4
330
1296
100
AcDbSymbolTableRecord
100
AcDbLinetypeTableRecord
  2
AM_DIN_F_W050
 70
     0
  3
__ __ __ __ __ __ __ __ __ __ __ __ __ __ __
 72
    65
 73
     2
 40
6.25
 49
4.75
 74
     0
 49
-1.5
 74
     0
  0
LTYPE
  5
14B5
330
1296
100
AcDbSymbolTableRecord
100
AcDbLinetypeTableRecord
  2
AM_DIN_G_W050
 70
     0
  3
____ . ____ . ____ . ____ . ____ . ____ . ____
 72
    65
 73
     4
 40
13.75
 49
9.75
 74
     0
 49
-1.5
 74
     0
 49
1.0
 74
     0
 49
-1.5
 74
     0
  0
LTYPE
  5
14B6
330
1296
100
AcDbSymbolTableRecord
100
AcDbLinetypeTableRecord
  2
AM_DIN_K_W050
 70
     0
  3
_____ . . _____ . . _____ . . ____ .. ____
 72
    65
 73
     6
 40
16.25
 49
9.75
 74
     0
 49
-1.5
 74
     0
 49
1.0
 74
     0
 49
-1.5
 74
     0
 49
1.0
 74
     0
 49
-1.5
 74
     0
  0
LTYPE
  5
14B7
330
1296
100
AcDbSymbolTableRecord
100
AcDbLinetypeTableRecord
  2
Amconstr
 70
     0
  3
_______________________
 72
    65
 73
     2
 40
9999.0
 49
9999.0
 74
     0
 49
0.0
 74
     0
  0
LTYPE
  5
14B8
330
1296
100
AcDbSymbolTableRecord
100
AcDbLinetypeTableRecord
  2
AM_DIN_G_W050x2
 70
     0
  3
__ . __ . __ . __ . __ . __
 72
    65
 73
     4
 40
6.875
 49
4.75
 74
     0
 49
-0.875
 74
     0
 49
0.375
 74
     0
 49
-0.875
 74
     0
  0
LTYPE
  5
14B9
330
1296
100
AcDbSymbolTableRecord
100
AcDbLinetypeTableRecord
  2
AM_DIN_F_W050x2
 70
     0
  3
 _ _ _ _ _ _ _ _ _ _ _ _
 72
    65
 73
     2
 40
3.125
 49
2.25
 74
     0
 49
-0.875
 74
     0
  0
LTYPE
  5
14BA
330
1296
100
AcDbSymbolTableRecord
100
AcDbLinetypeTableRecord
  2
Amzigzag
 70
     0
  3
/\/-/\/-/\/-/\/-/\/-/\/
 72
    65
 73
     2
 40
11.0001
 49
0.0001
 74
     4
 75
   136
340
14BB
 46
0.04
 50
0.0
 44
0.0
 45
0.0
 49
-11.0
 74
     0
  0
LTYPE
  5
14E9
330
1296
100
AcDbSymbolTableRecord
100
AcDbLinetypeTableRecord
  2
HIDDEN
 70
     0
  3
Verdeckt
 72
    65
 73
     2
 40
9.525
 49
6.349999999999999
 74
     0
 49
-3.174999999999999
 74
     0
  0
LTYPE
  5
14EA
330
1296
100
AcDbSymbolTableRecord
100
AcDbLinetypeTableRecord
  2
PHANTOM2
 70
     0
  3
Phantom (.5x) ___ _ _ ___ _ _ ___ _ _ ___ _ _
 72
    65
 73
     6
 40
31.75
 49
15.875
 74
     0
 49
-3.174999999999999
 74
     0
 49
3.174999999999999
 74
     0
 49
-3.174999999999999
 74
     0
 49
3.174999999999999
 74
     0
 49
-3.174999999999999
 74
     0
  0
LTYPE
  5
14EB
330
1296
100
AcDbSymbolTableRecord
100
AcDbLinetypeTableRecord
  2
CENTER
 70
     0
  3
__ . __
 72
    65
 73
     4
 40
7.0
 49
4.0
 74
     0
 49
-1.0
 74
     0
 49
1.0
 74
     0
 49
-1.0
 74
     0
  0
LTYPE
  5
14FE
330
1296
100
AcDbSymbolTableRecord
100
AcDbLinetypeTableRecord
  2
ACDINWELD
 70
     0
  3
_ _ _ _ _
 72
    65
 73
     2
 40
2.0
 49
2.0
 74
     0
 49
-1.0
 74
     0
  0
LTYPE
  5
1501
330
1296
100
AcDbSymbolTableRecord
100
AcDbLinetypeTableRecord
  2
ACDINTGB
 70
     0
  3
__ . . __ . .
 72
    65
 73
     6
 40
9.0
 49
4.0
 74
     0
 49
-1.0
 74
     0
 49
1.0
 74
     0
 49
-1.0
 74
     0
 49
1.0
 74
     0
 49
-1.0
 74
     0
  0
LTYPE
  5
1502
330
1296
100
AcDbSymbolTableRecord
100
AcDbLinetypeTableRecord
  2
ACDINTGL
 70
     0
  3
_ _ _ _ _
 72
    65
 73
     2
 40
3.0
 49
2.0
 74
     0
 49
-1.0
 74
     0
  0
LTYPE
  5
1506
330
1296
100
AcDbSymbolTableRecord
100
AcDbLinetypeTableRecord
  2
AM_ISO08W050
 70
     0
  3
____ . ____ . ____ . ____ . ____ . ____ . ____
 72
    65
 73
     4
 40
18.0
 49
12.0
 74
     0
 49
-1.5
 74
     0
 49
3.0
 74
     0
 49
-1.5
 74
     0
  0
LTYPE
  5
152E
330
1296
100
AcDbSymbolTableRecord
100
AcDbLinetypeTableRecord
  2
ACISOWELD
 70
     0
  3
_ _ _ _ _
 72
    65
 73
     2
 40
2.0
 49
2.0
 74
     0
 49
-1.0
 74
     0
  0
LTYPE
  5
1531
330
1296
100
AcDbSymbolTableRecord
100
AcDbLinetypeTableRecord
  2
ACISOTGB
 70
     0
  3
__ . . __ . .
 72
    65
 73
     6
 40
9.0
 49
4.0
 74
     0
 49
-1.0
 74
     0
 49
1.0
 74
     0
 49
-1.0
 74
     0
 49
1.0
 74
     0
 49
-1.0
 74
     0
  0
LTYPE
  5
1532
330
1296
100
AcDbSymbolTableRecord
100
AcDbLinetypeTableRecord
  2
ACISOTGL
 70
     0
  3
_ _ _ _ _
 72
    65
 73
     2
 40
3.0
 49
2.0
 74
     0
 49
-1.0
 74
     0
  0
LTYPE
  5
1540
330
1296
100
AcDbSymbolTableRecord
100
AcDbLinetypeTableRecord
  2
AM_ISO02W050
 70
     0
  3
__ __ __ __ __ __ __ __ __ __ __ __ __ __ __
 72
    65
 73
     2
 40
7.5
 49
6.0
 74
     0
 49
-1.5
 74
     0
  0
LTYPE
  5
1541
330
1296
100
AcDbSymbolTableRecord
100
AcDbLinetypeTableRecord
  2
AM_ISO09W050
 70
     0
  3
_____ . . _____ . . _____ . . ____ .. ____
 72
    65
 73
     6
 40
22.5
 49
12.0
 74
     0
 49
-1.5
 74
     0
 49
3.0
 74
     0
 49
-1.5
 74
     0
 49
3.0
 74
     0
 49
-1.5
 74
     0
  0
LTYPE
  5
1542
330
1296
100
AcDbSymbolTableRecord
100
AcDbLinetypeTableRecord
  2
AM_ISO08W050x2
 70
     0
  3
__ . __ . __ . __ . __ . __
 72
    65
 73
     4
 40
9.0
 49
6.0
 74
     0
 49
-0.75
 74
     0
 49
1.5
 74
     0
 49
-0.75
 74
     0
  0
LTYPE
  5
1543
330
1296
100
AcDbSymbolTableRecord
100
AcDbLinetypeTableRecord
  2
AM_ISO02W050x2
 70
     0
  3
 _ _ _ _ _ _ _ _ _ _ _ _
 72
    65
 73
     2
 40
3.75
 49
3.0
 74
     0
 49
-0.75
 74
     0
  0
ENDTAB
  0
TABLE
  2
LAYER
  5
1293
102
{ACAD_XDICTIONARY
360
15DC
102
}
330
0
100
AcDbSymbolTable
 70
     9
  0
LAYER
  5
129F
330
1293
100
AcDbSymbolTableRecord
100
AcDbLayerTableRecord
  2
0
 70
     0
 62
     7
  6
CONTINUOUS
370
    -3
390
149C
  0
LAYER
  5
12BA
330
1293
100
AcDbSymbolTableRecord
100
AcDbLayerTableRecord
  2
4
 70
     0
 62
     3
  6
CONTINUOUS
370
    -3
390
149C
  0
LAYER
  5
12BC
330
1293
100
AcDbSymbolTableRecord
100
AcDbLayerTableRecord
  2
5
 70
     0
 62
     3
  6
CONTINUOUS
370
    -3
390
149C
  0
LAYER
  5
12BE
330
1293
100
AcDbSymbolTableRecord
100
AcDbLayerTableRecord
  2
7
 70
     0
 62
     4
  6
GEN7
370
    -3
390
149C
  0
LAYER
  5
12BF
330
1293
100
AcDbSymbolTableRecord
100
AcDbLayerTableRecord
  2
8
 70
     0
 62
     1
  6
CONTINUOUS
370
    -3
390
149C
  0
LAYER
  5
12C0
330
1293
100
AcDbSymbolTableRecord
100
AcDbLayerTableRecord
  2
SCHRAFFUR_RAND
 70
     0
 62
    36
  6
CONTINUOUS
370
    -3
390
149C
  0
LAYER
  5
12EE
330
1293
100
AcDbSymbolTableRecord
100
AcDbLayerTableRecord
  2
DEFPOINTS
 70
     0
 62
     7
  6
CONTINUOUS
290
     0
370
    -3
390
149C
  0
LAYER
  5
15A2
330
1293
100
AcDbSymbolTableRecord
100
AcDbLayerTableRecord
  2
AM_5
 70
     0
 62
     3
  6
CONTINUOUS
370
    25
390
149C
1001
AcAecLayerStandard
1000

1000

  0
LAYER
  5
15E3
330
1293
100
AcDbSymbolTableRecord
100
AcDbLayerTableRecord
  2
AM_8
 70
     0
 62
     1
  6
CONTINUOUS
370
    25
390
149C
1001
AcAecLayerStandard
1000

1000

  0
ENDTAB
  0
TABLE
  2
STYLE
  5
1294
330
0
100
AcDbSymbolTable
 70
     6
  0
STYLE
  5
12A0
330
1294
100
AcDbSymbolTableRecord
100
AcDbTextStyleTableRecord
  2
STANDARD
 70
     0
 40
0.0
 41
1.0
 50
0.0
 71
     0
 42
12.5
  3
ISOCP.SHX
  4

  0
STYLE
  5
14BB
330
1294
100
AcDbSymbolTableRecord
100
AcDbTextStyleTableRecord
  2

 70
     1
 40
0.0
 41
1.0
 50
0.0
 71
     0
 42
2.5
  3
genltshp.shx
  4

  0
STYLE
  5
14F8
330
1294
100
AcDbSymbolTableRecord
100
AcDbTextStyleTableRecord
  2
ACDINTS
 70
     0
 40
1.0
 41
1.0
 50
0.0
 71
     0
 42
2.5
  3
isocp.shx
  4

  0
STYLE
  5
14FC
330
1294
100
AcDbSymbolTableRecord
100
AcDbTextStyleTableRecord
  2
ACDINGDT
 70
     0
 40
0.0
 41
1.0
 50
0.0
 71
     0
 42
2.5
  3
amgdt.shx
  4

  0
STYLE
  5
1528
330
1294
100
AcDbSymbolTableRecord
100
AcDbTextStyleTableRecord
  2
ACISOTS
 70
     0
 40
1.0
 41
1.0
 50
0.0
 71
     0
 42
2.5
  3
isocp.shx
  4
bigfont.shx
  0
STYLE
  5
152C
330
1294
100
AcDbSymbolTableRecord
100
AcDbTextStyleTableRecord
  2
ACISOGDT
 70
     0
 40
0.0
 41
1.0
 50
0.0
 71
     0
 42
2.5
  3
AMGDT
  4
bigfont.shx
  0
ENDTAB
  0
TABLE
  2
VIEW
  5
1297
330
0
100
AcDbSymbolTable
 70
     6
  0
VIEW
  5
1331
330
1297
100
AcDbSymbolTableRecord
100
AcDbViewTableRecord
  2
GEN1
 70
     0
 40
525.0
 10
403.491903
 20
787.5
 41
806.983806
 11
0.0
 21
0.0
 31
1.0
 12
0.0
 22
0.0
 32
0.0
 42
50.0
 43
0.0
 44
0.0
 50
0.0
 71
     0
281
     0
 72
     0
  0
VIEW
  5
1332
330
1297
100
AcDbSymbolTableRecord
100
AcDbViewTableRecord
  2
GEN2
 70
     0
 40
525.0
 10
646.508097
 20
787.5
 41
806.983806
 11
0.0
 21
0.0
 31
1.0
 12
0.0
 22
0.0
 32
0.0
 42
50.0
 43
0.0
 44
0.0
 50
0.0
 71
     0
281
     0
 72
     0
  0
VIEW
  5
1333
330
1297
100
AcDbSymbolTableRecord
100
AcDbViewTableRecord
  2
GEN3
 70
     0
 40
525.0
 10
403.491903
 20
262.5
 41
806.983806
 11
0.0
 21
0.0
 31
1.0
 12
0.0
 22
0.0
 32
0.0
 42
50.0
 43
0.0
 44
0.0
 50
0.0
 71
     0
281
     0
 72
     0
  0
VIEW
  5
1334
330
1297
100
AcDbSymbolTableRecord
100
AcDbViewTableRecord
  2
GEN4
 70
     0
 40
525.0
 10
646.508097
 20
262.5
 41
806.983806
 11
0.0
 21
0.0
 31
1.0
 12
0.0
 22
0.0
 32
0.0
 42
50.0
 43
0.0
 44
0.0
 50
0.0
 71
     0
281
     0
 72
     0
  0
VIEW
  5
1335
330
1297
100
AcDbSymbolTableRecord
100
AcDbViewTableRecord
  2
GEN5
 70
     0
 40
525.0
 10
525.0
 20
525.0
 41
806.983806
 11
0.0
 21
0.0
 31
1.0
 12
0.0
 22
0.0
 32
0.0
 42
50.0
 43
0.0
 44
0.0
 50
0.0
 71
     0
281
     0
 72
     0
  0
VIEW
  5
1336
330
1297
100
AcDbSymbolTableRecord
100
AcDbViewTableRecord
  2
GEN6
 70
     0
 40
1049.9895
 10
525.0
 20
525.0
 41
1613.951472
 11
0.0
 21
0.0
 31
1.0
 12
0.0
 22
0.0
 32
0.0
 42
50.0
 43
0.0
 44
0.0
 50
0.0
 71
     0
281
     0
 72
     0
  0
ENDTAB
  0
TABLE
  2
UCS
  5
1298
330
0
100
AcDbSymbolTable
 70
     0
  0
ENDTAB
  0
TABLE
  2
APPID
  5
129A
330
0
100
AcDbSymbolTable
 70
    43
  0
APPID
  5
12A1
330
129A
100
AcDbSymbolTableRecord
100
AcDbRegAppTableRecord
  2
ACAD
 70
     0
  0
APPID
  5
12FF
330
129A
100
AcDbSymbolTableRecord
100
AcDbRegAppTableRecord
  2
GENIUS_GENCFG_13
 70
     0
1001
GENIUS_DUMCFG0_13
1000
DUM
1001
GENIUS_GENCFG0_13
1000
GEN@INFO_POS@XLATE
1001
GENIUS_GENCFG1_13
1000
GEN@INFO_POS
1001
GENIUS_GENCFG2_13
1000
GEN@LAYER@DEFS
1001
GENIUS_GENCFG3_13
1000
GEN@LAYER@ENTSORT
1001
GENIUS_GENCFG4_13
1000
GEN
1001
GENIUS_GEVCFG0_13
1000
GEV
  0
APPID
  5
1300
330
129A
100
AcDbSymbolTableRecord
100
AcDbRegAppTableRecord
  2
GENIUS_DUMCFG0_13
 70
     0
1001
GENIUS_GENCFG_13
1071
925193552
1000
1300
1000
DUM
1070
     0
  0
APPID
  5
1301
330
129A
100
AcDbSymbolTableRecord
100
AcDbRegAppTableRecord
  2
GENIUS_GENCFG0_13
 70
     0
1001
GENIUS_GENCFG_13
1071
1022852836
1000
1301
1000
GEN@INFO_POS@XLATE
1070
     7
1000
GenCfgObject
1000
GenCfgShort
1000
GenCfgReal
1000
GenCfgBool
1000
GenCfgString
1000
GenCfgDim
1000
GenCfgAttrInf
1000
INFOPOINTS
1070
     0
1002
{
1000
GENINF14
1070
     0
1002
{
1000
2GENINF
1070
     4
1000
2
1002
{
1002
}
1000
5GENINF
1070
     4
1000
5
1002
{
1002
}
1000
7GENINF
1070
     4
1000
7
1002
{
1002
}
1000
9GENINF
1070
     4
1000
9
1002
{
1002
}
1000
11GENINF
1070
     4
1000
11
1002
{
1002
}
1000
14GENINF
1070
     4
1000
14
1002
{
1002
}
1002
}
1000
GENINF13
1070
     0
1002
{
1000
2GENINF
1070
     4
1000
2
1002
{
1002
}
1000
3GENINF
1070
     4
1000
3
1002
{
1002
}
1000
4GENINF
1070
     4
1000
4
1002
{
1002
}
1000
5GENINF
1070
     4
1000
5
1002
{
1002
}
1000
6GENINF
1070
     4
1000
6
1002
{
1002
}
1000
7GENINF
1070
     4
1000
7
1002
{
1002
}
1000
8GENINF
1070
     4
1000
8
1002
{
1002
}
1000
9GENINF
1070
     4
1000
9
1002
{
1002
}
1000
10GENINF
1070
     4
1000
10
1002
{
1002
}
1000
11GENINF
1070
     4
1000
11
1002
{
1002
}
1000
12GENINF
1070
     4
1000
12
1002
{
1002
}
1000
13GENINF
1070
     4
1000
13
1002
{
1002
}
1000
14GENINF
1070
     4
1000
14
1002
{
1002
}
1000
15GENINF
1070
     4
1000
15
1002
{
1002
}
1000
16GENINF
1070
     4
1000
16
1002
{
1002
}
1000
17GENINF
1070
     4
1000
17
1002
{
1002
}
1000
18GENINF
1070
     4
1000
18
1002
{
1002
}
1000
19GENINF
1070
     4
1000
19
1002
{
1002
}
1000
20GENINF
1070
     4
1000
20
1002
{
1002
}
1000
21GENINF
1070
     4
1000
21
1002
{
1002
}
1000
22GENINF
1070
     4
1000
22
1002
{
1002
}
1000
23GENINF
1070
     4
1000
23
1002
{
1002
}
1000
24GENINF
1070
     4
1000
24
1002
{
1002
}
1000
0GENINF
1070
     4
1000
0
1002
{
1002
}
1002
}
1000
GENINFO
1070
     0
1002
{
1000
3GENINF
1070
     4
1000
3
1002
{
1002
}
1000
4GENINF
1070
     4
1000
4
1002
{
1002
}
1000
5GENINF
1070
     4
1000
5
1002
{
1002
}
1000
6GENINF
1070
     4
1000
6
1002
{
1002
}
1000
7GENINF
1070
     4
1000
7
1002
{
1002
}
1000
8GENINF
1070
     4
1000
8
1002
{
1002
}
1000
9GENINF
1070
     4
1000
9
1002
{
1002
}
1000
10GENINF
1070
     4
1000
10
1002
{
1002
}
1000
11GENINF
1070
     4
1000
11
1002
{
1002
}
1000
12GENINF
1070
     4
1000
12
1002
{
1002
}
1000
13GENINF
1070
     4
1000
13
1002
{
1002
}
1000
14GENINF
1070
     4
1000
14
1002
{
1002
}
1000
15GENINF
1070
     4
1000
15
1002
{
1002
}
1000
16GENINF
1070
     4
1000
16
1002
{
1002
}
1000
17GENINF
1070
     4
1000
17
1002
{
1002
}
1000
18GENINF
1070
     4
1000
18
1002
{
1002
}
1000
19GENINF
1070
     4
1000
19
1002
{
1002
}
1000
20GENINF
1070
     4
1000
20
1002
{
1002
}
1000
21GENINF
1070
     4
1000
21
1002
{
1002
}
1000
22GENINF
1070
     4
1000
22
1002
{
1002
}
1002
}
1000
DININFO
1070
     0
1002
{
1000
ST-NAME1
1070
     4
1000
5
1002
{
1002
}
1000
ST-NAME2
1070
     4
1000
6
1002
{
1002
}
1000
ST-NORM1
1070
     4
1000
7
1002
{
1002
}
1000
ST-NORM2
1070
     4
1000
8
1002
{
1002
}
1000
ST-MAT1
1070
     4
1000
9
1002
{
1002
}
1000
ST-MAT2
1070
     4
1000
10
1002
{
1002
}
1002
}
1002
}
1000
POS_NUMBERS
1070
     0
1002
{
1000
GENPOS14
1070
     0
1002
{
1000
1GENPOS
1070
     4
1000
1
1002
{
1002
}
1000
2GENPOS
1070
     4
1000
2
1002
{
1002
}
1000
5GENPOS
1070
     4
1000
5
1002
{
1002
}
1000
7GENPOS
1070
     4
1000
7
1002
{
1002
}
1000
9GENPOS
1070
     4
1000
9
1002
{
1002
}
1000
11GENPOS
1070
     4
1000
11
1002
{
1002
}
1000
14GENPOS
1070
     4
1000
14
1002
{
1002
}
1002
}
1000
GENPOS13
1070
     0
1002
{
1000
1GENPOS
1070
     4
1000
1
1002
{
1002
}
1000
2GENPOS
1070
     4
1000
2
1002
{
1002
}
1000
3GENPOS
1070
     4
1000
3
1002
{
1002
}
1000
4GENPOS
1070
     4
1000
4
1002
{
1002
}
1000
5GENPOS
1070
     4
1000
5
1002
{
1002
}
1000
6GENPOS
1070
     4
1000
6
1002
{
1002
}
1000
7GENPOS
1070
     4
1000
7
1002
{
1002
}
1000
8GENPOS
1070
     4
1000
8
1002
{
1002
}
1000
9GENPOS
1070
     4
1000
9
1002
{
1002
}
1000
10GENPOS
1070
     4
1000
10
1002
{
1002
}
1000
11GENPOS
1070
     4
1000
11
1002
{
1002
}
1000
12GENPOS
1070
     4
1000
12
1002
{
1002
}
1000
13GENPOS
1070
     4
1000
13
1002
{
1002
}
1000
14GENPOS
1070
     4
1000
14
1002
{
1002
}
1000
15GENPOS
1070
     4
1000
15
1002
{
1002
}
1000
16GENPOS
1070
     4
1000
16
1002
{
1002
}
1000
17GENPOS
1070
     4
1000
17
1002
{
1002
}
1000
18GENPOS
1070
     4
1000
18
1002
{
1002
}
1000
19GENPOS
1070
     4
1000
19
1002
{
1002
}
1000
20GENPOS
1070
     4
1000
20
1002
{
1002
}
1000
21GENPOS
1070
     4
1000
21
1002
{
1002
}
1000
22GENPOS
1070
     4
1000
22
1002
{
1002
}
1000
23GENPOS
1070
     4
1000
23
1002
{
1002
}
1000
24GENPOS
1070
     4
1000
24
1002
{
1002
}
1000
0GENPOS
1070
     4
1000
0
1002
{
1002
}
1002
}
1000
GENPOS
1070
     0
1002
{
1000
1GENPOS
1070
     4
1000
1
1002
{
1002
}
1000
2GENPOS
1070
     4
1000
2
1002
{
1002
}
1000
3GENPOS
1070
     4
1000
3
1002
{
1002
}
1000
4GENPOS
1070
     4
1000
4
1002
{
1002
}
1000
5GENPOS
1070
     4
1000
5
1002
{
1002
}
1000
6GENPOS
1070
     4
1000
6
1002
{
1002
}
1000
7GENPOS
1070
     4
1000
7
1002
{
1002
}
1000
8GENPOS
1070
     4
1000
8
1002
{
1002
}
1000
9GENPOS
1070
     4
1000
9
1002
{
1002
}
1000
10GENPOS
1070
     4
1000
10
1002
{
1002
}
1000
11GENPOS
1070
     4
1000
11
1002
{
1002
}
1000
12GENPOS
1070
     4
1000
12
1002
{
1002
}
1000
13GENPOS
1070
     4
1000
13
1002
{
1002
}
1000
14GENPOS
1070
     4
1000
14
1002
{
1002
}
1000
15GENPOS
1070
     4
1000
15
1002
{
1002
}
1000
16GENPOS
1070
     4
1000
16
1002
{
1002
}
1000
17GENPOS
1070
     4
1000
17
1002
{
1002
}
1000
18GENPOS
1070
     4
1000
18
1002
{
1002
}
1000
19GENPOS
1070
     4
1000
19
1002
{
1002
}
1000
20GENPOS
1070
     4
1000
20
1002
{
1002
}
1000
21GENPOS
1070
     4
1000
21
1002
{
1002
}
1000
22GENPOS
1070
     4
1000
22
1002
{
1002
}
1000
23GENPOS
1070
     4
1000
23
1002
{
1002
}
1002
}
1000
DIN985
1070
     0
1002
{
1000
POSITION
1070
     4
1000
1
1002
{
1002
}
1000
MENGE
1070
     4
1000
2
1002
{
1002
}
1000
BLATT
1070
     4
1000
3
1002
{
1002
}
1000
BENENN
1070
     4
1000
5
1002
{
1002
}
1000
BENENN2
1070
     4
1000
6
1002
{
1002
}
1000
NORM
1070
     4
1000
7
1002
{
1002
}
1000
NORM2
1070
     4
1000
8
1002
{
1002
}
1000
WERKSTOFF
1070
     4
1000
9
1002
{
1002
}
1000
WERKSTOFF2
1070
     4
1000
10
1002
{
1002
}
1002
}
1000
DIN986
1070
     0
1002
{
1000
POSITION
1070
     4
1000
1
1002
{
1002
}
1000
MENGE
1070
     4
1000
2
1002
{
1002
}
1000
BLATT
1070
     4
1000
3
1002
{
1002
}
1000
BENENN
1070
     4
1000
5
1002
{
1002
}
1000
BENENN2
1070
     4
1000
6
1002
{
1002
}
1000
NORM
1070
     4
1000
7
1002
{
1002
}
1000
NORM2
1070
     4
1000
8
1002
{
1002
}
1000
WERKSTOFF
1070
     4
1000
9
1002
{
1002
}
1000
WERKSTOFF2
1070
     4
1000
10
1002
{
1002
}
1002
}
1000
DIN987
1070
     0
1002
{
1000
POSITION
1070
     4
1000
1
1002
{
1002
}
1000
MENGE
1070
     4
1000
2
1002
{
1002
}
1000
BLATT
1070
     4
1000
3
1002
{
1002
}
1000
BENENN
1070
     4
1000
5
1002
{
1002
}
1000
BENENN2
1070
     4
1000
6
1002
{
1002
}
1000
NORM
1070
     4
1000
7
1002
{
1002
}
1000
NORM2
1070
     4
1000
8
1002
{
1002
}
1000
WERKSTOFF
1070
     4
1000
9
1002
{
1002
}
1000
WERKSTOFF2
1070
     4
1000
10
1002
{
1002
}
1002
}
1002
}
  0
APPID
  5
1302
330
129A
100
AcDbSymbolTableRecord
100
AcDbRegAppTableRecord
  2
GENIUS_GENCFG1_13
 70
     0
1001
GENIUS_GENCFG_13
1071
1022852837
1000
1302
1000
GEN@INFO_POS
1070
     7
1000
GenCfgObject
1000
GenCfgShort
1000
GenCfgReal
1000
GenCfgBool
1000
GenCfgString
1000
GenCfgDim
1000
GenCfgAttrInf
1000
DescrText
1070
     4
1000
5, ,6, ,7, ,8
1002
{
1002
}
1000
DescrText2
1070
     4
1000
26
1002
{
1002
}
1000
VisibleAttr1
1070
     4
1000
1
1002
{
1002
}
1000
VisibleAttr2
1070
     4
1000
26
1002
{
1002
}
1000
UpdateBlock
1070
     3
1070
     1
1002
{
1002
}
1000
Attrib
1070
     0
1002
{
1000
0
1070
     6
1002
{
1000
Prompt
1070
     4
1000
(genmsg gendwg 103)
1002
{
1002
}
1000
Value
1070
     4
1000

1002
{
1002
}
1000
EditFlag
1070
     1
1070
     0
1002
{
1002
}
1000
PosInDDATTE
1070
     1
1070
    27
1002
{
1002
}
1000
FieldLen
1070
     1
1070
    -1
1002
{
1002
}
1002
}
1000
1
1070
     6
1002
{
1000
Prompt
1070
     4
1000
(genmsg gendwg 31)
1002
{
1002
}
1000
Value
1070
     4
1000
1
1002
{
1002
}
1000
EditFlag
1070
     1
1070
     1
1002
{
1002
}
1000
PosInDDATTE
1070
     1
1070
     1
1002
{
1002
}
1000
FieldLen
1070
     1
1070
    -1
1002
{
1002
}
1002
}
1000
2
1070
     6
1002
{
1000
Prompt
1070
     4
1000
(genmsg gendwg 32)
1002
{
1002
}
1000
Value
1070
     4
1000
1
1002
{
1002
}
1000
EditFlag
1070
     1
1070
     1
1002
{
1002
}
1000
PosInDDATTE
1070
     1
1070
     2
1002
{
1002
}
1000
FieldLen
1070
     1
1070
    -1
1002
{
1002
}
1002
}
1000
3
1070
     6
1002
{
1000
Prompt
1070
     4
1000
(genmsg gendwg 33)
1002
{
1002
}
1000
Value
1070
     4
1000

1002
{
1002
}
1000
EditFlag
1070
     1
1070
     1
1002
{
1002
}
1000
PosInDDATTE
1070
     1
1070
     3
1002
{
1002
}
1000
FieldLen
1070
     1
1070
    -1
1002
{
1002
}
1002
}
1000
4
1070
     6
1002
{
1000
Prompt
1070
     4
1000
(genmsg gendwg 34)
1002
{
1002
}
1000
Value
1070
     4
1000

1002
{
1002
}
1000
EditFlag
1070
     1
1070
     1
1002
{
1002
}
1000
PosInDDATTE
1070
     1
1070
     4
1002
{
1002
}
1000
FieldLen
1070
     1
1070
    -1
1002
{
1002
}
1002
}
1000
5
1070
     6
1002
{
1000
Prompt
1070
     4
1000
(genmsg gendwg 35)
1002
{
1002
}
1000
Value
1070
     4
1000

1002
{
1002
}
1000
EditFlag
1070
     1
1070
     1
1002
{
1002
}
1000
PosInDDATTE
1070
     1
1070
     5
1002
{
1002
}
1000
FieldLen
1070
     1
1070
    -1
1002
{
1002
}
1002
}
1000
6
1070
     6
1002
{
1000
Prompt
1070
     4
1000
(genmsg gendwg 36)
1002
{
1002
}
1000
Value
1070
     4
1000

1002
{
1002
}
1000
EditFlag
1070
     1
1070
     1
1002
{
1002
}
1000
PosInDDATTE
1070
     1
1070
     6
1002
{
1002
}
1000
FieldLen
1070
     1
1070
    -1
1002
{
1002
}
1002
}
1000
7
1070
     6
1002
{
1000
Prompt
1070
     4
1000
(genmsg gendwg 37)
1002
{
1002
}
1000
Value
1070
     4
1000

1002
{
1002
}
1000
EditFlag
1070
     1
1070
     1
1002
{
1002
}
1000
PosInDDATTE
1070
     1
1070
     7
1002
{
1002
}
1000
FieldLen
1070
     1
1070
    -1
1002
{
1002
}
1002
}
1000
8
1070
     6
1002
{
1000
Prompt
1070
     4
1000
(genmsg gendwg 38)
1002
{
1002
}
1000
Value
1070
     4
1000

1002
{
1002
}
1000
EditFlag
1070
     1
1070
     1
1002
{
1002
}
1000
PosInDDATTE
1070
     1
1070
     8
1002
{
1002
}
1000
FieldLen
1070
     1
1070
    -1
1002
{
1002
}
1002
}
1000
9
1070
     6
1002
{
1000
Prompt
1070
     4
1000
(genmsg gendwg 39)
1002
{
1002
}
1000
Value
1070
     4
1000

1002
{
1002
}
1000
EditFlag
1070
     1
1070
     1
1002
{
1002
}
1000
PosInDDATTE
1070
     1
1070
     9
1002
{
1002
}
1000
FieldLen
1070
     1
1070
    -1
1002
{
1002
}
1002
}
1000
10
1070
     6
1002
{
1000
Prompt
1070
     4
1000
(genmsg gendwg 40)
1002
{
1002
}
1000
Value
1070
     4
1000

1002
{
1002
}
1000
EditFlag
1070
     1
1070
     1
1002
{
1002
}
1000
PosInDDATTE
1070
     1
1070
    10
1002
{
1002
}
1000
FieldLen
1070
     1
1070
    -1
1002
{
1002
}
1002
}
1000
11
1070
     6
1002
{
1000
Prompt
1070
     4
1000
(genmsg gendwg 41)
1002
{
1002
}
1000
Value
1070
     4
1000

1002
{
1002
}
1000
EditFlag
1070
     1
1070
     1
1002
{
1002
}
1000
PosInDDATTE
1070
     1
1070
    11
1002
{
1002
}
1000
FieldLen
1070
     1
1070
    -1
1002
{
1002
}
1002
}
1000
12
1070
     6
1002
{
1000
Prompt
1070
     4
1000
(genmsg gendwg 42)
1002
{
1002
}
1000
Value
1070
     4
1000

1002
{
1002
}
1000
EditFlag
1070
     1
1070
     1
1002
{
1002
}
1000
PosInDDATTE
1070
     1
1070
    12
1002
{
1002
}
1000
FieldLen
1070
     1
1070
    -1
1002
{
1002
}
1002
}
1000
13
1070
     6
1002
{
1000
Prompt
1070
     4
1000
(genmsg gendwg 43)
1002
{
1002
}
1000
Value
1070
     4
1000

1002
{
1002
}
1000
EditFlag
1070
     1
1070
     1
1002
{
1002
}
1000
PosInDDATTE
1070
     1
1070
    13
1002
{
1002
}
1000
FieldLen
1070
     1
1070
    -1
1002
{
1002
}
1002
}
1000
14
1070
     6
1002
{
1000
Prompt
1070
     4
1000
(genmsg gendwg 44)
1002
{
1002
}
1000
Value
1070
     4
1000

1002
{
1002
}
1000
EditFlag
1070
     1
1070
     1
1002
{
1002
}
1000
PosInDDATTE
1070
     1
1070
    14
1002
{
1002
}
1000
FieldLen
1070
     1
1070
    -1
1002
{
1002
}
1002
}
1000
15
1070
     6
1002
{
1000
Prompt
1070
     4
1000
(genmsg gendwg 45)
1002
{
1002
}
1000
Value
1070
     4
1000

1002
{
1002
}
1000
EditFlag
1070
     1
1070
     1
1002
{
1002
}
1000
PosInDDATTE
1070
     1
1070
    15
1002
{
1002
}
1000
FieldLen
1070
     1
1070
    -1
1002
{
1002
}
1002
}
1000
16
1070
     6
1002
{
1000
Prompt
1070
     4
1000
(genmsg gendwg 46)
1002
{
1002
}
1000
Value
1070
     4
1000

1002
{
1002
}
1000
EditFlag
1070
     1
1070
     1
1002
{
1002
}
1000
PosInDDATTE
1070
     1
1070
    16
1002
{
1002
}
1000
FieldLen
1070
     1
1070
    -1
1002
{
1002
}
1002
}
1000
17
1070
     6
1002
{
1000
Prompt
1070
     4
1000
(genmsg gendwg 47)
1002
{
1002
}
1000
Value
1070
     4
1000

1002
{
1002
}
1000
EditFlag
1070
     1
1070
     1
1002
{
1002
}
1000
PosInDDATTE
1070
     1
1070
    17
1002
{
1002
}
1000
FieldLen
1070
     1
1070
    -1
1002
{
1002
}
1002
}
1000
18
1070
     6
1002
{
1000
Prompt
1070
     4
1000
(genmsg gendwg 48)
1002
{
1002
}
1000
Value
1070
     4
1000

1002
{
1002
}
1000
EditFlag
1070
     1
1070
     1
1002
{
1002
}
1000
PosInDDATTE
1070
     1
1070
    18
1002
{
1002
}
1000
FieldLen
1070
     1
1070
    -1
1002
{
1002
}
1002
}
1000
19
1070
     6
1002
{
1000
Prompt
1070
     4
1000
(genmsg gendwg 99)
1002
{
1002
}
1000
Value
1070
     4
1000

1002
{
1002
}
1000
EditFlag
1070
     1
1070
     1
1002
{
1002
}
1000
PosInDDATTE
1070
     1
1070
    19
1002
{
1002
}
1000
FieldLen
1070
     1
1070
    -1
1002
{
1002
}
1002
}
1000
20
1070
     6
1002
{
1000
Prompt
1070
     4
1000
(genmsg gendwg 100)
1002
{
1002
}
1000
Value
1070
     4
1000

1002
{
1002
}
1000
EditFlag
1070
     1
1070
     1
1002
{
1002
}
1000
PosInDDATTE
1070
     1
1070
    20
1002
{
1002
}
1000
FieldLen
1070
     1
1070
    -1
1002
{
1002
}
1002
}
1000
21
1070
     6
1002
{
1000
Prompt
1070
     4
1000
(genmsg gendwg 101)
1002
{
1002
}
1000
Value
1070
     4
1000

1002
{
1002
}
1000
EditFlag
1070
     1
1070
     1
1002
{
1002
}
1000
PosInDDATTE
1070
     1
1070
    21
1002
{
1002
}
1000
FieldLen
1070
     1
1070
    -1
1002
{
1002
}
1002
}
1000
22
1070
     6
1002
{
1000
Prompt
1070
     4
1000
(genmsg gendwg 102)
1002
{
1002
}
1000
Value
1070
     4
1000

1002
{
1002
}
1000
EditFlag
1070
     1
1070
     1
1002
{
1002
}
1000
PosInDDATTE
1070
     1
1070
    22
1002
{
1002
}
1000
FieldLen
1070
     1
1070
    -1
1002
{
1002
}
1002
}
1000
23
1070
     6
1002
{
1000
Prompt
1070
     4
1000
(genmsg gendwg 30)
1002
{
1002
}
1000
Value
1070
     4
1000

1002
{
1002
}
1000
EditFlag
1070
     1
1070
     1
1002
{
1002
}
1000
PosInDDATTE
1070
     1
1070
    23
1002
{
1002
}
1000
FieldLen
1070
     1
1070
    -1
1002
{
1002
}
1002
}
1000
24
1070
     6
1002
{
1000
Prompt
1070
     4
1000
(genmsg gendwg 104)
1002
{
1002
}
1000
Value
1070
     4
1000

1002
{
1002
}
1000
EditFlag
1070
     1
1070
     1
1002
{
1002
}
1000
PosInDDATTE
1070
     1
1070
    24
1002
{
1002
}
1000
FieldLen
1070
     1
1070
    -1
1002
{
1002
}
1002
}
1000
25
1070
     6
1002
{
1000
Prompt
1070
     4
1000
(genmsg gendwg 105)
1002
{
1002
}
1000
Value
1070
     4
1000

1002
{
1002
}
1000
EditFlag
1070
     1
1070
     1
1002
{
1002
}
1000
PosInDDATTE
1070
     1
1070
    25
1002
{
1002
}
1000
FieldLen
1070
     1
1070
    -1
1002
{
1002
}
1002
}
1000
26
1070
     6
1002
{
1000
Prompt
1070
     4
1000
(genmsg gendwg 106)
1002
{
1002
}
1000
Value
1070
     4
1000

1002
{
1002
}
1000
EditFlag
1070
     1
1070
     1
1002
{
1002
}
1000
PosInDDATTE
1070
     1
1070
    26
1002
{
1002
}
1000
FieldLen
1070
     1
1070
    -1
1002
{
1002
}
1002
}
1000
27
1070
     6
1002
{
1000
Prompt
1070
     4
1000
(genmsg gendwg 109)
1002
{
1002
}
1000
Value
1070
     4
1000

1002
{
1002
}
1000
EditFlag
1070
     1
1070
     2
1002
{
1002
}
1000
PosInDDATTE
1070
     1
1070
    27
1002
{
1002
}
1000
FieldLen
1070
     1
1070
    -1
1002
{
1002
}
1002
}
1002
}
1000
Xlate
1070
     0
1002
{
1000
>
1002
}
  0
APPID
  5
1303
330
129A
100
AcDbSymbolTableRecord
100
AcDbRegAppTableRecord
  2
GENIUS_GENCFG2_13
 70
     0
1001
GENIUS_GENCFG_13
1071
1022852837
1000
1303
1000
GEN@LAYER@DEFS
1070
     9
1000
GenCfgObject
1000
GenCfgShort
1000
GenCfgReal
1000
GenCfgBool
1000
GenCfgString
1000
GenCfgDim
1000
GenCfgAttrInf
1000
GenCfgLaySection
1000
GenCfgLayer
1000
Basic
1070
     0
1002
{
1000
0
1070
     8
1000
0
1002
{
1000
Color
1070
     1
1070
     7
1002
{
1002
}
1000
LType
1070
     4
1000
CONTINUOUS
1002
{
1002
}
1000
Base
1070
     3
1070
     0
1002
{
1002
}
1002
}
1000
1
1070
     8
1000
1
1002
{
1000
Color
1070
     1
1070
    14
1002
{
1002
}
1000
LType
1070
     4
1000
CONTINUOUS
1002
{
1002
}
1000
Base
1070
     3
1070
     0
1002
{
1002
}
1002
}
1000
2
1070
     8
1000
2
1002
{
1000
Color
1070
     1
1070
     5
1002
{
1002
}
1000
LType
1070
     4
1000
CONTINUOUS
1002
{
1002
}
1000
Base
1070
     3
1070
     0
1002
{
1002
}
1002
}
1000
3
1070
     8
1000
3
1002
{
1000
Color
1070
     1
1070
     6
1002
{
1002
}
1000
LType
1070
     4
1000
GEN3
1002
{
1002
}
1000
Base
1070
     3
1070
     0
1002
{
1002
}
1002
}
1000
4
1070
     8
1000
4
1002
{
1000
Color
1070
     1
1070
     3
1002
{
1002
}
1000
LType
1070
     4
1000
CONTINUOUS
1002
{
1002
}
1000
Base
1070
     3
1070
     0
1002
{
1002
}
1002
}
1000
5
1070
     8
1000
5
1002
{
1000
Color
1070
     1
1070
     3
1002
{
1002
}
1000
LType
1070
     4
1000
CONTINUOUS
1002
{
1002
}
1000
Base
1070
     3
1070
     0
1002
{
1002
}
1002
}
1000
6
1070
     8
1000
6
1002
{
1000
Color
1070
     1
1070
     2
1002
{
1002
}
1000
LType
1070
     4
1000
CONTINUOUS
1002
{
1002
}
1000
Base
1070
     3
1070
     0
1002
{
1002
}
1002
}
1000
7
1070
     8
1000
7
1002
{
1000
Color
1070
     1
1070
     4
1002
{
1002
}
1000
LType
1070
     4
1000
GEN7
1002
{
1002
}
1000
Base
1070
     3
1070
     0
1002
{
1002
}
1002
}
1000
8
1070
     8
1000
8
1002
{
1000
Color
1070
     1
1070
     1
1002
{
1002
}
1000
LType
1070
     4
1000
CONTINUOUS
1002
{
1002
}
1000
Base
1070
     3
1070
     0
1002
{
1002
}
1002
}
1000
3A
1070
     8
1000
3A
1002
{
1000
Color
1070
     1
1070
     6
1002
{
1002
}
1000
LType
1070
     4
1000
GEN3A
1002
{
1002
}
1000
Base
1070
     3
1070
     0
1002
{
1002
}
1002
}
1000
7A
1070
     8
1000
7A
1002
{
1000
Color
1070
     1
1070
     4
1002
{
1002
}
1000
LType
1070
     4
1000
GEN7A
1002
{
1002
}
1000
Base
1070
     3
1070
     0
1002
{
1002
}
1002
}
1000
2A
1070
     8
1000
2A
1002
{
1000
Color
1070
     1
1070
     7
1002
{
1002
}
1000
LType
1070
     4
1000
GEN7
1002
{
1002
}
1000
Base
1070
     3
1070
     0
1002
{
1002
}
1002
}
1000
4A
1070
     8
1000
4A
1002
{
1000
Color
1070
     1
1070
     3
1002
{
1002
}
1000
LType
1070
     4
1000
GEN4A
1002
{
1002
}
1000
Base
1070
     3
1070
     0
1002
{
1002
}
1002
}
1000
9
1070
     8
1000
9
1002
{
1000
Color
1070
     1
1070
   253
1002
{
1002
}
1000
LType
1070
     4
1000
CONTINUOUS
1002
{
1002
}
1000
Base
1070
     3
1070
     0
1002
{
1002
}
1002
}
1000
IP
1070
     8
1000
IP
1002
{
1000
Color
1070
     1
1070
     7
1002
{
1002
}
1000
LType
1070
     4
1000
CONTINUOUS
1002
{
1002
}
1000
Base
1070
     3
1070
     0
1002
{
1002
}
1002
}
1002
}
1000
Standard
1070
     0
1002
{
1000
0N
1070
     8
1000
0N
1002
{
1000
Color
1070
     1
1070
     7
1002
{
1002
}
1000
LType
1070
     4
1000
CONTINUOUS
1002
{
1002
}
1000
Base
1070
     3
1070
     0
1002
{
1002
}
1002
}
1000
1N
1070
     8
1000
1N
1002
{
1000
Color
1070
     1
1070
    14
1002
{
1002
}
1000
LType
1070
     4
1000
CONTINUOUS
1002
{
1002
}
1000
Base
1070
     3
1070
     0
1002
{
1002
}
1002
}
1000
2N
1070
     8
1000
2N
1002
{
1000
Color
1070
     1
1070
     5
1002
{
1002
}
1000
LType
1070
     4
1000
CONTINUOUS
1002
{
1002
}
1000
Base
1070
     3
1070
     0
1002
{
1002
}
1002
}
1000
3N
1070
     8
1000
3N
1002
{
1000
Color
1070
     1
1070
     6
1002
{
1002
}
1000
LType
1070
     4
1000
GEN3
1002
{
1002
}
1000
Base
1070
     3
1070
     0
1002
{
1002
}
1002
}
1000
4N
1070
     8
1000
4N
1002
{
1000
Color
1070
     1
1070
     3
1002
{
1002
}
1000
LType
1070
     4
1000
CONTINUOUS
1002
{
1002
}
1000
Base
1070
     3
1070
     0
1002
{
1002
}
1002
}
1000
5N
1070
     8
1000
5N
1002
{
1000
Color
1070
     1
1070
     3
1002
{
1002
}
1000
LType
1070
     4
1000
CONTINUOUS
1002
{
1002
}
1000
Base
1070
     3
1070
     0
1002
{
1002
}
1002
}
1000
6N
1070
     8
1000
6N
1002
{
1000
Color
1070
     1
1070
     2
1002
{
1002
}
1000
LType
1070
     4
1000
CONTINUOUS
1002
{
1002
}
1000
Base
1070
     3
1070
     0
1002
{
1002
}
1002
}
1000
7N
1070
     8
1000
7N
1002
{
1000
Color
1070
     1
1070
     4
1002
{
1002
}
1000
LType
1070
     4
1000
GEN7
1002
{
1002
}
1000
Base
1070
     3
1070
     0
1002
{
1002
}
1002
}
1000
8N
1070
     8
1000
8N
1002
{
1000
Color
1070
     1
1070
     1
1002
{
1002
}
1000
LType
1070
     4
1000
CONTINUOUS
1002
{
1002
}
1000
Base
1070
     3
1070
     0
1002
{
1002
}
1002
}
1000
3AN
1070
     8
1000
3AN
1002
{
1000
Color
1070
     1
1070
     6
1002
{
1002
}
1000
LType
1070
     4
1000
GEN3A
1002
{
1002
}
1000
Base
1070
     3
1070
     0
1002
{
1002
}
1002
}
1000
7AN
1070
     8
1000
7AN
1002
{
1000
Color
1070
     1
1070
     4
1002
{
1002
}
1000
LType
1070
     4
1000
GEN7A
1002
{
1002
}
1000
Base
1070
     3
1070
     0
1002
{
1002
}
1002
}
1000
2AN
1070
     8
1000
2AN
1002
{
1000
Color
1070
     1
1070
     7
1002
{
1002
}
1000
LType
1070
     4
1000
GEN7
1002
{
1002
}
1000
Base
1070
     3
1070
     0
1002
{
1002
}
1002
}
1000
4AN
1070
     8
1000
4AN
1002
{
1000
Color
1070
     1
1070
     3
1002
{
1002
}
1000
LType
1070
     4
1000
GEN4A
1002
{
1002
}
1000
Base
1070
     3
1070
     0
1002
{
1002
}
1002
}
1000
9N
1070
     8
1000
9N
1002
{
1000
Color
1070
     1
1070
   253
1002
{
1002
}
1000
LType
1070
     4
1000
CONTINUOUS
1002
{
1002
}
1000
Base
1070
     3
1070
     0
1002
{
1002
}
1002
}
1000
IPN
1070
     8
1000
IPN
1002
{
1000
Color
1070
     1
1070
     7
1002
{
1002
}
1000
LType
1070
     4
1000
CONTINUOUS
1002
{
1002
}
1000
Base
1070
     3
1070
     0
1002
{
1002
}
1002
}
1002
}
1000
Extra
1070
     0
1002
{
1000
Klin
1070
     8
1000
KLIN
1002
{
1000
Color
1070
     1
1070
     1
1002
{
1002
}
1000
LType
1070
     4
1000
CONTINUOUS
1002
{
1002
}
1000
Base
1070
     3
1070
     1
1002
{
1002
}
1002
}
1000
Info
1070
     8
1000
INFO
1002
{
1000
Color
1070
     1
1070
     4
1002
{
1002
}
1000
LType
1070
     4
1000
CONTINUOUS
1002
{
1002
}
1000
Base
1070
     3
1070
     1
1002
{
1002
}
1002
}
1000
Rahm2
1070
     8
1000
RAHM2
1002
{
1000
Color
1070
     1
1070
     1
1002
{
1002
}
1000
LType
1070
     4
1000
CONTINUOUS
1002
{
1002
}
1000
Base
1070
     3
1070
     1
1002
{
1002
}
1002
}
1000
Rahm3
1070
     8
1000
RAHM3
1002
{
1000
Color
1070
     1
1070
     2
1002
{
1002
}
1000
LType
1070
     4
1000
CONTINUOUS
1002
{
1002
}
1000
Base
1070
     3
1070
     1
1002
{
1002
}
1002
}
1000
Rahm5
1070
     8
1000
RAHM5
1002
{
1000
Color
1070
     1
1070
     7
1002
{
1002
}
1000
LType
1070
     4
1000
CONTINUOUS
1002
{
1002
}
1000
Base
1070
     3
1070
     1
1002
{
1002
}
1002
}
1000
View
1070
     8
1000
VIEW
1002
{
1000
Color
1070
     1
1070
     1
1002
{
1002
}
1000
LType
1070
     4
1000
CONTINUOUS
1002
{
1002
}
1000
Base
1070
     3
1070
     1
1002
{
1002
}
1002
}
1000
Behind
1070
     8
1000
BEHIND
1002
{
1000
Color
1070
     1
1070
   253
1002
{
1002
}
1000
LType
1070
     4
1000
CONTINUOUS
1002
{
1002
}
1000
Base
1070
     3
1070
     1
1002
{
1002
}
1002
}
1002
}
  0
APPID
  5
1304
330
129A
100
AcDbSymbolTableRecord
100
AcDbRegAppTableRecord
  2
GENIUS_GENCFG3_13
 70
     0
1001
GENIUS_GENCFG_13
1071
1022852837
1000
1304
1000
GEN@LAYER@ENTSORT
1070
    10
1000
GenCfgObject
1000
GenCfgShort
1000
GenCfgReal
1000
GenCfgBool
1000
GenCfgString
1000
GenCfgDim
1000
GenCfgAttrInf
1000
GenCfgLaySection
1000
GenCfgLayer
1000
GenCfgEntSort
1000
ADDL
1070
     9
1000
5
1002
{
1000
Class
1070
     4
1000
SYM
1002
{
1002
}
1000
Color
1070
     1
1070
     1
1002
{
1002
}
1000
LType
1070
     4
1000
BYLAYER
1002
{
1002
}
1002
}
1000
ALTR
1070
     9
1000
4
1002
{
1000
Class
1070
     4
1000

1002
{
1002
}
1000
Color
1070
     1
1070
     7
1002
{
1002
}
1000
LType
1070
     4
1000
GEN3A
1002
{
1002
}
1002
}
1000
BELI
1070
     9
1000
4
1002
{
1000
Class
1070
     4
1000

1002
{
1002
}
1000
Color
1070
     1
1070
   256
1002
{
1002
}
1000
LType
1070
     4
1000
BYLAYER
1002
{
1002
}
1002
}
1000
BHNV
1070
     9
1000
9
1002
{
1000
Class
1070
     4
1000
INV
1002
{
1002
}
1000
Color
1070
     1
1070
   256
1002
{
1002
}
1000
LType
1070
     4
1000
BYLAYER
1002
{
1002
}
1002
}
1000
BHNVS
1070
     9
1000
BEHIND
1002
{
1000
Class
1070
     4
1000
INV
1002
{
1002
}
1000
Color
1070
     1
1070
   256
1002
{
1002
}
1000
LType
1070
     4
1000
BYLAYER
1002
{
1002
}
1002
}
1000
BLID
1070
     9
1000
4A
1002
{
1000
Class
1070
     4
1000

1002
{
1002
}
1000
Color
1070
     1
1070
   256
1002
{
1002
}
1000
LType
1070
     4
1000
BYLAYER
1002
{
1002
}
1002
}
1000
BOAP
1070
     9
1000
4A
1002
{
1000
Class
1070
     4
1000

1002
{
1002
}
1000
Color
1070
     1
1070
   256
1002
{
1002
}
1000
LType
1070
     4
1000
BYLAYER
1002
{
1002
}
1002
}
1000
BOR2
1070
     9
1000
RAHM2
1002
{
1000
Class
1070
     4
1000
SPZ,SYM
1002
{
1002
}
1000
Color
1070
     1
1070
   256
1002
{
1002
}
1000
LType
1070
     4
1000
BYLAYER
1002
{
1002
}
1002
}
1000
BOR3
1070
     9
1000
RAHM3
1002
{
1000
Class
1070
     4
1000
SPZ,SYM
1002
{
1002
}
1000
Color
1070
     1
1070
   256
1002
{
1002
}
1000
LType
1070
     4
1000
BYLAYER
1002
{
1002
}
1002
}
1000
BOR5
1070
     9
1000
RAHM5
1002
{
1000
Class
1070
     4
1000
SPZ,SYM
1002
{
1002
}
1000
Color
1070
     1
1070
   256
1002
{
1002
}
1000
LType
1070
     4
1000
BYLAYER
1002
{
1002
}
1002
}
1000
BOR7
1070
     9
1000
RAHM5
1002
{
1000
Class
1070
     4
1000
SPZ,SYM
1002
{
1002
}
1000
Color
1070
     1
1070
     7
1002
{
1002
}
1000
LType
1070
     4
1000
CONTINUOUS
1002
{
1002
}
1002
}
1000
BPAP
1070
     9
1000
4A
1002
{
1000
Class
1070
     4
1000

1002
{
1002
}
1000
Color
1070
     1
1070
   256
1002
{
1002
}
1000
LType
1070
     4
1000
BYLAYER
1002
{
1002
}
1002
}
1000
BPEX
1070
     9
1000
4A
1002
{
1000
Class
1070
     4
1000

1002
{
1002
}
1000
Color
1070
     1
1070
   256
1002
{
1002
}
1000
LType
1070
     4
1000
BYLAYER
1002
{
1002
}
1002
}
1000
BTDI
1070
     9
1000
5
1002
{
1000
Class
1070
     4
1000
DIM,SYM
1002
{
1002
}
1000
Color
1070
     1
1070
   256
1002
{
1002
}
1000
LType
1070
     4
1000
BYLAYER
1002
{
1002
}
1002
}
1000
CAL2
1070
     9
1000
4
1002
{
1000
Class
1070
     4
1000
SYM
1002
{
1002
}
1000
Color
1070
     1
1070
   256
1002
{
1002
}
1000
LType
1070
     4
1000
BYLAYER
1002
{
1002
}
1002
}
1000
CAL3
1070
     9
1000
4
1002
{
1000
Class
1070
     4
1000
SYM
1002
{
1002
}
1000
Color
1070
     1
1070
     2
1002
{
1002
}
1000
LType
1070
     4
1000
BYLAYER
1002
{
1002
}
1002
}
1000
CAL5
1070
     9
1000
4
1002
{
1000
Class
1070
     4
1000
SYM
1002
{
1002
}
1000
Color
1070
     1
1070
     7
1002
{
1002
}
1000
LType
1070
     4
1000
BYLAYER
1002
{
1002
}
1002
}
1000
CAL7
1070
     9
1000
4
1002
{
1000
Class
1070
     4
1000
SYM
1002
{
1002
}
1000
Color
1070
     1
1070
     5
1002
{
1002
}
1000
LType
1070
     4
1000
BYLAYER
1002
{
1002
}
1002
}
1000
CENN
1070
     9
1000
7A
1002
{
1000
Class
1070
     4
1000
CEN
1002
{
1002
}
1000
Color
1070
     1
1070
   256
1002
{
1002
}
1000
LType
1070
     4
1000
BYLAYER
1002
{
1002
}
1002
}
1000
CENW
1070
     9
1000
7
1002
{
1000
Class
1070
     4
1000
CEN
1002
{
1002
}
1000
Color
1070
     1
1070
   256
1002
{
1002
}
1000
LType
1070
     4
1000
BYLAYER
1002
{
1002
}
1002
}
1000
CLIN
1070
     9
1000
KLIN
1002
{
1000
Class
1070
     4
1000
SPZ
1002
{
1002
}
1000
Color
1070
     1
1070
   256
1002
{
1002
}
1000
LType
1070
     4
1000
BYLAYER
1002
{
1002
}
1002
}
1000
CON1
1070
     9
1000
0
1002
{
1000
Class
1070
     4
1000
CON,BGD
1002
{
1002
}
1000
Color
1070
     1
1070
   256
1002
{
1002
}
1000
LType
1070
     4
1000
BYLAYER
1002
{
1002
}
1002
}
1000
CON2
1070
     9
1000
1
1002
{
1000
Class
1070
     4
1000
CON,BGD
1002
{
1002
}
1000
Color
1070
     1
1070
   256
1002
{
1002
}
1000
LType
1070
     4
1000
BYLAYER
1002
{
1002
}
1002
}
1000
CON3
1070
     9
1000
2
1002
{
1000
Class
1070
     4
1000
CON,BGD
1002
{
1002
}
1000
Color
1070
     1
1070
   256
1002
{
1002
}
1000
LType
1070
     4
1000
BYLAYER
1002
{
1002
}
1002
}
1000
CON4
1070
     9
1000
2
1002
{
1000
Class
1070
     4
1000
CON,BGD
1002
{
1002
}
1000
Color
1070
     1
1070
   256
1002
{
1002
}
1000
LType
1070
     4
1000
BYLAYER
1002
{
1002
}
1002
}
1000
DERP
1070
     9
1000
4
1002
{
1000
Class
1070
     4
1000

1002
{
1002
}
1000
Color
1070
     1
1070
   256
1002
{
1002
}
1000
LType
1070
     4
1000
BYLAYER
1002
{
1002
}
1002
}
1000
DETA
1070
     9
1000
4
1002
{
1000
Class
1070
     4
1000

1002
{
1002
}
1000
Color
1070
     1
1070
   256
1002
{
1002
}
1000
LType
1070
     4
1000
BYLAYER
1002
{
1002
}
1002
}
1000
DIAG
1070
     9
1000
5
1002
{
1000
Class
1070
     4
1000
SYM
1002
{
1002
}
1000
Color
1070
     1
1070
   256
1002
{
1002
}
1000
LType
1070
     4
1000
BYLAYER
1002
{
1002
}
1002
}
1000
DILI
1070
     9
1000
5
1002
{
1000
Class
1070
     4
1000
DIM,SYM
1002
{
1002
}
1000
Color
1070
     1
1070
   256
1002
{
1002
}
1000
LType
1070
     4
1000
BYLAYER
1002
{
1002
}
1002
}
1000
DITO2
1070
     9
1000
5
1002
{
1000
Class
1070
     4
1000
DIM,SYM
1002
{
1002
}
1000
Color
1070
     1
1070
     3
1002
{
1002
}
1000
LType
1070
     4
1000
BYLAYER
1002
{
1002
}
1002
}
1000
DITO3
1070
     9
1000
5
1002
{
1000
Class
1070
     4
1000
DIM,SYM
1002
{
1002
}
1000
Color
1070
     1
1070
     2
1002
{
1002
}
1000
LType
1070
     4
1000
BYLAYER
1002
{
1002
}
1002
}
1000
DITX
1070
     9
1000
5
1002
{
1000
Class
1070
     4
1000
DIM,SYM
1002
{
1002
}
1000
Color
1070
     1
1070
     2
1002
{
1002
}
1000
LType
1070
     4
1000
CONTINUOUS
1002
{
1002
}
1002
}
1000
DIXL
1070
     9
1000
5
1002
{
1000
Class
1070
     4
1000
DIM,SYM
1002
{
1002
}
1000
Color
1070
     1
1070
   256
1002
{
1002
}
1000
LType
1070
     4
1000
BYLAYER
1002
{
1002
}
1002
}
1000
EXMP
1070
     9
1000
4A
1002
{
1000
Class
1070
     4
1000

1002
{
1002
}
1000
Color
1070
     1
1070
   256
1002
{
1002
}
1000
LType
1070
     4
1000
BYLAYER
1002
{
1002
}
1002
}
1000
FEMN
1070
     9
1000
8
1002
{
1000
Class
1070
     4
1000

1002
{
1002
}
1000
Color
1070
     1
1070
   256
1002
{
1002
}
1000
LType
1070
     4
1000
BYLAYER
1002
{
1002
}
1002
}
1000
FEMPN
1070
     9
1000
8
1002
{
1000
Class
1070
     4
1000
SYM
1002
{
1002
}
1000
Color
1070
     1
1070
     3
1002
{
1002
}
1000
LType
1070
     4
1000
BYLAYER
1002
{
1002
}
1002
}
1000
FEMSP
1070
     9
1000
4A
1002
{
1000
Class
1070
     4
1000

1002
{
1002
}
1000
Color
1070
     1
1070
   256
1002
{
1002
}
1000
LType
1070
     4
1000
CONTINUOUS
1002
{
1002
}
1002
}
1000
FEMST
1070
     9
1000
4A
1002
{
1000
Class
1070
     4
1000
SYM
1002
{
1002
}
1000
Color
1070
     1
1070
     3
1002
{
1002
}
1000
LType
1070
     4
1000
BYLAYER
1002
{
1002
}
1002
}
1000
FEMVN
1070
     9
1000
2
1002
{
1000
Class
1070
     4
1000
CON
1002
{
1002
}
1000
Color
1070
     1
1070
   256
1002
{
1002
}
1000
LType
1070
     4
1000
BYLAYER
1002
{
1002
}
1002
}
1000
FEMVT
1070
     9
1000
2
1002
{
1000
Class
1070
     4
1000
SYM
1002
{
1002
}
1000
Color
1070
     1
1070
     3
1002
{
1002
}
1000
LType
1070
     4
1000
BYLAYER
1002
{
1002
}
1002
}
1000
FLAT
1070
     9
1000
0
1002
{
1000
Class
1070
     4
1000

1002
{
1002
}
1000
Color
1070
     1
1070
   256
1002
{
1002
}
1000
LType
1070
     4
1000
BYLAYER
1002
{
1002
}
1002
}
1000
FRAR
1070
     9
1000
4A
1002
{
1000
Class
1070
     4
1000

1002
{
1002
}
1000
Color
1070
     1
1070
   256
1002
{
1002
}
1000
LType
1070
     4
1000
BYLAYER
1002
{
1002
}
1002
}
1000
GRLI
1070
     9
1000
5
1002
{
1000
Class
1070
     4
1000
SYM
1002
{
1002
}
1000
Color
1070
     1
1070
   256
1002
{
1002
}
1000
LType
1070
     4
1000
BYLAYER
1002
{
1002
}
1002
}
1000
GVLI
1070
     9
1000
4A
1002
{
1000
Class
1070
     4
1000

1002
{
1002
}
1000
Color
1070
     1
1070
   256
1002
{
1002
}
1000
LType
1070
     4
1000
BYLAYER
1002
{
1002
}
1002
}
1000
HATC
1070
     9
1000
8
1002
{
1000
Class
1070
     4
1000
HTC,BGD
1002
{
1002
}
1000
Color
1070
     1
1070
   256
1002
{
1002
}
1000
LType
1070
     4
1000
BYLAYER
1002
{
1002
}
1002
}
1000
HIDN
1070
     9
1000
3A
1002
{
1000
Class
1070
     4
1000
HID,BGD
1002
{
1002
}
1000
Color
1070
     1
1070
   256
1002
{
1002
}
1000
LType
1070
     4
1000
BYLAYER
1002
{
1002
}
1002
}
1000
HIDW
1070
     9
1000
3
1002
{
1000
Class
1070
     4
1000
HID,BGD
1002
{
1002
}
1000
Color
1070
     1
1070
   256
1002
{
1002
}
1000
LType
1070
     4
1000
BYLAYER
1002
{
1002
}
1002
}
1000
HLIN
1070
     9
1000
4
1002
{
1000
Class
1070
     4
1000
BGD
1002
{
1002
}
1000
Color
1070
     1
1070
   256
1002
{
1002
}
1000
LType
1070
     4
1000
BYLAYER
1002
{
1002
}
1002
}
1000
HOCN
1070
     9
1000
7A
1002
{
1000
Class
1070
     4
1000
CEN
1002
{
1002
}
1000
Color
1070
     1
1070
   256
1002
{
1002
}
1000
LType
1070
     4
1000
BYLAYER
1002
{
1002
}
1002
}
1000
HOCW
1070
     9
1000
7
1002
{
1000
Class
1070
     4
1000
CEN
1002
{
1002
}
1000
Color
1070
     1
1070
   256
1002
{
1002
}
1000
LType
1070
     4
1000
BYLAYER
1002
{
1002
}
1002
}
1000
INFO
1070
     9
1000
INFO
1002
{
1000
Class
1070
     4
1000
SPZ,SYM
1002
{
1002
}
1000
Color
1070
     1
1070
   256
1002
{
1002
}
1000
LType
1070
     4
1000
BYLAYER
1002
{
1002
}
1002
}
1000
LADI
1070
     9
1000
4
1002
{
1000
Class
1070
     4
1000
BGD
1002
{
1002
}
1000
Color
1070
     1
1070
   256
1002
{
1002
}
1000
LType
1070
     4
1000
BYLAYER
1002
{
1002
}
1002
}
1000
LEAD
1070
     9
1000
5
1002
{
1000
Class
1070
     4
1000
SYM
1002
{
1002
}
1000
Color
1070
     1
1070
   256
1002
{
1002
}
1000
LType
1070
     4
1000
BYLAYER
1002
{
1002
}
1002
}
1000
N_ADDL
1070
     9
1000
5N
1002
{
1000
Class
1070
     4
1000
SYM
1002
{
1002
}
1000
Color
1070
     1
1070
     1
1002
{
1002
}
1000
LType
1070
     4
1000
BYLAYER
1002
{
1002
}
1002
}
1000
N_BHNV
1070
     9
1000
9N
1002
{
1000
Class
1070
     4
1000
INV
1002
{
1002
}
1000
Color
1070
     1
1070
   256
1002
{
1002
}
1000
LType
1070
     4
1000
BYLAYER
1002
{
1002
}
1002
}
1000
N_CON1
1070
     9
1000
0N
1002
{
1000
Class
1070
     4
1000
CON,BGD
1002
{
1002
}
1000
Color
1070
     1
1070
   256
1002
{
1002
}
1000
LType
1070
     4
1000
BYLAYER
1002
{
1002
}
1002
}
1000
N_CON2
1070
     9
1000
1N
1002
{
1000
Class
1070
     4
1000
CON,BGD
1002
{
1002
}
1000
Color
1070
     1
1070
   256
1002
{
1002
}
1000
LType
1070
     4
1000
BYLAYER
1002
{
1002
}
1002
}
1000
N_CON3
1070
     9
1000
2N
1002
{
1000
Class
1070
     4
1000
CON,BGD
1002
{
1002
}
1000
Color
1070
     1
1070
   256
1002
{
1002
}
1000
LType
1070
     4
1000
BYLAYER
1002
{
1002
}
1002
}
1000
N_CON4
1070
     9
1000
2N
1002
{
1000
Class
1070
     4
1000
CON,BGD
1002
{
1002
}
1000
Color
1070
     1
1070
   256
1002
{
1002
}
1000
LType
1070
     4
1000
BYLAYER
1002
{
1002
}
1002
}
1000
N_CENN
1070
     9
1000
7AN
1002
{
1000
Class
1070
     4
1000
CEN
1002
{
1002
}
1000
Color
1070
     1
1070
   256
1002
{
1002
}
1000
LType
1070
     4
1000
BYLAYER
1002
{
1002
}
1002
}
1000
N_CENW
1070
     9
1000
7N
1002
{
1000
Class
1070
     4
1000
CEN
1002
{
1002
}
1000
Color
1070
     1
1070
   256
1002
{
1002
}
1000
LType
1070
     4
1000
BYLAYER
1002
{
1002
}
1002
}
1000
N_DILI
1070
     9
1000
5N
1002
{
1000
Class
1070
     4
1000
DIM,SYM
1002
{
1002
}
1000
Color
1070
     1
1070
   256
1002
{
1002
}
1000
LType
1070
     4
1000
BYLAYER
1002
{
1002
}
1002
}
1000
N_DITX
1070
     9
1000
5N
1002
{
1000
Class
1070
     4
1000
DIM,SYM
1002
{
1002
}
1000
Color
1070
     1
1070
     2
1002
{
1002
}
1000
LType
1070
     4
1000
CONTINUOUS
1002
{
1002
}
1002
}
1000
N_DIXL
1070
     9
1000
5N
1002
{
1000
Class
1070
     4
1000
DIM,SYM
1002
{
1002
}
1000
Color
1070
     1
1070
   256
1002
{
1002
}
1000
LType
1070
     4
1000
BYLAYER
1002
{
1002
}
1002
}
1000
N_HATC
1070
     9
1000
8N
1002
{
1000
Class
1070
     4
1000
HTC,BGD
1002
{
1002
}
1000
Color
1070
     1
1070
   256
1002
{
1002
}
1000
LType
1070
     4
1000
BYLAYER
1002
{
1002
}
1002
}
1000
N_HIDN
1070
     9
1000
3AN
1002
{
1000
Class
1070
     4
1000
HID,BGD
1002
{
1002
}
1000
Color
1070
     1
1070
   256
1002
{
1002
}
1000
LType
1070
     4
1000
BYLAYER
1002
{
1002
}
1002
}
1000
N_HIDW
1070
     9
1000
3N
1002
{
1000
Class
1070
     4
1000
HID,BGD
1002
{
1002
}
1000
Color
1070
     1
1070
   256
1002
{
1002
}
1000
LType
1070
     4
1000
BYLAYER
1002
{
1002
}
1002
}
1000
N_NGIP
1070
     9
1000
IPN
1002
{
1000
Class
1070
     4
1000

1002
{
1002
}
1000
Color
1070
     1
1070
   256
1002
{
1002
}
1000
LType
1070
     4
1000
BYLAYER
1002
{
1002
}
1002
}
1000
N_PHAN
1070
     9
1000
4AN
1002
{
1000
Class
1070
     4
1000

1002
{
1002
}
1000
Color
1070
     1
1070
   256
1002
{
1002
}
1000
LType
1070
     4
1000
BYLAYER
1002
{
1002
}
1002
}
1000
N_POSL
1070
     9
1000
5N
1002
{
1000
Class
1070
     4
1000
SYM
1002
{
1002
}
1000
Color
1070
     1
1070
   256
1002
{
1002
}
1000
LType
1070
     4
1000
BYLAYER
1002
{
1002
}
1002
}
1000
N_TCON
1070
     9
1000
0N
1002
{
1000
Class
1070
     4
1000
CON,BGD
1002
{
1002
}
1000
Color
1070
     1
1070
   256
1002
{
1002
}
1000
LType
1070
     4
1000
BYLAYER
1002
{
1002
}
1002
}
1000
N_THLI
1070
     9
1000
4N
1002
{
1000
Class
1070
     4
1000
BGD
1002
{
1002
}
1000
Color
1070
     1
1070
   256
1002
{
1002
}
1000
LType
1070
     4
1000
BYLAYER
1002
{
1002
}
1002
}
1000
N_TLEN
1070
     9
1000
0N
1002
{
1000
Class
1070
     4
1000
CON,BGD
1002
{
1002
}
1000
Color
1070
     1
1070
   256
1002
{
1002
}
1000
LType
1070
     4
1000
BYLAYER
1002
{
1002
}
1002
}
1000
N_TXT3
1070
     9
1000
6N
1002
{
1000
Class
1070
     4
1000
SYM
1002
{
1002
}
1000
Color
1070
     1
1070
   256
1002
{
1002
}
1000
LType
1070
     4
1000
BYLAYER
1002
{
1002
}
1002
}
1000
N_VPLI
1070
     9
1000
2AN
1002
{
1000
Class
1070
     4
1000

1002
{
1002
}
1000
Color
1070
     1
1070
   256
1002
{
1002
}
1000
LType
1070
     4
1000
BYLAYER
1002
{
1002
}
1002
}
1000
NGIP
1070
     9
1000
IP
1002
{
1000
Class
1070
     4
1000

1002
{
1002
}
1000
Color
1070
     1
1070
   256
1002
{
1002
}
1000
LType
1070
     4
1000
BYLAYER
1002
{
1002
}
1002
}
1000
PAL2
1070
     9
1000
RAHM2
1002
{
1000
Class
1070
     4
1000
SPZ,SYM
1002
{
1002
}
1000
Color
1070
     1
1070
   256
1002
{
1002
}
1000
LType
1070
     4
1000
BYLAYER
1002
{
1002
}
1002
}
1000
PAL3
1070
     9
1000
RAHM3
1002
{
1000
Class
1070
     4
1000
SPZ,SYM
1002
{
1002
}
1000
Color
1070
     1
1070
   256
1002
{
1002
}
1000
LType
1070
     4
1000
BYLAYER
1002
{
1002
}
1002
}
1000
PAL5
1070
     9
1000
RAHM5
1002
{
1000
Class
1070
     4
1000
SPZ,SYM
1002
{
1002
}
1000
Color
1070
     1
1070
   256
1002
{
1002
}
1000
LType
1070
     4
1000
BYLAYER
1002
{
1002
}
1002
}
1000
PAL7
1070
     9
1000
RAHM5
1002
{
1000
Class
1070
     4
1000
SPZ,SYM
1002
{
1002
}
1000
Color
1070
     1
1070
     7
1002
{
1002
}
1000
LType
1070
     4
1000
CONTINUOUS
1002
{
1002
}
1002
}
1000
PHAN
1070
     9
1000
4A
1002
{
1000
Class
1070
     4
1000

1002
{
1002
}
1000
Color
1070
     1
1070
   256
1002
{
1002
}
1000
LType
1070
     4
1000
BYLAYER
1002
{
1002
}
1002
}
1000
POSL
1070
     9
1000
5
1002
{
1000
Class
1070
     4
1000
SYM
1002
{
1002
}
1000
Color
1070
     1
1070
   256
1002
{
1002
}
1000
LType
1070
     4
1000
BYLAYER
1002
{
1002
}
1002
}
1000
POSN
1070
     9
1000
6
1002
{
1000
Class
1070
     4
1000
SYM
1002
{
1002
}
1000
Color
1070
     1
1070
     7
1002
{
1002
}
1000
LType
1070
     4
1000
BYLAYER
1002
{
1002
}
1002
}
1000
POSREF
1070
     9
1000
6
1002
{
1000
Class
1070
     4
1000
SYM
1002
{
1002
}
1000
Color
1070
     1
1070
     5
1002
{
1002
}
1000
LType
1070
     4
1000
BYLAYER
1002
{
1002
}
1002
}
1000
POSX
1070
     9
1000
5
1002
{
1000
Class
1070
     4
1000
SYM
1002
{
1002
}
1000
Color
1070
     1
1070
     2
1002
{
1002
}
1000
LType
1070
     4
1000
CONTINUOUS
1002
{
1002
}
1002
}
1000
PSEC
1070
     9
1000
4A
1002
{
1000
Class
1070
     4
1000

1002
{
1002
}
1000
Color
1070
     1
1070
   256
1002
{
1002
}
1000
LType
1070
     4
1000
BYLAYER
1002
{
1002
}
1002
}
1000
RCGN
1070
     9
1000
7A
1002
{
1000
Class
1070
     4
1000
CEN
1002
{
1002
}
1000
Color
1070
     1
1070
   256
1002
{
1002
}
1000
LType
1070
     4
1000
BYLAYER
1002
{
1002
}
1002
}
1000
RCGW
1070
     9
1000
7
1002
{
1000
Class
1070
     4
1000
CEN
1002
{
1002
}
1000
Color
1070
     1
1070
   256
1002
{
1002
}
1000
LType
1070
     4
1000
BYLAYER
1002
{
1002
}
1002
}
1000
RFDI
1070
     9
1000
4
1002
{
1000
Class
1070
     4
1000
BGD
1002
{
1002
}
1000
Color
1070
     1
1070
   256
1002
{
1002
}
1000
LType
1070
     4
1000
BYLAYER
1002
{
1002
}
1002
}
1000
RQTR
1070
     9
1000
4
1002
{
1000
Class
1070
     4
1000

1002
{
1002
}
1000
Color
1070
     1
1070
     7
1002
{
1002
}
1000
LType
1070
     4
1000
GEN7A
1002
{
1002
}
1002
}
1000
RSBO
1070
     9
1000
4
1002
{
1000
Class
1070
     4
1000
BGD
1002
{
1002
}
1000
Color
1070
     1
1070
   256
1002
{
1002
}
1000
LType
1070
     4
1000
BYLAYER
1002
{
1002
}
1002
}
1000
SBRK
1070
     9
1000
4
1002
{
1000
Class
1070
     4
1000
BGD
1002
{
1002
}
1000
Color
1070
     1
1070
   256
1002
{
1002
}
1000
LType
1070
     4
1000
BYLAYER
1002
{
1002
}
1002
}
1000
SCEN
1070
     9
1000
7
1002
{
1000
Class
1070
     4
1000

1002
{
1002
}
1000
Color
1070
     1
1070
   256
1002
{
1002
}
1000
LType
1070
     4
1000
CONTINUOUS
1002
{
1002
}
1002
}
1000
SECT
1070
     9
1000
4
1002
{
1000
Class
1070
     4
1000
BGD
1002
{
1002
}
1000
Color
1070
     1
1070
   256
1002
{
1002
}
1000
LType
1070
     4
1000
BYLAYER
1002
{
1002
}
1002
}
1000
SELN
1070
     9
1000
7A
1002
{
1000
Class
1070
     4
1000

1002
{
1002
}
1000
Color
1070
     1
1070
   256
1002
{
1002
}
1000
LType
1070
     4
1000
BYLAYER
1002
{
1002
}
1002
}
1000
SELW
1070
     9
1000
7
1002
{
1000
Class
1070
     4
1000

1002
{
1002
}
1000
Color
1070
     1
1070
   256
1002
{
1002
}
1000
LType
1070
     4
1000
BYLAYER
1002
{
1002
}
1002
}
1000
SSYS
1070
     9
1000
0
1002
{
1000
Class
1070
     4
1000

1002
{
1002
}
1000
Color
1070
     1
1070
   256
1002
{
1002
}
1000
LType
1070
     4
1000
BYLAYER
1002
{
1002
}
1002
}
1000
STLI
1070
     9
1000
4
1002
{
1000
Class
1070
     4
1000

1002
{
1002
}
1000
Color
1070
     1
1070
     7
1002
{
1002
}
1000
LType
1070
     4
1000
GEN3A
1002
{
1002
}
1002
}
1000
SYB1
1070
     9
1000
5
1002
{
1000
Class
1070
     4
1000
SYM
1002
{
1002
}
1000
Color
1070
     1
1070
   256
1002
{
1002
}
1000
LType
1070
     4
1000
BYLAYER
1002
{
1002
}
1002
}
1000
SYB2
1070
     9
1000
5
1002
{
1000
Class
1070
     4
1000
SYM
1002
{
1002
}
1000
Color
1070
     1
1070
   256
1002
{
1002
}
1000
LType
1070
     4
1000
BYLAYER
1002
{
1002
}
1002
}
1000
SYB3
1070
     9
1000
6
1002
{
1000
Class
1070
     4
1000
SYM
1002
{
1002
}
1000
Color
1070
     1
1070
   256
1002
{
1002
}
1000
LType
1070
     4
1000
CONTINUOUS
1002
{
1002
}
1002
}
1000
SYB5
1070
     9
1000
5
1002
{
1000
Class
1070
     4
1000
SYM
1002
{
1002
}
1000
Color
1070
     1
1070
     7
1002
{
1002
}
1000
LType
1070
     4
1000
BYLAYER
1002
{
1002
}
1002
}
1000
SYMN
1070
     9
1000
7A
1002
{
1000
Class
1070
     4
1000
CEN
1002
{
1002
}
1000
Color
1070
     1
1070
   256
1002
{
1002
}
1000
LType
1070
     4
1000
BYLAYER
1002
{
1002
}
1002
}
1000
SYMW
1070
     9
1000
7
1002
{
1000
Class
1070
     4
1000
CEN
1002
{
1002
}
1000
Color
1070
     1
1070
   256
1002
{
1002
}
1000
LType
1070
     4
1000
BYLAYER
1002
{
1002
}
1002
}
1000
TCON
1070
     9
1000
0
1002
{
1000
Class
1070
     4
1000
CON,BGD
1002
{
1002
}
1000
Color
1070
     1
1070
   256
1002
{
1002
}
1000
LType
1070
     4
1000
BYLAYER
1002
{
1002
}
1002
}
1000
THLI
1070
     9
1000
4
1002
{
1000
Class
1070
     4
1000
BGD
1002
{
1002
}
1000
Color
1070
     1
1070
   256
1002
{
1002
}
1000
LType
1070
     4
1000
BYLAYER
1002
{
1002
}
1002
}
1000
TIT2
1070
     9
1000
RAHM2
1002
{
1000
Class
1070
     4
1000
SPZ,SYM
1002
{
1002
}
1000
Color
1070
     1
1070
   256
1002
{
1002
}
1000
LType
1070
     4
1000
BYLAYER
1002
{
1002
}
1002
}
1000
TIT3
1070
     9
1000
RAHM3
1002
{
1000
Class
1070
     4
1000
SPZ,SYM
1002
{
1002
}
1000
Color
1070
     1
1070
   256
1002
{
1002
}
1000
LType
1070
     4
1000
BYLAYER
1002
{
1002
}
1002
}
1000
TIT5
1070
     9
1000
RAHM5
1002
{
1000
Class
1070
     4
1000
SPZ,SYM
1002
{
1002
}
1000
Color
1070
     1
1070
   256
1002
{
1002
}
1000
LType
1070
     4
1000
BYLAYER
1002
{
1002
}
1002
}
1000
TIT7
1070
     9
1000
RAHM5
1002
{
1000
Class
1070
     4
1000
SPZ,SYM
1002
{
1002
}
1000
Color
1070
     1
1070
     7
1002
{
1002
}
1000
LType
1070
     4
1000
CONTINUOUS
1002
{
1002
}
1002
}
1000
TLEN
1070
     9
1000
0
1002
{
1000
Class
1070
     4
1000
CON,BGD
1002
{
1002
}
1000
Color
1070
     1
1070
   256
1002
{
1002
}
1000
LType
1070
     4
1000
BYLAYER
1002
{
1002
}
1002
}
1000
TRKN
1070
     9
1000
7A
1002
{
1000
Class
1070
     4
1000

1002
{
1002
}
1000
Color
1070
     1
1070
   256
1002
{
1002
}
1000
LType
1070
     4
1000
BYLAYER
1002
{
1002
}
1002
}
1000
TRKW
1070
     9
1000
7
1002
{
1000
Class
1070
     4
1000

1002
{
1002
}
1000
Color
1070
     1
1070
   256
1002
{
1002
}
1000
LType
1070
     4
1000
BYLAYER
1002
{
1002
}
1002
}
1000
TRLI
1070
     9
1000
4
1002
{
1000
Class
1070
     4
1000
BGD
1002
{
1002
}
1000
Color
1070
     1
1070
   256
1002
{
1002
}
1000
LType
1070
     4
1000
BYLAYER
1002
{
1002
}
1002
}
1000
TXT1
1070
     9
1000
6
1002
{
1000
Class
1070
     4
1000
SYM
1002
{
1002
}
1000
Color
1070
     1
1070
     2
1002
{
1002
}
1000
LType
1070
     4
1000
BYLAYER
1002
{
1002
}
1002
}
1000
TXT2
1070
     9
1000
6
1002
{
1000
Class
1070
     4
1000
SYM
1002
{
1002
}
1000
Color
1070
     1
1070
     2
1002
{
1002
}
1000
LType
1070
     4
1000
BYLAYER
1002
{
1002
}
1002
}
1000
TXT3
1070
     9
1000
6
1002
{
1000
Class
1070
     4
1000
SYM
1002
{
1002
}
1000
Color
1070
     1
1070
   256
1002
{
1002
}
1000
LType
1070
     4
1000
BYLAYER
1002
{
1002
}
1002
}
1000
TXT5
1070
     9
1000
6
1002
{
1000
Class
1070
     4
1000
SYM
1002
{
1002
}
1000
Color
1070
     1
1070
     7
1002
{
1002
}
1000
LType
1070
     4
1000
BYLAYER
1002
{
1002
}
1002
}
1000
TXT7
1070
     9
1000
6
1002
{
1000
Class
1070
     4
1000
SYM
1002
{
1002
}
1000
Color
1070
     1
1070
     7
1002
{
1002
}
1000
LType
1070
     4
1000
BYLAYER
1002
{
1002
}
1002
}
1000
VIEW
1070
     9
1000
VIEW
1002
{
1000
Class
1070
     4
1000
SPZ
1002
{
1002
}
1000
Color
1070
     1
1070
   256
1002
{
1002
}
1000
LType
1070
     4
1000
BYLAYER
1002
{
1002
}
1002
}
1000
VPLI
1070
     9
1000
2A
1002
{
1000
Class
1070
     4
1000

1002
{
1002
}
1000
Color
1070
     1
1070
   256
1002
{
1002
}
1000
LType
1070
     4
1000
BYLAYER
1002
{
1002
}
1002
}
1000
ZIZA
1070
     9
1000
4
1002
{
1000
Class
1070
     4
1000
BGD
1002
{
1002
}
1000
Color
1070
     1
1070
   256
1002
{
1002
}
1000
LType
1070
     4
1000
GENZIGZAG
1002
{
1002
}
1002
}
  0
APPID
  5
1305
330
129A
100
AcDbSymbolTableRecord
100
AcDbRegAppTableRecord
  2
GENIUS_GENCFG4_13
 70
     0
1001
GENIUS_GENCFG_13
1071
1022852848
1000
1305
1000
GEN
1070
     9
1000
GenCfgObject
1000
GenCfgShort
1000
GenCfgReal
1000
GenCfgBool
1000
GenCfgString
1000
GenCfgDim
1000
GenCfgLaySection
1000
GenCfgLType
1000
GenCfgFilter
1000
Balloon
1070
     0
1002
{
1000
GenIF
1070
     1
1070
     0
1002
{
1002
}
1000
GenPosInc
1070
     1
1070
     1
1002
{
1002
}
1000
GenPosBlk
1070
     1
1070
     8
1002
{
1002
}
1000
GenPosVar
1070
     1
1070
     0
1002
{
1002
}
1000
GenZiCir
1070
     2
1040
1.5
1002
{
1002
}
1000
MaxCharForCenteredText
1070
     1
1070
    30
1002
{
1002
}
1000
Snap
1070
     0
1002
{
1000
ActivationRadius
1070
     2
1040
1.0
1002
{
1002
}
1000
M
1070
     0
1002
{
1000
SnapStepX
1070
     2
1040
20.0
1002
{
1002
}
1000
SnapStepY
1070
     2
1040
10.0
1002
{
1002
}
1002
}
1000
I
1070
     0
1002
{
1000
SnapStepX
1070
     2
1040
1.0
1002
{
1002
}
1000
SnapStepY
1070
     2
1040
0.5
1002
{
1002
}
1002
}
1002
}
1002
}
1000
Centerline
1070
     0
1002
{
1000
ScaleNot
1070
     3
1070
     0
1002
{
1002
}
1000
M
1070
     0
1002
{
1000
GenCenAng
1070
     4
1000
45|90|135
1002
{
1002
}
1000
GenCenDia
1070
     2
1040
10.0
1002
{
1002
}
1000
GenCenDias
1070
     4
1000
10|20|30
1002
{
1002
}
1000
GenCenDist
1070
     2
1040
3.0
1002
{
1002
}
1000
GenCenLen
1070
     2
1040
10.0
1002
{
1002
}
1000
GenCenOff
1070
     2
1040
10.0
1002
{
1002
}
1002
}
1000
I
1070
     0
1002
{
1000
GenCenAng
1070
     4
1000
45|90|135
1002
{
1002
}
1000
GenCenDia
1070
     2
1040
0.5
1002
{
1002
}
1000
GenCenDias
1070
     4
1000
0.5|1.0|1.5
1002
{
1002
}
1000
GenCenDist
1070
     2
1040
0.125
1002
{
1002
}
1000
GenCenLen
1070
     2
1040
0.5
1002
{
1002
}
1000
GenCenOff
1070
     2
1040
0.5
1002
{
1002
}
1002
}
1002
}
1000
CLine
1070
     0
1002
{
1000
CAngArray
1070
     4
1000
30|45|60
1002
{
1002
}
1000
Typ
1070
     4
1000
XLINE
1002
{
1002
}
1000
M
1070
     0
1002
{
1000
CLinArray
1070
     4
1000
10|20|30
1002
{
1002
}
1002
}
1000
I
1070
     0
1002
{
1000
CLinArray
1070
     4
1000
0.125|0.25|0.5
1002
{
1002
}
1002
}
1002
}
1000
Detail
1070
     0
1002
{
1002
}
1000
Dimension
1070
     5
1002
{
1000
DIMALT
1070
     1
1070
     0
1002
{
1002
}
1000
DIMALTD
1070
     1
1070
     2
1002
{
1002
}
1000
DIMALTTD
1070
     1
1070
     4
1002
{
1002
}
1000
DIMALTTZ
1070
     1
1070
     0
1002
{
1002
}
1000
DIMALTU
1070
     1
1070
     2
1002
{
1002
}
1000
DIMALTZ
1070
     1
1070
     0
1002
{
1002
}
1000
DIMAUNIT
1070
     1
1070
     0
1002
{
1002
}
1000
DIMBLK
1070
     4
1000

1002
{
1002
}
1000
DIMBLK1
1070
     4
1000

1002
{
1002
}
1000
DIMBLK2
1070
     4
1000

1002
{
1002
}
1000
DIMCLRD
1070
     1
1070
   256
1002
{
1002
}
1000
DIMCLRE
1070
     1
1070
   256
1002
{
1002
}
1000
DIMCLRT
1070
     1
1070
     2
1002
{
1002
}
1000
DIMDLE
1070
     2
1040
0.0
1002
{
1002
}
1000
DIMFIT
1070
     1
1070
     3
1002
{
1002
}
1000
DIMJUST
1070
     1
1070
     0
1002
{
1002
}
1000
DIMLFAC
1070
     2
1040
1.0
1002
{
1002
}
1000
DIMLIM
1070
     1
1070
     0
1002
{
1002
}
1000
DIMPOST
1070
     4
1000

1002
{
1002
}
1000
DIMRND
1070
     2
1040
0.0
1002
{
1002
}
1000
DIMSAH
1070
     1
1070
     0
1002
{
1002
}
1000
DIMSCALE
1070
     2
1040
1.0
1002
{
1002
}
1000
DIMSD1
1070
     1
1070
     0
1002
{
1002
}
1000
DIMSD2
1070
     1
1070
     0
1002
{
1002
}
1000
DIMSE1
1070
     1
1070
     0
1002
{
1002
}
1000
DIMSE2
1070
     1
1070
     0
1002
{
1002
}
1000
DIMSOXD
1070
     1
1070
     0
1002
{
1002
}
1000
DIMTAD
1070
     1
1070
     0
1002
{
1002
}
1000
DIMTFAC
1070
     2
1040
0.71
1002
{
1002
}
1000
DIMTIH
1070
     1
1070
     0
1002
{
1002
}
1000
DIMTIX
1070
     1
1070
     0
1002
{
1002
}
1000
DIMTM
1070
     2
1040
0.1
1002
{
1002
}
1000
DIMTOFL
1070
     1
1070
     0
1002
{
1002
}
1000
DIMTOH
1070
     1
1070
     0
1002
{
1002
}
1000
DIMTOL
1070
     1
1070
     0
1002
{
1002
}
1000
DIMTOLJ
1070
     1
1070
     1
1002
{
1002
}
1000
DIMTP
1070
     2
1040
0.1
1002
{
1002
}
1000
DIMTSZ
1070
     2
1040
0.0
1002
{
1002
}
1000
DIMTVP
1070
     2
1040
0.0
1002
{
1002
}
1000
DIMTXSTY
1070
     4
1000
STANDARD
1002
{
1002
}
1000
DIMTZIN
1070
     1
1070
     0
1002
{
1002
}
1000
DIMUNIT
1070
     1
1070
     2
1002
{
1002
}
1000
DIMUPT
1070
     1
1070
     0
1002
{
1002
}
1000
M
1070
     0
1002
{
1000
DIMALTF
1070
     2
1040
0.03937
1002
{
1002
}
1000
DIMAPOST
1070
     4
1000
"
1002
{
1002
}
1000
DIMASZ
1070
     2
1040
2.5
1002
{
1002
}
1000
DIMCEN
1070
     2
1040
0.0
1002
{
1002
}
1000
DIMDEC
1070
     1
1070
     2
1002
{
1002
}
1000
DIMDLI
1070
     2
1040
7.0
1002
{
1002
}
1000
DIMEXE
1070
     2
1040
1.0
1002
{
1002
}
1000
DIMEXO
1070
     2
1040
1.0
1002
{
1002
}
1000
DIMGAP
1070
     2
1040
0.6
1002
{
1002
}
1000
DIMTDEC
1070
     1
1070
     3
1002
{
1002
}
1000
DIMTXT
1070
     2
1040
3.5
1002
{
1002
}
1000
DIMZIN
1070
     1
1070
     8
1002
{
1002
}
1002
}
1000
I
1070
     0
1002
{
1000
DIMALTF
1070
     2
1040
25.4
1002
{
1002
}
1000
DIMAPOST
1070
     4
1000
mm
1002
{
1002
}
1000
DIMASZ
1070
     2
1040
0.1
1002
{
1002
}
1000
DIMCEN
1070
     2
1040
0.0
1002
{
1002
}
1000
DIMDEC
1070
     1
1070
     4
1002
{
1002
}
1000
DIMDLI
1070
     2
1040
0.5
1002
{
1002
}
1000
DIMEXE
1070
     2
1040
0.1
1002
{
1002
}
1000
DIMEXO
1070
     2
1040
0.05
1002
{
1002
}
1000
DIMGAP
1070
     2
1040
0.06
1002
{
1002
}
1000
DIMTDEC
1070
     1
1070
     4
1002
{
1002
}
1000
DIMTXT
1070
     2
1040
0.12
1002
{
1002
}
1000
DIMZIN
1070
     1
1070
     7
1002
{
1002
}
1002
}
1000
GEN-ISO
1070
     5
1002
{
1000
NAME
1070
     4
1000
GEN-ISO
1002
{
1002
}
1000
DIMTAD
1070
     1
1070
     1
1002
{
1002
}
1000
DIMTOLJ
1070
     1
1070
     0
1002
{
1002
}
1000
DIMTOFL
1070
     1
1070
     1
1002
{
1002
}
1000
M
1070
     0
1002
{
1002
}
1000
I
1070
     0
1002
{
1002
}
1002
}
1000
GEN-ISO-POS
1070
     5
1002
{
1000
NAME
1070
     4
1000
GEN-ISO-POS
1002
{
1002
}
1000
DIMTOLJ
1070
     1
1070
     0
1002
{
1002
}
1000
DIMTXSTY
1070
     4
1000
STANDARD
1002
{
1002
}
1000
M
1070
     0
1002
{
1000
DIMASZ
1070
     2
1040
2.5
1002
{
1002
}
1000
DIMGAP
1070
     2
1040
1.5
1002
{
1002
}
1000
DIMTXT
1070
     2
1040
5.0
1002
{
1002
}
1002
}
1000
I
1070
     0
1002
{
1000
DIMASZ
1070
     2
1040
0.1
1002
{
1002
}
1000
DIMGAP
1070
     2
1040
0.06
1002
{
1002
}
1000
DIMTXT
1070
     2
1040
0.2
1002
{
1002
}
1002
}
1002
}
1000
GEN-ISO-CIR
1070
     5
1002
{
1000
NAME
1070
     4
1000
GEN-ISO$3
1002
{
1002
}
1000
DIMFIT
1070
     1
1070
     0
1002
{
1002
}
1000
DIMTAD
1070
     1
1070
     1
1002
{
1002
}
1000
DIMTOH
1070
     1
1070
     1
1002
{
1002
}
1000
DIMTOLJ
1070
     1
1070
     0
1002
{
1002
}
1000
DIMUPT
1070
     1
1070
     1
1002
{
1002
}
1000
M
1070
     0
1002
{
1002
}
1000
I
1070
     0
1002
{
1002
}
1002
}
1000
GEN-ISO-RAD
1070
     5
1002
{
1000
NAME
1070
     4
1000
GEN-ISO$4
1002
{
1002
}
1000
DIMFIT
1070
     1
1070
     0
1002
{
1002
}
1000
DIMTAD
1070
     1
1070
     1
1002
{
1002
}
1000
DIMTIH
1070
     1
1070
     0
1002
{
1002
}
1000
DIMTIX
1070
     1
1070
     0
1002
{
1002
}
1000
DIMTOH
1070
     1
1070
     1
1002
{
1002
}
1000
DIMTOLJ
1070
     1
1070
     0
1002
{
1002
}
1000
DIMTOFL
1070
     1
1070
     0
1002
{
1002
}
1000
DIMUPT
1070
     1
1070
     1
1002
{
1002
}
1000
M
1070
     0
1002
{
1002
}
1000
I
1070
     0
1002
{
1002
}
1002
}
1000
GEN-ISO-ORD
1070
     5
1002
{
1000
NAME
1070
     4
1000
GEN-ISO$6
1002
{
1002
}
1000
DIMTOLJ
1070
     1
1070
     0
1002
{
1002
}
1000
M
1070
     0
1002
{
1002
}
1000
I
1070
     0
1002
{
1002
}
1002
}
1000
GEN-ISO-AXE-F
1070
     5
1002
{
1000
NAME
1070
     4
1000
GEN-ISO-AXE-F
1002
{
1002
}
1000
DIMSE1
1070
     1
1070
     1
1002
{
1002
}
1000
DIMSE2
1070
     1
1070
     1
1002
{
1002
}
1000
DIMTAD
1070
     1
1070
     1
1002
{
1002
}
1000
DIMTOLJ
1070
     1
1070
     0
1002
{
1002
}
1000
DIMTOFL
1070
     1
1070
     1
1002
{
1002
}
1000
M
1070
     0
1002
{
1002
}
1000
I
1070
     0
1002
{
1002
}
1002
}
1000
GEN-ISO-AXE-H
1070
     5
1002
{
1000
NAME
1070
     4
1000
GEN-ISO-AXE-H
1002
{
1002
}
1000
DIMBLK1
1070
     4
1000
GENAXEH
1002
{
1002
}
1000
DIMLFAC
1070
     2
1040
2.0
1002
{
1002
}
1000
DIMSAH
1070
     1
1070
     1
1002
{
1002
}
1000
DIMSE1
1070
     1
1070
     1
1002
{
1002
}
1000
DIMSE2
1070
     1
1070
     1
1002
{
1002
}
1000
DIMTAD
1070
     1
1070
     1
1002
{
1002
}
1000
DIMTOLJ
1070
     1
1070
     0
1002
{
1002
}
1000
DIMTOFL
1070
     1
1070
     1
1002
{
1002
}
1000
M
1070
     0
1002
{
1002
}
1000
I
1070
     0
1002
{
1002
}
1002
}
1000
GEN-ANSI
1070
     5
1002
{
1000
NAME
1070
     4
1000
GEN-ANSI
1002
{
1002
}
1000
DIMTIH
1070
     1
1070
     1
1002
{
1002
}
1000
DIMTOH
1070
     1
1070
     1
1002
{
1002
}
1000
DIMTAD
1070
     1
1070
     0
1002
{
1002
}
1000
DIMTOLJ
1070
     1
1070
     1
1002
{
1002
}
1000
M
1070
     0
1002
{
1002
}
1000
I
1070
     0
1002
{
1002
}
1002
}
1000
GEN-ANSI-POS
1070
     5
1002
{
1000
NAME
1070
     4
1000
GEN-ANSI-POS
1002
{
1002
}
1000
DIMTOLJ
1070
     1
1070
     1
1002
{
1002
}
1000
DIMTXSTY
1070
     4
1000
STANDARD
1002
{
1002
}
1000
M
1070
     0
1002
{
1000
DIMASZ
1070
     2
1040
2.5
1002
{
1002
}
1000
DIMGAP
1070
     2
1040
1.5
1002
{
1002
}
1000
DIMTXT
1070
     2
1040
5.0
1002
{
1002
}
1002
}
1000
I
1070
     0
1002
{
1000
DIMASZ
1070
     2
1040
0.1
1002
{
1002
}
1000
DIMGAP
1070
     2
1040
0.06
1002
{
1002
}
1000
DIMTXT
1070
     2
1040
0.2
1002
{
1002
}
1002
}
1002
}
1000
GEN-ANSI-CIR
1070
     5
1002
{
1000
NAME
1070
     4
1000
GEN-ANSI$3
1002
{
1002
}
1000
DIMFIT
1070
     1
1070
     0
1002
{
1002
}
1000
DIMTAD
1070
     1
1070
     0
1002
{
1002
}
1000
DIMTIH
1070
     1
1070
     1
1002
{
1002
}
1000
DIMTIX
1070
     1
1070
     0
1002
{
1002
}
1000
DIMTOFL
1070
     1
1070
     0
1002
{
1002
}
1000
DIMTOH
1070
     1
1070
     1
1002
{
1002
}
1000
DIMTOLJ
1070
     1
1070
     1
1002
{
1002
}
1000
DIMUPT
1070
     1
1070
     1
1002
{
1002
}
1000
M
1070
     0
1002
{
1002
}
1000
I
1070
     0
1002
{
1002
}
1002
}
1000
GEN-ANSI-RAD
1070
     5
1002
{
1000
NAME
1070
     4
1000
GEN-ANSI$4
1002
{
1002
}
1000
DIMFIT
1070
     1
1070
     0
1002
{
1002
}
1000
DIMTAD
1070
     1
1070
     0
1002
{
1002
}
1000
DIMTIH
1070
     1
1070
     1
1002
{
1002
}
1000
DIMTIX
1070
     1
1070
     0
1002
{
1002
}
1000
DIMTOFL
1070
     1
1070
     0
1002
{
1002
}
1000
DIMTOH
1070
     1
1070
     1
1002
{
1002
}
1000
DIMTOLJ
1070
     1
1070
     1
1002
{
1002
}
1000
DIMUPT
1070
     1
1070
     1
1002
{
1002
}
1000
M
1070
     0
1002
{
1002
}
1000
I
1070
     0
1002
{
1002
}
1002
}
1000
GEN-ANSI-ORD
1070
     5
1002
{
1000
NAME
1070
     4
1000
GEN-ANSI$6
1002
{
1002
}
1000
DIMTAD
1070
     1
1070
     0
1002
{
1002
}
1000
DIMTIH
1070
     1
1070
     1
1002
{
1002
}
1000
DIMTOH
1070
     1
1070
     1
1002
{
1002
}
1000
DIMTOLJ
1070
     1
1070
     1
1002
{
1002
}
1000
M
1070
     0
1002
{
1002
}
1000
I
1070
     0
1002
{
1002
}
1002
}
1000
GEN-ANSI-AXE-F
1070
     5
1002
{
1000
NAME
1070
     4
1000
GEN-ANSI-AXE-F
1002
{
1002
}
1000
DIMBLK1
1070
     4
1000
GENAXEH
1002
{
1002
}
1000
DIMSAH
1070
     1
1070
     1
1002
{
1002
}
1000
DIMSE1
1070
     1
1070
     1
1002
{
1002
}
1000
DIMSE2
1070
     1
1070
     1
1002
{
1002
}
1000
DIMTAD
1070
     1
1070
     0
1002
{
1002
}
1000
DIMTIH
1070
     1
1070
     1
1002
{
1002
}
1000
DIMTOH
1070
     1
1070
     1
1002
{
1002
}
1000
DIMTOLJ
1070
     1
1070
     1
1002
{
1002
}
1000
M
1070
     0
1002
{
1002
}
1000
I
1070
     0
1002
{
1002
}
1002
}
1000
GEN-ANSI-AXE-H
1070
     5
1002
{
1000
NAME
1070
     4
1000
GEN-ANSI-AXE-H
1002
{
1002
}
1000
DIMBLK1
1070
     4
1000
GENAXEH
1002
{
1002
}
1000
DIMLFAC
1070
     2
1040
2.0
1002
{
1002
}
1000
DIMSAH
1070
     1
1070
     1
1002
{
1002
}
1000
DIMSE1
1070
     1
1070
     1
1002
{
1002
}
1000
DIMSE2
1070
     1
1070
     1
1002
{
1002
}
1000
DIMTAD
1070
     1
1070
     0
1002
{
1002
}
1000
DIMTOFL
1070
     1
1070
     1
1002
{
1002
}
1000
DIMTOLJ
1070
     1
1070
     1
1002
{
1002
}
1000
M
1070
     0
1002
{
1002
}
1000
I
1070
     0
1002
{
1002
}
1002
}
1002
}
1000
DimSet
1070
     0
1002
{
1000
ChainSum
1070
     3
1070
     0
1002
{
1002
}
1000
DimDclTyp0
1070
     4
1000
dim23
1002
{
1002
}
1000
HorBra
1070
     3
1070
     0
1002
{
1002
}
1000
StrDia
1070
     4
1000
%%c<>
1002
{
1002
}
1000
StrRad
1070
     4
1000
R<>
1002
{
1002
}
1000
TextMinus
1070
     4
1000
<>
1002
{
1002
}
1000
TextPlus
1070
     4
1000
<>
1002
{
1002
}
1000
M
1070
     0
1002
{
1000
DimdliFirst
1070
     2
1040
10.0
1002
{
1002
}
1000
PointMakeDist
1070
     2
1040
10.0
1002
{
1002
}
1002
}
1000
I
1070
     0
1002
{
1000
DimdliFirst
1070
     2
1040
0.5
1002
{
1002
}
1000
PointMakeDist
1070
     2
1040
0.5
1002
{
1002
}
1002
}
1000
FitGrade
1070
     4
1000
h7
1002
{
1002
}
1002
}
1000
Drawing
1070
     0
1002
{
1000
ChamferDimMode
1070
     1
1070
     2
1002
{
1002
}
1000
Gen_Fiso
1070
    -3
1040
1.0
1002
{
1002
}
1000
GenDimStil
1070
     4
1000
ISO
1002
{
1002
}
1000
GenDwgUScale
1070
     2
1040
1.0
1002
{
1002
}
1000
GenInch
1070
     4
1000
M
1002
{
1002
}
1000
GenPlotScale
1070
     4
1000
1:5
1002
{
1002
}
1000
Revisi
1070
     4
1000
0
1002
{
1002
}
1000
Version
1070
    -5
1000
14.01/Apr  1 1998
1002
{
1002
}
1000
Platform
1070
    -5
1000
WINNT
1002
{
1002
}
1002
}
1000
DwgVar
1070
     0
1002
{
1000
M
1070
     0
1002
{
1002
}
1000
I
1070
     0
1002
{
1002
}
1002
}
1000
Hatch
1070
     0
1002
{
1000
GenHtcFlag
1070
     3
1070
     0
1002
{
1002
}
1002
}
1000
Info_Pos
1070
     0
1002
{
1000
>
1002
}
1000
Layer
1070
     6
1002
{
1000
Defs
1070
     0
1002
{
1000
>
1002
}
1000
EntSort
1070
     0
1002
{
1000
>
1002
}
1000
Match
1070
     0
1002
{
1002
}
1000
Settings
1070
     0
1002
{
1000
FocGrNC
1070
     3
1070
     0
1002
{
1002
}
1000
FocGrLo
1070
     3
1070
     0
1002
{
1002
}
1000
FocLoNC
1070
     3
1070
     0
1002
{
1002
}
1000
FocusCol
1070
     1
1070
   253
1002
{
1002
}
1000
GenStdLG
1070
     4
1000

1002
{
1002
}
1000
LayMatch
1070
     3
1070
     0
1002
{
1002
}
1000
LgOff
1070
     3
1070
     0
1002
{
1002
}
1000
CurLG
1070
    -5
1000

1002
{
1002
}
1002
}
1002
}
1000
LType
1070
     0
1002
{
1000
GEN3
1070
     7
1000
genius.lin
1002
{
1002
}
1000
GEN7
1070
     7
1000
genius.lin
1002
{
1002
}
1000
GEN4A
1070
     7
1000
genius.lin
1002
{
1002
}
1000
GEN3A
1070
     7
1000
genius.lin
1002
{
1002
}
1000
GEN7A
1070
     7
1000
genius.lin
1002
{
1002
}
1000
GENZIGZAG
1070
     7
1000
genius.lin
1002
{
1002
}
1002
}
1000
Objecter
1070
     0
1002
{
1000
CreateGroups
1070
     3
1070
     0
1002
{
1002
}
1000
LaySwitch
1070
     3
1070
     1
1002
{
1002
}
1000
LastObj
1070
    -5
1000
1338
1002
{
1002
}
1000
TimeStamp
1070
    -5
1000
20020531.15470818
1002
{
1002
}
1002
}
1000
OSWiz
1070
     0
1002
{
1000
Filter
1070
     0
1002
{
1000
HATCH
1070
     8
1002
{
1000
EntityType
1070
     4
1000
LINE
1002
{
1002
}
1000
Layer
1070
     4
1000
8,8N,*-8,*-8N
1002
{
1002
}
1000
Linetype
1070
     4
1000
*
1002
{
1002
}
1000
Color
1070
     4
1000
*
1002
{
1002
}
1000
ApplyInDims
1070
     3
1070
     1
1002
{
1002
}
1002
}
1000
SYMBOLS
1070
     8
1002
{
1000
EntityType
1070
     4
1000
*
1002
{
1002
}
1000
Layer
1070
     4
1000
[5-6],[5-6]N,*-[5-6],*-[5-6]N
1002
{
1002
}
1000
Linetype
1070
     4
1000
*
1002
{
1002
}
1000
Color
1070
     4
1000
*
1002
{
1002
}
1000
ApplyInDims
1070
     3
1070
     1
1002
{
1002
}
1002
}
1000
FEM
1070
     8
1002
{
1000
EntityType
1070
     4
1000
*
1002
{
1002
}
1000
Layer
1070
     4
1000
4A,4AN,*-4A,*-4AN
1002
{
1002
}
1000
Linetype
1070
     4
1000
*
1002
{
1002
}
1000
Color
1070
     4
1000
*
1002
{
1002
}
1000
ApplyInDims
1070
     3
1070
     1
1002
{
1002
}
1002
}
1002
}
1002
}
1000
PaList
1070
     0
1002
{
1000
AutoUpdatePartList
1070
     1
1070
     0
1002
{
1002
}
1000
ReadInfoPoint
1070
     3
1070
     0
1002
{
1002
}
1000
ReadPosNr
1070
     3
1070
     1
1002
{
1002
}
1000
RevStr
1070
     4
1000
0
1002
{
1002
}
1002
}
1000
Paper
1070
     0
1002
{
1002
}
1000
PartDB
1070
     0
1002
{
1000
GenDbOwner
1070
     4
1000

1002
{
1002
}
1002
}
1000
System
1070
     0
1002
{
1000
Menu
1070
     4
1000
GEV
1002
{
1002
}
1002
}
1000
Title
1070
     0
1002
{
1000
MakeView
1070
     1
1070
     2
1002
{
1002
}
1002
}
1000
Tools
1070
     0
1002
{
1000
Trans
1070
     0
1002
{
1000
Drawingtranslation
1070
    -4
1070
     1
1002
{
1002
}
1000
upreserve
1070
     3
1070
     0
1002
{
1002
}
1000
originally_on
1070
    -4
1070
     0
1002
{
1002
}
1000
sourcelang
1070
    -5
1000
D
1002
{
1002
}
1002
}
1002
}
  0
APPID
  5
1306
330
129A
100
AcDbSymbolTableRecord
100
AcDbRegAppTableRecord
  2
GENIUS_GEVCFG0_13
 70
     0
1001
GENIUS_GENCFG_13
1071
1022852837
1000
1306
1000
GEV
1070
     1
1000
GenCfgObject
1000
VED
1070
     0
1002
{
1002
}
  0
APPID
  5
1307
330
129A
100
AcDbSymbolTableRecord
100
AcDbRegAppTableRecord
  2
GEV_VCCNULL_SWITCH_OFF
 70
     0
  0
APPID
  5
1308
330
129A
100
AcDbSymbolTableRecord
100
AcDbRegAppTableRecord
  2
GENIUS_GENDTOL_13
 70
     0
  0
APPID
  5
1309
330
129A
100
AcDbSymbolTableRecord
100
AcDbRegAppTableRecord
  2
GENIUS_GENOENT_13
 70
     0
  0
APPID
  5
130A
330
129A
100
AcDbSymbolTableRecord
100
AcDbRegAppTableRecord
  2
GENIUS_GENBLLY_14
 70
     0
  0
APPID
  5
130B
330
129A
100
AcDbSymbolTableRecord
100
AcDbRegAppTableRecord
  2
GENIUS_GENODEF_13
 70
     0
  0
APPID
  5
130C
330
129A
100
AcDbSymbolTableRecord
100
AcDbRegAppTableRecord
  2
GENIUS_GENOBJ-N-CRS_13
 70
     0
  0
APPID
  5
130D
330
129A
100
AcDbSymbolTableRecord
100
AcDbRegAppTableRecord
  2
GENIUS_GENOREF_13
 70
     0
  0
APPID
  5
130E
330
129A
100
AcDbSymbolTableRecord
100
AcDbRegAppTableRecord
  2
GENIUS_GENOLIS_13
 70
     0
  0
APPID
  5
130F
330
129A
100
AcDbSymbolTableRecord
100
AcDbRegAppTableRecord
  2
GENIUS_GEFCFG0_13
 70
     0
  0
APPID
  5
1310
330
129A
100
AcDbSymbolTableRecord
100
AcDbRegAppTableRecord
  2
GENIUS_VERSION2
 70
     0
  0
APPID
  5
1311
330
129A
100
AcDbSymbolTableRecord
100
AcDbRegAppTableRecord
  2
GENIUS_GENREC_14
 70
     0
  0
APPID
  5
1312
330
129A
100
AcDbSymbolTableRecord
100
AcDbRegAppTableRecord
  2
GENIUS_GENOBJ-N-REC_13
 70
     0
  0
APPID
  5
1313
330
129A
100
AcDbSymbolTableRecord
100
AcDbRegAppTableRecord
  2
GENIUS_GENOBJ-N-TIT_13
 70
     0
  0
APPID
  5
1314
330
129A
100
AcDbSymbolTableRecord
100
AcDbRegAppTableRecord
  2
GENIUS_GENTITLE_13
 70
     0
  0
APPID
  5
1315
330
129A
100
AcDbSymbolTableRecord
100
AcDbRegAppTableRecord
  2
GENIUS_GENZVEED_13
 70
     0
  0
APPID
  5
1316
330
129A
100
AcDbSymbolTableRecord
100
AcDbRegAppTableRecord
  2
GENIUS_GENOBJ-N-SDF_13
 70
     0
  0
APPID
  5
1317
330
129A
100
AcDbSymbolTableRecord
100
AcDbRegAppTableRecord
  2
GENIUS_GENSCREG_13
 70
     0
  0
APPID
  5
1318
330
129A
100
AcDbSymbolTableRecord
100
AcDbRegAppTableRecord
  2
GENIUS_GENBLKED_14
 70
     0
  0
APPID
  5
14A8
330
129A
100
AcDbSymbolTableRecord
100
AcDbRegAppTableRecord
  2
MCAD_NO_VIS
 70
     0
  0
APPID
  5
14A9
330
129A
100
AcDbSymbolTableRecord
100
AcDbRegAppTableRecord
  2
ACAD_TEMP_GRAPHIC
 70
     0
  0
APPID
  5
14AA
330
129A
100
AcDbSymbolTableRecord
100
AcDbRegAppTableRecord
  2
ACATTRIBSERVICES
 70
     0
  0
APPID
  5
14AB
330
129A
100
AcDbSymbolTableRecord
100
AcDbRegAppTableRecord
  2
AD_DRAW
 70
     0
  0
APPID
  5
14AC
330
129A
100
AcDbSymbolTableRecord
100
AcDbRegAppTableRecord
  2
DESIGNERASSEMBLIES
 70
     0
  0
APPID
  5
14AD
330
129A
100
AcDbSymbolTableRecord
100
AcDbRegAppTableRecord
  2
ACADM_DIM_EDIT
 70
     0
  0
APPID
  5
14AE
330
129A
100
AcDbSymbolTableRecord
100
AcDbRegAppTableRecord
  2
AMDT_DM_ADJ
 70
     0
  0
APPID
  5
14AF
330
129A
100
AcDbSymbolTableRecord
100
AcDbRegAppTableRecord
  2
ACAD_DSTYLE_DIMARC_LENGTH_SYMBOL
 70
     0
  0
APPID
  5
14B0
330
129A
100
AcDbSymbolTableRecord
100
AcDbRegAppTableRecord
  2
ACAD_DSTYLE_DIMJOGGED_JOGANGLE_SYMBOL
 70
     0
  0
APPID
  5
1583
330
129A
100
AcDbSymbolTableRecord
100
AcDbRegAppTableRecord
  2
AcAecLayerStandard
 70
     0
  0
APPID
  5
15E4
330
129A
100
AcDbSymbolTableRecord
100
AcDbRegAppTableRecord
  2
GENIUS_GENOBJ-N-HTC_13
 70
     0
  0
APPID
  5
15E5
330
129A
100
AcDbSymbolTableRecord
100
AcDbRegAppTableRecord
  2
GENIUS_GENHATCH_13
 70
     0
  0
APPID
  5
1713
330
129A
100
AcDbSymbolTableRecord
100
AcDbRegAppTableRecord
  2
ACAD_MLEADERVER
 70
     0
  0
APPID
  5
17A9
330
129A
100
AcDbSymbolTableRecord
100
AcDbRegAppTableRecord
  2
ACAD_DSTYLE_DIM_LINETYPE
 70
     0
  0
APPID
  5
17AA
330
129A
100
AcDbSymbolTableRecord
100
AcDbRegAppTableRecord
  2
ACAD_DSTYLE_DIM_EXT1_LINETYPE
 70
     0
  0
APPID
  5
17AB
330
129A
100
AcDbSymbolTableRecord
100
AcDbRegAppTableRecord
  2
ACAD_DSTYLE_DIM_EXT2_LINETYPE
 70
     0
  0
ENDTAB
  0
TABLE
  2
DIMSTYLE
  5
129B
330
0
100
AcDbSymbolTable
 70
    16
100
AcDbDimStyleTable
 71
     2
340
151A
340
12C1
  0
DIMSTYLE
105
12C1
102
{ACAD_REACTORS
330
1162
330
1244
330
124F
102
}
330
129B
100
AcDbSymbolTableRecord
100
AcDbDimStyleTableRecord
  2
GEN-ISO
 70
     0
  4
"
 40
5.0
 41
2.5
 42
1.0
 43
7.0
 44
1.0
 47
0.1
 48
0.1
 73
     0
 74
     0
 77
     1
 78
     8
140
3.5
141
0.0
143
0.03937
146
0.71
147
0.6
172
     1
176
   256
177
   256
178
     2
271
     2
272
     3
274
     4
283
     0
340
12A0
  0
DIMSTYLE
105
151A
102
{ACAD_REACTORS
330
1776
102
}
330
129B
100
AcDbSymbolTableRecord
100
AcDbDimStyleTableRecord
  2
AM_DIN
 70
     0
  4
"
 41
3.5
 42
1.0
 43
10.0
 44
1.0
 47
0.1
 48
0.1
 73
     0
 74
     0
 77
     1
 78
     8
 79
     2
140
3.5
141
0.0
143
0.0393701
146
0.71
147
1.5
172
     1
176
   256
177
   256
178
     2
271
     2
272
     3
274
     4
283
     0
284
     8
340
12A0
371
    -1
372
    -1
1001
ACAD_DSTYLE_DIMJOGGED_JOGANGLE_SYMBOL
1070
   384
1040
1.570796326794896
1001
ACAD_DSTYLE_DIM_LINETYPE
1070
   380
1005
12A3
1001
ACAD_DSTYLE_DIM_EXT1_LINETYPE
1070
   381
1005
12A3
1001
ACAD_DSTYLE_DIM_EXT2_LINETYPE
1070
   382
1005
12A3
  0
DIMSTYLE
105
151B
330
129B
100
AcDbSymbolTableRecord
100
AcDbDimStyleTableRecord
  2
AM_DIN$3
 70
     0
  4
"
 41
3.5
 42
1.0
 43
10.0
 44
1.0
 47
0.1
 48
0.1
 73
     0
 77
     1
 78
     8
 79
     2
140
3.5
141
0.0
143
0.0393701
146
0.71
147
1.5
176
   256
177
   256
178
     2
271
     2
272
     3
274
     4
283
     0
284
     8
288
     1
289
     0
340
12A0
371
    -1
372
    -1
1001
ACAD_DSTYLE_DIMJOGGED_JOGANGLE_SYMBOL
1070
   384
1040
1.570796326794896
1001
ACAD_DSTYLE_DIM_LINETYPE
1070
   380
1005
12A3
1001
ACAD_DSTYLE_DIM_EXT1_LINETYPE
1070
   381
1005
12A3
1001
ACAD_DSTYLE_DIM_EXT2_LINETYPE
1070
   382
1005
12A3
  0
DIMSTYLE
105
151C
330
129B
100
AcDbSymbolTableRecord
100
AcDbDimStyleTableRecord
  2
AM_DIN$4
 70
     0
  4
"
 41
3.5
 42
1.0
 43
10.0
 44
1.0
 47
0.1
 48
0.1
 73
     0
 74
     0
 77
     1
 78
     8
 79
     2
140
3.5
141
0.0
143
0.0393701
146
0.71
147
1.5
172
     1
176
   256
177
   256
178
     2
271
     2
272
     3
274
     4
283
     0
284
     8
340
12A0
371
    -1
372
    -1
1001
ACAD_DSTYLE_DIMJOGGED_JOGANGLE_SYMBOL
1070
   384
1040
1.570796326794896
1001
ACAD_DSTYLE_DIM_LINETYPE
1070
   380
1005
12A3
1001
ACAD_DSTYLE_DIM_EXT1_LINETYPE
1070
   381
1005
12A3
1001
ACAD_DSTYLE_DIM_EXT2_LINETYPE
1070
   382
1005
12A3
  0
DIMSTYLE
105
151D
330
129B
100
AcDbSymbolTableRecord
100
AcDbDimStyleTableRecord
  2
AM_DIN$6
 70
     0
  4
"
 41
3.5
 42
1.0
 43
10.0
 44
1.0
 47
0.1
 48
0.1
 73
     0
 74
     0
 78
     8
 79
     2
140
3.5
141
0.0
143
0.0393701
146
0.71
147
1.5
172
     1
176
   256
177
   256
178
     2
271
     2
272
     3
274
     4
283
     0
284
     8
340
12A0
371
    -1
372
    -1
1001
ACAD_DSTYLE_DIMJOGGED_JOGANGLE_SYMBOL
1070
   384
1040
1.570796326794896
1001
ACAD_DSTYLE_DIM_LINETYPE
1070
   380
1005
12A3
1001
ACAD_DSTYLE_DIM_EXT1_LINETYPE
1070
   381
1005
12A3
1001
ACAD_DSTYLE_DIM_EXT2_LINETYPE
1070
   382
1005
12A3
  0
DIMSTYLE
105
151E
330
129B
100
AcDbSymbolTableRecord
100
AcDbDimStyleTableRecord
  2
AM_DIN$7
 70
     0
  4
"
 41
3.5
 42
1.0
 43
10.0
 44
1.0
 47
0.1
 48
0.1
 73
     0
 74
     0
 77
     1
 78
     8
 79
     2
140
3.5
141
0.0
143
0.0393701
146
0.71
147
1.5
172
     1
176
   256
177
   256
178
     2
271
     2
272
     3
274
     4
283
     0
284
     8
340
12A0
371
    -1
372
    -1
1001
ACAD_DSTYLE_DIMJOGGED_JOGANGLE_SYMBOL
1070
   384
1040
1.570796326794896
1001
ACAD_DSTYLE_DIM_LINETYPE
1070
   380
1005
12A3
1001
ACAD_DSTYLE_DIM_EXT1_LINETYPE
1070
   381
1005
12A3
1001
ACAD_DSTYLE_DIM_EXT2_LINETYPE
1070
   382
1005
12A3
  0
DIMSTYLE
105
151F
330
129B
100
AcDbSymbolTableRecord
100
AcDbDimStyleTableRecord
  2
AM_DIN$SF
 70
     0
  4
"
 41
3.5
 42
1.0
 43
10.0
 44
1.0
 47
0.1
 48
0.1
 73
     0
 74
     0
 75
     1
 76
     1
 77
     1
 78
     8
 79
     2
140
3.5
141
0.0
143
0.0393701
146
0.71
147
1.5
172
     1
176
   256
177
   256
178
     2
271
     2
272
     3
274
     4
283
     0
284
     8
340
12A0
371
    -1
372
    -1
1001
ACAD_DSTYLE_DIMJOGGED_JOGANGLE_SYMBOL
1070
   384
1040
1.570796326794896
1001
ACAD_DSTYLE_DIM_LINETYPE
1070
   380
1005
12A3
1001
ACAD_DSTYLE_DIM_EXT1_LINETYPE
1070
   381
1005
12A3
1001
ACAD_DSTYLE_DIM_EXT2_LINETYPE
1070
   382
1005
12A3
  0
DIMSTYLE
105
1520
330
129B
100
AcDbSymbolTableRecord
100
AcDbDimStyleTableRecord
  2
AM_DIN$SH
 70
     0
  4
"
 41
3.5
 42
1.0
 43
10.0
 44
1.0
 47
0.1
 48
0.1
 73
     0
 74
     0
 75
     1
 76
     1
 77
     1
 78
     8
 79
     2
140
3.5
141
0.0
143
0.0393701
144
2.0
146
0.71
147
1.5
172
     1
173
     1
176
   256
177
   256
178
     2
271
     2
272
     3
274
     4
283
     0
284
     8
340
12A0
343
1521
371
    -1
372
    -1
1001
ACAD_DSTYLE_DIMJOGGED_JOGANGLE_SYMBOL
1070
   384
1040
1.570796326794896
1001
ACAD_DSTYLE_DIM_LINETYPE
1070
   380
1005
12A3
1001
ACAD_DSTYLE_DIM_EXT1_LINETYPE
1070
   381
1005
12A3
1001
ACAD_DSTYLE_DIM_EXT2_LINETYPE
1070
   382
1005
12A3
  0
DIMSTYLE
105
1545
330
129B
100
AcDbSymbolTableRecord
100
AcDbDimStyleTableRecord
  2
AM_ISO
 70
     0
  4
"
 41
2.5
 42
1.0
 43
10.0
 44
1.0
 47
0.1
 48
0.1
 73
     0
 74
     0
 77
     1
 78
     8
 79
     2
140
3.5
141
0.0
143
0.0393701
146
0.71
147
1.5
172
     1
176
   256
177
   256
178
     2
271
     2
272
     3
274
     4
283
     0
284
     8
340
12A0
371
    -1
372
    -1
1001
ACAD_DSTYLE_DIMJOGGED_JOGANGLE_SYMBOL
1070
   384
1040
0.7853981633974483
1001
ACAD_DSTYLE_DIMARC_LENGTH_SYMBOL
1070
   379
1070
     1
  0
DIMSTYLE
105
1546
330
129B
100
AcDbSymbolTableRecord
100
AcDbDimStyleTableRecord
  2
AM_ISO$3
 70
     0
  4
"
 41
2.5
 42
1.0
 43
10.0
 44
1.0
 47
0.1
 48
0.1
 73
     0
 77
     1
 78
     8
 79
     2
140
3.5
141
0.0
143
0.0393701
146
0.71
147
1.5
176
   256
177
   256
178
     2
271
     2
272
     3
274
     4
283
     0
284
     8
288
     1
289
     0
340
12A0
371
    -1
372
    -1
1001
ACAD_DSTYLE_DIMJOGGED_JOGANGLE_SYMBOL
1070
   384
1040
0.7853981633974483
1001
ACAD_DSTYLE_DIMARC_LENGTH_SYMBOL
1070
   379
1070
     1
  0
DIMSTYLE
105
1547
330
129B
100
AcDbSymbolTableRecord
100
AcDbDimStyleTableRecord
  2
AM_ISO$4
 70
     0
  4
"
 41
2.5
 42
1.0
 43
10.0
 44
1.0
 47
0.1
 48
0.1
 73
     0
 77
     1
 78
     8
 79
     2
140
3.5
141
0.0
143
0.0393701
146
0.71
147
1.5
176
   256
177
   256
178
     2
271
     2
272
     3
274
     4
283
     0
284
     8
288
     1
289
     0
340
12A0
371
    -1
372
    -1
1001
ACAD_DSTYLE_DIMJOGGED_JOGANGLE_SYMBOL
1070
   384
1040
0.7853981633974483
1001
ACAD_DSTYLE_DIMARC_LENGTH_SYMBOL
1070
   379
1070
     1
  0
DIMSTYLE
105
1548
330
129B
100
AcDbSymbolTableRecord
100
AcDbDimStyleTableRecord
  2
AM_ISO$6
 70
     0
  4
"
 41
2.5
 42
1.0
 43
10.0
 44
1.0
 47
0.1
 48
0.1
 73
     0
 74
     0
 78
     8
 79
     2
140
3.5
141
0.0
143
0.0393701
146
0.71
147
1.5
172
     1
176
   256
177
   256
178
     2
271
     2
272
     3
274
     4
283
     0
284
     8
340
12A0
371
    -1
372
    -1
1001
ACAD_DSTYLE_DIMJOGGED_JOGANGLE_SYMBOL
1070
   384
1040
0.7853981633974483
1001
ACAD_DSTYLE_DIMARC_LENGTH_SYMBOL
1070
   379
1070
     1
  0
DIMSTYLE
105
1549
330
129B
100
AcDbSymbolTableRecord
100
AcDbDimStyleTableRecord
  2
AM_ISO$7
 70
     0
  4
"
 41
2.5
 42
1.0
 43
10.0
 44
1.0
 47
0.1
 48
0.1
 73
     0
 74
     0
 77
     1
 78
     8
 79
     2
140
5.0
141
0.0
143
0.0393701
146
0.71
147
1.5
172
     1
176
   256
177
   256
178
     2
271
     2
272
     3
274
     4
283
     0
284
     8
340
12A0
371
    -1
372
    -1
1001
ACAD_DSTYLE_DIMJOGGED_JOGANGLE_SYMBOL
1070
   384
1040
0.7853981633974483
1001
ACAD_DSTYLE_DIMARC_LENGTH_SYMBOL
1070
   379
1070
     1
  0
DIMSTYLE
105
154A
330
129B
100
AcDbSymbolTableRecord
100
AcDbDimStyleTableRecord
  2
AM_ISO$SF
 70
     0
  4
"
 41
2.5
 42
1.0
 43
10.0
 44
1.0
 47
0.1
 48
0.1
 73
     0
 74
     0
 75
     1
 76
     1
 77
     1
 78
     8
 79
     2
140
3.5
141
0.0
143
0.0393701
146
0.71
147
1.5
172
     1
176
   256
177
   256
178
     2
271
     2
272
     3
274
     4
283
     0
284
     8
340
12A0
371
    -1
372
    -1
1001
ACAD_DSTYLE_DIMJOGGED_JOGANGLE_SYMBOL
1070
   384
1040
0.7853981633974483
1001
ACAD_DSTYLE_DIMARC_LENGTH_SYMBOL
1070
   379
1070
     1
  0
DIMSTYLE
105
154B
330
129B
100
AcDbSymbolTableRecord
100
AcDbDimStyleTableRecord
  2
AM_ISO$SH
 70
     0
  4
"
 41
2.5
 42
1.0
 43
10.0
 44
1.0
 47
0.1
 48
0.1
 73
     0
 74
     0
 75
     1
 76
     1
 77
     1
 78
     8
 79
     2
140
3.5
141
0.0
143
0.0393701
144
2.0
146
0.71
147
1.5
172
     1
173
     1
176
   256
177
   256
178
     2
271
     2
272
     3
274
     4
283
     0
284
     8
340
12A0
343
1521
371
    -1
372
    -1
1001
ACAD_DSTYLE_DIMJOGGED_JOGANGLE_SYMBOL
1070
   384
1040
0.7853981633974483
1001
ACAD_DSTYLE_DIMARC_LENGTH_SYMBOL
1070
   379
1070
     1
  0
DIMSTYLE
105
15AE
102
{ACAD_REACTORS
330
1162
330
1244
330
124F
330
15B2
330
166B
102
}
330
129B
100
AcDbSymbolTableRecord
100
AcDbDimStyleTableRecord
  2
GEN-ISO$0
 70
     0
  4
"
 40
5.0
 41
2.5
 42
1.0
 43
7.0
 44
1.0
 47
0.1
 48
0.1
 73
     0
 74
     0
 77
     1
 78
     8
140
3.5
141
0.0
143
0.03937
146
0.71
147
0.6
172
     1
176
   256
177
   256
178
     2
271
     2
272
     3
274
     4
283
     0
340
12A0
  0
ENDTAB
  0
TABLE
  2
BLOCK_RECORD
  5
1292
330
0
100
AcDbSymbolTable
 70
    12
  0
BLOCK_RECORD
  5
12A9
102
{ACAD_XDICTIONARY
360
15E1
102
}
330
1292
100
AcDbSymbolTableRecord
100
AcDbBlockTableRecord
  2
*MODEL_SPACE
340
14A3
  0
BLOCK_RECORD
  5
12A6
330
1292
100
AcDbSymbolTableRecord
100
AcDbBlockTableRecord
  2
*PAPER_SPACE
340
14A4
  0
BLOCK_RECORD
  5
12C3
330
1292
100
AcDbSymbolTableRecord
100
AcDbBlockTableRecord
  2
*X0
340
0
102
{BLKREFS
331
1111
102
}
  0
BLOCK_RECORD
  5
12C4
330
1292
100
AcDbSymbolTableRecord
100
AcDbBlockTableRecord
  2
*X1
340
0
102
{BLKREFS
331
1127
102
}
  0
BLOCK_RECORD
  5
12C5
330
1292
100
AcDbSymbolTableRecord
100
AcDbBlockTableRecord
  2
*X2
340
0
102
{BLKREFS
331
1141
102
}
  0
BLOCK_RECORD
  5
12C6
330
1292
100
AcDbSymbolTableRecord
100
AcDbBlockTableRecord
  2
*X3
340
0
102
{BLKREFS
331
1157
102
}
  0
BLOCK_RECORD
  5
12D6
330
1292
100
AcDbSymbolTableRecord
100
AcDbBlockTableRecord
  2
KATALOG_LEER
340
0
102
{BLKREFS
331
1337
102
}
  0
BLOCK_RECORD
  5
1339
330
1292
100
AcDbSymbolTableRecord
100
AcDbBlockTableRecord
  2
*D5
340
0
  0
BLOCK_RECORD
  5
1392
330
1292
100
AcDbSymbolTableRecord
100
AcDbBlockTableRecord
  2
*D6
340
0
  0
BLOCK_RECORD
  5
13A9
330
1292
100
AcDbSymbolTableRecord
100
AcDbBlockTableRecord
  2
*D7
340
0
  0
BLOCK_RECORD
  5
1521
330
1292
100
AcDbSymbolTableRecord
100
AcDbBlockTableRecord
  2
GENAXEH
340
0
  0
BLOCK_RECORD
  5
15B3
330
1292
100
AcDbSymbolTableRecord
100
AcDbBlockTableRecord
  2
*D9
340
0
  0
BLOCK_RECORD
  5
166C
330
1292
100
AcDbSymbolTableRecord
100
AcDbBlockTableRecord
  2
*D10
340
0
  0
ENDTAB
  0
ENDSEC
  0
SECTION
  2
BLOCKS
  0
BLOCK
  5
12AA
330
12A9
100
AcDbEntity
  8
0
100
AcDbBlockBegin
  2
*MODEL_SPACE
 70
     0
 10
0.0
 20
0.0
 30
0.0
  3
*MODEL_SPACE
  1

  0
ENDBLK
  5
12AB
330
12A9
100
AcDbEntity
  8
0
100
AcDbBlockEnd
  0
BLOCK
  5
12A7
330
12A6
100
AcDbEntity
 67
     1
  8
0
100
AcDbBlockBegin
  2
*PAPER_SPACE
 70
     0
 10
0.0
 20
0.0
 30
0.0
  3
*PAPER_SPACE
  1

  0
ENDBLK
  5
12A8
330
12A6
100
AcDbEntity
 67
     1
  8
0
100
AcDbBlockEnd
  0
BLOCK
  5
110D
330
12C3
100
AcDbEntity
  8
0
100
AcDbBlockBegin
  2
*X0
 70
     1
 10
0.0
 20
0.0
 30
0.0
  3
*X0
  1

  0
LINE
  5
110E
330
12C3
100
AcDbEntity
  8
8
100
AcDbLine
 10
444.964
 20
407.194
 30
0.0
 11
454.949
 21
417.179
 31
0.0
  0
LINE
  5
110F
330
12C3
100
AcDbEntity
  8
8
100
AcDbLine
 10
432.85
 20
406.306
 30
0.0
 11
443.1029999999999
 21
416.558
 31
0.0
  0
ENDBLK
  5
1110
330
12C3
100
AcDbEntity
  8
0
100
AcDbBlockEnd
  0
BLOCK
  5
1123
330
12C4
100
AcDbEntity
  8
0
100
AcDbBlockBegin
  2
*X1
 70
     1
 10
0.0
 20
0.0
 30
0.0
  3
*X1
  1

  0
LINE
  5
1124
330
12C4
100
AcDbEntity
  8
8
100
AcDbLine
 10
408.0259999999999
 20
403.932
 30
0.0
 11
417.103
 21
413.009
 31
0.0
  0
LINE
  5
1125
330
12C4
100
AcDbEntity
  8
8
100
AcDbLine
 10
402.0249999999999
 20
409.156
 30
0.0
 11
405.493
 21
412.624
 31
0.0
  0
ENDBLK
  5
1126
330
12C4
100
AcDbEntity
  8
0
100
AcDbBlockEnd
  0
BLOCK
  5
113C
330
12C5
100
AcDbEntity
  8
0
100
AcDbBlockBegin
  2
*X2
 70
     1
 10
0.0
 20
0.0
 30
0.0
  3
*X2
  1

  0
LINE
  5
113D
330
12C5
100
AcDbEntity
  8
8
100
AcDbLine
 10
153.049
 20
407.1369999999999
 30
0.0
 11
160.523
 21
414.6119999999999
 31
0.0
  0
LINE
  5
113E
330
12C5
100
AcDbEntity
  8
8
100
AcDbLine
 10
144.779
 20
410.0929999999999
 30
0.0
 11
151.412
 21
416.725
 31
0.0
  0
LINE
  5
113F
330
12C5
100
AcDbEntity
  8
8
100
AcDbLine
 10
136.687
 20
413.226
 30
0.0
 11
140.746
 21
417.2839999999999
 31
0.0
  0
ENDBLK
  5
1140
330
12C5
100
AcDbEntity
  8
0
100
AcDbBlockEnd
  0
BLOCK
  5
1153
330
12C6
100
AcDbEntity
  8
0
100
AcDbBlockBegin
  2
*X3
 70
     1
 10
0.0
 20
0.0
 30
0.0
  3
*X3
  1

  0
LINE
  5
1154
330
12C6
100
AcDbEntity
  8
8
100
AcDbLine
 10
184.015
 20
404.428
 30
0.0
 11
192.212
 21
412.624
 31
0.0
  0
LINE
  5
1155
330
12C6
100
AcDbEntity
  8
8
100
AcDbLine
 10
180.5059999999999
 20
412.1439999999999
 30
0.0
 11
181.372
 21
413.009
 31
0.0
  0
ENDBLK
  5
1156
330
12C6
100
AcDbEntity
  8
0
100
AcDbBlockEnd
  0
BLOCK
  5
12D7
330
12D6
100
AcDbEntity
  8
0
100
AcDbBlockBegin
  2
KATALOG_LEER
 70
     0
 10
0.0
 20
0.0
 30
0.0
  3
KATALOG_LEER
  1

  0
ENDBLK
  5
12D8
330
12D6
100
AcDbEntity
  8
0
100
AcDbBlockEnd
  0
BLOCK
  5
1468
330
1339
100
AcDbEntity
  8
0
100
AcDbBlockBegin
  2
*D5
 70
     1
 10
0.0
 20
0.0
 30
0.0
  3
*D5
  1
GEVFRAME
  0
LINE
  5
1469
330
1339
100
AcDbEntity
  8
0
  6
ByBlock
100
AcDbLine
 10
569.2275449999999
 20
454.233165
 30
0.0
 11
569.2275449999999
 21
600.605165
 31
0.0
  0
LINE
  5
146A
330
1339
100
AcDbEntity
  8
0
  6
ByBlock
100
AcDbLine
 10
209.227545
 20
454.233165
 30
0.0
 11
209.227545
 21
600.605165
 31
0.0
  0
LINE
  5
146B
330
1339
100
AcDbEntity
  8
0
  6
ByBlock
100
AcDbLine
 10
556.7275449999999
 20
595.605165
 30
0.0
 11
221.727545
 21
595.605165
 31
0.0
  0
SOLID
  5
146C
330
1339
100
AcDbEntity
  8
0
  6
ByBlock
100
AcDbTrace
 10
556.7275449999999
 20
597.6884980000001
 30
0.0
 11
556.7275449999999
 21
593.521832
 31
0.0
 12
569.2275449999999
 22
595.605165
 32
0.0
 13
569.2275449999999
 23
595.605165
 33
0.0
  0
SOLID
  5
146D
330
1339
100
AcDbEntity
  8
0
  6
ByBlock
100
AcDbTrace
 10
221.727545
 20
597.6884980000001
 30
0.0
 11
221.727545
 21
593.521832
 31
0.0
 12
209.227545
 22
595.605165
 32
0.0
 13
209.227545
 23
595.605165
 33
0.0
  0
MTEXT
  5
146E
102
{ACAD_XDICTIONARY
360
17A6
102
}
330
1339
100
AcDbEntity
  8
0
  6
ByBlock
 62
     2
100
AcDbMText
 10
389.227545
 20
607.355165
 30
0.0
 40
17.5
 41
0.0
 71
     5
 72
     1
  1
\U+2205 360
 73
     1
 44
1.0
  0
POINT
  5
146F
330
1339
100
AcDbEntity
  8
DEFPOINTS
  6
ByBlock
 62
     0
100
AcDbPoint
 10
569.2275449999999
 20
449.233165
 30
0.0
  0
POINT
  5
1470
330
1339
100
AcDbEntity
  8
DEFPOINTS
  6
ByBlock
 62
     0
100
AcDbPoint
 10
209.227545
 20
449.233165
 30
0.0
  0
POINT
  5
1471
330
1339
100
AcDbEntity
  8
DEFPOINTS
  6
ByBlock
 62
     0
100
AcDbPoint
 10
209.227545
 20
595.605165
 30
0.0
  0
ENDBLK
  5
1472
330
1339
100
AcDbEntity
  8
0
100
AcDbBlockEnd
  0
BLOCK
  5
139E
330
1392
100
AcDbEntity
  8
0
100
AcDbBlockBegin
  2
*D6
 70
     1
 10
0.0
 20
0.0
 30
0.0
  3
*D6
  1

  0
LINE
  5
1598
330
1392
100
AcDbEntity
  8
5
370
    -2
100
AcDbLine
 10
312.228545
 20
179.2331650000001
 30
0.0
 11
312.228545
 21
127.6054774306981
 31
0.0
  0
LINE
  5
1599
330
1392
100
AcDbEntity
  8
5
370
    -2
100
AcDbLine
 10
466.2285449999999
 20
179.2331650000001
 30
0.0
 11
466.2285449999999
 21
127.6054774306981
 31
0.0
  0
LINE
  5
159A
330
1392
100
AcDbEntity
  8
5
370
    -2
100
AcDbLine
 10
324.728545
 20
132.6054774306981
 30
0.0
 11
453.7285449999999
 21
132.6054774306981
 31
0.0
  0
SOLID
  5
159B
330
1392
100
AcDbEntity
  8
5
100
AcDbTrace
 10
324.728545
 20
134.6888107640314
 30
0.0
 11
324.728545
 21
130.5221440973647
 31
0.0
 12
312.228545
 22
132.6054774306981
 32
0.0
 13
312.228545
 23
132.6054774306981
 33
0.0
  0
SOLID
  5
159C
330
1392
100
AcDbEntity
  8
5
100
AcDbTrace
 10
453.7285449999999
 20
134.6888107640314
 30
0.0
 11
453.7285449999999
 21
130.5221440973647
 31
0.0
 12
466.2285449999999
 22
132.6054774306981
 32
0.0
 13
466.2285449999999
 23
132.6054774306981
 33
0.0
  0
MTEXT
  5
159D
330
1392
100
AcDbEntity
  8
5
 62
     2
100
AcDbMText
 10
386.3338689829266
 20
144.3554774306981
 30
0.0
 40
17.5
 41
0.0
 71
     5
 72
     1
  1
%%c 154
 73
     1
 44
1.0
  0
POINT
  5
159E
330
1392
100
AcDbEntity
  8
DEFPOINTS
 62
     0
100
AcDbPoint
 10
312.228545
 20
184.2331650000001
 30
0.0
  0
POINT
  5
159F
330
1392
100
AcDbEntity
  8
DEFPOINTS
 62
     0
100
AcDbPoint
 10
466.2285449999999
 20
184.2331650000001
 30
0.0
  0
POINT
  5
15A0
330
1392
100
AcDbEntity
  8
DEFPOINTS
 62
     0
100
AcDbPoint
 10
466.2285449999999
 20
132.6054774306981
 30
0.0
  0
ENDBLK
  5
13A8
330
1392
100
AcDbEntity
  8
0
100
AcDbBlockEnd
  0
BLOCK
  5
144D
330
13A9
100
AcDbEntity
  8
0
100
AcDbBlockBegin
  2
*D7
 70
     1
 10
0.0
 20
0.0
 30
0.0
  3
*D7
  1
GEVFRAME
  0
LINE
  5
144E
330
13A9
100
AcDbEntity
  8
0
  6
ByBlock
100
AcDbLine
 10
289.227545
 20
468.233165
 30
0.0
 11
289.227545
 21
565.6051650000001
 31
0.0
  0
LINE
  5
144F
330
13A9
100
AcDbEntity
  8
0
  6
ByBlock
100
AcDbLine
 10
489.228545
 20
468.234165
 30
0.0
 11
489.228545
 21
565.6051650000001
 31
0.0
  0
LINE
  5
1450
330
13A9
100
AcDbEntity
  8
0
  6
ByBlock
100
AcDbLine
 10
301.727545
 20
560.605165
 30
0.0
 11
476.728545
 21
560.605165
 31
0.0
  0
SOLID
  5
1451
330
13A9
100
AcDbEntity
  8
0
  6
ByBlock
100
AcDbTrace
 10
301.727545
 20
562.688498
 30
0.0
 11
301.727545
 21
558.521832
 31
0.0
 12
289.227545
 22
560.605165
 32
0.0
 13
289.227545
 23
560.605165
 33
0.0
  0
SOLID
  5
1452
330
13A9
100
AcDbEntity
  8
0
  6
ByBlock
100
AcDbTrace
 10
476.728545
 20
562.688498
 30
0.0
 11
476.728545
 21
558.521832
 31
0.0
 12
489.228545
 22
560.605165
 32
0.0
 13
489.228545
 23
560.605165
 33
0.0
  0
MTEXT
  5
1453
102
{ACAD_XDICTIONARY
360
17A4
102
}
330
13A9
100
AcDbEntity
  8
0
  6
ByBlock
 62
     2
100
AcDbMText
 10
389.228045
 20
572.356887
 30
0.0
 40
17.5
 41
0.0
 71
     5
 72
     1
  1
\U+2205 200
 73
     1
 44
1.0
  0
POINT
  5
1454
330
13A9
100
AcDbEntity
  8
DEFPOINTS
  6
ByBlock
 62
     0
100
AcDbPoint
 10
289.227545
 20
463.233165
 30
0.0
  0
POINT
  5
1455
330
13A9
100
AcDbEntity
  8
DEFPOINTS
  6
ByBlock
 62
     0
100
AcDbPoint
 10
489.228545
 20
463.2341649999999
 30
0.0
  0
POINT
  5
1456
330
13A9
100
AcDbEntity
  8
DEFPOINTS
  6
ByBlock
 62
     0
100
AcDbPoint
 10
489.228545
 20
560.605165
 30
0.0
  0
ENDBLK
  5
1457
330
13A9
100
AcDbEntity
  8
0
100
AcDbBlockEnd
  0
BLOCK
  5
1522
330
1521
100
AcDbEntity
  8
0
100
AcDbBlockBegin
  2
GENAXEH
 70
     0
 10
0.0
 20
0.0
 30
0.0
  3
GENAXEH
  1

  0
LINE
  5
1523
330
1521
100
AcDbEntity
  8
0
100
AcDbLine
 10
-1.0
 20
0.0
 30
0.0
 11
1.0
 21
0.0
 31
0.0
  0
ENDBLK
  5
1524
330
1521
100
AcDbEntity
  8
0
100
AcDbBlockEnd
  0
BLOCK
  5
15BD
330
15B3
100
AcDbEntity
  8
0
100
AcDbBlockBegin
  2
*D9
 70
     1
 10
0.0
 20
0.0
 30
0.0
  3
*D9
  1

  0
LINE
  5
15C8
330
15B3
100
AcDbEntity
  8
AM_5
370
    -2
100
AcDbLine
 10
209.5574742618068
 20
459.1239268899076
 30
0.0
 11
167.7325280959581
 21
459.1239268899076
 31
0.0
  0
LINE
  5
15C9
330
15B3
100
AcDbEntity
  8
AM_5
370
    -2
100
AcDbLine
 10
307.228545
 20
184.2331650000001
 30
0.0
 11
167.732528095958
 21
184.2331650000001
 31
0.0
  0
LINE
  5
15CA
330
15B3
100
AcDbEntity
  8
AM_5
370
    -2
100
AcDbLine
 10
172.7325280959581
 20
446.6239268899076
 30
0.0
 11
172.732528095958
 21
196.7331650000001
 31
0.0
  0
SOLID
  5
15CB
330
15B3
100
AcDbEntity
  8
AM_5
100
AcDbTrace
 10
170.6491947626247
 20
446.6239268899076
 30
0.0
 11
174.8158614292914
 21
446.6239268899076
 31
0.0
 12
172.7325280959581
 22
459.1239268899076
 32
0.0
 13
172.7325280959581
 23
459.1239268899076
 33
0.0
  0
SOLID
  5
15CC
330
15B3
100
AcDbEntity
  8
AM_5
100
AcDbTrace
 10
170.6491947626247
 20
196.7331650000001
 30
0.0
 11
174.8158614292914
 21
196.7331650000001
 31
0.0
 12
172.732528095958
 22
184.2331650000001
 32
0.0
 13
172.732528095958
 23
184.2331650000001
 33
0.0
  0
MTEXT
  5
15CD
330
15B3
100
AcDbEntity
  8
AM_5
 62
     2
100
AcDbMText
 10
160.9808056550131
 20
321.6785459449539
 30
0.0
 40
17.5
 41
0.0
 71
     5
 72
     1
  1
275
 11
0.0000000000000001
 21
1.0
 31
0.0
 73
     1
 44
1.0
  0
POINT
  5
15CE
330
15B3
100
AcDbEntity
  8
DEFPOINTS
 62
     0
100
AcDbPoint
 10
214.5574742618069
 20
459.1239268899076
 30
0.0
  0
POINT
  5
15CF
330
15B3
100
AcDbEntity
  8
DEFPOINTS
 62
     0
100
AcDbPoint
 10
312.228545
 20
184.2331650000001
 30
0.0
  0
POINT
  5
15D0
330
15B3
100
AcDbEntity
  8
DEFPOINTS
 62
     0
100
AcDbPoint
 10
172.732528095958
 20
184.2331650000001
 30
0.0
  0
ENDBLK
  5
15BE
330
15B3
100
AcDbEntity
  8
0
100
AcDbBlockEnd
  0
BLOCK
  5
1676
330
166C
100
AcDbEntity
  8
0
100
AcDbBlockBegin
  2
*D10
 70
     1
 10
0.0
 20
0.0
 30
0.0
  3
*D10
  1

  0
LINE
  5
1682
330
166C
100
AcDbEntity
  8
AM_5
370
    -2
100
AcDbLine
 10
483.728545
 20
468.233165
 30
0.0
 11
483.728545
 21
528.2331649999999
 31
0.0
  0
LINE
  5
1683
330
166C
100
AcDbEntity
  8
AM_5
370
    -2
100
AcDbLine
 10
294.727545
 20
468.233165
 30
0.0
 11
294.727545
 21
528.2331649999999
 31
0.0
  0
LINE
  5
1684
330
166C
100
AcDbEntity
  8
AM_5
370
    -2
100
AcDbLine
 10
471.228545
 20
523.2331649999999
 30
0.0
 11
307.227545
 21
523.2331649999999
 31
0.0
  0
SOLID
  5
1685
330
166C
100
AcDbEntity
  8
AM_5
100
AcDbTrace
 10
471.228545
 20
525.3164983333333
 30
0.0
 11
471.228545
 21
521.1498316666665
 31
0.0
 12
483.728545
 22
523.2331649999999
 32
0.0
 13
483.728545
 23
523.2331649999999
 33
0.0
  0
SOLID
  5
1686
330
166C
100
AcDbEntity
  8
AM_5
100
AcDbTrace
 10
307.227545
 20
525.3164983333333
 30
0.0
 11
307.227545
 21
521.1498316666665
 31
0.0
 12
294.727545
 22
523.2331649999999
 32
0.0
 13
294.727545
 23
523.2331649999999
 33
0.0
  0
MTEXT
  5
1687
330
166C
100
AcDbEntity
  8
AM_5
 62
     2
100
AcDbMText
 10
389.228045
 20
534.9831649999999
 30
0.0
 40
17.5
 41
0.0
 71
     5
 72
     1
  1
%%c189
 73
     1
 44
1.0
  0
POINT
  5
1688
330
166C
100
AcDbEntity
  8
DEFPOINTS
 62
     0
100
AcDbPoint
 10
483.728545
 20
463.233165
 30
0.0
  0
POINT
  5
1689
330
166C
100
AcDbEntity
  8
DEFPOINTS
 62
     0
100
AcDbPoint
 10
294.727545
 20
463.233165
 30
0.0
  0
POINT
  5
168A
330
166C
100
AcDbEntity
  8
DEFPOINTS
 62
     0
100
AcDbPoint
 10
294.727545
 20
523.2331649999999
 30
0.0
  0
ENDBLK
  5
1677
330
166C
100
AcDbEntity
  8
0
100
AcDbBlockEnd
  0
ENDSEC
  0
SECTION
  2
ENTITIES
  0
LINE
  5
1001
330
12A9
100
AcDbEntity
  8
7
100
AcDbLine
 10
389.228545
 20
479.481165
 30
0.0
 11
389.228545
 21
184.2331650000001
 31
0.0
  0
LINE
  5
1002
330
12A9
100
AcDbEntity
  8
0
100
AcDbLine
 10
482.889545
 20
447.233165
 30
0.0
 11
402.666545
 21
447.233165
 31
0.0
  0
LINE
  5
1003
330
12A9
100
AcDbEntity
  8
0
100
AcDbLine
 10
482.706545
 20
443.733165
 30
0.0
 11
474.707545
 21
443.733165
 31
0.0
  0
LINE
  5
1004
330
12A9
100
AcDbEntity
  8
0
100
AcDbLine
 10
401.727545
 20
443.733165
 30
0.0
 11
402.6655449999999
 21
447.233165
 31
0.0
  0
LINE
  5
1005
330
12A9
100
AcDbEntity
  8
0
100
AcDbLine
 10
376.728545
 20
443.733165
 30
0.0
 11
375.790545
 21
447.233165
 31
0.0
  0
LINE
  5
1006
330
12A9
100
AcDbEntity
  8
0
100
AcDbLine
 10
303.7485450000001
 20
443.733165
 30
0.0
 11
295.7505450000001
 21
443.733165
 31
0.0
  0
LINE
  5
1007
330
12A9
100
AcDbEntity
  8
0
100
AcDbLine
 10
401.728545
 20
443.733165
 30
0.0
 11
376.728545
 21
443.733165
 31
0.0
  0
LINE
  5
1008
330
12A9
100
AcDbEntity
  8
0
100
AcDbLine
 10
375.790545
 20
447.233165
 30
0.0
 11
295.567545
 21
447.233165
 31
0.0
  0
LINE
  5
1009
330
12A9
100
AcDbEntity
  8
0
100
AcDbLine
 10
294.727545
 20
463.233165
 30
0.0
 11
295.749545
 21
443.733165
 31
0.0
  0
LINE
  5
100A
330
12A9
100
AcDbEntity
  8
0
100
AcDbLine
 10
483.728545
 20
463.233165
 30
0.0
 11
482.706545
 21
443.733165
 31
0.0
  0
LINE
  5
100B
330
12A9
100
AcDbEntity
  8
0
100
AcDbLine
 10
226.386545
 20
449.233165
 30
0.0
 11
209.228545
 21
449.233165
 31
0.0
  0
LINE
  5
100C
330
12A9
100
AcDbEntity
  8
0
100
AcDbLine
 10
569.228545
 20
449.233165
 30
0.0
 11
552.069545
 21
449.233165
 31
0.0
  0
LINE
  5
100D
330
12A9
100
AcDbEntity
  8
0
100
AcDbLine
 10
564.6305449999999
 20
459.233165
 30
0.0
 11
549.4725449999999
 21
459.233165
 31
0.0
  0
LINE
  5
100E
330
12A9
100
AcDbEntity
  8
0
100
AcDbLine
 10
209.227545
 20
449.233165
 30
0.0
 11
211.411545
 21
457.380165
 31
0.0
  0
LINE
  5
100F
330
12A9
100
AcDbEntity
  8
0
100
AcDbLine
 10
569.2275449999999
 20
449.233165
 30
0.0
 11
567.0445449999999
 21
457.380165
 31
0.0
  0
ARC
  5
1010
330
12A9
100
AcDbEntity
  8
0
100
AcDbCircle
 10
564.6305449999999
 20
456.733165
 30
0.0
 40
2.5
100
AcDbArc
 50
15.0
 51
107.0
  0
ARC
  5
1011
330
12A9
100
AcDbEntity
  8
0
100
AcDbCircle
 10
213.826545
 20
456.733165
 30
0.0
 40
2.5
100
AcDbArc
 50
73.0
 51
165.0
  0
LINE
  5
1012
330
12A9
100
AcDbEntity
  8
0
100
AcDbLine
 10
346.826545
 20
459.233165
 30
0.0
 11
334.390545
 21
459.233165
 31
0.0
  0
LINE
  5
1013
330
12A9
100
AcDbEntity
  8
0
100
AcDbLine
 10
563.899545
 20
459.124165
 30
0.0
 11
535.228545
 21
450.359165
 31
0.0
  0
LINE
  5
1014
330
12A9
100
AcDbEntity
  8
0
100
AcDbLine
 10
552.069545
 20
449.233165
 30
0.0
 11
536.379545
 21
444.436165
 31
0.0
  0
LINE
  5
1015
330
12A9
100
AcDbEntity
  8
0
100
AcDbLine
 10
214.556545
 20
459.124165
 30
0.0
 11
243.228545
 21
450.358165
 31
0.0
  0
LINE
  5
1016
330
12A9
100
AcDbEntity
  8
0
100
AcDbLine
 10
226.385545
 20
449.233165
 30
0.0
 11
242.077545
 21
444.436165
 31
0.0
  0
LINE
  5
1017
330
12A9
100
AcDbEntity
  8
0
100
AcDbLine
 10
243.228545
 20
450.359165
 30
0.0
 11
257.589545
 21
449.102165
 31
0.0
  0
LINE
  5
1018
330
12A9
100
AcDbEntity
  8
0
100
AcDbLine
 10
535.2275449999999
 20
450.358165
 30
0.0
 11
519.228545
 21
448.959165
 31
0.0
  0
ARC
  5
1019
330
12A9
100
AcDbEntity
  8
0
100
AcDbCircle
 10
514.2285450000001
 20
429.233165
 30
0.0
 40
12.0
100
AcDbArc
 50
190.22
 51
350.0
  0
ARC
  5
101A
330
12A9
100
AcDbEntity
  8
0
100
AcDbCircle
 10
264.228545
 20
429.233165
 30
0.0
 40
12.0
100
AcDbArc
 50
190.243
 51
350.0
  0
LINE
  5
101B
330
12A9
100
AcDbEntity
  8
0
100
AcDbLine
 10
536.378545
 20
444.436165
 30
0.0
 11
530.890545
 21
443.956165
 31
0.0
  0
LINE
  5
101C
330
12A9
100
AcDbEntity
  8
0
100
AcDbLine
 10
242.076545
 20
444.437165
 30
0.0
 11
247.565545
 21
443.956165
 31
0.0
  0
LINE
  5
101D
330
12A9
100
AcDbEntity
  8
0
100
AcDbLine
 10
526.0455450000001
 20
427.150165
 30
0.0
 11
528.646545
 21
441.900165
 31
0.0
  0
LINE
  5
101E
330
12A9
100
AcDbEntity
  8
0
100
AcDbLine
 10
276.045545
 20
427.150165
 30
0.0
 11
278.133545
 21
438.991165
 31
0.0
  0
LINE
  5
101F
330
12A9
100
AcDbEntity
  8
0
100
AcDbLine
 10
252.410545
 20
427.150165
 30
0.0
 11
249.810545
 21
441.900165
 31
0.0
  0
LINE
  5
1020
330
12A9
100
AcDbEntity
  8
0
100
AcDbLine
 10
502.410545
 20
427.150165
 30
0.0
 11
500.322545
 21
438.991165
 31
0.0
  0
LINE
  5
1021
330
12A9
100
AcDbEntity
  8
0
100
AcDbLine
 10
280.813545
 20
441.048165
 30
0.0
 11
295.335545
 21
439.777165
 31
0.0
  0
ARC
  5
1022
330
12A9
100
AcDbEntity
  8
0
100
AcDbCircle
 10
247.347545
 20
441.466165
 30
0.0
 40
2.5
100
AcDbArc
 50
10.001
 51
85.0
  0
ARC
  5
1023
330
12A9
100
AcDbEntity
  8
0
100
AcDbCircle
 10
280.595545
 20
438.5571650000001
 30
0.0
 40
2.5
100
AcDbArc
 50
84.999
 51
170.0009999999999
  0
LINE
  5
1024
330
12A9
100
AcDbEntity
  8
0
100
AcDbLine
 10
497.642545
 20
441.047165
 30
0.0
 11
483.1205449999999
 21
439.777165
 31
0.0
  0
ARC
  5
1025
330
12A9
100
AcDbEntity
  8
0
100
AcDbCircle
 10
531.108545
 20
441.466165
 30
0.0
 40
2.5
100
AcDbArc
 50
94.99700000000002
 51
169.999
  0
ARC
  5
1026
330
12A9
100
AcDbEntity
  8
0
100
AcDbCircle
 10
497.8605449999999
 20
438.5571650000001
 30
0.0
 40
2.5
100
AcDbArc
 50
9.998000000000001
 51
95.0
  0
LINE
  5
1027
330
12A9
100
AcDbEntity
  8
0
100
AcDbLine
 10
490.278545
 20
451.233165
 30
0.0
 11
483.099545
 21
451.233165
 31
0.0
  0
LINE
  5
1028
330
12A9
100
AcDbEntity
  8
0
100
AcDbLine
 10
295.357545
 20
451.233165
 30
0.0
 11
288.178545
 21
451.233165
 31
0.0
  0
LINE
  5
1029
330
12A9
100
AcDbEntity
  8
0
100
AcDbLine
 10
269.228545
 20
448.084165
 30
0.0
 11
285.270545
 21
446.681165
 31
0.0
  0
LINE
  5
102A
330
12A9
100
AcDbEntity
  8
0
100
AcDbLine
 10
258.227545
 20
447.997165
 30
0.0
 11
257.589545
 21
449.102165
 31
0.0
  0
LINE
  5
102B
330
12A9
100
AcDbEntity
  8
0
100
AcDbLine
 10
509.228545
 20
448.084165
 30
0.0
 11
493.1855449999999
 21
446.680165
 31
0.0
  0
LINE
  5
102C
330
12A9
100
AcDbEntity
  8
0
100
AcDbLine
 10
519.228545
 20
446.2641650000001
 30
0.0
 11
520.8665449999999
 21
449.102165
 31
0.0
  0
LINE
  5
102D
330
12A9
100
AcDbEntity
  8
0
100
AcDbLine
 10
509.228545
 20
432.997165
 30
0.0
 11
519.228545
 21
432.997165
 31
0.0
  0
LINE
  5
102E
330
12A9
100
AcDbEntity
  8
0
100
AcDbLine
 10
510.228545
 20
427.497165
 30
0.0
 11
518.2285450000001
 21
427.497165
 31
0.0
  0
LINE
  5
102F
330
12A9
100
AcDbEntity
  8
0
100
AcDbLine
 10
259.228545
 20
432.997165
 30
0.0
 11
269.228545
 21
432.997165
 31
0.0
  0
LINE
  5
1030
330
12A9
100
AcDbEntity
  8
0
100
AcDbLine
 10
268.228545
 20
427.497165
 30
0.0
 11
260.228545
 21
427.497165
 31
0.0
  0
LINE
  5
1031
330
12A9
100
AcDbEntity
  8
0
100
AcDbLine
 10
243.228545
 20
450.359165
 30
0.0
 11
259.228545
 21
450.359165
 31
0.0
  0
LINE
  5
1032
330
12A9
100
AcDbEntity
  8
0
100
AcDbLine
 10
257.589545
 20
449.102165
 30
0.0
 11
259.228545
 21
449.102165
 31
0.0
  0
LINE
  5
1033
330
12A9
100
AcDbEntity
  8
0
100
AcDbLine
 10
518.2285450000001
 20
427.497165
 30
0.0
 11
514.2285450000001
 21
425.187165
 31
0.0
  0
LINE
  5
1034
330
12A9
100
AcDbEntity
  8
0
100
AcDbLine
 10
510.228545
 20
427.496165
 30
0.0
 11
514.2285450000001
 21
425.187165
 31
0.0
  0
LINE
  5
1035
330
12A9
100
AcDbEntity
  8
0
100
AcDbLine
 10
268.228545
 20
427.497165
 30
0.0
 11
264.228545
 21
425.187165
 31
0.0
  0
LINE
  5
1036
330
12A9
100
AcDbEntity
  8
0
100
AcDbLine
 10
260.228545
 20
427.496165
 30
0.0
 11
264.228545
 21
425.187165
 31
0.0
  0
LINE
  5
1037
330
12A9
100
AcDbEntity
  8
0
100
AcDbLine
 10
346.472545
 20
451.233165
 30
0.0
 11
338.3205450000001
 21
451.233165
 31
0.0
  0
LINE
  5
1038
330
12A9
100
AcDbEntity
  8
0
100
AcDbLine
 10
335.892545
 20
453.135165
 30
0.0
 11
333.404545
 21
463.233165
 31
0.0
  0
LINE
  5
1039
330
12A9
100
AcDbEntity
  8
0
100
AcDbLine
 10
344.410545
 20
452.848165
 30
0.0
 11
348.340545
 21
463.233165
 31
0.0
  0
LINE
  5
103A
330
12A9
100
AcDbEntity
  8
0
100
AcDbLine
 10
351.105545
 20
463.233165
 30
0.0
 11
348.915545
 21
453.200165
 31
0.0
  0
ARC
  5
103B
330
12A9
100
AcDbEntity
  8
0
100
AcDbCircle
 10
342.072545
 20
453.733165
 30
0.0
 40
2.5
100
AcDbArc
 50
270.002
 51
339.271
  0
ARC
  5
103C
330
12A9
100
AcDbEntity
  8
0
100
AcDbCircle
 10
346.472545
 20
453.733165
 30
0.0
 40
2.5
100
AcDbArc
 50
269.998
 51
347.683
  0
ARC
  5
103D
330
12A9
100
AcDbEntity
  8
0
100
AcDbCircle
 10
338.3205450000001
 20
453.733165
 30
0.0
 40
2.5
100
AcDbArc
 50
193.844
 51
269.998
  0
LINE
  5
103E
330
12A9
100
AcDbEntity
  8
0
100
AcDbLine
 10
431.629545
 20
459.233165
 30
0.0
 11
444.066545
 21
459.233165
 31
0.0
  0
LINE
  5
103F
330
12A9
100
AcDbEntity
  8
0
100
AcDbLine
 10
431.983545
 20
451.233165
 30
0.0
 11
440.136545
 21
451.233165
 31
0.0
  0
LINE
  5
1040
330
12A9
100
AcDbEntity
  8
0
100
AcDbLine
 10
442.563545
 20
453.135165
 30
0.0
 11
445.051545
 21
463.233165
 31
0.0
  0
LINE
  5
1041
330
12A9
100
AcDbEntity
  8
0
100
AcDbLine
 10
434.046545
 20
452.849165
 30
0.0
 11
430.115545
 21
463.2341649999999
 31
0.0
  0
LINE
  5
1042
330
12A9
100
AcDbEntity
  8
0
100
AcDbLine
 10
427.350545
 20
463.2341649999999
 30
0.0
 11
429.541545
 21
453.200165
 31
0.0
  0
ARC
  5
1043
330
12A9
100
AcDbEntity
  8
0
100
AcDbCircle
 10
436.383545
 20
453.733165
 30
0.0
 40
2.5
100
AcDbArc
 50
200.729
 51
269.998
  0
ARC
  5
1044
330
12A9
100
AcDbEntity
  8
0
100
AcDbCircle
 10
431.983545
 20
453.733165
 30
0.0
 40
2.5
100
AcDbArc
 50
192.317
 51
270.003
  0
ARC
  5
1045
330
12A9
100
AcDbEntity
  8
0
100
AcDbCircle
 10
440.135545
 20
453.733165
 30
0.0
 40
2.5
100
AcDbArc
 50
270.002
 51
346.156
  0
LINE
  5
1046
330
12A9
100
AcDbEntity
  8
0
100
AcDbLine
 10
289.227545
 20
463.233165
 30
0.0
 11
287.978545
 21
448.9531649999999
 31
0.0
  0
ARC
  5
1047
330
12A9
100
AcDbEntity
  8
0
100
AcDbCircle
 10
285.4885450000001
 20
449.171165
 30
0.0
 40
2.5
100
AcDbArc
 50
265.0
 51
355.0019999999999
  0
LINE
  5
1048
330
12A9
100
AcDbEntity
  8
0
100
AcDbLine
 10
489.228545
 20
463.233165
 30
0.0
 11
490.477545
 21
448.9531649999999
 31
0.0
  0
ARC
  5
1049
330
12A9
100
AcDbEntity
  8
0
100
AcDbCircle
 10
492.968545
 20
449.171165
 30
0.0
 40
2.5
100
AcDbArc
 50
184.999
 51
274.998
  0
LINE
  5
104A
330
12A9
100
AcDbEntity
  8
0
100
AcDbLine
 10
269.228545
 20
447.091165
 30
0.0
 11
259.228545
 21
447.091165
 31
0.0
  0
LINE
  5
104B
330
12A9
100
AcDbEntity
  8
0
100
AcDbLine
 10
260.228545
 20
434.591165
 30
0.0
 11
260.228545
 21
427.497165
 31
0.0
  0
LINE
  5
104C
330
12A9
100
AcDbEntity
  8
0
100
AcDbLine
 10
268.228545
 20
434.591165
 30
0.0
 11
268.228545
 21
427.497165
 31
0.0
  0
LINE
  5
104D
330
12A9
100
AcDbEntity
  8
0
100
AcDbLine
 10
269.228545
 20
447.091165
 30
0.0
 11
269.228545
 21
435.591165
 31
0.0
  0
LINE
  5
104E
330
12A9
100
AcDbEntity
  8
0
100
AcDbLine
 10
259.228545
 20
447.091165
 30
0.0
 11
259.228545
 21
435.591165
 31
0.0
  0
LINE
  5
104F
330
12A9
100
AcDbEntity
  8
0
100
AcDbLine
 10
226.228545
 20
464.328165
 30
0.0
 11
254.780545
 21
464.328165
 31
0.0
  0
LINE
  5
1050
330
12A9
100
AcDbEntity
  8
0
100
AcDbLine
 10
275.230545
 20
459.9051649999999
 30
0.0
 11
286.228545
 21
459.328165
 31
0.0
  0
LINE
  5
1051
330
12A9
100
AcDbEntity
  8
0
100
AcDbLine
 10
252.499545
 20
459.9051649999999
 30
0.0
 11
259.228545
 21
459.9051649999999
 31
0.0
  0
LINE
  5
1052
330
12A9
100
AcDbEntity
  8
0
100
AcDbLine
 10
285.892545
 20
452.913165
 30
0.0
 11
286.228545
 21
459.328165
 31
0.0
  0
LINE
  5
1053
330
12A9
100
AcDbEntity
  8
0
100
AcDbLine
 10
243.228545
 20
454.0491649999999
 30
0.0
 11
259.227545
 21
452.649165
 31
0.0
  0
ARC
  5
1054
330
12A9
100
AcDbEntity
  8
0
100
AcDbCircle
 10
283.395545
 20
453.044165
 30
0.0
 40
2.5
100
AcDbArc
 50
265.001
 51
357.0
  0
LINE
  5
1055
330
12A9
100
AcDbEntity
  8
0
100
AcDbLine
 10
256.889545
 20
455.145165
 30
0.0
 11
257.728545
 21
459.9051649999999
 31
0.0
  0
LINE
  5
1056
330
12A9
100
AcDbEntity
  8
0
100
AcDbLine
 10
271.874545
 20
453.402165
 30
0.0
 11
270.727545
 21
459.904165
 31
0.0
  0
ARC
  5
1057
330
12A9
100
AcDbEntity
  8
0
100
AcDbCircle
 10
274.336545
 20
453.837165
 30
0.0
 40
2.5
100
AcDbArc
 50
190.0
 51
265.0
  0
ARC
  5
1058
330
12A9
100
AcDbEntity
  8
0
100
AcDbCircle
 10
254.4265450000001
 20
455.579165
 30
0.0
 40
2.5
100
AcDbArc
 50
265.0
 51
350.0
  0
LINE
  5
1059
330
12A9
100
AcDbEntity
  8
0
100
AcDbLine
 10
228.333545
 20
464.325165
 30
0.0
 11
249.171545
 21
463.233165
 31
0.0
  0
LINE
  5
105A
330
12A9
100
AcDbEntity
  8
0
100
AcDbLine
 10
252.499545
 20
459.9051649999999
 30
0.0
 11
249.170545
 21
463.2341649999999
 31
0.0
  0
LINE
  5
105B
330
12A9
100
AcDbEntity
  8
0
100
AcDbLine
 10
226.228545
 20
464.328165
 30
0.0
 11
226.228545
 21
461.987165
 31
0.0
  0
LINE
  5
105C
330
12A9
100
AcDbEntity
  8
4
100
AcDbLine
 10
285.892545
 20
452.913165
 30
0.0
 11
285.756545
 21
450.3281649999999
 31
0.0
  0
LINE
  5
105D
330
12A9
100
AcDbEntity
  8
0
100
AcDbLine
 10
227.873545
 20
459.638165
 30
0.0
 11
243.228545
 21
454.0491649999999
 31
0.0
  0
ARC
  5
105E
330
12A9
100
AcDbEntity
  8
0
100
AcDbCircle
 10
228.728545
 20
461.987165
 30
0.0
 40
2.5
100
AcDbArc
 50
180.0
 51
250.0
  0
LINE
  5
105F
330
12A9
100
AcDbEntity
  8
0
100
AcDbLine
 10
273.680545
 20
464.328165
 30
0.0
 11
379.7795450000001
 21
464.328165
 31
0.0
  0
LINE
  5
1060
330
12A9
100
AcDbEntity
  8
0
100
AcDbLine
 10
269.228545
 20
459.9051649999999
 30
0.0
 11
275.230545
 21
459.9051649999999
 31
0.0
  0
LINE
  5
1061
330
12A9
100
AcDbEntity
  8
0
100
AcDbLine
 10
269.228545
 20
451.774165
 30
0.0
 11
285.756545
 21
450.3281649999999
 31
0.0
  0
LINE
  5
1062
330
12A9
100
AcDbEntity
  8
0
100
AcDbLine
 10
286.228545
 20
459.328165
 30
0.0
 11
288.965545
 21
459.328165
 31
0.0
  0
ARC
  5
1063
330
12A9
100
AcDbEntity
  8
0
100
AcDbCircle
 10
389.228545
 20
457.058165
 30
0.0
 40
14.175
100
AcDbArc
 50
70.53499999999999
 51
109.461
  0
ARC
  5
1064
330
12A9
100
AcDbEntity
  8
0
100
AcDbCircle
 10
389.228545
 20
477.408165
 30
0.0
 40
14.175
100
AcDbArc
 50
250.541
 51
289.467
  0
LINE
  5
1065
330
12A9
100
AcDbEntity
  8
0
100
AcDbLine
 10
393.955545
 20
464.044165
 30
0.0
 11
393.955545
 21
470.422165
 31
0.0
  0
LINE
  5
1066
330
12A9
100
AcDbEntity
  8
0
100
AcDbLine
 10
384.5055450000001
 20
464.046165
 30
0.0
 11
384.5055450000001
 21
470.421165
 31
0.0
  0
LINE
  5
1067
330
12A9
100
AcDbEntity
  8
0
100
AcDbLine
 10
396.120545
 20
463.233165
 30
0.0
 11
382.338545
 21
463.233165
 31
0.0
  0
LINE
  5
1068
330
12A9
100
AcDbEntity
  8
0
100
AcDbLine
 10
396.116545
 20
471.233165
 30
0.0
 11
382.3395450000001
 21
471.233165
 31
0.0
  0
LINE
  5
1069
330
12A9
100
AcDbEntity
  8
0
100
AcDbLine
 10
398.6785450000001
 20
464.044165
 30
0.0
 11
397.767545
 21
463.517165
 31
0.0
  0
ARC
  5
106A
330
12A9
100
AcDbEntity
  8
0
100
AcDbCircle
 10
396.316545
 20
467.080165
 30
0.0
 40
3.846999999999999
100
AcDbArc
 50
232.15
 51
292.155
  0
LINE
  5
106B
330
12A9
100
AcDbEntity
  8
0
100
AcDbLine
 10
398.679545
 20
464.0471650000001
 30
0.0
 11
398.681545
 21
470.421165
 31
0.0
  0
ARC
  5
106C
330
12A9
100
AcDbEntity
  8
0
100
AcDbCircle
 10
396.316545
 20
467.386165
 30
0.0
 40
3.848
100
AcDbArc
 50
67.765
 51
127.832
  0
LINE
  5
106D
330
12A9
100
AcDbEntity
  8
0
100
AcDbLine
 10
398.680545
 20
470.423165
 30
0.0
 11
397.772545
 21
470.947165
 31
0.0
  0
ARC
  5
106E
330
12A9
100
AcDbEntity
  8
0
100
AcDbCircle
 10
382.141545
 20
467.0831650000001
 30
0.0
 40
3.848999999999999
100
AcDbArc
 50
247.8140000000001
 51
307.865
  0
LINE
  5
106F
330
12A9
100
AcDbEntity
  8
0
100
AcDbLine
 10
380.688545
 20
463.519165
 30
0.0
 11
379.780545
 21
464.043165
 31
0.0
  0
LINE
  5
1070
330
12A9
100
AcDbEntity
  8
0
100
AcDbLine
 10
379.7795450000001
 20
464.0451650000001
 30
0.0
 11
379.781545
 21
470.419165
 31
0.0
  0
LINE
  5
1071
330
12A9
100
AcDbEntity
  8
0
100
AcDbLine
 10
380.720545
 20
470.961165
 30
0.0
 11
379.783545
 21
470.421165
 31
0.0
  0
ARC
  5
1072
330
12A9
100
AcDbEntity
  8
0
100
AcDbCircle
 10
382.141545
 20
467.385165
 30
0.0
 40
3.848
100
AcDbArc
 50
52.122
 51
111.668
  0
ARC
  5
1073
330
12A9
100
AcDbEntity
  8
0
100
AcDbCircle
 10
264.228545
 20
457.058165
 30
0.0
 40
14.175
100
AcDbArc
 50
70.53499999999999
 51
109.461
  0
ARC
  5
1074
330
12A9
100
AcDbEntity
  8
0
100
AcDbCircle
 10
264.228545
 20
477.408165
 30
0.0
 40
14.175
100
AcDbArc
 50
250.541
 51
289.467
  0
LINE
  5
1075
330
12A9
100
AcDbEntity
  8
0
100
AcDbLine
 10
268.955545
 20
464.044165
 30
0.0
 11
268.955545
 21
470.423165
 31
0.0
  0
LINE
  5
1076
330
12A9
100
AcDbEntity
  8
0
100
AcDbLine
 10
259.505545
 20
464.046165
 30
0.0
 11
259.505545
 21
470.421165
 31
0.0
  0
LINE
  5
1077
330
12A9
100
AcDbEntity
  8
0
100
AcDbLine
 10
271.116545
 20
471.233165
 30
0.0
 11
257.338545
 21
471.233165
 31
0.0
  0
LINE
  5
1078
330
12A9
100
AcDbEntity
  8
0
100
AcDbLine
 10
273.6785450000001
 20
464.042165
 30
0.0
 11
272.786545
 21
463.526165
 31
0.0
  0
ARC
  5
1079
330
12A9
100
AcDbEntity
  8
0
100
AcDbCircle
 10
271.316545
 20
467.080165
 30
0.0
 40
3.846999999999999
100
AcDbArc
 50
232.166
 51
289.261
  0
LINE
  5
107A
330
12A9
100
AcDbEntity
  8
0
100
AcDbLine
 10
273.680545
 20
464.044165
 30
0.0
 11
273.681545
 21
470.419165
 31
0.0
  0
ARC
  5
107B
330
12A9
100
AcDbEntity
  8
0
100
AcDbCircle
 10
271.316545
 20
467.386165
 30
0.0
 40
3.848
100
AcDbArc
 50
67.922
 51
127.832
  0
LINE
  5
107C
330
12A9
100
AcDbEntity
  8
0
100
AcDbLine
 10
273.679545
 20
470.422165
 30
0.0
 11
272.7625450000001
 21
470.951165
 31
0.0
  0
ARC
  5
107D
330
12A9
100
AcDbEntity
  8
0
100
AcDbCircle
 10
257.141545
 20
467.0831650000001
 30
0.0
 40
3.848999999999999
100
AcDbArc
 50
247.657
 51
307.865
  0
LINE
  5
107E
330
12A9
100
AcDbEntity
  8
0
100
AcDbLine
 10
255.678545
 20
463.522165
 30
0.0
 11
254.782545
 21
464.041165
 31
0.0
  0
LINE
  5
107F
330
12A9
100
AcDbEntity
  8
0
100
AcDbLine
 10
254.780545
 20
464.043165
 30
0.0
 11
254.780545
 21
470.424165
 31
0.0
  0
LINE
  5
1080
330
12A9
100
AcDbEntity
  8
0
100
AcDbLine
 10
255.696545
 20
470.951165
 30
0.0
 11
254.782545
 21
470.426165
 31
0.0
  0
ARC
  5
1081
330
12A9
100
AcDbEntity
  8
0
100
AcDbCircle
 10
257.141545
 20
467.385165
 30
0.0
 40
3.848
100
AcDbArc
 50
52.122
 51
112.06
  0
LINE
  5
1082
330
12A9
100
AcDbEntity
  8
0
100
AcDbLine
 10
260.228545
 20
471.233165
 30
0.0
 11
260.228545
 21
476.605165
 31
0.0
  0
LINE
  5
1083
330
12A9
100
AcDbEntity
  8
0
100
AcDbLine
 10
268.228545
 20
476.605165
 30
0.0
 11
268.228545
 21
471.233165
 31
0.0
  0
LINE
  5
1084
330
12A9
100
AcDbEntity
  8
0
100
AcDbLine
 10
269.228545
 20
475.605165
 30
0.0
 11
269.228545
 21
471.233165
 31
0.0
  0
LINE
  5
1085
330
12A9
100
AcDbEntity
  8
0
100
AcDbLine
 10
259.228545
 20
475.605165
 30
0.0
 11
259.228545
 21
471.233165
 31
0.0
  0
LINE
  5
1086
330
12A9
100
AcDbEntity
  8
0
100
AcDbLine
 10
260.228545
 20
463.233165
 30
0.0
 11
260.228545
 21
450.091165
 31
0.0
  0
LINE
  5
1087
330
12A9
100
AcDbEntity
  8
0
100
AcDbLine
 10
259.228545
 20
463.233165
 30
0.0
 11
259.228545
 21
447.091165
 31
0.0
  0
LINE
  5
1088
330
12A9
100
AcDbEntity
  8
0
100
AcDbLine
 10
268.228545
 20
463.233165
 30
0.0
 11
268.228545
 21
450.091165
 31
0.0
  0
LINE
  5
1089
330
12A9
100
AcDbEntity
  8
0
100
AcDbLine
 10
269.228545
 20
463.233165
 30
0.0
 11
269.228545
 21
447.091165
 31
0.0
  0
LINE
  5
108A
330
12A9
100
AcDbEntity
  8
0
100
AcDbLine
 10
259.228545
 20
450.091165
 30
0.0
 11
269.228545
 21
450.091165
 31
0.0
  0
LINE
  5
108B
330
12A9
100
AcDbEntity
  8
0
100
AcDbLine
 10
260.228545
 20
434.591165
 30
0.0
 11
268.228545
 21
434.591165
 31
0.0
  0
LINE
  5
108C
330
12A9
100
AcDbEntity
  8
0
100
AcDbLine
 10
259.228545
 20
435.591165
 30
0.0
 11
269.228545
 21
435.591165
 31
0.0
  0
LINE
  5
108D
330
12A9
100
AcDbEntity
  8
0
100
AcDbLine
 10
268.228545
 20
434.591165
 30
0.0
 11
269.228545
 21
435.591165
 31
0.0
  0
LINE
  5
108E
330
12A9
100
AcDbEntity
  8
0
100
AcDbLine
 10
260.228545
 20
434.591165
 30
0.0
 11
259.228545
 21
435.591165
 31
0.0
  0
LINE
  5
108F
330
12A9
100
AcDbEntity
  8
4
100
AcDbLine
 10
259.228545
 20
435.591165
 30
0.0
 11
259.228545
 21
432.997165
 31
0.0
  0
LINE
  5
1090
330
12A9
100
AcDbEntity
  8
4
100
AcDbLine
 10
269.228545
 20
435.591165
 30
0.0
 11
269.228545
 21
432.997165
 31
0.0
  0
LINE
  5
1091
330
12A9
100
AcDbEntity
  8
4
100
AcDbLine
 10
260.228545
 20
434.591165
 30
0.0
 11
260.228545
 21
447.091165
 31
0.0
  0
LINE
  5
1092
330
12A9
100
AcDbEntity
  8
4
100
AcDbLine
 10
268.228545
 20
447.091165
 30
0.0
 11
268.228545
 21
434.591165
 31
0.0
  0
LINE
  5
1093
330
12A9
100
AcDbEntity
  8
7
 48
0.6310000000000001
100
AcDbLine
 10
264.228545
 20
414.0901649999999
 30
0.0
 11
264.228545
 21
483.475165
 31
0.0
  0
LINE
  5
1094
330
12A9
100
AcDbEntity
  8
0
100
AcDbLine
 10
384.228545
 20
475.605165
 30
0.0
 11
384.228545
 21
471.233165
 31
0.0
  0
LINE
  5
1095
330
12A9
100
AcDbEntity
  8
4
100
AcDbLine
 10
385.228545
 20
471.233165
 30
0.0
 11
385.228545
 21
476.605165
 31
0.0
  0
LINE
  5
1096
330
12A9
100
AcDbEntity
  8
4
100
AcDbLine
 10
393.228545
 20
476.605165
 30
0.0
 11
393.228545
 21
471.233165
 31
0.0
  0
LINE
  5
1097
330
12A9
100
AcDbEntity
  8
0
100
AcDbLine
 10
394.228545
 20
471.233165
 30
0.0
 11
394.228545
 21
475.605165
 31
0.0
  0
LINE
  5
1098
330
12A9
100
AcDbEntity
  8
0
100
AcDbLine
 10
260.228545
 20
476.605165
 30
0.0
 11
268.228545
 21
476.605165
 31
0.0
  0
LINE
  5
1099
330
12A9
100
AcDbEntity
  8
0
100
AcDbLine
 10
259.228545
 20
475.605165
 30
0.0
 11
269.228545
 21
475.605165
 31
0.0
  0
LINE
  5
109A
330
12A9
100
AcDbEntity
  8
0
100
AcDbLine
 10
384.228545
 20
475.605165
 30
0.0
 11
394.228545
 21
475.605165
 31
0.0
  0
LINE
  5
109B
330
12A9
100
AcDbEntity
  8
0
100
AcDbLine
 10
385.228545
 20
476.605165
 30
0.0
 11
393.228545
 21
476.605165
 31
0.0
  0
LINE
  5
109C
330
12A9
100
AcDbEntity
  8
0
100
AcDbLine
 10
385.228545
 20
476.605165
 30
0.0
 11
384.228545
 21
475.605165
 31
0.0
  0
LINE
  5
109D
330
12A9
100
AcDbEntity
  8
0
100
AcDbLine
 10
393.228545
 20
476.605165
 30
0.0
 11
394.228545
 21
475.605165
 31
0.0
  0
LINE
  5
109E
330
12A9
100
AcDbEntity
  8
0
100
AcDbLine
 10
260.228545
 20
476.605165
 30
0.0
 11
259.228545
 21
475.605165
 31
0.0
  0
LINE
  5
109F
330
12A9
100
AcDbEntity
  8
0
100
AcDbLine
 10
268.228545
 20
476.605165
 30
0.0
 11
269.228545
 21
475.605165
 31
0.0
  0
LINE
  5
10A0
330
12A9
100
AcDbEntity
  8
0
100
AcDbLine
 10
509.228545
 20
447.091165
 30
0.0
 11
519.228545
 21
447.091165
 31
0.0
  0
LINE
  5
10A1
330
12A9
100
AcDbEntity
  8
0
100
AcDbLine
 10
518.2285450000001
 20
434.591165
 30
0.0
 11
518.2285450000001
 21
427.497165
 31
0.0
  0
LINE
  5
10A2
330
12A9
100
AcDbEntity
  8
0
100
AcDbLine
 10
510.228545
 20
434.591165
 30
0.0
 11
510.228545
 21
427.497165
 31
0.0
  0
LINE
  5
10A3
330
12A9
100
AcDbEntity
  8
0
100
AcDbLine
 10
509.228545
 20
447.091165
 30
0.0
 11
509.228545
 21
435.591165
 31
0.0
  0
LINE
  5
10A4
330
12A9
100
AcDbEntity
  8
0
100
AcDbLine
 10
519.228545
 20
447.091165
 30
0.0
 11
519.228545
 21
435.591165
 31
0.0
  0
LINE
  5
10A5
330
12A9
100
AcDbEntity
  8
0
100
AcDbLine
 10
552.228545
 20
464.328165
 30
0.0
 11
523.675545
 21
464.328165
 31
0.0
  0
LINE
  5
10A6
330
12A9
100
AcDbEntity
  8
0
100
AcDbLine
 10
503.226545
 20
459.9051649999999
 30
0.0
 11
492.2275449999999
 21
459.328165
 31
0.0
  0
LINE
  5
10A7
330
12A9
100
AcDbEntity
  8
0
100
AcDbLine
 10
525.956545
 20
459.9051649999999
 30
0.0
 11
519.228545
 21
459.9051649999999
 31
0.0
  0
LINE
  5
10A8
330
12A9
100
AcDbEntity
  8
0
100
AcDbLine
 10
492.564545
 20
452.913165
 30
0.0
 11
492.2275449999999
 21
459.328165
 31
0.0
  0
LINE
  5
10A9
330
12A9
100
AcDbEntity
  8
0
100
AcDbLine
 10
535.228545
 20
454.0491649999999
 30
0.0
 11
519.228545
 21
452.649165
 31
0.0
  0
ARC
  5
10AA
330
12A9
100
AcDbEntity
  8
0
100
AcDbCircle
 10
495.060545
 20
453.044165
 30
0.0
 40
2.5
100
AcDbArc
 50
183.0
 51
274.999
  0
LINE
  5
10AB
330
12A9
100
AcDbEntity
  8
0
100
AcDbLine
 10
521.5675449999999
 20
455.144165
 30
0.0
 11
520.727545
 21
459.904165
 31
0.0
  0
LINE
  5
10AC
330
12A9
100
AcDbEntity
  8
0
100
AcDbLine
 10
506.582545
 20
453.402165
 30
0.0
 11
507.7285449999999
 21
459.904165
 31
0.0
  0
ARC
  5
10AD
330
12A9
100
AcDbEntity
  8
0
100
AcDbCircle
 10
504.119545
 20
453.837165
 30
0.0
 40
2.5
100
AcDbArc
 50
275.0
 51
350.0
  0
ARC
  5
10AE
330
12A9
100
AcDbEntity
  8
0
100
AcDbCircle
 10
524.0295449999999
 20
455.579165
 30
0.0
 40
2.5
100
AcDbArc
 50
190.0
 51
274.999
  0
LINE
  5
10AF
330
12A9
100
AcDbEntity
  8
0
100
AcDbLine
 10
550.123545
 20
464.325165
 30
0.0
 11
529.2855450000001
 21
463.233165
 31
0.0
  0
LINE
  5
10B0
330
12A9
100
AcDbEntity
  8
0
100
AcDbLine
 10
525.956545
 20
459.904165
 30
0.0
 11
529.2855450000001
 21
463.233165
 31
0.0
  0
LINE
  5
10B1
330
12A9
100
AcDbEntity
  8
0
100
AcDbLine
 10
552.228545
 20
464.328165
 30
0.0
 11
552.228545
 21
461.987165
 31
0.0
  0
LINE
  5
10B2
330
12A9
100
AcDbEntity
  8
0
100
AcDbLine
 10
550.5825449999999
 20
459.638165
 30
0.0
 11
535.2275449999999
 21
454.0491649999999
 31
0.0
  0
ARC
  5
10B3
330
12A9
100
AcDbEntity
  8
0
100
AcDbCircle
 10
549.728545
 20
461.987165
 30
0.0
 40
2.5
100
AcDbArc
 50
290.0
 51
0.0
  0
LINE
  5
10B4
330
12A9
100
AcDbEntity
  8
0
100
AcDbLine
 10
509.228545
 20
459.9051649999999
 30
0.0
 11
503.226545
 21
459.9051649999999
 31
0.0
  0
LINE
  5
10B5
330
12A9
100
AcDbEntity
  8
0
100
AcDbLine
 10
509.228545
 20
451.774165
 30
0.0
 11
490.374545
 21
450.125165
 31
0.0
  0
LINE
  5
10B6
330
12A9
100
AcDbEntity
  8
0
100
AcDbLine
 10
492.2275449999999
 20
459.328165
 30
0.0
 11
489.490545
 21
459.328165
 31
0.0
  0
ARC
  5
10B7
330
12A9
100
AcDbEntity
  8
0
100
AcDbCircle
 10
514.2285450000001
 20
457.058165
 30
0.0
 40
14.175
100
AcDbArc
 50
70.539
 51
109.465
  0
ARC
  5
10B8
330
12A9
100
AcDbEntity
  8
0
100
AcDbCircle
 10
514.2285450000001
 20
477.408165
 30
0.0
 40
14.175
100
AcDbArc
 50
250.533
 51
289.459
  0
LINE
  5
10B9
330
12A9
100
AcDbEntity
  8
0
100
AcDbLine
 10
509.500545
 20
464.044165
 30
0.0
 11
509.501545
 21
470.422165
 31
0.0
  0
LINE
  5
10BA
330
12A9
100
AcDbEntity
  8
0
100
AcDbLine
 10
518.950545
 20
464.046165
 30
0.0
 11
518.950545
 21
470.421165
 31
0.0
  0
LINE
  5
10BB
330
12A9
100
AcDbEntity
  8
0
100
AcDbLine
 10
507.339545
 20
471.233165
 30
0.0
 11
521.117545
 21
471.233165
 31
0.0
  0
LINE
  5
10BC
330
12A9
100
AcDbEntity
  8
0
100
AcDbLine
 10
504.777545
 20
464.042165
 30
0.0
 11
505.669545
 21
463.526165
 31
0.0
  0
ARC
  5
10BD
330
12A9
100
AcDbEntity
  8
0
100
AcDbCircle
 10
507.140545
 20
467.080165
 30
0.0
 40
3.846999999999999
100
AcDbArc
 50
247.531
 51
307.834
  0
LINE
  5
10BE
330
12A9
100
AcDbEntity
  8
0
100
AcDbLine
 10
504.7765449999999
 20
464.044165
 30
0.0
 11
504.775545
 21
470.419165
 31
0.0
  0
ARC
  5
10BF
330
12A9
100
AcDbEntity
  8
0
100
AcDbCircle
 10
507.140545
 20
467.386165
 30
0.0
 40
3.848
100
AcDbArc
 50
52.168
 51
112.078
  0
LINE
  5
10C0
330
12A9
100
AcDbEntity
  8
0
100
AcDbLine
 10
504.7765449999999
 20
470.422165
 30
0.0
 11
505.693545
 21
470.951165
 31
0.0
  0
ARC
  5
10C1
330
12A9
100
AcDbEntity
  8
0
100
AcDbCircle
 10
521.314545
 20
467.0831650000001
 30
0.0
 40
3.848999999999999
100
AcDbArc
 50
232.135
 51
292.343
  0
LINE
  5
10C2
330
12A9
100
AcDbEntity
  8
0
100
AcDbLine
 10
522.7785449999999
 20
463.523165
 30
0.0
 11
523.6745449999999
 21
464.041165
 31
0.0
  0
LINE
  5
10C3
330
12A9
100
AcDbEntity
  8
0
100
AcDbLine
 10
523.675545
 20
464.043165
 30
0.0
 11
523.675545
 21
470.424165
 31
0.0
  0
LINE
  5
10C4
330
12A9
100
AcDbEntity
  8
0
100
AcDbLine
 10
522.7605449999999
 20
470.952165
 30
0.0
 11
523.673545
 21
470.426165
 31
0.0
  0
ARC
  5
10C5
330
12A9
100
AcDbEntity
  8
0
100
AcDbCircle
 10
521.315545
 20
467.385165
 30
0.0
 40
3.848
100
AcDbArc
 50
67.94
 51
127.878
  0
LINE
  5
10C6
330
12A9
100
AcDbEntity
  8
0
100
AcDbLine
 10
518.2285450000001
 20
471.233165
 30
0.0
 11
518.2285450000001
 21
476.605165
 31
0.0
  0
LINE
  5
10C7
330
12A9
100
AcDbEntity
  8
0
100
AcDbLine
 10
510.228545
 20
476.605165
 30
0.0
 11
510.228545
 21
471.233165
 31
0.0
  0
LINE
  5
10C8
330
12A9
100
AcDbEntity
  8
0
100
AcDbLine
 10
509.228545
 20
475.605165
 30
0.0
 11
509.228545
 21
471.233165
 31
0.0
  0
LINE
  5
10C9
330
12A9
100
AcDbEntity
  8
0
100
AcDbLine
 10
519.228545
 20
475.605165
 30
0.0
 11
519.228545
 21
471.233165
 31
0.0
  0
LINE
  5
10CA
330
12A9
100
AcDbEntity
  8
0
100
AcDbLine
 10
518.2285450000001
 20
463.233165
 30
0.0
 11
518.2285450000001
 21
450.091165
 31
0.0
  0
LINE
  5
10CB
330
12A9
100
AcDbEntity
  8
0
100
AcDbLine
 10
519.228545
 20
463.233165
 30
0.0
 11
519.228545
 21
447.091165
 31
0.0
  0
LINE
  5
10CC
330
12A9
100
AcDbEntity
  8
0
100
AcDbLine
 10
510.228545
 20
463.233165
 30
0.0
 11
510.228545
 21
450.091165
 31
0.0
  0
LINE
  5
10CD
330
12A9
100
AcDbEntity
  8
0
100
AcDbLine
 10
509.228545
 20
463.233165
 30
0.0
 11
509.228545
 21
447.091165
 31
0.0
  0
LINE
  5
10CE
330
12A9
100
AcDbEntity
  8
0
100
AcDbLine
 10
519.228545
 20
450.091165
 30
0.0
 11
509.228545
 21
450.091165
 31
0.0
  0
LINE
  5
10CF
330
12A9
100
AcDbEntity
  8
0
100
AcDbLine
 10
518.2285450000001
 20
434.591165
 30
0.0
 11
510.228545
 21
434.591165
 31
0.0
  0
LINE
  5
10D0
330
12A9
100
AcDbEntity
  8
0
100
AcDbLine
 10
519.228545
 20
435.591165
 30
0.0
 11
509.228545
 21
435.591165
 31
0.0
  0
LINE
  5
10D1
330
12A9
100
AcDbEntity
  8
0
100
AcDbLine
 10
510.228545
 20
434.591165
 30
0.0
 11
509.228545
 21
435.591165
 31
0.0
  0
LINE
  5
10D2
330
12A9
100
AcDbEntity
  8
0
100
AcDbLine
 10
518.2285450000001
 20
434.591165
 30
0.0
 11
519.228545
 21
435.591165
 31
0.0
  0
LINE
  5
10D3
330
12A9
100
AcDbEntity
  8
4
100
AcDbLine
 10
519.228545
 20
435.591165
 30
0.0
 11
519.228545
 21
432.997165
 31
0.0
  0
LINE
  5
10D4
330
12A9
100
AcDbEntity
  8
4
100
AcDbLine
 10
509.228545
 20
435.591165
 30
0.0
 11
509.228545
 21
432.997165
 31
0.0
  0
LINE
  5
10D5
330
12A9
100
AcDbEntity
  8
4
100
AcDbLine
 10
518.2285450000001
 20
434.591165
 30
0.0
 11
518.2285450000001
 21
447.091165
 31
0.0
  0
LINE
  5
10D6
330
12A9
100
AcDbEntity
  8
4
100
AcDbLine
 10
510.228545
 20
447.091165
 30
0.0
 11
510.228545
 21
434.591165
 31
0.0
  0
LINE
  5
10D7
330
12A9
100
AcDbEntity
  8
7
 48
0.6310000000000001
100
AcDbLine
 10
514.2285450000001
 20
414.0901649999999
 30
0.0
 11
514.2285450000001
 21
483.475165
 31
0.0
  0
LINE
  5
10D8
330
12A9
100
AcDbEntity
  8
0
100
AcDbLine
 10
518.2285450000001
 20
476.605165
 30
0.0
 11
510.228545
 21
476.605165
 31
0.0
  0
LINE
  5
10D9
330
12A9
100
AcDbEntity
  8
0
100
AcDbLine
 10
519.228545
 20
475.605165
 30
0.0
 11
509.228545
 21
475.605165
 31
0.0
  0
LINE
  5
10DA
330
12A9
100
AcDbEntity
  8
0
100
AcDbLine
 10
518.2285450000001
 20
476.605165
 30
0.0
 11
519.228545
 21
475.605165
 31
0.0
  0
LINE
  5
10DB
330
12A9
100
AcDbEntity
  8
0
100
AcDbLine
 10
510.228545
 20
476.605165
 30
0.0
 11
509.228545
 21
475.605165
 31
0.0
  0
LINE
  5
10DC
330
12A9
100
AcDbEntity
  8
0
100
AcDbLine
 10
489.228545
 20
463.233165
 30
0.0
 11
529.2855450000001
 21
463.233165
 31
0.0
  0
LINE
  5
10DD
330
12A9
100
AcDbEntity
  8
0
100
AcDbLine
 10
272.281545
 20
463.233165
 30
0.0
 11
489.228545
 21
463.2341649999999
 31
0.0
  0
LINE
  5
10DE
330
12A9
100
AcDbEntity
  8
0
100
AcDbLine
 10
504.7765449999999
 20
464.328165
 30
0.0
 11
398.679545
 21
464.328165
 31
0.0
  0
LINE
  5
10DF
330
12A9
100
AcDbEntity
  8
0
100
AcDbLine
 10
271.116545
 20
463.233165
 30
0.0
 11
249.170545
 21
463.2341649999999
 31
0.0
  0
LINE
  5
10E0
330
12A9
100
AcDbEntity
  8
0
100
AcDbLine
 10
269.228545
 20
450.359165
 30
0.0
 11
288.1015450000001
 21
450.359165
 31
0.0
  0
LINE
  5
10E1
330
12A9
100
AcDbEntity
  8
0
100
AcDbLine
 10
259.228545
 20
447.9961649999999
 30
0.0
 11
258.228545
 21
447.9961649999999
 31
0.0
  0
LINE
  5
10E2
330
12A9
100
AcDbEntity
  8
0
100
AcDbLine
 10
228.984545
 20
459.233165
 30
0.0
 11
213.826545
 21
459.233165
 31
0.0
  0
LINE
  5
10E3
330
12A9
100
AcDbEntity
  8
0
100
AcDbLine
 10
312.228545
 20
184.2331650000001
 30
0.0
 11
466.2285449999999
 21
184.2331650000001
 31
0.0
  0
LINE
  5
10E4
330
12A9
100
AcDbEntity
  8
0
100
AcDbLine
 10
318.228545
 20
194.2331650000001
 30
0.0
 11
460.228545
 21
194.2331650000001
 31
0.0
  0
LINE
  5
10E5
330
12A9
100
AcDbEntity
  8
0
100
AcDbLine
 10
316.978545
 20
214.2331650000001
 30
0.0
 11
461.478545
 21
214.2331650000001
 31
0.0
  0
LINE
  5
10E6
330
12A9
100
AcDbEntity
  8
0
100
AcDbLine
 10
318.228545
 20
194.2331650000001
 30
0.0
 11
318.228545
 21
184.2331650000001
 31
0.0
  0
LINE
  5
10E7
330
12A9
100
AcDbEntity
  8
0
100
AcDbLine
 10
460.228545
 20
184.2331650000001
 30
0.0
 11
460.228545
 21
194.2331650000001
 31
0.0
  0
LINE
  5
10E8
330
12A9
100
AcDbEntity
  8
0
100
AcDbLine
 10
460.228545
 20
194.2331650000001
 30
0.0
 11
461.478545
 21
214.2331650000001
 31
0.0
  0
LINE
  5
10E9
330
12A9
100
AcDbEntity
  8
0
100
AcDbLine
 10
318.228545
 20
194.2331650000001
 30
0.0
 11
316.978545
 21
214.2331650000001
 31
0.0
  0
LINE
  5
10EA
330
12A9
100
AcDbEntity
  8
0
100
AcDbLine
 10
466.2285449999999
 20
184.2331650000001
 30
0.0
 11
467.7935449999999
 21
417.6101649999999
 31
0.0
  0
LINE
  5
10EB
330
12A9
100
AcDbEntity
  8
0
100
AcDbLine
 10
461.478545
 20
214.2331650000001
 30
0.0
 11
462.784545
 21
417.8961649999999
 31
0.0
  0
LINE
  5
10EC
330
12A9
100
AcDbEntity
  8
0
100
AcDbLine
 10
316.978545
 20
214.2331650000001
 30
0.0
 11
315.672545
 21
417.8961649999999
 31
0.0
  0
LINE
  5
10ED
330
12A9
100
AcDbEntity
  8
0
100
AcDbLine
 10
312.228545
 20
184.2331650000001
 30
0.0
 11
310.662545
 21
417.6101649999999
 31
0.0
  0
LINE
  5
10EE
330
12A9
100
AcDbEntity
  8
0
100
AcDbLine
 10
465.462545
 20
427.722165
 30
0.0
 11
476.728545
 21
447.233165
 31
0.0
  0
LINE
  5
10EF
330
12A9
100
AcDbEntity
  8
0
100
AcDbLine
 10
301.727545
 20
447.234165
 30
0.0
 11
312.993545
 21
427.722165
 31
0.0
  0
LINE
  5
10F0
330
12A9
100
AcDbEntity
  8
0
100
AcDbLine
 10
469.936545
 20
425.470165
 30
0.0
 11
475.331545
 21
434.815165
 31
0.0
  0
LINE
  5
10F1
330
12A9
100
AcDbEntity
  8
0
100
AcDbLine
 10
303.124545
 20
434.815165
 30
0.0
 11
308.519545
 21
425.470165
 31
0.0
  0
ARC
  5
10F2
330
12A9
100
AcDbEntity
  8
0
100
AcDbCircle
 10
294.464545
 20
429.815165
 30
0.0
 40
10.0
100
AcDbArc
 50
30.0
 51
85.0
  0
ARC
  5
10F3
330
12A9
100
AcDbEntity
  8
0
100
AcDbCircle
 10
483.9925449999999
 20
429.815165
 30
0.0
 40
10.0
100
AcDbArc
 50
95.0
 51
150.0
  0
ARC
  5
10F4
330
12A9
100
AcDbEntity
  8
0
100
AcDbCircle
 10
482.783545
 20
417.7221649999999
 30
0.0
 40
20.0
100
AcDbArc
 50
150.0
 51
179.5
  0
ARC
  5
10F5
330
12A9
100
AcDbEntity
  8
0
100
AcDbCircle
 10
295.672545
 20
417.7221649999999
 30
0.0
 40
20.0
100
AcDbArc
 50
0.5
 51
30.0
  0
ARC
  5
10F6
330
12A9
100
AcDbEntity
  8
0
100
AcDbCircle
 10
294.663545
 20
417.470165
 30
0.0
 40
16.0
100
AcDbArc
 50
0.5
 51
30.0
  0
ARC
  5
10F7
330
12A9
100
AcDbEntity
  8
0
100
AcDbCircle
 10
483.792545
 20
417.470165
 30
0.0
 40
16.0
100
AcDbArc
 50
150.0
 51
179.5
  0
LINE
  5
10F8
330
12A9
100
AcDbEntity
  8
4
100
AcDbLine
 10
315.626545
 20
423.161165
 30
0.0
 11
462.830545
 21
423.161165
 31
0.0
  0
INSERT
  5
1111
330
12A9
100
AcDbEntity
  8
8
100
AcDbBlockReference
  2
*X0
 10
90.374545
 20
46.895165
 30
0.0
1001
ACAD
1000
HATCH
1002
{
1070
    19
1000
ANSI31,_I
1040
7.937
1040
0.7850000000000001
1002
}
  0
INSERT
  5
1127
330
12A9
100
AcDbEntity
  8
8
100
AcDbBlockReference
  2
*X1
 10
90.374545
 20
46.895165
 30
0.0
1001
ACAD
1000
HATCH
1002
{
1070
    19
1000
ANSI31,_I
1040
7.937
1040
0.7850000000000001
1002
}
  0
INSERT
  5
1141
330
12A9
100
AcDbEntity
  8
8
100
AcDbBlockReference
  2
*X2
 10
90.374545
 20
46.895165
 30
0.0
1001
ACAD
1000
HATCH
1002
{
1070
    19
1000
ANSI31,_I
1040
7.937
1040
0.7850000000000001
1002
}
  0
INSERT
  5
1157
330
12A9
100
AcDbEntity
  8
8
100
AcDbBlockReference
  2
*X3
 10
90.374545
 20
46.895165
 30
0.0
1001
ACAD
1000
HATCH
1002
{
1070
    19
1000
ANSI31,_I
1040
7.937
1040
0.7850000000000001
1002
}
  0
DIMENSION
  5
1162
330
12A9
100
AcDbEntity
  8
5
100
AcDbDimension
  2
*D5
 10
209.227545
 20
595.605165
 30
0.0
 11
389.227545
 21
607.355165
 31
0.0
 70
    32
  1
%%c 360
 71
     5
 42
-1.0
  3
GEN-ISO
100
AcDbAlignedDimension
 13
569.2275449999999
 23
449.233165
 33
0.0
 14
209.227545
 24
449.233165
 34
0.0
 50
180.0
100
AcDbRotatedDimension
  0
DIMENSION
  5
1244
330
12A9
100
AcDbEntity
  8
5
100
AcDbDimension
  2
*D7
 10
489.228545
 20
560.605165
 30
0.0
 11
389.228045
 21
572.356887
 31
0.0
 70
    32
  1
%%c 200
 71
     5
 42
-1.0
  3
GEN-ISO
100
AcDbAlignedDimension
 13
289.227545
 23
463.233165
 33
0.0
 14
489.228545
 24
463.2341649999999
 34
0.0
100
AcDbRotatedDimension
  0
DIMENSION
  5
124F
330
12A9
100
AcDbEntity
  8
5
100
AcDbDimension
  2
*D6
 10
466.2285449999999
 20
132.6054774306981
 30
0.0
 11
386.3338689829266
 21
132.6054774306981
 31
0.0
 70
   160
  1
%%c 154
 71
     5
 42
154.0
  3
GEN-ISO
100
AcDbAlignedDimension
 13
312.228545
 23
184.2331650000001
 33
0.0
 14
466.2285449999999
 24
184.2331650000001
 34
0.0
100
AcDbRotatedDimension
  0
INSERT
  5
1337
330
12A9
100
AcDbEntity
  8
0
100
AcDbBlockReference
  2
KATALOG_LEER
 10
251.839706
 20
11.304483
 30
0.0
 41
5.0
 42
5.0
 43
5.0
1001
GENIUS_GENOREF_13
1005
1338
  0
POINT
  5
1338
330
12A9
100
AcDbEntity
  8
0
 60
     1
100
AcDbPoint
 10
0.0
 20
0.0
 30
0.0
1001
GENIUS_GENOBJ-N-TIT_13
1002
{
1000
OWNER
1000
GEN
1002
}
1001
GENIUS_GENOENT_13
1002
{
1000
MYREF
1005
1338
1002
}
1002
{
1000
GRP
1005
0
1002
}
1001
GENIUS_GENOLIS_13
1002
{
1000
ENT
1005
1337
1002
}
1001
GENIUS_GENTITLE_13
1002
{
1000
SCALE
1000
1:5
1002
}
1002
{
1000
BORDER
1000
KATALOG
1002
}
1002
{
1000
TITLE
1000
KATALOG_LEER
1002
}
1002
{
1000
UNCHG
1002
{
1000
GEN-TITLE-SCA
1000
GEN-TITLE-SIZ
1002
}
1002
}
1002
{
1000
HRA
1005
1330
1002
}
1002
{
1000
HTIT
1005
1337
1002
}
1002
{
1000
GENIUSID
1005
1338
1002
}
1001
GENIUS_GENODEF_13
1002
{
1000
HIER
1070
     1
1002
}
1002
{
1000
MANEDIT
1070
     1
1002
}
1002
{
1000
NOSEL
1070
     0
1002
}
1002
{
1000
BEHIND
1070
     0
1002
}
1002
{
1000
REACTOR
1002
}
  0
DIMENSION
  5
15B2
330
12A9
100
AcDbEntity
  8
AM_5
100
AcDbDimension
  2
*D9
 10
172.732528095958
 20
184.2331650000001
 30
0.0
 11
160.9808056550131
 21
321.6785459449539
 31
0.0
 70
    32
 71
     5
 42
274.8907618899075
  3
GEN-ISO$0
100
AcDbAlignedDimension
 13
214.5574742618069
 23
459.1239268899076
 33
0.0
 14
312.228545
 24
184.2331650000001
 34
0.0
 50
90.00000000000003
100
AcDbRotatedDimension
1001
ACAD
1000
DSTYLE
1002
{
1070
    78
1070
    12
1070
   271
1070
     0
1002
}
  0
HATCH
  5
15E0
330
12A9
100
AcDbEntity
  8
AM_8
100
AcDbHatch
 10
0.0
 20
0.0
 30
0.0
210
0.0
220
0.0
230
1.0
  2
_U
 70
     0
 71
     0
 91
        1
 92
        1
 93
       43
 72
     1
 10
264.228545
 20
425.187165
 11
260.228545
 21
427.497165
 72
     1
 10
260.228545
 20
427.497165
 11
260.228545
 21
432.997165
 72
     1
 10
260.228545
 20
432.997165
 11
259.228545
 21
432.997165
 72
     1
 10
259.228545
 20
432.997165
 11
259.228545
 21
447.9961649999999
 72
     1
 10
259.228545
 20
447.9961649999999
 11
258.228545
 21
447.9961649999999
 72
     1
 10
258.228545
 20
447.9961649999999
 11
257.589545
 21
449.102165
 72
     1
 10
257.589545
 20
449.102165
 11
243.228545
 21
450.358165
 72
     1
 10
243.228545
 20
450.358165
 11
214.556545
 21
459.124165
 72
     1
 10
214.556545
 20
459.124165
 11
213.826545
 21
459.233165
 72
     1
 10
213.826545
 20
459.233165
 11
213.1571738032453
 21
459.1418871095334
 72
     2
 10
213.826545
 20
456.733165
 40
2.49999999999999
 50
105.5303320368545
 51
151.321278206754
 73
     1
 72
     1
 10
211.633233884742
 20
457.9329092859567
 11
211.4120662941022
 21
457.3814647599615
 72
     1
 10
211.4120662941022
 20
457.3814647599615
 11
211.411545
 21
457.380165
 72
     1
 10
211.411545
 20
457.380165
 11
209.228545
 21
449.233165
 72
     1
 10
209.228545
 20
449.233165
 11
226.386545
 21
449.233165
 72
     1
 10
226.386545
 20
449.233165
 11
242.077545
 21
444.436165
 72
     1
 10
242.077545
 20
444.436165
 11
247.565545
 21
443.956165
 72
     1
 10
247.565545
 20
443.956165
 11
248.367545
 21
443.784165
 72
     1
 10
248.367545
 20
443.784165
 11
248.643877800912
 21
443.6038088593179
 72
     2
 10
247.3475450000004
 20
441.4661649999998
 40
2.500000000000003
 50
301.2339074523817
 51
305.0292360161412
 73
     0
 72
     1
 10
248.7825308651709
 20
443.5133131545701
 11
249.058545
 21
443.333165
 72
     1
 10
249.058545
 20
443.333165
 11
249.2663691458196
 21
443.0686985869865
 72
     2
 10
247.3475450000002
 20
441.4661649999998
 40
2.499999999999982
 50
320.1325696462587
 51
323.5451797130883
 73
     0
 72
     1
 10
249.3583591227284
 20
442.9516368320575
 11
249.568545
 21
442.684165
 72
     1
 10
249.568545
 20
442.684165
 11
249.6289121381973
 21
442.4885954283194
 72
     2
 10
247.347545
 20
441.466165
 40
2.5
 50
335.8597154492949
 51
349.8321460316391
 73
     0
 72
     1
 10
249.8082820179478
 20
441.9074963137559
 11
249.810545
 21
441.900165
 72
     1
 10
249.810545
 20
441.900165
 11
252.410545
 21
427.150165
 72
     1
 10
252.410545
 20
427.150165
 11
252.9598249711195
 21
425.1081257382828
 72
     2
 10
264.2285450000001
 20
429.233165
 40
12.00000000000003
 50
200.1057094138936
 51
203.5385814184399
 73
     1
 72
     1
 10
253.2270486833129
 20
424.4407669787667
 11
253.9663295158895
 21
423.0132828984099
 72
     2
 10
264.2285449999999
 20
429.2331650000001
 40
11.99999999999997
 50
211.2198628015051
 51
214.8964709597157
 73
     1
 72
     1
 10
254.3862996234575
 20
422.3680207227159
 11
255.3978749331933
 21
421.1079409310155
 72
     2
 10
264.2285449999997
 20
429.2331650000003
 40
12.0
 50
222.6175965127656
 51
226.3338815925816
 73
     1
 72
     1
 10
255.9430877954313
 20
420.5526581650704
 11
257.1823611551014
 21
419.5197056150079
 72
     2
 10
264.2285449999998
 20
429.2331650000002
 40
12.0
 50
234.0427125714997
 51
237.7290897572756
 73
     1
 72
     1
 10
257.8214674288927
 20
419.086768743308
 11
259.2437005261774
 21
418.3175190927803
 72
     2
 10
264.2285450000002
 20
429.233165
 40
12.00000000000004
 50
245.4552576468921
 51
249.1328924730381
 73
     1
 72
     1
 10
259.9541254323888
 20
418.0202555934266
 11
261.5068017894732
 21
417.5459021084607
 72
     2
 10
264.2285450000002
 20
429.233165
 40
11.99999999999995
 50
256.8905506776669
 51
260.5217630476251
 73
     1
 72
     1
 10
262.2524694036696
 20
417.39698634143
 11
263.8725755846678
 21
417.2384459213659
 72
     2
 10
264.2285449999992
 20
429.2331650000002
 40
12.00000000000017
 50
268.3001218725335
 51
270.0000000000041
 73
     1
 72
     1
 10
264.228545
 20
417.233165
 11
264.228545
 21
425.187165
 97
        0
 75
     0
 76
     0
 52
45.0
 41
12.5
 77
     0
 78
     1
 53
45.0
 43
0.0
 44
0.0
 45
-8.838834764831844
 46
8.838834764831844
 79
     0
 98
        1
 10
0.0
 20
0.0
1001
GENIUS_GENODEF_13
1002
{
1000
HIER
1070
     0
1002
}
1002
{
1000
MANEDIT
1070
     0
1002
}
1002
{
1000
NOSEL
1070
     0
1002
}
1002
{
1000
BEHIND
1070
     0
1002
}
1002
{
1000
OTHER
1070
     0
1002
}
1002
{
1000
REACTOR
1002
}
1001
GENIUS_GENOBJ-N-HTC_13
1002
{
1000
OWNER
1000
GEN
1002
}
1001
GENIUS_GENHATCH_13
1002
{
1000
DATA
1040
45.0
1042
2.5
1000
_U
1070
     0
1011
255.0989868763427
1021
438.4274146737346
1031
0.0
1002
}
1002
{
1000
UCS
1010
0.0
1020
0.0
1030
0.0
1010
1.0
1020
0.0
1030
0.0
1010
0.0
1020
1.0
1030
0.0
1002
}
  0
HATCH
  5
15EE
330
12A9
100
AcDbEntity
  8
AM_8
100
AcDbHatch
 10
0.0
 20
0.0
 30
0.0
210
0.0
220
0.0
230
1.0
  2
_U
 70
     0
 71
     0
 91
        1
 92
        1
 93
       79
 72
     1
 10
278.430545
 20
439.870165
 11
278.5826692692584
 21
440.0398420695575
 72
     2
 10
280.5955450000001
 20
438.5571650000001
 40
2.49999999999997
 50
216.375227636339
 51
227.3805114394298
 73
     0
 72
     1
 10
278.9027292343674
 20
440.3968320306405
 11
279.054545
 21
440.5661649999999
 72
     1
 10
279.054545
 20
440.5661649999999
 11
279.2577569479099
 21
440.6691127095053
 72
     2
 10
280.595545
 20
438.5571650000001
 40
2.499999999999999
 50
237.6482742568283
 51
248.6179378104028
 73
     0
 72
     1
 10
279.6840818069254
 20
440.8850900090307
 11
279.8875450000001
 21
440.988165
 72
     1
 10
279.8875450000001
 20
440.988165
 11
280.0613584173396
 21
440.9994272084669
 72
     2
 10
280.5955449999999
 20
438.5571650000001
 40
2.499999999999996
 50
257.6622174446655
 51
274.9232083050229
 73
     0
 72
     1
 10
280.8100962426905
 20
441.0479415384032
 11
280.813545
 21
441.048165
 72
     1
 10
280.813545
 20
441.048165
 11
295.335545
 21
439.777165
 72
     1
 10
295.335545
 20
439.777165
 11
297.229545
 21
439.459165
 72
     1
 10
297.229545
 20
439.459165
 11
297.6369621270838
 21
439.298612135498
 72
     2
 10
294.4645450000002
 20
429.815165
 40
9.999999999999968
 50
288.4961971125493
 51
294.52011296641
 73
     0
 72
     1
 10
298.61467147616
 20
438.9133214194004
 11
299.018545
 21
438.7541650000001
 72
     1
 10
299.018545
 20
438.7541650000001
 11
299.3839084041327
 21
438.5214767161103
 72
     2
 10
294.4645450000002
 20
429.815165
 40
9.999999999999955
 50
299.4679312558449
 51
305.5155861774009
 73
     0
 72
     1
 10
300.2737889815892
 20
437.9547401954491
 11
300.640545
 21
437.721165
 72
     1
 10
300.640545
 20
437.721165
 11
300.9555592520495
 21
437.4221837313881
 72
     2
 10
294.4645450000002
 20
429.8151649999998
 40
10.0
 50
310.4738873979751
 51
316.5345156069889
 73
     0
 72
     1
 10
301.7224341172658
 20
436.6943397732904
 11
302.035545
 21
436.397165
 72
     1
 10
302.035545
 20
436.397165
 11
303.124545
 21
434.815165
 72
     1
 10
303.124545
 20
434.815165
 11
308.519545
 21
425.470165
 72
     1
 10
308.519545
 20
425.470165
 11
309.462545
 21
423.638165
 72
     1
 10
309.462545
 20
423.638165
 11
309.7581301431854
 21
422.7761521235355
 72
     2
 10
294.6635450000005
 20
417.4701649999985
 40
15.99999999999999
 50
340.6326127908898
 51
341.5135935786414
 73
     0
 72
     1
 10
309.8379275584538
 20
422.5434394819982
 11
310.131545
 21
421.687165
 72
     1
 10
310.131545
 20
421.687165
 11
310.3066870868021
 21
420.8305378442124
 72
     2
 10
294.6635449999998
 20
417.4701650000006
 40
16.00000000000004
 50
347.8762821507213
 51
349.0133565002714
 73
     0
 72
     1
 10
310.3702911951402
 20
420.5194475322442
 11
310.544545
 21
419.6671649999999
 72
     1
 10
310.544545
 20
419.6671649999999
 11
310.662545
 21
417.6101649999999
 72
     1
 10
310.662545
 20
417.6101649999999
 11
312.228545
 21
184.2331650000001
 72
     1
 10
312.228545
 20
184.2331650000001
 11
318.228545
 21
184.2331650000001
 72
     1
 10
318.228545
 20
184.2331650000001
 11
318.228545
 21
194.2331650000001
 72
     1
 10
318.228545
 20
194.2331650000001
 11
316.978545
 21
214.2331650000001
 72
     1
 10
316.978545
 20
214.2331650000001
 11
315.672545
 21
417.8961649999999
 72
     1
 10
315.672545
 20
417.8961649999999
 11
315.5476405681547
 21
419.9538854477081
 72
     2
 10
295.672545
 20
417.7221649999998
 40
20.00000000000002
 50
6.406750889521486
 51
9.887487702496621
 73
     1
 72
     1
 10
315.3754819735387
 20
421.1564443446023
 11
315.1431674744552
 21
422.2932546356603
 72
     2
 10
295.6725450000001
 20
417.7221649999997
 40
19.99999999999998
 50
13.21198297916907
 51
17.2767711397924
 73
     1
 72
     1
 10
314.7701706556699
 20
423.6619204087603
 11
314.389579247775
 21
424.7700461686648
 72
     2
 10
295.6725450000001
 20
417.7221649999998
 40
19.99999999999998
 50
20.63381652021103
 51
24.06486342071426
 73
     1
 72
     1
 10
313.9342332763129
 20
425.8775767798414
 11
312.993545
 21
427.721165
 72
     1
 10
312.993545
 20
427.721165
 11
303.7485450000001
 21
443.733165
 72
     1
 10
303.7485450000001
 20
443.733165
 11
295.7505450000001
 21
443.733165
 72
     1
 10
295.7505450000001
 20
443.733165
 11
295.567545
 21
447.233165
 72
     1
 10
295.567545
 20
447.233165
 11
295.357545
 21
451.233165
 72
     1
 10
295.357545
 20
451.233165
 11
288.178545
 21
451.233165
 72
     1
 10
288.178545
 20
451.233165
 11
288.1015450000001
 21
450.359165
 72
     1
 10
288.1015450000001
 20
450.359165
 11
287.978545
 21
448.9531649999999
 72
     1
 10
287.978545
 20
448.9531649999999
 11
287.734545
 21
448.002165
 72
     1
 10
287.734545
 20
448.002165
 11
287.6050844541401
 21
447.840653542301
 72
     2
 10
285.4885449999999
 20
449.1711649999999
 40
2.500000000000019
 50
32.15453099234419
 51
45.27375457668572
 73
     0
 72
     1
 10
287.2478455606086
 20
447.3949720100796
 11
287.116545
 21
447.231165
 72
     1
 10
287.116545
 20
447.231165
 11
286.9317643955773
 21
447.1298130518466
 72
     2
 10
285.4885450000001
 20
449.171165
 40
2.500000000000019
 50
54.73999676203366
 51
67.77056830087118
 73
     0
 72
     1
 10
286.4343358454998
 20
446.856974066527
 11
286.250545
 21
446.756165
 72
     1
 10
286.250545
 20
446.756165
 11
285.270545
 21
446.681165
 72
     1
 10
285.270545
 20
446.681165
 11
269.228545
 21
448.084165
 72
     1
 10
269.228545
 20
448.084165
 11
269.228545
 21
432.997165
 72
     1
 10
269.228545
 20
432.997165
 11
268.228545
 21
432.997165
 72
     1
 10
268.228545
 20
432.997165
 11
268.228545
 21
427.497165
 72
     1
 10
268.228545
 20
427.497165
 11
264.228545
 21
425.187165
 72
     1
 10
264.228545
 20
425.187165
 11
264.228545
 21
417.233165
 72
     2
 10
264.2285450000007
 20
429.2331650000001
 40
12.00000000000011
 50
269.9999999999968
 51
271.9367577183669
 73
     1
 72
     1
 10
264.6341013442691
 20
417.2400201225451
 11
266.2551106524499
 21
417.405526535103
 72
     2
 10
264.2285450000002
 20
429.233165
 40
11.99999999999989
 50
279.7227336637957
 51
283.3345004301691
 73
     1
 72
     1
 10
266.9961732957158
 20
417.5566829263293
 11
268.5567334734626
 21
418.0409005044573
 72
     2
 10
264.2285449999994
 20
429.2331649999997
 40
11.99999999999995
 50
291.1421087810108
 51
294.7438150078122
 73
     1
 72
     1
 10
269.2512854290995
 20
418.3349046534177
 11
270.6835712888164
 21
419.1172055491772
 72
     2
 10
264.2285450000001
 20
429.233165
 40
11.99999999999996
 50
302.5420785184595
 51
306.1704644631023
 73
     1
 72
     1
 10
271.3108202874427
 20
419.545989108499
 11
272.5587088176069
 21
420.5955512802374
 72
     2
 10
264.2285450000003
 20
429.2331650000002
 40
11.99999999999989
 50
313.9619350978395
 51
317.5744826013078
 73
     1
 72
     1
 10
273.0864044998375
 20
421.1375905867086
 11
274.1014574512089
 21
422.4121973464509
 72
     2
 10
264.2285449999998
 20
429.233165
 40
12.00000000000011
 50
325.3602989712248
 51
328.9957933756183
 73
     1
 72
     1
 10
274.5140988149821
 20
423.0519529247589
 11
275.254912411185
 21
424.4982709448434
 72
     2
 10
264.2285449999999
 20
429.233165
 40
12.00000000000003
 50
336.760560351993
 51
340.1228956153711
 73
     1
 72
     1
 10
275.5136338270286
 20
425.1531196367626
 11
276.045545
 21
427.150165
 72
     1
 10
276.045545
 20
427.150165
 11
278.133545
 21
438.991165
 72
     1
 10
278.133545
 20
438.991165
 11
278.430545
 21
439.870165
 97
        0
 75
     0
 76
     0
 52
45.0
 41
12.5
 77
     0
 78
     1
 53
45.0
 43
0.0
 44
0.0
 45
-8.838834764831844
 46
8.838834764831844
 79
     0
 98
        1
 10
0.0
 20
0.0
1001
GENIUS_GENODEF_13
1002
{
1000
HIER
1070
     0
1002
}
1002
{
1000
MANEDIT
1070
     0
1002
}
1002
{
1000
NOSEL
1070
     0
1002
}
1002
{
1000
BEHIND
1070
     0
1002
}
1002
{
1000
OTHER
1070
     0
1002
}
1002
{
1000
REACTOR
1002
}
1001
GENIUS_GENOBJ-N-HTC_13
1002
{
1000
OWNER
1000
GEN
1002
}
1001
GENIUS_GENHATCH_13
1002
{
1000
DATA
1040
45.0
1042
2.5
1000
_U
1070
     0
1011
274.9577981865487
1021
441.8491769123604
1031
0.0
1002
}
1002
{
1000
UCS
1010
0.0
1020
0.0
1030
0.0
1010
1.0
1020
0.0
1030
0.0
1010
0.0
1020
1.0
1030
0.0
1002
}
  0
HATCH
  5
15F7
330
12A9
100
AcDbEntity
  8
AM_8
100
AcDbHatch
 10
0.0
 20
0.0
 30
0.0
210
0.0
220
0.0
230
1.0
  2
_U
 70
     0
 71
     0
 91
        1
 92
        1
 93
       26
 72
     1
 10
520.8665449999999
 20
449.102165
 11
519.228545
 21
446.2641650000001
 72
     1
 10
519.228545
 20
446.2641650000001
 11
519.228545
 21
432.997165
 72
     1
 10
519.228545
 20
432.997165
 11
518.2285450000001
 21
432.997165
 72
     1
 10
518.2285450000001
 20
432.997165
 11
518.2285450000001
 21
427.497165
 72
     1
 10
518.2285450000001
 20
427.497165
 11
514.2285450000001
 21
425.187165
 72
     1
 10
514.2285450000001
 20
425.187165
 11
514.2285450000001
 21
417.3351171232306
 72
     1
 10
514.2285450000001
 20
417.3351171232306
 11
515.8144202934328
 21
417.3384182791286
 72
     2
 10
514.2285449999998
 20
429.2331649999999
 40
11.99999999999993
 50
277.5942129898313
 51
285.4523451211663
 73
     1
 72
     1
 10
517.425786588039
 20
417.6669363048845
 11
520.304312639146
 21
418.8849744530925
 72
     2
 10
514.2285449999998
 20
429.2331649999998
 40
11.99999999999999
 50
300.4186155203488
 51
308.2880395823413
 73
     1
 72
     1
 10
521.6639273672459
 20
419.8142962222301
 11
523.8411228933249
 21
422.0499661133784
 72
     2
 10
514.2285450000001
 20
429.233165
 40
12.00000000000001
 50
323.2303109412249
 51
330.4198593798574
 73
     1
 72
     1
 10
524.6645379988231
 20
423.3094794809574
 11
526.0455450000001
 21
427.150165
 72
     1
 10
526.0455450000001
 20
427.150165
 11
528.646545
 21
441.900165
 72
     1
 10
528.646545
 20
441.900165
 11
529.419545
 21
443.309165
 72
     1
 10
529.419545
 20
443.309165
 11
530.890545
 21
443.956165
 72
     1
 10
530.890545
 20
443.956165
 11
536.379545
 21
444.436165
 72
     1
 10
536.379545
 20
444.436165
 11
552.069545
 21
449.233165
 72
     1
 10
552.069545
 20
449.233165
 11
569.2275449999999
 21
449.233165
 72
     1
 10
569.2275449999999
 20
449.233165
 11
567.0445449999999
 21
457.380165
 72
     1
 10
567.0445449999999
 20
457.380165
 11
566.6922813093067
 21
458.1471110353515
 72
     2
 10
564.6305449999999
 20
456.733165
 40
2.500000000000011
 50
34.44246706463477
 51
89.99999999999479
 73
     1
 72
     1
 10
564.6305450000002
 20
459.233165
 11
563.9012070874996
 21
459.1244128352085
 72
     1
 10
563.9012070874996
 20
459.1244128352085
 11
563.899545
 21
459.124165
 72
     1
 10
563.899545
 20
459.124165
 11
535.228545
 21
450.359165
 72
     1
 10
535.228545
 20
450.359165
 11
520.8665449999999
 21
449.102165
 97
        0
 75
     0
 76
     0
 52
45.0
 41
7.5
 77
     0
 78
     1
 53
45.0
 43
0.0
 44
0.0
 45
-5.303300858899106
 46
5.303300858899106
 79
     0
 98
        1
 10
0.0
 20
0.0
1001
GENIUS_GENOBJ-N-HTC_13
1002
{
1000
OWNER
1000
GEN
1002
}
1001
GENIUS_GENODEF_13
1002
{
1000
HIER
1070
     0
1002
}
1002
{
1000
MANEDIT
1070
     0
1002
}
1002
{
1000
NOSEL
1070
     0
1002
}
1002
{
1000
BEHIND
1070
     0
1002
}
1002
{
1000
OTHER
1070
     0
1002
}
1002
{
1000
REACTOR
1002
}
1001
GENIUS_GENHATCH_13
1002
{
1000
DATA
1040
45.0
1042
2.5
1000
_U
1070
     0
1011
523.5353551719717
1021
439.796119569185
1031
0.0
1002
}
1002
{
1000
UCS
1010
0.0
1020
0.0
1030
0.0
1010
1.0
1020
0.0
1030
0.0
1010
0.0
1020
1.0
1030
0.0
1002
}
  0
HATCH
  5
1600
330
12A9
100
AcDbEntity
  8
AM_8
100
AcDbHatch
 10
0.0
 20
0.0
 30
0.0
210
0.0
220
0.0
230
1.0
  2
_U
 70
     0
 71
     0
 91
        1
 92
        1
 93
       51
 72
     1
 10
514.2285450000001
 20
425.187165
 11
510.228545
 21
427.497165
 72
     1
 10
510.228545
 20
427.497165
 11
510.228545
 21
432.997165
 72
     1
 10
510.228545
 20
432.997165
 11
509.228545
 21
432.997165
 72
     1
 10
509.228545
 20
432.997165
 11
509.228545
 21
448.084165
 72
     1
 10
509.228545
 20
448.084165
 11
493.1855449999999
 21
446.680165
 72
     1
 10
493.1855449999999
 20
446.680165
 11
493.1828494573998
 21
446.6803672162491
 72
     2
 10
492.9685449999999
 20
449.171165
 40
2.49999999999999
 50
85.0824685170674
 51
103.4979752453547
 73
     0
 72
     1
 10
492.385017496289
 20
446.7402195764224
 11
491.852545
 21
446.780165
 72
     1
 10
491.852545
 20
446.780165
 11
490.806545
 21
447.658165
 72
     1
 10
490.806545
 20
447.658165
 11
490.6747519570693
 21
448.1769248498336
 72
     2
 10
492.968545
 20
449.1711650000001
 40
2.49999999999997
 50
156.5657731424479
 51
174.924925421092
 73
     0
 72
     1
 10
490.4783458927413
 20
448.9500125498479
 11
490.477545
 21
448.9531649999999
 72
     1
 10
490.477545
 20
448.9531649999999
 11
490.374545
 21
450.125165
 72
     1
 10
490.374545
 20
450.125165
 11
490.3228118306173
 21
450.7222519966253
 72
     1
 10
490.3228118306173
 20
450.7222519966253
 11
490.2781248319327
 21
451.233165
 72
     1
 10
490.2781248319327
 20
451.233165
 11
483.0996219230769
 21
451.233165
 72
     1
 10
483.0996219230769
 20
451.233165
 11
482.706545
 21
443.733165
 72
     1
 10
482.706545
 20
443.733165
 11
474.7075824660448
 21
443.733165
 72
     1
 10
474.7075824660448
 20
443.733165
 11
474.1442295882457
 21
442.7575234236875
 72
     1
 10
474.1442295882457
 20
442.7575234236875
 11
465.462545
 21
427.721165
 72
     1
 10
465.462545
 20
427.721165
 11
464.6208754822365
 21
426.0957804669596
 72
     2
 10
482.783545
 20
417.7221649999999
 40
20.00000000000002
 50
155.2486728198444
 51
174.2565436545021
 73
     1
 72
     1
 10
462.883945918565
 20
419.7236535455961
 11
462.784545
 21
417.8961649999999
 72
     1
 10
462.784545
 20
417.8961649999999
 11
461.478545
 21
214.2331650000001
 72
     1
 10
461.478545
 20
214.2331650000001
 11
460.228545
 21
194.2331650000001
 72
     1
 10
460.228545
 20
194.2331650000001
 11
460.228545
 21
184.2331650000001
 72
     1
 10
460.228545
 20
184.2331650000001
 11
466.2285449999999
 21
184.2331650000001
 72
     1
 10
466.2285449999999
 20
184.2331650000001
 11
467.7935449999999
 21
417.6101649999999
 72
     1
 10
467.7935449999999
 20
417.6101649999999
 11
468.356545
 21
421.678165
 72
     1
 10
468.356545
 20
421.678165
 11
469.936545
 21
425.470165
 72
     1
 10
469.936545
 20
425.470165
 11
475.331545
 21
434.815165
 72
     1
 10
475.331545
 20
434.815165
 11
475.3348466486954
 21
434.8195889686321
 72
     2
 10
483.9925449999999
 20
429.8151649999998
 40
10.0
 50
210.029273059553
 51
223.4393676698511
 73
     0
 72
     1
 10
476.7315209520761
 20
436.691030747342
 11
477.2525449999999
 21
437.389165
 72
     1
 10
477.2525449999999
 20
437.389165
 11
479.976545
 21
439.124165
 72
     1
 10
479.976545
 20
439.124165
 11
480.826158242039
 21
439.3006272923192
 72
     2
 10
483.9925449999999
 20
429.815165
 40
10.0
 50
251.5402324659989
 51
264.9930616755448
 73
     0
 72
     1
 10
483.1197812209451
 20
439.7770063652281
 11
483.1205449999999
 21
439.777165
 72
     1
 10
483.1205449999999
 20
439.777165
 11
497.642545
 21
441.047165
 72
     1
 10
497.642545
 20
441.047165
 11
498.905545
 21
440.980165
 72
     1
 10
498.905545
 20
440.980165
 11
499.930545
 21
440.193165
 72
     1
 10
499.930545
 20
440.193165
 11
500.322545
 21
438.991165
 72
     1
 10
500.322545
 20
438.991165
 11
502.410545
 21
427.150165
 72
     1
 10
502.410545
 20
427.150165
 11
503.8175956891496
 21
423.2655746616051
 72
     2
 10
514.2285450000001
 20
429.2331650000001
 40
12.00000000000002
 50
209.8214764566009
 51
217.0005225432262
 73
     1
 72
     1
 10
504.6449847431878
 20
422.0112973188493
 11
506.824612529309
 21
419.7895542514861
 72
     2
 10
514.2285450000001
 20
429.233165
 40
11.99999999999996
 50
231.9030216900047
 51
239.8330592202326
 73
     1
 72
     1
 10
508.1982908031576
 20
418.8583862398787
 11
511.0709063680265
 21
417.6560618100881
 72
     2
 10
514.2285450000001
 20
429.233165
 40
11.99999999999994
 50
254.7437441917548
 51
262.6443203022521
 73
     1
 72
     1
 10
512.692203413154
 20
417.3319190766301
 11
514.2285450000001
 21
417.3351171232306
 72
     1
 10
514.2285450000001
 20
417.3351171232306
 11
514.2285450000001
 21
425.187165
 97
        0
 75
     0
 76
     0
 52
45.0
 41
12.5
 77
     0
 78
     1
 53
45.0
 43
0.0
 44
0.0
 45
-8.838834764831844
 46
8.838834764831844
 79
     0
 98
        1
 10
0.0
 20
0.0
1001
GENIUS_GENOBJ-N-HTC_13
1002
{
1000
OWNER
1000
GEN
1002
}
1001
GENIUS_GENODEF_13
1002
{
1000
HIER
1070
     0
1002
}
1002
{
1000
MANEDIT
1070
     0
1002
}
1002
{
1000
NOSEL
1070
     0
1002
}
1002
{
1000
BEHIND
1070
     0
1002
}
1002
{
1000
OTHER
1070
     0
1002
}
1002
{
1000
REACTOR
1002
}
1001
GENIUS_GENHATCH_13
1002
{
1000
DATA
1040
45.0
1042
2.5
1000
_U
1070
     0
1011
505.0461148992744
1021
441.8491769123604
1031
0.0
1002
}
1002
{
1000
UCS
1010
0.0
1020
0.0
1030
0.0
1010
1.0
1020
0.0
1030
0.0
1010
0.0
1020
1.0
1030
0.0
1002
}
  0
CIRCLE
  5
1616
330
12A9
100
AcDbEntity
  8
0
100
AcDbCircle
 10
305.8158700176585
 20
245.7129385101469
 30
0.0
 40
6.0
  0
HATCH
  5
161F
330
12A9
100
AcDbEntity
  8
AM_8
100
AcDbHatch
 10
0.0
 20
0.0
 30
0.0
210
0.0
220
0.0
230
1.0
  2
_U
 70
     0
 71
     0
 91
        1
 92
        1
 93
        2
 72
     2
 10
305.8158700176585
 20
245.7129385101469
 40
6.000000000000006
 50
0.3844588116474633
 51
198.3722320019304
 73
     1
 72
     2
 10
305.8158700176585
 20
245.7129385101469
 40
6.000000000000009
 50
198.3722320019304
 51
360.3844588116475
 73
     1
 97
        0
 75
     0
 76
     0
 52
45.0
 41
4.6
 77
     1
 78
     2
 53
45.0
 43
0.0
 44
0.0
 45
-3.252691193458118
 46
3.252691193458119
 79
     0
 53
135.0
 43
0.0
 44
0.0
 45
-3.252691193458119
 46
-3.252691193458118
 79
     0
 98
        1
 10
0.0
 20
0.0
1001
GENIUS_GENOBJ-N-HTC_13
1002
{
1000
OWNER
1000
GEN
1002
}
1001
GENIUS_GENODEF_13
1002
{
1000
HIER
1070
     0
1002
}
1002
{
1000
MANEDIT
1070
     0
1002
}
1002
{
1000
NOSEL
1070
     0
1002
}
1002
{
1000
BEHIND
1070
     0
1002
}
1002
{
1000
OTHER
1070
     0
1002
}
1002
{
1000
REACTOR
1002
}
1001
GENIUS_GENHATCH_13
1002
{
1000
DATA
1040
45.0
1042
2.299999999999999
1000
_U
1070
     1
1011
304.7432096000998
1021
245.3566891736473
1031
0.0
1002
}
1002
{
1000
UCS
1010
0.0
1020
0.0
1030
0.0
1010
1.0
1020
0.0
1030
0.0
1010
0.0
1020
1.0
1030
0.0
1002
}
  0
CIRCLE
  5
1620
330
12A9
100
AcDbEntity
  8
0
100
AcDbCircle
 10
472.6412199823413
 20
245.7129385101468
 30
0.0
 40
5.999999999999998
  0
HATCH
  5
1621
330
12A9
100
AcDbEntity
  8
AM_8
100
AcDbHatch
 10
0.0
 20
0.0
 30
0.0
210
0.0
220
0.0
230
1.0
  2
_U
 70
     0
 71
     0
 91
        1
 92
        1
 93
        2
 72
     2
 10
472.6412199823413
 20
245.7129385101468
 40
6.000000000000004
 50
-179.6155411883525
 51
18.37223200193044
 73
     0
 72
     2
 10
472.6412199823413
 20
245.7129385101468
 40
6.000000000000007
 50
18.37223200193044
 51
180.3844588116475
 73
     0
 97
        0
 75
     0
 76
     0
 52
45.0
 41
4.6
 77
     1
 78
     2
 53
134.9999999999999
 43
778.4570899999997
 44
-0.000000000000199
 45
3.252691193458119
 46
3.252691193458117
 79
     0
 53
44.99999999999998
 43
778.4570899999997
 44
-0.000000000000199
 45
3.252691193458117
 46
-3.25269119345812
 79
     0
 98
        1
 10
778.4570899999997
 20
-0.000000000000199
1001
GENIUS_GENOBJ-N-HTC_13
1002
{
1000
OWNER
1000
GEN
1002
}
1001
GENIUS_GENODEF_13
1002
{
1000
HIER
1070
     0
1002
}
1002
{
1000
MANEDIT
1070
     0
1002
}
1002
{
1000
NOSEL
1070
     0
1002
}
1002
{
1000
BEHIND
1070
     0
1002
}
1002
{
1000
OTHER
1070
     0
1002
}
1002
{
1000
REACTOR
1002
}
1001
GENIUS_GENHATCH_13
1002
{
1000
DATA
1040
45.0
1042
-2.299999999999999
1000
_U
1070
     1
1011
473.7138803999001
1021
245.3566891736472
1031
0.0
1002
}
1002
{
1000
UCS
1010
0.0
1020
0.0
1030
0.0
1010
1.0
1020
0.0
1030
0.0
1010
0.0
1020
1.0
1030
0.0
1002
}
  0
LINE
  5
1633
330
12A9
100
AcDbEntity
  8
0
100
AcDbLine
 10
305.8158700176585
 20
251.7129385101469
 30
0.0
 11
311.7757440585324
 21
251.7129385101469
 31
0.0
  0
LINE
  5
1634
330
12A9
100
AcDbEntity
  8
0
100
AcDbLine
 10
305.8158700176585
 20
239.7129385101469
 30
0.0
 11
311.8562661322585
 21
239.7129385101469
 31
0.0
  0
LINE
  5
1635
330
12A9
100
AcDbEntity
  8
0
100
AcDbLine
 10
472.6412199823413
 20
251.7129385101468
 30
0.0
 11
466.6813459414675
 21
251.7129385101468
 31
0.0
  0
LINE
  5
1636
330
12A9
100
AcDbEntity
  8
0
100
AcDbLine
 10
472.6412199823413
 20
239.7129385101468
 30
0.0
 11
466.6008238677413
 21
239.7129385101468
 31
0.0
  0
DIMENSION
  5
166B
330
12A9
100
AcDbEntity
  8
AM_5
100
AcDbDimension
  2
*D10
 10
294.727545
 20
523.2331649999999
 30
0.0
 11
389.228045
 21
534.9831649999999
 31
0.0
 70
    32
  1
%%c<>
 71
     5
 42
189.001
  3
GEN-ISO$0
100
AcDbAlignedDimension
 13
483.728545
 23
463.233165
 33
0.0
 14
294.727545
 24
463.233165
 34
0.0
 50
0.0000000000000114
100
AcDbRotatedDimension
1001
ACAD
1000
DSTYLE
1002
{
1070
    78
1070
    12
1070
   271
1070
     0
1002
}
  0
ENDSEC
  0
SECTION
  2
OBJECTS
  0
DICTIONARY
  5
129D
330
0
100
AcDbDictionary
281
     1
  3
ACAD_2007HEADERVARS_RT
350
179F
  3
ACAD_COLOR
350
149E
  3
ACAD_GROUP
350
129E
  3
ACAD_LAYOUT
350
14A1
  3
ACAD_MATERIAL
350
149D
  3
ACAD_MLEADERSTYLE
350
1711
  3
ACAD_MLINESTYLE
350
12AC
  3
ACAD_PLOTSETTINGS
350
14A2
  3
ACAD_PLOTSTYLENAME
350
149B
  3
ACAD_SCALELIST
350
16FF
  3
ACAD_TABLESTYLE
350
149F
  3
ACAD_VISUALSTYLE
350
16EE
  3
ACDB_RECOMPOSE_DATA
350
179E
  3
AcDbVariableDictionary
350
168F
  3
AcmDictionary
350
14F5
  3
AcmSystemVariableManager
350
17AC
  3
AMG
350
14A6
  3
AMGSNAPSETTINGS
350
1571
  0
DICTIONARY
  5
15DC
330
1293
100
AcDbDictionary
280
     1
281
     1
  3
AMLAYER_GROUPCOLORS
360
15DD
  0
DICTIONARY
  5
15E1
330
12A9
100
AcDbDictionary
280
     1
281
     1
  3
ACAD_SORTENTS
360
15E2
  0
DICTIONARY
  5
17A6
330
146E
100
AcDbDictionary
280
     1
281
     1
  3
ACAD_MTEXT_2008_RT
360
17A7
  0
DICTIONARY
  5
17A4
330
1453
100
AcDbDictionary
280
     1
281
     1
  3
ACAD_MTEXT_2008_RT
360
17A5
  0
DICTIONARY
  5
179F
102
{ACAD_REACTORS
330
129D
102
}
330
129D
100
AcDbDictionary
281
     1
  3
DIMJOGANG
350
17A0
  3
DIMLTEX1
350
17A2
  3
DIMLTEX2
350
17A3
  3
DIMLTYPE
350
17A1
  0
DICTIONARY
  5
149E
102
{ACAD_REACTORS
330
129D
102
}
330
129D
100
AcDbDictionary
281
     1
  0
DICTIONARY
  5
129E
102
{ACAD_REACTORS
330
129D
102
}
330
129D
100
AcDbDictionary
281
     1
  0
DICTIONARY
  5
14A1
102
{ACAD_REACTORS
330
129D
102
}
330
129D
100
AcDbDictionary
281
     1
  3
Layout1
350
14A4
  3
Model
350
14A3
  0
DICTIONARY
  5
149D
102
{ACAD_REACTORS
330
129D
102
}
330
129D
100
AcDbDictionary
281
     1
  3
ByBlock
350
16DE
  3
ByLayer
350
16D6
  3
Global
350
16E6
  0
DICTIONARY
  5
1711
102
{ACAD_REACTORS
330
129D
102
}
330
129D
100
AcDbDictionary
281
     1
  3
Standard
350
1712
  0
DICTIONARY
  5
12AC
102
{ACAD_REACTORS
330
129D
102
}
330
129D
100
AcDbDictionary
281
     1
  3
STANDARD
350
12AD
  0
DICTIONARY
  5
14A2
102
{ACAD_REACTORS
330
129D
102
}
330
129D
100
AcDbDictionary
281
     1
  0
ACDBDICTIONARYWDFLT
  5
149B
102
{ACAD_REACTORS
330
129D
102
}
330
129D
100
AcDbDictionary
281
     1
  3
Normal
350
149C
100
AcDbDictionaryWithDefault
340
149C
  0
DICTIONARY
  5
16FF
102
{ACAD_REACTORS
330
129D
102
}
330
129D
100
AcDbDictionary
281
     1
  3
A0
350
1700
  3
A1
350
1701
  3
A2
350
1702
  3
A3
350
1703
  3
A4
350
1704
  3
A5
350
1705
  3
A6
350
1706
  3
A7
350
1707
  3
A8
350
1708
  3
A9
350
1709
  3
B0
350
170A
  3
B1
350
170B
  3
B2
350
170C
  3
B3
350
170D
  3
B4
350
170E
  3
B5
350
170F
  3
B6
350
1710
  0
DICTIONARY
  5
149F
102
{ACAD_REACTORS
330
129D
102
}
330
129D
100
AcDbDictionary
281
     1
  3
Standard
350
14A0
  0
DICTIONARY
  5
16EE
102
{ACAD_REACTORS
330
129D
102
}
330
129D
100
AcDbDictionary
281
     1
  3
2dWireframe
350
16F4
  3
3D Hidden
350
16F6
  3
3dWireframe
350
16F5
  3
Basic
350
16F3
  3
Brighten
350
16FA
  3
ColorChange
350
16FE
  3
Conceptual
350
16F7
  3
Dim
350
16F9
  3
Facepattern
350
16FD
  3
Flat
350
16EF
  3
FlatWithEdges
350
16F0
  3
Gouraud
350
16F1
  3
GouraudWithEdges
350
16F2
  3
Linepattern
350
16FC
  3
Realistic
350
16F8
  3
Thicken
350
16FB
  0
XRECORD
  5
179E
102
{ACAD_REACTORS
330
129D
102
}
330
129D
100
AcDbXrecord
280
     1
 90
        1
330
14A0
  0
DICTIONARY
  5
168F
102
{ACAD_REACTORS
330
129D
102
}
330
129D
100
AcDbDictionary
281
     1
  3
CANNOSCALE
350
179B
  3
CMLEADERSTYLE
350
179A
  3
CTABLESTYLE
350
1690
  3
DIMASSOC
350
16D3
  3
PROJECTNAME
350
16D4
  0
DICTIONARY
  5
14F5
102
{ACAD_REACTORS
330
129D
102
}
330
129D
100
AcDbDictionary
281
     1
  3
AcmStdDictionary
350
14F6
  3
AMDTSECTSYM_ARROWCOLOR
350
16A8
  0
DICTIONARY
  5
14A6
102
{ACAD_REACTORS
330
129D
102
}
330
129D
100
AcDbDictionary
281
     1
  0
DICTIONARY
  5
1571
102
{ACAD_REACTORS
330
129D
102
}
330
129D
100
AcDbDictionary
281
     1
  0
DICTIONARY
  5
15DD
102
{ACAD_REACTORS
330
15DC
102
}
330
15DC
100
AcDbDictionary
280
     1
281
     1
  0
SORTENTSTABLE
  5
15E2
102
{ACAD_REACTORS
330
15E1
102
}
330
15E1
100
AcDbSortentsTable
330
12A9
331
1030
  5
1030
331
106F
  5
106F
331
1038
  5
1038
331
1077
  5
1077
331
10DD
  5
10DD
331
109E
  5
109E
331
15B2
  5
15B2
331
10E5
  5
10E5
331
10A6
  5
10A6
331
10AE
  5
10AE
331
10ED
  5
10ED
331
10B6
  5
10B6
331
1001
  5
1001
331
1040
  5
1040
331
1009
  5
1009
331
1048
  5
1048
331
1050
  5
1050
331
1011
  5
1011
331
1019
  5
1019
331
1058
  5
1058
331
107F
  5
107F
331
10BE
  5
10BE
331
10F5
  5
10F5
331
1087
  5
1087
331
10C6
  5
10C6
331
10CE
  5
10CE
331
108F
  5
108F
331
10D6
  5
10D6
331
1097
  5
1097
331
1021
  5
1021
331
1060
  5
1060
331
1029
  5
1029
331
1068
  5
1068
331
1070
  5
1070
331
1031
  5
1031
331
1039
  5
1039
331
109F
  5
109F
331
10DE
  5
10DE
331
10A7
  5
10A7
331
10E6
  5
10E6
331
10EE
  5
10EE
331
1337
  5
1337
331
10AF
  5
10AF
331
10B7
  5
10B7
331
1041
  5
1041
331
1002
  5
1002
331
100A
  5
100A
331
1049
  5
1049
331
1012
  5
1012
331
1051
  5
1051
331
101A
  5
101A
331
1059
  5
1059
331
1078
  5
1078
331
10BF
  5
10BF
331
1080
  5
1080
331
10F6
  5
10F6
331
1088
  5
1088
331
10C7
  5
10C7
331
1090
  5
1090
331
10CF
  5
10CF
331
10D7
  5
10D7
331
1061
  5
1061
331
1022
  5
1022
331
102A
  5
102A
331
1069
  5
1069
331
1032
  5
1032
331
1071
  5
1071
331
103A
  5
103A
331
1098
  5
1098
331
10DF
  5
10DF
331
10A0
  5
10A0
331
10E7
  5
10E7
331
10A8
  5
10A8
331
10B0
  5
10B0
331
10EF
  5
10EF
331
1003
  5
1003
331
1042
  5
1042
331
100B
  5
100B
331
104A
  5
104A
331
1052
  5
1052
331
1013
  5
1013
331
101B
  5
101B
331
105A
  5
105A
331
1079
  5
1079
331
10B8
  5
10B8
331
10F7
  5
10F7
331
1081
  5
1081
331
10C0
  5
10C0
331
1089
  5
1089
331
10C8
  5
10C8
331
10D0
  5
10D0
331
1091
  5
1091
331
1023
  5
1023
331
1062
  5
1062
331
102B
  5
102B
331
106A
  5
106A
331
1072
  5
1072
331
1033
  5
1033
331
103B
  5
103B
331
1099
  5
1099
331
10D8
  5
10D8
331
10A1
  5
10A1
331
10E0
  5
10E0
331
10A9
  5
10A9
331
10E8
  5
10E8
331
1127
  5
1127
331
10B1
  5
10B1
331
1043
  5
1043
331
1004
  5
1004
331
100C
  5
100C
331
104B
  5
104B
331
1014
  5
1014
331
1053
  5
1053
331
101C
  5
101C
331
105B
  5
105B
331
10F0
  5
10F0
331
107A
  5
107A
331
10B9
  5
10B9
331
10C1
  5
10C1
331
1082
  5
1082
331
10F8
  5
10F8
331
108A
  5
108A
331
10C9
  5
10C9
331
1092
  5
1092
331
10D1
  5
10D1
331
1063
  5
1063
331
1024
  5
1024
331
102C
  5
102C
331
106B
  5
106B
331
1034
  5
1034
331
1073
  5
1073
331
103C
  5
103C
331
109A
  5
109A
331
10D9
  5
10D9
331
1244
  5
1244
331
10E1
  5
10E1
331
10A2
  5
10A2
331
1157
  5
1157
331
10AA
  5
10AA
331
10E9
  5
10E9
331
10B2
  5
10B2
331
1005
  5
1005
331
1044
  5
1044
331
104C
  5
104C
331
100D
  5
100D
331
1054
  5
1054
331
1015
  5
1015
331
101D
  5
101D
331
105C
  5
105C
331
107B
  5
107B
331
10BA
  5
10BA
331
10F1
  5
10F1
331
1083
  5
1083
331
10C2
  5
10C2
331
108B
  5
108B
331
10CA
  5
10CA
331
10D2
  5
10D2
331
1093
  5
1093
331
15EE
  5
15ED
331
1025
  5
1025
331
1064
  5
1064
331
102D
  5
102D
331
106C
  5
106C
331
1074
  5
1074
331
1035
  5
1035
331
103D
  5
103D
331
1111
  5
1111
331
109B
  5
109B
331
10DA
  5
10DA
331
10A3
  5
10A3
331
10E2
  5
10E2
331
10AB
  5
10AB
331
10EA
  5
10EA
331
10B3
  5
10B3
331
1616
  5
1616
331
1045
  5
1045
331
1006
  5
1006
331
100E
  5
100E
331
104D
  5
104D
331
1016
  5
1016
331
1055
  5
1055
331
105D
  5
105D
331
101E
  5
101E
331
10BB
  5
10BB
331
107C
  5
107C
331
10F2
  5
10F2
331
10C3
  5
10C3
331
1084
  5
1084
331
108C
  5
108C
331
10CB
  5
10CB
331
1141
  5
1141
331
1094
  5
1094
331
10D3
  5
10D3
331
1065
  5
1065
331
1026
  5
1026
331
102E
  5
102E
331
106D
  5
106D
331
1036
  5
1036
331
1075
  5
1075
331
103E
  5
103E
331
109C
  5
109C
331
10DB
  5
10DB
331
10E3
  5
10E3
331
10A4
  5
10A4
331
15F7
  5
15F6
331
10AC
  5
10AC
331
10EB
  5
10EB
331
10B4
  5
10B4
331
1007
  5
1007
331
1046
  5
1046
331
104E
  5
104E
331
100F
  5
100F
331
1056
  5
1056
331
1017
  5
1017
331
101F
  5
101F
331
105E
  5
105E
331
107D
  5
107D
331
10BC
  5
10BC
331
10F3
  5
10F3
331
161F
  5
161E
331
1085
  5
1085
331
10C4
  5
10C4
331
15E0
  5
15DE
331
10CC
  5
10CC
331
108D
  5
108D
331
10D4
  5
10D4
331
1095
  5
1095
331
1027
  5
1027
331
1066
  5
1066
331
106E
  5
106E
331
102F
  5
102F
331
1076
  5
1076
331
1037
  5
1037
331
103F
  5
103F
331
109D
  5
109D
331
10DC
  5
10DC
331
1600
  5
15FF
331
10A5
  5
10A5
331
10E4
  5
10E4
331
1162
  5
1162
331
124F
  5
124F
331
10AD
  5
10AD
331
10EC
  5
10EC
331
10B5
  5
10B5
331
1008
  5
1008
331
1047
  5
1047
331
1010
  5
1010
331
104F
  5
104F
331
1018
  5
1018
331
1057
  5
1057
331
105F
  5
105F
331
10BD
  5
10BD
331
107E
  5
107E
331
10F4
  5
10F4
331
10C5
  5
10C5
331
1086
  5
1086
331
108E
  5
108E
331
10CD
  5
10CD
331
1096
  5
1096
331
10D5
  5
10D5
331
1020
  5
1020
331
1067
  5
1067
331
1028
  5
1028
  0
XRECORD
  5
17A7
102
{ACAD_REACTORS
330
17A6
102
}
330
17A6
100
AcDbXrecord
280
     1
 40
3283.0
  1
\U+2205 360
  0
XRECORD
  5
17A5
102
{ACAD_REACTORS
330
17A4
102
}
330
17A4
100
AcDbXrecord
280
     1
 40
3214.0
  1
\U+2205 200
  0
XRECORD
  5
17A0
102
{ACAD_REACTORS
330
179F
102
}
330
179F
100
AcDbXrecord
280
     1
 40
1.570796326794896
  0
XRECORD
  5
17A2
102
{ACAD_REACTORS
330
179F
102
}
330
179F
100
AcDbXrecord
280
     1
340
12A3
  0
XRECORD
  5
17A3
102
{ACAD_REACTORS
330
179F
102
}
330
179F
100
AcDbXrecord
280
     1
340
12A3
  0
XRECORD
  5
17A1
102
{ACAD_REACTORS
330
179F
102
}
330
179F
100
AcDbXrecord
280
     1
340
12A3
  0
LAYOUT
  5
14A4
102
{ACAD_REACTORS
330
14A1
102
}
330
14A1
100
AcDbPlotSettings
  1

  2
\\RD-SR-210\PH-PR-011
  4

  6

 40
0.0
 41
0.0
 42
0.0
 43
0.0
 44
0.0
 45
0.0
 46
0.0
 47
0.0
 48
0.0
 49
0.0
140
0.0
141
0.0
142
1.0
143
1.0
 70
   688
 72
     0
 73
     0
 74
     5
  7

 75
    16
147
1.0
 76
     0
 77
     2
 78
   300
148
0.0
149
0.0
100
AcDbLayout
  1
Layout1
 70
     1
 71
     1
 10
0.0
 20
0.0
 11
209.9
 21
296.9
 12
0.0
 22
0.0
 32
0.0
 14
0.0
 24
0.0
 34
0.0
 15
209.9
 25
296.9
 35
0.0
146
0.0
 13
0.0
 23
0.0
 33
0.0
 16
1.0
 26
0.0
 36
0.0
 17
0.0
 27
1.0
 37
0.0
 76
     0
330
12A6
  0
LAYOUT
  5
14A3
102
{ACAD_REACTORS
330
14A1
102
}
330
14A1
100
AcDbPlotSettings
  1

  2
\\RD-SR-210\PH-PR-011
  4

  6

 40
0.0
 41
0.0
 42
0.0
 43
0.0
 44
0.0
 45
0.0
 46
0.0
 47
0.0
 48
0.0
 49
0.0
140
0.0
141
0.0
142
1.0
143
1.0
 70
  1712
 72
     0
 73
     0
 74
     0
  7

 75
     0
147
1.0
 76
     0
 77
     2
 78
   300
148
0.0
149
0.0
100
AcDbLayout
  1
Model
 70
     1
 71
     0
 10
0.0
 20
0.0
 11
12.0
 21
9.0
 12
0.0
 22
0.0
 32
0.0
 14
0.0
 24
0.0
 34
0.0
 15
0.0
 25
0.0
 35
0.0
146
0.0
 13
0.0
 23
0.0
 33
0.0
 16
1.0
 26
0.0
 36
0.0
 17
0.0
 27
1.0
 37
0.0
 76
     0
330
12A9
331
16CD
  0
MATERIAL
  5
16DE
102
{ACAD_XDICTIONARY
360
16DF
102
}
102
{ACAD_REACTORS
330
149D
102
}
330
149D
100
AcDbMaterial
  1
ByBlock
 72
     0
 43
0.0208333333333333
 43
0.0
 43
0.0
 43
0.0
 43
0.0
 43
0.0208333333333333
 43
0.0
 43
0.0
 43
0.0
 43
0.0
 43
1.0
 43
0.0
 43
0.0
 43
0.0
 43
0.0
 43
1.0
 77
     0
 47
0.0208333333333333
 47
0.0
 47
0.0
 47
0.0
 47
0.0
 47
0.0208333333333333
 47
0.0
 47
0.0
 47
0.0
 47
0.0
 47
1.0
 47
0.0
 47
0.0
 47
0.0
 47
0.0
 47
1.0
171
     0
 49
0.0208333333333333
 49
0.0
 49
0.0
 49
0.0
 49
0.0
 49
0.0208333333333333
 49
0.0
 49
0.0
 49
0.0
 49
0.0
 49
1.0
 49
0.0
 49
0.0
 49
0.0
 49
0.0
 49
1.0
175
     0
142
0.0208333333333333
142
0.0
142
0.0
142
0.0
142
0.0
142
0.0208333333333333
142
0.0
142
0.0
142
0.0
142
0.0
142
1.0
142
0.0
142
0.0
142
0.0
142
0.0
142
1.0
179
     0
144
0.0208333333333333
144
0.0
144
0.0
144
0.0
144
0.0
144
0.0208333333333333
144
0.0
144
0.0
144
0.0
144
0.0
144
1.0
144
0.0
144
0.0
144
0.0
144
0.0
144
1.0
147
0.0208333333333333
147
0.0
147
0.0
147
0.0
147
0.0
147
0.0208333333333333
147
0.0
147
0.0
147
0.0
147
0.0
147
1.0
147
0.0
147
0.0
147
0.0
147
0.0
147
1.0
  0
MATERIAL
  5
16D6
102
{ACAD_XDICTIONARY
360
16D7
102
}
102
{ACAD_REACTORS
330
149D
102
}
330
149D
100
AcDbMaterial
  1
ByLayer
 72
     0
 43
0.0208333333333333
 43
0.0
 43
0.0
 43
0.0
 43
0.0
 43
0.0208333333333333
 43
0.0
 43
0.0
 43
0.0
 43
0.0
 43
1.0
 43
0.0
 43
0.0
 43
0.0
 43
0.0
 43
1.0
 77
     0
 47
0.0208333333333333
 47
0.0
 47
0.0
 47
0.0
 47
0.0
 47
0.0208333333333333
 47
0.0
 47
0.0
 47
0.0
 47
0.0
 47
1.0
 47
0.0
 47
0.0
 47
0.0
 47
0.0
 47
1.0
171
     0
 49
0.0208333333333333
 49
0.0
 49
0.0
 49
0.0
 49
0.0
 49
0.0208333333333333
 49
0.0
 49
0.0
 49
0.0
 49
0.0
 49
1.0
 49
0.0
 49
0.0
 49
0.0
 49
0.0
 49
1.0
175
     0
142
0.0208333333333333
142
0.0
142
0.0
142
0.0
142
0.0
142
0.0208333333333333
142
0.0
142
0.0
142
0.0
142
0.0
142
1.0
142
0.0
142
0.0
142
0.0
142
0.0
142
1.0
179
     0
144
0.0208333333333333
144
0.0
144
0.0
144
0.0
144
0.0
144
0.0208333333333333
144
0.0
144
0.0
144
0.0
144
0.0
144
1.0
144
0.0
144
0.0
144
0.0
144
0.0
144
1.0
147
0.0208333333333333
147
0.0
147
0.0
147
0.0
147
0.0
147
0.0208333333333333
147
0.0
147
0.0
147
0.0
147
0.0
147
1.0
147
0.0
147
0.0
147
0.0
147
0.0
147
1.0
  0
MATERIAL
  5
16E6
102
{ACAD_XDICTIONARY
360
16E7
102
}
102
{ACAD_REACTORS
330
149D
102
}
330
149D
100
AcDbMaterial
  1
Global
 72
     0
 43
0.0208333333333333
 43
0.0
 43
0.0
 43
0.0
 43
0.0
 43
0.0208333333333333
 43
0.0
 43
0.0
 43
0.0
 43
0.0
 43
1.0
 43
0.0
 43
0.0
 43
0.0
 43
0.0
 43
1.0
 77
     0
 47
0.0208333333333333
 47
0.0
 47
0.0
 47
0.0
 47
0.0
 47
0.0208333333333333
 47
0.0
 47
0.0
 47
0.0
 47
0.0
 47
1.0
 47
0.0
 47
0.0
 47
0.0
 47
0.0
 47
1.0
171
     0
 49
0.0208333333333333
 49
0.0
 49
0.0
 49
0.0
 49
0.0
 49
0.0208333333333333
 49
0.0
 49
0.0
 49
0.0
 49
0.0
 49
1.0
 49
0.0
 49
0.0
 49
0.0
 49
0.0
 49
1.0
175
     0
142
0.0208333333333333
142
0.0
142
0.0
142
0.0
142
0.0
142
0.0208333333333333
142
0.0
142
0.0
142
0.0
142
0.0
142
1.0
142
0.0
142
0.0
142
0.0
142
0.0
142
1.0
179
     0
144
0.0208333333333333
144
0.0
144
0.0
144
0.0
144
0.0
144
0.0208333333333333
144
0.0
144
0.0
144
0.0
144
0.0
144
1.0
144
0.0
144
0.0
144
0.0
144
0.0
144
1.0
147
0.0208333333333333
147
0.0
147
0.0
147
0.0
147
0.0
147
0.0208333333333333
147
0.0
147
0.0
147
0.0
147
0.0
147
1.0
147
0.0
147
0.0
147
0.0
147
0.0
147
1.0
  0
MLEADERSTYLE
  5
1712
102
{ACAD_REACTORS
330
1711
102
}
330
1711
100
AcDbMLeaderStyle
170
     2
171
     1
172
     0
 90
        2
 40
0.0
 41
0.0
173
     1
 91
-1056964608
340
12A3
 92
       -2
290
     1
 42
2.0
291
     1
 43
0.36
  3
Standard
 44
4.0
300

342
12A0
174
     1
178
     6
175
     1
176
     0
 93
-1056964608
 45
4.0
292
     0
297
     0
 46
4.0
 94
-1056964608
 47
1.0
 49
1.0
140
1.0
293
     1
141
0.0
294
     1
177
     0
142
1.0
295
     0
296
     0
143
0.125
1001
ACAD_MLEADERVER
1070
     2
  0
MLINESTYLE
  5
12AD
102
{ACAD_REACTORS
330
12AC
102
}
330
12AC
100
AcDbMlineStyle
  2
STANDARD
 70
     0
  3

 62
   256
 51
90.0
 52
90.0
 71
     2
 49
0.5
 62
   256
  6
BYLAYER
 49
-0.5
 62
   256
  6
BYLAYER
  0
ACDBPLACEHOLDER
  5
149C
102
{ACAD_REACTORS
330
149B
102
}
330
149B
  0
SCALE
  5
1700
102
{ACAD_REACTORS
330
16FF
102
}
330
16FF
100
AcDbScale
 70
     0
300
1:1
140
1.0
141
1.0
290
     1
  0
SCALE
  5
1701
102
{ACAD_REACTORS
330
16FF
102
}
330
16FF
100
AcDbScale
 70
     0
300
1:2
140
1.0
141
2.0
290
     0
  0
SCALE
  5
1702
102
{ACAD_REACTORS
330
16FF
102
}
330
16FF
100
AcDbScale
 70
     0
300
1:4
140
1.0
141
4.0
290
     0
  0
SCALE
  5
1703
102
{ACAD_REACTORS
330
16FF
102
}
330
16FF
100
AcDbScale
 70
     0
300
1:5
140
1.0
141
5.0
290
     0
  0
SCALE
  5
1704
102
{ACAD_REACTORS
330
16FF
102
}
330
16FF
100
AcDbScale
 70
     0
300
1:8
140
1.0
141
8.0
290
     0
  0
SCALE
  5
1705
102
{ACAD_REACTORS
330
16FF
102
}
330
16FF
100
AcDbScale
 70
     0
300
1:10
140
1.0
141
10.0
290
     0
  0
SCALE
  5
1706
102
{ACAD_REACTORS
330
16FF
102
}
330
16FF
100
AcDbScale
 70
     0
300
1:16
140
1.0
141
16.0
290
     0
  0
SCALE
  5
1707
102
{ACAD_REACTORS
330
16FF
102
}
330
16FF
100
AcDbScale
 70
     0
300
1:20
140
1.0
141
20.0
290
     0
  0
SCALE
  5
1708
102
{ACAD_REACTORS
330
16FF
102
}
330
16FF
100
AcDbScale
 70
     0
300
1:30
140
1.0
141
30.0
290
     0
  0
SCALE
  5
1709
102
{ACAD_REACTORS
330
16FF
102
}
330
16FF
100
AcDbScale
 70
     0
300
1:40
140
1.0
141
40.0
290
     0
  0
SCALE
  5
170A
102
{ACAD_REACTORS
330
16FF
102
}
330
16FF
100
AcDbScale
 70
     0
300
1:50
140
1.0
141
50.0
290
     0
  0
SCALE
  5
170B
102
{ACAD_REACTORS
330
16FF
102
}
330
16FF
100
AcDbScale
 70
     0
300
1:100
140
1.0
141
100.0
290
     0
  0
SCALE
  5
170C
102
{ACAD_REACTORS
330
16FF
102
}
330
16FF
100
AcDbScale
 70
     0
300
2:1
140
2.0
141
1.0
290
     0
  0
SCALE
  5
170D
102
{ACAD_REACTORS
330
16FF
102
}
330
16FF
100
AcDbScale
 70
     0
300
4:1
140
4.0
141
1.0
290
     0
  0
SCALE
  5
170E
102
{ACAD_REACTORS
330
16FF
102
}
330
16FF
100
AcDbScale
 70
     0
300
8:1
140
8.0
141
1.0
290
     0
  0
SCALE
  5
170F
102
{ACAD_REACTORS
330
16FF
102
}
330
16FF
100
AcDbScale
 70
     0
300
10:1
140
10.0
141
1.0
290
     0
  0
SCALE
  5
1710
102
{ACAD_REACTORS
330
16FF
102
}
330
16FF
100
AcDbScale
 70
     0
300
100:1
140
100.0
141
1.0
290
     0
  0
TABLESTYLE
  5
14A0
102
{ACAD_XDICTIONARY
360
179C
102
}
102
{ACAD_REACTORS
330
149F
102
}
330
149F
100
AcDbTableStyle
  3
Standard
 70
     0
 71
     0
 40
1.5
 41
1.5
280
     0
281
     0
  7
STANDARD
140
4.5
170
     2
 62
     0
 63
     7
283
     0
274
    -2
284
     1
 64
     0
275
    -2
285
     1
 65
     0
276
    -2
286
     1
 66
     0
277
    -2
287
     1
 67
     0
278
    -2
288
     1
 68
     0
279
    -2
289
     1
 69
     0
  7
STANDARD
140
6.0
170
     5
 62
     0
 63
     7
283
     0
274
    -2
284
     1
 64
     0
275
    -2
285
     1
 65
     0
276
    -2
286
     1
 66
     0
277
    -2
287
     1
 67
     0
278
    -2
288
     1
 68
     0
279
    -2
289
     1
 69
     0
  7
STANDARD
140
4.5
170
     5
 62
     0
 63
     7
283
     0
274
    -2
284
     1
 64
     0
275
    -2
285
     1
 65
     0
276
    -2
286
     1
 66
     0
277
    -2
287
     1
 67
     0
278
    -2
288
     1
 68
     0
279
    -2
289
     1
 69
     0
  0
VISUALSTYLE
  5
16F4
102
{ACAD_REACTORS
330
16EE
102
}
330
16EE
100
AcDbVisualStyle
  2
2dWireframe
 70
     4
 71
     0
 72
     2
 73
     0
 90
        0
 40
-0.6
 41
-30.0
 62
     5
 63
     7
421
 16777215
 74
     1
 91
        4
 64
     7
 65
   257
 75
     1
175
     1
 42
1.0
 92
        0
 66
   257
 43
1.0
 76
     1
 77
     6
 78
     2
 67
     7
 79
     5
170
     0
171
     0
290
     0
174
     0
 93
        1
 44
0.0
173
     0
291
     0
 45
0.0
1001
ACAD
1000
AcDbSavedByObjectVersion
1070
     0
  0
VISUALSTYLE
  5
16F6
102
{ACAD_REACTORS
330
16EE
102
}
330
16EE
100
AcDbVisualStyle
  2
3D Hidden
 70
     6
 71
     1
 72
     2
 73
     2
 90
        0
 40
-0.6
 41
-30.0
 62
     5
 63
     7
421
 16777215
 74
     2
 91
        2
 64
     7
 65
   257
 75
     2
175
     1
 42
40.0
 92
        0
 66
   257
 43
1.0
 76
     1
 77
     6
 78
     2
 67
     7
 79
     3
170
     0
171
     0
290
     0
174
     0
 93
        1
 44
0.0
173
     0
291
     0
 45
0.0
1001
ACAD
1000
AcDbSavedByObjectVersion
1070
     0
  0
VISUALSTYLE
  5
16F5
102
{ACAD_REACTORS
330
16EE
102
}
330
16EE
100
AcDbVisualStyle
  2
3dWireframe
 70
     5
 71
     0
 72
     2
 73
     0
 90
        0
 40
-0.6
 41
-30.0
 62
     5
 63
     7
421
 16777215
 74
     1
 91
        4
 64
     7
 65
   257
 75
     1
175
     1
 42
1.0
 92
        0
 66
   257
 43
1.0
 76
     1
 77
     6
 78
     2
 67
     7
 79
     5
170
     0
171
     0
290
     0
174
     0
 93
        1
 44
0.0
173
     0
291
     0
 45
0.0
1001
ACAD
1000
AcDbSavedByObjectVersion
1070
     0
  0
VISUALSTYLE
  5
16F3
102
{ACAD_REACTORS
330
16EE
102
}
330
16EE
100
AcDbVisualStyle
  2
Basic
 70
     7
 71
     1
 72
     0
 73
     1
 90
        0
 40
-0.6
 41
-30.0
 62
     5
 63
     7
421
 16777215
 74
     0
 91
        4
 64
     7
 65
   257
 75
     1
175
     1
 42
1.0
 92
        8
 66
     7
 43
1.0
 76
     1
 77
     6
 78
     2
 67
     7
 79
     5
170
     0
171
     0
290
     0
174
     0
 93
        1
 44
0.0
173
     0
291
     1
 45
0.0
1001
ACAD
1000
AcDbSavedByObjectVersion
1070
     0
  0
VISUALSTYLE
  5
16FA
102
{ACAD_REACTORS
330
16EE
102
}
330
16EE
100
AcDbVisualStyle
  2
Brighten
 70
    12
 71
     2
 72
     2
 73
     0
 90
        0
 40
-0.6
 41
-30.0
 62
     5
 63
     7
421
 16777215
 74
     1
 91
        4
 64
     7
 65
   257
 75
     1
175
     1
 42
1.0
 92
        8
 66
     7
 43
1.0
 76
     1
 77
     6
 78
     2
 67
     7
 79
     5
170
     0
171
     0
290
     0
174
     0
 93
        1
 44
50.0
173
     0
291
     1
 45
0.0
1001
ACAD
1000
AcDbSavedByObjectVersion
1070
     0
  0
VISUALSTYLE
  5
16FE
102
{ACAD_REACTORS
330
16EE
102
}
330
16EE
100
AcDbVisualStyle
  2
ColorChange
 70
    16
 71
     2
 72
     2
 73
     3
 90
        0
 40
-0.6
 41
-30.0
 62
     5
 63
     8
421
  8421504
 74
     1
 91
        4
 64
     7
 65
   257
 75
     1
175
     1
 42
1.0
 92
        8
 66
     8
424
  8421504
 43
1.0
 76
     1
 77
     6
 78
     2
 67
     7
 79
     5
170
     0
171
     0
290
     0
174
     0
 93
        1
 44
0.0
173
     0
291
     1
 45
0.0
1001
ACAD
1000
AcDbSavedByObjectVersion
1070
     0
  0
VISUALSTYLE
  5
16F7
102
{ACAD_REACTORS
330
16EE
102
}
330
16EE
100
AcDbVisualStyle
  2
Conceptual
 70
     9
 71
     3
 72
     2
 73
     0
 90
        0
 40
-0.6
 41
-30.0
 62
     5
 63
     7
421
 16777215
 74
     2
 91
        2
 64
     7
 65
   257
 75
     1
175
     1
 42
40.0
 92
        8
 66
     7
 43
1.0
 76
     1
 77
     6
 78
     2
 67
     7
 79
     3
170
     0
171
     0
290
     0
174
     0
 93
        1
 44
0.0
173
     0
291
     0
 45
0.0
1001
ACAD
1000
AcDbSavedByObjectVersion
1070
     0
  0
VISUALSTYLE
  5
16F9
102
{ACAD_REACTORS
330
16EE
102
}
330
16EE
100
AcDbVisualStyle
  2
Dim
 70
    11
 71
     2
 72
     2
 73
     0
 90
        0
 40
-0.6
 41
-30.0
 62
     5
 63
     7
421
 16777215
 74
     1
 91
        4
 64
     7
 65
   257
 75
     1
175
     1
 42
1.0
 92
        8
 66
     7
 43
1.0
 76
     1
 77
     6
 78
     2
 67
     7
 79
     5
170
     0
171
     0
290
     0
174
     0
 93
        1
 44
-50.0
173
     0
291
     1
 45
0.0
1001
ACAD
1000
AcDbSavedByObjectVersion
1070
     0
  0
VISUALSTYLE
  5
16FD
102
{ACAD_REACTORS
330
16EE
102
}
330
16EE
100
AcDbVisualStyle
  2
Facepattern
 70
    15
 71
     2
 72
     2
 73
     0
 90
        0
 40
-0.6
 41
-30.0
 62
     5
 63
     7
421
 16777215
 74
     1
 91
        4
 64
     7
 65
   257
 75
     1
175
     1
 42
1.0
 92
        8
 66
     7
 43
1.0
 76
     1
 77
     6
 78
     2
 67
     7
 79
     5
170
     0
171
     0
290
     0
174
     0
 93
        1
 44
0.0
173
     0
291
     1
 45
0.0
1001
ACAD
1000
AcDbSavedByObjectVersion
1070
     0
  0
VISUALSTYLE
  5
16EF
102
{ACAD_REACTORS
330
16EE
102
}
330
16EE
100
AcDbVisualStyle
  2
Flat
 70
     0
 71
     2
 72
     1
 73
     1
 90
        2
 40
-0.6
 41
30.0
 62
     5
 63
     7
421
 16777215
 74
     0
 91
        4
 64
     7
 65
   257
 75
     1
175
     1
 42
1.0
 92
        8
 66
     7
 43
1.0
 76
     1
 77
     6
 78
     2
 67
     7
 79
     5
170
     0
171
     0
290
     0
174
     0
 93
       13
 44
0.0
173
     0
291
     1
 45
0.0
1001
ACAD
1000
AcDbSavedByObjectVersion
1070
     0
  0
VISUALSTYLE
  5
16F0
102
{ACAD_REACTORS
330
16EE
102
}
330
16EE
100
AcDbVisualStyle
  2
FlatWithEdges
 70
     1
 71
     2
 72
     1
 73
     1
 90
        2
 40
-0.6
 41
30.0
 62
     5
 63
     7
421
 16777215
 74
     1
 91
        4
 64
     7
 65
   257
 75
     1
175
     1
 42
1.0
 92
        0
 66
   257
 43
1.0
 76
     1
 77
     6
 78
     2
 67
     7
 79
     5
170
     0
171
     0
290
     0
174
     0
 93
       13
 44
0.0
173
     0
291
     1
 45
0.0
1001
ACAD
1000
AcDbSavedByObjectVersion
1070
     0
  0
VISUALSTYLE
  5
16F1
102
{ACAD_REACTORS
330
16EE
102
}
330
16EE
100
AcDbVisualStyle
  2
Gouraud
 70
     2
 71
     2
 72
     2
 73
     1
 90
        2
 40
-0.6
 41
30.0
 62
     5
 63
     7
421
 16777215
 74
     0
 91
        4
 64
     7
 65
   257
 75
     1
175
     1
 42
1.0
 92
        0
 66
     7
 43
1.0
 76
     1
 77
     6
 78
     2
 67
     7
 79
     5
170
     0
171
     0
290
     0
174
     0
 93
       13
 44
0.0
173
     0
291
     1
 45
0.0
1001
ACAD
1000
AcDbSavedByObjectVersion
1070
     0
  0
VISUALSTYLE
  5
16F2
102
{ACAD_REACTORS
330
16EE
102
}
330
16EE
100
AcDbVisualStyle
  2
GouraudWithEdges
 70
     3
 71
     2
 72
     2
 73
     1
 90
        2
 40
-0.6
 41
30.0
 62
     5
 63
     7
421
 16777215
 74
     1
 91
        4
 64
     7
 65
   257
 75
     1
175
     1
 42
1.0
 92
        0
 66
   257
 43
1.0
 76
     1
 77
     6
 78
     2
 67
     7
 79
     5
170
     0
171
     0
290
     0
174
     0
 93
       13
 44
0.0
173
     0
291
     1
 45
0.0
1001
ACAD
1000
AcDbSavedByObjectVersion
1070
     0
  0
VISUALSTYLE
  5
16FC
102
{ACAD_REACTORS
330
16EE
102
}
330
16EE
100
AcDbVisualStyle
  2
Linepattern
 70
    14
 71
     2
 72
     2
 73
     0
 90
        0
 40
-0.6
 41
-30.0
 62
     5
 63
     7
421
 16777215
 74
     1
 91
        4
 64
     7
 65
   257
 75
     7
175
     7
 42
1.0
 92
        8
 66
     7
 43
1.0
 76
     1
 77
     6
 78
     2
 67
     7
 79
     5
170
     0
171
     0
290
     0
174
     0
 93
        1
 44
0.0
173
     0
291
     1
 45
0.0
1001
ACAD
1000
AcDbSavedByObjectVersion
1070
     0
  0
VISUALSTYLE
  5
16F8
102
{ACAD_REACTORS
330
16EE
102
}
330
16EE
100
AcDbVisualStyle
  2
Realistic
 70
     8
 71
     2
 72
     2
 73
     0
 90
        0
 40
-0.6
 41
-30.0
 62
     5
 63
     7
421
 16777215
 74
     1
 91
        0
 64
     7
 65
   257
 75
     1
175
     1
 42
1.0
 92
        8
 66
     8
424
  7895160
 43
1.0
 76
     1
 77
     6
 78
     2
 67
     7
 79
     5
170
     0
171
     0
290
     0
174
     0
 93
       13
 44
0.0
173
     0
291
     0
 45
0.0
1001
ACAD
1000
AcDbSavedByObjectVersion
1070
     0
  0
VISUALSTYLE
  5
16FB
102
{ACAD_REACTORS
330
16EE
102
}
330
16EE
100
AcDbVisualStyle
  2
Thicken
 70
    13
 71
     2
 72
     2
 73
     0
 90
        0
 40
-0.6
 41
-30.0
 62
     5
 63
     7
421
 16777215
 74
     1
 91
        4
 64
     7
 65
   257
 75
     1
175
     1
 42
1.0
 92
       12
 66
     7
 43
1.0
 76
     1
 77
     6
 78
     2
 67
     7
 79
     5
170
     0
171
     0
290
     0
174
     0
 93
        1
 44
0.0
173
     0
291
     1
 45
0.0
1001
ACAD
1000
AcDbSavedByObjectVersion
1070
     0
  0
DICTIONARYVAR
  5
179B
102
{ACAD_REACTORS
330
168F
102
}
330
168F
100
DictionaryVariables
280
     0
  1
1:1
  0
DICTIONARYVAR
  5
179A
102
{ACAD_REACTORS
330
168F
102
}
330
168F
100
DictionaryVariables
280
     0
  1
STANDARD
  0
DICTIONARYVAR
  5
1690
102
{ACAD_REACTORS
330
168F
102
}
330
168F
100
DictionaryVariables
280
     0
  1
STANDARD
  0
DICTIONARYVAR
  5
16D3
102
{ACAD_REACTORS
330
168F
102
}
330
168F
100
DictionaryVariables
280
     0
  1
1
  0
DICTIONARYVAR
  5
16D4
102
{ACAD_REACTORS
330
168F
102
}
330
168F
100
DictionaryVariables
280
     0
  1

  0
DICTIONARY
  5
14F6
102
{ACAD_REACTORS
330
14F5
102
}
330
14F5
100
AcDbDictionary
281
     1
  0
XRECORD
  5
16A8
102
{ACAD_REACTORS
330
14F5
102
}
330
14F5
100
AcDbXrecord
280
     1
 90
-1023410169
  0
DICTIONARY
  5
16DF
330
16DE
100
AcDbDictionary
280
     1
281
     1
  3
ACAD_XREC_ROUNDTRIP
360
17AF
  3
BUMPTILE
360
16E1
  3
DIFFUSETILE
360
16E0
  3
OPACITYTILE
360
16E4
  3
REFLECTIONTILE
360
16E3
  3
REFRACTIONTILE
360
16E5
  3
SPECULARTILE
360
16E2
  0
DICTIONARY
  5
16D7
330
16D6
100
AcDbDictionary
280
     1
281
     1
  3
ACAD_XREC_ROUNDTRIP
360
17AE
  3
BUMPTILE
360
16D9
  3
DIFFUSETILE
360
16D8
  3
OPACITYTILE
360
16DC
  3
REFLECTIONTILE
360
16DB
  3
REFRACTIONTILE
360
16DD
  3
SPECULARTILE
360
16DA
  0
DICTIONARY
  5
16E7
330
16E6
100
AcDbDictionary
280
     1
281
     1
  3
ACAD_XREC_ROUNDTRIP
360
17B0
  3
BUMPTILE
360
16E9
  3
DIFFUSETILE
360
16E8
  3
OPACITYTILE
360
16EC
  3
REFLECTIONTILE
360
16EB
  3
REFRACTIONTILE
360
16ED
  3
SPECULARTILE
360
16EA
  0
DICTIONARY
  5
179C
330
14A0
100
AcDbDictionary
280
     1
281
     1
  3
ACAD_ROUNDTRIP_2008_TABLESTYLE_CELLSTYLEMAP
360
179D
  3
ACAD_XREC_ROUNDTRIP
360
17A8
  0
XRECORD
  5
17AF
102
{ACAD_REACTORS
330
16DF
102
}
330
16DF
100
AcDbXrecord
280
     1
102
MATERIAL
148
0.0
149
0.0
149
0.0
 93
        0
 94
      127
282
     0
 72
     0
 77
     0
171
     0
175
     0
179
     0
273
     0
  0
XRECORD
  5
16E1
102
{ACAD_REACTORS
330
16DF
102
}
330
16DF
100
AcDbXrecord
280
     1
270
     1
271
     1
  0
XRECORD
  5
16E0
102
{ACAD_REACTORS
330
16DF
102
}
330
16DF
100
AcDbXrecord
280
     1
270
     1
271
     1
  0
XRECORD
  5
16E4
102
{ACAD_REACTORS
330
16DF
102
}
330
16DF
100
AcDbXrecord
280
     1
270
     1
271
     1
  0
XRECORD
  5
16E3
102
{ACAD_REACTORS
330
16DF
102
}
330
16DF
100
AcDbXrecord
280
     1
270
     1
271
     1
  0
XRECORD
  5
16E5
102
{ACAD_REACTORS
330
16DF
102
}
330
16DF
100
AcDbXrecord
280
     1
270
     1
271
     1
  0
XRECORD
  5
16E2
102
{ACAD_REACTORS
330
16DF
102
}
330
16DF
100
AcDbXrecord
280
     1
270
     1
271
     1
  0
XRECORD
  5
17AE
102
{ACAD_REACTORS
330
16D7
102
}
330
16D7
100
AcDbXrecord
280
     1
102
MATERIAL
148
0.0
149
0.0
149
0.0
 93
        0
 94
      127
282
     0
 72
     0
 77
     0
171
     0
175
     0
179
     0
273
     0
  0
XRECORD
  5
16D9
102
{ACAD_REACTORS
330
16D7
102
}
330
16D7
100
AcDbXrecord
280
     1
270
     1
271
     1
  0
XRECORD
  5
16D8
102
{ACAD_REACTORS
330
16D7
102
}
330
16D7
100
AcDbXrecord
280
     1
270
     1
271
     1
  0
XRECORD
  5
16DC
102
{ACAD_REACTORS
330
16D7
102
}
330
16D7
100
AcDbXrecord
280
     1
270
     1
271
     1
  0
XRECORD
  5
16DB
102
{ACAD_REACTORS
330
16D7
102
}
330
16D7
100
AcDbXrecord
280
     1
270
     1
271
     1
  0
XRECORD
  5
16DD
102
{ACAD_REACTORS
330
16D7
102
}
330
16D7
100
AcDbXrecord
280
     1
270
     1
271
     1
  0
XRECORD
  5
16DA
102
{ACAD_REACTORS
330
16D7
102
}
330
16D7
100
AcDbXrecord
280
     1
270
     1
271
     1
  0
XRECORD
  5
17B0
102
{ACAD_REACTORS
330
16E7
102
}
330
16E7
100
AcDbXrecord
280
     1
102
MATERIAL
148
0.0
149
0.0
149
0.0
 93
        0
 94
      127
282
     0
 72
     0
 77
     0
171
     0
175
     0
179
     0
273
     0
  0
XRECORD
  5
16E9
102
{ACAD_REACTORS
330
16E7
102
}
330
16E7
100
AcDbXrecord
280
     1
270
     1
271
     1
  0
XRECORD
  5
16E8
102
{ACAD_REACTORS
330
16E7
102
}
330
16E7
100
AcDbXrecord
280
     1
270
     1
271
     1
  0
XRECORD
  5
16EC
102
{ACAD_REACTORS
330
16E7
102
}
330
16E7
100
AcDbXrecord
280
     1
270
     1
271
     1
  0
XRECORD
  5
16EB
102
{ACAD_REACTORS
330
16E7
102
}
330
16E7
100
AcDbXrecord
280
     1
270
     1
271
     1
  0
XRECORD
  5
16ED
102
{ACAD_REACTORS
330
16E7
102
}
330
16E7
100
AcDbXrecord
280
     1
270
     1
271
     1
  0
XRECORD
  5
16EA
102
{ACAD_REACTORS
330
16E7
102
}
330
16E7
100
AcDbXrecord
280
     1
270
     1
271
     1
  0
CELLSTYLEMAP
  5
179D
102
{ACAD_REACTORS
330
179C
102
}
330
179C
100
AcDbCellStyleMap
 90
        3
300
CELLSTYLE
  1
TABLEFORMAT_BEGIN
 90
        5
170
     1
 91
        0
 92
    32768
 62
   257
 93
        1
300
CONTENTFORMAT
  1
CONTENTFORMAT_BEGIN
 90
        0
 91
        0
 92
        4
 93
        0
300

 40
0.0
140
1.0
 94
        5
 62
     0
340
12A0
144
6.0
309
CONTENTFORMAT_END
171
     1
301
MARGIN
  1
CELLMARGIN_BEGIN
 40
1.5
 40
1.5
 40
1.5
 40
1.5
 40
0.18
 40
0.18
309
CELLMARGIN_END
 94
        6
 95
        1
302
GRIDFORMAT
  1
GRIDFORMAT_BEGIN
 90
        0
 91
        1
 62
     0
 92
       -2
340
0
 93
        0
 40
0.045
309
GRIDFORMAT_END
 95
        2
302
GRIDFORMAT
  1
GRIDFORMAT_BEGIN
 90
        0
 91
        1
 62
     0
 92
       -2
340
0
 93
        0
 40
0.045
309
GRIDFORMAT_END
 95
        4
302
GRIDFORMAT
  1
GRIDFORMAT_BEGIN
 90
        0
 91
        1
 62
     0
 92
       -2
340
0
 93
        0
 40
0.045
309
GRIDFORMAT_END
 95
        8
302
GRIDFORMAT
  1
GRIDFORMAT_BEGIN
 90
        0
 91
        1
 62
     0
 92
       -2
340
0
 93
        0
 40
0.045
309
GRIDFORMAT_END
 95
       16
302
GRIDFORMAT
  1
GRIDFORMAT_BEGIN
 90
        0
 91
        1
 62
     0
 92
       -2
340
0
 93
        0
 40
0.045
309
GRIDFORMAT_END
 95
       32
302
GRIDFORMAT
  1
GRIDFORMAT_BEGIN
 90
        0
 91
        1
 62
     0
 92
       -2
340
0
 93
        0
 40
0.045
309
GRIDFORMAT_END
309
TABLEFORMAT_END
  1
CELLSTYLE_BEGIN
 90
        1
 91
        1
300
_TITLE
309
CELLSTYLE_END
300
CELLSTYLE
  1
TABLEFORMAT_BEGIN
 90
        5
170
     1
 91
        0
 92
        0
 62
   257
 93
        1
300
CONTENTFORMAT
  1
CONTENTFORMAT_BEGIN
 90
        0
 91
        0
 92
        4
 93
        0
300

 40
0.0
140
1.0
 94
        5
 62
     0
340
12A0
144
4.5
309
CONTENTFORMAT_END
171
     1
301
MARGIN
  1
CELLMARGIN_BEGIN
 40
1.5
 40
1.5
 40
1.5
 40
1.5
 40
0.18
 40
0.18
309
CELLMARGIN_END
 94
        6
 95
        1
302
GRIDFORMAT
  1
GRIDFORMAT_BEGIN
 90
        0
 91
        1
 62
     0
 92
       -2
340
0
 93
        0
 40
0.045
309
GRIDFORMAT_END
 95
        2
302
GRIDFORMAT
  1
GRIDFORMAT_BEGIN
 90
        0
 91
        1
 62
     0
 92
       -2
340
0
 93
        0
 40
0.045
309
GRIDFORMAT_END
 95
        4
302
GRIDFORMAT
  1
GRIDFORMAT_BEGIN
 90
        0
 91
        1
 62
     0
 92
       -2
340
0
 93
        0
 40
0.045
309
GRIDFORMAT_END
 95
        8
302
GRIDFORMAT
  1
GRIDFORMAT_BEGIN
 90
        0
 91
        1
 62
     0
 92
       -2
340
0
 93
        0
 40
0.045
309
GRIDFORMAT_END
 95
       16
302
GRIDFORMAT
  1
GRIDFORMAT_BEGIN
 90
        0
 91
        1
 62
     0
 92
       -2
340
0
 93
        0
 40
0.045
309
GRIDFORMAT_END
 95
       32
302
GRIDFORMAT
  1
GRIDFORMAT_BEGIN
 90
        0
 91
        1
 62
     0
 92
       -2
340
0
 93
        0
 40
0.045
309
GRIDFORMAT_END
309
TABLEFORMAT_END
  1
CELLSTYLE_BEGIN
 90
        2
 91
        1
300
_HEADER
309
CELLSTYLE_END
300
CELLSTYLE
  1
TABLEFORMAT_BEGIN
 90
        5
170
     1
 91
        0
 92
        0
 62
   257
 93
        1
300
CONTENTFORMAT
  1
CONTENTFORMAT_BEGIN
 90
        0
 91
        0
 92
        4
 93
        0
300

 40
0.0
140
1.0
 94
        2
 62
     0
340
12A0
144
4.5
309
CONTENTFORMAT_END
171
     1
301
MARGIN
  1
CELLMARGIN_BEGIN
 40
1.5
 40
1.5
 40
1.5
 40
1.5
 40
0.18
 40
0.18
309
CELLMARGIN_END
 94
        6
 95
        1
302
GRIDFORMAT
  1
GRIDFORMAT_BEGIN
 90
        0
 91
        1
 62
     0
 92
       -2
340
0
 93
        0
 40
0.045
309
GRIDFORMAT_END
 95
        2
302
GRIDFORMAT
  1
GRIDFORMAT_BEGIN
 90
        0
 91
        1
 62
     0
 92
       -2
340
0
 93
        0
 40
0.045
309
GRIDFORMAT_END
 95
        4
302
GRIDFORMAT
  1
GRIDFORMAT_BEGIN
 90
        0
 91
        1
 62
     0
 92
       -2
340
0
 93
        0
 40
0.045
309
GRIDFORMAT_END
 95
        8
302
GRIDFORMAT
  1
GRIDFORMAT_BEGIN
 90
        0
 91
        1
 62
     0
 92
       -2
340
0
 93
        0
 40
0.045
309
GRIDFORMAT_END
 95
       16
302
GRIDFORMAT
  1
GRIDFORMAT_BEGIN
 90
        0
 91
        1
 62
     0
 92
       -2
340
0
 93
        0
 40
0.045
309
GRIDFORMAT_END
 95
       32
302
GRIDFORMAT
  1
GRIDFORMAT_BEGIN
 90
        0
 91
        1
 62
     0
 92
       -2
340
0
 93
        0
 40
0.045
309
GRIDFORMAT_END
309
TABLEFORMAT_END
  1
CELLSTYLE_BEGIN
 90
        3
 91
        2
300
_DATA
309
CELLSTYLE_END
  0
XRECORD
  5
17A8
102
{ACAD_REACTORS
330
179C
102
}
330
179C
100
AcDbXrecord
280
     1
102
ACAD_ROUNDTRIP_PRE2007_TABLESTYLE
 90
        4
 91
        0
  1

 92
        4
 93
        0
  2

 94
        4
 95
        0
  3

  0
ENDSEC
  0
EOF
