  0
SECTION
  2
HEADER
  9
$ACADVER
  1
AC1015
  9
$ACADMAINTVER
 70
    20
  9
$DWGCODEPAGE
  3
ANSI_1252
  9
$INSBASE
 10
0.0
 20
0.0
 30
0.0
  9
$EXTMIN
 10
173.3230617285276
 20
223.8716152541706
 30
-0.0015258207003583
  9
$EXTMAX
 10
607.0312519290382
 20
620.7298298258447
 30
0.0000000349246037
  9
$LIMMIN
 10
0.0
 20
0.0
  9
$LIMMAX
 10
1050.0
 20
1050.0
  9
$ORTHOMODE
 70
     1
  9
$REGENMODE
 70
     1
  9
$FILLMODE
 70
     1
  9
$QTEXTMODE
 70
     0
  9
$MIRRTEXT
 70
     0
  9
$LTSCALE
 40
5.0
  9
$ATTMODE
 70
     1
  9
$TEXTSIZE
 40
10.0
  9
$TRACEWID
 40
0.05
  9
$TEXTSTYLE
  7
STANDARD
  9
$CLAYER
  8
0
  9
$CELTYPE
  6
BYLAYER
  9
$CECOLOR
 62
   256
  9
$CELTSCALE
 40
1.0
  9
$DISPSILH
 70
     0
  9
$DIMSCALE
 40
5.0
  9
$DIMASZ
 40
2.5
  9
$DIMEXO
 40
1.0
  9
$DIMDLI
 40
7.0
  9
$DIMRND
 40
0.0
  9
$DIMDLE
 40
0.0
  9
$DIMEXE
 40
1.0
  9
$DIMTP
 40
0.1
  9
$DIMTM
 40
0.1
  9
$DIMTXT
 40
3.5
  9
$DIMCEN
 40
0.0
  9
$DIMTSZ
 40
0.0
  9
$DIMTOL
 70
     0
  9
$DIMLIM
 70
     0
  9
$DIMTIH
 70
     0
  9
$DIMTOH
 70
     0
  9
$DIMSE1
 70
     0
  9
$DIMSE2
 70
     0
  9
$DIMTAD
 70
     1
  9
$DIMZIN
 70
    12
  9
$DIMBLK
  1

  9
$DIMASO
 70
     1
  9
$DIMSHO
 70
     1
  9
$DIMPOST
  1

  9
$DIMAPOST
  1
"
  9
$DIMALT
 70
     0
  9
$DIMALTD
 70
     2
  9
$DIMALTF
 40
0.03937
  9
$DIMLFAC
 40
1.0
  9
$DIMTOFL
 70
     1
  9
$DIMTVP
 40
0.0
  9
$DIMTIX
 70
     0
  9
$DIMSOXD
 70
     0
  9
$DIMSAH
 70
     0
  9
$DIMBLK1
  1

  9
$DIMBLK2
  1

  9
$DIMSTYLE
  2
KATALOG
  9
$DIMCLRD
 70
   256
  9
$DIMCLRE
 70
   256
  9
$DIMCLRT
 70
     2
  9
$DIMTFAC
 40
0.71
  9
$DIMGAP
 40
0.6
  9
$DIMJUST
 70
     0
  9
$DIMSD1
 70
     0
  9
$DIMSD2
 70
     0
  9
$DIMTOLJ
 70
     0
  9
$DIMTZIN
 70
     0
  9
$DIMALTZ
 70
     0
  9
$DIMALTTZ
 70
     0
  9
$DIMUPT
 70
     0
  9
$DIMDEC
 70
     2
  9
$DIMTDEC
 70
     3
  9
$DIMALTU
 70
     2
  9
$DIMALTTD
 70
     4
  9
$DIMTXSTY
  7
STANDARD
  9
$DIMAUNIT
 70
     0
  9
$DIMADEC
 70
     0
  9
$DIMALTRND
 40
0.0
  9
$DIMAZIN
 70
     0
  9
$DIMDSEP
 70
    46
  9
$DIMATFIT
 70
     3
  9
$DIMFRAC
 70
     0
  9
$DIMLDRBLK
  1

  9
$DIMLUNIT
 70
     2
  9
$DIMLWD
 70
    -2
  9
$DIMLWE
 70
    -2
  9
$DIMTMOVE
 70
     0
  9
$LUNITS
 70
     2
  9
$LUPREC
 70
     2
  9
$SKETCHINC
 40
0.1
  9
$FILLETRAD
 40
12.5
  9
$AUNITS
 70
     0
  9
$AUPREC
 70
     2
  9
$MENU
  1
.
  9
$ELEVATION
 40
0.0
  9
$PELEVATION
 40
0.0
  9
$THICKNESS
 40
0.0
  9
$LIMCHECK
 70
     0
  9
$CHAMFERA
 40
12.5
  9
$CHAMFERB
 40
12.5
  9
$CHAMFERC
 40
0.0
  9
$CHAMFERD
 40
0.0
  9
$SKPOLY
 70
     0
  9
$TDCREATE
 40
2451296.364267709
  9
$TDUCREATE
 40
2451296.280934375
  9
$TDUPDATE
 40
2454020.053853252
  9
$TDUUPDATE
 40
2454019.970519919
  9
$TDINDWG
 40
0.0051224074
  9
$TDUSRTIMER
 40
0.0051224074
  9
$USRTIMER
 70
     1
  9
$ANGBASE
 50
0.0
  9
$ANGDIR
 70
     0
  9
$PDMODE
 70
     0
  9
$PDSIZE
 40
0.0
  9
$PLINEWID
 40
0.0
  9
$SPLFRAME
 70
     0
  9
$SPLINETYPE
 70
     6
  9
$SPLINESEGS
 70
     8
  9
$HANDSEED
  5
15C2
  9
$SURFTAB1
 70
     6
  9
$SURFTAB2
 70
     6
  9
$SURFTYPE
 70
     6
  9
$SURFU
 70
     6
  9
$SURFV
 70
     6
  9
$UCSBASE
  2

  9
$UCSNAME
  2

  9
$UCSORG
 10
0.0
 20
0.0
 30
0.0
  9
$UCSXDIR
 10
1.0
 20
0.0
 30
0.0
  9
$UCSYDIR
 10
0.0
 20
1.0
 30
0.0
  9
$UCSORTHOREF
  2

  9
$UCSORTHOVIEW
 70
     0
  9
$UCSORGTOP
 10
0.0
 20
0.0
 30
0.0
  9
$UCSORGBOTTOM
 10
0.0
 20
0.0
 30
0.0
  9
$UCSORGLEFT
 10
0.0
 20
0.0
 30
0.0
  9
$UCSORGRIGHT
 10
0.0
 20
0.0
 30
0.0
  9
$UCSORGFRONT
 10
0.0
 20
0.0
 30
0.0
  9
$UCSORGBACK
 10
0.0
 20
0.0
 30
0.0
  9
$PUCSBASE
  2

  9
$PUCSNAME
  2

  9
$PUCSORG
 10
0.0
 20
0.0
 30
0.0
  9
$PUCSXDIR
 10
1.0
 20
0.0
 30
0.0
  9
$PUCSYDIR
 10
0.0
 20
1.0
 30
0.0
  9
$PUCSORTHOREF
  2

  9
$PUCSORTHOVIEW
 70
     0
  9
$PUCSORGTOP
 10
0.0
 20
0.0
 30
0.0
  9
$PUCSORGBOTTOM
 10
0.0
 20
0.0
 30
0.0
  9
$PUCSORGLEFT
 10
0.0
 20
0.0
 30
0.0
  9
$PUCSORGRIGHT
 10
0.0
 20
0.0
 30
0.0
  9
$PUCSORGFRONT
 10
0.0
 20
0.0
 30
0.0
  9
$PUCSORGBACK
 10
0.0
 20
0.0
 30
0.0
  9
$USERI1
 70
     0
  9
$USERI2
 70
     0
  9
$USERI3
 70
     0
  9
$USERI4
 70
     0
  9
$USERI5
 70
     0
  9
$USERR1
 40
0.0
  9
$USERR2
 40
0.0
  9
$USERR3
 40
0.0
  9
$USERR4
 40
0.0
  9
$USERR5
 40
0.0
  9
$WORLDVIEW
 70
     1
  9
$SHADEDGE
 70
     3
  9
$SHADEDIF
 70
    70
  9
$TILEMODE
 70
     1
  9
$MAXACTVP
 70
    48
  9
$PINSBASE
 10
0.0
 20
0.0
 30
0.0
  9
$PLIMCHECK
 70
     0
  9
$PEXTMIN
 10
0.0
 20
0.0
 30
0.0
  9
$PEXTMAX
 10
419.8999999999999
 20
296.9
 30
0.0
  9
$PLIMMIN
 10
0.0
 20
0.0
  9
$PLIMMAX
 10
419.8999999999999
 20
296.9
  9
$UNITMODE
 70
     0
  9
$VISRETAIN
 70
     1
  9
$PLINEGEN
 70
     1
  9
$PSLTSCALE
 70
     1
  9
$TREEDEPTH
 70
 -3020
  9
$CMLSTYLE
  2
STANDARD
  9
$CMLJUST
 70
     0
  9
$CMLSCALE
 40
1.0
  9
$PROXYGRAPHICS
 70
     1
  9
$MEASUREMENT
 70
     1
  9
$CELWEIGHT
370
    -1
  9
$ENDCAPS
280
     0
  9
$JOINSTYLE
280
     0
  9
$LWDISPLAY
290
     0
  9
$INSUNITS
 70
     0
  9
$HYPERLINKBASE
  1

  9
$STYLESHEET
  1

  9
$XEDIT
290
     1
  9
$CEPSNTYPE
380
     0
  9
$PSTYLEMODE
290
     1
  9
$FINGERPRINTGUID
  2
{C259477F-9A6B-488B-8DE1-B2BD8F697DD2}
  9
$VERSIONGUID
  2
{B22C91E3-C71C-410B-A547-422DB62AE442}
  9
$EXTNAMES
290
     1
  9
$PSVPSCALE
 40
0.0
  9
$OLESTARTUP
290
     0
  0
ENDSEC
  0
SECTION
  2
CLASSES
  0
CLASS
  1
ACDBDICTIONARYWDFLT
  2
AcDbDictionaryWithDefault
  3
ObjectDBX Classes
 90
        0
280
     0
281
     0
  0
CLASS
  1
TABLESTYLE
  2
AcDbTableStyle
  3
ObjectDBX Classes
 90
     2047
280
     0
281
     0
  0
CLASS
  1
AMGSETTINGSOBJ
  2
AmgSettingsObj
  3
"AcadM|Product Description: AutoCAD Mechanical 2000|Company: Autodesk"
 90
        0
280
     0
281
     0
  0
CLASS
  1
ACME_DOCUMENT
  2
AcMeDbDoc
  3
AcMeServices
 90
        0
280
     0
281
     0
  0
CLASS
  1
ACMESCOPE
  2
AcMeScope
  3
AcMeServices
 90
        0
280
     0
281
     0
  0
CLASS
  1
ACMECOMMANDHISTORY
  2
AcMeCommandHistory
  3
AcMeServices
 90
        0
280
     0
281
     0
  0
CLASS
  1
ACIMSYSVARMAN
  2
AcImSysVarManager
  3
AcMeServices
 90
        0
280
     0
281
     0
  0
CLASS
  1
ACIMINTSYSVAR
  2
AcImIntSysVar
  3
AcMeServices
 90
        0
280
     0
281
     0
  0
CLASS
  1
ACMEDRAWINGMAN
  2
AcMeDrawingMan
  3
AcMeServices
 90
        0
280
     0
281
     0
  0
CLASS
  1
ACMEVIEW
  2
AcMeView
  3
AcMeServices
 90
        0
280
     0
281
     0
  0
CLASS
  1
ACDBENTITYCACHE
  2
AcMeEntityCache
  3
AcMeServices
 90
        0
280
     0
281
     0
  0
CLASS
  1
GSMANAGER
  2
AcMeGSManager
  3
AcMeServices
 90
        0
280
     0
281
     0
  0
CLASS
  1
AMDTINTERNALREACTOR
  2
AmdtInternalReactor
  3
AcMeServices
 90
        0
280
     0
281
     0
  0
CLASS
  1
ACMESTATEMGR
  2
AcMeStateMgr
  3
AcMeServices
 90
        0
280
     0
281
     0
  0
CLASS
  1
ACGREFMASTER
  2
AcGrefMaster
  3
AcAttribServices
 90
        0
280
     0
281
     0
  0
CLASS
  1
AM_DRAWING_MGR
  2
AcDmDwgMgr
  3
AcMechDwgViewMgmt
 90
        0
280
     0
281
     0
  0
CLASS
  1
AM_DWG_DOCUMENT
  2
AcDmDwgDocument
  3
AcMechDwgViewMgmt
 90
        0
280
     0
281
     0
  0
CLASS
  1
AM_DWG_SHEET
  2
AcDmSheet
  3
AcMechDwgViewMgmt
 90
        0
280
     0
281
     0
  0
CLASS
  1
AM_VIEWDIMPARMAP
  2
AcDmViewDimParMap
  3
AcMechDwgViewMgmt
 90
        0
280
     0
281
     0
  0
CLASS
  1
ACIMREALSYSVAR
  2
AcImRealSysVar
  3
AcMeServices
 90
        0
280
     0
281
     0
  0
CLASS
  1
AM_DWGMGR_NAME
  2
AcDmDwgMgrName
  3
AcMechDwgViewMgmt
 90
        0
280
     0
281
     0
  0
CLASS
  1
ACME_DATABASE
  2
AcMeDbDatabase
  3
AcMeServices
 90
        0
280
     0
281
     0
  0
CLASS
  1
ACRFINSADJUSTERMGR
  2
AcRfInsAdjusterMgr
  3
AcMeServices
 90
        0
280
     0
281
     0
  0
CLASS
  1
ACGREFACADMASTER
  2
AcGrefacadMaster
  3
AcGrefServices
 90
        0
280
     0
281
     0
  0
CLASS
  1
AMDTMENUSTATEMGR
  2
AmdtMenuStateMgr
  3
McadcomServices
 90
        0
280
     0
281
     0
  0
CLASS
  1
AMDTMCOMMENUSTATE
  2
AmdtMcomMenuState
  3
McadcomServices
 90
        0
280
     0
281
     0
  0
CLASS
  1
AMIMASTER
  2
AmiMaster
  3
AmiServices
 90
        0
280
     0
281
     0
  0
CLASS
  1
MAPIAMMOUDLE
  2
MApiAmModule
  3
MApiAmServices
 90
        0
280
     0
281
     0
  0
CLASS
  1
ACIMSTRSYSVAR
  2
AcImStrSysVar
  3
AcMeServices
 90
        0
280
     0
281
     0
  0
CLASS
  1
AMDTADMENUSTATE
  2
AmdtAdMenuState
  3
DesignerServices
 90
        0
280
     0
281
     0
  0
CLASS
  1
ADAPPL
  2
AcAdAppl
  3
DesignerServices
 90
        0
280
     0
281
     0
  0
CLASS
  1
DEPMGR
  2
AcAdDepMgr
  3
DesignerServices
 90
        0
280
     0
281
     0
  0
CLASS
  1
PARAMMGR
  2
AcAdParamMgr
  3
DesignerServices
 90
        0
280
     0
281
     0
  0
CLASS
  1
PARAMSCOPE
  2
AcAdParamScope
  3
DesignerServices
 90
        0
280
     0
281
     0
  0
CLASS
  1
NAMEDAPPL
  2
AcAdNamedAppl
  3
DesignerServices
 90
        0
280
     0
281
     0
  0
CLASS
  1
AMDTDMMENUSTATE
  2
AmdtDmMenuState
  3
AcMechDwgViewMgmt
 90
        0
280
     0
281
     0
  0
CLASS
  1
AMDTAMMENUSTATE
  2
AmdtAmMenuState
  3
DesignerAssemblies
 90
        0
280
     0
281
     0
  0
CLASS
  1
ACAMPROJECT
  2
AcAmProject
  3
DesignerAssemblies
 90
        0
280
     0
281
     0
  0
CLASS
  1
ACAMGRCOMPDEF
  2
AcAmGrCompDef
  3
DesignerAssemblies
 90
        0
280
     0
281
     0
  0
CLASS
  1
ACCMCONTEXT
  2
AcCmContext
  3
DesignerAssemblies
 90
        0
280
     0
281
     0
  0
CLASS
  1
ACAMCOMPDEF
  2
AcAmCompDef
  3
DesignerAssemblies
 90
        0
280
     0
281
     0
  0
CLASS
  1
ACAMCOMPDEFMGR
  2
AcAmCompDefMgr
  3
DesignerAssemblies
 90
        0
280
     0
281
     0
  0
CLASS
  1
AMCONTEXTMGR
  2
AcAmContextMgr
  3
DesignerAssemblies
 90
        0
280
     0
281
     0
  0
CLASS
  1
ACAMCONTEXTMODELER
  2
AcAmContextModeler
  3
DesignerAssemblies
 90
        0
280
     0
281
     0
  0
CLASS
  1
ACMDATADICTIONARY
  2
AcmDataDictionary
  3
"AcmSymBB|Product Description: AutoCAD Mechanical 2004 DX|Company: Autodesk"
 90
        0
280
     0
281
     0
  0
CLASS
  1
CATALOGSTATE
  2
AcAmCatalogState
  3
DesignerAssemblies
 90
        0
280
     0
281
     0
  0
CLASS
  1
ACAMGRCOMPDEFSET
  2
AcAmGrCompDefSet
  3
DesignerAssemblies
 90
        0
280
     0
281
     0
  0
CLASS
  1
AMDTBROWSERDBTAB
  2
AmdtBrowserDbTab
  3
McadcomServices
 90
        0
280
     0
281
     0
  0
CLASS
  1
CBROWSERAPPOBJECT
  2
CBrowserAppObject
  3
McadcomServices
 90
        0
280
     0
281
     0
  0
CLASS
  1
DM_PLACEHOLDER
  2
AcDmSelsetPlaceholder
  3
AcMechDwgViewMgmt
 90
        0
280
     0
281
     0
  0
CLASS
  1
ACMSTANDARDDIN
  2
AcmStandardDIN
  3
"Amdt_StdImp|Product Description: AutoCAD Mechanical 2004 DX|Company: Autodesk"
 90
        0
280
     0
281
     0
  0
CLASS
  1
AMGOBJPROPCFG
  2
AmgObjPropCfg
  3
"AmgLay|Product Description: AutoCAD Mechanical 2000|Company: Autodesk"
 90
        1
280
     0
281
     0
  0
CLASS
  1
AMDTEDGESTANDARDDIN13715
  2
AmdtEdgeStdDIN13715
  3
"Amdt_StdImp|Product Description: AutoCAD Mechanical 2004 DX|Company: Autodesk"
 90
        0
280
     0
281
     0
  0
CLASS
  1
ACMSURFSTANDARDDIN
  2
AcmSurfTextStdDIN
  3
"Amdt_StdImp|Product Description: AutoCAD Mechanical 2004 DX|Company: Autodesk"
 90
        0
280
     0
281
     0
  0
CLASS
  1
ACMFCFSTANDARDDIN
  2
AcmFCFStdDIN
  3
"Amdt_StdImp|Product Description: AutoCAD Mechanical 2004 DX|Company: Autodesk"
 90
        0
280
     0
281
     0
  0
CLASS
  1
ACMWELDSTANDARDDIN
  2
AcmWeldingStdDIN
  3
"Amdt_StdImp|Product Description: AutoCAD Mechanical 2004 DX|Company: Autodesk"
 90
        0
280
     0
281
     0
  0
CLASS
  1
ACMIDSTANDARDDIN
  2
AcmIdStdDIN
  3
"Amdt_StdImp|Product Description: AutoCAD Mechanical 2004 DX|Company: Autodesk"
 90
        0
280
     0
281
     0
  0
CLASS
  1
ACMDATUMSTANDARDDIN
  2
AcmDatumStdDIN
  3
"Amdt_StdImp|Product Description: AutoCAD Mechanical 2004 DX|Company: Autodesk"
 90
        0
280
     0
281
     0
  0
CLASS
  1
ACMBOMSTANDARDDIN
  2
AcmBOMStdDIN
  3
"Amdt_StdImp|Product Description: AutoCAD Mechanical 2004 DX|Company: Autodesk"
 90
        0
280
     0
281
     0
  0
CLASS
  1
ACMDETAILSTANDARDDIN
  2
AmdtDetailSymStdDIN
  3
"Amdt_StdImp|Product Description: AutoCAD Mechanical 2004 DX|Company: Autodesk"
 90
        0
280
     0
281
     0
  0
CLASS
  1
ACMSECTIONSTANDARDDIN
  2
AmdtSectionSymStdDIN
  3
"Amdt_StdImp|Product Description: AutoCAD Mechanical 2004 DX|Company: Autodesk"
 90
        0
280
     0
281
     0
  0
CLASS
  1
ACMCENTERLINESTANDARDDIN
  2
AmdtCenterLineStdDIN
  3
"Amdt_StdImp|Product Description: AutoCAD Mechanical 2004 DX|Company: Autodesk"
 90
        0
280
     0
281
     0
  0
CLASS
  1
ACMTHREADLINESTANDARDDIN
  2
AmdtThreadLineStdDIN
  3
"Amdt_StdImp|Product Description: AutoCAD Mechanical 2004 DX|Company: Autodesk"
 90
        0
280
     0
281
     0
  0
CLASS
  1
ACMNOTESTANDARDDIN
  2
AmdtNoteStdDIN
  3
"Amdt_StdImp|Product Description: AutoCAD Mechanical 2004 DX|Company: Autodesk"
 90
        0
280
     0
281
     0
  0
CLASS
  1
AMDTNOTETEMPLATEDB
  2
AmdtNoteTemplateDB
  3
AMDT_STDIMP_MODULE_NAME
 90
        0
280
     0
281
     0
  0
CLASS
  1
ACAMGLAYSTD
  2
AcAmgLayStd
  3
"AcAmgLayStd|Product Description: AutoCAD Mechanical 2000|Company: Autodesk"
 90
        0
280
     0
281
     0
  0
CLASS
  1
ACAMGDIMSTD
  2
AcAmgDimStd
  3
"AcAmgDimStd|Product Description: AutoCAD Mechanical 2000|Company: Autodesk"
 90
        0
280
     0
281
     0
  0
CLASS
  1
ACAMGHOLECHARTSTDDIN
  2
AcAmgHoleChartStdDIN
  3
ACMSYMBB_MODULE_NAME
 90
        0
280
     0
281
     0
  0
CLASS
  1
ACAMGTITLESTD
  2
AcAmgTitleStd
  3
"TITLEAPP"
 90
        0
280
     0
281
     0
  0
CLASS
  1
ACAMGFILTERDAT
  2
AcAmgFilterDat
  3
"AcadM|Product Description: AutoCAD Mechanical 2000|Company: Autodesk"
 90
        0
280
     0
281
     0
  0
CLASS
  1
SORTENTSTABLE
  2
AcDbSortentsTable
  3
ObjectDBX Classes
 90
        0
280
     0
281
     0
  0
CLASS
  1
DICTIONARYVAR
  2
AcDbDictionaryVar
  3
ObjectDBX Classes
 90
        0
280
     0
281
     0
  0
CLASS
  1
ACDBPLACEHOLDER
  2
AcDbPlaceHolder
  3
ObjectDBX Classes
 90
        0
280
     0
281
     0
  0
CLASS
  1
LAYOUT
  2
AcDbLayout
  3
ObjectDBX Classes
 90
        0
280
     0
281
     0
  0
ENDSEC
  0
SECTION
  2
TABLES
  0
TABLE
  2
VPORT
  5
12B0
330
0
100
AcDbSymbolTable
 70
    38
  0
VPORT
  5
15BC
330
12B0
100
AcDbSymbolTableRecord
100
AcDbViewportTableRecord
  2
*Active
 70
     0
 10
0.0
 20
0.0
 11
1.0
 21
1.0
 12
390.1771568287831
 22
422.3007225400076
 13
0.0
 23
0.0
 14
5.0
 24
5.0
 15
50.0
 25
50.0
 16
0.0
 26
0.0
 36
1.0
 17
0.0
 27
0.0
 37
0.0
 40
399.7409618930181
 41
1.494545454545454
 42
50.0
 43
0.0
 44
0.0
 50
0.0
 51
0.0
 71
     0
 72
  1000
 73
     1
 74
     1
 75
     0
 76
     0
 77
     0
 78
     0
281
     0
 65
     0
110
0.0
120
0.0
130
0.0
111
1.0
121
0.0
131
0.0
112
0.0
122
1.0
132
0.0
 79
     0
146
0.0
  0
ENDTAB
  0
TABLE
  2
LTYPE
  5
12AD
330
0
100
AcDbSymbolTable
 70
    27
  0
LTYPE
  5
12BA
330
12AD
100
AcDbSymbolTableRecord
100
AcDbLinetypeTableRecord
  2
BYBLOCK
 70
     0
  3

 72
    65
 73
     0
 40
0.0
  0
LTYPE
  5
12BB
330
12AD
100
AcDbSymbolTableRecord
100
AcDbLinetypeTableRecord
  2
BYLAYER
 70
     0
  3

 72
    65
 73
     0
 40
0.0
  0
LTYPE
  5
12BC
330
12AD
100
AcDbSymbolTableRecord
100
AcDbLinetypeTableRecord
  2
CONTINUOUS
 70
     0
  3
Solid line
 72
    65
 73
     0
 40
0.0
  0
LTYPE
  5
12CB
330
12AD
100
AcDbSymbolTableRecord
100
AcDbLinetypeTableRecord
  2
GEN7
 70
     0
  3
____ _ ____ _ ____ _ ____ _ ____ _ ____ _ ____ _ ____ _ ____ _
 72
    65
 73
     4
 40
22.0
 49
10.75
 74
     0
 49
-3.75
 74
     0
 49
3.75
 74
     0
 49
-3.75
 74
     0
  0
LTYPE
  5
14C3
330
12AD
100
AcDbSymbolTableRecord
100
AcDbLinetypeTableRecord
  2
HIDDEN
 70
     0
  3
Verdeckt
 72
    65
 73
     2
 40
9.525
 49
6.349999999999999
 74
     0
 49
-3.174999999999999
 74
     0
  0
LTYPE
  5
14C4
330
12AD
100
AcDbSymbolTableRecord
100
AcDbLinetypeTableRecord
  2
PHANTOM2
 70
     0
  3
Phantom (.5x) ___ _ _ ___ _ _ ___ _ _ ___ _ _
 72
    65
 73
     6
 40
31.75
 49
15.875
 74
     0
 49
-3.174999999999999
 74
     0
 49
3.174999999999999
 74
     0
 49
-3.174999999999999
 74
     0
 49
3.174999999999999
 74
     0
 49
-3.174999999999999
 74
     0
  0
LTYPE
  5
14C5
330
12AD
100
AcDbSymbolTableRecord
100
AcDbLinetypeTableRecord
  2
CENTER
 70
     0
  3
Mitte ____ _ ____ _ ____ _ ____ _ ____ _ ____
 72
    65
 73
     4
 40
50.8
 49
31.75
 74
     0
 49
-6.349999999999999
 74
     0
 49
6.349999999999999
 74
     0
 49
-6.349999999999999
 74
     0
  0
LTYPE
  5
14FC
330
12AD
100
AcDbSymbolTableRecord
100
AcDbLinetypeTableRecord
  2
Amconstr
 70
     0
  3
_______________________
 72
    65
 73
     2
 40
9999.0
 49
9999.0
 74
     0
 49
0.0
 74
     0
  0
LTYPE
  5
1501
330
12AD
100
AcDbSymbolTableRecord
100
AcDbLinetypeTableRecord
  2
Amzigzag
 70
     0
  3
/\/-/\/-/\/-/\/-/\/-/\/
 72
    65
 73
     2
 40
11.0001
 49
0.0001
 74
     4
 75
   136
340
1500
 46
0.04
 50
0.0
 44
0.0
 45
0.0
 49
-11.0
 74
     0
  0
LTYPE
  5
1502
330
12AD
100
AcDbSymbolTableRecord
100
AcDbLinetypeTableRecord
  2
AM_DIN_F_W050
 70
     0
  3
__ __ __ __ __ __ __ __ __ __ __ __ __ __ __
 72
    65
 73
     2
 40
6.25
 49
4.75
 74
     0
 49
-1.5
 74
     0
  0
LTYPE
  5
1503
330
12AD
100
AcDbSymbolTableRecord
100
AcDbLinetypeTableRecord
  2
AM_DIN_G_W050
 70
     0
  3
____ . ____ . ____ . ____ . ____ . ____ . ____
 72
    65
 73
     4
 40
13.75
 49
9.75
 74
     0
 49
-1.5
 74
     0
 49
1.0
 74
     0
 49
-1.5
 74
     0
  0
LTYPE
  5
1504
330
12AD
100
AcDbSymbolTableRecord
100
AcDbLinetypeTableRecord
  2
AM_DIN_K_W050
 70
     0
  3
_____ . . _____ . . _____ . . ____ .. ____
 72
    65
 73
     6
 40
16.25
 49
9.75
 74
     0
 49
-1.5
 74
     0
 49
1.0
 74
     0
 49
-1.5
 74
     0
 49
1.0
 74
     0
 49
-1.5
 74
     0
  0
LTYPE
  5
1505
330
12AD
100
AcDbSymbolTableRecord
100
AcDbLinetypeTableRecord
  2
AM_DIN_G_W050x2
 70
     0
  3
__ . __ . __ . __ . __ . __
 72
    65
 73
     4
 40
6.875
 49
4.75
 74
     0
 49
-0.875
 74
     0
 49
0.375
 74
     0
 49
-0.875
 74
     0
  0
LTYPE
  5
1506
330
12AD
100
AcDbSymbolTableRecord
100
AcDbLinetypeTableRecord
  2
AM_DIN_F_W050x2
 70
     0
  3
 _ _ _ _ _ _ _ _ _ _ _ _
 72
    65
 73
     2
 40
3.125
 49
2.25
 74
     0
 49
-0.875
 74
     0
  0
LTYPE
  5
1515
330
12AD
100
AcDbSymbolTableRecord
100
AcDbLinetypeTableRecord
  2
ACDINWELD
 70
     0
  3
_ _ _ _ _
 72
    65
 73
     2
 40
2.0
 49
2.0
 74
     0
 49
-1.0
 74
     0
  0
LTYPE
  5
1516
330
12AD
100
AcDbSymbolTableRecord
100
AcDbLinetypeTableRecord
  2
ACDINTGB
 70
     0
  3
__ . . __ . .
 72
    65
 73
     6
 40
9.0
 49
4.0
 74
     0
 49
-1.0
 74
     0
 49
1.0
 74
     0
 49
-1.0
 74
     0
 49
1.0
 74
     0
 49
-1.0
 74
     0
  0
LTYPE
  5
1517
330
12AD
100
AcDbSymbolTableRecord
100
AcDbLinetypeTableRecord
  2
ACDINTGL
 70
     0
  3
_ _ _ _ _
 72
    65
 73
     2
 40
3.0
 49
2.0
 74
     0
 49
-1.0
 74
     0
  0
ENDTAB
  0
TABLE
  2
LAYER
  5
12AA
102
{ACAD_XDICTIONARY
360
157D
102
}
330
0
100
AcDbSymbolTable
 70
    27
  0
LAYER
  5
12B6
330
12AA
100
AcDbSymbolTableRecord
100
AcDbLayerTableRecord
  2
0
 70
     0
 62
     7
  6
CONTINUOUS
370
    -3
390
1485
  0
LAYER
  5
12D1
330
12AA
100
AcDbSymbolTableRecord
100
AcDbLayerTableRecord
  2
4
 70
     0
 62
     3
  6
CONTINUOUS
370
    -3
390
1485
  0
LAYER
  5
12D3
330
12AA
100
AcDbSymbolTableRecord
100
AcDbLayerTableRecord
  2
5
 70
     0
 62
     3
  6
CONTINUOUS
370
    -3
390
1485
  0
LAYER
  5
12D5
330
12AA
100
AcDbSymbolTableRecord
100
AcDbLayerTableRecord
  2
7
 70
     0
 62
     4
  6
GEN7
370
    -3
390
1485
  0
LAYER
  5
12D6
330
12AA
100
AcDbSymbolTableRecord
100
AcDbLayerTableRecord
  2
8
 70
     0
 62
     1
  6
CONTINUOUS
370
    -3
390
1485
  0
LAYER
  5
12D7
330
12AA
100
AcDbSymbolTableRecord
100
AcDbLayerTableRecord
  2
ND_7
 70
     1
 62
     3
  6
GEN7
370
    -3
390
1485
  0
LAYER
  5
12D8
330
12AA
100
AcDbSymbolTableRecord
100
AcDbLayerTableRecord
  2
SCHRAFFUR_RAND
 70
     0
 62
    36
  6
CONTINUOUS
370
    -3
390
1485
  0
LAYER
  5
1306
330
12AA
100
AcDbSymbolTableRecord
100
AcDbLayerTableRecord
  2
DEFPOINTS
 70
     0
 62
     7
  6
CONTINUOUS
290
     0
370
    -3
390
1485
  0
LAYER
  5
1582
330
12AA
100
AcDbSymbolTableRecord
100
AcDbLayerTableRecord
  2
AM_8
 70
     0
 62
     1
  6
CONTINUOUS
370
    25
390
1485
1001
AcAecLayerStandard
1000

1000

  0
ENDTAB
  0
TABLE
  2
STYLE
  5
12AB
330
0
100
AcDbSymbolTable
 70
     6
  0
STYLE
  5
12B7
330
12AB
100
AcDbSymbolTableRecord
100
AcDbTextStyleTableRecord
  2
STANDARD
 70
     0
 40
0.0
 41
1.0
 50
0.0
 71
     0
 42
10.0
  3
isocp
  4

  0
STYLE
  5
1500
330
12AB
100
AcDbSymbolTableRecord
100
AcDbTextStyleTableRecord
  2

 70
     1
 40
0.0
 41
1.0
 50
0.0
 71
     0
 42
0.2
  3
genltshp.shx
  4

  0
STYLE
  5
1507
330
12AB
100
AcDbSymbolTableRecord
100
AcDbTextStyleTableRecord
  2
ACDINTS
 70
     0
 40
1.0
 41
1.0
 50
0.0
 71
     0
 42
0.2
  3
isocp.shx
  4

  0
STYLE
  5
1514
330
12AB
100
AcDbSymbolTableRecord
100
AcDbTextStyleTableRecord
  2
ACDINGDT
 70
     0
 40
0.0
 41
1.0
 50
0.0
 71
     0
 42
0.2
  3
AMGDT
  4

  0
ENDTAB
  0
TABLE
  2
VIEW
  5
12AE
330
0
100
AcDbSymbolTable
 70
     6
  0
VIEW
  5
1349
330
12AE
100
AcDbSymbolTableRecord
100
AcDbViewTableRecord
  2
GEN1
 70
     0
 40
525.0
 10
403.491903
 20
787.5
 41
806.983806
 11
0.0
 21
0.0
 31
1.0
 12
0.0
 22
0.0
 32
0.0
 42
50.0
 43
0.0
 44
0.0
 50
0.0
 71
     0
281
     0
 72
     0
  0
VIEW
  5
134A
330
12AE
100
AcDbSymbolTableRecord
100
AcDbViewTableRecord
  2
GEN2
 70
     0
 40
525.0
 10
646.508097
 20
787.5
 41
806.983806
 11
0.0
 21
0.0
 31
1.0
 12
0.0
 22
0.0
 32
0.0
 42
50.0
 43
0.0
 44
0.0
 50
0.0
 71
     0
281
     0
 72
     0
  0
VIEW
  5
134B
330
12AE
100
AcDbSymbolTableRecord
100
AcDbViewTableRecord
  2
GEN3
 70
     0
 40
525.0
 10
403.491903
 20
262.5
 41
806.983806
 11
0.0
 21
0.0
 31
1.0
 12
0.0
 22
0.0
 32
0.0
 42
50.0
 43
0.0
 44
0.0
 50
0.0
 71
     0
281
     0
 72
     0
  0
VIEW
  5
134C
330
12AE
100
AcDbSymbolTableRecord
100
AcDbViewTableRecord
  2
GEN4
 70
     0
 40
525.0
 10
646.508097
 20
262.5
 41
806.983806
 11
0.0
 21
0.0
 31
1.0
 12
0.0
 22
0.0
 32
0.0
 42
50.0
 43
0.0
 44
0.0
 50
0.0
 71
     0
281
     0
 72
     0
  0
VIEW
  5
134D
330
12AE
100
AcDbSymbolTableRecord
100
AcDbViewTableRecord
  2
GEN5
 70
     0
 40
525.0
 10
525.0
 20
525.0
 41
806.983806
 11
0.0
 21
0.0
 31
1.0
 12
0.0
 22
0.0
 32
0.0
 42
50.0
 43
0.0
 44
0.0
 50
0.0
 71
     0
281
     0
 72
     0
  0
VIEW
  5
134E
330
12AE
100
AcDbSymbolTableRecord
100
AcDbViewTableRecord
  2
GEN6
 70
     0
 40
1049.9895
 10
525.0
 20
525.0
 41
1613.951472
 11
0.0
 21
0.0
 31
1.0
 12
0.0
 22
0.0
 32
0.0
 42
50.0
 43
0.0
 44
0.0
 50
0.0
 71
     0
281
     0
 72
     0
  0
ENDTAB
  0
TABLE
  2
UCS
  5
12AF
330
0
100
AcDbSymbolTable
 70
     0
  0
ENDTAB
  0
TABLE
  2
APPID
  5
12B1
330
0
100
AcDbSymbolTable
 70
    40
  0
APPID
  5
12B8
330
12B1
100
AcDbSymbolTableRecord
100
AcDbRegAppTableRecord
  2
ACAD
 70
     0
  0
APPID
  5
1317
330
12B1
100
AcDbSymbolTableRecord
100
AcDbRegAppTableRecord
  2
GENIUS_GENCFG_13
 70
     0
1001
GENIUS_DUMCFG0_13
1000
DUM
1001
GENIUS_GENCFG0_13
1000
GEN@INFO_POS@XLATE
1001
GENIUS_GENCFG1_13
1000
GEN@INFO_POS
1001
GENIUS_GENCFG2_13
1000
GEN@LAYER@DEFS
1001
GENIUS_GENCFG3_13
1000
GEN@LAYER@ENTSORT
1001
GENIUS_GENCFG4_13
1000
GEN
1001
GENIUS_GEVCFG0_13
1000
GEV
  0
APPID
  5
1318
330
12B1
100
AcDbSymbolTableRecord
100
AcDbRegAppTableRecord
  2
GENIUS_DUMCFG0_13
 70
     0
1001
GENIUS_GENCFG_13
1071
925195500
1000
1318
1000
DUM
1070
     0
  0
APPID
  5
1319
330
12B1
100
AcDbSymbolTableRecord
100
AcDbRegAppTableRecord
  2
GENIUS_GENCFG0_13
 70
     0
1001
GENIUS_GENCFG_13
1071
1022849358
1000
1319
1000
GEN@INFO_POS@XLATE
1070
     7
1000
GenCfgObject
1000
GenCfgShort
1000
GenCfgReal
1000
GenCfgBool
1000
GenCfgString
1000
GenCfgDim
1000
GenCfgAttrInf
1000
INFOPOINTS
1070
     0
1002
{
1000
GENINF14
1070
     0
1002
{
1000
2GENINF
1070
     4
1000
2
1002
{
1002
}
1000
5GENINF
1070
     4
1000
5
1002
{
1002
}
1000
7GENINF
1070
     4
1000
7
1002
{
1002
}
1000
9GENINF
1070
     4
1000
9
1002
{
1002
}
1000
11GENINF
1070
     4
1000
11
1002
{
1002
}
1000
14GENINF
1070
     4
1000
14
1002
{
1002
}
1002
}
1000
GENINF13
1070
     0
1002
{
1000
2GENINF
1070
     4
1000
2
1002
{
1002
}
1000
3GENINF
1070
     4
1000
3
1002
{
1002
}
1000
4GENINF
1070
     4
1000
4
1002
{
1002
}
1000
5GENINF
1070
     4
1000
5
1002
{
1002
}
1000
6GENINF
1070
     4
1000
6
1002
{
1002
}
1000
7GENINF
1070
     4
1000
7
1002
{
1002
}
1000
8GENINF
1070
     4
1000
8
1002
{
1002
}
1000
9GENINF
1070
     4
1000
9
1002
{
1002
}
1000
10GENINF
1070
     4
1000
10
1002
{
1002
}
1000
11GENINF
1070
     4
1000
11
1002
{
1002
}
1000
12GENINF
1070
     4
1000
12
1002
{
1002
}
1000
13GENINF
1070
     4
1000
13
1002
{
1002
}
1000
14GENINF
1070
     4
1000
14
1002
{
1002
}
1000
15GENINF
1070
     4
1000
15
1002
{
1002
}
1000
16GENINF
1070
     4
1000
16
1002
{
1002
}
1000
17GENINF
1070
     4
1000
17
1002
{
1002
}
1000
18GENINF
1070
     4
1000
18
1002
{
1002
}
1000
19GENINF
1070
     4
1000
19
1002
{
1002
}
1000
20GENINF
1070
     4
1000
20
1002
{
1002
}
1000
21GENINF
1070
     4
1000
21
1002
{
1002
}
1000
22GENINF
1070
     4
1000
22
1002
{
1002
}
1000
23GENINF
1070
     4
1000
23
1002
{
1002
}
1000
24GENINF
1070
     4
1000
24
1002
{
1002
}
1000
0GENINF
1070
     4
1000
0
1002
{
1002
}
1002
}
1000
GENINFO
1070
     0
1002
{
1000
3GENINF
1070
     4
1000
3
1002
{
1002
}
1000
4GENINF
1070
     4
1000
4
1002
{
1002
}
1000
5GENINF
1070
     4
1000
5
1002
{
1002
}
1000
6GENINF
1070
     4
1000
6
1002
{
1002
}
1000
7GENINF
1070
     4
1000
7
1002
{
1002
}
1000
8GENINF
1070
     4
1000
8
1002
{
1002
}
1000
9GENINF
1070
     4
1000
9
1002
{
1002
}
1000
10GENINF
1070
     4
1000
10
1002
{
1002
}
1000
11GENINF
1070
     4
1000
11
1002
{
1002
}
1000
12GENINF
1070
     4
1000
12
1002
{
1002
}
1000
13GENINF
1070
     4
1000
13
1002
{
1002
}
1000
14GENINF
1070
     4
1000
14
1002
{
1002
}
1000
15GENINF
1070
     4
1000
15
1002
{
1002
}
1000
16GENINF
1070
     4
1000
16
1002
{
1002
}
1000
17GENINF
1070
     4
1000
17
1002
{
1002
}
1000
18GENINF
1070
     4
1000
18
1002
{
1002
}
1000
19GENINF
1070
     4
1000
19
1002
{
1002
}
1000
20GENINF
1070
     4
1000
20
1002
{
1002
}
1000
21GENINF
1070
     4
1000
21
1002
{
1002
}
1000
22GENINF
1070
     4
1000
22
1002
{
1002
}
1002
}
1000
DININFO
1070
     0
1002
{
1000
ST-NAME1
1070
     4
1000
5
1002
{
1002
}
1000
ST-NAME2
1070
     4
1000
6
1002
{
1002
}
1000
ST-NORM1
1070
     4
1000
7
1002
{
1002
}
1000
ST-NORM2
1070
     4
1000
8
1002
{
1002
}
1000
ST-MAT1
1070
     4
1000
9
1002
{
1002
}
1000
ST-MAT2
1070
     4
1000
10
1002
{
1002
}
1002
}
1002
}
1000
POS_NUMBERS
1070
     0
1002
{
1000
GENPOS14
1070
     0
1002
{
1000
1GENPOS
1070
     4
1000
1
1002
{
1002
}
1000
2GENPOS
1070
     4
1000
2
1002
{
1002
}
1000
5GENPOS
1070
     4
1000
5
1002
{
1002
}
1000
7GENPOS
1070
     4
1000
7
1002
{
1002
}
1000
9GENPOS
1070
     4
1000
9
1002
{
1002
}
1000
11GENPOS
1070
     4
1000
11
1002
{
1002
}
1000
14GENPOS
1070
     4
1000
14
1002
{
1002
}
1002
}
1000
GENPOS13
1070
     0
1002
{
1000
1GENPOS
1070
     4
1000
1
1002
{
1002
}
1000
2GENPOS
1070
     4
1000
2
1002
{
1002
}
1000
3GENPOS
1070
     4
1000
3
1002
{
1002
}
1000
4GENPOS
1070
     4
1000
4
1002
{
1002
}
1000
5GENPOS
1070
     4
1000
5
1002
{
1002
}
1000
6GENPOS
1070
     4
1000
6
1002
{
1002
}
1000
7GENPOS
1070
     4
1000
7
1002
{
1002
}
1000
8GENPOS
1070
     4
1000
8
1002
{
1002
}
1000
9GENPOS
1070
     4
1000
9
1002
{
1002
}
1000
10GENPOS
1070
     4
1000
10
1002
{
1002
}
1000
11GENPOS
1070
     4
1000
11
1002
{
1002
}
1000
12GENPOS
1070
     4
1000
12
1002
{
1002
}
1000
13GENPOS
1070
     4
1000
13
1002
{
1002
}
1000
14GENPOS
1070
     4
1000
14
1002
{
1002
}
1000
15GENPOS
1070
     4
1000
15
1002
{
1002
}
1000
16GENPOS
1070
     4
1000
16
1002
{
1002
}
1000
17GENPOS
1070
     4
1000
17
1002
{
1002
}
1000
18GENPOS
1070
     4
1000
18
1002
{
1002
}
1000
19GENPOS
1070
     4
1000
19
1002
{
1002
}
1000
20GENPOS
1070
     4
1000
20
1002
{
1002
}
1000
21GENPOS
1070
     4
1000
21
1002
{
1002
}
1000
22GENPOS
1070
     4
1000
22
1002
{
1002
}
1000
23GENPOS
1070
     4
1000
23
1002
{
1002
}
1000
24GENPOS
1070
     4
1000
24
1002
{
1002
}
1000
0GENPOS
1070
     4
1000
0
1002
{
1002
}
1002
}
1000
GENPOS
1070
     0
1002
{
1000
1GENPOS
1070
     4
1000
1
1002
{
1002
}
1000
2GENPOS
1070
     4
1000
2
1002
{
1002
}
1000
3GENPOS
1070
     4
1000
3
1002
{
1002
}
1000
4GENPOS
1070
     4
1000
4
1002
{
1002
}
1000
5GENPOS
1070
     4
1000
5
1002
{
1002
}
1000
6GENPOS
1070
     4
1000
6
1002
{
1002
}
1000
7GENPOS
1070
     4
1000
7
1002
{
1002
}
1000
8GENPOS
1070
     4
1000
8
1002
{
1002
}
1000
9GENPOS
1070
     4
1000
9
1002
{
1002
}
1000
10GENPOS
1070
     4
1000
10
1002
{
1002
}
1000
11GENPOS
1070
     4
1000
11
1002
{
1002
}
1000
12GENPOS
1070
     4
1000
12
1002
{
1002
}
1000
13GENPOS
1070
     4
1000
13
1002
{
1002
}
1000
14GENPOS
1070
     4
1000
14
1002
{
1002
}
1000
15GENPOS
1070
     4
1000
15
1002
{
1002
}
1000
16GENPOS
1070
     4
1000
16
1002
{
1002
}
1000
17GENPOS
1070
     4
1000
17
1002
{
1002
}
1000
18GENPOS
1070
     4
1000
18
1002
{
1002
}
1000
19GENPOS
1070
     4
1000
19
1002
{
1002
}
1000
20GENPOS
1070
     4
1000
20
1002
{
1002
}
1000
21GENPOS
1070
     4
1000
21
1002
{
1002
}
1000
22GENPOS
1070
     4
1000
22
1002
{
1002
}
1000
23GENPOS
1070
     4
1000
23
1002
{
1002
}
1002
}
1000
DIN985
1070
     0
1002
{
1000
POSITION
1070
     4
1000
1
1002
{
1002
}
1000
MENGE
1070
     4
1000
2
1002
{
1002
}
1000
BLATT
1070
     4
1000
3
1002
{
1002
}
1000
BENENN
1070
     4
1000
5
1002
{
1002
}
1000
BENENN2
1070
     4
1000
6
1002
{
1002
}
1000
NORM
1070
     4
1000
7
1002
{
1002
}
1000
NORM2
1070
     4
1000
8
1002
{
1002
}
1000
WERKSTOFF
1070
     4
1000
9
1002
{
1002
}
1000
WERKSTOFF2
1070
     4
1000
10
1002
{
1002
}
1002
}
1000
DIN986
1070
     0
1002
{
1000
POSITION
1070
     4
1000
1
1002
{
1002
}
1000
MENGE
1070
     4
1000
2
1002
{
1002
}
1000
BLATT
1070
     4
1000
3
1002
{
1002
}
1000
BENENN
1070
     4
1000
5
1002
{
1002
}
1000
BENENN2
1070
     4
1000
6
1002
{
1002
}
1000
NORM
1070
     4
1000
7
1002
{
1002
}
1000
NORM2
1070
     4
1000
8
1002
{
1002
}
1000
WERKSTOFF
1070
     4
1000
9
1002
{
1002
}
1000
WERKSTOFF2
1070
     4
1000
10
1002
{
1002
}
1002
}
1000
DIN987
1070
     0
1002
{
1000
POSITION
1070
     4
1000
1
1002
{
1002
}
1000
MENGE
1070
     4
1000
2
1002
{
1002
}
1000
BLATT
1070
     4
1000
3
1002
{
1002
}
1000
BENENN
1070
     4
1000
5
1002
{
1002
}
1000
BENENN2
1070
     4
1000
6
1002
{
1002
}
1000
NORM
1070
     4
1000
7
1002
{
1002
}
1000
NORM2
1070
     4
1000
8
1002
{
1002
}
1000
WERKSTOFF
1070
     4
1000
9
1002
{
1002
}
1000
WERKSTOFF2
1070
     4
1000
10
1002
{
1002
}
1002
}
1002
}
  0
APPID
  5
131A
330
12B1
100
AcDbSymbolTableRecord
100
AcDbRegAppTableRecord
  2
GENIUS_GENCFG1_13
 70
     0
1001
GENIUS_GENCFG_13
1071
1022849358
1000
131A
1000
GEN@INFO_POS
1070
     7
1000
GenCfgObject
1000
GenCfgShort
1000
GenCfgReal
1000
GenCfgBool
1000
GenCfgString
1000
GenCfgDim
1000
GenCfgAttrInf
1000
DescrText
1070
     4
1000
5, ,6, ,7, ,8
1002
{
1002
}
1000
DescrText2
1070
     4
1000
26
1002
{
1002
}
1000
VisibleAttr1
1070
     4
1000
1
1002
{
1002
}
1000
VisibleAttr2
1070
     4
1000
26
1002
{
1002
}
1000
UpdateBlock
1070
     3
1070
     1
1002
{
1002
}
1000
Attrib
1070
     0
1002
{
1000
0
1070
     6
1002
{
1000
Prompt
1070
     4
1000
(genmsg gendwg 103)
1002
{
1002
}
1000
Value
1070
     4
1000

1002
{
1002
}
1000
EditFlag
1070
     1
1070
     0
1002
{
1002
}
1000
PosInDDATTE
1070
     1
1070
    27
1002
{
1002
}
1000
FieldLen
1070
     1
1070
    -1
1002
{
1002
}
1002
}
1000
1
1070
     6
1002
{
1000
Prompt
1070
     4
1000
(genmsg gendwg 31)
1002
{
1002
}
1000
Value
1070
     4
1000
1
1002
{
1002
}
1000
EditFlag
1070
     1
1070
     1
1002
{
1002
}
1000
PosInDDATTE
1070
     1
1070
     1
1002
{
1002
}
1000
FieldLen
1070
     1
1070
    -1
1002
{
1002
}
1002
}
1000
2
1070
     6
1002
{
1000
Prompt
1070
     4
1000
(genmsg gendwg 32)
1002
{
1002
}
1000
Value
1070
     4
1000
1
1002
{
1002
}
1000
EditFlag
1070
     1
1070
     1
1002
{
1002
}
1000
PosInDDATTE
1070
     1
1070
     2
1002
{
1002
}
1000
FieldLen
1070
     1
1070
    -1
1002
{
1002
}
1002
}
1000
3
1070
     6
1002
{
1000
Prompt
1070
     4
1000
(genmsg gendwg 33)
1002
{
1002
}
1000
Value
1070
     4
1000

1002
{
1002
}
1000
EditFlag
1070
     1
1070
     1
1002
{
1002
}
1000
PosInDDATTE
1070
     1
1070
     3
1002
{
1002
}
1000
FieldLen
1070
     1
1070
    -1
1002
{
1002
}
1002
}
1000
4
1070
     6
1002
{
1000
Prompt
1070
     4
1000
(genmsg gendwg 34)
1002
{
1002
}
1000
Value
1070
     4
1000

1002
{
1002
}
1000
EditFlag
1070
     1
1070
     1
1002
{
1002
}
1000
PosInDDATTE
1070
     1
1070
     4
1002
{
1002
}
1000
FieldLen
1070
     1
1070
    -1
1002
{
1002
}
1002
}
1000
5
1070
     6
1002
{
1000
Prompt
1070
     4
1000
(genmsg gendwg 35)
1002
{
1002
}
1000
Value
1070
     4
1000

1002
{
1002
}
1000
EditFlag
1070
     1
1070
     1
1002
{
1002
}
1000
PosInDDATTE
1070
     1
1070
     5
1002
{
1002
}
1000
FieldLen
1070
     1
1070
    -1
1002
{
1002
}
1002
}
1000
6
1070
     6
1002
{
1000
Prompt
1070
     4
1000
(genmsg gendwg 36)
1002
{
1002
}
1000
Value
1070
     4
1000

1002
{
1002
}
1000
EditFlag
1070
     1
1070
     1
1002
{
1002
}
1000
PosInDDATTE
1070
     1
1070
     6
1002
{
1002
}
1000
FieldLen
1070
     1
1070
    -1
1002
{
1002
}
1002
}
1000
7
1070
     6
1002
{
1000
Prompt
1070
     4
1000
(genmsg gendwg 37)
1002
{
1002
}
1000
Value
1070
     4
1000

1002
{
1002
}
1000
EditFlag
1070
     1
1070
     1
1002
{
1002
}
1000
PosInDDATTE
1070
     1
1070
     7
1002
{
1002
}
1000
FieldLen
1070
     1
1070
    -1
1002
{
1002
}
1002
}
1000
8
1070
     6
1002
{
1000
Prompt
1070
     4
1000
(genmsg gendwg 38)
1002
{
1002
}
1000
Value
1070
     4
1000

1002
{
1002
}
1000
EditFlag
1070
     1
1070
     1
1002
{
1002
}
1000
PosInDDATTE
1070
     1
1070
     8
1002
{
1002
}
1000
FieldLen
1070
     1
1070
    -1
1002
{
1002
}
1002
}
1000
9
1070
     6
1002
{
1000
Prompt
1070
     4
1000
(genmsg gendwg 39)
1002
{
1002
}
1000
Value
1070
     4
1000

1002
{
1002
}
1000
EditFlag
1070
     1
1070
     1
1002
{
1002
}
1000
PosInDDATTE
1070
     1
1070
     9
1002
{
1002
}
1000
FieldLen
1070
     1
1070
    -1
1002
{
1002
}
1002
}
1000
10
1070
     6
1002
{
1000
Prompt
1070
     4
1000
(genmsg gendwg 40)
1002
{
1002
}
1000
Value
1070
     4
1000

1002
{
1002
}
1000
EditFlag
1070
     1
1070
     1
1002
{
1002
}
1000
PosInDDATTE
1070
     1
1070
    10
1002
{
1002
}
1000
FieldLen
1070
     1
1070
    -1
1002
{
1002
}
1002
}
1000
11
1070
     6
1002
{
1000
Prompt
1070
     4
1000
(genmsg gendwg 41)
1002
{
1002
}
1000
Value
1070
     4
1000

1002
{
1002
}
1000
EditFlag
1070
     1
1070
     1
1002
{
1002
}
1000
PosInDDATTE
1070
     1
1070
    11
1002
{
1002
}
1000
FieldLen
1070
     1
1070
    -1
1002
{
1002
}
1002
}
1000
12
1070
     6
1002
{
1000
Prompt
1070
     4
1000
(genmsg gendwg 42)
1002
{
1002
}
1000
Value
1070
     4
1000

1002
{
1002
}
1000
EditFlag
1070
     1
1070
     1
1002
{
1002
}
1000
PosInDDATTE
1070
     1
1070
    12
1002
{
1002
}
1000
FieldLen
1070
     1
1070
    -1
1002
{
1002
}
1002
}
1000
13
1070
     6
1002
{
1000
Prompt
1070
     4
1000
(genmsg gendwg 43)
1002
{
1002
}
1000
Value
1070
     4
1000

1002
{
1002
}
1000
EditFlag
1070
     1
1070
     1
1002
{
1002
}
1000
PosInDDATTE
1070
     1
1070
    13
1002
{
1002
}
1000
FieldLen
1070
     1
1070
    -1
1002
{
1002
}
1002
}
1000
14
1070
     6
1002
{
1000
Prompt
1070
     4
1000
(genmsg gendwg 44)
1002
{
1002
}
1000
Value
1070
     4
1000

1002
{
1002
}
1000
EditFlag
1070
     1
1070
     1
1002
{
1002
}
1000
PosInDDATTE
1070
     1
1070
    14
1002
{
1002
}
1000
FieldLen
1070
     1
1070
    -1
1002
{
1002
}
1002
}
1000
15
1070
     6
1002
{
1000
Prompt
1070
     4
1000
(genmsg gendwg 45)
1002
{
1002
}
1000
Value
1070
     4
1000

1002
{
1002
}
1000
EditFlag
1070
     1
1070
     1
1002
{
1002
}
1000
PosInDDATTE
1070
     1
1070
    15
1002
{
1002
}
1000
FieldLen
1070
     1
1070
    -1
1002
{
1002
}
1002
}
1000
16
1070
     6
1002
{
1000
Prompt
1070
     4
1000
(genmsg gendwg 46)
1002
{
1002
}
1000
Value
1070
     4
1000

1002
{
1002
}
1000
EditFlag
1070
     1
1070
     1
1002
{
1002
}
1000
PosInDDATTE
1070
     1
1070
    16
1002
{
1002
}
1000
FieldLen
1070
     1
1070
    -1
1002
{
1002
}
1002
}
1000
17
1070
     6
1002
{
1000
Prompt
1070
     4
1000
(genmsg gendwg 47)
1002
{
1002
}
1000
Value
1070
     4
1000

1002
{
1002
}
1000
EditFlag
1070
     1
1070
     1
1002
{
1002
}
1000
PosInDDATTE
1070
     1
1070
    17
1002
{
1002
}
1000
FieldLen
1070
     1
1070
    -1
1002
{
1002
}
1002
}
1000
18
1070
     6
1002
{
1000
Prompt
1070
     4
1000
(genmsg gendwg 48)
1002
{
1002
}
1000
Value
1070
     4
1000

1002
{
1002
}
1000
EditFlag
1070
     1
1070
     1
1002
{
1002
}
1000
PosInDDATTE
1070
     1
1070
    18
1002
{
1002
}
1000
FieldLen
1070
     1
1070
    -1
1002
{
1002
}
1002
}
1000
19
1070
     6
1002
{
1000
Prompt
1070
     4
1000
(genmsg gendwg 99)
1002
{
1002
}
1000
Value
1070
     4
1000

1002
{
1002
}
1000
EditFlag
1070
     1
1070
     1
1002
{
1002
}
1000
PosInDDATTE
1070
     1
1070
    19
1002
{
1002
}
1000
FieldLen
1070
     1
1070
    -1
1002
{
1002
}
1002
}
1000
20
1070
     6
1002
{
1000
Prompt
1070
     4
1000
(genmsg gendwg 100)
1002
{
1002
}
1000
Value
1070
     4
1000

1002
{
1002
}
1000
EditFlag
1070
     1
1070
     1
1002
{
1002
}
1000
PosInDDATTE
1070
     1
1070
    20
1002
{
1002
}
1000
FieldLen
1070
     1
1070
    -1
1002
{
1002
}
1002
}
1000
21
1070
     6
1002
{
1000
Prompt
1070
     4
1000
(genmsg gendwg 101)
1002
{
1002
}
1000
Value
1070
     4
1000

1002
{
1002
}
1000
EditFlag
1070
     1
1070
     1
1002
{
1002
}
1000
PosInDDATTE
1070
     1
1070
    21
1002
{
1002
}
1000
FieldLen
1070
     1
1070
    -1
1002
{
1002
}
1002
}
1000
22
1070
     6
1002
{
1000
Prompt
1070
     4
1000
(genmsg gendwg 102)
1002
{
1002
}
1000
Value
1070
     4
1000

1002
{
1002
}
1000
EditFlag
1070
     1
1070
     1
1002
{
1002
}
1000
PosInDDATTE
1070
     1
1070
    22
1002
{
1002
}
1000
FieldLen
1070
     1
1070
    -1
1002
{
1002
}
1002
}
1000
23
1070
     6
1002
{
1000
Prompt
1070
     4
1000
(genmsg gendwg 30)
1002
{
1002
}
1000
Value
1070
     4
1000

1002
{
1002
}
1000
EditFlag
1070
     1
1070
     1
1002
{
1002
}
1000
PosInDDATTE
1070
     1
1070
    23
1002
{
1002
}
1000
FieldLen
1070
     1
1070
    -1
1002
{
1002
}
1002
}
1000
24
1070
     6
1002
{
1000
Prompt
1070
     4
1000
(genmsg gendwg 104)
1002
{
1002
}
1000
Value
1070
     4
1000

1002
{
1002
}
1000
EditFlag
1070
     1
1070
     1
1002
{
1002
}
1000
PosInDDATTE
1070
     1
1070
    24
1002
{
1002
}
1000
FieldLen
1070
     1
1070
    -1
1002
{
1002
}
1002
}
1000
25
1070
     6
1002
{
1000
Prompt
1070
     4
1000
(genmsg gendwg 105)
1002
{
1002
}
1000
Value
1070
     4
1000

1002
{
1002
}
1000
EditFlag
1070
     1
1070
     1
1002
{
1002
}
1000
PosInDDATTE
1070
     1
1070
    25
1002
{
1002
}
1000
FieldLen
1070
     1
1070
    -1
1002
{
1002
}
1002
}
1000
26
1070
     6
1002
{
1000
Prompt
1070
     4
1000
(genmsg gendwg 106)
1002
{
1002
}
1000
Value
1070
     4
1000

1002
{
1002
}
1000
EditFlag
1070
     1
1070
     1
1002
{
1002
}
1000
PosInDDATTE
1070
     1
1070
    26
1002
{
1002
}
1000
FieldLen
1070
     1
1070
    -1
1002
{
1002
}
1002
}
1000
27
1070
     6
1002
{
1000
Prompt
1070
     4
1000
(genmsg gendwg 109)
1002
{
1002
}
1000
Value
1070
     4
1000

1002
{
1002
}
1000
EditFlag
1070
     1
1070
     2
1002
{
1002
}
1000
PosInDDATTE
1070
     1
1070
    27
1002
{
1002
}
1000
FieldLen
1070
     1
1070
    -1
1002
{
1002
}
1002
}
1002
}
1000
Xlate
1070
     0
1002
{
1000
>
1002
}
  0
APPID
  5
131B
330
12B1
100
AcDbSymbolTableRecord
100
AcDbRegAppTableRecord
  2
GENIUS_GENCFG2_13
 70
     0
1001
GENIUS_GENCFG_13
1071
1022849358
1000
131B
1000
GEN@LAYER@DEFS
1070
     9
1000
GenCfgObject
1000
GenCfgShort
1000
GenCfgReal
1000
GenCfgBool
1000
GenCfgString
1000
GenCfgDim
1000
GenCfgAttrInf
1000
GenCfgLaySection
1000
GenCfgLayer
1000
Basic
1070
     0
1002
{
1000
0
1070
     8
1000
0
1002
{
1000
Color
1070
     1
1070
     7
1002
{
1002
}
1000
LType
1070
     4
1000
CONTINUOUS
1002
{
1002
}
1000
Base
1070
     3
1070
     0
1002
{
1002
}
1002
}
1000
1
1070
     8
1000
1
1002
{
1000
Color
1070
     1
1070
    14
1002
{
1002
}
1000
LType
1070
     4
1000
CONTINUOUS
1002
{
1002
}
1000
Base
1070
     3
1070
     0
1002
{
1002
}
1002
}
1000
2
1070
     8
1000
2
1002
{
1000
Color
1070
     1
1070
     5
1002
{
1002
}
1000
LType
1070
     4
1000
CONTINUOUS
1002
{
1002
}
1000
Base
1070
     3
1070
     0
1002
{
1002
}
1002
}
1000
3
1070
     8
1000
3
1002
{
1000
Color
1070
     1
1070
     6
1002
{
1002
}
1000
LType
1070
     4
1000
GEN3
1002
{
1002
}
1000
Base
1070
     3
1070
     0
1002
{
1002
}
1002
}
1000
4
1070
     8
1000
4
1002
{
1000
Color
1070
     1
1070
     3
1002
{
1002
}
1000
LType
1070
     4
1000
CONTINUOUS
1002
{
1002
}
1000
Base
1070
     3
1070
     0
1002
{
1002
}
1002
}
1000
5
1070
     8
1000
5
1002
{
1000
Color
1070
     1
1070
     3
1002
{
1002
}
1000
LType
1070
     4
1000
CONTINUOUS
1002
{
1002
}
1000
Base
1070
     3
1070
     0
1002
{
1002
}
1002
}
1000
6
1070
     8
1000
6
1002
{
1000
Color
1070
     1
1070
     2
1002
{
1002
}
1000
LType
1070
     4
1000
CONTINUOUS
1002
{
1002
}
1000
Base
1070
     3
1070
     0
1002
{
1002
}
1002
}
1000
7
1070
     8
1000
7
1002
{
1000
Color
1070
     1
1070
     4
1002
{
1002
}
1000
LType
1070
     4
1000
GEN7
1002
{
1002
}
1000
Base
1070
     3
1070
     0
1002
{
1002
}
1002
}
1000
8
1070
     8
1000
8
1002
{
1000
Color
1070
     1
1070
     1
1002
{
1002
}
1000
LType
1070
     4
1000
CONTINUOUS
1002
{
1002
}
1000
Base
1070
     3
1070
     0
1002
{
1002
}
1002
}
1000
3A
1070
     8
1000
3A
1002
{
1000
Color
1070
     1
1070
     6
1002
{
1002
}
1000
LType
1070
     4
1000
GEN3A
1002
{
1002
}
1000
Base
1070
     3
1070
     0
1002
{
1002
}
1002
}
1000
7A
1070
     8
1000
7A
1002
{
1000
Color
1070
     1
1070
     4
1002
{
1002
}
1000
LType
1070
     4
1000
GEN7A
1002
{
1002
}
1000
Base
1070
     3
1070
     0
1002
{
1002
}
1002
}
1000
2A
1070
     8
1000
2A
1002
{
1000
Color
1070
     1
1070
     7
1002
{
1002
}
1000
LType
1070
     4
1000
GEN7
1002
{
1002
}
1000
Base
1070
     3
1070
     0
1002
{
1002
}
1002
}
1000
4A
1070
     8
1000
4A
1002
{
1000
Color
1070
     1
1070
     3
1002
{
1002
}
1000
LType
1070
     4
1000
GEN4A
1002
{
1002
}
1000
Base
1070
     3
1070
     0
1002
{
1002
}
1002
}
1000
9
1070
     8
1000
9
1002
{
1000
Color
1070
     1
1070
   253
1002
{
1002
}
1000
LType
1070
     4
1000
CONTINUOUS
1002
{
1002
}
1000
Base
1070
     3
1070
     0
1002
{
1002
}
1002
}
1000
IP
1070
     8
1000
IP
1002
{
1000
Color
1070
     1
1070
     7
1002
{
1002
}
1000
LType
1070
     4
1000
CONTINUOUS
1002
{
1002
}
1000
Base
1070
     3
1070
     0
1002
{
1002
}
1002
}
1002
}
1000
Standard
1070
     0
1002
{
1000
0N
1070
     8
1000
0N
1002
{
1000
Color
1070
     1
1070
     7
1002
{
1002
}
1000
LType
1070
     4
1000
CONTINUOUS
1002
{
1002
}
1000
Base
1070
     3
1070
     0
1002
{
1002
}
1002
}
1000
1N
1070
     8
1000
1N
1002
{
1000
Color
1070
     1
1070
    14
1002
{
1002
}
1000
LType
1070
     4
1000
CONTINUOUS
1002
{
1002
}
1000
Base
1070
     3
1070
     0
1002
{
1002
}
1002
}
1000
2N
1070
     8
1000
2N
1002
{
1000
Color
1070
     1
1070
     5
1002
{
1002
}
1000
LType
1070
     4
1000
CONTINUOUS
1002
{
1002
}
1000
Base
1070
     3
1070
     0
1002
{
1002
}
1002
}
1000
3N
1070
     8
1000
3N
1002
{
1000
Color
1070
     1
1070
     6
1002
{
1002
}
1000
LType
1070
     4
1000
GEN3
1002
{
1002
}
1000
Base
1070
     3
1070
     0
1002
{
1002
}
1002
}
1000
4N
1070
     8
1000
4N
1002
{
1000
Color
1070
     1
1070
     3
1002
{
1002
}
1000
LType
1070
     4
1000
CONTINUOUS
1002
{
1002
}
1000
Base
1070
     3
1070
     0
1002
{
1002
}
1002
}
1000
5N
1070
     8
1000
5N
1002
{
1000
Color
1070
     1
1070
     3
1002
{
1002
}
1000
LType
1070
     4
1000
CONTINUOUS
1002
{
1002
}
1000
Base
1070
     3
1070
     0
1002
{
1002
}
1002
}
1000
6N
1070
     8
1000
6N
1002
{
1000
Color
1070
     1
1070
     2
1002
{
1002
}
1000
LType
1070
     4
1000
CONTINUOUS
1002
{
1002
}
1000
Base
1070
     3
1070
     0
1002
{
1002
}
1002
}
1000
7N
1070
     8
1000
7N
1002
{
1000
Color
1070
     1
1070
     4
1002
{
1002
}
1000
LType
1070
     4
1000
GEN7
1002
{
1002
}
1000
Base
1070
     3
1070
     0
1002
{
1002
}
1002
}
1000
8N
1070
     8
1000
8N
1002
{
1000
Color
1070
     1
1070
     1
1002
{
1002
}
1000
LType
1070
     4
1000
CONTINUOUS
1002
{
1002
}
1000
Base
1070
     3
1070
     0
1002
{
1002
}
1002
}
1000
3AN
1070
     8
1000
3AN
1002
{
1000
Color
1070
     1
1070
     6
1002
{
1002
}
1000
LType
1070
     4
1000
GEN3A
1002
{
1002
}
1000
Base
1070
     3
1070
     0
1002
{
1002
}
1002
}
1000
7AN
1070
     8
1000
7AN
1002
{
1000
Color
1070
     1
1070
     4
1002
{
1002
}
1000
LType
1070
     4
1000
GEN7A
1002
{
1002
}
1000
Base
1070
     3
1070
     0
1002
{
1002
}
1002
}
1000
2AN
1070
     8
1000
2AN
1002
{
1000
Color
1070
     1
1070
     7
1002
{
1002
}
1000
LType
1070
     4
1000
GEN7
1002
{
1002
}
1000
Base
1070
     3
1070
     0
1002
{
1002
}
1002
}
1000
4AN
1070
     8
1000
4AN
1002
{
1000
Color
1070
     1
1070
     3
1002
{
1002
}
1000
LType
1070
     4
1000
GEN4A
1002
{
1002
}
1000
Base
1070
     3
1070
     0
1002
{
1002
}
1002
}
1000
9N
1070
     8
1000
9N
1002
{
1000
Color
1070
     1
1070
   253
1002
{
1002
}
1000
LType
1070
     4
1000
CONTINUOUS
1002
{
1002
}
1000
Base
1070
     3
1070
     0
1002
{
1002
}
1002
}
1000
IPN
1070
     8
1000
IPN
1002
{
1000
Color
1070
     1
1070
     7
1002
{
1002
}
1000
LType
1070
     4
1000
CONTINUOUS
1002
{
1002
}
1000
Base
1070
     3
1070
     0
1002
{
1002
}
1002
}
1002
}
1000
Extra
1070
     0
1002
{
1000
Klin
1070
     8
1000
KLIN
1002
{
1000
Color
1070
     1
1070
     1
1002
{
1002
}
1000
LType
1070
     4
1000
CONTINUOUS
1002
{
1002
}
1000
Base
1070
     3
1070
     1
1002
{
1002
}
1002
}
1000
Info
1070
     8
1000
INFO
1002
{
1000
Color
1070
     1
1070
     4
1002
{
1002
}
1000
LType
1070
     4
1000
CONTINUOUS
1002
{
1002
}
1000
Base
1070
     3
1070
     1
1002
{
1002
}
1002
}
1000
Rahm2
1070
     8
1000
RAHM2
1002
{
1000
Color
1070
     1
1070
     1
1002
{
1002
}
1000
LType
1070
     4
1000
CONTINUOUS
1002
{
1002
}
1000
Base
1070
     3
1070
     1
1002
{
1002
}
1002
}
1000
Rahm3
1070
     8
1000
RAHM3
1002
{
1000
Color
1070
     1
1070
     2
1002
{
1002
}
1000
LType
1070
     4
1000
CONTINUOUS
1002
{
1002
}
1000
Base
1070
     3
1070
     1
1002
{
1002
}
1002
}
1000
Rahm5
1070
     8
1000
RAHM5
1002
{
1000
Color
1070
     1
1070
     7
1002
{
1002
}
1000
LType
1070
     4
1000
CONTINUOUS
1002
{
1002
}
1000
Base
1070
     3
1070
     1
1002
{
1002
}
1002
}
1000
View
1070
     8
1000
VIEW
1002
{
1000
Color
1070
     1
1070
     1
1002
{
1002
}
1000
LType
1070
     4
1000
CONTINUOUS
1002
{
1002
}
1000
Base
1070
     3
1070
     1
1002
{
1002
}
1002
}
1000
Behind
1070
     8
1000
BEHIND
1002
{
1000
Color
1070
     1
1070
   253
1002
{
1002
}
1000
LType
1070
     4
1000
CONTINUOUS
1002
{
1002
}
1000
Base
1070
     3
1070
     1
1002
{
1002
}
1002
}
1002
}
  0
APPID
  5
131C
330
12B1
100
AcDbSymbolTableRecord
100
AcDbRegAppTableRecord
  2
GENIUS_GENCFG3_13
 70
     0
1001
GENIUS_GENCFG_13
1071
1022849358
1000
131C
1000
GEN@LAYER@ENTSORT
1070
    10
1000
GenCfgObject
1000
GenCfgShort
1000
GenCfgReal
1000
GenCfgBool
1000
GenCfgString
1000
GenCfgDim
1000
GenCfgAttrInf
1000
GenCfgLaySection
1000
GenCfgLayer
1000
GenCfgEntSort
1000
ADDL
1070
     9
1000
5
1002
{
1000
Class
1070
     4
1000
SYM
1002
{
1002
}
1000
Color
1070
     1
1070
     1
1002
{
1002
}
1000
LType
1070
     4
1000
BYLAYER
1002
{
1002
}
1002
}
1000
ALTR
1070
     9
1000
4
1002
{
1000
Class
1070
     4
1000

1002
{
1002
}
1000
Color
1070
     1
1070
     7
1002
{
1002
}
1000
LType
1070
     4
1000
GEN3A
1002
{
1002
}
1002
}
1000
BELI
1070
     9
1000
4
1002
{
1000
Class
1070
     4
1000

1002
{
1002
}
1000
Color
1070
     1
1070
   256
1002
{
1002
}
1000
LType
1070
     4
1000
BYLAYER
1002
{
1002
}
1002
}
1000
BHNV
1070
     9
1000
9
1002
{
1000
Class
1070
     4
1000
INV
1002
{
1002
}
1000
Color
1070
     1
1070
   256
1002
{
1002
}
1000
LType
1070
     4
1000
BYLAYER
1002
{
1002
}
1002
}
1000
BHNVS
1070
     9
1000
BEHIND
1002
{
1000
Class
1070
     4
1000
INV
1002
{
1002
}
1000
Color
1070
     1
1070
   256
1002
{
1002
}
1000
LType
1070
     4
1000
BYLAYER
1002
{
1002
}
1002
}
1000
BLID
1070
     9
1000
4A
1002
{
1000
Class
1070
     4
1000

1002
{
1002
}
1000
Color
1070
     1
1070
   256
1002
{
1002
}
1000
LType
1070
     4
1000
BYLAYER
1002
{
1002
}
1002
}
1000
BOAP
1070
     9
1000
4A
1002
{
1000
Class
1070
     4
1000

1002
{
1002
}
1000
Color
1070
     1
1070
   256
1002
{
1002
}
1000
LType
1070
     4
1000
BYLAYER
1002
{
1002
}
1002
}
1000
BOR2
1070
     9
1000
RAHM2
1002
{
1000
Class
1070
     4
1000
SPZ,SYM
1002
{
1002
}
1000
Color
1070
     1
1070
   256
1002
{
1002
}
1000
LType
1070
     4
1000
BYLAYER
1002
{
1002
}
1002
}
1000
BOR3
1070
     9
1000
RAHM3
1002
{
1000
Class
1070
     4
1000
SPZ,SYM
1002
{
1002
}
1000
Color
1070
     1
1070
   256
1002
{
1002
}
1000
LType
1070
     4
1000
BYLAYER
1002
{
1002
}
1002
}
1000
BOR5
1070
     9
1000
RAHM5
1002
{
1000
Class
1070
     4
1000
SPZ,SYM
1002
{
1002
}
1000
Color
1070
     1
1070
   256
1002
{
1002
}
1000
LType
1070
     4
1000
BYLAYER
1002
{
1002
}
1002
}
1000
BOR7
1070
     9
1000
RAHM5
1002
{
1000
Class
1070
     4
1000
SPZ,SYM
1002
{
1002
}
1000
Color
1070
     1
1070
     7
1002
{
1002
}
1000
LType
1070
     4
1000
CONTINUOUS
1002
{
1002
}
1002
}
1000
BPAP
1070
     9
1000
4A
1002
{
1000
Class
1070
     4
1000

1002
{
1002
}
1000
Color
1070
     1
1070
   256
1002
{
1002
}
1000
LType
1070
     4
1000
BYLAYER
1002
{
1002
}
1002
}
1000
BPEX
1070
     9
1000
4A
1002
{
1000
Class
1070
     4
1000

1002
{
1002
}
1000
Color
1070
     1
1070
   256
1002
{
1002
}
1000
LType
1070
     4
1000
BYLAYER
1002
{
1002
}
1002
}
1000
BTDI
1070
     9
1000
5
1002
{
1000
Class
1070
     4
1000
DIM,SYM
1002
{
1002
}
1000
Color
1070
     1
1070
   256
1002
{
1002
}
1000
LType
1070
     4
1000
BYLAYER
1002
{
1002
}
1002
}
1000
CAL2
1070
     9
1000
4
1002
{
1000
Class
1070
     4
1000
SYM
1002
{
1002
}
1000
Color
1070
     1
1070
   256
1002
{
1002
}
1000
LType
1070
     4
1000
BYLAYER
1002
{
1002
}
1002
}
1000
CAL3
1070
     9
1000
4
1002
{
1000
Class
1070
     4
1000
SYM
1002
{
1002
}
1000
Color
1070
     1
1070
     2
1002
{
1002
}
1000
LType
1070
     4
1000
BYLAYER
1002
{
1002
}
1002
}
1000
CAL5
1070
     9
1000
4
1002
{
1000
Class
1070
     4
1000
SYM
1002
{
1002
}
1000
Color
1070
     1
1070
     7
1002
{
1002
}
1000
LType
1070
     4
1000
BYLAYER
1002
{
1002
}
1002
}
1000
CAL7
1070
     9
1000
4
1002
{
1000
Class
1070
     4
1000
SYM
1002
{
1002
}
1000
Color
1070
     1
1070
     5
1002
{
1002
}
1000
LType
1070
     4
1000
BYLAYER
1002
{
1002
}
1002
}
1000
CENN
1070
     9
1000
7A
1002
{
1000
Class
1070
     4
1000
CEN
1002
{
1002
}
1000
Color
1070
     1
1070
   256
1002
{
1002
}
1000
LType
1070
     4
1000
BYLAYER
1002
{
1002
}
1002
}
1000
CENW
1070
     9
1000
7
1002
{
1000
Class
1070
     4
1000
CEN
1002
{
1002
}
1000
Color
1070
     1
1070
   256
1002
{
1002
}
1000
LType
1070
     4
1000
BYLAYER
1002
{
1002
}
1002
}
1000
CLIN
1070
     9
1000
KLIN
1002
{
1000
Class
1070
     4
1000
SPZ
1002
{
1002
}
1000
Color
1070
     1
1070
   256
1002
{
1002
}
1000
LType
1070
     4
1000
BYLAYER
1002
{
1002
}
1002
}
1000
CON1
1070
     9
1000
0
1002
{
1000
Class
1070
     4
1000
CON,BGD
1002
{
1002
}
1000
Color
1070
     1
1070
   256
1002
{
1002
}
1000
LType
1070
     4
1000
BYLAYER
1002
{
1002
}
1002
}
1000
CON2
1070
     9
1000
1
1002
{
1000
Class
1070
     4
1000
CON,BGD
1002
{
1002
}
1000
Color
1070
     1
1070
   256
1002
{
1002
}
1000
LType
1070
     4
1000
BYLAYER
1002
{
1002
}
1002
}
1000
CON3
1070
     9
1000
2
1002
{
1000
Class
1070
     4
1000
CON,BGD
1002
{
1002
}
1000
Color
1070
     1
1070
   256
1002
{
1002
}
1000
LType
1070
     4
1000
BYLAYER
1002
{
1002
}
1002
}
1000
CON4
1070
     9
1000
2
1002
{
1000
Class
1070
     4
1000
CON,BGD
1002
{
1002
}
1000
Color
1070
     1
1070
   256
1002
{
1002
}
1000
LType
1070
     4
1000
BYLAYER
1002
{
1002
}
1002
}
1000
DERP
1070
     9
1000
4
1002
{
1000
Class
1070
     4
1000

1002
{
1002
}
1000
Color
1070
     1
1070
   256
1002
{
1002
}
1000
LType
1070
     4
1000
BYLAYER
1002
{
1002
}
1002
}
1000
DETA
1070
     9
1000
4
1002
{
1000
Class
1070
     4
1000

1002
{
1002
}
1000
Color
1070
     1
1070
   256
1002
{
1002
}
1000
LType
1070
     4
1000
BYLAYER
1002
{
1002
}
1002
}
1000
DIAG
1070
     9
1000
5
1002
{
1000
Class
1070
     4
1000
SYM
1002
{
1002
}
1000
Color
1070
     1
1070
   256
1002
{
1002
}
1000
LType
1070
     4
1000
BYLAYER
1002
{
1002
}
1002
}
1000
DILI
1070
     9
1000
5
1002
{
1000
Class
1070
     4
1000
DIM,SYM
1002
{
1002
}
1000
Color
1070
     1
1070
   256
1002
{
1002
}
1000
LType
1070
     4
1000
BYLAYER
1002
{
1002
}
1002
}
1000
DITO2
1070
     9
1000
5
1002
{
1000
Class
1070
     4
1000
DIM,SYM
1002
{
1002
}
1000
Color
1070
     1
1070
     3
1002
{
1002
}
1000
LType
1070
     4
1000
BYLAYER
1002
{
1002
}
1002
}
1000
DITO3
1070
     9
1000
5
1002
{
1000
Class
1070
     4
1000
DIM,SYM
1002
{
1002
}
1000
Color
1070
     1
1070
     2
1002
{
1002
}
1000
LType
1070
     4
1000
BYLAYER
1002
{
1002
}
1002
}
1000
DITX
1070
     9
1000
5
1002
{
1000
Class
1070
     4
1000
DIM,SYM
1002
{
1002
}
1000
Color
1070
     1
1070
     2
1002
{
1002
}
1000
LType
1070
     4
1000
CONTINUOUS
1002
{
1002
}
1002
}
1000
DIXL
1070
     9
1000
5
1002
{
1000
Class
1070
     4
1000
DIM,SYM
1002
{
1002
}
1000
Color
1070
     1
1070
   256
1002
{
1002
}
1000
LType
1070
     4
1000
BYLAYER
1002
{
1002
}
1002
}
1000
EXMP
1070
     9
1000
4A
1002
{
1000
Class
1070
     4
1000

1002
{
1002
}
1000
Color
1070
     1
1070
   256
1002
{
1002
}
1000
LType
1070
     4
1000
BYLAYER
1002
{
1002
}
1002
}
1000
FEMN
1070
     9
1000
8
1002
{
1000
Class
1070
     4
1000

1002
{
1002
}
1000
Color
1070
     1
1070
   256
1002
{
1002
}
1000
LType
1070
     4
1000
BYLAYER
1002
{
1002
}
1002
}
1000
FEMPN
1070
     9
1000
8
1002
{
1000
Class
1070
     4
1000
SYM
1002
{
1002
}
1000
Color
1070
     1
1070
     3
1002
{
1002
}
1000
LType
1070
     4
1000
BYLAYER
1002
{
1002
}
1002
}
1000
FEMSP
1070
     9
1000
4A
1002
{
1000
Class
1070
     4
1000

1002
{
1002
}
1000
Color
1070
     1
1070
   256
1002
{
1002
}
1000
LType
1070
     4
1000
CONTINUOUS
1002
{
1002
}
1002
}
1000
FEMST
1070
     9
1000
4A
1002
{
1000
Class
1070
     4
1000
SYM
1002
{
1002
}
1000
Color
1070
     1
1070
     3
1002
{
1002
}
1000
LType
1070
     4
1000
BYLAYER
1002
{
1002
}
1002
}
1000
FEMVN
1070
     9
1000
2
1002
{
1000
Class
1070
     4
1000
CON
1002
{
1002
}
1000
Color
1070
     1
1070
   256
1002
{
1002
}
1000
LType
1070
     4
1000
BYLAYER
1002
{
1002
}
1002
}
1000
FEMVT
1070
     9
1000
2
1002
{
1000
Class
1070
     4
1000
SYM
1002
{
1002
}
1000
Color
1070
     1
1070
     3
1002
{
1002
}
1000
LType
1070
     4
1000
BYLAYER
1002
{
1002
}
1002
}
1000
FLAT
1070
     9
1000
0
1002
{
1000
Class
1070
     4
1000

1002
{
1002
}
1000
Color
1070
     1
1070
   256
1002
{
1002
}
1000
LType
1070
     4
1000
BYLAYER
1002
{
1002
}
1002
}
1000
FRAR
1070
     9
1000
4A
1002
{
1000
Class
1070
     4
1000

1002
{
1002
}
1000
Color
1070
     1
1070
   256
1002
{
1002
}
1000
LType
1070
     4
1000
BYLAYER
1002
{
1002
}
1002
}
1000
GRLI
1070
     9
1000
5
1002
{
1000
Class
1070
     4
1000
SYM
1002
{
1002
}
1000
Color
1070
     1
1070
   256
1002
{
1002
}
1000
LType
1070
     4
1000
BYLAYER
1002
{
1002
}
1002
}
1000
GVLI
1070
     9
1000
4A
1002
{
1000
Class
1070
     4
1000

1002
{
1002
}
1000
Color
1070
     1
1070
   256
1002
{
1002
}
1000
LType
1070
     4
1000
BYLAYER
1002
{
1002
}
1002
}
1000
HATC
1070
     9
1000
8
1002
{
1000
Class
1070
     4
1000
HTC,BGD
1002
{
1002
}
1000
Color
1070
     1
1070
   256
1002
{
1002
}
1000
LType
1070
     4
1000
BYLAYER
1002
{
1002
}
1002
}
1000
HIDN
1070
     9
1000
3A
1002
{
1000
Class
1070
     4
1000
HID,BGD
1002
{
1002
}
1000
Color
1070
     1
1070
   256
1002
{
1002
}
1000
LType
1070
     4
1000
BYLAYER
1002
{
1002
}
1002
}
1000
HIDW
1070
     9
1000
3
1002
{
1000
Class
1070
     4
1000
HID,BGD
1002
{
1002
}
1000
Color
1070
     1
1070
   256
1002
{
1002
}
1000
LType
1070
     4
1000
BYLAYER
1002
{
1002
}
1002
}
1000
HLIN
1070
     9
1000
4
1002
{
1000
Class
1070
     4
1000
BGD
1002
{
1002
}
1000
Color
1070
     1
1070
   256
1002
{
1002
}
1000
LType
1070
     4
1000
BYLAYER
1002
{
1002
}
1002
}
1000
HOCN
1070
     9
1000
7A
1002
{
1000
Class
1070
     4
1000
CEN
1002
{
1002
}
1000
Color
1070
     1
1070
   256
1002
{
1002
}
1000
LType
1070
     4
1000
BYLAYER
1002
{
1002
}
1002
}
1000
HOCW
1070
     9
1000
7
1002
{
1000
Class
1070
     4
1000
CEN
1002
{
1002
}
1000
Color
1070
     1
1070
   256
1002
{
1002
}
1000
LType
1070
     4
1000
BYLAYER
1002
{
1002
}
1002
}
1000
INFO
1070
     9
1000
INFO
1002
{
1000
Class
1070
     4
1000
SPZ,SYM
1002
{
1002
}
1000
Color
1070
     1
1070
   256
1002
{
1002
}
1000
LType
1070
     4
1000
BYLAYER
1002
{
1002
}
1002
}
1000
LADI
1070
     9
1000
4
1002
{
1000
Class
1070
     4
1000
BGD
1002
{
1002
}
1000
Color
1070
     1
1070
   256
1002
{
1002
}
1000
LType
1070
     4
1000
BYLAYER
1002
{
1002
}
1002
}
1000
LEAD
1070
     9
1000
5
1002
{
1000
Class
1070
     4
1000
SYM
1002
{
1002
}
1000
Color
1070
     1
1070
   256
1002
{
1002
}
1000
LType
1070
     4
1000
BYLAYER
1002
{
1002
}
1002
}
1000
N_ADDL
1070
     9
1000
5N
1002
{
1000
Class
1070
     4
1000
SYM
1002
{
1002
}
1000
Color
1070
     1
1070
     1
1002
{
1002
}
1000
LType
1070
     4
1000
BYLAYER
1002
{
1002
}
1002
}
1000
N_BHNV
1070
     9
1000
9N
1002
{
1000
Class
1070
     4
1000
INV
1002
{
1002
}
1000
Color
1070
     1
1070
   256
1002
{
1002
}
1000
LType
1070
     4
1000
BYLAYER
1002
{
1002
}
1002
}
1000
N_CON1
1070
     9
1000
0N
1002
{
1000
Class
1070
     4
1000
CON,BGD
1002
{
1002
}
1000
Color
1070
     1
1070
   256
1002
{
1002
}
1000
LType
1070
     4
1000
BYLAYER
1002
{
1002
}
1002
}
1000
N_CON2
1070
     9
1000
1N
1002
{
1000
Class
1070
     4
1000
CON,BGD
1002
{
1002
}
1000
Color
1070
     1
1070
   256
1002
{
1002
}
1000
LType
1070
     4
1000
BYLAYER
1002
{
1002
}
1002
}
1000
N_CON3
1070
     9
1000
2N
1002
{
1000
Class
1070
     4
1000
CON,BGD
1002
{
1002
}
1000
Color
1070
     1
1070
   256
1002
{
1002
}
1000
LType
1070
     4
1000
BYLAYER
1002
{
1002
}
1002
}
1000
N_CON4
1070
     9
1000
2N
1002
{
1000
Class
1070
     4
1000
CON,BGD
1002
{
1002
}
1000
Color
1070
     1
1070
   256
1002
{
1002
}
1000
LType
1070
     4
1000
BYLAYER
1002
{
1002
}
1002
}
1000
N_CENN
1070
     9
1000
7AN
1002
{
1000
Class
1070
     4
1000
CEN
1002
{
1002
}
1000
Color
1070
     1
1070
   256
1002
{
1002
}
1000
LType
1070
     4
1000
BYLAYER
1002
{
1002
}
1002
}
1000
N_CENW
1070
     9
1000
7N
1002
{
1000
Class
1070
     4
1000
CEN
1002
{
1002
}
1000
Color
1070
     1
1070
   256
1002
{
1002
}
1000
LType
1070
     4
1000
BYLAYER
1002
{
1002
}
1002
}
1000
N_DILI
1070
     9
1000
5N
1002
{
1000
Class
1070
     4
1000
DIM,SYM
1002
{
1002
}
1000
Color
1070
     1
1070
   256
1002
{
1002
}
1000
LType
1070
     4
1000
BYLAYER
1002
{
1002
}
1002
}
1000
N_DITX
1070
     9
1000
5N
1002
{
1000
Class
1070
     4
1000
DIM,SYM
1002
{
1002
}
1000
Color
1070
     1
1070
     2
1002
{
1002
}
1000
LType
1070
     4
1000
CONTINUOUS
1002
{
1002
}
1002
}
1000
N_DIXL
1070
     9
1000
5N
1002
{
1000
Class
1070
     4
1000
DIM,SYM
1002
{
1002
}
1000
Color
1070
     1
1070
   256
1002
{
1002
}
1000
LType
1070
     4
1000
BYLAYER
1002
{
1002
}
1002
}
1000
N_HATC
1070
     9
1000
8N
1002
{
1000
Class
1070
     4
1000
HTC,BGD
1002
{
1002
}
1000
Color
1070
     1
1070
   256
1002
{
1002
}
1000
LType
1070
     4
1000
BYLAYER
1002
{
1002
}
1002
}
1000
N_HIDN
1070
     9
1000
3AN
1002
{
1000
Class
1070
     4
1000
HID,BGD
1002
{
1002
}
1000
Color
1070
     1
1070
   256
1002
{
1002
}
1000
LType
1070
     4
1000
BYLAYER
1002
{
1002
}
1002
}
1000
N_HIDW
1070
     9
1000
3N
1002
{
1000
Class
1070
     4
1000
HID,BGD
1002
{
1002
}
1000
Color
1070
     1
1070
   256
1002
{
1002
}
1000
LType
1070
     4
1000
BYLAYER
1002
{
1002
}
1002
}
1000
N_NGIP
1070
     9
1000
IPN
1002
{
1000
Class
1070
     4
1000

1002
{
1002
}
1000
Color
1070
     1
1070
   256
1002
{
1002
}
1000
LType
1070
     4
1000
BYLAYER
1002
{
1002
}
1002
}
1000
N_PHAN
1070
     9
1000
4AN
1002
{
1000
Class
1070
     4
1000

1002
{
1002
}
1000
Color
1070
     1
1070
   256
1002
{
1002
}
1000
LType
1070
     4
1000
BYLAYER
1002
{
1002
}
1002
}
1000
N_POSL
1070
     9
1000
5N
1002
{
1000
Class
1070
     4
1000
SYM
1002
{
1002
}
1000
Color
1070
     1
1070
   256
1002
{
1002
}
1000
LType
1070
     4
1000
BYLAYER
1002
{
1002
}
1002
}
1000
N_TCON
1070
     9
1000
0N
1002
{
1000
Class
1070
     4
1000
CON,BGD
1002
{
1002
}
1000
Color
1070
     1
1070
   256
1002
{
1002
}
1000
LType
1070
     4
1000
BYLAYER
1002
{
1002
}
1002
}
1000
N_THLI
1070
     9
1000
4N
1002
{
1000
Class
1070
     4
1000
BGD
1002
{
1002
}
1000
Color
1070
     1
1070
   256
1002
{
1002
}
1000
LType
1070
     4
1000
BYLAYER
1002
{
1002
}
1002
}
1000
N_TLEN
1070
     9
1000
0N
1002
{
1000
Class
1070
     4
1000
CON,BGD
1002
{
1002
}
1000
Color
1070
     1
1070
   256
1002
{
1002
}
1000
LType
1070
     4
1000
BYLAYER
1002
{
1002
}
1002
}
1000
N_TXT3
1070
     9
1000
6N
1002
{
1000
Class
1070
     4
1000
SYM
1002
{
1002
}
1000
Color
1070
     1
1070
   256
1002
{
1002
}
1000
LType
1070
     4
1000
BYLAYER
1002
{
1002
}
1002
}
1000
N_VPLI
1070
     9
1000
2AN
1002
{
1000
Class
1070
     4
1000

1002
{
1002
}
1000
Color
1070
     1
1070
   256
1002
{
1002
}
1000
LType
1070
     4
1000
BYLAYER
1002
{
1002
}
1002
}
1000
NGIP
1070
     9
1000
IP
1002
{
1000
Class
1070
     4
1000

1002
{
1002
}
1000
Color
1070
     1
1070
   256
1002
{
1002
}
1000
LType
1070
     4
1000
BYLAYER
1002
{
1002
}
1002
}
1000
PAL2
1070
     9
1000
RAHM2
1002
{
1000
Class
1070
     4
1000
SPZ,SYM
1002
{
1002
}
1000
Color
1070
     1
1070
   256
1002
{
1002
}
1000
LType
1070
     4
1000
BYLAYER
1002
{
1002
}
1002
}
1000
PAL3
1070
     9
1000
RAHM3
1002
{
1000
Class
1070
     4
1000
SPZ,SYM
1002
{
1002
}
1000
Color
1070
     1
1070
   256
1002
{
1002
}
1000
LType
1070
     4
1000
BYLAYER
1002
{
1002
}
1002
}
1000
PAL5
1070
     9
1000
RAHM5
1002
{
1000
Class
1070
     4
1000
SPZ,SYM
1002
{
1002
}
1000
Color
1070
     1
1070
   256
1002
{
1002
}
1000
LType
1070
     4
1000
BYLAYER
1002
{
1002
}
1002
}
1000
PAL7
1070
     9
1000
RAHM5
1002
{
1000
Class
1070
     4
1000
SPZ,SYM
1002
{
1002
}
1000
Color
1070
     1
1070
     7
1002
{
1002
}
1000
LType
1070
     4
1000
CONTINUOUS
1002
{
1002
}
1002
}
1000
PHAN
1070
     9
1000
4A
1002
{
1000
Class
1070
     4
1000

1002
{
1002
}
1000
Color
1070
     1
1070
   256
1002
{
1002
}
1000
LType
1070
     4
1000
BYLAYER
1002
{
1002
}
1002
}
1000
POSL
1070
     9
1000
5
1002
{
1000
Class
1070
     4
1000
SYM
1002
{
1002
}
1000
Color
1070
     1
1070
   256
1002
{
1002
}
1000
LType
1070
     4
1000
BYLAYER
1002
{
1002
}
1002
}
1000
POSN
1070
     9
1000
6
1002
{
1000
Class
1070
     4
1000
SYM
1002
{
1002
}
1000
Color
1070
     1
1070
     7
1002
{
1002
}
1000
LType
1070
     4
1000
BYLAYER
1002
{
1002
}
1002
}
1000
POSREF
1070
     9
1000
6
1002
{
1000
Class
1070
     4
1000
SYM
1002
{
1002
}
1000
Color
1070
     1
1070
     5
1002
{
1002
}
1000
LType
1070
     4
1000
BYLAYER
1002
{
1002
}
1002
}
1000
POSX
1070
     9
1000
5
1002
{
1000
Class
1070
     4
1000
SYM
1002
{
1002
}
1000
Color
1070
     1
1070
     2
1002
{
1002
}
1000
LType
1070
     4
1000
CONTINUOUS
1002
{
1002
}
1002
}
1000
PSEC
1070
     9
1000
4A
1002
{
1000
Class
1070
     4
1000

1002
{
1002
}
1000
Color
1070
     1
1070
   256
1002
{
1002
}
1000
LType
1070
     4
1000
BYLAYER
1002
{
1002
}
1002
}
1000
RCGN
1070
     9
1000
7A
1002
{
1000
Class
1070
     4
1000
CEN
1002
{
1002
}
1000
Color
1070
     1
1070
   256
1002
{
1002
}
1000
LType
1070
     4
1000
BYLAYER
1002
{
1002
}
1002
}
1000
RCGW
1070
     9
1000
7
1002
{
1000
Class
1070
     4
1000
CEN
1002
{
1002
}
1000
Color
1070
     1
1070
   256
1002
{
1002
}
1000
LType
1070
     4
1000
BYLAYER
1002
{
1002
}
1002
}
1000
RFDI
1070
     9
1000
4
1002
{
1000
Class
1070
     4
1000
BGD
1002
{
1002
}
1000
Color
1070
     1
1070
   256
1002
{
1002
}
1000
LType
1070
     4
1000
BYLAYER
1002
{
1002
}
1002
}
1000
RQTR
1070
     9
1000
4
1002
{
1000
Class
1070
     4
1000

1002
{
1002
}
1000
Color
1070
     1
1070
     7
1002
{
1002
}
1000
LType
1070
     4
1000
GEN7A
1002
{
1002
}
1002
}
1000
RSBO
1070
     9
1000
4
1002
{
1000
Class
1070
     4
1000
BGD
1002
{
1002
}
1000
Color
1070
     1
1070
   256
1002
{
1002
}
1000
LType
1070
     4
1000
BYLAYER
1002
{
1002
}
1002
}
1000
SBRK
1070
     9
1000
4
1002
{
1000
Class
1070
     4
1000
BGD
1002
{
1002
}
1000
Color
1070
     1
1070
   256
1002
{
1002
}
1000
LType
1070
     4
1000
BYLAYER
1002
{
1002
}
1002
}
1000
SCEN
1070
     9
1000
7
1002
{
1000
Class
1070
     4
1000

1002
{
1002
}
1000
Color
1070
     1
1070
   256
1002
{
1002
}
1000
LType
1070
     4
1000
CONTINUOUS
1002
{
1002
}
1002
}
1000
SECT
1070
     9
1000
4
1002
{
1000
Class
1070
     4
1000
BGD
1002
{
1002
}
1000
Color
1070
     1
1070
   256
1002
{
1002
}
1000
LType
1070
     4
1000
BYLAYER
1002
{
1002
}
1002
}
1000
SELN
1070
     9
1000
7A
1002
{
1000
Class
1070
     4
1000

1002
{
1002
}
1000
Color
1070
     1
1070
   256
1002
{
1002
}
1000
LType
1070
     4
1000
BYLAYER
1002
{
1002
}
1002
}
1000
SELW
1070
     9
1000
7
1002
{
1000
Class
1070
     4
1000

1002
{
1002
}
1000
Color
1070
     1
1070
   256
1002
{
1002
}
1000
LType
1070
     4
1000
BYLAYER
1002
{
1002
}
1002
}
1000
SSYS
1070
     9
1000
0
1002
{
1000
Class
1070
     4
1000

1002
{
1002
}
1000
Color
1070
     1
1070
   256
1002
{
1002
}
1000
LType
1070
     4
1000
BYLAYER
1002
{
1002
}
1002
}
1000
STLI
1070
     9
1000
4
1002
{
1000
Class
1070
     4
1000

1002
{
1002
}
1000
Color
1070
     1
1070
     7
1002
{
1002
}
1000
LType
1070
     4
1000
GEN3A
1002
{
1002
}
1002
}
1000
SYB1
1070
     9
1000
5
1002
{
1000
Class
1070
     4
1000
SYM
1002
{
1002
}
1000
Color
1070
     1
1070
   256
1002
{
1002
}
1000
LType
1070
     4
1000
BYLAYER
1002
{
1002
}
1002
}
1000
SYB2
1070
     9
1000
5
1002
{
1000
Class
1070
     4
1000
SYM
1002
{
1002
}
1000
Color
1070
     1
1070
   256
1002
{
1002
}
1000
LType
1070
     4
1000
BYLAYER
1002
{
1002
}
1002
}
1000
SYB3
1070
     9
1000
6
1002
{
1000
Class
1070
     4
1000
SYM
1002
{
1002
}
1000
Color
1070
     1
1070
   256
1002
{
1002
}
1000
LType
1070
     4
1000
CONTINUOUS
1002
{
1002
}
1002
}
1000
SYB5
1070
     9
1000
5
1002
{
1000
Class
1070
     4
1000
SYM
1002
{
1002
}
1000
Color
1070
     1
1070
     7
1002
{
1002
}
1000
LType
1070
     4
1000
BYLAYER
1002
{
1002
}
1002
}
1000
SYMN
1070
     9
1000
7A
1002
{
1000
Class
1070
     4
1000
CEN
1002
{
1002
}
1000
Color
1070
     1
1070
   256
1002
{
1002
}
1000
LType
1070
     4
1000
BYLAYER
1002
{
1002
}
1002
}
1000
SYMW
1070
     9
1000
7
1002
{
1000
Class
1070
     4
1000
CEN
1002
{
1002
}
1000
Color
1070
     1
1070
   256
1002
{
1002
}
1000
LType
1070
     4
1000
BYLAYER
1002
{
1002
}
1002
}
1000
TCON
1070
     9
1000
0
1002
{
1000
Class
1070
     4
1000
CON,BGD
1002
{
1002
}
1000
Color
1070
     1
1070
   256
1002
{
1002
}
1000
LType
1070
     4
1000
BYLAYER
1002
{
1002
}
1002
}
1000
THLI
1070
     9
1000
4
1002
{
1000
Class
1070
     4
1000
BGD
1002
{
1002
}
1000
Color
1070
     1
1070
   256
1002
{
1002
}
1000
LType
1070
     4
1000
BYLAYER
1002
{
1002
}
1002
}
1000
TIT2
1070
     9
1000
RAHM2
1002
{
1000
Class
1070
     4
1000
SPZ,SYM
1002
{
1002
}
1000
Color
1070
     1
1070
   256
1002
{
1002
}
1000
LType
1070
     4
1000
BYLAYER
1002
{
1002
}
1002
}
1000
TIT3
1070
     9
1000
RAHM3
1002
{
1000
Class
1070
     4
1000
SPZ,SYM
1002
{
1002
}
1000
Color
1070
     1
1070
   256
1002
{
1002
}
1000
LType
1070
     4
1000
BYLAYER
1002
{
1002
}
1002
}
1000
TIT5
1070
     9
1000
RAHM5
1002
{
1000
Class
1070
     4
1000
SPZ,SYM
1002
{
1002
}
1000
Color
1070
     1
1070
   256
1002
{
1002
}
1000
LType
1070
     4
1000
BYLAYER
1002
{
1002
}
1002
}
1000
TIT7
1070
     9
1000
RAHM5
1002
{
1000
Class
1070
     4
1000
SPZ,SYM
1002
{
1002
}
1000
Color
1070
     1
1070
     7
1002
{
1002
}
1000
LType
1070
     4
1000
CONTINUOUS
1002
{
1002
}
1002
}
1000
TLEN
1070
     9
1000
0
1002
{
1000
Class
1070
     4
1000
CON,BGD
1002
{
1002
}
1000
Color
1070
     1
1070
   256
1002
{
1002
}
1000
LType
1070
     4
1000
BYLAYER
1002
{
1002
}
1002
}
1000
TRKN
1070
     9
1000
7A
1002
{
1000
Class
1070
     4
1000

1002
{
1002
}
1000
Color
1070
     1
1070
   256
1002
{
1002
}
1000
LType
1070
     4
1000
BYLAYER
1002
{
1002
}
1002
}
1000
TRKW
1070
     9
1000
7
1002
{
1000
Class
1070
     4
1000

1002
{
1002
}
1000
Color
1070
     1
1070
   256
1002
{
1002
}
1000
LType
1070
     4
1000
BYLAYER
1002
{
1002
}
1002
}
1000
TRLI
1070
     9
1000
4
1002
{
1000
Class
1070
     4
1000
BGD
1002
{
1002
}
1000
Color
1070
     1
1070
   256
1002
{
1002
}
1000
LType
1070
     4
1000
BYLAYER
1002
{
1002
}
1002
}
1000
TXT1
1070
     9
1000
6
1002
{
1000
Class
1070
     4
1000
SYM
1002
{
1002
}
1000
Color
1070
     1
1070
     2
1002
{
1002
}
1000
LType
1070
     4
1000
BYLAYER
1002
{
1002
}
1002
}
1000
TXT2
1070
     9
1000
6
1002
{
1000
Class
1070
     4
1000
SYM
1002
{
1002
}
1000
Color
1070
     1
1070
     2
1002
{
1002
}
1000
LType
1070
     4
1000
BYLAYER
1002
{
1002
}
1002
}
1000
TXT3
1070
     9
1000
6
1002
{
1000
Class
1070
     4
1000
SYM
1002
{
1002
}
1000
Color
1070
     1
1070
   256
1002
{
1002
}
1000
LType
1070
     4
1000
BYLAYER
1002
{
1002
}
1002
}
1000
TXT5
1070
     9
1000
6
1002
{
1000
Class
1070
     4
1000
SYM
1002
{
1002
}
1000
Color
1070
     1
1070
     7
1002
{
1002
}
1000
LType
1070
     4
1000
BYLAYER
1002
{
1002
}
1002
}
1000
TXT7
1070
     9
1000
6
1002
{
1000
Class
1070
     4
1000
SYM
1002
{
1002
}
1000
Color
1070
     1
1070
     7
1002
{
1002
}
1000
LType
1070
     4
1000
BYLAYER
1002
{
1002
}
1002
}
1000
VIEW
1070
     9
1000
VIEW
1002
{
1000
Class
1070
     4
1000
SPZ
1002
{
1002
}
1000
Color
1070
     1
1070
   256
1002
{
1002
}
1000
LType
1070
     4
1000
BYLAYER
1002
{
1002
}
1002
}
1000
VPLI
1070
     9
1000
2A
1002
{
1000
Class
1070
     4
1000

1002
{
1002
}
1000
Color
1070
     1
1070
   256
1002
{
1002
}
1000
LType
1070
     4
1000
BYLAYER
1002
{
1002
}
1002
}
1000
ZIZA
1070
     9
1000
4
1002
{
1000
Class
1070
     4
1000
BGD
1002
{
1002
}
1000
Color
1070
     1
1070
   256
1002
{
1002
}
1000
LType
1070
     4
1000
GENZIGZAG
1002
{
1002
}
1002
}
  0
APPID
  5
131D
330
12B1
100
AcDbSymbolTableRecord
100
AcDbRegAppTableRecord
  2
GENIUS_GENCFG4_13
 70
     0
1001
GENIUS_GENCFG_13
1071
1022849371
1000
131D
1000
GEN
1070
     9
1000
GenCfgObject
1000
GenCfgShort
1000
GenCfgReal
1000
GenCfgBool
1000
GenCfgString
1000
GenCfgDim
1000
GenCfgLaySection
1000
GenCfgLType
1000
GenCfgFilter
1000
Balloon
1070
     0
1002
{
1000
GenIF
1070
     1
1070
     0
1002
{
1002
}
1000
GenPosInc
1070
     1
1070
     1
1002
{
1002
}
1000
GenPosBlk
1070
     1
1070
     8
1002
{
1002
}
1000
GenPosVar
1070
     1
1070
     0
1002
{
1002
}
1000
GenZiCir
1070
     2
1040
1.5
1002
{
1002
}
1000
MaxCharForCenteredText
1070
     1
1070
    30
1002
{
1002
}
1000
Snap
1070
     0
1002
{
1000
ActivationRadius
1070
     2
1040
1.0
1002
{
1002
}
1000
M
1070
     0
1002
{
1000
SnapStepX
1070
     2
1040
20.0
1002
{
1002
}
1000
SnapStepY
1070
     2
1040
10.0
1002
{
1002
}
1002
}
1000
I
1070
     0
1002
{
1000
SnapStepX
1070
     2
1040
1.0
1002
{
1002
}
1000
SnapStepY
1070
     2
1040
0.5
1002
{
1002
}
1002
}
1002
}
1002
}
1000
Centerline
1070
     0
1002
{
1000
ScaleNot
1070
     3
1070
     0
1002
{
1002
}
1000
M
1070
     0
1002
{
1000
GenCenAng
1070
     4
1000
45|90|135
1002
{
1002
}
1000
GenCenDia
1070
     2
1040
10.0
1002
{
1002
}
1000
GenCenDias
1070
     4
1000
10|20|30
1002
{
1002
}
1000
GenCenDist
1070
     2
1040
3.0
1002
{
1002
}
1000
GenCenLen
1070
     2
1040
10.0
1002
{
1002
}
1000
GenCenOff
1070
     2
1040
10.0
1002
{
1002
}
1002
}
1000
I
1070
     0
1002
{
1000
GenCenAng
1070
     4
1000
45|90|135
1002
{
1002
}
1000
GenCenDia
1070
     2
1040
0.5
1002
{
1002
}
1000
GenCenDias
1070
     4
1000
0.5|1.0|1.5
1002
{
1002
}
1000
GenCenDist
1070
     2
1040
0.125
1002
{
1002
}
1000
GenCenLen
1070
     2
1040
0.5
1002
{
1002
}
1000
GenCenOff
1070
     2
1040
0.5
1002
{
1002
}
1002
}
1002
}
1000
CLine
1070
     0
1002
{
1000
CAngArray
1070
     4
1000
30|45|60
1002
{
1002
}
1000
Typ
1070
     4
1000
XLINE
1002
{
1002
}
1000
M
1070
     0
1002
{
1000
CLinArray
1070
     4
1000
10|20|30
1002
{
1002
}
1002
}
1000
I
1070
     0
1002
{
1000
CLinArray
1070
     4
1000
0.125|0.25|0.5
1002
{
1002
}
1002
}
1002
}
1000
Detail
1070
     0
1002
{
1002
}
1000
Dimension
1070
     5
1002
{
1000
DIMALT
1070
     1
1070
     0
1002
{
1002
}
1000
DIMALTD
1070
     1
1070
     2
1002
{
1002
}
1000
DIMALTTD
1070
     1
1070
     4
1002
{
1002
}
1000
DIMALTTZ
1070
     1
1070
     0
1002
{
1002
}
1000
DIMALTU
1070
     1
1070
     2
1002
{
1002
}
1000
DIMALTZ
1070
     1
1070
     0
1002
{
1002
}
1000
DIMAUNIT
1070
     1
1070
     0
1002
{
1002
}
1000
DIMBLK
1070
     4
1000

1002
{
1002
}
1000
DIMBLK1
1070
     4
1000

1002
{
1002
}
1000
DIMBLK2
1070
     4
1000

1002
{
1002
}
1000
DIMCLRD
1070
     1
1070
   256
1002
{
1002
}
1000
DIMCLRE
1070
     1
1070
   256
1002
{
1002
}
1000
DIMCLRT
1070
     1
1070
     2
1002
{
1002
}
1000
DIMDLE
1070
     2
1040
0.0
1002
{
1002
}
1000
DIMFIT
1070
     1
1070
     3
1002
{
1002
}
1000
DIMJUST
1070
     1
1070
     0
1002
{
1002
}
1000
DIMLFAC
1070
     2
1040
1.0
1002
{
1002
}
1000
DIMLIM
1070
     1
1070
     0
1002
{
1002
}
1000
DIMPOST
1070
     4
1000

1002
{
1002
}
1000
DIMRND
1070
     2
1040
0.0
1002
{
1002
}
1000
DIMSAH
1070
     1
1070
     0
1002
{
1002
}
1000
DIMSCALE
1070
     2
1040
1.0
1002
{
1002
}
1000
DIMSD1
1070
     1
1070
     0
1002
{
1002
}
1000
DIMSD2
1070
     1
1070
     0
1002
{
1002
}
1000
DIMSE1
1070
     1
1070
     0
1002
{
1002
}
1000
DIMSE2
1070
     1
1070
     0
1002
{
1002
}
1000
DIMSOXD
1070
     1
1070
     0
1002
{
1002
}
1000
DIMTAD
1070
     1
1070
     0
1002
{
1002
}
1000
DIMTFAC
1070
     2
1040
0.71
1002
{
1002
}
1000
DIMTIH
1070
     1
1070
     0
1002
{
1002
}
1000
DIMTIX
1070
     1
1070
     0
1002
{
1002
}
1000
DIMTM
1070
     2
1040
0.1
1002
{
1002
}
1000
DIMTOFL
1070
     1
1070
     0
1002
{
1002
}
1000
DIMTOH
1070
     1
1070
     0
1002
{
1002
}
1000
DIMTOL
1070
     1
1070
     0
1002
{
1002
}
1000
DIMTOLJ
1070
     1
1070
     1
1002
{
1002
}
1000
DIMTP
1070
     2
1040
0.1
1002
{
1002
}
1000
DIMTSZ
1070
     2
1040
0.0
1002
{
1002
}
1000
DIMTVP
1070
     2
1040
0.0
1002
{
1002
}
1000
DIMTXSTY
1070
     4
1000
STANDARD
1002
{
1002
}
1000
DIMTZIN
1070
     1
1070
     0
1002
{
1002
}
1000
DIMUNIT
1070
     1
1070
     2
1002
{
1002
}
1000
DIMUPT
1070
     1
1070
     0
1002
{
1002
}
1000
M
1070
     0
1002
{
1000
DIMALTF
1070
     2
1040
0.03937
1002
{
1002
}
1000
DIMAPOST
1070
     4
1000
"
1002
{
1002
}
1000
DIMASZ
1070
     2
1040
2.5
1002
{
1002
}
1000
DIMCEN
1070
     2
1040
0.0
1002
{
1002
}
1000
DIMDEC
1070
     1
1070
     2
1002
{
1002
}
1000
DIMDLI
1070
     2
1040
7.0
1002
{
1002
}
1000
DIMEXE
1070
     2
1040
1.0
1002
{
1002
}
1000
DIMEXO
1070
     2
1040
1.0
1002
{
1002
}
1000
DIMGAP
1070
     2
1040
0.6
1002
{
1002
}
1000
DIMTDEC
1070
     1
1070
     3
1002
{
1002
}
1000
DIMTXT
1070
     2
1040
3.5
1002
{
1002
}
1000
DIMZIN
1070
     1
1070
     8
1002
{
1002
}
1002
}
1000
I
1070
     0
1002
{
1000
DIMALTF
1070
     2
1040
25.4
1002
{
1002
}
1000
DIMAPOST
1070
     4
1000
mm
1002
{
1002
}
1000
DIMASZ
1070
     2
1040
0.1
1002
{
1002
}
1000
DIMCEN
1070
     2
1040
0.0
1002
{
1002
}
1000
DIMDEC
1070
     1
1070
     4
1002
{
1002
}
1000
DIMDLI
1070
     2
1040
0.5
1002
{
1002
}
1000
DIMEXE
1070
     2
1040
0.1
1002
{
1002
}
1000
DIMEXO
1070
     2
1040
0.05
1002
{
1002
}
1000
DIMGAP
1070
     2
1040
0.06
1002
{
1002
}
1000
DIMTDEC
1070
     1
1070
     4
1002
{
1002
}
1000
DIMTXT
1070
     2
1040
0.12
1002
{
1002
}
1000
DIMZIN
1070
     1
1070
     7
1002
{
1002
}
1002
}
1000
GEN-ISO
1070
     5
1002
{
1000
NAME
1070
     4
1000
GEN-ISO
1002
{
1002
}
1000
DIMTAD
1070
     1
1070
     1
1002
{
1002
}
1000
DIMTOLJ
1070
     1
1070
     0
1002
{
1002
}
1000
DIMTOFL
1070
     1
1070
     1
1002
{
1002
}
1000
M
1070
     0
1002
{
1002
}
1000
I
1070
     0
1002
{
1002
}
1002
}
1000
GEN-ISO-POS
1070
     5
1002
{
1000
NAME
1070
     4
1000
GEN-ISO-POS
1002
{
1002
}
1000
DIMTOLJ
1070
     1
1070
     0
1002
{
1002
}
1000
DIMTXSTY
1070
     4
1000
STANDARD
1002
{
1002
}
1000
M
1070
     0
1002
{
1000
DIMASZ
1070
     2
1040
2.5
1002
{
1002
}
1000
DIMGAP
1070
     2
1040
1.5
1002
{
1002
}
1000
DIMTXT
1070
     2
1040
5.0
1002
{
1002
}
1002
}
1000
I
1070
     0
1002
{
1000
DIMASZ
1070
     2
1040
0.1
1002
{
1002
}
1000
DIMGAP
1070
     2
1040
0.06
1002
{
1002
}
1000
DIMTXT
1070
     2
1040
0.2
1002
{
1002
}
1002
}
1002
}
1000
GEN-ISO-CIR
1070
     5
1002
{
1000
NAME
1070
     4
1000
GEN-ISO$3
1002
{
1002
}
1000
DIMFIT
1070
     1
1070
     0
1002
{
1002
}
1000
DIMTAD
1070
     1
1070
     1
1002
{
1002
}
1000
DIMTOH
1070
     1
1070
     1
1002
{
1002
}
1000
DIMTOLJ
1070
     1
1070
     0
1002
{
1002
}
1000
DIMUPT
1070
     1
1070
     1
1002
{
1002
}
1000
M
1070
     0
1002
{
1002
}
1000
I
1070
     0
1002
{
1002
}
1002
}
1000
GEN-ISO-RAD
1070
     5
1002
{
1000
NAME
1070
     4
1000
GEN-ISO$4
1002
{
1002
}
1000
DIMFIT
1070
     1
1070
     0
1002
{
1002
}
1000
DIMTAD
1070
     1
1070
     1
1002
{
1002
}
1000
DIMTIH
1070
     1
1070
     0
1002
{
1002
}
1000
DIMTIX
1070
     1
1070
     0
1002
{
1002
}
1000
DIMTOH
1070
     1
1070
     1
1002
{
1002
}
1000
DIMTOLJ
1070
     1
1070
     0
1002
{
1002
}
1000
DIMTOFL
1070
     1
1070
     0
1002
{
1002
}
1000
DIMUPT
1070
     1
1070
     1
1002
{
1002
}
1000
M
1070
     0
1002
{
1002
}
1000
I
1070
     0
1002
{
1002
}
1002
}
1000
GEN-ISO-ORD
1070
     5
1002
{
1000
NAME
1070
     4
1000
GEN-ISO$6
1002
{
1002
}
1000
DIMTOLJ
1070
     1
1070
     0
1002
{
1002
}
1000
M
1070
     0
1002
{
1002
}
1000
I
1070
     0
1002
{
1002
}
1002
}
1000
GEN-ISO-AXE-F
1070
     5
1002
{
1000
NAME
1070
     4
1000
GEN-ISO-AXE-F
1002
{
1002
}
1000
DIMSE1
1070
     1
1070
     1
1002
{
1002
}
1000
DIMSE2
1070
     1
1070
     1
1002
{
1002
}
1000
DIMTAD
1070
     1
1070
     1
1002
{
1002
}
1000
DIMTOLJ
1070
     1
1070
     0
1002
{
1002
}
1000
DIMTOFL
1070
     1
1070
     1
1002
{
1002
}
1000
M
1070
     0
1002
{
1002
}
1000
I
1070
     0
1002
{
1002
}
1002
}
1000
GEN-ISO-AXE-H
1070
     5
1002
{
1000
NAME
1070
     4
1000
GEN-ISO-AXE-H
1002
{
1002
}
1000
DIMBLK1
1070
     4
1000
GENAXEH
1002
{
1002
}
1000
DIMLFAC
1070
     2
1040
2.0
1002
{
1002
}
1000
DIMSAH
1070
     1
1070
     1
1002
{
1002
}
1000
DIMSE1
1070
     1
1070
     1
1002
{
1002
}
1000
DIMSE2
1070
     1
1070
     1
1002
{
1002
}
1000
DIMTAD
1070
     1
1070
     1
1002
{
1002
}
1000
DIMTOLJ
1070
     1
1070
     0
1002
{
1002
}
1000
DIMTOFL
1070
     1
1070
     1
1002
{
1002
}
1000
M
1070
     0
1002
{
1002
}
1000
I
1070
     0
1002
{
1002
}
1002
}
1000
GEN-ANSI
1070
     5
1002
{
1000
NAME
1070
     4
1000
GEN-ANSI
1002
{
1002
}
1000
DIMTIH
1070
     1
1070
     1
1002
{
1002
}
1000
DIMTOH
1070
     1
1070
     1
1002
{
1002
}
1000
DIMTAD
1070
     1
1070
     0
1002
{
1002
}
1000
DIMTOLJ
1070
     1
1070
     1
1002
{
1002
}
1000
M
1070
     0
1002
{
1002
}
1000
I
1070
     0
1002
{
1002
}
1002
}
1000
GEN-ANSI-POS
1070
     5
1002
{
1000
NAME
1070
     4
1000
GEN-ANSI-POS
1002
{
1002
}
1000
DIMTOLJ
1070
     1
1070
     1
1002
{
1002
}
1000
DIMTXSTY
1070
     4
1000
STANDARD
1002
{
1002
}
1000
M
1070
     0
1002
{
1000
DIMASZ
1070
     2
1040
2.5
1002
{
1002
}
1000
DIMGAP
1070
     2
1040
1.5
1002
{
1002
}
1000
DIMTXT
1070
     2
1040
5.0
1002
{
1002
}
1002
}
1000
I
1070
     0
1002
{
1000
DIMASZ
1070
     2
1040
0.1
1002
{
1002
}
1000
DIMGAP
1070
     2
1040
0.06
1002
{
1002
}
1000
DIMTXT
1070
     2
1040
0.2
1002
{
1002
}
1002
}
1002
}
1000
GEN-ANSI-CIR
1070
     5
1002
{
1000
NAME
1070
     4
1000
GEN-ANSI$3
1002
{
1002
}
1000
DIMFIT
1070
     1
1070
     0
1002
{
1002
}
1000
DIMTAD
1070
     1
1070
     0
1002
{
1002
}
1000
DIMTIH
1070
     1
1070
     1
1002
{
1002
}
1000
DIMTIX
1070
     1
1070
     0
1002
{
1002
}
1000
DIMTOFL
1070
     1
1070
     0
1002
{
1002
}
1000
DIMTOH
1070
     1
1070
     1
1002
{
1002
}
1000
DIMTOLJ
1070
     1
1070
     1
1002
{
1002
}
1000
DIMUPT
1070
     1
1070
     1
1002
{
1002
}
1000
M
1070
     0
1002
{
1002
}
1000
I
1070
     0
1002
{
1002
}
1002
}
1000
GEN-ANSI-RAD
1070
     5
1002
{
1000
NAME
1070
     4
1000
GEN-ANSI$4
1002
{
1002
}
1000
DIMFIT
1070
     1
1070
     0
1002
{
1002
}
1000
DIMTAD
1070
     1
1070
     0
1002
{
1002
}
1000
DIMTIH
1070
     1
1070
     1
1002
{
1002
}
1000
DIMTIX
1070
     1
1070
     0
1002
{
1002
}
1000
DIMTOFL
1070
     1
1070
     0
1002
{
1002
}
1000
DIMTOH
1070
     1
1070
     1
1002
{
1002
}
1000
DIMTOLJ
1070
     1
1070
     1
1002
{
1002
}
1000
DIMUPT
1070
     1
1070
     1
1002
{
1002
}
1000
M
1070
     0
1002
{
1002
}
1000
I
1070
     0
1002
{
1002
}
1002
}
1000
GEN-ANSI-ORD
1070
     5
1002
{
1000
NAME
1070
     4
1000
GEN-ANSI$6
1002
{
1002
}
1000
DIMTAD
1070
     1
1070
     0
1002
{
1002
}
1000
DIMTIH
1070
     1
1070
     1
1002
{
1002
}
1000
DIMTOH
1070
     1
1070
     1
1002
{
1002
}
1000
DIMTOLJ
1070
     1
1070
     1
1002
{
1002
}
1000
M
1070
     0
1002
{
1002
}
1000
I
1070
     0
1002
{
1002
}
1002
}
1000
GEN-ANSI-AXE-F
1070
     5
1002
{
1000
NAME
1070
     4
1000
GEN-ANSI-AXE-F
1002
{
1002
}
1000
DIMBLK1
1070
     4
1000
GENAXEH
1002
{
1002
}
1000
DIMSAH
1070
     1
1070
     1
1002
{
1002
}
1000
DIMSE1
1070
     1
1070
     1
1002
{
1002
}
1000
DIMSE2
1070
     1
1070
     1
1002
{
1002
}
1000
DIMTAD
1070
     1
1070
     0
1002
{
1002
}
1000
DIMTIH
1070
     1
1070
     1
1002
{
1002
}
1000
DIMTOH
1070
     1
1070
     1
1002
{
1002
}
1000
DIMTOLJ
1070
     1
1070
     1
1002
{
1002
}
1000
M
1070
     0
1002
{
1002
}
1000
I
1070
     0
1002
{
1002
}
1002
}
1000
GEN-ANSI-AXE-H
1070
     5
1002
{
1000
NAME
1070
     4
1000
GEN-ANSI-AXE-H
1002
{
1002
}
1000
DIMBLK1
1070
     4
1000
GENAXEH
1002
{
1002
}
1000
DIMLFAC
1070
     2
1040
2.0
1002
{
1002
}
1000
DIMSAH
1070
     1
1070
     1
1002
{
1002
}
1000
DIMSE1
1070
     1
1070
     1
1002
{
1002
}
1000
DIMSE2
1070
     1
1070
     1
1002
{
1002
}
1000
DIMTAD
1070
     1
1070
     0
1002
{
1002
}
1000
DIMTOFL
1070
     1
1070
     1
1002
{
1002
}
1000
DIMTOLJ
1070
     1
1070
     1
1002
{
1002
}
1000
M
1070
     0
1002
{
1002
}
1000
I
1070
     0
1002
{
1002
}
1002
}
1002
}
1000
DimSet
1070
     0
1002
{
1000
ChainSum
1070
     3
1070
     0
1002
{
1002
}
1000
DimDclTyp0
1070
     4
1000
dim23
1002
{
1002
}
1000
HorBra
1070
     3
1070
     0
1002
{
1002
}
1000
StrDia
1070
     4
1000
%%c<>
1002
{
1002
}
1000
StrRad
1070
     4
1000
R<>
1002
{
1002
}
1000
TextMinus
1070
     4
1000
<>
1002
{
1002
}
1000
TextPlus
1070
     4
1000
<>
1002
{
1002
}
1000
M
1070
     0
1002
{
1000
DimdliFirst
1070
     2
1040
10.0
1002
{
1002
}
1000
PointMakeDist
1070
     2
1040
10.0
1002
{
1002
}
1002
}
1000
I
1070
     0
1002
{
1000
DimdliFirst
1070
     2
1040
0.5
1002
{
1002
}
1000
PointMakeDist
1070
     2
1040
0.5
1002
{
1002
}
1002
}
1000
FitGrade
1070
     4
1000
h7
1002
{
1002
}
1002
}
1000
Drawing
1070
     0
1002
{
1000
ChamferDimMode
1070
     1
1070
     2
1002
{
1002
}
1000
Gen_Fiso
1070
    -3
1040
1.0
1002
{
1002
}
1000
GenDimStil
1070
     4
1000
ISO
1002
{
1002
}
1000
GenDwgUScale
1070
     2
1040
1.0
1002
{
1002
}
1000
GenInch
1070
     4
1000
M
1002
{
1002
}
1000
GenPlotScale
1070
     4
1000
1:5
1002
{
1002
}
1000
Revisi
1070
     4
1000
0
1002
{
1002
}
1000
Version
1070
    -5
1000
14.01/Apr  1 1998
1002
{
1002
}
1000
Platform
1070
    -5
1000
WINNT
1002
{
1002
}
1002
}
1000
DwgVar
1070
     0
1002
{
1000
M
1070
     0
1002
{
1002
}
1000
I
1070
     0
1002
{
1002
}
1002
}
1000
Hatch
1070
     0
1002
{
1000
GenHtcFlag
1070
     3
1070
     0
1002
{
1002
}
1002
}
1000
Info_Pos
1070
     0
1002
{
1000
>
1002
}
1000
Layer
1070
     6
1002
{
1000
Defs
1070
     0
1002
{
1000
>
1002
}
1000
EntSort
1070
     0
1002
{
1000
>
1002
}
1000
Match
1070
     0
1002
{
1002
}
1000
Settings
1070
     0
1002
{
1000
FocGrNC
1070
     3
1070
     0
1002
{
1002
}
1000
FocGrLo
1070
     3
1070
     0
1002
{
1002
}
1000
FocLoNC
1070
     3
1070
     0
1002
{
1002
}
1000
FocusCol
1070
     1
1070
   253
1002
{
1002
}
1000
GenStdLG
1070
     4
1000

1002
{
1002
}
1000
LayMatch
1070
     3
1070
     0
1002
{
1002
}
1000
LgOff
1070
     3
1070
     0
1002
{
1002
}
1000
CurLG
1070
    -5
1000

1002
{
1002
}
1002
}
1002
}
1000
LType
1070
     0
1002
{
1000
GEN3
1070
     7
1000
genius.lin
1002
{
1002
}
1000
GEN7
1070
     7
1000
genius.lin
1002
{
1002
}
1000
GEN4A
1070
     7
1000
genius.lin
1002
{
1002
}
1000
GEN3A
1070
     7
1000
genius.lin
1002
{
1002
}
1000
GEN7A
1070
     7
1000
genius.lin
1002
{
1002
}
1000
GENZIGZAG
1070
     7
1000
genius.lin
1002
{
1002
}
1002
}
1000
Objecter
1070
     0
1002
{
1000
CreateGroups
1070
     3
1070
     0
1002
{
1002
}
1000
LaySwitch
1070
     3
1070
     1
1002
{
1002
}
1000
LastObj
1070
    -5
1000
1350
1002
{
1002
}
1000
TimeStamp
1070
    -5
1000
20020531.14491332
1002
{
1002
}
1002
}
1000
OSWiz
1070
     0
1002
{
1000
Filter
1070
     0
1002
{
1000
HATCH
1070
     8
1002
{
1000
EntityType
1070
     4
1000
LINE
1002
{
1002
}
1000
Layer
1070
     4
1000
8,8N,*-8,*-8N
1002
{
1002
}
1000
Linetype
1070
     4
1000
*
1002
{
1002
}
1000
Color
1070
     4
1000
*
1002
{
1002
}
1000
ApplyInDims
1070
     3
1070
     1
1002
{
1002
}
1002
}
1000
SYMBOLS
1070
     8
1002
{
1000
EntityType
1070
     4
1000
*
1002
{
1002
}
1000
Layer
1070
     4
1000
[5-6],[5-6]N,*-[5-6],*-[5-6]N
1002
{
1002
}
1000
Linetype
1070
     4
1000
*
1002
{
1002
}
1000
Color
1070
     4
1000
*
1002
{
1002
}
1000
ApplyInDims
1070
     3
1070
     1
1002
{
1002
}
1002
}
1000
FEM
1070
     8
1002
{
1000
EntityType
1070
     4
1000
*
1002
{
1002
}
1000
Layer
1070
     4
1000
4A,4AN,*-4A,*-4AN
1002
{
1002
}
1000
Linetype
1070
     4
1000
*
1002
{
1002
}
1000
Color
1070
     4
1000
*
1002
{
1002
}
1000
ApplyInDims
1070
     3
1070
     1
1002
{
1002
}
1002
}
1002
}
1002
}
1000
PaList
1070
     0
1002
{
1000
AutoUpdatePartList
1070
     1
1070
     0
1002
{
1002
}
1000
ReadInfoPoint
1070
     3
1070
     0
1002
{
1002
}
1000
ReadPosNr
1070
     3
1070
     1
1002
{
1002
}
1000
RevStr
1070
     4
1000
0
1002
{
1002
}
1002
}
1000
Paper
1070
     0
1002
{
1002
}
1000
PartDB
1070
     0
1002
{
1000
GenDbOwner
1070
     4
1000

1002
{
1002
}
1002
}
1000
System
1070
     0
1002
{
1000
Menu
1070
     4
1000
GEV
1002
{
1002
}
1002
}
1000
Title
1070
     0
1002
{
1000
MakeView
1070
     1
1070
     2
1002
{
1002
}
1002
}
1000
Tools
1070
     0
1002
{
1000
Trans
1070
     0
1002
{
1000
Drawingtranslation
1070
    -4
1070
     1
1002
{
1002
}
1000
upreserve
1070
     3
1070
     0
1002
{
1002
}
1000
originally_on
1070
    -4
1070
     0
1002
{
1002
}
1000
sourcelang
1070
    -5
1000
D
1002
{
1002
}
1002
}
1002
}
  0
APPID
  5
131E
330
12B1
100
AcDbSymbolTableRecord
100
AcDbRegAppTableRecord
  2
GENIUS_GEVCFG0_13
 70
     0
1001
GENIUS_GENCFG_13
1071
1022849358
1000
131E
1000
GEV
1070
     1
1000
GenCfgObject
1000
VED
1070
     0
1002
{
1002
}
  0
APPID
  5
131F
330
12B1
100
AcDbSymbolTableRecord
100
AcDbRegAppTableRecord
  2
GEV_VCCNULL_SWITCH_OFF
 70
     0
  0
APPID
  5
1320
330
12B1
100
AcDbSymbolTableRecord
100
AcDbRegAppTableRecord
  2
GENIUS_GENDTOL_13
 70
     0
  0
APPID
  5
1321
330
12B1
100
AcDbSymbolTableRecord
100
AcDbRegAppTableRecord
  2
GENIUS_GENOENT_13
 70
     0
  0
APPID
  5
1322
330
12B1
100
AcDbSymbolTableRecord
100
AcDbRegAppTableRecord
  2
GENIUS_GENBLLY_14
 70
     0
  0
APPID
  5
1323
330
12B1
100
AcDbSymbolTableRecord
100
AcDbRegAppTableRecord
  2
GENIUS_GENODEF_13
 70
     0
  0
APPID
  5
1324
330
12B1
100
AcDbSymbolTableRecord
100
AcDbRegAppTableRecord
  2
GENIUS_GENOBJ-N-CRS_13
 70
     0
  0
APPID
  5
1325
330
12B1
100
AcDbSymbolTableRecord
100
AcDbRegAppTableRecord
  2
GENIUS_GENOREF_13
 70
     0
  0
APPID
  5
1326
330
12B1
100
AcDbSymbolTableRecord
100
AcDbRegAppTableRecord
  2
GENIUS_GENOLIS_13
 70
     0
  0
APPID
  5
1327
330
12B1
100
AcDbSymbolTableRecord
100
AcDbRegAppTableRecord
  2
GENIUS_GEFCFG0_13
 70
     0
  0
APPID
  5
1328
330
12B1
100
AcDbSymbolTableRecord
100
AcDbRegAppTableRecord
  2
GENIUS_VERSION2
 70
     0
  0
APPID
  5
1329
330
12B1
100
AcDbSymbolTableRecord
100
AcDbRegAppTableRecord
  2
GENIUS_GENREC_14
 70
     0
  0
APPID
  5
132A
330
12B1
100
AcDbSymbolTableRecord
100
AcDbRegAppTableRecord
  2
GENIUS_GENOBJ-N-REC_13
 70
     0
  0
APPID
  5
132B
330
12B1
100
AcDbSymbolTableRecord
100
AcDbRegAppTableRecord
  2
GENIUS_GENOBJ-N-TIT_13
 70
     0
  0
APPID
  5
132C
330
12B1
100
AcDbSymbolTableRecord
100
AcDbRegAppTableRecord
  2
GENIUS_GENTITLE_13
 70
     0
  0
APPID
  5
132D
330
12B1
100
AcDbSymbolTableRecord
100
AcDbRegAppTableRecord
  2
GENIUS_GENZVEED_13
 70
     0
  0
APPID
  5
132E
330
12B1
100
AcDbSymbolTableRecord
100
AcDbRegAppTableRecord
  2
GENIUS_GENOBJ-N-SDF_13
 70
     0
  0
APPID
  5
132F
330
12B1
100
AcDbSymbolTableRecord
100
AcDbRegAppTableRecord
  2
GENIUS_GENSCREG_13
 70
     0
  0
APPID
  5
1330
330
12B1
100
AcDbSymbolTableRecord
100
AcDbRegAppTableRecord
  2
GENIUS_GENBLKED_14
 70
     0
  0
APPID
  5
1496
330
12B1
100
AcDbSymbolTableRecord
100
AcDbRegAppTableRecord
  2
MCAD_NO_VIS
 70
     0
  0
APPID
  5
1497
330
12B1
100
AcDbSymbolTableRecord
100
AcDbRegAppTableRecord
  2
ACAD_TEMP_GRAPHIC
 70
     0
  0
APPID
  5
14C7
330
12B1
100
AcDbSymbolTableRecord
100
AcDbRegAppTableRecord
  2
AD_DRAW
 70
     0
  0
APPID
  5
14CA
330
12B1
100
AcDbSymbolTableRecord
100
AcDbRegAppTableRecord
  2
ACATTRIBSERVICES
 70
     0
  0
APPID
  5
14EA
330
12B1
100
AcDbSymbolTableRecord
100
AcDbRegAppTableRecord
  2
DESIGNERASSEMBLIES
 70
     0
  0
APPID
  5
14F0
330
12B1
100
AcDbSymbolTableRecord
100
AcDbRegAppTableRecord
  2
ACADM_DIM_EDIT
 70
     0
  0
APPID
  5
14F1
330
12B1
100
AcDbSymbolTableRecord
100
AcDbRegAppTableRecord
  2
AMDT_DM_ADJ
 70
     0
  0
APPID
  5
1522
330
12B1
100
AcDbSymbolTableRecord
100
AcDbRegAppTableRecord
  2
ACAD_DSTYLE_DIMARC_LENGTH_SYMBOL
 70
     0
  0
APPID
  5
1523
330
12B1
100
AcDbSymbolTableRecord
100
AcDbRegAppTableRecord
  2
ACAD_DSTYLE_DIMJOGGED_JOGANGLE_SYMBOL
 70
     0
  0
APPID
  5
1562
330
12B1
100
AcDbSymbolTableRecord
100
AcDbRegAppTableRecord
  2
GENIUS_GENDIMSH_14
 70
     0
  0
APPID
  5
157C
330
12B1
100
AcDbSymbolTableRecord
100
AcDbRegAppTableRecord
  2
AcAecLayerStandard
 70
     0
  0
APPID
  5
1583
330
12B1
100
AcDbSymbolTableRecord
100
AcDbRegAppTableRecord
  2
GENIUS_GENOBJ-N-HTC_13
 70
     0
  0
APPID
  5
1584
330
12B1
100
AcDbSymbolTableRecord
100
AcDbRegAppTableRecord
  2
GENIUS_GENHATCH_13
 70
     0
  0
ENDTAB
  0
TABLE
  2
DIMSTYLE
  5
12B2
330
0
100
AcDbSymbolTable
 70
    15
100
AcDbDimStyleTable
 71
     1
340
1316
  0
DIMSTYLE
105
12D9
102
{ACAD_REACTORS
330
110C
330
1117
330
1135
102
}
330
12B2
100
AcDbSymbolTableRecord
100
AcDbDimStyleTableRecord
  2
GEN-ISO
 70
     0
  4
"
 40
5.0
 41
2.5
 42
1.0
 43
7.0
 44
1.0
 47
0.1
 48
0.1
 73
     0
 74
     0
 77
     1
 78
     8
140
3.5
141
0.0
143
0.03937
146
0.71
147
0.6
172
     1
176
   256
177
   256
178
     2
271
     2
272
     3
274
     4
283
     0
340
12B7
  0
DIMSTYLE
105
1311
330
12B2
100
AcDbSymbolTableRecord
100
AcDbDimStyleTableRecord
  2
STANDARD
 70
     0
 40
5.0
340
12B7
  0
DIMSTYLE
105
1316
330
12B2
100
AcDbSymbolTableRecord
100
AcDbDimStyleTableRecord
  2
KATALOG
 70
     0
  4
"
 40
5.0
 41
2.5
 42
1.0
 43
7.0
 44
1.0
 47
0.1
 48
0.1
 73
     0
 74
     0
 77
     1
 78
     8
140
3.5
141
0.0
143
0.03937
146
0.71
147
0.6
172
     1
176
   256
177
   256
178
     2
271
     2
272
     3
274
     4
283
     0
340
12B7
  0
DIMSTYLE
105
1521
330
12B2
100
AcDbSymbolTableRecord
100
AcDbDimStyleTableRecord
  2
AM_DIN
 70
     0
  4
"
 41
2.5
 42
1.0
 43
10.0
 44
1.0
 47
0.1
 48
0.1
 73
     0
 74
     0
 77
     1
 78
     8
 79
     2
140
3.5
141
0.0
143
0.0393701
146
0.71
147
1.5
172
     1
176
   256
177
   256
178
     2
271
     2
272
     3
274
     4
283
     0
284
     8
340
12B7
371
    -1
372
    -1
1001
ACAD_DSTYLE_DIMARC_LENGTH_SYMBOL
1070
   379
1070
     0
1001
ACAD_DSTYLE_DIMJOGGED_JOGANGLE_SYMBOL
1070
   384
1040
1.570796326794896
  0
DIMSTYLE
105
1532
330
12B2
100
AcDbSymbolTableRecord
100
AcDbDimStyleTableRecord
  2
AM_DIN$3
 70
     0
  4
"
 41
2.5
 42
1.0
 43
10.0
 44
1.0
 47
0.1
 48
0.1
 73
     0
 77
     1
 78
     8
 79
     2
140
3.5
141
0.0
143
0.0393701
146
0.71
147
1.5
176
   256
177
   256
178
     2
271
     2
272
     3
274
     4
283
     0
284
     8
288
     1
289
     0
340
12B7
371
    -1
372
    -1
1001
ACAD_DSTYLE_DIMARC_LENGTH_SYMBOL
1070
   379
1070
     0
1001
ACAD_DSTYLE_DIMJOGGED_JOGANGLE_SYMBOL
1070
   384
1040
1.570796326794896
  0
DIMSTYLE
105
1537
330
12B2
100
AcDbSymbolTableRecord
100
AcDbDimStyleTableRecord
  2
AM_DIN$4
 70
     0
  4
"
 41
2.5
 42
1.0
 43
10.0
 44
1.0
 47
0.1
 48
0.1
 73
     0
 77
     1
 78
     8
 79
     2
140
3.5
141
0.0
143
0.0393701
146
0.71
147
1.5
176
   256
177
   256
178
     2
271
     2
272
     3
274
     4
283
     0
284
     8
288
     1
289
     0
340
12B7
371
    -1
372
    -1
1001
ACAD_DSTYLE_DIMARC_LENGTH_SYMBOL
1070
   379
1070
     0
1001
ACAD_DSTYLE_DIMJOGGED_JOGANGLE_SYMBOL
1070
   384
1040
1.570796326794896
  0
DIMSTYLE
105
153C
330
12B2
100
AcDbSymbolTableRecord
100
AcDbDimStyleTableRecord
  2
AM_DIN$6
 70
     0
  4
"
 41
2.5
 42
1.0
 43
10.0
 44
1.0
 47
0.1
 48
0.1
 73
     0
 74
     0
 78
     8
 79
     2
140
3.5
141
0.0
143
0.0393701
146
0.71
147
1.5
172
     1
176
   256
177
   256
178
     2
271
     2
272
     3
274
     4
283
     0
284
     8
340
12B7
371
    -1
372
    -1
1001
ACAD_DSTYLE_DIMARC_LENGTH_SYMBOL
1070
   379
1070
     0
1001
ACAD_DSTYLE_DIMJOGGED_JOGANGLE_SYMBOL
1070
   384
1040
1.570796326794896
  0
DIMSTYLE
105
1541
330
12B2
100
AcDbSymbolTableRecord
100
AcDbDimStyleTableRecord
  2
AM_DIN$7
 70
     0
  4
"
 41
2.5
 42
1.0
 43
10.0
 44
1.0
 47
0.1
 48
0.1
 73
     0
 74
     0
 77
     1
 78
     8
 79
     2
140
5.0
141
0.0
143
0.0393701
146
0.71
147
1.5
172
     1
176
   256
177
   256
178
     2
271
     2
272
     3
274
     4
283
     0
284
     8
340
12B7
371
    -1
372
    -1
1001
ACAD_DSTYLE_DIMARC_LENGTH_SYMBOL
1070
   379
1070
     0
1001
ACAD_DSTYLE_DIMJOGGED_JOGANGLE_SYMBOL
1070
   384
1040
1.570796326794896
  0
DIMSTYLE
105
1546
330
12B2
100
AcDbSymbolTableRecord
100
AcDbDimStyleTableRecord
  2
AM_DIN$SF
 70
     0
  4
"
 41
2.5
 42
1.0
 43
10.0
 44
1.0
 47
0.1
 48
0.1
 73
     0
 74
     0
 75
     1
 76
     1
 77
     1
 78
     8
 79
     2
140
3.5
141
0.0
143
0.0393701
146
0.71
147
1.5
172
     1
176
   256
177
   256
178
     2
271
     2
272
     3
274
     4
283
     0
284
     8
340
12B7
371
    -1
372
    -1
1001
ACAD_DSTYLE_DIMARC_LENGTH_SYMBOL
1070
   379
1070
     0
1001
ACAD_DSTYLE_DIMJOGGED_JOGANGLE_SYMBOL
1070
   384
1040
1.570796326794896
  0
DIMSTYLE
105
154F
330
12B2
100
AcDbSymbolTableRecord
100
AcDbDimStyleTableRecord
  2
AM_DIN$SH
 70
     0
  4
"
 41
2.5
 42
1.0
 43
10.0
 44
1.0
 47
0.1
 48
0.1
 73
     0
 74
     0
 75
     1
 76
     1
 77
     1
 78
     8
 79
     2
140
3.5
141
0.0
143
0.0393701
144
2.0
146
0.71
147
1.5
172
     1
173
     1
176
   256
177
   256
178
     2
271
     2
272
     3
274
     4
283
     0
284
     8
340
12B7
343
1547
371
    -1
372
    -1
1001
ACAD_DSTYLE_DIMARC_LENGTH_SYMBOL
1070
   379
1070
     0
1001
ACAD_DSTYLE_DIMJOGGED_JOGANGLE_SYMBOL
1070
   384
1040
1.570796326794896
  0
ENDTAB
  0
TABLE
  2
BLOCK_RECORD
  5
12A9
330
0
100
AcDbSymbolTable
 70
    21
  0
BLOCK_RECORD
  5
12C0
102
{ACAD_XDICTIONARY
360
155F
102
}
330
12A9
100
AcDbSymbolTableRecord
100
AcDbBlockTableRecord
  2
*MODEL_SPACE
340
148C
  0
BLOCK_RECORD
  5
12BD
330
12A9
100
AcDbSymbolTableRecord
100
AcDbBlockTableRecord
  2
*PAPER_SPACE
340
148D
  0
BLOCK_RECORD
  5
12E0
330
12A9
100
AcDbSymbolTableRecord
100
AcDbBlockTableRecord
  2
*X0
340
0
102
{BLKREFS
331
114F
102
}
  0
BLOCK_RECORD
  5
12E1
330
12A9
100
AcDbSymbolTableRecord
100
AcDbBlockTableRecord
  2
*X1
340
0
102
{BLKREFS
331
1164
102
}
  0
BLOCK_RECORD
  5
12E2
330
12A9
100
AcDbSymbolTableRecord
100
AcDbBlockTableRecord
  2
*X2
340
0
102
{BLKREFS
331
117A
102
}
  0
BLOCK_RECORD
  5
12E3
330
12A9
100
AcDbSymbolTableRecord
100
AcDbBlockTableRecord
  2
*X3
340
0
102
{BLKREFS
331
1195
102
}
  0
BLOCK_RECORD
  5
12EE
330
12A9
100
AcDbSymbolTableRecord
100
AcDbBlockTableRecord
  2
KATALOG_LEER
340
0
102
{BLKREFS
331
1332
331
134F
102
}
  0
BLOCK_RECORD
  5
1351
330
12A9
100
AcDbSymbolTableRecord
100
AcDbBlockTableRecord
  2
*D12
340
0
  0
BLOCK_RECORD
  5
1374
330
12A9
100
AcDbSymbolTableRecord
100
AcDbBlockTableRecord
  2
*D14
340
0
  0
BLOCK_RECORD
  5
13C1
330
12A9
100
AcDbSymbolTableRecord
100
AcDbBlockTableRecord
  2
*D17
340
0
  0
BLOCK_RECORD
  5
1547
330
12A9
100
AcDbSymbolTableRecord
100
AcDbBlockTableRecord
  2
GENAXEH
340
0
  0
ENDTAB
  0
ENDSEC
  0
SECTION
  2
BLOCKS
  0
BLOCK
  5
12C1
330
12C0
100
AcDbEntity
  8
0
100
AcDbBlockBegin
  2
*MODEL_SPACE
 70
     0
 10
0.0
 20
0.0
 30
0.0
  3
*MODEL_SPACE
  1

  0
ENDBLK
  5
12C2
330
12C0
100
AcDbEntity
  8
0
100
AcDbBlockEnd
  0
BLOCK
  5
12BE
330
12BD
100
AcDbEntity
 67
     1
  8
0
100
AcDbBlockBegin
  2
*PAPER_SPACE
 70
     0
 10
0.0
 20
0.0
 30
0.0
  3
*PAPER_SPACE
  1

  0
ENDBLK
  5
12BF
330
12BD
100
AcDbEntity
 67
     1
  8
0
100
AcDbBlockEnd
  0
BLOCK
  5
114A
330
12E0
100
AcDbEntity
  8
0
100
AcDbBlockBegin
  2
*X0
 70
     1
 10
0.0
 20
0.0
 30
0.0
  3
*X0
  1

  0
LINE
  5
114B
330
12E0
100
AcDbEntity
  8
8
100
AcDbLine
 10
329.577
 20
441.7119999999999
 30
0.0
 11
336.781
 21
434.5089999999999
 31
0.0
  0
LINE
  5
114C
330
12E0
100
AcDbEntity
  8
8
100
AcDbLine
 10
339.013
 20
441.256
 30
0.0
 11
349.181
 21
431.0889999999999
 31
0.0
  0
LINE
  5
114D
330
12E0
100
AcDbEntity
  8
8
100
AcDbLine
 10
348.49
 20
440.76
 30
0.0
 11
358.12
 21
431.13
 31
0.0
  0
ENDBLK
  5
114E
330
12E0
100
AcDbEntity
  8
0
100
AcDbBlockEnd
  0
BLOCK
  5
1161
330
12E1
100
AcDbEntity
  8
0
100
AcDbBlockBegin
  2
*X1
 70
     1
 10
0.0
 20
0.0
 30
0.0
  3
*X1
  1

  0
LINE
  5
1162
330
12E1
100
AcDbEntity
  8
8
100
AcDbLine
 10
378.993
 20
437.198
 30
0.0
 11
387.3540000000001
 21
428.8369999999999
 31
0.0
  0
ENDBLK
  5
1163
330
12E1
100
AcDbEntity
  8
0
100
AcDbBlockEnd
  0
BLOCK
  5
1176
330
12E2
100
AcDbEntity
  8
0
100
AcDbBlockBegin
  2
*X2
 70
     1
 10
0.0
 20
0.0
 30
0.0
  3
*X2
  1

  0
LINE
  5
1177
330
12E2
100
AcDbEntity
  8
8
100
AcDbLine
 10
594.964
 20
436.753
 30
0.0
 11
603.254
 21
428.4629999999999
 31
0.0
  0
LINE
  5
1178
330
12E2
100
AcDbEntity
  8
8
100
AcDbLine
 10
603.4969999999999
 20
437.1999999999999
 30
0.0
 11
608.779
 21
431.918
 31
0.0
  0
ENDBLK
  5
1179
330
12E2
100
AcDbEntity
  8
0
100
AcDbBlockEnd
  0
BLOCK
  5
118F
330
12E3
100
AcDbEntity
  8
0
100
AcDbBlockBegin
  2
*X3
 70
     1
 10
0.0
 20
0.0
 30
0.0
  3
*X3
  1

  0
LINE
  5
1190
330
12E3
100
AcDbEntity
  8
8
100
AcDbLine
 10
629.1509999999999
 20
438.4869999999999
 30
0.0
 11
636.2849999999999
 21
431.3519999999999
 31
0.0
  0
LINE
  5
1191
330
12E3
100
AcDbEntity
  8
8
100
AcDbLine
 10
635.7639999999999
 20
440.854
 30
0.0
 11
643.0599999999999
 21
433.558
 31
0.0
  0
LINE
  5
1192
330
12E3
100
AcDbEntity
  8
8
100
AcDbLine
 10
644.297
 20
441.3009999999999
 30
0.0
 11
649.645
 21
435.9539999999999
 31
0.0
  0
LINE
  5
1193
330
12E3
100
AcDbEntity
  8
8
100
AcDbLine
 10
652.866
 20
441.7119999999999
 30
0.0
 11
654.2259999999999
 21
440.3519999999999
 31
0.0
  0
ENDBLK
  5
1194
330
12E3
100
AcDbEntity
  8
0
100
AcDbBlockEnd
  0
BLOCK
  5
12EF
330
12EE
100
AcDbEntity
  8
0
100
AcDbBlockBegin
  2
KATALOG_LEER
 70
     0
 10
0.0
 20
0.0
 30
0.0
  3
KATALOG_LEER
  1

  0
ENDBLK
  5
12F0
330
12EE
100
AcDbEntity
  8
0
100
AcDbBlockEnd
  0
BLOCK
  5
13E3
330
1351
100
AcDbEntity
  8
0
100
AcDbBlockBegin
  2
*D12
 70
     1
 10
0.0
 20
0.0
 30
0.0
  3
*D12
  1

  0
LINE
  5
13E4
330
1351
100
AcDbEntity
  8
0
  6
ByBlock
100
AcDbLine
 10
606.9922269999999
 20
469.8722469999999
 30
0.0
 11
606.9922269999999
 21
605.199247
 31
0.0
  0
LINE
  5
13E5
330
1351
100
AcDbEntity
  8
0
  6
ByBlock
100
AcDbLine
 10
246.992227
 20
469.8722469999999
 30
0.0
 11
246.992227
 21
605.199247
 31
0.0
  0
LINE
  5
13E6
330
1351
100
AcDbEntity
  8
0
  6
ByBlock
100
AcDbLine
 10
594.4922269999999
 20
600.199247
 30
0.0
 11
259.492227
 21
600.199247
 31
0.0
  0
SOLID
  5
13E7
330
1351
100
AcDbEntity
  8
0
  6
ByBlock
100
AcDbTrace
 10
594.4922269999999
 20
602.2825809999999
 30
0.0
 11
594.4922269999999
 21
598.1159139999999
 31
0.0
 12
606.9922269999999
 22
600.199247
 32
0.0
 13
606.9922269999999
 23
600.199247
 33
0.0
  0
SOLID
  5
13E8
330
1351
100
AcDbEntity
  8
0
  6
ByBlock
100
AcDbTrace
 10
259.492227
 20
602.2825809999999
 30
0.0
 11
259.492227
 21
598.1159139999999
 31
0.0
 12
246.992227
 22
600.199247
 32
0.0
 13
246.992227
 23
600.199247
 33
0.0
  0
MTEXT
  5
13E9
330
1351
100
AcDbEntity
  8
0
  6
ByBlock
 62
     2
100
AcDbMText
 10
439.258227
 20
611.9492469999999
 30
0.0
 40
17.5
 41
0.0
 71
     5
 72
     1
  1
\U+2205 360
 73
     1
 44
1.0
1001
ACAD
1000
MTEXTBEGIN
1070
    73
1070
     1
1070
    44
1040
1.0
1070
    74
1070
     0
1000
MTEXTEND
  0
POINT
  5
13EA
330
1351
100
AcDbEntity
  8
DEFPOINTS
  6
ByBlock
 62
     0
100
AcDbPoint
 10
606.9922269999999
 20
464.872247
 30
0.0
  0
POINT
  5
13EB
330
1351
100
AcDbEntity
  8
DEFPOINTS
  6
ByBlock
 62
     0
100
AcDbPoint
 10
246.992227
 20
464.872247
 30
0.0
  0
POINT
  5
13EC
330
1351
100
AcDbEntity
  8
DEFPOINTS
  6
ByBlock
 62
     0
100
AcDbPoint
 10
246.992227
 20
600.199247
 30
0.0
  0
ENDBLK
  5
13ED
330
1351
100
AcDbEntity
  8
0
100
AcDbBlockEnd
  0
BLOCK
  5
1457
330
1374
100
AcDbEntity
  8
0
100
AcDbBlockBegin
  2
*D14
 70
     1
 10
0.0
 20
0.0
 30
0.0
  3
*D14
  1

  0
LINE
  5
15AE
330
1374
100
AcDbEntity
  8
5
370
    -2
100
AcDbLine
 10
246.590227
 20
474.8722469999999
 30
0.0
 11
188.887601256296
 21
474.8722469999999
 31
0.0
  0
LINE
  5
15AF
330
1374
100
AcDbEntity
  8
5
370
    -2
100
AcDbLine
 10
421.9922269999999
 20
244.872247
 30
0.0
 11
188.887601256296
 21
244.8722470000001
 31
0.0
  0
LINE
  5
15B0
330
1374
100
AcDbEntity
  8
5
370
    -2
100
AcDbLine
 10
193.887601256296
 20
462.3722469999999
 30
0.0
 11
193.887601256296
 21
257.3722470000001
 31
0.0
  0
SOLID
  5
15B1
330
1374
100
AcDbEntity
  8
5
100
AcDbTrace
 10
191.8042679229627
 20
462.3722469999999
 30
0.0
 11
195.9709345896294
 21
462.3722469999999
 31
0.0
 12
193.887601256296
 22
474.8722469999999
 32
0.0
 13
193.887601256296
 23
474.8722469999999
 33
0.0
  0
SOLID
  5
15B2
330
1374
100
AcDbEntity
  8
5
100
AcDbTrace
 10
191.8042679229626
 20
257.3722470000001
 30
0.0
 11
195.9709345896293
 21
257.3722470000001
 31
0.0
 12
193.887601256296
 22
244.872247
 32
0.0
 13
193.887601256296
 23
244.872247
 33
0.0
  0
MTEXT
  5
15B3
330
1374
100
AcDbEntity
  8
5
 62
     2
100
AcDbMText
 10
182.135878815351
 20
347.876265
 30
0.0
 40
17.5
 41
0.0
 71
     5
 72
     1
  1
230
 11
0.0000000000000001
 21
1.0
 31
0.0
 73
     1
 44
1.0
1001
ACAD
1000
MTEXTBEGIN
1070
    73
1070
     1
1070
    44
1040
1.0
1070
    74
1070
     0
1000
MTEXTEND
  0
POINT
  5
15B4
330
1374
100
AcDbEntity
  8
DEFPOINTS
 62
     0
100
AcDbPoint
 10
251.590227
 20
474.8722469999999
 30
0.0
  0
POINT
  5
15B5
330
1374
100
AcDbEntity
  8
DEFPOINTS
 62
     0
100
AcDbPoint
 10
426.9922269999999
 20
244.872247
 30
0.0
  0
POINT
  5
15B6
330
1374
100
AcDbEntity
  8
DEFPOINTS
 62
     0
100
AcDbPoint
 10
193.887601256296
 20
244.872247
 30
0.0
  0
ENDBLK
  5
1461
330
1374
100
AcDbEntity
  8
0
100
AcDbBlockEnd
  0
BLOCK
  5
13CD
330
13C1
100
AcDbEntity
  8
0
100
AcDbBlockBegin
  2
*D17
 70
     1
 10
0.0
 20
0.0
 30
0.0
  3
*D17
  1

  0
LINE
  5
13CE
330
13C1
100
AcDbEntity
  8
0
  6
ByBlock
100
AcDbLine
 10
326.992227
 20
483.8722469999999
 30
0.0
 11
326.992227
 21
565.8512469999999
 31
0.0
  0
LINE
  5
13CF
330
13C1
100
AcDbEntity
  8
0
  6
ByBlock
100
AcDbLine
 10
526.9922269999999
 20
483.8722469999999
 30
0.0
 11
526.9922269999999
 21
565.8512469999999
 31
0.0
  0
LINE
  5
13D0
330
13C1
100
AcDbEntity
  8
0
  6
ByBlock
100
AcDbLine
 10
339.492227
 20
560.8512469999999
 30
0.0
 11
514.4922269999999
 21
560.8512469999999
 31
0.0
  0
SOLID
  5
13D1
330
13C1
100
AcDbEntity
  8
0
  6
ByBlock
100
AcDbTrace
 10
339.492227
 20
562.934581
 30
0.0
 11
339.492227
 21
558.767914
 31
0.0
 12
326.992227
 22
560.8512469999999
 32
0.0
 13
326.992227
 23
560.8512469999999
 33
0.0
  0
SOLID
  5
13D2
330
13C1
100
AcDbEntity
  8
0
  6
ByBlock
100
AcDbTrace
 10
514.4922269999999
 20
562.934581
 30
0.0
 11
514.4922269999999
 21
558.767914
 31
0.0
 12
526.9922269999999
 22
560.8512469999999
 32
0.0
 13
526.9922269999999
 23
560.8512469999999
 33
0.0
  0
MTEXT
  5
13D3
330
13C1
100
AcDbEntity
  8
0
  6
ByBlock
 62
     2
100
AcDbMText
 10
440.3832269999999
 20
572.60297
 30
0.0
 40
17.5
 41
0.0
 71
     5
 72
     1
  1
\U+2205 200
 73
     1
 44
1.0
1001
ACAD
1000
MTEXTBEGIN
1070
    73
1070
     1
1070
    44
1040
1.0
1070
    74
1070
     0
1000
MTEXTEND
  0
POINT
  5
13D4
330
13C1
100
AcDbEntity
  8
DEFPOINTS
  6
ByBlock
 62
     0
100
AcDbPoint
 10
326.992227
 20
478.8722469999999
 30
0.0
  0
POINT
  5
13D5
330
13C1
100
AcDbEntity
  8
DEFPOINTS
  6
ByBlock
 62
     0
100
AcDbPoint
 10
526.9922269999999
 20
478.8722469999999
 30
0.0
  0
POINT
  5
13D6
330
13C1
100
AcDbEntity
  8
DEFPOINTS
  6
ByBlock
 62
     0
100
AcDbPoint
 10
526.9922269999999
 20
560.8512469999999
 30
0.0
  0
ENDBLK
  5
13D7
330
13C1
100
AcDbEntity
  8
0
100
AcDbBlockEnd
  0
BLOCK
  5
1549
330
1547
100
AcDbEntity
  8
0
100
AcDbBlockBegin
  2
GENAXEH
 70
     0
 10
0.0
 20
0.0
 30
0.0
  3
GENAXEH
  1

  0
LINE
  5
1548
330
1547
100
AcDbEntity
  8
0
100
AcDbLine
 10
-1.0
 20
0.0
 30
0.0
 11
1.0
 21
0.0
 31
0.0
  0
ENDBLK
  5
154A
330
1547
100
AcDbEntity
  8
0
100
AcDbBlockEnd
  0
ENDSEC
  0
SECTION
  2
ENTITIES
  0
LINE
  5
1001
330
12C0
100
AcDbEntity
  8
7
100
AcDbLine
 10
426.9922269999999
 20
504.9972469999999
 30
0.0
 11
426.9922269999999
 21
223.872247
 31
0.0
  0
LINE
  5
1002
330
12C0
100
AcDbEntity
  8
0
100
AcDbLine
 10
520.6542269999999
 20
462.8722469999999
 30
0.0
 11
440.4302269999999
 21
462.8722469999999
 31
0.0
  0
LINE
  5
1003
330
12C0
100
AcDbEntity
  8
0
100
AcDbLine
 10
520.4702269999999
 20
459.3722469999999
 30
0.0
 11
513.875227
 21
459.3722469999999
 31
0.0
  0
LINE
  5
1004
330
12C0
100
AcDbEntity
  8
0
100
AcDbLine
 10
439.4922269999999
 20
459.3722469999999
 30
0.0
 11
440.429227
 21
462.8722469999999
 31
0.0
  0
LINE
  5
1005
330
12C0
100
AcDbEntity
  8
0
100
AcDbLine
 10
414.492227
 20
459.3732469999999
 30
0.0
 11
413.554227
 21
462.873247
 31
0.0
  0
LINE
  5
1006
330
12C0
100
AcDbEntity
  8
0
100
AcDbLine
 10
340.109227
 20
459.3722469999999
 30
0.0
 11
333.514227
 21
459.3722469999999
 31
0.0
  0
LINE
  5
1007
330
12C0
100
AcDbEntity
  8
0
100
AcDbLine
 10
439.4922269999999
 20
459.3722469999999
 30
0.0
 11
414.492227
 21
459.3722469999999
 31
0.0
  0
LINE
  5
1008
330
12C0
100
AcDbEntity
  8
0
100
AcDbLine
 10
413.5552269999999
 20
462.8722469999999
 30
0.0
 11
333.331227
 21
462.8722469999999
 31
0.0
  0
LINE
  5
1009
330
12C0
100
AcDbEntity
  8
0
100
AcDbLine
 10
339.492227
 20
462.873247
 30
0.0
 11
341.492227
 21
451.5312469999999
 31
0.0
  0
LINE
  5
100A
330
12C0
100
AcDbEntity
  8
0
100
AcDbLine
 10
514.4922269999999
 20
462.8722469999999
 30
0.0
 11
512.4922269999999
 21
451.5302469999999
 31
0.0
  0
LINE
  5
100B
330
12C0
100
AcDbEntity
  8
0
100
AcDbLine
 10
512.4922269999999
 20
451.5302469999999
 30
0.0
 11
341.492227
 21
451.5302469999999
 31
0.0
  0
LINE
  5
100C
330
12C0
100
AcDbEntity
  8
0
100
AcDbLine
 10
332.492227
 20
478.8722469999999
 30
0.0
 11
333.514227
 21
459.3722469999999
 31
0.0
  0
LINE
  5
100D
330
12C0
100
AcDbEntity
  8
0
100
AcDbLine
 10
521.4922269999999
 20
478.8722469999999
 30
0.0
 11
520.4702269999999
 21
459.3722469999999
 31
0.0
  0
LINE
  5
100E
330
12C0
100
AcDbEntity
  8
0
100
AcDbLine
 10
264.150227
 20
464.872247
 30
0.0
 11
246.992227
 21
464.872247
 31
0.0
  0
LINE
  5
100F
330
12C0
100
AcDbEntity
  8
0
100
AcDbLine
 10
606.9922269999999
 20
464.872247
 30
0.0
 11
589.8342269999999
 21
464.872247
 31
0.0
  0
LINE
  5
1010
330
12C0
100
AcDbEntity
  8
0
100
AcDbLine
 10
602.3952269999999
 20
474.8722469999999
 30
0.0
 11
587.240227
 21
474.8722469999999
 31
0.0
  0
LINE
  5
1011
330
12C0
100
AcDbEntity
  8
0
100
AcDbLine
 10
246.992227
 20
464.872247
 30
0.0
 11
249.175227
 21
473.0192469999999
 31
0.0
  0
LINE
  5
1012
330
12C0
100
AcDbEntity
  8
0
100
AcDbLine
 10
606.9922269999999
 20
464.8732469999999
 30
0.0
 11
604.808227
 21
473.0212469999999
 31
0.0
  0
ARC
  5
1013
330
12C0
100
AcDbEntity
  8
0
100
AcDbCircle
 10
602.3952269999999
 20
472.3722469999999
 30
0.0
 40
2.5
100
AcDbArc
 50
15.0
 51
107.0
  0
ARC
  5
1014
330
12C0
100
AcDbEntity
  8
0
100
AcDbCircle
 10
251.590227
 20
472.3722469999999
 30
0.0
 40
2.5
100
AcDbArc
 50
73.0
 51
165.0
  0
LINE
  5
1015
330
12C0
100
AcDbEntity
  8
0
100
AcDbLine
 10
384.591227
 20
474.8722469999999
 30
0.0
 11
372.154227
 21
474.8722469999999
 31
0.0
  0
LINE
  5
1016
330
12C0
100
AcDbEntity
  8
0
100
AcDbLine
 10
601.664227
 20
474.762247
 30
0.0
 11
572.9922269999999
 21
465.9972469999999
 31
0.0
  0
LINE
  5
1017
330
12C0
100
AcDbEntity
  8
0
100
AcDbLine
 10
589.8342269999999
 20
464.8712469999999
 30
0.0
 11
574.1432269999998
 21
460.0742469999999
 31
0.0
  0
LINE
  5
1018
330
12C0
100
AcDbEntity
  8
0
100
AcDbLine
 10
252.320227
 20
474.763247
 30
0.0
 11
280.992227
 21
465.9972469999999
 31
0.0
  0
LINE
  5
1019
330
12C0
100
AcDbEntity
  8
0
100
AcDbLine
 10
264.149227
 20
464.872247
 30
0.0
 11
279.841227
 21
460.0752469999999
 31
0.0
  0
LINE
  5
101A
330
12C0
100
AcDbEntity
  8
0
100
AcDbLine
 10
280.992227
 20
465.998247
 30
0.0
 11
295.354227
 21
464.7412469999999
 31
0.0
  0
LINE
  5
101B
330
12C0
100
AcDbEntity
  8
0
100
AcDbLine
 10
572.9922269999999
 20
465.9972469999999
 30
0.0
 11
556.9922269999999
 21
464.5982469999999
 31
0.0
  0
ARC
  5
101C
330
12C0
100
AcDbEntity
  8
0
100
AcDbCircle
 10
551.9922269999999
 20
444.8722469999999
 30
0.0
 40
12.0
100
AcDbArc
 50
190.22
 51
350.0
  0
ARC
  5
101D
330
12C0
100
AcDbEntity
  8
0
100
AcDbCircle
 10
301.992227
 20
444.8722469999999
 30
0.0
 40
12.0
100
AcDbArc
 50
190.243
 51
350.0
  0
LINE
  5
101E
330
12C0
100
AcDbEntity
  8
0
100
AcDbLine
 10
574.1432269999998
 20
460.0752469999999
 30
0.0
 11
568.6552269999999
 21
459.5952469999999
 31
0.0
  0
LINE
  5
101F
330
12C0
100
AcDbEntity
  8
0
100
AcDbLine
 10
279.841227
 20
460.0752469999999
 30
0.0
 11
285.330227
 21
459.5952469999999
 31
0.0
  0
LINE
  5
1020
330
12C0
100
AcDbEntity
  8
0
100
AcDbLine
 10
563.8102269999999
 20
442.7882469999999
 30
0.0
 11
566.4102269999999
 21
457.5392469999999
 31
0.0
  0
LINE
  5
1021
330
12C0
100
AcDbEntity
  8
0
100
AcDbLine
 10
313.810227
 20
442.7882469999999
 30
0.0
 11
315.898227
 21
454.6302469999999
 31
0.0
  0
LINE
  5
1022
330
12C0
100
AcDbEntity
  8
0
100
AcDbLine
 10
290.175227
 20
442.7892469999999
 30
0.0
 11
287.575227
 21
457.5392469999999
 31
0.0
  0
LINE
  5
1023
330
12C0
100
AcDbEntity
  8
0
100
AcDbLine
 10
540.1742269999999
 20
442.7892469999999
 30
0.0
 11
538.086227
 21
454.6302469999999
 31
0.0
  0
LINE
  5
1024
330
12C0
100
AcDbEntity
  8
0
100
AcDbLine
 10
318.578227
 20
456.686247
 30
0.0
 11
328.114227
 21
455.8522469999999
 31
0.0
  0
ARC
  5
1025
330
12C0
100
AcDbEntity
  8
0
100
AcDbCircle
 10
285.112227
 20
457.104247
 30
0.0
 40
2.5
100
AcDbArc
 50
10.001
 51
85.0
  0
ARC
  5
1026
330
12C0
100
AcDbEntity
  8
0
100
AcDbCircle
 10
318.360227
 20
454.1962469999999
 30
0.0
 40
2.5
100
AcDbArc
 50
84.999
 51
170.0009999999999
  0
LINE
  5
1027
330
12C0
100
AcDbEntity
  8
0
100
AcDbLine
 10
535.4062269999999
 20
456.686247
 30
0.0
 11
525.8702269999999
 21
455.8522469999999
 31
0.0
  0
ARC
  5
1028
330
12C0
100
AcDbEntity
  8
0
100
AcDbCircle
 10
568.8732269999999
 20
457.1052469999999
 30
0.0
 40
2.5
100
AcDbArc
 50
94.99700000000002
 51
169.999
  0
ARC
  5
1029
330
12C0
100
AcDbEntity
  8
0
100
AcDbCircle
 10
535.6242269999999
 20
454.1962469999999
 30
0.0
 40
2.5
100
AcDbArc
 50
9.998000000000001
 51
95.0
  0
LINE
  5
102A
330
12C0
100
AcDbEntity
  8
0
100
AcDbLine
 10
528.0422269999998
 20
466.8722469999999
 30
0.0
 11
520.8632269999999
 21
466.8722469999999
 31
0.0
  0
LINE
  5
102B
330
12C0
100
AcDbEntity
  8
0
100
AcDbLine
 10
333.121227
 20
466.8722469999999
 30
0.0
 11
325.942227
 21
466.8722469999999
 31
0.0
  0
LINE
  5
102C
330
12C0
100
AcDbEntity
  8
0
100
AcDbLine
 10
499.5002269999999
 20
244.872247
 30
0.0
 11
354.484227
 21
244.872247
 31
0.0
  0
LINE
  5
102D
330
12C0
100
AcDbEntity
  8
0
100
AcDbLine
 10
499.5002269999999
 20
244.872247
 30
0.0
 11
506.9922269999999
 21
246.879247
 31
0.0
  0
LINE
  5
102E
330
12C0
100
AcDbEntity
  8
0
100
AcDbLine
 10
336.838227
 20
357.029247
 30
0.0
 11
333.589227
 21
450.0842469999999
 31
0.0
  0
LINE
  5
102F
330
12C0
100
AcDbEntity
  8
0
100
AcDbLine
 10
517.1552269999999
 20
357.244247
 30
0.0
 11
520.3972269999999
 21
450.0842469999999
 31
0.0
  0
ARC
  5
1030
330
12C0
100
AcDbEntity
  8
0
100
AcDbCircle
 10
526.3932269999998
 20
449.875247
 30
0.0
 40
6.0
100
AcDbArc
 50
95.0
 51
178.001
  0
ARC
  5
1031
330
12C0
100
AcDbEntity
  8
0
100
AcDbCircle
 10
327.591227
 20
449.8742469999999
 30
0.0
 40
6.0
100
AcDbArc
 50
1.999
 51
85.00100000000001
  0
LINE
  5
1032
330
12C0
100
AcDbEntity
  8
0
100
AcDbLine
 10
341.493227
 20
451.5302469999999
 30
0.0
 11
343.061227
 21
361.677247
 31
0.0
  0
LINE
  5
1033
330
12C0
100
AcDbEntity
  8
0
100
AcDbLine
 10
512.4922269999999
 20
451.5302469999999
 30
0.0
 11
510.924227
 21
361.677247
 31
0.0
  0
ARC
  5
1034
330
12C0
100
AcDbEntity
  8
0
100
AcDbCircle
 10
504.9252269999999
 20
361.7822470000001
 30
0.0
 40
6.0
100
AcDbArc
 50
288.258
 51
359.0
  0
ARC
  5
1035
330
12C0
100
AcDbEntity
  8
0
100
AcDbCircle
 10
349.060227
 20
361.7822470000001
 30
0.0
 40
6.0
100
AcDbArc
 50
181.0
 51
255.0
  0
LINE
  5
1036
330
12C0
100
AcDbEntity
  8
4
100
AcDbLine
 10
506.7472269999999
 20
357.156247
 30
0.0
 11
347.238227
 21
357.156247
 31
0.0
  0
LINE
  5
1037
330
12C0
100
AcDbEntity
  8
0
100
AcDbLine
 10
306.992227
 20
463.7232469999999
 30
0.0
 11
320.481227
 21
462.5432469999999
 31
0.0
  0
LINE
  5
1038
330
12C0
100
AcDbEntity
  8
0
100
AcDbLine
 10
295.992227
 20
463.635247
 30
0.0
 11
295.354227
 21
464.7412469999999
 31
0.0
  0
LINE
  5
1039
330
12C0
100
AcDbEntity
  8
0
100
AcDbLine
 10
546.9922269999999
 20
463.7232469999999
 30
0.0
 11
530.9502269999999
 21
462.3192469999999
 31
0.0
  0
LINE
  5
103A
330
12C0
100
AcDbEntity
  8
0
100
AcDbLine
 10
556.9922269999999
 20
461.904247
 30
0.0
 11
558.630227
 21
464.7412469999999
 31
0.0
  0
LINE
  5
103B
330
12C0
100
AcDbEntity
  8
0
100
AcDbLine
 10
546.9922269999999
 20
448.6352469999999
 30
0.0
 11
556.9922269999999
 21
448.6352469999999
 31
0.0
  0
LINE
  5
103C
330
12C0
100
AcDbEntity
  8
0
100
AcDbLine
 10
547.9922269999999
 20
443.135247
 30
0.0
 11
555.9922269999999
 21
443.135247
 31
0.0
  0
LINE
  5
103D
330
12C0
100
AcDbEntity
  8
0
100
AcDbLine
 10
296.992227
 20
448.6352469999999
 30
0.0
 11
306.992227
 21
448.6352469999999
 31
0.0
  0
LINE
  5
103E
330
12C0
100
AcDbEntity
  8
0
100
AcDbLine
 10
305.992227
 20
443.135247
 30
0.0
 11
297.992227
 21
443.135247
 31
0.0
  0
LINE
  5
103F
330
12C0
100
AcDbEntity
  8
0
100
AcDbLine
 10
280.992227
 20
465.998247
 30
0.0
 11
296.992227
 21
465.998247
 31
0.0
  0
LINE
  5
1040
330
12C0
100
AcDbEntity
  8
0
100
AcDbLine
 10
295.354227
 20
464.7412469999999
 30
0.0
 11
296.992227
 21
464.7412469999999
 31
0.0
  0
LINE
  5
1041
330
12C0
100
AcDbEntity
  8
0
100
AcDbLine
 10
555.9912269999999
 20
443.1362469999999
 30
0.0
 11
551.9922269999999
 21
440.8272469999999
 31
0.0
  0
LINE
  5
1042
330
12C0
100
AcDbEntity
  8
0
100
AcDbLine
 10
547.9922269999999
 20
443.1362469999999
 30
0.0
 11
551.9922269999999
 21
440.8262469999999
 31
0.0
  0
LINE
  5
1043
330
12C0
100
AcDbEntity
  8
0
100
AcDbLine
 10
305.992227
 20
443.1362469999999
 30
0.0
 11
301.992227
 21
440.8272469999999
 31
0.0
  0
LINE
  5
1044
330
12C0
100
AcDbEntity
  8
0
100
AcDbLine
 10
297.992227
 20
443.1362469999999
 30
0.0
 11
301.992227
 21
440.8262469999999
 31
0.0
  0
LINE
  5
1045
330
12C0
100
AcDbEntity
  8
0
100
AcDbLine
 10
384.237227
 20
466.8722469999999
 30
0.0
 11
376.084227
 21
466.8722469999999
 31
0.0
  0
LINE
  5
1046
330
12C0
100
AcDbEntity
  8
0
100
AcDbLine
 10
373.657227
 20
468.7752469999999
 30
0.0
 11
371.168227
 21
478.8742469999999
 31
0.0
  0
LINE
  5
1047
330
12C0
100
AcDbEntity
  8
0
100
AcDbLine
 10
382.174227
 20
468.487247
 30
0.0
 11
386.105227
 21
478.8722469999999
 31
0.0
  0
LINE
  5
1048
330
12C0
100
AcDbEntity
  8
0
100
AcDbLine
 10
388.871227
 20
478.8722469999999
 30
0.0
 11
386.681227
 21
468.8382469999999
 31
0.0
  0
ARC
  5
1049
330
12C0
100
AcDbEntity
  8
0
100
AcDbCircle
 10
379.836227
 20
469.3722469999999
 30
0.0
 40
2.5
100
AcDbArc
 50
270.002
 51
339.271
  0
ARC
  5
104A
330
12C0
100
AcDbEntity
  8
0
100
AcDbCircle
 10
384.237227
 20
469.3722469999999
 30
0.0
 40
2.5
100
AcDbArc
 50
269.998
 51
347.683
  0
ARC
  5
104B
330
12C0
100
AcDbEntity
  8
0
100
AcDbCircle
 10
376.084227
 20
469.3722469999999
 30
0.0
 40
2.5
100
AcDbArc
 50
193.844
 51
269.998
  0
LINE
  5
104C
330
12C0
100
AcDbEntity
  8
0
100
AcDbLine
 10
469.3942269999999
 20
474.8722469999999
 30
0.0
 11
481.8312269999999
 21
474.8722469999999
 31
0.0
  0
LINE
  5
104D
330
12C0
100
AcDbEntity
  8
0
100
AcDbLine
 10
469.7482269999999
 20
466.8722469999999
 30
0.0
 11
477.9002269999999
 21
466.8722469999999
 31
0.0
  0
LINE
  5
104E
330
12C0
100
AcDbEntity
  8
0
100
AcDbLine
 10
480.3272269999999
 20
468.7742469999999
 30
0.0
 11
482.8162269999999
 21
478.8722469999999
 31
0.0
  0
LINE
  5
104F
330
12C0
100
AcDbEntity
  8
0
100
AcDbLine
 10
471.8102269999999
 20
468.487247
 30
0.0
 11
467.8802269999999
 21
478.8722469999999
 31
0.0
  0
LINE
  5
1050
330
12C0
100
AcDbEntity
  8
0
100
AcDbLine
 10
465.114227
 20
478.8722469999999
 30
0.0
 11
467.3052269999999
 21
468.8382469999999
 31
0.0
  0
ARC
  5
1051
330
12C0
100
AcDbEntity
  8
0
100
AcDbCircle
 10
474.1482269999999
 20
469.3722469999999
 30
0.0
 40
2.5
100
AcDbArc
 50
200.729
 51
269.998
  0
ARC
  5
1052
330
12C0
100
AcDbEntity
  8
0
100
AcDbCircle
 10
469.7482269999999
 20
469.3722469999999
 30
0.0
 40
2.5
100
AcDbArc
 50
192.317
 51
270.003
  0
ARC
  5
1053
330
12C0
100
AcDbEntity
  8
0
100
AcDbCircle
 10
477.9002269999999
 20
469.3722469999999
 30
0.0
 40
2.5
100
AcDbArc
 50
270.002
 51
346.156
  0
LINE
  5
1054
330
12C0
100
AcDbEntity
  8
4
100
AcDbLine
 10
320.481227
 20
462.5432469999999
 30
0.0
 11
323.034227
 21
462.3192469999999
 31
0.0
  0
LINE
  5
1055
330
12C0
100
AcDbEntity
  8
0
100
AcDbLine
 10
326.992227
 20
478.8722469999999
 30
0.0
 11
325.743227
 21
464.592247
 31
0.0
  0
ARC
  5
1056
330
12C0
100
AcDbEntity
  8
0
100
AcDbCircle
 10
323.252227
 20
464.8102469999999
 30
0.0
 40
2.5
100
AcDbArc
 50
265.0
 51
355.0019999999999
  0
LINE
  5
1057
330
12C0
100
AcDbEntity
  8
0
100
AcDbLine
 10
526.9922269999999
 20
478.8722469999999
 30
0.0
 11
528.241227
 21
464.592247
 31
0.0
  0
ARC
  5
1058
330
12C0
100
AcDbEntity
  8
0
100
AcDbCircle
 10
530.7322269999999
 20
464.8102469999999
 30
0.0
 40
2.5
100
AcDbArc
 50
184.999
 51
274.998
  0
LINE
  5
1059
330
12C0
100
AcDbEntity
  8
0
100
AcDbLine
 10
306.992227
 20
462.730247
 30
0.0
 11
296.992227
 21
462.730247
 31
0.0
  0
LINE
  5
105A
330
12C0
100
AcDbEntity
  8
0
100
AcDbLine
 10
297.992227
 20
450.230247
 30
0.0
 11
297.992227
 21
443.135247
 31
0.0
  0
LINE
  5
105B
330
12C0
100
AcDbEntity
  8
0
100
AcDbLine
 10
305.992227
 20
450.230247
 30
0.0
 11
305.992227
 21
443.135247
 31
0.0
  0
LINE
  5
105C
330
12C0
100
AcDbEntity
  8
0
100
AcDbLine
 10
306.992227
 20
462.730247
 30
0.0
 11
306.992227
 21
451.2302469999999
 31
0.0
  0
LINE
  5
105D
330
12C0
100
AcDbEntity
  8
0
100
AcDbLine
 10
296.992227
 20
462.730247
 30
0.0
 11
296.992227
 21
451.2302469999999
 31
0.0
  0
LINE
  5
105E
330
12C0
100
AcDbEntity
  8
0
100
AcDbLine
 10
263.992227
 20
479.9672469999999
 30
0.0
 11
292.545227
 21
479.9672469999999
 31
0.0
  0
LINE
  5
105F
330
12C0
100
AcDbEntity
  8
0
100
AcDbLine
 10
312.994227
 20
475.5432469999999
 30
0.0
 11
323.993227
 21
474.967247
 31
0.0
  0
LINE
  5
1060
330
12C0
100
AcDbEntity
  8
0
100
AcDbLine
 10
290.264227
 20
475.5432469999999
 30
0.0
 11
296.992227
 21
475.5432469999999
 31
0.0
  0
LINE
  5
1061
330
12C0
100
AcDbEntity
  8
0
100
AcDbLine
 10
323.656227
 20
468.5522469999999
 30
0.0
 11
323.993227
 21
474.967247
 31
0.0
  0
LINE
  5
1062
330
12C0
100
AcDbEntity
  8
0
100
AcDbLine
 10
280.992227
 20
469.688247
 30
0.0
 11
296.992227
 21
468.288247
 31
0.0
  0
ARC
  5
1063
330
12C0
100
AcDbEntity
  8
0
100
AcDbCircle
 10
321.160227
 20
468.6832469999999
 30
0.0
 40
2.5
100
AcDbArc
 50
265.001
 51
357.0
  0
LINE
  5
1064
330
12C0
100
AcDbEntity
  8
0
100
AcDbLine
 10
294.654227
 20
470.7832469999999
 30
0.0
 11
295.493227
 21
475.5432469999999
 31
0.0
  0
LINE
  5
1065
330
12C0
100
AcDbEntity
  8
0
100
AcDbLine
 10
309.638227
 20
469.0432469999999
 30
0.0
 11
308.492227
 21
475.544247
 31
0.0
  0
ARC
  5
1066
330
12C0
100
AcDbEntity
  8
0
100
AcDbCircle
 10
312.101227
 20
469.4762469999999
 30
0.0
 40
2.5
100
AcDbArc
 50
190.0
 51
265.0
  0
ARC
  5
1067
330
12C0
100
AcDbEntity
  8
0
100
AcDbCircle
 10
292.191227
 20
471.218247
 30
0.0
 40
2.5
100
AcDbArc
 50
265.0
 51
350.0
  0
LINE
  5
1068
330
12C0
100
AcDbEntity
  8
0
100
AcDbLine
 10
266.097227
 20
479.964247
 30
0.0
 11
286.935227
 21
478.8722469999999
 31
0.0
  0
LINE
  5
1069
330
12C0
100
AcDbEntity
  8
0
100
AcDbLine
 10
290.265227
 20
475.5432469999999
 30
0.0
 11
286.936227
 21
478.871247
 31
0.0
  0
LINE
  5
106A
330
12C0
100
AcDbEntity
  8
0
100
AcDbLine
 10
263.992227
 20
479.9672469999999
 30
0.0
 11
263.992227
 21
477.6262469999999
 31
0.0
  0
LINE
  5
106B
330
12C0
100
AcDbEntity
  8
4
100
AcDbLine
 10
323.656227
 20
468.5522469999999
 30
0.0
 11
323.521227
 21
465.967247
 31
0.0
  0
LINE
  5
106C
330
12C0
100
AcDbEntity
  8
0
100
AcDbLine
 10
265.638227
 20
475.2762469999999
 30
0.0
 11
280.993227
 21
469.688247
 31
0.0
  0
ARC
  5
106D
330
12C0
100
AcDbEntity
  8
0
100
AcDbCircle
 10
266.492227
 20
477.6262469999999
 30
0.0
 40
2.5
100
AcDbArc
 50
180.0
 51
250.0
  0
LINE
  5
106E
330
12C0
100
AcDbEntity
  8
0
100
AcDbLine
 10
311.444227
 20
479.9672469999999
 30
0.0
 11
417.5432269999999
 21
479.9672469999999
 31
0.0
  0
LINE
  5
106F
330
12C0
100
AcDbEntity
  8
0
100
AcDbLine
 10
306.992227
 20
475.5432469999999
 30
0.0
 11
312.994227
 21
475.5432469999999
 31
0.0
  0
LINE
  5
1070
330
12C0
100
AcDbEntity
  8
0
100
AcDbLine
 10
306.992227
 20
467.4132469999999
 30
0.0
 11
323.520227
 21
465.967247
 31
0.0
  0
LINE
  5
1071
330
12C0
100
AcDbEntity
  8
0
100
AcDbLine
 10
323.993227
 20
474.967247
 30
0.0
 11
326.730227
 21
474.967247
 31
0.0
  0
ARC
  5
1072
330
12C0
100
AcDbEntity
  8
0
100
AcDbCircle
 10
426.9922269999999
 20
472.6972469999999
 30
0.0
 40
14.175
100
AcDbArc
 50
70.53499999999999
 51
109.461
  0
ARC
  5
1073
330
12C0
100
AcDbEntity
  8
0
100
AcDbCircle
 10
426.9922269999999
 20
493.0472469999999
 30
0.0
 40
14.175
100
AcDbArc
 50
250.541
 51
289.467
  0
LINE
  5
1074
330
12C0
100
AcDbEntity
  8
0
100
AcDbLine
 10
431.720227
 20
479.683247
 30
0.0
 11
431.7192269999999
 21
486.0612469999999
 31
0.0
  0
LINE
  5
1075
330
12C0
100
AcDbEntity
  8
0
100
AcDbLine
 10
422.270227
 20
479.6852469999999
 30
0.0
 11
422.2692269999999
 21
486.0602469999999
 31
0.0
  0
LINE
  5
1076
330
12C0
100
AcDbEntity
  8
0
100
AcDbLine
 10
433.8842269999999
 20
478.8722469999999
 30
0.0
 11
420.1032269999999
 21
478.8722469999999
 31
0.0
  0
LINE
  5
1077
330
12C0
100
AcDbEntity
  8
0
100
AcDbLine
 10
433.881227
 20
486.8722469999999
 30
0.0
 11
420.1032269999999
 21
486.8722469999999
 31
0.0
  0
LINE
  5
1078
330
12C0
100
AcDbEntity
  8
0
100
AcDbLine
 10
436.443227
 20
479.6822469999999
 30
0.0
 11
435.532227
 21
479.155247
 31
0.0
  0
ARC
  5
1079
330
12C0
100
AcDbEntity
  8
0
100
AcDbCircle
 10
434.080227
 20
482.7192469999999
 30
0.0
 40
3.846999999999999
100
AcDbArc
 50
232.15
 51
292.155
  0
LINE
  5
107A
330
12C0
100
AcDbEntity
  8
0
100
AcDbLine
 10
436.4442269999999
 20
479.6852469999999
 30
0.0
 11
436.4452269999999
 21
486.0602469999999
 31
0.0
  0
ARC
  5
107B
330
12C0
100
AcDbEntity
  8
0
100
AcDbCircle
 10
434.080227
 20
483.0252469999999
 30
0.0
 40
3.848
100
AcDbArc
 50
67.765
 51
127.832
  0
LINE
  5
107C
330
12C0
100
AcDbEntity
  8
0
100
AcDbLine
 10
436.4452269999999
 20
486.062247
 30
0.0
 11
435.537227
 21
486.5862469999999
 31
0.0
  0
ARC
  5
107D
330
12C0
100
AcDbEntity
  8
0
100
AcDbCircle
 10
419.9062269999999
 20
482.7222469999999
 30
0.0
 40
3.848999999999999
100
AcDbArc
 50
247.8140000000001
 51
307.865
  0
LINE
  5
107E
330
12C0
100
AcDbEntity
  8
0
100
AcDbLine
 10
418.453227
 20
479.157247
 30
0.0
 11
417.5462269999999
 21
479.6812469999999
 31
0.0
  0
LINE
  5
107F
330
12C0
100
AcDbEntity
  8
0
100
AcDbLine
 10
417.5432269999999
 20
479.683247
 30
0.0
 11
417.545227
 21
486.0582469999999
 31
0.0
  0
LINE
  5
1080
330
12C0
100
AcDbEntity
  8
0
100
AcDbLine
 10
418.4842269999999
 20
486.601247
 30
0.0
 11
417.5462269999999
 21
486.0612469999999
 31
0.0
  0
ARC
  5
1081
330
12C0
100
AcDbEntity
  8
0
100
AcDbCircle
 10
419.905227
 20
483.0242469999999
 30
0.0
 40
3.848
100
AcDbArc
 50
52.122
 51
111.668
  0
ARC
  5
1082
330
12C0
100
AcDbEntity
  8
0
100
AcDbCircle
 10
301.992227
 20
472.6972469999999
 30
0.0
 40
14.175
100
AcDbArc
 50
70.53499999999999
 51
109.461
  0
ARC
  5
1083
330
12C0
100
AcDbEntity
  8
0
100
AcDbCircle
 10
301.992227
 20
493.0472469999999
 30
0.0
 40
14.175
100
AcDbArc
 50
250.541
 51
289.467
  0
LINE
  5
1084
330
12C0
100
AcDbEntity
  8
0
100
AcDbLine
 10
306.720227
 20
479.683247
 30
0.0
 11
306.719227
 21
486.0612469999999
 31
0.0
  0
LINE
  5
1085
330
12C0
100
AcDbEntity
  8
0
100
AcDbLine
 10
297.270227
 20
479.6852469999999
 30
0.0
 11
297.269227
 21
486.0602469999999
 31
0.0
  0
LINE
  5
1086
330
12C0
100
AcDbEntity
  8
0
100
AcDbLine
 10
308.880227
 20
486.8722469999999
 30
0.0
 11
295.103227
 21
486.8722469999999
 31
0.0
  0
LINE
  5
1087
330
12C0
100
AcDbEntity
  8
0
100
AcDbLine
 10
311.443227
 20
479.6802469999999
 30
0.0
 11
310.551227
 21
479.164247
 31
0.0
  0
ARC
  5
1088
330
12C0
100
AcDbEntity
  8
0
100
AcDbCircle
 10
309.080227
 20
482.7192469999999
 30
0.0
 40
3.846999999999999
100
AcDbArc
 50
232.166
 51
289.261
  0
LINE
  5
1089
330
12C0
100
AcDbEntity
  8
0
100
AcDbLine
 10
311.444227
 20
479.683247
 30
0.0
 11
311.445227
 21
486.0582469999999
 31
0.0
  0
ARC
  5
108A
330
12C0
100
AcDbEntity
  8
0
100
AcDbCircle
 10
309.080227
 20
483.0252469999999
 30
0.0
 40
3.848
100
AcDbArc
 50
67.922
 51
127.832
  0
LINE
  5
108B
330
12C0
100
AcDbEntity
  8
0
100
AcDbLine
 10
311.444227
 20
486.0602469999999
 30
0.0
 11
310.527227
 21
486.5902469999999
 31
0.0
  0
ARC
  5
108C
330
12C0
100
AcDbEntity
  8
0
100
AcDbCircle
 10
294.906227
 20
482.7222469999999
 30
0.0
 40
3.848999999999999
100
AcDbArc
 50
247.657
 51
307.865
  0
LINE
  5
108D
330
12C0
100
AcDbEntity
  8
0
100
AcDbLine
 10
293.442227
 20
479.162247
 30
0.0
 11
292.546227
 21
479.6802469999999
 31
0.0
  0
LINE
  5
108E
330
12C0
100
AcDbEntity
  8
0
100
AcDbLine
 10
292.544227
 20
479.6822469999999
 30
0.0
 11
292.545227
 21
486.0632469999999
 31
0.0
  0
LINE
  5
108F
330
12C0
100
AcDbEntity
  8
0
100
AcDbLine
 10
293.460227
 20
486.5902469999999
 30
0.0
 11
292.547227
 21
486.064247
 31
0.0
  0
ARC
  5
1090
330
12C0
100
AcDbEntity
  8
0
100
AcDbCircle
 10
294.905227
 20
483.0242469999999
 30
0.0
 40
3.848
100
AcDbArc
 50
52.122
 51
112.06
  0
LINE
  5
1091
330
12C0
100
AcDbEntity
  8
0
100
AcDbLine
 10
297.992227
 20
486.8722469999999
 30
0.0
 11
297.992227
 21
492.244247
 31
0.0
  0
LINE
  5
1092
330
12C0
100
AcDbEntity
  8
0
100
AcDbLine
 10
305.992227
 20
492.244247
 30
0.0
 11
305.992227
 21
486.8722469999999
 31
0.0
  0
LINE
  5
1093
330
12C0
100
AcDbEntity
  8
0
100
AcDbLine
 10
306.992227
 20
491.244247
 30
0.0
 11
306.992227
 21
486.8722469999999
 31
0.0
  0
LINE
  5
1094
330
12C0
100
AcDbEntity
  8
0
100
AcDbLine
 10
296.992227
 20
491.244247
 30
0.0
 11
296.992227
 21
486.8722469999999
 31
0.0
  0
LINE
  5
1095
330
12C0
100
AcDbEntity
  8
0
100
AcDbLine
 10
297.992227
 20
478.8722469999999
 30
0.0
 11
297.992227
 21
465.7302469999999
 31
0.0
  0
LINE
  5
1096
330
12C0
100
AcDbEntity
  8
0
100
AcDbLine
 10
296.992227
 20
478.8722469999999
 30
0.0
 11
296.992227
 21
462.730247
 31
0.0
  0
LINE
  5
1097
330
12C0
100
AcDbEntity
  8
0
100
AcDbLine
 10
305.992227
 20
478.8722469999999
 30
0.0
 11
305.992227
 21
465.7302469999999
 31
0.0
  0
LINE
  5
1098
330
12C0
100
AcDbEntity
  8
0
100
AcDbLine
 10
306.992227
 20
478.8722469999999
 30
0.0
 11
306.992227
 21
462.730247
 31
0.0
  0
LINE
  5
1099
330
12C0
100
AcDbEntity
  8
0
100
AcDbLine
 10
296.992227
 20
465.7302469999999
 30
0.0
 11
306.992227
 21
465.7302469999999
 31
0.0
  0
LINE
  5
109A
330
12C0
100
AcDbEntity
  8
0
100
AcDbLine
 10
297.992227
 20
450.230247
 30
0.0
 11
305.992227
 21
450.230247
 31
0.0
  0
LINE
  5
109B
330
12C0
100
AcDbEntity
  8
0
100
AcDbLine
 10
296.992227
 20
451.2302469999999
 30
0.0
 11
306.992227
 21
451.2302469999999
 31
0.0
  0
LINE
  5
109C
330
12C0
100
AcDbEntity
  8
0
100
AcDbLine
 10
305.993227
 20
450.2292469999999
 30
0.0
 11
306.993227
 21
451.229247
 31
0.0
  0
LINE
  5
109D
330
12C0
100
AcDbEntity
  8
0
100
AcDbLine
 10
297.993227
 20
450.2292469999999
 30
0.0
 11
296.993227
 21
451.229247
 31
0.0
  0
LINE
  5
109E
330
12C0
100
AcDbEntity
  8
4
100
AcDbLine
 10
296.992227
 20
451.2302469999999
 30
0.0
 11
296.992227
 21
448.6352469999999
 31
0.0
  0
LINE
  5
109F
330
12C0
100
AcDbEntity
  8
4
100
AcDbLine
 10
306.992227
 20
451.2302469999999
 30
0.0
 11
306.992227
 21
448.6352469999999
 31
0.0
  0
LINE
  5
10A0
330
12C0
100
AcDbEntity
  8
4
100
AcDbLine
 10
297.992227
 20
450.230247
 30
0.0
 11
297.992227
 21
462.730247
 31
0.0
  0
LINE
  5
10A1
330
12C0
100
AcDbEntity
  8
4
100
AcDbLine
 10
305.992227
 20
462.730247
 30
0.0
 11
305.992227
 21
450.230247
 31
0.0
  0
LINE
  5
10A2
330
12C0
100
AcDbEntity
  8
ND_7
 48
0.7879999999999999
100
AcDbLine
 10
366.226
 20
391.476
 30
0.0
 11
366.226
 21
460.8609999999999
 31
0.0
  0
LINE
  5
10A3
330
12C0
100
AcDbEntity
  8
0
100
AcDbLine
 10
421.9922269999999
 20
491.244247
 30
0.0
 11
421.9922269999999
 21
486.8722469999999
 31
0.0
  0
LINE
  5
10A4
330
12C0
100
AcDbEntity
  8
4
100
AcDbLine
 10
422.9922269999999
 20
486.8722469999999
 30
0.0
 11
422.9922269999999
 21
492.244247
 31
0.0
  0
LINE
  5
10A5
330
12C0
100
AcDbEntity
  8
4
100
AcDbLine
 10
430.9922269999999
 20
492.244247
 30
0.0
 11
430.9922269999999
 21
486.8722469999999
 31
0.0
  0
LINE
  5
10A6
330
12C0
100
AcDbEntity
  8
0
100
AcDbLine
 10
431.9922269999999
 20
486.8722469999999
 30
0.0
 11
431.9922269999999
 21
491.244247
 31
0.0
  0
LINE
  5
10A7
330
12C0
100
AcDbEntity
  8
0
100
AcDbLine
 10
297.992227
 20
492.244247
 30
0.0
 11
305.992227
 21
492.244247
 31
0.0
  0
LINE
  5
10A8
330
12C0
100
AcDbEntity
  8
0
100
AcDbLine
 10
296.992227
 20
491.244247
 30
0.0
 11
306.992227
 21
491.244247
 31
0.0
  0
LINE
  5
10A9
330
12C0
100
AcDbEntity
  8
0
100
AcDbLine
 10
421.9922269999999
 20
491.244247
 30
0.0
 11
431.9922269999999
 21
491.244247
 31
0.0
  0
LINE
  5
10AA
330
12C0
100
AcDbEntity
  8
0
100
AcDbLine
 10
422.9922269999999
 20
492.244247
 30
0.0
 11
430.9922269999999
 21
492.244247
 31
0.0
  0
LINE
  5
10AB
330
12C0
100
AcDbEntity
  8
0
100
AcDbLine
 10
422.9932269999999
 20
492.243247
 30
0.0
 11
421.9932269999999
 21
491.2432469999999
 31
0.0
  0
LINE
  5
10AC
330
12C0
100
AcDbEntity
  8
0
100
AcDbLine
 10
430.9932269999999
 20
492.243247
 30
0.0
 11
431.9932269999999
 21
491.2432469999999
 31
0.0
  0
LINE
  5
10AD
330
12C0
100
AcDbEntity
  8
0
100
AcDbLine
 10
297.993227
 20
492.243247
 30
0.0
 11
296.993227
 21
491.2432469999999
 31
0.0
  0
LINE
  5
10AE
330
12C0
100
AcDbEntity
  8
0
100
AcDbLine
 10
305.993227
 20
492.243247
 30
0.0
 11
306.993227
 21
491.2432469999999
 31
0.0
  0
LINE
  5
10AF
330
12C0
100
AcDbEntity
  8
0
100
AcDbLine
 10
546.9922269999999
 20
462.730247
 30
0.0
 11
556.9922269999999
 21
462.730247
 31
0.0
  0
LINE
  5
10B0
330
12C0
100
AcDbEntity
  8
0
100
AcDbLine
 10
555.9922269999999
 20
450.230247
 30
0.0
 11
555.9922269999999
 21
443.135247
 31
0.0
  0
LINE
  5
10B1
330
12C0
100
AcDbEntity
  8
0
100
AcDbLine
 10
547.9922269999999
 20
450.230247
 30
0.0
 11
547.9922269999999
 21
443.135247
 31
0.0
  0
LINE
  5
10B2
330
12C0
100
AcDbEntity
  8
0
100
AcDbLine
 10
546.9922269999999
 20
462.730247
 30
0.0
 11
546.9922269999999
 21
451.2302469999999
 31
0.0
  0
LINE
  5
10B3
330
12C0
100
AcDbEntity
  8
0
100
AcDbLine
 10
556.9922269999999
 20
462.730247
 30
0.0
 11
556.9922269999999
 21
451.2302469999999
 31
0.0
  0
LINE
  5
10B4
330
12C0
100
AcDbEntity
  8
0
100
AcDbLine
 10
589.9922269999999
 20
479.9672469999999
 30
0.0
 11
561.4402269999999
 21
479.9672469999999
 31
0.0
  0
LINE
  5
10B5
330
12C0
100
AcDbEntity
  8
0
100
AcDbLine
 10
540.9902269999999
 20
475.544247
 30
0.0
 11
529.9922269999999
 21
474.967247
 31
0.0
  0
LINE
  5
10B6
330
12C0
100
AcDbEntity
  8
0
100
AcDbLine
 10
563.721227
 20
475.5432469999999
 30
0.0
 11
556.9922269999999
 21
475.5432469999999
 31
0.0
  0
LINE
  5
10B7
330
12C0
100
AcDbEntity
  8
0
100
AcDbLine
 10
530.3282269999999
 20
468.5522469999999
 30
0.0
 11
529.9922269999999
 21
474.967247
 31
0.0
  0
LINE
  5
10B8
330
12C0
100
AcDbEntity
  8
0
100
AcDbLine
 10
572.9922269999999
 20
469.688247
 30
0.0
 11
556.9922269999999
 21
468.288247
 31
0.0
  0
ARC
  5
10B9
330
12C0
100
AcDbEntity
  8
0
100
AcDbCircle
 10
532.8252269999999
 20
468.6832469999999
 30
0.0
 40
2.5
100
AcDbArc
 50
183.0
 51
274.999
  0
LINE
  5
10BA
330
12C0
100
AcDbEntity
  8
0
100
AcDbLine
 10
559.3312269999999
 20
470.7832469999999
 30
0.0
 11
558.4922269999999
 21
475.5432469999999
 31
0.0
  0
LINE
  5
10BB
330
12C0
100
AcDbEntity
  8
0
100
AcDbLine
 10
544.346227
 20
469.041247
 30
0.0
 11
545.4932269999999
 21
475.5432469999999
 31
0.0
  0
ARC
  5
10BC
330
12C0
100
AcDbEntity
  8
0
100
AcDbCircle
 10
541.8842269999999
 20
469.4762469999999
 30
0.0
 40
2.5
100
AcDbArc
 50
275.0
 51
350.0
  0
ARC
  5
10BD
330
12C0
100
AcDbEntity
  8
0
100
AcDbCircle
 10
561.7932269999999
 20
471.218247
 30
0.0
 40
2.5
100
AcDbArc
 50
190.0
 51
274.999
  0
LINE
  5
10BE
330
12C0
100
AcDbEntity
  8
0
100
AcDbLine
 10
587.8872269999999
 20
479.964247
 30
0.0
 11
567.0492269999999
 21
478.8722469999999
 31
0.0
  0
LINE
  5
10BF
330
12C0
100
AcDbEntity
  8
0
100
AcDbLine
 10
563.721227
 20
475.542247
 30
0.0
 11
567.0502269999999
 21
478.871247
 31
0.0
  0
LINE
  5
10C0
330
12C0
100
AcDbEntity
  8
0
100
AcDbLine
 10
589.9922269999999
 20
479.9672469999999
 30
0.0
 11
589.9922269999999
 21
477.6262469999999
 31
0.0
  0
LINE
  5
10C1
330
12C0
100
AcDbEntity
  8
0
100
AcDbLine
 10
588.3472269999999
 20
475.2752469999999
 30
0.0
 11
572.9922269999999
 21
469.686247
 31
0.0
  0
ARC
  5
10C2
330
12C0
100
AcDbEntity
  8
0
100
AcDbCircle
 10
587.4922269999999
 20
477.6262469999999
 30
0.0
 40
2.5
100
AcDbArc
 50
290.0
 51
0.0
  0
LINE
  5
10C3
330
12C0
100
AcDbEntity
  8
0
100
AcDbLine
 10
546.9922269999999
 20
475.5432469999999
 30
0.0
 11
540.9902269999999
 21
475.5432469999999
 31
0.0
  0
LINE
  5
10C4
330
12C0
100
AcDbEntity
  8
0
100
AcDbLine
 10
546.9922269999999
 20
467.4132469999999
 30
0.0
 11
528.139227
 21
465.7642469999999
 31
0.0
  0
LINE
  5
10C5
330
12C0
100
AcDbEntity
  8
0
100
AcDbLine
 10
529.9922269999999
 20
474.967247
 30
0.0
 11
527.2542269999998
 21
474.967247
 31
0.0
  0
ARC
  5
10C6
330
12C0
100
AcDbEntity
  8
0
100
AcDbCircle
 10
551.9922269999999
 20
472.6972469999999
 30
0.0
 40
14.175
100
AcDbArc
 50
70.539
 51
109.465
  0
ARC
  5
10C7
330
12C0
100
AcDbEntity
  8
0
100
AcDbCircle
 10
551.9922269999999
 20
493.0472469999999
 30
0.0
 40
14.175
100
AcDbArc
 50
250.533
 51
289.459
  0
LINE
  5
10C8
330
12C0
100
AcDbEntity
  8
0
100
AcDbLine
 10
547.265227
 20
479.683247
 30
0.0
 11
547.265227
 21
486.0612469999999
 31
0.0
  0
LINE
  5
10C9
330
12C0
100
AcDbEntity
  8
0
100
AcDbLine
 10
556.7142269999999
 20
479.6852469999999
 30
0.0
 11
556.7152269999999
 21
486.0602469999999
 31
0.0
  0
LINE
  5
10CA
330
12C0
100
AcDbEntity
  8
0
100
AcDbLine
 10
545.1042269999999
 20
486.8722469999999
 30
0.0
 11
558.881227
 21
486.8722469999999
 31
0.0
  0
LINE
  5
10CB
330
12C0
100
AcDbEntity
  8
0
100
AcDbLine
 10
542.5422269999999
 20
479.6812469999999
 30
0.0
 11
543.434227
 21
479.164247
 31
0.0
  0
ARC
  5
10CC
330
12C0
100
AcDbEntity
  8
0
100
AcDbCircle
 10
544.9042269999999
 20
482.7192469999999
 30
0.0
 40
3.846999999999999
100
AcDbArc
 50
247.531
 51
307.834
  0
LINE
  5
10CD
330
12C0
100
AcDbEntity
  8
0
100
AcDbLine
 10
542.5402269999999
 20
479.683247
 30
0.0
 11
542.5392269999999
 21
486.0582469999999
 31
0.0
  0
ARC
  5
10CE
330
12C0
100
AcDbEntity
  8
0
100
AcDbCircle
 10
544.9042269999999
 20
483.0252469999999
 30
0.0
 40
3.848
100
AcDbArc
 50
52.168
 51
112.078
  0
LINE
  5
10CF
330
12C0
100
AcDbEntity
  8
0
100
AcDbLine
 10
542.5412269999999
 20
486.0602469999999
 30
0.0
 11
543.4582269999999
 21
486.589247
 31
0.0
  0
ARC
  5
10D0
330
12C0
100
AcDbEntity
  8
0
100
AcDbCircle
 10
559.0792269999999
 20
482.7222469999999
 30
0.0
 40
3.848999999999999
100
AcDbArc
 50
232.135
 51
292.343
  0
LINE
  5
10D1
330
12C0
100
AcDbEntity
  8
0
100
AcDbLine
 10
560.5412269999999
 20
479.1632469999999
 30
0.0
 11
561.437227
 21
479.6812469999999
 31
0.0
  0
LINE
  5
10D2
330
12C0
100
AcDbEntity
  8
0
100
AcDbLine
 10
561.4402269999999
 20
479.6822469999999
 30
0.0
 11
561.4392269999999
 21
486.0632469999999
 31
0.0
  0
LINE
  5
10D3
330
12C0
100
AcDbEntity
  8
0
100
AcDbLine
 10
560.525227
 20
486.5902469999999
 30
0.0
 11
561.438227
 21
486.0652469999999
 31
0.0
  0
ARC
  5
10D4
330
12C0
100
AcDbEntity
  8
0
100
AcDbCircle
 10
559.0792269999999
 20
483.0242469999999
 30
0.0
 40
3.848
100
AcDbArc
 50
67.94
 51
127.878
  0
LINE
  5
10D5
330
12C0
100
AcDbEntity
  8
0
100
AcDbLine
 10
555.9922269999999
 20
486.8722469999999
 30
0.0
 11
555.9922269999999
 21
492.244247
 31
0.0
  0
LINE
  5
10D6
330
12C0
100
AcDbEntity
  8
0
100
AcDbLine
 10
547.9922269999999
 20
492.244247
 30
0.0
 11
547.9922269999999
 21
486.8722469999999
 31
0.0
  0
LINE
  5
10D7
330
12C0
100
AcDbEntity
  8
0
100
AcDbLine
 10
546.9922269999999
 20
491.244247
 30
0.0
 11
546.9922269999999
 21
486.8722469999999
 31
0.0
  0
LINE
  5
10D8
330
12C0
100
AcDbEntity
  8
0
100
AcDbLine
 10
556.9922269999999
 20
491.244247
 30
0.0
 11
556.9922269999999
 21
486.8722469999999
 31
0.0
  0
LINE
  5
10D9
330
12C0
100
AcDbEntity
  8
0
100
AcDbLine
 10
555.9922269999999
 20
478.8722469999999
 30
0.0
 11
555.9922269999999
 21
465.7302469999999
 31
0.0
  0
LINE
  5
10DA
330
12C0
100
AcDbEntity
  8
0
100
AcDbLine
 10
556.9922269999999
 20
478.8722469999999
 30
0.0
 11
556.9922269999999
 21
462.730247
 31
0.0
  0
LINE
  5
10DB
330
12C0
100
AcDbEntity
  8
0
100
AcDbLine
 10
547.9922269999999
 20
478.8722469999999
 30
0.0
 11
547.9922269999999
 21
465.7302469999999
 31
0.0
  0
LINE
  5
10DC
330
12C0
100
AcDbEntity
  8
0
100
AcDbLine
 10
546.9922269999999
 20
478.8722469999999
 30
0.0
 11
546.9922269999999
 21
462.730247
 31
0.0
  0
LINE
  5
10DD
330
12C0
100
AcDbEntity
  8
0
100
AcDbLine
 10
556.9922269999999
 20
465.7302469999999
 30
0.0
 11
546.9922269999999
 21
465.7302469999999
 31
0.0
  0
LINE
  5
10DE
330
12C0
100
AcDbEntity
  8
0
100
AcDbLine
 10
555.9922269999999
 20
450.230247
 30
0.0
 11
547.9922269999999
 21
450.230247
 31
0.0
  0
LINE
  5
10DF
330
12C0
100
AcDbEntity
  8
0
100
AcDbLine
 10
556.9922269999999
 20
451.2302469999999
 30
0.0
 11
546.9922269999999
 21
451.2302469999999
 31
0.0
  0
LINE
  5
10E0
330
12C0
100
AcDbEntity
  8
0
100
AcDbLine
 10
547.9932269999999
 20
450.2292469999999
 30
0.0
 11
546.9932269999999
 21
451.229247
 31
0.0
  0
LINE
  5
10E1
330
12C0
100
AcDbEntity
  8
0
100
AcDbLine
 10
555.9932269999999
 20
450.2292469999999
 30
0.0
 11
556.9932269999999
 21
451.229247
 31
0.0
  0
LINE
  5
10E2
330
12C0
100
AcDbEntity
  8
4
100
AcDbLine
 10
556.9922269999999
 20
451.2302469999999
 30
0.0
 11
556.9922269999999
 21
448.6352469999999
 31
0.0
  0
LINE
  5
10E3
330
12C0
100
AcDbEntity
  8
4
100
AcDbLine
 10
546.9922269999999
 20
451.2302469999999
 30
0.0
 11
546.9922269999999
 21
448.6352469999999
 31
0.0
  0
LINE
  5
10E4
330
12C0
100
AcDbEntity
  8
4
100
AcDbLine
 10
555.9922269999999
 20
450.230247
 30
0.0
 11
555.9922269999999
 21
462.730247
 31
0.0
  0
LINE
  5
10E5
330
12C0
100
AcDbEntity
  8
4
100
AcDbLine
 10
547.9922269999999
 20
462.730247
 30
0.0
 11
547.9922269999999
 21
450.230247
 31
0.0
  0
LINE
  5
10E6
330
12C0
100
AcDbEntity
  8
ND_7
 48
0.7879999999999999
100
AcDbLine
 10
616.2259999999999
 20
391.476
 30
0.0
 11
616.2259999999999
 21
460.8609999999999
 31
0.0
  0
LINE
  5
10E7
330
12C0
100
AcDbEntity
  8
0
100
AcDbLine
 10
555.9922269999999
 20
492.244247
 30
0.0
 11
547.9922269999999
 21
492.244247
 31
0.0
  0
LINE
  5
10E8
330
12C0
100
AcDbEntity
  8
0
100
AcDbLine
 10
556.9922269999999
 20
491.244247
 30
0.0
 11
546.9922269999999
 21
491.244247
 31
0.0
  0
LINE
  5
10E9
330
12C0
100
AcDbEntity
  8
0
100
AcDbLine
 10
555.9932269999999
 20
492.243247
 30
0.0
 11
556.9932269999999
 21
491.2432469999999
 31
0.0
  0
LINE
  5
10EA
330
12C0
100
AcDbEntity
  8
0
100
AcDbLine
 10
547.9932269999999
 20
492.243247
 30
0.0
 11
546.9932269999999
 21
491.2432469999999
 31
0.0
  0
LINE
  5
10EB
330
12C0
100
AcDbEntity
  8
0
100
AcDbLine
 10
526.9922269999999
 20
478.8722469999999
 30
0.0
 11
567.0502269999999
 21
478.8722469999999
 31
0.0
  0
LINE
  5
10EC
330
12C0
100
AcDbEntity
  8
0
100
AcDbLine
 10
310.046227
 20
478.8722469999999
 30
0.0
 11
526.9922269999999
 21
478.873247
 31
0.0
  0
LINE
  5
10ED
330
12C0
100
AcDbEntity
  8
0
100
AcDbLine
 10
542.5402269999999
 20
479.9672469999999
 30
0.0
 11
436.4442269999999
 21
479.9672469999999
 31
0.0
  0
LINE
  5
10EE
330
12C0
100
AcDbEntity
  8
0
100
AcDbLine
 10
308.880227
 20
478.8722469999999
 30
0.0
 11
286.935227
 21
478.8722469999999
 31
0.0
  0
LINE
  5
10EF
330
12C0
100
AcDbEntity
  8
0
100
AcDbLine
 10
306.992227
 20
465.998247
 30
0.0
 11
325.866227
 21
465.998247
 31
0.0
  0
LINE
  5
10F0
330
12C0
100
AcDbEntity
  8
0
100
AcDbLine
 10
296.992227
 20
463.635247
 30
0.0
 11
295.992227
 21
463.635247
 31
0.0
  0
LINE
  5
10F1
330
12C0
100
AcDbEntity
  8
0
100
AcDbLine
 10
266.748227
 20
474.8722469999999
 30
0.0
 11
251.590227
 21
474.8722469999999
 31
0.0
  0
LINE
  5
10F2
330
12C0
100
AcDbEntity
  8
0
100
AcDbLine
 10
502.6862269999999
 20
350.543247
 30
0.0
 11
499.9221525756986
 21
244.9852748470939
 31
0.0
  0
ARC
  5
10F3
330
12C0
100
AcDbEntity
  8
0
100
AcDbCircle
 10
508.6842269999999
 20
350.386247
 30
0.0
 40
6.0
100
AcDbArc
 50
108.258
 51
178.5
  0
LINE
  5
10F4
330
12C0
100
AcDbEntity
  8
0
100
AcDbLine
 10
354.484227
 20
244.872247
 30
0.0
 11
346.992227
 21
246.879247
 31
0.0
  0
LINE
  5
10F5
330
12C0
100
AcDbEntity
  8
0
100
AcDbLine
 10
351.298227
 20
350.543247
 30
0.0
 11
354.0623014243013
 21
244.9852748470939
 31
0.0
  0
ARC
  5
10F6
330
12C0
100
AcDbEntity
  8
0
100
AcDbCircle
 10
345.300227
 20
350.386247
 30
0.0
 40
6.0
100
AcDbArc
 50
1.5
 51
71.742
  0
LINE
  5
10F7
330
12C0
100
AcDbEntity
  8
4
100
AcDbLine
 10
352.382227
 20
353.313247
 30
0.0
 11
500.568227
 21
353.313247
 31
0.0
  0
LINE
  5
10F8
330
12C0
100
AcDbEntity
  8
0
100
AcDbLine
 10
346.992227
 20
246.879247
 30
0.0
 11
345.805227
 21
298.872247
 31
0.0
  0
LINE
  5
10F9
330
12C0
100
AcDbEntity
  8
0
100
AcDbLine
 10
506.9922269999999
 20
246.879247
 30
0.0
 11
508.179227
 21
298.872247
 31
0.0
  0
LINE
  5
10FA
330
12C0
100
AcDbEntity
  8
0
100
AcDbLine
 10
345.805227
 20
298.872247
 30
0.0
 11
344.561227
 21
346.393247
 31
0.0
  0
LINE
  5
10FB
330
12C0
100
AcDbEntity
  8
0
100
AcDbLine
 10
508.179227
 20
298.872247
 30
0.0
 11
509.4232269999999
 21
346.393247
 31
0.0
  0
ARC
  5
10FC
330
12C0
100
AcDbEntity
  8
0
100
AcDbCircle
 10
515.4212269999999
 20
346.236247
 30
0.0
 40
6.0
100
AcDbArc
 50
110.809
 51
178.5
  0
ARC
  5
10FD
330
12C0
100
AcDbEntity
  8
0
100
AcDbCircle
 10
511.1582269999999
 20
357.454247
 30
0.0
 40
6.0
100
AcDbArc
 50
290.8090000000001
 51
358.0
  0
ARC
  5
10FE
330
12C0
100
AcDbEntity
  8
0
100
AcDbCircle
 10
338.563227
 20
346.236247
 30
0.0
 40
6.0
100
AcDbArc
 50
1.5
 51
69.191
  0
ARC
  5
10FF
330
12C0
100
AcDbEntity
  8
0
100
AcDbCircle
 10
342.826227
 20
357.454247
 30
0.0
 40
6.0
100
AcDbArc
 50
182.0
 51
249.1909999999999
  0
LINE
  5
1100
330
12C0
100
AcDbEntity
  8
7
 48
0.767
100
AcDbLine
 10
301.992227
 20
496.2082469999999
 30
0.0
 11
301.992227
 21
428.7452469999999
 31
0.0
  0
LINE
  5
1101
330
12C0
100
AcDbEntity
  8
7
 48
0.752
100
AcDbLine
 10
551.9922269999999
 20
496.0132469999999
 30
0.0
 11
551.9922269999999
 21
429.8782469999999
 31
0.0
  0
DIMENSION
  5
110C
330
12C0
100
AcDbEntity
  8
5
100
AcDbDimension
  2
*D12
 10
246.992227
 20
600.199247
 30
0.0
 11
439.258227
 21
600.199247
 31
0.0
 70
   160
  1
%%c 360
 71
     5
 42
-1.0
  3
GEN-ISO
100
AcDbAlignedDimension
 13
606.9922269999999
 23
464.872247
 33
0.0
 14
246.992227
 24
464.872247
 34
0.0
 50
180.0
100
AcDbRotatedDimension
  0
DIMENSION
  5
1117
330
12C0
100
AcDbEntity
  8
5
100
AcDbDimension
  2
*D17
 10
526.9922269999999
 20
560.8512469999999
 30
0.0
 11
440.3832269999999
 21
560.8512469999999
 31
0.0
 70
   160
  1
%%c 200
 71
     5
 42
-1.0
  3
GEN-ISO
100
AcDbAlignedDimension
 13
326.992227
 23
478.8722469999999
 33
0.0
 14
526.9922269999999
 24
478.8722469999999
 34
0.0
100
AcDbRotatedDimension
  0
DIMENSION
  5
1135
330
12C0
100
AcDbEntity
  8
5
100
AcDbDimension
  2
*D14
 10
193.887601256296
 20
244.872247
 30
0.0
 11
193.8876012562959
 21
347.876265
 31
0.0
 70
   160
  1
230
 71
     5
 42
229.9999999999999
  3
GEN-ISO
100
AcDbAlignedDimension
 13
251.590227
 23
474.8722469999999
 33
0.0
 14
426.9922269999999
 24
244.872247
 34
0.0
 50
270.0
100
AcDbRotatedDimension
  0
POLYLINE
  5
1136
330
12C0
100
AcDbEntity
  8
SCHRAFFUR_RAND
100
AcDb2dPolyline
 66
     1
 10
0.0
 20
0.0
 30
0.0
 70
     1
  0
VERTEX
  5
1137
330
1136
100
AcDbEntity
  8
SCHRAFFUR_RAND
100
AcDbVertex
100
AcDb2dVertex
 10
266.098227
 20
479.964247
 30
0.0
  0
VERTEX
  5
1138
330
1136
100
AcDbEntity
  8
SCHRAFFUR_RAND
100
AcDbVertex
100
AcDb2dVertex
 10
263.992227
 20
479.9672469999999
 30
0.0
  0
VERTEX
  5
1139
330
1136
100
AcDbEntity
  8
SCHRAFFUR_RAND
100
AcDbVertex
100
AcDb2dVertex
 10
263.992227
 20
477.6262469999999
 30
0.0
  0
VERTEX
  5
113A
330
1136
100
AcDbEntity
  8
SCHRAFFUR_RAND
100
AcDbVertex
100
AcDb2dVertex
 10
264.079227
 20
476.8652469999999
 30
0.0
  0
VERTEX
  5
113B
330
1136
100
AcDbEntity
  8
SCHRAFFUR_RAND
100
AcDbVertex
100
AcDb2dVertex
 10
264.419227
 20
476.1742469999999
 30
0.0
  0
VERTEX
  5
113C
330
1136
100
AcDbEntity
  8
SCHRAFFUR_RAND
100
AcDbVertex
100
AcDb2dVertex
 10
264.952227
 20
475.6182469999999
 30
0.0
  0
VERTEX
  5
113D
330
1136
100
AcDbEntity
  8
SCHRAFFUR_RAND
100
AcDbVertex
100
AcDb2dVertex
 10
265.638227
 20
475.2762469999999
 30
0.0
  0
VERTEX
  5
113E
330
1136
100
AcDbEntity
  8
SCHRAFFUR_RAND
100
AcDbVertex
100
AcDb2dVertex
 10
266.748227
 20
474.8722469999999
 30
0.0
  0
VERTEX
  5
113F
330
1136
100
AcDbEntity
  8
SCHRAFFUR_RAND
100
AcDbVertex
100
AcDb2dVertex
 10
280.992227
 20
469.688247
 30
0.0
  0
VERTEX
  5
1140
330
1136
100
AcDbEntity
  8
SCHRAFFUR_RAND
100
AcDbVertex
100
AcDb2dVertex
 10
291.973227
 20
468.7272469999999
 30
0.0
  0
VERTEX
  5
1141
330
1136
100
AcDbEntity
  8
SCHRAFFUR_RAND
100
AcDbVertex
100
AcDb2dVertex
 10
292.899227
 20
468.7882469999999
 30
0.0
  0
VERTEX
  5
1142
330
1136
100
AcDbEntity
  8
SCHRAFFUR_RAND
100
AcDbVertex
100
AcDb2dVertex
 10
293.731227
 20
469.210247
 30
0.0
  0
VERTEX
  5
1143
330
1136
100
AcDbEntity
  8
SCHRAFFUR_RAND
100
AcDbVertex
100
AcDb2dVertex
 10
294.354227
 20
469.9052469999999
 30
0.0
  0
VERTEX
  5
1144
330
1136
100
AcDbEntity
  8
SCHRAFFUR_RAND
100
AcDbVertex
100
AcDb2dVertex
 10
294.654227
 20
470.7832469999999
 30
0.0
  0
VERTEX
  5
1145
330
1136
100
AcDbEntity
  8
SCHRAFFUR_RAND
100
AcDbVertex
100
AcDb2dVertex
 10
295.494227
 20
475.5432469999999
 30
0.0
  0
VERTEX
  5
1146
330
1136
100
AcDbEntity
  8
SCHRAFFUR_RAND
100
AcDbVertex
100
AcDb2dVertex
 10
290.264227
 20
475.5432469999999
 30
0.0
  0
VERTEX
  5
1147
330
1136
100
AcDbEntity
  8
SCHRAFFUR_RAND
100
AcDbVertex
100
AcDb2dVertex
 10
286.936227
 20
478.8722469999999
 30
0.0
  0
VERTEX
  5
1148
330
1136
100
AcDbEntity
  8
SCHRAFFUR_RAND
100
AcDbVertex
100
AcDb2dVertex
 10
266.098227
 20
479.964247
 30
0.0
  0
SEQEND
  5
1149
330
1136
100
AcDbEntity
  8
SCHRAFFUR_RAND
  0
INSERT
  5
114F
330
12C0
100
AcDbEntity
  8
8
100
AcDbBlockReference
  2
*X0
 10
-64.233773
 20
38.25324699999999
 30
0.0
1001
ACAD
1000
HATCH
1002
{
1070
    19
1000
ANSI31,_I
1040
6.349999999999999
1040
-0.7850000000000001
1002
}
  0
POLYLINE
  5
1150
330
12C0
100
AcDbEntity
  8
SCHRAFFUR_RAND
100
AcDb2dPolyline
 66
     1
 10
0.0
 20
0.0
 30
0.0
 70
     1
  0
VERTEX
  5
1151
330
1150
100
AcDbEntity
  8
SCHRAFFUR_RAND
100
AcDbVertex
100
AcDb2dVertex
 10
323.993227
 20
474.967247
 30
0.0
  0
VERTEX
  5
1152
330
1150
100
AcDbEntity
  8
SCHRAFFUR_RAND
100
AcDbVertex
100
AcDb2dVertex
 10
312.995227
 20
475.5432469999999
 30
0.0
  0
VERTEX
  5
1153
330
1150
100
AcDbEntity
  8
SCHRAFFUR_RAND
100
AcDbVertex
100
AcDb2dVertex
 10
308.492227
 20
475.544247
 30
0.0
  0
VERTEX
  5
1154
330
1150
100
AcDbEntity
  8
SCHRAFFUR_RAND
100
AcDbVertex
100
AcDb2dVertex
 10
309.639227
 20
469.0422469999999
 30
0.0
  0
VERTEX
  5
1155
330
1150
100
AcDbEntity
  8
SCHRAFFUR_RAND
100
AcDbVertex
100
AcDb2dVertex
 10
309.882227
 20
468.2592469999999
 30
0.0
  0
VERTEX
  5
1156
330
1150
100
AcDbEntity
  8
SCHRAFFUR_RAND
100
AcDbVertex
100
AcDb2dVertex
 10
310.391227
 20
467.610247
 30
0.0
  0
VERTEX
  5
1157
330
1150
100
AcDbEntity
  8
SCHRAFFUR_RAND
100
AcDbVertex
100
AcDb2dVertex
 10
311.082227
 20
467.1602469999999
 30
0.0
  0
VERTEX
  5
1158
330
1150
100
AcDbEntity
  8
SCHRAFFUR_RAND
100
AcDbVertex
100
AcDb2dVertex
 10
311.883227
 20
466.9852469999999
 30
0.0
  0
VERTEX
  5
1159
330
1150
100
AcDbEntity
  8
SCHRAFFUR_RAND
100
AcDbVertex
100
AcDb2dVertex
 10
320.942227
 20
466.1932469999999
 30
0.0
  0
VERTEX
  5
115A
330
1150
100
AcDbEntity
  8
SCHRAFFUR_RAND
100
AcDbVertex
100
AcDb2dVertex
 10
321.747227
 20
466.2222469999999
 30
0.0
  0
VERTEX
  5
115B
330
1150
100
AcDbEntity
  8
SCHRAFFUR_RAND
100
AcDbVertex
100
AcDb2dVertex
 10
322.493227
 20
466.533247
 30
0.0
  0
VERTEX
  5
115C
330
1150
100
AcDbEntity
  8
SCHRAFFUR_RAND
100
AcDbVertex
100
AcDb2dVertex
 10
323.104227
 20
467.063247
 30
0.0
  0
VERTEX
  5
115D
330
1150
100
AcDbEntity
  8
SCHRAFFUR_RAND
100
AcDbVertex
100
AcDb2dVertex
 10
323.516227
 20
467.760247
 30
0.0
  0
VERTEX
  5
115E
330
1150
100
AcDbEntity
  8
SCHRAFFUR_RAND
100
AcDbVertex
100
AcDb2dVertex
 10
323.657227
 20
468.5522469999999
 30
0.0
  0
VERTEX
  5
115F
330
1150
100
AcDbEntity
  8
SCHRAFFUR_RAND
100
AcDbVertex
100
AcDb2dVertex
 10
323.993227
 20
474.967247
 30
0.0
  0
SEQEND
  5
1160
330
1150
100
AcDbEntity
  8
SCHRAFFUR_RAND
  0
INSERT
  5
1164
330
12C0
100
AcDbEntity
  8
8
100
AcDbBlockReference
  2
*X1
 10
-64.233773
 20
38.25324699999999
 30
0.0
1001
ACAD
1000
HATCH
1002
{
1070
    19
1000
ANSI31,_I
1040
6.349999999999999
1040
-0.7850000000000001
1002
}
  0
POLYLINE
  5
1165
330
12C0
100
AcDbEntity
  8
SCHRAFFUR_RAND
100
AcDb2dPolyline
 66
     1
 10
0.0
 20
0.0
 30
0.0
 70
     1
  0
VERTEX
  5
1166
330
1165
100
AcDbEntity
  8
SCHRAFFUR_RAND
100
AcDbVertex
100
AcDb2dVertex
 10
529.9922269999999
 20
474.967247
 30
0.0
  0
VERTEX
  5
1167
330
1165
100
AcDbEntity
  8
SCHRAFFUR_RAND
100
AcDbVertex
100
AcDb2dVertex
 10
530.3282269999999
 20
468.5522469999999
 30
0.0
  0
VERTEX
  5
1168
330
1165
100
AcDbEntity
  8
SCHRAFFUR_RAND
100
AcDbVertex
100
AcDb2dVertex
 10
530.4692269999999
 20
467.760247
 30
0.0
  0
VERTEX
  5
1169
330
1165
100
AcDbEntity
  8
SCHRAFFUR_RAND
100
AcDbVertex
100
AcDb2dVertex
 10
530.8812269999999
 20
467.063247
 30
0.0
  0
VERTEX
  5
116A
330
1165
100
AcDbEntity
  8
SCHRAFFUR_RAND
100
AcDbVertex
100
AcDb2dVertex
 10
531.4912269999999
 20
466.533247
 30
0.0
  0
VERTEX
  5
116B
330
1165
100
AcDbEntity
  8
SCHRAFFUR_RAND
100
AcDbVertex
100
AcDb2dVertex
 10
532.2382269999999
 20
466.2222469999999
 30
0.0
  0
VERTEX
  5
116C
330
1165
100
AcDbEntity
  8
SCHRAFFUR_RAND
100
AcDbVertex
100
AcDb2dVertex
 10
533.043227
 20
466.1932469999999
 30
0.0
  0
VERTEX
  5
116D
330
1165
100
AcDbEntity
  8
SCHRAFFUR_RAND
100
AcDbVertex
100
AcDb2dVertex
 10
542.1022269999999
 20
466.9852469999999
 30
0.0
  0
VERTEX
  5
116E
330
1165
100
AcDbEntity
  8
SCHRAFFUR_RAND
100
AcDbVertex
100
AcDb2dVertex
 10
542.9032269999999
 20
467.159247
 30
0.0
  0
VERTEX
  5
116F
330
1165
100
AcDbEntity
  8
SCHRAFFUR_RAND
100
AcDbVertex
100
AcDb2dVertex
 10
543.5932269999999
 20
467.610247
 30
0.0
  0
VERTEX
  5
1170
330
1165
100
AcDbEntity
  8
SCHRAFFUR_RAND
100
AcDbVertex
100
AcDb2dVertex
 10
544.1022269999999
 20
468.2592469999999
 30
0.0
  0
VERTEX
  5
1171
330
1165
100
AcDbEntity
  8
SCHRAFFUR_RAND
100
AcDbVertex
100
AcDb2dVertex
 10
544.346227
 20
469.041247
 30
0.0
  0
VERTEX
  5
1172
330
1165
100
AcDbEntity
  8
SCHRAFFUR_RAND
100
AcDbVertex
100
AcDb2dVertex
 10
545.4932269999999
 20
475.5432469999999
 30
0.0
  0
VERTEX
  5
1173
330
1165
100
AcDbEntity
  8
SCHRAFFUR_RAND
100
AcDbVertex
100
AcDb2dVertex
 10
540.9912269999999
 20
475.5432469999999
 30
0.0
  0
VERTEX
  5
1174
330
1165
100
AcDbEntity
  8
SCHRAFFUR_RAND
100
AcDbVertex
100
AcDb2dVertex
 10
529.9922269999999
 20
474.967247
 30
0.0
  0
SEQEND
  5
1175
330
1165
100
AcDbEntity
  8
SCHRAFFUR_RAND
  0
INSERT
  5
117A
330
12C0
100
AcDbEntity
  8
8
100
AcDbBlockReference
  2
*X2
 10
-64.233773
 20
38.25324699999999
 30
0.0
1001
ACAD
1000
HATCH
1002
{
1070
    19
1000
ANSI31,_I
1040
6.349999999999999
1040
-0.7850000000000001
1002
}
  0
POLYLINE
  5
117B
330
12C0
100
AcDbEntity
  8
SCHRAFFUR_RAND
100
AcDb2dPolyline
 66
     1
 10
0.0
 20
0.0
 30
0.0
 70
     1
  0
VERTEX
  5
117C
330
117B
100
AcDbEntity
  8
SCHRAFFUR_RAND
100
AcDbVertex
100
AcDb2dVertex
 10
562.0112269999999
 20
468.7272469999999
 30
0.0
  0
VERTEX
  5
117D
330
117B
100
AcDbEntity
  8
SCHRAFFUR_RAND
100
AcDbVertex
100
AcDb2dVertex
 10
572.9922269999999
 20
469.688247
 30
0.0
  0
VERTEX
  5
117E
330
117B
100
AcDbEntity
  8
SCHRAFFUR_RAND
100
AcDbVertex
100
AcDb2dVertex
 10
587.240227
 20
474.8722469999999
 30
0.0
  0
VERTEX
  5
117F
330
117B
100
AcDbEntity
  8
SCHRAFFUR_RAND
100
AcDbVertex
100
AcDb2dVertex
 10
588.3472269999999
 20
475.2752469999999
 30
0.0
  0
VERTEX
  5
1180
330
117B
100
AcDbEntity
  8
SCHRAFFUR_RAND
100
AcDbVertex
100
AcDb2dVertex
 10
589.033227
 20
475.6182469999999
 30
0.0
  0
VERTEX
  5
1181
330
117B
100
AcDbEntity
  8
SCHRAFFUR_RAND
100
AcDbVertex
100
AcDb2dVertex
 10
589.5652269999999
 20
476.1742469999999
 30
0.0
  0
VERTEX
  5
1182
330
117B
100
AcDbEntity
  8
SCHRAFFUR_RAND
100
AcDbVertex
100
AcDb2dVertex
 10
589.9062269999999
 20
476.8652469999999
 30
0.0
  0
VERTEX
  5
1183
330
117B
100
AcDbEntity
  8
SCHRAFFUR_RAND
100
AcDbVertex
100
AcDb2dVertex
 10
589.9922269999999
 20
477.6262469999999
 30
0.0
  0
VERTEX
  5
1184
330
117B
100
AcDbEntity
  8
SCHRAFFUR_RAND
100
AcDbVertex
100
AcDb2dVertex
 10
589.9922269999999
 20
479.9672469999999
 30
0.0
  0
VERTEX
  5
1185
330
117B
100
AcDbEntity
  8
SCHRAFFUR_RAND
100
AcDbVertex
100
AcDb2dVertex
 10
587.8872269999999
 20
479.964247
 30
0.0
  0
VERTEX
  5
1186
330
117B
100
AcDbEntity
  8
SCHRAFFUR_RAND
100
AcDbVertex
100
AcDb2dVertex
 10
567.0492269999999
 20
478.8722469999999
 30
0.0
  0
VERTEX
  5
1187
330
117B
100
AcDbEntity
  8
SCHRAFFUR_RAND
100
AcDbVertex
100
AcDb2dVertex
 10
563.721227
 20
475.5432469999999
 30
0.0
  0
VERTEX
  5
1188
330
117B
100
AcDbEntity
  8
SCHRAFFUR_RAND
100
AcDbVertex
100
AcDb2dVertex
 10
558.4922269999999
 20
475.5432469999999
 30
0.0
  0
VERTEX
  5
1189
330
117B
100
AcDbEntity
  8
SCHRAFFUR_RAND
100
AcDbVertex
100
AcDb2dVertex
 10
559.3312269999999
 20
470.7832469999999
 30
0.0
  0
VERTEX
  5
118A
330
117B
100
AcDbEntity
  8
SCHRAFFUR_RAND
100
AcDbVertex
100
AcDb2dVertex
 10
559.6302269999999
 20
469.9052469999999
 30
0.0
  0
VERTEX
  5
118B
330
117B
100
AcDbEntity
  8
SCHRAFFUR_RAND
100
AcDbVertex
100
AcDb2dVertex
 10
560.2532269999999
 20
469.210247
 30
0.0
  0
VERTEX
  5
118C
330
117B
100
AcDbEntity
  8
SCHRAFFUR_RAND
100
AcDbVertex
100
AcDb2dVertex
 10
561.0852269999999
 20
468.7882469999999
 30
0.0
  0
VERTEX
  5
118D
330
117B
100
AcDbEntity
  8
SCHRAFFUR_RAND
100
AcDbVertex
100
AcDb2dVertex
 10
562.0112269999999
 20
468.7272469999999
 30
0.0
  0
SEQEND
  5
118E
330
117B
100
AcDbEntity
  8
SCHRAFFUR_RAND
  0
INSERT
  5
1195
330
12C0
100
AcDbEntity
  8
8
100
AcDbBlockReference
  2
*X3
 10
-64.233773
 20
38.25324699999999
 30
0.0
1001
ACAD
1000
HATCH
1002
{
1070
    19
1000
ANSI31,_I
1040
6.349999999999999
1040
-0.7850000000000001
1002
}
  0
POLYLINE
  5
119F
330
12C0
100
AcDbEntity
  8
SCHRAFFUR_RAND
100
AcDb2dPolyline
 66
     1
 10
0.0
 20
0.0
 30
0.0
 70
     1
  0
VERTEX
  5
11A0
330
119F
100
AcDbEntity
  8
SCHRAFFUR_RAND
100
AcDbVertex
100
AcDb2dVertex
 10
354.0623014243013
 20
244.9852748470939
 30
0.0
  0
VERTEX
  5
11A1
330
119F
100
AcDbEntity
  8
SCHRAFFUR_RAND
100
AcDbVertex
100
AcDb2dVertex
 10
351.298227
 20
350.543247
 30
0.0
  0
VERTEX
  5
11A2
330
119F
100
AcDbEntity
  8
SCHRAFFUR_RAND
100
AcDbVertex
100
AcDb2dVertex
 10
350.898227
 20
352.9862470000001
 30
0.0
  0
VERTEX
  5
11A3
330
119F
100
AcDbEntity
  8
SCHRAFFUR_RAND
100
AcDbVertex
100
AcDb2dVertex
 10
349.404227
 20
354.996247
 30
0.0
  0
VERTEX
  5
11A4
330
119F
100
AcDbEntity
  8
SCHRAFFUR_RAND
100
AcDbVertex
100
AcDb2dVertex
 10
347.507227
 20
355.9862470000001
 30
0.0
  0
VERTEX
  5
11A5
330
119F
100
AcDbEntity
  8
SCHRAFFUR_RAND
100
AcDbVertex
100
AcDb2dVertex
 10
345.121227
 20
357.031247
 30
0.0
  0
VERTEX
  5
11A6
330
119F
100
AcDbEntity
  8
SCHRAFFUR_RAND
100
AcDbVertex
100
AcDb2dVertex
 10
343.497227
 20
359.109247
 30
0.0
  0
VERTEX
  5
11A7
330
119F
100
AcDbEntity
  8
SCHRAFFUR_RAND
100
AcDbVertex
100
AcDb2dVertex
 10
343.062227
 20
361.677247
 30
0.0
  0
VERTEX
  5
11A8
330
119F
100
AcDbEntity
  8
SCHRAFFUR_RAND
100
AcDbVertex
100
AcDb2dVertex
 10
341.492227
 20
451.5312469999999
 30
0.0
  0
VERTEX
  5
11A9
330
119F
100
AcDbEntity
  8
SCHRAFFUR_RAND
100
AcDbVertex
100
AcDb2dVertex
 10
340.109227
 20
459.3722469999999
 30
0.0
  0
VERTEX
  5
11AA
330
119F
100
AcDbEntity
  8
SCHRAFFUR_RAND
100
AcDbVertex
100
AcDb2dVertex
 10
333.514227
 20
459.3722469999999
 30
0.0
  0
VERTEX
  5
11AB
330
119F
100
AcDbEntity
  8
SCHRAFFUR_RAND
100
AcDbVertex
100
AcDb2dVertex
 10
333.331227
 20
462.8722469999999
 30
0.0
  0
VERTEX
  5
11AC
330
119F
100
AcDbEntity
  8
SCHRAFFUR_RAND
100
AcDbVertex
100
AcDb2dVertex
 10
333.121227
 20
466.8722469999999
 30
0.0
  0
VERTEX
  5
11AD
330
119F
100
AcDbEntity
  8
SCHRAFFUR_RAND
100
AcDbVertex
100
AcDb2dVertex
 10
325.942227
 20
466.8722469999999
 30
0.0
  0
VERTEX
  5
11AE
330
119F
100
AcDbEntity
  8
SCHRAFFUR_RAND
100
AcDbVertex
100
AcDb2dVertex
 10
325.866227
 20
465.998247
 30
0.0
  0
VERTEX
  5
11AF
330
119F
100
AcDbEntity
  8
SCHRAFFUR_RAND
100
AcDbVertex
100
AcDb2dVertex
 10
325.743227
 20
464.592247
 30
0.0
  0
VERTEX
  5
11B0
330
119F
100
AcDbEntity
  8
SCHRAFFUR_RAND
100
AcDbVertex
100
AcDb2dVertex
 10
324.860227
 20
462.8952469999999
 30
0.0
  0
VERTEX
  5
11B1
330
119F
100
AcDbEntity
  8
SCHRAFFUR_RAND
100
AcDbVertex
100
AcDb2dVertex
 10
323.035227
 20
462.3192469999999
 30
0.0
  0
VERTEX
  5
11B2
330
119F
100
AcDbEntity
  8
SCHRAFFUR_RAND
100
AcDbVertex
100
AcDb2dVertex
 10
320.482227
 20
462.5432469999999
 30
0.0
  0
VERTEX
  5
11B3
330
119F
100
AcDbEntity
  8
SCHRAFFUR_RAND
100
AcDbVertex
100
AcDb2dVertex
 10
306.992227
 20
463.7232469999999
 30
0.0
  0
VERTEX
  5
11B4
330
119F
100
AcDbEntity
  8
SCHRAFFUR_RAND
100
AcDbVertex
100
AcDb2dVertex
 10
306.992227
 20
462.730247
 30
0.0
  0
VERTEX
  5
11B5
330
119F
100
AcDbEntity
  8
SCHRAFFUR_RAND
100
AcDbVertex
100
AcDb2dVertex
 10
306.992227
 20
451.2302469999999
 30
0.0
  0
VERTEX
  5
11B6
330
119F
100
AcDbEntity
  8
SCHRAFFUR_RAND
100
AcDbVertex
100
AcDb2dVertex
 10
306.992227
 20
448.6352469999999
 30
0.0
  0
VERTEX
  5
11B7
330
119F
100
AcDbEntity
  8
SCHRAFFUR_RAND
100
AcDbVertex
100
AcDb2dVertex
 10
305.992227
 20
448.6352469999999
 30
0.0
  0
VERTEX
  5
11B8
330
119F
100
AcDbEntity
  8
SCHRAFFUR_RAND
100
AcDbVertex
100
AcDb2dVertex
 10
305.992227
 20
443.135247
 30
0.0
  0
VERTEX
  5
11B9
330
119F
100
AcDbEntity
  8
SCHRAFFUR_RAND
100
AcDbVertex
100
AcDb2dVertex
 10
301.992227
 20
440.8272469999999
 30
0.0
  0
VERTEX
  5
11BA
330
119F
100
AcDbEntity
  8
SCHRAFFUR_RAND
100
AcDbVertex
100
AcDb2dVertex
 10
297.992227
 20
443.135247
 30
0.0
  0
VERTEX
  5
11BB
330
119F
100
AcDbEntity
  8
SCHRAFFUR_RAND
100
AcDbVertex
100
AcDb2dVertex
 10
297.992227
 20
448.6352469999999
 30
0.0
  0
VERTEX
  5
11BC
330
119F
100
AcDbEntity
  8
SCHRAFFUR_RAND
100
AcDbVertex
100
AcDb2dVertex
 10
296.992227
 20
448.6352469999999
 30
0.0
  0
VERTEX
  5
11BD
330
119F
100
AcDbEntity
  8
SCHRAFFUR_RAND
100
AcDbVertex
100
AcDb2dVertex
 10
296.992227
 20
451.2302469999999
 30
0.0
  0
VERTEX
  5
11BE
330
119F
100
AcDbEntity
  8
SCHRAFFUR_RAND
100
AcDbVertex
100
AcDb2dVertex
 10
296.992227
 20
462.730247
 30
0.0
  0
VERTEX
  5
11BF
330
119F
100
AcDbEntity
  8
SCHRAFFUR_RAND
100
AcDbVertex
100
AcDb2dVertex
 10
296.992227
 20
463.635247
 30
0.0
  0
VERTEX
  5
11C0
330
119F
100
AcDbEntity
  8
SCHRAFFUR_RAND
100
AcDbVertex
100
AcDb2dVertex
 10
295.992227
 20
463.635247
 30
0.0
  0
VERTEX
  5
11C1
330
119F
100
AcDbEntity
  8
SCHRAFFUR_RAND
100
AcDbVertex
100
AcDb2dVertex
 10
295.354227
 20
464.7412469999999
 30
0.0
  0
VERTEX
  5
11C2
330
119F
100
AcDbEntity
  8
SCHRAFFUR_RAND
100
AcDbVertex
100
AcDb2dVertex
 10
280.992227
 20
465.9972469999999
 30
0.0
  0
VERTEX
  5
11C3
330
119F
100
AcDbEntity
  8
SCHRAFFUR_RAND
100
AcDbVertex
100
AcDb2dVertex
 10
252.321227
 20
474.763247
 30
0.0
  0
VERTEX
  5
11C4
330
119F
100
AcDbEntity
  8
SCHRAFFUR_RAND
100
AcDbVertex
100
AcDb2dVertex
 10
251.590227
 20
474.8722469999999
 30
0.0
  0
VERTEX
  5
11C5
330
119F
100
AcDbEntity
  8
SCHRAFFUR_RAND
100
AcDbVertex
100
AcDb2dVertex
 10
250.959227
 20
474.969247
 30
0.0
  0
VERTEX
  5
11C6
330
119F
100
AcDbEntity
  8
SCHRAFFUR_RAND
100
AcDbVertex
100
AcDb2dVertex
 10
249.723227
 20
474.284247
 30
0.0
  0
VERTEX
  5
11C7
330
119F
100
AcDbEntity
  8
SCHRAFFUR_RAND
100
AcDbVertex
100
AcDb2dVertex
 10
249.175227
 20
473.0192469999999
 30
0.0
  0
VERTEX
  5
11C8
330
119F
100
AcDbEntity
  8
SCHRAFFUR_RAND
100
AcDbVertex
100
AcDb2dVertex
 10
246.992227
 20
464.872247
 30
0.0
  0
VERTEX
  5
11C9
330
119F
100
AcDbEntity
  8
SCHRAFFUR_RAND
100
AcDbVertex
100
AcDb2dVertex
 10
264.150227
 20
464.872247
 30
0.0
  0
VERTEX
  5
11CA
330
119F
100
AcDbEntity
  8
SCHRAFFUR_RAND
100
AcDbVertex
100
AcDb2dVertex
 10
279.841227
 20
460.0752469999999
 30
0.0
  0
VERTEX
  5
11CB
330
119F
100
AcDbEntity
  8
SCHRAFFUR_RAND
100
AcDbVertex
100
AcDb2dVertex
 10
285.330227
 20
459.5952469999999
 30
0.0
  0
VERTEX
  5
11CC
330
119F
100
AcDbEntity
  8
SCHRAFFUR_RAND
100
AcDbVertex
100
AcDb2dVertex
 10
286.801227
 20
458.948247
 30
0.0
  0
VERTEX
  5
11CD
330
119F
100
AcDbEntity
  8
SCHRAFFUR_RAND
100
AcDbVertex
100
AcDb2dVertex
 10
287.575227
 20
457.5392469999999
 30
0.0
  0
VERTEX
  5
11CE
330
119F
100
AcDbEntity
  8
SCHRAFFUR_RAND
100
AcDbVertex
100
AcDb2dVertex
 10
290.175227
 20
442.7892469999999
 30
0.0
  0
VERTEX
  5
11CF
330
119F
100
AcDbEntity
  8
SCHRAFFUR_RAND
100
AcDbVertex
100
AcDb2dVertex
 10
291.791227
 20
438.231247
 30
0.0
  0
VERTEX
  5
11D0
330
119F
100
AcDbEntity
  8
SCHRAFFUR_RAND
100
AcDbVertex
100
AcDb2dVertex
 10
295.166227
 20
434.7942469999999
 30
0.0
  0
VERTEX
  5
11D1
330
119F
100
AcDbEntity
  8
SCHRAFFUR_RAND
100
AcDbVertex
100
AcDb2dVertex
 10
299.609227
 20
432.9362469999999
 30
0.0
  0
VERTEX
  5
11D2
330
119F
100
AcDbEntity
  8
SCHRAFFUR_RAND
100
AcDbVertex
100
AcDb2dVertex
 10
304.426227
 20
432.946247
 30
0.0
  0
VERTEX
  5
11D3
330
119F
100
AcDbEntity
  8
SCHRAFFUR_RAND
100
AcDbVertex
100
AcDb2dVertex
 10
308.861227
 20
434.823247
 30
0.0
  0
VERTEX
  5
11D4
330
119F
100
AcDbEntity
  8
SCHRAFFUR_RAND
100
AcDbVertex
100
AcDb2dVertex
 10
312.221227
 20
438.2742469999999
 30
0.0
  0
VERTEX
  5
11D5
330
119F
100
AcDbEntity
  8
SCHRAFFUR_RAND
100
AcDbVertex
100
AcDb2dVertex
 10
313.811227
 20
442.7882469999999
 30
0.0
  0
VERTEX
  5
11D6
330
119F
100
AcDbEntity
  8
SCHRAFFUR_RAND
100
AcDbVertex
100
AcDb2dVertex
 10
315.898227
 20
454.6302469999999
 30
0.0
  0
VERTEX
  5
11D7
330
119F
100
AcDbEntity
  8
SCHRAFFUR_RAND
100
AcDbVertex
100
AcDb2dVertex
 10
316.838227
 20
456.1792469999999
 30
0.0
  0
VERTEX
  5
11D8
330
119F
100
AcDbEntity
  8
SCHRAFFUR_RAND
100
AcDbVertex
100
AcDb2dVertex
 10
318.578227
 20
456.686247
 30
0.0
  0
VERTEX
  5
11D9
330
119F
100
AcDbEntity
  8
SCHRAFFUR_RAND
100
AcDbVertex
100
AcDb2dVertex
 10
328.114227
 20
455.8522469999999
 30
0.0
  0
VERTEX
  5
11DA
330
119F
100
AcDbEntity
  8
SCHRAFFUR_RAND
100
AcDbVertex
100
AcDb2dVertex
 10
330.923227
 20
455.070247
 30
0.0
  0
VERTEX
  5
11DB
330
119F
100
AcDbEntity
  8
SCHRAFFUR_RAND
100
AcDbVertex
100
AcDb2dVertex
 10
332.955227
 20
452.9292469999999
 30
0.0
  0
VERTEX
  5
11DC
330
119F
100
AcDbEntity
  8
SCHRAFFUR_RAND
100
AcDbVertex
100
AcDb2dVertex
 10
333.589227
 20
450.0842469999999
 30
0.0
  0
VERTEX
  5
11DD
330
119F
100
AcDbEntity
  8
SCHRAFFUR_RAND
100
AcDbVertex
100
AcDb2dVertex
 10
336.839227
 20
357.029247
 30
0.0
  0
VERTEX
  5
11DE
330
119F
100
AcDbEntity
  8
SCHRAFFUR_RAND
100
AcDbVertex
100
AcDb2dVertex
 10
337.206227
 20
354.904247
 30
0.0
  0
VERTEX
  5
11DF
330
119F
100
AcDbEntity
  8
SCHRAFFUR_RAND
100
AcDbVertex
100
AcDb2dVertex
 10
338.601227
 20
352.955247
 30
0.0
  0
VERTEX
  5
11E0
330
119F
100
AcDbEntity
  8
SCHRAFFUR_RAND
100
AcDbVertex
100
AcDb2dVertex
 10
340.695227
 20
351.845247
 30
0.0
  0
VERTEX
  5
11E1
330
119F
100
AcDbEntity
  8
SCHRAFFUR_RAND
100
AcDbVertex
100
AcDb2dVertex
 10
342.802227
 20
350.723247
 30
0.0
  0
VERTEX
  5
11E2
330
119F
100
AcDbEntity
  8
SCHRAFFUR_RAND
100
AcDbVertex
100
AcDb2dVertex
 10
344.199227
 20
348.753247
 30
0.0
  0
VERTEX
  5
11E3
330
119F
100
AcDbEntity
  8
SCHRAFFUR_RAND
100
AcDbVertex
100
AcDb2dVertex
 10
344.562227
 20
346.393247
 30
0.0
  0
VERTEX
  5
11E4
330
119F
100
AcDbEntity
  8
SCHRAFFUR_RAND
100
AcDbVertex
100
AcDb2dVertex
 10
345.806227
 20
298.872247
 30
0.0
  0
VERTEX
  5
11E5
330
119F
100
AcDbEntity
  8
SCHRAFFUR_RAND
100
AcDbVertex
100
AcDb2dVertex
 10
346.992227
 20
246.879247
 30
0.0
  0
VERTEX
  5
11E6
330
119F
100
AcDbEntity
  8
SCHRAFFUR_RAND
100
AcDbVertex
100
AcDb2dVertex
 10
354.0623014243013
 20
244.9852748470939
 30
0.0
  0
SEQEND
  5
11E7
330
119F
100
AcDbEntity
  8
SCHRAFFUR_RAND
  0
POLYLINE
  5
1216
330
12C0
100
AcDbEntity
  8
SCHRAFFUR_RAND
100
AcDb2dPolyline
 66
     1
 10
0.0
 20
0.0
 30
0.0
 70
     1
  0
VERTEX
  5
1217
330
1216
100
AcDbEntity
  8
SCHRAFFUR_RAND
100
AcDbVertex
100
AcDb2dVertex
 10
520.6542269999999
 20
462.8722469999999
 30
0.0
  0
VERTEX
  5
1218
330
1216
100
AcDbEntity
  8
SCHRAFFUR_RAND
100
AcDbVertex
100
AcDb2dVertex
 10
520.4702269999999
 20
459.3722469999999
 30
0.0
  0
VERTEX
  5
1219
330
1216
100
AcDbEntity
  8
SCHRAFFUR_RAND
100
AcDbVertex
100
AcDb2dVertex
 10
513.875227
 20
459.3722469999999
 30
0.0
  0
VERTEX
  5
121A
330
1216
100
AcDbEntity
  8
SCHRAFFUR_RAND
100
AcDbVertex
100
AcDb2dVertex
 10
512.4922269999999
 20
451.5302469999999
 30
0.0
  0
VERTEX
  5
121B
330
1216
100
AcDbEntity
  8
SCHRAFFUR_RAND
100
AcDbVertex
100
AcDb2dVertex
 10
510.924227
 20
361.677247
 30
0.0
  0
VERTEX
  5
121C
330
1216
100
AcDbEntity
  8
SCHRAFFUR_RAND
100
AcDbVertex
100
AcDb2dVertex
 10
510.5382269999999
 20
359.214247
 30
0.0
  0
VERTEX
  5
121D
330
1216
100
AcDbEntity
  8
SCHRAFFUR_RAND
100
AcDbVertex
100
AcDb2dVertex
 10
509.0422269999999
 20
357.183247
 30
0.0
  0
VERTEX
  5
121E
330
1216
100
AcDbEntity
  8
SCHRAFFUR_RAND
100
AcDbVertex
100
AcDb2dVertex
 10
506.8052269999999
 20
356.084247
 30
0.0
  0
VERTEX
  5
121F
330
1216
100
AcDbEntity
  8
SCHRAFFUR_RAND
100
AcDbVertex
100
AcDb2dVertex
 10
504.5812269999999
 20
354.996247
 30
0.0
  0
VERTEX
  5
1220
330
1216
100
AcDbEntity
  8
SCHRAFFUR_RAND
100
AcDbVertex
100
AcDb2dVertex
 10
503.0862269999999
 20
352.9862470000001
 30
0.0
  0
VERTEX
  5
1221
330
1216
100
AcDbEntity
  8
SCHRAFFUR_RAND
100
AcDbVertex
100
AcDb2dVertex
 10
502.6862269999999
 20
350.543247
 30
0.0
  0
VERTEX
  5
1222
330
1216
100
AcDbEntity
  8
SCHRAFFUR_RAND
100
AcDbVertex
100
AcDb2dVertex
 10
499.5002269999999
 20
244.872247
 30
0.0
  0
VERTEX
  5
1223
330
1216
100
AcDbEntity
  8
SCHRAFFUR_RAND
100
AcDbVertex
100
AcDb2dVertex
 10
506.9922269999999
 20
246.879247
 30
0.0
  0
VERTEX
  5
1224
330
1216
100
AcDbEntity
  8
SCHRAFFUR_RAND
100
AcDbVertex
100
AcDb2dVertex
 10
508.179227
 20
298.872247
 30
0.0
  0
VERTEX
  5
1225
330
1216
100
AcDbEntity
  8
SCHRAFFUR_RAND
100
AcDbVertex
100
AcDb2dVertex
 10
509.4232269999999
 20
346.393247
 30
0.0
  0
VERTEX
  5
1226
330
1216
100
AcDbEntity
  8
SCHRAFFUR_RAND
100
AcDbVertex
100
AcDb2dVertex
 10
509.7862269999999
 20
348.753247
 30
0.0
  0
VERTEX
  5
1227
330
1216
100
AcDbEntity
  8
SCHRAFFUR_RAND
100
AcDbVertex
100
AcDb2dVertex
 10
511.1832269999999
 20
350.723247
 30
0.0
  0
VERTEX
  5
1228
330
1216
100
AcDbEntity
  8
SCHRAFFUR_RAND
100
AcDbVertex
100
AcDb2dVertex
 10
513.2902269999999
 20
351.845247
 30
0.0
  0
VERTEX
  5
1229
330
1216
100
AcDbEntity
  8
SCHRAFFUR_RAND
100
AcDbVertex
100
AcDb2dVertex
 10
515.384227
 20
352.955247
 30
0.0
  0
VERTEX
  5
122A
330
1216
100
AcDbEntity
  8
SCHRAFFUR_RAND
100
AcDbVertex
100
AcDb2dVertex
 10
516.7792269999999
 20
354.904247
 30
0.0
  0
VERTEX
  5
122B
330
1216
100
AcDbEntity
  8
SCHRAFFUR_RAND
100
AcDbVertex
100
AcDb2dVertex
 10
517.1552269999999
 20
357.244247
 30
0.0
  0
VERTEX
  5
122C
330
1216
100
AcDbEntity
  8
SCHRAFFUR_RAND
100
AcDbVertex
100
AcDb2dVertex
 10
520.3972269999999
 20
450.0842469999999
 30
0.0
  0
VERTEX
  5
122D
330
1216
100
AcDbEntity
  8
SCHRAFFUR_RAND
100
AcDbVertex
100
AcDb2dVertex
 10
521.0302269999999
 20
452.9302469999999
 30
0.0
  0
VERTEX
  5
122E
330
1216
100
AcDbEntity
  8
SCHRAFFUR_RAND
100
AcDbVertex
100
AcDb2dVertex
 10
523.062227
 20
455.0712469999999
 30
0.0
  0
VERTEX
  5
122F
330
1216
100
AcDbEntity
  8
SCHRAFFUR_RAND
100
AcDbVertex
100
AcDb2dVertex
 10
525.8702269999999
 20
455.8522469999999
 30
0.0
  0
VERTEX
  5
1230
330
1216
100
AcDbEntity
  8
SCHRAFFUR_RAND
100
AcDbVertex
100
AcDb2dVertex
 10
535.4062269999999
 20
456.686247
 30
0.0
  0
VERTEX
  5
1231
330
1216
100
AcDbEntity
  8
SCHRAFFUR_RAND
100
AcDbVertex
100
AcDb2dVertex
 10
537.1462269999999
 20
456.1792469999999
 30
0.0
  0
VERTEX
  5
1232
330
1216
100
AcDbEntity
  8
SCHRAFFUR_RAND
100
AcDbVertex
100
AcDb2dVertex
 10
538.086227
 20
454.6302469999999
 30
0.0
  0
VERTEX
  5
1233
330
1216
100
AcDbEntity
  8
SCHRAFFUR_RAND
100
AcDbVertex
100
AcDb2dVertex
 10
540.1742269999999
 20
442.7892469999999
 30
0.0
  0
VERTEX
  5
1234
330
1216
100
AcDbEntity
  8
SCHRAFFUR_RAND
100
AcDbVertex
100
AcDb2dVertex
 10
541.789227
 20
438.2352469999999
 30
0.0
  0
VERTEX
  5
1235
330
1216
100
AcDbEntity
  8
SCHRAFFUR_RAND
100
AcDbVertex
100
AcDb2dVertex
 10
545.163227
 20
434.7962469999999
 30
0.0
  0
VERTEX
  5
1236
330
1216
100
AcDbEntity
  8
SCHRAFFUR_RAND
100
AcDbVertex
100
AcDb2dVertex
 10
549.6072269999999
 20
432.9362469999999
 30
0.0
  0
VERTEX
  5
1237
330
1216
100
AcDbEntity
  8
SCHRAFFUR_RAND
100
AcDbVertex
100
AcDb2dVertex
 10
554.4242269999999
 20
432.9452469999999
 30
0.0
  0
VERTEX
  5
1238
330
1216
100
AcDbEntity
  8
SCHRAFFUR_RAND
100
AcDbVertex
100
AcDb2dVertex
 10
558.8602269999999
 20
434.823247
 30
0.0
  0
VERTEX
  5
1239
330
1216
100
AcDbEntity
  8
SCHRAFFUR_RAND
100
AcDbVertex
100
AcDb2dVertex
 10
562.221227
 20
438.2742469999999
 30
0.0
  0
VERTEX
  5
123A
330
1216
100
AcDbEntity
  8
SCHRAFFUR_RAND
100
AcDbVertex
100
AcDb2dVertex
 10
563.8102269999999
 20
442.7882469999999
 30
0.0
  0
VERTEX
  5
123B
330
1216
100
AcDbEntity
  8
SCHRAFFUR_RAND
100
AcDbVertex
100
AcDb2dVertex
 10
566.4102269999999
 20
457.5392469999999
 30
0.0
  0
VERTEX
  5
123C
330
1216
100
AcDbEntity
  8
SCHRAFFUR_RAND
100
AcDbVertex
100
AcDb2dVertex
 10
567.1842269999999
 20
458.948247
 30
0.0
  0
VERTEX
  5
123D
330
1216
100
AcDbEntity
  8
SCHRAFFUR_RAND
100
AcDbVertex
100
AcDb2dVertex
 10
568.6552269999999
 20
459.5952469999999
 30
0.0
  0
VERTEX
  5
123E
330
1216
100
AcDbEntity
  8
SCHRAFFUR_RAND
100
AcDbVertex
100
AcDb2dVertex
 10
574.144227
 20
460.0742469999999
 30
0.0
  0
VERTEX
  5
123F
330
1216
100
AcDbEntity
  8
SCHRAFFUR_RAND
100
AcDbVertex
100
AcDb2dVertex
 10
589.8342269999999
 20
464.872247
 30
0.0
  0
VERTEX
  5
1240
330
1216
100
AcDbEntity
  8
SCHRAFFUR_RAND
100
AcDbVertex
100
AcDb2dVertex
 10
606.9922269999999
 20
464.872247
 30
0.0
  0
VERTEX
  5
1241
330
1216
100
AcDbEntity
  8
SCHRAFFUR_RAND
100
AcDbVertex
100
AcDb2dVertex
 10
604.808227
 20
473.0212469999999
 30
0.0
  0
VERTEX
  5
1242
330
1216
100
AcDbEntity
  8
SCHRAFFUR_RAND
100
AcDbVertex
100
AcDb2dVertex
 10
604.2622269999999
 20
474.284247
 30
0.0
  0
VERTEX
  5
1243
330
1216
100
AcDbEntity
  8
SCHRAFFUR_RAND
100
AcDbVertex
100
AcDb2dVertex
 10
603.0262269999999
 20
474.969247
 30
0.0
  0
VERTEX
  5
1244
330
1216
100
AcDbEntity
  8
SCHRAFFUR_RAND
100
AcDbVertex
100
AcDb2dVertex
 10
602.3952269999999
 20
474.8722469999999
 30
0.0
  0
VERTEX
  5
1245
330
1216
100
AcDbEntity
  8
SCHRAFFUR_RAND
100
AcDbVertex
100
AcDb2dVertex
 10
601.664227
 20
474.762247
 30
0.0
  0
VERTEX
  5
1246
330
1216
100
AcDbEntity
  8
SCHRAFFUR_RAND
100
AcDbVertex
100
AcDb2dVertex
 10
572.9922269999999
 20
465.9972469999999
 30
0.0
  0
VERTEX
  5
1247
330
1216
100
AcDbEntity
  8
SCHRAFFUR_RAND
100
AcDbVertex
100
AcDb2dVertex
 10
558.630227
 20
464.7412469999999
 30
0.0
  0
VERTEX
  5
1248
330
1216
100
AcDbEntity
  8
SCHRAFFUR_RAND
100
AcDbVertex
100
AcDb2dVertex
 10
556.9922269999999
 20
461.904247
 30
0.0
  0
VERTEX
  5
1249
330
1216
100
AcDbEntity
  8
SCHRAFFUR_RAND
100
AcDbVertex
100
AcDb2dVertex
 10
556.9922269999999
 20
451.2302469999999
 30
0.0
  0
VERTEX
  5
124A
330
1216
100
AcDbEntity
  8
SCHRAFFUR_RAND
100
AcDbVertex
100
AcDb2dVertex
 10
556.9922269999999
 20
448.6352469999999
 30
0.0
  0
VERTEX
  5
124B
330
1216
100
AcDbEntity
  8
SCHRAFFUR_RAND
100
AcDbVertex
100
AcDb2dVertex
 10
555.9922269999999
 20
448.6352469999999
 30
0.0
  0
VERTEX
  5
124C
330
1216
100
AcDbEntity
  8
SCHRAFFUR_RAND
100
AcDbVertex
100
AcDb2dVertex
 10
555.9922269999999
 20
443.135247
 30
0.0
  0
VERTEX
  5
124D
330
1216
100
AcDbEntity
  8
SCHRAFFUR_RAND
100
AcDbVertex
100
AcDb2dVertex
 10
551.9922269999999
 20
440.8272469999999
 30
0.0
  0
VERTEX
  5
124E
330
1216
100
AcDbEntity
  8
SCHRAFFUR_RAND
100
AcDbVertex
100
AcDb2dVertex
 10
547.9922269999999
 20
443.135247
 30
0.0
  0
VERTEX
  5
124F
330
1216
100
AcDbEntity
  8
SCHRAFFUR_RAND
100
AcDbVertex
100
AcDb2dVertex
 10
547.9922269999999
 20
448.6352469999999
 30
0.0
  0
VERTEX
  5
1250
330
1216
100
AcDbEntity
  8
SCHRAFFUR_RAND
100
AcDbVertex
100
AcDb2dVertex
 10
546.9922269999999
 20
448.6352469999999
 30
0.0
  0
VERTEX
  5
1251
330
1216
100
AcDbEntity
  8
SCHRAFFUR_RAND
100
AcDbVertex
100
AcDb2dVertex
 10
546.9922269999999
 20
451.2302469999999
 30
0.0
  0
VERTEX
  5
1252
330
1216
100
AcDbEntity
  8
SCHRAFFUR_RAND
100
AcDbVertex
100
AcDb2dVertex
 10
546.9922269999999
 20
462.730247
 30
0.0
  0
VERTEX
  5
1253
330
1216
100
AcDbEntity
  8
SCHRAFFUR_RAND
100
AcDbVertex
100
AcDb2dVertex
 10
546.9922269999999
 20
463.7232469999999
 30
0.0
  0
VERTEX
  5
1254
330
1216
100
AcDbEntity
  8
SCHRAFFUR_RAND
100
AcDbVertex
100
AcDb2dVertex
 10
530.9502269999999
 20
462.3192469999999
 30
0.0
  0
VERTEX
  5
1255
330
1216
100
AcDbEntity
  8
SCHRAFFUR_RAND
100
AcDbVertex
100
AcDb2dVertex
 10
529.125227
 20
462.8952469999999
 30
0.0
  0
VERTEX
  5
1256
330
1216
100
AcDbEntity
  8
SCHRAFFUR_RAND
100
AcDbVertex
100
AcDb2dVertex
 10
528.241227
 20
464.592247
 30
0.0
  0
VERTEX
  5
1257
330
1216
100
AcDbEntity
  8
SCHRAFFUR_RAND
100
AcDbVertex
100
AcDb2dVertex
 10
528.139227
 20
465.7642469999999
 30
0.0
  0
VERTEX
  5
1258
330
1216
100
AcDbEntity
  8
SCHRAFFUR_RAND
100
AcDbVertex
100
AcDb2dVertex
 10
528.0422269999998
 20
466.8722469999999
 30
0.0
  0
VERTEX
  5
1259
330
1216
100
AcDbEntity
  8
SCHRAFFUR_RAND
100
AcDbVertex
100
AcDb2dVertex
 10
520.8632269999999
 20
466.8722469999999
 30
0.0
  0
VERTEX
  5
125A
330
1216
100
AcDbEntity
  8
SCHRAFFUR_RAND
100
AcDbVertex
100
AcDb2dVertex
 10
520.6542269999999
 20
462.8722469999999
 30
0.0
  0
SEQEND
  5
125B
330
1216
100
AcDbEntity
  8
SCHRAFFUR_RAND
  0
INSERT
  5
134F
330
12C0
100
AcDbEntity
  8
0
100
AcDbBlockReference
  2
KATALOG_LEER
 10
251.839706
 20
11.304483
 30
0.0
 41
5.0
 42
5.0
 43
5.0
1001
GENIUS_GENOREF_13
1005
1350
  0
POINT
  5
1350
330
12C0
100
AcDbEntity
  8
0
 60
     1
100
AcDbPoint
 10
0.0
 20
0.0
 30
0.0
1001
GENIUS_GENOBJ-N-TIT_13
1002
{
1000
OWNER
1000
GEN
1002
}
1001
GENIUS_GENOENT_13
1002
{
1000
MYREF
1005
1350
1002
}
1002
{
1000
GRP
1005
0
1002
}
1001
GENIUS_GENOLIS_13
1002
{
1000
ENT
1005
134F
1002
}
1001
GENIUS_GENTITLE_13
1002
{
1000
SCALE
1000
1:5
1002
}
1002
{
1000
BORDER
1000
KATALOG
1002
}
1002
{
1000
TITLE
1000
KATALOG_LEER
1002
}
1002
{
1000
UNCHG
1002
{
1000
GEN-TITLE-SCA
1000
GEN-TITLE-SIZ
1002
}
1002
}
1002
{
1000
HRA
1005
1348
1002
}
1002
{
1000
HTIT
1005
134F
1002
}
1002
{
1000
GENIUSID
1005
1350
1002
}
1001
GENIUS_GENODEF_13
1002
{
1000
HIER
1070
     1
1002
}
1002
{
1000
MANEDIT
1070
     1
1002
}
1002
{
1000
NOSEL
1070
     0
1002
}
1002
{
1000
BEHIND
1070
     0
1002
}
1002
{
1000
REACTOR
1002
}
  0
HATCH
  5
158D
330
12C0
100
AcDbEntity
  8
AM_8
100
AcDbHatch
 10
0.0
 20
0.0
 30
0.0
210
0.0
220
0.0
230
1.0
  2
_U
 70
     0
 71
     0
 91
        1
 92
        1
 93
       33
 72
     1
 10
280.992227
 20
465.9972469999999
 11
252.321227
 21
474.763247
 72
     1
 10
252.321227
 20
474.763247
 11
252.3195649125003
 21
474.7634948352085
 72
     1
 10
252.3195649125003
 20
474.7634948352085
 11
251.590227
 21
474.8722469999999
 72
     2
 10
251.590227
 20
472.3722469999999
 40
2.5
 50
90.0
 51
148.1790219976683
 73
     1
 72
     1
 10
249.4659777526162
 20
473.6904143395245
 11
249.1756802437449
 21
473.0202932652137
 72
     1
 10
249.1756802437449
 20
473.0202932652137
 11
249.175227
 21
473.0192469999999
 72
     1
 10
249.175227
 20
473.0192469999999
 11
246.992227
 21
464.872247
 72
     1
 10
246.992227
 20
464.872247
 11
264.150227
 21
464.872247
 72
     1
 10
264.150227
 20
464.872247
 11
279.841227
 21
460.0752469999999
 72
     1
 10
279.841227
 20
460.0752469999999
 11
285.330227
 21
459.5952469999999
 72
     1
 10
285.330227
 20
459.5952469999999
 11
285.3317126051758
 21
459.5945935761055
 72
     2
 10
285.1122270000001
 20
457.104247
 40
2.499999999999982
 50
275.0367240909256
 51
312.4466003238163
 73
     0
 72
     1
 10
286.7994839292393
 20
458.9490136667452
 11
286.801227
 21
458.948247
 72
     1
 10
286.801227
 20
458.948247
 11
286.8021445422836
 21
458.9465766936982
 72
     2
 10
285.112227
 20
457.104247
 40
2.499999999999986
 50
312.5292897124312
 51
349.9084578271618
 73
     0
 72
     1
 10
287.5735496408645
 20
457.5423004871083
 11
287.575227
 21
457.5392469999999
 72
     1
 10
287.575227
 20
457.5392469999999
 11
290.175227
 21
442.7892469999999
 72
     1
 10
290.175227
 20
442.7892469999999
 11
291.5038426993701
 21
439.0418272241776
 72
     2
 10
301.992227
 20
444.8722469999999
 40
11.99999999999999
 50
209.0693776956297
 51
218.3540622039211
 73
     1
 72
     1
 10
292.5819323549033
 20
437.4260160948733
 11
294.3759466546879
 21
435.5990450879517
 72
     2
 10
301.9922270000001
 20
444.8722469999999
 40
12.00000000000005
 50
230.6030017290981
 51
241.1713134626009
 73
     1
 72
     1
 10
296.2059187023736
 20
434.3594625788858
 11
298.5721358776093
 21
433.3699438952064
 72
     2
 10
301.9922270000001
 20
444.8722469999999
 40
12.00000000000001
 50
253.4406975111699
 51
263.9729231425523
 73
     1
 72
     1
 10
300.7322456834358
 20
432.9385783653382
 11
301.992227
 21
432.9411940624869
 72
     1
 10
301.992227
 20
432.9411940624869
 11
301.992227
 21
440.8262469999999
 72
     1
 10
301.992227
 20
440.8262469999999
 11
299.9922269999432
 21
441.9812470000327
 72
     1
 10
299.9922269999432
 20
441.9812470000327
 11
297.992227
 21
443.135247
 72
     1
 10
297.992227
 20
443.135247
 11
297.992227
 21
448.6352469999999
 72
     1
 10
297.992227
 20
448.6352469999999
 11
296.992227
 21
448.6352469999999
 72
     1
 10
296.992227
 20
448.6352469999999
 11
296.992227
 21
463.635247
 72
     1
 10
296.992227
 20
463.635247
 11
295.992227
 21
463.635247
 72
     1
 10
295.992227
 20
463.635247
 11
295.354227
 21
464.7412469999999
 72
     1
 10
295.354227
 20
464.7412469999999
 11
280.992227
 21
465.9972469999999
 97
        0
 75
     0
 76
     0
 52
45.0
 41
5.0
 77
     0
 78
     1
 53
45.0
 43
0.0
 44
0.0
 45
-3.535533905932737
 46
3.535533905932737
 79
     0
 98
        1
 10
0.0
 20
0.0
1001
GENIUS_GENOBJ-N-HTC_13
1002
{
1000
OWNER
1000
GEN
1002
}
1001
GENIUS_GENODEF_13
1002
{
1000
HIER
1070
     0
1002
}
1002
{
1000
MANEDIT
1070
     0
1002
}
1002
{
1000
NOSEL
1070
     0
1002
}
1002
{
1000
BEHIND
1070
     0
1002
}
1002
{
1000
OTHER
1070
     0
1002
}
1002
{
1000
REACTOR
1002
}
1001
GENIUS_GENHATCH_13
1002
{
1000
DATA
1040
45.0
1042
2.5
1000
_U
1070
     0
1011
256.2622370131026
1021
469.3430592615743
1031
0.0
1002
}
1002
{
1000
UCS
1010
0.0
1020
0.0
1030
0.0
1010
1.0
1020
0.0
1030
0.0
1010
0.0
1020
1.0
1030
0.0
1002
}
1001
ACAD
1010
0.0
1020
0.0
1030
0.0
  0
HATCH
  5
1596
330
12C0
100
AcDbEntity
  8
AM_8
100
AcDbHatch
 10
0.0
 20
0.0
 30
0.0
210
0.0
220
0.0
230
1.0
  2
_U
 70
     0
 71
     0
 91
        1
 92
        1
 93
       60
 72
     1
 10
525.8702269999999
 20
455.8522469999999
 11
535.4062269999999
 21
456.686247
 72
     1
 10
535.4062269999999
 20
456.686247
 11
537.1462269999999
 21
456.1792469999999
 72
     1
 10
537.1462269999999
 20
456.1792469999999
 11
538.086227
 21
454.6302469999999
 72
     1
 10
538.086227
 20
454.6302469999999
 11
540.1742269999999
 21
442.7892469999999
 72
     1
 10
540.1742269999999
 20
442.7892469999999
 11
541.5020298962219
 21
439.0450894833468
 72
     2
 10
551.9922270000002
 20
444.8722469999997
 40
12.00000000000004
 50
209.0515582180417
 51
218.3147210740295
 73
     1
 72
     1
 10
542.5768217513459
 20
437.4324792614466
 11
544.3741729330663
 21
435.6005021678081
 72
     2
 10
551.9922270000001
 20
444.8722469999998
 40
12.0
 50
230.592041680084
 51
241.1558626147007
 73
     1
 72
     1
 10
546.2030839494844
 20
434.3610233442752
 11
548.5682692388207
 21
433.3710943077842
 72
     2
 10
551.9922269999998
 20
444.8722469999999
 40
11.99999999999997
 50
253.4214358764545
 51
263.9831819138279
 73
     1
 72
     1
 10
550.7343824190654
 20
432.9383529578101
 11
551.9922269999999
 21
432.9407030930039
 72
     1
 10
551.9922269999999
 20
432.9407030930039
 11
551.9922269999999
 21
440.8262469999999
 72
     1
 10
551.9922269999999
 20
440.8262469999999
 11
549.9922269999431
 21
441.9812470000327
 72
     1
 10
549.9922269999431
 20
441.9812470000327
 11
547.9922269999999
 21
443.135247
 72
     1
 10
547.9922269999999
 20
443.135247
 11
547.9922269999999
 21
448.6352469999999
 72
     1
 10
547.9922269999999
 20
448.6352469999999
 11
546.9922269999999
 21
448.6352469999999
 72
     1
 10
546.9922269999999
 20
448.6352469999999
 11
546.9922269999999
 21
463.7232469999999
 72
     1
 10
546.9922269999999
 20
463.7232469999999
 11
530.9502269999999
 21
462.3192469999999
 72
     1
 10
530.9502269999999
 20
462.3192469999999
 11
530.9489290259225
 21
462.3196566619553
 72
     2
 10
530.7322269999999
 20
464.8102469999998
 40
2.499999999999983
 50
85.02731499621356
 51
174.9696785983
 73
     0
 72
     1
 10
528.2418559123645
 20
464.591039687463
 11
528.241227
 21
464.592247
 72
     1
 10
528.241227
 20
464.592247
 11
528.0418068319327
 21
466.8722469999999
 72
     1
 10
528.0418068319327
 20
466.8722469999999
 11
520.8633039230768
 21
466.8722469999999
 72
     1
 10
520.8633039230768
 20
466.8722469999999
 11
520.8381470000058
 21
466.3922470001134
 72
     1
 10
520.8381470000058
 20
466.3922470001134
 11
520.6542269999999
 21
462.8722469999999
 72
     1
 10
520.6542269999999
 20
462.8722469999999
 11
520.4702269999999
 21
459.3722469999999
 72
     1
 10
520.4702269999999
 20
459.3722469999999
 11
513.875227
 21
459.3722469999999
 72
     1
 10
513.875227
 20
459.3722469999999
 11
512.4922269999999
 21
451.5302469999999
 72
     1
 10
512.4922269999999
 20
451.5302469999999
 11
510.924227
 21
361.677247
 72
     1
 10
510.924227
 20
361.677247
 11
510.5382269999999
 21
359.214247
 72
     1
 10
510.5382269999999
 20
359.214247
 11
509.0422269999999
 21
357.183247
 72
     1
 10
509.0422269999999
 20
357.183247
 11
508.2855217455734
 21
356.8114905965066
 72
     2
 10
504.9252270000001
 20
361.7822470000001
 40
6.000000000000001
 50
55.94080491956844
 51
71.73099436821295
 73
     0
 72
     1
 10
506.8060998885264
 20
356.0846758352663
 11
506.8052269999999
 21
356.084247
 72
     1
 10
506.8052269999999
 20
356.084247
 11
505.3379039681471
 21
355.3664199052806
 72
     2
 10
508.6842269999999
 20
350.386247
 40
6.0
 50
123.8983016245809
 51
162.9057770183441
 73
     1
 72
     1
 10
502.9492910553891
 20
352.1499107182897
 11
502.6862918089895
 21
350.5436428209033
 72
     1
 10
502.6862918089895
 20
350.5436428209033
 11
502.6862269999999
 21
350.543247
 72
     1
 10
502.6862269999999
 20
350.543247
 11
499.9221525756986
 21
244.9852748470939
 72
     1
 10
499.9221525756986
 20
244.9852748470939
 11
506.9922269999999
 21
246.879247
 72
     1
 10
506.9922269999999
 20
246.879247
 11
508.179227
 21
298.872247
 72
     1
 10
508.179227
 20
298.872247
 11
509.4232269999999
 21
346.393247
 72
     1
 10
509.4232269999999
 20
346.393247
 11
509.4232926167424
 21
346.3936735992079
 72
     2
 10
515.4212269999999
 20
346.2362469999998
 40
6.000000000000034
 50
181.5034858249964
 51
195.9851899846181
 73
     0
 72
     1
 10
509.6532295307496
 20
347.8885802577669
 11
509.7862269999999
 21
348.753247
 72
     1
 10
509.7862269999999
 20
348.753247
 11
511.1832269999999
 21
350.723247
 72
     1
 10
511.1832269999999
 20
350.723247
 11
511.9578685465622
 21
351.1357518957014
 72
     2
 10
515.4212269999999
 20
346.236247
 40
5.999999999999999
 50
234.7443014631763
 51
249.1841427703158
 73
     0
 72
     1
 10
513.2890329681758
 20
351.8446111653029
 11
513.2902269999999
 21
351.845247
 72
     1
 10
513.2902269999999
 20
351.845247
 11
513.2939851433024
 21
351.8472391389999
 72
     1
 10
513.2939851433024
 20
351.8472391389999
 11
514.5999083219146
 21
352.5394906806711
 72
     2
 10
511.158227
 20
357.4542470000001
 40
6.000000000000039
 50
305.0025962194324
 51
343.8004162552598
 73
     1
 72
     1
 10
516.9200012751734
 20
355.7803422231537
 11
517.1543593279525
 21
357.2388471260877
 72
     1
 10
517.1543593279525
 20
357.2388471260877
 11
517.1552269999999
 21
357.244247
 72
     1
 10
517.1552269999999
 20
357.244247
 11
520.3972269999999
 21
450.0842469999999
 72
     1
 10
520.3972269999999
 20
450.0842469999999
 11
521.0302269999999
 21
452.9302469999999
 72
     1
 10
521.0302269999999
 20
452.9302469999999
 11
521.8469935661357
 21
453.7908263396144
 72
     2
 10
526.3932269999992
 20
449.8752469999992
 40
6.000000000000055
 50
220.7376583967856
 51
226.2698564678731
 73
     0
 72
     1
 10
522.2456509723817
 20
454.2108684197189
 11
523.062227
 21
455.0712469999999
 72
     1
 10
523.062227
 20
455.0712469999999
 11
525.8702269999999
 21
455.8522469999999
 97
        0
 75
     0
 76
     0
 52
45.0
 41
5.0
 77
     0
 78
     1
 53
45.0
 43
0.0
 44
0.0
 45
-3.535533905932737
 46
3.535533905932737
 79
     0
 98
        1
 10
0.0
 20
0.0
1001
GENIUS_GENOBJ-N-HTC_13
1002
{
1000
OWNER
1000
GEN
1002
}
1001
GENIUS_GENODEF_13
1002
{
1000
HIER
1070
     0
1002
}
1002
{
1000
MANEDIT
1070
     0
1002
}
1002
{
1000
NOSEL
1070
     0
1002
}
1002
{
1000
BEHIND
1070
     0
1002
}
1002
{
1000
OTHER
1070
     0
1002
}
1002
{
1000
REACTOR
1002
}
1001
GENIUS_GENHATCH_13
1002
{
1000
DATA
1040
45.0
1042
2.5
1000
_U
1070
     0
1011
514.975215053174
1021
396.3656290549784
1031
0.0
1002
}
1002
{
1000
UCS
1010
0.0
1020
0.0
1030
0.0
1010
1.0
1020
0.0
1030
0.0
1010
0.0
1020
1.0
1030
0.0
1002
}
1001
ACAD
1010
0.0
1020
0.0
1030
0.0
  0
HATCH
  5
159F
330
12C0
100
AcDbEntity
  8
AM_8
100
AcDbHatch
 10
0.0
 20
0.0
 30
0.0
210
0.0
220
0.0
230
1.0
  2
_U
 70
     0
 71
     0
 91
        1
 92
        1
 93
       27
 72
     1
 10
589.8342269999999
 20
464.872247
 11
606.9922269999999
 21
464.872247
 72
     1
 10
606.9922269999999
 20
464.872247
 11
604.808227
 21
473.0212469999999
 72
     1
 10
604.808227
 20
473.0212469999999
 11
604.517725093981
 21
473.6932321782086
 72
     2
 10
602.3952269999999
 20
472.3722469999999
 40
2.49999999999999
 50
31.89701277778544
 51
90.0
 73
     1
 72
     1
 10
602.3952269999999
 20
474.8722469999999
 11
601.664227
 21
474.762247
 72
     1
 10
601.664227
 20
474.762247
 11
572.9922269999999
 21
465.9972469999999
 72
     1
 10
572.9922269999999
 20
465.9972469999999
 11
558.630227
 21
464.7412469999999
 72
     1
 10
558.630227
 20
464.7412469999999
 11
556.9922269999999
 21
461.904247
 72
     1
 10
556.9922269999999
 20
461.904247
 11
556.9922269999999
 21
448.6352469999999
 72
     1
 10
556.9922269999999
 20
448.6352469999999
 11
555.9922269999999
 21
448.6352469999999
 72
     1
 10
555.9922269999999
 20
448.6352469999999
 11
555.9922269999999
 21
443.135247
 72
     1
 10
555.9922269999999
 20
443.135247
 11
551.9922269999999
 21
440.8272469999999
 72
     1
 10
551.9922269999999
 20
440.8272469999999
 11
551.9922269999999
 21
432.9407030930039
 72
     1
 10
551.9922269999999
 20
432.9407030930039
 11
553.29465680838
 21
432.9431365304702
 72
     2
 10
551.9922270000001
 20
444.8722469999998
 40
11.99999999999993
 50
276.2309187361972
 51
286.8168358827678
 73
     1
 72
     1
 10
555.4639840169126
 20
433.3854326802889
 11
557.8235531061064
 21
434.3843665733245
 72
     2
 10
551.9922270000001
 20
444.872247
 40
12.00000000000003
 50
299.0743289012675
 51
309.6260660449605
 73
     1
 72
     1
 10
559.645520517165
 20
435.6295689064969
 11
561.4338739295918
 21
437.4658103900689
 72
     2
 10
551.9922269999999
 20
444.8722469999998
 40
11.99999999999994
 50
321.8878271280482
 51
331.2248689082482
 73
     1
 72
     1
 10
562.5104153993096
 20
439.0957677265474
 11
563.8095331525063
 21
442.7862759316637
 72
     1
 10
563.8095331525063
 20
442.7862759316637
 11
563.8102269999999
 21
442.7882469999999
 72
     1
 10
563.8102269999999
 20
442.7882469999999
 11
566.4102269999999
 21
457.5392469999999
 72
     1
 10
566.4102269999999
 20
457.5392469999999
 11
566.4116417647038
 21
457.5418224566766
 72
     1
 10
566.4116417647038
 20
457.5418224566766
 11
567.1842269999999
 21
458.948247
 72
     1
 10
567.1842269999999
 20
458.948247
 11
568.6552269999999
 21
459.5952469999999
 72
     1
 10
568.6552269999999
 20
459.5952469999999
 11
574.144227
 21
460.0742469999999
 72
     1
 10
574.144227
 20
460.0742469999999
 11
589.8342269999999
 21
464.872247
 97
        0
 75
     0
 76
     0
 52
45.0
 41
5.0
 77
     0
 78
     1
 53
45.0
 43
0.0
 44
0.0
 45
-3.535533905932737
 46
3.535533905932737
 79
     0
 98
        1
 10
0.0
 20
0.0
1001
GENIUS_GENOBJ-N-HTC_13
1002
{
1000
OWNER
1000
GEN
1002
}
1001
GENIUS_GENODEF_13
1002
{
1000
HIER
1070
     0
1002
}
1002
{
1000
MANEDIT
1070
     0
1002
}
1002
{
1000
NOSEL
1070
     0
1002
}
1002
{
1000
BEHIND
1070
     0
1002
}
1002
{
1000
OTHER
1070
     0
1002
}
1002
{
1000
REACTOR
1002
}
1001
GENIUS_GENHATCH_13
1002
{
1000
DATA
1040
45.0
1042
2.5
1000
_U
1070
     0
1011
560.3385863275348
1021
456.5897219836045
1031
0.0
1002
}
1002
{
1000
UCS
1010
0.0
1020
0.0
1030
0.0
1010
1.0
1020
0.0
1030
0.0
1010
0.0
1020
1.0
1030
0.0
1002
}
1001
ACAD
1010
0.0
1020
0.0
1030
0.0
  0
HATCH
  5
15A3
330
12C0
100
AcDbEntity
  8
AM_8
100
AcDbHatch
 10
0.0
 20
0.0
 30
0.0
210
0.0
220
0.0
230
1.0
  2
_U
 70
     0
 71
     0
 91
        1
 92
        1
 93
       68
 72
     1
 10
306.992227
 20
463.7232469999999
 11
306.992227
 21
448.6352469999999
 72
     1
 10
306.992227
 20
448.6352469999999
 11
305.992227
 21
448.6352469999999
 72
     1
 10
305.992227
 20
448.6352469999999
 11
305.992227
 21
443.135247
 72
     1
 10
305.992227
 20
443.135247
 11
301.992227
 21
440.8272469999999
 72
     1
 10
301.992227
 20
440.8272469999999
 11
301.992227
 21
432.9411940624869
 72
     1
 10
301.992227
 20
432.9411940624869
 11
303.301745379128
 21
432.9439125976315
 72
     2
 10
301.9922270000002
 20
444.8722469999999
 40
12.00000000000004
 50
276.2649664036536
 51
286.8160789710561
 73
     1
 72
     1
 10
305.4638322688831
 20
433.3853868172927
 11
307.8213786405707
 21
434.3831578521649
 72
     2
 10
301.9922270000002
 20
444.872247
 40
11.99999999999999
 50
299.0624503792521
 51
309.6506286146635
 73
     1
 72
     1
 10
309.6494821287465
 20
435.63285070515
 11
311.4329019165169
 21
437.4645714455059
 72
     2
 10
301.9922270000001
 20
444.8722470000001
 40
12.0
 50
321.880308318127
 51
331.2299038417004
 73
     1
 72
     1
 10
312.5109229735509
 20
439.0966920469236
 11
313.811227
 21
442.7882469999999
 72
     1
 10
313.811227
 20
442.7882469999999
 11
315.898227
 21
454.6302469999999
 72
     1
 10
315.898227
 20
454.6302469999999
 11
316.838227
 21
456.1792469999999
 72
     1
 10
316.838227
 20
456.1792469999999
 11
318.578227
 21
456.686247
 72
     1
 10
318.578227
 20
456.686247
 11
328.114227
 21
455.8522469999999
 72
     1
 10
328.114227
 20
455.8522469999999
 11
328.1186230923708
 21
455.851023167948
 72
     2
 10
327.591227
 20
449.8742469999999
 40
5.999999999999979
 50
275.0427696309143
 51
296.0706663798185
 73
     0
 72
     1
 10
330.2281031036583
 20
455.2637631576857
 11
330.923227
 21
455.070247
 72
     1
 10
330.923227
 20
455.070247
 11
331.7499471872718
 21
454.1991801097691
 72
     2
 10
327.5912269999999
 20
449.874247
 40
6.000000000000007
 50
313.8775966680277
 51
319.1148884673383
 73
     0
 72
     1
 10
332.1273684791873
 20
453.8015132859547
 11
332.955227
 21
452.9292469999999
 72
     1
 10
332.955227
 20
452.9292469999999
 11
333.1128447590374
 21
452.2219559519536
 72
     2
 10
327.591227
 20
449.874247
 40
5.99999999999997
 50
336.9655313660211
 51
357.9086261949586
 73
     0
 72
     1
 10
333.5872303961888
 20
450.0932065234114
 11
333.589227
 21
450.0842469999999
 72
     1
 10
333.589227
 20
450.0842469999999
 11
336.8368448293209
 21
357.0974540438606
 72
     2
 10
342.8262270000001
 20
357.4542469999998
 40
6.000000000000114
 50
183.4091329724774
 51
184.2602335012581
 73
     1
 72
     1
 10
336.842805403187
 20
357.0085273630181
 11
337.039908424429
 21
355.8672632754454
 72
     2
 10
342.826227
 20
357.454247
 40
5.999999999999979
 50
195.3370836825431
 51
234.9611852631428
 73
     1
 72
     1
 10
339.3814395893197
 20
352.5416672606758
 11
340.694013654396
 21
351.8458901774692
 72
     1
 10
340.694013654396
 20
351.8458901774692
 11
340.695227
 21
351.845247
 72
     1
 10
340.695227
 20
351.845247
 11
340.6989250380673
 21
351.843277755239
 72
     2
 10
338.563227
 20
346.236247
 40
5.999999999999997
 50
290.8516588691288
 51
305.2198968973803
 73
     0
 72
     1
 10
342.0235232900985
 20
351.1379150410582
 11
342.802227
 21
350.723247
 72
     1
 10
342.802227
 20
350.723247
 11
344.199227
 21
348.753247
 72
     1
 10
344.199227
 20
348.753247
 11
344.3333902404432
 21
347.8810011392678
 72
     2
 10
338.563227
 20
346.2362470000002
 40
5.999999999999971
 50
344.0900822274647
 51
358.4212419629279
 73
     0
 72
     1
 10
344.5609493884295
 20
346.4015532350039
 11
344.562227
 21
346.393247
 72
     1
 10
344.562227
 20
346.393247
 11
345.806227
 21
298.872247
 72
     1
 10
345.806227
 20
298.872247
 11
346.992227
 21
246.879247
 72
     1
 10
346.992227
 20
246.879247
 11
354.0623014243013
 21
244.9852748470939
 72
     1
 10
354.0623014243013
 20
244.9852748470939
 11
351.298227
 21
350.543247
 72
     1
 10
351.298227
 20
350.543247
 11
351.2981621910105
 21
350.5436428209033
 72
     1
 10
351.2981621910105
 20
350.5436428209033
 11
351.0351629446108
 21
352.1499107182897
 72
     2
 10
345.300227
 20
350.386247
 40
6.000000000000047
 50
17.09422298165636
 51
58.48303561681978
 73
     1
 72
     1
 10
348.4367329712701
 20
355.501159540033
 11
347.507227
 21
355.9862470000001
 72
     1
 10
347.507227
 20
355.9862470000001
 11
347.5044699456195
 21
355.9874545112439
 72
     2
 10
349.0602269999999
 20
361.7822470000001
 40
6.000000000000005
 50
105.0281060614111
 51
122.2759912907078
 73
     0
 72
     1
 10
345.8562383306755
 20
356.709332984679
 11
345.121227
 21
357.031247
 72
     1
 10
345.121227
 20
357.031247
 11
343.497227
 21
359.109247
 72
     1
 10
343.497227
 20
359.109247
 11
343.062227
 21
361.677247
 72
     1
 10
343.062227
 20
361.677247
 11
341.4922444727892
 21
451.5302469999999
 72
     1
 10
341.4922444727892
 20
451.5302469999999
 11
341.492227
 21
451.5312469999999
 72
     1
 10
341.492227
 20
451.5312469999999
 11
340.109227
 21
459.3722469999999
 72
     1
 10
340.109227
 20
459.3722469999999
 11
333.514227
 21
459.3722469999999
 72
     1
 10
333.514227
 20
459.3722469999999
 11
333.1211500769231
 21
466.8722469999999
 72
     1
 10
333.1211500769231
 20
466.8722469999999
 11
325.9426471680672
 21
466.8722469999999
 72
     1
 10
325.9426471680672
 20
466.8722469999999
 11
325.8703707125729
 21
466.0458996945883
 72
     1
 10
325.8703707125729
 20
466.0458996945883
 11
325.866227
 21
465.998247
 72
     1
 10
325.866227
 20
465.998247
 11
325.743227
 21
464.592247
 72
     1
 10
325.743227
 20
464.592247
 11
325.7425979427791
 21
464.5910380417849
 72
     2
 10
323.252227
 20
464.8102469999999
 40
2.5
 50
5.030359263694966
 51
49.94826582082567
 73
     0
 72
     1
 10
324.8609245835597
 20
462.8965876560598
 11
324.860227
 21
462.8952469999999
 72
     1
 10
324.860227
 20
462.8952469999999
 11
324.8587865369612
 21
462.894792366186
 72
     2
 10
323.252227
 20
464.810247
 40
2.500000000000022
 50
50.01224983095411
 51
94.95464466517004
 73
     0
 72
     1
 10
323.0363091803166
 20
462.3195885538971
 11
323.035227
 21
462.3192469999999
 72
     1
 10
323.035227
 20
462.3192469999999
 11
320.482227
 21
462.5432469999999
 72
     1
 10
320.482227
 20
462.5432469999999
 11
306.992227
 21
463.7232469999999
 97
        0
 75
     0
 76
     0
 52
45.0
 41
5.0
 77
     0
 78
     1
 53
45.0
 43
0.0
 44
0.0
 45
-3.535533905932737
 46
3.535533905932737
 79
     0
 98
        1
 10
0.0
 20
0.0
1001
GENIUS_GENOBJ-N-HTC_13
1002
{
1000
OWNER
1000
GEN
1002
}
1001
GENIUS_GENODEF_13
1002
{
1000
HIER
1070
     0
1002
}
1002
{
1000
MANEDIT
1070
     0
1002
}
1002
{
1000
NOSEL
1070
     0
1002
}
1002
{
1000
BEHIND
1070
     0
1002
}
1002
{
1000
OTHER
1070
     0
1002
}
1002
{
1000
REACTOR
1002
}
1001
GENIUS_GENHATCH_13
1002
{
1000
DATA
1040
45.0
1042
1.0
1000
_U
1070
     0
1011
337.7745445489795
1021
393.5315545585218
1031
0.0
1002
}
1002
{
1000
UCS
1010
0.0
1020
0.0
1030
0.0
1010
1.0
1020
0.0
1030
0.0
1010
0.0
1020
1.0
1030
0.0
1002
}
  0
ENDSEC
  0
SECTION
  2
OBJECTS
  0
DICTIONARY
  5
12B4
330
0
100
AcDbDictionary
281
     1
  3
ACAD_COLOR
350
1487
  3
ACAD_GROUP
350
12B5
  3
ACAD_LAYOUT
350
148A
  3
ACAD_MATERIAL
350
1486
  3
ACAD_MLINESTYLE
350
12C3
  3
ACAD_PLOTSETTINGS
350
148B
  3
ACAD_PLOTSTYLENAME
350
1484
  3
ACAD_TABLESTYLE
350
1488
  3
ACDBHEADERROUNDTRIPXREC
350
15BD
  3
AcDbVariableDictionary
350
15B8
  3
AcmDictionary
350
14EB
  3
AMG
350
1491
  3
AMGSNAPSETTINGS
350
1557
  0
DICTIONARY
  5
157D
330
12AA
100
AcDbDictionary
280
     1
281
     1
  3
AMLAYER_GROUPCOLORS
360
157E
  0
DICTIONARY
  5
155F
330
12C0
100
AcDbDictionary
280
     1
281
     1
  3
ACAD_SORTENTS
360
1560
  0
DICTIONARY
  5
1487
102
{ACAD_REACTORS
330
12B4
102
}
330
12B4
100
AcDbDictionary
281
     1
  0
DICTIONARY
  5
12B5
102
{ACAD_REACTORS
330
12B4
102
}
330
12B4
100
AcDbDictionary
281
     1
  0
DICTIONARY
  5
148A
102
{ACAD_REACTORS
330
12B4
102
}
330
12B4
100
AcDbDictionary
281
     1
  3
Layout1
350
148D
  3
Model
350
148C
  0
DICTIONARY
  5
1486
102
{ACAD_REACTORS
330
12B4
102
}
330
12B4
100
AcDbDictionary
281
     1
  0
DICTIONARY
  5
12C3
102
{ACAD_REACTORS
330
12B4
102
}
330
12B4
100
AcDbDictionary
281
     1
  3
STANDARD
350
12C4
  0
DICTIONARY
  5
148B
102
{ACAD_REACTORS
330
12B4
102
}
330
12B4
100
AcDbDictionary
281
     1
  0
ACDBDICTIONARYWDFLT
  5
1484
102
{ACAD_REACTORS
330
12B4
102
}
330
12B4
100
AcDbDictionary
281
     1
  3
Normal
350
1485
100
AcDbDictionaryWithDefault
340
1485
  0
DICTIONARY
  5
1488
102
{ACAD_REACTORS
330
12B4
102
}
330
12B4
100
AcDbDictionary
281
     1
  3
Standard
350
1489
  0
DICTIONARY
  5
15BD
102
{ACAD_REACTORS
330
12B4
102
}
330
12B4
100
AcDbDictionary
281
     1
  0
DICTIONARY
  5
15B8
102
{ACAD_REACTORS
330
12B4
102
}
330
12B4
100
AcDbDictionary
281
     1
  3
CTABLESTYLE
350
15B9
  3
DIMASSOC
350
15BA
  3
PROJECTNAME
350
15BB
  0
DICTIONARY
  5
14EB
102
{ACAD_REACTORS
330
12B4
102
}
330
12B4
100
AcDbDictionary
281
     1
  3
AcmStdDictionary
350
14F6
  3
AMDTSECTSYM_ARROWCOLOR
350
1518
  0
DICTIONARY
  5
1491
102
{ACAD_REACTORS
330
12B4
102
}
330
12B4
100
AcDbDictionary
281
     1
  0
DICTIONARY
  5
1557
102
{ACAD_REACTORS
330
12B4
102
}
330
12B4
100
AcDbDictionary
281
     1
  0
DICTIONARY
  5
157E
102
{ACAD_REACTORS
330
157D
102
}
330
157D
100
AcDbDictionary
280
     1
281
     1
  0
SORTENTSTABLE
  5
1560
102
{ACAD_REACTORS
330
155F
102
}
330
155F
100
AcDbSortentsTable
330
12C0
331
10FB
  5
10FC
331
10E1
  5
10E1
331
10BF
  5
10BF
331
109D
  5
109D
331
107B
  5
107B
331
1061
  5
1061
331
1596
  5
1595
331
10D0
  5
10D0
331
10AE
  5
10AE
331
108C
  5
108C
331
1072
  5
1072
331
1050
  5
1050
331
102E
  5
102E
331
103F
  5
103F
331
101D
  5
101D
331
100C
  5
100C
331
10F9
  5
10FA
331
10DF
  5
10DF
331
10BD
  5
10BD
331
109B
  5
109B
331
1079
  5
1079
331
1164
  5
1165
331
10CE
  5
10CE
331
10AC
  5
10AC
331
108A
  5
108A
331
1070
  5
1070
331
104E
  5
104E
331
102C
  5
102C
331
119F
  5
1215
331
105F
  5
105F
331
103D
  5
103D
331
101B
  5
101B
331
100A
  5
100A
331
15A3
  5
15A2
331
10F7
  5
10F8
331
10DD
  5
10DD
331
10BB
  5
10BB
331
1099
  5
1099
331
10EE
  5
10EE
331
10CC
  5
10CC
331
10AA
  5
10AA
331
1088
  5
1088
331
106E
  5
106E
331
104C
  5
104C
331
102A
  5
102A
331
105D
  5
105D
331
103B
  5
103B
331
1019
  5
1019
331
1008
  5
1008
331
10F5
  5
10F6
331
10DB
  5
10DB
331
10B9
  5
10B9
331
10EC
  5
10EC
331
10CA
  5
10CA
331
10A8
  5
10A8
331
1086
  5
1086
331
106C
  5
106C
331
104A
  5
104A
331
1028
  5
1028
331
1097
  5
1097
331
105B
  5
105B
331
1039
  5
1039
331
1017
  5
1017
331
1006
  5
1006
331
10F3
  5
10F4
331
10D9
  5
10D9
331
10EA
  5
10EA
331
10C8
  5
10C8
331
10A6
  5
10A6
331
1084
  5
1084
331
106A
  5
106A
331
1048
  5
1048
331
1026
  5
1026
331
159F
  5
159E
331
10B7
  5
10B7
331
1095
  5
1095
331
1059
  5
1059
331
1037
  5
1037
331
1015
  5
1015
331
1004
  5
1004
331
10F1
  5
10F1
331
10E8
  5
10E8
331
10C6
  5
10C6
331
10A4
  5
10A4
331
1082
  5
1082
331
1068
  5
1068
331
1046
  5
1046
331
1024
  5
1024
331
10D7
  5
10D7
331
10B5
  5
10B5
331
1093
  5
1093
331
1057
  5
1057
331
1035
  5
1035
331
1013
  5
1013
331
1002
  5
1002
331
110C
  5
1117
331
1100
  5
1101
331
10E6
  5
10E6
331
10C4
  5
10C4
331
10A2
  5
10A2
331
1080
  5
1080
331
1066
  5
1066
331
1044
  5
1044
331
1022
  5
1022
331
1135
  5
1136
331
1195
  5
119E
331
10D5
  5
10D5
331
10B3
  5
10B3
331
1091
  5
1091
331
1077
  5
1077
331
1055
  5
1055
331
1033
  5
1033
331
1011
  5
1011
331
117A
  5
117B
331
1216
  5
1283
331
10FE
  5
10FF
331
10E4
  5
10E4
331
10C2
  5
10C2
331
10A0
  5
10A0
331
107E
  5
107E
331
1064
  5
1064
331
1042
  5
1042
331
1020
  5
1020
331
10D3
  5
10D3
331
10B1
  5
10B1
331
108F
  5
108F
331
1075
  5
1075
331
1053
  5
1053
331
1031
  5
1031
331
100F
  5
100F
331
10FC
  5
10FD
331
10E2
  5
10E2
331
10C0
  5
10C0
331
109E
  5
109E
331
107C
  5
107C
331
1062
  5
1062
331
1040
  5
1040
331
10D1
  5
10D1
331
10AF
  5
10AF
331
108D
  5
108D
331
1073
  5
1073
331
1051
  5
1051
331
102F
  5
102F
331
101E
  5
101E
331
100D
  5
100D
331
10FA
  5
10FB
331
10E0
  5
10E0
331
10BE
  5
10BE
331
109C
  5
109C
331
107A
  5
107A
331
1060
  5
1060
331
1117
  5
1135
331
1165
  5
117A
331
10CF
  5
10CF
331
10AD
  5
10AD
331
108B
  5
108B
331
1071
  5
1071
331
104F
  5
104F
331
102D
  5
102D
331
103E
  5
103E
331
101C
  5
101C
331
100B
  5
100B
331
10F8
  5
10F9
331
10DE
  5
10DE
331
10BC
  5
10BC
331
109A
  5
109A
331
1078
  5
1078
331
10EF
  5
10EF
331
10CD
  5
10CD
331
10AB
  5
10AB
331
1089
  5
1089
331
106F
  5
106F
331
104D
  5
104D
331
102B
  5
102B
331
105E
  5
105E
331
103C
  5
103C
331
101A
  5
101A
331
1009
  5
1009
331
10F6
  5
10F7
331
10DC
  5
10DC
331
10BA
  5
10BA
331
1098
  5
1098
331
134F
  5
155E
331
1150
  5
1164
331
10ED
  5
10ED
331
10CB
  5
10CB
331
10A9
  5
10A9
331
1087
  5
1087
331
106D
  5
106D
331
104B
  5
104B
331
1029
  5
1029
331
105C
  5
105C
331
103A
  5
103A
331
1018
  5
1018
331
1007
  5
1007
331
10F4
  5
10F5
331
10DA
  5
10DA
331
10B8
  5
10B8
331
114F
  5
1150
331
10EB
  5
10EB
331
10C9
  5
10C9
331
10A7
  5
10A7
331
1085
  5
1085
331
106B
  5
106B
331
1049
  5
1049
331
1027
  5
1027
331
1096
  5
1096
331
105A
  5
105A
331
1038
  5
1038
331
1016
  5
1016
331
1005
  5
1005
331
10F2
  5
10F3
331
10D8
  5
10D8
331
158D
  5
158C
331
10E9
  5
10E9
331
10C7
  5
10C7
331
10A5
  5
10A5
331
1083
  5
1083
331
1069
  5
1069
331
1047
  5
1047
331
1025
  5
1025
331
10B6
  5
10B6
331
1094
  5
1094
331
1058
  5
1058
331
1036
  5
1036
331
1014
  5
1014
331
1003
  5
1003
331
10F0
  5
10F0
331
1101
  5
110C
331
10E7
  5
10E7
331
10C5
  5
10C5
331
10A3
  5
10A3
331
1081
  5
1081
331
1067
  5
1067
331
1045
  5
1045
331
1023
  5
1023
331
1136
  5
114F
331
10D6
  5
10D6
331
10B4
  5
10B4
331
1092
  5
1092
331
1056
  5
1056
331
1034
  5
1034
331
1012
  5
1012
331
1001
  5
1001
331
117B
  5
1195
331
10FF
  5
1100
331
10E5
  5
10E5
331
10C3
  5
10C3
331
10A1
  5
10A1
331
107F
  5
107F
331
1065
  5
1065
331
1043
  5
1043
331
1021
  5
1021
331
10D4
  5
10D4
331
10B2
  5
10B2
331
1090
  5
1090
331
1076
  5
1076
331
1054
  5
1054
331
1032
  5
1032
331
1010
  5
1010
331
10FD
  5
10FE
331
10E3
  5
10E3
331
10C1
  5
10C1
331
109F
  5
109F
331
107D
  5
107D
331
1063
  5
1063
331
1041
  5
1041
331
10D2
  5
10D2
331
10B0
  5
10B0
331
108E
  5
108E
331
1074
  5
1074
331
1052
  5
1052
331
1030
  5
1030
331
101F
  5
101F
331
100E
  5
100E
  0
LAYOUT
  5
148D
102
{ACAD_XDICTIONARY
360
15C0
102
}
102
{ACAD_REACTORS
330
148A
102
}
330
148A
100
AcDbPlotSettings
  1

  2
Xerox Document Centre CS50 PS
  4

  6

 40
0.0
 41
0.0
 42
0.0
 43
0.0
 44
0.0
 45
0.0
 46
0.0
 47
0.0
 48
0.0
 49
0.0
140
0.0
141
0.0
142
1.0
143
1.0
 70
   688
 72
     0
 73
     0
 74
     5
  7

 75
    16
147
1.0
148
0.0
149
0.0
100
AcDbLayout
  1
Layout1
 70
     1
 71
     1
 10
0.0
 20
0.0
 11
419.8999999999999
 21
296.9
 12
0.0
 22
0.0
 32
0.0
 14
0.0
 24
0.0
 34
0.0
 15
419.8999999999999
 25
296.9
 35
0.0
146
0.0
 13
0.0
 23
0.0
 33
0.0
 16
1.0
 26
0.0
 36
0.0
 17
0.0
 27
1.0
 37
0.0
 76
     0
330
12BD
  0
LAYOUT
  5
148C
102
{ACAD_XDICTIONARY
360
15BE
102
}
102
{ACAD_REACTORS
330
148A
102
}
330
148A
100
AcDbPlotSettings
  1

  2
Xerox Document Centre CS50 PS
  4

  6

 40
0.0
 41
0.0
 42
0.0
 43
0.0
 44
0.0
 45
0.0
 46
0.0
 47
0.0
 48
0.0
 49
0.0
140
0.0
141
0.0
142
1.0
143
1.0
 70
  1712
 72
     0
 73
     0
 74
     0
  7

 75
     0
147
1.0
148
0.0
149
0.0
100
AcDbLayout
  1
Model
 70
     1
 71
     0
 10
0.0
 20
0.0
 11
12.0
 21
9.0
 12
0.0
 22
0.0
 32
0.0
 14
0.0
 24
0.0
 34
0.0
 15
0.0
 25
0.0
 35
0.0
146
0.0
 13
0.0
 23
0.0
 33
0.0
 16
1.0
 26
0.0
 36
0.0
 17
0.0
 27
1.0
 37
0.0
 76
     0
330
12C0
  0
MLINESTYLE
  5
12C4
102
{ACAD_REACTORS
330
12C3
102
}
330
12C3
100
AcDbMlineStyle
  2
STANDARD
 70
     0
  3

 62
   256
 51
90.0
 52
90.0
 71
     2
 49
0.5
 62
   256
  6
BYLAYER
 49
-0.5
 62
   256
  6
BYLAYER
  0
ACDBPLACEHOLDER
  5
1485
102
{ACAD_REACTORS
330
1484
102
}
330
1484
  0
TABLESTYLE
  5
1489
102
{ACAD_REACTORS
330
1488
102
}
330
1488
100
AcDbTableStyle
  3
Standard
 70
     0
 71
     0
 40
1.5
 41
1.5
280
     0
281
     0
  7
STANDARD
140
4.5
170
     2
 62
     0
 63
     7
283
     0
274
    -2
284
     1
 64
     0
275
    -2
285
     1
 65
     0
276
    -2
286
     1
 66
     0
277
    -2
287
     1
 67
     0
278
    -2
288
     1
 68
     0
279
    -2
289
     1
 69
     0
  7
STANDARD
140
6.0
170
     5
 62
     0
 63
     7
283
     0
274
    -2
284
     1
 64
     0
275
    -2
285
     1
 65
     0
276
    -2
286
     1
 66
     0
277
    -2
287
     1
 67
     0
278
    -2
288
     1
 68
     0
279
    -2
289
     1
 69
     0
  7
STANDARD
140
4.5
170
     5
 62
     0
 63
     7
283
     0
274
    -2
284
     1
 64
     0
275
    -2
285
     1
 65
     0
276
    -2
286
     1
 66
     0
277
    -2
287
     1
 67
     0
278
    -2
288
     1
 68
     0
279
    -2
289
     1
 69
     0
  0
DICTIONARYVAR
  5
15B9
102
{ACAD_REACTORS
330
15B8
102
}
330
15B8
100
DictionaryVariables
280
     0
  1
STANDARD
  0
DICTIONARYVAR
  5
15BA
102
{ACAD_REACTORS
330
15B8
102
}
330
15B8
100
DictionaryVariables
280
     0
  1
1
  0
DICTIONARYVAR
  5
15BB
102
{ACAD_REACTORS
330
15B8
102
}
330
15B8
100
DictionaryVariables
280
     0
  1

  0
DICTIONARY
  5
14F6
102
{ACAD_REACTORS
330
14EB
102
}
330
14EB
100
AcDbDictionary
281
     1
  0
XRECORD
  5
1518
102
{ACAD_REACTORS
330
14EB
102
}
330
14EB
100
AcDbXrecord
280
     1
 90
-1023410169
  0
DICTIONARY
  5
15C0
330
148D
100
AcDbDictionary
280
     1
281
     1
  3
ACAD_XREC_ROUNDTRIP
360
15C1
  0
DICTIONARY
  5
15BE
330
148C
100
AcDbDictionary
280
     1
281
     1
  3
ACAD_XREC_ROUNDTRIP
360
15BF
  0
XRECORD
  5
15C1
102
{ACAD_REACTORS
330
15C0
102
}
330
15C0
100
AcDbXrecord
280
     1
102
SHADEPLOT
 70
     0
102
SHADEPLOTRESLEVEL
 70
     2
102
SHADEPLOTCUSTOMDPI
 70
   300
  0
XRECORD
  5
15BF
102
{ACAD_REACTORS
330
15BE
102
}
330
15BE
100
AcDbXrecord
280
     1
102
SHADEPLOT
 70
     0
102
SHADEPLOTRESLEVEL
 70
     2
102
SHADEPLOTCUSTOMDPI
 70
   300
  0
ENDSEC
  0
EOF
