  0
SECTION
  2
HEADER
  9
$ACADVER
  1
AC1015
  9
$ACADMAINTVER
 70
    20
  9
$DWGCODEPAGE
  3
ANSI_1252
  9
$INSBASE
 10
0.0
 20
0.0
 30
0.0
  9
$EXTMIN
 10
149.610903497798
 20
175.3257777953122
 30
-0.0000000349181948
  9
$EXTMAX
 10
584.7610492663934
 20
549.2729205629703
 30
0.0000000814935746
  9
$LIMMIN
 10
0.0
 20
0.0
  9
$LIMMAX
 10
1050.0
 20
1050.0
  9
$ORTHOMODE
 70
     1
  9
$REGENMODE
 70
     1
  9
$FILLMODE
 70
     1
  9
$QTEXTMODE
 70
     0
  9
$MIRRTEXT
 70
     0
  9
$LTSCALE
 40
5.0
  9
$ATTMODE
 70
     1
  9
$TEXTSIZE
 40
10.0
  9
$TRACEWID
 40
0.05
  9
$TEXTSTYLE
  7
STANDARD
  9
$CLAYER
  8
0
  9
$CELTYPE
  6
BYLAYER
  9
$CECOLOR
 62
   256
  9
$CELTSCALE
 40
1.0
  9
$DISPSILH
 70
     0
  9
$DIMSCALE
 40
5.0
  9
$DIMASZ
 40
2.5
  9
$DIMEXO
 40
1.0
  9
$DIMDLI
 40
7.0
  9
$DIMRND
 40
0.0
  9
$DIMDLE
 40
0.0
  9
$DIMEXE
 40
1.0
  9
$DIMTP
 40
0.1
  9
$DIMTM
 40
0.1
  9
$DIMTXT
 40
3.5
  9
$DIMCEN
 40
0.0
  9
$DIMTSZ
 40
0.0
  9
$DIMTOL
 70
     0
  9
$DIMLIM
 70
     0
  9
$DIMTIH
 70
     0
  9
$DIMTOH
 70
     0
  9
$DIMSE1
 70
     0
  9
$DIMSE2
 70
     0
  9
$DIMTAD
 70
     1
  9
$DIMZIN
 70
    12
  9
$DIMBLK
  1

  9
$DIMASO
 70
     1
  9
$DIMSHO
 70
     1
  9
$DIMPOST
  1

  9
$DIMAPOST
  1
"
  9
$DIMALT
 70
     0
  9
$DIMALTD
 70
     2
  9
$DIMALTF
 40
0.03937
  9
$DIMLFAC
 40
1.0
  9
$DIMTOFL
 70
     1
  9
$DIMTVP
 40
0.0
  9
$DIMTIX
 70
     0
  9
$DIMSOXD
 70
     0
  9
$DIMSAH
 70
     0
  9
$DIMBLK1
  1

  9
$DIMBLK2
  1

  9
$DIMSTYLE
  2
GEN-ISO
  9
$DIMCLRD
 70
   256
  9
$DIMCLRE
 70
   256
  9
$DIMCLRT
 70
     2
  9
$DIMTFAC
 40
0.71
  9
$DIMGAP
 40
0.6
  9
$DIMJUST
 70
     0
  9
$DIMSD1
 70
     0
  9
$DIMSD2
 70
     0
  9
$DIMTOLJ
 70
     0
  9
$DIMTZIN
 70
     0
  9
$DIMALTZ
 70
     0
  9
$DIMALTTZ
 70
     0
  9
$DIMUPT
 70
     0
  9
$DIMDEC
 70
     2
  9
$DIMTDEC
 70
     3
  9
$DIMALTU
 70
     2
  9
$DIMALTTD
 70
     4
  9
$DIMTXSTY
  7
STANDARD
  9
$DIMAUNIT
 70
     0
  9
$DIMADEC
 70
     0
  9
$DIMALTRND
 40
0.0
  9
$DIMAZIN
 70
     0
  9
$DIMDSEP
 70
    46
  9
$DIMATFIT
 70
     3
  9
$DIMFRAC
 70
     0
  9
$DIMLDRBLK
  1

  9
$DIMLUNIT
 70
     2
  9
$DIMLWD
 70
    -2
  9
$DIMLWE
 70
    -2
  9
$DIMTMOVE
 70
     0
  9
$LUNITS
 70
     2
  9
$LUPREC
 70
     2
  9
$SKETCHINC
 40
0.1
  9
$FILLETRAD
 40
12.5
  9
$AUNITS
 70
     0
  9
$AUPREC
 70
     2
  9
$MENU
  1
.
  9
$ELEVATION
 40
0.0
  9
$PELEVATION
 40
0.0
  9
$THICKNESS
 40
0.0
  9
$LIMCHECK
 70
     0
  9
$CHAMFERA
 40
12.5
  9
$CHAMFERB
 40
12.5
  9
$CHAMFERC
 40
0.0
  9
$CHAMFERD
 40
0.0
  9
$SKPOLY
 70
     0
  9
$TDCREATE
 40
2451296.352112847
  9
$TDUCREATE
 40
2451296.268779514
  9
$TDUPDATE
 40
2454020.054285590
  9
$TDUUPDATE
 40
2454019.970952257
  9
$TDINDWG
 40
0.0075511227
  9
$TDUSRTIMER
 40
0.0075511227
  9
$USRTIMER
 70
     1
  9
$ANGBASE
 50
0.0
  9
$ANGDIR
 70
     0
  9
$PDMODE
 70
     0
  9
$PDSIZE
 40
0.0
  9
$PLINEWID
 40
0.0
  9
$SPLFRAME
 70
     0
  9
$SPLINETYPE
 70
     6
  9
$SPLINESEGS
 70
     8
  9
$HANDSEED
  5
15E3
  9
$SURFTAB1
 70
     6
  9
$SURFTAB2
 70
     6
  9
$SURFTYPE
 70
     6
  9
$SURFU
 70
     6
  9
$SURFV
 70
     6
  9
$UCSBASE
  2

  9
$UCSNAME
  2

  9
$UCSORG
 10
0.0
 20
0.0
 30
0.0
  9
$UCSXDIR
 10
1.0
 20
0.0
 30
0.0
  9
$UCSYDIR
 10
0.0
 20
1.0
 30
0.0
  9
$UCSORTHOREF
  2

  9
$UCSORTHOVIEW
 70
     0
  9
$UCSORGTOP
 10
0.0
 20
0.0
 30
0.0
  9
$UCSORGBOTTOM
 10
0.0
 20
0.0
 30
0.0
  9
$UCSORGLEFT
 10
0.0
 20
0.0
 30
0.0
  9
$UCSORGRIGHT
 10
0.0
 20
0.0
 30
0.0
  9
$UCSORGFRONT
 10
0.0
 20
0.0
 30
0.0
  9
$UCSORGBACK
 10
0.0
 20
0.0
 30
0.0
  9
$PUCSBASE
  2

  9
$PUCSNAME
  2

  9
$PUCSORG
 10
0.0
 20
0.0
 30
0.0
  9
$PUCSXDIR
 10
1.0
 20
0.0
 30
0.0
  9
$PUCSYDIR
 10
0.0
 20
1.0
 30
0.0
  9
$PUCSORTHOREF
  2

  9
$PUCSORTHOVIEW
 70
     0
  9
$PUCSORGTOP
 10
0.0
 20
0.0
 30
0.0
  9
$PUCSORGBOTTOM
 10
0.0
 20
0.0
 30
0.0
  9
$PUCSORGLEFT
 10
0.0
 20
0.0
 30
0.0
  9
$PUCSORGRIGHT
 10
0.0
 20
0.0
 30
0.0
  9
$PUCSORGFRONT
 10
0.0
 20
0.0
 30
0.0
  9
$PUCSORGBACK
 10
0.0
 20
0.0
 30
0.0
  9
$USERI1
 70
     0
  9
$USERI2
 70
     0
  9
$USERI3
 70
     0
  9
$USERI4
 70
     0
  9
$USERI5
 70
     0
  9
$USERR1
 40
0.0
  9
$USERR2
 40
0.0
  9
$USERR3
 40
0.0
  9
$USERR4
 40
0.0
  9
$USERR5
 40
0.0
  9
$WORLDVIEW
 70
     1
  9
$SHADEDGE
 70
     3
  9
$SHADEDIF
 70
    70
  9
$TILEMODE
 70
     1
  9
$MAXACTVP
 70
    48
  9
$PINSBASE
 10
0.0
 20
0.0
 30
0.0
  9
$PLIMCHECK
 70
     0
  9
$PEXTMIN
 10
0.0
 20
0.0
 30
0.0
  9
$PEXTMAX
 10
419.8999999999999
 20
296.9
 30
0.0
  9
$PLIMMIN
 10
0.0
 20
0.0
  9
$PLIMMAX
 10
419.8999999999999
 20
296.9
  9
$UNITMODE
 70
     0
  9
$VISRETAIN
 70
     1
  9
$PLINEGEN
 70
     1
  9
$PSLTSCALE
 70
     1
  9
$TREEDEPTH
 70
 -3020
  9
$CMLSTYLE
  2
STANDARD
  9
$CMLJUST
 70
     0
  9
$CMLSCALE
 40
1.0
  9
$PROXYGRAPHICS
 70
     1
  9
$MEASUREMENT
 70
     1
  9
$CELWEIGHT
370
    -1
  9
$ENDCAPS
280
     0
  9
$JOINSTYLE
280
     0
  9
$LWDISPLAY
290
     0
  9
$INSUNITS
 70
     0
  9
$HYPERLINKBASE
  1

  9
$STYLESHEET
  1

  9
$XEDIT
290
     1
  9
$CEPSNTYPE
380
     0
  9
$PSTYLEMODE
290
     1
  9
$FINGERPRINTGUID
  2
{D826E54C-E048-4D5F-B65F-7A8B949D1B03}
  9
$VERSIONGUID
  2
{86407448-133A-4E20-A24C-D5E1BB5C66B5}
  9
$EXTNAMES
290
     1
  9
$PSVPSCALE
 40
0.0
  9
$OLESTARTUP
290
     0
  0
ENDSEC
  0
SECTION
  2
CLASSES
  0
CLASS
  1
ACDBDICTIONARYWDFLT
  2
AcDbDictionaryWithDefault
  3
ObjectDBX Classes
 90
        0
280
     0
281
     0
  0
CLASS
  1
TABLESTYLE
  2
AcDbTableStyle
  3
ObjectDBX Classes
 90
     2047
280
     0
281
     0
  0
CLASS
  1
AMGSETTINGSOBJ
  2
AmgSettingsObj
  3
"AcadM|Product Description: AutoCAD Mechanical 2000|Company: Autodesk"
 90
        0
280
     0
281
     0
  0
CLASS
  1
ACME_DOCUMENT
  2
AcMeDbDoc
  3
AcMeServices
 90
        0
280
     0
281
     0
  0
CLASS
  1
ACMESCOPE
  2
AcMeScope
  3
AcMeServices
 90
        0
280
     0
281
     0
  0
CLASS
  1
ACMECOMMANDHISTORY
  2
AcMeCommandHistory
  3
AcMeServices
 90
        0
280
     0
281
     0
  0
CLASS
  1
ACIMSYSVARMAN
  2
AcImSysVarManager
  3
AcMeServices
 90
        0
280
     0
281
     0
  0
CLASS
  1
ACIMINTSYSVAR
  2
AcImIntSysVar
  3
AcMeServices
 90
        0
280
     0
281
     0
  0
CLASS
  1
ACMEDRAWINGMAN
  2
AcMeDrawingMan
  3
AcMeServices
 90
        0
280
     0
281
     0
  0
CLASS
  1
ACMEVIEW
  2
AcMeView
  3
AcMeServices
 90
        0
280
     0
281
     0
  0
CLASS
  1
ACDBENTITYCACHE
  2
AcMeEntityCache
  3
AcMeServices
 90
        0
280
     0
281
     0
  0
CLASS
  1
GSMANAGER
  2
AcMeGSManager
  3
AcMeServices
 90
        0
280
     0
281
     0
  0
CLASS
  1
AMDTINTERNALREACTOR
  2
AmdtInternalReactor
  3
AcMeServices
 90
        0
280
     0
281
     0
  0
CLASS
  1
ACMESTATEMGR
  2
AcMeStateMgr
  3
AcMeServices
 90
        0
280
     0
281
     0
  0
CLASS
  1
ACGREFMASTER
  2
AcGrefMaster
  3
AcAttribServices
 90
        0
280
     0
281
     0
  0
CLASS
  1
AM_DRAWING_MGR
  2
AcDmDwgMgr
  3
AcMechDwgViewMgmt
 90
        0
280
     0
281
     0
  0
CLASS
  1
AM_DWG_DOCUMENT
  2
AcDmDwgDocument
  3
AcMechDwgViewMgmt
 90
        0
280
     0
281
     0
  0
CLASS
  1
AM_DWG_SHEET
  2
AcDmSheet
  3
AcMechDwgViewMgmt
 90
        0
280
     0
281
     0
  0
CLASS
  1
AM_VIEWDIMPARMAP
  2
AcDmViewDimParMap
  3
AcMechDwgViewMgmt
 90
        0
280
     0
281
     0
  0
CLASS
  1
ACIMREALSYSVAR
  2
AcImRealSysVar
  3
AcMeServices
 90
        0
280
     0
281
     0
  0
CLASS
  1
AM_DWGMGR_NAME
  2
AcDmDwgMgrName
  3
AcMechDwgViewMgmt
 90
        0
280
     0
281
     0
  0
CLASS
  1
ACME_DATABASE
  2
AcMeDbDatabase
  3
AcMeServices
 90
        0
280
     0
281
     0
  0
CLASS
  1
ACRFINSADJUSTERMGR
  2
AcRfInsAdjusterMgr
  3
AcMeServices
 90
        0
280
     0
281
     0
  0
CLASS
  1
ACGREFACADMASTER
  2
AcGrefacadMaster
  3
AcGrefServices
 90
        0
280
     0
281
     0
  0
CLASS
  1
AMDTMENUSTATEMGR
  2
AmdtMenuStateMgr
  3
McadcomServices
 90
        0
280
     0
281
     0
  0
CLASS
  1
AMDTMCOMMENUSTATE
  2
AmdtMcomMenuState
  3
McadcomServices
 90
        0
280
     0
281
     0
  0
CLASS
  1
AMIMASTER
  2
AmiMaster
  3
AmiServices
 90
        0
280
     0
281
     0
  0
CLASS
  1
MAPIAMMOUDLE
  2
MApiAmModule
  3
MApiAmServices
 90
        0
280
     0
281
     0
  0
CLASS
  1
ACIMSTRSYSVAR
  2
AcImStrSysVar
  3
AcMeServices
 90
        0
280
     0
281
     0
  0
CLASS
  1
AMDTADMENUSTATE
  2
AmdtAdMenuState
  3
DesignerServices
 90
        0
280
     0
281
     0
  0
CLASS
  1
ADAPPL
  2
AcAdAppl
  3
DesignerServices
 90
        0
280
     0
281
     0
  0
CLASS
  1
DEPMGR
  2
AcAdDepMgr
  3
DesignerServices
 90
        0
280
     0
281
     0
  0
CLASS
  1
PARAMMGR
  2
AcAdParamMgr
  3
DesignerServices
 90
        0
280
     0
281
     0
  0
CLASS
  1
PARAMSCOPE
  2
AcAdParamScope
  3
DesignerServices
 90
        0
280
     0
281
     0
  0
CLASS
  1
NAMEDAPPL
  2
AcAdNamedAppl
  3
DesignerServices
 90
        0
280
     0
281
     0
  0
CLASS
  1
AMDTDMMENUSTATE
  2
AmdtDmMenuState
  3
AcMechDwgViewMgmt
 90
        0
280
     0
281
     0
  0
CLASS
  1
AMDTAMMENUSTATE
  2
AmdtAmMenuState
  3
DesignerAssemblies
 90
        0
280
     0
281
     0
  0
CLASS
  1
ACAMPROJECT
  2
AcAmProject
  3
DesignerAssemblies
 90
        0
280
     0
281
     0
  0
CLASS
  1
ACAMGRCOMPDEF
  2
AcAmGrCompDef
  3
DesignerAssemblies
 90
        0
280
     0
281
     0
  0
CLASS
  1
ACCMCONTEXT
  2
AcCmContext
  3
DesignerAssemblies
 90
        0
280
     0
281
     0
  0
CLASS
  1
ACAMCOMPDEF
  2
AcAmCompDef
  3
DesignerAssemblies
 90
        0
280
     0
281
     0
  0
CLASS
  1
ACAMCOMPDEFMGR
  2
AcAmCompDefMgr
  3
DesignerAssemblies
 90
        0
280
     0
281
     0
  0
CLASS
  1
AMCONTEXTMGR
  2
AcAmContextMgr
  3
DesignerAssemblies
 90
        0
280
     0
281
     0
  0
CLASS
  1
ACAMCONTEXTMODELER
  2
AcAmContextModeler
  3
DesignerAssemblies
 90
        0
280
     0
281
     0
  0
CLASS
  1
ACMDATADICTIONARY
  2
AcmDataDictionary
  3
"AcmSymBB|Product Description: AutoCAD Mechanical 2004 DX|Company: Autodesk"
 90
        0
280
     0
281
     0
  0
CLASS
  1
CATALOGSTATE
  2
AcAmCatalogState
  3
DesignerAssemblies
 90
        0
280
     0
281
     0
  0
CLASS
  1
ACAMGRCOMPDEFSET
  2
AcAmGrCompDefSet
  3
DesignerAssemblies
 90
        0
280
     0
281
     0
  0
CLASS
  1
AMDTBROWSERDBTAB
  2
AmdtBrowserDbTab
  3
McadcomServices
 90
        0
280
     0
281
     0
  0
CLASS
  1
CBROWSERAPPOBJECT
  2
CBrowserAppObject
  3
McadcomServices
 90
        0
280
     0
281
     0
  0
CLASS
  1
DM_PLACEHOLDER
  2
AcDmSelsetPlaceholder
  3
AcMechDwgViewMgmt
 90
        0
280
     0
281
     0
  0
CLASS
  1
ACMSTANDARDDIN
  2
AcmStandardDIN
  3
"Amdt_StdImp|Product Description: AutoCAD Mechanical 2004 DX|Company: Autodesk"
 90
        0
280
     0
281
     0
  0
CLASS
  1
AMGOBJPROPCFG
  2
AmgObjPropCfg
  3
"AmgLay|Product Description: AutoCAD Mechanical 2000|Company: Autodesk"
 90
        1
280
     0
281
     0
  0
CLASS
  1
AMDTEDGESTANDARDDIN13715
  2
AmdtEdgeStdDIN13715
  3
"Amdt_StdImp|Product Description: AutoCAD Mechanical 2004 DX|Company: Autodesk"
 90
        0
280
     0
281
     0
  0
CLASS
  1
ACMSURFSTANDARDDIN
  2
AcmSurfTextStdDIN
  3
"Amdt_StdImp|Product Description: AutoCAD Mechanical 2004 DX|Company: Autodesk"
 90
        0
280
     0
281
     0
  0
CLASS
  1
ACMFCFSTANDARDDIN
  2
AcmFCFStdDIN
  3
"Amdt_StdImp|Product Description: AutoCAD Mechanical 2004 DX|Company: Autodesk"
 90
        0
280
     0
281
     0
  0
CLASS
  1
ACMWELDSTANDARDDIN
  2
AcmWeldingStdDIN
  3
"Amdt_StdImp|Product Description: AutoCAD Mechanical 2004 DX|Company: Autodesk"
 90
        0
280
     0
281
     0
  0
CLASS
  1
ACMIDSTANDARDDIN
  2
AcmIdStdDIN
  3
"Amdt_StdImp|Product Description: AutoCAD Mechanical 2004 DX|Company: Autodesk"
 90
        0
280
     0
281
     0
  0
CLASS
  1
ACMDATUMSTANDARDDIN
  2
AcmDatumStdDIN
  3
"Amdt_StdImp|Product Description: AutoCAD Mechanical 2004 DX|Company: Autodesk"
 90
        0
280
     0
281
     0
  0
CLASS
  1
ACMBOMSTANDARDDIN
  2
AcmBOMStdDIN
  3
"Amdt_StdImp|Product Description: AutoCAD Mechanical 2004 DX|Company: Autodesk"
 90
        0
280
     0
281
     0
  0
CLASS
  1
ACMDETAILSTANDARDDIN
  2
AmdtDetailSymStdDIN
  3
"Amdt_StdImp|Product Description: AutoCAD Mechanical 2004 DX|Company: Autodesk"
 90
        0
280
     0
281
     0
  0
CLASS
  1
ACMSECTIONSTANDARDDIN
  2
AmdtSectionSymStdDIN
  3
"Amdt_StdImp|Product Description: AutoCAD Mechanical 2004 DX|Company: Autodesk"
 90
        0
280
     0
281
     0
  0
CLASS
  1
ACMCENTERLINESTANDARDDIN
  2
AmdtCenterLineStdDIN
  3
"Amdt_StdImp|Product Description: AutoCAD Mechanical 2004 DX|Company: Autodesk"
 90
        0
280
     0
281
     0
  0
CLASS
  1
ACMTHREADLINESTANDARDDIN
  2
AmdtThreadLineStdDIN
  3
"Amdt_StdImp|Product Description: AutoCAD Mechanical 2004 DX|Company: Autodesk"
 90
        0
280
     0
281
     0
  0
CLASS
  1
ACMNOTESTANDARDDIN
  2
AmdtNoteStdDIN
  3
"Amdt_StdImp|Product Description: AutoCAD Mechanical 2004 DX|Company: Autodesk"
 90
        0
280
     0
281
     0
  0
CLASS
  1
AMDTNOTETEMPLATEDB
  2
AmdtNoteTemplateDB
  3
AMDT_STDIMP_MODULE_NAME
 90
        0
280
     0
281
     0
  0
CLASS
  1
ACAMGLAYSTD
  2
AcAmgLayStd
  3
"AcAmgLayStd|Product Description: AutoCAD Mechanical 2000|Company: Autodesk"
 90
        0
280
     0
281
     0
  0
CLASS
  1
ACAMGDIMSTD
  2
AcAmgDimStd
  3
"AcAmgDimStd|Product Description: AutoCAD Mechanical 2000|Company: Autodesk"
 90
        0
280
     0
281
     0
  0
CLASS
  1
ACAMGHOLECHARTSTDDIN
  2
AcAmgHoleChartStdDIN
  3
ACMSYMBB_MODULE_NAME
 90
        0
280
     0
281
     0
  0
CLASS
  1
ACAMGTITLESTD
  2
AcAmgTitleStd
  3
"TITLEAPP"
 90
        0
280
     0
281
     0
  0
CLASS
  1
ACAMGFILTERDAT
  2
AcAmgFilterDat
  3
"AcadM|Product Description: AutoCAD Mechanical 2000|Company: Autodesk"
 90
        0
280
     0
281
     0
  0
CLASS
  1
SORTENTSTABLE
  2
AcDbSortentsTable
  3
ObjectDBX Classes
 90
        0
280
     0
281
     0
  0
CLASS
  1
DICTIONARYVAR
  2
AcDbDictionaryVar
  3
ObjectDBX Classes
 90
        0
280
     0
281
     0
  0
CLASS
  1
ACDBPLACEHOLDER
  2
AcDbPlaceHolder
  3
ObjectDBX Classes
 90
        0
280
     0
281
     0
  0
CLASS
  1
LAYOUT
  2
AcDbLayout
  3
ObjectDBX Classes
 90
        0
280
     0
281
     0
  0
ENDSEC
  0
SECTION
  2
TABLES
  0
TABLE
  2
VPORT
  5
12CD
330
0
100
AcDbSymbolTable
 70
     5
  0
VPORT
  5
15DD
330
12CD
100
AcDbSymbolTableRecord
100
AcDbViewportTableRecord
  2
*Active
 70
     0
 10
0.0
 20
0.0
 11
1.0
 21
1.0
 12
367.1859763820958
 22
362.2993491791413
 13
0.0
 23
0.0
 14
5.0
 24
5.0
 15
50.0
 25
50.0
 16
0.0
 26
0.0
 36
1.0
 17
0.0
 27
0.0
 37
0.0
 40
376.6634658386096
 41
1.494545454545454
 42
50.0
 43
0.0
 44
0.0
 50
0.0
 51
0.0
 71
     0
 72
  1000
 73
     1
 74
     1
 75
     0
 76
     0
 77
     0
 78
     0
281
     0
 65
     0
110
0.0
120
0.0
130
0.0
111
1.0
121
0.0
131
0.0
112
0.0
122
1.0
132
0.0
 79
     0
146
0.0
  0
ENDTAB
  0
TABLE
  2
LTYPE
  5
12CA
330
0
100
AcDbSymbolTable
 70
    15
  0
LTYPE
  5
12D7
330
12CA
100
AcDbSymbolTableRecord
100
AcDbLinetypeTableRecord
  2
BYBLOCK
 70
     0
  3

 72
    65
 73
     0
 40
0.0
  0
LTYPE
  5
12D8
330
12CA
100
AcDbSymbolTableRecord
100
AcDbLinetypeTableRecord
  2
BYLAYER
 70
     0
  3

 72
    65
 73
     0
 40
0.0
  0
LTYPE
  5
12D9
330
12CA
100
AcDbSymbolTableRecord
100
AcDbLinetypeTableRecord
  2
CONTINUOUS
 70
     0
  3
Solid line
 72
    65
 73
     0
 40
0.0
  0
LTYPE
  5
12E8
330
12CA
100
AcDbSymbolTableRecord
100
AcDbLinetypeTableRecord
  2
GEN7
 70
     0
  3
____ _ ____ _ ____ _ ____ _ ____ _ ____ _ ____ _ ____ _ ____ _
 72
    65
 73
     4
 40
22.0
 49
10.75
 74
     0
 49
-3.75
 74
     0
 49
3.75
 74
     0
 49
-3.75
 74
     0
  0
LTYPE
  5
14C6
330
12CA
100
AcDbSymbolTableRecord
100
AcDbLinetypeTableRecord
  2
HIDDEN
 70
     0
  3
Verdeckt
 72
    65
 73
     2
 40
9.525
 49
6.349999999999999
 74
     0
 49
-3.174999999999999
 74
     0
  0
LTYPE
  5
14C7
330
12CA
100
AcDbSymbolTableRecord
100
AcDbLinetypeTableRecord
  2
PHANTOM2
 70
     0
  3
Phantom (.5x) ___ _ _ ___ _ _ ___ _ _ ___ _ _
 72
    65
 73
     6
 40
31.75
 49
15.875
 74
     0
 49
-3.174999999999999
 74
     0
 49
3.174999999999999
 74
     0
 49
-3.174999999999999
 74
     0
 49
3.174999999999999
 74
     0
 49
-3.174999999999999
 74
     0
  0
LTYPE
  5
14C8
330
12CA
100
AcDbSymbolTableRecord
100
AcDbLinetypeTableRecord
  2
CENTER
 70
     0
  3
Mitte ____ _ ____ _ ____ _ ____ _ ____ _ ____
 72
    65
 73
     4
 40
50.8
 49
31.75
 74
     0
 49
-6.349999999999999
 74
     0
 49
6.349999999999999
 74
     0
 49
-6.349999999999999
 74
     0
  0
LTYPE
  5
14FF
330
12CA
100
AcDbSymbolTableRecord
100
AcDbLinetypeTableRecord
  2
Amconstr
 70
     0
  3
_______________________
 72
    65
 73
     2
 40
9999.0
 49
9999.0
 74
     0
 49
0.0
 74
     0
  0
LTYPE
  5
1504
330
12CA
100
AcDbSymbolTableRecord
100
AcDbLinetypeTableRecord
  2
Amzigzag
 70
     0
  3
/\/-/\/-/\/-/\/-/\/-/\/
 72
    65
 73
     2
 40
11.0001
 49
0.0001
 74
     4
 75
   136
340
1503
 46
0.04
 50
0.0
 44
0.0
 45
0.0
 49
-11.0
 74
     0
  0
LTYPE
  5
1505
330
12CA
100
AcDbSymbolTableRecord
100
AcDbLinetypeTableRecord
  2
AM_DIN_F_W050
 70
     0
  3
__ __ __ __ __ __ __ __ __ __ __ __ __ __ __
 72
    65
 73
     2
 40
6.25
 49
4.75
 74
     0
 49
-1.5
 74
     0
  0
LTYPE
  5
1506
330
12CA
100
AcDbSymbolTableRecord
100
AcDbLinetypeTableRecord
  2
AM_DIN_G_W050
 70
     0
  3
____ . ____ . ____ . ____ . ____ . ____ . ____
 72
    65
 73
     4
 40
13.75
 49
9.75
 74
     0
 49
-1.5
 74
     0
 49
1.0
 74
     0
 49
-1.5
 74
     0
  0
LTYPE
  5
1507
330
12CA
100
AcDbSymbolTableRecord
100
AcDbLinetypeTableRecord
  2
AM_DIN_K_W050
 70
     0
  3
_____ . . _____ . . _____ . . ____ .. ____
 72
    65
 73
     6
 40
16.25
 49
9.75
 74
     0
 49
-1.5
 74
     0
 49
1.0
 74
     0
 49
-1.5
 74
     0
 49
1.0
 74
     0
 49
-1.5
 74
     0
  0
LTYPE
  5
1508
330
12CA
100
AcDbSymbolTableRecord
100
AcDbLinetypeTableRecord
  2
AM_DIN_G_W050x2
 70
     0
  3
__ . __ . __ . __ . __ . __
 72
    65
 73
     4
 40
6.875
 49
4.75
 74
     0
 49
-0.875
 74
     0
 49
0.375
 74
     0
 49
-0.875
 74
     0
  0
LTYPE
  5
1509
330
12CA
100
AcDbSymbolTableRecord
100
AcDbLinetypeTableRecord
  2
AM_DIN_F_W050x2
 70
     0
  3
 _ _ _ _ _ _ _ _ _ _ _ _
 72
    65
 73
     2
 40
3.125
 49
2.25
 74
     0
 49
-0.875
 74
     0
  0
LTYPE
  5
1518
330
12CA
100
AcDbSymbolTableRecord
100
AcDbLinetypeTableRecord
  2
ACDINWELD
 70
     0
  3
_ _ _ _ _
 72
    65
 73
     2
 40
2.0
 49
2.0
 74
     0
 49
-1.0
 74
     0
  0
LTYPE
  5
1519
330
12CA
100
AcDbSymbolTableRecord
100
AcDbLinetypeTableRecord
  2
ACDINTGB
 70
     0
  3
__ . . __ . .
 72
    65
 73
     6
 40
9.0
 49
4.0
 74
     0
 49
-1.0
 74
     0
 49
1.0
 74
     0
 49
-1.0
 74
     0
 49
1.0
 74
     0
 49
-1.0
 74
     0
  0
LTYPE
  5
151A
330
12CA
100
AcDbSymbolTableRecord
100
AcDbLinetypeTableRecord
  2
ACDINTGL
 70
     0
  3
_ _ _ _ _
 72
    65
 73
     2
 40
3.0
 49
2.0
 74
     0
 49
-1.0
 74
     0
  0
ENDTAB
  0
TABLE
  2
LAYER
  5
12C7
102
{ACAD_XDICTIONARY
360
1583
102
}
330
0
100
AcDbSymbolTable
 70
     9
  0
LAYER
  5
12D3
330
12C7
100
AcDbSymbolTableRecord
100
AcDbLayerTableRecord
  2
0
 70
     0
 62
     7
  6
CONTINUOUS
370
    -3
390
148A
  0
LAYER
  5
12EE
330
12C7
100
AcDbSymbolTableRecord
100
AcDbLayerTableRecord
  2
4
 70
     0
 62
     3
  6
CONTINUOUS
370
    -3
390
148A
  0
LAYER
  5
12F0
330
12C7
100
AcDbSymbolTableRecord
100
AcDbLayerTableRecord
  2
5
 70
     0
 62
     3
  6
CONTINUOUS
370
    -3
390
148A
  0
LAYER
  5
12F2
330
12C7
100
AcDbSymbolTableRecord
100
AcDbLayerTableRecord
  2
7
 70
     0
 62
     4
  6
GEN7
370
    -3
390
148A
  0
LAYER
  5
12F3
330
12C7
100
AcDbSymbolTableRecord
100
AcDbLayerTableRecord
  2
8
 70
     0
 62
     1
  6
CONTINUOUS
370
    -3
390
148A
  0
LAYER
  5
12F4
330
12C7
100
AcDbSymbolTableRecord
100
AcDbLayerTableRecord
  2
PUNKTE
 70
     0
 62
     1
  6
CONTINUOUS
370
    -3
390
148A
  0
LAYER
  5
12F5
330
12C7
100
AcDbSymbolTableRecord
100
AcDbLayerTableRecord
  2
SCHRAFFUR_RAND
 70
     0
 62
    36
  6
CONTINUOUS
370
    -3
390
148A
  0
LAYER
  5
1323
330
12C7
100
AcDbSymbolTableRecord
100
AcDbLayerTableRecord
  2
DEFPOINTS
 70
     0
 62
     7
  6
CONTINUOUS
290
     0
370
    -3
390
148A
  0
LAYER
  5
1588
330
12C7
100
AcDbSymbolTableRecord
100
AcDbLayerTableRecord
  2
AM_8
 70
     0
 62
     1
  6
CONTINUOUS
370
    25
390
148A
1001
AcAecLayerStandard
1000

1000

  0
ENDTAB
  0
TABLE
  2
STYLE
  5
12C8
330
0
100
AcDbSymbolTable
 70
     4
  0
STYLE
  5
12D4
330
12C8
100
AcDbSymbolTableRecord
100
AcDbTextStyleTableRecord
  2
STANDARD
 70
     0
 40
0.0
 41
1.0
 50
0.0
 71
     0
 42
10.0
  3
ISOCP.SHX
  4

  0
STYLE
  5
1503
330
12C8
100
AcDbSymbolTableRecord
100
AcDbTextStyleTableRecord
  2

 70
     1
 40
0.0
 41
1.0
 50
0.0
 71
     0
 42
0.2
  3
genltshp.shx
  4

  0
STYLE
  5
150A
330
12C8
100
AcDbSymbolTableRecord
100
AcDbTextStyleTableRecord
  2
ACDINTS
 70
     0
 40
1.0
 41
1.0
 50
0.0
 71
     0
 42
0.2
  3
isocp.shx
  4

  0
STYLE
  5
1517
330
12C8
100
AcDbSymbolTableRecord
100
AcDbTextStyleTableRecord
  2
ACDINGDT
 70
     0
 40
0.0
 41
1.0
 50
0.0
 71
     0
 42
0.2
  3
AMGDT
  4

  0
ENDTAB
  0
TABLE
  2
VIEW
  5
12CB
330
0
100
AcDbSymbolTable
 70
     6
  0
VIEW
  5
1366
330
12CB
100
AcDbSymbolTableRecord
100
AcDbViewTableRecord
  2
GEN1
 70
     0
 40
525.0
 10
403.491903
 20
787.5
 41
806.983806
 11
0.0
 21
0.0
 31
1.0
 12
0.0
 22
0.0
 32
0.0
 42
50.0
 43
0.0
 44
0.0
 50
0.0
 71
     0
281
     0
 72
     0
  0
VIEW
  5
1367
330
12CB
100
AcDbSymbolTableRecord
100
AcDbViewTableRecord
  2
GEN2
 70
     0
 40
525.0
 10
646.508097
 20
787.5
 41
806.983806
 11
0.0
 21
0.0
 31
1.0
 12
0.0
 22
0.0
 32
0.0
 42
50.0
 43
0.0
 44
0.0
 50
0.0
 71
     0
281
     0
 72
     0
  0
VIEW
  5
1368
330
12CB
100
AcDbSymbolTableRecord
100
AcDbViewTableRecord
  2
GEN3
 70
     0
 40
525.0
 10
403.491903
 20
262.5
 41
806.983806
 11
0.0
 21
0.0
 31
1.0
 12
0.0
 22
0.0
 32
0.0
 42
50.0
 43
0.0
 44
0.0
 50
0.0
 71
     0
281
     0
 72
     0
  0
VIEW
  5
1369
330
12CB
100
AcDbSymbolTableRecord
100
AcDbViewTableRecord
  2
GEN4
 70
     0
 40
525.0
 10
646.508097
 20
262.5
 41
806.983806
 11
0.0
 21
0.0
 31
1.0
 12
0.0
 22
0.0
 32
0.0
 42
50.0
 43
0.0
 44
0.0
 50
0.0
 71
     0
281
     0
 72
     0
  0
VIEW
  5
136A
330
12CB
100
AcDbSymbolTableRecord
100
AcDbViewTableRecord
  2
GEN5
 70
     0
 40
525.0
 10
525.0
 20
525.0
 41
806.983806
 11
0.0
 21
0.0
 31
1.0
 12
0.0
 22
0.0
 32
0.0
 42
50.0
 43
0.0
 44
0.0
 50
0.0
 71
     0
281
     0
 72
     0
  0
VIEW
  5
136B
330
12CB
100
AcDbSymbolTableRecord
100
AcDbViewTableRecord
  2
GEN6
 70
     0
 40
1049.9895
 10
525.0
 20
525.0
 41
1613.951472
 11
0.0
 21
0.0
 31
1.0
 12
0.0
 22
0.0
 32
0.0
 42
50.0
 43
0.0
 44
0.0
 50
0.0
 71
     0
281
     0
 72
     0
  0
ENDTAB
  0
TABLE
  2
UCS
  5
12CC
330
0
100
AcDbSymbolTable
 70
     0
  0
ENDTAB
  0
TABLE
  2
APPID
  5
12CE
330
0
100
AcDbSymbolTable
 70
    40
  0
APPID
  5
12D5
330
12CE
100
AcDbSymbolTableRecord
100
AcDbRegAppTableRecord
  2
ACAD
 70
     0
  0
APPID
  5
1334
330
12CE
100
AcDbSymbolTableRecord
100
AcDbRegAppTableRecord
  2
GENIUS_GENCFG_13
 70
     0
1001
GENIUS_DUMCFG0_13
1000
DUM
1001
GENIUS_GENCFG0_13
1000
GEN@INFO_POS@XLATE
1001
GENIUS_GENCFG1_13
1000
GEN@INFO_POS
1001
GENIUS_GENCFG2_13
1000
GEN@LAYER@DEFS
1001
GENIUS_GENCFG3_13
1000
GEN@LAYER@ENTSORT
1001
GENIUS_GENCFG4_13
1000
GEN
1001
GENIUS_GEVCFG0_13
1000
GEV
  0
APPID
  5
1335
330
12CE
100
AcDbSymbolTableRecord
100
AcDbRegAppTableRecord
  2
GENIUS_DUMCFG0_13
 70
     0
1001
GENIUS_GENCFG_13
1071
925194455
1000
1335
1000
DUM
1070
     0
  0
APPID
  5
1336
330
12CE
100
AcDbSymbolTableRecord
100
AcDbRegAppTableRecord
  2
GENIUS_GENCFG0_13
 70
     0
1001
GENIUS_GENCFG_13
1071
1022849016
1000
1336
1000
GEN@INFO_POS@XLATE
1070
     7
1000
GenCfgObject
1000
GenCfgShort
1000
GenCfgReal
1000
GenCfgBool
1000
GenCfgString
1000
GenCfgDim
1000
GenCfgAttrInf
1000
INFOPOINTS
1070
     0
1002
{
1000
GENINF14
1070
     0
1002
{
1000
2GENINF
1070
     4
1000
2
1002
{
1002
}
1000
5GENINF
1070
     4
1000
5
1002
{
1002
}
1000
7GENINF
1070
     4
1000
7
1002
{
1002
}
1000
9GENINF
1070
     4
1000
9
1002
{
1002
}
1000
11GENINF
1070
     4
1000
11
1002
{
1002
}
1000
14GENINF
1070
     4
1000
14
1002
{
1002
}
1002
}
1000
GENINF13
1070
     0
1002
{
1000
2GENINF
1070
     4
1000
2
1002
{
1002
}
1000
3GENINF
1070
     4
1000
3
1002
{
1002
}
1000
4GENINF
1070
     4
1000
4
1002
{
1002
}
1000
5GENINF
1070
     4
1000
5
1002
{
1002
}
1000
6GENINF
1070
     4
1000
6
1002
{
1002
}
1000
7GENINF
1070
     4
1000
7
1002
{
1002
}
1000
8GENINF
1070
     4
1000
8
1002
{
1002
}
1000
9GENINF
1070
     4
1000
9
1002
{
1002
}
1000
10GENINF
1070
     4
1000
10
1002
{
1002
}
1000
11GENINF
1070
     4
1000
11
1002
{
1002
}
1000
12GENINF
1070
     4
1000
12
1002
{
1002
}
1000
13GENINF
1070
     4
1000
13
1002
{
1002
}
1000
14GENINF
1070
     4
1000
14
1002
{
1002
}
1000
15GENINF
1070
     4
1000
15
1002
{
1002
}
1000
16GENINF
1070
     4
1000
16
1002
{
1002
}
1000
17GENINF
1070
     4
1000
17
1002
{
1002
}
1000
18GENINF
1070
     4
1000
18
1002
{
1002
}
1000
19GENINF
1070
     4
1000
19
1002
{
1002
}
1000
20GENINF
1070
     4
1000
20
1002
{
1002
}
1000
21GENINF
1070
     4
1000
21
1002
{
1002
}
1000
22GENINF
1070
     4
1000
22
1002
{
1002
}
1000
23GENINF
1070
     4
1000
23
1002
{
1002
}
1000
24GENINF
1070
     4
1000
24
1002
{
1002
}
1000
0GENINF
1070
     4
1000
0
1002
{
1002
}
1002
}
1000
GENINFO
1070
     0
1002
{
1000
3GENINF
1070
     4
1000
3
1002
{
1002
}
1000
4GENINF
1070
     4
1000
4
1002
{
1002
}
1000
5GENINF
1070
     4
1000
5
1002
{
1002
}
1000
6GENINF
1070
     4
1000
6
1002
{
1002
}
1000
7GENINF
1070
     4
1000
7
1002
{
1002
}
1000
8GENINF
1070
     4
1000
8
1002
{
1002
}
1000
9GENINF
1070
     4
1000
9
1002
{
1002
}
1000
10GENINF
1070
     4
1000
10
1002
{
1002
}
1000
11GENINF
1070
     4
1000
11
1002
{
1002
}
1000
12GENINF
1070
     4
1000
12
1002
{
1002
}
1000
13GENINF
1070
     4
1000
13
1002
{
1002
}
1000
14GENINF
1070
     4
1000
14
1002
{
1002
}
1000
15GENINF
1070
     4
1000
15
1002
{
1002
}
1000
16GENINF
1070
     4
1000
16
1002
{
1002
}
1000
17GENINF
1070
     4
1000
17
1002
{
1002
}
1000
18GENINF
1070
     4
1000
18
1002
{
1002
}
1000
19GENINF
1070
     4
1000
19
1002
{
1002
}
1000
20GENINF
1070
     4
1000
20
1002
{
1002
}
1000
21GENINF
1070
     4
1000
21
1002
{
1002
}
1000
22GENINF
1070
     4
1000
22
1002
{
1002
}
1002
}
1000
DININFO
1070
     0
1002
{
1000
ST-NAME1
1070
     4
1000
5
1002
{
1002
}
1000
ST-NAME2
1070
     4
1000
6
1002
{
1002
}
1000
ST-NORM1
1070
     4
1000
7
1002
{
1002
}
1000
ST-NORM2
1070
     4
1000
8
1002
{
1002
}
1000
ST-MAT1
1070
     4
1000
9
1002
{
1002
}
1000
ST-MAT2
1070
     4
1000
10
1002
{
1002
}
1002
}
1002
}
1000
POS_NUMBERS
1070
     0
1002
{
1000
GENPOS14
1070
     0
1002
{
1000
1GENPOS
1070
     4
1000
1
1002
{
1002
}
1000
2GENPOS
1070
     4
1000
2
1002
{
1002
}
1000
5GENPOS
1070
     4
1000
5
1002
{
1002
}
1000
7GENPOS
1070
     4
1000
7
1002
{
1002
}
1000
9GENPOS
1070
     4
1000
9
1002
{
1002
}
1000
11GENPOS
1070
     4
1000
11
1002
{
1002
}
1000
14GENPOS
1070
     4
1000
14
1002
{
1002
}
1002
}
1000
GENPOS13
1070
     0
1002
{
1000
1GENPOS
1070
     4
1000
1
1002
{
1002
}
1000
2GENPOS
1070
     4
1000
2
1002
{
1002
}
1000
3GENPOS
1070
     4
1000
3
1002
{
1002
}
1000
4GENPOS
1070
     4
1000
4
1002
{
1002
}
1000
5GENPOS
1070
     4
1000
5
1002
{
1002
}
1000
6GENPOS
1070
     4
1000
6
1002
{
1002
}
1000
7GENPOS
1070
     4
1000
7
1002
{
1002
}
1000
8GENPOS
1070
     4
1000
8
1002
{
1002
}
1000
9GENPOS
1070
     4
1000
9
1002
{
1002
}
1000
10GENPOS
1070
     4
1000
10
1002
{
1002
}
1000
11GENPOS
1070
     4
1000
11
1002
{
1002
}
1000
12GENPOS
1070
     4
1000
12
1002
{
1002
}
1000
13GENPOS
1070
     4
1000
13
1002
{
1002
}
1000
14GENPOS
1070
     4
1000
14
1002
{
1002
}
1000
15GENPOS
1070
     4
1000
15
1002
{
1002
}
1000
16GENPOS
1070
     4
1000
16
1002
{
1002
}
1000
17GENPOS
1070
     4
1000
17
1002
{
1002
}
1000
18GENPOS
1070
     4
1000
18
1002
{
1002
}
1000
19GENPOS
1070
     4
1000
19
1002
{
1002
}
1000
20GENPOS
1070
     4
1000
20
1002
{
1002
}
1000
21GENPOS
1070
     4
1000
21
1002
{
1002
}
1000
22GENPOS
1070
     4
1000
22
1002
{
1002
}
1000
23GENPOS
1070
     4
1000
23
1002
{
1002
}
1000
24GENPOS
1070
     4
1000
24
1002
{
1002
}
1000
0GENPOS
1070
     4
1000
0
1002
{
1002
}
1002
}
1000
GENPOS
1070
     0
1002
{
1000
1GENPOS
1070
     4
1000
1
1002
{
1002
}
1000
2GENPOS
1070
     4
1000
2
1002
{
1002
}
1000
3GENPOS
1070
     4
1000
3
1002
{
1002
}
1000
4GENPOS
1070
     4
1000
4
1002
{
1002
}
1000
5GENPOS
1070
     4
1000
5
1002
{
1002
}
1000
6GENPOS
1070
     4
1000
6
1002
{
1002
}
1000
7GENPOS
1070
     4
1000
7
1002
{
1002
}
1000
8GENPOS
1070
     4
1000
8
1002
{
1002
}
1000
9GENPOS
1070
     4
1000
9
1002
{
1002
}
1000
10GENPOS
1070
     4
1000
10
1002
{
1002
}
1000
11GENPOS
1070
     4
1000
11
1002
{
1002
}
1000
12GENPOS
1070
     4
1000
12
1002
{
1002
}
1000
13GENPOS
1070
     4
1000
13
1002
{
1002
}
1000
14GENPOS
1070
     4
1000
14
1002
{
1002
}
1000
15GENPOS
1070
     4
1000
15
1002
{
1002
}
1000
16GENPOS
1070
     4
1000
16
1002
{
1002
}
1000
17GENPOS
1070
     4
1000
17
1002
{
1002
}
1000
18GENPOS
1070
     4
1000
18
1002
{
1002
}
1000
19GENPOS
1070
     4
1000
19
1002
{
1002
}
1000
20GENPOS
1070
     4
1000
20
1002
{
1002
}
1000
21GENPOS
1070
     4
1000
21
1002
{
1002
}
1000
22GENPOS
1070
     4
1000
22
1002
{
1002
}
1000
23GENPOS
1070
     4
1000
23
1002
{
1002
}
1002
}
1000
DIN985
1070
     0
1002
{
1000
POSITION
1070
     4
1000
1
1002
{
1002
}
1000
MENGE
1070
     4
1000
2
1002
{
1002
}
1000
BLATT
1070
     4
1000
3
1002
{
1002
}
1000
BENENN
1070
     4
1000
5
1002
{
1002
}
1000
BENENN2
1070
     4
1000
6
1002
{
1002
}
1000
NORM
1070
     4
1000
7
1002
{
1002
}
1000
NORM2
1070
     4
1000
8
1002
{
1002
}
1000
WERKSTOFF
1070
     4
1000
9
1002
{
1002
}
1000
WERKSTOFF2
1070
     4
1000
10
1002
{
1002
}
1002
}
1000
DIN986
1070
     0
1002
{
1000
POSITION
1070
     4
1000
1
1002
{
1002
}
1000
MENGE
1070
     4
1000
2
1002
{
1002
}
1000
BLATT
1070
     4
1000
3
1002
{
1002
}
1000
BENENN
1070
     4
1000
5
1002
{
1002
}
1000
BENENN2
1070
     4
1000
6
1002
{
1002
}
1000
NORM
1070
     4
1000
7
1002
{
1002
}
1000
NORM2
1070
     4
1000
8
1002
{
1002
}
1000
WERKSTOFF
1070
     4
1000
9
1002
{
1002
}
1000
WERKSTOFF2
1070
     4
1000
10
1002
{
1002
}
1002
}
1000
DIN987
1070
     0
1002
{
1000
POSITION
1070
     4
1000
1
1002
{
1002
}
1000
MENGE
1070
     4
1000
2
1002
{
1002
}
1000
BLATT
1070
     4
1000
3
1002
{
1002
}
1000
BENENN
1070
     4
1000
5
1002
{
1002
}
1000
BENENN2
1070
     4
1000
6
1002
{
1002
}
1000
NORM
1070
     4
1000
7
1002
{
1002
}
1000
NORM2
1070
     4
1000
8
1002
{
1002
}
1000
WERKSTOFF
1070
     4
1000
9
1002
{
1002
}
1000
WERKSTOFF2
1070
     4
1000
10
1002
{
1002
}
1002
}
1002
}
  0
APPID
  5
1337
330
12CE
100
AcDbSymbolTableRecord
100
AcDbRegAppTableRecord
  2
GENIUS_GENCFG1_13
 70
     0
1001
GENIUS_GENCFG_13
1071
1022849016
1000
1337
1000
GEN@INFO_POS
1070
     7
1000
GenCfgObject
1000
GenCfgShort
1000
GenCfgReal
1000
GenCfgBool
1000
GenCfgString
1000
GenCfgDim
1000
GenCfgAttrInf
1000
DescrText
1070
     4
1000
5, ,6, ,7, ,8
1002
{
1002
}
1000
DescrText2
1070
     4
1000
26
1002
{
1002
}
1000
VisibleAttr1
1070
     4
1000
1
1002
{
1002
}
1000
VisibleAttr2
1070
     4
1000
26
1002
{
1002
}
1000
UpdateBlock
1070
     3
1070
     1
1002
{
1002
}
1000
Attrib
1070
     0
1002
{
1000
0
1070
     6
1002
{
1000
Prompt
1070
     4
1000
(genmsg gendwg 103)
1002
{
1002
}
1000
Value
1070
     4
1000

1002
{
1002
}
1000
EditFlag
1070
     1
1070
     0
1002
{
1002
}
1000
PosInDDATTE
1070
     1
1070
    27
1002
{
1002
}
1000
FieldLen
1070
     1
1070
    -1
1002
{
1002
}
1002
}
1000
1
1070
     6
1002
{
1000
Prompt
1070
     4
1000
(genmsg gendwg 31)
1002
{
1002
}
1000
Value
1070
     4
1000
1
1002
{
1002
}
1000
EditFlag
1070
     1
1070
     1
1002
{
1002
}
1000
PosInDDATTE
1070
     1
1070
     1
1002
{
1002
}
1000
FieldLen
1070
     1
1070
    -1
1002
{
1002
}
1002
}
1000
2
1070
     6
1002
{
1000
Prompt
1070
     4
1000
(genmsg gendwg 32)
1002
{
1002
}
1000
Value
1070
     4
1000
1
1002
{
1002
}
1000
EditFlag
1070
     1
1070
     1
1002
{
1002
}
1000
PosInDDATTE
1070
     1
1070
     2
1002
{
1002
}
1000
FieldLen
1070
     1
1070
    -1
1002
{
1002
}
1002
}
1000
3
1070
     6
1002
{
1000
Prompt
1070
     4
1000
(genmsg gendwg 33)
1002
{
1002
}
1000
Value
1070
     4
1000

1002
{
1002
}
1000
EditFlag
1070
     1
1070
     1
1002
{
1002
}
1000
PosInDDATTE
1070
     1
1070
     3
1002
{
1002
}
1000
FieldLen
1070
     1
1070
    -1
1002
{
1002
}
1002
}
1000
4
1070
     6
1002
{
1000
Prompt
1070
     4
1000
(genmsg gendwg 34)
1002
{
1002
}
1000
Value
1070
     4
1000

1002
{
1002
}
1000
EditFlag
1070
     1
1070
     1
1002
{
1002
}
1000
PosInDDATTE
1070
     1
1070
     4
1002
{
1002
}
1000
FieldLen
1070
     1
1070
    -1
1002
{
1002
}
1002
}
1000
5
1070
     6
1002
{
1000
Prompt
1070
     4
1000
(genmsg gendwg 35)
1002
{
1002
}
1000
Value
1070
     4
1000

1002
{
1002
}
1000
EditFlag
1070
     1
1070
     1
1002
{
1002
}
1000
PosInDDATTE
1070
     1
1070
     5
1002
{
1002
}
1000
FieldLen
1070
     1
1070
    -1
1002
{
1002
}
1002
}
1000
6
1070
     6
1002
{
1000
Prompt
1070
     4
1000
(genmsg gendwg 36)
1002
{
1002
}
1000
Value
1070
     4
1000

1002
{
1002
}
1000
EditFlag
1070
     1
1070
     1
1002
{
1002
}
1000
PosInDDATTE
1070
     1
1070
     6
1002
{
1002
}
1000
FieldLen
1070
     1
1070
    -1
1002
{
1002
}
1002
}
1000
7
1070
     6
1002
{
1000
Prompt
1070
     4
1000
(genmsg gendwg 37)
1002
{
1002
}
1000
Value
1070
     4
1000

1002
{
1002
}
1000
EditFlag
1070
     1
1070
     1
1002
{
1002
}
1000
PosInDDATTE
1070
     1
1070
     7
1002
{
1002
}
1000
FieldLen
1070
     1
1070
    -1
1002
{
1002
}
1002
}
1000
8
1070
     6
1002
{
1000
Prompt
1070
     4
1000
(genmsg gendwg 38)
1002
{
1002
}
1000
Value
1070
     4
1000

1002
{
1002
}
1000
EditFlag
1070
     1
1070
     1
1002
{
1002
}
1000
PosInDDATTE
1070
     1
1070
     8
1002
{
1002
}
1000
FieldLen
1070
     1
1070
    -1
1002
{
1002
}
1002
}
1000
9
1070
     6
1002
{
1000
Prompt
1070
     4
1000
(genmsg gendwg 39)
1002
{
1002
}
1000
Value
1070
     4
1000

1002
{
1002
}
1000
EditFlag
1070
     1
1070
     1
1002
{
1002
}
1000
PosInDDATTE
1070
     1
1070
     9
1002
{
1002
}
1000
FieldLen
1070
     1
1070
    -1
1002
{
1002
}
1002
}
1000
10
1070
     6
1002
{
1000
Prompt
1070
     4
1000
(genmsg gendwg 40)
1002
{
1002
}
1000
Value
1070
     4
1000

1002
{
1002
}
1000
EditFlag
1070
     1
1070
     1
1002
{
1002
}
1000
PosInDDATTE
1070
     1
1070
    10
1002
{
1002
}
1000
FieldLen
1070
     1
1070
    -1
1002
{
1002
}
1002
}
1000
11
1070
     6
1002
{
1000
Prompt
1070
     4
1000
(genmsg gendwg 41)
1002
{
1002
}
1000
Value
1070
     4
1000

1002
{
1002
}
1000
EditFlag
1070
     1
1070
     1
1002
{
1002
}
1000
PosInDDATTE
1070
     1
1070
    11
1002
{
1002
}
1000
FieldLen
1070
     1
1070
    -1
1002
{
1002
}
1002
}
1000
12
1070
     6
1002
{
1000
Prompt
1070
     4
1000
(genmsg gendwg 42)
1002
{
1002
}
1000
Value
1070
     4
1000

1002
{
1002
}
1000
EditFlag
1070
     1
1070
     1
1002
{
1002
}
1000
PosInDDATTE
1070
     1
1070
    12
1002
{
1002
}
1000
FieldLen
1070
     1
1070
    -1
1002
{
1002
}
1002
}
1000
13
1070
     6
1002
{
1000
Prompt
1070
     4
1000
(genmsg gendwg 43)
1002
{
1002
}
1000
Value
1070
     4
1000

1002
{
1002
}
1000
EditFlag
1070
     1
1070
     1
1002
{
1002
}
1000
PosInDDATTE
1070
     1
1070
    13
1002
{
1002
}
1000
FieldLen
1070
     1
1070
    -1
1002
{
1002
}
1002
}
1000
14
1070
     6
1002
{
1000
Prompt
1070
     4
1000
(genmsg gendwg 44)
1002
{
1002
}
1000
Value
1070
     4
1000

1002
{
1002
}
1000
EditFlag
1070
     1
1070
     1
1002
{
1002
}
1000
PosInDDATTE
1070
     1
1070
    14
1002
{
1002
}
1000
FieldLen
1070
     1
1070
    -1
1002
{
1002
}
1002
}
1000
15
1070
     6
1002
{
1000
Prompt
1070
     4
1000
(genmsg gendwg 45)
1002
{
1002
}
1000
Value
1070
     4
1000

1002
{
1002
}
1000
EditFlag
1070
     1
1070
     1
1002
{
1002
}
1000
PosInDDATTE
1070
     1
1070
    15
1002
{
1002
}
1000
FieldLen
1070
     1
1070
    -1
1002
{
1002
}
1002
}
1000
16
1070
     6
1002
{
1000
Prompt
1070
     4
1000
(genmsg gendwg 46)
1002
{
1002
}
1000
Value
1070
     4
1000

1002
{
1002
}
1000
EditFlag
1070
     1
1070
     1
1002
{
1002
}
1000
PosInDDATTE
1070
     1
1070
    16
1002
{
1002
}
1000
FieldLen
1070
     1
1070
    -1
1002
{
1002
}
1002
}
1000
17
1070
     6
1002
{
1000
Prompt
1070
     4
1000
(genmsg gendwg 47)
1002
{
1002
}
1000
Value
1070
     4
1000

1002
{
1002
}
1000
EditFlag
1070
     1
1070
     1
1002
{
1002
}
1000
PosInDDATTE
1070
     1
1070
    17
1002
{
1002
}
1000
FieldLen
1070
     1
1070
    -1
1002
{
1002
}
1002
}
1000
18
1070
     6
1002
{
1000
Prompt
1070
     4
1000
(genmsg gendwg 48)
1002
{
1002
}
1000
Value
1070
     4
1000

1002
{
1002
}
1000
EditFlag
1070
     1
1070
     1
1002
{
1002
}
1000
PosInDDATTE
1070
     1
1070
    18
1002
{
1002
}
1000
FieldLen
1070
     1
1070
    -1
1002
{
1002
}
1002
}
1000
19
1070
     6
1002
{
1000
Prompt
1070
     4
1000
(genmsg gendwg 99)
1002
{
1002
}
1000
Value
1070
     4
1000

1002
{
1002
}
1000
EditFlag
1070
     1
1070
     1
1002
{
1002
}
1000
PosInDDATTE
1070
     1
1070
    19
1002
{
1002
}
1000
FieldLen
1070
     1
1070
    -1
1002
{
1002
}
1002
}
1000
20
1070
     6
1002
{
1000
Prompt
1070
     4
1000
(genmsg gendwg 100)
1002
{
1002
}
1000
Value
1070
     4
1000

1002
{
1002
}
1000
EditFlag
1070
     1
1070
     1
1002
{
1002
}
1000
PosInDDATTE
1070
     1
1070
    20
1002
{
1002
}
1000
FieldLen
1070
     1
1070
    -1
1002
{
1002
}
1002
}
1000
21
1070
     6
1002
{
1000
Prompt
1070
     4
1000
(genmsg gendwg 101)
1002
{
1002
}
1000
Value
1070
     4
1000

1002
{
1002
}
1000
EditFlag
1070
     1
1070
     1
1002
{
1002
}
1000
PosInDDATTE
1070
     1
1070
    21
1002
{
1002
}
1000
FieldLen
1070
     1
1070
    -1
1002
{
1002
}
1002
}
1000
22
1070
     6
1002
{
1000
Prompt
1070
     4
1000
(genmsg gendwg 102)
1002
{
1002
}
1000
Value
1070
     4
1000

1002
{
1002
}
1000
EditFlag
1070
     1
1070
     1
1002
{
1002
}
1000
PosInDDATTE
1070
     1
1070
    22
1002
{
1002
}
1000
FieldLen
1070
     1
1070
    -1
1002
{
1002
}
1002
}
1000
23
1070
     6
1002
{
1000
Prompt
1070
     4
1000
(genmsg gendwg 30)
1002
{
1002
}
1000
Value
1070
     4
1000

1002
{
1002
}
1000
EditFlag
1070
     1
1070
     1
1002
{
1002
}
1000
PosInDDATTE
1070
     1
1070
    23
1002
{
1002
}
1000
FieldLen
1070
     1
1070
    -1
1002
{
1002
}
1002
}
1000
24
1070
     6
1002
{
1000
Prompt
1070
     4
1000
(genmsg gendwg 104)
1002
{
1002
}
1000
Value
1070
     4
1000

1002
{
1002
}
1000
EditFlag
1070
     1
1070
     1
1002
{
1002
}
1000
PosInDDATTE
1070
     1
1070
    24
1002
{
1002
}
1000
FieldLen
1070
     1
1070
    -1
1002
{
1002
}
1002
}
1000
25
1070
     6
1002
{
1000
Prompt
1070
     4
1000
(genmsg gendwg 105)
1002
{
1002
}
1000
Value
1070
     4
1000

1002
{
1002
}
1000
EditFlag
1070
     1
1070
     1
1002
{
1002
}
1000
PosInDDATTE
1070
     1
1070
    25
1002
{
1002
}
1000
FieldLen
1070
     1
1070
    -1
1002
{
1002
}
1002
}
1000
26
1070
     6
1002
{
1000
Prompt
1070
     4
1000
(genmsg gendwg 106)
1002
{
1002
}
1000
Value
1070
     4
1000

1002
{
1002
}
1000
EditFlag
1070
     1
1070
     1
1002
{
1002
}
1000
PosInDDATTE
1070
     1
1070
    26
1002
{
1002
}
1000
FieldLen
1070
     1
1070
    -1
1002
{
1002
}
1002
}
1000
27
1070
     6
1002
{
1000
Prompt
1070
     4
1000
(genmsg gendwg 109)
1002
{
1002
}
1000
Value
1070
     4
1000

1002
{
1002
}
1000
EditFlag
1070
     1
1070
     2
1002
{
1002
}
1000
PosInDDATTE
1070
     1
1070
    27
1002
{
1002
}
1000
FieldLen
1070
     1
1070
    -1
1002
{
1002
}
1002
}
1002
}
1000
Xlate
1070
     0
1002
{
1000
>
1002
}
  0
APPID
  5
1338
330
12CE
100
AcDbSymbolTableRecord
100
AcDbRegAppTableRecord
  2
GENIUS_GENCFG2_13
 70
     0
1001
GENIUS_GENCFG_13
1071
1022849016
1000
1338
1000
GEN@LAYER@DEFS
1070
     9
1000
GenCfgObject
1000
GenCfgShort
1000
GenCfgReal
1000
GenCfgBool
1000
GenCfgString
1000
GenCfgDim
1000
GenCfgAttrInf
1000
GenCfgLaySection
1000
GenCfgLayer
1000
Basic
1070
     0
1002
{
1000
0
1070
     8
1000
0
1002
{
1000
Color
1070
     1
1070
     7
1002
{
1002
}
1000
LType
1070
     4
1000
CONTINUOUS
1002
{
1002
}
1000
Base
1070
     3
1070
     0
1002
{
1002
}
1002
}
1000
1
1070
     8
1000
1
1002
{
1000
Color
1070
     1
1070
    14
1002
{
1002
}
1000
LType
1070
     4
1000
CONTINUOUS
1002
{
1002
}
1000
Base
1070
     3
1070
     0
1002
{
1002
}
1002
}
1000
2
1070
     8
1000
2
1002
{
1000
Color
1070
     1
1070
     5
1002
{
1002
}
1000
LType
1070
     4
1000
CONTINUOUS
1002
{
1002
}
1000
Base
1070
     3
1070
     0
1002
{
1002
}
1002
}
1000
3
1070
     8
1000
3
1002
{
1000
Color
1070
     1
1070
     6
1002
{
1002
}
1000
LType
1070
     4
1000
GEN3
1002
{
1002
}
1000
Base
1070
     3
1070
     0
1002
{
1002
}
1002
}
1000
4
1070
     8
1000
4
1002
{
1000
Color
1070
     1
1070
     3
1002
{
1002
}
1000
LType
1070
     4
1000
CONTINUOUS
1002
{
1002
}
1000
Base
1070
     3
1070
     0
1002
{
1002
}
1002
}
1000
5
1070
     8
1000
5
1002
{
1000
Color
1070
     1
1070
     3
1002
{
1002
}
1000
LType
1070
     4
1000
CONTINUOUS
1002
{
1002
}
1000
Base
1070
     3
1070
     0
1002
{
1002
}
1002
}
1000
6
1070
     8
1000
6
1002
{
1000
Color
1070
     1
1070
     2
1002
{
1002
}
1000
LType
1070
     4
1000
CONTINUOUS
1002
{
1002
}
1000
Base
1070
     3
1070
     0
1002
{
1002
}
1002
}
1000
7
1070
     8
1000
7
1002
{
1000
Color
1070
     1
1070
     4
1002
{
1002
}
1000
LType
1070
     4
1000
GEN7
1002
{
1002
}
1000
Base
1070
     3
1070
     0
1002
{
1002
}
1002
}
1000
8
1070
     8
1000
8
1002
{
1000
Color
1070
     1
1070
     1
1002
{
1002
}
1000
LType
1070
     4
1000
CONTINUOUS
1002
{
1002
}
1000
Base
1070
     3
1070
     0
1002
{
1002
}
1002
}
1000
3A
1070
     8
1000
3A
1002
{
1000
Color
1070
     1
1070
     6
1002
{
1002
}
1000
LType
1070
     4
1000
GEN3A
1002
{
1002
}
1000
Base
1070
     3
1070
     0
1002
{
1002
}
1002
}
1000
7A
1070
     8
1000
7A
1002
{
1000
Color
1070
     1
1070
     4
1002
{
1002
}
1000
LType
1070
     4
1000
GEN7A
1002
{
1002
}
1000
Base
1070
     3
1070
     0
1002
{
1002
}
1002
}
1000
2A
1070
     8
1000
2A
1002
{
1000
Color
1070
     1
1070
     7
1002
{
1002
}
1000
LType
1070
     4
1000
GEN7
1002
{
1002
}
1000
Base
1070
     3
1070
     0
1002
{
1002
}
1002
}
1000
4A
1070
     8
1000
4A
1002
{
1000
Color
1070
     1
1070
     3
1002
{
1002
}
1000
LType
1070
     4
1000
GEN4A
1002
{
1002
}
1000
Base
1070
     3
1070
     0
1002
{
1002
}
1002
}
1000
9
1070
     8
1000
9
1002
{
1000
Color
1070
     1
1070
   253
1002
{
1002
}
1000
LType
1070
     4
1000
CONTINUOUS
1002
{
1002
}
1000
Base
1070
     3
1070
     0
1002
{
1002
}
1002
}
1000
IP
1070
     8
1000
IP
1002
{
1000
Color
1070
     1
1070
     7
1002
{
1002
}
1000
LType
1070
     4
1000
CONTINUOUS
1002
{
1002
}
1000
Base
1070
     3
1070
     0
1002
{
1002
}
1002
}
1002
}
1000
Standard
1070
     0
1002
{
1000
0N
1070
     8
1000
0N
1002
{
1000
Color
1070
     1
1070
     7
1002
{
1002
}
1000
LType
1070
     4
1000
CONTINUOUS
1002
{
1002
}
1000
Base
1070
     3
1070
     0
1002
{
1002
}
1002
}
1000
1N
1070
     8
1000
1N
1002
{
1000
Color
1070
     1
1070
    14
1002
{
1002
}
1000
LType
1070
     4
1000
CONTINUOUS
1002
{
1002
}
1000
Base
1070
     3
1070
     0
1002
{
1002
}
1002
}
1000
2N
1070
     8
1000
2N
1002
{
1000
Color
1070
     1
1070
     5
1002
{
1002
}
1000
LType
1070
     4
1000
CONTINUOUS
1002
{
1002
}
1000
Base
1070
     3
1070
     0
1002
{
1002
}
1002
}
1000
3N
1070
     8
1000
3N
1002
{
1000
Color
1070
     1
1070
     6
1002
{
1002
}
1000
LType
1070
     4
1000
GEN3
1002
{
1002
}
1000
Base
1070
     3
1070
     0
1002
{
1002
}
1002
}
1000
4N
1070
     8
1000
4N
1002
{
1000
Color
1070
     1
1070
     3
1002
{
1002
}
1000
LType
1070
     4
1000
CONTINUOUS
1002
{
1002
}
1000
Base
1070
     3
1070
     0
1002
{
1002
}
1002
}
1000
5N
1070
     8
1000
5N
1002
{
1000
Color
1070
     1
1070
     3
1002
{
1002
}
1000
LType
1070
     4
1000
CONTINUOUS
1002
{
1002
}
1000
Base
1070
     3
1070
     0
1002
{
1002
}
1002
}
1000
6N
1070
     8
1000
6N
1002
{
1000
Color
1070
     1
1070
     2
1002
{
1002
}
1000
LType
1070
     4
1000
CONTINUOUS
1002
{
1002
}
1000
Base
1070
     3
1070
     0
1002
{
1002
}
1002
}
1000
7N
1070
     8
1000
7N
1002
{
1000
Color
1070
     1
1070
     4
1002
{
1002
}
1000
LType
1070
     4
1000
GEN7
1002
{
1002
}
1000
Base
1070
     3
1070
     0
1002
{
1002
}
1002
}
1000
8N
1070
     8
1000
8N
1002
{
1000
Color
1070
     1
1070
     1
1002
{
1002
}
1000
LType
1070
     4
1000
CONTINUOUS
1002
{
1002
}
1000
Base
1070
     3
1070
     0
1002
{
1002
}
1002
}
1000
3AN
1070
     8
1000
3AN
1002
{
1000
Color
1070
     1
1070
     6
1002
{
1002
}
1000
LType
1070
     4
1000
GEN3A
1002
{
1002
}
1000
Base
1070
     3
1070
     0
1002
{
1002
}
1002
}
1000
7AN
1070
     8
1000
7AN
1002
{
1000
Color
1070
     1
1070
     4
1002
{
1002
}
1000
LType
1070
     4
1000
GEN7A
1002
{
1002
}
1000
Base
1070
     3
1070
     0
1002
{
1002
}
1002
}
1000
2AN
1070
     8
1000
2AN
1002
{
1000
Color
1070
     1
1070
     7
1002
{
1002
}
1000
LType
1070
     4
1000
GEN7
1002
{
1002
}
1000
Base
1070
     3
1070
     0
1002
{
1002
}
1002
}
1000
4AN
1070
     8
1000
4AN
1002
{
1000
Color
1070
     1
1070
     3
1002
{
1002
}
1000
LType
1070
     4
1000
GEN4A
1002
{
1002
}
1000
Base
1070
     3
1070
     0
1002
{
1002
}
1002
}
1000
9N
1070
     8
1000
9N
1002
{
1000
Color
1070
     1
1070
   253
1002
{
1002
}
1000
LType
1070
     4
1000
CONTINUOUS
1002
{
1002
}
1000
Base
1070
     3
1070
     0
1002
{
1002
}
1002
}
1000
IPN
1070
     8
1000
IPN
1002
{
1000
Color
1070
     1
1070
     7
1002
{
1002
}
1000
LType
1070
     4
1000
CONTINUOUS
1002
{
1002
}
1000
Base
1070
     3
1070
     0
1002
{
1002
}
1002
}
1002
}
1000
Extra
1070
     0
1002
{
1000
Klin
1070
     8
1000
KLIN
1002
{
1000
Color
1070
     1
1070
     1
1002
{
1002
}
1000
LType
1070
     4
1000
CONTINUOUS
1002
{
1002
}
1000
Base
1070
     3
1070
     1
1002
{
1002
}
1002
}
1000
Info
1070
     8
1000
INFO
1002
{
1000
Color
1070
     1
1070
     4
1002
{
1002
}
1000
LType
1070
     4
1000
CONTINUOUS
1002
{
1002
}
1000
Base
1070
     3
1070
     1
1002
{
1002
}
1002
}
1000
Rahm2
1070
     8
1000
RAHM2
1002
{
1000
Color
1070
     1
1070
     1
1002
{
1002
}
1000
LType
1070
     4
1000
CONTINUOUS
1002
{
1002
}
1000
Base
1070
     3
1070
     1
1002
{
1002
}
1002
}
1000
Rahm3
1070
     8
1000
RAHM3
1002
{
1000
Color
1070
     1
1070
     2
1002
{
1002
}
1000
LType
1070
     4
1000
CONTINUOUS
1002
{
1002
}
1000
Base
1070
     3
1070
     1
1002
{
1002
}
1002
}
1000
Rahm5
1070
     8
1000
RAHM5
1002
{
1000
Color
1070
     1
1070
     7
1002
{
1002
}
1000
LType
1070
     4
1000
CONTINUOUS
1002
{
1002
}
1000
Base
1070
     3
1070
     1
1002
{
1002
}
1002
}
1000
View
1070
     8
1000
VIEW
1002
{
1000
Color
1070
     1
1070
     1
1002
{
1002
}
1000
LType
1070
     4
1000
CONTINUOUS
1002
{
1002
}
1000
Base
1070
     3
1070
     1
1002
{
1002
}
1002
}
1000
Behind
1070
     8
1000
BEHIND
1002
{
1000
Color
1070
     1
1070
   253
1002
{
1002
}
1000
LType
1070
     4
1000
CONTINUOUS
1002
{
1002
}
1000
Base
1070
     3
1070
     1
1002
{
1002
}
1002
}
1002
}
  0
APPID
  5
1339
330
12CE
100
AcDbSymbolTableRecord
100
AcDbRegAppTableRecord
  2
GENIUS_GENCFG3_13
 70
     0
1001
GENIUS_GENCFG_13
1071
1022849016
1000
1339
1000
GEN@LAYER@ENTSORT
1070
    10
1000
GenCfgObject
1000
GenCfgShort
1000
GenCfgReal
1000
GenCfgBool
1000
GenCfgString
1000
GenCfgDim
1000
GenCfgAttrInf
1000
GenCfgLaySection
1000
GenCfgLayer
1000
GenCfgEntSort
1000
ADDL
1070
     9
1000
5
1002
{
1000
Class
1070
     4
1000
SYM
1002
{
1002
}
1000
Color
1070
     1
1070
     1
1002
{
1002
}
1000
LType
1070
     4
1000
BYLAYER
1002
{
1002
}
1002
}
1000
ALTR
1070
     9
1000
4
1002
{
1000
Class
1070
     4
1000

1002
{
1002
}
1000
Color
1070
     1
1070
     7
1002
{
1002
}
1000
LType
1070
     4
1000
GEN3A
1002
{
1002
}
1002
}
1000
BELI
1070
     9
1000
4
1002
{
1000
Class
1070
     4
1000

1002
{
1002
}
1000
Color
1070
     1
1070
   256
1002
{
1002
}
1000
LType
1070
     4
1000
BYLAYER
1002
{
1002
}
1002
}
1000
BHNV
1070
     9
1000
9
1002
{
1000
Class
1070
     4
1000
INV
1002
{
1002
}
1000
Color
1070
     1
1070
   256
1002
{
1002
}
1000
LType
1070
     4
1000
BYLAYER
1002
{
1002
}
1002
}
1000
BHNVS
1070
     9
1000
BEHIND
1002
{
1000
Class
1070
     4
1000
INV
1002
{
1002
}
1000
Color
1070
     1
1070
   256
1002
{
1002
}
1000
LType
1070
     4
1000
BYLAYER
1002
{
1002
}
1002
}
1000
BLID
1070
     9
1000
4A
1002
{
1000
Class
1070
     4
1000

1002
{
1002
}
1000
Color
1070
     1
1070
   256
1002
{
1002
}
1000
LType
1070
     4
1000
BYLAYER
1002
{
1002
}
1002
}
1000
BOAP
1070
     9
1000
4A
1002
{
1000
Class
1070
     4
1000

1002
{
1002
}
1000
Color
1070
     1
1070
   256
1002
{
1002
}
1000
LType
1070
     4
1000
BYLAYER
1002
{
1002
}
1002
}
1000
BOR2
1070
     9
1000
RAHM2
1002
{
1000
Class
1070
     4
1000
SPZ,SYM
1002
{
1002
}
1000
Color
1070
     1
1070
   256
1002
{
1002
}
1000
LType
1070
     4
1000
BYLAYER
1002
{
1002
}
1002
}
1000
BOR3
1070
     9
1000
RAHM3
1002
{
1000
Class
1070
     4
1000
SPZ,SYM
1002
{
1002
}
1000
Color
1070
     1
1070
   256
1002
{
1002
}
1000
LType
1070
     4
1000
BYLAYER
1002
{
1002
}
1002
}
1000
BOR5
1070
     9
1000
RAHM5
1002
{
1000
Class
1070
     4
1000
SPZ,SYM
1002
{
1002
}
1000
Color
1070
     1
1070
   256
1002
{
1002
}
1000
LType
1070
     4
1000
BYLAYER
1002
{
1002
}
1002
}
1000
BOR7
1070
     9
1000
RAHM5
1002
{
1000
Class
1070
     4
1000
SPZ,SYM
1002
{
1002
}
1000
Color
1070
     1
1070
     7
1002
{
1002
}
1000
LType
1070
     4
1000
CONTINUOUS
1002
{
1002
}
1002
}
1000
BPAP
1070
     9
1000
4A
1002
{
1000
Class
1070
     4
1000

1002
{
1002
}
1000
Color
1070
     1
1070
   256
1002
{
1002
}
1000
LType
1070
     4
1000
BYLAYER
1002
{
1002
}
1002
}
1000
BPEX
1070
     9
1000
4A
1002
{
1000
Class
1070
     4
1000

1002
{
1002
}
1000
Color
1070
     1
1070
   256
1002
{
1002
}
1000
LType
1070
     4
1000
BYLAYER
1002
{
1002
}
1002
}
1000
BTDI
1070
     9
1000
5
1002
{
1000
Class
1070
     4
1000
DIM,SYM
1002
{
1002
}
1000
Color
1070
     1
1070
   256
1002
{
1002
}
1000
LType
1070
     4
1000
BYLAYER
1002
{
1002
}
1002
}
1000
CAL2
1070
     9
1000
4
1002
{
1000
Class
1070
     4
1000
SYM
1002
{
1002
}
1000
Color
1070
     1
1070
   256
1002
{
1002
}
1000
LType
1070
     4
1000
BYLAYER
1002
{
1002
}
1002
}
1000
CAL3
1070
     9
1000
4
1002
{
1000
Class
1070
     4
1000
SYM
1002
{
1002
}
1000
Color
1070
     1
1070
     2
1002
{
1002
}
1000
LType
1070
     4
1000
BYLAYER
1002
{
1002
}
1002
}
1000
CAL5
1070
     9
1000
4
1002
{
1000
Class
1070
     4
1000
SYM
1002
{
1002
}
1000
Color
1070
     1
1070
     7
1002
{
1002
}
1000
LType
1070
     4
1000
BYLAYER
1002
{
1002
}
1002
}
1000
CAL7
1070
     9
1000
4
1002
{
1000
Class
1070
     4
1000
SYM
1002
{
1002
}
1000
Color
1070
     1
1070
     5
1002
{
1002
}
1000
LType
1070
     4
1000
BYLAYER
1002
{
1002
}
1002
}
1000
CENN
1070
     9
1000
7A
1002
{
1000
Class
1070
     4
1000
CEN
1002
{
1002
}
1000
Color
1070
     1
1070
   256
1002
{
1002
}
1000
LType
1070
     4
1000
BYLAYER
1002
{
1002
}
1002
}
1000
CENW
1070
     9
1000
7
1002
{
1000
Class
1070
     4
1000
CEN
1002
{
1002
}
1000
Color
1070
     1
1070
   256
1002
{
1002
}
1000
LType
1070
     4
1000
BYLAYER
1002
{
1002
}
1002
}
1000
CLIN
1070
     9
1000
KLIN
1002
{
1000
Class
1070
     4
1000
SPZ
1002
{
1002
}
1000
Color
1070
     1
1070
   256
1002
{
1002
}
1000
LType
1070
     4
1000
BYLAYER
1002
{
1002
}
1002
}
1000
CON1
1070
     9
1000
0
1002
{
1000
Class
1070
     4
1000
CON,BGD
1002
{
1002
}
1000
Color
1070
     1
1070
   256
1002
{
1002
}
1000
LType
1070
     4
1000
BYLAYER
1002
{
1002
}
1002
}
1000
CON2
1070
     9
1000
1
1002
{
1000
Class
1070
     4
1000
CON,BGD
1002
{
1002
}
1000
Color
1070
     1
1070
   256
1002
{
1002
}
1000
LType
1070
     4
1000
BYLAYER
1002
{
1002
}
1002
}
1000
CON3
1070
     9
1000
2
1002
{
1000
Class
1070
     4
1000
CON,BGD
1002
{
1002
}
1000
Color
1070
     1
1070
   256
1002
{
1002
}
1000
LType
1070
     4
1000
BYLAYER
1002
{
1002
}
1002
}
1000
CON4
1070
     9
1000
2
1002
{
1000
Class
1070
     4
1000
CON,BGD
1002
{
1002
}
1000
Color
1070
     1
1070
   256
1002
{
1002
}
1000
LType
1070
     4
1000
BYLAYER
1002
{
1002
}
1002
}
1000
DERP
1070
     9
1000
4
1002
{
1000
Class
1070
     4
1000

1002
{
1002
}
1000
Color
1070
     1
1070
   256
1002
{
1002
}
1000
LType
1070
     4
1000
BYLAYER
1002
{
1002
}
1002
}
1000
DETA
1070
     9
1000
4
1002
{
1000
Class
1070
     4
1000

1002
{
1002
}
1000
Color
1070
     1
1070
   256
1002
{
1002
}
1000
LType
1070
     4
1000
BYLAYER
1002
{
1002
}
1002
}
1000
DIAG
1070
     9
1000
5
1002
{
1000
Class
1070
     4
1000
SYM
1002
{
1002
}
1000
Color
1070
     1
1070
   256
1002
{
1002
}
1000
LType
1070
     4
1000
BYLAYER
1002
{
1002
}
1002
}
1000
DILI
1070
     9
1000
5
1002
{
1000
Class
1070
     4
1000
DIM,SYM
1002
{
1002
}
1000
Color
1070
     1
1070
   256
1002
{
1002
}
1000
LType
1070
     4
1000
BYLAYER
1002
{
1002
}
1002
}
1000
DITO2
1070
     9
1000
5
1002
{
1000
Class
1070
     4
1000
DIM,SYM
1002
{
1002
}
1000
Color
1070
     1
1070
     3
1002
{
1002
}
1000
LType
1070
     4
1000
BYLAYER
1002
{
1002
}
1002
}
1000
DITO3
1070
     9
1000
5
1002
{
1000
Class
1070
     4
1000
DIM,SYM
1002
{
1002
}
1000
Color
1070
     1
1070
     2
1002
{
1002
}
1000
LType
1070
     4
1000
BYLAYER
1002
{
1002
}
1002
}
1000
DITX
1070
     9
1000
5
1002
{
1000
Class
1070
     4
1000
DIM,SYM
1002
{
1002
}
1000
Color
1070
     1
1070
     2
1002
{
1002
}
1000
LType
1070
     4
1000
CONTINUOUS
1002
{
1002
}
1002
}
1000
DIXL
1070
     9
1000
5
1002
{
1000
Class
1070
     4
1000
DIM,SYM
1002
{
1002
}
1000
Color
1070
     1
1070
   256
1002
{
1002
}
1000
LType
1070
     4
1000
BYLAYER
1002
{
1002
}
1002
}
1000
EXMP
1070
     9
1000
4A
1002
{
1000
Class
1070
     4
1000

1002
{
1002
}
1000
Color
1070
     1
1070
   256
1002
{
1002
}
1000
LType
1070
     4
1000
BYLAYER
1002
{
1002
}
1002
}
1000
FEMN
1070
     9
1000
8
1002
{
1000
Class
1070
     4
1000

1002
{
1002
}
1000
Color
1070
     1
1070
   256
1002
{
1002
}
1000
LType
1070
     4
1000
BYLAYER
1002
{
1002
}
1002
}
1000
FEMPN
1070
     9
1000
8
1002
{
1000
Class
1070
     4
1000
SYM
1002
{
1002
}
1000
Color
1070
     1
1070
     3
1002
{
1002
}
1000
LType
1070
     4
1000
BYLAYER
1002
{
1002
}
1002
}
1000
FEMSP
1070
     9
1000
4A
1002
{
1000
Class
1070
     4
1000

1002
{
1002
}
1000
Color
1070
     1
1070
   256
1002
{
1002
}
1000
LType
1070
     4
1000
CONTINUOUS
1002
{
1002
}
1002
}
1000
FEMST
1070
     9
1000
4A
1002
{
1000
Class
1070
     4
1000
SYM
1002
{
1002
}
1000
Color
1070
     1
1070
     3
1002
{
1002
}
1000
LType
1070
     4
1000
BYLAYER
1002
{
1002
}
1002
}
1000
FEMVN
1070
     9
1000
2
1002
{
1000
Class
1070
     4
1000
CON
1002
{
1002
}
1000
Color
1070
     1
1070
   256
1002
{
1002
}
1000
LType
1070
     4
1000
BYLAYER
1002
{
1002
}
1002
}
1000
FEMVT
1070
     9
1000
2
1002
{
1000
Class
1070
     4
1000
SYM
1002
{
1002
}
1000
Color
1070
     1
1070
     3
1002
{
1002
}
1000
LType
1070
     4
1000
BYLAYER
1002
{
1002
}
1002
}
1000
FLAT
1070
     9
1000
0
1002
{
1000
Class
1070
     4
1000

1002
{
1002
}
1000
Color
1070
     1
1070
   256
1002
{
1002
}
1000
LType
1070
     4
1000
BYLAYER
1002
{
1002
}
1002
}
1000
FRAR
1070
     9
1000
4A
1002
{
1000
Class
1070
     4
1000

1002
{
1002
}
1000
Color
1070
     1
1070
   256
1002
{
1002
}
1000
LType
1070
     4
1000
BYLAYER
1002
{
1002
}
1002
}
1000
GRLI
1070
     9
1000
5
1002
{
1000
Class
1070
     4
1000
SYM
1002
{
1002
}
1000
Color
1070
     1
1070
   256
1002
{
1002
}
1000
LType
1070
     4
1000
BYLAYER
1002
{
1002
}
1002
}
1000
GVLI
1070
     9
1000
4A
1002
{
1000
Class
1070
     4
1000

1002
{
1002
}
1000
Color
1070
     1
1070
   256
1002
{
1002
}
1000
LType
1070
     4
1000
BYLAYER
1002
{
1002
}
1002
}
1000
HATC
1070
     9
1000
8
1002
{
1000
Class
1070
     4
1000
HTC,BGD
1002
{
1002
}
1000
Color
1070
     1
1070
   256
1002
{
1002
}
1000
LType
1070
     4
1000
BYLAYER
1002
{
1002
}
1002
}
1000
HIDN
1070
     9
1000
3A
1002
{
1000
Class
1070
     4
1000
HID,BGD
1002
{
1002
}
1000
Color
1070
     1
1070
   256
1002
{
1002
}
1000
LType
1070
     4
1000
BYLAYER
1002
{
1002
}
1002
}
1000
HIDW
1070
     9
1000
3
1002
{
1000
Class
1070
     4
1000
HID,BGD
1002
{
1002
}
1000
Color
1070
     1
1070
   256
1002
{
1002
}
1000
LType
1070
     4
1000
BYLAYER
1002
{
1002
}
1002
}
1000
HLIN
1070
     9
1000
4
1002
{
1000
Class
1070
     4
1000
BGD
1002
{
1002
}
1000
Color
1070
     1
1070
   256
1002
{
1002
}
1000
LType
1070
     4
1000
BYLAYER
1002
{
1002
}
1002
}
1000
HOCN
1070
     9
1000
7A
1002
{
1000
Class
1070
     4
1000
CEN
1002
{
1002
}
1000
Color
1070
     1
1070
   256
1002
{
1002
}
1000
LType
1070
     4
1000
BYLAYER
1002
{
1002
}
1002
}
1000
HOCW
1070
     9
1000
7
1002
{
1000
Class
1070
     4
1000
CEN
1002
{
1002
}
1000
Color
1070
     1
1070
   256
1002
{
1002
}
1000
LType
1070
     4
1000
BYLAYER
1002
{
1002
}
1002
}
1000
INFO
1070
     9
1000
INFO
1002
{
1000
Class
1070
     4
1000
SPZ,SYM
1002
{
1002
}
1000
Color
1070
     1
1070
   256
1002
{
1002
}
1000
LType
1070
     4
1000
BYLAYER
1002
{
1002
}
1002
}
1000
LADI
1070
     9
1000
4
1002
{
1000
Class
1070
     4
1000
BGD
1002
{
1002
}
1000
Color
1070
     1
1070
   256
1002
{
1002
}
1000
LType
1070
     4
1000
BYLAYER
1002
{
1002
}
1002
}
1000
LEAD
1070
     9
1000
5
1002
{
1000
Class
1070
     4
1000
SYM
1002
{
1002
}
1000
Color
1070
     1
1070
   256
1002
{
1002
}
1000
LType
1070
     4
1000
BYLAYER
1002
{
1002
}
1002
}
1000
N_ADDL
1070
     9
1000
5N
1002
{
1000
Class
1070
     4
1000
SYM
1002
{
1002
}
1000
Color
1070
     1
1070
     1
1002
{
1002
}
1000
LType
1070
     4
1000
BYLAYER
1002
{
1002
}
1002
}
1000
N_BHNV
1070
     9
1000
9N
1002
{
1000
Class
1070
     4
1000
INV
1002
{
1002
}
1000
Color
1070
     1
1070
   256
1002
{
1002
}
1000
LType
1070
     4
1000
BYLAYER
1002
{
1002
}
1002
}
1000
N_CON1
1070
     9
1000
0N
1002
{
1000
Class
1070
     4
1000
CON,BGD
1002
{
1002
}
1000
Color
1070
     1
1070
   256
1002
{
1002
}
1000
LType
1070
     4
1000
BYLAYER
1002
{
1002
}
1002
}
1000
N_CON2
1070
     9
1000
1N
1002
{
1000
Class
1070
     4
1000
CON,BGD
1002
{
1002
}
1000
Color
1070
     1
1070
   256
1002
{
1002
}
1000
LType
1070
     4
1000
BYLAYER
1002
{
1002
}
1002
}
1000
N_CON3
1070
     9
1000
2N
1002
{
1000
Class
1070
     4
1000
CON,BGD
1002
{
1002
}
1000
Color
1070
     1
1070
   256
1002
{
1002
}
1000
LType
1070
     4
1000
BYLAYER
1002
{
1002
}
1002
}
1000
N_CON4
1070
     9
1000
2N
1002
{
1000
Class
1070
     4
1000
CON,BGD
1002
{
1002
}
1000
Color
1070
     1
1070
   256
1002
{
1002
}
1000
LType
1070
     4
1000
BYLAYER
1002
{
1002
}
1002
}
1000
N_CENN
1070
     9
1000
7AN
1002
{
1000
Class
1070
     4
1000
CEN
1002
{
1002
}
1000
Color
1070
     1
1070
   256
1002
{
1002
}
1000
LType
1070
     4
1000
BYLAYER
1002
{
1002
}
1002
}
1000
N_CENW
1070
     9
1000
7N
1002
{
1000
Class
1070
     4
1000
CEN
1002
{
1002
}
1000
Color
1070
     1
1070
   256
1002
{
1002
}
1000
LType
1070
     4
1000
BYLAYER
1002
{
1002
}
1002
}
1000
N_DILI
1070
     9
1000
5N
1002
{
1000
Class
1070
     4
1000
DIM,SYM
1002
{
1002
}
1000
Color
1070
     1
1070
   256
1002
{
1002
}
1000
LType
1070
     4
1000
BYLAYER
1002
{
1002
}
1002
}
1000
N_DITX
1070
     9
1000
5N
1002
{
1000
Class
1070
     4
1000
DIM,SYM
1002
{
1002
}
1000
Color
1070
     1
1070
     2
1002
{
1002
}
1000
LType
1070
     4
1000
CONTINUOUS
1002
{
1002
}
1002
}
1000
N_DIXL
1070
     9
1000
5N
1002
{
1000
Class
1070
     4
1000
DIM,SYM
1002
{
1002
}
1000
Color
1070
     1
1070
   256
1002
{
1002
}
1000
LType
1070
     4
1000
BYLAYER
1002
{
1002
}
1002
}
1000
N_HATC
1070
     9
1000
8N
1002
{
1000
Class
1070
     4
1000
HTC,BGD
1002
{
1002
}
1000
Color
1070
     1
1070
   256
1002
{
1002
}
1000
LType
1070
     4
1000
BYLAYER
1002
{
1002
}
1002
}
1000
N_HIDN
1070
     9
1000
3AN
1002
{
1000
Class
1070
     4
1000
HID,BGD
1002
{
1002
}
1000
Color
1070
     1
1070
   256
1002
{
1002
}
1000
LType
1070
     4
1000
BYLAYER
1002
{
1002
}
1002
}
1000
N_HIDW
1070
     9
1000
3N
1002
{
1000
Class
1070
     4
1000
HID,BGD
1002
{
1002
}
1000
Color
1070
     1
1070
   256
1002
{
1002
}
1000
LType
1070
     4
1000
BYLAYER
1002
{
1002
}
1002
}
1000
N_NGIP
1070
     9
1000
IPN
1002
{
1000
Class
1070
     4
1000

1002
{
1002
}
1000
Color
1070
     1
1070
   256
1002
{
1002
}
1000
LType
1070
     4
1000
BYLAYER
1002
{
1002
}
1002
}
1000
N_PHAN
1070
     9
1000
4AN
1002
{
1000
Class
1070
     4
1000

1002
{
1002
}
1000
Color
1070
     1
1070
   256
1002
{
1002
}
1000
LType
1070
     4
1000
BYLAYER
1002
{
1002
}
1002
}
1000
N_POSL
1070
     9
1000
5N
1002
{
1000
Class
1070
     4
1000
SYM
1002
{
1002
}
1000
Color
1070
     1
1070
   256
1002
{
1002
}
1000
LType
1070
     4
1000
BYLAYER
1002
{
1002
}
1002
}
1000
N_TCON
1070
     9
1000
0N
1002
{
1000
Class
1070
     4
1000
CON,BGD
1002
{
1002
}
1000
Color
1070
     1
1070
   256
1002
{
1002
}
1000
LType
1070
     4
1000
BYLAYER
1002
{
1002
}
1002
}
1000
N_THLI
1070
     9
1000
4N
1002
{
1000
Class
1070
     4
1000
BGD
1002
{
1002
}
1000
Color
1070
     1
1070
   256
1002
{
1002
}
1000
LType
1070
     4
1000
BYLAYER
1002
{
1002
}
1002
}
1000
N_TLEN
1070
     9
1000
0N
1002
{
1000
Class
1070
     4
1000
CON,BGD
1002
{
1002
}
1000
Color
1070
     1
1070
   256
1002
{
1002
}
1000
LType
1070
     4
1000
BYLAYER
1002
{
1002
}
1002
}
1000
N_TXT3
1070
     9
1000
6N
1002
{
1000
Class
1070
     4
1000
SYM
1002
{
1002
}
1000
Color
1070
     1
1070
   256
1002
{
1002
}
1000
LType
1070
     4
1000
BYLAYER
1002
{
1002
}
1002
}
1000
N_VPLI
1070
     9
1000
2AN
1002
{
1000
Class
1070
     4
1000

1002
{
1002
}
1000
Color
1070
     1
1070
   256
1002
{
1002
}
1000
LType
1070
     4
1000
BYLAYER
1002
{
1002
}
1002
}
1000
NGIP
1070
     9
1000
IP
1002
{
1000
Class
1070
     4
1000

1002
{
1002
}
1000
Color
1070
     1
1070
   256
1002
{
1002
}
1000
LType
1070
     4
1000
BYLAYER
1002
{
1002
}
1002
}
1000
PAL2
1070
     9
1000
RAHM2
1002
{
1000
Class
1070
     4
1000
SPZ,SYM
1002
{
1002
}
1000
Color
1070
     1
1070
   256
1002
{
1002
}
1000
LType
1070
     4
1000
BYLAYER
1002
{
1002
}
1002
}
1000
PAL3
1070
     9
1000
RAHM3
1002
{
1000
Class
1070
     4
1000
SPZ,SYM
1002
{
1002
}
1000
Color
1070
     1
1070
   256
1002
{
1002
}
1000
LType
1070
     4
1000
BYLAYER
1002
{
1002
}
1002
}
1000
PAL5
1070
     9
1000
RAHM5
1002
{
1000
Class
1070
     4
1000
SPZ,SYM
1002
{
1002
}
1000
Color
1070
     1
1070
   256
1002
{
1002
}
1000
LType
1070
     4
1000
BYLAYER
1002
{
1002
}
1002
}
1000
PAL7
1070
     9
1000
RAHM5
1002
{
1000
Class
1070
     4
1000
SPZ,SYM
1002
{
1002
}
1000
Color
1070
     1
1070
     7
1002
{
1002
}
1000
LType
1070
     4
1000
CONTINUOUS
1002
{
1002
}
1002
}
1000
PHAN
1070
     9
1000
4A
1002
{
1000
Class
1070
     4
1000

1002
{
1002
}
1000
Color
1070
     1
1070
   256
1002
{
1002
}
1000
LType
1070
     4
1000
BYLAYER
1002
{
1002
}
1002
}
1000
POSL
1070
     9
1000
5
1002
{
1000
Class
1070
     4
1000
SYM
1002
{
1002
}
1000
Color
1070
     1
1070
   256
1002
{
1002
}
1000
LType
1070
     4
1000
BYLAYER
1002
{
1002
}
1002
}
1000
POSN
1070
     9
1000
6
1002
{
1000
Class
1070
     4
1000
SYM
1002
{
1002
}
1000
Color
1070
     1
1070
     7
1002
{
1002
}
1000
LType
1070
     4
1000
BYLAYER
1002
{
1002
}
1002
}
1000
POSREF
1070
     9
1000
6
1002
{
1000
Class
1070
     4
1000
SYM
1002
{
1002
}
1000
Color
1070
     1
1070
     5
1002
{
1002
}
1000
LType
1070
     4
1000
BYLAYER
1002
{
1002
}
1002
}
1000
POSX
1070
     9
1000
5
1002
{
1000
Class
1070
     4
1000
SYM
1002
{
1002
}
1000
Color
1070
     1
1070
     2
1002
{
1002
}
1000
LType
1070
     4
1000
CONTINUOUS
1002
{
1002
}
1002
}
1000
PSEC
1070
     9
1000
4A
1002
{
1000
Class
1070
     4
1000

1002
{
1002
}
1000
Color
1070
     1
1070
   256
1002
{
1002
}
1000
LType
1070
     4
1000
BYLAYER
1002
{
1002
}
1002
}
1000
RCGN
1070
     9
1000
7A
1002
{
1000
Class
1070
     4
1000
CEN
1002
{
1002
}
1000
Color
1070
     1
1070
   256
1002
{
1002
}
1000
LType
1070
     4
1000
BYLAYER
1002
{
1002
}
1002
}
1000
RCGW
1070
     9
1000
7
1002
{
1000
Class
1070
     4
1000
CEN
1002
{
1002
}
1000
Color
1070
     1
1070
   256
1002
{
1002
}
1000
LType
1070
     4
1000
BYLAYER
1002
{
1002
}
1002
}
1000
RFDI
1070
     9
1000
4
1002
{
1000
Class
1070
     4
1000
BGD
1002
{
1002
}
1000
Color
1070
     1
1070
   256
1002
{
1002
}
1000
LType
1070
     4
1000
BYLAYER
1002
{
1002
}
1002
}
1000
RQTR
1070
     9
1000
4
1002
{
1000
Class
1070
     4
1000

1002
{
1002
}
1000
Color
1070
     1
1070
     7
1002
{
1002
}
1000
LType
1070
     4
1000
GEN7A
1002
{
1002
}
1002
}
1000
RSBO
1070
     9
1000
4
1002
{
1000
Class
1070
     4
1000
BGD
1002
{
1002
}
1000
Color
1070
     1
1070
   256
1002
{
1002
}
1000
LType
1070
     4
1000
BYLAYER
1002
{
1002
}
1002
}
1000
SBRK
1070
     9
1000
4
1002
{
1000
Class
1070
     4
1000
BGD
1002
{
1002
}
1000
Color
1070
     1
1070
   256
1002
{
1002
}
1000
LType
1070
     4
1000
BYLAYER
1002
{
1002
}
1002
}
1000
SCEN
1070
     9
1000
7
1002
{
1000
Class
1070
     4
1000

1002
{
1002
}
1000
Color
1070
     1
1070
   256
1002
{
1002
}
1000
LType
1070
     4
1000
CONTINUOUS
1002
{
1002
}
1002
}
1000
SECT
1070
     9
1000
4
1002
{
1000
Class
1070
     4
1000
BGD
1002
{
1002
}
1000
Color
1070
     1
1070
   256
1002
{
1002
}
1000
LType
1070
     4
1000
BYLAYER
1002
{
1002
}
1002
}
1000
SELN
1070
     9
1000
7A
1002
{
1000
Class
1070
     4
1000

1002
{
1002
}
1000
Color
1070
     1
1070
   256
1002
{
1002
}
1000
LType
1070
     4
1000
BYLAYER
1002
{
1002
}
1002
}
1000
SELW
1070
     9
1000
7
1002
{
1000
Class
1070
     4
1000

1002
{
1002
}
1000
Color
1070
     1
1070
   256
1002
{
1002
}
1000
LType
1070
     4
1000
BYLAYER
1002
{
1002
}
1002
}
1000
SSYS
1070
     9
1000
0
1002
{
1000
Class
1070
     4
1000

1002
{
1002
}
1000
Color
1070
     1
1070
   256
1002
{
1002
}
1000
LType
1070
     4
1000
BYLAYER
1002
{
1002
}
1002
}
1000
STLI
1070
     9
1000
4
1002
{
1000
Class
1070
     4
1000

1002
{
1002
}
1000
Color
1070
     1
1070
     7
1002
{
1002
}
1000
LType
1070
     4
1000
GEN3A
1002
{
1002
}
1002
}
1000
SYB1
1070
     9
1000
5
1002
{
1000
Class
1070
     4
1000
SYM
1002
{
1002
}
1000
Color
1070
     1
1070
   256
1002
{
1002
}
1000
LType
1070
     4
1000
BYLAYER
1002
{
1002
}
1002
}
1000
SYB2
1070
     9
1000
5
1002
{
1000
Class
1070
     4
1000
SYM
1002
{
1002
}
1000
Color
1070
     1
1070
   256
1002
{
1002
}
1000
LType
1070
     4
1000
BYLAYER
1002
{
1002
}
1002
}
1000
SYB3
1070
     9
1000
6
1002
{
1000
Class
1070
     4
1000
SYM
1002
{
1002
}
1000
Color
1070
     1
1070
   256
1002
{
1002
}
1000
LType
1070
     4
1000
CONTINUOUS
1002
{
1002
}
1002
}
1000
SYB5
1070
     9
1000
5
1002
{
1000
Class
1070
     4
1000
SYM
1002
{
1002
}
1000
Color
1070
     1
1070
     7
1002
{
1002
}
1000
LType
1070
     4
1000
BYLAYER
1002
{
1002
}
1002
}
1000
SYMN
1070
     9
1000
7A
1002
{
1000
Class
1070
     4
1000
CEN
1002
{
1002
}
1000
Color
1070
     1
1070
   256
1002
{
1002
}
1000
LType
1070
     4
1000
BYLAYER
1002
{
1002
}
1002
}
1000
SYMW
1070
     9
1000
7
1002
{
1000
Class
1070
     4
1000
CEN
1002
{
1002
}
1000
Color
1070
     1
1070
   256
1002
{
1002
}
1000
LType
1070
     4
1000
BYLAYER
1002
{
1002
}
1002
}
1000
TCON
1070
     9
1000
0
1002
{
1000
Class
1070
     4
1000
CON,BGD
1002
{
1002
}
1000
Color
1070
     1
1070
   256
1002
{
1002
}
1000
LType
1070
     4
1000
BYLAYER
1002
{
1002
}
1002
}
1000
THLI
1070
     9
1000
4
1002
{
1000
Class
1070
     4
1000
BGD
1002
{
1002
}
1000
Color
1070
     1
1070
   256
1002
{
1002
}
1000
LType
1070
     4
1000
BYLAYER
1002
{
1002
}
1002
}
1000
TIT2
1070
     9
1000
RAHM2
1002
{
1000
Class
1070
     4
1000
SPZ,SYM
1002
{
1002
}
1000
Color
1070
     1
1070
   256
1002
{
1002
}
1000
LType
1070
     4
1000
BYLAYER
1002
{
1002
}
1002
}
1000
TIT3
1070
     9
1000
RAHM3
1002
{
1000
Class
1070
     4
1000
SPZ,SYM
1002
{
1002
}
1000
Color
1070
     1
1070
   256
1002
{
1002
}
1000
LType
1070
     4
1000
BYLAYER
1002
{
1002
}
1002
}
1000
TIT5
1070
     9
1000
RAHM5
1002
{
1000
Class
1070
     4
1000
SPZ,SYM
1002
{
1002
}
1000
Color
1070
     1
1070
   256
1002
{
1002
}
1000
LType
1070
     4
1000
BYLAYER
1002
{
1002
}
1002
}
1000
TIT7
1070
     9
1000
RAHM5
1002
{
1000
Class
1070
     4
1000
SPZ,SYM
1002
{
1002
}
1000
Color
1070
     1
1070
     7
1002
{
1002
}
1000
LType
1070
     4
1000
CONTINUOUS
1002
{
1002
}
1002
}
1000
TLEN
1070
     9
1000
0
1002
{
1000
Class
1070
     4
1000
CON,BGD
1002
{
1002
}
1000
Color
1070
     1
1070
   256
1002
{
1002
}
1000
LType
1070
     4
1000
BYLAYER
1002
{
1002
}
1002
}
1000
TRKN
1070
     9
1000
7A
1002
{
1000
Class
1070
     4
1000

1002
{
1002
}
1000
Color
1070
     1
1070
   256
1002
{
1002
}
1000
LType
1070
     4
1000
BYLAYER
1002
{
1002
}
1002
}
1000
TRKW
1070
     9
1000
7
1002
{
1000
Class
1070
     4
1000

1002
{
1002
}
1000
Color
1070
     1
1070
   256
1002
{
1002
}
1000
LType
1070
     4
1000
BYLAYER
1002
{
1002
}
1002
}
1000
TRLI
1070
     9
1000
4
1002
{
1000
Class
1070
     4
1000
BGD
1002
{
1002
}
1000
Color
1070
     1
1070
   256
1002
{
1002
}
1000
LType
1070
     4
1000
BYLAYER
1002
{
1002
}
1002
}
1000
TXT1
1070
     9
1000
6
1002
{
1000
Class
1070
     4
1000
SYM
1002
{
1002
}
1000
Color
1070
     1
1070
     2
1002
{
1002
}
1000
LType
1070
     4
1000
BYLAYER
1002
{
1002
}
1002
}
1000
TXT2
1070
     9
1000
6
1002
{
1000
Class
1070
     4
1000
SYM
1002
{
1002
}
1000
Color
1070
     1
1070
     2
1002
{
1002
}
1000
LType
1070
     4
1000
BYLAYER
1002
{
1002
}
1002
}
1000
TXT3
1070
     9
1000
6
1002
{
1000
Class
1070
     4
1000
SYM
1002
{
1002
}
1000
Color
1070
     1
1070
   256
1002
{
1002
}
1000
LType
1070
     4
1000
BYLAYER
1002
{
1002
}
1002
}
1000
TXT5
1070
     9
1000
6
1002
{
1000
Class
1070
     4
1000
SYM
1002
{
1002
}
1000
Color
1070
     1
1070
     7
1002
{
1002
}
1000
LType
1070
     4
1000
BYLAYER
1002
{
1002
}
1002
}
1000
TXT7
1070
     9
1000
6
1002
{
1000
Class
1070
     4
1000
SYM
1002
{
1002
}
1000
Color
1070
     1
1070
     7
1002
{
1002
}
1000
LType
1070
     4
1000
BYLAYER
1002
{
1002
}
1002
}
1000
VIEW
1070
     9
1000
VIEW
1002
{
1000
Class
1070
     4
1000
SPZ
1002
{
1002
}
1000
Color
1070
     1
1070
   256
1002
{
1002
}
1000
LType
1070
     4
1000
BYLAYER
1002
{
1002
}
1002
}
1000
VPLI
1070
     9
1000
2A
1002
{
1000
Class
1070
     4
1000

1002
{
1002
}
1000
Color
1070
     1
1070
   256
1002
{
1002
}
1000
LType
1070
     4
1000
BYLAYER
1002
{
1002
}
1002
}
1000
ZIZA
1070
     9
1000
4
1002
{
1000
Class
1070
     4
1000
BGD
1002
{
1002
}
1000
Color
1070
     1
1070
   256
1002
{
1002
}
1000
LType
1070
     4
1000
GENZIGZAG
1002
{
1002
}
1002
}
  0
APPID
  5
133A
330
12CE
100
AcDbSymbolTableRecord
100
AcDbRegAppTableRecord
  2
GENIUS_GENCFG4_13
 70
     0
1001
GENIUS_GENCFG_13
1071
1022849023
1000
133A
1000
GEN
1070
     9
1000
GenCfgObject
1000
GenCfgShort
1000
GenCfgReal
1000
GenCfgBool
1000
GenCfgString
1000
GenCfgDim
1000
GenCfgLaySection
1000
GenCfgLType
1000
GenCfgFilter
1000
Balloon
1070
     0
1002
{
1000
GenIF
1070
     1
1070
     0
1002
{
1002
}
1000
GenPosInc
1070
     1
1070
     1
1002
{
1002
}
1000
GenPosBlk
1070
     1
1070
     8
1002
{
1002
}
1000
GenPosVar
1070
     1
1070
     0
1002
{
1002
}
1000
GenZiCir
1070
     2
1040
1.5
1002
{
1002
}
1000
MaxCharForCenteredText
1070
     1
1070
    30
1002
{
1002
}
1000
Snap
1070
     0
1002
{
1000
ActivationRadius
1070
     2
1040
1.0
1002
{
1002
}
1000
M
1070
     0
1002
{
1000
SnapStepX
1070
     2
1040
20.0
1002
{
1002
}
1000
SnapStepY
1070
     2
1040
10.0
1002
{
1002
}
1002
}
1000
I
1070
     0
1002
{
1000
SnapStepX
1070
     2
1040
1.0
1002
{
1002
}
1000
SnapStepY
1070
     2
1040
0.5
1002
{
1002
}
1002
}
1002
}
1002
}
1000
Centerline
1070
     0
1002
{
1000
ScaleNot
1070
     3
1070
     0
1002
{
1002
}
1000
M
1070
     0
1002
{
1000
GenCenAng
1070
     4
1000
45|90|135
1002
{
1002
}
1000
GenCenDia
1070
     2
1040
10.0
1002
{
1002
}
1000
GenCenDias
1070
     4
1000
10|20|30
1002
{
1002
}
1000
GenCenDist
1070
     2
1040
3.0
1002
{
1002
}
1000
GenCenLen
1070
     2
1040
10.0
1002
{
1002
}
1000
GenCenOff
1070
     2
1040
10.0
1002
{
1002
}
1002
}
1000
I
1070
     0
1002
{
1000
GenCenAng
1070
     4
1000
45|90|135
1002
{
1002
}
1000
GenCenDia
1070
     2
1040
0.5
1002
{
1002
}
1000
GenCenDias
1070
     4
1000
0.5|1.0|1.5
1002
{
1002
}
1000
GenCenDist
1070
     2
1040
0.125
1002
{
1002
}
1000
GenCenLen
1070
     2
1040
0.5
1002
{
1002
}
1000
GenCenOff
1070
     2
1040
0.5
1002
{
1002
}
1002
}
1002
}
1000
CLine
1070
     0
1002
{
1000
CAngArray
1070
     4
1000
30|45|60
1002
{
1002
}
1000
Typ
1070
     4
1000
XLINE
1002
{
1002
}
1000
M
1070
     0
1002
{
1000
CLinArray
1070
     4
1000
10|20|30
1002
{
1002
}
1002
}
1000
I
1070
     0
1002
{
1000
CLinArray
1070
     4
1000
0.125|0.25|0.5
1002
{
1002
}
1002
}
1002
}
1000
Detail
1070
     0
1002
{
1002
}
1000
Dimension
1070
     5
1002
{
1000
DIMALT
1070
     1
1070
     0
1002
{
1002
}
1000
DIMALTD
1070
     1
1070
     2
1002
{
1002
}
1000
DIMALTTD
1070
     1
1070
     4
1002
{
1002
}
1000
DIMALTTZ
1070
     1
1070
     0
1002
{
1002
}
1000
DIMALTU
1070
     1
1070
     2
1002
{
1002
}
1000
DIMALTZ
1070
     1
1070
     0
1002
{
1002
}
1000
DIMAUNIT
1070
     1
1070
     0
1002
{
1002
}
1000
DIMBLK
1070
     4
1000

1002
{
1002
}
1000
DIMBLK1
1070
     4
1000

1002
{
1002
}
1000
DIMBLK2
1070
     4
1000

1002
{
1002
}
1000
DIMCLRD
1070
     1
1070
   256
1002
{
1002
}
1000
DIMCLRE
1070
     1
1070
   256
1002
{
1002
}
1000
DIMCLRT
1070
     1
1070
     2
1002
{
1002
}
1000
DIMDLE
1070
     2
1040
0.0
1002
{
1002
}
1000
DIMFIT
1070
     1
1070
     3
1002
{
1002
}
1000
DIMJUST
1070
     1
1070
     0
1002
{
1002
}
1000
DIMLFAC
1070
     2
1040
1.0
1002
{
1002
}
1000
DIMLIM
1070
     1
1070
     0
1002
{
1002
}
1000
DIMPOST
1070
     4
1000

1002
{
1002
}
1000
DIMRND
1070
     2
1040
0.0
1002
{
1002
}
1000
DIMSAH
1070
     1
1070
     0
1002
{
1002
}
1000
DIMSCALE
1070
     2
1040
1.0
1002
{
1002
}
1000
DIMSD1
1070
     1
1070
     0
1002
{
1002
}
1000
DIMSD2
1070
     1
1070
     0
1002
{
1002
}
1000
DIMSE1
1070
     1
1070
     0
1002
{
1002
}
1000
DIMSE2
1070
     1
1070
     0
1002
{
1002
}
1000
DIMSOXD
1070
     1
1070
     0
1002
{
1002
}
1000
DIMTAD
1070
     1
1070
     0
1002
{
1002
}
1000
DIMTFAC
1070
     2
1040
0.71
1002
{
1002
}
1000
DIMTIH
1070
     1
1070
     0
1002
{
1002
}
1000
DIMTIX
1070
     1
1070
     0
1002
{
1002
}
1000
DIMTM
1070
     2
1040
0.1
1002
{
1002
}
1000
DIMTOFL
1070
     1
1070
     0
1002
{
1002
}
1000
DIMTOH
1070
     1
1070
     0
1002
{
1002
}
1000
DIMTOL
1070
     1
1070
     0
1002
{
1002
}
1000
DIMTOLJ
1070
     1
1070
     1
1002
{
1002
}
1000
DIMTP
1070
     2
1040
0.1
1002
{
1002
}
1000
DIMTSZ
1070
     2
1040
0.0
1002
{
1002
}
1000
DIMTVP
1070
     2
1040
0.0
1002
{
1002
}
1000
DIMTXSTY
1070
     4
1000
STANDARD
1002
{
1002
}
1000
DIMTZIN
1070
     1
1070
     0
1002
{
1002
}
1000
DIMUNIT
1070
     1
1070
     2
1002
{
1002
}
1000
DIMUPT
1070
     1
1070
     0
1002
{
1002
}
1000
M
1070
     0
1002
{
1000
DIMALTF
1070
     2
1040
0.03937
1002
{
1002
}
1000
DIMAPOST
1070
     4
1000
"
1002
{
1002
}
1000
DIMASZ
1070
     2
1040
2.5
1002
{
1002
}
1000
DIMCEN
1070
     2
1040
0.0
1002
{
1002
}
1000
DIMDEC
1070
     1
1070
     2
1002
{
1002
}
1000
DIMDLI
1070
     2
1040
7.0
1002
{
1002
}
1000
DIMEXE
1070
     2
1040
1.0
1002
{
1002
}
1000
DIMEXO
1070
     2
1040
1.0
1002
{
1002
}
1000
DIMGAP
1070
     2
1040
0.6
1002
{
1002
}
1000
DIMTDEC
1070
     1
1070
     3
1002
{
1002
}
1000
DIMTXT
1070
     2
1040
3.5
1002
{
1002
}
1000
DIMZIN
1070
     1
1070
     8
1002
{
1002
}
1002
}
1000
I
1070
     0
1002
{
1000
DIMALTF
1070
     2
1040
25.4
1002
{
1002
}
1000
DIMAPOST
1070
     4
1000
mm
1002
{
1002
}
1000
DIMASZ
1070
     2
1040
0.1
1002
{
1002
}
1000
DIMCEN
1070
     2
1040
0.0
1002
{
1002
}
1000
DIMDEC
1070
     1
1070
     4
1002
{
1002
}
1000
DIMDLI
1070
     2
1040
0.5
1002
{
1002
}
1000
DIMEXE
1070
     2
1040
0.1
1002
{
1002
}
1000
DIMEXO
1070
     2
1040
0.05
1002
{
1002
}
1000
DIMGAP
1070
     2
1040
0.06
1002
{
1002
}
1000
DIMTDEC
1070
     1
1070
     4
1002
{
1002
}
1000
DIMTXT
1070
     2
1040
0.12
1002
{
1002
}
1000
DIMZIN
1070
     1
1070
     7
1002
{
1002
}
1002
}
1000
GEN-ISO
1070
     5
1002
{
1000
NAME
1070
     4
1000
GEN-ISO
1002
{
1002
}
1000
DIMTAD
1070
     1
1070
     1
1002
{
1002
}
1000
DIMTOLJ
1070
     1
1070
     0
1002
{
1002
}
1000
DIMTOFL
1070
     1
1070
     1
1002
{
1002
}
1000
M
1070
     0
1002
{
1002
}
1000
I
1070
     0
1002
{
1002
}
1002
}
1000
GEN-ISO-POS
1070
     5
1002
{
1000
NAME
1070
     4
1000
GEN-ISO-POS
1002
{
1002
}
1000
DIMTOLJ
1070
     1
1070
     0
1002
{
1002
}
1000
DIMTXSTY
1070
     4
1000
STANDARD
1002
{
1002
}
1000
M
1070
     0
1002
{
1000
DIMASZ
1070
     2
1040
2.5
1002
{
1002
}
1000
DIMGAP
1070
     2
1040
1.5
1002
{
1002
}
1000
DIMTXT
1070
     2
1040
5.0
1002
{
1002
}
1002
}
1000
I
1070
     0
1002
{
1000
DIMASZ
1070
     2
1040
0.1
1002
{
1002
}
1000
DIMGAP
1070
     2
1040
0.06
1002
{
1002
}
1000
DIMTXT
1070
     2
1040
0.2
1002
{
1002
}
1002
}
1002
}
1000
GEN-ISO-CIR
1070
     5
1002
{
1000
NAME
1070
     4
1000
GEN-ISO$3
1002
{
1002
}
1000
DIMFIT
1070
     1
1070
     0
1002
{
1002
}
1000
DIMTAD
1070
     1
1070
     1
1002
{
1002
}
1000
DIMTOH
1070
     1
1070
     1
1002
{
1002
}
1000
DIMTOLJ
1070
     1
1070
     0
1002
{
1002
}
1000
DIMUPT
1070
     1
1070
     1
1002
{
1002
}
1000
M
1070
     0
1002
{
1002
}
1000
I
1070
     0
1002
{
1002
}
1002
}
1000
GEN-ISO-RAD
1070
     5
1002
{
1000
NAME
1070
     4
1000
GEN-ISO$4
1002
{
1002
}
1000
DIMFIT
1070
     1
1070
     0
1002
{
1002
}
1000
DIMTAD
1070
     1
1070
     1
1002
{
1002
}
1000
DIMTIH
1070
     1
1070
     0
1002
{
1002
}
1000
DIMTIX
1070
     1
1070
     0
1002
{
1002
}
1000
DIMTOH
1070
     1
1070
     1
1002
{
1002
}
1000
DIMTOLJ
1070
     1
1070
     0
1002
{
1002
}
1000
DIMTOFL
1070
     1
1070
     0
1002
{
1002
}
1000
DIMUPT
1070
     1
1070
     1
1002
{
1002
}
1000
M
1070
     0
1002
{
1002
}
1000
I
1070
     0
1002
{
1002
}
1002
}
1000
GEN-ISO-ORD
1070
     5
1002
{
1000
NAME
1070
     4
1000
GEN-ISO$6
1002
{
1002
}
1000
DIMTOLJ
1070
     1
1070
     0
1002
{
1002
}
1000
M
1070
     0
1002
{
1002
}
1000
I
1070
     0
1002
{
1002
}
1002
}
1000
GEN-ISO-AXE-F
1070
     5
1002
{
1000
NAME
1070
     4
1000
GEN-ISO-AXE-F
1002
{
1002
}
1000
DIMSE1
1070
     1
1070
     1
1002
{
1002
}
1000
DIMSE2
1070
     1
1070
     1
1002
{
1002
}
1000
DIMTAD
1070
     1
1070
     1
1002
{
1002
}
1000
DIMTOLJ
1070
     1
1070
     0
1002
{
1002
}
1000
DIMTOFL
1070
     1
1070
     1
1002
{
1002
}
1000
M
1070
     0
1002
{
1002
}
1000
I
1070
     0
1002
{
1002
}
1002
}
1000
GEN-ISO-AXE-H
1070
     5
1002
{
1000
NAME
1070
     4
1000
GEN-ISO-AXE-H
1002
{
1002
}
1000
DIMBLK1
1070
     4
1000
GENAXEH
1002
{
1002
}
1000
DIMLFAC
1070
     2
1040
2.0
1002
{
1002
}
1000
DIMSAH
1070
     1
1070
     1
1002
{
1002
}
1000
DIMSE1
1070
     1
1070
     1
1002
{
1002
}
1000
DIMSE2
1070
     1
1070
     1
1002
{
1002
}
1000
DIMTAD
1070
     1
1070
     1
1002
{
1002
}
1000
DIMTOLJ
1070
     1
1070
     0
1002
{
1002
}
1000
DIMTOFL
1070
     1
1070
     1
1002
{
1002
}
1000
M
1070
     0
1002
{
1002
}
1000
I
1070
     0
1002
{
1002
}
1002
}
1000
GEN-ANSI
1070
     5
1002
{
1000
NAME
1070
     4
1000
GEN-ANSI
1002
{
1002
}
1000
DIMTIH
1070
     1
1070
     1
1002
{
1002
}
1000
DIMTOH
1070
     1
1070
     1
1002
{
1002
}
1000
DIMTAD
1070
     1
1070
     0
1002
{
1002
}
1000
DIMTOLJ
1070
     1
1070
     1
1002
{
1002
}
1000
M
1070
     0
1002
{
1002
}
1000
I
1070
     0
1002
{
1002
}
1002
}
1000
GEN-ANSI-POS
1070
     5
1002
{
1000
NAME
1070
     4
1000
GEN-ANSI-POS
1002
{
1002
}
1000
DIMTOLJ
1070
     1
1070
     1
1002
{
1002
}
1000
DIMTXSTY
1070
     4
1000
STANDARD
1002
{
1002
}
1000
M
1070
     0
1002
{
1000
DIMASZ
1070
     2
1040
2.5
1002
{
1002
}
1000
DIMGAP
1070
     2
1040
1.5
1002
{
1002
}
1000
DIMTXT
1070
     2
1040
5.0
1002
{
1002
}
1002
}
1000
I
1070
     0
1002
{
1000
DIMASZ
1070
     2
1040
0.1
1002
{
1002
}
1000
DIMGAP
1070
     2
1040
0.06
1002
{
1002
}
1000
DIMTXT
1070
     2
1040
0.2
1002
{
1002
}
1002
}
1002
}
1000
GEN-ANSI-CIR
1070
     5
1002
{
1000
NAME
1070
     4
1000
GEN-ANSI$3
1002
{
1002
}
1000
DIMFIT
1070
     1
1070
     0
1002
{
1002
}
1000
DIMTAD
1070
     1
1070
     0
1002
{
1002
}
1000
DIMTIH
1070
     1
1070
     1
1002
{
1002
}
1000
DIMTIX
1070
     1
1070
     0
1002
{
1002
}
1000
DIMTOFL
1070
     1
1070
     0
1002
{
1002
}
1000
DIMTOH
1070
     1
1070
     1
1002
{
1002
}
1000
DIMTOLJ
1070
     1
1070
     1
1002
{
1002
}
1000
DIMUPT
1070
     1
1070
     1
1002
{
1002
}
1000
M
1070
     0
1002
{
1002
}
1000
I
1070
     0
1002
{
1002
}
1002
}
1000
GEN-ANSI-RAD
1070
     5
1002
{
1000
NAME
1070
     4
1000
GEN-ANSI$4
1002
{
1002
}
1000
DIMFIT
1070
     1
1070
     0
1002
{
1002
}
1000
DIMTAD
1070
     1
1070
     0
1002
{
1002
}
1000
DIMTIH
1070
     1
1070
     1
1002
{
1002
}
1000
DIMTIX
1070
     1
1070
     0
1002
{
1002
}
1000
DIMTOFL
1070
     1
1070
     0
1002
{
1002
}
1000
DIMTOH
1070
     1
1070
     1
1002
{
1002
}
1000
DIMTOLJ
1070
     1
1070
     1
1002
{
1002
}
1000
DIMUPT
1070
     1
1070
     1
1002
{
1002
}
1000
M
1070
     0
1002
{
1002
}
1000
I
1070
     0
1002
{
1002
}
1002
}
1000
GEN-ANSI-ORD
1070
     5
1002
{
1000
NAME
1070
     4
1000
GEN-ANSI$6
1002
{
1002
}
1000
DIMTAD
1070
     1
1070
     0
1002
{
1002
}
1000
DIMTIH
1070
     1
1070
     1
1002
{
1002
}
1000
DIMTOH
1070
     1
1070
     1
1002
{
1002
}
1000
DIMTOLJ
1070
     1
1070
     1
1002
{
1002
}
1000
M
1070
     0
1002
{
1002
}
1000
I
1070
     0
1002
{
1002
}
1002
}
1000
GEN-ANSI-AXE-F
1070
     5
1002
{
1000
NAME
1070
     4
1000
GEN-ANSI-AXE-F
1002
{
1002
}
1000
DIMBLK1
1070
     4
1000
GENAXEH
1002
{
1002
}
1000
DIMSAH
1070
     1
1070
     1
1002
{
1002
}
1000
DIMSE1
1070
     1
1070
     1
1002
{
1002
}
1000
DIMSE2
1070
     1
1070
     1
1002
{
1002
}
1000
DIMTAD
1070
     1
1070
     0
1002
{
1002
}
1000
DIMTIH
1070
     1
1070
     1
1002
{
1002
}
1000
DIMTOH
1070
     1
1070
     1
1002
{
1002
}
1000
DIMTOLJ
1070
     1
1070
     1
1002
{
1002
}
1000
M
1070
     0
1002
{
1002
}
1000
I
1070
     0
1002
{
1002
}
1002
}
1000
GEN-ANSI-AXE-H
1070
     5
1002
{
1000
NAME
1070
     4
1000
GEN-ANSI-AXE-H
1002
{
1002
}
1000
DIMBLK1
1070
     4
1000
GENAXEH
1002
{
1002
}
1000
DIMLFAC
1070
     2
1040
2.0
1002
{
1002
}
1000
DIMSAH
1070
     1
1070
     1
1002
{
1002
}
1000
DIMSE1
1070
     1
1070
     1
1002
{
1002
}
1000
DIMSE2
1070
     1
1070
     1
1002
{
1002
}
1000
DIMTAD
1070
     1
1070
     0
1002
{
1002
}
1000
DIMTOFL
1070
     1
1070
     1
1002
{
1002
}
1000
DIMTOLJ
1070
     1
1070
     1
1002
{
1002
}
1000
M
1070
     0
1002
{
1002
}
1000
I
1070
     0
1002
{
1002
}
1002
}
1002
}
1000
DimSet
1070
     0
1002
{
1000
ChainSum
1070
     3
1070
     0
1002
{
1002
}
1000
DimDclTyp0
1070
     4
1000
dim23
1002
{
1002
}
1000
HorBra
1070
     3
1070
     0
1002
{
1002
}
1000
StrDia
1070
     4
1000
%%c<>
1002
{
1002
}
1000
StrRad
1070
     4
1000
R<>
1002
{
1002
}
1000
TextMinus
1070
     4
1000
<>
1002
{
1002
}
1000
TextPlus
1070
     4
1000
<>
1002
{
1002
}
1000
M
1070
     0
1002
{
1000
DimdliFirst
1070
     2
1040
10.0
1002
{
1002
}
1000
PointMakeDist
1070
     2
1040
10.0
1002
{
1002
}
1002
}
1000
I
1070
     0
1002
{
1000
DimdliFirst
1070
     2
1040
0.5
1002
{
1002
}
1000
PointMakeDist
1070
     2
1040
0.5
1002
{
1002
}
1002
}
1000
FitGrade
1070
     4
1000
h7
1002
{
1002
}
1002
}
1000
Drawing
1070
     0
1002
{
1000
ChamferDimMode
1070
     1
1070
     2
1002
{
1002
}
1000
Gen_Fiso
1070
    -3
1040
1.0
1002
{
1002
}
1000
GenDimStil
1070
     4
1000
ISO
1002
{
1002
}
1000
GenDwgUScale
1070
     2
1040
1.0
1002
{
1002
}
1000
GenInch
1070
     4
1000
M
1002
{
1002
}
1000
GenPlotScale
1070
     4
1000
1:5
1002
{
1002
}
1000
Revisi
1070
     4
1000
0
1002
{
1002
}
1000
Version
1070
    -5
1000
14.01/Apr  1 1998
1002
{
1002
}
1000
Platform
1070
    -5
1000
WINNT
1002
{
1002
}
1002
}
1000
DwgVar
1070
     0
1002
{
1000
M
1070
     0
1002
{
1002
}
1000
I
1070
     0
1002
{
1002
}
1002
}
1000
Hatch
1070
     0
1002
{
1000
GenHtcFlag
1070
     3
1070
     0
1002
{
1002
}
1002
}
1000
Info_Pos
1070
     0
1002
{
1000
>
1002
}
1000
Layer
1070
     6
1002
{
1000
Defs
1070
     0
1002
{
1000
>
1002
}
1000
EntSort
1070
     0
1002
{
1000
>
1002
}
1000
Match
1070
     0
1002
{
1002
}
1000
Settings
1070
     0
1002
{
1000
FocGrNC
1070
     3
1070
     0
1002
{
1002
}
1000
FocGrLo
1070
     3
1070
     0
1002
{
1002
}
1000
FocLoNC
1070
     3
1070
     0
1002
{
1002
}
1000
FocusCol
1070
     1
1070
   253
1002
{
1002
}
1000
GenStdLG
1070
     4
1000

1002
{
1002
}
1000
LayMatch
1070
     3
1070
     0
1002
{
1002
}
1000
LgOff
1070
     3
1070
     0
1002
{
1002
}
1000
CurLG
1070
    -5
1000

1002
{
1002
}
1002
}
1002
}
1000
LType
1070
     0
1002
{
1000
GEN3
1070
     7
1000
genius.lin
1002
{
1002
}
1000
GEN7
1070
     7
1000
genius.lin
1002
{
1002
}
1000
GEN4A
1070
     7
1000
genius.lin
1002
{
1002
}
1000
GEN3A
1070
     7
1000
genius.lin
1002
{
1002
}
1000
GEN7A
1070
     7
1000
genius.lin
1002
{
1002
}
1000
GENZIGZAG
1070
     7
1000
genius.lin
1002
{
1002
}
1002
}
1000
Objecter
1070
     0
1002
{
1000
CreateGroups
1070
     3
1070
     0
1002
{
1002
}
1000
LaySwitch
1070
     3
1070
     1
1002
{
1002
}
1000
LastObj
1070
    -5
1000
136D
1002
{
1002
}
1000
TimeStamp
1070
    -5
1000
20020531.14433236
1002
{
1002
}
1002
}
1000
OSWiz
1070
     0
1002
{
1000
Filter
1070
     0
1002
{
1000
HATCH
1070
     8
1002
{
1000
EntityType
1070
     4
1000
LINE
1002
{
1002
}
1000
Layer
1070
     4
1000
8,8N,*-8,*-8N
1002
{
1002
}
1000
Linetype
1070
     4
1000
*
1002
{
1002
}
1000
Color
1070
     4
1000
*
1002
{
1002
}
1000
ApplyInDims
1070
     3
1070
     1
1002
{
1002
}
1002
}
1000
SYMBOLS
1070
     8
1002
{
1000
EntityType
1070
     4
1000
*
1002
{
1002
}
1000
Layer
1070
     4
1000
[5-6],[5-6]N,*-[5-6],*-[5-6]N
1002
{
1002
}
1000
Linetype
1070
     4
1000
*
1002
{
1002
}
1000
Color
1070
     4
1000
*
1002
{
1002
}
1000
ApplyInDims
1070
     3
1070
     1
1002
{
1002
}
1002
}
1000
FEM
1070
     8
1002
{
1000
EntityType
1070
     4
1000
*
1002
{
1002
}
1000
Layer
1070
     4
1000
4A,4AN,*-4A,*-4AN
1002
{
1002
}
1000
Linetype
1070
     4
1000
*
1002
{
1002
}
1000
Color
1070
     4
1000
*
1002
{
1002
}
1000
ApplyInDims
1070
     3
1070
     1
1002
{
1002
}
1002
}
1002
}
1002
}
1000
PaList
1070
     0
1002
{
1000
AutoUpdatePartList
1070
     1
1070
     0
1002
{
1002
}
1000
ReadInfoPoint
1070
     3
1070
     0
1002
{
1002
}
1000
ReadPosNr
1070
     3
1070
     1
1002
{
1002
}
1000
RevStr
1070
     4
1000
0
1002
{
1002
}
1002
}
1000
Paper
1070
     0
1002
{
1002
}
1000
PartDB
1070
     0
1002
{
1000
GenDbOwner
1070
     4
1000

1002
{
1002
}
1002
}
1000
System
1070
     0
1002
{
1000
Menu
1070
     4
1000
GEV
1002
{
1002
}
1002
}
1000
Title
1070
     0
1002
{
1000
MakeView
1070
     1
1070
     2
1002
{
1002
}
1002
}
1000
Tools
1070
     0
1002
{
1000
Trans
1070
     0
1002
{
1000
Drawingtranslation
1070
    -4
1070
     1
1002
{
1002
}
1000
upreserve
1070
     3
1070
     0
1002
{
1002
}
1000
originally_on
1070
    -4
1070
     0
1002
{
1002
}
1000
sourcelang
1070
    -5
1000
D
1002
{
1002
}
1002
}
1002
}
  0
APPID
  5
133B
330
12CE
100
AcDbSymbolTableRecord
100
AcDbRegAppTableRecord
  2
GENIUS_GEVCFG0_13
 70
     0
1001
GENIUS_GENCFG_13
1071
1022849016
1000
133B
1000
GEV
1070
     1
1000
GenCfgObject
1000
VED
1070
     0
1002
{
1002
}
  0
APPID
  5
133C
330
12CE
100
AcDbSymbolTableRecord
100
AcDbRegAppTableRecord
  2
GEV_VCCNULL_SWITCH_OFF
 70
     0
  0
APPID
  5
133D
330
12CE
100
AcDbSymbolTableRecord
100
AcDbRegAppTableRecord
  2
GENIUS_GENDTOL_13
 70
     0
  0
APPID
  5
133E
330
12CE
100
AcDbSymbolTableRecord
100
AcDbRegAppTableRecord
  2
GENIUS_GENOENT_13
 70
     0
  0
APPID
  5
133F
330
12CE
100
AcDbSymbolTableRecord
100
AcDbRegAppTableRecord
  2
GENIUS_GENBLLY_14
 70
     0
  0
APPID
  5
1340
330
12CE
100
AcDbSymbolTableRecord
100
AcDbRegAppTableRecord
  2
GENIUS_GENODEF_13
 70
     0
  0
APPID
  5
1341
330
12CE
100
AcDbSymbolTableRecord
100
AcDbRegAppTableRecord
  2
GENIUS_GENOBJ-N-CRS_13
 70
     0
  0
APPID
  5
1342
330
12CE
100
AcDbSymbolTableRecord
100
AcDbRegAppTableRecord
  2
GENIUS_GENOREF_13
 70
     0
  0
APPID
  5
1343
330
12CE
100
AcDbSymbolTableRecord
100
AcDbRegAppTableRecord
  2
GENIUS_GENOLIS_13
 70
     0
  0
APPID
  5
1344
330
12CE
100
AcDbSymbolTableRecord
100
AcDbRegAppTableRecord
  2
GENIUS_GEFCFG0_13
 70
     0
  0
APPID
  5
1345
330
12CE
100
AcDbSymbolTableRecord
100
AcDbRegAppTableRecord
  2
GENIUS_VERSION2
 70
     0
  0
APPID
  5
1346
330
12CE
100
AcDbSymbolTableRecord
100
AcDbRegAppTableRecord
  2
GENIUS_GENREC_14
 70
     0
  0
APPID
  5
1347
330
12CE
100
AcDbSymbolTableRecord
100
AcDbRegAppTableRecord
  2
GENIUS_GENOBJ-N-REC_13
 70
     0
  0
APPID
  5
1348
330
12CE
100
AcDbSymbolTableRecord
100
AcDbRegAppTableRecord
  2
GENIUS_GENOBJ-N-TIT_13
 70
     0
  0
APPID
  5
1349
330
12CE
100
AcDbSymbolTableRecord
100
AcDbRegAppTableRecord
  2
GENIUS_GENTITLE_13
 70
     0
  0
APPID
  5
134A
330
12CE
100
AcDbSymbolTableRecord
100
AcDbRegAppTableRecord
  2
GENIUS_GENZVEED_13
 70
     0
  0
APPID
  5
134B
330
12CE
100
AcDbSymbolTableRecord
100
AcDbRegAppTableRecord
  2
GENIUS_GENOBJ-N-SDF_13
 70
     0
  0
APPID
  5
134C
330
12CE
100
AcDbSymbolTableRecord
100
AcDbRegAppTableRecord
  2
GENIUS_GENSCREG_13
 70
     0
  0
APPID
  5
134D
330
12CE
100
AcDbSymbolTableRecord
100
AcDbRegAppTableRecord
  2
GENIUS_GENBLKED_14
 70
     0
  0
APPID
  5
1499
330
12CE
100
AcDbSymbolTableRecord
100
AcDbRegAppTableRecord
  2
MCAD_NO_VIS
 70
     0
  0
APPID
  5
149A
330
12CE
100
AcDbSymbolTableRecord
100
AcDbRegAppTableRecord
  2
ACAD_TEMP_GRAPHIC
 70
     0
  0
APPID
  5
14CA
330
12CE
100
AcDbSymbolTableRecord
100
AcDbRegAppTableRecord
  2
AD_DRAW
 70
     0
  0
APPID
  5
14CD
330
12CE
100
AcDbSymbolTableRecord
100
AcDbRegAppTableRecord
  2
ACATTRIBSERVICES
 70
     0
  0
APPID
  5
14ED
330
12CE
100
AcDbSymbolTableRecord
100
AcDbRegAppTableRecord
  2
DESIGNERASSEMBLIES
 70
     0
  0
APPID
  5
14F3
330
12CE
100
AcDbSymbolTableRecord
100
AcDbRegAppTableRecord
  2
ACADM_DIM_EDIT
 70
     0
  0
APPID
  5
14F4
330
12CE
100
AcDbSymbolTableRecord
100
AcDbRegAppTableRecord
  2
AMDT_DM_ADJ
 70
     0
  0
APPID
  5
1526
330
12CE
100
AcDbSymbolTableRecord
100
AcDbRegAppTableRecord
  2
ACAD_DSTYLE_DIMARC_LENGTH_SYMBOL
 70
     0
  0
APPID
  5
1527
330
12CE
100
AcDbSymbolTableRecord
100
AcDbRegAppTableRecord
  2
ACAD_DSTYLE_DIMJOGGED_JOGANGLE_SYMBOL
 70
     0
  0
APPID
  5
1566
330
12CE
100
AcDbSymbolTableRecord
100
AcDbRegAppTableRecord
  2
GENIUS_GENDIMSH_14
 70
     0
  0
APPID
  5
1582
330
12CE
100
AcDbSymbolTableRecord
100
AcDbRegAppTableRecord
  2
AcAecLayerStandard
 70
     0
  0
APPID
  5
1589
330
12CE
100
AcDbSymbolTableRecord
100
AcDbRegAppTableRecord
  2
GENIUS_GENOBJ-N-HTC_13
 70
     0
  0
APPID
  5
158A
330
12CE
100
AcDbSymbolTableRecord
100
AcDbRegAppTableRecord
  2
GENIUS_GENHATCH_13
 70
     0
  0
ENDTAB
  0
TABLE
  2
DIMSTYLE
  5
12CF
330
0
100
AcDbSymbolTable
 70
     8
100
AcDbDimStyleTable
 71
     1
340
12F6
  0
DIMSTYLE
105
12F6
102
{ACAD_REACTORS
330
1112
330
111D
330
113B
102
}
330
12CF
100
AcDbSymbolTableRecord
100
AcDbDimStyleTableRecord
  2
GEN-ISO
 70
     0
  4
"
 40
5.0
 41
2.5
 42
1.0
 43
7.0
 44
1.0
 47
0.1
 48
0.1
 73
     0
 74
     0
 77
     1
 78
     8
140
3.5
141
0.0
143
0.03937
146
0.71
147
0.6
172
     1
176
   256
177
   256
178
     2
271
     2
272
     3
274
     4
283
     0
340
12D4
  0
DIMSTYLE
105
1525
330
12CF
100
AcDbSymbolTableRecord
100
AcDbDimStyleTableRecord
  2
AM_DIN
 70
     0
  4
"
 41
2.5
 42
1.0
 43
10.0
 44
1.0
 47
0.1
 48
0.1
 73
     0
 74
     0
 77
     1
 78
     8
 79
     2
140
3.5
141
0.0
143
0.0393701
146
0.71
147
1.5
172
     1
176
   256
177
   256
178
     2
271
     2
272
     3
274
     4
283
     0
284
     8
340
12D4
371
    -1
372
    -1
1001
ACAD_DSTYLE_DIMARC_LENGTH_SYMBOL
1070
   379
1070
     0
1001
ACAD_DSTYLE_DIMJOGGED_JOGANGLE_SYMBOL
1070
   384
1040
1.570796326794896
  0
DIMSTYLE
105
1536
330
12CF
100
AcDbSymbolTableRecord
100
AcDbDimStyleTableRecord
  2
AM_DIN$3
 70
     0
  4
"
 41
2.5
 42
1.0
 43
10.0
 44
1.0
 47
0.1
 48
0.1
 73
     0
 77
     1
 78
     8
 79
     2
140
3.5
141
0.0
143
0.0393701
146
0.71
147
1.5
176
   256
177
   256
178
     2
271
     2
272
     3
274
     4
283
     0
284
     8
288
     1
289
     0
340
12D4
371
    -1
372
    -1
1001
ACAD_DSTYLE_DIMARC_LENGTH_SYMBOL
1070
   379
1070
     0
1001
ACAD_DSTYLE_DIMJOGGED_JOGANGLE_SYMBOL
1070
   384
1040
1.570796326794896
  0
DIMSTYLE
105
153B
330
12CF
100
AcDbSymbolTableRecord
100
AcDbDimStyleTableRecord
  2
AM_DIN$4
 70
     0
  4
"
 41
2.5
 42
1.0
 43
10.0
 44
1.0
 47
0.1
 48
0.1
 73
     0
 77
     1
 78
     8
 79
     2
140
3.5
141
0.0
143
0.0393701
146
0.71
147
1.5
176
   256
177
   256
178
     2
271
     2
272
     3
274
     4
283
     0
284
     8
288
     1
289
     0
340
12D4
371
    -1
372
    -1
1001
ACAD_DSTYLE_DIMARC_LENGTH_SYMBOL
1070
   379
1070
     0
1001
ACAD_DSTYLE_DIMJOGGED_JOGANGLE_SYMBOL
1070
   384
1040
1.570796326794896
  0
DIMSTYLE
105
1540
330
12CF
100
AcDbSymbolTableRecord
100
AcDbDimStyleTableRecord
  2
AM_DIN$6
 70
     0
  4
"
 41
2.5
 42
1.0
 43
10.0
 44
1.0
 47
0.1
 48
0.1
 73
     0
 74
     0
 78
     8
 79
     2
140
3.5
141
0.0
143
0.0393701
146
0.71
147
1.5
172
     1
176
   256
177
   256
178
     2
271
     2
272
     3
274
     4
283
     0
284
     8
340
12D4
371
    -1
372
    -1
1001
ACAD_DSTYLE_DIMARC_LENGTH_SYMBOL
1070
   379
1070
     0
1001
ACAD_DSTYLE_DIMJOGGED_JOGANGLE_SYMBOL
1070
   384
1040
1.570796326794896
  0
DIMSTYLE
105
1545
330
12CF
100
AcDbSymbolTableRecord
100
AcDbDimStyleTableRecord
  2
AM_DIN$7
 70
     0
  4
"
 41
2.5
 42
1.0
 43
10.0
 44
1.0
 47
0.1
 48
0.1
 73
     0
 74
     0
 77
     1
 78
     8
 79
     2
140
5.0
141
0.0
143
0.0393701
146
0.71
147
1.5
172
     1
176
   256
177
   256
178
     2
271
     2
272
     3
274
     4
283
     0
284
     8
340
12D4
371
    -1
372
    -1
1001
ACAD_DSTYLE_DIMARC_LENGTH_SYMBOL
1070
   379
1070
     0
1001
ACAD_DSTYLE_DIMJOGGED_JOGANGLE_SYMBOL
1070
   384
1040
1.570796326794896
  0
DIMSTYLE
105
154A
330
12CF
100
AcDbSymbolTableRecord
100
AcDbDimStyleTableRecord
  2
AM_DIN$SF
 70
     0
  4
"
 41
2.5
 42
1.0
 43
10.0
 44
1.0
 47
0.1
 48
0.1
 73
     0
 74
     0
 75
     1
 76
     1
 77
     1
 78
     8
 79
     2
140
3.5
141
0.0
143
0.0393701
146
0.71
147
1.5
172
     1
176
   256
177
   256
178
     2
271
     2
272
     3
274
     4
283
     0
284
     8
340
12D4
371
    -1
372
    -1
1001
ACAD_DSTYLE_DIMARC_LENGTH_SYMBOL
1070
   379
1070
     0
1001
ACAD_DSTYLE_DIMJOGGED_JOGANGLE_SYMBOL
1070
   384
1040
1.570796326794896
  0
DIMSTYLE
105
1553
330
12CF
100
AcDbSymbolTableRecord
100
AcDbDimStyleTableRecord
  2
AM_DIN$SH
 70
     0
  4
"
 41
2.5
 42
1.0
 43
10.0
 44
1.0
 47
0.1
 48
0.1
 73
     0
 74
     0
 75
     1
 76
     1
 77
     1
 78
     8
 79
     2
140
3.5
141
0.0
143
0.0393701
144
2.0
146
0.71
147
1.5
172
     1
173
     1
176
   256
177
   256
178
     2
271
     2
272
     3
274
     4
283
     0
284
     8
340
12D4
343
154B
371
    -1
372
    -1
1001
ACAD_DSTYLE_DIMARC_LENGTH_SYMBOL
1070
   379
1070
     0
1001
ACAD_DSTYLE_DIMJOGGED_JOGANGLE_SYMBOL
1070
   384
1040
1.570796326794896
  0
ENDTAB
  0
TABLE
  2
BLOCK_RECORD
  5
12C6
330
0
100
AcDbSymbolTable
 70
    10
  0
BLOCK_RECORD
  5
12DD
102
{ACAD_XDICTIONARY
360
1563
102
}
330
12C6
100
AcDbSymbolTableRecord
100
AcDbBlockTableRecord
  2
*MODEL_SPACE
340
1491
  0
BLOCK_RECORD
  5
12DA
330
12C6
100
AcDbSymbolTableRecord
100
AcDbBlockTableRecord
  2
*PAPER_SPACE
340
1492
  0
BLOCK_RECORD
  5
12FE
330
12C6
100
AcDbSymbolTableRecord
100
AcDbBlockTableRecord
  2
*X0
340
0
102
{BLKREFS
331
11D7
102
}
  0
BLOCK_RECORD
  5
12FF
330
12C6
100
AcDbSymbolTableRecord
100
AcDbBlockTableRecord
  2
*X1
340
0
102
{BLKREFS
331
11E9
102
}
  0
BLOCK_RECORD
  5
1300
330
12C6
100
AcDbSymbolTableRecord
100
AcDbBlockTableRecord
  2
*X2
340
0
102
{BLKREFS
331
11FD
102
}
  0
BLOCK_RECORD
  5
1301
330
12C6
100
AcDbSymbolTableRecord
100
AcDbBlockTableRecord
  2
*X3
340
0
102
{BLKREFS
331
1216
102
}
  0
BLOCK_RECORD
  5
130B
330
12C6
100
AcDbSymbolTableRecord
100
AcDbBlockTableRecord
  2
KATALOG_LEER
340
0
102
{BLKREFS
331
136C
102
}
  0
BLOCK_RECORD
  5
136E
330
12C6
100
AcDbSymbolTableRecord
100
AcDbBlockTableRecord
  2
*D5
340
0
  0
BLOCK_RECORD
  5
1391
330
12C6
100
AcDbSymbolTableRecord
100
AcDbBlockTableRecord
  2
*D6
340
0
  0
BLOCK_RECORD
  5
13DE
330
12C6
100
AcDbSymbolTableRecord
100
AcDbBlockTableRecord
  2
*D7
340
0
  0
BLOCK_RECORD
  5
154B
330
12C6
100
AcDbSymbolTableRecord
100
AcDbBlockTableRecord
  2
GENAXEH
340
0
  0
ENDTAB
  0
ENDSEC
  0
SECTION
  2
BLOCKS
  0
BLOCK
  5
12DE
330
12DD
100
AcDbEntity
  8
0
100
AcDbBlockBegin
  2
*MODEL_SPACE
 70
     0
 10
0.0
 20
0.0
 30
0.0
  3
*MODEL_SPACE
  1

  0
ENDBLK
  5
12DF
330
12DD
100
AcDbEntity
  8
0
100
AcDbBlockEnd
  0
BLOCK
  5
12DB
330
12DA
100
AcDbEntity
 67
     1
  8
0
100
AcDbBlockBegin
  2
*PAPER_SPACE
 70
     0
 10
0.0
 20
0.0
 30
0.0
  3
*PAPER_SPACE
  1

  0
ENDBLK
  5
12DC
330
12DA
100
AcDbEntity
 67
     1
  8
0
100
AcDbBlockEnd
  0
BLOCK
  5
11D2
330
12FE
100
AcDbEntity
  8
0
100
AcDbBlockBegin
  2
*X0
 70
     1
 10
0.0
 20
0.0
 30
0.0
  3
*X0
  1

  0
LINE
  5
11D3
330
12FE
100
AcDbEntity
  8
8
100
AcDbLine
 10
326.1140000000001
 20
393.235
 30
0.0
 11
333.318
 21
386.032
 31
0.0
  0
LINE
  5
11D4
330
12FE
100
AcDbEntity
  8
8
100
AcDbLine
 10
335.551
 20
392.779
 30
0.0
 11
345.718
 21
382.6119999999999
 31
0.0
  0
LINE
  5
11D5
330
12FE
100
AcDbEntity
  8
8
100
AcDbLine
 10
345.028
 20
392.283
 30
0.0
 11
354.679
 21
382.631
 31
0.0
  0
ENDBLK
  5
11D6
330
12FE
100
AcDbEntity
  8
0
100
AcDbBlockEnd
  0
BLOCK
  5
11E6
330
12FF
100
AcDbEntity
  8
0
100
AcDbBlockBegin
  2
*X1
 70
     1
 10
0.0
 20
0.0
 30
0.0
  3
*X1
  1

  0
LINE
  5
11E7
330
12FF
100
AcDbEntity
  8
8
100
AcDbLine
 10
375.53
 20
388.721
 30
0.0
 11
383.903
 21
380.348
 31
0.0
  0
ENDBLK
  5
11E8
330
12FF
100
AcDbEntity
  8
0
100
AcDbBlockEnd
  0
BLOCK
  5
11F9
330
1300
100
AcDbEntity
  8
0
100
AcDbBlockBegin
  2
*X2
 70
     1
 10
0.0
 20
0.0
 30
0.0
  3
*X2
  1

  0
LINE
  5
11FA
330
1300
100
AcDbEntity
  8
8
100
AcDbLine
 10
591.5009999999999
 20
388.276
 30
0.0
 11
599.7919999999999
 21
379.986
 31
0.0
  0
LINE
  5
11FB
330
1300
100
AcDbEntity
  8
8
100
AcDbLine
 10
600.034
 20
388.723
 30
0.0
 11
605.317
 21
383.441
 31
0.0
  0
ENDBLK
  5
11FC
330
1300
100
AcDbEntity
  8
0
100
AcDbBlockEnd
  0
BLOCK
  5
1210
330
1301
100
AcDbEntity
  8
0
100
AcDbBlockBegin
  2
*X3
 70
     1
 10
0.0
 20
0.0
 30
0.0
  3
*X3
  1

  0
LINE
  5
1211
330
1301
100
AcDbEntity
  8
8
100
AcDbLine
 10
625.6879999999999
 20
390.01
 30
0.0
 11
632.8229999999999
 21
382.876
 31
0.0
  0
LINE
  5
1212
330
1301
100
AcDbEntity
  8
8
100
AcDbLine
 10
632.3009999999999
 20
392.377
 30
0.0
 11
639.598
 21
385.081
 31
0.0
  0
LINE
  5
1213
330
1301
100
AcDbEntity
  8
8
100
AcDbLine
 10
640.834
 20
392.825
 30
0.0
 11
646.182
 21
387.477
 31
0.0
  0
LINE
  5
1214
330
1301
100
AcDbEntity
  8
8
100
AcDbLine
 10
649.404
 20
393.236
 30
0.0
 11
650.764
 21
391.876
 31
0.0
  0
ENDBLK
  5
1215
330
1301
100
AcDbEntity
  8
0
100
AcDbBlockEnd
  0
BLOCK
  5
130C
330
130B
100
AcDbEntity
  8
0
100
AcDbBlockBegin
  2
KATALOG_LEER
 70
     0
 10
0.0
 20
0.0
 30
0.0
  3
KATALOG_LEER
  1

  0
ENDBLK
  5
130D
330
130B
100
AcDbEntity
  8
0
100
AcDbBlockEnd
  0
BLOCK
  5
1431
330
136E
100
AcDbEntity
  8
0
100
AcDbBlockBegin
  2
*D5
 70
     1
 10
0.0
 20
0.0
 30
0.0
  3
*D5
  1

  0
LINE
  5
1432
330
136E
100
AcDbEntity
  8
0
  6
ByBlock
100
AcDbLine
 10
584.7541219999999
 20
421.3962480000001
 30
0.0
 11
584.7541219999999
 21
533.767248
 31
0.0
  0
LINE
  5
1433
330
136E
100
AcDbEntity
  8
0
  6
ByBlock
100
AcDbLine
 10
224.754122
 20
421.3962480000001
 30
0.0
 11
224.754122
 21
533.767248
 31
0.0
  0
LINE
  5
1434
330
136E
100
AcDbEntity
  8
0
  6
ByBlock
100
AcDbLine
 10
572.2541219999999
 20
528.767248
 30
0.0
 11
237.254122
 21
528.767248
 31
0.0
  0
SOLID
  5
1435
330
136E
100
AcDbEntity
  8
0
  6
ByBlock
100
AcDbTrace
 10
572.2541219999999
 20
530.8505809999998
 30
0.0
 11
572.2541219999999
 21
526.683914
 31
0.0
 12
584.7541219999999
 22
528.767248
 32
0.0
 13
584.7541219999999
 23
528.767248
 33
0.0
  0
SOLID
  5
1436
330
136E
100
AcDbEntity
  8
0
  6
ByBlock
100
AcDbTrace
 10
237.254122
 20
530.8505809999998
 30
0.0
 11
237.254122
 21
526.683914
 31
0.0
 12
224.754122
 22
528.767248
 32
0.0
 13
224.754122
 23
528.767248
 33
0.0
  0
MTEXT
  5
1437
330
136E
100
AcDbEntity
  8
0
  6
ByBlock
 62
     2
100
AcDbMText
 10
404.754122
 20
540.517248
 30
0.0
 40
17.5
 41
0.0
 71
     5
 72
     1
  1
\U+2205 360
 73
     1
 44
1.0
1001
ACAD
1000
MTEXTBEGIN
1070
    73
1070
     1
1070
    44
1040
1.0
1070
    74
1070
     0
1000
MTEXTEND
  0
POINT
  5
1438
330
136E
100
AcDbEntity
  8
DEFPOINTS
  6
ByBlock
 62
     0
100
AcDbPoint
 10
584.7541219999999
 20
416.396248
 30
0.0
  0
POINT
  5
1439
330
136E
100
AcDbEntity
  8
DEFPOINTS
  6
ByBlock
 62
     0
100
AcDbPoint
 10
224.754122
 20
416.396248
 30
0.0
  0
POINT
  5
143A
330
136E
100
AcDbEntity
  8
DEFPOINTS
  6
ByBlock
 62
     0
100
AcDbPoint
 10
224.754122
 20
528.767248
 30
0.0
  0
ENDBLK
  5
143B
330
136E
100
AcDbEntity
  8
0
100
AcDbBlockEnd
  0
BLOCK
  5
139D
330
1391
100
AcDbEntity
  8
0
100
AcDbBlockBegin
  2
*D6
 70
     1
 10
0.0
 20
0.0
 30
0.0
  3
*D6
  1

  0
LINE
  5
15D1
330
1391
100
AcDbEntity
  8
5
370
    -2
100
AcDbLine
 10
224.353122
 20
426.395248
 30
0.0
 11
165.1561220036743
 21
426.395248
 31
0.0
  0
LINE
  5
15D2
330
1391
100
AcDbEntity
  8
5
370
    -2
100
AcDbLine
 10
399.755122
 20
196.3962480000001
 30
0.0
 11
165.1561220036742
 21
196.3962480000001
 31
0.0
  0
LINE
  5
15D3
330
1391
100
AcDbEntity
  8
5
370
    -2
100
AcDbLine
 10
170.1561220036743
 20
413.895248
 30
0.0
 11
170.1561220036742
 21
208.8962480000001
 31
0.0
  0
SOLID
  5
15D4
330
1391
100
AcDbEntity
  8
5
100
AcDbTrace
 10
168.0727886703409
 20
413.895248
 30
0.0
 11
172.2394553370076
 21
413.895248
 31
0.0
 12
170.1561220036743
 22
426.395248
 32
0.0
 13
170.1561220036743
 23
426.395248
 33
0.0
  0
SOLID
  5
15D5
330
1391
100
AcDbEntity
  8
5
100
AcDbTrace
 10
168.0727886703409
 20
208.8962480000001
 30
0.0
 11
172.2394553370076
 21
208.8962480000001
 31
0.0
 12
170.1561220036742
 22
196.3962480000001
 32
0.0
 13
170.1561220036742
 23
196.3962480000001
 33
0.0
  0
MTEXT
  5
15D6
330
1391
100
AcDbEntity
  8
5
 62
     2
100
AcDbMText
 10
158.4043995627293
 20
307.685248
 30
0.0
 40
17.5
 41
0.0
 71
     5
 72
     1
  1
230
 11
0.0000000000000001
 21
1.0
 31
0.0
 73
     1
 44
1.0
1001
ACAD
1000
MTEXTBEGIN
1070
    73
1070
     1
1070
    44
1040
1.0
1070
    74
1070
     0
1000
MTEXTEND
  0
POINT
  5
15D7
330
1391
100
AcDbEntity
  8
DEFPOINTS
 62
     0
100
AcDbPoint
 10
229.353122
 20
426.395248
 30
0.0
  0
POINT
  5
15D8
330
1391
100
AcDbEntity
  8
DEFPOINTS
 62
     0
100
AcDbPoint
 10
404.755122
 20
196.3962480000001
 30
0.0
  0
POINT
  5
15D9
330
1391
100
AcDbEntity
  8
DEFPOINTS
 62
     0
100
AcDbPoint
 10
170.1561220036742
 20
196.3962480000001
 30
0.0
  0
ENDBLK
  5
13A7
330
1391
100
AcDbEntity
  8
0
100
AcDbBlockEnd
  0
BLOCK
  5
143C
330
13DE
100
AcDbEntity
  8
0
100
AcDbBlockBegin
  2
*D7
 70
     1
 10
0.0
 20
0.0
 30
0.0
  3
*D7
  1

  0
LINE
  5
143D
330
13DE
100
AcDbEntity
  8
0
  6
ByBlock
100
AcDbLine
 10
304.754122
 20
435.396248
 30
0.0
 11
304.754122
 21
498.767248
 31
0.0
  0
LINE
  5
143E
330
13DE
100
AcDbEntity
  8
0
  6
ByBlock
100
AcDbLine
 10
504.754122
 20
435.395248
 30
0.0
 11
504.754122
 21
498.767248
 31
0.0
  0
LINE
  5
143F
330
13DE
100
AcDbEntity
  8
0
  6
ByBlock
100
AcDbLine
 10
317.254122
 20
493.767248
 30
0.0
 11
492.254122
 21
493.767248
 31
0.0
  0
SOLID
  5
1440
330
13DE
100
AcDbEntity
  8
0
  6
ByBlock
100
AcDbTrace
 10
317.254122
 20
495.850581
 30
0.0
 11
317.254122
 21
491.6839139999999
 31
0.0
 12
304.754122
 22
493.767248
 32
0.0
 13
304.754122
 23
493.767248
 33
0.0
  0
SOLID
  5
1441
330
13DE
100
AcDbEntity
  8
0
  6
ByBlock
100
AcDbTrace
 10
492.254122
 20
495.850581
 30
0.0
 11
492.254122
 21
491.6839139999999
 31
0.0
 12
504.754122
 22
493.767248
 32
0.0
 13
504.754122
 23
493.767248
 33
0.0
  0
MTEXT
  5
1442
330
13DE
100
AcDbEntity
  8
0
  6
ByBlock
 62
     2
100
AcDbMText
 10
404.754122
 20
505.51897
 30
0.0
 40
17.5
 41
0.0
 71
     5
 72
     1
  1
\U+2205 200
 73
     1
 44
1.0
1001
ACAD
1000
MTEXTBEGIN
1070
    73
1070
     1
1070
    44
1040
1.0
1070
    74
1070
     0
1000
MTEXTEND
  0
POINT
  5
1443
330
13DE
100
AcDbEntity
  8
DEFPOINTS
  6
ByBlock
 62
     0
100
AcDbPoint
 10
304.754122
 20
430.396248
 30
0.0
  0
POINT
  5
1444
330
13DE
100
AcDbEntity
  8
DEFPOINTS
  6
ByBlock
 62
     0
100
AcDbPoint
 10
504.754122
 20
430.395248
 30
0.0
  0
POINT
  5
1445
330
13DE
100
AcDbEntity
  8
DEFPOINTS
  6
ByBlock
 62
     0
100
AcDbPoint
 10
504.754122
 20
493.767248
 30
0.0
  0
ENDBLK
  5
1446
330
13DE
100
AcDbEntity
  8
0
100
AcDbBlockEnd
  0
BLOCK
  5
154D
330
154B
100
AcDbEntity
  8
0
100
AcDbBlockBegin
  2
GENAXEH
 70
     0
 10
0.0
 20
0.0
 30
0.0
  3
GENAXEH
  1

  0
LINE
  5
154C
330
154B
100
AcDbEntity
  8
0
100
AcDbLine
 10
-1.0
 20
0.0
 30
0.0
 11
1.0
 21
0.0
 31
0.0
  0
ENDBLK
  5
154E
330
154B
100
AcDbEntity
  8
0
100
AcDbBlockEnd
  0
ENDSEC
  0
SECTION
  2
ENTITIES
  0
POINT
  5
1001
330
12DD
100
AcDbEntity
  8
PUNKTE
100
AcDbPoint
 10
334.705122
 20
298.770248
 30
0.0
  0
LINE
  5
1002
330
12DD
100
AcDbEntity
  8
7
100
AcDbLine
 10
404.755122
 20
457.231248
 30
0.0
 11
404.755122
 21
175.396248
 31
0.0
  0
LINE
  5
1003
330
12DD
100
AcDbEntity
  8
0
100
AcDbLine
 10
498.4161219999999
 20
414.3962479999999
 30
0.0
 11
418.193122
 21
414.3962479999999
 31
0.0
  0
LINE
  5
1004
330
12DD
100
AcDbEntity
  8
0
100
AcDbLine
 10
498.2331219999999
 20
410.896248
 30
0.0
 11
491.637122
 21
410.896248
 31
0.0
  0
LINE
  5
1005
330
12DD
100
AcDbEntity
  8
0
100
AcDbLine
 10
417.254122
 20
410.895248
 30
0.0
 11
418.192122
 21
414.395248
 31
0.0
  0
LINE
  5
1006
330
12DD
100
AcDbEntity
  8
0
100
AcDbLine
 10
392.254122
 20
410.896248
 30
0.0
 11
391.317122
 21
414.3962479999999
 31
0.0
  0
LINE
  5
1007
330
12DD
100
AcDbEntity
  8
0
100
AcDbLine
 10
317.872122
 20
410.896248
 30
0.0
 11
311.277122
 21
410.896248
 31
0.0
  0
LINE
  5
1008
330
12DD
100
AcDbEntity
  8
0
100
AcDbLine
 10
417.255122
 20
410.896248
 30
0.0
 11
392.255122
 21
410.896248
 31
0.0
  0
LINE
  5
1009
330
12DD
100
AcDbEntity
  8
0
100
AcDbLine
 10
391.317122
 20
414.3962479999999
 30
0.0
 11
311.093122
 21
414.3962479999999
 31
0.0
  0
LINE
  5
100A
330
12DD
100
AcDbEntity
  8
0
100
AcDbLine
 10
317.254122
 20
414.3962479999999
 30
0.0
 11
319.254122
 21
403.0542479999999
 31
0.0
  0
LINE
  5
100B
330
12DD
100
AcDbEntity
  8
0
100
AcDbLine
 10
492.254122
 20
414.3962479999999
 30
0.0
 11
490.2551219999999
 21
403.0532479999999
 31
0.0
  0
LINE
  5
100C
330
12DD
100
AcDbEntity
  8
0
100
AcDbLine
 10
490.2551219999999
 20
403.0532479999999
 30
0.0
 11
319.255122
 21
403.0532479999999
 31
0.0
  0
LINE
  5
100D
330
12DD
100
AcDbEntity
  8
0
100
AcDbLine
 10
310.254122
 20
430.395248
 30
0.0
 11
311.276122
 21
410.895248
 31
0.0
  0
LINE
  5
100E
330
12DD
100
AcDbEntity
  8
0
100
AcDbLine
 10
499.2541219999999
 20
430.395248
 30
0.0
 11
498.2331219999999
 21
410.895248
 31
0.0
  0
LINE
  5
100F
330
12DD
100
AcDbEntity
  8
0
100
AcDbLine
 10
241.913122
 20
416.396248
 30
0.0
 11
224.755122
 21
416.396248
 31
0.0
  0
LINE
  5
1010
330
12DD
100
AcDbEntity
  8
0
100
AcDbLine
 10
584.755122
 20
416.396248
 30
0.0
 11
567.5961219999999
 21
416.396248
 31
0.0
  0
LINE
  5
1011
330
12DD
100
AcDbEntity
  8
0
100
AcDbLine
 10
580.1571219999999
 20
426.396248
 30
0.0
 11
565.0031219999999
 21
426.396248
 31
0.0
  0
LINE
  5
1012
330
12DD
100
AcDbEntity
  8
0
100
AcDbLine
 10
224.754122
 20
416.3952479999999
 30
0.0
 11
226.937122
 21
424.543248
 31
0.0
  0
LINE
  5
1013
330
12DD
100
AcDbEntity
  8
0
100
AcDbLine
 10
584.7541219999999
 20
416.396248
 30
0.0
 11
582.5711219999999
 21
424.544248
 31
0.0
  0
ARC
  5
1014
330
12DD
100
AcDbEntity
  8
0
100
AcDbCircle
 10
580.1571219999999
 20
423.896248
 30
0.0
 40
2.5
100
AcDbArc
 50
15.0
 51
107.0
  0
ARC
  5
1015
330
12DD
100
AcDbEntity
  8
0
100
AcDbCircle
 10
229.353122
 20
423.896248
 30
0.0
 40
2.5
100
AcDbArc
 50
73.0
 51
165.0
  0
LINE
  5
1016
330
12DD
100
AcDbEntity
  8
0
100
AcDbLine
 10
362.353122
 20
426.396248
 30
0.0
 11
349.917122
 21
426.396248
 31
0.0
  0
LINE
  5
1017
330
12DD
100
AcDbEntity
  8
0
100
AcDbLine
 10
579.426122
 20
426.285248
 30
0.0
 11
550.755122
 21
417.520248
 31
0.0
  0
LINE
  5
1018
330
12DD
100
AcDbEntity
  8
0
100
AcDbLine
 10
567.5961219999999
 20
416.3952479999999
 30
0.0
 11
551.906122
 21
411.598248
 31
0.0
  0
LINE
  5
1019
330
12DD
100
AcDbEntity
  8
0
100
AcDbLine
 10
230.083122
 20
426.286248
 30
0.0
 11
258.754122
 21
417.5212479999999
 31
0.0
  0
LINE
  5
101A
330
12DD
100
AcDbEntity
  8
0
100
AcDbLine
 10
241.912122
 20
416.396248
 30
0.0
 11
257.603122
 21
411.598248
 31
0.0
  0
LINE
  5
101B
330
12DD
100
AcDbEntity
  8
0
100
AcDbLine
 10
258.755122
 20
417.5212479999999
 30
0.0
 11
273.116122
 21
416.264248
 31
0.0
  0
LINE
  5
101C
330
12DD
100
AcDbEntity
  8
0
100
AcDbLine
 10
550.7541219999999
 20
417.5212479999999
 30
0.0
 11
534.755122
 21
416.1212479999999
 31
0.0
  0
ARC
  5
101D
330
12DD
100
AcDbEntity
  8
0
100
AcDbCircle
 10
529.755122
 20
396.396248
 30
0.0
 40
12.0
100
AcDbArc
 50
190.22
 51
350.0
  0
ARC
  5
101E
330
12DD
100
AcDbEntity
  8
0
100
AcDbCircle
 10
279.755122
 20
396.396248
 30
0.0
 40
12.0
100
AcDbArc
 50
190.243
 51
350.0
  0
LINE
  5
101F
330
12DD
100
AcDbEntity
  8
0
100
AcDbLine
 10
551.905122
 20
411.598248
 30
0.0
 11
546.4171219999999
 21
411.118248
 31
0.0
  0
LINE
  5
1020
330
12DD
100
AcDbEntity
  8
0
100
AcDbLine
 10
257.603122
 20
411.599248
 30
0.0
 11
263.092122
 21
411.1192479999999
 31
0.0
  0
LINE
  5
1021
330
12DD
100
AcDbEntity
  8
0
100
AcDbLine
 10
541.5721219999999
 20
394.312248
 30
0.0
 11
544.1731219999999
 21
409.062248
 31
0.0
  0
LINE
  5
1022
330
12DD
100
AcDbEntity
  8
0
100
AcDbLine
 10
291.572122
 20
394.312248
 30
0.0
 11
293.660122
 21
406.153248
 31
0.0
  0
LINE
  5
1023
330
12DD
100
AcDbEntity
  8
0
100
AcDbLine
 10
267.938122
 20
394.312248
 30
0.0
 11
265.337122
 21
409.062248
 31
0.0
  0
LINE
  5
1024
330
12DD
100
AcDbEntity
  8
0
100
AcDbLine
 10
517.9361219999999
 20
394.312248
 30
0.0
 11
515.849122
 21
406.153248
 31
0.0
  0
LINE
  5
1025
330
12DD
100
AcDbEntity
  8
0
100
AcDbLine
 10
296.340122
 20
408.2102479999999
 30
0.0
 11
305.876122
 21
407.375248
 31
0.0
  0
ARC
  5
1026
330
12DD
100
AcDbEntity
  8
0
100
AcDbCircle
 10
262.874122
 20
408.6282479999999
 30
0.0
 40
2.5
100
AcDbArc
 50
10.001
 51
85.0
  0
ARC
  5
1027
330
12DD
100
AcDbEntity
  8
0
100
AcDbCircle
 10
296.122122
 20
405.719248
 30
0.0
 40
2.5
100
AcDbArc
 50
84.999
 51
170.0009999999999
  0
LINE
  5
1028
330
12DD
100
AcDbEntity
  8
0
100
AcDbLine
 10
513.1681219999999
 20
408.209248
 30
0.0
 11
503.6321219999999
 21
407.375248
 31
0.0
  0
ARC
  5
1029
330
12DD
100
AcDbEntity
  8
0
100
AcDbCircle
 10
546.6351219999999
 20
408.6282479999999
 30
0.0
 40
2.5
100
AcDbArc
 50
94.99700000000002
 51
169.999
  0
ARC
  5
102A
330
12DD
100
AcDbEntity
  8
0
100
AcDbCircle
 10
513.3871219999999
 20
405.719248
 30
0.0
 40
2.5
100
AcDbArc
 50
9.998000000000001
 51
95.0
  0
LINE
  5
102B
330
12DD
100
AcDbEntity
  8
0
100
AcDbLine
 10
505.8041219999999
 20
418.3962479999999
 30
0.0
 11
498.6261219999999
 21
418.3962479999999
 31
0.0
  0
LINE
  5
102C
330
12DD
100
AcDbEntity
  8
0
100
AcDbLine
 10
310.883122
 20
418.3962479999999
 30
0.0
 11
303.705122
 21
418.3962479999999
 31
0.0
  0
LINE
  5
102D
330
12DD
100
AcDbEntity
  8
0
100
AcDbLine
 10
465.725122
 20
196.3962480000001
 30
0.0
 11
356.255122
 21
196.3962480000001
 31
0.0
  0
LINE
  5
102E
330
12DD
100
AcDbEntity
  8
0
100
AcDbLine
 10
479.1321219999999
 20
299.929248
 30
0.0
 11
490.466122
 21
302.966248
 31
0.0
  0
LINE
  5
102F
330
12DD
100
AcDbEntity
  8
0
100
AcDbLine
 10
330.378122
 20
299.929248
 30
0.0
 11
319.0431220000001
 21
302.966248
 31
0.0
  0
LINE
  5
1030
330
12DD
100
AcDbEntity
  8
0
100
AcDbLine
 10
314.601122
 20
308.553248
 30
0.0
 11
311.351122
 21
401.607248
 31
0.0
  0
LINE
  5
1031
330
12DD
100
AcDbEntity
  8
0
100
AcDbLine
 10
494.910122
 20
308.552248
 30
0.0
 11
498.1591219999999
 21
401.607248
 31
0.0
  0
ARC
  5
1032
330
12DD
100
AcDbEntity
  8
0
100
AcDbCircle
 10
504.1551219999999
 20
401.398248
 30
0.0
 40
6.0
100
AcDbArc
 50
95.0
 51
178.001
  0
ARC
  5
1033
330
12DD
100
AcDbEntity
  8
0
100
AcDbCircle
 10
305.354122
 20
401.398248
 30
0.0
 40
6.0
100
AcDbArc
 50
1.999
 51
85.00100000000001
  0
LINE
  5
1034
330
12DD
100
AcDbEntity
  8
0
100
AcDbLine
 10
319.255122
 20
403.0532479999999
 30
0.0
 11
320.8241220000001
 21
313.200248
 31
0.0
  0
LINE
  5
1035
330
12DD
100
AcDbEntity
  8
0
100
AcDbLine
 10
490.2541219999999
 20
403.0532479999999
 30
0.0
 11
488.6861219999999
 21
313.201248
 31
0.0
  0
ARC
  5
1036
330
12DD
100
AcDbEntity
  8
0
100
AcDbCircle
 10
488.913122
 20
308.761248
 30
0.0
 40
6.0
100
AcDbArc
 50
284.999
 51
358.0
  0
ARC
  5
1037
330
12DD
100
AcDbEntity
  8
0
100
AcDbCircle
 10
320.596122
 20
308.762248
 30
0.0
 40
6.0
100
AcDbArc
 50
182.001
 51
254.999
  0
LINE
  5
1038
330
12DD
100
AcDbEntity
  8
0
100
AcDbLine
 10
472.7471219999999
 20
304.430248
 30
0.0
 11
484.240122
 21
307.510248
 31
0.0
  0
LINE
  5
1039
330
12DD
100
AcDbEntity
  8
0
100
AcDbLine
 10
336.762122
 20
304.430248
 30
0.0
 11
325.269122
 21
307.510248
 31
0.0
  0
ARC
  5
103A
330
12DD
100
AcDbEntity
  8
0
100
AcDbCircle
 10
482.687122
 20
313.305248
 30
0.0
 40
6.0
100
AcDbArc
 50
285.001
 51
359.0
  0
ARC
  5
103B
330
12DD
100
AcDbEntity
  8
0
100
AcDbCircle
 10
326.822122
 20
313.305248
 30
0.0
 40
6.0
100
AcDbArc
 50
181.0
 51
255.0
  0
LINE
  5
103C
330
12DD
100
AcDbEntity
  8
4
100
AcDbLine
 10
484.5091219999999
 20
308.680248
 30
0.0
 11
325.001122
 21
308.680248
 31
0.0
  0
LINE
  5
103D
330
12DD
100
AcDbEntity
  8
0
100
AcDbLine
 10
284.754122
 20
415.2462479999999
 30
0.0
 11
298.244122
 21
414.0662479999999
 31
0.0
  0
LINE
  5
103E
330
12DD
100
AcDbEntity
  8
0
100
AcDbLine
 10
273.754122
 20
415.158248
 30
0.0
 11
273.116122
 21
416.264248
 31
0.0
  0
LINE
  5
103F
330
12DD
100
AcDbEntity
  8
0
100
AcDbLine
 10
524.755122
 20
415.2462479999999
 30
0.0
 11
508.7121219999999
 21
413.842248
 31
0.0
  0
LINE
  5
1040
330
12DD
100
AcDbEntity
  8
0
100
AcDbLine
 10
534.7541219999999
 20
413.4272479999999
 30
0.0
 11
536.3921219999999
 21
416.264248
 31
0.0
  0
LINE
  5
1041
330
12DD
100
AcDbEntity
  8
0
100
AcDbLine
 10
524.755122
 20
400.159248
 30
0.0
 11
534.755122
 21
400.159248
 31
0.0
  0
LINE
  5
1042
330
12DD
100
AcDbEntity
  8
0
100
AcDbLine
 10
525.755122
 20
394.659248
 30
0.0
 11
533.755122
 21
394.659248
 31
0.0
  0
LINE
  5
1043
330
12DD
100
AcDbEntity
  8
0
100
AcDbLine
 10
274.755122
 20
400.159248
 30
0.0
 11
284.755122
 21
400.159248
 31
0.0
  0
LINE
  5
1044
330
12DD
100
AcDbEntity
  8
0
100
AcDbLine
 10
283.755122
 20
394.659248
 30
0.0
 11
275.755122
 21
394.659248
 31
0.0
  0
LINE
  5
1045
330
12DD
100
AcDbEntity
  8
0
100
AcDbLine
 10
258.755122
 20
417.5212479999999
 30
0.0
 11
274.755122
 21
417.5212479999999
 31
0.0
  0
LINE
  5
1046
330
12DD
100
AcDbEntity
  8
0
100
AcDbLine
 10
273.116122
 20
416.264248
 30
0.0
 11
274.755122
 21
416.264248
 31
0.0
  0
LINE
  5
1047
330
12DD
100
AcDbEntity
  8
0
100
AcDbLine
 10
533.7541219999999
 20
394.660248
 30
0.0
 11
529.7541219999999
 21
392.350248
 31
0.0
  0
LINE
  5
1048
330
12DD
100
AcDbEntity
  8
0
100
AcDbLine
 10
525.7541219999999
 20
394.659248
 30
0.0
 11
529.7541219999999
 21
392.350248
 31
0.0
  0
LINE
  5
1049
330
12DD
100
AcDbEntity
  8
0
100
AcDbLine
 10
283.754122
 20
394.660248
 30
0.0
 11
279.754122
 21
392.350248
 31
0.0
  0
LINE
  5
104A
330
12DD
100
AcDbEntity
  8
0
100
AcDbLine
 10
275.754122
 20
394.659248
 30
0.0
 11
279.754122
 21
392.350248
 31
0.0
  0
LINE
  5
104B
330
12DD
100
AcDbEntity
  8
0
100
AcDbLine
 10
361.999122
 20
418.3962479999999
 30
0.0
 11
353.847122
 21
418.3962479999999
 31
0.0
  0
LINE
  5
104C
330
12DD
100
AcDbEntity
  8
0
100
AcDbLine
 10
351.419122
 20
420.299248
 30
0.0
 11
348.9301220000001
 21
430.397248
 31
0.0
  0
LINE
  5
104D
330
12DD
100
AcDbEntity
  8
0
100
AcDbLine
 10
359.937122
 20
420.011248
 30
0.0
 11
363.867122
 21
430.396248
 31
0.0
  0
LINE
  5
104E
330
12DD
100
AcDbEntity
  8
0
100
AcDbLine
 10
366.634122
 20
430.395248
 30
0.0
 11
364.443122
 21
420.3622479999999
 31
0.0
  0
ARC
  5
104F
330
12DD
100
AcDbEntity
  8
0
100
AcDbCircle
 10
357.599122
 20
420.8962480000001
 30
0.0
 40
2.5
100
AcDbArc
 50
270.002
 51
339.271
  0
ARC
  5
1050
330
12DD
100
AcDbEntity
  8
0
100
AcDbCircle
 10
361.999122
 20
420.8962480000001
 30
0.0
 40
2.5
100
AcDbArc
 50
269.998
 51
347.683
  0
ARC
  5
1051
330
12DD
100
AcDbEntity
  8
0
100
AcDbCircle
 10
353.847122
 20
420.8962480000001
 30
0.0
 40
2.5
100
AcDbArc
 50
193.844
 51
269.998
  0
LINE
  5
1052
330
12DD
100
AcDbEntity
  8
0
100
AcDbLine
 10
447.1561219999999
 20
426.396248
 30
0.0
 11
459.5931219999999
 21
426.396248
 31
0.0
  0
LINE
  5
1053
330
12DD
100
AcDbEntity
  8
0
100
AcDbLine
 10
447.5101219999999
 20
418.3962479999999
 30
0.0
 11
455.6631219999999
 21
418.3962479999999
 31
0.0
  0
LINE
  5
1054
330
12DD
100
AcDbEntity
  8
0
100
AcDbLine
 10
458.0891219999999
 20
420.297248
 30
0.0
 11
460.5781219999999
 21
430.395248
 31
0.0
  0
LINE
  5
1055
330
12DD
100
AcDbEntity
  8
0
100
AcDbLine
 10
449.572122
 20
420.010248
 30
0.0
 11
445.642122
 21
430.396248
 31
0.0
  0
LINE
  5
1056
330
12DD
100
AcDbEntity
  8
0
100
AcDbLine
 10
442.8771219999999
 20
430.395248
 30
0.0
 11
445.0681219999999
 21
420.361248
 31
0.0
  0
ARC
  5
1057
330
12DD
100
AcDbEntity
  8
0
100
AcDbCircle
 10
451.910122
 20
420.8962480000001
 30
0.0
 40
2.5
100
AcDbArc
 50
200.729
 51
269.998
  0
ARC
  5
1058
330
12DD
100
AcDbEntity
  8
0
100
AcDbCircle
 10
447.5101219999999
 20
420.8962480000001
 30
0.0
 40
2.5
100
AcDbArc
 50
192.317
 51
270.003
  0
ARC
  5
1059
330
12DD
100
AcDbEntity
  8
0
100
AcDbCircle
 10
455.6621219999999
 20
420.8962480000001
 30
0.0
 40
2.5
100
AcDbArc
 50
270.002
 51
346.156
  0
LINE
  5
105A
330
12DD
100
AcDbEntity
  8
0
100
AcDbLine
 10
472.2551219999999
 20
198.1372480000001
 30
0.0
 11
465.7561219999999
 21
196.3962480000001
 31
0.0
  0
LINE
  5
105B
330
12DD
100
AcDbEntity
  8
0
100
AcDbLine
 10
473.2671219999999
 20
240.068248
 30
0.0
 11
474.6861219999999
 21
294.291248
 31
0.0
  0
LINE
  5
105C
330
12DD
100
AcDbEntity
  8
0
100
AcDbLine
 10
466.769122
 20
240.238248
 30
0.0
 11
468.3021219999999
 21
298.791248
 31
0.0
  0
LINE
  5
105D
330
12DD
100
AcDbEntity
  8
0
100
AcDbLine
 10
337.254122
 20
198.1372480000001
 30
0.0
 11
343.753122
 21
196.3952480000001
 31
0.0
  0
LINE
  5
105E
330
12DD
100
AcDbEntity
  8
0
100
AcDbLine
 10
356.255122
 20
196.3962480000001
 30
0.0
 11
343.784122
 21
196.3962480000001
 31
0.0
  0
LINE
  5
105F
330
12DD
100
AcDbEntity
  8
0
100
AcDbLine
 10
337.254122
 20
198.1372480000001
 30
0.0
 11
336.2401220000001
 21
240.178248
 31
0.0
  0
LINE
  5
1060
330
12DD
100
AcDbEntity
  8
0
100
AcDbLine
 10
336.242122
 20
240.068248
 30
0.0
 11
334.823122
 21
294.291248
 31
0.0
  0
LINE
  5
1061
330
12DD
100
AcDbEntity
  8
0
100
AcDbLine
 10
343.5044508782799
 20
196.4619021151003
 30
0.0
 11
342.739122
 21
240.291248
 31
0.0
  0
LINE
  5
1062
330
12DD
100
AcDbEntity
  8
0
100
AcDbLine
 10
342.7401220000001
 20
240.239248
 30
0.0
 11
341.207122
 21
298.792248
 31
0.0
  0
ARC
  5
1063
330
12DD
100
AcDbEntity
  8
0
100
AcDbCircle
 10
328.8241220000001
 20
294.134248
 30
0.0
 40
6.0
100
AcDbArc
 50
1.499
 51
75.0
  0
ARC
  5
1064
330
12DD
100
AcDbEntity
  8
0
100
AcDbCircle
 10
335.2091220000001
 20
298.635248
 30
0.0
 40
6.0
100
AcDbArc
 50
1.499
 51
75.0
  0
ARC
  5
1065
330
12DD
100
AcDbEntity
  8
0
100
AcDbCircle
 10
480.6851219999999
 20
294.134248
 30
0.0
 40
6.0
100
AcDbArc
 50
105.0
 51
178.5009999999999
  0
ARC
  5
1066
330
12DD
100
AcDbEntity
  8
0
100
AcDbCircle
 10
474.300122
 20
298.635248
 30
0.0
 40
6.0
100
AcDbArc
 50
105.001
 51
178.5009999999999
  0
LINE
  5
1067
330
12DD
100
AcDbEntity
  8
4
100
AcDbLine
 10
298.244122
 20
414.0662479999999
 30
0.0
 11
300.797122
 21
413.843248
 31
0.0
  0
LINE
  5
1068
330
12DD
100
AcDbEntity
  8
0
100
AcDbLine
 10
304.754122
 20
430.396248
 30
0.0
 11
303.505122
 21
416.115248
 31
0.0
  0
ARC
  5
1069
330
12DD
100
AcDbEntity
  8
0
100
AcDbCircle
 10
301.015122
 20
416.333248
 30
0.0
 40
2.5
100
AcDbArc
 50
265.0
 51
355.0019999999999
  0
LINE
  5
106A
330
12DD
100
AcDbEntity
  8
0
100
AcDbLine
 10
504.754122
 20
430.395248
 30
0.0
 11
506.004122
 21
416.115248
 31
0.0
  0
ARC
  5
106B
330
12DD
100
AcDbEntity
  8
0
100
AcDbCircle
 10
508.4941219999999
 20
416.333248
 30
0.0
 40
2.5
100
AcDbArc
 50
184.999
 51
274.998
  0
LINE
  5
106C
330
12DD
100
AcDbEntity
  8
0
100
AcDbLine
 10
284.755122
 20
414.2532479999999
 30
0.0
 11
274.755122
 21
414.2532479999999
 31
0.0
  0
LINE
  5
106D
330
12DD
100
AcDbEntity
  8
0
100
AcDbLine
 10
275.755122
 20
401.7532479999999
 30
0.0
 11
275.755122
 21
394.659248
 31
0.0
  0
LINE
  5
106E
330
12DD
100
AcDbEntity
  8
0
100
AcDbLine
 10
283.755122
 20
401.7532479999999
 30
0.0
 11
283.755122
 21
394.659248
 31
0.0
  0
LINE
  5
106F
330
12DD
100
AcDbEntity
  8
0
100
AcDbLine
 10
284.755122
 20
414.2532479999999
 30
0.0
 11
284.755122
 21
402.7532479999999
 31
0.0
  0
LINE
  5
1070
330
12DD
100
AcDbEntity
  8
0
100
AcDbLine
 10
274.755122
 20
414.2532479999999
 30
0.0
 11
274.755122
 21
402.7532479999999
 31
0.0
  0
LINE
  5
1071
330
12DD
100
AcDbEntity
  8
0
100
AcDbLine
 10
241.755122
 20
431.490248
 30
0.0
 11
270.307122
 21
431.490248
 31
0.0
  0
LINE
  5
1072
330
12DD
100
AcDbEntity
  8
0
100
AcDbLine
 10
290.756122
 20
427.067248
 30
0.0
 11
301.755122
 21
426.490248
 31
0.0
  0
LINE
  5
1073
330
12DD
100
AcDbEntity
  8
0
100
AcDbLine
 10
268.0261220000001
 20
427.067248
 30
0.0
 11
274.755122
 21
427.067248
 31
0.0
  0
LINE
  5
1074
330
12DD
100
AcDbEntity
  8
0
100
AcDbLine
 10
301.419122
 20
420.075248
 30
0.0
 11
301.755122
 21
426.490248
 31
0.0
  0
LINE
  5
1075
330
12DD
100
AcDbEntity
  8
0
100
AcDbLine
 10
258.754122
 20
421.211248
 30
0.0
 11
274.754122
 21
419.811248
 31
0.0
  0
ARC
  5
1076
330
12DD
100
AcDbEntity
  8
0
100
AcDbCircle
 10
298.922122
 20
420.206248
 30
0.0
 40
2.5
100
AcDbArc
 50
265.001
 51
357.0
  0
LINE
  5
1077
330
12DD
100
AcDbEntity
  8
0
100
AcDbLine
 10
272.416122
 20
422.307248
 30
0.0
 11
273.255122
 21
427.067248
 31
0.0
  0
LINE
  5
1078
330
12DD
100
AcDbEntity
  8
0
100
AcDbLine
 10
287.401122
 20
420.5662479999999
 30
0.0
 11
286.254122
 21
427.068248
 31
0.0
  0
ARC
  5
1079
330
12DD
100
AcDbEntity
  8
0
100
AcDbCircle
 10
289.863122
 20
420.999248
 30
0.0
 40
2.5
100
AcDbArc
 50
190.0
 51
265.0
  0
ARC
  5
107A
330
12DD
100
AcDbEntity
  8
0
100
AcDbCircle
 10
269.953122
 20
422.741248
 30
0.0
 40
2.5
100
AcDbArc
 50
265.0
 51
350.0
  0
LINE
  5
107B
330
12DD
100
AcDbEntity
  8
0
100
AcDbLine
 10
243.859122
 20
431.487248
 30
0.0
 11
264.698122
 21
430.395248
 31
0.0
  0
LINE
  5
107C
330
12DD
100
AcDbEntity
  8
0
100
AcDbLine
 10
268.027122
 20
427.066248
 30
0.0
 11
264.6971220000001
 21
430.396248
 31
0.0
  0
LINE
  5
107D
330
12DD
100
AcDbEntity
  8
0
100
AcDbLine
 10
241.755122
 20
431.490248
 30
0.0
 11
241.755122
 21
429.149248
 31
0.0
  0
LINE
  5
107E
330
12DD
100
AcDbEntity
  8
4
100
AcDbLine
 10
301.419122
 20
420.0762479999999
 30
0.0
 11
301.2831220000001
 21
417.490248
 31
0.0
  0
LINE
  5
107F
330
12DD
100
AcDbEntity
  8
0
100
AcDbLine
 10
243.400122
 20
426.800248
 30
0.0
 11
258.755122
 21
421.211248
 31
0.0
  0
ARC
  5
1080
330
12DD
100
AcDbEntity
  8
0
100
AcDbCircle
 10
244.255122
 20
429.149248
 30
0.0
 40
2.5
100
AcDbArc
 50
180.0
 51
250.0
  0
LINE
  5
1081
330
12DD
100
AcDbEntity
  8
0
100
AcDbLine
 10
289.207122
 20
431.490248
 30
0.0
 11
395.306122
 21
431.490248
 31
0.0
  0
LINE
  5
1082
330
12DD
100
AcDbEntity
  8
0
100
AcDbLine
 10
284.755122
 20
427.067248
 30
0.0
 11
290.757122
 21
427.067248
 31
0.0
  0
LINE
  5
1083
330
12DD
100
AcDbEntity
  8
0
100
AcDbLine
 10
284.755122
 20
418.9362479999999
 30
0.0
 11
301.2831220000001
 21
417.490248
 31
0.0
  0
LINE
  5
1084
330
12DD
100
AcDbEntity
  8
0
100
AcDbLine
 10
301.755122
 20
426.490248
 30
0.0
 11
304.492122
 21
426.490248
 31
0.0
  0
ARC
  5
1085
330
12DD
100
AcDbEntity
  8
0
100
AcDbCircle
 10
404.755122
 20
424.220248
 30
0.0
 40
14.175
100
AcDbArc
 50
70.53499999999999
 51
109.461
  0
ARC
  5
1086
330
12DD
100
AcDbEntity
  8
0
100
AcDbCircle
 10
404.755122
 20
444.571248
 30
0.0
 40
14.175
100
AcDbArc
 50
250.541
 51
289.467
  0
LINE
  5
1087
330
12DD
100
AcDbEntity
  8
0
100
AcDbLine
 10
409.482122
 20
431.206248
 30
0.0
 11
409.482122
 21
437.585248
 31
0.0
  0
LINE
  5
1088
330
12DD
100
AcDbEntity
  8
0
100
AcDbLine
 10
400.032122
 20
431.2082479999999
 30
0.0
 11
400.032122
 21
437.583248
 31
0.0
  0
LINE
  5
1089
330
12DD
100
AcDbEntity
  8
0
100
AcDbLine
 10
411.647122
 20
430.395248
 30
0.0
 11
397.8651220000001
 21
430.395248
 31
0.0
  0
LINE
  5
108A
330
12DD
100
AcDbEntity
  8
0
100
AcDbLine
 10
411.6431219999999
 20
438.395248
 30
0.0
 11
397.8651220000001
 21
438.395248
 31
0.0
  0
LINE
  5
108B
330
12DD
100
AcDbEntity
  8
0
100
AcDbLine
 10
414.2051219999999
 20
431.205248
 30
0.0
 11
413.294122
 21
430.678248
 31
0.0
  0
ARC
  5
108C
330
12DD
100
AcDbEntity
  8
0
100
AcDbCircle
 10
411.842122
 20
434.242248
 30
0.0
 40
3.846999999999999
100
AcDbArc
 50
232.15
 51
292.155
  0
LINE
  5
108D
330
12DD
100
AcDbEntity
  8
0
100
AcDbLine
 10
414.206122
 20
431.209248
 30
0.0
 11
414.207122
 21
437.583248
 31
0.0
  0
ARC
  5
108E
330
12DD
100
AcDbEntity
  8
0
100
AcDbCircle
 10
411.842122
 20
434.548248
 30
0.0
 40
3.848
100
AcDbArc
 50
67.765
 51
127.832
  0
LINE
  5
108F
330
12DD
100
AcDbEntity
  8
0
100
AcDbLine
 10
414.207122
 20
437.585248
 30
0.0
 11
413.300122
 21
438.109248
 31
0.0
  0
ARC
  5
1090
330
12DD
100
AcDbEntity
  8
0
100
AcDbCircle
 10
397.6681220000001
 20
434.245248
 30
0.0
 40
3.848999999999999
100
AcDbArc
 50
247.8140000000001
 51
307.865
  0
LINE
  5
1091
330
12DD
100
AcDbEntity
  8
0
100
AcDbLine
 10
396.216122
 20
430.680248
 30
0.0
 11
395.3081220000001
 21
431.204248
 31
0.0
  0
LINE
  5
1092
330
12DD
100
AcDbEntity
  8
0
100
AcDbLine
 10
395.306122
 20
431.207248
 30
0.0
 11
395.3081220000001
 21
437.581248
 31
0.0
  0
LINE
  5
1093
330
12DD
100
AcDbEntity
  8
0
100
AcDbLine
 10
396.246122
 20
438.124248
 30
0.0
 11
395.309122
 21
437.5842480000001
 31
0.0
  0
ARC
  5
1094
330
12DD
100
AcDbEntity
  8
0
100
AcDbCircle
 10
397.6681220000001
 20
434.547248
 30
0.0
 40
3.848
100
AcDbArc
 50
52.122
 51
111.668
  0
ARC
  5
1095
330
12DD
100
AcDbEntity
  8
0
100
AcDbCircle
 10
279.755122
 20
424.221248
 30
0.0
 40
14.175
100
AcDbArc
 50
70.53499999999999
 51
109.461
  0
ARC
  5
1096
330
12DD
100
AcDbEntity
  8
0
100
AcDbCircle
 10
279.755122
 20
444.571248
 30
0.0
 40
14.175
100
AcDbArc
 50
250.541
 51
289.467
  0
LINE
  5
1097
330
12DD
100
AcDbEntity
  8
0
100
AcDbLine
 10
284.482122
 20
431.206248
 30
0.0
 11
284.482122
 21
437.585248
 31
0.0
  0
LINE
  5
1098
330
12DD
100
AcDbEntity
  8
0
100
AcDbLine
 10
275.032122
 20
431.2082479999999
 30
0.0
 11
275.032122
 21
437.583248
 31
0.0
  0
LINE
  5
1099
330
12DD
100
AcDbEntity
  8
0
100
AcDbLine
 10
286.643122
 20
438.395248
 30
0.0
 11
272.8651220000001
 21
438.396248
 31
0.0
  0
LINE
  5
109A
330
12DD
100
AcDbEntity
  8
0
100
AcDbLine
 10
289.206122
 20
431.203248
 30
0.0
 11
288.314122
 21
430.687248
 31
0.0
  0
ARC
  5
109B
330
12DD
100
AcDbEntity
  8
0
100
AcDbCircle
 10
286.842122
 20
434.242248
 30
0.0
 40
3.846999999999999
100
AcDbArc
 50
232.166
 51
289.261
  0
LINE
  5
109C
330
12DD
100
AcDbEntity
  8
0
100
AcDbLine
 10
289.206122
 20
431.206248
 30
0.0
 11
289.207122
 21
437.582248
 31
0.0
  0
ARC
  5
109D
330
12DD
100
AcDbEntity
  8
0
100
AcDbCircle
 10
286.842122
 20
434.548248
 30
0.0
 40
3.848
100
AcDbArc
 50
67.922
 51
127.832
  0
LINE
  5
109E
330
12DD
100
AcDbEntity
  8
0
100
AcDbLine
 10
289.207122
 20
437.5842480000001
 30
0.0
 11
288.289122
 21
438.113248
 31
0.0
  0
ARC
  5
109F
330
12DD
100
AcDbEntity
  8
0
100
AcDbCircle
 10
272.6681220000001
 20
434.245248
 30
0.0
 40
3.848999999999999
100
AcDbArc
 50
247.657
 51
307.865
  0
LINE
  5
10A0
330
12DD
100
AcDbEntity
  8
0
100
AcDbLine
 10
271.2041220000001
 20
430.685248
 30
0.0
 11
270.308122
 21
431.203248
 31
0.0
  0
LINE
  5
10A1
330
12DD
100
AcDbEntity
  8
0
100
AcDbLine
 10
270.307122
 20
431.205248
 30
0.0
 11
270.307122
 21
437.5862480000001
 31
0.0
  0
LINE
  5
10A2
330
12DD
100
AcDbEntity
  8
0
100
AcDbLine
 10
271.223122
 20
438.113248
 30
0.0
 11
270.310122
 21
437.588248
 31
0.0
  0
ARC
  5
10A3
330
12DD
100
AcDbEntity
  8
0
100
AcDbCircle
 10
272.6681220000001
 20
434.547248
 30
0.0
 40
3.848
100
AcDbArc
 50
52.122
 51
112.06
  0
LINE
  5
10A4
330
12DD
100
AcDbEntity
  8
0
100
AcDbLine
 10
275.755122
 20
438.396248
 30
0.0
 11
275.755122
 21
443.767248
 31
0.0
  0
LINE
  5
10A5
330
12DD
100
AcDbEntity
  8
0
100
AcDbLine
 10
283.755122
 20
443.767248
 30
0.0
 11
283.755122
 21
438.395248
 31
0.0
  0
LINE
  5
10A6
330
12DD
100
AcDbEntity
  8
0
100
AcDbLine
 10
284.755122
 20
442.767248
 30
0.0
 11
284.755122
 21
438.395248
 31
0.0
  0
LINE
  5
10A7
330
12DD
100
AcDbEntity
  8
0
100
AcDbLine
 10
274.755122
 20
442.767248
 30
0.0
 11
274.755122
 21
438.396248
 31
0.0
  0
LINE
  5
10A8
330
12DD
100
AcDbEntity
  8
0
100
AcDbLine
 10
275.755122
 20
430.396248
 30
0.0
 11
275.755122
 21
417.253248
 31
0.0
  0
LINE
  5
10A9
330
12DD
100
AcDbEntity
  8
0
100
AcDbLine
 10
274.755122
 20
430.396248
 30
0.0
 11
274.755122
 21
414.2532479999999
 31
0.0
  0
LINE
  5
10AA
330
12DD
100
AcDbEntity
  8
0
100
AcDbLine
 10
283.755122
 20
430.396248
 30
0.0
 11
283.755122
 21
417.253248
 31
0.0
  0
LINE
  5
10AB
330
12DD
100
AcDbEntity
  8
0
100
AcDbLine
 10
284.755122
 20
430.396248
 30
0.0
 11
284.755122
 21
414.2532479999999
 31
0.0
  0
LINE
  5
10AC
330
12DD
100
AcDbEntity
  8
0
100
AcDbLine
 10
274.755122
 20
417.253248
 30
0.0
 11
284.755122
 21
417.253248
 31
0.0
  0
LINE
  5
10AD
330
12DD
100
AcDbEntity
  8
0
100
AcDbLine
 10
275.755122
 20
401.7532479999999
 30
0.0
 11
283.755122
 21
401.7532479999999
 31
0.0
  0
LINE
  5
10AE
330
12DD
100
AcDbEntity
  8
0
100
AcDbLine
 10
274.755122
 20
402.7532479999999
 30
0.0
 11
284.755122
 21
402.7532479999999
 31
0.0
  0
LINE
  5
10AF
330
12DD
100
AcDbEntity
  8
0
100
AcDbLine
 10
283.755122
 20
401.752248
 30
0.0
 11
284.755122
 21
402.752248
 31
0.0
  0
LINE
  5
10B0
330
12DD
100
AcDbEntity
  8
0
100
AcDbLine
 10
275.755122
 20
401.752248
 30
0.0
 11
274.755122
 21
402.752248
 31
0.0
  0
LINE
  5
10B1
330
12DD
100
AcDbEntity
  8
4
100
AcDbLine
 10
274.755122
 20
402.7532479999999
 30
0.0
 11
274.755122
 21
400.159248
 31
0.0
  0
LINE
  5
10B2
330
12DD
100
AcDbEntity
  8
4
100
AcDbLine
 10
284.755122
 20
402.7532479999999
 30
0.0
 11
284.755122
 21
400.159248
 31
0.0
  0
LINE
  5
10B3
330
12DD
100
AcDbEntity
  8
4
100
AcDbLine
 10
275.755122
 20
401.7532479999999
 30
0.0
 11
275.755122
 21
414.2532479999999
 31
0.0
  0
LINE
  5
10B4
330
12DD
100
AcDbEntity
  8
4
100
AcDbLine
 10
283.755122
 20
414.2532479999999
 30
0.0
 11
283.755122
 21
401.7532479999999
 31
0.0
  0
LINE
  5
10B5
330
12DD
100
AcDbEntity
  8
7
 48
0.7879999999999999
100
AcDbLine
 10
279.755122
 20
381.252248
 30
0.0
 11
279.755122
 21
450.637248
 31
0.0
  0
LINE
  5
10B6
330
12DD
100
AcDbEntity
  8
0
100
AcDbLine
 10
399.755122
 20
442.767248
 30
0.0
 11
399.755122
 21
438.395248
 31
0.0
  0
LINE
  5
10B7
330
12DD
100
AcDbEntity
  8
4
100
AcDbLine
 10
400.755122
 20
438.395248
 30
0.0
 11
400.755122
 21
443.767248
 31
0.0
  0
LINE
  5
10B8
330
12DD
100
AcDbEntity
  8
4
100
AcDbLine
 10
408.7551219999999
 20
443.767248
 30
0.0
 11
408.7551219999999
 21
438.395248
 31
0.0
  0
LINE
  5
10B9
330
12DD
100
AcDbEntity
  8
0
100
AcDbLine
 10
409.755122
 20
438.395248
 30
0.0
 11
409.755122
 21
442.767248
 31
0.0
  0
LINE
  5
10BA
330
12DD
100
AcDbEntity
  8
0
100
AcDbLine
 10
275.755122
 20
443.767248
 30
0.0
 11
283.755122
 21
443.767248
 31
0.0
  0
LINE
  5
10BB
330
12DD
100
AcDbEntity
  8
0
100
AcDbLine
 10
274.755122
 20
442.767248
 30
0.0
 11
284.755122
 21
442.767248
 31
0.0
  0
LINE
  5
10BC
330
12DD
100
AcDbEntity
  8
0
100
AcDbLine
 10
399.755122
 20
442.767248
 30
0.0
 11
409.755122
 21
442.767248
 31
0.0
  0
LINE
  5
10BD
330
12DD
100
AcDbEntity
  8
0
100
AcDbLine
 10
400.755122
 20
443.767248
 30
0.0
 11
408.7551219999999
 21
443.767248
 31
0.0
  0
LINE
  5
10BE
330
12DD
100
AcDbEntity
  8
0
100
AcDbLine
 10
400.755122
 20
443.767248
 30
0.0
 11
399.755122
 21
442.767248
 31
0.0
  0
LINE
  5
10BF
330
12DD
100
AcDbEntity
  8
0
100
AcDbLine
 10
408.7551219999999
 20
443.767248
 30
0.0
 11
409.756122
 21
442.766248
 31
0.0
  0
LINE
  5
10C0
330
12DD
100
AcDbEntity
  8
0
100
AcDbLine
 10
275.755122
 20
443.766248
 30
0.0
 11
274.755122
 21
442.766248
 31
0.0
  0
LINE
  5
10C1
330
12DD
100
AcDbEntity
  8
0
100
AcDbLine
 10
283.755122
 20
443.767248
 30
0.0
 11
284.755122
 21
442.767248
 31
0.0
  0
LINE
  5
10C2
330
12DD
100
AcDbEntity
  8
0
100
AcDbLine
 10
524.755122
 20
414.2532479999999
 30
0.0
 11
534.755122
 21
414.2532479999999
 31
0.0
  0
LINE
  5
10C3
330
12DD
100
AcDbEntity
  8
0
100
AcDbLine
 10
533.755122
 20
401.7532479999999
 30
0.0
 11
533.755122
 21
394.659248
 31
0.0
  0
LINE
  5
10C4
330
12DD
100
AcDbEntity
  8
0
100
AcDbLine
 10
525.755122
 20
401.7532479999999
 30
0.0
 11
525.755122
 21
394.659248
 31
0.0
  0
LINE
  5
10C5
330
12DD
100
AcDbEntity
  8
0
100
AcDbLine
 10
524.755122
 20
414.2532479999999
 30
0.0
 11
524.755122
 21
402.7532479999999
 31
0.0
  0
LINE
  5
10C6
330
12DD
100
AcDbEntity
  8
0
100
AcDbLine
 10
534.755122
 20
414.2532479999999
 30
0.0
 11
534.755122
 21
402.7532479999999
 31
0.0
  0
LINE
  5
10C7
330
12DD
100
AcDbEntity
  8
0
100
AcDbLine
 10
567.755122
 20
431.490248
 30
0.0
 11
539.2021219999999
 21
431.490248
 31
0.0
  0
LINE
  5
10C8
330
12DD
100
AcDbEntity
  8
0
100
AcDbLine
 10
518.7531219999999
 20
427.067248
 30
0.0
 11
507.7541219999999
 21
426.490248
 31
0.0
  0
LINE
  5
10C9
330
12DD
100
AcDbEntity
  8
0
100
AcDbLine
 10
541.4831219999999
 20
427.067248
 30
0.0
 11
534.755122
 21
427.067248
 31
0.0
  0
LINE
  5
10CA
330
12DD
100
AcDbEntity
  8
0
100
AcDbLine
 10
508.0901219999999
 20
420.0762479999999
 30
0.0
 11
507.7541219999999
 21
426.490248
 31
0.0
  0
LINE
  5
10CB
330
12DD
100
AcDbEntity
  8
0
100
AcDbLine
 10
550.755122
 20
421.211248
 30
0.0
 11
534.755122
 21
419.811248
 31
0.0
  0
ARC
  5
10CC
330
12DD
100
AcDbEntity
  8
0
100
AcDbCircle
 10
510.587122
 20
420.206248
 30
0.0
 40
2.5
100
AcDbArc
 50
183.0
 51
274.999
  0
LINE
  5
10CD
330
12DD
100
AcDbEntity
  8
0
100
AcDbLine
 10
537.0941219999999
 20
422.307248
 30
0.0
 11
536.2541219999999
 21
427.067248
 31
0.0
  0
LINE
  5
10CE
330
12DD
100
AcDbEntity
  8
0
100
AcDbLine
 10
522.1091219999999
 20
420.565248
 30
0.0
 11
523.255122
 21
427.066248
 31
0.0
  0
ARC
  5
10CF
330
12DD
100
AcDbEntity
  8
0
100
AcDbCircle
 10
519.6461219999999
 20
420.999248
 30
0.0
 40
2.5
100
AcDbArc
 50
275.0
 51
350.0
  0
ARC
  5
10D0
330
12DD
100
AcDbEntity
  8
0
100
AcDbCircle
 10
539.5561219999999
 20
422.741248
 30
0.0
 40
2.5
100
AcDbArc
 50
190.0
 51
274.999
  0
LINE
  5
10D1
330
12DD
100
AcDbEntity
  8
0
100
AcDbLine
 10
565.6501219999999
 20
431.488248
 30
0.0
 11
544.8121219999999
 21
430.396248
 31
0.0
  0
LINE
  5
10D2
330
12DD
100
AcDbEntity
  8
0
100
AcDbLine
 10
541.4841219999999
 20
427.066248
 30
0.0
 11
544.813122
 21
430.394248
 31
0.0
  0
LINE
  5
10D3
330
12DD
100
AcDbEntity
  8
0
100
AcDbLine
 10
567.755122
 20
431.490248
 30
0.0
 11
567.755122
 21
429.149248
 31
0.0
  0
LINE
  5
10D4
330
12DD
100
AcDbEntity
  8
0
100
AcDbLine
 10
566.1101219999999
 20
426.798248
 30
0.0
 11
550.755122
 21
421.210248
 31
0.0
  0
ARC
  5
10D5
330
12DD
100
AcDbEntity
  8
0
100
AcDbCircle
 10
565.255122
 20
429.149248
 30
0.0
 40
2.5
100
AcDbArc
 50
290.0
 51
0.0
  0
LINE
  5
10D6
330
12DD
100
AcDbEntity
  8
0
100
AcDbLine
 10
524.755122
 20
427.067248
 30
0.0
 11
518.7531219999999
 21
427.067248
 31
0.0
  0
LINE
  5
10D7
330
12DD
100
AcDbEntity
  8
0
100
AcDbLine
 10
524.7541219999999
 20
418.9362479999999
 30
0.0
 11
505.901122
 21
417.2872479999999
 31
0.0
  0
LINE
  5
10D8
330
12DD
100
AcDbEntity
  8
0
100
AcDbLine
 10
507.7541219999999
 20
426.490248
 30
0.0
 11
505.017122
 21
426.490248
 31
0.0
  0
ARC
  5
10D9
330
12DD
100
AcDbEntity
  8
0
100
AcDbCircle
 10
529.755122
 20
424.220248
 30
0.0
 40
14.175
100
AcDbArc
 50
70.539
 51
109.465
  0
ARC
  5
10DA
330
12DD
100
AcDbEntity
  8
0
100
AcDbCircle
 10
529.755122
 20
444.571248
 30
0.0
 40
14.175
100
AcDbArc
 50
250.533
 51
289.459
  0
LINE
  5
10DB
330
12DD
100
AcDbEntity
  8
0
100
AcDbLine
 10
525.027122
 20
431.206248
 30
0.0
 11
525.0281219999999
 21
437.585248
 31
0.0
  0
LINE
  5
10DC
330
12DD
100
AcDbEntity
  8
0
100
AcDbLine
 10
534.477122
 20
431.2082479999999
 30
0.0
 11
534.477122
 21
437.583248
 31
0.0
  0
LINE
  5
10DD
330
12DD
100
AcDbEntity
  8
0
100
AcDbLine
 10
522.866122
 20
438.395248
 30
0.0
 11
536.6431219999999
 21
438.396248
 31
0.0
  0
LINE
  5
10DE
330
12DD
100
AcDbEntity
  8
0
100
AcDbLine
 10
520.304122
 20
431.204248
 30
0.0
 11
521.1961219999999
 21
430.688248
 31
0.0
  0
ARC
  5
10DF
330
12DD
100
AcDbEntity
  8
0
100
AcDbCircle
 10
522.6671219999999
 20
434.242248
 30
0.0
 40
3.846999999999999
100
AcDbArc
 50
247.531
 51
307.834
  0
LINE
  5
10E0
330
12DD
100
AcDbEntity
  8
0
100
AcDbLine
 10
520.3021219999999
 20
431.206248
 30
0.0
 11
520.3021219999999
 21
437.582248
 31
0.0
  0
ARC
  5
10E1
330
12DD
100
AcDbEntity
  8
0
100
AcDbCircle
 10
522.6671219999999
 20
434.548248
 30
0.0
 40
3.848
100
AcDbArc
 50
52.168
 51
112.078
  0
LINE
  5
10E2
330
12DD
100
AcDbEntity
  8
0
100
AcDbLine
 10
520.303122
 20
437.583248
 30
0.0
 11
521.2201219999999
 21
438.113248
 31
0.0
  0
ARC
  5
10E3
330
12DD
100
AcDbEntity
  8
0
100
AcDbCircle
 10
536.8411219999999
 20
434.245248
 30
0.0
 40
3.848999999999999
100
AcDbArc
 50
232.135
 51
292.343
  0
LINE
  5
10E4
330
12DD
100
AcDbEntity
  8
0
100
AcDbLine
 10
538.3041219999999
 20
430.686248
 30
0.0
 11
539.200122
 21
431.204248
 31
0.0
  0
LINE
  5
10E5
330
12DD
100
AcDbEntity
  8
0
100
AcDbLine
 10
539.2021219999999
 20
431.205248
 30
0.0
 11
539.2011219999999
 21
437.5862480000001
 31
0.0
  0
LINE
  5
10E6
330
12DD
100
AcDbEntity
  8
0
100
AcDbLine
 10
538.2871219999999
 20
438.113248
 30
0.0
 11
539.200122
 21
437.588248
 31
0.0
  0
ARC
  5
10E7
330
12DD
100
AcDbEntity
  8
0
100
AcDbCircle
 10
536.8411219999999
 20
434.547248
 30
0.0
 40
3.848
100
AcDbArc
 50
67.94
 51
127.878
  0
LINE
  5
10E8
330
12DD
100
AcDbEntity
  8
0
100
AcDbLine
 10
533.755122
 20
438.395248
 30
0.0
 11
533.755122
 21
443.767248
 31
0.0
  0
LINE
  5
10E9
330
12DD
100
AcDbEntity
  8
0
100
AcDbLine
 10
525.755122
 20
443.767248
 30
0.0
 11
525.755122
 21
438.395248
 31
0.0
  0
LINE
  5
10EA
330
12DD
100
AcDbEntity
  8
0
100
AcDbLine
 10
524.755122
 20
442.767248
 30
0.0
 11
524.755122
 21
438.395248
 31
0.0
  0
LINE
  5
10EB
330
12DD
100
AcDbEntity
  8
0
100
AcDbLine
 10
534.755122
 20
442.767248
 30
0.0
 11
534.755122
 21
438.395248
 31
0.0
  0
LINE
  5
10EC
330
12DD
100
AcDbEntity
  8
0
100
AcDbLine
 10
533.755122
 20
430.395248
 30
0.0
 11
533.755122
 21
417.253248
 31
0.0
  0
LINE
  5
10ED
330
12DD
100
AcDbEntity
  8
0
100
AcDbLine
 10
534.755122
 20
430.395248
 30
0.0
 11
534.755122
 21
414.2532479999999
 31
0.0
  0
LINE
  5
10EE
330
12DD
100
AcDbEntity
  8
0
100
AcDbLine
 10
525.755122
 20
430.395248
 30
0.0
 11
525.755122
 21
417.253248
 31
0.0
  0
LINE
  5
10EF
330
12DD
100
AcDbEntity
  8
0
100
AcDbLine
 10
524.755122
 20
430.395248
 30
0.0
 11
524.755122
 21
414.2532479999999
 31
0.0
  0
LINE
  5
10F0
330
12DD
100
AcDbEntity
  8
0
100
AcDbLine
 10
534.755122
 20
417.253248
 30
0.0
 11
524.755122
 21
417.253248
 31
0.0
  0
LINE
  5
10F1
330
12DD
100
AcDbEntity
  8
0
100
AcDbLine
 10
533.755122
 20
401.7532479999999
 30
0.0
 11
525.755122
 21
401.7532479999999
 31
0.0
  0
LINE
  5
10F2
330
12DD
100
AcDbEntity
  8
0
100
AcDbLine
 10
534.755122
 20
402.7532479999999
 30
0.0
 11
524.755122
 21
402.7532479999999
 31
0.0
  0
LINE
  5
10F3
330
12DD
100
AcDbEntity
  8
0
100
AcDbLine
 10
525.756122
 20
401.752248
 30
0.0
 11
524.755122
 21
402.752248
 31
0.0
  0
LINE
  5
10F4
330
12DD
100
AcDbEntity
  8
0
100
AcDbLine
 10
533.755122
 20
401.752248
 30
0.0
 11
534.755122
 21
402.752248
 31
0.0
  0
LINE
  5
10F5
330
12DD
100
AcDbEntity
  8
4
100
AcDbLine
 10
534.755122
 20
402.7532479999999
 30
0.0
 11
534.755122
 21
400.159248
 31
0.0
  0
LINE
  5
10F6
330
12DD
100
AcDbEntity
  8
4
100
AcDbLine
 10
524.755122
 20
402.7532479999999
 30
0.0
 11
524.755122
 21
400.159248
 31
0.0
  0
LINE
  5
10F7
330
12DD
100
AcDbEntity
  8
4
100
AcDbLine
 10
533.755122
 20
401.7532479999999
 30
0.0
 11
533.755122
 21
414.2532479999999
 31
0.0
  0
LINE
  5
10F8
330
12DD
100
AcDbEntity
  8
4
100
AcDbLine
 10
525.755122
 20
414.2532479999999
 30
0.0
 11
525.755122
 21
401.7532479999999
 31
0.0
  0
LINE
  5
10F9
330
12DD
100
AcDbEntity
  8
7
 48
0.7879999999999999
100
AcDbLine
 10
529.755122
 20
381.252248
 30
0.0
 11
529.755122
 21
450.637248
 31
0.0
  0
LINE
  5
10FA
330
12DD
100
AcDbEntity
  8
0
100
AcDbLine
 10
533.755122
 20
443.767248
 30
0.0
 11
525.755122
 21
443.767248
 31
0.0
  0
LINE
  5
10FB
330
12DD
100
AcDbEntity
  8
0
100
AcDbLine
 10
534.755122
 20
442.767248
 30
0.0
 11
524.755122
 21
442.767248
 31
0.0
  0
LINE
  5
10FC
330
12DD
100
AcDbEntity
  8
0
100
AcDbLine
 10
533.755122
 20
443.766248
 30
0.0
 11
534.755122
 21
442.766248
 31
0.0
  0
LINE
  5
10FD
330
12DD
100
AcDbEntity
  8
0
100
AcDbLine
 10
525.755122
 20
443.767248
 30
0.0
 11
524.755122
 21
442.767248
 31
0.0
  0
LINE
  5
10FE
330
12DD
100
AcDbEntity
  8
0
100
AcDbLine
 10
504.754122
 20
430.395248
 30
0.0
 11
544.8121219999999
 21
430.396248
 31
0.0
  0
LINE
  5
10FF
330
12DD
100
AcDbEntity
  8
0
100
AcDbLine
 10
287.808122
 20
430.396248
 30
0.0
 11
504.754122
 21
430.396248
 31
0.0
  0
LINE
  5
1100
330
12DD
100
AcDbEntity
  8
0
100
AcDbLine
 10
520.3021219999999
 20
431.490248
 30
0.0
 11
414.206122
 21
431.490248
 31
0.0
  0
LINE
  5
1101
330
12DD
100
AcDbEntity
  8
0
100
AcDbLine
 10
291.734122
 20
430.395248
 30
0.0
 11
286.643122
 21
430.395248
 31
0.0
  0
LINE
  5
1102
330
12DD
100
AcDbEntity
  8
0
100
AcDbLine
 10
284.755122
 20
417.5212479999999
 30
0.0
 11
303.628122
 21
417.5212479999999
 31
0.0
  0
LINE
  5
1103
330
12DD
100
AcDbEntity
  8
0
100
AcDbLine
 10
274.755122
 20
415.158248
 30
0.0
 11
273.755122
 21
415.158248
 31
0.0
  0
LINE
  5
1104
330
12DD
100
AcDbEntity
  8
0
100
AcDbLine
 10
244.510122
 20
426.396248
 30
0.0
 11
229.353122
 21
426.396248
 31
0.0
  0
LINE
  5
1105
330
12DD
100
AcDbEntity
  8
0
100
AcDbLine
 10
472.2551219999999
 20
198.1372480000001
 30
0.0
 11
473.2691219999999
 21
240.178248
 31
0.0
  0
LINE
  5
1106
330
12DD
100
AcDbEntity
  8
0
100
AcDbLine
 10
465.725122
 20
196.3962480000001
 30
0.0
 11
466.7701219999999
 21
240.291248
 31
0.0
  0
LINE
  5
1107
330
12DD
100
AcDbEntity
  8
4
100
AcDbLine
 10
343.754122
 20
301.611248
 30
0.0
 11
466.6501219999999
 21
301.611248
 31
0.0
  0
DIMENSION
  5
1112
330
12DD
100
AcDbEntity
  8
5
100
AcDbDimension
  2
*D5
 10
224.754122
 20
528.767248
 30
0.0
 11
404.754122
 21
540.517248
 31
0.0
 70
    32
  1
%%c 360
 71
     5
 42
-1.0
  3
GEN-ISO
100
AcDbAlignedDimension
 13
584.7541219999999
 23
416.396248
 33
0.0
 14
224.754122
 24
416.396248
 34
0.0
 50
180.0
100
AcDbRotatedDimension
  0
DIMENSION
  5
111D
330
12DD
100
AcDbEntity
  8
5
100
AcDbDimension
  2
*D7
 10
504.754122
 20
493.767248
 30
0.0
 11
404.754122
 21
505.51897
 31
0.0
 70
    32
  1
%%c 200
 71
     5
 42
-1.0
  3
GEN-ISO
100
AcDbAlignedDimension
 13
304.754122
 23
430.396248
 33
0.0
 14
504.754122
 24
430.395248
 34
0.0
100
AcDbRotatedDimension
  0
DIMENSION
  5
113B
330
12DD
100
AcDbEntity
  8
5
100
AcDbDimension
  2
*D6
 10
170.1561220036742
 20
196.3962480000001
 30
0.0
 11
170.1561220036742
 21
307.685248
 31
0.0
 70
   160
  1
230
 71
     5
 42
229.9989999999999
  3
GEN-ISO
100
AcDbAlignedDimension
 13
229.353122
 23
426.395248
 33
0.0
 14
404.755122
 24
196.3962480000001
 34
0.0
 50
270.0
100
AcDbRotatedDimension
  0
POLYLINE
  5
113C
330
12DD
100
AcDbEntity
  8
SCHRAFFUR_RAND
100
AcDb2dPolyline
 66
     1
 10
0.0
 20
0.0
 30
0.0
 70
     1
  0
VERTEX
  5
113D
330
113C
100
AcDbEntity
  8
SCHRAFFUR_RAND
100
AcDbVertex
100
AcDb2dVertex
 10
343.784122
 20
196.3962480000001
 30
0.0
  0
VERTEX
  5
113E
330
113C
100
AcDbEntity
  8
SCHRAFFUR_RAND
100
AcDbVertex
100
AcDb2dVertex
 10
342.739122
 20
240.291248
 30
0.0
  0
VERTEX
  5
113F
330
113C
100
AcDbEntity
  8
SCHRAFFUR_RAND
100
AcDbVertex
100
AcDb2dVertex
 10
341.207122
 20
298.792248
 30
0.0
  0
VERTEX
  5
1140
330
113C
100
AcDbEntity
  8
SCHRAFFUR_RAND
100
AcDbVertex
100
AcDb2dVertex
 10
340.943122
 20
300.707248
 30
0.0
  0
VERTEX
  5
1141
330
113C
100
AcDbEntity
  8
SCHRAFFUR_RAND
100
AcDbVertex
100
AcDb2dVertex
 10
339.9971220000001
 20
302.409248
 30
0.0
  0
VERTEX
  5
1142
330
113C
100
AcDbEntity
  8
SCHRAFFUR_RAND
100
AcDbVertex
100
AcDb2dVertex
 10
338.563122
 20
303.726248
 30
0.0
  0
VERTEX
  5
1143
330
113C
100
AcDbEntity
  8
SCHRAFFUR_RAND
100
AcDbVertex
100
AcDb2dVertex
 10
336.762122
 20
304.430248
 30
0.0
  0
VERTEX
  5
1144
330
113C
100
AcDbEntity
  8
SCHRAFFUR_RAND
100
AcDbVertex
100
AcDb2dVertex
 10
325.270122
 20
307.510248
 30
0.0
  0
VERTEX
  5
1145
330
113C
100
AcDbEntity
  8
SCHRAFFUR_RAND
100
AcDbVertex
100
AcDb2dVertex
 10
323.457122
 20
308.221248
 30
0.0
  0
VERTEX
  5
1146
330
113C
100
AcDbEntity
  8
SCHRAFFUR_RAND
100
AcDbVertex
100
AcDb2dVertex
 10
322.018122
 20
309.551248
 30
0.0
  0
VERTEX
  5
1147
330
113C
100
AcDbEntity
  8
SCHRAFFUR_RAND
100
AcDbVertex
100
AcDb2dVertex
 10
321.075122
 20
311.270248
 30
0.0
  0
VERTEX
  5
1148
330
113C
100
AcDbEntity
  8
SCHRAFFUR_RAND
100
AcDbVertex
100
AcDb2dVertex
 10
320.8241220000001
 20
313.200248
 30
0.0
  0
VERTEX
  5
1149
330
113C
100
AcDbEntity
  8
SCHRAFFUR_RAND
100
AcDbVertex
100
AcDb2dVertex
 10
319.255122
 20
403.0542479999999
 30
0.0
  0
VERTEX
  5
114A
330
113C
100
AcDbEntity
  8
SCHRAFFUR_RAND
100
AcDbVertex
100
AcDb2dVertex
 10
317.872122
 20
410.896248
 30
0.0
  0
VERTEX
  5
114B
330
113C
100
AcDbEntity
  8
SCHRAFFUR_RAND
100
AcDbVertex
100
AcDb2dVertex
 10
311.277122
 20
410.896248
 30
0.0
  0
VERTEX
  5
114C
330
113C
100
AcDbEntity
  8
SCHRAFFUR_RAND
100
AcDbVertex
100
AcDb2dVertex
 10
311.093122
 20
414.3962479999999
 30
0.0
  0
VERTEX
  5
114D
330
113C
100
AcDbEntity
  8
SCHRAFFUR_RAND
100
AcDbVertex
100
AcDb2dVertex
 10
310.883122
 20
418.3962479999999
 30
0.0
  0
VERTEX
  5
114E
330
113C
100
AcDbEntity
  8
SCHRAFFUR_RAND
100
AcDbVertex
100
AcDb2dVertex
 10
303.705122
 20
418.3962479999999
 30
0.0
  0
VERTEX
  5
114F
330
113C
100
AcDbEntity
  8
SCHRAFFUR_RAND
100
AcDbVertex
100
AcDb2dVertex
 10
303.628122
 20
417.5212479999999
 30
0.0
  0
VERTEX
  5
1150
330
113C
100
AcDbEntity
  8
SCHRAFFUR_RAND
100
AcDbVertex
100
AcDb2dVertex
 10
303.505122
 20
416.115248
 30
0.0
  0
VERTEX
  5
1151
330
113C
100
AcDbEntity
  8
SCHRAFFUR_RAND
100
AcDbVertex
100
AcDb2dVertex
 10
303.143122
 20
414.843248
 30
0.0
  0
VERTEX
  5
1152
330
113C
100
AcDbEntity
  8
SCHRAFFUR_RAND
100
AcDbVertex
100
AcDb2dVertex
 10
302.113122
 20
413.9792479999999
 30
0.0
  0
VERTEX
  5
1153
330
113C
100
AcDbEntity
  8
SCHRAFFUR_RAND
100
AcDbVertex
100
AcDb2dVertex
 10
300.797122
 20
413.843248
 30
0.0
  0
VERTEX
  5
1154
330
113C
100
AcDbEntity
  8
SCHRAFFUR_RAND
100
AcDbVertex
100
AcDb2dVertex
 10
298.244122
 20
414.0662479999999
 30
0.0
  0
VERTEX
  5
1155
330
113C
100
AcDbEntity
  8
SCHRAFFUR_RAND
100
AcDbVertex
100
AcDb2dVertex
 10
284.755122
 20
415.2462479999999
 30
0.0
  0
VERTEX
  5
1156
330
113C
100
AcDbEntity
  8
SCHRAFFUR_RAND
100
AcDbVertex
100
AcDb2dVertex
 10
284.755122
 20
414.2532479999999
 30
0.0
  0
VERTEX
  5
1157
330
113C
100
AcDbEntity
  8
SCHRAFFUR_RAND
100
AcDbVertex
100
AcDb2dVertex
 10
284.755122
 20
402.7532479999999
 30
0.0
  0
VERTEX
  5
1158
330
113C
100
AcDbEntity
  8
SCHRAFFUR_RAND
100
AcDbVertex
100
AcDb2dVertex
 10
284.755122
 20
400.159248
 30
0.0
  0
VERTEX
  5
1159
330
113C
100
AcDbEntity
  8
SCHRAFFUR_RAND
100
AcDbVertex
100
AcDb2dVertex
 10
283.755122
 20
400.159248
 30
0.0
  0
VERTEX
  5
115A
330
113C
100
AcDbEntity
  8
SCHRAFFUR_RAND
100
AcDbVertex
100
AcDb2dVertex
 10
283.755122
 20
394.659248
 30
0.0
  0
VERTEX
  5
115B
330
113C
100
AcDbEntity
  8
SCHRAFFUR_RAND
100
AcDbVertex
100
AcDb2dVertex
 10
279.755122
 20
392.350248
 30
0.0
  0
VERTEX
  5
115C
330
113C
100
AcDbEntity
  8
SCHRAFFUR_RAND
100
AcDbVertex
100
AcDb2dVertex
 10
275.755122
 20
394.659248
 30
0.0
  0
VERTEX
  5
115D
330
113C
100
AcDbEntity
  8
SCHRAFFUR_RAND
100
AcDbVertex
100
AcDb2dVertex
 10
275.755122
 20
400.159248
 30
0.0
  0
VERTEX
  5
115E
330
113C
100
AcDbEntity
  8
SCHRAFFUR_RAND
100
AcDbVertex
100
AcDb2dVertex
 10
274.755122
 20
400.159248
 30
0.0
  0
VERTEX
  5
115F
330
113C
100
AcDbEntity
  8
SCHRAFFUR_RAND
100
AcDbVertex
100
AcDb2dVertex
 10
274.755122
 20
402.7532479999999
 30
0.0
  0
VERTEX
  5
1160
330
113C
100
AcDbEntity
  8
SCHRAFFUR_RAND
100
AcDbVertex
100
AcDb2dVertex
 10
274.755122
 20
414.2532479999999
 30
0.0
  0
VERTEX
  5
1161
330
113C
100
AcDbEntity
  8
SCHRAFFUR_RAND
100
AcDbVertex
100
AcDb2dVertex
 10
274.755122
 20
415.158248
 30
0.0
  0
VERTEX
  5
1162
330
113C
100
AcDbEntity
  8
SCHRAFFUR_RAND
100
AcDbVertex
100
AcDb2dVertex
 10
273.755122
 20
415.158248
 30
0.0
  0
VERTEX
  5
1163
330
113C
100
AcDbEntity
  8
SCHRAFFUR_RAND
100
AcDbVertex
100
AcDb2dVertex
 10
273.116122
 20
416.264248
 30
0.0
  0
VERTEX
  5
1164
330
113C
100
AcDbEntity
  8
SCHRAFFUR_RAND
100
AcDbVertex
100
AcDb2dVertex
 10
258.755122
 20
417.520248
 30
0.0
  0
VERTEX
  5
1165
330
113C
100
AcDbEntity
  8
SCHRAFFUR_RAND
100
AcDbVertex
100
AcDb2dVertex
 10
230.083122
 20
426.286248
 30
0.0
  0
VERTEX
  5
1166
330
113C
100
AcDbEntity
  8
SCHRAFFUR_RAND
100
AcDbVertex
100
AcDb2dVertex
 10
229.353122
 20
426.396248
 30
0.0
  0
VERTEX
  5
1167
330
113C
100
AcDbEntity
  8
SCHRAFFUR_RAND
100
AcDbVertex
100
AcDb2dVertex
 10
228.739122
 20
426.419248
 30
0.0
  0
VERTEX
  5
1168
330
113C
100
AcDbEntity
  8
SCHRAFFUR_RAND
100
AcDbVertex
100
AcDb2dVertex
 10
227.538122
 20
425.753248
 30
0.0
  0
VERTEX
  5
1169
330
113C
100
AcDbEntity
  8
SCHRAFFUR_RAND
100
AcDbVertex
100
AcDb2dVertex
 10
226.937122
 20
424.543248
 30
0.0
  0
VERTEX
  5
116A
330
113C
100
AcDbEntity
  8
SCHRAFFUR_RAND
100
AcDbVertex
100
AcDb2dVertex
 10
224.755122
 20
416.396248
 30
0.0
  0
VERTEX
  5
116B
330
113C
100
AcDbEntity
  8
SCHRAFFUR_RAND
100
AcDbVertex
100
AcDb2dVertex
 10
241.913122
 20
416.396248
 30
0.0
  0
VERTEX
  5
116C
330
113C
100
AcDbEntity
  8
SCHRAFFUR_RAND
100
AcDbVertex
100
AcDb2dVertex
 10
257.603122
 20
411.598248
 30
0.0
  0
VERTEX
  5
116D
330
113C
100
AcDbEntity
  8
SCHRAFFUR_RAND
100
AcDbVertex
100
AcDb2dVertex
 10
263.092122
 20
411.118248
 30
0.0
  0
VERTEX
  5
116E
330
113C
100
AcDbEntity
  8
SCHRAFFUR_RAND
100
AcDbVertex
100
AcDb2dVertex
 10
264.173122
 20
410.8772479999999
 30
0.0
  0
VERTEX
  5
116F
330
113C
100
AcDbEntity
  8
SCHRAFFUR_RAND
100
AcDbVertex
100
AcDb2dVertex
 10
265.0021220000001
 20
410.118248
 30
0.0
  0
VERTEX
  5
1170
330
113C
100
AcDbEntity
  8
SCHRAFFUR_RAND
100
AcDbVertex
100
AcDb2dVertex
 10
265.337122
 20
409.062248
 30
0.0
  0
VERTEX
  5
1171
330
113C
100
AcDbEntity
  8
SCHRAFFUR_RAND
100
AcDbVertex
100
AcDb2dVertex
 10
267.938122
 20
394.312248
 30
0.0
  0
VERTEX
  5
1172
330
113C
100
AcDbEntity
  8
SCHRAFFUR_RAND
100
AcDbVertex
100
AcDb2dVertex
 10
269.073122
 20
390.717248
 30
0.0
  0
VERTEX
  5
1173
330
113C
100
AcDbEntity
  8
SCHRAFFUR_RAND
100
AcDbVertex
100
AcDb2dVertex
 10
271.313122
 20
387.731248
 30
0.0
  0
VERTEX
  5
1174
330
113C
100
AcDbEntity
  8
SCHRAFFUR_RAND
100
AcDbVertex
100
AcDb2dVertex
 10
274.356122
 20
385.570248
 30
0.0
  0
VERTEX
  5
1175
330
113C
100
AcDbEntity
  8
SCHRAFFUR_RAND
100
AcDbVertex
100
AcDb2dVertex
 10
277.914122
 20
384.439248
 30
0.0
  0
VERTEX
  5
1176
330
113C
100
AcDbEntity
  8
SCHRAFFUR_RAND
100
AcDbVertex
100
AcDb2dVertex
 10
281.647122
 20
384.447248
 30
0.0
  0
VERTEX
  5
1177
330
113C
100
AcDbEntity
  8
SCHRAFFUR_RAND
100
AcDbVertex
100
AcDb2dVertex
 10
285.199122
 20
385.593248
 30
0.0
  0
VERTEX
  5
1178
330
113C
100
AcDbEntity
  8
SCHRAFFUR_RAND
100
AcDbVertex
100
AcDb2dVertex
 10
288.234122
 20
387.767248
 30
0.0
  0
VERTEX
  5
1179
330
113C
100
AcDbEntity
  8
SCHRAFFUR_RAND
100
AcDbVertex
100
AcDb2dVertex
 10
290.4611220000001
 20
390.763248
 30
0.0
  0
VERTEX
  5
117A
330
113C
100
AcDbEntity
  8
SCHRAFFUR_RAND
100
AcDbVertex
100
AcDb2dVertex
 10
291.573122
 20
394.312248
 30
0.0
  0
VERTEX
  5
117B
330
113C
100
AcDbEntity
  8
SCHRAFFUR_RAND
100
AcDbVertex
100
AcDb2dVertex
 10
293.6611220000001
 20
406.153248
 30
0.0
  0
VERTEX
  5
117C
330
113C
100
AcDbEntity
  8
SCHRAFFUR_RAND
100
AcDbVertex
100
AcDb2dVertex
 10
294.085122
 20
407.3302479999999
 30
0.0
  0
VERTEX
  5
117D
330
113C
100
AcDbEntity
  8
SCHRAFFUR_RAND
100
AcDbVertex
100
AcDb2dVertex
 10
295.094122
 20
408.1042479999999
 30
0.0
  0
VERTEX
  5
117E
330
113C
100
AcDbEntity
  8
SCHRAFFUR_RAND
100
AcDbVertex
100
AcDb2dVertex
 10
296.340122
 20
408.2102479999999
 30
0.0
  0
VERTEX
  5
117F
330
113C
100
AcDbEntity
  8
SCHRAFFUR_RAND
100
AcDbVertex
100
AcDb2dVertex
 10
305.8771220000001
 20
407.375248
 30
0.0
  0
VERTEX
  5
1180
330
113C
100
AcDbEntity
  8
SCHRAFFUR_RAND
100
AcDbVertex
100
AcDb2dVertex
 10
308.003122
 20
406.890248
 30
0.0
  0
VERTEX
  5
1181
330
113C
100
AcDbEntity
  8
SCHRAFFUR_RAND
100
AcDbVertex
100
AcDb2dVertex
 10
309.777122
 20
405.595248
 30
0.0
  0
VERTEX
  5
1182
330
113C
100
AcDbEntity
  8
SCHRAFFUR_RAND
100
AcDbVertex
100
AcDb2dVertex
 10
310.977122
 20
403.756248
 30
0.0
  0
VERTEX
  5
1183
330
113C
100
AcDbEntity
  8
SCHRAFFUR_RAND
100
AcDbVertex
100
AcDb2dVertex
 10
311.352122
 20
401.607248
 30
0.0
  0
VERTEX
  5
1184
330
113C
100
AcDbEntity
  8
SCHRAFFUR_RAND
100
AcDbVertex
100
AcDb2dVertex
 10
314.601122
 20
308.553248
 30
0.0
  0
VERTEX
  5
1185
330
113C
100
AcDbEntity
  8
SCHRAFFUR_RAND
100
AcDbVertex
100
AcDb2dVertex
 10
315.132122
 20
306.057248
 30
0.0
  0
VERTEX
  5
1186
330
113C
100
AcDbEntity
  8
SCHRAFFUR_RAND
100
AcDbVertex
100
AcDb2dVertex
 10
316.731122
 20
304.046248
 30
0.0
  0
VERTEX
  5
1187
330
113C
100
AcDbEntity
  8
SCHRAFFUR_RAND
100
AcDbVertex
100
AcDb2dVertex
 10
319.0431220000001
 20
302.966248
 30
0.0
  0
VERTEX
  5
1188
330
113C
100
AcDbEntity
  8
SCHRAFFUR_RAND
100
AcDbVertex
100
AcDb2dVertex
 10
330.378122
 20
299.929248
 30
0.0
  0
VERTEX
  5
1189
330
113C
100
AcDbEntity
  8
SCHRAFFUR_RAND
100
AcDbVertex
100
AcDb2dVertex
 10
332.179122
 20
299.225248
 30
0.0
  0
VERTEX
  5
118A
330
113C
100
AcDbEntity
  8
SCHRAFFUR_RAND
100
AcDbVertex
100
AcDb2dVertex
 10
333.613122
 20
297.908248
 30
0.0
  0
VERTEX
  5
118B
330
113C
100
AcDbEntity
  8
SCHRAFFUR_RAND
100
AcDbVertex
100
AcDb2dVertex
 10
334.559122
 20
296.206248
 30
0.0
  0
VERTEX
  5
118C
330
113C
100
AcDbEntity
  8
SCHRAFFUR_RAND
100
AcDbVertex
100
AcDb2dVertex
 10
334.823122
 20
294.291248
 30
0.0
  0
VERTEX
  5
118D
330
113C
100
AcDbEntity
  8
SCHRAFFUR_RAND
100
AcDbVertex
100
AcDb2dVertex
 10
336.2401220000001
 20
240.178248
 30
0.0
  0
VERTEX
  5
118E
330
113C
100
AcDbEntity
  8
SCHRAFFUR_RAND
100
AcDbVertex
100
AcDb2dVertex
 10
337.254122
 20
198.1372480000001
 30
0.0
  0
VERTEX
  5
118F
330
113C
100
AcDbEntity
  8
SCHRAFFUR_RAND
100
AcDbVertex
100
AcDb2dVertex
 10
343.784122
 20
196.3962480000001
 30
0.0
  0
SEQEND
  5
1190
330
113C
100
AcDbEntity
  8
SCHRAFFUR_RAND
  0
POLYLINE
  5
11C0
330
12DD
100
AcDbEntity
  8
SCHRAFFUR_RAND
100
AcDb2dPolyline
 66
     1
 10
0.0
 20
0.0
 30
0.0
 70
     1
  0
VERTEX
  5
11C1
330
11C0
100
AcDbEntity
  8
SCHRAFFUR_RAND
100
AcDbVertex
100
AcDb2dVertex
 10
243.860122
 20
431.487248
 30
0.0
  0
VERTEX
  5
11C2
330
11C0
100
AcDbEntity
  8
SCHRAFFUR_RAND
100
AcDbVertex
100
AcDb2dVertex
 10
241.755122
 20
431.490248
 30
0.0
  0
VERTEX
  5
11C3
330
11C0
100
AcDbEntity
  8
SCHRAFFUR_RAND
100
AcDbVertex
100
AcDb2dVertex
 10
241.755122
 20
429.149248
 30
0.0
  0
VERTEX
  5
11C4
330
11C0
100
AcDbEntity
  8
SCHRAFFUR_RAND
100
AcDbVertex
100
AcDb2dVertex
 10
241.870122
 20
428.1202480000001
 30
0.0
  0
VERTEX
  5
11C5
330
11C0
100
AcDbEntity
  8
SCHRAFFUR_RAND
100
AcDbVertex
100
AcDb2dVertex
 10
242.472122
 20
427.260248
 30
0.0
  0
VERTEX
  5
11C6
330
11C0
100
AcDbEntity
  8
SCHRAFFUR_RAND
100
AcDbVertex
100
AcDb2dVertex
 10
243.401122
 20
426.800248
 30
0.0
  0
VERTEX
  5
11C7
330
11C0
100
AcDbEntity
  8
SCHRAFFUR_RAND
100
AcDbVertex
100
AcDb2dVertex
 10
244.510122
 20
426.396248
 30
0.0
  0
VERTEX
  5
11C8
330
11C0
100
AcDbEntity
  8
SCHRAFFUR_RAND
100
AcDbVertex
100
AcDb2dVertex
 10
258.755122
 20
421.211248
 30
0.0
  0
VERTEX
  5
11C9
330
11C0
100
AcDbEntity
  8
SCHRAFFUR_RAND
100
AcDbVertex
100
AcDb2dVertex
 10
269.736122
 20
420.250248
 30
0.0
  0
VERTEX
  5
11CA
330
11C0
100
AcDbEntity
  8
SCHRAFFUR_RAND
100
AcDbVertex
100
AcDb2dVertex
 10
270.982122
 20
420.356248
 30
0.0
  0
VERTEX
  5
11CB
330
11C0
100
AcDbEntity
  8
SCHRAFFUR_RAND
100
AcDbVertex
100
AcDb2dVertex
 10
271.991122
 20
421.130248
 30
0.0
  0
VERTEX
  5
11CC
330
11C0
100
AcDbEntity
  8
SCHRAFFUR_RAND
100
AcDbVertex
100
AcDb2dVertex
 10
272.417122
 20
422.307248
 30
0.0
  0
VERTEX
  5
11CD
330
11C0
100
AcDbEntity
  8
SCHRAFFUR_RAND
100
AcDbVertex
100
AcDb2dVertex
 10
273.256122
 20
427.067248
 30
0.0
  0
VERTEX
  5
11CE
330
11C0
100
AcDbEntity
  8
SCHRAFFUR_RAND
100
AcDbVertex
100
AcDb2dVertex
 10
268.0261220000001
 20
427.067248
 30
0.0
  0
VERTEX
  5
11CF
330
11C0
100
AcDbEntity
  8
SCHRAFFUR_RAND
100
AcDbVertex
100
AcDb2dVertex
 10
264.698122
 20
430.395248
 30
0.0
  0
VERTEX
  5
11D0
330
11C0
100
AcDbEntity
  8
SCHRAFFUR_RAND
100
AcDbVertex
100
AcDb2dVertex
 10
243.860122
 20
431.487248
 30
0.0
  0
SEQEND
  5
11D1
330
11C0
100
AcDbEntity
  8
SCHRAFFUR_RAND
  0
INSERT
  5
11D7
330
12DD
100
AcDbEntity
  8
8
100
AcDbBlockReference
  2
*X0
 10
-83.00887799999999
 20
38.253248
 30
0.0
1001
ACAD
1000
HATCH
1002
{
1070
    19
1000
ANSI31,_I
1040
6.349999999999999
1040
-0.7850000000000001
1002
}
  0
POLYLINE
  5
11D8
330
12DD
100
AcDbEntity
  8
SCHRAFFUR_RAND
100
AcDb2dPolyline
 66
     1
 10
0.0
 20
0.0
 30
0.0
 70
     1
  0
VERTEX
  5
11D9
330
11D8
100
AcDbEntity
  8
SCHRAFFUR_RAND
100
AcDbVertex
100
AcDb2dVertex
 10
301.756122
 20
426.490248
 30
0.0
  0
VERTEX
  5
11DA
330
11D8
100
AcDbEntity
  8
SCHRAFFUR_RAND
100
AcDbVertex
100
AcDb2dVertex
 10
290.757122
 20
427.067248
 30
0.0
  0
VERTEX
  5
11DB
330
11D8
100
AcDbEntity
  8
SCHRAFFUR_RAND
100
AcDbVertex
100
AcDb2dVertex
 10
286.255122
 20
427.068248
 30
0.0
  0
VERTEX
  5
11DC
330
11D8
100
AcDbEntity
  8
SCHRAFFUR_RAND
100
AcDbVertex
100
AcDb2dVertex
 10
287.401122
 20
420.5662479999999
 30
0.0
  0
VERTEX
  5
11DD
330
11D8
100
AcDbEntity
  8
SCHRAFFUR_RAND
100
AcDbVertex
100
AcDb2dVertex
 10
287.736122
 20
419.509248
 30
0.0
  0
VERTEX
  5
11DE
330
11D8
100
AcDbEntity
  8
SCHRAFFUR_RAND
100
AcDbVertex
100
AcDb2dVertex
 10
288.565122
 20
418.750248
 30
0.0
  0
VERTEX
  5
11DF
330
11D8
100
AcDbEntity
  8
SCHRAFFUR_RAND
100
AcDbVertex
100
AcDb2dVertex
 10
289.645122
 20
418.508248
 30
0.0
  0
VERTEX
  5
11E0
330
11D8
100
AcDbEntity
  8
SCHRAFFUR_RAND
100
AcDbVertex
100
AcDb2dVertex
 10
298.704122
 20
417.7162479999999
 30
0.0
  0
VERTEX
  5
11E1
330
11D8
100
AcDbEntity
  8
SCHRAFFUR_RAND
100
AcDbVertex
100
AcDb2dVertex
 10
300.0481220000001
 20
417.865248
 30
0.0
  0
VERTEX
  5
11E2
330
11D8
100
AcDbEntity
  8
SCHRAFFUR_RAND
100
AcDbVertex
100
AcDb2dVertex
 10
301.084122
 20
418.7672479999999
 30
0.0
  0
VERTEX
  5
11E3
330
11D8
100
AcDbEntity
  8
SCHRAFFUR_RAND
100
AcDbVertex
100
AcDb2dVertex
 10
301.419122
 20
420.075248
 30
0.0
  0
VERTEX
  5
11E4
330
11D8
100
AcDbEntity
  8
SCHRAFFUR_RAND
100
AcDbVertex
100
AcDb2dVertex
 10
301.756122
 20
426.490248
 30
0.0
  0
SEQEND
  5
11E5
330
11D8
100
AcDbEntity
  8
SCHRAFFUR_RAND
  0
INSERT
  5
11E9
330
12DD
100
AcDbEntity
  8
8
100
AcDbBlockReference
  2
*X1
 10
-83.00887799999999
 20
38.253248
 30
0.0
1001
ACAD
1000
HATCH
1002
{
1070
    19
1000
ANSI31,_I
1040
6.349999999999999
1040
-0.7850000000000001
1002
}
  0
POLYLINE
  5
11EA
330
12DD
100
AcDbEntity
  8
SCHRAFFUR_RAND
100
AcDb2dPolyline
 66
     1
 10
0.0
 20
0.0
 30
0.0
 70
     1
  0
VERTEX
  5
11EB
330
11EA
100
AcDbEntity
  8
SCHRAFFUR_RAND
100
AcDbVertex
100
AcDb2dVertex
 10
507.7541219999999
 20
426.490248
 30
0.0
  0
VERTEX
  5
11EC
330
11EA
100
AcDbEntity
  8
SCHRAFFUR_RAND
100
AcDbVertex
100
AcDb2dVertex
 10
508.0901219999999
 20
420.0762479999999
 30
0.0
  0
VERTEX
  5
11ED
330
11EA
100
AcDbEntity
  8
SCHRAFFUR_RAND
100
AcDbVertex
100
AcDb2dVertex
 10
508.2881219999999
 20
419.085248
 30
0.0
  0
VERTEX
  5
11EE
330
11EA
100
AcDbEntity
  8
SCHRAFFUR_RAND
100
AcDbVertex
100
AcDb2dVertex
 10
508.9091219999999
 20
418.276248
 30
0.0
  0
VERTEX
  5
11EF
330
11EA
100
AcDbEntity
  8
SCHRAFFUR_RAND
100
AcDbVertex
100
AcDb2dVertex
 10
509.7971219999999
 20
417.773248
 30
0.0
  0
VERTEX
  5
11F0
330
11EA
100
AcDbEntity
  8
SCHRAFFUR_RAND
100
AcDbVertex
100
AcDb2dVertex
 10
510.805122
 20
417.7162479999999
 30
0.0
  0
VERTEX
  5
11F1
330
11EA
100
AcDbEntity
  8
SCHRAFFUR_RAND
100
AcDbVertex
100
AcDb2dVertex
 10
519.8641219999999
 20
418.508248
 30
0.0
  0
VERTEX
  5
11F2
330
11EA
100
AcDbEntity
  8
SCHRAFFUR_RAND
100
AcDbVertex
100
AcDb2dVertex
 10
520.9251219999999
 20
418.7832479999999
 30
0.0
  0
VERTEX
  5
11F3
330
11EA
100
AcDbEntity
  8
SCHRAFFUR_RAND
100
AcDbVertex
100
AcDb2dVertex
 10
521.742122
 20
419.532248
 30
0.0
  0
VERTEX
  5
11F4
330
11EA
100
AcDbEntity
  8
SCHRAFFUR_RAND
100
AcDbVertex
100
AcDb2dVertex
 10
522.1091219999999
 20
420.565248
 30
0.0
  0
VERTEX
  5
11F5
330
11EA
100
AcDbEntity
  8
SCHRAFFUR_RAND
100
AcDbVertex
100
AcDb2dVertex
 10
523.255122
 20
427.066248
 30
0.0
  0
VERTEX
  5
11F6
330
11EA
100
AcDbEntity
  8
SCHRAFFUR_RAND
100
AcDbVertex
100
AcDb2dVertex
 10
518.7531219999999
 20
427.067248
 30
0.0
  0
VERTEX
  5
11F7
330
11EA
100
AcDbEntity
  8
SCHRAFFUR_RAND
100
AcDbVertex
100
AcDb2dVertex
 10
507.7541219999999
 20
426.490248
 30
0.0
  0
SEQEND
  5
11F8
330
11EA
100
AcDbEntity
  8
SCHRAFFUR_RAND
  0
INSERT
  5
11FD
330
12DD
100
AcDbEntity
  8
8
100
AcDbBlockReference
  2
*X2
 10
-83.00887799999999
 20
38.253248
 30
0.0
1001
ACAD
1000
HATCH
1002
{
1070
    19
1000
ANSI31,_I
1040
6.349999999999999
1040
-0.7850000000000001
1002
}
  0
POLYLINE
  5
11FE
330
12DD
100
AcDbEntity
  8
SCHRAFFUR_RAND
100
AcDb2dPolyline
 66
     1
 10
0.0
 20
0.0
 30
0.0
 70
     1
  0
VERTEX
  5
11FF
330
11FE
100
AcDbEntity
  8
SCHRAFFUR_RAND
100
AcDbVertex
100
AcDb2dVertex
 10
565.0031219999999
 20
426.396248
 30
0.0
  0
VERTEX
  5
1200
330
11FE
100
AcDbEntity
  8
SCHRAFFUR_RAND
100
AcDbVertex
100
AcDb2dVertex
 10
566.1101219999999
 20
426.798248
 30
0.0
  0
VERTEX
  5
1201
330
11FE
100
AcDbEntity
  8
SCHRAFFUR_RAND
100
AcDbVertex
100
AcDb2dVertex
 10
567.010122
 20
427.288248
 30
0.0
  0
VERTEX
  5
1202
330
11FE
100
AcDbEntity
  8
SCHRAFFUR_RAND
100
AcDbVertex
100
AcDb2dVertex
 10
567.604122
 20
428.136248
 30
0.0
  0
VERTEX
  5
1203
330
11FE
100
AcDbEntity
  8
SCHRAFFUR_RAND
100
AcDbVertex
100
AcDb2dVertex
 10
567.755122
 20
429.149248
 30
0.0
  0
VERTEX
  5
1204
330
11FE
100
AcDbEntity
  8
SCHRAFFUR_RAND
100
AcDbVertex
100
AcDb2dVertex
 10
567.755122
 20
431.490248
 30
0.0
  0
VERTEX
  5
1205
330
11FE
100
AcDbEntity
  8
SCHRAFFUR_RAND
100
AcDbVertex
100
AcDb2dVertex
 10
565.6501219999999
 20
431.488248
 30
0.0
  0
VERTEX
  5
1206
330
11FE
100
AcDbEntity
  8
SCHRAFFUR_RAND
100
AcDbVertex
100
AcDb2dVertex
 10
544.8121219999999
 20
430.395248
 30
0.0
  0
VERTEX
  5
1207
330
11FE
100
AcDbEntity
  8
SCHRAFFUR_RAND
100
AcDbVertex
100
AcDb2dVertex
 10
541.4831219999999
 20
427.067248
 30
0.0
  0
VERTEX
  5
1208
330
11FE
100
AcDbEntity
  8
SCHRAFFUR_RAND
100
AcDbVertex
100
AcDb2dVertex
 10
536.2541219999999
 20
427.067248
 30
0.0
  0
VERTEX
  5
1209
330
11FE
100
AcDbEntity
  8
SCHRAFFUR_RAND
100
AcDbVertex
100
AcDb2dVertex
 10
537.0941219999999
 20
422.307248
 30
0.0
  0
VERTEX
  5
120A
330
11FE
100
AcDbEntity
  8
SCHRAFFUR_RAND
100
AcDbVertex
100
AcDb2dVertex
 10
537.5491219999999
 20
421.154248
 30
0.0
  0
VERTEX
  5
120B
330
11FE
100
AcDbEntity
  8
SCHRAFFUR_RAND
100
AcDbVertex
100
AcDb2dVertex
 10
538.5431219999999
 20
420.3922480000001
 30
0.0
  0
VERTEX
  5
120C
330
11FE
100
AcDbEntity
  8
SCHRAFFUR_RAND
100
AcDbVertex
100
AcDb2dVertex
 10
539.7741219999999
 20
420.250248
 30
0.0
  0
VERTEX
  5
120D
330
11FE
100
AcDbEntity
  8
SCHRAFFUR_RAND
100
AcDbVertex
100
AcDb2dVertex
 10
550.755122
 20
421.211248
 30
0.0
  0
VERTEX
  5
120E
330
11FE
100
AcDbEntity
  8
SCHRAFFUR_RAND
100
AcDbVertex
100
AcDb2dVertex
 10
565.0031219999999
 20
426.396248
 30
0.0
  0
SEQEND
  5
120F
330
11FE
100
AcDbEntity
  8
SCHRAFFUR_RAND
  0
INSERT
  5
1216
330
12DD
100
AcDbEntity
  8
8
100
AcDbBlockReference
  2
*X3
 10
-83.00887799999999
 20
38.253248
 30
0.0
1001
ACAD
1000
HATCH
1002
{
1070
    19
1000
ANSI31,_I
1040
6.349999999999999
1040
-0.7850000000000001
1002
}
  0
POLYLINE
  5
1217
330
12DD
100
AcDbEntity
  8
SCHRAFFUR_RAND
100
AcDb2dPolyline
 66
     1
 10
0.0
 20
0.0
 30
0.0
 70
     1
  0
VERTEX
  5
1218
330
1217
100
AcDbEntity
  8
SCHRAFFUR_RAND
100
AcDbVertex
100
AcDb2dVertex
 10
498.4161219999999
 20
414.3962479999999
 30
0.0
  0
VERTEX
  5
1219
330
1217
100
AcDbEntity
  8
SCHRAFFUR_RAND
100
AcDbVertex
100
AcDb2dVertex
 10
498.2331219999999
 20
410.896248
 30
0.0
  0
VERTEX
  5
121A
330
1217
100
AcDbEntity
  8
SCHRAFFUR_RAND
100
AcDbVertex
100
AcDb2dVertex
 10
491.637122
 20
410.896248
 30
0.0
  0
VERTEX
  5
121B
330
1217
100
AcDbEntity
  8
SCHRAFFUR_RAND
100
AcDbVertex
100
AcDb2dVertex
 10
490.2551219999999
 20
403.0532479999999
 30
0.0
  0
VERTEX
  5
121C
330
1217
100
AcDbEntity
  8
SCHRAFFUR_RAND
100
AcDbVertex
100
AcDb2dVertex
 10
488.6861219999999
 20
313.201248
 30
0.0
  0
VERTEX
  5
121D
330
1217
100
AcDbEntity
  8
SCHRAFFUR_RAND
100
AcDbVertex
100
AcDb2dVertex
 10
488.3981219999999
 20
311.283248
 30
0.0
  0
VERTEX
  5
121E
330
1217
100
AcDbEntity
  8
SCHRAFFUR_RAND
100
AcDbVertex
100
AcDb2dVertex
 10
487.461122
 20
309.575248
 30
0.0
  0
VERTEX
  5
121F
330
1217
100
AcDbEntity
  8
SCHRAFFUR_RAND
100
AcDbVertex
100
AcDb2dVertex
 10
486.0311219999999
 20
308.253248
 30
0.0
  0
VERTEX
  5
1220
330
1217
100
AcDbEntity
  8
SCHRAFFUR_RAND
100
AcDbVertex
100
AcDb2dVertex
 10
484.240122
 20
307.510248
 30
0.0
  0
VERTEX
  5
1221
330
1217
100
AcDbEntity
  8
SCHRAFFUR_RAND
100
AcDbVertex
100
AcDb2dVertex
 10
472.7481219999999
 20
304.430248
 30
0.0
  0
VERTEX
  5
1222
330
1217
100
AcDbEntity
  8
SCHRAFFUR_RAND
100
AcDbVertex
100
AcDb2dVertex
 10
470.968122
 20
303.694248
 30
0.0
  0
VERTEX
  5
1223
330
1217
100
AcDbEntity
  8
SCHRAFFUR_RAND
100
AcDbVertex
100
AcDb2dVertex
 10
469.5431219999999
 20
302.385248
 30
0.0
  0
VERTEX
  5
1224
330
1217
100
AcDbEntity
  8
SCHRAFFUR_RAND
100
AcDbVertex
100
AcDb2dVertex
 10
468.603122
 20
300.694248
 30
0.0
  0
VERTEX
  5
1225
330
1217
100
AcDbEntity
  8
SCHRAFFUR_RAND
100
AcDbVertex
100
AcDb2dVertex
 10
468.3021219999999
 20
298.791248
 30
0.0
  0
VERTEX
  5
1226
330
1217
100
AcDbEntity
  8
SCHRAFFUR_RAND
100
AcDbVertex
100
AcDb2dVertex
 10
466.769122
 20
240.238248
 30
0.0
  0
VERTEX
  5
1227
330
1217
100
AcDbEntity
  8
SCHRAFFUR_RAND
100
AcDbVertex
100
AcDb2dVertex
 10
465.725122
 20
196.3962480000001
 30
0.0
  0
VERTEX
  5
1228
330
1217
100
AcDbEntity
  8
SCHRAFFUR_RAND
100
AcDbVertex
100
AcDb2dVertex
 10
472.2551219999999
 20
198.1372480000001
 30
0.0
  0
VERTEX
  5
1229
330
1217
100
AcDbEntity
  8
SCHRAFFUR_RAND
100
AcDbVertex
100
AcDb2dVertex
 10
473.2671219999999
 20
240.068248
 30
0.0
  0
VERTEX
  5
122A
330
1217
100
AcDbEntity
  8
SCHRAFFUR_RAND
100
AcDbVertex
100
AcDb2dVertex
 10
474.6861219999999
 20
294.291248
 30
0.0
  0
VERTEX
  5
122B
330
1217
100
AcDbEntity
  8
SCHRAFFUR_RAND
100
AcDbVertex
100
AcDb2dVertex
 10
474.987122
 20
296.193248
 30
0.0
  0
VERTEX
  5
122C
330
1217
100
AcDbEntity
  8
SCHRAFFUR_RAND
100
AcDbVertex
100
AcDb2dVertex
 10
475.927122
 20
297.884248
 30
0.0
  0
VERTEX
  5
122D
330
1217
100
AcDbEntity
  8
SCHRAFFUR_RAND
100
AcDbVertex
100
AcDb2dVertex
 10
477.3521219999999
 20
299.193248
 30
0.0
  0
VERTEX
  5
122E
330
1217
100
AcDbEntity
  8
SCHRAFFUR_RAND
100
AcDbVertex
100
AcDb2dVertex
 10
479.1321219999999
 20
299.929248
 30
0.0
  0
VERTEX
  5
122F
330
1217
100
AcDbEntity
  8
SCHRAFFUR_RAND
100
AcDbVertex
100
AcDb2dVertex
 10
490.466122
 20
302.966248
 30
0.0
  0
VERTEX
  5
1230
330
1217
100
AcDbEntity
  8
SCHRAFFUR_RAND
100
AcDbVertex
100
AcDb2dVertex
 10
492.235122
 20
303.695248
 30
0.0
  0
VERTEX
  5
1231
330
1217
100
AcDbEntity
  8
SCHRAFFUR_RAND
100
AcDbVertex
100
AcDb2dVertex
 10
493.6541219999999
 20
304.990248
 30
0.0
  0
VERTEX
  5
1232
330
1217
100
AcDbEntity
  8
SCHRAFFUR_RAND
100
AcDbVertex
100
AcDb2dVertex
 10
494.5971219999999
 20
306.665248
 30
0.0
  0
VERTEX
  5
1233
330
1217
100
AcDbEntity
  8
SCHRAFFUR_RAND
100
AcDbVertex
100
AcDb2dVertex
 10
494.910122
 20
308.552248
 30
0.0
  0
VERTEX
  5
1234
330
1217
100
AcDbEntity
  8
SCHRAFFUR_RAND
100
AcDbVertex
100
AcDb2dVertex
 10
498.1591219999999
 20
401.607248
 30
0.0
  0
VERTEX
  5
1235
330
1217
100
AcDbEntity
  8
SCHRAFFUR_RAND
100
AcDbVertex
100
AcDb2dVertex
 10
498.4141219999999
 20
403.3302479999999
 30
0.0
  0
VERTEX
  5
1236
330
1217
100
AcDbEntity
  8
SCHRAFFUR_RAND
100
AcDbVertex
100
AcDb2dVertex
 10
499.2051219999999
 20
404.8902479999999
 30
0.0
  0
VERTEX
  5
1237
330
1217
100
AcDbEntity
  8
SCHRAFFUR_RAND
100
AcDbVertex
100
AcDb2dVertex
 10
500.4091219999999
 20
406.1592479999999
 30
0.0
  0
VERTEX
  5
1238
330
1217
100
AcDbEntity
  8
SCHRAFFUR_RAND
100
AcDbVertex
100
AcDb2dVertex
 10
501.925122
 20
407.031248
 30
0.0
  0
VERTEX
  5
1239
330
1217
100
AcDbEntity
  8
SCHRAFFUR_RAND
100
AcDbVertex
100
AcDb2dVertex
 10
503.6321219999999
 20
407.375248
 30
0.0
  0
VERTEX
  5
123A
330
1217
100
AcDbEntity
  8
SCHRAFFUR_RAND
100
AcDbVertex
100
AcDb2dVertex
 10
513.169122
 20
408.209248
 30
0.0
  0
VERTEX
  5
123B
330
1217
100
AcDbEntity
  8
SCHRAFFUR_RAND
100
AcDbVertex
100
AcDb2dVertex
 10
514.4001219999999
 20
408.068248
 30
0.0
  0
VERTEX
  5
123C
330
1217
100
AcDbEntity
  8
SCHRAFFUR_RAND
100
AcDbVertex
100
AcDb2dVertex
 10
515.3941219999999
 20
407.3062479999999
 30
0.0
  0
VERTEX
  5
123D
330
1217
100
AcDbEntity
  8
SCHRAFFUR_RAND
100
AcDbVertex
100
AcDb2dVertex
 10
515.849122
 20
406.153248
 30
0.0
  0
VERTEX
  5
123E
330
1217
100
AcDbEntity
  8
SCHRAFFUR_RAND
100
AcDbVertex
100
AcDb2dVertex
 10
517.9361219999999
 20
394.312248
 30
0.0
  0
VERTEX
  5
123F
330
1217
100
AcDbEntity
  8
SCHRAFFUR_RAND
100
AcDbVertex
100
AcDb2dVertex
 10
518.804122
 20
391.348248
 30
0.0
  0
VERTEX
  5
1240
330
1217
100
AcDbEntity
  8
SCHRAFFUR_RAND
100
AcDbVertex
100
AcDb2dVertex
 10
520.4201219999999
 20
388.763248
 30
0.0
  0
VERTEX
  5
1241
330
1217
100
AcDbEntity
  8
SCHRAFFUR_RAND
100
AcDbVertex
100
AcDb2dVertex
 10
522.6321219999999
 20
386.665248
 30
0.0
  0
VERTEX
  5
1242
330
1217
100
AcDbEntity
  8
SCHRAFFUR_RAND
100
AcDbVertex
100
AcDb2dVertex
 10
525.3001219999999
 20
385.190248
 30
0.0
  0
VERTEX
  5
1243
330
1217
100
AcDbEntity
  8
SCHRAFFUR_RAND
100
AcDbVertex
100
AcDb2dVertex
 10
528.253122
 20
384.431248
 30
0.0
  0
VERTEX
  5
1244
330
1217
100
AcDbEntity
  8
SCHRAFFUR_RAND
100
AcDbVertex
100
AcDb2dVertex
 10
531.3021219999999
 20
384.437248
 30
0.0
  0
VERTEX
  5
1245
330
1217
100
AcDbEntity
  8
SCHRAFFUR_RAND
100
AcDbVertex
100
AcDb2dVertex
 10
534.252122
 20
385.207248
 30
0.0
  0
VERTEX
  5
1246
330
1217
100
AcDbEntity
  8
SCHRAFFUR_RAND
100
AcDbVertex
100
AcDb2dVertex
 10
536.914122
 20
386.693248
 30
0.0
  0
VERTEX
  5
1247
330
1217
100
AcDbEntity
  8
SCHRAFFUR_RAND
100
AcDbVertex
100
AcDb2dVertex
 10
539.1191219999999
 20
388.799248
 30
0.0
  0
VERTEX
  5
1248
330
1217
100
AcDbEntity
  8
SCHRAFFUR_RAND
100
AcDbVertex
100
AcDb2dVertex
 10
540.7251219999999
 20
391.390248
 30
0.0
  0
VERTEX
  5
1249
330
1217
100
AcDbEntity
  8
SCHRAFFUR_RAND
100
AcDbVertex
100
AcDb2dVertex
 10
541.5721219999999
 20
394.312248
 30
0.0
  0
VERTEX
  5
124A
330
1217
100
AcDbEntity
  8
SCHRAFFUR_RAND
100
AcDbVertex
100
AcDb2dVertex
 10
544.1731219999999
 20
409.062248
 30
0.0
  0
VERTEX
  5
124B
330
1217
100
AcDbEntity
  8
SCHRAFFUR_RAND
100
AcDbVertex
100
AcDb2dVertex
 10
544.5401219999999
 20
410.095248
 30
0.0
  0
VERTEX
  5
124C
330
1217
100
AcDbEntity
  8
SCHRAFFUR_RAND
100
AcDbVertex
100
AcDb2dVertex
 10
545.356122
 20
410.8442479999999
 30
0.0
  0
VERTEX
  5
124D
330
1217
100
AcDbEntity
  8
SCHRAFFUR_RAND
100
AcDbVertex
100
AcDb2dVertex
 10
546.4171219999999
 20
411.118248
 30
0.0
  0
VERTEX
  5
124E
330
1217
100
AcDbEntity
  8
SCHRAFFUR_RAND
100
AcDbVertex
100
AcDb2dVertex
 10
551.906122
 20
411.598248
 30
0.0
  0
VERTEX
  5
124F
330
1217
100
AcDbEntity
  8
SCHRAFFUR_RAND
100
AcDbVertex
100
AcDb2dVertex
 10
567.5961219999999
 20
416.396248
 30
0.0
  0
VERTEX
  5
1250
330
1217
100
AcDbEntity
  8
SCHRAFFUR_RAND
100
AcDbVertex
100
AcDb2dVertex
 10
584.755122
 20
416.396248
 30
0.0
  0
VERTEX
  5
1251
330
1217
100
AcDbEntity
  8
SCHRAFFUR_RAND
100
AcDbVertex
100
AcDb2dVertex
 10
582.5711219999999
 20
424.544248
 30
0.0
  0
VERTEX
  5
1252
330
1217
100
AcDbEntity
  8
SCHRAFFUR_RAND
100
AcDbVertex
100
AcDb2dVertex
 10
582.1731219999999
 20
425.471248
 30
0.0
  0
VERTEX
  5
1253
330
1217
100
AcDbEntity
  8
SCHRAFFUR_RAND
100
AcDbVertex
100
AcDb2dVertex
 10
581.3971219999999
 20
426.133248
 30
0.0
  0
VERTEX
  5
1254
330
1217
100
AcDbEntity
  8
SCHRAFFUR_RAND
100
AcDbVertex
100
AcDb2dVertex
 10
580.424122
 20
426.440248
 30
0.0
  0
VERTEX
  5
1255
330
1217
100
AcDbEntity
  8
SCHRAFFUR_RAND
100
AcDbVertex
100
AcDb2dVertex
 10
580.1571219999999
 20
426.396248
 30
0.0
  0
VERTEX
  5
1256
330
1217
100
AcDbEntity
  8
SCHRAFFUR_RAND
100
AcDbVertex
100
AcDb2dVertex
 10
579.426122
 20
426.285248
 30
0.0
  0
VERTEX
  5
1257
330
1217
100
AcDbEntity
  8
SCHRAFFUR_RAND
100
AcDbVertex
100
AcDb2dVertex
 10
550.755122
 20
417.520248
 30
0.0
  0
VERTEX
  5
1258
330
1217
100
AcDbEntity
  8
SCHRAFFUR_RAND
100
AcDbVertex
100
AcDb2dVertex
 10
536.3921219999999
 20
416.264248
 30
0.0
  0
VERTEX
  5
1259
330
1217
100
AcDbEntity
  8
SCHRAFFUR_RAND
100
AcDbVertex
100
AcDb2dVertex
 10
534.7541219999999
 20
413.4272479999999
 30
0.0
  0
VERTEX
  5
125A
330
1217
100
AcDbEntity
  8
SCHRAFFUR_RAND
100
AcDbVertex
100
AcDb2dVertex
 10
534.755122
 20
402.7532479999999
 30
0.0
  0
VERTEX
  5
125B
330
1217
100
AcDbEntity
  8
SCHRAFFUR_RAND
100
AcDbVertex
100
AcDb2dVertex
 10
534.755122
 20
400.159248
 30
0.0
  0
VERTEX
  5
125C
330
1217
100
AcDbEntity
  8
SCHRAFFUR_RAND
100
AcDbVertex
100
AcDb2dVertex
 10
533.755122
 20
400.159248
 30
0.0
  0
VERTEX
  5
125D
330
1217
100
AcDbEntity
  8
SCHRAFFUR_RAND
100
AcDbVertex
100
AcDb2dVertex
 10
533.755122
 20
394.659248
 30
0.0
  0
VERTEX
  5
125E
330
1217
100
AcDbEntity
  8
SCHRAFFUR_RAND
100
AcDbVertex
100
AcDb2dVertex
 10
529.7541219999999
 20
392.350248
 30
0.0
  0
VERTEX
  5
125F
330
1217
100
AcDbEntity
  8
SCHRAFFUR_RAND
100
AcDbVertex
100
AcDb2dVertex
 10
525.755122
 20
394.659248
 30
0.0
  0
VERTEX
  5
1260
330
1217
100
AcDbEntity
  8
SCHRAFFUR_RAND
100
AcDbVertex
100
AcDb2dVertex
 10
525.755122
 20
400.159248
 30
0.0
  0
VERTEX
  5
1261
330
1217
100
AcDbEntity
  8
SCHRAFFUR_RAND
100
AcDbVertex
100
AcDb2dVertex
 10
524.755122
 20
400.159248
 30
0.0
  0
VERTEX
  5
1262
330
1217
100
AcDbEntity
  8
SCHRAFFUR_RAND
100
AcDbVertex
100
AcDb2dVertex
 10
524.755122
 20
402.7532479999999
 30
0.0
  0
VERTEX
  5
1263
330
1217
100
AcDbEntity
  8
SCHRAFFUR_RAND
100
AcDbVertex
100
AcDb2dVertex
 10
524.755122
 20
414.2532479999999
 30
0.0
  0
VERTEX
  5
1264
330
1217
100
AcDbEntity
  8
SCHRAFFUR_RAND
100
AcDbVertex
100
AcDb2dVertex
 10
524.755122
 20
415.2462479999999
 30
0.0
  0
VERTEX
  5
1265
330
1217
100
AcDbEntity
  8
SCHRAFFUR_RAND
100
AcDbVertex
100
AcDb2dVertex
 10
508.7121219999999
 20
413.842248
 30
0.0
  0
VERTEX
  5
1266
330
1217
100
AcDbEntity
  8
SCHRAFFUR_RAND
100
AcDbVertex
100
AcDb2dVertex
 10
507.7251219999999
 20
413.8932479999999
 30
0.0
  0
VERTEX
  5
1267
330
1217
100
AcDbEntity
  8
SCHRAFFUR_RAND
100
AcDbVertex
100
AcDb2dVertex
 10
506.8501219999999
 20
414.3732479999999
 30
0.0
  0
VERTEX
  5
1268
330
1217
100
AcDbEntity
  8
SCHRAFFUR_RAND
100
AcDbVertex
100
AcDb2dVertex
 10
506.225122
 20
415.1522479999999
 30
0.0
  0
VERTEX
  5
1269
330
1217
100
AcDbEntity
  8
SCHRAFFUR_RAND
100
AcDbVertex
100
AcDb2dVertex
 10
506.004122
 20
416.115248
 30
0.0
  0
VERTEX
  5
126A
330
1217
100
AcDbEntity
  8
SCHRAFFUR_RAND
100
AcDbVertex
100
AcDb2dVertex
 10
505.901122
 20
417.2872479999999
 30
0.0
  0
VERTEX
  5
126B
330
1217
100
AcDbEntity
  8
SCHRAFFUR_RAND
100
AcDbVertex
100
AcDb2dVertex
 10
505.8041219999999
 20
418.3962479999999
 30
0.0
  0
VERTEX
  5
126C
330
1217
100
AcDbEntity
  8
SCHRAFFUR_RAND
100
AcDbVertex
100
AcDb2dVertex
 10
498.6261219999999
 20
418.3962479999999
 30
0.0
  0
VERTEX
  5
126D
330
1217
100
AcDbEntity
  8
SCHRAFFUR_RAND
100
AcDbVertex
100
AcDb2dVertex
 10
498.4161219999999
 20
414.3962479999999
 30
0.0
  0
SEQEND
  5
126E
330
1217
100
AcDbEntity
  8
SCHRAFFUR_RAND
  0
INSERT
  5
136C
330
12DD
100
AcDbEntity
  8
0
100
AcDbBlockReference
  2
KATALOG_LEER
 10
251.839706
 20
11.304483
 30
0.0
 41
5.0
 42
5.0
 43
5.0
1001
GENIUS_GENOREF_13
1005
136D
  0
POINT
  5
136D
330
12DD
100
AcDbEntity
  8
0
 60
     1
100
AcDbPoint
 10
0.0
 20
0.0
 30
0.0
1001
GENIUS_GENOBJ-N-TIT_13
1002
{
1000
OWNER
1000
GEN
1002
}
1001
GENIUS_GENOENT_13
1002
{
1000
MYREF
1005
136D
1002
}
1002
{
1000
GRP
1005
0
1002
}
1001
GENIUS_GENOLIS_13
1002
{
1000
ENT
1005
136C
1002
}
1001
GENIUS_GENTITLE_13
1002
{
1000
SCALE
1000
1:5
1002
}
1002
{
1000
BORDER
1000
KATALOG
1002
}
1002
{
1000
TITLE
1000
KATALOG_LEER
1002
}
1002
{
1000
UNCHG
1002
{
1000
GEN-TITLE-SCA
1000
GEN-TITLE-SIZ
1002
}
1002
}
1002
{
1000
HRA
1005
1365
1002
}
1002
{
1000
HTIT
1005
136C
1002
}
1002
{
1000
GENIUSID
1005
136D
1002
}
1001
GENIUS_GENODEF_13
1002
{
1000
HIER
1070
     1
1002
}
1002
{
1000
MANEDIT
1070
     1
1002
}
1002
{
1000
NOSEL
1070
     0
1002
}
1002
{
1000
BEHIND
1070
     0
1002
}
1002
{
1000
REACTOR
1002
}
  0
HATCH
  5
1587
330
12DD
100
AcDbEntity
  8
AM_8
100
AcDbHatch
 10
0.0
 20
0.0
 30
0.0
210
0.0
220
0.0
230
1.0
  2
_U
 70
     0
 71
     0
 91
        1
 92
        1
 93
       32
 72
     1
 10
279.7546218917515
 20
392.3505366874865
 11
275.755122
 21
394.659248
 72
     1
 10
275.755122
 20
394.659248
 11
275.755122
 21
400.159248
 72
     1
 10
275.755122
 20
400.159248
 11
274.755122
 21
400.159248
 72
     1
 10
274.755122
 20
400.159248
 11
274.755122
 21
415.158248
 72
     1
 10
274.755122
 20
415.158248
 11
273.755122
 21
415.158248
 72
     1
 10
273.755122
 20
415.158248
 11
273.116122
 21
416.264248
 72
     1
 10
273.116122
 20
416.264248
 11
258.755122
 21
417.520248
 72
     1
 10
258.755122
 20
417.520248
 11
230.083122
 21
426.286248
 72
     1
 10
230.083122
 20
426.286248
 11
229.353122
 21
426.396248
 72
     2
 10
229.3531220000001
 20
423.896248
 40
2.5
 50
90.00000000000063
 51
142.2944919406272
 73
     1
 72
     1
 10
227.3752101477232
 20
425.4252557516556
 11
226.937122
 21
424.543248
 72
     1
 10
226.937122
 20
424.543248
 11
224.755122
 21
416.396248
 72
     1
 10
224.755122
 20
416.396248
 11
241.913122
 21
416.396248
 72
     1
 10
241.913122
 20
416.396248
 11
257.603122
 21
411.598248
 72
     1
 10
257.603122
 20
411.598248
 11
263.092122
 21
411.118248
 72
     1
 10
263.092122
 20
411.118248
 11
264.173122
 21
410.8772479999999
 72
     1
 10
264.173122
 20
410.8772479999999
 11
265.0021220000001
 21
410.118248
 72
     1
 10
265.0021220000001
 20
410.118248
 11
265.1390716676049
 21
409.6865499433113
 72
     2
 10
262.874122
 20
408.6282480000001
 40
2.499999999999964
 50
334.9555797051442
 51
349.8427375068323
 73
     0
 72
     1
 10
265.3349405586954
 20
409.0691244239334
 11
265.337122
 21
409.062248
 72
     1
 10
265.337122
 20
409.062248
 11
267.938122
 21
394.312248
 72
     1
 10
267.938122
 20
394.312248
 11
268.8852019523483
 21
391.3124661245004
 72
     2
 10
279.7551220000002
 20
396.3962479999998
 40
12.00000000000002
 50
205.0651471562663
 51
211.7925636686255
 73
     1
 72
     1
 10
269.555589056642
 20
390.0741021825299
 11
270.8317121025127
 21
388.3729845865612
 72
     2
 10
279.7551220000002
 20
396.3962479999999
 40
12.0
 50
221.9595110442559
 51
229.5328789403706
 73
     1
 72
     1
 10
271.9669829718336
 20
387.2669057193124
 11
273.7018485889086
 21
386.0348831762631
 72
     2
 10
279.7551219999999
 20
396.3962480000001
 40
11.99999999999995
 50
239.705851065345
 51
247.2851606227123
 73
     1
 72
     1
 10
275.1213824434386
 20
385.3269906752308
 11
277.1469080231713
 21
384.6831263046075
 72
     2
 10
279.7551219999999
 20
396.396248
 40
11.99999999999994
 50
257.4464983701162
 51
265.0515726986963
 73
     1
 72
     1
 10
278.7200137675766
 20
384.4409750651328
 11
279.755122
 21
384.4431933522636
 72
     1
 10
279.755122
 20
384.4431933522636
 11
279.755122
 21
392.350248
 72
     1
 10
279.755122
 20
392.350248
 11
279.7546218917515
 21
392.3505366874865
 97
        0
 75
     0
 76
     0
 52
45.0
 41
5.0
 77
     0
 78
     1
 53
45.0
 43
0.0
 44
0.0
 45
-3.535533905932737
 46
3.535533905932737
 79
     0
 98
        1
 10
0.0
 20
0.0
1001
GENIUS_GENOBJ-N-HTC_13
1002
{
1000
OWNER
1000
GEN
1002
}
1001
GENIUS_GENODEF_13
1002
{
1000
HIER
1070
     0
1002
}
1002
{
1000
MANEDIT
1070
     0
1002
}
1002
{
1000
NOSEL
1070
     0
1002
}
1002
{
1000
BEHIND
1070
     0
1002
}
1002
{
1000
OTHER
1070
     0
1002
}
1002
{
1000
REACTOR
1002
}
1001
GENIUS_GENHATCH_13
1002
{
1000
DATA
1040
45.0
1042
2.5
1000
_U
1070
     0
1011
234.4791649787094
1021
419.9844938256949
1031
0.0
1002
}
1002
{
1000
UCS
1010
0.0
1020
0.0
1030
0.0
1010
1.0
1020
0.0
1030
0.0
1010
0.0
1020
1.0
1030
0.0
1002
}
1001
ACAD
1010
0.0
1020
0.0
1030
0.0
  0
HATCH
  5
159C
330
12DD
100
AcDbEntity
  8
AM_8
100
AcDbHatch
 10
0.0
 20
0.0
 30
0.0
210
0.0
220
0.0
230
1.0
  2
_U
 70
     0
 71
     0
 91
        1
 92
        1
 93
       91
 72
     1
 10
494.9093076892831
 20
308.5473387210131
 11
494.910122
 21
308.552248
 72
     1
 10
494.910122
 20
308.552248
 11
498.1591219999999
 21
401.607248
 72
     1
 10
498.1591219999999
 20
401.607248
 11
498.4141219999999
 21
403.3302479999999
 72
     1
 10
498.4141219999999
 20
403.3302479999999
 11
498.6887566880963
 21
403.8718789904303
 72
     2
 10
504.1551219999997
 20
401.3982479999994
 40
5.999999999999977
 50
204.3476278349322
 51
209.4270635524092
 73
     0
 72
     1
 10
498.9292309810859
 20
404.3461392901315
 11
499.2051219999999
 21
404.8902479999999
 72
     1
 10
499.2051219999999
 20
404.8902479999999
 11
499.6284999445062
 21
405.3364827272246
 72
     2
 10
504.1551220000001
 20
401.3982480000002
 40
6.000000000000007
 50
221.0237988289478
 51
225.9649853142002
 73
     0
 72
     1
 10
499.9845349313728
 20
405.71173887202
 11
500.4091219999999
 21
406.1592479999999
 72
     1
 10
500.4091219999999
 20
406.1592479999999
 11
500.9484861112847
 21
406.4694890983115
 72
     2
 10
504.1551219999998
 20
401.398248
 40
6.000000000000021
 50
237.6941048891322
 51
242.4910509521025
 73
     0
 72
     1
 10
501.3837990991879
 20
406.7198802100869
 11
501.925122
 21
407.031248
 72
     1
 10
501.925122
 20
407.031248
 11
503.6321219999999
 21
407.375248
 72
     1
 10
503.6321219999999
 20
407.375248
 11
513.169122
 21
408.209248
 72
     1
 10
513.169122
 20
408.209248
 11
514.4001219999999
 21
408.068248
 72
     1
 10
514.4001219999999
 20
408.068248
 11
514.649264355527
 21
407.8772555705113
 72
     2
 10
513.3871219999998
 20
405.7192480000001
 40
2.499999999999969
 50
300.3218563297827
 51
314.6256621914671
 73
     0
 72
     1
 10
515.1433017292831
 20
407.4985267185977
 11
515.3941219999999
 21
407.3062479999999
 72
     1
 10
515.3941219999999
 20
407.3062479999999
 11
515.849122
 21
406.153248
 72
     1
 10
515.849122
 20
406.153248
 11
517.9361219999999
 21
394.312248
 72
     1
 10
517.9361219999999
 20
394.312248
 11
518.6756121689862
 21
391.7870765012954
 72
     2
 10
529.7551219999999
 20
396.3962480000001
 40
11.99999999999999
 50
202.5877311334026
 51
207.4327569411576
 73
     1
 72
     1
 10
519.1044963649286
 20
390.8677605412496
 11
520.1200590569932
 21
389.2432372993023
 72
     2
 10
529.7551220000003
 20
396.3962479999996
 40
11.99999999999997
 50
216.5899626973926
 51
221.9645095955946
 73
     1
 72
     1
 10
520.8324120954273
 20
388.3722061282971
 11
522.2139830873953
 21
387.0618372579768
 72
     2
 10
529.7551220000002
 20
396.3962479999998
 40
11.99999999999994
 50
231.0657439022776
 51
236.5347706121058
 73
     1
 72
     1
 10
523.1379520355431
 20
386.3856005852976
 11
524.7965968622445
 21
385.4686211552433
 72
     2
 10
529.7551219999999
 20
396.3962480000001
 40
11.99999999999999
 50
245.5933309258913
 51
251.0391863970293
 73
     1
 72
     1
 10
525.8560651005963
 20
385.0473557503039
 11
527.6985232094455
 21
384.5737947260517
 72
     2
 10
529.7551219999997
 20
396.3962480000001
 40
12.00000000000001
 50
260.1317471430504
 51
265.5530871258745
 73
     1
 72
     1
 10
528.8246975207056
 20
384.4323727796406
 11
529.755122
 21
384.4342037231879
 72
     1
 10
529.755122
 20
384.4342037231879
 11
529.755122
 21
392.3508251057236
 72
     1
 10
529.755122
 20
392.3508251057236
 11
529.7541219999999
 21
392.350248
 72
     1
 10
529.7541219999999
 20
392.350248
 11
525.755122
 21
394.659248
 72
     1
 10
525.755122
 20
394.659248
 11
525.755122
 21
400.159248
 72
     1
 10
525.755122
 20
400.159248
 11
524.755122
 21
400.159248
 72
     1
 10
524.755122
 20
400.159248
 11
524.755122
 21
415.2462479999999
 72
     1
 10
524.755122
 20
415.2462479999999
 11
508.7121219999999
 21
413.842248
 72
     1
 10
508.7121219999999
 20
413.842248
 11
508.7083446732484
 21
413.8424431810175
 72
     2
 10
508.4941220000001
 20
416.333248
 40
2.500000000000014
 50
85.08434979387711
 51
100.8315332642478
 73
     0
 72
     1
 10
508.0243172572776
 20
413.8777880626938
 11
507.7251219999999
 21
413.8932479999999
 72
     1
 10
507.7251219999999
 20
413.8932479999999
 11
506.8501219999999
 21
414.3732479999999
 72
     1
 10
506.8501219999999
 20
414.3732479999999
 11
506.225122
 21
415.1522479999999
 72
     1
 10
506.225122
 20
415.1522479999999
 11
506.004122
 21
416.115248
 72
     1
 10
506.004122
 20
416.115248
 11
505.901122
 21
417.2872479999999
 72
     1
 10
505.901122
 20
417.2872479999999
 11
505.8041219999999
 21
418.3962479999999
 72
     1
 10
505.8041219999999
 20
418.3962479999999
 11
498.6261219999999
 21
418.3962479999999
 72
     1
 10
498.6261219999999
 20
418.3962479999999
 11
498.4161219999999
 21
414.3962479999999
 72
     1
 10
498.4161219999999
 20
414.3962479999999
 11
498.2331219999999
 21
410.896248
 72
     1
 10
498.2331219999999
 20
410.896248
 11
491.6373098691703
 21
410.896248
 72
     1
 10
491.6373098691703
 20
410.896248
 11
490.2551219999999
 21
403.0532479999999
 72
     1
 10
490.2551219999999
 20
403.0532479999999
 11
488.6861219999999
 21
313.201248
 72
     1
 10
488.6861219999999
 20
313.201248
 11
488.3981219999999
 21
311.283248
 72
     1
 10
488.3981219999999
 20
311.283248
 11
488.1675991653867
 21
310.8630420218577
 72
     2
 10
482.6871219999999
 20
313.3052479999999
 40
6.00000000000002
 50
24.01867167554762
 51
33.47921975046765
 73
     0
 72
     1
 10
487.6916376748419
 20
309.9954409270332
 11
487.461122
 21
309.575248
 72
     1
 10
487.461122
 20
309.575248
 11
487.1087666731553
 21
309.2495041244135
 72
     2
 10
482.6871220000002
 20
313.3052480000003
 40
5.99999999999997
 50
42.52853521531956
 51
51.96621073142845
 73
     0
 72
     1
 10
486.3838785097847
 20
308.5793627593955
 11
486.0311219999999
 21
308.253248
 72
     1
 10
486.0311219999999
 20
308.253248
 11
484.240122
 21
307.510248
 72
     1
 10
484.240122
 20
307.510248
 11
472.7481219999999
 21
304.430248
 72
     1
 10
472.7481219999999
 20
304.430248
 11
471.3008790482157
 21
303.8318374311724
 72
     2
 10
474.3001219999999
 20
298.6352479999999
 40
6.000000000000021
 50
119.9916526998956
 51
127.8636610357553
 73
     1
 72
     1
 10
470.6174143269448
 20
303.3720891620848
 11
469.8922479069405
 21
302.7059538331124
 72
     2
 10
474.300122
 20
298.635248
 40
5.999999999999995
 50
137.277285187434
 51
146.2246781522489
 73
     1
 72
     1
 10
469.31277801765
 20
301.9708738785598
 11
468.8344054597484
 21
301.1103121813134
 72
     2
 10
474.300122
 20
298.6352480000002
 40
5.999999999999986
 50
155.6373492646839
 51
163.5157332382172
 73
     1
 72
     1
 10
468.5467358694475
 20
300.3377602709594
 11
468.3021219999999
 21
298.791248
 72
     1
 10
468.3021219999999
 20
298.791248
 11
466.769122
 21
240.238248
 72
     1
 10
466.769122
 20
240.238248
 11
465.725122
 21
196.3962480000001
 72
     1
 10
465.725122
 20
196.3962480000001
 11
472.2551219999999
 21
198.1372480000001
 72
     1
 10
472.2551219999999
 20
198.1372480000001
 11
473.2671219999999
 21
240.068248
 72
     1
 10
473.2671219999999
 20
240.068248
 11
474.6861219999999
 21
294.291248
 72
     1
 10
474.6861219999999
 20
294.291248
 11
474.6873918405607
 21
294.2992720423473
 72
     2
 10
480.6851219999999
 20
294.1342480000002
 40
5.999999999999972
 50
181.5760622741301
 51
196.4094082879744
 73
     0
 72
     1
 10
474.9295164026513
 20
295.8292418665874
 11
474.987122
 21
296.193248
 72
     1
 10
474.987122
 20
296.193248
 11
475.2238570269762
 21
296.6191192027839
 72
     2
 10
480.6851219999997
 20
294.1342479999997
 40
5.999999999999985
 50
204.4654972146147
 51
213.6724753684579
 73
     0
 72
     1
 10
475.6917985748565
 20
297.460916178811
 11
475.927122
 21
297.884248
 72
     1
 10
475.927122
 20
297.884248
 11
476.2828929099332
 21
298.2110579095457
 72
     2
 10
480.6851220000001
 20
294.1342480000001
 40
6.000000000000032
 50
222.802109515265
 51
232.0569442615425
 73
     0
 72
     1
 10
476.9958540288189
 20
298.8659814917362
 11
477.3521219999999
 21
299.193248
 72
     1
 10
477.3521219999999
 20
299.193248
 11
479.1321219999999
 21
299.929248
 72
     1
 10
479.1321219999999
 20
299.929248
 11
490.466122
 21
302.966248
 72
     1
 10
490.466122
 20
302.966248
 11
491.8975461397664
 21
303.5561339230581
 72
     2
 10
488.9131219999998
 20
308.761248
 40
5.999999999999994
 50
299.828399669098
 51
307.8611360623264
 73
     1
 72
     1
 10
492.5956209211527
 20
304.0242445489026
 11
493.2945912291628
 21
304.6621349991302
 72
     2
 10
488.9131219999998
 20
308.7612479999999
 40
6.000000000000035
 50
316.9069264260277
 51
326.0926139703991
 73
     1
 72
     1
 10
493.892764273871
 20
305.4141353899619
 11
494.3575737006461
 21
306.2397512858773
 72
     2
 10
488.913122
 20
308.761248
 40
5.999999999999987
 50
335.1496625413817
 51
343.2071114773395
 73
     1
 72
     1
 10
494.6572541864433
 20
307.0277701591655
 11
494.9093076892831
 21
308.5473387210131
 97
        0
 75
     0
 76
     0
 52
45.0
 41
5.0
 77
     0
 78
     1
 53
45.0
 43
0.0
 44
0.0
 45
-3.535533905932737
 46
3.535533905932737
 79
     0
 98
        1
 10
0.0
 20
0.0
1001
GENIUS_GENODEF_13
1002
{
1000
HIER
1070
     0
1002
}
1002
{
1000
MANEDIT
1070
     0
1002
}
1002
{
1000
NOSEL
1070
     0
1002
}
1002
{
1000
BEHIND
1070
     0
1002
}
1002
{
1000
OTHER
1070
     0
1002
}
1002
{
1000
REACTOR
1002
}
1001
GENIUS_GENOBJ-N-HTC_13
1002
{
1000
OWNER
1000
GEN
1002
}
1001
GENIUS_GENHATCH_13
1002
{
1000
DATA
1040
45.0
1042
2.5
1000
_U
1070
     0
1011
494.0522968486193
1021
383.5037701525446
1031
0.0
1002
}
1002
{
1000
UCS
1010
0.0
1020
0.0
1030
0.0
1010
1.0
1020
0.0
1030
0.0
1010
0.0
1020
1.0
1030
0.0
1002
}
1001
ACAD
1010
0.0
1020
0.0
1030
0.0
  0
HATCH
  5
15A5
330
12DD
100
AcDbEntity
  8
AM_8
100
AcDbHatch
 10
0.0
 20
0.0
 30
0.0
210
0.0
220
0.0
230
1.0
  2
_U
 70
     0
 71
     0
 91
        1
 92
        1
 93
       32
 72
     1
 10
551.906122
 20
411.598248
 11
567.5961219999999
 21
416.396248
 72
     1
 10
567.5961219999999
 20
416.396248
 11
584.7541219999999
 21
416.396248
 72
     1
 10
584.7541219999999
 20
416.396248
 11
582.5711219999999
 21
424.544248
 72
     1
 10
582.5711219999999
 20
424.544248
 11
582.2880112238171
 21
425.2036542550792
 72
     2
 10
580.1571219999999
 20
423.896248
 40
2.499999999999986
 50
31.5311808963426
 51
90.00000000000518
 73
     1
 72
     1
 10
580.1571219999997
 20
426.396248
 11
579.426122
 21
426.285248
 72
     1
 10
579.426122
 20
426.285248
 11
550.755122
 21
417.520248
 72
     1
 10
550.755122
 20
417.520248
 11
536.3921219999999
 21
416.264248
 72
     1
 10
536.3921219999999
 20
416.264248
 11
534.755122
 21
413.4289799902322
 72
     1
 10
534.755122
 20
413.4289799902322
 11
534.755122
 21
400.159248
 72
     1
 10
534.755122
 20
400.159248
 11
533.755122
 21
400.159248
 72
     1
 10
533.755122
 20
400.159248
 11
533.755122
 21
394.659248
 72
     1
 10
533.755122
 20
394.659248
 11
529.755122
 21
392.3508251057236
 72
     1
 10
529.755122
 20
392.3508251057236
 11
529.755122
 21
384.4342037231879
 72
     1
 10
529.755122
 20
384.4342037231879
 11
530.7326255135527
 21
384.4361273116043
 72
     2
 10
529.7551219999995
 20
396.396248
 40
12.00000000000005
 50
274.6724125352184
 51
280.0691423087517
 73
     1
 72
     1
 10
531.8531597416264
 20
384.5810781901873
 11
533.6992308685247
 21
385.0629340436488
 72
     2
 10
529.7551219999998
 20
396.3962479999999
 40
11.99999999999999
 50
289.1884179437038
 51
294.5980873796143
 73
     1
 72
     1
 10
534.7501272841076
 20
385.4852479444718
 11
536.4210543861553
 21
386.4180043958778
 72
     2
 10
529.7551219999999
 20
396.396248
 40
12.00000000000001
 50
303.7447722016866
 51
309.08712824949
 73
     1
 72
     1
 10
537.3211393910833
 20
387.0819911408714
 11
538.7122433513918
 21
388.4106373723497
 72
     2
 10
529.755122
 20
396.3962480000001
 40
12.00000000000009
 50
318.2817952674782
 51
323.6152186624288
 73
     1
 72
     1
 10
539.4157386844824
 20
389.2777871217272
 11
540.4281543034076
 21
390.9111425816495
 72
     2
 10
529.755122
 20
396.396248
 40
11.99999999999998
 50
332.8003742035505
 51
337.6426401518451
 73
     1
 72
     1
 10
540.8530744920624
 20
391.8316614377881
 11
541.5721219999999
 21
394.312248
 72
     1
 10
541.5721219999999
 20
394.312248
 11
544.1731219999999
 21
409.062248
 72
     1
 10
544.1731219999999
 20
409.062248
 11
544.5401219999999
 21
410.095248
 72
     1
 10
544.5401219999999
 20
410.095248
 11
544.8626108108775
 21
410.3912579501804
 72
     2
 10
546.6351220000002
 20
408.6282480000002
 40
2.499999999999982
 50
224.8460256466841
 51
230.0568171777667
 73
     0
 72
     1
 10
545.030052879437
 20
410.5449517116401
 11
545.356122
 21
410.8442479999999
 72
     1
 10
545.356122
 20
410.8442479999999
 11
546.4171219999999
 21
411.118248
 72
     1
 10
546.4171219999999
 20
411.118248
 11
551.906122
 21
411.598248
 97
        0
 75
     0
 76
     0
 52
45.0
 41
5.0
 77
     0
 78
     1
 53
45.0
 43
0.0
 44
0.0
 45
-3.535533905932737
 46
3.535533905932737
 79
     0
 98
        1
 10
0.0
 20
0.0
1001
GENIUS_GENOBJ-N-HTC_13
1002
{
1000
OWNER
1000
GEN
1002
}
1001
GENIUS_GENODEF_13
1002
{
1000
HIER
1070
     0
1002
}
1002
{
1000
MANEDIT
1070
     0
1002
}
1002
{
1000
NOSEL
1070
     0
1002
}
1002
{
1000
BEHIND
1070
     0
1002
}
1002
{
1000
OTHER
1070
     0
1002
}
1002
{
1000
REACTOR
1002
}
1001
GENIUS_GENHATCH_13
1002
{
1000
DATA
1040
45.0
1042
2.5
1000
_U
1070
     0
1011
576.6230117027735
1021
420.4405021729606
1031
0.0
1002
}
1002
{
1000
UCS
1010
0.0
1020
0.0
1030
0.0
1010
1.0
1020
0.0
1030
0.0
1010
0.0
1020
1.0
1030
0.0
1002
}
1001
ACAD
1010
0.0
1020
0.0
1030
0.0
  0
HATCH
  5
15A9
330
12DD
100
AcDbEntity
  8
AM_8
100
AcDbHatch
 10
0.0
 20
0.0
 30
0.0
210
0.0
220
0.0
230
1.0
  2
_U
 70
     0
 71
     0
 91
        1
 92
        1
 93
       75
 72
     1
 10
332.179122
 20
299.225248
 11
333.613122
 21
297.908248
 72
     1
 10
333.613122
 20
297.908248
 11
334.559122
 21
296.206248
 72
     1
 10
334.559122
 20
296.206248
 11
334.6431427811598
 21
295.5967790760563
 72
     2
 10
328.8241220000001
 20
294.1342479999999
 40
5.99999999999996
 50
345.8917193659585
 51
358.4097536613897
 73
     0
 72
     1
 10
334.8218111225282
 20
294.3007568271154
 11
334.823122
 21
294.291248
 72
     1
 10
334.823122
 20
294.291248
 11
336.2401220000001
 21
240.178248
 72
     1
 10
336.2401220000001
 20
240.178248
 11
337.254122
 21
198.1372480000001
 72
     1
 10
337.254122
 20
198.1372480000001
 11
343.5042945579705
 21
196.4708543670098
 72
     1
 10
343.5042945579705
 20
196.4708543670098
 11
342.7398457730457
 21
240.2497985002333
 72
     1
 10
342.7398457730457
 20
240.2497985002333
 11
341.207122
 21
298.792248
 72
     1
 10
341.207122
 20
298.792248
 11
341.2070547823239
 21
298.7927355827643
 72
     1
 10
341.2070547823239
 20
298.7927355827643
 11
341.0259364226612
 21
300.1065297447115
 72
     2
 10
335.2091220000001
 20
298.635248
 40
5.999999999999986
 50
14.194458596955
 51
62.25775147644036
 73
     1
 72
     1
 10
338.002090722969
 20
303.9455517307217
 11
336.762122
 21
304.430248
 72
     1
 10
336.762122
 20
304.430248
 11
325.270122
 21
307.510248
 72
     1
 10
325.270122
 20
307.510248
 11
323.457122
 21
308.221248
 72
     1
 10
323.457122
 20
308.221248
 11
322.018122
 21
309.551248
 72
     1
 10
322.018122
 20
309.551248
 11
321.075122
 21
311.270248
 72
     1
 10
321.075122
 20
311.270248
 11
320.8241220000001
 21
313.200248
 72
     1
 10
320.8241220000001
 20
313.200248
 11
319.255122
 21
403.0532479999999
 72
     1
 10
319.255122
 20
403.0532479999999
 11
319.2551394616601
 21
403.0532479999999
 72
     1
 10
319.2551394616601
 20
403.0532479999999
 11
319.255122
 21
403.0542479999999
 72
     1
 10
319.255122
 20
403.0542479999999
 11
317.872122
 21
410.896248
 72
     1
 10
317.872122
 20
410.896248
 11
311.277122
 21
410.896248
 72
     1
 10
311.277122
 20
410.896248
 11
311.093122
 21
414.3962479999999
 72
     1
 10
311.093122
 20
414.3962479999999
 11
310.883122
 21
418.3962479999999
 72
     1
 10
310.883122
 20
418.3962479999999
 11
303.705122
 21
418.3962479999999
 72
     1
 10
303.705122
 20
418.3962479999999
 11
303.628122
 21
417.5212479999999
 72
     1
 10
303.628122
 20
417.5212479999999
 11
303.505122
 21
416.115248
 72
     1
 10
303.505122
 20
416.115248
 11
303.143122
 21
414.843248
 72
     1
 10
303.143122
 20
414.843248
 11
302.113122
 21
413.9792479999999
 72
     1
 10
302.113122
 20
413.9792479999999
 11
300.797122
 21
413.843248
 72
     1
 10
300.797122
 20
413.843248
 11
298.244122
 21
414.0662479999999
 72
     1
 10
298.244122
 20
414.0662479999999
 11
284.755122
 21
415.2461605277983
 72
     1
 10
284.755122
 20
415.2461605277983
 11
284.755122
 21
400.159248
 72
     1
 10
284.755122
 20
400.159248
 11
283.755122
 21
400.159248
 72
     1
 10
283.755122
 20
400.159248
 11
283.755122
 21
394.659248
 72
     1
 10
283.755122
 20
394.659248
 11
279.755122
 21
392.350248
 72
     1
 10
279.755122
 20
392.350248
 11
279.755122
 21
384.4431933522636
 72
     1
 10
279.755122
 20
384.4431933522636
 11
280.8414619484767
 21
384.445521431446
 72
     2
 10
279.7551220000001
 20
396.396248
 40
11.99999999999999
 50
275.1940021924901
 51
282.7939227861618
 73
     1
 72
     1
 10
282.412462777909
 20
384.6941738253051
 11
284.4379426403806
 21
385.3476647944471
 72
     2
 10
279.7551220000002
 20
396.396248
 40
11.99999999999996
 50
292.969125896535
 51
300.5167580738424
 73
     1
 72
     1
 10
285.8486062433973
 20
386.0584798764895
 11
287.5822125876288
 21
387.300278951402
 72
     2
 10
279.7551220000002
 20
396.3962480000001
 40
11.99999999999999
 50
310.7120284331493
 51
318.2872227009926
 73
     1
 72
     1
 10
288.7129997608261
 20
388.4114858856914
 11
289.9828765961431
 21
390.1198608289378
 72
     2
 10
279.755122
 20
396.396248
 40
12.00000000000001
 50
328.4641295340366
 51
335.2188974767275
 73
     1
 72
     1
 10
290.6501112901411
 20
391.3664161571139
 11
291.5723297305961
 21
394.3097194351491
 72
     1
 10
291.5723297305961
 20
394.3097194351491
 11
291.573122
 21
394.312248
 72
     1
 10
291.573122
 20
394.312248
 11
293.6611220000001
 21
406.153248
 72
     1
 10
293.6611220000001
 20
406.153248
 11
294.085122
 21
407.3302479999999
 72
     1
 10
294.085122
 20
407.3302479999999
 11
295.094122
 21
408.1042479999999
 72
     1
 10
295.094122
 20
408.1042479999999
 11
295.4895107636193
 21
408.1378846042886
 72
     2
 10
296.1221220000001
 20
405.719248
 40
2.500000000000007
 50
255.3422568881391
 51
274.9325996179197
 73
     0
 72
     1
 10
296.3370815013231
 20
408.2099893379937
 11
296.340122
 21
408.2102479999999
 72
     1
 10
296.340122
 20
408.2102479999999
 11
305.8771220000001
 21
407.375248
 72
     1
 10
305.8771220000001
 20
407.375248
 11
308.003122
 21
406.890248
 72
     1
 10
308.003122
 20
406.890248
 11
308.7564041936025
 21
406.3403604911414
 72
     2
 10
305.3541219999993
 20
401.3982480000005
 40
5.999999999999988
 50
304.5445619714207
 51
307.7134835286819
 73
     0
 72
     1
 10
309.0244013406605
 20
406.1447255951773
 11
309.777122
 21
405.595248
 72
     1
 10
309.777122
 20
405.595248
 11
310.2864881988576
 21
404.8146443002507
 72
     2
 10
305.3541219999997
 20
401.3982480000004
 40
5.999999999999989
 50
325.2916464569639
 51
328.4571628417027
 73
     0
 72
     1
 10
310.4676176819158
 20
404.537063367464
 11
310.977122
 21
403.756248
 72
     1
 10
310.977122
 20
403.756248
 11
311.0704868424275
 21
403.2212052096621
 72
     2
 10
305.354122
 20
401.398248
 40
6.000000000000014
 50
342.3124406784583
 51
357.8906921345188
 73
     0
 72
     1
 10
311.3500565662922
 20
401.6190843121014
 11
311.352122
 21
401.607248
 72
     1
 10
311.352122
 20
401.607248
 11
314.601122
 21
308.553248
 72
     1
 10
314.601122
 20
308.553248
 11
315.0368191574934
 21
306.5052252031948
 72
     2
 10
320.5961219999999
 20
308.7622480000002
 40
6.000000000000013
 50
202.0966732760238
 51
211.8957657472229
 73
     1
 72
     1
 10
315.5020575733386
 20
305.5919944427869
 11
316.3595973395612
 21
304.5135000901455
 72
     2
 10
320.5961219999999
 20
308.7622480000001
 40
5.999999999999976
 50
225.0825359601868
 51
234.9469129846945
 73
     1
 72
     1
 10
317.1501109811873
 20
303.8505265035976
 11
319.0407695254077
 21
302.9673469068165
 72
     1
 10
319.0407695254077
 20
302.9673469068165
 11
319.0431220000001
 21
302.966248
 72
     1
 10
319.0431220000001
 20
302.966248
 11
330.378122
 21
299.929248
 72
     1
 10
330.378122
 20
299.929248
 11
332.179122
 21
299.225248
 97
        0
 75
     0
 76
     0
 52
45.0
 41
5.0
 77
     0
 78
     1
 53
45.0
 43
0.0
 44
0.0
 45
-3.535533905932737
 46
3.535533905932737
 79
     0
 98
        1
 10
0.0
 20
0.0
1001
GENIUS_GENOBJ-N-HTC_13
1002
{
1000
OWNER
1000
GEN
1002
}
1001
GENIUS_GENODEF_13
1002
{
1000
HIER
1070
     0
1002
}
1002
{
1000
MANEDIT
1070
     0
1002
}
1002
{
1000
NOSEL
1070
     0
1002
}
1002
{
1000
BEHIND
1070
     0
1002
}
1002
{
1000
OTHER
1070
     0
1002
}
1002
{
1000
REACTOR
1002
}
1001
GENIUS_GENHATCH_13
1002
{
1000
DATA
1040
45.0
1042
1.0
1000
_U
1070
     0
1011
339.8594694457147
1021
267.221465455639
1031
0.0
1002
}
1002
{
1000
UCS
1010
0.0
1020
0.0
1030
0.0
1010
1.0
1020
0.0
1030
0.0
1010
0.0
1020
1.0
1030
0.0
1002
}
  0
ENDSEC
  0
SECTION
  2
OBJECTS
  0
DICTIONARY
  5
12D1
330
0
100
AcDbDictionary
281
     1
  3
ACAD_COLOR
350
148C
  3
ACAD_GROUP
350
12D2
  3
ACAD_LAYOUT
350
148F
  3
ACAD_MATERIAL
350
148B
  3
ACAD_MLINESTYLE
350
12E0
  3
ACAD_PLOTSETTINGS
350
1490
  3
ACAD_PLOTSTYLENAME
350
1489
  3
ACAD_TABLESTYLE
350
148D
  3
ACDBHEADERROUNDTRIPXREC
350
15DE
  3
AcDbVariableDictionary
350
15AB
  3
AcmDictionary
350
14EE
  3
AMG
350
1494
  3
AMGSNAPSETTINGS
350
155B
  0
DICTIONARY
  5
1583
330
12C7
100
AcDbDictionary
280
     1
281
     1
  3
AMLAYER_GROUPCOLORS
360
1584
  0
DICTIONARY
  5
1563
330
12DD
100
AcDbDictionary
280
     1
281
     1
  3
ACAD_SORTENTS
360
1564
  0
DICTIONARY
  5
148C
102
{ACAD_REACTORS
330
12D1
102
}
330
12D1
100
AcDbDictionary
281
     1
  0
DICTIONARY
  5
12D2
102
{ACAD_REACTORS
330
12D1
102
}
330
12D1
100
AcDbDictionary
281
     1
  0
DICTIONARY
  5
148F
102
{ACAD_REACTORS
330
12D1
102
}
330
12D1
100
AcDbDictionary
281
     1
  3
Layout1
350
1492
  3
Model
350
1491
  0
DICTIONARY
  5
148B
102
{ACAD_REACTORS
330
12D1
102
}
330
12D1
100
AcDbDictionary
281
     1
  0
DICTIONARY
  5
12E0
102
{ACAD_REACTORS
330
12D1
102
}
330
12D1
100
AcDbDictionary
281
     1
  3
STANDARD
350
12E1
  0
DICTIONARY
  5
1490
102
{ACAD_REACTORS
330
12D1
102
}
330
12D1
100
AcDbDictionary
281
     1
  0
ACDBDICTIONARYWDFLT
  5
1489
102
{ACAD_REACTORS
330
12D1
102
}
330
12D1
100
AcDbDictionary
281
     1
  3
Normal
350
148A
100
AcDbDictionaryWithDefault
340
148A
  0
DICTIONARY
  5
148D
102
{ACAD_REACTORS
330
12D1
102
}
330
12D1
100
AcDbDictionary
281
     1
  3
Standard
350
148E
  0
DICTIONARY
  5
15DE
102
{ACAD_REACTORS
330
12D1
102
}
330
12D1
100
AcDbDictionary
281
     1
  0
DICTIONARY
  5
15AB
102
{ACAD_REACTORS
330
12D1
102
}
330
12D1
100
AcDbDictionary
281
     1
  3
CTABLESTYLE
350
15AC
  3
DIMASSOC
350
15DB
  3
PROJECTNAME
350
15DC
  0
DICTIONARY
  5
14EE
102
{ACAD_REACTORS
330
12D1
102
}
330
12D1
100
AcDbDictionary
281
     1
  3
AcmStdDictionary
350
14F9
  3
AMDTSECTSYM_ARROWCOLOR
350
151C
  0
DICTIONARY
  5
1494
102
{ACAD_REACTORS
330
12D1
102
}
330
12D1
100
AcDbDictionary
281
     1
  0
DICTIONARY
  5
155B
102
{ACAD_REACTORS
330
12D1
102
}
330
12D1
100
AcDbDictionary
281
     1
  0
DICTIONARY
  5
1584
102
{ACAD_REACTORS
330
1583
102
}
330
1583
100
AcDbDictionary
280
     1
281
     1
  0
SORTENTSTABLE
  5
1564
102
{ACAD_REACTORS
330
1563
102
}
330
1563
100
AcDbSortentsTable
330
12DD
331
1098
  5
1098
331
10DF
  5
10DF
331
10A0
  5
10A0
331
10E7
  5
10E7
331
10A8
  5
10A8
331
10B0
  5
10B0
331
10EF
  5
10EF
331
159C
  5
159B
331
1005
  5
1005
331
1044
  5
1044
331
100D
  5
100D
331
104C
  5
104C
331
1054
  5
1054
331
1015
  5
1015
331
101D
  5
101D
331
105C
  5
105C
331
1079
  5
1079
331
10B8
  5
10B8
331
1081
  5
1081
331
10C0
  5
10C0
331
10F7
  5
10F7
331
10FF
  5
10FF
331
1089
  5
1089
331
10C8
  5
10C8
331
10D0
  5
10D0
331
1107
  5
1112
331
1091
  5
1091
331
1025
  5
1025
331
1064
  5
1064
331
102D
  5
102D
331
106C
  5
106C
331
1074
  5
1074
331
1035
  5
1035
331
103D
  5
103D
331
10D8
  5
10D8
331
1099
  5
1099
331
10A1
  5
10A1
331
10E0
  5
10E0
331
10A9
  5
10A9
331
10E8
  5
10E8
331
10B1
  5
10B1
331
15A5
  5
15A4
331
1045
  5
1045
331
1006
  5
1006
331
100E
  5
100E
331
104D
  5
104D
331
1016
  5
1016
331
1055
  5
1055
331
101E
  5
101E
331
105D
  5
105D
331
10F0
  5
10F0
331
107A
  5
107A
331
10B9
  5
10B9
331
10C1
  5
10C1
331
10F8
  5
10F8
331
1082
  5
1082
331
11FD
  5
11FE
331
108A
  5
108A
331
10C9
  5
10C9
331
1100
  5
1100
331
1092
  5
1092
331
10D1
  5
10D1
331
1065
  5
1065
331
1026
  5
1026
331
102E
  5
102E
331
106D
  5
106D
331
1036
  5
1036
331
1075
  5
1075
331
103E
  5
103E
331
109A
  5
109A
331
10D9
  5
10D9
331
10E1
  5
10E1
331
10A2
  5
10A2
331
10E9
  5
10E9
331
10AA
  5
10AA
331
10B2
  5
10B2
331
1007
  5
1007
331
1046
  5
1046
331
104E
  5
104E
331
100F
  5
100F
331
1056
  5
1056
331
1017
  5
1017
331
101F
  5
101F
331
105E
  5
105E
331
107B
  5
107B
331
10BA
  5
10BA
331
10F1
  5
10F1
331
10F9
  5
10F9
331
1083
  5
1083
331
10C2
  5
10C2
331
11FE
  5
1216
331
1101
  5
1101
331
108B
  5
108B
331
10CA
  5
10CA
331
10D2
  5
10D2
331
1093
  5
1093
331
136C
  5
1562
331
1587
  5
1585
331
1027
  5
1027
331
1066
  5
1066
331
102F
  5
102F
331
106E
  5
106E
331
1076
  5
1076
331
1037
  5
1037
331
103F
  5
103F
331
109B
  5
109B
331
10DA
  5
10DA
331
1216
  5
1217
331
10A3
  5
10A3
331
10E2
  5
10E2
331
11D7
  5
11D8
331
10AB
  5
10AB
331
10EA
  5
10EA
331
10B3
  5
10B3
331
1047
  5
1047
331
1008
  5
1008
331
1010
  5
1010
331
104F
  5
104F
331
1018
  5
1018
331
1057
  5
1057
331
105F
  5
105F
331
10F2
  5
10F2
331
107C
  5
107C
331
10BB
  5
10BB
331
10C3
  5
10C3
331
10FA
  5
10FA
331
1084
  5
1084
331
11C0
  5
11D7
331
108C
  5
108C
331
10CB
  5
10CB
331
1102
  5
1102
331
1112
  5
111D
331
1094
  5
1094
331
10D3
  5
10D3
331
1020
  5
1020
331
1067
  5
1067
331
1028
  5
1028
331
1030
  5
1030
331
106F
  5
106F
331
1038
  5
1038
331
1077
  5
1077
331
109C
  5
109C
331
10DB
  5
10DB
331
10E3
  5
10E3
331
11D8
  5
11E9
331
10A4
  5
10A4
331
1217
  5
1297
331
10AC
  5
10AC
331
10EB
  5
10EB
331
10B4
  5
10B4
331
1001
  5
1001
331
1040
  5
1040
331
1009
  5
1009
331
1048
  5
1048
331
1050
  5
1050
331
1011
  5
1011
331
1058
  5
1058
331
1019
  5
1019
331
107D
  5
107D
331
10BC
  5
10BC
331
10F3
  5
10F3
331
10FB
  5
10FB
331
1085
  5
1085
331
10C4
  5
10C4
331
1103
  5
1103
331
108D
  5
108D
331
10CC
  5
10CC
331
10D4
  5
10D4
331
1095
  5
1095
331
1021
  5
1021
331
1060
  5
1060
331
1029
  5
1029
331
1068
  5
1068
331
1070
  5
1070
331
1031
  5
1031
331
1039
  5
1039
331
109D
  5
109D
331
10DC
  5
10DC
331
113B
  5
113C
331
10A5
  5
10A5
331
10E4
  5
10E4
331
10AD
  5
10AD
331
10EC
  5
10EC
331
11E9
  5
11EA
331
10B5
  5
10B5
331
15A9
  5
15A8
331
1041
  5
1041
331
1002
  5
1002
331
100A
  5
100A
331
1049
  5
1049
331
1012
  5
1012
331
1051
  5
1051
331
101A
  5
101A
331
1059
  5
1059
331
10BD
  5
10BD
331
10F4
  5
10F4
331
107E
  5
107E
331
10C5
  5
10C5
331
10FC
  5
10FC
331
1086
  5
1086
331
108E
  5
108E
331
10CD
  5
10CD
331
1104
  5
1104
331
1096
  5
1096
331
10D5
  5
10D5
331
1061
  5
1061
331
1022
  5
1022
331
1069
  5
1069
331
102A
  5
102A
331
1032
  5
1032
331
1071
  5
1071
331
103A
  5
103A
331
109E
  5
109E
331
10DD
  5
10DD
331
10E5
  5
10E5
331
113C
  5
11BF
331
10A6
  5
10A6
331
10AE
  5
10AE
331
10ED
  5
10ED
331
10B6
  5
10B6
331
11EA
  5
11FD
331
1003
  5
1003
331
1042
  5
1042
331
100B
  5
100B
331
104A
  5
104A
331
1052
  5
1052
331
1013
  5
1013
331
101B
  5
101B
331
105A
  5
105A
331
107F
  5
107F
331
10BE
  5
10BE
331
10F5
  5
10F5
331
10FD
  5
10FD
331
1087
  5
1087
331
10C6
  5
10C6
331
10CE
  5
10CE
331
1105
  5
1106
331
108F
  5
108F
331
10D6
  5
10D6
331
1097
  5
1097
331
1023
  5
1023
331
1062
  5
1062
331
102B
  5
102B
331
106A
  5
106A
331
1072
  5
1072
331
1033
  5
1033
331
103B
  5
103B
331
109F
  5
109F
331
10DE
  5
10DE
331
111D
  5
113B
331
10A7
  5
10A7
331
10E6
  5
10E6
331
10AF
  5
10AF
331
10EE
  5
10EE
331
10B7
  5
10B7
331
1043
  5
1043
331
1004
  5
1004
331
100C
  5
100C
331
104B
  5
104B
331
1014
  5
1014
331
1053
  5
1053
331
101C
  5
101C
331
105B
  5
105B
331
1078
  5
1078
331
10BF
  5
10BF
331
10F6
  5
10F6
331
1080
  5
1080
331
10C7
  5
10C7
331
10FE
  5
10FE
331
1088
  5
1088
331
1090
  5
1090
331
10CF
  5
10CF
331
1106
  5
1107
331
10D7
  5
10D7
331
1063
  5
1063
331
1024
  5
1024
331
102C
  5
102C
331
106B
  5
106B
331
1034
  5
1034
331
1073
  5
1073
331
103C
  5
103C
  0
LAYOUT
  5
1492
102
{ACAD_XDICTIONARY
360
15E1
102
}
102
{ACAD_REACTORS
330
148F
102
}
330
148F
100
AcDbPlotSettings
  1

  2
Xerox Document Centre CS50 PS
  4

  6

 40
0.0
 41
0.0
 42
0.0
 43
0.0
 44
0.0
 45
0.0
 46
0.0
 47
0.0
 48
0.0
 49
0.0
140
0.0
141
0.0
142
1.0
143
1.0
 70
   688
 72
     0
 73
     0
 74
     5
  7

 75
    16
147
1.0
148
0.0
149
0.0
100
AcDbLayout
  1
Layout1
 70
     1
 71
     1
 10
0.0
 20
0.0
 11
419.8999999999999
 21
296.9
 12
0.0
 22
0.0
 32
0.0
 14
0.0
 24
0.0
 34
0.0
 15
419.8999999999999
 25
296.9
 35
0.0
146
0.0
 13
0.0
 23
0.0
 33
0.0
 16
1.0
 26
0.0
 36
0.0
 17
0.0
 27
1.0
 37
0.0
 76
     0
330
12DA
  0
LAYOUT
  5
1491
102
{ACAD_XDICTIONARY
360
15DF
102
}
102
{ACAD_REACTORS
330
148F
102
}
330
148F
100
AcDbPlotSettings
  1

  2
Xerox Document Centre CS50 PS
  4

  6

 40
0.0
 41
0.0
 42
0.0
 43
0.0
 44
0.0
 45
0.0
 46
0.0
 47
0.0
 48
0.0
 49
0.0
140
0.0
141
0.0
142
1.0
143
1.0
 70
  1712
 72
     0
 73
     0
 74
     0
  7

 75
     0
147
1.0
148
0.0
149
0.0
100
AcDbLayout
  1
Model
 70
     1
 71
     0
 10
0.0
 20
0.0
 11
12.0
 21
9.0
 12
0.0
 22
0.0
 32
0.0
 14
0.0
 24
0.0
 34
0.0
 15
0.0
 25
0.0
 35
0.0
146
0.0
 13
0.0
 23
0.0
 33
0.0
 16
1.0
 26
0.0
 36
0.0
 17
0.0
 27
1.0
 37
0.0
 76
     0
330
12DD
  0
MLINESTYLE
  5
12E1
102
{ACAD_REACTORS
330
12E0
102
}
330
12E0
100
AcDbMlineStyle
  2
STANDARD
 70
     0
  3

 62
   256
 51
90.0
 52
90.0
 71
     2
 49
0.5
 62
   256
  6
BYLAYER
 49
-0.5
 62
   256
  6
BYLAYER
  0
ACDBPLACEHOLDER
  5
148A
102
{ACAD_REACTORS
330
1489
102
}
330
1489
  0
TABLESTYLE
  5
148E
102
{ACAD_REACTORS
330
148D
102
}
330
148D
100
AcDbTableStyle
  3
Standard
 70
     0
 71
     0
 40
1.5
 41
1.5
280
     0
281
     0
  7
STANDARD
140
4.5
170
     2
 62
     0
 63
     7
283
     0
274
    -2
284
     1
 64
     0
275
    -2
285
     1
 65
     0
276
    -2
286
     1
 66
     0
277
    -2
287
     1
 67
     0
278
    -2
288
     1
 68
     0
279
    -2
289
     1
 69
     0
  7
STANDARD
140
6.0
170
     5
 62
     0
 63
     7
283
     0
274
    -2
284
     1
 64
     0
275
    -2
285
     1
 65
     0
276
    -2
286
     1
 66
     0
277
    -2
287
     1
 67
     0
278
    -2
288
     1
 68
     0
279
    -2
289
     1
 69
     0
  7
STANDARD
140
4.5
170
     5
 62
     0
 63
     7
283
     0
274
    -2
284
     1
 64
     0
275
    -2
285
     1
 65
     0
276
    -2
286
     1
 66
     0
277
    -2
287
     1
 67
     0
278
    -2
288
     1
 68
     0
279
    -2
289
     1
 69
     0
  0
DICTIONARYVAR
  5
15AC
102
{ACAD_REACTORS
330
15AB
102
}
330
15AB
100
DictionaryVariables
280
     0
  1
STANDARD
  0
DICTIONARYVAR
  5
15DB
102
{ACAD_REACTORS
330
15AB
102
}
330
15AB
100
DictionaryVariables
280
     0
  1
1
  0
DICTIONARYVAR
  5
15DC
102
{ACAD_REACTORS
330
15AB
102
}
330
15AB
100
DictionaryVariables
280
     0
  1

  0
DICTIONARY
  5
14F9
102
{ACAD_REACTORS
330
14EE
102
}
330
14EE
100
AcDbDictionary
281
     1
  0
XRECORD
  5
151C
102
{ACAD_REACTORS
330
14EE
102
}
330
14EE
100
AcDbXrecord
280
     1
 90
-1023410169
  0
DICTIONARY
  5
15E1
330
1492
100
AcDbDictionary
280
     1
281
     1
  3
ACAD_XREC_ROUNDTRIP
360
15E2
  0
DICTIONARY
  5
15DF
330
1491
100
AcDbDictionary
280
     1
281
     1
  3
ACAD_XREC_ROUNDTRIP
360
15E0
  0
XRECORD
  5
15E2
102
{ACAD_REACTORS
330
15E1
102
}
330
15E1
100
AcDbXrecord
280
     1
102
SHADEPLOT
 70
     0
102
SHADEPLOTRESLEVEL
 70
     2
102
SHADEPLOTCUSTOMDPI
 70
   300
  0
XRECORD
  5
15E0
102
{ACAD_REACTORS
330
15DF
102
}
330
15DF
100
AcDbXrecord
280
     1
102
SHADEPLOT
 70
     0
102
SHADEPLOTRESLEVEL
 70
     2
102
SHADEPLOTCUSTOMDPI
 70
   300
  0
ENDSEC
  0
EOF
