  0
SECTION
  2
HEADER
  9
$ACADVER
  1
AC1015
  9
$ACADMAINTVER
 70
    20
  9
$DWGCODEPAGE
  3
ANSI_1252
  9
$INSBASE
 10
0.0
 20
0.0
 30
0.0
  9
$EXTMIN
 10
168.6767604535871
 20
203.6041286583104
 30
-0.0000000698494069
  9
$EXTMAX
 10
592.6918048908605
 20
577.5512714259689
 30
0.0000000465733773
  9
$LIMMIN
 10
0.0
 20
0.0
  9
$LIMMAX
 10
1050.0
 20
1050.0
  9
$ORTHOMODE
 70
     1
  9
$REGENMODE
 70
     1
  9
$FILLMODE
 70
     1
  9
$QTEXTMODE
 70
     0
  9
$MIRRTEXT
 70
     0
  9
$LTSCALE
 40
5.0
  9
$ATTMODE
 70
     1
  9
$TEXTSIZE
 40
10.0
  9
$TRACEWID
 40
0.05
  9
$TEXTSTYLE
  7
STANDARD
  9
$CLAYER
  8
0
  9
$CELTYPE
  6
BYLAYER
  9
$CECOLOR
 62
   256
  9
$CELTSCALE
 40
1.0
  9
$DISPSILH
 70
     0
  9
$DIMSCALE
 40
5.0
  9
$DIMASZ
 40
2.5
  9
$DIMEXO
 40
1.0
  9
$DIMDLI
 40
7.0
  9
$DIMRND
 40
0.0
  9
$DIMDLE
 40
0.0
  9
$DIMEXE
 40
1.0
  9
$DIMTP
 40
0.1
  9
$DIMTM
 40
0.1
  9
$DIMTXT
 40
3.5
  9
$DIMCEN
 40
0.0
  9
$DIMTSZ
 40
0.0
  9
$DIMTOL
 70
     0
  9
$DIMLIM
 70
     0
  9
$DIMTIH
 70
     0
  9
$DIMTOH
 70
     0
  9
$DIMSE1
 70
     0
  9
$DIMSE2
 70
     0
  9
$DIMTAD
 70
     1
  9
$DIMZIN
 70
    12
  9
$DIMBLK
  1

  9
$DIMASO
 70
     1
  9
$DIMSHO
 70
     1
  9
$DIMPOST
  1

  9
$DIMAPOST
  1
"
  9
$DIMALT
 70
     0
  9
$DIMALTD
 70
     2
  9
$DIMALTF
 40
0.03937
  9
$DIMLFAC
 40
1.0
  9
$DIMTOFL
 70
     1
  9
$DIMTVP
 40
0.0
  9
$DIMTIX
 70
     0
  9
$DIMSOXD
 70
     0
  9
$DIMSAH
 70
     0
  9
$DIMBLK1
  1

  9
$DIMBLK2
  1

  9
$DIMSTYLE
  2
GEN-ISO
  9
$DIMCLRD
 70
   256
  9
$DIMCLRE
 70
   256
  9
$DIMCLRT
 70
     2
  9
$DIMTFAC
 40
0.71
  9
$DIMGAP
 40
0.6
  9
$DIMJUST
 70
     0
  9
$DIMSD1
 70
     0
  9
$DIMSD2
 70
     0
  9
$DIMTOLJ
 70
     0
  9
$DIMTZIN
 70
     0
  9
$DIMALTZ
 70
     0
  9
$DIMALTTZ
 70
     0
  9
$DIMUPT
 70
     0
  9
$DIMDEC
 70
     2
  9
$DIMTDEC
 70
     3
  9
$DIMALTU
 70
     2
  9
$DIMALTTD
 70
     4
  9
$DIMTXSTY
  7
STANDARD
  9
$DIMAUNIT
 70
     0
  9
$DIMADEC
 70
     0
  9
$DIMALTRND
 40
0.0
  9
$DIMAZIN
 70
     0
  9
$DIMDSEP
 70
    46
  9
$DIMATFIT
 70
     3
  9
$DIMFRAC
 70
     0
  9
$DIMLDRBLK
  1

  9
$DIMLUNIT
 70
     2
  9
$DIMLWD
 70
    -2
  9
$DIMLWE
 70
    -2
  9
$DIMTMOVE
 70
     0
  9
$LUNITS
 70
     2
  9
$LUPREC
 70
     2
  9
$SKETCHINC
 40
0.1
  9
$FILLETRAD
 40
12.5
  9
$AUNITS
 70
     0
  9
$AUPREC
 70
     2
  9
$MENU
  1
.
  9
$ELEVATION
 40
0.0
  9
$PELEVATION
 40
0.0
  9
$THICKNESS
 40
0.0
  9
$LIMCHECK
 70
     0
  9
$CHAMFERA
 40
12.5
  9
$CHAMFERB
 40
12.5
  9
$CHAMFERC
 40
0.0
  9
$CHAMFERD
 40
0.0
  9
$SKPOLY
 70
     0
  9
$TDCREATE
 40
2451295.625095301
  9
$TDUCREATE
 40
2451295.541761968
  9
$TDUPDATE
 40
2454020.049530255
  9
$TDUUPDATE
 40
2454019.966196921
  9
$TDINDWG
 40
0.0051032870
  9
$TDUSRTIMER
 40
0.0051032870
  9
$USRTIMER
 70
     1
  9
$ANGBASE
 50
0.0
  9
$ANGDIR
 70
     0
  9
$PDMODE
 70
     0
  9
$PDSIZE
 40
0.0
  9
$PLINEWID
 40
0.0
  9
$SPLFRAME
 70
     0
  9
$SPLINETYPE
 70
     6
  9
$SPLINESEGS
 70
     8
  9
$HANDSEED
  5
1600
  9
$SURFTAB1
 70
     6
  9
$SURFTAB2
 70
     6
  9
$SURFTYPE
 70
     6
  9
$SURFU
 70
     6
  9
$SURFV
 70
     6
  9
$UCSBASE
  2

  9
$UCSNAME
  2

  9
$UCSORG
 10
0.0
 20
0.0
 30
0.0
  9
$UCSXDIR
 10
1.0
 20
0.0
 30
0.0
  9
$UCSYDIR
 10
0.0
 20
1.0
 30
0.0
  9
$UCSORTHOREF
  2

  9
$UCSORTHOVIEW
 70
     0
  9
$UCSORGTOP
 10
0.0
 20
0.0
 30
0.0
  9
$UCSORGBOTTOM
 10
0.0
 20
0.0
 30
0.0
  9
$UCSORGLEFT
 10
0.0
 20
0.0
 30
0.0
  9
$UCSORGRIGHT
 10
0.0
 20
0.0
 30
0.0
  9
$UCSORGFRONT
 10
0.0
 20
0.0
 30
0.0
  9
$UCSORGBACK
 10
0.0
 20
0.0
 30
0.0
  9
$PUCSBASE
  2

  9
$PUCSNAME
  2

  9
$PUCSORG
 10
0.0
 20
0.0
 30
0.0
  9
$PUCSXDIR
 10
1.0
 20
0.0
 30
0.0
  9
$PUCSYDIR
 10
0.0
 20
1.0
 30
0.0
  9
$PUCSORTHOREF
  2

  9
$PUCSORTHOVIEW
 70
     0
  9
$PUCSORGTOP
 10
0.0
 20
0.0
 30
0.0
  9
$PUCSORGBOTTOM
 10
0.0
 20
0.0
 30
0.0
  9
$PUCSORGLEFT
 10
0.0
 20
0.0
 30
0.0
  9
$PUCSORGRIGHT
 10
0.0
 20
0.0
 30
0.0
  9
$PUCSORGFRONT
 10
0.0
 20
0.0
 30
0.0
  9
$PUCSORGBACK
 10
0.0
 20
0.0
 30
0.0
  9
$USERI1
 70
     0
  9
$USERI2
 70
     0
  9
$USERI3
 70
     0
  9
$USERI4
 70
     0
  9
$USERI5
 70
     0
  9
$USERR1
 40
0.0
  9
$USERR2
 40
0.0
  9
$USERR3
 40
0.0
  9
$USERR4
 40
0.0
  9
$USERR5
 40
0.0
  9
$WORLDVIEW
 70
     1
  9
$SHADEDGE
 70
     3
  9
$SHADEDIF
 70
    70
  9
$TILEMODE
 70
     1
  9
$MAXACTVP
 70
    48
  9
$PINSBASE
 10
0.0
 20
0.0
 30
0.0
  9
$PLIMCHECK
 70
     0
  9
$PEXTMIN
 10
0.0
 20
0.0
 30
0.0
  9
$PEXTMAX
 10
419.8999999999999
 20
296.9
 30
0.0
  9
$PLIMMIN
 10
0.0
 20
0.0
  9
$PLIMMAX
 10
419.8999999999999
 20
296.9
  9
$UNITMODE
 70
     0
  9
$VISRETAIN
 70
     1
  9
$PLINEGEN
 70
     1
  9
$PSLTSCALE
 70
     1
  9
$TREEDEPTH
 70
 -3020
  9
$CMLSTYLE
  2
STANDARD
  9
$CMLJUST
 70
     0
  9
$CMLSCALE
 40
1.0
  9
$PROXYGRAPHICS
 70
     1
  9
$MEASUREMENT
 70
     1
  9
$CELWEIGHT
370
    -1
  9
$ENDCAPS
280
     0
  9
$JOINSTYLE
280
     0
  9
$LWDISPLAY
290
     0
  9
$INSUNITS
 70
     0
  9
$HYPERLINKBASE
  1

  9
$STYLESHEET
  1

  9
$XEDIT
290
     1
  9
$CEPSNTYPE
380
     0
  9
$PSTYLEMODE
290
     1
  9
$FINGERPRINTGUID
  2
{816ABDD7-15A0-4A0C-904A-9D07CDF52763}
  9
$VERSIONGUID
  2
{2F077291-A08D-48D9-821B-D31D73D4A1FA}
  9
$EXTNAMES
290
     1
  9
$PSVPSCALE
 40
0.0
  9
$OLESTARTUP
290
     0
  0
ENDSEC
  0
SECTION
  2
CLASSES
  0
CLASS
  1
ACDBDICTIONARYWDFLT
  2
AcDbDictionaryWithDefault
  3
ObjectDBX Classes
 90
        0
280
     0
281
     0
  0
CLASS
  1
TABLESTYLE
  2
AcDbTableStyle
  3
ObjectDBX Classes
 90
     2047
280
     0
281
     0
  0
CLASS
  1
AMGSETTINGSOBJ
  2
AmgSettingsObj
  3
"AcadM|Product Description: AutoCAD Mechanical 2000|Company: Autodesk"
 90
        0
280
     0
281
     0
  0
CLASS
  1
ACME_DOCUMENT
  2
AcMeDbDoc
  3
AcMeServices
 90
        0
280
     0
281
     0
  0
CLASS
  1
ACMESCOPE
  2
AcMeScope
  3
AcMeServices
 90
        0
280
     0
281
     0
  0
CLASS
  1
ACMECOMMANDHISTORY
  2
AcMeCommandHistory
  3
AcMeServices
 90
        0
280
     0
281
     0
  0
CLASS
  1
ACIMSYSVARMAN
  2
AcImSysVarManager
  3
AcMeServices
 90
        0
280
     0
281
     0
  0
CLASS
  1
ACIMINTSYSVAR
  2
AcImIntSysVar
  3
AcMeServices
 90
        0
280
     0
281
     0
  0
CLASS
  1
ACMEDRAWINGMAN
  2
AcMeDrawingMan
  3
AcMeServices
 90
        0
280
     0
281
     0
  0
CLASS
  1
ACMEVIEW
  2
AcMeView
  3
AcMeServices
 90
        0
280
     0
281
     0
  0
CLASS
  1
ACDBENTITYCACHE
  2
AcMeEntityCache
  3
AcMeServices
 90
        0
280
     0
281
     0
  0
CLASS
  1
GSMANAGER
  2
AcMeGSManager
  3
AcMeServices
 90
        0
280
     0
281
     0
  0
CLASS
  1
AMDTINTERNALREACTOR
  2
AmdtInternalReactor
  3
AcMeServices
 90
        0
280
     0
281
     0
  0
CLASS
  1
ACMESTATEMGR
  2
AcMeStateMgr
  3
AcMeServices
 90
        0
280
     0
281
     0
  0
CLASS
  1
ACGREFMASTER
  2
AcGrefMaster
  3
AcAttribServices
 90
        0
280
     0
281
     0
  0
CLASS
  1
AM_DRAWING_MGR
  2
AcDmDwgMgr
  3
AcMechDwgViewMgmt
 90
        0
280
     0
281
     0
  0
CLASS
  1
AM_DWG_DOCUMENT
  2
AcDmDwgDocument
  3
AcMechDwgViewMgmt
 90
        0
280
     0
281
     0
  0
CLASS
  1
AM_DWG_SHEET
  2
AcDmSheet
  3
AcMechDwgViewMgmt
 90
        0
280
     0
281
     0
  0
CLASS
  1
AM_VIEWDIMPARMAP
  2
AcDmViewDimParMap
  3
AcMechDwgViewMgmt
 90
        0
280
     0
281
     0
  0
CLASS
  1
ACIMREALSYSVAR
  2
AcImRealSysVar
  3
AcMeServices
 90
        0
280
     0
281
     0
  0
CLASS
  1
AM_DWGMGR_NAME
  2
AcDmDwgMgrName
  3
AcMechDwgViewMgmt
 90
        0
280
     0
281
     0
  0
CLASS
  1
ACME_DATABASE
  2
AcMeDbDatabase
  3
AcMeServices
 90
        0
280
     0
281
     0
  0
CLASS
  1
ACRFINSADJUSTERMGR
  2
AcRfInsAdjusterMgr
  3
AcMeServices
 90
        0
280
     0
281
     0
  0
CLASS
  1
ACGREFACADMASTER
  2
AcGrefacadMaster
  3
AcGrefServices
 90
        0
280
     0
281
     0
  0
CLASS
  1
AMDTMENUSTATEMGR
  2
AmdtMenuStateMgr
  3
McadcomServices
 90
        0
280
     0
281
     0
  0
CLASS
  1
AMDTMCOMMENUSTATE
  2
AmdtMcomMenuState
  3
McadcomServices
 90
        0
280
     0
281
     0
  0
CLASS
  1
AMIMASTER
  2
AmiMaster
  3
AmiServices
 90
        0
280
     0
281
     0
  0
CLASS
  1
MAPIAMMOUDLE
  2
MApiAmModule
  3
MApiAmServices
 90
        0
280
     0
281
     0
  0
CLASS
  1
ACIMSTRSYSVAR
  2
AcImStrSysVar
  3
AcMeServices
 90
        0
280
     0
281
     0
  0
CLASS
  1
AMDTADMENUSTATE
  2
AmdtAdMenuState
  3
DesignerServices
 90
        0
280
     0
281
     0
  0
CLASS
  1
ADAPPL
  2
AcAdAppl
  3
DesignerServices
 90
        0
280
     0
281
     0
  0
CLASS
  1
DEPMGR
  2
AcAdDepMgr
  3
DesignerServices
 90
        0
280
     0
281
     0
  0
CLASS
  1
PARAMMGR
  2
AcAdParamMgr
  3
DesignerServices
 90
        0
280
     0
281
     0
  0
CLASS
  1
PARAMSCOPE
  2
AcAdParamScope
  3
DesignerServices
 90
        0
280
     0
281
     0
  0
CLASS
  1
NAMEDAPPL
  2
AcAdNamedAppl
  3
DesignerServices
 90
        0
280
     0
281
     0
  0
CLASS
  1
AMDTDMMENUSTATE
  2
AmdtDmMenuState
  3
AcMechDwgViewMgmt
 90
        0
280
     0
281
     0
  0
CLASS
  1
AMDTAMMENUSTATE
  2
AmdtAmMenuState
  3
DesignerAssemblies
 90
        0
280
     0
281
     0
  0
CLASS
  1
ACAMPROJECT
  2
AcAmProject
  3
DesignerAssemblies
 90
        0
280
     0
281
     0
  0
CLASS
  1
ACAMGRCOMPDEF
  2
AcAmGrCompDef
  3
DesignerAssemblies
 90
        0
280
     0
281
     0
  0
CLASS
  1
ACCMCONTEXT
  2
AcCmContext
  3
DesignerAssemblies
 90
        0
280
     0
281
     0
  0
CLASS
  1
ACAMCOMPDEF
  2
AcAmCompDef
  3
DesignerAssemblies
 90
        0
280
     0
281
     0
  0
CLASS
  1
ACAMCOMPDEFMGR
  2
AcAmCompDefMgr
  3
DesignerAssemblies
 90
        0
280
     0
281
     0
  0
CLASS
  1
AMCONTEXTMGR
  2
AcAmContextMgr
  3
DesignerAssemblies
 90
        0
280
     0
281
     0
  0
CLASS
  1
ACAMCONTEXTMODELER
  2
AcAmContextModeler
  3
DesignerAssemblies
 90
        0
280
     0
281
     0
  0
CLASS
  1
ACMDATADICTIONARY
  2
AcmDataDictionary
  3
"AcmSymBB|Product Description: AutoCAD Mechanical 2004 DX|Company: Autodesk"
 90
        0
280
     0
281
     0
  0
CLASS
  1
CATALOGSTATE
  2
AcAmCatalogState
  3
DesignerAssemblies
 90
        0
280
     0
281
     0
  0
CLASS
  1
ACAMGRCOMPDEFSET
  2
AcAmGrCompDefSet
  3
DesignerAssemblies
 90
        0
280
     0
281
     0
  0
CLASS
  1
AMDTBROWSERDBTAB
  2
AmdtBrowserDbTab
  3
McadcomServices
 90
        0
280
     0
281
     0
  0
CLASS
  1
CBROWSERAPPOBJECT
  2
CBrowserAppObject
  3
McadcomServices
 90
        0
280
     0
281
     0
  0
CLASS
  1
DM_PLACEHOLDER
  2
AcDmSelsetPlaceholder
  3
AcMechDwgViewMgmt
 90
        0
280
     0
281
     0
  0
CLASS
  1
ACMSTANDARDDIN
  2
AcmStandardDIN
  3
"Amdt_StdImp|Product Description: AutoCAD Mechanical 2004 DX|Company: Autodesk"
 90
        0
280
     0
281
     0
  0
CLASS
  1
AMGOBJPROPCFG
  2
AmgObjPropCfg
  3
"AmgLay|Product Description: AutoCAD Mechanical 2000|Company: Autodesk"
 90
        1
280
     0
281
     0
  0
CLASS
  1
AMDTEDGESTANDARDDIN13715
  2
AmdtEdgeStdDIN13715
  3
"Amdt_StdImp|Product Description: AutoCAD Mechanical 2004 DX|Company: Autodesk"
 90
        0
280
     0
281
     0
  0
CLASS
  1
ACMSURFSTANDARDDIN
  2
AcmSurfTextStdDIN
  3
"Amdt_StdImp|Product Description: AutoCAD Mechanical 2004 DX|Company: Autodesk"
 90
        0
280
     0
281
     0
  0
CLASS
  1
ACMFCFSTANDARDDIN
  2
AcmFCFStdDIN
  3
"Amdt_StdImp|Product Description: AutoCAD Mechanical 2004 DX|Company: Autodesk"
 90
        0
280
     0
281
     0
  0
CLASS
  1
ACMWELDSTANDARDDIN
  2
AcmWeldingStdDIN
  3
"Amdt_StdImp|Product Description: AutoCAD Mechanical 2004 DX|Company: Autodesk"
 90
        0
280
     0
281
     0
  0
CLASS
  1
ACMIDSTANDARDDIN
  2
AcmIdStdDIN
  3
"Amdt_StdImp|Product Description: AutoCAD Mechanical 2004 DX|Company: Autodesk"
 90
        0
280
     0
281
     0
  0
CLASS
  1
ACMDATUMSTANDARDDIN
  2
AcmDatumStdDIN
  3
"Amdt_StdImp|Product Description: AutoCAD Mechanical 2004 DX|Company: Autodesk"
 90
        0
280
     0
281
     0
  0
CLASS
  1
ACMBOMSTANDARDDIN
  2
AcmBOMStdDIN
  3
"Amdt_StdImp|Product Description: AutoCAD Mechanical 2004 DX|Company: Autodesk"
 90
        0
280
     0
281
     0
  0
CLASS
  1
ACMDETAILSTANDARDDIN
  2
AmdtDetailSymStdDIN
  3
"Amdt_StdImp|Product Description: AutoCAD Mechanical 2004 DX|Company: Autodesk"
 90
        0
280
     0
281
     0
  0
CLASS
  1
ACMSECTIONSTANDARDDIN
  2
AmdtSectionSymStdDIN
  3
"Amdt_StdImp|Product Description: AutoCAD Mechanical 2004 DX|Company: Autodesk"
 90
        0
280
     0
281
     0
  0
CLASS
  1
ACMCENTERLINESTANDARDDIN
  2
AmdtCenterLineStdDIN
  3
"Amdt_StdImp|Product Description: AutoCAD Mechanical 2004 DX|Company: Autodesk"
 90
        0
280
     0
281
     0
  0
CLASS
  1
ACMTHREADLINESTANDARDDIN
  2
AmdtThreadLineStdDIN
  3
"Amdt_StdImp|Product Description: AutoCAD Mechanical 2004 DX|Company: Autodesk"
 90
        0
280
     0
281
     0
  0
CLASS
  1
ACMNOTESTANDARDDIN
  2
AmdtNoteStdDIN
  3
"Amdt_StdImp|Product Description: AutoCAD Mechanical 2004 DX|Company: Autodesk"
 90
        0
280
     0
281
     0
  0
CLASS
  1
AMDTNOTETEMPLATEDB
  2
AmdtNoteTemplateDB
  3
AMDT_STDIMP_MODULE_NAME
 90
        0
280
     0
281
     0
  0
CLASS
  1
ACAMGLAYSTD
  2
AcAmgLayStd
  3
"AcAmgLayStd|Product Description: AutoCAD Mechanical 2000|Company: Autodesk"
 90
        0
280
     0
281
     0
  0
CLASS
  1
ACAMGDIMSTD
  2
AcAmgDimStd
  3
"AcAmgDimStd|Product Description: AutoCAD Mechanical 2000|Company: Autodesk"
 90
        0
280
     0
281
     0
  0
CLASS
  1
ACAMGHOLECHARTSTDDIN
  2
AcAmgHoleChartStdDIN
  3
ACMSYMBB_MODULE_NAME
 90
        0
280
     0
281
     0
  0
CLASS
  1
ACAMGTITLESTD
  2
AcAmgTitleStd
  3
"TITLEAPP"
 90
        0
280
     0
281
     0
  0
CLASS
  1
ACAMGFILTERDAT
  2
AcAmgFilterDat
  3
"AcadM|Product Description: AutoCAD Mechanical 2000|Company: Autodesk"
 90
        0
280
     0
281
     0
  0
CLASS
  1
SORTENTSTABLE
  2
AcDbSortentsTable
  3
ObjectDBX Classes
 90
        0
280
     0
281
     0
  0
CLASS
  1
DICTIONARYVAR
  2
AcDbDictionaryVar
  3
ObjectDBX Classes
 90
        0
280
     0
281
     0
  0
CLASS
  1
ACDBPLACEHOLDER
  2
AcDbPlaceHolder
  3
ObjectDBX Classes
 90
        0
280
     0
281
     0
  0
CLASS
  1
LAYOUT
  2
AcDbLayout
  3
ObjectDBX Classes
 90
        0
280
     0
281
     0
  0
ENDSEC
  0
SECTION
  2
TABLES
  0
TABLE
  2
VPORT
  5
12CA
330
0
100
AcDbSymbolTable
 70
    43
  0
VPORT
  5
15FA
330
12CA
100
AcDbSymbolTableRecord
100
AcDbViewportTableRecord
  2
*Active
 70
     0
 10
0.0
 20
0.0
 11
1.0
 21
1.0
 12
380.6842826722239
 22
390.5777000421397
 13
0.0
 23
0.0
 14
5.0
 24
5.0
 15
50.0
 25
50.0
 16
0.0
 26
0.0
 36
1.0
 17
0.0
 27
0.0
 37
0.0
 40
376.6634658386101
 41
1.494545454545454
 42
50.0
 43
0.0
 44
0.0
 50
0.0
 51
0.0
 71
     0
 72
  1000
 73
     1
 74
     1
 75
     0
 76
     0
 77
     0
 78
     0
281
     0
 65
     0
110
0.0
120
0.0
130
0.0
111
1.0
121
0.0
131
0.0
112
0.0
122
1.0
132
0.0
 79
     0
146
0.0
  0
ENDTAB
  0
TABLE
  2
LTYPE
  5
12C7
330
0
100
AcDbSymbolTable
 70
    21
  0
LTYPE
  5
12D4
330
12C7
100
AcDbSymbolTableRecord
100
AcDbLinetypeTableRecord
  2
BYBLOCK
 70
     0
  3

 72
    65
 73
     0
 40
0.0
  0
LTYPE
  5
12D5
330
12C7
100
AcDbSymbolTableRecord
100
AcDbLinetypeTableRecord
  2
BYLAYER
 70
     0
  3

 72
    65
 73
     0
 40
0.0
  0
LTYPE
  5
12D6
330
12C7
100
AcDbSymbolTableRecord
100
AcDbLinetypeTableRecord
  2
CONTINUOUS
 70
     0
  3
Solid line
 72
    65
 73
     0
 40
0.0
  0
LTYPE
  5
12E5
330
12C7
100
AcDbSymbolTableRecord
100
AcDbLinetypeTableRecord
  2
GEN7
 70
     0
  3
____ _ ____ _ ____ _ ____ _ ____ _ ____ _ ____ _ ____ _ ____ _
 72
    65
 73
     4
 40
22.0
 49
10.75
 74
     0
 49
-3.75
 74
     0
 49
3.75
 74
     0
 49
-3.75
 74
     0
  0
LTYPE
  5
14FA
330
12C7
100
AcDbSymbolTableRecord
100
AcDbLinetypeTableRecord
  2
HIDDEN
 70
     0
  3
Verdeckt
 72
    65
 73
     2
 40
9.525
 49
6.349999999999999
 74
     0
 49
-3.174999999999999
 74
     0
  0
LTYPE
  5
14FB
330
12C7
100
AcDbSymbolTableRecord
100
AcDbLinetypeTableRecord
  2
PHANTOM2
 70
     0
  3
Phantom (.5x) ___ _ _ ___ _ _ ___ _ _ ___ _ _
 72
    65
 73
     6
 40
31.75
 49
15.875
 74
     0
 49
-3.174999999999999
 74
     0
 49
3.174999999999999
 74
     0
 49
-3.174999999999999
 74
     0
 49
3.174999999999999
 74
     0
 49
-3.174999999999999
 74
     0
  0
LTYPE
  5
14FC
330
12C7
100
AcDbSymbolTableRecord
100
AcDbLinetypeTableRecord
  2
CENTER
 70
     0
  3
Mitte ____ _ ____ _ ____ _ ____ _ ____ _ ____
 72
    65
 73
     4
 40
50.8
 49
31.75
 74
     0
 49
-6.349999999999999
 74
     0
 49
6.349999999999999
 74
     0
 49
-6.349999999999999
 74
     0
  0
LTYPE
  5
1533
330
12C7
100
AcDbSymbolTableRecord
100
AcDbLinetypeTableRecord
  2
Amconstr
 70
     0
  3
_______________________
 72
    65
 73
     2
 40
9999.0
 49
9999.0
 74
     0
 49
0.0
 74
     0
  0
LTYPE
  5
1538
330
12C7
100
AcDbSymbolTableRecord
100
AcDbLinetypeTableRecord
  2
Amzigzag
 70
     0
  3
/\/-/\/-/\/-/\/-/\/-/\/
 72
    65
 73
     2
 40
11.0001
 49
0.0001
 74
     4
 75
   136
340
1537
 46
0.04
 50
0.0
 44
0.0
 45
0.0
 49
-11.0
 74
     0
  0
LTYPE
  5
1539
330
12C7
100
AcDbSymbolTableRecord
100
AcDbLinetypeTableRecord
  2
AM_DIN_F_W050
 70
     0
  3
__ __ __ __ __ __ __ __ __ __ __ __ __ __ __
 72
    65
 73
     2
 40
6.25
 49
4.75
 74
     0
 49
-1.5
 74
     0
  0
LTYPE
  5
153A
330
12C7
100
AcDbSymbolTableRecord
100
AcDbLinetypeTableRecord
  2
AM_DIN_G_W050
 70
     0
  3
____ . ____ . ____ . ____ . ____ . ____ . ____
 72
    65
 73
     4
 40
13.75
 49
9.75
 74
     0
 49
-1.5
 74
     0
 49
1.0
 74
     0
 49
-1.5
 74
     0
  0
LTYPE
  5
153B
330
12C7
100
AcDbSymbolTableRecord
100
AcDbLinetypeTableRecord
  2
AM_DIN_K_W050
 70
     0
  3
_____ . . _____ . . _____ . . ____ .. ____
 72
    65
 73
     6
 40
16.25
 49
9.75
 74
     0
 49
-1.5
 74
     0
 49
1.0
 74
     0
 49
-1.5
 74
     0
 49
1.0
 74
     0
 49
-1.5
 74
     0
  0
LTYPE
  5
153C
330
12C7
100
AcDbSymbolTableRecord
100
AcDbLinetypeTableRecord
  2
AM_DIN_G_W050x2
 70
     0
  3
__ . __ . __ . __ . __ . __
 72
    65
 73
     4
 40
6.875
 49
4.75
 74
     0
 49
-0.875
 74
     0
 49
0.375
 74
     0
 49
-0.875
 74
     0
  0
LTYPE
  5
153D
330
12C7
100
AcDbSymbolTableRecord
100
AcDbLinetypeTableRecord
  2
AM_DIN_F_W050x2
 70
     0
  3
 _ _ _ _ _ _ _ _ _ _ _ _
 72
    65
 73
     2
 40
3.125
 49
2.25
 74
     0
 49
-0.875
 74
     0
  0
LTYPE
  5
154C
330
12C7
100
AcDbSymbolTableRecord
100
AcDbLinetypeTableRecord
  2
ACDINWELD
 70
     0
  3
_ _ _ _ _
 72
    65
 73
     2
 40
2.0
 49
2.0
 74
     0
 49
-1.0
 74
     0
  0
LTYPE
  5
154D
330
12C7
100
AcDbSymbolTableRecord
100
AcDbLinetypeTableRecord
  2
ACDINTGB
 70
     0
  3
__ . . __ . .
 72
    65
 73
     6
 40
9.0
 49
4.0
 74
     0
 49
-1.0
 74
     0
 49
1.0
 74
     0
 49
-1.0
 74
     0
 49
1.0
 74
     0
 49
-1.0
 74
     0
  0
LTYPE
  5
154E
330
12C7
100
AcDbSymbolTableRecord
100
AcDbLinetypeTableRecord
  2
ACDINTGL
 70
     0
  3
_ _ _ _ _
 72
    65
 73
     2
 40
3.0
 49
2.0
 74
     0
 49
-1.0
 74
     0
  0
ENDTAB
  0
TABLE
  2
LAYER
  5
12C4
102
{ACAD_XDICTIONARY
360
15AC
102
}
330
0
100
AcDbSymbolTable
 70
    14
  0
LAYER
  5
12D0
330
12C4
100
AcDbSymbolTableRecord
100
AcDbLayerTableRecord
  2
0
 70
     0
 62
     7
  6
CONTINUOUS
370
    -3
390
14BE
  0
LAYER
  5
12EB
330
12C4
100
AcDbSymbolTableRecord
100
AcDbLayerTableRecord
  2
4
 70
     0
 62
     3
  6
CONTINUOUS
370
    -3
390
14BE
  0
LAYER
  5
12ED
330
12C4
100
AcDbSymbolTableRecord
100
AcDbLayerTableRecord
  2
5
 70
     0
 62
     3
  6
CONTINUOUS
370
    -3
390
14BE
  0
LAYER
  5
12EF
330
12C4
100
AcDbSymbolTableRecord
100
AcDbLayerTableRecord
  2
7
 70
     0
 62
     4
  6
GEN7
370
    -3
390
14BE
  0
LAYER
  5
12F0
330
12C4
100
AcDbSymbolTableRecord
100
AcDbLayerTableRecord
  2
8
 70
     0
 62
     1
  6
CONTINUOUS
370
    -3
390
14BE
  0
LAYER
  5
12F1
330
12C4
100
AcDbSymbolTableRecord
100
AcDbLayerTableRecord
  2
PUNKTE
 70
     0
 62
     1
  6
CONTINUOUS
370
    -3
390
14BE
  0
LAYER
  5
12F2
330
12C4
100
AcDbSymbolTableRecord
100
AcDbLayerTableRecord
  2
SCHRAFFUR_RAND
 70
     0
 62
    36
  6
CONTINUOUS
370
    -3
390
14BE
  0
LAYER
  5
131F
330
12C4
100
AcDbSymbolTableRecord
100
AcDbLayerTableRecord
  2
DEFPOINTS
 70
     0
 62
     7
  6
CONTINUOUS
290
     0
370
    -3
390
14BE
  0
LAYER
  5
15B1
330
12C4
100
AcDbSymbolTableRecord
100
AcDbLayerTableRecord
  2
AM_8
 70
     0
 62
     1
  6
CONTINUOUS
370
    25
390
14BE
1001
AcAecLayerStandard
1000

1000

  0
ENDTAB
  0
TABLE
  2
STYLE
  5
12C5
330
0
100
AcDbSymbolTable
 70
     4
  0
STYLE
  5
12D1
330
12C5
100
AcDbSymbolTableRecord
100
AcDbTextStyleTableRecord
  2
STANDARD
 70
     0
 40
0.0
 41
1.0
 50
0.0
 71
     0
 42
10.0
  3
ISOCP.SHX
  4

  0
STYLE
  5
1537
330
12C5
100
AcDbSymbolTableRecord
100
AcDbTextStyleTableRecord
  2

 70
     1
 40
0.0
 41
1.0
 50
0.0
 71
     0
 42
0.2
  3
genltshp.shx
  4

  0
STYLE
  5
153E
330
12C5
100
AcDbSymbolTableRecord
100
AcDbTextStyleTableRecord
  2
ACDINTS
 70
     0
 40
1.0
 41
1.0
 50
0.0
 71
     0
 42
0.2
  3
isocp.shx
  4

  0
STYLE
  5
154B
330
12C5
100
AcDbSymbolTableRecord
100
AcDbTextStyleTableRecord
  2
ACDINGDT
 70
     0
 40
0.0
 41
1.0
 50
0.0
 71
     0
 42
0.2
  3
AMGDT
  4

  0
ENDTAB
  0
TABLE
  2
VIEW
  5
12C8
330
0
100
AcDbSymbolTable
 70
     6
  0
VIEW
  5
1363
330
12C8
100
AcDbSymbolTableRecord
100
AcDbViewTableRecord
  2
GEN1
 70
     0
 40
525.0
 10
403.491903
 20
787.5
 41
806.983806
 11
0.0
 21
0.0
 31
1.0
 12
0.0
 22
0.0
 32
0.0
 42
50.0
 43
0.0
 44
0.0
 50
0.0
 71
     0
281
     0
 72
     0
  0
VIEW
  5
1364
330
12C8
100
AcDbSymbolTableRecord
100
AcDbViewTableRecord
  2
GEN2
 70
     0
 40
525.0
 10
646.508097
 20
787.5
 41
806.983806
 11
0.0
 21
0.0
 31
1.0
 12
0.0
 22
0.0
 32
0.0
 42
50.0
 43
0.0
 44
0.0
 50
0.0
 71
     0
281
     0
 72
     0
  0
VIEW
  5
1365
330
12C8
100
AcDbSymbolTableRecord
100
AcDbViewTableRecord
  2
GEN3
 70
     0
 40
525.0
 10
403.491903
 20
262.5
 41
806.983806
 11
0.0
 21
0.0
 31
1.0
 12
0.0
 22
0.0
 32
0.0
 42
50.0
 43
0.0
 44
0.0
 50
0.0
 71
     0
281
     0
 72
     0
  0
VIEW
  5
1366
330
12C8
100
AcDbSymbolTableRecord
100
AcDbViewTableRecord
  2
GEN4
 70
     0
 40
525.0
 10
646.508097
 20
262.5
 41
806.983806
 11
0.0
 21
0.0
 31
1.0
 12
0.0
 22
0.0
 32
0.0
 42
50.0
 43
0.0
 44
0.0
 50
0.0
 71
     0
281
     0
 72
     0
  0
VIEW
  5
1367
330
12C8
100
AcDbSymbolTableRecord
100
AcDbViewTableRecord
  2
GEN5
 70
     0
 40
525.0
 10
525.0
 20
525.0
 41
806.983806
 11
0.0
 21
0.0
 31
1.0
 12
0.0
 22
0.0
 32
0.0
 42
50.0
 43
0.0
 44
0.0
 50
0.0
 71
     0
281
     0
 72
     0
  0
VIEW
  5
1368
330
12C8
100
AcDbSymbolTableRecord
100
AcDbViewTableRecord
  2
GEN6
 70
     0
 40
1049.9895
 10
525.0
 20
525.0
 41
1613.951472
 11
0.0
 21
0.0
 31
1.0
 12
0.0
 22
0.0
 32
0.0
 42
50.0
 43
0.0
 44
0.0
 50
0.0
 71
     0
281
     0
 72
     0
  0
ENDTAB
  0
TABLE
  2
UCS
  5
12C9
330
0
100
AcDbSymbolTable
 70
     0
  0
ENDTAB
  0
TABLE
  2
APPID
  5
12CB
330
0
100
AcDbSymbolTable
 70
    40
  0
APPID
  5
12D2
330
12CB
100
AcDbSymbolTableRecord
100
AcDbRegAppTableRecord
  2
ACAD
 70
     0
  0
APPID
  5
1331
330
12CB
100
AcDbSymbolTableRecord
100
AcDbRegAppTableRecord
  2
GENIUS_GENCFG_13
 70
     0
1001
GENIUS_DUMCFG0_13
1000
DUM
1001
GENIUS_GENCFG0_13
1000
GEN@INFO_POS@XLATE
1001
GENIUS_GENCFG1_13
1000
GEN@INFO_POS
1001
GENIUS_GENCFG2_13
1000
GEN@LAYER@DEFS
1001
GENIUS_GENCFG3_13
1000
GEN@LAYER@ENTSORT
1001
GENIUS_GENCFG4_13
1000
GEN
1001
GENIUS_GEVCFG0_13
1000
GEV
  0
APPID
  5
1332
330
12CB
100
AcDbSymbolTableRecord
100
AcDbRegAppTableRecord
  2
GENIUS_DUMCFG0_13
 70
     0
1001
GENIUS_GENCFG_13
1071
925131713
1000
1332
1000
DUM
1070
     0
  0
APPID
  5
1333
330
12CB
100
AcDbSymbolTableRecord
100
AcDbRegAppTableRecord
  2
GENIUS_GENCFG0_13
 70
     0
1001
GENIUS_GENCFG_13
1071
962108423
1000
1333
1000
GEN@INFO_POS@XLATE
1070
     8
1000
GenCfgObject
1000
GenCfgShort
1000
GenCfgReal
1000
GenCfgBool
1000
GenCfgString
1000
GenCfgDim
1000
GenCfgPoint
1000
GenCfgAttrInf
1000
INFOPOINTS
1070
     0
1002
{
1000
GENINF14
1070
     0
1002
{
1000
2GENINF
1070
     4
1000
2
1002
{
1002
}
1000
5GENINF
1070
     4
1000
5
1002
{
1002
}
1000
7GENINF
1070
     4
1000
7
1002
{
1002
}
1000
9GENINF
1070
     4
1000
9
1002
{
1002
}
1000
11GENINF
1070
     4
1000
11
1002
{
1002
}
1000
14GENINF
1070
     4
1000
14
1002
{
1002
}
1002
}
1000
GENINF13
1070
     0
1002
{
1000
2GENINF
1070
     4
1000
2
1002
{
1002
}
1000
3GENINF
1070
     4
1000
3
1002
{
1002
}
1000
4GENINF
1070
     4
1000
4
1002
{
1002
}
1000
5GENINF
1070
     4
1000
5
1002
{
1002
}
1000
6GENINF
1070
     4
1000
6
1002
{
1002
}
1000
7GENINF
1070
     4
1000
7
1002
{
1002
}
1000
8GENINF
1070
     4
1000
8
1002
{
1002
}
1000
9GENINF
1070
     4
1000
9
1002
{
1002
}
1000
10GENINF
1070
     4
1000
10
1002
{
1002
}
1000
11GENINF
1070
     4
1000
11
1002
{
1002
}
1000
12GENINF
1070
     4
1000
12
1002
{
1002
}
1000
13GENINF
1070
     4
1000
13
1002
{
1002
}
1000
14GENINF
1070
     4
1000
14
1002
{
1002
}
1000
15GENINF
1070
     4
1000
15
1002
{
1002
}
1000
16GENINF
1070
     4
1000
16
1002
{
1002
}
1000
17GENINF
1070
     4
1000
17
1002
{
1002
}
1000
18GENINF
1070
     4
1000
18
1002
{
1002
}
1000
19GENINF
1070
     4
1000
19
1002
{
1002
}
1000
20GENINF
1070
     4
1000
20
1002
{
1002
}
1000
21GENINF
1070
     4
1000
21
1002
{
1002
}
1000
22GENINF
1070
     4
1000
22
1002
{
1002
}
1000
23GENINF
1070
     4
1000
23
1002
{
1002
}
1000
24GENINF
1070
     4
1000
24
1002
{
1002
}
1000
0GENINF
1070
     4
1000
0
1002
{
1002
}
1002
}
1000
GENINFO
1070
     0
1002
{
1000
3GENINF
1070
     4
1000
3
1002
{
1002
}
1000
4GENINF
1070
     4
1000
4
1002
{
1002
}
1000
5GENINF
1070
     4
1000
5
1002
{
1002
}
1000
6GENINF
1070
     4
1000
6
1002
{
1002
}
1000
7GENINF
1070
     4
1000
7
1002
{
1002
}
1000
8GENINF
1070
     4
1000
8
1002
{
1002
}
1000
9GENINF
1070
     4
1000
9
1002
{
1002
}
1000
10GENINF
1070
     4
1000
10
1002
{
1002
}
1000
11GENINF
1070
     4
1000
11
1002
{
1002
}
1000
12GENINF
1070
     4
1000
12
1002
{
1002
}
1000
13GENINF
1070
     4
1000
13
1002
{
1002
}
1000
14GENINF
1070
     4
1000
14
1002
{
1002
}
1000
15GENINF
1070
     4
1000
15
1002
{
1002
}
1000
16GENINF
1070
     4
1000
16
1002
{
1002
}
1000
17GENINF
1070
     4
1000
17
1002
{
1002
}
1000
18GENINF
1070
     4
1000
18
1002
{
1002
}
1000
19GENINF
1070
     4
1000
19
1002
{
1002
}
1000
20GENINF
1070
     4
1000
20
1002
{
1002
}
1000
21GENINF
1070
     4
1000
21
1002
{
1002
}
1000
22GENINF
1070
     4
1000
22
1002
{
1002
}
1002
}
1000
DININFO
1070
     0
1002
{
1000
ST-NAME1
1070
     4
1000
5
1002
{
1002
}
1000
ST-NAME2
1070
     4
1000
6
1002
{
1002
}
1000
ST-NORM1
1070
     4
1000
7
1002
{
1002
}
1000
ST-NORM2
1070
     4
1000
8
1002
{
1002
}
1000
ST-MAT1
1070
     4
1000
9
1002
{
1002
}
1000
ST-MAT2
1070
     4
1000
10
1002
{
1002
}
1002
}
1002
}
1000
POS_NUMBERS
1070
     0
1002
{
1000
GENPOS14
1070
     0
1002
{
1000
1GENPOS
1070
     4
1000
1
1002
{
1002
}
1000
2GENPOS
1070
     4
1000
2
1002
{
1002
}
1000
5GENPOS
1070
     4
1000
5
1002
{
1002
}
1000
7GENPOS
1070
     4
1000
7
1002
{
1002
}
1000
9GENPOS
1070
     4
1000
9
1002
{
1002
}
1000
11GENPOS
1070
     4
1000
11
1002
{
1002
}
1000
14GENPOS
1070
     4
1000
14
1002
{
1002
}
1002
}
1000
GENPOS13
1070
     0
1002
{
1000
1GENPOS
1070
     4
1000
1
1002
{
1002
}
1000
2GENPOS
1070
     4
1000
2
1002
{
1002
}
1000
3GENPOS
1070
     4
1000
3
1002
{
1002
}
1000
4GENPOS
1070
     4
1000
4
1002
{
1002
}
1000
5GENPOS
1070
     4
1000
5
1002
{
1002
}
1000
6GENPOS
1070
     4
1000
6
1002
{
1002
}
1000
7GENPOS
1070
     4
1000
7
1002
{
1002
}
1000
8GENPOS
1070
     4
1000
8
1002
{
1002
}
1000
9GENPOS
1070
     4
1000
9
1002
{
1002
}
1000
10GENPOS
1070
     4
1000
10
1002
{
1002
}
1000
11GENPOS
1070
     4
1000
11
1002
{
1002
}
1000
12GENPOS
1070
     4
1000
12
1002
{
1002
}
1000
13GENPOS
1070
     4
1000
13
1002
{
1002
}
1000
14GENPOS
1070
     4
1000
14
1002
{
1002
}
1000
15GENPOS
1070
     4
1000
15
1002
{
1002
}
1000
16GENPOS
1070
     4
1000
16
1002
{
1002
}
1000
17GENPOS
1070
     4
1000
17
1002
{
1002
}
1000
18GENPOS
1070
     4
1000
18
1002
{
1002
}
1000
19GENPOS
1070
     4
1000
19
1002
{
1002
}
1000
20GENPOS
1070
     4
1000
20
1002
{
1002
}
1000
21GENPOS
1070
     4
1000
21
1002
{
1002
}
1000
22GENPOS
1070
     4
1000
22
1002
{
1002
}
1000
23GENPOS
1070
     4
1000
23
1002
{
1002
}
1000
24GENPOS
1070
     4
1000
24
1002
{
1002
}
1000
0GENPOS
1070
     4
1000
0
1002
{
1002
}
1002
}
1000
GENPOS
1070
     0
1002
{
1000
1GENPOS
1070
     4
1000
1
1002
{
1002
}
1000
2GENPOS
1070
     4
1000
2
1002
{
1002
}
1000
3GENPOS
1070
     4
1000
3
1002
{
1002
}
1000
4GENPOS
1070
     4
1000
4
1002
{
1002
}
1000
5GENPOS
1070
     4
1000
5
1002
{
1002
}
1000
6GENPOS
1070
     4
1000
6
1002
{
1002
}
1000
7GENPOS
1070
     4
1000
7
1002
{
1002
}
1000
8GENPOS
1070
     4
1000
8
1002
{
1002
}
1000
9GENPOS
1070
     4
1000
9
1002
{
1002
}
1000
10GENPOS
1070
     4
1000
10
1002
{
1002
}
1000
11GENPOS
1070
     4
1000
11
1002
{
1002
}
1000
12GENPOS
1070
     4
1000
12
1002
{
1002
}
1000
13GENPOS
1070
     4
1000
13
1002
{
1002
}
1000
14GENPOS
1070
     4
1000
14
1002
{
1002
}
1000
15GENPOS
1070
     4
1000
15
1002
{
1002
}
1000
16GENPOS
1070
     4
1000
16
1002
{
1002
}
1000
17GENPOS
1070
     4
1000
17
1002
{
1002
}
1000
18GENPOS
1070
     4
1000
18
1002
{
1002
}
1000
19GENPOS
1070
     4
1000
19
1002
{
1002
}
1000
20GENPOS
1070
     4
1000
20
1002
{
1002
}
1000
21GENPOS
1070
     4
1000
21
1002
{
1002
}
1000
22GENPOS
1070
     4
1000
22
1002
{
1002
}
1000
23GENPOS
1070
     4
1000
23
1002
{
1002
}
1002
}
1000
DIN985
1070
     0
1002
{
1000
POSITION
1070
     4
1000
1
1002
{
1002
}
1000
MENGE
1070
     4
1000
2
1002
{
1002
}
1000
BLATT
1070
     4
1000
3
1002
{
1002
}
1000
BENENN
1070
     4
1000
5
1002
{
1002
}
1000
BENENN2
1070
     4
1000
6
1002
{
1002
}
1000
NORM
1070
     4
1000
7
1002
{
1002
}
1000
NORM2
1070
     4
1000
8
1002
{
1002
}
1000
WERKSTOFF
1070
     4
1000
9
1002
{
1002
}
1000
WERKSTOFF2
1070
     4
1000
10
1002
{
1002
}
1002
}
1000
DIN986
1070
     0
1002
{
1000
POSITION
1070
     4
1000
1
1002
{
1002
}
1000
MENGE
1070
     4
1000
2
1002
{
1002
}
1000
BLATT
1070
     4
1000
3
1002
{
1002
}
1000
BENENN
1070
     4
1000
5
1002
{
1002
}
1000
BENENN2
1070
     4
1000
6
1002
{
1002
}
1000
NORM
1070
     4
1000
7
1002
{
1002
}
1000
NORM2
1070
     4
1000
8
1002
{
1002
}
1000
WERKSTOFF
1070
     4
1000
9
1002
{
1002
}
1000
WERKSTOFF2
1070
     4
1000
10
1002
{
1002
}
1002
}
1000
DIN987
1070
     0
1002
{
1000
POSITION
1070
     4
1000
1
1002
{
1002
}
1000
MENGE
1070
     4
1000
2
1002
{
1002
}
1000
BLATT
1070
     4
1000
3
1002
{
1002
}
1000
BENENN
1070
     4
1000
5
1002
{
1002
}
1000
BENENN2
1070
     4
1000
6
1002
{
1002
}
1000
NORM
1070
     4
1000
7
1002
{
1002
}
1000
NORM2
1070
     4
1000
8
1002
{
1002
}
1000
WERKSTOFF
1070
     4
1000
9
1002
{
1002
}
1000
WERKSTOFF2
1070
     4
1000
10
1002
{
1002
}
1002
}
1002
}
  0
APPID
  5
1334
330
12CB
100
AcDbSymbolTableRecord
100
AcDbRegAppTableRecord
  2
GENIUS_GENCFG1_13
 70
     0
1001
GENIUS_GENCFG_13
1071
962108423
1000
1334
1000
GEN@INFO_POS
1070
     8
1000
GenCfgObject
1000
GenCfgShort
1000
GenCfgReal
1000
GenCfgBool
1000
GenCfgString
1000
GenCfgDim
1000
GenCfgPoint
1000
GenCfgAttrInf
1000
DescrText
1070
     4
1000
5, ,6, ,7, ,8
1002
{
1002
}
1000
DescrText2
1070
     4
1000
26
1002
{
1002
}
1000
VisibleAttr1
1070
     4
1000
1
1002
{
1002
}
1000
VisibleAttr2
1070
     4
1000
26
1002
{
1002
}
1000
UpdateBlock
1070
     3
1070
     1
1002
{
1002
}
1000
Attrib
1070
     0
1002
{
1000
0
1070
     7
1002
{
1000
Prompt
1070
     4
1000
(genmsg gendwg 103)
1002
{
1002
}
1000
Value
1070
     4
1000

1002
{
1002
}
1000
EditFlag
1070
     1
1070
     0
1002
{
1002
}
1000
PosInDDATTE
1070
     1
1070
    27
1002
{
1002
}
1000
FieldLen
1070
     1
1070
    -1
1002
{
1002
}
1002
}
1000
1
1070
     7
1002
{
1000
Prompt
1070
     4
1000
(genmsg gendwg 31)
1002
{
1002
}
1000
Value
1070
     4
1000
1
1002
{
1002
}
1000
EditFlag
1070
     1
1070
     1
1002
{
1002
}
1000
PosInDDATTE
1070
     1
1070
     1
1002
{
1002
}
1000
FieldLen
1070
     1
1070
    -1
1002
{
1002
}
1002
}
1000
2
1070
     7
1002
{
1000
Prompt
1070
     4
1000
(genmsg gendwg 32)
1002
{
1002
}
1000
Value
1070
     4
1000
1
1002
{
1002
}
1000
EditFlag
1070
     1
1070
     1
1002
{
1002
}
1000
PosInDDATTE
1070
     1
1070
     2
1002
{
1002
}
1000
FieldLen
1070
     1
1070
    -1
1002
{
1002
}
1002
}
1000
3
1070
     7
1002
{
1000
Prompt
1070
     4
1000
(genmsg gendwg 33)
1002
{
1002
}
1000
Value
1070
     4
1000

1002
{
1002
}
1000
EditFlag
1070
     1
1070
     1
1002
{
1002
}
1000
PosInDDATTE
1070
     1
1070
     3
1002
{
1002
}
1000
FieldLen
1070
     1
1070
    -1
1002
{
1002
}
1002
}
1000
4
1070
     7
1002
{
1000
Prompt
1070
     4
1000
(genmsg gendwg 34)
1002
{
1002
}
1000
Value
1070
     4
1000

1002
{
1002
}
1000
EditFlag
1070
     1
1070
     1
1002
{
1002
}
1000
PosInDDATTE
1070
     1
1070
     4
1002
{
1002
}
1000
FieldLen
1070
     1
1070
    -1
1002
{
1002
}
1002
}
1000
5
1070
     7
1002
{
1000
Prompt
1070
     4
1000
(genmsg gendwg 35)
1002
{
1002
}
1000
Value
1070
     4
1000

1002
{
1002
}
1000
EditFlag
1070
     1
1070
     1
1002
{
1002
}
1000
PosInDDATTE
1070
     1
1070
     5
1002
{
1002
}
1000
FieldLen
1070
     1
1070
    -1
1002
{
1002
}
1002
}
1000
6
1070
     7
1002
{
1000
Prompt
1070
     4
1000
(genmsg gendwg 36)
1002
{
1002
}
1000
Value
1070
     4
1000

1002
{
1002
}
1000
EditFlag
1070
     1
1070
     1
1002
{
1002
}
1000
PosInDDATTE
1070
     1
1070
     6
1002
{
1002
}
1000
FieldLen
1070
     1
1070
    -1
1002
{
1002
}
1002
}
1000
7
1070
     7
1002
{
1000
Prompt
1070
     4
1000
(genmsg gendwg 37)
1002
{
1002
}
1000
Value
1070
     4
1000

1002
{
1002
}
1000
EditFlag
1070
     1
1070
     1
1002
{
1002
}
1000
PosInDDATTE
1070
     1
1070
     7
1002
{
1002
}
1000
FieldLen
1070
     1
1070
    -1
1002
{
1002
}
1002
}
1000
8
1070
     7
1002
{
1000
Prompt
1070
     4
1000
(genmsg gendwg 38)
1002
{
1002
}
1000
Value
1070
     4
1000

1002
{
1002
}
1000
EditFlag
1070
     1
1070
     1
1002
{
1002
}
1000
PosInDDATTE
1070
     1
1070
     8
1002
{
1002
}
1000
FieldLen
1070
     1
1070
    -1
1002
{
1002
}
1002
}
1000
9
1070
     7
1002
{
1000
Prompt
1070
     4
1000
(genmsg gendwg 39)
1002
{
1002
}
1000
Value
1070
     4
1000

1002
{
1002
}
1000
EditFlag
1070
     1
1070
     1
1002
{
1002
}
1000
PosInDDATTE
1070
     1
1070
     9
1002
{
1002
}
1000
FieldLen
1070
     1
1070
    -1
1002
{
1002
}
1002
}
1000
10
1070
     7
1002
{
1000
Prompt
1070
     4
1000
(genmsg gendwg 40)
1002
{
1002
}
1000
Value
1070
     4
1000

1002
{
1002
}
1000
EditFlag
1070
     1
1070
     1
1002
{
1002
}
1000
PosInDDATTE
1070
     1
1070
    10
1002
{
1002
}
1000
FieldLen
1070
     1
1070
    -1
1002
{
1002
}
1002
}
1000
11
1070
     7
1002
{
1000
Prompt
1070
     4
1000
(genmsg gendwg 41)
1002
{
1002
}
1000
Value
1070
     4
1000

1002
{
1002
}
1000
EditFlag
1070
     1
1070
     1
1002
{
1002
}
1000
PosInDDATTE
1070
     1
1070
    11
1002
{
1002
}
1000
FieldLen
1070
     1
1070
    -1
1002
{
1002
}
1002
}
1000
12
1070
     7
1002
{
1000
Prompt
1070
     4
1000
(genmsg gendwg 42)
1002
{
1002
}
1000
Value
1070
     4
1000

1002
{
1002
}
1000
EditFlag
1070
     1
1070
     1
1002
{
1002
}
1000
PosInDDATTE
1070
     1
1070
    12
1002
{
1002
}
1000
FieldLen
1070
     1
1070
    -1
1002
{
1002
}
1002
}
1000
13
1070
     7
1002
{
1000
Prompt
1070
     4
1000
(genmsg gendwg 43)
1002
{
1002
}
1000
Value
1070
     4
1000

1002
{
1002
}
1000
EditFlag
1070
     1
1070
     1
1002
{
1002
}
1000
PosInDDATTE
1070
     1
1070
    13
1002
{
1002
}
1000
FieldLen
1070
     1
1070
    -1
1002
{
1002
}
1002
}
1000
14
1070
     7
1002
{
1000
Prompt
1070
     4
1000
(genmsg gendwg 44)
1002
{
1002
}
1000
Value
1070
     4
1000

1002
{
1002
}
1000
EditFlag
1070
     1
1070
     1
1002
{
1002
}
1000
PosInDDATTE
1070
     1
1070
    14
1002
{
1002
}
1000
FieldLen
1070
     1
1070
    -1
1002
{
1002
}
1002
}
1000
15
1070
     7
1002
{
1000
Prompt
1070
     4
1000
(genmsg gendwg 45)
1002
{
1002
}
1000
Value
1070
     4
1000

1002
{
1002
}
1000
EditFlag
1070
     1
1070
     1
1002
{
1002
}
1000
PosInDDATTE
1070
     1
1070
    15
1002
{
1002
}
1000
FieldLen
1070
     1
1070
    -1
1002
{
1002
}
1002
}
1000
16
1070
     7
1002
{
1000
Prompt
1070
     4
1000
(genmsg gendwg 46)
1002
{
1002
}
1000
Value
1070
     4
1000

1002
{
1002
}
1000
EditFlag
1070
     1
1070
     1
1002
{
1002
}
1000
PosInDDATTE
1070
     1
1070
    16
1002
{
1002
}
1000
FieldLen
1070
     1
1070
    -1
1002
{
1002
}
1002
}
1000
17
1070
     7
1002
{
1000
Prompt
1070
     4
1000
(genmsg gendwg 47)
1002
{
1002
}
1000
Value
1070
     4
1000

1002
{
1002
}
1000
EditFlag
1070
     1
1070
     1
1002
{
1002
}
1000
PosInDDATTE
1070
     1
1070
    17
1002
{
1002
}
1000
FieldLen
1070
     1
1070
    -1
1002
{
1002
}
1002
}
1000
18
1070
     7
1002
{
1000
Prompt
1070
     4
1000
(genmsg gendwg 48)
1002
{
1002
}
1000
Value
1070
     4
1000

1002
{
1002
}
1000
EditFlag
1070
     1
1070
     1
1002
{
1002
}
1000
PosInDDATTE
1070
     1
1070
    18
1002
{
1002
}
1000
FieldLen
1070
     1
1070
    -1
1002
{
1002
}
1002
}
1000
19
1070
     7
1002
{
1000
Prompt
1070
     4
1000
(genmsg gendwg 99)
1002
{
1002
}
1000
Value
1070
     4
1000

1002
{
1002
}
1000
EditFlag
1070
     1
1070
     1
1002
{
1002
}
1000
PosInDDATTE
1070
     1
1070
    19
1002
{
1002
}
1000
FieldLen
1070
     1
1070
    -1
1002
{
1002
}
1002
}
1000
20
1070
     7
1002
{
1000
Prompt
1070
     4
1000
(genmsg gendwg 100)
1002
{
1002
}
1000
Value
1070
     4
1000

1002
{
1002
}
1000
EditFlag
1070
     1
1070
     1
1002
{
1002
}
1000
PosInDDATTE
1070
     1
1070
    20
1002
{
1002
}
1000
FieldLen
1070
     1
1070
    -1
1002
{
1002
}
1002
}
1000
21
1070
     7
1002
{
1000
Prompt
1070
     4
1000
(genmsg gendwg 101)
1002
{
1002
}
1000
Value
1070
     4
1000

1002
{
1002
}
1000
EditFlag
1070
     1
1070
     1
1002
{
1002
}
1000
PosInDDATTE
1070
     1
1070
    21
1002
{
1002
}
1000
FieldLen
1070
     1
1070
    -1
1002
{
1002
}
1002
}
1000
22
1070
     7
1002
{
1000
Prompt
1070
     4
1000
(genmsg gendwg 102)
1002
{
1002
}
1000
Value
1070
     4
1000

1002
{
1002
}
1000
EditFlag
1070
     1
1070
     1
1002
{
1002
}
1000
PosInDDATTE
1070
     1
1070
    22
1002
{
1002
}
1000
FieldLen
1070
     1
1070
    -1
1002
{
1002
}
1002
}
1000
23
1070
     7
1002
{
1000
Prompt
1070
     4
1000
(genmsg gendwg 30)
1002
{
1002
}
1000
Value
1070
     4
1000

1002
{
1002
}
1000
EditFlag
1070
     1
1070
     1
1002
{
1002
}
1000
PosInDDATTE
1070
     1
1070
    23
1002
{
1002
}
1000
FieldLen
1070
     1
1070
    -1
1002
{
1002
}
1002
}
1000
24
1070
     7
1002
{
1000
Prompt
1070
     4
1000
(genmsg gendwg 104)
1002
{
1002
}
1000
Value
1070
     4
1000

1002
{
1002
}
1000
EditFlag
1070
     1
1070
     1
1002
{
1002
}
1000
PosInDDATTE
1070
     1
1070
    24
1002
{
1002
}
1000
FieldLen
1070
     1
1070
    -1
1002
{
1002
}
1002
}
1000
25
1070
     7
1002
{
1000
Prompt
1070
     4
1000
(genmsg gendwg 105)
1002
{
1002
}
1000
Value
1070
     4
1000

1002
{
1002
}
1000
EditFlag
1070
     1
1070
     1
1002
{
1002
}
1000
PosInDDATTE
1070
     1
1070
    25
1002
{
1002
}
1000
FieldLen
1070
     1
1070
    -1
1002
{
1002
}
1002
}
1000
26
1070
     7
1002
{
1000
Prompt
1070
     4
1000
(genmsg gendwg 106)
1002
{
1002
}
1000
Value
1070
     4
1000

1002
{
1002
}
1000
EditFlag
1070
     1
1070
     1
1002
{
1002
}
1000
PosInDDATTE
1070
     1
1070
    26
1002
{
1002
}
1000
FieldLen
1070
     1
1070
    -1
1002
{
1002
}
1002
}
1000
27
1070
     7
1002
{
1000
Prompt
1070
     4
1000
(genmsg gendwg 109)
1002
{
1002
}
1000
Value
1070
     4
1000

1002
{
1002
}
1000
EditFlag
1070
     1
1070
     2
1002
{
1002
}
1000
PosInDDATTE
1070
     1
1070
    27
1002
{
1002
}
1000
FieldLen
1070
     1
1070
    -1
1002
{
1002
}
1002
}
1002
}
1000
Xlate
1070
     0
1002
{
1000
>
1002
}
  0
APPID
  5
1335
330
12CB
100
AcDbSymbolTableRecord
100
AcDbRegAppTableRecord
  2
GENIUS_GENCFG2_13
 70
     0
1001
GENIUS_GENCFG_13
1071
962108423
1000
1335
1000
GEN@LAYER@DEFS
1070
    10
1000
GenCfgObject
1000
GenCfgShort
1000
GenCfgReal
1000
GenCfgBool
1000
GenCfgString
1000
GenCfgDim
1000
GenCfgPoint
1000
GenCfgAttrInf
1000
GenCfgLaySection
1000
GenCfgLayer
1000
Basic
1070
     0
1002
{
1000
0
1070
     9
1000
0
1002
{
1000
Color
1070
     1
1070
     7
1002
{
1002
}
1000
LType
1070
     4
1000
CONTINUOUS
1002
{
1002
}
1000
Base
1070
     3
1070
     0
1002
{
1002
}
1002
}
1000
1
1070
     9
1000
1
1002
{
1000
Color
1070
     1
1070
    14
1002
{
1002
}
1000
LType
1070
     4
1000
CONTINUOUS
1002
{
1002
}
1000
Base
1070
     3
1070
     0
1002
{
1002
}
1002
}
1000
2
1070
     9
1000
2
1002
{
1000
Color
1070
     1
1070
     5
1002
{
1002
}
1000
LType
1070
     4
1000
CONTINUOUS
1002
{
1002
}
1000
Base
1070
     3
1070
     0
1002
{
1002
}
1002
}
1000
3
1070
     9
1000
3
1002
{
1000
Color
1070
     1
1070
     6
1002
{
1002
}
1000
LType
1070
     4
1000
GEN3
1002
{
1002
}
1000
Base
1070
     3
1070
     0
1002
{
1002
}
1002
}
1000
4
1070
     9
1000
4
1002
{
1000
Color
1070
     1
1070
     3
1002
{
1002
}
1000
LType
1070
     4
1000
CONTINUOUS
1002
{
1002
}
1000
Base
1070
     3
1070
     0
1002
{
1002
}
1002
}
1000
5
1070
     9
1000
5
1002
{
1000
Color
1070
     1
1070
     3
1002
{
1002
}
1000
LType
1070
     4
1000
CONTINUOUS
1002
{
1002
}
1000
Base
1070
     3
1070
     0
1002
{
1002
}
1002
}
1000
6
1070
     9
1000
6
1002
{
1000
Color
1070
     1
1070
     2
1002
{
1002
}
1000
LType
1070
     4
1000
CONTINUOUS
1002
{
1002
}
1000
Base
1070
     3
1070
     0
1002
{
1002
}
1002
}
1000
7
1070
     9
1000
7
1002
{
1000
Color
1070
     1
1070
     4
1002
{
1002
}
1000
LType
1070
     4
1000
GEN7
1002
{
1002
}
1000
Base
1070
     3
1070
     0
1002
{
1002
}
1002
}
1000
8
1070
     9
1000
8
1002
{
1000
Color
1070
     1
1070
     1
1002
{
1002
}
1000
LType
1070
     4
1000
CONTINUOUS
1002
{
1002
}
1000
Base
1070
     3
1070
     0
1002
{
1002
}
1002
}
1000
3A
1070
     9
1000
3A
1002
{
1000
Color
1070
     1
1070
     6
1002
{
1002
}
1000
LType
1070
     4
1000
GEN3A
1002
{
1002
}
1000
Base
1070
     3
1070
     0
1002
{
1002
}
1002
}
1000
7A
1070
     9
1000
7A
1002
{
1000
Color
1070
     1
1070
     4
1002
{
1002
}
1000
LType
1070
     4
1000
GEN7A
1002
{
1002
}
1000
Base
1070
     3
1070
     0
1002
{
1002
}
1002
}
1000
2A
1070
     9
1000
2A
1002
{
1000
Color
1070
     1
1070
     7
1002
{
1002
}
1000
LType
1070
     4
1000
GEN7
1002
{
1002
}
1000
Base
1070
     3
1070
     0
1002
{
1002
}
1002
}
1000
4A
1070
     9
1000
4A
1002
{
1000
Color
1070
     1
1070
     3
1002
{
1002
}
1000
LType
1070
     4
1000
GEN4A
1002
{
1002
}
1000
Base
1070
     3
1070
     0
1002
{
1002
}
1002
}
1000
9
1070
     9
1000
9
1002
{
1000
Color
1070
     1
1070
   253
1002
{
1002
}
1000
LType
1070
     4
1000
CONTINUOUS
1002
{
1002
}
1000
Base
1070
     3
1070
     0
1002
{
1002
}
1002
}
1000
IP
1070
     9
1000
IP
1002
{
1000
Color
1070
     1
1070
     7
1002
{
1002
}
1000
LType
1070
     4
1000
CONTINUOUS
1002
{
1002
}
1000
Base
1070
     3
1070
     0
1002
{
1002
}
1002
}
1002
}
1000
Standard
1070
     0
1002
{
1000
0N
1070
     9
1000
0N
1002
{
1000
Color
1070
     1
1070
     7
1002
{
1002
}
1000
LType
1070
     4
1000
CONTINUOUS
1002
{
1002
}
1000
Base
1070
     3
1070
     0
1002
{
1002
}
1002
}
1000
1N
1070
     9
1000
1N
1002
{
1000
Color
1070
     1
1070
    14
1002
{
1002
}
1000
LType
1070
     4
1000
CONTINUOUS
1002
{
1002
}
1000
Base
1070
     3
1070
     0
1002
{
1002
}
1002
}
1000
2N
1070
     9
1000
2N
1002
{
1000
Color
1070
     1
1070
     5
1002
{
1002
}
1000
LType
1070
     4
1000
CONTINUOUS
1002
{
1002
}
1000
Base
1070
     3
1070
     0
1002
{
1002
}
1002
}
1000
3N
1070
     9
1000
3N
1002
{
1000
Color
1070
     1
1070
     6
1002
{
1002
}
1000
LType
1070
     4
1000
GEN3
1002
{
1002
}
1000
Base
1070
     3
1070
     0
1002
{
1002
}
1002
}
1000
4N
1070
     9
1000
4N
1002
{
1000
Color
1070
     1
1070
     3
1002
{
1002
}
1000
LType
1070
     4
1000
CONTINUOUS
1002
{
1002
}
1000
Base
1070
     3
1070
     0
1002
{
1002
}
1002
}
1000
5N
1070
     9
1000
5N
1002
{
1000
Color
1070
     1
1070
     3
1002
{
1002
}
1000
LType
1070
     4
1000
CONTINUOUS
1002
{
1002
}
1000
Base
1070
     3
1070
     0
1002
{
1002
}
1002
}
1000
6N
1070
     9
1000
6N
1002
{
1000
Color
1070
     1
1070
     2
1002
{
1002
}
1000
LType
1070
     4
1000
CONTINUOUS
1002
{
1002
}
1000
Base
1070
     3
1070
     0
1002
{
1002
}
1002
}
1000
7N
1070
     9
1000
7N
1002
{
1000
Color
1070
     1
1070
     4
1002
{
1002
}
1000
LType
1070
     4
1000
GEN7
1002
{
1002
}
1000
Base
1070
     3
1070
     0
1002
{
1002
}
1002
}
1000
8N
1070
     9
1000
8N
1002
{
1000
Color
1070
     1
1070
     1
1002
{
1002
}
1000
LType
1070
     4
1000
CONTINUOUS
1002
{
1002
}
1000
Base
1070
     3
1070
     0
1002
{
1002
}
1002
}
1000
3AN
1070
     9
1000
3AN
1002
{
1000
Color
1070
     1
1070
     6
1002
{
1002
}
1000
LType
1070
     4
1000
GEN3A
1002
{
1002
}
1000
Base
1070
     3
1070
     0
1002
{
1002
}
1002
}
1000
7AN
1070
     9
1000
7AN
1002
{
1000
Color
1070
     1
1070
     4
1002
{
1002
}
1000
LType
1070
     4
1000
GEN7A
1002
{
1002
}
1000
Base
1070
     3
1070
     0
1002
{
1002
}
1002
}
1000
2AN
1070
     9
1000
2AN
1002
{
1000
Color
1070
     1
1070
     7
1002
{
1002
}
1000
LType
1070
     4
1000
GEN7
1002
{
1002
}
1000
Base
1070
     3
1070
     0
1002
{
1002
}
1002
}
1000
4AN
1070
     9
1000
4AN
1002
{
1000
Color
1070
     1
1070
     3
1002
{
1002
}
1000
LType
1070
     4
1000
GEN4A
1002
{
1002
}
1000
Base
1070
     3
1070
     0
1002
{
1002
}
1002
}
1000
9N
1070
     9
1000
9N
1002
{
1000
Color
1070
     1
1070
   253
1002
{
1002
}
1000
LType
1070
     4
1000
CONTINUOUS
1002
{
1002
}
1000
Base
1070
     3
1070
     0
1002
{
1002
}
1002
}
1000
IPN
1070
     9
1000
IPN
1002
{
1000
Color
1070
     1
1070
     7
1002
{
1002
}
1000
LType
1070
     4
1000
CONTINUOUS
1002
{
1002
}
1000
Base
1070
     3
1070
     0
1002
{
1002
}
1002
}
1002
}
1000
Extra
1070
     0
1002
{
1000
Klin
1070
     9
1000
KLIN
1002
{
1000
Color
1070
     1
1070
     1
1002
{
1002
}
1000
LType
1070
     4
1000
CONTINUOUS
1002
{
1002
}
1000
Base
1070
     3
1070
     1
1002
{
1002
}
1002
}
1000
Info
1070
     9
1000
INFO
1002
{
1000
Color
1070
     1
1070
     4
1002
{
1002
}
1000
LType
1070
     4
1000
CONTINUOUS
1002
{
1002
}
1000
Base
1070
     3
1070
     1
1002
{
1002
}
1002
}
1000
Rahm2
1070
     9
1000
RAHM2
1002
{
1000
Color
1070
     1
1070
     1
1002
{
1002
}
1000
LType
1070
     4
1000
CONTINUOUS
1002
{
1002
}
1000
Base
1070
     3
1070
     1
1002
{
1002
}
1002
}
1000
Rahm3
1070
     9
1000
RAHM3
1002
{
1000
Color
1070
     1
1070
     2
1002
{
1002
}
1000
LType
1070
     4
1000
CONTINUOUS
1002
{
1002
}
1000
Base
1070
     3
1070
     1
1002
{
1002
}
1002
}
1000
Rahm5
1070
     9
1000
RAHM5
1002
{
1000
Color
1070
     1
1070
     7
1002
{
1002
}
1000
LType
1070
     4
1000
CONTINUOUS
1002
{
1002
}
1000
Base
1070
     3
1070
     1
1002
{
1002
}
1002
}
1000
View
1070
     9
1000
VIEW
1002
{
1000
Color
1070
     1
1070
     1
1002
{
1002
}
1000
LType
1070
     4
1000
CONTINUOUS
1002
{
1002
}
1000
Base
1070
     3
1070
     1
1002
{
1002
}
1002
}
1000
Behind
1070
     9
1000
BEHIND
1002
{
1000
Color
1070
     1
1070
   253
1002
{
1002
}
1000
LType
1070
     4
1000
CONTINUOUS
1002
{
1002
}
1000
Base
1070
     3
1070
     1
1002
{
1002
}
1002
}
1002
}
  0
APPID
  5
1336
330
12CB
100
AcDbSymbolTableRecord
100
AcDbRegAppTableRecord
  2
GENIUS_GENCFG3_13
 70
     0
1001
GENIUS_GENCFG_13
1071
962108423
1000
1336
1000
GEN@LAYER@ENTSORT
1070
    11
1000
GenCfgObject
1000
GenCfgShort
1000
GenCfgReal
1000
GenCfgBool
1000
GenCfgString
1000
GenCfgDim
1000
GenCfgPoint
1000
GenCfgAttrInf
1000
GenCfgLaySection
1000
GenCfgLayer
1000
GenCfgEntSort
1000
ADDL
1070
    10
1000
5
1002
{
1000
Class
1070
     4
1000
SYM
1002
{
1002
}
1000
Color
1070
     1
1070
     1
1002
{
1002
}
1000
LType
1070
     4
1000
BYLAYER
1002
{
1002
}
1002
}
1000
ALTR
1070
    10
1000
4
1002
{
1000
Class
1070
     4
1000

1002
{
1002
}
1000
Color
1070
     1
1070
     7
1002
{
1002
}
1000
LType
1070
     4
1000
GEN3A
1002
{
1002
}
1002
}
1000
BELI
1070
    10
1000
4
1002
{
1000
Class
1070
     4
1000

1002
{
1002
}
1000
Color
1070
     1
1070
   256
1002
{
1002
}
1000
LType
1070
     4
1000
BYLAYER
1002
{
1002
}
1002
}
1000
BHNV
1070
    10
1000
9
1002
{
1000
Class
1070
     4
1000
INV
1002
{
1002
}
1000
Color
1070
     1
1070
   256
1002
{
1002
}
1000
LType
1070
     4
1000
BYLAYER
1002
{
1002
}
1002
}
1000
BHNVS
1070
    10
1000
BEHIND
1002
{
1000
Class
1070
     4
1000
INV
1002
{
1002
}
1000
Color
1070
     1
1070
   256
1002
{
1002
}
1000
LType
1070
     4
1000
BYLAYER
1002
{
1002
}
1002
}
1000
BLID
1070
    10
1000
4A
1002
{
1000
Class
1070
     4
1000

1002
{
1002
}
1000
Color
1070
     1
1070
   256
1002
{
1002
}
1000
LType
1070
     4
1000
BYLAYER
1002
{
1002
}
1002
}
1000
BOAP
1070
    10
1000
4A
1002
{
1000
Class
1070
     4
1000

1002
{
1002
}
1000
Color
1070
     1
1070
   256
1002
{
1002
}
1000
LType
1070
     4
1000
BYLAYER
1002
{
1002
}
1002
}
1000
BOR2
1070
    10
1000
RAHM2
1002
{
1000
Class
1070
     4
1000
SPZ,SYM
1002
{
1002
}
1000
Color
1070
     1
1070
   256
1002
{
1002
}
1000
LType
1070
     4
1000
BYLAYER
1002
{
1002
}
1002
}
1000
BOR3
1070
    10
1000
RAHM3
1002
{
1000
Class
1070
     4
1000
SPZ,SYM
1002
{
1002
}
1000
Color
1070
     1
1070
   256
1002
{
1002
}
1000
LType
1070
     4
1000
BYLAYER
1002
{
1002
}
1002
}
1000
BOR5
1070
    10
1000
RAHM5
1002
{
1000
Class
1070
     4
1000
SPZ,SYM
1002
{
1002
}
1000
Color
1070
     1
1070
   256
1002
{
1002
}
1000
LType
1070
     4
1000
BYLAYER
1002
{
1002
}
1002
}
1000
BOR7
1070
    10
1000
RAHM5
1002
{
1000
Class
1070
     4
1000
SPZ,SYM
1002
{
1002
}
1000
Color
1070
     1
1070
     7
1002
{
1002
}
1000
LType
1070
     4
1000
CONTINUOUS
1002
{
1002
}
1002
}
1000
BPAP
1070
    10
1000
4A
1002
{
1000
Class
1070
     4
1000

1002
{
1002
}
1000
Color
1070
     1
1070
   256
1002
{
1002
}
1000
LType
1070
     4
1000
BYLAYER
1002
{
1002
}
1002
}
1000
BPEX
1070
    10
1000
4A
1002
{
1000
Class
1070
     4
1000

1002
{
1002
}
1000
Color
1070
     1
1070
   256
1002
{
1002
}
1000
LType
1070
     4
1000
BYLAYER
1002
{
1002
}
1002
}
1000
BTDI
1070
    10
1000
5
1002
{
1000
Class
1070
     4
1000
DIM,SYM
1002
{
1002
}
1000
Color
1070
     1
1070
   256
1002
{
1002
}
1000
LType
1070
     4
1000
BYLAYER
1002
{
1002
}
1002
}
1000
CAL2
1070
    10
1000
4
1002
{
1000
Class
1070
     4
1000
SYM
1002
{
1002
}
1000
Color
1070
     1
1070
   256
1002
{
1002
}
1000
LType
1070
     4
1000
BYLAYER
1002
{
1002
}
1002
}
1000
CAL3
1070
    10
1000
4
1002
{
1000
Class
1070
     4
1000
SYM
1002
{
1002
}
1000
Color
1070
     1
1070
     2
1002
{
1002
}
1000
LType
1070
     4
1000
BYLAYER
1002
{
1002
}
1002
}
1000
CAL5
1070
    10
1000
4
1002
{
1000
Class
1070
     4
1000
SYM
1002
{
1002
}
1000
Color
1070
     1
1070
     7
1002
{
1002
}
1000
LType
1070
     4
1000
BYLAYER
1002
{
1002
}
1002
}
1000
CAL7
1070
    10
1000
4
1002
{
1000
Class
1070
     4
1000
SYM
1002
{
1002
}
1000
Color
1070
     1
1070
     5
1002
{
1002
}
1000
LType
1070
     4
1000
BYLAYER
1002
{
1002
}
1002
}
1000
CENN
1070
    10
1000
7A
1002
{
1000
Class
1070
     4
1000
CEN
1002
{
1002
}
1000
Color
1070
     1
1070
   256
1002
{
1002
}
1000
LType
1070
     4
1000
BYLAYER
1002
{
1002
}
1002
}
1000
CENW
1070
    10
1000
7
1002
{
1000
Class
1070
     4
1000
CEN
1002
{
1002
}
1000
Color
1070
     1
1070
   256
1002
{
1002
}
1000
LType
1070
     4
1000
BYLAYER
1002
{
1002
}
1002
}
1000
CLIN
1070
    10
1000
KLIN
1002
{
1000
Class
1070
     4
1000
SPZ
1002
{
1002
}
1000
Color
1070
     1
1070
   256
1002
{
1002
}
1000
LType
1070
     4
1000
BYLAYER
1002
{
1002
}
1002
}
1000
CON1
1070
    10
1000
0
1002
{
1000
Class
1070
     4
1000
CON,BGD
1002
{
1002
}
1000
Color
1070
     1
1070
   256
1002
{
1002
}
1000
LType
1070
     4
1000
BYLAYER
1002
{
1002
}
1002
}
1000
CON2
1070
    10
1000
1
1002
{
1000
Class
1070
     4
1000
CON,BGD
1002
{
1002
}
1000
Color
1070
     1
1070
   256
1002
{
1002
}
1000
LType
1070
     4
1000
BYLAYER
1002
{
1002
}
1002
}
1000
CON3
1070
    10
1000
2
1002
{
1000
Class
1070
     4
1000
CON,BGD
1002
{
1002
}
1000
Color
1070
     1
1070
   256
1002
{
1002
}
1000
LType
1070
     4
1000
BYLAYER
1002
{
1002
}
1002
}
1000
CON4
1070
    10
1000
2
1002
{
1000
Class
1070
     4
1000
CON,BGD
1002
{
1002
}
1000
Color
1070
     1
1070
   256
1002
{
1002
}
1000
LType
1070
     4
1000
BYLAYER
1002
{
1002
}
1002
}
1000
DERP
1070
    10
1000
4
1002
{
1000
Class
1070
     4
1000

1002
{
1002
}
1000
Color
1070
     1
1070
   256
1002
{
1002
}
1000
LType
1070
     4
1000
BYLAYER
1002
{
1002
}
1002
}
1000
DETA
1070
    10
1000
4
1002
{
1000
Class
1070
     4
1000

1002
{
1002
}
1000
Color
1070
     1
1070
   256
1002
{
1002
}
1000
LType
1070
     4
1000
BYLAYER
1002
{
1002
}
1002
}
1000
DIAG
1070
    10
1000
5
1002
{
1000
Class
1070
     4
1000
SYM
1002
{
1002
}
1000
Color
1070
     1
1070
   256
1002
{
1002
}
1000
LType
1070
     4
1000
BYLAYER
1002
{
1002
}
1002
}
1000
DILI
1070
    10
1000
5
1002
{
1000
Class
1070
     4
1000
DIM,SYM
1002
{
1002
}
1000
Color
1070
     1
1070
   256
1002
{
1002
}
1000
LType
1070
     4
1000
BYLAYER
1002
{
1002
}
1002
}
1000
DITO2
1070
    10
1000
5
1002
{
1000
Class
1070
     4
1000
DIM,SYM
1002
{
1002
}
1000
Color
1070
     1
1070
     3
1002
{
1002
}
1000
LType
1070
     4
1000
BYLAYER
1002
{
1002
}
1002
}
1000
DITO3
1070
    10
1000
5
1002
{
1000
Class
1070
     4
1000
DIM,SYM
1002
{
1002
}
1000
Color
1070
     1
1070
     2
1002
{
1002
}
1000
LType
1070
     4
1000
BYLAYER
1002
{
1002
}
1002
}
1000
DITX
1070
    10
1000
5
1002
{
1000
Class
1070
     4
1000
DIM,SYM
1002
{
1002
}
1000
Color
1070
     1
1070
     2
1002
{
1002
}
1000
LType
1070
     4
1000
CONTINUOUS
1002
{
1002
}
1002
}
1000
DIXL
1070
    10
1000
5
1002
{
1000
Class
1070
     4
1000
DIM,SYM
1002
{
1002
}
1000
Color
1070
     1
1070
   256
1002
{
1002
}
1000
LType
1070
     4
1000
BYLAYER
1002
{
1002
}
1002
}
1000
EXMP
1070
    10
1000
4A
1002
{
1000
Class
1070
     4
1000

1002
{
1002
}
1000
Color
1070
     1
1070
   256
1002
{
1002
}
1000
LType
1070
     4
1000
BYLAYER
1002
{
1002
}
1002
}
1000
FEMN
1070
    10
1000
8
1002
{
1000
Class
1070
     4
1000

1002
{
1002
}
1000
Color
1070
     1
1070
   256
1002
{
1002
}
1000
LType
1070
     4
1000
BYLAYER
1002
{
1002
}
1002
}
1000
FEMPN
1070
    10
1000
8
1002
{
1000
Class
1070
     4
1000
SYM
1002
{
1002
}
1000
Color
1070
     1
1070
     3
1002
{
1002
}
1000
LType
1070
     4
1000
BYLAYER
1002
{
1002
}
1002
}
1000
FEMSP
1070
    10
1000
4A
1002
{
1000
Class
1070
     4
1000

1002
{
1002
}
1000
Color
1070
     1
1070
   256
1002
{
1002
}
1000
LType
1070
     4
1000
CONTINUOUS
1002
{
1002
}
1002
}
1000
FEMST
1070
    10
1000
4A
1002
{
1000
Class
1070
     4
1000
SYM
1002
{
1002
}
1000
Color
1070
     1
1070
     3
1002
{
1002
}
1000
LType
1070
     4
1000
BYLAYER
1002
{
1002
}
1002
}
1000
FEMVN
1070
    10
1000
2
1002
{
1000
Class
1070
     4
1000
CON
1002
{
1002
}
1000
Color
1070
     1
1070
   256
1002
{
1002
}
1000
LType
1070
     4
1000
BYLAYER
1002
{
1002
}
1002
}
1000
FEMVT
1070
    10
1000
2
1002
{
1000
Class
1070
     4
1000
SYM
1002
{
1002
}
1000
Color
1070
     1
1070
     3
1002
{
1002
}
1000
LType
1070
     4
1000
BYLAYER
1002
{
1002
}
1002
}
1000
FLAT
1070
    10
1000
0
1002
{
1000
Class
1070
     4
1000

1002
{
1002
}
1000
Color
1070
     1
1070
   256
1002
{
1002
}
1000
LType
1070
     4
1000
BYLAYER
1002
{
1002
}
1002
}
1000
FRAR
1070
    10
1000
4A
1002
{
1000
Class
1070
     4
1000

1002
{
1002
}
1000
Color
1070
     1
1070
   256
1002
{
1002
}
1000
LType
1070
     4
1000
BYLAYER
1002
{
1002
}
1002
}
1000
GRLI
1070
    10
1000
5
1002
{
1000
Class
1070
     4
1000
SYM
1002
{
1002
}
1000
Color
1070
     1
1070
   256
1002
{
1002
}
1000
LType
1070
     4
1000
BYLAYER
1002
{
1002
}
1002
}
1000
GVLI
1070
    10
1000
4A
1002
{
1000
Class
1070
     4
1000

1002
{
1002
}
1000
Color
1070
     1
1070
   256
1002
{
1002
}
1000
LType
1070
     4
1000
BYLAYER
1002
{
1002
}
1002
}
1000
HATC
1070
    10
1000
8
1002
{
1000
Class
1070
     4
1000
HTC,BGD
1002
{
1002
}
1000
Color
1070
     1
1070
   256
1002
{
1002
}
1000
LType
1070
     4
1000
BYLAYER
1002
{
1002
}
1002
}
1000
HIDN
1070
    10
1000
3A
1002
{
1000
Class
1070
     4
1000
HID,BGD
1002
{
1002
}
1000
Color
1070
     1
1070
   256
1002
{
1002
}
1000
LType
1070
     4
1000
BYLAYER
1002
{
1002
}
1002
}
1000
HIDW
1070
    10
1000
3
1002
{
1000
Class
1070
     4
1000
HID,BGD
1002
{
1002
}
1000
Color
1070
     1
1070
   256
1002
{
1002
}
1000
LType
1070
     4
1000
BYLAYER
1002
{
1002
}
1002
}
1000
HLIN
1070
    10
1000
4
1002
{
1000
Class
1070
     4
1000
BGD
1002
{
1002
}
1000
Color
1070
     1
1070
   256
1002
{
1002
}
1000
LType
1070
     4
1000
BYLAYER
1002
{
1002
}
1002
}
1000
HOCN
1070
    10
1000
7A
1002
{
1000
Class
1070
     4
1000
CEN
1002
{
1002
}
1000
Color
1070
     1
1070
   256
1002
{
1002
}
1000
LType
1070
     4
1000
BYLAYER
1002
{
1002
}
1002
}
1000
HOCW
1070
    10
1000
7
1002
{
1000
Class
1070
     4
1000
CEN
1002
{
1002
}
1000
Color
1070
     1
1070
   256
1002
{
1002
}
1000
LType
1070
     4
1000
BYLAYER
1002
{
1002
}
1002
}
1000
INFO
1070
    10
1000
INFO
1002
{
1000
Class
1070
     4
1000
SPZ,SYM
1002
{
1002
}
1000
Color
1070
     1
1070
   256
1002
{
1002
}
1000
LType
1070
     4
1000
BYLAYER
1002
{
1002
}
1002
}
1000
LADI
1070
    10
1000
4
1002
{
1000
Class
1070
     4
1000
BGD
1002
{
1002
}
1000
Color
1070
     1
1070
   256
1002
{
1002
}
1000
LType
1070
     4
1000
BYLAYER
1002
{
1002
}
1002
}
1000
LEAD
1070
    10
1000
5
1002
{
1000
Class
1070
     4
1000
SYM
1002
{
1002
}
1000
Color
1070
     1
1070
   256
1002
{
1002
}
1000
LType
1070
     4
1000
BYLAYER
1002
{
1002
}
1002
}
1000
N_ADDL
1070
    10
1000
5N
1002
{
1000
Class
1070
     4
1000
SYM
1002
{
1002
}
1000
Color
1070
     1
1070
     1
1002
{
1002
}
1000
LType
1070
     4
1000
BYLAYER
1002
{
1002
}
1002
}
1000
N_BHNV
1070
    10
1000
9N
1002
{
1000
Class
1070
     4
1000
INV
1002
{
1002
}
1000
Color
1070
     1
1070
   256
1002
{
1002
}
1000
LType
1070
     4
1000
BYLAYER
1002
{
1002
}
1002
}
1000
N_CON1
1070
    10
1000
0N
1002
{
1000
Class
1070
     4
1000
CON,BGD
1002
{
1002
}
1000
Color
1070
     1
1070
   256
1002
{
1002
}
1000
LType
1070
     4
1000
BYLAYER
1002
{
1002
}
1002
}
1000
N_CON2
1070
    10
1000
1N
1002
{
1000
Class
1070
     4
1000
CON,BGD
1002
{
1002
}
1000
Color
1070
     1
1070
   256
1002
{
1002
}
1000
LType
1070
     4
1000
BYLAYER
1002
{
1002
}
1002
}
1000
N_CON3
1070
    10
1000
2N
1002
{
1000
Class
1070
     4
1000
CON,BGD
1002
{
1002
}
1000
Color
1070
     1
1070
   256
1002
{
1002
}
1000
LType
1070
     4
1000
BYLAYER
1002
{
1002
}
1002
}
1000
N_CON4
1070
    10
1000
2N
1002
{
1000
Class
1070
     4
1000
CON,BGD
1002
{
1002
}
1000
Color
1070
     1
1070
   256
1002
{
1002
}
1000
LType
1070
     4
1000
BYLAYER
1002
{
1002
}
1002
}
1000
N_CENN
1070
    10
1000
7AN
1002
{
1000
Class
1070
     4
1000
CEN
1002
{
1002
}
1000
Color
1070
     1
1070
   256
1002
{
1002
}
1000
LType
1070
     4
1000
BYLAYER
1002
{
1002
}
1002
}
1000
N_CENW
1070
    10
1000
7N
1002
{
1000
Class
1070
     4
1000
CEN
1002
{
1002
}
1000
Color
1070
     1
1070
   256
1002
{
1002
}
1000
LType
1070
     4
1000
BYLAYER
1002
{
1002
}
1002
}
1000
N_DILI
1070
    10
1000
5N
1002
{
1000
Class
1070
     4
1000
DIM,SYM
1002
{
1002
}
1000
Color
1070
     1
1070
   256
1002
{
1002
}
1000
LType
1070
     4
1000
BYLAYER
1002
{
1002
}
1002
}
1000
N_DITX
1070
    10
1000
5N
1002
{
1000
Class
1070
     4
1000
DIM,SYM
1002
{
1002
}
1000
Color
1070
     1
1070
     2
1002
{
1002
}
1000
LType
1070
     4
1000
CONTINUOUS
1002
{
1002
}
1002
}
1000
N_DIXL
1070
    10
1000
5N
1002
{
1000
Class
1070
     4
1000
DIM,SYM
1002
{
1002
}
1000
Color
1070
     1
1070
   256
1002
{
1002
}
1000
LType
1070
     4
1000
BYLAYER
1002
{
1002
}
1002
}
1000
N_HATC
1070
    10
1000
8N
1002
{
1000
Class
1070
     4
1000
HTC,BGD
1002
{
1002
}
1000
Color
1070
     1
1070
   256
1002
{
1002
}
1000
LType
1070
     4
1000
BYLAYER
1002
{
1002
}
1002
}
1000
N_HIDN
1070
    10
1000
3AN
1002
{
1000
Class
1070
     4
1000
HID,BGD
1002
{
1002
}
1000
Color
1070
     1
1070
   256
1002
{
1002
}
1000
LType
1070
     4
1000
BYLAYER
1002
{
1002
}
1002
}
1000
N_HIDW
1070
    10
1000
3N
1002
{
1000
Class
1070
     4
1000
HID,BGD
1002
{
1002
}
1000
Color
1070
     1
1070
   256
1002
{
1002
}
1000
LType
1070
     4
1000
BYLAYER
1002
{
1002
}
1002
}
1000
N_NGIP
1070
    10
1000
IPN
1002
{
1000
Class
1070
     4
1000

1002
{
1002
}
1000
Color
1070
     1
1070
   256
1002
{
1002
}
1000
LType
1070
     4
1000
BYLAYER
1002
{
1002
}
1002
}
1000
N_PHAN
1070
    10
1000
4AN
1002
{
1000
Class
1070
     4
1000

1002
{
1002
}
1000
Color
1070
     1
1070
   256
1002
{
1002
}
1000
LType
1070
     4
1000
BYLAYER
1002
{
1002
}
1002
}
1000
N_POSL
1070
    10
1000
5N
1002
{
1000
Class
1070
     4
1000
SYM
1002
{
1002
}
1000
Color
1070
     1
1070
   256
1002
{
1002
}
1000
LType
1070
     4
1000
BYLAYER
1002
{
1002
}
1002
}
1000
N_TCON
1070
    10
1000
0N
1002
{
1000
Class
1070
     4
1000
CON,BGD
1002
{
1002
}
1000
Color
1070
     1
1070
   256
1002
{
1002
}
1000
LType
1070
     4
1000
BYLAYER
1002
{
1002
}
1002
}
1000
N_THLI
1070
    10
1000
4N
1002
{
1000
Class
1070
     4
1000
BGD
1002
{
1002
}
1000
Color
1070
     1
1070
   256
1002
{
1002
}
1000
LType
1070
     4
1000
BYLAYER
1002
{
1002
}
1002
}
1000
N_TLEN
1070
    10
1000
0N
1002
{
1000
Class
1070
     4
1000
CON,BGD
1002
{
1002
}
1000
Color
1070
     1
1070
   256
1002
{
1002
}
1000
LType
1070
     4
1000
BYLAYER
1002
{
1002
}
1002
}
1000
N_TXT3
1070
    10
1000
6N
1002
{
1000
Class
1070
     4
1000
SYM
1002
{
1002
}
1000
Color
1070
     1
1070
   256
1002
{
1002
}
1000
LType
1070
     4
1000
BYLAYER
1002
{
1002
}
1002
}
1000
N_VPLI
1070
    10
1000
2AN
1002
{
1000
Class
1070
     4
1000

1002
{
1002
}
1000
Color
1070
     1
1070
   256
1002
{
1002
}
1000
LType
1070
     4
1000
BYLAYER
1002
{
1002
}
1002
}
1000
NGIP
1070
    10
1000
IP
1002
{
1000
Class
1070
     4
1000

1002
{
1002
}
1000
Color
1070
     1
1070
   256
1002
{
1002
}
1000
LType
1070
     4
1000
BYLAYER
1002
{
1002
}
1002
}
1000
PAL2
1070
    10
1000
RAHM2
1002
{
1000
Class
1070
     4
1000
SPZ,SYM
1002
{
1002
}
1000
Color
1070
     1
1070
   256
1002
{
1002
}
1000
LType
1070
     4
1000
BYLAYER
1002
{
1002
}
1002
}
1000
PAL3
1070
    10
1000
RAHM3
1002
{
1000
Class
1070
     4
1000
SPZ,SYM
1002
{
1002
}
1000
Color
1070
     1
1070
   256
1002
{
1002
}
1000
LType
1070
     4
1000
BYLAYER
1002
{
1002
}
1002
}
1000
PAL5
1070
    10
1000
RAHM5
1002
{
1000
Class
1070
     4
1000
SPZ,SYM
1002
{
1002
}
1000
Color
1070
     1
1070
   256
1002
{
1002
}
1000
LType
1070
     4
1000
BYLAYER
1002
{
1002
}
1002
}
1000
PAL7
1070
    10
1000
RAHM5
1002
{
1000
Class
1070
     4
1000
SPZ,SYM
1002
{
1002
}
1000
Color
1070
     1
1070
     7
1002
{
1002
}
1000
LType
1070
     4
1000
CONTINUOUS
1002
{
1002
}
1002
}
1000
PHAN
1070
    10
1000
4A
1002
{
1000
Class
1070
     4
1000

1002
{
1002
}
1000
Color
1070
     1
1070
   256
1002
{
1002
}
1000
LType
1070
     4
1000
BYLAYER
1002
{
1002
}
1002
}
1000
POSL
1070
    10
1000
5
1002
{
1000
Class
1070
     4
1000
SYM
1002
{
1002
}
1000
Color
1070
     1
1070
   256
1002
{
1002
}
1000
LType
1070
     4
1000
BYLAYER
1002
{
1002
}
1002
}
1000
POSN
1070
    10
1000
6
1002
{
1000
Class
1070
     4
1000
SYM
1002
{
1002
}
1000
Color
1070
     1
1070
     7
1002
{
1002
}
1000
LType
1070
     4
1000
BYLAYER
1002
{
1002
}
1002
}
1000
POSREF
1070
    10
1000
6
1002
{
1000
Class
1070
     4
1000
SYM
1002
{
1002
}
1000
Color
1070
     1
1070
     5
1002
{
1002
}
1000
LType
1070
     4
1000
BYLAYER
1002
{
1002
}
1002
}
1000
POSX
1070
    10
1000
5
1002
{
1000
Class
1070
     4
1000
SYM
1002
{
1002
}
1000
Color
1070
     1
1070
     2
1002
{
1002
}
1000
LType
1070
     4
1000
CONTINUOUS
1002
{
1002
}
1002
}
1000
PSEC
1070
    10
1000
4A
1002
{
1000
Class
1070
     4
1000

1002
{
1002
}
1000
Color
1070
     1
1070
   256
1002
{
1002
}
1000
LType
1070
     4
1000
BYLAYER
1002
{
1002
}
1002
}
1000
RCGN
1070
    10
1000
7A
1002
{
1000
Class
1070
     4
1000
CEN
1002
{
1002
}
1000
Color
1070
     1
1070
   256
1002
{
1002
}
1000
LType
1070
     4
1000
BYLAYER
1002
{
1002
}
1002
}
1000
RCGW
1070
    10
1000
7
1002
{
1000
Class
1070
     4
1000
CEN
1002
{
1002
}
1000
Color
1070
     1
1070
   256
1002
{
1002
}
1000
LType
1070
     4
1000
BYLAYER
1002
{
1002
}
1002
}
1000
RFDI
1070
    10
1000
4
1002
{
1000
Class
1070
     4
1000
BGD
1002
{
1002
}
1000
Color
1070
     1
1070
   256
1002
{
1002
}
1000
LType
1070
     4
1000
BYLAYER
1002
{
1002
}
1002
}
1000
RQTR
1070
    10
1000
4
1002
{
1000
Class
1070
     4
1000

1002
{
1002
}
1000
Color
1070
     1
1070
     7
1002
{
1002
}
1000
LType
1070
     4
1000
GEN7A
1002
{
1002
}
1002
}
1000
RSBO
1070
    10
1000
4
1002
{
1000
Class
1070
     4
1000
BGD
1002
{
1002
}
1000
Color
1070
     1
1070
   256
1002
{
1002
}
1000
LType
1070
     4
1000
BYLAYER
1002
{
1002
}
1002
}
1000
SBRK
1070
    10
1000
4
1002
{
1000
Class
1070
     4
1000
BGD
1002
{
1002
}
1000
Color
1070
     1
1070
   256
1002
{
1002
}
1000
LType
1070
     4
1000
BYLAYER
1002
{
1002
}
1002
}
1000
SCEN
1070
    10
1000
7
1002
{
1000
Class
1070
     4
1000

1002
{
1002
}
1000
Color
1070
     1
1070
   256
1002
{
1002
}
1000
LType
1070
     4
1000
CONTINUOUS
1002
{
1002
}
1002
}
1000
SECT
1070
    10
1000
4
1002
{
1000
Class
1070
     4
1000
BGD
1002
{
1002
}
1000
Color
1070
     1
1070
   256
1002
{
1002
}
1000
LType
1070
     4
1000
BYLAYER
1002
{
1002
}
1002
}
1000
SELN
1070
    10
1000
7A
1002
{
1000
Class
1070
     4
1000

1002
{
1002
}
1000
Color
1070
     1
1070
   256
1002
{
1002
}
1000
LType
1070
     4
1000
BYLAYER
1002
{
1002
}
1002
}
1000
SELW
1070
    10
1000
7
1002
{
1000
Class
1070
     4
1000

1002
{
1002
}
1000
Color
1070
     1
1070
   256
1002
{
1002
}
1000
LType
1070
     4
1000
BYLAYER
1002
{
1002
}
1002
}
1000
SSYS
1070
    10
1000
0
1002
{
1000
Class
1070
     4
1000

1002
{
1002
}
1000
Color
1070
     1
1070
   256
1002
{
1002
}
1000
LType
1070
     4
1000
BYLAYER
1002
{
1002
}
1002
}
1000
STLI
1070
    10
1000
4
1002
{
1000
Class
1070
     4
1000

1002
{
1002
}
1000
Color
1070
     1
1070
     7
1002
{
1002
}
1000
LType
1070
     4
1000
GEN3A
1002
{
1002
}
1002
}
1000
SYB1
1070
    10
1000
5
1002
{
1000
Class
1070
     4
1000
SYM
1002
{
1002
}
1000
Color
1070
     1
1070
   256
1002
{
1002
}
1000
LType
1070
     4
1000
BYLAYER
1002
{
1002
}
1002
}
1000
SYB2
1070
    10
1000
5
1002
{
1000
Class
1070
     4
1000
SYM
1002
{
1002
}
1000
Color
1070
     1
1070
   256
1002
{
1002
}
1000
LType
1070
     4
1000
BYLAYER
1002
{
1002
}
1002
}
1000
SYB3
1070
    10
1000
6
1002
{
1000
Class
1070
     4
1000
SYM
1002
{
1002
}
1000
Color
1070
     1
1070
   256
1002
{
1002
}
1000
LType
1070
     4
1000
CONTINUOUS
1002
{
1002
}
1002
}
1000
SYB5
1070
    10
1000
5
1002
{
1000
Class
1070
     4
1000
SYM
1002
{
1002
}
1000
Color
1070
     1
1070
     7
1002
{
1002
}
1000
LType
1070
     4
1000
BYLAYER
1002
{
1002
}
1002
}
1000
SYMN
1070
    10
1000
7A
1002
{
1000
Class
1070
     4
1000
CEN
1002
{
1002
}
1000
Color
1070
     1
1070
   256
1002
{
1002
}
1000
LType
1070
     4
1000
BYLAYER
1002
{
1002
}
1002
}
1000
SYMW
1070
    10
1000
7
1002
{
1000
Class
1070
     4
1000
CEN
1002
{
1002
}
1000
Color
1070
     1
1070
   256
1002
{
1002
}
1000
LType
1070
     4
1000
BYLAYER
1002
{
1002
}
1002
}
1000
TCON
1070
    10
1000
0
1002
{
1000
Class
1070
     4
1000
CON,BGD
1002
{
1002
}
1000
Color
1070
     1
1070
   256
1002
{
1002
}
1000
LType
1070
     4
1000
BYLAYER
1002
{
1002
}
1002
}
1000
THLI
1070
    10
1000
4
1002
{
1000
Class
1070
     4
1000
BGD
1002
{
1002
}
1000
Color
1070
     1
1070
   256
1002
{
1002
}
1000
LType
1070
     4
1000
BYLAYER
1002
{
1002
}
1002
}
1000
TIT2
1070
    10
1000
RAHM2
1002
{
1000
Class
1070
     4
1000
SPZ,SYM
1002
{
1002
}
1000
Color
1070
     1
1070
   256
1002
{
1002
}
1000
LType
1070
     4
1000
BYLAYER
1002
{
1002
}
1002
}
1000
TIT3
1070
    10
1000
RAHM3
1002
{
1000
Class
1070
     4
1000
SPZ,SYM
1002
{
1002
}
1000
Color
1070
     1
1070
   256
1002
{
1002
}
1000
LType
1070
     4
1000
BYLAYER
1002
{
1002
}
1002
}
1000
TIT5
1070
    10
1000
RAHM5
1002
{
1000
Class
1070
     4
1000
SPZ,SYM
1002
{
1002
}
1000
Color
1070
     1
1070
   256
1002
{
1002
}
1000
LType
1070
     4
1000
BYLAYER
1002
{
1002
}
1002
}
1000
TIT7
1070
    10
1000
RAHM5
1002
{
1000
Class
1070
     4
1000
SPZ,SYM
1002
{
1002
}
1000
Color
1070
     1
1070
     7
1002
{
1002
}
1000
LType
1070
     4
1000
CONTINUOUS
1002
{
1002
}
1002
}
1000
TLEN
1070
    10
1000
0
1002
{
1000
Class
1070
     4
1000
CON,BGD
1002
{
1002
}
1000
Color
1070
     1
1070
   256
1002
{
1002
}
1000
LType
1070
     4
1000
BYLAYER
1002
{
1002
}
1002
}
1000
TRKN
1070
    10
1000
7A
1002
{
1000
Class
1070
     4
1000

1002
{
1002
}
1000
Color
1070
     1
1070
   256
1002
{
1002
}
1000
LType
1070
     4
1000
BYLAYER
1002
{
1002
}
1002
}
1000
TRKW
1070
    10
1000
7
1002
{
1000
Class
1070
     4
1000

1002
{
1002
}
1000
Color
1070
     1
1070
   256
1002
{
1002
}
1000
LType
1070
     4
1000
BYLAYER
1002
{
1002
}
1002
}
1000
TRLI
1070
    10
1000
4
1002
{
1000
Class
1070
     4
1000
BGD
1002
{
1002
}
1000
Color
1070
     1
1070
   256
1002
{
1002
}
1000
LType
1070
     4
1000
BYLAYER
1002
{
1002
}
1002
}
1000
TXT1
1070
    10
1000
6
1002
{
1000
Class
1070
     4
1000
SYM
1002
{
1002
}
1000
Color
1070
     1
1070
     2
1002
{
1002
}
1000
LType
1070
     4
1000
BYLAYER
1002
{
1002
}
1002
}
1000
TXT2
1070
    10
1000
6
1002
{
1000
Class
1070
     4
1000
SYM
1002
{
1002
}
1000
Color
1070
     1
1070
     2
1002
{
1002
}
1000
LType
1070
     4
1000
BYLAYER
1002
{
1002
}
1002
}
1000
TXT3
1070
    10
1000
6
1002
{
1000
Class
1070
     4
1000
SYM
1002
{
1002
}
1000
Color
1070
     1
1070
   256
1002
{
1002
}
1000
LType
1070
     4
1000
BYLAYER
1002
{
1002
}
1002
}
1000
TXT5
1070
    10
1000
6
1002
{
1000
Class
1070
     4
1000
SYM
1002
{
1002
}
1000
Color
1070
     1
1070
     7
1002
{
1002
}
1000
LType
1070
     4
1000
BYLAYER
1002
{
1002
}
1002
}
1000
TXT7
1070
    10
1000
6
1002
{
1000
Class
1070
     4
1000
SYM
1002
{
1002
}
1000
Color
1070
     1
1070
     7
1002
{
1002
}
1000
LType
1070
     4
1000
BYLAYER
1002
{
1002
}
1002
}
1000
VIEW
1070
    10
1000
VIEW
1002
{
1000
Class
1070
     4
1000
SPZ
1002
{
1002
}
1000
Color
1070
     1
1070
   256
1002
{
1002
}
1000
LType
1070
     4
1000
BYLAYER
1002
{
1002
}
1002
}
1000
VPLI
1070
    10
1000
2A
1002
{
1000
Class
1070
     4
1000

1002
{
1002
}
1000
Color
1070
     1
1070
   256
1002
{
1002
}
1000
LType
1070
     4
1000
BYLAYER
1002
{
1002
}
1002
}
1000
ZIZA
1070
    10
1000
4
1002
{
1000
Class
1070
     4
1000
BGD
1002
{
1002
}
1000
Color
1070
     1
1070
   256
1002
{
1002
}
1000
LType
1070
     4
1000
GENZIGZAG
1002
{
1002
}
1002
}
  0
APPID
  5
1337
330
12CB
100
AcDbSymbolTableRecord
100
AcDbRegAppTableRecord
  2
GENIUS_GENCFG4_13
 70
     0
1001
GENIUS_GENCFG_13
1071
962108466
1000
1337
1000
GEN
1070
    10
1000
GenCfgObject
1000
GenCfgShort
1000
GenCfgReal
1000
GenCfgBool
1000
GenCfgString
1000
GenCfgDim
1000
GenCfgPoint
1000
GenCfgLaySection
1000
GenCfgLType
1000
GenCfgFilter
1000
Balloon
1070
     0
1002
{
1000
GenIF
1070
     1
1070
     0
1002
{
1002
}
1000
GenPosInc
1070
     1
1070
     1
1002
{
1002
}
1000
GenPosBlk
1070
     1
1070
     8
1002
{
1002
}
1000
GenPosVar
1070
     1
1070
     0
1002
{
1002
}
1000
GenZiCir
1070
     2
1040
1.5
1002
{
1002
}
1000
MaxCharForCenteredText
1070
     1
1070
    30
1002
{
1002
}
1000
Snap
1070
     0
1002
{
1000
ActivationRadius
1070
     2
1040
1.0
1002
{
1002
}
1000
M
1070
     0
1002
{
1000
SnapStepX
1070
     2
1040
20.0
1002
{
1002
}
1000
SnapStepY
1070
     2
1040
10.0
1002
{
1002
}
1002
}
1000
I
1070
     0
1002
{
1000
SnapStepX
1070
     2
1040
1.0
1002
{
1002
}
1000
SnapStepY
1070
     2
1040
0.5
1002
{
1002
}
1002
}
1002
}
1002
}
1000
Centerline
1070
     0
1002
{
1000
ScaleNot
1070
     3
1070
     0
1002
{
1002
}
1000
M
1070
     0
1002
{
1000
GenCenAng
1070
     4
1000
45|90|135
1002
{
1002
}
1000
GenCenDia
1070
     2
1040
10.0
1002
{
1002
}
1000
GenCenDias
1070
     4
1000
10|20|30
1002
{
1002
}
1000
GenCenDist
1070
     2
1040
3.0
1002
{
1002
}
1000
GenCenLen
1070
     2
1040
10.0
1002
{
1002
}
1000
GenCenOff
1070
     2
1040
10.0
1002
{
1002
}
1002
}
1000
I
1070
     0
1002
{
1000
GenCenAng
1070
     4
1000
45|90|135
1002
{
1002
}
1000
GenCenDia
1070
     2
1040
0.5
1002
{
1002
}
1000
GenCenDias
1070
     4
1000
0.5|1.0|1.5
1002
{
1002
}
1000
GenCenDist
1070
     2
1040
0.125
1002
{
1002
}
1000
GenCenLen
1070
     2
1040
0.5
1002
{
1002
}
1000
GenCenOff
1070
     2
1040
0.5
1002
{
1002
}
1002
}
1002
}
1000
CLine
1070
     0
1002
{
1000
CAngArray
1070
     4
1000
30|45|60
1002
{
1002
}
1000
Typ
1070
     4
1000
XLINE
1002
{
1002
}
1000
M
1070
     0
1002
{
1000
CLinArray
1070
     4
1000
10|20|30
1002
{
1002
}
1002
}
1000
I
1070
     0
1002
{
1000
CLinArray
1070
     4
1000
0.125|0.25|0.5
1002
{
1002
}
1002
}
1002
}
1000
Detail
1070
     0
1002
{
1002
}
1000
Dimension
1070
     5
1002
{
1000
DIMALT
1070
     1
1070
     0
1002
{
1002
}
1000
DIMALTD
1070
     1
1070
     2
1002
{
1002
}
1000
DIMALTTD
1070
     1
1070
     4
1002
{
1002
}
1000
DIMALTTZ
1070
     1
1070
     0
1002
{
1002
}
1000
DIMALTU
1070
     1
1070
     2
1002
{
1002
}
1000
DIMALTZ
1070
     1
1070
     0
1002
{
1002
}
1000
DIMAUNIT
1070
     1
1070
     0
1002
{
1002
}
1000
DIMBLK
1070
     4
1000

1002
{
1002
}
1000
DIMBLK1
1070
     4
1000

1002
{
1002
}
1000
DIMBLK2
1070
     4
1000

1002
{
1002
}
1000
DIMCLRD
1070
     1
1070
   256
1002
{
1002
}
1000
DIMCLRE
1070
     1
1070
   256
1002
{
1002
}
1000
DIMCLRT
1070
     1
1070
     2
1002
{
1002
}
1000
DIMDLE
1070
     2
1040
0.0
1002
{
1002
}
1000
DIMFIT
1070
     1
1070
     3
1002
{
1002
}
1000
DIMJUST
1070
     1
1070
     0
1002
{
1002
}
1000
DIMLFAC
1070
     2
1040
1.0
1002
{
1002
}
1000
DIMLIM
1070
     1
1070
     0
1002
{
1002
}
1000
DIMPOST
1070
     4
1000

1002
{
1002
}
1000
DIMRND
1070
     2
1040
0.0
1002
{
1002
}
1000
DIMSAH
1070
     1
1070
     0
1002
{
1002
}
1000
DIMSCALE
1070
     2
1040
1.0
1002
{
1002
}
1000
DIMSD1
1070
     1
1070
     0
1002
{
1002
}
1000
DIMSD2
1070
     1
1070
     0
1002
{
1002
}
1000
DIMSE1
1070
     1
1070
     0
1002
{
1002
}
1000
DIMSE2
1070
     1
1070
     0
1002
{
1002
}
1000
DIMSOXD
1070
     1
1070
     0
1002
{
1002
}
1000
DIMTAD
1070
     1
1070
     0
1002
{
1002
}
1000
DIMTFAC
1070
     2
1040
0.71
1002
{
1002
}
1000
DIMTIH
1070
     1
1070
     0
1002
{
1002
}
1000
DIMTIX
1070
     1
1070
     0
1002
{
1002
}
1000
DIMTM
1070
     2
1040
0.1
1002
{
1002
}
1000
DIMTOFL
1070
     1
1070
     0
1002
{
1002
}
1000
DIMTOH
1070
     1
1070
     0
1002
{
1002
}
1000
DIMTOL
1070
     1
1070
     0
1002
{
1002
}
1000
DIMTOLJ
1070
     1
1070
     1
1002
{
1002
}
1000
DIMTP
1070
     2
1040
0.1
1002
{
1002
}
1000
DIMTSZ
1070
     2
1040
0.0
1002
{
1002
}
1000
DIMTVP
1070
     2
1040
0.0
1002
{
1002
}
1000
DIMTXSTY
1070
     4
1000
STANDARD
1002
{
1002
}
1000
DIMTZIN
1070
     1
1070
     0
1002
{
1002
}
1000
DIMUNIT
1070
     1
1070
     2
1002
{
1002
}
1000
DIMUPT
1070
     1
1070
     0
1002
{
1002
}
1000
M
1070
     0
1002
{
1000
DIMALTF
1070
     2
1040
0.03937
1002
{
1002
}
1000
DIMAPOST
1070
     4
1000
"
1002
{
1002
}
1000
DIMASZ
1070
     2
1040
2.5
1002
{
1002
}
1000
DIMCEN
1070
     2
1040
0.0
1002
{
1002
}
1000
DIMDEC
1070
     1
1070
     2
1002
{
1002
}
1000
DIMDLI
1070
     2
1040
7.0
1002
{
1002
}
1000
DIMEXE
1070
     2
1040
1.0
1002
{
1002
}
1000
DIMEXO
1070
     2
1040
1.0
1002
{
1002
}
1000
DIMGAP
1070
     2
1040
0.6
1002
{
1002
}
1000
DIMTDEC
1070
     1
1070
     3
1002
{
1002
}
1000
DIMTXT
1070
     2
1040
3.5
1002
{
1002
}
1000
DIMZIN
1070
     1
1070
     8
1002
{
1002
}
1002
}
1000
I
1070
     0
1002
{
1000
DIMALTF
1070
     2
1040
25.4
1002
{
1002
}
1000
DIMAPOST
1070
     4
1000
mm
1002
{
1002
}
1000
DIMASZ
1070
     2
1040
0.1
1002
{
1002
}
1000
DIMCEN
1070
     2
1040
0.0
1002
{
1002
}
1000
DIMDEC
1070
     1
1070
     4
1002
{
1002
}
1000
DIMDLI
1070
     2
1040
0.5
1002
{
1002
}
1000
DIMEXE
1070
     2
1040
0.1
1002
{
1002
}
1000
DIMEXO
1070
     2
1040
0.05
1002
{
1002
}
1000
DIMGAP
1070
     2
1040
0.06
1002
{
1002
}
1000
DIMTDEC
1070
     1
1070
     4
1002
{
1002
}
1000
DIMTXT
1070
     2
1040
0.12
1002
{
1002
}
1000
DIMZIN
1070
     1
1070
     7
1002
{
1002
}
1002
}
1000
GEN-ISO
1070
     5
1002
{
1000
NAME
1070
     4
1000
GEN-ISO
1002
{
1002
}
1000
DIMTAD
1070
     1
1070
     1
1002
{
1002
}
1000
DIMTOLJ
1070
     1
1070
     0
1002
{
1002
}
1000
DIMTOFL
1070
     1
1070
     1
1002
{
1002
}
1000
M
1070
     0
1002
{
1002
}
1000
I
1070
     0
1002
{
1002
}
1002
}
1000
GEN-ISO-POS
1070
     5
1002
{
1000
NAME
1070
     4
1000
GEN-ISO-POS
1002
{
1002
}
1000
DIMTOLJ
1070
     1
1070
     0
1002
{
1002
}
1000
DIMTXSTY
1070
     4
1000
STANDARD
1002
{
1002
}
1000
M
1070
     0
1002
{
1000
DIMASZ
1070
     2
1040
2.5
1002
{
1002
}
1000
DIMGAP
1070
     2
1040
1.5
1002
{
1002
}
1000
DIMTXT
1070
     2
1040
5.0
1002
{
1002
}
1002
}
1000
I
1070
     0
1002
{
1000
DIMASZ
1070
     2
1040
0.1
1002
{
1002
}
1000
DIMGAP
1070
     2
1040
0.06
1002
{
1002
}
1000
DIMTXT
1070
     2
1040
0.2
1002
{
1002
}
1002
}
1002
}
1000
GEN-ISO-CIR
1070
     5
1002
{
1000
NAME
1070
     4
1000
GEN-ISO$3
1002
{
1002
}
1000
DIMFIT
1070
     1
1070
     0
1002
{
1002
}
1000
DIMTAD
1070
     1
1070
     1
1002
{
1002
}
1000
DIMTOH
1070
     1
1070
     1
1002
{
1002
}
1000
DIMTOLJ
1070
     1
1070
     0
1002
{
1002
}
1000
DIMUPT
1070
     1
1070
     1
1002
{
1002
}
1000
M
1070
     0
1002
{
1002
}
1000
I
1070
     0
1002
{
1002
}
1002
}
1000
GEN-ISO-RAD
1070
     5
1002
{
1000
NAME
1070
     4
1000
GEN-ISO$4
1002
{
1002
}
1000
DIMFIT
1070
     1
1070
     0
1002
{
1002
}
1000
DIMTAD
1070
     1
1070
     1
1002
{
1002
}
1000
DIMTIH
1070
     1
1070
     0
1002
{
1002
}
1000
DIMTIX
1070
     1
1070
     0
1002
{
1002
}
1000
DIMTOH
1070
     1
1070
     1
1002
{
1002
}
1000
DIMTOLJ
1070
     1
1070
     0
1002
{
1002
}
1000
DIMTOFL
1070
     1
1070
     0
1002
{
1002
}
1000
DIMUPT
1070
     1
1070
     1
1002
{
1002
}
1000
M
1070
     0
1002
{
1002
}
1000
I
1070
     0
1002
{
1002
}
1002
}
1000
GEN-ISO-ORD
1070
     5
1002
{
1000
NAME
1070
     4
1000
GEN-ISO$6
1002
{
1002
}
1000
DIMTOLJ
1070
     1
1070
     0
1002
{
1002
}
1000
M
1070
     0
1002
{
1002
}
1000
I
1070
     0
1002
{
1002
}
1002
}
1000
GEN-ISO-AXE-F
1070
     5
1002
{
1000
NAME
1070
     4
1000
GEN-ISO-AXE-F
1002
{
1002
}
1000
DIMSE1
1070
     1
1070
     1
1002
{
1002
}
1000
DIMSE2
1070
     1
1070
     1
1002
{
1002
}
1000
DIMTAD
1070
     1
1070
     1
1002
{
1002
}
1000
DIMTOLJ
1070
     1
1070
     0
1002
{
1002
}
1000
DIMTOFL
1070
     1
1070
     1
1002
{
1002
}
1000
M
1070
     0
1002
{
1002
}
1000
I
1070
     0
1002
{
1002
}
1002
}
1000
GEN-ISO-AXE-H
1070
     5
1002
{
1000
NAME
1070
     4
1000
GEN-ISO-AXE-H
1002
{
1002
}
1000
DIMBLK1
1070
     4
1000
GENAXEH
1002
{
1002
}
1000
DIMLFAC
1070
     2
1040
2.0
1002
{
1002
}
1000
DIMSAH
1070
     1
1070
     1
1002
{
1002
}
1000
DIMSE1
1070
     1
1070
     1
1002
{
1002
}
1000
DIMSE2
1070
     1
1070
     1
1002
{
1002
}
1000
DIMTAD
1070
     1
1070
     1
1002
{
1002
}
1000
DIMTOLJ
1070
     1
1070
     0
1002
{
1002
}
1000
DIMTOFL
1070
     1
1070
     1
1002
{
1002
}
1000
M
1070
     0
1002
{
1002
}
1000
I
1070
     0
1002
{
1002
}
1002
}
1000
GEN-ANSI
1070
     5
1002
{
1000
NAME
1070
     4
1000
GEN-ANSI
1002
{
1002
}
1000
DIMTIH
1070
     1
1070
     1
1002
{
1002
}
1000
DIMTOH
1070
     1
1070
     1
1002
{
1002
}
1000
DIMTAD
1070
     1
1070
     0
1002
{
1002
}
1000
DIMTOLJ
1070
     1
1070
     1
1002
{
1002
}
1000
M
1070
     0
1002
{
1002
}
1000
I
1070
     0
1002
{
1002
}
1002
}
1000
GEN-ANSI-POS
1070
     5
1002
{
1000
NAME
1070
     4
1000
GEN-ANSI-POS
1002
{
1002
}
1000
DIMTOLJ
1070
     1
1070
     1
1002
{
1002
}
1000
DIMTXSTY
1070
     4
1000
STANDARD
1002
{
1002
}
1000
M
1070
     0
1002
{
1000
DIMASZ
1070
     2
1040
2.5
1002
{
1002
}
1000
DIMGAP
1070
     2
1040
1.5
1002
{
1002
}
1000
DIMTXT
1070
     2
1040
5.0
1002
{
1002
}
1002
}
1000
I
1070
     0
1002
{
1000
DIMASZ
1070
     2
1040
0.1
1002
{
1002
}
1000
DIMGAP
1070
     2
1040
0.06
1002
{
1002
}
1000
DIMTXT
1070
     2
1040
0.2
1002
{
1002
}
1002
}
1002
}
1000
GEN-ANSI-CIR
1070
     5
1002
{
1000
NAME
1070
     4
1000
GEN-ANSI$3
1002
{
1002
}
1000
DIMFIT
1070
     1
1070
     0
1002
{
1002
}
1000
DIMTAD
1070
     1
1070
     0
1002
{
1002
}
1000
DIMTIH
1070
     1
1070
     1
1002
{
1002
}
1000
DIMTIX
1070
     1
1070
     0
1002
{
1002
}
1000
DIMTOFL
1070
     1
1070
     0
1002
{
1002
}
1000
DIMTOH
1070
     1
1070
     1
1002
{
1002
}
1000
DIMTOLJ
1070
     1
1070
     1
1002
{
1002
}
1000
DIMUPT
1070
     1
1070
     1
1002
{
1002
}
1000
M
1070
     0
1002
{
1002
}
1000
I
1070
     0
1002
{
1002
}
1002
}
1000
GEN-ANSI-RAD
1070
     5
1002
{
1000
NAME
1070
     4
1000
GEN-ANSI$4
1002
{
1002
}
1000
DIMFIT
1070
     1
1070
     0
1002
{
1002
}
1000
DIMTAD
1070
     1
1070
     0
1002
{
1002
}
1000
DIMTIH
1070
     1
1070
     1
1002
{
1002
}
1000
DIMTIX
1070
     1
1070
     0
1002
{
1002
}
1000
DIMTOFL
1070
     1
1070
     0
1002
{
1002
}
1000
DIMTOH
1070
     1
1070
     1
1002
{
1002
}
1000
DIMTOLJ
1070
     1
1070
     1
1002
{
1002
}
1000
DIMUPT
1070
     1
1070
     1
1002
{
1002
}
1000
M
1070
     0
1002
{
1002
}
1000
I
1070
     0
1002
{
1002
}
1002
}
1000
GEN-ANSI-ORD
1070
     5
1002
{
1000
NAME
1070
     4
1000
GEN-ANSI$6
1002
{
1002
}
1000
DIMTAD
1070
     1
1070
     0
1002
{
1002
}
1000
DIMTIH
1070
     1
1070
     1
1002
{
1002
}
1000
DIMTOH
1070
     1
1070
     1
1002
{
1002
}
1000
DIMTOLJ
1070
     1
1070
     1
1002
{
1002
}
1000
M
1070
     0
1002
{
1002
}
1000
I
1070
     0
1002
{
1002
}
1002
}
1000
GEN-ANSI-AXE-F
1070
     5
1002
{
1000
NAME
1070
     4
1000
GEN-ANSI-AXE-F
1002
{
1002
}
1000
DIMBLK1
1070
     4
1000
GENAXEH
1002
{
1002
}
1000
DIMSAH
1070
     1
1070
     1
1002
{
1002
}
1000
DIMSE1
1070
     1
1070
     1
1002
{
1002
}
1000
DIMSE2
1070
     1
1070
     1
1002
{
1002
}
1000
DIMTAD
1070
     1
1070
     0
1002
{
1002
}
1000
DIMTIH
1070
     1
1070
     1
1002
{
1002
}
1000
DIMTOH
1070
     1
1070
     1
1002
{
1002
}
1000
DIMTOLJ
1070
     1
1070
     1
1002
{
1002
}
1000
M
1070
     0
1002
{
1002
}
1000
I
1070
     0
1002
{
1002
}
1002
}
1000
GEN-ANSI-AXE-H
1070
     5
1002
{
1000
NAME
1070
     4
1000
GEN-ANSI-AXE-H
1002
{
1002
}
1000
DIMBLK1
1070
     4
1000
GENAXEH
1002
{
1002
}
1000
DIMLFAC
1070
     2
1040
2.0
1002
{
1002
}
1000
DIMSAH
1070
     1
1070
     1
1002
{
1002
}
1000
DIMSE1
1070
     1
1070
     1
1002
{
1002
}
1000
DIMSE2
1070
     1
1070
     1
1002
{
1002
}
1000
DIMTAD
1070
     1
1070
     0
1002
{
1002
}
1000
DIMTOFL
1070
     1
1070
     1
1002
{
1002
}
1000
DIMTOLJ
1070
     1
1070
     1
1002
{
1002
}
1000
M
1070
     0
1002
{
1002
}
1000
I
1070
     0
1002
{
1002
}
1002
}
1002
}
1000
DimSet
1070
     0
1002
{
1000
ChainSum
1070
     3
1070
     0
1002
{
1002
}
1000
DimDclTyp0
1070
     4
1000
dim23
1002
{
1002
}
1000
HorBra
1070
     3
1070
     0
1002
{
1002
}
1000
StrDia
1070
     4
1000
%%c<>
1002
{
1002
}
1000
StrRad
1070
     4
1000
R<>
1002
{
1002
}
1000
TextMinus
1070
     4
1000
<>
1002
{
1002
}
1000
TextPlus
1070
     4
1000
<>
1002
{
1002
}
1000
M
1070
     0
1002
{
1000
DimdliFirst
1070
     2
1040
10.0
1002
{
1002
}
1000
PointMakeDist
1070
     2
1040
10.0
1002
{
1002
}
1002
}
1000
I
1070
     0
1002
{
1000
DimdliFirst
1070
     2
1040
0.5
1002
{
1002
}
1000
PointMakeDist
1070
     2
1040
0.5
1002
{
1002
}
1002
}
1000
FitGrade
1070
     4
1000
h7
1002
{
1002
}
1002
}
1000
Drawing
1070
     0
1002
{
1000
ChamferDimMode
1070
     1
1070
     2
1002
{
1002
}
1000
Gen_Fiso
1070
    -3
1040
1.0
1002
{
1002
}
1000
GenDimStil
1070
     4
1000
ISO
1002
{
1002
}
1000
GenDwgUScale
1070
     2
1040
1.0
1002
{
1002
}
1000
GenInch
1070
     4
1000
M
1002
{
1002
}
1000
GenPlotScale
1070
     4
1000
1:5
1002
{
1002
}
1000
Revisi
1070
     4
1000
0
1002
{
1002
}
1000
Version
1070
    -5
1000
14.01/Apr  1 1998
1002
{
1002
}
1000
Platform
1070
    -5
1000
WINNT
1002
{
1002
}
1002
}
1000
DwgVar
1070
     0
1002
{
1000
M
1070
     0
1002
{
1000
FILLETRAD
1070
     2
1040
0.000001
1002
{
1002
}
1000
LIMMAX
1070
     6
1010
-1.000000000000000E+20
1020
0.0
1030
0.0
1002
{
1002
}
1002
}
1000
I
1070
     0
1002
{
1002
}
1002
}
1000
Hatch
1070
     0
1002
{
1000
GenHtcFlag
1070
     3
1070
     0
1002
{
1002
}
1002
}
1000
Info_Pos
1070
     0
1002
{
1000
>
1002
}
1000
Layer
1070
     7
1002
{
1000
Defs
1070
     0
1002
{
1000
>
1002
}
1000
EntSort
1070
     0
1002
{
1000
>
1002
}
1000
Match
1070
     0
1002
{
1002
}
1000
Settings
1070
     0
1002
{
1000
FocGrNC
1070
     3
1070
     0
1002
{
1002
}
1000
FocGrLo
1070
     3
1070
     0
1002
{
1002
}
1000
FocLoNC
1070
     3
1070
     0
1002
{
1002
}
1000
FocusCol
1070
     1
1070
   253
1002
{
1002
}
1000
GenStdLG
1070
     4
1000

1002
{
1002
}
1000
LayMatch
1070
     3
1070
     0
1002
{
1002
}
1000
LgOff
1070
     3
1070
     0
1002
{
1002
}
1000
CurLG
1070
    -5
1000

1002
{
1002
}
1002
}
1002
}
1000
LType
1070
     0
1002
{
1000
GEN3
1070
     8
1000
genius.lin
1002
{
1002
}
1000
GEN7
1070
     8
1000
genius.lin
1002
{
1002
}
1000
GEN4A
1070
     8
1000
genius.lin
1002
{
1002
}
1000
GEN3A
1070
     8
1000
genius.lin
1002
{
1002
}
1000
GEN7A
1070
     8
1000
genius.lin
1002
{
1002
}
1000
GENZIGZAG
1070
     8
1000
genius.lin
1002
{
1002
}
1002
}
1000
Objecter
1070
     0
1002
{
1000
CreateGroups
1070
     3
1070
     0
1002
{
1002
}
1000
LaySwitch
1070
     3
1070
     1
1002
{
1002
}
1000
LastObj
1070
    -5
1000
136A
1002
{
1002
}
1000
TimeStamp
1070
    -5
1000
20000627.14201772
1002
{
1002
}
1002
}
1000
OSWiz
1070
     0
1002
{
1000
Filter
1070
     0
1002
{
1000
HATCH
1070
     9
1002
{
1000
EntityType
1070
     4
1000
LINE
1002
{
1002
}
1000
Layer
1070
     4
1000
8,8N,*-8,*-8N
1002
{
1002
}
1000
Linetype
1070
     4
1000
*
1002
{
1002
}
1000
Color
1070
     4
1000
*
1002
{
1002
}
1000
ApplyInDims
1070
     3
1070
     1
1002
{
1002
}
1002
}
1000
SYMBOLS
1070
     9
1002
{
1000
EntityType
1070
     4
1000
*
1002
{
1002
}
1000
Layer
1070
     4
1000
[5-6],[5-6]N,*-[5-6],*-[5-6]N
1002
{
1002
}
1000
Linetype
1070
     4
1000
*
1002
{
1002
}
1000
Color
1070
     4
1000
*
1002
{
1002
}
1000
ApplyInDims
1070
     3
1070
     1
1002
{
1002
}
1002
}
1000
FEM
1070
     9
1002
{
1000
EntityType
1070
     4
1000
*
1002
{
1002
}
1000
Layer
1070
     4
1000
4A,4AN,*-4A,*-4AN
1002
{
1002
}
1000
Linetype
1070
     4
1000
*
1002
{
1002
}
1000
Color
1070
     4
1000
*
1002
{
1002
}
1000
ApplyInDims
1070
     3
1070
     1
1002
{
1002
}
1002
}
1002
}
1002
}
1000
PaList
1070
     0
1002
{
1000
AutoUpdatePartList
1070
     1
1070
     0
1002
{
1002
}
1000
ReadInfoPoint
1070
     3
1070
     0
1002
{
1002
}
1000
ReadPosNr
1070
     3
1070
     1
1002
{
1002
}
1000
RevStr
1070
     4
1000
0
1002
{
1002
}
1002
}
1000
Paper
1070
     0
1002
{
1002
}
1000
PartDB
1070
     0
1002
{
1000
GenDbOwner
1070
     4
1000

1002
{
1002
}
1002
}
1000
System
1070
     0
1002
{
1000
Menu
1070
     4
1000
GEV
1002
{
1002
}
1002
}
1000
Title
1070
     0
1002
{
1000
MakeView
1070
     1
1070
     2
1002
{
1002
}
1002
}
1000
Tools
1070
     0
1002
{
1000
Trans
1070
     0
1002
{
1000
Drawingtranslation
1070
    -4
1070
     1
1002
{
1002
}
1000
upreserve
1070
     3
1070
     0
1002
{
1002
}
1000
originally_on
1070
    -4
1070
     0
1002
{
1002
}
1000
sourcelang
1070
    -5
1000
D
1002
{
1002
}
1002
}
1002
}
  0
APPID
  5
1338
330
12CB
100
AcDbSymbolTableRecord
100
AcDbRegAppTableRecord
  2
GENIUS_GEVCFG0_13
 70
     0
1001
GENIUS_GENCFG_13
1071
962108423
1000
1338
1000
GEV
1070
     1
1000
GenCfgObject
1000
VED
1070
     0
1002
{
1002
}
  0
APPID
  5
1339
330
12CB
100
AcDbSymbolTableRecord
100
AcDbRegAppTableRecord
  2
GEV_VCCNULL_SWITCH_OFF
 70
     0
  0
APPID
  5
133A
330
12CB
100
AcDbSymbolTableRecord
100
AcDbRegAppTableRecord
  2
GENIUS_GENDTOL_13
 70
     0
  0
APPID
  5
133B
330
12CB
100
AcDbSymbolTableRecord
100
AcDbRegAppTableRecord
  2
GENIUS_GENOENT_13
 70
     0
  0
APPID
  5
133C
330
12CB
100
AcDbSymbolTableRecord
100
AcDbRegAppTableRecord
  2
GENIUS_GENBLLY_14
 70
     0
  0
APPID
  5
133D
330
12CB
100
AcDbSymbolTableRecord
100
AcDbRegAppTableRecord
  2
GENIUS_GENODEF_13
 70
     0
  0
APPID
  5
133E
330
12CB
100
AcDbSymbolTableRecord
100
AcDbRegAppTableRecord
  2
GENIUS_GENOBJ-N-CRS_13
 70
     0
  0
APPID
  5
133F
330
12CB
100
AcDbSymbolTableRecord
100
AcDbRegAppTableRecord
  2
GENIUS_GENOREF_13
 70
     0
  0
APPID
  5
1340
330
12CB
100
AcDbSymbolTableRecord
100
AcDbRegAppTableRecord
  2
GENIUS_GENOLIS_13
 70
     0
  0
APPID
  5
1341
330
12CB
100
AcDbSymbolTableRecord
100
AcDbRegAppTableRecord
  2
GENIUS_GEFCFG0_13
 70
     0
  0
APPID
  5
1342
330
12CB
100
AcDbSymbolTableRecord
100
AcDbRegAppTableRecord
  2
GENIUS_VERSION2
 70
     0
  0
APPID
  5
1343
330
12CB
100
AcDbSymbolTableRecord
100
AcDbRegAppTableRecord
  2
GENIUS_GENREC_14
 70
     0
  0
APPID
  5
1344
330
12CB
100
AcDbSymbolTableRecord
100
AcDbRegAppTableRecord
  2
GENIUS_GENOBJ-N-REC_13
 70
     0
  0
APPID
  5
1345
330
12CB
100
AcDbSymbolTableRecord
100
AcDbRegAppTableRecord
  2
GENIUS_GENOBJ-N-TIT_13
 70
     0
  0
APPID
  5
1346
330
12CB
100
AcDbSymbolTableRecord
100
AcDbRegAppTableRecord
  2
GENIUS_GENTITLE_13
 70
     0
  0
APPID
  5
1347
330
12CB
100
AcDbSymbolTableRecord
100
AcDbRegAppTableRecord
  2
GENIUS_GENZVEED_13
 70
     0
  0
APPID
  5
1348
330
12CB
100
AcDbSymbolTableRecord
100
AcDbRegAppTableRecord
  2
GENIUS_GENOBJ-N-SDF_13
 70
     0
  0
APPID
  5
1349
330
12CB
100
AcDbSymbolTableRecord
100
AcDbRegAppTableRecord
  2
GENIUS_GENSCREG_13
 70
     0
  0
APPID
  5
134A
330
12CB
100
AcDbSymbolTableRecord
100
AcDbRegAppTableRecord
  2
GENIUS_GENBLKED_14
 70
     0
  0
APPID
  5
14CD
330
12CB
100
AcDbSymbolTableRecord
100
AcDbRegAppTableRecord
  2
MCAD_NO_VIS
 70
     0
  0
APPID
  5
14CE
330
12CB
100
AcDbSymbolTableRecord
100
AcDbRegAppTableRecord
  2
ACAD_TEMP_GRAPHIC
 70
     0
  0
APPID
  5
14FE
330
12CB
100
AcDbSymbolTableRecord
100
AcDbRegAppTableRecord
  2
AD_DRAW
 70
     0
  0
APPID
  5
1501
330
12CB
100
AcDbSymbolTableRecord
100
AcDbRegAppTableRecord
  2
ACATTRIBSERVICES
 70
     0
  0
APPID
  5
1521
330
12CB
100
AcDbSymbolTableRecord
100
AcDbRegAppTableRecord
  2
DESIGNERASSEMBLIES
 70
     0
  0
APPID
  5
1527
330
12CB
100
AcDbSymbolTableRecord
100
AcDbRegAppTableRecord
  2
ACADM_DIM_EDIT
 70
     0
  0
APPID
  5
1528
330
12CB
100
AcDbSymbolTableRecord
100
AcDbRegAppTableRecord
  2
AMDT_DM_ADJ
 70
     0
  0
APPID
  5
155A
330
12CB
100
AcDbSymbolTableRecord
100
AcDbRegAppTableRecord
  2
ACAD_DSTYLE_DIMARC_LENGTH_SYMBOL
 70
     0
  0
APPID
  5
155B
330
12CB
100
AcDbSymbolTableRecord
100
AcDbRegAppTableRecord
  2
ACAD_DSTYLE_DIMJOGGED_JOGANGLE_SYMBOL
 70
     0
  0
APPID
  5
1597
330
12CB
100
AcDbSymbolTableRecord
100
AcDbRegAppTableRecord
  2
GENIUS_GENDIMSH_14
 70
     0
  0
APPID
  5
15AB
330
12CB
100
AcDbSymbolTableRecord
100
AcDbRegAppTableRecord
  2
AcAecLayerStandard
 70
     0
  0
APPID
  5
15B2
330
12CB
100
AcDbSymbolTableRecord
100
AcDbRegAppTableRecord
  2
GENIUS_GENOBJ-N-HTC_13
 70
     0
  0
APPID
  5
15B3
330
12CB
100
AcDbSymbolTableRecord
100
AcDbRegAppTableRecord
  2
GENIUS_GENHATCH_13
 70
     0
  0
ENDTAB
  0
TABLE
  2
DIMSTYLE
  5
12CC
330
0
100
AcDbSymbolTable
 70
    10
100
AcDbDimStyleTable
 71
     1
340
12F3
  0
DIMSTYLE
105
12F3
102
{ACAD_REACTORS
330
1112
330
111D
330
113B
102
}
330
12CC
100
AcDbSymbolTableRecord
100
AcDbDimStyleTableRecord
  2
GEN-ISO
 70
     0
  4
"
 40
5.0
 41
2.5
 42
1.0
 43
7.0
 44
1.0
 47
0.1
 48
0.1
 73
     0
 74
     0
 77
     1
 78
     8
140
3.5
141
0.0
143
0.03937
146
0.71
147
0.6
172
     1
176
   256
177
   256
178
     2
271
     2
272
     3
274
     4
283
     0
340
12D1
  0
DIMSTYLE
105
1559
330
12CC
100
AcDbSymbolTableRecord
100
AcDbDimStyleTableRecord
  2
AM_DIN
 70
     0
  4
"
 41
2.5
 42
1.0
 43
10.0
 44
1.0
 47
0.1
 48
0.1
 73
     0
 74
     0
 77
     1
 78
     8
 79
     2
140
3.5
141
0.0
143
0.0393701
146
0.71
147
1.5
172
     1
176
   256
177
   256
178
     2
271
     2
272
     3
274
     4
283
     0
284
     8
340
12D1
371
    -1
372
    -1
1001
ACAD_DSTYLE_DIMARC_LENGTH_SYMBOL
1070
   379
1070
     0
1001
ACAD_DSTYLE_DIMJOGGED_JOGANGLE_SYMBOL
1070
   384
1040
1.570796326794896
  0
DIMSTYLE
105
156A
330
12CC
100
AcDbSymbolTableRecord
100
AcDbDimStyleTableRecord
  2
AM_DIN$3
 70
     0
  4
"
 41
2.5
 42
1.0
 43
10.0
 44
1.0
 47
0.1
 48
0.1
 73
     0
 77
     1
 78
     8
 79
     2
140
3.5
141
0.0
143
0.0393701
146
0.71
147
1.5
176
   256
177
   256
178
     2
271
     2
272
     3
274
     4
283
     0
284
     8
288
     1
289
     0
340
12D1
371
    -1
372
    -1
1001
ACAD_DSTYLE_DIMARC_LENGTH_SYMBOL
1070
   379
1070
     0
1001
ACAD_DSTYLE_DIMJOGGED_JOGANGLE_SYMBOL
1070
   384
1040
1.570796326794896
  0
DIMSTYLE
105
156F
330
12CC
100
AcDbSymbolTableRecord
100
AcDbDimStyleTableRecord
  2
AM_DIN$4
 70
     0
  4
"
 41
2.5
 42
1.0
 43
10.0
 44
1.0
 47
0.1
 48
0.1
 73
     0
 77
     1
 78
     8
 79
     2
140
3.5
141
0.0
143
0.0393701
146
0.71
147
1.5
176
   256
177
   256
178
     2
271
     2
272
     3
274
     4
283
     0
284
     8
288
     1
289
     0
340
12D1
371
    -1
372
    -1
1001
ACAD_DSTYLE_DIMARC_LENGTH_SYMBOL
1070
   379
1070
     0
1001
ACAD_DSTYLE_DIMJOGGED_JOGANGLE_SYMBOL
1070
   384
1040
1.570796326794896
  0
DIMSTYLE
105
1574
330
12CC
100
AcDbSymbolTableRecord
100
AcDbDimStyleTableRecord
  2
AM_DIN$6
 70
     0
  4
"
 41
2.5
 42
1.0
 43
10.0
 44
1.0
 47
0.1
 48
0.1
 73
     0
 74
     0
 78
     8
 79
     2
140
3.5
141
0.0
143
0.0393701
146
0.71
147
1.5
172
     1
176
   256
177
   256
178
     2
271
     2
272
     3
274
     4
283
     0
284
     8
340
12D1
371
    -1
372
    -1
1001
ACAD_DSTYLE_DIMARC_LENGTH_SYMBOL
1070
   379
1070
     0
1001
ACAD_DSTYLE_DIMJOGGED_JOGANGLE_SYMBOL
1070
   384
1040
1.570796326794896
  0
DIMSTYLE
105
1579
330
12CC
100
AcDbSymbolTableRecord
100
AcDbDimStyleTableRecord
  2
AM_DIN$7
 70
     0
  4
"
 41
2.5
 42
1.0
 43
10.0
 44
1.0
 47
0.1
 48
0.1
 73
     0
 74
     0
 77
     1
 78
     8
 79
     2
140
5.0
141
0.0
143
0.0393701
146
0.71
147
1.5
172
     1
176
   256
177
   256
178
     2
271
     2
272
     3
274
     4
283
     0
284
     8
340
12D1
371
    -1
372
    -1
1001
ACAD_DSTYLE_DIMARC_LENGTH_SYMBOL
1070
   379
1070
     0
1001
ACAD_DSTYLE_DIMJOGGED_JOGANGLE_SYMBOL
1070
   384
1040
1.570796326794896
  0
DIMSTYLE
105
157E
330
12CC
100
AcDbSymbolTableRecord
100
AcDbDimStyleTableRecord
  2
AM_DIN$SF
 70
     0
  4
"
 41
2.5
 42
1.0
 43
10.0
 44
1.0
 47
0.1
 48
0.1
 73
     0
 74
     0
 75
     1
 76
     1
 77
     1
 78
     8
 79
     2
140
3.5
141
0.0
143
0.0393701
146
0.71
147
1.5
172
     1
176
   256
177
   256
178
     2
271
     2
272
     3
274
     4
283
     0
284
     8
340
12D1
371
    -1
372
    -1
1001
ACAD_DSTYLE_DIMARC_LENGTH_SYMBOL
1070
   379
1070
     0
1001
ACAD_DSTYLE_DIMJOGGED_JOGANGLE_SYMBOL
1070
   384
1040
1.570796326794896
  0
DIMSTYLE
105
1587
330
12CC
100
AcDbSymbolTableRecord
100
AcDbDimStyleTableRecord
  2
AM_DIN$SH
 70
     0
  4
"
 41
2.5
 42
1.0
 43
10.0
 44
1.0
 47
0.1
 48
0.1
 73
     0
 74
     0
 75
     1
 76
     1
 77
     1
 78
     8
 79
     2
140
3.5
141
0.0
143
0.0393701
144
2.0
146
0.71
147
1.5
172
     1
173
     1
176
   256
177
   256
178
     2
271
     2
272
     3
274
     4
283
     0
284
     8
340
12D1
343
157F
371
    -1
372
    -1
1001
ACAD_DSTYLE_DIMARC_LENGTH_SYMBOL
1070
   379
1070
     0
1001
ACAD_DSTYLE_DIMJOGGED_JOGANGLE_SYMBOL
1070
   384
1040
1.570796326794896
  0
ENDTAB
  0
TABLE
  2
BLOCK_RECORD
  5
12C3
330
0
100
AcDbSymbolTable
 70
    17
  0
BLOCK_RECORD
  5
12DA
102
{ACAD_XDICTIONARY
360
1599
102
}
330
12C3
100
AcDbSymbolTableRecord
100
AcDbBlockTableRecord
  2
*MODEL_SPACE
340
14C5
  0
BLOCK_RECORD
  5
12D7
330
12C3
100
AcDbSymbolTableRecord
100
AcDbBlockTableRecord
  2
*PAPER_SPACE
340
14C6
  0
BLOCK_RECORD
  5
12FA
330
12C3
100
AcDbSymbolTableRecord
100
AcDbBlockTableRecord
  2
*X0
340
0
102
{BLKREFS
331
1153
102
}
  0
BLOCK_RECORD
  5
12FB
330
12C3
100
AcDbSymbolTableRecord
100
AcDbBlockTableRecord
  2
*X1
340
0
102
{BLKREFS
331
1165
102
}
  0
BLOCK_RECORD
  5
12FD
330
12C3
100
AcDbSymbolTableRecord
100
AcDbBlockTableRecord
  2
*X3
340
0
102
{BLKREFS
331
11FE
102
}
  0
BLOCK_RECORD
  5
12FE
330
12C3
100
AcDbSymbolTableRecord
100
AcDbBlockTableRecord
  2
*X4
340
0
102
{BLKREFS
331
1217
102
}
  0
BLOCK_RECORD
  5
1307
330
12C3
100
AcDbSymbolTableRecord
100
AcDbBlockTableRecord
  2
KATALOG_LEER
340
0
102
{BLKREFS
331
134C
331
1369
102
}
  0
BLOCK_RECORD
  5
136B
330
12C3
100
AcDbSymbolTableRecord
100
AcDbBlockTableRecord
  2
*D8
340
0
  0
BLOCK_RECORD
  5
138E
330
12C3
100
AcDbSymbolTableRecord
100
AcDbBlockTableRecord
  2
*D10
340
0
  0
BLOCK_RECORD
  5
13DB
330
12C3
100
AcDbSymbolTableRecord
100
AcDbBlockTableRecord
  2
*D13
340
0
  0
BLOCK_RECORD
  5
157F
330
12C3
100
AcDbSymbolTableRecord
100
AcDbBlockTableRecord
  2
GENAXEH
340
0
  0
ENDTAB
  0
ENDSEC
  0
SECTION
  2
BLOCKS
  0
BLOCK
  5
12DB
330
12DA
100
AcDbEntity
  8
0
100
AcDbBlockBegin
  2
*MODEL_SPACE
 70
     0
 10
0.0
 20
0.0
 30
0.0
  3
*MODEL_SPACE
  1

  0
ENDBLK
  5
12DC
330
12DA
100
AcDbEntity
  8
0
100
AcDbBlockEnd
  0
BLOCK
  5
12D8
330
12D7
100
AcDbEntity
 67
     1
  8
0
100
AcDbBlockBegin
  2
*PAPER_SPACE
 70
     0
 10
0.0
 20
0.0
 30
0.0
  3
*PAPER_SPACE
  1

  0
ENDBLK
  5
12D9
330
12D7
100
AcDbEntity
 67
     1
  8
0
100
AcDbBlockEnd
  0
BLOCK
  5
114E
330
12FA
100
AcDbEntity
  8
0
100
AcDbBlockBegin
  2
*X0
 70
     1
 10
0.0
 20
0.0
 30
0.0
  3
*X0
  1

  0
LINE
  5
114F
330
12FA
100
AcDbEntity
  8
8
100
AcDbLine
 10
345.592
 20
450.369
 30
0.0
 11
352.795
 21
443.165
 31
0.0
  0
LINE
  5
1150
330
12FA
100
AcDbEntity
  8
8
100
AcDbLine
 10
355.028
 20
449.913
 30
0.0
 11
365.195
 21
439.745
 31
0.0
  0
LINE
  5
1151
330
12FA
100
AcDbEntity
  8
8
100
AcDbLine
 10
364.505
 20
449.4159999999999
 30
0.0
 11
374.141
 21
439.78
 31
0.0
  0
ENDBLK
  5
1152
330
12FA
100
AcDbEntity
  8
0
100
AcDbBlockEnd
  0
BLOCK
  5
1162
330
12FB
100
AcDbEntity
  8
0
100
AcDbBlockBegin
  2
*X1
 70
     1
 10
0.0
 20
0.0
 30
0.0
  3
*X1
  1

  0
LINE
  5
1163
330
12FB
100
AcDbEntity
  8
8
100
AcDbLine
 10
395.007
 20
445.854
 30
0.0
 11
403.364
 21
437.498
 31
0.0
  0
ENDBLK
  5
1164
330
12FB
100
AcDbEntity
  8
0
100
AcDbBlockEnd
  0
BLOCK
  5
11FA
330
12FD
100
AcDbEntity
  8
0
100
AcDbBlockBegin
  2
*X3
 70
     1
 10
0.0
 20
0.0
 30
0.0
  3
*X3
  1

  0
LINE
  5
11FB
330
12FD
100
AcDbEntity
  8
8
100
AcDbLine
 10
610.979
 20
445.4089999999999
 30
0.0
 11
619.2689999999999
 21
437.119
 31
0.0
  0
LINE
  5
11FC
330
12FD
100
AcDbEntity
  8
8
100
AcDbLine
 10
619.5119999999999
 20
445.8569999999999
 30
0.0
 11
624.7939999999999
 21
440.574
 31
0.0
  0
ENDBLK
  5
11FD
330
12FD
100
AcDbEntity
  8
0
100
AcDbBlockEnd
  0
BLOCK
  5
1211
330
12FE
100
AcDbEntity
  8
0
100
AcDbBlockBegin
  2
*X4
 70
     1
 10
0.0
 20
0.0
 30
0.0
  3
*X4
  1

  0
LINE
  5
1212
330
12FE
100
AcDbEntity
  8
8
100
AcDbLine
 10
645.1659999999999
 20
447.143
 30
0.0
 11
652.2999999999999
 21
440.009
 31
0.0
  0
LINE
  5
1213
330
12FE
100
AcDbEntity
  8
8
100
AcDbLine
 10
651.7789999999999
 20
449.5109999999999
 30
0.0
 11
659.075
 21
442.2139999999999
 31
0.0
  0
LINE
  5
1214
330
12FE
100
AcDbEntity
  8
8
100
AcDbLine
 10
660.312
 20
449.958
 30
0.0
 11
665.659
 21
444.61
 31
0.0
  0
LINE
  5
1215
330
12FE
100
AcDbEntity
  8
8
100
AcDbLine
 10
668.8810000000001
 20
450.369
 30
0.0
 11
670.2410000000001
 21
449.009
 31
0.0
  0
ENDBLK
  5
1216
330
12FE
100
AcDbEntity
  8
0
100
AcDbBlockEnd
  0
BLOCK
  5
1308
330
1307
100
AcDbEntity
  8
0
100
AcDbBlockBegin
  2
KATALOG_LEER
 70
     0
 10
0.0
 20
0.0
 30
0.0
  3
KATALOG_LEER
  1

  0
ENDBLK
  5
1309
330
1307
100
AcDbEntity
  8
0
100
AcDbBlockEnd
  0
BLOCK
  5
14A2
330
136B
100
AcDbEntity
  8
0
100
AcDbBlockBegin
  2
*D8
 70
     1
 10
0.0
 20
0.0
 30
0.0
  3
*D8
  1

  0
LINE
  5
14A3
330
136B
100
AcDbEntity
  8
0
  6
ByBlock
100
AcDbLine
 10
592.677228
 20
449.6588749999999
 30
0.0
 11
592.677228
 21
562.030875
 31
0.0
  0
LINE
  5
14A4
330
136B
100
AcDbEntity
  8
0
  6
ByBlock
100
AcDbLine
 10
232.677228
 20
449.6588749999999
 30
0.0
 11
232.677228
 21
562.030875
 31
0.0
  0
LINE
  5
14A5
330
136B
100
AcDbEntity
  8
0
  6
ByBlock
100
AcDbLine
 10
580.177228
 20
557.030875
 30
0.0
 11
245.177228
 21
557.030875
 31
0.0
  0
SOLID
  5
14A6
330
136B
100
AcDbEntity
  8
0
  6
ByBlock
100
AcDbTrace
 10
580.177228
 20
559.1142089999999
 30
0.0
 11
580.177228
 21
554.947542
 31
0.0
 12
592.677228
 22
557.030875
 32
0.0
 13
592.677228
 23
557.030875
 33
0.0
  0
SOLID
  5
14A7
330
136B
100
AcDbEntity
  8
0
  6
ByBlock
100
AcDbTrace
 10
245.177228
 20
559.1142089999999
 30
0.0
 11
245.177228
 21
554.947542
 31
0.0
 12
232.677228
 22
557.030875
 32
0.0
 13
232.677228
 23
557.030875
 33
0.0
  0
MTEXT
  5
14A8
330
136B
100
AcDbEntity
  8
0
  6
ByBlock
 62
     2
100
AcDbMText
 10
412.6772279999999
 20
568.780875
 30
0.0
 40
17.5
 41
0.0
 71
     5
 72
     1
  1
\U+2205 360
 73
     1
 44
1.0
1001
ACAD
1000
MTEXTBEGIN
1070
    73
1070
     1
1070
    44
1040
1.0
1070
    74
1070
     0
1000
MTEXTEND
  0
POINT
  5
14A9
330
136B
100
AcDbEntity
  8
DEFPOINTS
  6
ByBlock
 62
     0
100
AcDbPoint
 10
592.677228
 20
444.658875
 30
0.0
  0
POINT
  5
14AA
330
136B
100
AcDbEntity
  8
DEFPOINTS
  6
ByBlock
 62
     0
100
AcDbPoint
 10
232.677228
 20
444.658875
 30
0.0
  0
POINT
  5
14AB
330
136B
100
AcDbEntity
  8
DEFPOINTS
  6
ByBlock
 62
     0
100
AcDbPoint
 10
232.677228
 20
557.030875
 30
0.0
  0
ENDBLK
  5
14AC
330
136B
100
AcDbEntity
  8
0
100
AcDbBlockEnd
  0
BLOCK
  5
139A
330
138E
100
AcDbEntity
  8
0
100
AcDbBlockBegin
  2
*D10
 70
     1
 10
0.0
 20
0.0
 30
0.0
  3
*D10
  1

  0
LINE
  5
15EC
330
138E
100
AcDbEntity
  8
5
370
    -2
100
AcDbLine
 10
232.276228
 20
454.658875
 30
0.0
 11
184.2479020752108
 21
454.658875
 31
0.0
  0
LINE
  5
15ED
330
138E
100
AcDbEntity
  8
5
370
    -2
100
AcDbLine
 10
407.6782279999999
 20
224.658875
 30
0.0
 11
184.2479020752107
 21
224.6588750000001
 31
0.0
  0
LINE
  5
15EE
330
138E
100
AcDbEntity
  8
5
370
    -2
100
AcDbLine
 10
189.2479020752108
 20
442.158875
 30
0.0
 11
189.2479020752107
 21
237.1588750000001
 31
0.0
  0
SOLID
  5
15EF
330
138E
100
AcDbEntity
  8
5
100
AcDbTrace
 10
187.1645687418774
 20
442.158875
 30
0.0
 11
191.3312354085441
 21
442.158875
 31
0.0
 12
189.2479020752108
 22
454.658875
 32
0.0
 13
189.2479020752108
 23
454.658875
 33
0.0
  0
SOLID
  5
15F0
330
138E
100
AcDbEntity
  8
5
100
AcDbTrace
 10
187.1645687418774
 20
237.1588750000001
 30
0.0
 11
191.3312354085441
 21
237.1588750000001
 31
0.0
 12
189.2479020752107
 22
224.6588750000001
 32
0.0
 13
189.2479020752107
 23
224.6588750000001
 33
0.0
  0
MTEXT
  5
15F1
330
138E
100
AcDbEntity
  8
5
 62
     2
100
AcDbMText
 10
177.4961796342658
 20
335.947875
 30
0.0
 40
17.5
 41
0.0
 71
     5
 72
     1
  1
230
 11
0.0000000000000001
 21
1.0
 31
0.0
 73
     1
 44
1.0
1001
ACAD
1000
MTEXTBEGIN
1070
    73
1070
     1
1070
    44
1040
1.0
1070
    74
1070
     0
1000
MTEXTEND
  0
POINT
  5
15F2
330
138E
100
AcDbEntity
  8
DEFPOINTS
 62
     0
100
AcDbPoint
 10
237.276228
 20
454.658875
 30
0.0
  0
POINT
  5
15F3
330
138E
100
AcDbEntity
  8
DEFPOINTS
 62
     0
100
AcDbPoint
 10
412.6782279999999
 20
224.658875
 30
0.0
  0
POINT
  5
15F4
330
138E
100
AcDbEntity
  8
DEFPOINTS
 62
     0
100
AcDbPoint
 10
189.2479020752107
 20
224.6588750000001
 30
0.0
  0
ENDBLK
  5
13A4
330
138E
100
AcDbEntity
  8
0
100
AcDbBlockEnd
  0
BLOCK
  5
142B
330
13DB
100
AcDbEntity
  8
0
100
AcDbBlockBegin
  2
*D13
 70
     1
 10
0.0
 20
0.0
 30
0.0
  3
*D13
  1

  0
LINE
  5
142C
330
13DB
100
AcDbEntity
  8
0
  6
ByBlock
100
AcDbLine
 10
312.6772279999999
 20
463.658875
 30
0.0
 11
312.6772279999999
 21
527.030875
 31
0.0
  0
LINE
  5
142D
330
13DB
100
AcDbEntity
  8
0
  6
ByBlock
100
AcDbLine
 10
512.6782279999999
 20
463.658875
 30
0.0
 11
512.6782279999999
 21
527.030875
 31
0.0
  0
LINE
  5
142E
330
13DB
100
AcDbEntity
  8
0
  6
ByBlock
100
AcDbLine
 10
325.1772279999999
 20
522.030875
 30
0.0
 11
500.178228
 21
522.030875
 31
0.0
  0
SOLID
  5
142F
330
13DB
100
AcDbEntity
  8
0
  6
ByBlock
100
AcDbTrace
 10
325.1772279999999
 20
524.1142089999999
 30
0.0
 11
325.1772279999999
 21
519.9475419999999
 31
0.0
 12
312.6772279999999
 22
522.030875
 32
0.0
 13
312.6772279999999
 23
522.030875
 33
0.0
  0
SOLID
  5
1430
330
13DB
100
AcDbEntity
  8
0
  6
ByBlock
100
AcDbTrace
 10
500.178228
 20
524.1142089999999
 30
0.0
 11
500.178228
 21
519.9475419999999
 31
0.0
 12
512.6782279999999
 22
522.030875
 32
0.0
 13
512.6782279999999
 23
522.030875
 33
0.0
  0
MTEXT
  5
1431
330
13DB
100
AcDbEntity
  8
0
  6
ByBlock
 62
     2
100
AcDbMText
 10
412.6777279999999
 20
533.7825979999999
 30
0.0
 40
17.5
 41
0.0
 71
     5
 72
     1
  1
\U+2205 200
 73
     1
 44
1.0
1001
ACAD
1000
MTEXTBEGIN
1070
    73
1070
     1
1070
    44
1040
1.0
1070
    74
1070
     0
1000
MTEXTEND
  0
POINT
  5
1432
330
13DB
100
AcDbEntity
  8
DEFPOINTS
  6
ByBlock
 62
     0
100
AcDbPoint
 10
312.6772279999999
 20
458.658875
 30
0.0
  0
POINT
  5
1433
330
13DB
100
AcDbEntity
  8
DEFPOINTS
  6
ByBlock
 62
     0
100
AcDbPoint
 10
512.6782279999999
 20
458.658875
 30
0.0
  0
POINT
  5
1434
330
13DB
100
AcDbEntity
  8
DEFPOINTS
  6
ByBlock
 62
     0
100
AcDbPoint
 10
512.6782279999999
 20
522.030875
 30
0.0
  0
ENDBLK
  5
1435
330
13DB
100
AcDbEntity
  8
0
100
AcDbBlockEnd
  0
BLOCK
  5
1581
330
157F
100
AcDbEntity
  8
0
100
AcDbBlockBegin
  2
GENAXEH
 70
     0
 10
0.0
 20
0.0
 30
0.0
  3
GENAXEH
  1

  0
LINE
  5
1580
330
157F
100
AcDbEntity
  8
0
100
AcDbLine
 10
-1.0
 20
0.0
 30
0.0
 11
1.0
 21
0.0
 31
0.0
  0
ENDBLK
  5
1582
330
157F
100
AcDbEntity
  8
0
100
AcDbBlockEnd
  0
ENDSEC
  0
SECTION
  2
ENTITIES
  0
POINT
  5
1001
330
12DA
100
AcDbEntity
  8
PUNKTE
100
AcDbPoint
 10
512.6782279999999
 20
458.658875
 30
0.0
  0
POINT
  5
1002
330
12DA
100
AcDbEntity
  8
PUNKTE
100
AcDbPoint
 10
312.6772279999999
 20
458.658875
 30
0.0
  0
POINT
  5
1003
330
12DA
100
AcDbEntity
  8
PUNKTE
100
AcDbPoint
 10
357.678228
 20
226.4008750000001
 30
0.0
  0
POINT
  5
1004
330
12DA
100
AcDbEntity
  8
PUNKTE
100
AcDbPoint
 10
467.678228
 20
226.3998750000001
 30
0.0
  0
LINE
  5
1005
330
12DA
100
AcDbEntity
  8
7
100
AcDbLine
 10
412.6782279999999
 20
479.922875
 30
0.0
 11
412.6782279999999
 21
203.658875
 31
0.0
  0
LINE
  5
1006
330
12DA
100
AcDbEntity
  8
0
100
AcDbLine
 10
506.339228
 20
442.658875
 30
0.0
 11
426.116228
 21
442.658875
 31
0.0
  0
LINE
  5
1007
330
12DA
100
AcDbEntity
  8
0
100
AcDbLine
 10
506.156228
 20
439.158875
 30
0.0
 11
499.561228
 21
439.158875
 31
0.0
  0
LINE
  5
1008
330
12DA
100
AcDbEntity
  8
0
100
AcDbLine
 10
425.1772279999999
 20
439.158875
 30
0.0
 11
426.115228
 21
442.658875
 31
0.0
  0
LINE
  5
1009
330
12DA
100
AcDbEntity
  8
0
100
AcDbLine
 10
400.1782279999999
 20
439.158875
 30
0.0
 11
399.240228
 21
442.659875
 31
0.0
  0
LINE
  5
100A
330
12DA
100
AcDbEntity
  8
0
100
AcDbLine
 10
325.795228
 20
439.158875
 30
0.0
 11
319.200228
 21
439.158875
 31
0.0
  0
LINE
  5
100B
330
12DA
100
AcDbEntity
  8
0
100
AcDbLine
 10
425.178228
 20
439.158875
 30
0.0
 11
400.1782279999999
 21
439.158875
 31
0.0
  0
LINE
  5
100C
330
12DA
100
AcDbEntity
  8
0
100
AcDbLine
 10
399.240228
 20
442.658875
 30
0.0
 11
319.017228
 21
442.658875
 31
0.0
  0
LINE
  5
100D
330
12DA
100
AcDbEntity
  8
0
100
AcDbLine
 10
325.1772279999999
 20
442.659875
 30
0.0
 11
327.1772279999999
 21
431.317875
 31
0.0
  0
LINE
  5
100E
330
12DA
100
AcDbEntity
  8
0
100
AcDbLine
 10
500.178228
 20
442.658875
 30
0.0
 11
498.178228
 21
431.3168749999999
 31
0.0
  0
LINE
  5
100F
330
12DA
100
AcDbEntity
  8
0
100
AcDbLine
 10
498.178228
 20
431.3168749999999
 30
0.0
 11
327.178228
 21
431.3168749999999
 31
0.0
  0
LINE
  5
1010
330
12DA
100
AcDbEntity
  8
0
100
AcDbLine
 10
318.177228
 20
458.657875
 30
0.0
 11
319.200228
 21
439.158875
 31
0.0
  0
LINE
  5
1011
330
12DA
100
AcDbEntity
  8
0
100
AcDbLine
 10
507.178228
 20
458.658875
 30
0.0
 11
506.156228
 21
439.158875
 31
0.0
  0
LINE
  5
1012
330
12DA
100
AcDbEntity
  8
0
100
AcDbLine
 10
249.836228
 20
444.658875
 30
0.0
 11
232.678228
 21
444.658875
 31
0.0
  0
LINE
  5
1013
330
12DA
100
AcDbEntity
  8
0
100
AcDbLine
 10
592.678228
 20
444.658875
 30
0.0
 11
575.519228
 21
444.658875
 31
0.0
  0
LINE
  5
1014
330
12DA
100
AcDbEntity
  8
0
100
AcDbLine
 10
588.080228
 20
454.658875
 30
0.0
 11
572.926228
 21
454.658875
 31
0.0
  0
LINE
  5
1015
330
12DA
100
AcDbEntity
  8
0
100
AcDbLine
 10
232.677228
 20
444.658875
 30
0.0
 11
234.860228
 21
452.805875
 31
0.0
  0
LINE
  5
1016
330
12DA
100
AcDbEntity
  8
0
100
AcDbLine
 10
592.677228
 20
444.658875
 30
0.0
 11
590.494228
 21
452.806875
 31
0.0
  0
ARC
  5
1017
330
12DA
100
AcDbEntity
  8
0
100
AcDbCircle
 10
588.080228
 20
452.158875
 30
0.0
 40
2.5
100
AcDbArc
 50
15.0
 51
107.0
  0
ARC
  5
1018
330
12DA
100
AcDbEntity
  8
0
100
AcDbCircle
 10
237.276228
 20
452.158875
 30
0.0
 40
2.5
100
AcDbArc
 50
73.0
 51
165.0
  0
LINE
  5
1019
330
12DA
100
AcDbEntity
  8
0
100
AcDbLine
 10
370.276228
 20
454.658875
 30
0.0
 11
357.840228
 21
454.658875
 31
0.0
  0
LINE
  5
101A
330
12DA
100
AcDbEntity
  8
0
100
AcDbLine
 10
587.349228
 20
454.548875
 30
0.0
 11
558.678228
 21
445.782875
 31
0.0
  0
LINE
  5
101B
330
12DA
100
AcDbEntity
  8
0
100
AcDbLine
 10
575.519228
 20
444.6578749999999
 30
0.0
 11
559.829228
 21
439.860875
 31
0.0
  0
LINE
  5
101C
330
12DA
100
AcDbEntity
  8
0
100
AcDbLine
 10
238.006228
 20
454.549875
 30
0.0
 11
266.6772279999999
 21
445.783875
 31
0.0
  0
LINE
  5
101D
330
12DA
100
AcDbEntity
  8
0
100
AcDbLine
 10
249.835228
 20
444.658875
 30
0.0
 11
265.526228
 21
439.8618749999999
 31
0.0
  0
LINE
  5
101E
330
12DA
100
AcDbEntity
  8
0
100
AcDbLine
 10
266.678228
 20
445.783875
 30
0.0
 11
281.039228
 21
444.5278749999999
 31
0.0
  0
LINE
  5
101F
330
12DA
100
AcDbEntity
  8
0
100
AcDbLine
 10
558.6772279999999
 20
445.783875
 30
0.0
 11
542.678228
 21
444.383875
 31
0.0
  0
ARC
  5
1020
330
12DA
100
AcDbEntity
  8
0
100
AcDbCircle
 10
537.6782279999999
 20
424.6588749999999
 30
0.0
 40
12.0
100
AcDbArc
 50
190.22
 51
350.0
  0
ARC
  5
1021
330
12DA
100
AcDbEntity
  8
0
100
AcDbCircle
 10
287.678228
 20
424.6588749999999
 30
0.0
 40
12.0
100
AcDbArc
 50
190.243
 51
350.0
  0
LINE
  5
1022
330
12DA
100
AcDbEntity
  8
0
100
AcDbLine
 10
559.829228
 20
439.8618749999999
 30
0.0
 11
554.340228
 21
439.3808749999999
 31
0.0
  0
LINE
  5
1023
330
12DA
100
AcDbEntity
  8
0
100
AcDbLine
 10
265.526228
 20
439.8618749999999
 30
0.0
 11
271.015228
 21
439.381875
 31
0.0
  0
LINE
  5
1024
330
12DA
100
AcDbEntity
  8
0
100
AcDbLine
 10
549.4952279999999
 20
422.574875
 30
0.0
 11
552.0962279999999
 21
437.324875
 31
0.0
  0
LINE
  5
1025
330
12DA
100
AcDbEntity
  8
0
100
AcDbLine
 10
299.496228
 20
422.574875
 30
0.0
 11
301.583228
 21
434.415875
 31
0.0
  0
LINE
  5
1026
330
12DA
100
AcDbEntity
  8
0
100
AcDbLine
 10
275.861228
 20
422.5758749999999
 30
0.0
 11
273.260228
 21
437.3258749999999
 31
0.0
  0
LINE
  5
1027
330
12DA
100
AcDbEntity
  8
0
100
AcDbLine
 10
525.8602279999999
 20
422.574875
 30
0.0
 11
523.772228
 21
434.416875
 31
0.0
  0
LINE
  5
1028
330
12DA
100
AcDbEntity
  8
0
100
AcDbLine
 10
304.263228
 20
436.472875
 30
0.0
 11
313.800228
 21
435.6388749999999
 31
0.0
  0
ARC
  5
1029
330
12DA
100
AcDbEntity
  8
0
100
AcDbCircle
 10
270.7972279999999
 20
436.890875
 30
0.0
 40
2.5
100
AcDbArc
 50
10.001
 51
85.0
  0
ARC
  5
102A
330
12DA
100
AcDbEntity
  8
0
100
AcDbCircle
 10
304.045228
 20
433.981875
 30
0.0
 40
2.5
100
AcDbArc
 50
84.999
 51
170.0009999999999
  0
LINE
  5
102B
330
12DA
100
AcDbEntity
  8
0
100
AcDbLine
 10
521.092228
 20
436.472875
 30
0.0
 11
511.555228
 21
435.637875
 31
0.0
  0
ARC
  5
102C
330
12DA
100
AcDbEntity
  8
0
100
AcDbCircle
 10
554.5582279999999
 20
436.890875
 30
0.0
 40
2.5
100
AcDbArc
 50
94.99700000000002
 51
169.999
  0
ARC
  5
102D
330
12DA
100
AcDbEntity
  8
0
100
AcDbCircle
 10
521.310228
 20
433.981875
 30
0.0
 40
2.5
100
AcDbArc
 50
9.998000000000001
 51
95.0
  0
LINE
  5
102E
330
12DA
100
AcDbEntity
  8
0
100
AcDbLine
 10
513.728228
 20
446.658875
 30
0.0
 11
506.5492279999999
 21
446.658875
 31
0.0
  0
LINE
  5
102F
330
12DA
100
AcDbEntity
  8
0
100
AcDbLine
 10
318.807228
 20
446.658875
 30
0.0
 11
311.628228
 21
446.658875
 31
0.0
  0
LINE
  5
1030
330
12DA
100
AcDbEntity
  8
0
100
AcDbLine
 10
461.178228
 20
224.658875
 30
0.0
 11
364.178228
 21
224.658875
 31
0.0
  0
LINE
  5
1031
330
12DA
100
AcDbEntity
  8
0
100
AcDbLine
 10
464.194228
 20
323.830875
 30
0.0
 11
461.6001787728396
 21
224.7719102816609
 31
0.0
  0
LINE
  5
1032
330
12DA
100
AcDbEntity
  8
0
100
AcDbLine
 10
361.161228
 20
323.830875
 30
0.0
 11
364.178228
 21
224.658875
 31
0.0
  0
LINE
  5
1033
330
12DA
100
AcDbEntity
  8
0
100
AcDbLine
 10
461.178228
 20
224.658875
 30
0.0
 11
467.677228
 21
226.3998750000001
 31
0.0
  0
LINE
  5
1034
330
12DA
100
AcDbEntity
  8
0
100
AcDbLine
 10
364.177228
 20
224.658875
 30
0.0
 11
357.677228
 21
226.4008750000001
 31
0.0
  0
LINE
  5
1035
330
12DA
100
AcDbEntity
  8
0
100
AcDbLine
 10
467.678228
 20
226.3998750000001
 30
0.0
 11
468.695228
 21
268.658875
 31
0.0
  0
LINE
  5
1036
330
12DA
100
AcDbEntity
  8
0
100
AcDbLine
 10
357.677228
 20
226.4008750000001
 30
0.0
 11
356.661228
 21
268.658875
 31
0.0
  0
LINE
  5
1037
330
12DA
100
AcDbEntity
  8
0
100
AcDbLine
 10
468.694228
 20
268.658875
 30
0.0
 11
470.017228
 21
319.179875
 31
0.0
  0
LINE
  5
1038
330
12DA
100
AcDbEntity
  8
0
100
AcDbLine
 10
356.660228
 20
268.658875
 30
0.0
 11
355.337228
 21
319.179875
 31
0.0
  0
LINE
  5
1039
330
12DA
100
AcDbEntity
  8
0
100
AcDbLine
 10
474.463228
 20
324.818875
 30
0.0
 11
498.389228
 21
331.229875
 31
0.0
  0
LINE
  5
103A
330
12DA
100
AcDbEntity
  8
0
100
AcDbLine
 10
350.892228
 20
324.818875
 30
0.0
 11
326.966228
 21
331.229875
 31
0.0
  0
LINE
  5
103B
330
12DA
100
AcDbEntity
  8
0
100
AcDbLine
 10
322.524228
 20
336.815875
 30
0.0
 11
319.275228
 21
429.870875
 31
0.0
  0
LINE
  5
103C
330
12DA
100
AcDbEntity
  8
0
100
AcDbLine
 10
502.8332279999999
 20
336.815875
 30
0.0
 11
506.082228
 21
429.870875
 31
0.0
  0
ARC
  5
103D
330
12DA
100
AcDbEntity
  8
0
100
AcDbCircle
 10
512.079228
 20
429.6608749999999
 30
0.0
 40
6.0
100
AcDbArc
 50
95.0
 51
178.001
  0
ARC
  5
103E
330
12DA
100
AcDbEntity
  8
0
100
AcDbCircle
 10
313.277228
 20
429.6608749999999
 30
0.0
 40
6.0
100
AcDbArc
 50
1.999
 51
85.00100000000001
  0
LINE
  5
103F
330
12DA
100
AcDbEntity
  8
0
100
AcDbLine
 10
327.178228
 20
431.3168749999999
 30
0.0
 11
328.747228
 21
341.463875
 31
0.0
  0
LINE
  5
1040
330
12DA
100
AcDbEntity
  8
0
100
AcDbLine
 10
498.178228
 20
431.3168749999999
 30
0.0
 11
496.609228
 21
341.463875
 31
0.0
  0
ARC
  5
1041
330
12DA
100
AcDbEntity
  8
0
100
AcDbCircle
 10
496.837228
 20
337.024875
 30
0.0
 40
6.0
100
AcDbArc
 50
284.999
 51
358.0
  0
ARC
  5
1042
330
12DA
100
AcDbEntity
  8
0
100
AcDbCircle
 10
476.016228
 20
319.022875
 30
0.0
 40
6.0
100
AcDbArc
 50
105.001
 51
178.5
  0
ARC
  5
1043
330
12DA
100
AcDbEntity
  8
0
100
AcDbCircle
 10
349.340228
 20
319.022875
 30
0.0
 40
6.0
100
AcDbArc
 50
1.500999999999999
 51
75.001
  0
ARC
  5
1044
330
12DA
100
AcDbEntity
  8
0
100
AcDbCircle
 10
328.519228
 20
337.024875
 30
0.0
 40
6.0
100
AcDbArc
 50
182.001
 51
254.999
  0
LINE
  5
1045
330
12DA
100
AcDbEntity
  8
0
100
AcDbLine
 10
468.638228
 20
329.469875
 30
0.0
 11
492.1632279999999
 21
335.772875
 31
0.0
  0
LINE
  5
1046
330
12DA
100
AcDbEntity
  8
0
100
AcDbLine
 10
356.716228
 20
329.469875
 30
0.0
 11
333.192228
 21
335.772875
 31
0.0
  0
ARC
  5
1047
330
12DA
100
AcDbEntity
  8
0
100
AcDbCircle
 10
470.191228
 20
323.673875
 30
0.0
 40
6.0
100
AcDbArc
 50
105.001
 51
178.5
  0
ARC
  5
1048
330
12DA
100
AcDbEntity
  8
0
100
AcDbCircle
 10
490.6102279999999
 20
341.567875
 30
0.0
 40
6.0
100
AcDbArc
 50
285.001
 51
359.0
  0
ARC
  5
1049
330
12DA
100
AcDbEntity
  8
0
100
AcDbCircle
 10
355.164228
 20
323.673875
 30
0.0
 40
6.0
100
AcDbArc
 50
1.5
 51
74.999
  0
ARC
  5
104A
330
12DA
100
AcDbEntity
  8
0
100
AcDbCircle
 10
334.746228
 20
341.568875
 30
0.0
 40
6.0
100
AcDbArc
 50
181.0
 51
255.0
  0
LINE
  5
104B
330
12DA
100
AcDbEntity
  8
4
100
AcDbLine
 10
464.383228
 20
328.309875
 30
0.0
 11
360.973228
 21
328.309875
 31
0.0
  0
LINE
  5
104C
330
12DA
100
AcDbEntity
  8
4
100
AcDbLine
 10
492.432228
 20
336.942875
 30
0.0
 11
332.924228
 21
336.942875
 31
0.0
  0
LINE
  5
104D
330
12DA
100
AcDbEntity
  8
0
100
AcDbLine
 10
292.678228
 20
443.509875
 30
0.0
 11
306.167228
 21
442.328875
 31
0.0
  0
LINE
  5
104E
330
12DA
100
AcDbEntity
  8
0
100
AcDbLine
 10
281.678228
 20
443.420875
 30
0.0
 11
281.039228
 21
444.526875
 31
0.0
  0
LINE
  5
104F
330
12DA
100
AcDbEntity
  8
0
100
AcDbLine
 10
532.6782279999999
 20
443.508875
 30
0.0
 11
516.6352279999999
 21
442.105875
 31
0.0
  0
LINE
  5
1050
330
12DA
100
AcDbEntity
  8
0
100
AcDbLine
 10
542.677228
 20
441.6898749999999
 30
0.0
 11
544.316228
 21
444.5278749999999
 31
0.0
  0
LINE
  5
1051
330
12DA
100
AcDbEntity
  8
0
100
AcDbLine
 10
532.6782279999999
 20
428.4218749999999
 30
0.0
 11
542.678228
 21
428.4218749999999
 31
0.0
  0
LINE
  5
1052
330
12DA
100
AcDbEntity
  8
0
100
AcDbLine
 10
533.678228
 20
422.921875
 30
0.0
 11
541.6782279999999
 21
422.921875
 31
0.0
  0
LINE
  5
1053
330
12DA
100
AcDbEntity
  8
0
100
AcDbLine
 10
282.678228
 20
428.4218749999999
 30
0.0
 11
292.678228
 21
428.4218749999999
 31
0.0
  0
LINE
  5
1054
330
12DA
100
AcDbEntity
  8
0
100
AcDbLine
 10
291.678228
 20
422.921875
 30
0.0
 11
283.678228
 21
422.921875
 31
0.0
  0
LINE
  5
1055
330
12DA
100
AcDbEntity
  8
0
100
AcDbLine
 10
266.678228
 20
445.783875
 30
0.0
 11
282.678228
 21
445.783875
 31
0.0
  0
LINE
  5
1056
330
12DA
100
AcDbEntity
  8
0
100
AcDbLine
 10
281.0402279999999
 20
444.5278749999999
 30
0.0
 11
282.678228
 21
444.5278749999999
 31
0.0
  0
LINE
  5
1057
330
12DA
100
AcDbEntity
  8
0
100
AcDbLine
 10
541.6772279999999
 20
422.9228749999999
 30
0.0
 11
537.6772279999999
 21
420.613875
 31
0.0
  0
LINE
  5
1058
330
12DA
100
AcDbEntity
  8
0
100
AcDbLine
 10
533.6772279999999
 20
422.921875
 30
0.0
 11
537.6772279999999
 21
420.6128749999999
 31
0.0
  0
LINE
  5
1059
330
12DA
100
AcDbEntity
  8
0
100
AcDbLine
 10
291.6772279999999
 20
422.9228749999999
 30
0.0
 11
287.6772279999999
 21
420.613875
 31
0.0
  0
LINE
  5
105A
330
12DA
100
AcDbEntity
  8
0
100
AcDbLine
 10
283.6772279999999
 20
422.921875
 30
0.0
 11
287.6772279999999
 21
420.6128749999999
 31
0.0
  0
LINE
  5
105B
330
12DA
100
AcDbEntity
  8
0
100
AcDbLine
 10
369.922228
 20
446.658875
 30
0.0
 11
361.770228
 21
446.658875
 31
0.0
  0
LINE
  5
105C
330
12DA
100
AcDbEntity
  8
0
100
AcDbLine
 10
359.342228
 20
448.5618749999999
 30
0.0
 11
356.854228
 21
458.659875
 31
0.0
  0
LINE
  5
105D
330
12DA
100
AcDbEntity
  8
0
100
AcDbLine
 10
367.860228
 20
448.273875
 30
0.0
 11
371.790228
 21
458.658875
 31
0.0
  0
LINE
  5
105E
330
12DA
100
AcDbEntity
  8
0
100
AcDbLine
 10
374.557228
 20
458.657875
 30
0.0
 11
372.366228
 21
448.6248749999999
 31
0.0
  0
ARC
  5
105F
330
12DA
100
AcDbEntity
  8
0
100
AcDbCircle
 10
365.522228
 20
449.158875
 30
0.0
 40
2.5
100
AcDbArc
 50
270.002
 51
339.271
  0
ARC
  5
1060
330
12DA
100
AcDbEntity
  8
0
100
AcDbCircle
 10
369.922228
 20
449.158875
 30
0.0
 40
2.5
100
AcDbArc
 50
269.998
 51
347.683
  0
ARC
  5
1061
330
12DA
100
AcDbEntity
  8
0
100
AcDbCircle
 10
361.770228
 20
449.158875
 30
0.0
 40
2.5
100
AcDbArc
 50
193.844
 51
269.998
  0
LINE
  5
1062
330
12DA
100
AcDbEntity
  8
0
100
AcDbLine
 10
455.079228
 20
454.658875
 30
0.0
 11
467.516228
 21
454.658875
 31
0.0
  0
LINE
  5
1063
330
12DA
100
AcDbEntity
  8
0
100
AcDbLine
 10
455.433228
 20
446.658875
 30
0.0
 11
463.586228
 21
446.658875
 31
0.0
  0
LINE
  5
1064
330
12DA
100
AcDbEntity
  8
0
100
AcDbLine
 10
466.013228
 20
448.5608749999999
 30
0.0
 11
468.501228
 21
458.658875
 31
0.0
  0
LINE
  5
1065
330
12DA
100
AcDbEntity
  8
0
100
AcDbLine
 10
457.496228
 20
448.273875
 30
0.0
 11
453.565228
 21
458.658875
 31
0.0
  0
LINE
  5
1066
330
12DA
100
AcDbEntity
  8
0
100
AcDbLine
 10
450.800228
 20
458.658875
 30
0.0
 11
452.991228
 21
448.6248749999999
 31
0.0
  0
ARC
  5
1067
330
12DA
100
AcDbEntity
  8
0
100
AcDbCircle
 10
459.834228
 20
449.158875
 30
0.0
 40
2.5
100
AcDbArc
 50
200.729
 51
269.998
  0
ARC
  5
1068
330
12DA
100
AcDbEntity
  8
0
100
AcDbCircle
 10
455.433228
 20
449.158875
 30
0.0
 40
2.5
100
AcDbArc
 50
192.317
 51
270.003
  0
ARC
  5
1069
330
12DA
100
AcDbEntity
  8
0
100
AcDbCircle
 10
463.586228
 20
449.158875
 30
0.0
 40
2.5
100
AcDbArc
 50
270.002
 51
346.156
  0
LINE
  5
106A
330
12DA
100
AcDbEntity
  8
4
100
AcDbLine
 10
306.167228
 20
442.328875
 30
0.0
 11
308.720228
 21
442.105875
 31
0.0
  0
LINE
  5
106B
330
12DA
100
AcDbEntity
  8
0
100
AcDbLine
 10
312.678228
 20
458.658875
 30
0.0
 11
311.428228
 21
444.378875
 31
0.0
  0
ARC
  5
106C
330
12DA
100
AcDbEntity
  8
0
100
AcDbCircle
 10
308.938228
 20
444.596875
 30
0.0
 40
2.5
100
AcDbArc
 50
265.0
 51
355.0019999999999
  0
LINE
  5
106D
330
12DA
100
AcDbEntity
  8
0
100
AcDbLine
 10
512.6782279999999
 20
458.658875
 30
0.0
 11
513.927228
 21
444.3778749999999
 31
0.0
  0
ARC
  5
106E
330
12DA
100
AcDbEntity
  8
0
100
AcDbCircle
 10
516.418228
 20
444.5958749999999
 30
0.0
 40
2.5
100
AcDbArc
 50
184.999
 51
274.998
  0
LINE
  5
106F
330
12DA
100
AcDbEntity
  8
0
100
AcDbLine
 10
292.678228
 20
442.515875
 30
0.0
 11
282.678228
 21
442.515875
 31
0.0
  0
LINE
  5
1070
330
12DA
100
AcDbEntity
  8
0
100
AcDbLine
 10
283.678228
 20
430.015875
 30
0.0
 11
283.678228
 21
422.921875
 31
0.0
  0
LINE
  5
1071
330
12DA
100
AcDbEntity
  8
0
100
AcDbLine
 10
291.678228
 20
430.015875
 30
0.0
 11
291.678228
 21
422.921875
 31
0.0
  0
LINE
  5
1072
330
12DA
100
AcDbEntity
  8
0
100
AcDbLine
 10
292.678228
 20
442.515875
 30
0.0
 11
292.678228
 21
431.015875
 31
0.0
  0
LINE
  5
1073
330
12DA
100
AcDbEntity
  8
0
100
AcDbLine
 10
282.678228
 20
442.515875
 30
0.0
 11
282.678228
 21
431.015875
 31
0.0
  0
LINE
  5
1074
330
12DA
100
AcDbEntity
  8
0
100
AcDbLine
 10
249.678228
 20
459.753875
 30
0.0
 11
278.231228
 21
459.753875
 31
0.0
  0
LINE
  5
1075
330
12DA
100
AcDbEntity
  8
0
100
AcDbLine
 10
298.680228
 20
455.329875
 30
0.0
 11
309.678228
 21
454.753875
 31
0.0
  0
LINE
  5
1076
330
12DA
100
AcDbEntity
  8
0
100
AcDbLine
 10
275.949228
 20
455.329875
 30
0.0
 11
282.678228
 21
455.329875
 31
0.0
  0
LINE
  5
1077
330
12DA
100
AcDbEntity
  8
0
100
AcDbLine
 10
309.342228
 20
448.3388749999999
 30
0.0
 11
309.678228
 21
454.753875
 31
0.0
  0
LINE
  5
1078
330
12DA
100
AcDbEntity
  8
0
100
AcDbLine
 10
266.678228
 20
449.473875
 30
0.0
 11
282.678228
 21
448.074875
 31
0.0
  0
ARC
  5
1079
330
12DA
100
AcDbEntity
  8
0
100
AcDbCircle
 10
306.845228
 20
448.4698749999999
 30
0.0
 40
2.5
100
AcDbArc
 50
265.001
 51
357.0
  0
LINE
  5
107A
330
12DA
100
AcDbEntity
  8
0
100
AcDbLine
 10
280.339228
 20
450.569875
 30
0.0
 11
281.179228
 21
455.329875
 31
0.0
  0
LINE
  5
107B
330
12DA
100
AcDbEntity
  8
0
100
AcDbLine
 10
295.324228
 20
448.8288749999999
 30
0.0
 11
294.178228
 21
455.330875
 31
0.0
  0
ARC
  5
107C
330
12DA
100
AcDbEntity
  8
0
100
AcDbCircle
 10
297.786228
 20
449.261875
 30
0.0
 40
2.5
100
AcDbArc
 50
190.0
 51
265.0
  0
ARC
  5
107D
330
12DA
100
AcDbEntity
  8
0
100
AcDbCircle
 10
277.877228
 20
451.0038749999999
 30
0.0
 40
2.5
100
AcDbArc
 50
265.0
 51
350.0
  0
LINE
  5
107E
330
12DA
100
AcDbEntity
  8
0
100
AcDbLine
 10
251.783228
 20
459.750875
 30
0.0
 11
272.621228
 21
458.658875
 31
0.0
  0
LINE
  5
107F
330
12DA
100
AcDbEntity
  8
0
100
AcDbLine
 10
275.950228
 20
455.328875
 30
0.0
 11
272.622228
 21
458.657875
 31
0.0
  0
LINE
  5
1080
330
12DA
100
AcDbEntity
  8
0
100
AcDbLine
 10
249.678228
 20
459.753875
 30
0.0
 11
249.678228
 21
457.411875
 31
0.0
  0
LINE
  5
1081
330
12DA
100
AcDbEntity
  8
4
100
AcDbLine
 10
309.342228
 20
448.3388749999999
 30
0.0
 11
309.2062279999999
 21
445.753875
 31
0.0
  0
LINE
  5
1082
330
12DA
100
AcDbEntity
  8
0
100
AcDbLine
 10
251.323228
 20
455.062875
 30
0.0
 11
266.678228
 21
449.473875
 31
0.0
  0
ARC
  5
1083
330
12DA
100
AcDbEntity
  8
0
100
AcDbCircle
 10
252.178228
 20
457.411875
 30
0.0
 40
2.5
100
AcDbArc
 50
180.0
 51
250.0
  0
LINE
  5
1084
330
12DA
100
AcDbEntity
  8
0
100
AcDbLine
 10
297.130228
 20
459.753875
 30
0.0
 11
403.229228
 21
459.753875
 31
0.0
  0
LINE
  5
1085
330
12DA
100
AcDbEntity
  8
0
100
AcDbLine
 10
292.678228
 20
455.329875
 30
0.0
 11
298.680228
 21
455.329875
 31
0.0
  0
LINE
  5
1086
330
12DA
100
AcDbEntity
  8
0
100
AcDbLine
 10
292.678228
 20
447.199875
 30
0.0
 11
309.2062279999999
 21
445.753875
 31
0.0
  0
LINE
  5
1087
330
12DA
100
AcDbEntity
  8
0
100
AcDbLine
 10
309.678228
 20
454.753875
 30
0.0
 11
312.416228
 21
454.753875
 31
0.0
  0
ARC
  5
1088
330
12DA
100
AcDbEntity
  8
0
100
AcDbCircle
 10
412.6782279999999
 20
452.4838749999999
 30
0.0
 40
14.175
100
AcDbArc
 50
70.53499999999999
 51
109.461
  0
ARC
  5
1089
330
12DA
100
AcDbEntity
  8
0
100
AcDbCircle
 10
412.6782279999999
 20
472.8338749999999
 30
0.0
 40
14.175
100
AcDbArc
 50
250.541
 51
289.467
  0
LINE
  5
108A
330
12DA
100
AcDbEntity
  8
0
100
AcDbLine
 10
417.4052279999999
 20
459.469875
 30
0.0
 11
417.4052279999999
 21
465.8478749999999
 31
0.0
  0
LINE
  5
108B
330
12DA
100
AcDbEntity
  8
0
100
AcDbLine
 10
407.9562279999999
 20
459.4708749999999
 30
0.0
 11
407.9552279999999
 21
465.845875
 31
0.0
  0
LINE
  5
108C
330
12DA
100
AcDbEntity
  8
0
100
AcDbLine
 10
419.570228
 20
458.658875
 30
0.0
 11
405.7892279999999
 21
458.658875
 31
0.0
  0
LINE
  5
108D
330
12DA
100
AcDbEntity
  8
0
100
AcDbLine
 10
419.567228
 20
466.658875
 30
0.0
 11
405.7892279999999
 21
466.658875
 31
0.0
  0
LINE
  5
108E
330
12DA
100
AcDbEntity
  8
0
100
AcDbLine
 10
422.129228
 20
459.4678749999999
 30
0.0
 11
421.218228
 21
458.941875
 31
0.0
  0
ARC
  5
108F
330
12DA
100
AcDbEntity
  8
0
100
AcDbCircle
 10
419.766228
 20
462.5058749999999
 30
0.0
 40
3.846999999999999
100
AcDbArc
 50
232.15
 51
292.155
  0
LINE
  5
1090
330
12DA
100
AcDbEntity
  8
0
100
AcDbLine
 10
422.129228
 20
459.471875
 30
0.0
 11
422.131228
 21
465.845875
 31
0.0
  0
ARC
  5
1091
330
12DA
100
AcDbEntity
  8
0
100
AcDbCircle
 10
419.766228
 20
462.8108749999999
 30
0.0
 40
3.848
100
AcDbArc
 50
67.765
 51
127.832
  0
LINE
  5
1092
330
12DA
100
AcDbEntity
  8
0
100
AcDbLine
 10
422.130228
 20
465.8478749999999
 30
0.0
 11
421.223228
 21
466.371875
 31
0.0
  0
ARC
  5
1093
330
12DA
100
AcDbEntity
  8
0
100
AcDbCircle
 10
405.591228
 20
462.507875
 30
0.0
 40
3.848999999999999
100
AcDbArc
 50
247.8140000000001
 51
307.865
  0
LINE
  5
1094
330
12DA
100
AcDbEntity
  8
0
100
AcDbLine
 10
404.139228
 20
458.942875
 30
0.0
 11
403.231228
 21
459.466875
 31
0.0
  0
LINE
  5
1095
330
12DA
100
AcDbEntity
  8
0
100
AcDbLine
 10
403.229228
 20
459.469875
 30
0.0
 11
403.231228
 21
465.843875
 31
0.0
  0
LINE
  5
1096
330
12DA
100
AcDbEntity
  8
0
100
AcDbLine
 10
404.1692279999999
 20
466.387875
 30
0.0
 11
403.2322279999999
 21
465.8478749999999
 31
0.0
  0
ARC
  5
1097
330
12DA
100
AcDbEntity
  8
0
100
AcDbCircle
 10
405.591228
 20
462.8098749999999
 30
0.0
 40
3.848
100
AcDbArc
 50
52.122
 51
111.668
  0
ARC
  5
1098
330
12DA
100
AcDbEntity
  8
0
100
AcDbCircle
 10
287.678228
 20
452.4838749999999
 30
0.0
 40
14.175
100
AcDbArc
 50
70.53499999999999
 51
109.461
  0
ARC
  5
1099
330
12DA
100
AcDbEntity
  8
0
100
AcDbCircle
 10
287.678228
 20
472.8338749999999
 30
0.0
 40
14.175
100
AcDbArc
 50
250.541
 51
289.467
  0
LINE
  5
109A
330
12DA
100
AcDbEntity
  8
0
100
AcDbLine
 10
292.405228
 20
459.469875
 30
0.0
 11
292.405228
 21
465.8478749999999
 31
0.0
  0
LINE
  5
109B
330
12DA
100
AcDbEntity
  8
0
100
AcDbLine
 10
282.956228
 20
459.4708749999999
 30
0.0
 11
282.955228
 21
465.845875
 31
0.0
  0
LINE
  5
109C
330
12DA
100
AcDbEntity
  8
0
100
AcDbLine
 10
294.566228
 20
466.658875
 30
0.0
 11
280.789228
 21
466.658875
 31
0.0
  0
LINE
  5
109D
330
12DA
100
AcDbEntity
  8
0
100
AcDbLine
 10
297.129228
 20
459.4658749999999
 30
0.0
 11
296.237228
 21
458.949875
 31
0.0
  0
ARC
  5
109E
330
12DA
100
AcDbEntity
  8
0
100
AcDbCircle
 10
294.7662279999999
 20
462.5058749999999
 30
0.0
 40
3.846999999999999
100
AcDbArc
 50
232.166
 51
289.261
  0
LINE
  5
109F
330
12DA
100
AcDbEntity
  8
0
100
AcDbLine
 10
297.130228
 20
459.468875
 30
0.0
 11
297.131228
 21
465.8448749999999
 31
0.0
  0
ARC
  5
10A0
330
12DA
100
AcDbEntity
  8
0
100
AcDbCircle
 10
294.7662279999999
 20
462.8108749999999
 30
0.0
 40
3.848
100
AcDbArc
 50
67.922
 51
127.832
  0
LINE
  5
10A1
330
12DA
100
AcDbEntity
  8
0
100
AcDbLine
 10
297.130228
 20
465.8468749999999
 30
0.0
 11
296.213228
 21
466.375875
 31
0.0
  0
ARC
  5
10A2
330
12DA
100
AcDbEntity
  8
0
100
AcDbCircle
 10
280.591228
 20
462.507875
 30
0.0
 40
3.848999999999999
100
AcDbArc
 50
247.657
 51
307.865
  0
LINE
  5
10A3
330
12DA
100
AcDbEntity
  8
0
100
AcDbLine
 10
279.128228
 20
458.947875
 30
0.0
 11
278.231228
 21
459.4658749999999
 31
0.0
  0
LINE
  5
10A4
330
12DA
100
AcDbEntity
  8
0
100
AcDbLine
 10
278.230228
 20
459.4678749999999
 30
0.0
 11
278.231228
 21
465.848875
 31
0.0
  0
LINE
  5
10A5
330
12DA
100
AcDbEntity
  8
0
100
AcDbLine
 10
279.146228
 20
466.375875
 30
0.0
 11
278.233228
 21
465.850875
 31
0.0
  0
ARC
  5
10A6
330
12DA
100
AcDbEntity
  8
0
100
AcDbCircle
 10
280.591228
 20
462.8108749999999
 30
0.0
 40
3.848
100
AcDbArc
 50
52.122
 51
112.06
  0
LINE
  5
10A7
330
12DA
100
AcDbEntity
  8
0
100
AcDbLine
 10
283.678228
 20
466.658875
 30
0.0
 11
283.678228
 21
472.030875
 31
0.0
  0
LINE
  5
10A8
330
12DA
100
AcDbEntity
  8
0
100
AcDbLine
 10
291.678228
 20
472.030875
 30
0.0
 11
291.678228
 21
466.658875
 31
0.0
  0
LINE
  5
10A9
330
12DA
100
AcDbEntity
  8
0
100
AcDbLine
 10
292.678228
 20
471.030875
 30
0.0
 11
292.678228
 21
466.658875
 31
0.0
  0
LINE
  5
10AA
330
12DA
100
AcDbEntity
  8
0
100
AcDbLine
 10
282.678228
 20
471.030875
 30
0.0
 11
282.678228
 21
466.658875
 31
0.0
  0
LINE
  5
10AB
330
12DA
100
AcDbEntity
  8
0
100
AcDbLine
 10
283.678228
 20
458.658875
 30
0.0
 11
283.678228
 21
445.5158749999999
 31
0.0
  0
LINE
  5
10AC
330
12DA
100
AcDbEntity
  8
0
100
AcDbLine
 10
282.678228
 20
458.658875
 30
0.0
 11
282.678228
 21
442.515875
 31
0.0
  0
LINE
  5
10AD
330
12DA
100
AcDbEntity
  8
0
100
AcDbLine
 10
291.678228
 20
458.658875
 30
0.0
 11
291.678228
 21
445.5158749999999
 31
0.0
  0
LINE
  5
10AE
330
12DA
100
AcDbEntity
  8
0
100
AcDbLine
 10
292.678228
 20
458.658875
 30
0.0
 11
292.678228
 21
442.515875
 31
0.0
  0
LINE
  5
10AF
330
12DA
100
AcDbEntity
  8
0
100
AcDbLine
 10
282.678228
 20
445.5158749999999
 30
0.0
 11
292.678228
 21
445.5158749999999
 31
0.0
  0
LINE
  5
10B0
330
12DA
100
AcDbEntity
  8
0
100
AcDbLine
 10
283.678228
 20
430.015875
 30
0.0
 11
291.678228
 21
430.015875
 31
0.0
  0
LINE
  5
10B1
330
12DA
100
AcDbEntity
  8
0
100
AcDbLine
 10
282.678228
 20
431.015875
 30
0.0
 11
292.678228
 21
431.015875
 31
0.0
  0
LINE
  5
10B2
330
12DA
100
AcDbEntity
  8
0
100
AcDbLine
 10
291.679228
 20
430.015875
 30
0.0
 11
292.679228
 21
431.015875
 31
0.0
  0
LINE
  5
10B3
330
12DA
100
AcDbEntity
  8
0
100
AcDbLine
 10
283.679228
 20
430.0148749999999
 30
0.0
 11
282.679228
 21
431.014875
 31
0.0
  0
LINE
  5
10B4
330
12DA
100
AcDbEntity
  8
4
100
AcDbLine
 10
282.678228
 20
431.015875
 30
0.0
 11
282.678228
 21
428.4218749999999
 31
0.0
  0
LINE
  5
10B5
330
12DA
100
AcDbEntity
  8
4
100
AcDbLine
 10
292.678228
 20
431.015875
 30
0.0
 11
292.678228
 21
428.4218749999999
 31
0.0
  0
LINE
  5
10B6
330
12DA
100
AcDbEntity
  8
4
100
AcDbLine
 10
283.678228
 20
430.015875
 30
0.0
 11
283.678228
 21
442.515875
 31
0.0
  0
LINE
  5
10B7
330
12DA
100
AcDbEntity
  8
4
100
AcDbLine
 10
291.678228
 20
442.515875
 30
0.0
 11
291.678228
 21
430.015875
 31
0.0
  0
LINE
  5
10B8
330
12DA
100
AcDbEntity
  8
7
 48
0.7879999999999999
100
AcDbLine
 10
287.678228
 20
409.5148749999999
 30
0.0
 11
287.678228
 21
478.9008749999999
 31
0.0
  0
LINE
  5
10B9
330
12DA
100
AcDbEntity
  8
0
100
AcDbLine
 10
407.6782279999999
 20
471.030875
 30
0.0
 11
407.6782279999999
 21
466.658875
 31
0.0
  0
LINE
  5
10BA
330
12DA
100
AcDbEntity
  8
4
100
AcDbLine
 10
408.6782279999999
 20
466.658875
 30
0.0
 11
408.6782279999999
 21
472.030875
 31
0.0
  0
LINE
  5
10BB
330
12DA
100
AcDbEntity
  8
4
100
AcDbLine
 10
416.6782279999999
 20
472.030875
 30
0.0
 11
416.6782279999999
 21
466.658875
 31
0.0
  0
LINE
  5
10BC
330
12DA
100
AcDbEntity
  8
0
100
AcDbLine
 10
417.678228
 20
466.658875
 30
0.0
 11
417.678228
 21
471.030875
 31
0.0
  0
LINE
  5
10BD
330
12DA
100
AcDbEntity
  8
0
100
AcDbLine
 10
283.678228
 20
472.030875
 30
0.0
 11
291.678228
 21
472.030875
 31
0.0
  0
LINE
  5
10BE
330
12DA
100
AcDbEntity
  8
0
100
AcDbLine
 10
282.678228
 20
471.030875
 30
0.0
 11
292.678228
 21
471.030875
 31
0.0
  0
LINE
  5
10BF
330
12DA
100
AcDbEntity
  8
0
100
AcDbLine
 10
407.6782279999999
 20
471.030875
 30
0.0
 11
417.678228
 21
471.030875
 31
0.0
  0
LINE
  5
10C0
330
12DA
100
AcDbEntity
  8
0
100
AcDbLine
 10
408.6782279999999
 20
472.030875
 30
0.0
 11
416.6782279999999
 21
472.030875
 31
0.0
  0
LINE
  5
10C1
330
12DA
100
AcDbEntity
  8
0
100
AcDbLine
 10
408.679228
 20
472.029875
 30
0.0
 11
407.6792279999999
 21
471.0298749999999
 31
0.0
  0
LINE
  5
10C2
330
12DA
100
AcDbEntity
  8
0
100
AcDbLine
 10
416.679228
 20
472.029875
 30
0.0
 11
417.6792279999999
 21
471.0298749999999
 31
0.0
  0
LINE
  5
10C3
330
12DA
100
AcDbEntity
  8
0
100
AcDbLine
 10
283.679228
 20
472.029875
 30
0.0
 11
282.679228
 21
471.0298749999999
 31
0.0
  0
LINE
  5
10C4
330
12DA
100
AcDbEntity
  8
0
100
AcDbLine
 10
291.679228
 20
472.029875
 30
0.0
 11
292.679228
 21
471.0298749999999
 31
0.0
  0
LINE
  5
10C5
330
12DA
100
AcDbEntity
  8
0
100
AcDbLine
 10
532.6782279999999
 20
442.515875
 30
0.0
 11
542.678228
 21
442.515875
 31
0.0
  0
LINE
  5
10C6
330
12DA
100
AcDbEntity
  8
0
100
AcDbLine
 10
541.6782279999999
 20
430.015875
 30
0.0
 11
541.6782279999999
 21
422.921875
 31
0.0
  0
LINE
  5
10C7
330
12DA
100
AcDbEntity
  8
0
100
AcDbLine
 10
533.678228
 20
430.015875
 30
0.0
 11
533.678228
 21
422.921875
 31
0.0
  0
LINE
  5
10C8
330
12DA
100
AcDbEntity
  8
0
100
AcDbLine
 10
532.6782279999999
 20
442.515875
 30
0.0
 11
532.6782279999999
 21
431.015875
 31
0.0
  0
LINE
  5
10C9
330
12DA
100
AcDbEntity
  8
0
100
AcDbLine
 10
542.678228
 20
442.515875
 30
0.0
 11
542.678228
 21
431.015875
 31
0.0
  0
LINE
  5
10CA
330
12DA
100
AcDbEntity
  8
0
100
AcDbLine
 10
575.678228
 20
459.753875
 30
0.0
 11
547.1252279999999
 21
459.753875
 31
0.0
  0
LINE
  5
10CB
330
12DA
100
AcDbEntity
  8
0
100
AcDbLine
 10
526.676228
 20
455.329875
 30
0.0
 11
515.6782279999999
 21
454.753875
 31
0.0
  0
LINE
  5
10CC
330
12DA
100
AcDbEntity
  8
0
100
AcDbLine
 10
549.406228
 20
455.329875
 30
0.0
 11
542.678228
 21
455.329875
 31
0.0
  0
LINE
  5
10CD
330
12DA
100
AcDbEntity
  8
0
100
AcDbLine
 10
516.014228
 20
448.3388749999999
 30
0.0
 11
515.6782279999999
 21
454.753875
 31
0.0
  0
LINE
  5
10CE
330
12DA
100
AcDbEntity
  8
0
100
AcDbLine
 10
558.678228
 20
449.473875
 30
0.0
 11
542.678228
 21
448.074875
 31
0.0
  0
ARC
  5
10CF
330
12DA
100
AcDbEntity
  8
0
100
AcDbCircle
 10
518.5102279999999
 20
448.4698749999999
 30
0.0
 40
2.5
100
AcDbArc
 50
183.0
 51
274.999
  0
LINE
  5
10D0
330
12DA
100
AcDbEntity
  8
0
100
AcDbLine
 10
545.017228
 20
450.569875
 30
0.0
 11
544.1782279999999
 21
455.329875
 31
0.0
  0
LINE
  5
10D1
330
12DA
100
AcDbEntity
  8
0
100
AcDbLine
 10
530.032228
 20
448.827875
 30
0.0
 11
531.178228
 21
455.329875
 31
0.0
  0
ARC
  5
10D2
330
12DA
100
AcDbEntity
  8
0
100
AcDbCircle
 10
527.569228
 20
449.261875
 30
0.0
 40
2.5
100
AcDbArc
 50
275.0
 51
350.0
  0
ARC
  5
10D3
330
12DA
100
AcDbEntity
  8
0
100
AcDbCircle
 10
547.479228
 20
451.0038749999999
 30
0.0
 40
2.5
100
AcDbArc
 50
190.0
 51
274.999
  0
LINE
  5
10D4
330
12DA
100
AcDbEntity
  8
0
100
AcDbLine
 10
573.5732279999999
 20
459.750875
 30
0.0
 11
552.735228
 21
458.658875
 31
0.0
  0
LINE
  5
10D5
330
12DA
100
AcDbEntity
  8
0
100
AcDbLine
 10
549.407228
 20
455.328875
 30
0.0
 11
552.736228
 21
458.657875
 31
0.0
  0
LINE
  5
10D6
330
12DA
100
AcDbEntity
  8
0
100
AcDbLine
 10
575.678228
 20
459.753875
 30
0.0
 11
575.678228
 21
457.411875
 31
0.0
  0
LINE
  5
10D7
330
12DA
100
AcDbEntity
  8
0
100
AcDbLine
 10
574.033228
 20
455.0618749999999
 30
0.0
 11
558.678228
 21
449.472875
 31
0.0
  0
ARC
  5
10D8
330
12DA
100
AcDbEntity
  8
0
100
AcDbCircle
 10
573.178228
 20
457.411875
 30
0.0
 40
2.5
100
AcDbArc
 50
290.0
 51
0.0
  0
LINE
  5
10D9
330
12DA
100
AcDbEntity
  8
0
100
AcDbLine
 10
532.6782279999999
 20
455.329875
 30
0.0
 11
526.676228
 21
455.329875
 31
0.0
  0
LINE
  5
10DA
330
12DA
100
AcDbEntity
  8
0
100
AcDbLine
 10
532.6782279999999
 20
447.199875
 30
0.0
 11
513.824228
 21
445.549875
 31
0.0
  0
LINE
  5
10DB
330
12DA
100
AcDbEntity
  8
0
100
AcDbLine
 10
515.677228
 20
454.753875
 30
0.0
 11
512.940228
 21
454.753875
 31
0.0
  0
ARC
  5
10DC
330
12DA
100
AcDbEntity
  8
0
100
AcDbCircle
 10
537.6782279999999
 20
452.4838749999999
 30
0.0
 40
14.175
100
AcDbArc
 50
70.539
 51
109.465
  0
ARC
  5
10DD
330
12DA
100
AcDbEntity
  8
0
100
AcDbCircle
 10
537.6782279999999
 20
472.8338749999999
 30
0.0
 40
14.175
100
AcDbArc
 50
250.533
 51
289.459
  0
LINE
  5
10DE
330
12DA
100
AcDbEntity
  8
0
100
AcDbLine
 10
532.950228
 20
459.469875
 30
0.0
 11
532.951228
 21
465.8478749999999
 31
0.0
  0
LINE
  5
10DF
330
12DA
100
AcDbEntity
  8
0
100
AcDbLine
 10
542.4002279999999
 20
459.4708749999999
 30
0.0
 11
542.401228
 21
465.845875
 31
0.0
  0
LINE
  5
10E0
330
12DA
100
AcDbEntity
  8
0
100
AcDbLine
 10
530.7892279999999
 20
466.658875
 30
0.0
 11
544.567228
 21
466.658875
 31
0.0
  0
LINE
  5
10E1
330
12DA
100
AcDbEntity
  8
0
100
AcDbLine
 10
528.227228
 20
459.466875
 30
0.0
 11
529.120228
 21
458.950875
 31
0.0
  0
ARC
  5
10E2
330
12DA
100
AcDbEntity
  8
0
100
AcDbCircle
 10
530.590228
 20
462.5058749999999
 30
0.0
 40
3.846999999999999
100
AcDbArc
 50
247.531
 51
307.834
  0
LINE
  5
10E3
330
12DA
100
AcDbEntity
  8
0
100
AcDbLine
 10
528.226228
 20
459.468875
 30
0.0
 11
528.225228
 21
465.8448749999999
 31
0.0
  0
ARC
  5
10E4
330
12DA
100
AcDbEntity
  8
0
100
AcDbCircle
 10
530.590228
 20
462.8108749999999
 30
0.0
 40
3.848
100
AcDbArc
 50
52.168
 51
112.078
  0
LINE
  5
10E5
330
12DA
100
AcDbEntity
  8
0
100
AcDbLine
 10
528.226228
 20
465.845875
 30
0.0
 11
529.144228
 21
466.375875
 31
0.0
  0
ARC
  5
10E6
330
12DA
100
AcDbEntity
  8
0
100
AcDbCircle
 10
544.764228
 20
462.507875
 30
0.0
 40
3.848999999999999
100
AcDbArc
 50
232.135
 51
292.343
  0
LINE
  5
10E7
330
12DA
100
AcDbEntity
  8
0
100
AcDbLine
 10
546.227228
 20
458.948875
 30
0.0
 11
547.123228
 21
459.466875
 31
0.0
  0
LINE
  5
10E8
330
12DA
100
AcDbEntity
  8
0
100
AcDbLine
 10
547.1252279999999
 20
459.4678749999999
 30
0.0
 11
547.1252279999999
 21
465.848875
 31
0.0
  0
LINE
  5
10E9
330
12DA
100
AcDbEntity
  8
0
100
AcDbLine
 10
546.210228
 20
466.376875
 30
0.0
 11
547.123228
 21
465.8518749999999
 31
0.0
  0
ARC
  5
10EA
330
12DA
100
AcDbEntity
  8
0
100
AcDbCircle
 10
544.7652279999999
 20
462.8098749999999
 30
0.0
 40
3.848
100
AcDbArc
 50
67.94
 51
127.878
  0
LINE
  5
10EB
330
12DA
100
AcDbEntity
  8
0
100
AcDbLine
 10
541.6782279999999
 20
466.658875
 30
0.0
 11
541.6782279999999
 21
472.030875
 31
0.0
  0
LINE
  5
10EC
330
12DA
100
AcDbEntity
  8
0
100
AcDbLine
 10
533.678228
 20
472.030875
 30
0.0
 11
533.678228
 21
466.658875
 31
0.0
  0
LINE
  5
10ED
330
12DA
100
AcDbEntity
  8
0
100
AcDbLine
 10
532.6782279999999
 20
471.030875
 30
0.0
 11
532.6782279999999
 21
466.658875
 31
0.0
  0
LINE
  5
10EE
330
12DA
100
AcDbEntity
  8
0
100
AcDbLine
 10
542.678228
 20
471.030875
 30
0.0
 11
542.678228
 21
466.658875
 31
0.0
  0
LINE
  5
10EF
330
12DA
100
AcDbEntity
  8
0
100
AcDbLine
 10
541.6782279999999
 20
458.658875
 30
0.0
 11
541.6782279999999
 21
445.5158749999999
 31
0.0
  0
LINE
  5
10F0
330
12DA
100
AcDbEntity
  8
0
100
AcDbLine
 10
542.678228
 20
458.658875
 30
0.0
 11
542.678228
 21
442.515875
 31
0.0
  0
LINE
  5
10F1
330
12DA
100
AcDbEntity
  8
0
100
AcDbLine
 10
533.678228
 20
458.658875
 30
0.0
 11
533.678228
 21
445.5158749999999
 31
0.0
  0
LINE
  5
10F2
330
12DA
100
AcDbEntity
  8
0
100
AcDbLine
 10
532.6782279999999
 20
458.658875
 30
0.0
 11
532.6782279999999
 21
442.515875
 31
0.0
  0
LINE
  5
10F3
330
12DA
100
AcDbEntity
  8
0
100
AcDbLine
 10
542.678228
 20
445.5158749999999
 30
0.0
 11
532.6782279999999
 21
445.5158749999999
 31
0.0
  0
LINE
  5
10F4
330
12DA
100
AcDbEntity
  8
0
100
AcDbLine
 10
541.6782279999999
 20
430.015875
 30
0.0
 11
533.678228
 21
430.015875
 31
0.0
  0
LINE
  5
10F5
330
12DA
100
AcDbEntity
  8
0
100
AcDbLine
 10
542.678228
 20
431.015875
 30
0.0
 11
532.6782279999999
 21
431.015875
 31
0.0
  0
LINE
  5
10F6
330
12DA
100
AcDbEntity
  8
0
100
AcDbLine
 10
533.679228
 20
430.0148749999999
 30
0.0
 11
532.6792280000001
 21
431.015875
 31
0.0
  0
LINE
  5
10F7
330
12DA
100
AcDbEntity
  8
0
100
AcDbLine
 10
541.6792280000001
 20
430.0148749999999
 30
0.0
 11
542.679228
 21
431.014875
 31
0.0
  0
LINE
  5
10F8
330
12DA
100
AcDbEntity
  8
4
100
AcDbLine
 10
542.678228
 20
431.015875
 30
0.0
 11
542.678228
 21
428.4218749999999
 31
0.0
  0
LINE
  5
10F9
330
12DA
100
AcDbEntity
  8
4
100
AcDbLine
 10
532.6782279999999
 20
431.015875
 30
0.0
 11
532.6782279999999
 21
428.4218749999999
 31
0.0
  0
LINE
  5
10FA
330
12DA
100
AcDbEntity
  8
4
100
AcDbLine
 10
541.6782279999999
 20
430.015875
 30
0.0
 11
541.6782279999999
 21
442.515875
 31
0.0
  0
LINE
  5
10FB
330
12DA
100
AcDbEntity
  8
4
100
AcDbLine
 10
533.678228
 20
442.515875
 30
0.0
 11
533.678228
 21
430.015875
 31
0.0
  0
LINE
  5
10FC
330
12DA
100
AcDbEntity
  8
7
 48
0.7879999999999999
100
AcDbLine
 10
537.6782279999999
 20
409.5148749999999
 30
0.0
 11
537.6782279999999
 21
478.9008749999999
 31
0.0
  0
LINE
  5
10FD
330
12DA
100
AcDbEntity
  8
0
100
AcDbLine
 10
541.6782279999999
 20
472.030875
 30
0.0
 11
533.678228
 21
472.030875
 31
0.0
  0
LINE
  5
10FE
330
12DA
100
AcDbEntity
  8
0
100
AcDbLine
 10
542.678228
 20
471.030875
 30
0.0
 11
532.6782279999999
 21
471.030875
 31
0.0
  0
LINE
  5
10FF
330
12DA
100
AcDbEntity
  8
0
100
AcDbLine
 10
541.6792280000001
 20
472.029875
 30
0.0
 11
542.679228
 21
471.0298749999999
 31
0.0
  0
LINE
  5
1100
330
12DA
100
AcDbEntity
  8
0
100
AcDbLine
 10
533.678228
 20
472.029875
 30
0.0
 11
532.6792280000001
 21
471.0298749999999
 31
0.0
  0
LINE
  5
1101
330
12DA
100
AcDbEntity
  8
0
100
AcDbLine
 10
512.6782279999999
 20
458.658875
 30
0.0
 11
552.735228
 21
458.658875
 31
0.0
  0
LINE
  5
1102
330
12DA
100
AcDbEntity
  8
0
100
AcDbLine
 10
295.731228
 20
458.658875
 30
0.0
 11
512.6782279999999
 21
458.659875
 31
0.0
  0
LINE
  5
1103
330
12DA
100
AcDbEntity
  8
0
100
AcDbLine
 10
528.226228
 20
459.753875
 30
0.0
 11
422.129228
 21
459.753875
 31
0.0
  0
LINE
  5
1104
330
12DA
100
AcDbEntity
  8
0
100
AcDbLine
 10
294.566228
 20
458.658875
 30
0.0
 11
272.620228
 21
458.658875
 31
0.0
  0
LINE
  5
1105
330
12DA
100
AcDbEntity
  8
0
100
AcDbLine
 10
292.678228
 20
445.783875
 30
0.0
 11
311.551228
 21
445.783875
 31
0.0
  0
LINE
  5
1106
330
12DA
100
AcDbEntity
  8
0
100
AcDbLine
 10
282.678228
 20
443.421875
 30
0.0
 11
281.678228
 21
443.421875
 31
0.0
  0
LINE
  5
1107
330
12DA
100
AcDbEntity
  8
0
100
AcDbLine
 10
252.434228
 20
454.658875
 30
0.0
 11
237.276228
 21
454.658875
 31
0.0
  0
DIMENSION
  5
1112
330
12DA
100
AcDbEntity
  8
5
100
AcDbDimension
  2
*D8
 10
232.677228
 20
557.030875
 30
0.0
 11
412.6772279999999
 21
568.780875
 31
0.0
 70
    32
  1
%%c 360
 71
     5
 42
-1.0
  3
GEN-ISO
100
AcDbAlignedDimension
 13
592.677228
 23
444.658875
 33
0.0
 14
232.677228
 24
444.658875
 34
0.0
 50
180.0
100
AcDbRotatedDimension
  0
DIMENSION
  5
111D
330
12DA
100
AcDbEntity
  8
5
100
AcDbDimension
  2
*D13
 10
512.6782279999999
 20
522.030875
 30
0.0
 11
412.6777279999999
 21
533.7825979999999
 31
0.0
 70
    32
  1
%%c 200
 71
     5
 42
-1.0
  3
GEN-ISO
100
AcDbAlignedDimension
 13
312.6772279999999
 23
458.658875
 33
0.0
 14
512.6782279999999
 24
458.658875
 34
0.0
100
AcDbRotatedDimension
  0
DIMENSION
  5
113B
330
12DA
100
AcDbEntity
  8
5
100
AcDbDimension
  2
*D10
 10
189.2479020752107
 20
224.6588750000001
 30
0.0
 11
189.2479020752107
 21
335.947875
 31
0.0
 70
   160
  1
230
 71
     5
 42
229.9999999999999
  3
GEN-ISO
100
AcDbAlignedDimension
 13
237.276228
 23
454.658875
 33
0.0
 14
412.6782279999999
 24
224.658875
 34
0.0
 50
270.0
100
AcDbRotatedDimension
  0
POLYLINE
  5
113C
330
12DA
100
AcDbEntity
  8
SCHRAFFUR_RAND
100
AcDb2dPolyline
 66
     1
 10
0.0
 20
0.0
 30
0.0
 70
     1
  0
VERTEX
  5
113D
330
113C
100
AcDbEntity
  8
SCHRAFFUR_RAND
100
AcDbVertex
100
AcDb2dVertex
 10
251.782228
 20
459.750875
 30
0.0
  0
VERTEX
  5
113E
330
113C
100
AcDbEntity
  8
SCHRAFFUR_RAND
100
AcDbVertex
100
AcDb2dVertex
 10
249.677228
 20
459.753875
 30
0.0
  0
VERTEX
  5
113F
330
113C
100
AcDbEntity
  8
SCHRAFFUR_RAND
100
AcDbVertex
100
AcDb2dVertex
 10
249.677228
 20
457.411875
 30
0.0
  0
VERTEX
  5
1140
330
113C
100
AcDbEntity
  8
SCHRAFFUR_RAND
100
AcDbVertex
100
AcDb2dVertex
 10
249.814228
 20
456.392875
 30
0.0
  0
VERTEX
  5
1141
330
113C
100
AcDbEntity
  8
SCHRAFFUR_RAND
100
AcDbVertex
100
AcDb2dVertex
 10
250.411228
 20
455.539875
 30
0.0
  0
VERTEX
  5
1142
330
113C
100
AcDbEntity
  8
SCHRAFFUR_RAND
100
AcDbVertex
100
AcDb2dVertex
 10
251.323228
 20
455.062875
 30
0.0
  0
VERTEX
  5
1143
330
113C
100
AcDbEntity
  8
SCHRAFFUR_RAND
100
AcDbVertex
100
AcDb2dVertex
 10
252.433228
 20
454.658875
 30
0.0
  0
VERTEX
  5
1144
330
113C
100
AcDbEntity
  8
SCHRAFFUR_RAND
100
AcDbVertex
100
AcDb2dVertex
 10
266.6772279999999
 20
449.473875
 30
0.0
  0
VERTEX
  5
1145
330
113C
100
AcDbEntity
  8
SCHRAFFUR_RAND
100
AcDbVertex
100
AcDb2dVertex
 10
277.6582279999999
 20
448.5138749999999
 30
0.0
  0
VERTEX
  5
1146
330
113C
100
AcDbEntity
  8
SCHRAFFUR_RAND
100
AcDbVertex
100
AcDb2dVertex
 10
278.896228
 20
448.639875
 30
0.0
  0
VERTEX
  5
1147
330
113C
100
AcDbEntity
  8
SCHRAFFUR_RAND
100
AcDbVertex
100
AcDb2dVertex
 10
279.895228
 20
449.406875
 30
0.0
  0
VERTEX
  5
1148
330
113C
100
AcDbEntity
  8
SCHRAFFUR_RAND
100
AcDbVertex
100
AcDb2dVertex
 10
280.339228
 20
450.569875
 30
0.0
  0
VERTEX
  5
1149
330
113C
100
AcDbEntity
  8
SCHRAFFUR_RAND
100
AcDbVertex
100
AcDb2dVertex
 10
281.178228
 20
455.329875
 30
0.0
  0
VERTEX
  5
114A
330
113C
100
AcDbEntity
  8
SCHRAFFUR_RAND
100
AcDbVertex
100
AcDb2dVertex
 10
275.948228
 20
455.329875
 30
0.0
  0
VERTEX
  5
114B
330
113C
100
AcDbEntity
  8
SCHRAFFUR_RAND
100
AcDbVertex
100
AcDb2dVertex
 10
272.620228
 20
458.658875
 30
0.0
  0
VERTEX
  5
114C
330
113C
100
AcDbEntity
  8
SCHRAFFUR_RAND
100
AcDbVertex
100
AcDb2dVertex
 10
251.782228
 20
459.750875
 30
0.0
  0
SEQEND
  5
114D
330
113C
100
AcDbEntity
  8
SCHRAFFUR_RAND
  0
INSERT
  5
1153
330
12DA
100
AcDbEntity
  8
8
100
AcDbBlockReference
  2
*X0
 10
-94.562772
 20
9.382875
 30
0.0
1001
ACAD
1000
HATCH
1002
{
1070
    19
1000
ANSI31,_I
1040
6.349999999999999
1040
-0.7850000000000001
1002
}
  0
POLYLINE
  5
1154
330
12DA
100
AcDbEntity
  8
SCHRAFFUR_RAND
100
AcDb2dPolyline
 66
     1
 10
0.0
 20
0.0
 30
0.0
 70
     1
  0
VERTEX
  5
1155
330
1154
100
AcDbEntity
  8
SCHRAFFUR_RAND
100
AcDbVertex
100
AcDb2dVertex
 10
309.341228
 20
448.3388749999999
 30
0.0
  0
VERTEX
  5
1156
330
1154
100
AcDbEntity
  8
SCHRAFFUR_RAND
100
AcDbVertex
100
AcDb2dVertex
 10
309.678228
 20
454.753875
 30
0.0
  0
VERTEX
  5
1157
330
1154
100
AcDbEntity
  8
SCHRAFFUR_RAND
100
AcDbVertex
100
AcDb2dVertex
 10
298.6792279999999
 20
455.329875
 30
0.0
  0
VERTEX
  5
1158
330
1154
100
AcDbEntity
  8
SCHRAFFUR_RAND
100
AcDbVertex
100
AcDb2dVertex
 10
294.1772279999999
 20
455.330875
 30
0.0
  0
VERTEX
  5
1159
330
1154
100
AcDbEntity
  8
SCHRAFFUR_RAND
100
AcDbVertex
100
AcDb2dVertex
 10
295.323228
 20
448.8288749999999
 30
0.0
  0
VERTEX
  5
115A
330
1154
100
AcDbEntity
  8
SCHRAFFUR_RAND
100
AcDbVertex
100
AcDb2dVertex
 10
295.677228
 20
447.785875
 30
0.0
  0
VERTEX
  5
115B
330
1154
100
AcDbEntity
  8
SCHRAFFUR_RAND
100
AcDbVertex
100
AcDb2dVertex
 10
296.498228
 20
447.032875
 30
0.0
  0
VERTEX
  5
115C
330
1154
100
AcDbEntity
  8
SCHRAFFUR_RAND
100
AcDbVertex
100
AcDb2dVertex
 10
297.567228
 20
446.771875
 30
0.0
  0
VERTEX
  5
115D
330
1154
100
AcDbEntity
  8
SCHRAFFUR_RAND
100
AcDbVertex
100
AcDb2dVertex
 10
306.627228
 20
445.978875
 30
0.0
  0
VERTEX
  5
115E
330
1154
100
AcDbEntity
  8
SCHRAFFUR_RAND
100
AcDbVertex
100
AcDb2dVertex
 10
307.960228
 20
446.149875
 30
0.0
  0
VERTEX
  5
115F
330
1154
100
AcDbEntity
  8
SCHRAFFUR_RAND
100
AcDbVertex
100
AcDb2dVertex
 10
308.987228
 20
447.0428749999999
 30
0.0
  0
VERTEX
  5
1160
330
1154
100
AcDbEntity
  8
SCHRAFFUR_RAND
100
AcDbVertex
100
AcDb2dVertex
 10
309.341228
 20
448.3388749999999
 30
0.0
  0
SEQEND
  5
1161
330
1154
100
AcDbEntity
  8
SCHRAFFUR_RAND
  0
INSERT
  5
1165
330
12DA
100
AcDbEntity
  8
8
100
AcDbBlockReference
  2
*X1
 10
-94.562772
 20
9.382875
 30
0.0
1001
ACAD
1000
HATCH
1002
{
1070
    19
1000
ANSI31,_I
1040
6.349999999999999
1040
-0.7850000000000001
1002
}
  0
POLYLINE
  5
1166
330
12DA
100
AcDbEntity
  8
SCHRAFFUR_RAND
100
AcDb2dPolyline
 66
     1
 10
0.0
 20
0.0
 30
0.0
 70
     1
  0
VERTEX
  5
1167
330
1166
100
AcDbEntity
  8
SCHRAFFUR_RAND
100
AcDbVertex
100
AcDb2dVertex
 10
364.178228
 20
224.658875
 30
0.0
  0
VERTEX
  5
1168
330
1166
100
AcDbEntity
  8
SCHRAFFUR_RAND
100
AcDbVertex
100
AcDb2dVertex
 10
361.160228
 20
323.830875
 30
0.0
  0
VERTEX
  5
1169
330
1166
100
AcDbEntity
  8
SCHRAFFUR_RAND
100
AcDbVertex
100
AcDb2dVertex
 10
360.876228
 20
325.738875
 30
0.0
  0
VERTEX
  5
116A
330
1166
100
AcDbEntity
  8
SCHRAFFUR_RAND
100
AcDbVertex
100
AcDb2dVertex
 10
359.933228
 20
327.433875
 30
0.0
  0
VERTEX
  5
116B
330
1166
100
AcDbEntity
  8
SCHRAFFUR_RAND
100
AcDbVertex
100
AcDb2dVertex
 10
358.505228
 20
328.745875
 30
0.0
  0
VERTEX
  5
116C
330
1166
100
AcDbEntity
  8
SCHRAFFUR_RAND
100
AcDbVertex
100
AcDb2dVertex
 10
356.715228
 20
329.469875
 30
0.0
  0
VERTEX
  5
116D
330
1166
100
AcDbEntity
  8
SCHRAFFUR_RAND
100
AcDbVertex
100
AcDb2dVertex
 10
333.192228
 20
335.772875
 30
0.0
  0
VERTEX
  5
116E
330
1166
100
AcDbEntity
  8
SCHRAFFUR_RAND
100
AcDbVertex
100
AcDb2dVertex
 10
331.392228
 20
336.502875
 30
0.0
  0
VERTEX
  5
116F
330
1166
100
AcDbEntity
  8
SCHRAFFUR_RAND
100
AcDbVertex
100
AcDb2dVertex
 10
329.959228
 20
337.828875
 30
0.0
  0
VERTEX
  5
1170
330
1166
100
AcDbEntity
  8
SCHRAFFUR_RAND
100
AcDbVertex
100
AcDb2dVertex
 10
329.019228
 20
339.540875
 30
0.0
  0
VERTEX
  5
1171
330
1166
100
AcDbEntity
  8
SCHRAFFUR_RAND
100
AcDbVertex
100
AcDb2dVertex
 10
328.747228
 20
341.463875
 30
0.0
  0
VERTEX
  5
1172
330
1166
100
AcDbEntity
  8
SCHRAFFUR_RAND
100
AcDbVertex
100
AcDb2dVertex
 10
327.1772279999999
 20
431.317875
 30
0.0
  0
VERTEX
  5
1173
330
1166
100
AcDbEntity
  8
SCHRAFFUR_RAND
100
AcDbVertex
100
AcDb2dVertex
 10
325.794228
 20
439.158875
 30
0.0
  0
VERTEX
  5
1174
330
1166
100
AcDbEntity
  8
SCHRAFFUR_RAND
100
AcDbVertex
100
AcDb2dVertex
 10
319.199228
 20
439.158875
 30
0.0
  0
VERTEX
  5
1175
330
1166
100
AcDbEntity
  8
SCHRAFFUR_RAND
100
AcDbVertex
100
AcDb2dVertex
 10
319.016228
 20
442.658875
 30
0.0
  0
VERTEX
  5
1176
330
1166
100
AcDbEntity
  8
SCHRAFFUR_RAND
100
AcDbVertex
100
AcDb2dVertex
 10
318.806228
 20
446.658875
 30
0.0
  0
VERTEX
  5
1177
330
1166
100
AcDbEntity
  8
SCHRAFFUR_RAND
100
AcDbVertex
100
AcDb2dVertex
 10
311.627228
 20
446.658875
 30
0.0
  0
VERTEX
  5
1178
330
1166
100
AcDbEntity
  8
SCHRAFFUR_RAND
100
AcDbVertex
100
AcDb2dVertex
 10
311.550228
 20
445.783875
 30
0.0
  0
VERTEX
  5
1179
330
1166
100
AcDbEntity
  8
SCHRAFFUR_RAND
100
AcDbVertex
100
AcDb2dVertex
 10
311.427228
 20
444.378875
 30
0.0
  0
VERTEX
  5
117A
330
1166
100
AcDbEntity
  8
SCHRAFFUR_RAND
100
AcDbVertex
100
AcDb2dVertex
 10
311.046228
 20
443.119875
 30
0.0
  0
VERTEX
  5
117B
330
1166
100
AcDbEntity
  8
SCHRAFFUR_RAND
100
AcDbVertex
100
AcDb2dVertex
 10
310.025228
 20
442.2638749999999
 30
0.0
  0
VERTEX
  5
117C
330
1166
100
AcDbEntity
  8
SCHRAFFUR_RAND
100
AcDbVertex
100
AcDb2dVertex
 10
308.719228
 20
442.105875
 30
0.0
  0
VERTEX
  5
117D
330
1166
100
AcDbEntity
  8
SCHRAFFUR_RAND
100
AcDbVertex
100
AcDb2dVertex
 10
306.167228
 20
442.328875
 30
0.0
  0
VERTEX
  5
117E
330
1166
100
AcDbEntity
  8
SCHRAFFUR_RAND
100
AcDbVertex
100
AcDb2dVertex
 10
292.677228
 20
443.509875
 30
0.0
  0
VERTEX
  5
117F
330
1166
100
AcDbEntity
  8
SCHRAFFUR_RAND
100
AcDbVertex
100
AcDb2dVertex
 10
292.677228
 20
442.515875
 30
0.0
  0
VERTEX
  5
1180
330
1166
100
AcDbEntity
  8
SCHRAFFUR_RAND
100
AcDbVertex
100
AcDb2dVertex
 10
292.677228
 20
431.015875
 30
0.0
  0
VERTEX
  5
1181
330
1166
100
AcDbEntity
  8
SCHRAFFUR_RAND
100
AcDbVertex
100
AcDb2dVertex
 10
292.677228
 20
428.4218749999999
 30
0.0
  0
VERTEX
  5
1182
330
1166
100
AcDbEntity
  8
SCHRAFFUR_RAND
100
AcDbVertex
100
AcDb2dVertex
 10
291.6772279999999
 20
428.4218749999999
 30
0.0
  0
VERTEX
  5
1183
330
1166
100
AcDbEntity
  8
SCHRAFFUR_RAND
100
AcDbVertex
100
AcDb2dVertex
 10
291.6772279999999
 20
422.921875
 30
0.0
  0
VERTEX
  5
1184
330
1166
100
AcDbEntity
  8
SCHRAFFUR_RAND
100
AcDbVertex
100
AcDb2dVertex
 10
287.6772279999999
 20
420.6128749999999
 30
0.0
  0
VERTEX
  5
1185
330
1166
100
AcDbEntity
  8
SCHRAFFUR_RAND
100
AcDbVertex
100
AcDb2dVertex
 10
283.6772279999999
 20
422.921875
 30
0.0
  0
VERTEX
  5
1186
330
1166
100
AcDbEntity
  8
SCHRAFFUR_RAND
100
AcDbVertex
100
AcDb2dVertex
 10
283.6772279999999
 20
428.4218749999999
 30
0.0
  0
VERTEX
  5
1187
330
1166
100
AcDbEntity
  8
SCHRAFFUR_RAND
100
AcDbVertex
100
AcDb2dVertex
 10
282.677228
 20
428.4218749999999
 30
0.0
  0
VERTEX
  5
1188
330
1166
100
AcDbEntity
  8
SCHRAFFUR_RAND
100
AcDbVertex
100
AcDb2dVertex
 10
282.677228
 20
431.015875
 30
0.0
  0
VERTEX
  5
1189
330
1166
100
AcDbEntity
  8
SCHRAFFUR_RAND
100
AcDbVertex
100
AcDb2dVertex
 10
282.677228
 20
442.515875
 30
0.0
  0
VERTEX
  5
118A
330
1166
100
AcDbEntity
  8
SCHRAFFUR_RAND
100
AcDbVertex
100
AcDb2dVertex
 10
282.677228
 20
443.421875
 30
0.0
  0
VERTEX
  5
118B
330
1166
100
AcDbEntity
  8
SCHRAFFUR_RAND
100
AcDbVertex
100
AcDb2dVertex
 10
281.6772279999999
 20
443.420875
 30
0.0
  0
VERTEX
  5
118C
330
1166
100
AcDbEntity
  8
SCHRAFFUR_RAND
100
AcDbVertex
100
AcDb2dVertex
 10
281.039228
 20
444.5278749999999
 30
0.0
  0
VERTEX
  5
118D
330
1166
100
AcDbEntity
  8
SCHRAFFUR_RAND
100
AcDbVertex
100
AcDb2dVertex
 10
266.6772279999999
 20
445.783875
 30
0.0
  0
VERTEX
  5
118E
330
1166
100
AcDbEntity
  8
SCHRAFFUR_RAND
100
AcDbVertex
100
AcDb2dVertex
 10
238.005228
 20
454.549875
 30
0.0
  0
VERTEX
  5
118F
330
1166
100
AcDbEntity
  8
SCHRAFFUR_RAND
100
AcDbVertex
100
AcDb2dVertex
 10
237.275228
 20
454.658875
 30
0.0
  0
VERTEX
  5
1190
330
1166
100
AcDbEntity
  8
SCHRAFFUR_RAND
100
AcDbVertex
100
AcDb2dVertex
 10
236.6672279999999
 20
454.659875
 30
0.0
  0
VERTEX
  5
1191
330
1166
100
AcDbEntity
  8
SCHRAFFUR_RAND
100
AcDbVertex
100
AcDb2dVertex
 10
235.476228
 20
453.9998749999999
 30
0.0
  0
VERTEX
  5
1192
330
1166
100
AcDbEntity
  8
SCHRAFFUR_RAND
100
AcDbVertex
100
AcDb2dVertex
 10
234.859228
 20
452.805875
 30
0.0
  0
VERTEX
  5
1193
330
1166
100
AcDbEntity
  8
SCHRAFFUR_RAND
100
AcDbVertex
100
AcDb2dVertex
 10
232.677228
 20
444.658875
 30
0.0
  0
VERTEX
  5
1194
330
1166
100
AcDbEntity
  8
SCHRAFFUR_RAND
100
AcDbVertex
100
AcDb2dVertex
 10
249.835228
 20
444.658875
 30
0.0
  0
VERTEX
  5
1195
330
1166
100
AcDbEntity
  8
SCHRAFFUR_RAND
100
AcDbVertex
100
AcDb2dVertex
 10
265.525228
 20
439.8618749999999
 30
0.0
  0
VERTEX
  5
1196
330
1166
100
AcDbEntity
  8
SCHRAFFUR_RAND
100
AcDbVertex
100
AcDb2dVertex
 10
271.015228
 20
439.381875
 30
0.0
  0
VERTEX
  5
1197
330
1166
100
AcDbEntity
  8
SCHRAFFUR_RAND
100
AcDbVertex
100
AcDb2dVertex
 10
272.084228
 20
439.119875
 30
0.0
  0
VERTEX
  5
1198
330
1166
100
AcDbEntity
  8
SCHRAFFUR_RAND
100
AcDbVertex
100
AcDb2dVertex
 10
272.905228
 20
438.367875
 30
0.0
  0
VERTEX
  5
1199
330
1166
100
AcDbEntity
  8
SCHRAFFUR_RAND
100
AcDbVertex
100
AcDb2dVertex
 10
273.259228
 20
437.3258749999999
 30
0.0
  0
VERTEX
  5
119A
330
1166
100
AcDbEntity
  8
SCHRAFFUR_RAND
100
AcDbVertex
100
AcDb2dVertex
 10
275.860228
 20
422.5758749999999
 30
0.0
  0
VERTEX
  5
119B
330
1166
100
AcDbEntity
  8
SCHRAFFUR_RAND
100
AcDbVertex
100
AcDb2dVertex
 10
276.8452279999999
 20
419.324875
 30
0.0
  0
VERTEX
  5
119C
330
1166
100
AcDbEntity
  8
SCHRAFFUR_RAND
100
AcDbVertex
100
AcDb2dVertex
 10
278.732228
 20
416.5488749999999
 30
0.0
  0
VERTEX
  5
119D
330
1166
100
AcDbEntity
  8
SCHRAFFUR_RAND
100
AcDbVertex
100
AcDb2dVertex
 10
281.309228
 20
414.3998749999999
 30
0.0
  0
VERTEX
  5
119E
330
1166
100
AcDbEntity
  8
SCHRAFFUR_RAND
100
AcDbVertex
100
AcDb2dVertex
 10
284.378228
 20
413.043875
 30
0.0
  0
VERTEX
  5
119F
330
1166
100
AcDbEntity
  8
SCHRAFFUR_RAND
100
AcDbVertex
100
AcDb2dVertex
 10
287.703228
 20
412.584875
 30
0.0
  0
VERTEX
  5
11A0
330
1166
100
AcDbEntity
  8
SCHRAFFUR_RAND
100
AcDbVertex
100
AcDb2dVertex
 10
291.025228
 20
413.057875
 30
0.0
  0
VERTEX
  5
11A1
330
1166
100
AcDbEntity
  8
SCHRAFFUR_RAND
100
AcDbVertex
100
AcDb2dVertex
 10
294.088228
 20
414.426875
 30
0.0
  0
VERTEX
  5
11A2
330
1166
100
AcDbEntity
  8
SCHRAFFUR_RAND
100
AcDbVertex
100
AcDb2dVertex
 10
296.657228
 20
416.586875
 30
0.0
  0
VERTEX
  5
11A3
330
1166
100
AcDbEntity
  8
SCHRAFFUR_RAND
100
AcDbVertex
100
AcDb2dVertex
 10
298.531228
 20
419.369875
 30
0.0
  0
VERTEX
  5
11A4
330
1166
100
AcDbEntity
  8
SCHRAFFUR_RAND
100
AcDbVertex
100
AcDb2dVertex
 10
299.495228
 20
422.574875
 30
0.0
  0
VERTEX
  5
11A5
330
1166
100
AcDbEntity
  8
SCHRAFFUR_RAND
100
AcDbVertex
100
AcDb2dVertex
 10
301.583228
 20
434.415875
 30
0.0
  0
VERTEX
  5
11A6
330
1166
100
AcDbEntity
  8
SCHRAFFUR_RAND
100
AcDbVertex
100
AcDb2dVertex
 10
302.025228
 20
435.578875
 30
0.0
  0
VERTEX
  5
11A7
330
1166
100
AcDbEntity
  8
SCHRAFFUR_RAND
100
AcDbVertex
100
AcDb2dVertex
 10
303.025228
 20
436.3458749999999
 30
0.0
  0
VERTEX
  5
11A8
330
1166
100
AcDbEntity
  8
SCHRAFFUR_RAND
100
AcDbVertex
100
AcDb2dVertex
 10
304.263228
 20
436.472875
 30
0.0
  0
VERTEX
  5
11A9
330
1166
100
AcDbEntity
  8
SCHRAFFUR_RAND
100
AcDbVertex
100
AcDb2dVertex
 10
313.799228
 20
435.6388749999999
 30
0.0
  0
VERTEX
  5
11AA
330
1166
100
AcDbEntity
  8
SCHRAFFUR_RAND
100
AcDbVertex
100
AcDb2dVertex
 10
315.915228
 20
435.1318749999999
 30
0.0
  0
VERTEX
  5
11AB
330
1166
100
AcDbEntity
  8
SCHRAFFUR_RAND
100
AcDbVertex
100
AcDb2dVertex
 10
317.682228
 20
433.841875
 30
0.0
  0
VERTEX
  5
11AC
330
1166
100
AcDbEntity
  8
SCHRAFFUR_RAND
100
AcDbVertex
100
AcDb2dVertex
 10
318.878228
 20
432.009875
 30
0.0
  0
VERTEX
  5
11AD
330
1166
100
AcDbEntity
  8
SCHRAFFUR_RAND
100
AcDbVertex
100
AcDb2dVertex
 10
319.274228
 20
429.8698749999999
 30
0.0
  0
VERTEX
  5
11AE
330
1166
100
AcDbEntity
  8
SCHRAFFUR_RAND
100
AcDbVertex
100
AcDb2dVertex
 10
322.523228
 20
336.815875
 30
0.0
  0
VERTEX
  5
11AF
330
1166
100
AcDbEntity
  8
SCHRAFFUR_RAND
100
AcDbVertex
100
AcDb2dVertex
 10
322.819228
 20
334.922875
 30
0.0
  0
VERTEX
  5
11B0
330
1166
100
AcDbEntity
  8
SCHRAFFUR_RAND
100
AcDbVertex
100
AcDb2dVertex
 10
323.765228
 20
333.243875
 30
0.0
  0
VERTEX
  5
11B1
330
1166
100
AcDbEntity
  8
SCHRAFFUR_RAND
100
AcDbVertex
100
AcDb2dVertex
 10
325.188228
 20
331.944875
 30
0.0
  0
VERTEX
  5
11B2
330
1166
100
AcDbEntity
  8
SCHRAFFUR_RAND
100
AcDbVertex
100
AcDb2dVertex
 10
326.965228
 20
331.229875
 30
0.0
  0
VERTEX
  5
11B3
330
1166
100
AcDbEntity
  8
SCHRAFFUR_RAND
100
AcDbVertex
100
AcDb2dVertex
 10
350.892228
 20
324.818875
 30
0.0
  0
VERTEX
  5
11B4
330
1166
100
AcDbEntity
  8
SCHRAFFUR_RAND
100
AcDbVertex
100
AcDb2dVertex
 10
352.680228
 20
324.095875
 30
0.0
  0
VERTEX
  5
11B5
330
1166
100
AcDbEntity
  8
SCHRAFFUR_RAND
100
AcDbVertex
100
AcDb2dVertex
 10
354.109228
 20
322.783875
 30
0.0
  0
VERTEX
  5
11B6
330
1166
100
AcDbEntity
  8
SCHRAFFUR_RAND
100
AcDbVertex
100
AcDb2dVertex
 10
355.051228
 20
321.087875
 30
0.0
  0
VERTEX
  5
11B7
330
1166
100
AcDbEntity
  8
SCHRAFFUR_RAND
100
AcDbVertex
100
AcDb2dVertex
 10
355.336228
 20
319.179875
 30
0.0
  0
VERTEX
  5
11B8
330
1166
100
AcDbEntity
  8
SCHRAFFUR_RAND
100
AcDbVertex
100
AcDb2dVertex
 10
356.660228
 20
268.658875
 30
0.0
  0
VERTEX
  5
11B9
330
1166
100
AcDbEntity
  8
SCHRAFFUR_RAND
100
AcDbVertex
100
AcDb2dVertex
 10
357.677228
 20
226.4008750000001
 30
0.0
  0
VERTEX
  5
11BA
330
1166
100
AcDbEntity
  8
SCHRAFFUR_RAND
100
AcDbVertex
100
AcDb2dVertex
 10
364.178228
 20
224.658875
 30
0.0
  0
SEQEND
  5
11BB
330
1166
100
AcDbEntity
  8
SCHRAFFUR_RAND
  0
POLYLINE
  5
11EC
330
12DA
100
AcDbEntity
  8
SCHRAFFUR_RAND
100
AcDb2dPolyline
 66
     1
 10
0.0
 20
0.0
 30
0.0
 70
     1
  0
VERTEX
  5
11ED
330
11EC
100
AcDbEntity
  8
SCHRAFFUR_RAND
100
AcDbVertex
100
AcDb2dVertex
 10
515.677228
 20
454.753875
 30
0.0
  0
VERTEX
  5
11EE
330
11EC
100
AcDbEntity
  8
SCHRAFFUR_RAND
100
AcDbVertex
100
AcDb2dVertex
 10
516.013228
 20
448.3388749999999
 30
0.0
  0
VERTEX
  5
11EF
330
11EC
100
AcDbEntity
  8
SCHRAFFUR_RAND
100
AcDbVertex
100
AcDb2dVertex
 10
516.3672280000001
 20
447.0428749999999
 30
0.0
  0
VERTEX
  5
11F0
330
11EC
100
AcDbEntity
  8
SCHRAFFUR_RAND
100
AcDbVertex
100
AcDb2dVertex
 10
517.394228
 20
446.148875
 30
0.0
  0
VERTEX
  5
11F1
330
11EC
100
AcDbEntity
  8
SCHRAFFUR_RAND
100
AcDbVertex
100
AcDb2dVertex
 10
518.7272280000001
 20
445.978875
 30
0.0
  0
VERTEX
  5
11F2
330
11EC
100
AcDbEntity
  8
SCHRAFFUR_RAND
100
AcDbVertex
100
AcDb2dVertex
 10
527.786228
 20
446.771875
 30
0.0
  0
VERTEX
  5
11F3
330
11EC
100
AcDbEntity
  8
SCHRAFFUR_RAND
100
AcDbVertex
100
AcDb2dVertex
 10
528.8562279999999
 20
447.032875
 30
0.0
  0
VERTEX
  5
11F4
330
11EC
100
AcDbEntity
  8
SCHRAFFUR_RAND
100
AcDbVertex
100
AcDb2dVertex
 10
529.6772279999999
 20
447.785875
 30
0.0
  0
VERTEX
  5
11F5
330
11EC
100
AcDbEntity
  8
SCHRAFFUR_RAND
100
AcDbVertex
100
AcDb2dVertex
 10
530.031228
 20
448.827875
 30
0.0
  0
VERTEX
  5
11F6
330
11EC
100
AcDbEntity
  8
SCHRAFFUR_RAND
100
AcDbVertex
100
AcDb2dVertex
 10
531.177228
 20
455.329875
 30
0.0
  0
VERTEX
  5
11F7
330
11EC
100
AcDbEntity
  8
SCHRAFFUR_RAND
100
AcDbVertex
100
AcDb2dVertex
 10
526.675228
 20
455.329875
 30
0.0
  0
VERTEX
  5
11F8
330
11EC
100
AcDbEntity
  8
SCHRAFFUR_RAND
100
AcDbVertex
100
AcDb2dVertex
 10
515.677228
 20
454.753875
 30
0.0
  0
SEQEND
  5
11F9
330
11EC
100
AcDbEntity
  8
SCHRAFFUR_RAND
  0
INSERT
  5
11FE
330
12DA
100
AcDbEntity
  8
8
100
AcDbBlockReference
  2
*X3
 10
-94.562772
 20
9.382875
 30
0.0
1001
ACAD
1000
HATCH
1002
{
1070
    19
1000
ANSI31,_I
1040
6.349999999999999
1040
-0.7850000000000001
1002
}
  0
POLYLINE
  5
11FF
330
12DA
100
AcDbEntity
  8
SCHRAFFUR_RAND
100
AcDb2dPolyline
 66
     1
 10
0.0
 20
0.0
 30
0.0
 70
     1
  0
VERTEX
  5
1200
330
11FF
100
AcDbEntity
  8
SCHRAFFUR_RAND
100
AcDbVertex
100
AcDb2dVertex
 10
547.696228
 20
448.5138749999999
 30
0.0
  0
VERTEX
  5
1201
330
11FF
100
AcDbEntity
  8
SCHRAFFUR_RAND
100
AcDbVertex
100
AcDb2dVertex
 10
558.6772279999999
 20
449.473875
 30
0.0
  0
VERTEX
  5
1202
330
11FF
100
AcDbEntity
  8
SCHRAFFUR_RAND
100
AcDbVertex
100
AcDb2dVertex
 10
572.925228
 20
454.658875
 30
0.0
  0
VERTEX
  5
1203
330
11FF
100
AcDbEntity
  8
SCHRAFFUR_RAND
100
AcDbVertex
100
AcDb2dVertex
 10
574.0322279999999
 20
455.0618749999999
 30
0.0
  0
VERTEX
  5
1204
330
11FF
100
AcDbEntity
  8
SCHRAFFUR_RAND
100
AcDbVertex
100
AcDb2dVertex
 10
574.9432279999999
 20
455.539875
 30
0.0
  0
VERTEX
  5
1205
330
11FF
100
AcDbEntity
  8
SCHRAFFUR_RAND
100
AcDbVertex
100
AcDb2dVertex
 10
575.541228
 20
456.392875
 30
0.0
  0
VERTEX
  5
1206
330
11FF
100
AcDbEntity
  8
SCHRAFFUR_RAND
100
AcDbVertex
100
AcDb2dVertex
 10
575.6772279999999
 20
457.411875
 30
0.0
  0
VERTEX
  5
1207
330
11FF
100
AcDbEntity
  8
SCHRAFFUR_RAND
100
AcDbVertex
100
AcDb2dVertex
 10
575.6772279999999
 20
459.753875
 30
0.0
  0
VERTEX
  5
1208
330
11FF
100
AcDbEntity
  8
SCHRAFFUR_RAND
100
AcDbVertex
100
AcDb2dVertex
 10
573.572228
 20
459.750875
 30
0.0
  0
VERTEX
  5
1209
330
11FF
100
AcDbEntity
  8
SCHRAFFUR_RAND
100
AcDbVertex
100
AcDb2dVertex
 10
552.734228
 20
458.658875
 30
0.0
  0
VERTEX
  5
120A
330
11FF
100
AcDbEntity
  8
SCHRAFFUR_RAND
100
AcDbVertex
100
AcDb2dVertex
 10
549.405228
 20
455.329875
 30
0.0
  0
VERTEX
  5
120B
330
11FF
100
AcDbEntity
  8
SCHRAFFUR_RAND
100
AcDbVertex
100
AcDb2dVertex
 10
544.177228
 20
455.329875
 30
0.0
  0
VERTEX
  5
120C
330
11FF
100
AcDbEntity
  8
SCHRAFFUR_RAND
100
AcDbVertex
100
AcDb2dVertex
 10
545.016228
 20
450.569875
 30
0.0
  0
VERTEX
  5
120D
330
11FF
100
AcDbEntity
  8
SCHRAFFUR_RAND
100
AcDbVertex
100
AcDb2dVertex
 10
545.459228
 20
449.406875
 30
0.0
  0
VERTEX
  5
120E
330
11FF
100
AcDbEntity
  8
SCHRAFFUR_RAND
100
AcDbVertex
100
AcDb2dVertex
 10
546.4582280000001
 20
448.639875
 30
0.0
  0
VERTEX
  5
120F
330
11FF
100
AcDbEntity
  8
SCHRAFFUR_RAND
100
AcDbVertex
100
AcDb2dVertex
 10
547.696228
 20
448.5138749999999
 30
0.0
  0
SEQEND
  5
1210
330
11FF
100
AcDbEntity
  8
SCHRAFFUR_RAND
  0
INSERT
  5
1217
330
12DA
100
AcDbEntity
  8
8
100
AcDbBlockReference
  2
*X4
 10
-94.562772
 20
9.382875
 30
0.0
1001
ACAD
1000
HATCH
1002
{
1070
    19
1000
ANSI31,_I
1040
6.349999999999999
1040
-0.7850000000000001
1002
}
  0
POLYLINE
  5
1218
330
12DA
100
AcDbEntity
  8
SCHRAFFUR_RAND
100
AcDb2dPolyline
 66
     1
 10
0.0
 20
0.0
 30
0.0
 70
     1
  0
VERTEX
  5
1219
330
1218
100
AcDbEntity
  8
SCHRAFFUR_RAND
100
AcDbVertex
100
AcDb2dVertex
 10
506.3382279999999
 20
442.658875
 30
0.0
  0
VERTEX
  5
121A
330
1218
100
AcDbEntity
  8
SCHRAFFUR_RAND
100
AcDbVertex
100
AcDb2dVertex
 10
506.1552279999999
 20
439.158875
 30
0.0
  0
VERTEX
  5
121B
330
1218
100
AcDbEntity
  8
SCHRAFFUR_RAND
100
AcDbVertex
100
AcDb2dVertex
 10
499.560228
 20
439.158875
 30
0.0
  0
VERTEX
  5
121C
330
1218
100
AcDbEntity
  8
SCHRAFFUR_RAND
100
AcDbVertex
100
AcDb2dVertex
 10
498.177228
 20
431.3168749999999
 30
0.0
  0
VERTEX
  5
121D
330
1218
100
AcDbEntity
  8
SCHRAFFUR_RAND
100
AcDbVertex
100
AcDb2dVertex
 10
496.6082280000001
 20
341.463875
 30
0.0
  0
VERTEX
  5
121E
330
1218
100
AcDbEntity
  8
SCHRAFFUR_RAND
100
AcDbVertex
100
AcDb2dVertex
 10
496.335228
 20
339.540875
 30
0.0
  0
VERTEX
  5
121F
330
1218
100
AcDbEntity
  8
SCHRAFFUR_RAND
100
AcDbVertex
100
AcDb2dVertex
 10
495.3962279999999
 20
337.828875
 30
0.0
  0
VERTEX
  5
1220
330
1218
100
AcDbEntity
  8
SCHRAFFUR_RAND
100
AcDbVertex
100
AcDb2dVertex
 10
493.962228
 20
336.502875
 30
0.0
  0
VERTEX
  5
1221
330
1218
100
AcDbEntity
  8
SCHRAFFUR_RAND
100
AcDbVertex
100
AcDb2dVertex
 10
492.162228
 20
335.772875
 30
0.0
  0
VERTEX
  5
1222
330
1218
100
AcDbEntity
  8
SCHRAFFUR_RAND
100
AcDbVertex
100
AcDb2dVertex
 10
468.637228
 20
329.469875
 30
0.0
  0
VERTEX
  5
1223
330
1218
100
AcDbEntity
  8
SCHRAFFUR_RAND
100
AcDbVertex
100
AcDb2dVertex
 10
466.849228
 20
328.745875
 30
0.0
  0
VERTEX
  5
1224
330
1218
100
AcDbEntity
  8
SCHRAFFUR_RAND
100
AcDbVertex
100
AcDb2dVertex
 10
465.4202279999999
 20
327.433875
 30
0.0
  0
VERTEX
  5
1225
330
1218
100
AcDbEntity
  8
SCHRAFFUR_RAND
100
AcDbVertex
100
AcDb2dVertex
 10
464.478228
 20
325.738875
 30
0.0
  0
VERTEX
  5
1226
330
1218
100
AcDbEntity
  8
SCHRAFFUR_RAND
100
AcDbVertex
100
AcDb2dVertex
 10
464.193228
 20
323.830875
 30
0.0
  0
VERTEX
  5
1227
330
1218
100
AcDbEntity
  8
SCHRAFFUR_RAND
100
AcDbVertex
100
AcDb2dVertex
 10
461.178228
 20
224.658875
 30
0.0
  0
VERTEX
  5
1228
330
1218
100
AcDbEntity
  8
SCHRAFFUR_RAND
100
AcDbVertex
100
AcDb2dVertex
 10
467.678228
 20
226.3998750000001
 30
0.0
  0
VERTEX
  5
1229
330
1218
100
AcDbEntity
  8
SCHRAFFUR_RAND
100
AcDbVertex
100
AcDb2dVertex
 10
468.694228
 20
268.658875
 30
0.0
  0
VERTEX
  5
122A
330
1218
100
AcDbEntity
  8
SCHRAFFUR_RAND
100
AcDbVertex
100
AcDb2dVertex
 10
470.0162279999999
 20
319.179875
 30
0.0
  0
VERTEX
  5
122B
330
1218
100
AcDbEntity
  8
SCHRAFFUR_RAND
100
AcDbVertex
100
AcDb2dVertex
 10
470.3022279999999
 20
321.087875
 30
0.0
  0
VERTEX
  5
122C
330
1218
100
AcDbEntity
  8
SCHRAFFUR_RAND
100
AcDbVertex
100
AcDb2dVertex
 10
471.244228
 20
322.782875
 30
0.0
  0
VERTEX
  5
122D
330
1218
100
AcDbEntity
  8
SCHRAFFUR_RAND
100
AcDbVertex
100
AcDb2dVertex
 10
472.673228
 20
324.094875
 30
0.0
  0
VERTEX
  5
122E
330
1218
100
AcDbEntity
  8
SCHRAFFUR_RAND
100
AcDbVertex
100
AcDb2dVertex
 10
474.462228
 20
324.818875
 30
0.0
  0
VERTEX
  5
122F
330
1218
100
AcDbEntity
  8
SCHRAFFUR_RAND
100
AcDbVertex
100
AcDb2dVertex
 10
498.388228
 20
331.229875
 30
0.0
  0
VERTEX
  5
1230
330
1218
100
AcDbEntity
  8
SCHRAFFUR_RAND
100
AcDbVertex
100
AcDb2dVertex
 10
500.166228
 20
331.944875
 30
0.0
  0
VERTEX
  5
1231
330
1218
100
AcDbEntity
  8
SCHRAFFUR_RAND
100
AcDbVertex
100
AcDb2dVertex
 10
501.589228
 20
333.242875
 30
0.0
  0
VERTEX
  5
1232
330
1218
100
AcDbEntity
  8
SCHRAFFUR_RAND
100
AcDbVertex
100
AcDb2dVertex
 10
502.534228
 20
334.921875
 30
0.0
  0
VERTEX
  5
1233
330
1218
100
AcDbEntity
  8
SCHRAFFUR_RAND
100
AcDbVertex
100
AcDb2dVertex
 10
502.832228
 20
336.815875
 30
0.0
  0
VERTEX
  5
1234
330
1218
100
AcDbEntity
  8
SCHRAFFUR_RAND
100
AcDbVertex
100
AcDb2dVertex
 10
506.082228
 20
429.870875
 30
0.0
  0
VERTEX
  5
1235
330
1218
100
AcDbEntity
  8
SCHRAFFUR_RAND
100
AcDbVertex
100
AcDb2dVertex
 10
506.476228
 20
432.009875
 30
0.0
  0
VERTEX
  5
1236
330
1218
100
AcDbEntity
  8
SCHRAFFUR_RAND
100
AcDbVertex
100
AcDb2dVertex
 10
507.672228
 20
433.841875
 30
0.0
  0
VERTEX
  5
1237
330
1218
100
AcDbEntity
  8
SCHRAFFUR_RAND
100
AcDbVertex
100
AcDb2dVertex
 10
509.439228
 20
435.1318749999999
 30
0.0
  0
VERTEX
  5
1238
330
1218
100
AcDbEntity
  8
SCHRAFFUR_RAND
100
AcDbVertex
100
AcDb2dVertex
 10
511.554228
 20
435.637875
 30
0.0
  0
VERTEX
  5
1239
330
1218
100
AcDbEntity
  8
SCHRAFFUR_RAND
100
AcDbVertex
100
AcDb2dVertex
 10
521.091228
 20
436.472875
 30
0.0
  0
VERTEX
  5
123A
330
1218
100
AcDbEntity
  8
SCHRAFFUR_RAND
100
AcDbVertex
100
AcDb2dVertex
 10
522.329228
 20
436.3458749999999
 30
0.0
  0
VERTEX
  5
123B
330
1218
100
AcDbEntity
  8
SCHRAFFUR_RAND
100
AcDbVertex
100
AcDb2dVertex
 10
523.328228
 20
435.578875
 30
0.0
  0
VERTEX
  5
123C
330
1218
100
AcDbEntity
  8
SCHRAFFUR_RAND
100
AcDbVertex
100
AcDb2dVertex
 10
523.7712280000001
 20
434.416875
 30
0.0
  0
VERTEX
  5
123D
330
1218
100
AcDbEntity
  8
SCHRAFFUR_RAND
100
AcDbVertex
100
AcDb2dVertex
 10
525.859228
 20
422.574875
 30
0.0
  0
VERTEX
  5
123E
330
1218
100
AcDbEntity
  8
SCHRAFFUR_RAND
100
AcDbVertex
100
AcDb2dVertex
 10
526.843228
 20
419.327875
 30
0.0
  0
VERTEX
  5
123F
330
1218
100
AcDbEntity
  8
SCHRAFFUR_RAND
100
AcDbVertex
100
AcDb2dVertex
 10
528.729228
 20
416.551875
 30
0.0
  0
VERTEX
  5
1240
330
1218
100
AcDbEntity
  8
SCHRAFFUR_RAND
100
AcDbVertex
100
AcDb2dVertex
 10
531.306228
 20
414.4018749999999
 30
0.0
  0
VERTEX
  5
1241
330
1218
100
AcDbEntity
  8
SCHRAFFUR_RAND
100
AcDbVertex
100
AcDb2dVertex
 10
534.376228
 20
413.044875
 30
0.0
  0
VERTEX
  5
1242
330
1218
100
AcDbEntity
  8
SCHRAFFUR_RAND
100
AcDbVertex
100
AcDb2dVertex
 10
537.700228
 20
412.584875
 30
0.0
  0
VERTEX
  5
1243
330
1218
100
AcDbEntity
  8
SCHRAFFUR_RAND
100
AcDbVertex
100
AcDb2dVertex
 10
541.023228
 20
413.056875
 30
0.0
  0
VERTEX
  5
1244
330
1218
100
AcDbEntity
  8
SCHRAFFUR_RAND
100
AcDbVertex
100
AcDb2dVertex
 10
544.0872279999999
 20
414.426875
 30
0.0
  0
VERTEX
  5
1245
330
1218
100
AcDbEntity
  8
SCHRAFFUR_RAND
100
AcDbVertex
100
AcDb2dVertex
 10
546.656228
 20
416.586875
 30
0.0
  0
VERTEX
  5
1246
330
1218
100
AcDbEntity
  8
SCHRAFFUR_RAND
100
AcDbVertex
100
AcDb2dVertex
 10
548.531228
 20
419.369875
 30
0.0
  0
VERTEX
  5
1247
330
1218
100
AcDbEntity
  8
SCHRAFFUR_RAND
100
AcDbVertex
100
AcDb2dVertex
 10
549.494228
 20
422.574875
 30
0.0
  0
VERTEX
  5
1248
330
1218
100
AcDbEntity
  8
SCHRAFFUR_RAND
100
AcDbVertex
100
AcDb2dVertex
 10
552.095228
 20
437.324875
 30
0.0
  0
VERTEX
  5
1249
330
1218
100
AcDbEntity
  8
SCHRAFFUR_RAND
100
AcDbVertex
100
AcDb2dVertex
 10
552.449228
 20
438.367875
 30
0.0
  0
VERTEX
  5
124A
330
1218
100
AcDbEntity
  8
SCHRAFFUR_RAND
100
AcDbVertex
100
AcDb2dVertex
 10
553.2702279999999
 20
439.120875
 30
0.0
  0
VERTEX
  5
124B
330
1218
100
AcDbEntity
  8
SCHRAFFUR_RAND
100
AcDbVertex
100
AcDb2dVertex
 10
554.339228
 20
439.3808749999999
 30
0.0
  0
VERTEX
  5
124C
330
1218
100
AcDbEntity
  8
SCHRAFFUR_RAND
100
AcDbVertex
100
AcDb2dVertex
 10
559.8282280000001
 20
439.860875
 30
0.0
  0
VERTEX
  5
124D
330
1218
100
AcDbEntity
  8
SCHRAFFUR_RAND
100
AcDbVertex
100
AcDb2dVertex
 10
575.518228
 20
444.658875
 30
0.0
  0
VERTEX
  5
124E
330
1218
100
AcDbEntity
  8
SCHRAFFUR_RAND
100
AcDbVertex
100
AcDb2dVertex
 10
592.677228
 20
444.658875
 30
0.0
  0
VERTEX
  5
124F
330
1218
100
AcDbEntity
  8
SCHRAFFUR_RAND
100
AcDbVertex
100
AcDb2dVertex
 10
590.493228
 20
452.806875
 30
0.0
  0
VERTEX
  5
1250
330
1218
100
AcDbEntity
  8
SCHRAFFUR_RAND
100
AcDbVertex
100
AcDb2dVertex
 10
589.878228
 20
453.9998749999999
 30
0.0
  0
VERTEX
  5
1251
330
1218
100
AcDbEntity
  8
SCHRAFFUR_RAND
100
AcDbVertex
100
AcDb2dVertex
 10
588.687228
 20
454.659875
 30
0.0
  0
VERTEX
  5
1252
330
1218
100
AcDbEntity
  8
SCHRAFFUR_RAND
100
AcDbVertex
100
AcDb2dVertex
 10
588.079228
 20
454.658875
 30
0.0
  0
VERTEX
  5
1253
330
1218
100
AcDbEntity
  8
SCHRAFFUR_RAND
100
AcDbVertex
100
AcDb2dVertex
 10
587.3482280000001
 20
454.548875
 30
0.0
  0
VERTEX
  5
1254
330
1218
100
AcDbEntity
  8
SCHRAFFUR_RAND
100
AcDbVertex
100
AcDb2dVertex
 10
558.6772279999999
 20
445.782875
 30
0.0
  0
VERTEX
  5
1255
330
1218
100
AcDbEntity
  8
SCHRAFFUR_RAND
100
AcDbVertex
100
AcDb2dVertex
 10
544.315228
 20
444.5278749999999
 30
0.0
  0
VERTEX
  5
1256
330
1218
100
AcDbEntity
  8
SCHRAFFUR_RAND
100
AcDbVertex
100
AcDb2dVertex
 10
542.676228
 20
441.6898749999999
 30
0.0
  0
VERTEX
  5
1257
330
1218
100
AcDbEntity
  8
SCHRAFFUR_RAND
100
AcDbVertex
100
AcDb2dVertex
 10
542.677228
 20
431.015875
 30
0.0
  0
VERTEX
  5
1258
330
1218
100
AcDbEntity
  8
SCHRAFFUR_RAND
100
AcDbVertex
100
AcDb2dVertex
 10
542.677228
 20
428.4218749999999
 30
0.0
  0
VERTEX
  5
1259
330
1218
100
AcDbEntity
  8
SCHRAFFUR_RAND
100
AcDbVertex
100
AcDb2dVertex
 10
541.6772279999999
 20
428.4218749999999
 30
0.0
  0
VERTEX
  5
125A
330
1218
100
AcDbEntity
  8
SCHRAFFUR_RAND
100
AcDbVertex
100
AcDb2dVertex
 10
541.6772279999999
 20
422.921875
 30
0.0
  0
VERTEX
  5
125B
330
1218
100
AcDbEntity
  8
SCHRAFFUR_RAND
100
AcDbVertex
100
AcDb2dVertex
 10
537.676228
 20
420.613875
 30
0.0
  0
VERTEX
  5
125C
330
1218
100
AcDbEntity
  8
SCHRAFFUR_RAND
100
AcDbVertex
100
AcDb2dVertex
 10
533.6772279999999
 20
422.921875
 30
0.0
  0
VERTEX
  5
125D
330
1218
100
AcDbEntity
  8
SCHRAFFUR_RAND
100
AcDbVertex
100
AcDb2dVertex
 10
533.6772279999999
 20
428.4218749999999
 30
0.0
  0
VERTEX
  5
125E
330
1218
100
AcDbEntity
  8
SCHRAFFUR_RAND
100
AcDbVertex
100
AcDb2dVertex
 10
532.677228
 20
428.4218749999999
 30
0.0
  0
VERTEX
  5
125F
330
1218
100
AcDbEntity
  8
SCHRAFFUR_RAND
100
AcDbVertex
100
AcDb2dVertex
 10
532.677228
 20
431.015875
 30
0.0
  0
VERTEX
  5
1260
330
1218
100
AcDbEntity
  8
SCHRAFFUR_RAND
100
AcDbVertex
100
AcDb2dVertex
 10
532.677228
 20
442.515875
 30
0.0
  0
VERTEX
  5
1261
330
1218
100
AcDbEntity
  8
SCHRAFFUR_RAND
100
AcDbVertex
100
AcDb2dVertex
 10
532.677228
 20
443.508875
 30
0.0
  0
VERTEX
  5
1262
330
1218
100
AcDbEntity
  8
SCHRAFFUR_RAND
100
AcDbVertex
100
AcDb2dVertex
 10
516.634228
 20
442.105875
 30
0.0
  0
VERTEX
  5
1263
330
1218
100
AcDbEntity
  8
SCHRAFFUR_RAND
100
AcDbVertex
100
AcDb2dVertex
 10
515.329228
 20
442.262875
 30
0.0
  0
VERTEX
  5
1264
330
1218
100
AcDbEntity
  8
SCHRAFFUR_RAND
100
AcDbVertex
100
AcDb2dVertex
 10
514.3082279999999
 20
443.119875
 30
0.0
  0
VERTEX
  5
1265
330
1218
100
AcDbEntity
  8
SCHRAFFUR_RAND
100
AcDbVertex
100
AcDb2dVertex
 10
513.926228
 20
444.3778749999999
 30
0.0
  0
VERTEX
  5
1266
330
1218
100
AcDbEntity
  8
SCHRAFFUR_RAND
100
AcDbVertex
100
AcDb2dVertex
 10
513.824228
 20
445.549875
 30
0.0
  0
VERTEX
  5
1267
330
1218
100
AcDbEntity
  8
SCHRAFFUR_RAND
100
AcDbVertex
100
AcDb2dVertex
 10
513.7272280000001
 20
446.658875
 30
0.0
  0
VERTEX
  5
1268
330
1218
100
AcDbEntity
  8
SCHRAFFUR_RAND
100
AcDbVertex
100
AcDb2dVertex
 10
506.548228
 20
446.658875
 30
0.0
  0
VERTEX
  5
1269
330
1218
100
AcDbEntity
  8
SCHRAFFUR_RAND
100
AcDbVertex
100
AcDb2dVertex
 10
506.3382279999999
 20
442.658875
 30
0.0
  0
SEQEND
  5
126A
330
1218
100
AcDbEntity
  8
SCHRAFFUR_RAND
  0
INSERT
  5
1369
330
12DA
100
AcDbEntity
  8
0
100
AcDbBlockReference
  2
KATALOG_LEER
 10
251.839706
 20
11.304483
 30
0.0
 41
5.0
 42
5.0
 43
5.0
1001
GENIUS_GENOREF_13
1005
136A
  0
POINT
  5
136A
330
12DA
100
AcDbEntity
  8
0
 60
     1
100
AcDbPoint
 10
0.0
 20
0.0
 30
0.0
1001
GENIUS_GENOBJ-N-TIT_13
1002
{
1000
OWNER
1000
GEN
1002
}
1001
GENIUS_GENOENT_13
1002
{
1000
MYREF
1005
136A
1002
}
1002
{
1000
GRP
1005
0
1002
}
1001
GENIUS_GENOLIS_13
1002
{
1000
ENT
1005
1369
1002
}
1001
GENIUS_GENTITLE_13
1002
{
1000
SCALE
1000
1:5
1002
}
1002
{
1000
BORDER
1000
KATALOG
1002
}
1002
{
1000
TITLE
1000
KATALOG_LEER
1002
}
1002
{
1000
UNCHG
1002
{
1000
GEN-TITLE-SCA
1000
GEN-TITLE-SIZ
1002
}
1002
}
1002
{
1000
HRA
1005
1362
1002
}
1002
{
1000
HTIT
1005
1369
1002
}
1002
{
1000
GENIUSID
1005
136A
1002
}
1001
GENIUS_GENODEF_13
1002
{
1000
HIER
1070
     1
1002
}
1002
{
1000
MANEDIT
1070
     1
1002
}
1002
{
1000
NOSEL
1070
     0
1002
}
1002
{
1000
BEHIND
1070
     0
1002
}
1002
{
1000
REACTOR
1002
}
  0
HATCH
  5
15BC
330
12DA
100
AcDbEntity
  8
AM_8
100
AcDbHatch
 10
0.0
 20
0.0
 30
0.0
210
0.0
220
0.0
230
1.0
  2
_U
 70
     0
 71
     0
 91
        1
 92
        1
 93
       97
 72
     1
 10
461.178228
 20
224.658875
 11
467.678228
 21
226.3998750000001
 72
     1
 10
467.678228
 20
226.3998750000001
 11
468.694228
 21
268.658875
 72
     1
 10
468.694228
 20
268.658875
 11
470.0162279999999
 21
319.179875
 72
     1
 10
470.0162279999999
 20
319.179875
 11
470.0187456099762
 21
319.1966708036178
 72
     2
 10
476.016228
 20
319.0228750000001
 40
5.99999999999998
 50
181.6598598405414
 51
195.3899238209303
 73
     0
 72
     1
 10
470.2313754558708
 20
320.6151943909144
 11
470.3022279999999
 21
321.087875
 72
     1
 10
470.3022279999999
 20
321.087875
 11
470.6920695555147
 21
321.7893414932034
 72
     2
 10
476.016228
 20
319.022875
 40
6.0
 50
207.4566745575765
 51
210.6697525073193
 73
     0
 72
     1
 10
470.8554979395991
 20
322.0834084900431
 11
471.244228
 21
322.782875
 72
     1
 10
471.244228
 20
322.782875
 11
471.8213208415235
 21
323.3127181127214
 72
     2
 10
476.0162280000002
 20
319.0228750000002
 40
6.000000000000024
 50
225.641056289332
 51
229.2473342798911
 73
     0
 72
     1
 10
472.0994580125029
 20
323.5680826811783
 11
472.673228
 21
324.094875
 72
     1
 10
472.673228
 20
324.094875
 11
473.1072173914823
 21
324.270508493255
 72
     2
 10
476.0162279999999
 20
319.022875
 40
5.999999999999981
 50
240.9983307311017
 51
254.9357675212909
 73
     0
 72
     1
 10
474.4568174939949
 20
324.8166853933216
 11
474.462228
 21
324.818875
 72
     1
 10
474.462228
 20
324.818875
 11
498.388228
 21
331.229875
 72
     1
 10
498.388228
 20
331.229875
 11
499.7379045754824
 21
331.7726302033014
 72
     2
 10
496.8372279999999
 20
337.0248749999999
 40
5.99999999999996
 50
298.9107149157574
 51
310.4452558227084
 73
     1
 72
     1
 10
500.7295552590538
 20
332.458718135806
 11
501.0272866355644
 21
332.7302960182449
 72
     2
 10
496.8372279999999
 20
337.0248749999999
 40
6.000000000000031
 50
314.2942218535308
 51
328.5725415937226
 73
     1
 72
     1
 10
501.9570340649271
 20
333.896363235992
 11
502.1681046772441
 21
334.2713765249659
 72
     2
 10
496.8372279999999
 20
337.024875
 40
6.000000000000057
 50
332.6827923394146
 51
344.0078875882317
 73
     1
 72
     1
 10
502.6050257936591
 20
335.3718448697661
 11
502.832228
 21
336.815875
 72
     1
 10
502.832228
 20
336.815875
 11
506.082228
 21
429.870875
 72
     1
 10
506.082228
 20
429.870875
 11
506.0830649853179
 21
429.8754189380581
 72
     2
 10
512.079228
 20
429.660875
 40
5.999999999999981
 50
182.0491805290769
 51
198.824406637234
 73
     0
 72
     1
 10
506.4001566196627
 20
431.5968884960875
 11
506.476228
 21
432.009875
 72
     1
 10
506.476228
 20
432.009875
 11
506.7810927461251
 21
432.4768584572752
 72
     2
 10
512.079228
 20
429.660875
 40
5.999999999999972
 50
207.9908515603489
 51
218.2852407667514
 73
     0
 72
     1
 10
507.3696120129207
 20
433.3783361301596
 11
507.672228
 21
433.841875
 72
     1
 10
507.672228
 20
433.841875
 11
508.1174752713221
 21
434.1669281861944
 72
     2
 10
512.0792279999999
 20
429.6608749999998
 40
5.999999999999976
 50
228.677844561311
 51
239.0594597020291
 73
     0
 72
     1
 10
508.9943384561841
 20
434.8070829731055
 11
509.439228
 21
435.1318749999999
 72
     1
 10
509.439228
 20
435.1318749999999
 11
509.8423828317202
 21
435.2283271725061
 72
     2
 10
512.0792280000001
 20
429.660875
 40
5.999999999999983
 50
248.1111306499637
 51
264.9793841799211
 73
     0
 72
     1
 10
511.5541429089855
 20
435.637854642528
 11
511.554228
 21
435.637875
 72
     1
 10
511.554228
 20
435.637875
 11
521.091228
 21
436.472875
 72
     1
 10
521.091228
 20
436.472875
 11
521.0916884733601
 21
436.4728277624259
 72
     1
 10
521.0916884733601
 20
436.4728277624259
 11
521.0944442314032
 21
436.472545063499
 72
     2
 10
521.310228
 20
433.981875
 40
2.499999999999999
 50
265.0484390750362
 51
286.6659367647885
 73
     0
 72
     1
 10
522.0272055716911
 20
436.3768579146972
 11
522.329228
 21
436.3458749999999
 72
     1
 10
522.329228
 20
436.3458749999999
 11
522.7129675558471
 21
436.051252137803
 72
     2
 10
521.3102279999999
 20
433.981875
 40
2.500000000000024
 50
304.1316150814862
 51
310.9001694018147
 73
     0
 72
     1
 10
522.9470856212137
 20
435.8715038333624
 11
523.328228
 21
435.578875
 72
     1
 10
523.328228
 20
435.578875
 11
523.7712280000001
 21
434.416875
 72
     1
 10
523.7712280000001
 20
434.416875
 11
525.859228
 21
422.574875
 72
     1
 10
525.859228
 20
422.574875
 11
526.6874147484238
 21
419.8420270608411
 72
     2
 10
537.6782279999998
 20
424.6588750000003
 40
12.00000000000001
 50
203.6659783637306
 51
209.4037101782086
 73
     1
 72
     1
 10
527.2240437491196
 20
418.7673529853892
 11
528.3498750800015
 21
417.1102438790645
 72
     2
 10
537.6782280000001
 20
424.6588749999999
 40
12.00000000000004
 50
218.9802591336369
 51
225.3632387853934
 73
     1
 72
     1
 10
529.2469110316151
 20
416.1199702588387
 11
530.7884573404521
 21
414.8338528494482
 72
     2
 10
537.6782280000002
 20
424.6588749999999
 40
11.99999999999995
 50
234.9600432175554
 51
241.3298474364007
 73
     1
 72
     1
 10
531.9210300569282
 20
414.1301204751623
 11
533.7669392917173
 21
413.3141925169836
 72
     2
 10
537.6782279999997
 20
424.658875
 40
11.99999999999998
 50
250.9774216935871
 51
257.2693365366857
 73
     1
 72
     1
 10
535.0338089057327
 20
412.9538740322993
 11
537.0444890746421
 21
412.6756210606692
 72
     2
 10
537.6782279999996
 20
424.658875
 40
12.00000000000005
 50
266.972711191989
 51
270.0000000000017
 73
     1
 72
     1
 10
537.6782279999999
 20
412.658875
 11
537.6782279999999
 21
420.6150287115721
 72
     1
 10
537.6782279999999
 20
420.6150287115721
 11
537.676228
 21
420.613875
 72
     1
 10
537.676228
 20
420.613875
 11
533.6772279999999
 21
422.921875
 72
     1
 10
533.6772279999999
 20
422.921875
 11
533.6772279999999
 21
428.4218749999999
 72
     1
 10
533.6772279999999
 20
428.4218749999999
 11
532.677228
 21
428.4218749999999
 72
     1
 10
532.677228
 20
428.4218749999999
 11
532.677228
 21
443.508875
 72
     1
 10
532.677228
 20
443.508875
 11
516.634228
 21
442.105875
 72
     1
 10
516.634228
 20
442.105875
 11
515.329228
 21
442.262875
 72
     1
 10
515.329228
 20
442.262875
 11
515.0137588817012
 21
442.5276713118335
 72
     2
 10
516.4182280000003
 20
444.5958749999997
 40
2.500000000000044
 50
124.1795158366809
 51
135.8388753953628
 73
     0
 72
     1
 10
514.6247693208551
 20
442.8541787101147
 11
514.3082279999999
 21
443.119875
 72
     1
 10
514.3082279999999
 20
443.119875
 11
514.2236205971474
 21
443.3985035675094
 72
     2
 10
516.418228
 20
444.595875
 40
2.500000000000013
 50
151.3832458459426
 51
174.8342359628284
 73
     0
 72
     1
 10
513.9283820586581
 20
444.3707812675604
 11
513.926228
 21
444.3778749999999
 72
     1
 10
513.926228
 20
444.3778749999999
 11
513.824228
 21
445.549875
 72
     1
 10
513.824228
 20
445.549875
 11
513.7272280000001
 21
446.658875
 72
     1
 10
513.7272280000001
 20
446.658875
 11
506.5493049230769
 21
446.658875
 72
     1
 10
506.5493049230769
 20
446.658875
 11
506.156228
 21
439.158875
 72
     1
 10
506.156228
 20
439.158875
 11
499.561052898607
 21
439.158875
 72
     1
 10
499.561052898607
 20
439.158875
 11
498.178228
 21
431.3168749999999
 72
     1
 10
498.178228
 20
431.3168749999999
 11
498.177228
 21
431.3168749999999
 72
     1
 10
498.177228
 20
431.3168749999999
 11
496.6082280000001
 21
341.463875
 72
     1
 10
496.6082280000001
 20
341.463875
 11
496.335228
 21
339.540875
 72
     1
 10
496.335228
 20
339.540875
 11
495.9913513339339
 21
338.9139134959477
 72
     2
 10
490.6102280000001
 20
341.5678750000002
 40
6.00000000000001
 50
26.25244212554869
 51
31.23544798407383
 73
     0
 72
     1
 10
495.7404896086194
 20
338.4565383375468
 11
495.3962279999999
 21
337.828875
 72
     1
 10
495.3962279999999
 20
337.828875
 11
494.8681221250601
 21
337.3405427892815
 72
     2
 10
490.6102279999997
 20
341.5678749999997
 40
6.000000000000022
 50
44.79363412779792
 51
49.68809687062073
 73
     0
 72
     1
 10
494.491917253887
 20
336.9926713393683
 11
493.962228
 21
336.502875
 72
     1
 10
493.962228
 20
336.502875
 11
492.162228
 21
335.772875
 72
     1
 10
492.162228
 20
335.772875
 11
468.637228
 21
329.469875
 72
     1
 10
468.637228
 20
329.469875
 11
468.631826513656
 21
329.4676878209659
 72
     1
 10
468.631826513656
 20
329.4676878209659
 11
467.2801684122588
 21
328.9203721244269
 72
     2
 10
470.191228
 20
323.673875
 40
6.000000000000013
 50
119.0240432729197
 51
130.5579285862195
 73
     1
 72
     1
 10
466.2899288765316
 20
328.2323687368855
 11
465.9817647624557
 21
327.949435694431
 72
     2
 10
470.191228
 20
323.673875
 40
5.999999999999994
 50
134.5536808445488
 51
149.0559358067504
 73
     1
 72
     1
 10
465.0452097683632
 20
326.7590810481696
 11
464.8538857734501
 21
326.4148197197431
 72
     2
 10
470.191228
 20
323.673875
 40
5.999999999999968
 50
152.8176371283521
 51
164.512592404421
 73
     1
 72
     1
 10
464.4090930202224
 20
325.2760345038051
 11
464.1932940207645
 21
323.8313169916447
 72
     1
 10
464.1932940207645
 20
323.8313169916447
 11
464.193228
 21
323.830875
 72
     1
 10
464.193228
 20
323.830875
 11
461.178228
 21
224.658875
 97
        0
 75
     0
 76
     0
 52
45.0
 41
5.0
 77
     0
 78
     1
 53
45.0
 43
0.0
 44
0.0
 45
-3.535533905932737
 46
3.535533905932737
 79
     0
 98
        1
 10
0.0
 20
0.0
1001
GENIUS_GENOBJ-N-HTC_13
1002
{
1000
OWNER
1000
GEN
1002
}
1001
GENIUS_GENODEF_13
1002
{
1000
HIER
1070
     0
1002
}
1002
{
1000
MANEDIT
1070
     0
1002
}
1002
{
1000
NOSEL
1070
     0
1002
}
1002
{
1000
BEHIND
1070
     0
1002
}
1002
{
1000
OTHER
1070
     0
1002
}
1002
{
1000
REACTOR
1002
}
1001
GENIUS_GENHATCH_13
1002
{
1000
DATA
1040
45.0
1042
2.5
1000
_U
1070
     0
1011
500.7636359255884
1021
353.9129765515954
1031
0.0
1002
}
1002
{
1000
UCS
1010
0.0
1020
0.0
1030
0.0
1010
1.0
1020
0.0
1030
0.0
1010
0.0
1020
1.0
1030
0.0
1002
}
1001
ACAD
1010
0.0
1020
0.0
1030
0.0
  0
HATCH
  5
15C0
330
12DA
100
AcDbEntity
  8
AM_8
100
AcDbHatch
 10
0.0
 20
0.0
 30
0.0
210
0.0
220
0.0
230
1.0
  2
_U
 70
     0
 71
     0
 91
        1
 92
        1
 93
       97
 72
     1
 10
304.263228
 20
436.472875
 11
313.799228
 21
435.6388749999999
 72
     1
 10
313.799228
 20
435.6388749999999
 11
313.8041677665608
 21
435.6376914169913
 72
     2
 10
313.2772279999999
 20
429.6608749999999
 40
6.000000000000012
 50
275.0383951229523
 51
291.9100550533398
 73
     0
 72
     1
 10
315.5161316379767
 20
435.2274996954374
 11
315.915228
 21
435.1318749999999
 72
     1
 10
315.915228
 20
435.1318749999999
 11
316.3510612106331
 21
434.8136945576023
 72
     2
 10
313.2772280000001
 20
429.6608749999998
 40
6.000000000000036
 50
300.8175226668353
 51
311.4451730698232
 73
     0
 72
     1
 10
317.2486463683755
 20
434.1584116750399
 11
317.682228
 21
433.841875
 72
     1
 10
317.682228
 20
433.841875
 11
317.9754493749339
 21
433.3927265393988
 72
     2
 10
313.2772280000001
 20
429.6608749999998
 40
5.999999999999983
 50
321.5394779140443
 51
332.1844297588504
 73
     0
 72
     1
 10
318.583953206384
 20
432.4606370584485
 11
318.878228
 21
432.009875
 72
     1
 10
318.878228
 20
432.009875
 11
318.9527041812045
 21
431.6074027076322
 72
     2
 10
313.2772280000001
 20
429.6608749999998
 40
5.999999999999979
 50
341.0694826135733
 51
357.962903597147
 73
     0
 72
     1
 10
319.2734361303087
 20
429.8741542958065
 11
319.274228
 21
429.8698749999999
 72
     1
 10
319.274228
 20
429.8698749999999
 11
322.523228
 21
336.815875
 72
     1
 10
322.523228
 20
336.815875
 11
322.7460967312727
 21
335.3905692287189
 72
     2
 10
328.519228
 20
337.0248750000001
 40
6.00000000000002
 50
195.8061956983113
 51
207.8565518653288
 73
     1
 72
     1
 10
323.2145067206916
 20
334.2213179471023
 11
323.3729872633239
 21
333.94004011298
 72
     2
 10
328.519228
 20
337.0248750000001
 40
6.000000000000036
 50
210.9399317734484
 51
225.9856622562579
 73
     1
 72
     1
 10
324.3501978586004
 20
332.7098793244399
 11
324.6011560297878
 21
332.480789609491
 72
     2
 10
328.519228
 20
337.024875
 40
5.999999999999993
 50
229.2309197769226
 51
241.1552070133447
 73
     1
 72
     1
 10
325.6245963381072
 20
331.7692962933334
 11
326.965228
 21
331.229875
 72
     1
 10
326.965228
 20
331.229875
 11
350.892228
 21
324.818875
 72
     1
 10
350.892228
 20
324.818875
 11
350.8936948110484
 21
324.8182818767405
 72
     2
 10
349.3402279999998
 20
319.0228750000001
 40
5.999999999999959
 50
285.0054625725248
 51
299.0276519708472
 73
     0
 72
     1
 10
352.2516180255606
 20
324.269188764832
 11
352.680228
 21
324.095875
 72
     1
 10
352.680228
 20
324.095875
 11
353.2286105509834
 21
323.5923915102238
 72
     2
 10
349.3402280000002
 20
319.0228749999997
 40
6.000000000000015
 50
310.3957761400264
 51
314.7158332907357
 73
     0
 72
     1
 10
353.5617746026907
 20
323.2865054109656
 11
354.109228
 21
322.783875
 72
     1
 10
354.109228
 20
322.783875
 11
354.4655632802666
 21
322.1423201854224
 72
     2
 10
349.3402279999997
 20
319.0228750000005
 40
6.000000000000027
 50
328.6739509417214
 51
333.2283149322934
 73
     0
 72
     1
 10
354.6970791684631
 20
321.7254932784357
 11
355.051228
 21
321.087875
 72
     1
 10
355.051228
 20
321.087875
 11
355.336228
 21
319.179875
 72
     1
 10
355.336228
 20
319.179875
 11
356.660228
 21
268.658875
 72
     1
 10
356.660228
 20
268.658875
 11
357.677228
 21
226.4008750000001
 72
     1
 10
357.677228
 20
226.4008750000001
 11
364.178228
 21
224.658875
 72
     1
 10
364.178228
 20
224.658875
 11
361.160228
 21
323.830875
 72
     1
 10
361.160228
 20
323.830875
 11
360.9436881723569
 21
325.2856566589538
 72
     2
 10
355.1642279999999
 20
323.6738750000001
 40
6.000000000000019
 50
15.58277657283251
 51
26.85895125029936
 73
     1
 72
     1
 10
360.5169566468741
 20
326.3846490652688
 11
360.2899407558521
 21
326.7926998980177
 72
     2
 10
355.1642279999999
 20
323.6738750000001
 40
5.99999999999997
 50
31.31911516231341
 51
45.1654301532831
 73
     1
 72
     1
 10
359.39460123966
 20
327.9287477658026
 11
359.0463245496888
 21
328.2487330719946
 72
     2
 10
355.1642279999999
 20
323.6738750000001
 40
5.999999999999974
 50
49.68299606778376
 51
60.93256109117231
 73
     1
 72
     1
 10
358.0792604321501
 20
328.9181657928063
 11
356.715228
 21
329.469875
 72
     1
 10
356.715228
 20
329.469875
 11
333.192228
 21
335.772875
 72
     1
 10
333.192228
 20
335.772875
 11
333.18685161299
 21
335.7750554236207
 72
     2
 10
334.7462280000001
 20
341.5688749999999
 40
5.999999999999995
 50
105.0638950715923
 51
119.0866805275559
 73
     0
 72
     1
 10
331.8294345441835
 20
336.3255634570812
 11
331.392228
 21
336.502875
 72
     1
 10
331.392228
 20
336.502875
 11
330.82877198861
 21
337.0242585806721
 72
     2
 10
334.7462279999998
 20
341.5688750000001
 40
5.999999999999927
 50
130.7613141324824
 51
134.7968028919648
 73
     0
 72
     1
 10
330.5186603113456
 20
337.3112146756146
 11
329.959228
 21
337.828875
 72
     1
 10
329.959228
 20
337.828875
 11
329.5940402223152
 21
338.4939829525492
 72
     2
 10
334.7462279999998
 20
341.5688750000003
 40
6.000000000000015
 50
149.1707030803791
 51
153.289964464154
 73
     0
 72
     1
 10
329.3864719500607
 20
338.8720221888255
 11
329.019228
 21
339.540875
 72
     1
 10
329.019228
 20
339.540875
 11
328.747228
 21
341.463875
 72
     1
 10
328.747228
 20
341.463875
 11
327.1772279999999
 21
431.317875
 72
     1
 10
327.1772279999999
 20
431.317875
 11
325.794228
 21
439.158875
 72
     1
 10
325.794228
 20
439.158875
 11
319.199228
 21
439.158875
 72
     1
 10
319.199228
 20
439.158875
 11
319.016228
 21
442.658875
 72
     1
 10
319.016228
 20
442.658875
 11
318.806228
 21
446.658875
 72
     1
 10
318.806228
 20
446.658875
 11
311.6278078319328
 21
446.658875
 72
     1
 10
311.6278078319328
 20
446.658875
 11
311.5512146946779
 21
445.783875
 72
     1
 10
311.5512146946779
 20
445.783875
 11
311.550228
 21
445.783875
 72
     1
 10
311.550228
 20
445.783875
 11
311.427228
 21
444.378875
 72
     1
 10
311.427228
 20
444.378875
 11
311.046228
 21
443.119875
 72
     1
 10
311.046228
 20
443.119875
 11
310.7367645173248
 21
442.8604227559548
 72
     2
 10
308.9382280000001
 20
444.596875
 40
2.499999999999976
 50
43.99382956982035
 51
56.05365520883363
 73
     0
 72
     1
 10
310.3342687445482
 20
442.5229728230492
 11
310.025228
 21
442.2638749999999
 72
     1
 10
310.025228
 20
442.2638749999999
 11
309.7420069880982
 21
442.2296108959567
 72
     2
 10
308.9382279999999
 20
444.596875
 40
2.500000000000011
 50
71.24563558680385
 51
94.95811451016445
 73
     0
 72
     1
 10
308.7221593458898
 20
442.1062296344951
 11
308.7196472815557
 21
442.1059257247211
 72
     1
 10
308.7196472815557
 20
442.1059257247211
 11
308.719228
 21
442.105875
 72
     1
 10
308.719228
 20
442.105875
 11
306.167228
 21
442.328875
 72
     1
 10
306.167228
 20
442.328875
 11
292.678228
 21
443.5097874536693
 72
     1
 10
292.678228
 20
443.5097874536693
 11
292.678228
 21
428.4218749999999
 72
     1
 10
292.678228
 20
428.4218749999999
 11
291.678228
 21
428.4218749999999
 72
     1
 10
291.678228
 20
428.4218749999999
 11
291.678228
 21
422.921875
 72
     1
 10
291.678228
 20
422.921875
 11
291.6772279999999
 21
422.921875
 72
     1
 10
291.6772279999999
 20
422.921875
 11
287.678228
 21
420.6134522499999
 72
     1
 10
287.678228
 20
420.6134522499999
 11
287.678228
 21
412.658875
 72
     2
 10
287.6782280000001
 20
424.6588749999999
 40
12.0
 50
269.9999999999995
 51
273.2496499129608
 73
     1
 72
     1
 10
288.3584682466159
 20
412.6781707967036
 11
290.3689524509221
 21
412.964431792681
 72
     2
 10
287.678228
 20
424.6588749999999
 40
11.99999999999995
 50
282.9574293661366
 51
289.2299715124099
 73
     1
 72
     1
 10
291.6305552778368
 20
413.3284244754681
 11
293.4839037505574
 21
414.156773825502
 72
     2
 10
287.6782279999998
 20
424.6588749999999
 40
12.00000000000005
 50
298.9342948209798
 51
305.1922679827213
 73
     1
 72
     1
 10
294.5940924548509
 20
414.8522028405909
 11
296.1518878187164
 21
416.1619879655225
 72
     2
 10
287.6782279999998
 20
424.6588749999998
 40
11.99999999999996
 50
314.9215805705358
 51
321.1605256833561
 73
     1
 72
     1
 10
297.0251009246108
 20
417.1331878864417
 11
298.1664340251771
 21
418.8281345347212
 72
     2
 10
287.6782279999999
 20
424.6588749999999
 40
12.00000000000004
 50
330.9288704322036
 51
336.4951695557965
 73
     1
 72
     1
 10
298.6825454447148
 20
419.8729584131855
 11
299.495228
 21
422.574875
 72
     1
 10
299.495228
 20
422.574875
 11
301.583228
 21
434.415875
 72
     1
 10
301.583228
 20
434.415875
 11
302.025228
 21
435.578875
 72
     1
 10
302.025228
 20
435.578875
 11
302.4217050030936
 21
435.8829728613728
 72
     2
 10
304.0452279999999
 20
433.9818749999999
 40
2.50000000000001
 50
229.5029272096789
 51
235.5206605290573
 73
     0
 72
     1
 10
302.6299554376599
 20
436.042700944685
 11
303.025228
 21
436.3458749999999
 72
     1
 10
303.025228
 20
436.3458749999999
 11
303.3287720557332
 21
436.3770140105638
 72
     2
 10
304.045228
 20
433.981875
 40
2.499999999999996
 50
253.3465418527686
 51
274.9390823074018
 73
     0
 72
     1
 10
304.2604693130714
 20
436.4725920006139
 11
304.263228
 21
436.472875
 97
        0
 75
     0
 76
     0
 52
45.0
 41
5.0
 77
     0
 78
     1
 53
45.0
 43
0.0
 44
0.0
 45
-3.535533905932737
 46
3.535533905932737
 79
     0
 98
        1
 10
0.0
 20
0.0
1001
GENIUS_GENOBJ-N-HTC_13
1002
{
1000
OWNER
1000
GEN
1002
}
1001
GENIUS_GENODEF_13
1002
{
1000
HIER
1070
     0
1002
}
1002
{
1000
MANEDIT
1070
     0
1002
}
1002
{
1000
NOSEL
1070
     0
1002
}
1002
{
1000
BEHIND
1070
     0
1002
}
1002
{
1000
OTHER
1070
     0
1002
}
1002
{
1000
REACTOR
1002
}
1001
GENIUS_GENHATCH_13
1002
{
1000
DATA
1040
45.0
1042
1.0
1000
_U
1070
     0
1011
323.7915320613215
1021
393.5388466937429
1031
0.0
1002
}
1002
{
1000
UCS
1010
0.0
1020
0.0
1030
0.0
1010
1.0
1020
0.0
1030
0.0
1010
0.0
1020
1.0
1030
0.0
1002
}
  0
HATCH
  5
15C9
330
12DA
100
AcDbEntity
  8
AM_8
100
AcDbHatch
 10
0.0
 20
0.0
 30
0.0
210
0.0
220
0.0
230
1.0
  2
_U
 70
     0
 71
     0
 91
        1
 92
        1
 93
       39
 72
     1
 10
265.526228
 20
439.8618749999999
 11
271.015228
 21
439.381875
 72
     1
 10
271.015228
 20
439.381875
 11
271.0185613368509
 21
439.3810580362441
 72
     2
 10
270.7972279999999
 20
436.8908750000001
 40
2.499999999999967
 50
275.079236526372
 51
292.462971528424
 73
     0
 72
     1
 10
271.7524436950581
 20
439.2011916397518
 11
272.084228
 21
439.119875
 72
     1
 10
272.084228
 20
439.119875
 11
272.905228
 21
438.367875
 72
     1
 10
272.905228
 20
438.367875
 11
273.0149851970915
 21
438.0448043803126
 72
     2
 10
270.797228
 20
436.8908749999998
 40
2.499999999999998
 50
332.5114236140052
 51
349.9601138124473
 73
     0
 72
     1
 10
273.2589445750788
 20
437.3267092620562
 11
273.259228
 21
437.3258749999999
 72
     1
 10
273.259228
 20
437.3258749999999
 11
275.860228
 21
422.5758749999999
 72
     1
 10
275.860228
 20
422.5758749999999
 11
276.691049820348
 21
419.8337412558867
 72
     2
 10
287.6782280000001
 20
424.6588749999999
 40
12.00000000000005
 50
203.7091799122182
 51
209.3960445971347
 73
     1
 72
     1
 10
277.2232556181418
 20
418.7687516995432
 11
278.3546071933762
 21
417.1043998326378
 72
     2
 10
287.6782280000004
 20
424.6588749999996
 40
12.00000000000003
 50
219.0161630212848
 51
225.3762565199053
 73
     1
 72
     1
 10
279.2488513082538
 20
416.1180548644013
 11
280.7907219173221
 21
414.8322652101958
 72
     2
 10
287.6782280000004
 20
424.6588749999997
 40
11.99999999999993
 50
234.9732482986238
 51
241.3591078293809
 73
     1
 72
     1
 10
281.9264077391783
 20
414.1271817037061
 11
283.7645969335862
 21
413.3150003587673
 72
     2
 10
287.678228
 20
424.658875
 40
12.00000000000002
 50
250.9655913040369
 51
257.2971989685175
 73
     1
 72
     1
 10
285.0395012568349
 20
412.9525894586805
 11
287.0467133836635
 21
412.6755036342551
 72
     2
 10
287.6782279999996
 20
424.6588749999999
 40
11.99999999999994
 50
266.9833462745064
 51
270.0000000000017
 73
     1
 72
     1
 10
287.678228
 20
412.658875
 11
287.678228
 21
420.6134522499999
 72
     1
 10
287.678228
 20
420.6134522499999
 11
287.6772279999999
 21
420.6128749999999
 72
     1
 10
287.6772279999999
 20
420.6128749999999
 11
283.6772279999999
 21
422.921875
 72
     1
 10
283.6772279999999
 20
422.921875
 11
283.6772279999999
 21
428.4218749999999
 72
     1
 10
283.6772279999999
 20
428.4218749999999
 11
282.677228
 21
428.4218749999999
 72
     1
 10
282.677228
 20
428.4218749999999
 11
282.677228
 21
443.421875
 72
     1
 10
282.677228
 20
443.421875
 11
281.6782274225759
 21
443.4208759994226
 72
     1
 10
281.6782274225759
 20
443.4208759994226
 11
281.6772279999999
 21
443.420875
 72
     1
 10
281.6772279999999
 20
443.420875
 11
281.039228
 21
444.5278749999999
 72
     1
 10
281.039228
 20
444.5278749999999
 11
266.6772279999999
 21
445.783875
 72
     1
 10
266.6772279999999
 20
445.783875
 11
238.005228
 21
454.549875
 72
     1
 10
238.005228
 20
454.549875
 11
237.2752293358733
 21
454.658874800534
 72
     2
 10
237.276228
 20
452.158875
 40
2.500000000000014
 50
90.02288769645209
 51
112.2591701144712
 73
     1
 72
     1
 10
236.3292361398809
 20
454.472574724871
 11
235.8164032647275
 21
454.1883852222671
 72
     2
 10
237.2762279999999
 20
452.1588749999999
 40
2.500000000000028
 50
125.7274278597433
 51
140.5524333996048
 73
     1
 72
     1
 10
235.3457121051635
 20
453.7473045325207
 11
234.8637759150987
 21
452.8146759896723
 72
     1
 10
234.8637759150987
 20
452.8146759896723
 11
234.859228
 21
452.805875
 72
     1
 10
234.859228
 20
452.805875
 11
232.677228
 21
444.658875
 72
     1
 10
232.677228
 20
444.658875
 11
249.835228
 21
444.658875
 72
     1
 10
249.835228
 20
444.658875
 11
265.526228
 21
439.8618749999999
 97
        0
 75
     0
 76
     0
 52
45.0
 41
5.0
 77
     0
 78
     1
 53
45.0
 43
0.0
 44
0.0
 45
-3.535533905932737
 46
3.535533905932737
 79
     0
 98
        1
 10
0.0
 20
0.0
1001
GENIUS_GENODEF_13
1002
{
1000
HIER
1070
     0
1002
}
1002
{
1000
MANEDIT
1070
     0
1002
}
1002
{
1000
NOSEL
1070
     0
1002
}
1002
{
1000
BEHIND
1070
     0
1002
}
1002
{
1000
OTHER
1070
     0
1002
}
1002
{
1000
REACTOR
1002
}
1001
GENIUS_GENOBJ-N-HTC_13
1002
{
1000
OWNER
1000
GEN
1002
}
1001
GENIUS_GENHATCH_13
1002
{
1000
DATA
1040
45.0
1042
2.5
1000
_U
1070
     0
1011
277.0708994064407
1021
439.7690276501818
1031
0.0
1002
}
1002
{
1000
UCS
1010
0.0
1020
0.0
1030
0.0
1010
1.0
1020
0.0
1030
0.0
1010
0.0
1020
1.0
1030
0.0
1002
}
1001
ACAD
1010
0.0
1020
0.0
1030
0.0
  0
HATCH
  5
15D2
330
12DA
100
AcDbEntity
  8
AM_8
100
AcDbHatch
 10
0.0
 20
0.0
 30
0.0
210
0.0
220
0.0
230
1.0
  2
_U
 70
     0
 71
     0
 91
        1
 92
        1
 93
       36
 72
     1
 10
559.8282280000001
 20
439.860875
 11
575.518228
 21
444.658875
 72
     1
 10
575.518228
 20
444.658875
 11
592.677228
 21
444.658875
 72
     1
 10
592.677228
 20
444.658875
 11
590.493228
 21
452.806875
 72
     1
 10
590.493228
 20
452.806875
 11
590.0045885269854
 21
453.7547561240754
 72
     2
 10
588.0802279999999
 20
452.1588750000001
 40
2.499999999999965
 50
39.66907523944989
 51
54.08568601561209
 73
     1
 72
     1
 10
589.5466647700618
 20
454.1836128100412
 11
589.019668060562
 21
454.4756512888572
 72
     2
 10
588.080228
 20
452.158875
 40
2.500000000000009
 50
67.92771601017308
 51
90.02294885417466
 73
     1
 72
     1
 10
588.0792266673645
 20
454.6588747994666
 11
587.3482280000001
 21
454.548875
 72
     1
 10
587.3482280000001
 20
454.548875
 11
558.6772279999999
 21
445.782875
 72
     1
 10
558.6772279999999
 20
445.782875
 11
550.4869717888567
 21
445.0671827882617
 72
     1
 10
550.4869717888567
 20
445.0671827882617
 11
544.3158228745925
 21
444.5271735076835
 72
     1
 10
544.3158228745925
 20
444.5271735076835
 11
542.678228
 21
441.691606543624
 72
     1
 10
542.678228
 20
441.691606543624
 11
542.678228
 21
428.4218749999999
 72
     1
 10
542.678228
 20
428.4218749999999
 11
541.6782279999999
 21
428.4218749999999
 72
     1
 10
541.6782279999999
 20
428.4218749999999
 11
541.6782279999999
 21
422.921875
 72
     1
 10
541.6782279999999
 20
422.921875
 11
541.6772279999999
 21
422.921875
 72
     1
 10
541.6772279999999
 20
422.921875
 11
539.1405343877001
 21
421.4585686122998
 72
     1
 10
539.1405343877001
 20
421.4585686122998
 11
537.6782279999999
 21
420.6144522499999
 72
     1
 10
537.6782279999999
 20
420.6144522499999
 11
537.6782279999999
 21
412.658875
 72
     2
 10
537.6782279999996
 20
424.658875
 40
12.00000000000005
 50
270.0000000000017
 51
273.2383966991559
 73
     1
 72
     1
 10
538.3561151557256
 20
412.6780374247675
 11
540.3633677383673
 21
412.9631482339781
 72
     2
 10
537.6782279999995
 20
424.6588749999999
 40
11.99999999999996
 50
282.9300691157887
 51
289.2297905719589
 73
     1
 72
     1
 10
541.630519496179
 20
413.3284119940487
 11
543.4870964474198
 21
414.158539416764
 72
     2
 10
537.6782279999995
 20
424.6588749999997
 40
12.0
 50
298.9517145191037
 51
305.156167716915
 73
     1
 72
     1
 10
544.5879122072985
 20
414.8478473190988
 11
546.1572397572602
 21
416.1673286378677
 72
     2
 10
537.6782279999997
 20
424.6588749999999
 40
12.00000000000006
 50
314.957680836343
 51
321.1231816170973
 73
     1
 72
     1
 10
547.0201938705111
 20
417.1270974094039
 11
548.1673517108422
 21
418.8297855532127
 72
     2
 10
537.6782280000001
 20
424.6588750000001
 40
11.99999999999996
 50
330.9378893485702
 51
336.4890933219746
 73
     1
 72
     1
 10
548.6820378350106
 20
419.8717914290851
 11
549.494228
 21
422.574875
 72
     1
 10
549.494228
 20
422.574875
 11
552.095228
 21
437.324875
 72
     1
 10
552.095228
 20
437.324875
 11
552.0972393953006
 21
437.330801229657
 72
     2
 10
554.5582279999999
 20
436.8908749999998
 40
2.500000000000051
 50
190.1351396755711
 51
207.3598564558682
 73
     0
 72
     1
 10
552.3378839994891
 20
438.0398190888899
 11
552.449228
 21
438.367875
 72
     1
 10
552.449228
 20
438.367875
 11
553.2702279999999
 21
439.120875
 72
     1
 10
553.2702279999999
 20
439.120875
 11
554.339228
 21
439.3808749999999
 72
     1
 10
554.339228
 20
439.3808749999999
 11
559.8282280000001
 21
439.860875
 97
        0
 75
     0
 76
     0
 52
45.0
 41
5.0
 77
     0
 78
     1
 53
45.0
 43
0.0
 44
0.0
 45
-3.535533905932737
 46
3.535533905932737
 79
     0
 98
        1
 10
0.0
 20
0.0
1001
GENIUS_GENODEF_13
1002
{
1000
HIER
1070
     0
1002
}
1002
{
1000
MANEDIT
1070
     0
1002
}
1002
{
1000
NOSEL
1070
     0
1002
}
1002
{
1000
BEHIND
1070
     0
1002
}
1002
{
1000
OTHER
1070
     0
1002
}
1002
{
1000
REACTOR
1002
}
1001
GENIUS_GENOBJ-N-HTC_13
1002
{
1000
OWNER
1000
GEN
1002
}
1001
GENIUS_GENHATCH_13
1002
{
1000
DATA
1040
45.0
1042
2.5
1000
_U
1070
     0
1011
546.0684944519934
1021
438.3538176893673
1031
0.0
1002
}
1002
{
1000
UCS
1010
0.0
1020
0.0
1030
0.0
1010
1.0
1020
0.0
1030
0.0
1010
0.0
1020
1.0
1030
0.0
1002
}
1001
ACAD
1010
0.0
1020
0.0
1030
0.0
  0
ENDSEC
  0
SECTION
  2
OBJECTS
  0
DICTIONARY
  5
12CE
330
0
100
AcDbDictionary
281
     1
  3
ACAD_COLOR
350
14C0
  3
ACAD_GROUP
350
12CF
  3
ACAD_LAYOUT
350
14C3
  3
ACAD_MATERIAL
350
14BF
  3
ACAD_MLINESTYLE
350
12DD
  3
ACAD_PLOTSETTINGS
350
14C4
  3
ACAD_PLOTSTYLENAME
350
14BD
  3
ACAD_TABLESTYLE
350
14C1
  3
ACDBHEADERROUNDTRIPXREC
350
15FB
  3
AcDbVariableDictionary
350
15F6
  3
AcmDictionary
350
1522
  3
AMG
350
14C8
  3
AMGSNAPSETTINGS
350
158F
  0
DICTIONARY
  5
15AC
330
12C4
100
AcDbDictionary
280
     1
281
     1
  3
AMLAYER_GROUPCOLORS
360
15AD
  0
DICTIONARY
  5
1599
330
12DA
100
AcDbDictionary
280
     1
281
     1
  3
ACAD_SORTENTS
360
159A
  0
DICTIONARY
  5
14C0
102
{ACAD_REACTORS
330
12CE
102
}
330
12CE
100
AcDbDictionary
281
     1
  0
DICTIONARY
  5
12CF
102
{ACAD_REACTORS
330
12CE
102
}
330
12CE
100
AcDbDictionary
281
     1
  0
DICTIONARY
  5
14C3
102
{ACAD_REACTORS
330
12CE
102
}
330
12CE
100
AcDbDictionary
281
     1
  3
Layout1
350
14C6
  3
Model
350
14C5
  0
DICTIONARY
  5
14BF
102
{ACAD_REACTORS
330
12CE
102
}
330
12CE
100
AcDbDictionary
281
     1
  0
DICTIONARY
  5
12DD
102
{ACAD_REACTORS
330
12CE
102
}
330
12CE
100
AcDbDictionary
281
     1
  3
STANDARD
350
12DE
  0
DICTIONARY
  5
14C4
102
{ACAD_REACTORS
330
12CE
102
}
330
12CE
100
AcDbDictionary
281
     1
  0
ACDBDICTIONARYWDFLT
  5
14BD
102
{ACAD_REACTORS
330
12CE
102
}
330
12CE
100
AcDbDictionary
281
     1
  3
Normal
350
14BE
100
AcDbDictionaryWithDefault
340
14BE
  0
DICTIONARY
  5
14C1
102
{ACAD_REACTORS
330
12CE
102
}
330
12CE
100
AcDbDictionary
281
     1
  3
Standard
350
14C2
  0
DICTIONARY
  5
15FB
102
{ACAD_REACTORS
330
12CE
102
}
330
12CE
100
AcDbDictionary
281
     1
  0
DICTIONARY
  5
15F6
102
{ACAD_REACTORS
330
12CE
102
}
330
12CE
100
AcDbDictionary
281
     1
  3
CTABLESTYLE
350
15F7
  3
DIMASSOC
350
15F8
  3
PROJECTNAME
350
15F9
  0
DICTIONARY
  5
1522
102
{ACAD_REACTORS
330
12CE
102
}
330
12CE
100
AcDbDictionary
281
     1
  3
AcmStdDictionary
350
152D
  3
AMDTSECTSYM_ARROWCOLOR
350
1550
  0
DICTIONARY
  5
14C8
102
{ACAD_REACTORS
330
12CE
102
}
330
12CE
100
AcDbDictionary
281
     1
  0
DICTIONARY
  5
158F
102
{ACAD_REACTORS
330
12CE
102
}
330
12CE
100
AcDbDictionary
281
     1
  0
DICTIONARY
  5
15AD
102
{ACAD_REACTORS
330
15AC
102
}
330
15AC
100
AcDbDictionary
280
     1
281
     1
  0
SORTENTSTABLE
  5
159A
102
{ACAD_REACTORS
330
1599
102
}
330
1599
100
AcDbSortentsTable
330
12DA
331
10F4
  5
10F4
331
10DA
  5
10DA
331
10B8
  5
10B8
331
11FF
  5
1217
331
15C9
  5
15C8
331
1105
  5
1105
331
10EB
  5
10EB
331
10C9
  5
10C9
331
10A7
  5
10A7
331
1085
  5
1085
331
106B
  5
106B
331
1049
  5
1049
331
1027
  5
1027
331
1096
  5
1096
331
105A
  5
105A
331
1038
  5
1038
331
1016
  5
1016
331
1005
  5
1005
331
10F2
  5
10F2
331
10D8
  5
10D8
331
113B
  5
113C
331
1103
  5
1103
331
10E9
  5
10E9
331
10C7
  5
10C7
331
10A5
  5
10A5
331
1083
  5
1083
331
1069
  5
1069
331
1047
  5
1047
331
1025
  5
1025
331
1218
  5
1294
331
10B6
  5
10B6
331
1094
  5
1094
331
1058
  5
1058
331
1036
  5
1036
331
1014
  5
1014
331
1003
  5
1003
331
10F0
  5
10F0
331
1101
  5
1101
331
10E7
  5
10E7
331
10C5
  5
10C5
331
10A3
  5
10A3
331
1081
  5
1081
331
1067
  5
1067
331
1045
  5
1045
331
1023
  5
1023
331
10D6
  5
10D6
331
10B4
  5
10B4
331
1092
  5
1092
331
1056
  5
1056
331
1034
  5
1034
331
1012
  5
1012
331
1001
  5
1001
331
10FF
  5
10FF
331
10E5
  5
10E5
331
10C3
  5
10C3
331
10A1
  5
10A1
331
107F
  5
107F
331
1065
  5
1065
331
1043
  5
1043
331
1021
  5
1021
331
1369
  5
1598
331
10D4
  5
10D4
331
10B2
  5
10B2
331
1090
  5
1090
331
1076
  5
1076
331
1054
  5
1054
331
1032
  5
1032
331
1010
  5
1010
331
1153
  5
1154
331
10FD
  5
10FD
331
10E3
  5
10E3
331
10C1
  5
10C1
331
109F
  5
109F
331
107D
  5
107D
331
1063
  5
1063
331
1041
  5
1041
331
15D2
  5
15D1
331
10D2
  5
10D2
331
10B0
  5
10B0
331
108E
  5
108E
331
1074
  5
1074
331
1052
  5
1052
331
1030
  5
1030
331
101F
  5
101F
331
100E
  5
100E
331
10FB
  5
10FB
331
10E1
  5
10E1
331
10BF
  5
10BF
331
109D
  5
109D
331
107B
  5
107B
331
1061
  5
1061
331
10D0
  5
10D0
331
10AE
  5
10AE
331
108C
  5
108C
331
1072
  5
1072
331
1050
  5
1050
331
102E
  5
102E
331
103F
  5
103F
331
101D
  5
101D
331
100C
  5
100C
331
10F9
  5
10F9
331
10DF
  5
10DF
331
10BD
  5
10BD
331
109B
  5
109B
331
1079
  5
1079
331
10CE
  5
10CE
331
10AC
  5
10AC
331
108A
  5
108A
331
1070
  5
1070
331
104E
  5
104E
331
102C
  5
102C
331
105F
  5
105F
331
103D
  5
103D
331
101B
  5
101B
331
100A
  5
100A
331
10F7
  5
10F7
331
10DD
  5
10DD
331
10BB
  5
10BB
331
1099
  5
1099
331
1166
  5
11EB
331
10EE
  5
10EE
331
10CC
  5
10CC
331
10AA
  5
10AA
331
1088
  5
1088
331
106E
  5
106E
331
104C
  5
104C
331
102A
  5
102A
331
105D
  5
105D
331
103B
  5
103B
331
1019
  5
1019
331
1008
  5
1008
331
10F5
  5
10F5
331
10DB
  5
10DB
331
10B9
  5
10B9
331
1106
  5
1106
331
10EC
  5
10EC
331
10CA
  5
10CA
331
10A8
  5
10A8
331
1086
  5
1086
331
106C
  5
106C
331
104A
  5
104A
331
1028
  5
1028
331
1097
  5
1097
331
105B
  5
105B
331
1039
  5
1039
331
1017
  5
1017
331
1006
  5
1006
331
1112
  5
111D
331
10F3
  5
10F3
331
10D9
  5
10D9
331
113C
  5
1153
331
11FE
  5
11FF
331
1104
  5
1104
331
10EA
  5
10EA
331
10C8
  5
10C8
331
10A6
  5
10A6
331
1084
  5
1084
331
106A
  5
106A
331
1048
  5
1048
331
1026
  5
1026
331
10B7
  5
10B7
331
1095
  5
1095
331
1059
  5
1059
331
1037
  5
1037
331
1015
  5
1015
331
1004
  5
1004
331
10F1
  5
10F1
331
1102
  5
1102
331
10E8
  5
10E8
331
10C6
  5
10C6
331
10A4
  5
10A4
331
1082
  5
1082
331
1068
  5
1068
331
1046
  5
1046
331
1024
  5
1024
331
10D7
  5
10D7
331
10B5
  5
10B5
331
1093
  5
1093
331
1057
  5
1057
331
1035
  5
1035
331
1013
  5
1013
331
1002
  5
1002
331
1100
  5
1100
331
10E6
  5
10E6
331
10C4
  5
10C4
331
10A2
  5
10A2
331
1080
  5
1080
331
1066
  5
1066
331
1044
  5
1044
331
1022
  5
1022
331
10D5
  5
10D5
331
10B3
  5
10B3
331
1091
  5
1091
331
1077
  5
1077
331
1055
  5
1055
331
1033
  5
1033
331
1011
  5
1011
331
1154
  5
1165
331
111D
  5
113B
331
10FE
  5
10FE
331
10E4
  5
10E4
331
10C2
  5
10C2
331
10A0
  5
10A0
331
107E
  5
107E
331
1064
  5
1064
331
1042
  5
1042
331
1020
  5
1020
331
10D3
  5
10D3
331
10B1
  5
10B1
331
108F
  5
108F
331
1075
  5
1075
331
1053
  5
1053
331
1031
  5
1031
331
100F
  5
100F
331
15C0
  5
15BF
331
10FC
  5
10FC
331
10E2
  5
10E2
331
10C0
  5
10C0
331
109E
  5
109E
331
107C
  5
107C
331
1062
  5
1062
331
1040
  5
1040
331
1217
  5
1218
331
10D1
  5
10D1
331
10AF
  5
10AF
331
108D
  5
108D
331
1073
  5
1073
331
1051
  5
1051
331
102F
  5
102F
331
101E
  5
101E
331
100D
  5
100D
331
11EC
  5
11FE
331
10FA
  5
10FA
331
10E0
  5
10E0
331
10BE
  5
10BE
331
109C
  5
109C
331
107A
  5
107A
331
1060
  5
1060
331
10CF
  5
10CF
331
10AD
  5
10AD
331
108B
  5
108B
331
1071
  5
1071
331
104F
  5
104F
331
102D
  5
102D
331
103E
  5
103E
331
101C
  5
101C
331
100B
  5
100B
331
15BC
  5
15BB
331
10F8
  5
10F8
331
10DE
  5
10DE
331
10BC
  5
10BC
331
109A
  5
109A
331
1078
  5
1078
331
10EF
  5
10EF
331
10CD
  5
10CD
331
10AB
  5
10AB
331
1089
  5
1089
331
106F
  5
106F
331
104D
  5
104D
331
102B
  5
102B
331
105E
  5
105E
331
103C
  5
103C
331
101A
  5
101A
331
1009
  5
1009
331
10F6
  5
10F6
331
10DC
  5
10DC
331
10BA
  5
10BA
331
1098
  5
1098
331
1165
  5
1166
331
1107
  5
1107
331
10ED
  5
10ED
331
10CB
  5
10CB
331
10A9
  5
10A9
331
1087
  5
1087
331
106D
  5
106D
331
104B
  5
104B
331
1029
  5
1029
331
105C
  5
105C
331
103A
  5
103A
331
1018
  5
1018
331
1007
  5
1007
  0
LAYOUT
  5
14C6
102
{ACAD_XDICTIONARY
360
15FE
102
}
102
{ACAD_REACTORS
330
14C3
102
}
330
14C3
100
AcDbPlotSettings
  1

  2
Xerox Document Centre CS50 PS
  4

  6

 40
0.0
 41
0.0
 42
0.0
 43
0.0
 44
0.0
 45
0.0
 46
0.0
 47
0.0
 48
0.0
 49
0.0
140
0.0
141
0.0
142
1.0
143
1.0
 70
   688
 72
     0
 73
     0
 74
     5
  7

 75
    16
147
1.0
148
0.0
149
0.0
100
AcDbLayout
  1
Layout1
 70
     1
 71
     1
 10
0.0
 20
0.0
 11
419.8999999999999
 21
296.9
 12
0.0
 22
0.0
 32
0.0
 14
0.0
 24
0.0
 34
0.0
 15
419.8999999999999
 25
296.9
 35
0.0
146
0.0
 13
0.0
 23
0.0
 33
0.0
 16
1.0
 26
0.0
 36
0.0
 17
0.0
 27
1.0
 37
0.0
 76
     0
330
12D7
  0
LAYOUT
  5
14C5
102
{ACAD_XDICTIONARY
360
15FC
102
}
102
{ACAD_REACTORS
330
14C3
102
}
330
14C3
100
AcDbPlotSettings
  1

  2
Xerox Document Centre CS50 PS
  4

  6

 40
0.0
 41
0.0
 42
0.0
 43
0.0
 44
0.0
 45
0.0
 46
0.0
 47
0.0
 48
0.0
 49
0.0
140
0.0
141
0.0
142
1.0
143
1.0
 70
  1712
 72
     0
 73
     0
 74
     0
  7

 75
     0
147
1.0
148
0.0
149
0.0
100
AcDbLayout
  1
Model
 70
     1
 71
     0
 10
0.0
 20
0.0
 11
12.0
 21
9.0
 12
0.0
 22
0.0
 32
0.0
 14
0.0
 24
0.0
 34
0.0
 15
0.0
 25
0.0
 35
0.0
146
0.0
 13
0.0
 23
0.0
 33
0.0
 16
1.0
 26
0.0
 36
0.0
 17
0.0
 27
1.0
 37
0.0
 76
     0
330
12DA
  0
MLINESTYLE
  5
12DE
102
{ACAD_REACTORS
330
12DD
102
}
330
12DD
100
AcDbMlineStyle
  2
STANDARD
 70
     0
  3

 62
   256
 51
90.0
 52
90.0
 71
     2
 49
0.5
 62
   256
  6
BYLAYER
 49
-0.5
 62
   256
  6
BYLAYER
  0
ACDBPLACEHOLDER
  5
14BE
102
{ACAD_REACTORS
330
14BD
102
}
330
14BD
  0
TABLESTYLE
  5
14C2
102
{ACAD_REACTORS
330
14C1
102
}
330
14C1
100
AcDbTableStyle
  3
Standard
 70
     0
 71
     0
 40
1.5
 41
1.5
280
     0
281
     0
  7
STANDARD
140
4.5
170
     2
 62
     0
 63
     7
283
     0
274
    -2
284
     1
 64
     0
275
    -2
285
     1
 65
     0
276
    -2
286
     1
 66
     0
277
    -2
287
     1
 67
     0
278
    -2
288
     1
 68
     0
279
    -2
289
     1
 69
     0
  7
STANDARD
140
6.0
170
     5
 62
     0
 63
     7
283
     0
274
    -2
284
     1
 64
     0
275
    -2
285
     1
 65
     0
276
    -2
286
     1
 66
     0
277
    -2
287
     1
 67
     0
278
    -2
288
     1
 68
     0
279
    -2
289
     1
 69
     0
  7
STANDARD
140
4.5
170
     5
 62
     0
 63
     7
283
     0
274
    -2
284
     1
 64
     0
275
    -2
285
     1
 65
     0
276
    -2
286
     1
 66
     0
277
    -2
287
     1
 67
     0
278
    -2
288
     1
 68
     0
279
    -2
289
     1
 69
     0
  0
DICTIONARYVAR
  5
15F7
102
{ACAD_REACTORS
330
15F6
102
}
330
15F6
100
DictionaryVariables
280
     0
  1
STANDARD
  0
DICTIONARYVAR
  5
15F8
102
{ACAD_REACTORS
330
15F6
102
}
330
15F6
100
DictionaryVariables
280
     0
  1
1
  0
DICTIONARYVAR
  5
15F9
102
{ACAD_REACTORS
330
15F6
102
}
330
15F6
100
DictionaryVariables
280
     0
  1

  0
DICTIONARY
  5
152D
102
{ACAD_REACTORS
330
1522
102
}
330
1522
100
AcDbDictionary
281
     1
  0
XRECORD
  5
1550
102
{ACAD_REACTORS
330
1522
102
}
330
1522
100
AcDbXrecord
280
     1
 90
-1023410169
  0
DICTIONARY
  5
15FE
330
14C6
100
AcDbDictionary
280
     1
281
     1
  3
ACAD_XREC_ROUNDTRIP
360
15FF
  0
DICTIONARY
  5
15FC
330
14C5
100
AcDbDictionary
280
     1
281
     1
  3
ACAD_XREC_ROUNDTRIP
360
15FD
  0
XRECORD
  5
15FF
102
{ACAD_REACTORS
330
15FE
102
}
330
15FE
100
AcDbXrecord
280
     1
102
SHADEPLOT
 70
     0
102
SHADEPLOTRESLEVEL
 70
     2
102
SHADEPLOTCUSTOMDPI
 70
   300
  0
XRECORD
  5
15FD
102
{ACAD_REACTORS
330
15FC
102
}
330
15FC
100
AcDbXrecord
280
     1
102
SHADEPLOT
 70
     0
102
SHADEPLOTRESLEVEL
 70
     2
102
SHADEPLOTCUSTOMDPI
 70
   300
  0
ENDSEC
  0
EOF
