  0
SECTION
  2
HEADER
  9
$ACADVER
  1
AC1015
  9
$ACADMAINTVER
 70
    20
  9
$DWGCODEPAGE
  3
ANSI_1252
  9
$INSBASE
 10
0.0
 20
0.0
 30
0.0
  9
$EXTMIN
 10
20.95642336755554
 20
46.0304285236989
 30
-0.0015258207003583
  9
$EXTMAX
 10
508.7379473712503
 20
658.3007832387238
 30
0.0000000349246037
  9
$LIMMIN
 10
0.0
 20
0.0
  9
$LIMMAX
 10
1050.0
 20
1050.0
  9
$ORTHOMODE
 70
     0
  9
$REGENMODE
 70
     1
  9
$FILLMODE
 70
     1
  9
$QTEXTMODE
 70
     0
  9
$MIRRTEXT
 70
     0
  9
$LTSCALE
 40
5.0
  9
$ATTMODE
 70
     1
  9
$TEXTSIZE
 40
17.5
  9
$TRACEWID
 40
0.05
  9
$TEXTSTYLE
  7
STANDARD
  9
$CLAYER
  8
0
  9
$CELTYPE
  6
BYLAYER
  9
$CECOLOR
 62
   256
  9
$CELTSCALE
 40
1.0
  9
$DISPSILH
 70
     0
  9
$DIMSCALE
 40
5.0
  9
$DIMASZ
 40
2.5
  9
$DIMEXO
 40
1.0
  9
$DIMDLI
 40
7.0
  9
$DIMRND
 40
0.0
  9
$DIMDLE
 40
0.0
  9
$DIMEXE
 40
1.0
  9
$DIMTP
 40
0.1
  9
$DIMTM
 40
0.1
  9
$DIMTXT
 40
3.5
  9
$DIMCEN
 40
0.0
  9
$DIMTSZ
 40
0.0
  9
$DIMTOL
 70
     0
  9
$DIMLIM
 70
     0
  9
$DIMTIH
 70
     0
  9
$DIMTOH
 70
     0
  9
$DIMSE1
 70
     0
  9
$DIMSE2
 70
     0
  9
$DIMTAD
 70
     1
  9
$DIMZIN
 70
    12
  9
$DIMBLK
  1

  9
$DIMASO
 70
     1
  9
$DIMSHO
 70
     1
  9
$DIMPOST
  1

  9
$DIMAPOST
  1
"
  9
$DIMALT
 70
     0
  9
$DIMALTD
 70
     2
  9
$DIMALTF
 40
0.03937
  9
$DIMLFAC
 40
1.0
  9
$DIMTOFL
 70
     1
  9
$DIMTVP
 40
0.0
  9
$DIMTIX
 70
     0
  9
$DIMSOXD
 70
     0
  9
$DIMSAH
 70
     0
  9
$DIMBLK1
  1

  9
$DIMBLK2
  1

  9
$DIMSTYLE
  2
GEN-ISO
  9
$DIMCLRD
 70
   256
  9
$DIMCLRE
 70
   256
  9
$DIMCLRT
 70
     2
  9
$DIMTFAC
 40
0.71
  9
$DIMGAP
 40
0.6
  9
$DIMJUST
 70
     0
  9
$DIMSD1
 70
     0
  9
$DIMSD2
 70
     0
  9
$DIMTOLJ
 70
     0
  9
$DIMTZIN
 70
     0
  9
$DIMALTZ
 70
     0
  9
$DIMALTTZ
 70
     0
  9
$DIMUPT
 70
     0
  9
$DIMDEC
 70
     2
  9
$DIMTDEC
 70
     3
  9
$DIMALTU
 70
     2
  9
$DIMALTTD
 70
     4
  9
$DIMTXSTY
  7
STANDARD
  9
$DIMAUNIT
 70
     0
  9
$DIMADEC
 70
     0
  9
$DIMALTRND
 40
0.0
  9
$DIMAZIN
 70
     0
  9
$DIMDSEP
 70
    46
  9
$DIMATFIT
 70
     3
  9
$DIMFRAC
 70
     0
  9
$DIMLDRBLK
  1

  9
$DIMLUNIT
 70
     2
  9
$DIMLWD
 70
    -2
  9
$DIMLWE
 70
    -2
  9
$DIMTMOVE
 70
     0
  9
$LUNITS
 70
     2
  9
$LUPREC
 70
     2
  9
$SKETCHINC
 40
0.1
  9
$FILLETRAD
 40
0.000005
  9
$AUNITS
 70
     0
  9
$AUPREC
 70
     2
  9
$MENU
  1
.
  9
$ELEVATION
 40
0.0
  9
$PELEVATION
 40
0.0
  9
$THICKNESS
 40
0.0
  9
$LIMCHECK
 70
     0
  9
$CHAMFERA
 40
12.5
  9
$CHAMFERB
 40
12.5
  9
$CHAMFERC
 40
0.0
  9
$CHAMFERD
 40
0.0
  9
$SKPOLY
 70
     0
  9
$TDCREATE
 40
2451557.354452662
  9
$TDUCREATE
 40
2451557.271119329
  9
$TDUPDATE
 40
2454019.929726968
  9
$TDUUPDATE
 40
2454019.846393634
  9
$TDINDWG
 40
0.0068281134
  9
$TDUSRTIMER
 40
0.0068277662
  9
$USRTIMER
 70
     1
  9
$ANGBASE
 50
0.0
  9
$ANGDIR
 70
     0
  9
$PDMODE
 70
     0
  9
$PDSIZE
 40
0.0
  9
$PLINEWID
 40
0.0
  9
$SPLFRAME
 70
     0
  9
$SPLINETYPE
 70
     6
  9
$SPLINESEGS
 70
     8
  9
$HANDSEED
  5
1C20
  9
$SURFTAB1
 70
     6
  9
$SURFTAB2
 70
     6
  9
$SURFTYPE
 70
     6
  9
$SURFU
 70
     6
  9
$SURFV
 70
     6
  9
$UCSBASE
  2

  9
$UCSNAME
  2

  9
$UCSORG
 10
0.0
 20
0.0
 30
0.0
  9
$UCSXDIR
 10
1.0
 20
0.0
 30
0.0
  9
$UCSYDIR
 10
0.0
 20
1.0
 30
0.0
  9
$UCSORTHOREF
  2

  9
$UCSORTHOVIEW
 70
     0
  9
$UCSORGTOP
 10
0.0
 20
0.0
 30
0.0
  9
$UCSORGBOTTOM
 10
0.0
 20
0.0
 30
0.0
  9
$UCSORGLEFT
 10
0.0
 20
0.0
 30
0.0
  9
$UCSORGRIGHT
 10
0.0
 20
0.0
 30
0.0
  9
$UCSORGFRONT
 10
0.0
 20
0.0
 30
0.0
  9
$UCSORGBACK
 10
0.0
 20
0.0
 30
0.0
  9
$PUCSBASE
  2

  9
$PUCSNAME
  2

  9
$PUCSORG
 10
0.0
 20
0.0
 30
0.0
  9
$PUCSXDIR
 10
1.0
 20
0.0
 30
0.0
  9
$PUCSYDIR
 10
0.0
 20
1.0
 30
0.0
  9
$PUCSORTHOREF
  2

  9
$PUCSORTHOVIEW
 70
     0
  9
$PUCSORGTOP
 10
0.0
 20
0.0
 30
0.0
  9
$PUCSORGBOTTOM
 10
0.0
 20
0.0
 30
0.0
  9
$PUCSORGLEFT
 10
0.0
 20
0.0
 30
0.0
  9
$PUCSORGRIGHT
 10
0.0
 20
0.0
 30
0.0
  9
$PUCSORGFRONT
 10
0.0
 20
0.0
 30
0.0
  9
$PUCSORGBACK
 10
0.0
 20
0.0
 30
0.0
  9
$USERI1
 70
     0
  9
$USERI2
 70
     0
  9
$USERI3
 70
     0
  9
$USERI4
 70
     0
  9
$USERI5
 70
     0
  9
$USERR1
 40
0.0
  9
$USERR2
 40
0.0
  9
$USERR3
 40
0.0
  9
$USERR4
 40
0.0
  9
$USERR5
 40
0.0
  9
$WORLDVIEW
 70
     1
  9
$SHADEDGE
 70
     3
  9
$SHADEDIF
 70
    70
  9
$TILEMODE
 70
     1
  9
$MAXACTVP
 70
    48
  9
$PINSBASE
 10
0.0
 20
0.0
 30
0.0
  9
$PLIMCHECK
 70
     0
  9
$PEXTMIN
 10
0.0
 20
0.0
 30
0.0
  9
$PEXTMAX
 10
419.8999999999999
 20
296.9
 30
0.0
  9
$PLIMMIN
 10
0.0
 20
0.0
  9
$PLIMMAX
 10
419.8999999999999
 20
296.9
  9
$UNITMODE
 70
     0
  9
$VISRETAIN
 70
     1
  9
$PLINEGEN
 70
     1
  9
$PSLTSCALE
 70
     1
  9
$TREEDEPTH
 70
 -3020
  9
$CMLSTYLE
  2
STANDARD
  9
$CMLJUST
 70
     0
  9
$CMLSCALE
 40
1.0
  9
$PROXYGRAPHICS
 70
     1
  9
$MEASUREMENT
 70
     1
  9
$CELWEIGHT
370
    -1
  9
$ENDCAPS
280
     0
  9
$JOINSTYLE
280
     0
  9
$LWDISPLAY
290
     0
  9
$INSUNITS
 70
     0
  9
$HYPERLINKBASE
  1

  9
$STYLESHEET
  1

  9
$XEDIT
290
     1
  9
$CEPSNTYPE
380
     0
  9
$PSTYLEMODE
290
     1
  9
$FINGERPRINTGUID
  2
{95DB6B25-E7B7-4DE3-BF26-5873172B02A5}
  9
$VERSIONGUID
  2
{59DA99B1-1B12-4779-9EE7-04ABE3101660}
  9
$EXTNAMES
290
     1
  9
$PSVPSCALE
 40
0.0
  9
$OLESTARTUP
290
     0
  0
ENDSEC
  0
SECTION
  2
CLASSES
  0
CLASS
  1
ACDBDICTIONARYWDFLT
  2
AcDbDictionaryWithDefault
  3
ObjectDBX Classes
 90
        0
280
     0
281
     0
  0
CLASS
  1
TABLESTYLE
  2
AcDbTableStyle
  3
ObjectDBX Classes
 90
     2047
280
     0
281
     0
  0
CLASS
  1
AMGSETTINGSOBJ
  2
AmgSettingsObj
  3
"AcadM|Product Description: AutoCAD Mechanical 2000|Company: Autodesk"
 90
        0
280
     0
281
     0
  0
CLASS
  1
ACME_DOCUMENT
  2
AcMeDbDoc
  3
AcMeServices
 90
        0
280
     0
281
     0
  0
CLASS
  1
ACMESCOPE
  2
AcMeScope
  3
AcMeServices
 90
        0
280
     0
281
     0
  0
CLASS
  1
ACMECOMMANDHISTORY
  2
AcMeCommandHistory
  3
AcMeServices
 90
        0
280
     0
281
     0
  0
CLASS
  1
ACIMSYSVARMAN
  2
AcImSysVarManager
  3
AcMeServices
 90
        0
280
     0
281
     0
  0
CLASS
  1
ACIMINTSYSVAR
  2
AcImIntSysVar
  3
AcMeServices
 90
        0
280
     0
281
     0
  0
CLASS
  1
ACMEDRAWINGMAN
  2
AcMeDrawingMan
  3
AcMeServices
 90
        0
280
     0
281
     0
  0
CLASS
  1
ACMEVIEW
  2
AcMeView
  3
AcMeServices
 90
        0
280
     0
281
     0
  0
CLASS
  1
ACDBENTITYCACHE
  2
AcMeEntityCache
  3
AcMeServices
 90
        0
280
     0
281
     0
  0
CLASS
  1
GSMANAGER
  2
AcMeGSManager
  3
AcMeServices
 90
        0
280
     0
281
     0
  0
CLASS
  1
AMDTINTERNALREACTOR
  2
AmdtInternalReactor
  3
AcMeServices
 90
        0
280
     0
281
     0
  0
CLASS
  1
ACMESTATEMGR
  2
AcMeStateMgr
  3
AcMeServices
 90
        0
280
     0
281
     0
  0
CLASS
  1
ACGREFMASTER
  2
AcGrefMaster
  3
AcAttribServices
 90
        0
280
     0
281
     0
  0
CLASS
  1
AM_DRAWING_MGR
  2
AcDmDwgMgr
  3
AcMechDwgViewMgmt
 90
        0
280
     0
281
     0
  0
CLASS
  1
AM_DWG_DOCUMENT
  2
AcDmDwgDocument
  3
AcMechDwgViewMgmt
 90
        0
280
     0
281
     0
  0
CLASS
  1
AM_DWG_SHEET
  2
AcDmSheet
  3
AcMechDwgViewMgmt
 90
        0
280
     0
281
     0
  0
CLASS
  1
AM_VIEWDIMPARMAP
  2
AcDmViewDimParMap
  3
AcMechDwgViewMgmt
 90
        0
280
     0
281
     0
  0
CLASS
  1
ACIMREALSYSVAR
  2
AcImRealSysVar
  3
AcMeServices
 90
        0
280
     0
281
     0
  0
CLASS
  1
AM_DWGMGR_NAME
  2
AcDmDwgMgrName
  3
AcMechDwgViewMgmt
 90
        0
280
     0
281
     0
  0
CLASS
  1
ACME_DATABASE
  2
AcMeDbDatabase
  3
AcMeServices
 90
        0
280
     0
281
     0
  0
CLASS
  1
ACRFINSADJUSTERMGR
  2
AcRfInsAdjusterMgr
  3
AcMeServices
 90
        0
280
     0
281
     0
  0
CLASS
  1
ACGREFACADMASTER
  2
AcGrefacadMaster
  3
AcGrefServices
 90
        0
280
     0
281
     0
  0
CLASS
  1
AMDTMENUSTATEMGR
  2
AmdtMenuStateMgr
  3
McadcomServices
 90
        0
280
     0
281
     0
  0
CLASS
  1
AMDTMCOMMENUSTATE
  2
AmdtMcomMenuState
  3
McadcomServices
 90
        0
280
     0
281
     0
  0
CLASS
  1
AMIMASTER
  2
AmiMaster
  3
AmiServices
 90
        0
280
     0
281
     0
  0
CLASS
  1
MAPIAMMOUDLE
  2
MApiAmModule
  3
MApiAmServices
 90
        0
280
     0
281
     0
  0
CLASS
  1
ACIMSTRSYSVAR
  2
AcImStrSysVar
  3
AcMeServices
 90
        0
280
     0
281
     0
  0
CLASS
  1
AMDTADMENUSTATE
  2
AmdtAdMenuState
  3
DesignerServices
 90
        0
280
     0
281
     0
  0
CLASS
  1
ADAPPL
  2
AcAdAppl
  3
DesignerServices
 90
        0
280
     0
281
     0
  0
CLASS
  1
DEPMGR
  2
AcAdDepMgr
  3
DesignerServices
 90
        0
280
     0
281
     0
  0
CLASS
  1
PARAMMGR
  2
AcAdParamMgr
  3
DesignerServices
 90
        0
280
     0
281
     0
  0
CLASS
  1
PARAMSCOPE
  2
AcAdParamScope
  3
DesignerServices
 90
        0
280
     0
281
     0
  0
CLASS
  1
NAMEDAPPL
  2
AcAdNamedAppl
  3
DesignerServices
 90
        0
280
     0
281
     0
  0
CLASS
  1
AMDTDMMENUSTATE
  2
AmdtDmMenuState
  3
AcMechDwgViewMgmt
 90
        0
280
     0
281
     0
  0
CLASS
  1
AMDTAMMENUSTATE
  2
AmdtAmMenuState
  3
DesignerAssemblies
 90
        0
280
     0
281
     0
  0
CLASS
  1
ACAMPROJECT
  2
AcAmProject
  3
DesignerAssemblies
 90
        0
280
     0
281
     0
  0
CLASS
  1
ACAMGRCOMPDEF
  2
AcAmGrCompDef
  3
DesignerAssemblies
 90
        0
280
     0
281
     0
  0
CLASS
  1
ACCMCONTEXT
  2
AcCmContext
  3
DesignerAssemblies
 90
        0
280
     0
281
     0
  0
CLASS
  1
ACAMCOMPDEF
  2
AcAmCompDef
  3
DesignerAssemblies
 90
        0
280
     0
281
     0
  0
CLASS
  1
ACAMCOMPDEFMGR
  2
AcAmCompDefMgr
  3
DesignerAssemblies
 90
        0
280
     0
281
     0
  0
CLASS
  1
AMCONTEXTMGR
  2
AcAmContextMgr
  3
DesignerAssemblies
 90
        0
280
     0
281
     0
  0
CLASS
  1
ACAMCONTEXTMODELER
  2
AcAmContextModeler
  3
DesignerAssemblies
 90
        0
280
     0
281
     0
  0
CLASS
  1
ACMDATADICTIONARY
  2
AcmDataDictionary
  3
"AcmSymBB|Product Description: AutoCAD Mechanical 2004 DX|Company: Autodesk"
 90
        0
280
     0
281
     0
  0
CLASS
  1
CATALOGSTATE
  2
AcAmCatalogState
  3
DesignerAssemblies
 90
        0
280
     0
281
     0
  0
CLASS
  1
ACAMGRCOMPDEFSET
  2
AcAmGrCompDefSet
  3
DesignerAssemblies
 90
        0
280
     0
281
     0
  0
CLASS
  1
AMDTBROWSERDBTAB
  2
AmdtBrowserDbTab
  3
McadcomServices
 90
        0
280
     0
281
     0
  0
CLASS
  1
CBROWSERAPPOBJECT
  2
CBrowserAppObject
  3
McadcomServices
 90
        0
280
     0
281
     0
  0
CLASS
  1
DM_PLACEHOLDER
  2
AcDmSelsetPlaceholder
  3
AcMechDwgViewMgmt
 90
        0
280
     0
281
     0
  0
CLASS
  1
ACMSTANDARDDIN
  2
AcmStandardDIN
  3
"Amdt_StdImp|Product Description: AutoCAD Mechanical 2004 DX|Company: Autodesk"
 90
        0
280
     0
281
     0
  0
CLASS
  1
AMGOBJPROPCFG
  2
AmgObjPropCfg
  3
"AmgLay|Product Description: AutoCAD Mechanical 2000|Company: Autodesk"
 90
        1
280
     0
281
     0
  0
CLASS
  1
AMDTEDGESTANDARDDIN13715
  2
AmdtEdgeStdDIN13715
  3
"Amdt_StdImp|Product Description: AutoCAD Mechanical 2004 DX|Company: Autodesk"
 90
        0
280
     0
281
     0
  0
CLASS
  1
ACMSURFSTANDARDDIN
  2
AcmSurfTextStdDIN
  3
"Amdt_StdImp|Product Description: AutoCAD Mechanical 2004 DX|Company: Autodesk"
 90
        0
280
     0
281
     0
  0
CLASS
  1
ACMFCFSTANDARDDIN
  2
AcmFCFStdDIN
  3
"Amdt_StdImp|Product Description: AutoCAD Mechanical 2004 DX|Company: Autodesk"
 90
        0
280
     0
281
     0
  0
CLASS
  1
ACMWELDSTANDARDDIN
  2
AcmWeldingStdDIN
  3
"Amdt_StdImp|Product Description: AutoCAD Mechanical 2004 DX|Company: Autodesk"
 90
        0
280
     0
281
     0
  0
CLASS
  1
ACMIDSTANDARDDIN
  2
AcmIdStdDIN
  3
"Amdt_StdImp|Product Description: AutoCAD Mechanical 2004 DX|Company: Autodesk"
 90
        0
280
     0
281
     0
  0
CLASS
  1
ACMDATUMSTANDARDDIN
  2
AcmDatumStdDIN
  3
"Amdt_StdImp|Product Description: AutoCAD Mechanical 2004 DX|Company: Autodesk"
 90
        0
280
     0
281
     0
  0
CLASS
  1
ACMBOMSTANDARDDIN
  2
AcmBOMStdDIN
  3
"Amdt_StdImp|Product Description: AutoCAD Mechanical 2004 DX|Company: Autodesk"
 90
        0
280
     0
281
     0
  0
CLASS
  1
ACMDETAILSTANDARDDIN
  2
AmdtDetailSymStdDIN
  3
"Amdt_StdImp|Product Description: AutoCAD Mechanical 2004 DX|Company: Autodesk"
 90
        0
280
     0
281
     0
  0
CLASS
  1
ACMSECTIONSTANDARDDIN
  2
AmdtSectionSymStdDIN
  3
"Amdt_StdImp|Product Description: AutoCAD Mechanical 2004 DX|Company: Autodesk"
 90
        0
280
     0
281
     0
  0
CLASS
  1
ACMCENTERLINESTANDARDDIN
  2
AmdtCenterLineStdDIN
  3
"Amdt_StdImp|Product Description: AutoCAD Mechanical 2004 DX|Company: Autodesk"
 90
        0
280
     0
281
     0
  0
CLASS
  1
ACMTHREADLINESTANDARDDIN
  2
AmdtThreadLineStdDIN
  3
"Amdt_StdImp|Product Description: AutoCAD Mechanical 2004 DX|Company: Autodesk"
 90
        0
280
     0
281
     0
  0
CLASS
  1
ACMNOTESTANDARDDIN
  2
AmdtNoteStdDIN
  3
"Amdt_StdImp|Product Description: AutoCAD Mechanical 2004 DX|Company: Autodesk"
 90
        0
280
     0
281
     0
  0
CLASS
  1
AMDTNOTETEMPLATEDB
  2
AmdtNoteTemplateDB
  3
AMDT_STDIMP_MODULE_NAME
 90
        0
280
     0
281
     0
  0
CLASS
  1
ACAMGLAYSTD
  2
AcAmgLayStd
  3
"AcAmgLayStd|Product Description: AutoCAD Mechanical 2000|Company: Autodesk"
 90
        0
280
     0
281
     0
  0
CLASS
  1
ACAMGDIMSTD
  2
AcAmgDimStd
  3
"AcAmgDimStd|Product Description: AutoCAD Mechanical 2000|Company: Autodesk"
 90
        0
280
     0
281
     0
  0
CLASS
  1
ACAMGHOLECHARTSTDDIN
  2
AcAmgHoleChartStdDIN
  3
ACMSYMBB_MODULE_NAME
 90
        0
280
     0
281
     0
  0
CLASS
  1
ACAMGTITLESTD
  2
AcAmgTitleStd
  3
"TITLEAPP"
 90
        0
280
     0
281
     0
  0
CLASS
  1
ACAMGFILTERDAT
  2
AcAmgFilterDat
  3
"AcadM|Product Description: AutoCAD Mechanical 2000|Company: Autodesk"
 90
        0
280
     0
281
     0
  0
CLASS
  1
DICTIONARYVAR
  2
AcDbDictionaryVar
  3
ObjectDBX Classes
 90
        0
280
     0
281
     0
  0
CLASS
  1
ACDBPLACEHOLDER
  2
AcDbPlaceHolder
  3
ObjectDBX Classes
 90
        0
280
     0
281
     0
  0
CLASS
  1
LAYOUT
  2
AcDbLayout
  3
ObjectDBX Classes
 90
        0
280
     0
281
     0
  0
ENDSEC
  0
SECTION
  2
TABLES
  0
TABLE
  2
VPORT
  5
160F
330
0
100
AcDbSymbolTable
 70
     5
  0
VPORT
  5
1C1A
330
160F
100
AcDbSymbolTableRecord
100
AcDbViewportTableRecord
  2
*Active
 70
     0
 10
0.0
 20
0.0
 11
1.0
 21
1.0
 12
264.8471853694029
 22
352.1656058812114
 13
0.0
 23
0.0
 14
5.0
 24
5.0
 15
50.0
 25
50.0
 16
0.0
 26
0.0
 36
1.0
 17
0.0
 27
0.0
 37
0.0
 40
616.7178391318412
 41
1.494545454545454
 42
50.0
 43
0.0
 44
0.0
 50
0.0
 51
0.0
 71
     0
 72
  1000
 73
     1
 74
     1
 75
     0
 76
     0
 77
     0
 78
     0
281
     0
 65
     0
110
0.0
120
0.0
130
0.0
111
1.0
121
0.0
131
0.0
112
0.0
122
1.0
132
0.0
 79
     0
146
0.0
  0
ENDTAB
  0
TABLE
  2
LTYPE
  5
160C
330
0
100
AcDbSymbolTable
 70
    21
  0
LTYPE
  5
1619
330
160C
100
AcDbSymbolTableRecord
100
AcDbLinetypeTableRecord
  2
BYBLOCK
 70
     0
  3

 72
    65
 73
     0
 40
0.0
  0
LTYPE
  5
161A
330
160C
100
AcDbSymbolTableRecord
100
AcDbLinetypeTableRecord
  2
BYLAYER
 70
     0
  3

 72
    65
 73
     0
 40
0.0
  0
LTYPE
  5
161B
330
160C
100
AcDbSymbolTableRecord
100
AcDbLinetypeTableRecord
  2
CONTINUOUS
 70
     0
  3
Solid line
 72
    65
 73
     0
 40
0.0
  0
LTYPE
  5
162A
330
160C
100
AcDbSymbolTableRecord
100
AcDbLinetypeTableRecord
  2
GEN7
 70
     0
  3
____ _ ____ _ ____ _ ____ _ ____ _ ____ _ ____ _ ____ _ ____ _
 72
    65
 73
     4
 40
22.0
 49
10.75
 74
     0
 49
-3.75
 74
     0
 49
3.75
 74
     0
 49
-3.75
 74
     0
  0
LTYPE
  5
166C
330
160C
100
AcDbSymbolTableRecord
100
AcDbLinetypeTableRecord
  2
GEN3A
 70
     0
  3
 - - - - -
 72
    65
 73
     2
 40
3.125
 49
2.25
 74
     0
 49
-0.875
 74
     0
  0
LTYPE
  5
1B3D
330
160C
100
AcDbSymbolTableRecord
100
AcDbLinetypeTableRecord
  2
HIDDEN
 70
     0
  3
Verdeckt
 72
    65
 73
     2
 40
9.525
 49
6.349999999999999
 74
     0
 49
-3.174999999999999
 74
     0
  0
LTYPE
  5
1B3E
330
160C
100
AcDbSymbolTableRecord
100
AcDbLinetypeTableRecord
  2
PHANTOM2
 70
     0
  3
Phantom (.5x) ___ _ _ ___ _ _ ___ _ _ ___ _ _
 72
    65
 73
     6
 40
31.75
 49
15.875
 74
     0
 49
-3.174999999999999
 74
     0
 49
3.174999999999999
 74
     0
 49
-3.174999999999999
 74
     0
 49
3.174999999999999
 74
     0
 49
-3.174999999999999
 74
     0
  0
LTYPE
  5
1B3F
330
160C
100
AcDbSymbolTableRecord
100
AcDbLinetypeTableRecord
  2
CENTER
 70
     0
  3
Mitte ____ _ ____ _ ____ _ ____ _ ____ _ ____
 72
    65
 73
     4
 40
50.8
 49
31.75
 74
     0
 49
-6.349999999999999
 74
     0
 49
6.349999999999999
 74
     0
 49
-6.349999999999999
 74
     0
  0
LTYPE
  5
1B76
330
160C
100
AcDbSymbolTableRecord
100
AcDbLinetypeTableRecord
  2
Amconstr
 70
     0
  3
_______________________
 72
    65
 73
     2
 40
9999.0
 49
9999.0
 74
     0
 49
0.0
 74
     0
  0
LTYPE
  5
1B7B
330
160C
100
AcDbSymbolTableRecord
100
AcDbLinetypeTableRecord
  2
Amzigzag
 70
     0
  3
/\/-/\/-/\/-/\/-/\/-/\/
 72
    65
 73
     2
 40
11.0001
 49
0.0001
 74
     4
 75
   136
340
1B7A
 46
0.04
 50
0.0
 44
0.0
 45
0.0
 49
-11.0
 74
     0
  0
LTYPE
  5
1B7C
330
160C
100
AcDbSymbolTableRecord
100
AcDbLinetypeTableRecord
  2
AM_DIN_F_W050
 70
     0
  3
__ __ __ __ __ __ __ __ __ __ __ __ __ __ __
 72
    65
 73
     2
 40
6.25
 49
4.75
 74
     0
 49
-1.5
 74
     0
  0
LTYPE
  5
1B7D
330
160C
100
AcDbSymbolTableRecord
100
AcDbLinetypeTableRecord
  2
AM_DIN_G_W050
 70
     0
  3
____ . ____ . ____ . ____ . ____ . ____ . ____
 72
    65
 73
     4
 40
13.75
 49
9.75
 74
     0
 49
-1.5
 74
     0
 49
1.0
 74
     0
 49
-1.5
 74
     0
  0
LTYPE
  5
1B7E
330
160C
100
AcDbSymbolTableRecord
100
AcDbLinetypeTableRecord
  2
AM_DIN_K_W050
 70
     0
  3
_____ . . _____ . . _____ . . ____ .. ____
 72
    65
 73
     6
 40
16.25
 49
9.75
 74
     0
 49
-1.5
 74
     0
 49
1.0
 74
     0
 49
-1.5
 74
     0
 49
1.0
 74
     0
 49
-1.5
 74
     0
  0
LTYPE
  5
1B7F
330
160C
100
AcDbSymbolTableRecord
100
AcDbLinetypeTableRecord
  2
AM_DIN_G_W050x2
 70
     0
  3
__ . __ . __ . __ . __ . __
 72
    65
 73
     4
 40
6.875
 49
4.75
 74
     0
 49
-0.875
 74
     0
 49
0.375
 74
     0
 49
-0.875
 74
     0
  0
LTYPE
  5
1B80
330
160C
100
AcDbSymbolTableRecord
100
AcDbLinetypeTableRecord
  2
AM_DIN_F_W050x2
 70
     0
  3
 _ _ _ _ _ _ _ _ _ _ _ _
 72
    65
 73
     2
 40
3.125
 49
2.25
 74
     0
 49
-0.875
 74
     0
  0
LTYPE
  5
1B8F
330
160C
100
AcDbSymbolTableRecord
100
AcDbLinetypeTableRecord
  2
ACDINWELD
 70
     0
  3
_ _ _ _ _
 72
    65
 73
     2
 40
2.0
 49
2.0
 74
     0
 49
-1.0
 74
     0
  0
LTYPE
  5
1B90
330
160C
100
AcDbSymbolTableRecord
100
AcDbLinetypeTableRecord
  2
ACDINTGB
 70
     0
  3
__ . . __ . .
 72
    65
 73
     6
 40
9.0
 49
4.0
 74
     0
 49
-1.0
 74
     0
 49
1.0
 74
     0
 49
-1.0
 74
     0
 49
1.0
 74
     0
 49
-1.0
 74
     0
  0
LTYPE
  5
1B91
330
160C
100
AcDbSymbolTableRecord
100
AcDbLinetypeTableRecord
  2
ACDINTGL
 70
     0
  3
_ _ _ _ _
 72
    65
 73
     2
 40
3.0
 49
2.0
 74
     0
 49
-1.0
 74
     0
  0
ENDTAB
  0
TABLE
  2
LAYER
  5
1609
330
0
100
AcDbSymbolTable
 70
    16
  0
LAYER
  5
1615
330
1609
100
AcDbSymbolTableRecord
100
AcDbLayerTableRecord
  2
0
 70
     0
 62
     7
  6
CONTINUOUS
370
    -3
390
1B01
  0
LAYER
  5
162F
330
1609
100
AcDbSymbolTableRecord
100
AcDbLayerTableRecord
  2
3A
 70
     0
 62
    -6
  6
GEN3A
370
    -3
390
1B01
  0
LAYER
  5
1632
330
1609
100
AcDbSymbolTableRecord
100
AcDbLayerTableRecord
  2
5
 70
     0
 62
     3
  6
CONTINUOUS
370
    -3
390
1B01
  0
LAYER
  5
1634
330
1609
100
AcDbSymbolTableRecord
100
AcDbLayerTableRecord
  2
7
 70
     0
 62
     4
  6
GEN7
370
    -3
390
1B01
  0
LAYER
  5
1635
330
1609
100
AcDbSymbolTableRecord
100
AcDbLayerTableRecord
  2
8
 70
     0
 62
     1
  6
CONTINUOUS
370
    -3
390
1B01
  0
LAYER
  5
1636
330
1609
100
AcDbSymbolTableRecord
100
AcDbLayerTableRecord
  2
PUNKTE
 70
     0
 62
     1
  6
CONTINUOUS
370
    -3
390
1B01
  0
LAYER
  5
1637
330
1609
100
AcDbSymbolTableRecord
100
AcDbLayerTableRecord
  2
SCHRAFFUR_RAND
 70
     0
 62
    36
  6
CONTINUOUS
370
    -3
390
1B01
  0
LAYER
  5
1675
330
1609
100
AcDbSymbolTableRecord
100
AcDbLayerTableRecord
  2
DEFPOINTS
 70
     0
 62
     7
  6
CONTINUOUS
290
     0
370
    -3
390
1B01
  0
ENDTAB
  0
TABLE
  2
STYLE
  5
160A
330
0
100
AcDbSymbolTable
 70
     4
  0
STYLE
  5
1616
330
160A
100
AcDbSymbolTableRecord
100
AcDbTextStyleTableRecord
  2
STANDARD
 70
     0
 40
0.0
 41
1.0
 50
0.0
 71
     0
 42
17.5
  3
ISOCP.SHX
  4

  0
STYLE
  5
1B7A
330
160A
100
AcDbSymbolTableRecord
100
AcDbTextStyleTableRecord
  2

 70
     1
 40
0.0
 41
1.0
 50
0.0
 71
     0
 42
17.5
  3
genltshp.shx
  4

  0
STYLE
  5
1B81
330
160A
100
AcDbSymbolTableRecord
100
AcDbTextStyleTableRecord
  2
ACDINTS
 70
     0
 40
1.0
 41
1.0
 50
0.0
 71
     0
 42
17.5
  3
isocp.shx
  4

  0
STYLE
  5
1B8E
330
160A
100
AcDbSymbolTableRecord
100
AcDbTextStyleTableRecord
  2
ACDINGDT
 70
     0
 40
0.0
 41
1.0
 50
0.0
 71
     0
 42
17.5
  3
AMGDT
  4

  0
ENDTAB
  0
TABLE
  2
VIEW
  5
160D
330
0
100
AcDbSymbolTable
 70
     6
  0
VIEW
  5
16E3
330
160D
100
AcDbSymbolTableRecord
100
AcDbViewTableRecord
  2
GEN1
 70
     0
 40
525.0
 10
400.268456
 20
787.5
 41
800.536913
 11
0.0
 21
0.0
 31
1.0
 12
0.0
 22
0.0
 32
0.0
 42
50.0
 43
0.0
 44
0.0
 50
0.0
 71
     0
281
     0
 72
     0
  0
VIEW
  5
16E4
330
160D
100
AcDbSymbolTableRecord
100
AcDbViewTableRecord
  2
GEN2
 70
     0
 40
525.0
 10
649.731544
 20
787.5
 41
800.536913
 11
0.0
 21
0.0
 31
1.0
 12
0.0
 22
0.0
 32
0.0
 42
50.0
 43
0.0
 44
0.0
 50
0.0
 71
     0
281
     0
 72
     0
  0
VIEW
  5
16E5
330
160D
100
AcDbSymbolTableRecord
100
AcDbViewTableRecord
  2
GEN3
 70
     0
 40
525.0
 10
400.268456
 20
262.5
 41
800.536913
 11
0.0
 21
0.0
 31
1.0
 12
0.0
 22
0.0
 32
0.0
 42
50.0
 43
0.0
 44
0.0
 50
0.0
 71
     0
281
     0
 72
     0
  0
VIEW
  5
16E6
330
160D
100
AcDbSymbolTableRecord
100
AcDbViewTableRecord
  2
GEN4
 70
     0
 40
525.0
 10
649.731544
 20
262.5
 41
800.536913
 11
0.0
 21
0.0
 31
1.0
 12
0.0
 22
0.0
 32
0.0
 42
50.0
 43
0.0
 44
0.0
 50
0.0
 71
     0
281
     0
 72
     0
  0
VIEW
  5
16E7
330
160D
100
AcDbSymbolTableRecord
100
AcDbViewTableRecord
  2
GEN5
 70
     0
 40
525.0
 10
525.0
 20
525.0
 41
800.536913
 11
0.0
 21
0.0
 31
1.0
 12
0.0
 22
0.0
 32
0.0
 42
50.0
 43
0.0
 44
0.0
 50
0.0
 71
     0
281
     0
 72
     0
  0
VIEW
  5
16E8
330
160D
100
AcDbSymbolTableRecord
100
AcDbViewTableRecord
  2
GEN6
 70
     0
 40
1049.9895
 10
525.0
 20
525.0
 41
1601.057815
 11
0.0
 21
0.0
 31
1.0
 12
0.0
 22
0.0
 32
0.0
 42
50.0
 43
0.0
 44
0.0
 50
0.0
 71
     0
281
     0
 72
     0
  0
ENDTAB
  0
TABLE
  2
UCS
  5
160E
330
0
100
AcDbSymbolTable
 70
     0
  0
ENDTAB
  0
TABLE
  2
APPID
  5
1610
330
0
100
AcDbSymbolTable
 70
    37
  0
APPID
  5
1617
330
1610
100
AcDbSymbolTableRecord
100
AcDbRegAppTableRecord
  2
ACAD
 70
     0
  0
APPID
  5
1660
330
1610
100
AcDbSymbolTableRecord
100
AcDbRegAppTableRecord
  2
GENIUS_GENCFG_13
 70
     0
1001
GENIUS_GENCFG0_13
1000
GEN@INFO_POS@XLATE
1001
GENIUS_GENCFG1_13
1000
GEN@INFO_POS
1001
GENIUS_GENCFG2_13
1000
GEN@LAYER@DEFS
1001
GENIUS_GENCFG3_13
1000
GEN@LAYER@ENTSORT
1001
GENIUS_GENCFG4_13
1000
GEN
1001
GENIUS_GEVCFG0_13
1000
GEV
1001
GENIUS_DUMCFG0_13
1000
DUM
  0
APPID
  5
1661
330
1610
100
AcDbSymbolTableRecord
100
AcDbRegAppTableRecord
  2
GENIUS_GENCFG0_13
 70
     0
1001
GENIUS_GENCFG_13
1071
1022853005
1000
1661
1000
GEN@INFO_POS@XLATE
1070
     7
1000
GenCfgObject
1000
GenCfgShort
1000
GenCfgReal
1000
GenCfgBool
1000
GenCfgString
1000
GenCfgDim
1000
GenCfgAttrInf
1000
INFOPOINTS
1070
     0
1002
{
1000
GENINF14
1070
     0
1002
{
1000
2GENINF
1070
     4
1000
2
1002
{
1002
}
1000
5GENINF
1070
     4
1000
5
1002
{
1002
}
1000
7GENINF
1070
     4
1000
7
1002
{
1002
}
1000
9GENINF
1070
     4
1000
9
1002
{
1002
}
1000
11GENINF
1070
     4
1000
11
1002
{
1002
}
1000
14GENINF
1070
     4
1000
14
1002
{
1002
}
1002
}
1000
GENINF13
1070
     0
1002
{
1000
2GENINF
1070
     4
1000
2
1002
{
1002
}
1000
3GENINF
1070
     4
1000
3
1002
{
1002
}
1000
4GENINF
1070
     4
1000
4
1002
{
1002
}
1000
5GENINF
1070
     4
1000
5
1002
{
1002
}
1000
6GENINF
1070
     4
1000
6
1002
{
1002
}
1000
7GENINF
1070
     4
1000
7
1002
{
1002
}
1000
8GENINF
1070
     4
1000
8
1002
{
1002
}
1000
9GENINF
1070
     4
1000
9
1002
{
1002
}
1000
10GENINF
1070
     4
1000
10
1002
{
1002
}
1000
11GENINF
1070
     4
1000
11
1002
{
1002
}
1000
12GENINF
1070
     4
1000
12
1002
{
1002
}
1000
13GENINF
1070
     4
1000
13
1002
{
1002
}
1000
14GENINF
1070
     4
1000
14
1002
{
1002
}
1000
15GENINF
1070
     4
1000
15
1002
{
1002
}
1000
16GENINF
1070
     4
1000
16
1002
{
1002
}
1000
17GENINF
1070
     4
1000
17
1002
{
1002
}
1000
18GENINF
1070
     4
1000
18
1002
{
1002
}
1000
19GENINF
1070
     4
1000
19
1002
{
1002
}
1000
20GENINF
1070
     4
1000
20
1002
{
1002
}
1000
21GENINF
1070
     4
1000
21
1002
{
1002
}
1000
22GENINF
1070
     4
1000
22
1002
{
1002
}
1000
23GENINF
1070
     4
1000
23
1002
{
1002
}
1000
24GENINF
1070
     4
1000
24
1002
{
1002
}
1000
0GENINF
1070
     4
1000
0
1002
{
1002
}
1002
}
1000
GENINFO
1070
     0
1002
{
1000
3GENINF
1070
     4
1000
3
1002
{
1002
}
1000
4GENINF
1070
     4
1000
4
1002
{
1002
}
1000
5GENINF
1070
     4
1000
5
1002
{
1002
}
1000
6GENINF
1070
     4
1000
6
1002
{
1002
}
1000
7GENINF
1070
     4
1000
7
1002
{
1002
}
1000
8GENINF
1070
     4
1000
8
1002
{
1002
}
1000
9GENINF
1070
     4
1000
9
1002
{
1002
}
1000
10GENINF
1070
     4
1000
10
1002
{
1002
}
1000
11GENINF
1070
     4
1000
11
1002
{
1002
}
1000
12GENINF
1070
     4
1000
12
1002
{
1002
}
1000
13GENINF
1070
     4
1000
13
1002
{
1002
}
1000
14GENINF
1070
     4
1000
14
1002
{
1002
}
1000
15GENINF
1070
     4
1000
15
1002
{
1002
}
1000
16GENINF
1070
     4
1000
16
1002
{
1002
}
1000
17GENINF
1070
     4
1000
17
1002
{
1002
}
1000
18GENINF
1070
     4
1000
18
1002
{
1002
}
1000
19GENINF
1070
     4
1000
19
1002
{
1002
}
1000
20GENINF
1070
     4
1000
20
1002
{
1002
}
1000
21GENINF
1070
     4
1000
21
1002
{
1002
}
1000
22GENINF
1070
     4
1000
22
1002
{
1002
}
1002
}
1000
DININFO
1070
     0
1002
{
1000
ST-NAME1
1070
     4
1000
5
1002
{
1002
}
1000
ST-NAME2
1070
     4
1000
6
1002
{
1002
}
1000
ST-NORM1
1070
     4
1000
7
1002
{
1002
}
1000
ST-NORM2
1070
     4
1000
8
1002
{
1002
}
1000
ST-MAT1
1070
     4
1000
9
1002
{
1002
}
1000
ST-MAT2
1070
     4
1000
10
1002
{
1002
}
1002
}
1002
}
1000
POS_NUMBERS
1070
     0
1002
{
1000
GENPOS14
1070
     0
1002
{
1000
1GENPOS
1070
     4
1000
1
1002
{
1002
}
1000
2GENPOS
1070
     4
1000
2
1002
{
1002
}
1000
5GENPOS
1070
     4
1000
5
1002
{
1002
}
1000
7GENPOS
1070
     4
1000
7
1002
{
1002
}
1000
9GENPOS
1070
     4
1000
9
1002
{
1002
}
1000
11GENPOS
1070
     4
1000
11
1002
{
1002
}
1000
14GENPOS
1070
     4
1000
14
1002
{
1002
}
1002
}
1000
GENPOS13
1070
     0
1002
{
1000
1GENPOS
1070
     4
1000
1
1002
{
1002
}
1000
2GENPOS
1070
     4
1000
2
1002
{
1002
}
1000
3GENPOS
1070
     4
1000
3
1002
{
1002
}
1000
4GENPOS
1070
     4
1000
4
1002
{
1002
}
1000
5GENPOS
1070
     4
1000
5
1002
{
1002
}
1000
6GENPOS
1070
     4
1000
6
1002
{
1002
}
1000
7GENPOS
1070
     4
1000
7
1002
{
1002
}
1000
8GENPOS
1070
     4
1000
8
1002
{
1002
}
1000
9GENPOS
1070
     4
1000
9
1002
{
1002
}
1000
10GENPOS
1070
     4
1000
10
1002
{
1002
}
1000
11GENPOS
1070
     4
1000
11
1002
{
1002
}
1000
12GENPOS
1070
     4
1000
12
1002
{
1002
}
1000
13GENPOS
1070
     4
1000
13
1002
{
1002
}
1000
14GENPOS
1070
     4
1000
14
1002
{
1002
}
1000
15GENPOS
1070
     4
1000
15
1002
{
1002
}
1000
16GENPOS
1070
     4
1000
16
1002
{
1002
}
1000
17GENPOS
1070
     4
1000
17
1002
{
1002
}
1000
18GENPOS
1070
     4
1000
18
1002
{
1002
}
1000
19GENPOS
1070
     4
1000
19
1002
{
1002
}
1000
20GENPOS
1070
     4
1000
20
1002
{
1002
}
1000
21GENPOS
1070
     4
1000
21
1002
{
1002
}
1000
22GENPOS
1070
     4
1000
22
1002
{
1002
}
1000
23GENPOS
1070
     4
1000
23
1002
{
1002
}
1000
24GENPOS
1070
     4
1000
24
1002
{
1002
}
1000
0GENPOS
1070
     4
1000
0
1002
{
1002
}
1002
}
1000
GENPOS
1070
     0
1002
{
1000
1GENPOS
1070
     4
1000
1
1002
{
1002
}
1000
2GENPOS
1070
     4
1000
2
1002
{
1002
}
1000
3GENPOS
1070
     4
1000
3
1002
{
1002
}
1000
4GENPOS
1070
     4
1000
4
1002
{
1002
}
1000
5GENPOS
1070
     4
1000
5
1002
{
1002
}
1000
6GENPOS
1070
     4
1000
6
1002
{
1002
}
1000
7GENPOS
1070
     4
1000
7
1002
{
1002
}
1000
8GENPOS
1070
     4
1000
8
1002
{
1002
}
1000
9GENPOS
1070
     4
1000
9
1002
{
1002
}
1000
10GENPOS
1070
     4
1000
10
1002
{
1002
}
1000
11GENPOS
1070
     4
1000
11
1002
{
1002
}
1000
12GENPOS
1070
     4
1000
12
1002
{
1002
}
1000
13GENPOS
1070
     4
1000
13
1002
{
1002
}
1000
14GENPOS
1070
     4
1000
14
1002
{
1002
}
1000
15GENPOS
1070
     4
1000
15
1002
{
1002
}
1000
16GENPOS
1070
     4
1000
16
1002
{
1002
}
1000
17GENPOS
1070
     4
1000
17
1002
{
1002
}
1000
18GENPOS
1070
     4
1000
18
1002
{
1002
}
1000
19GENPOS
1070
     4
1000
19
1002
{
1002
}
1000
20GENPOS
1070
     4
1000
20
1002
{
1002
}
1000
21GENPOS
1070
     4
1000
21
1002
{
1002
}
1000
22GENPOS
1070
     4
1000
22
1002
{
1002
}
1000
23GENPOS
1070
     4
1000
23
1002
{
1002
}
1002
}
1000
DIN985
1070
     0
1002
{
1000
POSITION
1070
     4
1000
1
1002
{
1002
}
1000
MENGE
1070
     4
1000
2
1002
{
1002
}
1000
BLATT
1070
     4
1000
3
1002
{
1002
}
1000
BENENN
1070
     4
1000
5
1002
{
1002
}
1000
BENENN2
1070
     4
1000
6
1002
{
1002
}
1000
NORM
1070
     4
1000
7
1002
{
1002
}
1000
NORM2
1070
     4
1000
8
1002
{
1002
}
1000
WERKSTOFF
1070
     4
1000
9
1002
{
1002
}
1000
WERKSTOFF2
1070
     4
1000
10
1002
{
1002
}
1002
}
1000
DIN986
1070
     0
1002
{
1000
POSITION
1070
     4
1000
1
1002
{
1002
}
1000
MENGE
1070
     4
1000
2
1002
{
1002
}
1000
BLATT
1070
     4
1000
3
1002
{
1002
}
1000
BENENN
1070
     4
1000
5
1002
{
1002
}
1000
BENENN2
1070
     4
1000
6
1002
{
1002
}
1000
NORM
1070
     4
1000
7
1002
{
1002
}
1000
NORM2
1070
     4
1000
8
1002
{
1002
}
1000
WERKSTOFF
1070
     4
1000
9
1002
{
1002
}
1000
WERKSTOFF2
1070
     4
1000
10
1002
{
1002
}
1002
}
1000
DIN987
1070
     0
1002
{
1000
POSITION
1070
     4
1000
1
1002
{
1002
}
1000
MENGE
1070
     4
1000
2
1002
{
1002
}
1000
BLATT
1070
     4
1000
3
1002
{
1002
}
1000
BENENN
1070
     4
1000
5
1002
{
1002
}
1000
BENENN2
1070
     4
1000
6
1002
{
1002
}
1000
NORM
1070
     4
1000
7
1002
{
1002
}
1000
NORM2
1070
     4
1000
8
1002
{
1002
}
1000
WERKSTOFF
1070
     4
1000
9
1002
{
1002
}
1000
WERKSTOFF2
1070
     4
1000
10
1002
{
1002
}
1002
}
1002
}
  0
APPID
  5
1662
330
1610
100
AcDbSymbolTableRecord
100
AcDbRegAppTableRecord
  2
GENIUS_GENCFG1_13
 70
     0
1001
GENIUS_GENCFG_13
1071
1022853005
1000
1662
1000
GEN@INFO_POS
1070
     7
1000
GenCfgObject
1000
GenCfgShort
1000
GenCfgReal
1000
GenCfgBool
1000
GenCfgString
1000
GenCfgDim
1000
GenCfgAttrInf
1000
DescrText
1070
     4
1000
5, ,6, ,7, ,8
1002
{
1002
}
1000
DescrText2
1070
     4
1000
26
1002
{
1002
}
1000
VisibleAttr1
1070
     4
1000
1
1002
{
1002
}
1000
VisibleAttr2
1070
     4
1000
26
1002
{
1002
}
1000
UpdateBlock
1070
     3
1070
     1
1002
{
1002
}
1000
Attrib
1070
     0
1002
{
1000
0
1070
     6
1002
{
1000
Prompt
1070
     4
1000
(genmsg gendwg 103)
1002
{
1002
}
1000
Value
1070
     4
1000

1002
{
1002
}
1000
EditFlag
1070
     1
1070
     0
1002
{
1002
}
1000
PosInDDATTE
1070
     1
1070
    27
1002
{
1002
}
1000
FieldLen
1070
     1
1070
    -1
1002
{
1002
}
1002
}
1000
1
1070
     6
1002
{
1000
Prompt
1070
     4
1000
(genmsg gendwg 31)
1002
{
1002
}
1000
Value
1070
     4
1000
1
1002
{
1002
}
1000
EditFlag
1070
     1
1070
     1
1002
{
1002
}
1000
PosInDDATTE
1070
     1
1070
     1
1002
{
1002
}
1000
FieldLen
1070
     1
1070
    -1
1002
{
1002
}
1002
}
1000
2
1070
     6
1002
{
1000
Prompt
1070
     4
1000
(genmsg gendwg 32)
1002
{
1002
}
1000
Value
1070
     4
1000
1
1002
{
1002
}
1000
EditFlag
1070
     1
1070
     1
1002
{
1002
}
1000
PosInDDATTE
1070
     1
1070
     2
1002
{
1002
}
1000
FieldLen
1070
     1
1070
    -1
1002
{
1002
}
1002
}
1000
3
1070
     6
1002
{
1000
Prompt
1070
     4
1000
(genmsg gendwg 33)
1002
{
1002
}
1000
Value
1070
     4
1000

1002
{
1002
}
1000
EditFlag
1070
     1
1070
     1
1002
{
1002
}
1000
PosInDDATTE
1070
     1
1070
     3
1002
{
1002
}
1000
FieldLen
1070
     1
1070
    -1
1002
{
1002
}
1002
}
1000
4
1070
     6
1002
{
1000
Prompt
1070
     4
1000
(genmsg gendwg 34)
1002
{
1002
}
1000
Value
1070
     4
1000

1002
{
1002
}
1000
EditFlag
1070
     1
1070
     1
1002
{
1002
}
1000
PosInDDATTE
1070
     1
1070
     4
1002
{
1002
}
1000
FieldLen
1070
     1
1070
    -1
1002
{
1002
}
1002
}
1000
5
1070
     6
1002
{
1000
Prompt
1070
     4
1000
(genmsg gendwg 35)
1002
{
1002
}
1000
Value
1070
     4
1000

1002
{
1002
}
1000
EditFlag
1070
     1
1070
     1
1002
{
1002
}
1000
PosInDDATTE
1070
     1
1070
     5
1002
{
1002
}
1000
FieldLen
1070
     1
1070
    -1
1002
{
1002
}
1002
}
1000
6
1070
     6
1002
{
1000
Prompt
1070
     4
1000
(genmsg gendwg 36)
1002
{
1002
}
1000
Value
1070
     4
1000

1002
{
1002
}
1000
EditFlag
1070
     1
1070
     1
1002
{
1002
}
1000
PosInDDATTE
1070
     1
1070
     6
1002
{
1002
}
1000
FieldLen
1070
     1
1070
    -1
1002
{
1002
}
1002
}
1000
7
1070
     6
1002
{
1000
Prompt
1070
     4
1000
(genmsg gendwg 37)
1002
{
1002
}
1000
Value
1070
     4
1000

1002
{
1002
}
1000
EditFlag
1070
     1
1070
     1
1002
{
1002
}
1000
PosInDDATTE
1070
     1
1070
     7
1002
{
1002
}
1000
FieldLen
1070
     1
1070
    -1
1002
{
1002
}
1002
}
1000
8
1070
     6
1002
{
1000
Prompt
1070
     4
1000
(genmsg gendwg 38)
1002
{
1002
}
1000
Value
1070
     4
1000

1002
{
1002
}
1000
EditFlag
1070
     1
1070
     1
1002
{
1002
}
1000
PosInDDATTE
1070
     1
1070
     8
1002
{
1002
}
1000
FieldLen
1070
     1
1070
    -1
1002
{
1002
}
1002
}
1000
9
1070
     6
1002
{
1000
Prompt
1070
     4
1000
(genmsg gendwg 39)
1002
{
1002
}
1000
Value
1070
     4
1000

1002
{
1002
}
1000
EditFlag
1070
     1
1070
     1
1002
{
1002
}
1000
PosInDDATTE
1070
     1
1070
     9
1002
{
1002
}
1000
FieldLen
1070
     1
1070
    -1
1002
{
1002
}
1002
}
1000
10
1070
     6
1002
{
1000
Prompt
1070
     4
1000
(genmsg gendwg 40)
1002
{
1002
}
1000
Value
1070
     4
1000

1002
{
1002
}
1000
EditFlag
1070
     1
1070
     1
1002
{
1002
}
1000
PosInDDATTE
1070
     1
1070
    10
1002
{
1002
}
1000
FieldLen
1070
     1
1070
    -1
1002
{
1002
}
1002
}
1000
11
1070
     6
1002
{
1000
Prompt
1070
     4
1000
(genmsg gendwg 41)
1002
{
1002
}
1000
Value
1070
     4
1000

1002
{
1002
}
1000
EditFlag
1070
     1
1070
     1
1002
{
1002
}
1000
PosInDDATTE
1070
     1
1070
    11
1002
{
1002
}
1000
FieldLen
1070
     1
1070
    -1
1002
{
1002
}
1002
}
1000
12
1070
     6
1002
{
1000
Prompt
1070
     4
1000
(genmsg gendwg 42)
1002
{
1002
}
1000
Value
1070
     4
1000

1002
{
1002
}
1000
EditFlag
1070
     1
1070
     1
1002
{
1002
}
1000
PosInDDATTE
1070
     1
1070
    12
1002
{
1002
}
1000
FieldLen
1070
     1
1070
    -1
1002
{
1002
}
1002
}
1000
13
1070
     6
1002
{
1000
Prompt
1070
     4
1000
(genmsg gendwg 43)
1002
{
1002
}
1000
Value
1070
     4
1000

1002
{
1002
}
1000
EditFlag
1070
     1
1070
     1
1002
{
1002
}
1000
PosInDDATTE
1070
     1
1070
    13
1002
{
1002
}
1000
FieldLen
1070
     1
1070
    -1
1002
{
1002
}
1002
}
1000
14
1070
     6
1002
{
1000
Prompt
1070
     4
1000
(genmsg gendwg 44)
1002
{
1002
}
1000
Value
1070
     4
1000

1002
{
1002
}
1000
EditFlag
1070
     1
1070
     1
1002
{
1002
}
1000
PosInDDATTE
1070
     1
1070
    14
1002
{
1002
}
1000
FieldLen
1070
     1
1070
    -1
1002
{
1002
}
1002
}
1000
15
1070
     6
1002
{
1000
Prompt
1070
     4
1000
(genmsg gendwg 45)
1002
{
1002
}
1000
Value
1070
     4
1000

1002
{
1002
}
1000
EditFlag
1070
     1
1070
     1
1002
{
1002
}
1000
PosInDDATTE
1070
     1
1070
    15
1002
{
1002
}
1000
FieldLen
1070
     1
1070
    -1
1002
{
1002
}
1002
}
1000
16
1070
     6
1002
{
1000
Prompt
1070
     4
1000
(genmsg gendwg 46)
1002
{
1002
}
1000
Value
1070
     4
1000

1002
{
1002
}
1000
EditFlag
1070
     1
1070
     1
1002
{
1002
}
1000
PosInDDATTE
1070
     1
1070
    16
1002
{
1002
}
1000
FieldLen
1070
     1
1070
    -1
1002
{
1002
}
1002
}
1000
17
1070
     6
1002
{
1000
Prompt
1070
     4
1000
(genmsg gendwg 47)
1002
{
1002
}
1000
Value
1070
     4
1000

1002
{
1002
}
1000
EditFlag
1070
     1
1070
     1
1002
{
1002
}
1000
PosInDDATTE
1070
     1
1070
    17
1002
{
1002
}
1000
FieldLen
1070
     1
1070
    -1
1002
{
1002
}
1002
}
1000
18
1070
     6
1002
{
1000
Prompt
1070
     4
1000
(genmsg gendwg 48)
1002
{
1002
}
1000
Value
1070
     4
1000

1002
{
1002
}
1000
EditFlag
1070
     1
1070
     1
1002
{
1002
}
1000
PosInDDATTE
1070
     1
1070
    18
1002
{
1002
}
1000
FieldLen
1070
     1
1070
    -1
1002
{
1002
}
1002
}
1000
19
1070
     6
1002
{
1000
Prompt
1070
     4
1000
(genmsg gendwg 99)
1002
{
1002
}
1000
Value
1070
     4
1000

1002
{
1002
}
1000
EditFlag
1070
     1
1070
     1
1002
{
1002
}
1000
PosInDDATTE
1070
     1
1070
    19
1002
{
1002
}
1000
FieldLen
1070
     1
1070
    -1
1002
{
1002
}
1002
}
1000
20
1070
     6
1002
{
1000
Prompt
1070
     4
1000
(genmsg gendwg 100)
1002
{
1002
}
1000
Value
1070
     4
1000

1002
{
1002
}
1000
EditFlag
1070
     1
1070
     1
1002
{
1002
}
1000
PosInDDATTE
1070
     1
1070
    20
1002
{
1002
}
1000
FieldLen
1070
     1
1070
    -1
1002
{
1002
}
1002
}
1000
21
1070
     6
1002
{
1000
Prompt
1070
     4
1000
(genmsg gendwg 101)
1002
{
1002
}
1000
Value
1070
     4
1000

1002
{
1002
}
1000
EditFlag
1070
     1
1070
     1
1002
{
1002
}
1000
PosInDDATTE
1070
     1
1070
    21
1002
{
1002
}
1000
FieldLen
1070
     1
1070
    -1
1002
{
1002
}
1002
}
1000
22
1070
     6
1002
{
1000
Prompt
1070
     4
1000
(genmsg gendwg 102)
1002
{
1002
}
1000
Value
1070
     4
1000

1002
{
1002
}
1000
EditFlag
1070
     1
1070
     1
1002
{
1002
}
1000
PosInDDATTE
1070
     1
1070
    22
1002
{
1002
}
1000
FieldLen
1070
     1
1070
    -1
1002
{
1002
}
1002
}
1000
23
1070
     6
1002
{
1000
Prompt
1070
     4
1000
(genmsg gendwg 30)
1002
{
1002
}
1000
Value
1070
     4
1000

1002
{
1002
}
1000
EditFlag
1070
     1
1070
     1
1002
{
1002
}
1000
PosInDDATTE
1070
     1
1070
    23
1002
{
1002
}
1000
FieldLen
1070
     1
1070
    -1
1002
{
1002
}
1002
}
1000
24
1070
     6
1002
{
1000
Prompt
1070
     4
1000
(genmsg gendwg 104)
1002
{
1002
}
1000
Value
1070
     4
1000

1002
{
1002
}
1000
EditFlag
1070
     1
1070
     1
1002
{
1002
}
1000
PosInDDATTE
1070
     1
1070
    24
1002
{
1002
}
1000
FieldLen
1070
     1
1070
    -1
1002
{
1002
}
1002
}
1000
25
1070
     6
1002
{
1000
Prompt
1070
     4
1000
(genmsg gendwg 105)
1002
{
1002
}
1000
Value
1070
     4
1000

1002
{
1002
}
1000
EditFlag
1070
     1
1070
     1
1002
{
1002
}
1000
PosInDDATTE
1070
     1
1070
    25
1002
{
1002
}
1000
FieldLen
1070
     1
1070
    -1
1002
{
1002
}
1002
}
1000
26
1070
     6
1002
{
1000
Prompt
1070
     4
1000
(genmsg gendwg 106)
1002
{
1002
}
1000
Value
1070
     4
1000

1002
{
1002
}
1000
EditFlag
1070
     1
1070
     1
1002
{
1002
}
1000
PosInDDATTE
1070
     1
1070
    26
1002
{
1002
}
1000
FieldLen
1070
     1
1070
    -1
1002
{
1002
}
1002
}
1000
27
1070
     6
1002
{
1000
Prompt
1070
     4
1000
(genmsg gendwg 109)
1002
{
1002
}
1000
Value
1070
     4
1000

1002
{
1002
}
1000
EditFlag
1070
     1
1070
     2
1002
{
1002
}
1000
PosInDDATTE
1070
     1
1070
    27
1002
{
1002
}
1000
FieldLen
1070
     1
1070
    -1
1002
{
1002
}
1002
}
1002
}
1000
Xlate
1070
     0
1002
{
1000
>
1002
}
  0
APPID
  5
1663
330
1610
100
AcDbSymbolTableRecord
100
AcDbRegAppTableRecord
  2
GENIUS_GENCFG2_13
 70
     0
1001
GENIUS_GENCFG_13
1071
1022853005
1000
1663
1000
GEN@LAYER@DEFS
1070
     9
1000
GenCfgObject
1000
GenCfgShort
1000
GenCfgReal
1000
GenCfgBool
1000
GenCfgString
1000
GenCfgDim
1000
GenCfgAttrInf
1000
GenCfgLaySection
1000
GenCfgLayer
1000
Basic
1070
     0
1002
{
1000
0
1070
     8
1000
0
1002
{
1000
Color
1070
     1
1070
     7
1002
{
1002
}
1000
LType
1070
     4
1000
CONTINUOUS
1002
{
1002
}
1000
Base
1070
     3
1070
     0
1002
{
1002
}
1002
}
1000
1
1070
     8
1000
1
1002
{
1000
Color
1070
     1
1070
    14
1002
{
1002
}
1000
LType
1070
     4
1000
CONTINUOUS
1002
{
1002
}
1000
Base
1070
     3
1070
     0
1002
{
1002
}
1002
}
1000
2
1070
     8
1000
2
1002
{
1000
Color
1070
     1
1070
     5
1002
{
1002
}
1000
LType
1070
     4
1000
CONTINUOUS
1002
{
1002
}
1000
Base
1070
     3
1070
     0
1002
{
1002
}
1002
}
1000
3
1070
     8
1000
3
1002
{
1000
Color
1070
     1
1070
     6
1002
{
1002
}
1000
LType
1070
     4
1000
GEN3
1002
{
1002
}
1000
Base
1070
     3
1070
     0
1002
{
1002
}
1002
}
1000
4
1070
     8
1000
4
1002
{
1000
Color
1070
     1
1070
     3
1002
{
1002
}
1000
LType
1070
     4
1000
CONTINUOUS
1002
{
1002
}
1000
Base
1070
     3
1070
     0
1002
{
1002
}
1002
}
1000
5
1070
     8
1000
5
1002
{
1000
Color
1070
     1
1070
     3
1002
{
1002
}
1000
LType
1070
     4
1000
CONTINUOUS
1002
{
1002
}
1000
Base
1070
     3
1070
     0
1002
{
1002
}
1002
}
1000
6
1070
     8
1000
6
1002
{
1000
Color
1070
     1
1070
     2
1002
{
1002
}
1000
LType
1070
     4
1000
CONTINUOUS
1002
{
1002
}
1000
Base
1070
     3
1070
     0
1002
{
1002
}
1002
}
1000
7
1070
     8
1000
7
1002
{
1000
Color
1070
     1
1070
     4
1002
{
1002
}
1000
LType
1070
     4
1000
GEN7
1002
{
1002
}
1000
Base
1070
     3
1070
     0
1002
{
1002
}
1002
}
1000
8
1070
     8
1000
8
1002
{
1000
Color
1070
     1
1070
     1
1002
{
1002
}
1000
LType
1070
     4
1000
CONTINUOUS
1002
{
1002
}
1000
Base
1070
     3
1070
     0
1002
{
1002
}
1002
}
1000
3A
1070
     8
1000
3A
1002
{
1000
Color
1070
     1
1070
     6
1002
{
1002
}
1000
LType
1070
     4
1000
GEN3A
1002
{
1002
}
1000
Base
1070
     3
1070
     0
1002
{
1002
}
1002
}
1000
7A
1070
     8
1000
7A
1002
{
1000
Color
1070
     1
1070
     4
1002
{
1002
}
1000
LType
1070
     4
1000
GEN7A
1002
{
1002
}
1000
Base
1070
     3
1070
     0
1002
{
1002
}
1002
}
1000
2A
1070
     8
1000
2A
1002
{
1000
Color
1070
     1
1070
     7
1002
{
1002
}
1000
LType
1070
     4
1000
GEN7
1002
{
1002
}
1000
Base
1070
     3
1070
     0
1002
{
1002
}
1002
}
1000
4A
1070
     8
1000
4A
1002
{
1000
Color
1070
     1
1070
     3
1002
{
1002
}
1000
LType
1070
     4
1000
GEN4A
1002
{
1002
}
1000
Base
1070
     3
1070
     0
1002
{
1002
}
1002
}
1000
9
1070
     8
1000
9
1002
{
1000
Color
1070
     1
1070
   253
1002
{
1002
}
1000
LType
1070
     4
1000
CONTINUOUS
1002
{
1002
}
1000
Base
1070
     3
1070
     0
1002
{
1002
}
1002
}
1000
IP
1070
     8
1000
IP
1002
{
1000
Color
1070
     1
1070
     7
1002
{
1002
}
1000
LType
1070
     4
1000
CONTINUOUS
1002
{
1002
}
1000
Base
1070
     3
1070
     0
1002
{
1002
}
1002
}
1002
}
1000
Standard
1070
     0
1002
{
1000
0N
1070
     8
1000
0N
1002
{
1000
Color
1070
     1
1070
     7
1002
{
1002
}
1000
LType
1070
     4
1000
CONTINUOUS
1002
{
1002
}
1000
Base
1070
     3
1070
     0
1002
{
1002
}
1002
}
1000
1N
1070
     8
1000
1N
1002
{
1000
Color
1070
     1
1070
    14
1002
{
1002
}
1000
LType
1070
     4
1000
CONTINUOUS
1002
{
1002
}
1000
Base
1070
     3
1070
     0
1002
{
1002
}
1002
}
1000
2N
1070
     8
1000
2N
1002
{
1000
Color
1070
     1
1070
     5
1002
{
1002
}
1000
LType
1070
     4
1000
CONTINUOUS
1002
{
1002
}
1000
Base
1070
     3
1070
     0
1002
{
1002
}
1002
}
1000
3N
1070
     8
1000
3N
1002
{
1000
Color
1070
     1
1070
     6
1002
{
1002
}
1000
LType
1070
     4
1000
GEN3
1002
{
1002
}
1000
Base
1070
     3
1070
     0
1002
{
1002
}
1002
}
1000
4N
1070
     8
1000
4N
1002
{
1000
Color
1070
     1
1070
     3
1002
{
1002
}
1000
LType
1070
     4
1000
CONTINUOUS
1002
{
1002
}
1000
Base
1070
     3
1070
     0
1002
{
1002
}
1002
}
1000
5N
1070
     8
1000
5N
1002
{
1000
Color
1070
     1
1070
     3
1002
{
1002
}
1000
LType
1070
     4
1000
CONTINUOUS
1002
{
1002
}
1000
Base
1070
     3
1070
     0
1002
{
1002
}
1002
}
1000
6N
1070
     8
1000
6N
1002
{
1000
Color
1070
     1
1070
     2
1002
{
1002
}
1000
LType
1070
     4
1000
CONTINUOUS
1002
{
1002
}
1000
Base
1070
     3
1070
     0
1002
{
1002
}
1002
}
1000
7N
1070
     8
1000
7N
1002
{
1000
Color
1070
     1
1070
     4
1002
{
1002
}
1000
LType
1070
     4
1000
GEN7
1002
{
1002
}
1000
Base
1070
     3
1070
     0
1002
{
1002
}
1002
}
1000
8N
1070
     8
1000
8N
1002
{
1000
Color
1070
     1
1070
     1
1002
{
1002
}
1000
LType
1070
     4
1000
CONTINUOUS
1002
{
1002
}
1000
Base
1070
     3
1070
     0
1002
{
1002
}
1002
}
1000
3AN
1070
     8
1000
3AN
1002
{
1000
Color
1070
     1
1070
     6
1002
{
1002
}
1000
LType
1070
     4
1000
GEN3A
1002
{
1002
}
1000
Base
1070
     3
1070
     0
1002
{
1002
}
1002
}
1000
7AN
1070
     8
1000
7AN
1002
{
1000
Color
1070
     1
1070
     4
1002
{
1002
}
1000
LType
1070
     4
1000
GEN7A
1002
{
1002
}
1000
Base
1070
     3
1070
     0
1002
{
1002
}
1002
}
1000
2AN
1070
     8
1000
2AN
1002
{
1000
Color
1070
     1
1070
     7
1002
{
1002
}
1000
LType
1070
     4
1000
GEN7
1002
{
1002
}
1000
Base
1070
     3
1070
     0
1002
{
1002
}
1002
}
1000
4AN
1070
     8
1000
4AN
1002
{
1000
Color
1070
     1
1070
     3
1002
{
1002
}
1000
LType
1070
     4
1000
GEN4A
1002
{
1002
}
1000
Base
1070
     3
1070
     0
1002
{
1002
}
1002
}
1000
9N
1070
     8
1000
9N
1002
{
1000
Color
1070
     1
1070
   253
1002
{
1002
}
1000
LType
1070
     4
1000
CONTINUOUS
1002
{
1002
}
1000
Base
1070
     3
1070
     0
1002
{
1002
}
1002
}
1000
IPN
1070
     8
1000
IPN
1002
{
1000
Color
1070
     1
1070
     7
1002
{
1002
}
1000
LType
1070
     4
1000
CONTINUOUS
1002
{
1002
}
1000
Base
1070
     3
1070
     0
1002
{
1002
}
1002
}
1002
}
1000
Extra
1070
     0
1002
{
1000
Klin
1070
     8
1000
KLIN
1002
{
1000
Color
1070
     1
1070
     1
1002
{
1002
}
1000
LType
1070
     4
1000
CONTINUOUS
1002
{
1002
}
1000
Base
1070
     3
1070
     1
1002
{
1002
}
1002
}
1000
Info
1070
     8
1000
INFO
1002
{
1000
Color
1070
     1
1070
     4
1002
{
1002
}
1000
LType
1070
     4
1000
CONTINUOUS
1002
{
1002
}
1000
Base
1070
     3
1070
     1
1002
{
1002
}
1002
}
1000
Rahm2
1070
     8
1000
RAHM2
1002
{
1000
Color
1070
     1
1070
     1
1002
{
1002
}
1000
LType
1070
     4
1000
CONTINUOUS
1002
{
1002
}
1000
Base
1070
     3
1070
     1
1002
{
1002
}
1002
}
1000
Rahm3
1070
     8
1000
RAHM3
1002
{
1000
Color
1070
     1
1070
     2
1002
{
1002
}
1000
LType
1070
     4
1000
CONTINUOUS
1002
{
1002
}
1000
Base
1070
     3
1070
     1
1002
{
1002
}
1002
}
1000
Rahm5
1070
     8
1000
RAHM5
1002
{
1000
Color
1070
     1
1070
     7
1002
{
1002
}
1000
LType
1070
     4
1000
CONTINUOUS
1002
{
1002
}
1000
Base
1070
     3
1070
     1
1002
{
1002
}
1002
}
1000
View
1070
     8
1000
VIEW
1002
{
1000
Color
1070
     1
1070
     1
1002
{
1002
}
1000
LType
1070
     4
1000
CONTINUOUS
1002
{
1002
}
1000
Base
1070
     3
1070
     1
1002
{
1002
}
1002
}
1000
Behind
1070
     8
1000
BEHIND
1002
{
1000
Color
1070
     1
1070
   253
1002
{
1002
}
1000
LType
1070
     4
1000
CONTINUOUS
1002
{
1002
}
1000
Base
1070
     3
1070
     1
1002
{
1002
}
1002
}
1002
}
  0
APPID
  5
1664
330
1610
100
AcDbSymbolTableRecord
100
AcDbRegAppTableRecord
  2
GENIUS_GENCFG3_13
 70
     0
1001
GENIUS_GENCFG_13
1071
1022853005
1000
1664
1000
GEN@LAYER@ENTSORT
1070
    10
1000
GenCfgObject
1000
GenCfgShort
1000
GenCfgReal
1000
GenCfgBool
1000
GenCfgString
1000
GenCfgDim
1000
GenCfgAttrInf
1000
GenCfgLaySection
1000
GenCfgLayer
1000
GenCfgEntSort
1000
ADDL
1070
     9
1000
5
1002
{
1000
Class
1070
     4
1000
SYM
1002
{
1002
}
1000
Color
1070
     1
1070
     1
1002
{
1002
}
1000
LType
1070
     4
1000
BYLAYER
1002
{
1002
}
1002
}
1000
ALTR
1070
     9
1000
4
1002
{
1000
Class
1070
     4
1000

1002
{
1002
}
1000
Color
1070
     1
1070
     7
1002
{
1002
}
1000
LType
1070
     4
1000
GEN3A
1002
{
1002
}
1002
}
1000
BELI
1070
     9
1000
4
1002
{
1000
Class
1070
     4
1000

1002
{
1002
}
1000
Color
1070
     1
1070
   256
1002
{
1002
}
1000
LType
1070
     4
1000
BYLAYER
1002
{
1002
}
1002
}
1000
BHNV
1070
     9
1000
9
1002
{
1000
Class
1070
     4
1000
INV
1002
{
1002
}
1000
Color
1070
     1
1070
   256
1002
{
1002
}
1000
LType
1070
     4
1000
BYLAYER
1002
{
1002
}
1002
}
1000
BHNVS
1070
     9
1000
BEHIND
1002
{
1000
Class
1070
     4
1000
INV
1002
{
1002
}
1000
Color
1070
     1
1070
   256
1002
{
1002
}
1000
LType
1070
     4
1000
BYLAYER
1002
{
1002
}
1002
}
1000
BLID
1070
     9
1000
4A
1002
{
1000
Class
1070
     4
1000

1002
{
1002
}
1000
Color
1070
     1
1070
   256
1002
{
1002
}
1000
LType
1070
     4
1000
BYLAYER
1002
{
1002
}
1002
}
1000
BOAP
1070
     9
1000
4A
1002
{
1000
Class
1070
     4
1000

1002
{
1002
}
1000
Color
1070
     1
1070
   256
1002
{
1002
}
1000
LType
1070
     4
1000
BYLAYER
1002
{
1002
}
1002
}
1000
BOR2
1070
     9
1000
RAHM2
1002
{
1000
Class
1070
     4
1000
SPZ,SYM
1002
{
1002
}
1000
Color
1070
     1
1070
   256
1002
{
1002
}
1000
LType
1070
     4
1000
BYLAYER
1002
{
1002
}
1002
}
1000
BOR3
1070
     9
1000
RAHM3
1002
{
1000
Class
1070
     4
1000
SPZ,SYM
1002
{
1002
}
1000
Color
1070
     1
1070
   256
1002
{
1002
}
1000
LType
1070
     4
1000
BYLAYER
1002
{
1002
}
1002
}
1000
BOR5
1070
     9
1000
RAHM5
1002
{
1000
Class
1070
     4
1000
SPZ,SYM
1002
{
1002
}
1000
Color
1070
     1
1070
   256
1002
{
1002
}
1000
LType
1070
     4
1000
BYLAYER
1002
{
1002
}
1002
}
1000
BOR7
1070
     9
1000
RAHM5
1002
{
1000
Class
1070
     4
1000
SPZ,SYM
1002
{
1002
}
1000
Color
1070
     1
1070
     7
1002
{
1002
}
1000
LType
1070
     4
1000
CONTINUOUS
1002
{
1002
}
1002
}
1000
BPAP
1070
     9
1000
4A
1002
{
1000
Class
1070
     4
1000

1002
{
1002
}
1000
Color
1070
     1
1070
   256
1002
{
1002
}
1000
LType
1070
     4
1000
BYLAYER
1002
{
1002
}
1002
}
1000
BPEX
1070
     9
1000
4A
1002
{
1000
Class
1070
     4
1000

1002
{
1002
}
1000
Color
1070
     1
1070
   256
1002
{
1002
}
1000
LType
1070
     4
1000
BYLAYER
1002
{
1002
}
1002
}
1000
BTDI
1070
     9
1000
5
1002
{
1000
Class
1070
     4
1000
DIM,SYM
1002
{
1002
}
1000
Color
1070
     1
1070
   256
1002
{
1002
}
1000
LType
1070
     4
1000
BYLAYER
1002
{
1002
}
1002
}
1000
CAL2
1070
     9
1000
4
1002
{
1000
Class
1070
     4
1000
SYM
1002
{
1002
}
1000
Color
1070
     1
1070
   256
1002
{
1002
}
1000
LType
1070
     4
1000
BYLAYER
1002
{
1002
}
1002
}
1000
CAL3
1070
     9
1000
4
1002
{
1000
Class
1070
     4
1000
SYM
1002
{
1002
}
1000
Color
1070
     1
1070
     2
1002
{
1002
}
1000
LType
1070
     4
1000
BYLAYER
1002
{
1002
}
1002
}
1000
CAL5
1070
     9
1000
4
1002
{
1000
Class
1070
     4
1000
SYM
1002
{
1002
}
1000
Color
1070
     1
1070
     7
1002
{
1002
}
1000
LType
1070
     4
1000
BYLAYER
1002
{
1002
}
1002
}
1000
CAL7
1070
     9
1000
4
1002
{
1000
Class
1070
     4
1000
SYM
1002
{
1002
}
1000
Color
1070
     1
1070
     5
1002
{
1002
}
1000
LType
1070
     4
1000
BYLAYER
1002
{
1002
}
1002
}
1000
CENN
1070
     9
1000
7A
1002
{
1000
Class
1070
     4
1000
CEN
1002
{
1002
}
1000
Color
1070
     1
1070
   256
1002
{
1002
}
1000
LType
1070
     4
1000
BYLAYER
1002
{
1002
}
1002
}
1000
CENW
1070
     9
1000
7
1002
{
1000
Class
1070
     4
1000
CEN
1002
{
1002
}
1000
Color
1070
     1
1070
   256
1002
{
1002
}
1000
LType
1070
     4
1000
BYLAYER
1002
{
1002
}
1002
}
1000
CLIN
1070
     9
1000
KLIN
1002
{
1000
Class
1070
     4
1000
SPZ
1002
{
1002
}
1000
Color
1070
     1
1070
   256
1002
{
1002
}
1000
LType
1070
     4
1000
BYLAYER
1002
{
1002
}
1002
}
1000
CON1
1070
     9
1000
0
1002
{
1000
Class
1070
     4
1000
CON,BGD
1002
{
1002
}
1000
Color
1070
     1
1070
   256
1002
{
1002
}
1000
LType
1070
     4
1000
BYLAYER
1002
{
1002
}
1002
}
1000
CON2
1070
     9
1000
1
1002
{
1000
Class
1070
     4
1000
CON,BGD
1002
{
1002
}
1000
Color
1070
     1
1070
   256
1002
{
1002
}
1000
LType
1070
     4
1000
BYLAYER
1002
{
1002
}
1002
}
1000
CON3
1070
     9
1000
2
1002
{
1000
Class
1070
     4
1000
CON,BGD
1002
{
1002
}
1000
Color
1070
     1
1070
   256
1002
{
1002
}
1000
LType
1070
     4
1000
BYLAYER
1002
{
1002
}
1002
}
1000
CON4
1070
     9
1000
2
1002
{
1000
Class
1070
     4
1000
CON,BGD
1002
{
1002
}
1000
Color
1070
     1
1070
   256
1002
{
1002
}
1000
LType
1070
     4
1000
BYLAYER
1002
{
1002
}
1002
}
1000
DERP
1070
     9
1000
4
1002
{
1000
Class
1070
     4
1000

1002
{
1002
}
1000
Color
1070
     1
1070
   256
1002
{
1002
}
1000
LType
1070
     4
1000
BYLAYER
1002
{
1002
}
1002
}
1000
DETA
1070
     9
1000
4
1002
{
1000
Class
1070
     4
1000

1002
{
1002
}
1000
Color
1070
     1
1070
   256
1002
{
1002
}
1000
LType
1070
     4
1000
BYLAYER
1002
{
1002
}
1002
}
1000
DIAG
1070
     9
1000
5
1002
{
1000
Class
1070
     4
1000
SYM
1002
{
1002
}
1000
Color
1070
     1
1070
   256
1002
{
1002
}
1000
LType
1070
     4
1000
BYLAYER
1002
{
1002
}
1002
}
1000
DILI
1070
     9
1000
5
1002
{
1000
Class
1070
     4
1000
DIM,SYM
1002
{
1002
}
1000
Color
1070
     1
1070
   256
1002
{
1002
}
1000
LType
1070
     4
1000
BYLAYER
1002
{
1002
}
1002
}
1000
DITO2
1070
     9
1000
5
1002
{
1000
Class
1070
     4
1000
DIM,SYM
1002
{
1002
}
1000
Color
1070
     1
1070
     3
1002
{
1002
}
1000
LType
1070
     4
1000
BYLAYER
1002
{
1002
}
1002
}
1000
DITO3
1070
     9
1000
5
1002
{
1000
Class
1070
     4
1000
DIM,SYM
1002
{
1002
}
1000
Color
1070
     1
1070
     2
1002
{
1002
}
1000
LType
1070
     4
1000
BYLAYER
1002
{
1002
}
1002
}
1000
DITX
1070
     9
1000
5
1002
{
1000
Class
1070
     4
1000
DIM,SYM
1002
{
1002
}
1000
Color
1070
     1
1070
     2
1002
{
1002
}
1000
LType
1070
     4
1000
CONTINUOUS
1002
{
1002
}
1002
}
1000
DIXL
1070
     9
1000
5
1002
{
1000
Class
1070
     4
1000
DIM,SYM
1002
{
1002
}
1000
Color
1070
     1
1070
   256
1002
{
1002
}
1000
LType
1070
     4
1000
BYLAYER
1002
{
1002
}
1002
}
1000
EXMP
1070
     9
1000
4A
1002
{
1000
Class
1070
     4
1000

1002
{
1002
}
1000
Color
1070
     1
1070
   256
1002
{
1002
}
1000
LType
1070
     4
1000
BYLAYER
1002
{
1002
}
1002
}
1000
FEMN
1070
     9
1000
8
1002
{
1000
Class
1070
     4
1000

1002
{
1002
}
1000
Color
1070
     1
1070
   256
1002
{
1002
}
1000
LType
1070
     4
1000
BYLAYER
1002
{
1002
}
1002
}
1000
FEMPN
1070
     9
1000
8
1002
{
1000
Class
1070
     4
1000
SYM
1002
{
1002
}
1000
Color
1070
     1
1070
     3
1002
{
1002
}
1000
LType
1070
     4
1000
BYLAYER
1002
{
1002
}
1002
}
1000
FEMSP
1070
     9
1000
4A
1002
{
1000
Class
1070
     4
1000

1002
{
1002
}
1000
Color
1070
     1
1070
   256
1002
{
1002
}
1000
LType
1070
     4
1000
CONTINUOUS
1002
{
1002
}
1002
}
1000
FEMST
1070
     9
1000
4A
1002
{
1000
Class
1070
     4
1000
SYM
1002
{
1002
}
1000
Color
1070
     1
1070
     3
1002
{
1002
}
1000
LType
1070
     4
1000
BYLAYER
1002
{
1002
}
1002
}
1000
FEMVN
1070
     9
1000
2
1002
{
1000
Class
1070
     4
1000
CON
1002
{
1002
}
1000
Color
1070
     1
1070
   256
1002
{
1002
}
1000
LType
1070
     4
1000
BYLAYER
1002
{
1002
}
1002
}
1000
FEMVT
1070
     9
1000
2
1002
{
1000
Class
1070
     4
1000
SYM
1002
{
1002
}
1000
Color
1070
     1
1070
     3
1002
{
1002
}
1000
LType
1070
     4
1000
BYLAYER
1002
{
1002
}
1002
}
1000
FLAT
1070
     9
1000
0
1002
{
1000
Class
1070
     4
1000

1002
{
1002
}
1000
Color
1070
     1
1070
   256
1002
{
1002
}
1000
LType
1070
     4
1000
BYLAYER
1002
{
1002
}
1002
}
1000
FRAR
1070
     9
1000
4A
1002
{
1000
Class
1070
     4
1000

1002
{
1002
}
1000
Color
1070
     1
1070
   256
1002
{
1002
}
1000
LType
1070
     4
1000
BYLAYER
1002
{
1002
}
1002
}
1000
GRLI
1070
     9
1000
5
1002
{
1000
Class
1070
     4
1000
SYM
1002
{
1002
}
1000
Color
1070
     1
1070
   256
1002
{
1002
}
1000
LType
1070
     4
1000
BYLAYER
1002
{
1002
}
1002
}
1000
GVLI
1070
     9
1000
4A
1002
{
1000
Class
1070
     4
1000

1002
{
1002
}
1000
Color
1070
     1
1070
   256
1002
{
1002
}
1000
LType
1070
     4
1000
BYLAYER
1002
{
1002
}
1002
}
1000
HATC
1070
     9
1000
8
1002
{
1000
Class
1070
     4
1000
HTC,BGD
1002
{
1002
}
1000
Color
1070
     1
1070
   256
1002
{
1002
}
1000
LType
1070
     4
1000
BYLAYER
1002
{
1002
}
1002
}
1000
HIDN
1070
     9
1000
3A
1002
{
1000
Class
1070
     4
1000
HID,BGD
1002
{
1002
}
1000
Color
1070
     1
1070
   256
1002
{
1002
}
1000
LType
1070
     4
1000
BYLAYER
1002
{
1002
}
1002
}
1000
HIDW
1070
     9
1000
3
1002
{
1000
Class
1070
     4
1000
HID,BGD
1002
{
1002
}
1000
Color
1070
     1
1070
   256
1002
{
1002
}
1000
LType
1070
     4
1000
BYLAYER
1002
{
1002
}
1002
}
1000
HLIN
1070
     9
1000
4
1002
{
1000
Class
1070
     4
1000
BGD
1002
{
1002
}
1000
Color
1070
     1
1070
   256
1002
{
1002
}
1000
LType
1070
     4
1000
BYLAYER
1002
{
1002
}
1002
}
1000
HOCN
1070
     9
1000
7A
1002
{
1000
Class
1070
     4
1000
CEN
1002
{
1002
}
1000
Color
1070
     1
1070
   256
1002
{
1002
}
1000
LType
1070
     4
1000
BYLAYER
1002
{
1002
}
1002
}
1000
HOCW
1070
     9
1000
7
1002
{
1000
Class
1070
     4
1000
CEN
1002
{
1002
}
1000
Color
1070
     1
1070
   256
1002
{
1002
}
1000
LType
1070
     4
1000
BYLAYER
1002
{
1002
}
1002
}
1000
INFO
1070
     9
1000
INFO
1002
{
1000
Class
1070
     4
1000
SPZ,SYM
1002
{
1002
}
1000
Color
1070
     1
1070
   256
1002
{
1002
}
1000
LType
1070
     4
1000
BYLAYER
1002
{
1002
}
1002
}
1000
LADI
1070
     9
1000
4
1002
{
1000
Class
1070
     4
1000
BGD
1002
{
1002
}
1000
Color
1070
     1
1070
   256
1002
{
1002
}
1000
LType
1070
     4
1000
BYLAYER
1002
{
1002
}
1002
}
1000
LEAD
1070
     9
1000
5
1002
{
1000
Class
1070
     4
1000
SYM
1002
{
1002
}
1000
Color
1070
     1
1070
   256
1002
{
1002
}
1000
LType
1070
     4
1000
BYLAYER
1002
{
1002
}
1002
}
1000
N_ADDL
1070
     9
1000
5N
1002
{
1000
Class
1070
     4
1000
SYM
1002
{
1002
}
1000
Color
1070
     1
1070
     1
1002
{
1002
}
1000
LType
1070
     4
1000
BYLAYER
1002
{
1002
}
1002
}
1000
N_BHNV
1070
     9
1000
9N
1002
{
1000
Class
1070
     4
1000
INV
1002
{
1002
}
1000
Color
1070
     1
1070
   256
1002
{
1002
}
1000
LType
1070
     4
1000
BYLAYER
1002
{
1002
}
1002
}
1000
N_CON1
1070
     9
1000
0N
1002
{
1000
Class
1070
     4
1000
CON,BGD
1002
{
1002
}
1000
Color
1070
     1
1070
   256
1002
{
1002
}
1000
LType
1070
     4
1000
BYLAYER
1002
{
1002
}
1002
}
1000
N_CON2
1070
     9
1000
1N
1002
{
1000
Class
1070
     4
1000
CON,BGD
1002
{
1002
}
1000
Color
1070
     1
1070
   256
1002
{
1002
}
1000
LType
1070
     4
1000
BYLAYER
1002
{
1002
}
1002
}
1000
N_CON3
1070
     9
1000
2N
1002
{
1000
Class
1070
     4
1000
CON,BGD
1002
{
1002
}
1000
Color
1070
     1
1070
   256
1002
{
1002
}
1000
LType
1070
     4
1000
BYLAYER
1002
{
1002
}
1002
}
1000
N_CON4
1070
     9
1000
2N
1002
{
1000
Class
1070
     4
1000
CON,BGD
1002
{
1002
}
1000
Color
1070
     1
1070
   256
1002
{
1002
}
1000
LType
1070
     4
1000
BYLAYER
1002
{
1002
}
1002
}
1000
N_CENN
1070
     9
1000
7AN
1002
{
1000
Class
1070
     4
1000
CEN
1002
{
1002
}
1000
Color
1070
     1
1070
   256
1002
{
1002
}
1000
LType
1070
     4
1000
BYLAYER
1002
{
1002
}
1002
}
1000
N_CENW
1070
     9
1000
7N
1002
{
1000
Class
1070
     4
1000
CEN
1002
{
1002
}
1000
Color
1070
     1
1070
   256
1002
{
1002
}
1000
LType
1070
     4
1000
BYLAYER
1002
{
1002
}
1002
}
1000
N_DILI
1070
     9
1000
5N
1002
{
1000
Class
1070
     4
1000
DIM,SYM
1002
{
1002
}
1000
Color
1070
     1
1070
   256
1002
{
1002
}
1000
LType
1070
     4
1000
BYLAYER
1002
{
1002
}
1002
}
1000
N_DITX
1070
     9
1000
5N
1002
{
1000
Class
1070
     4
1000
DIM,SYM
1002
{
1002
}
1000
Color
1070
     1
1070
     2
1002
{
1002
}
1000
LType
1070
     4
1000
CONTINUOUS
1002
{
1002
}
1002
}
1000
N_DIXL
1070
     9
1000
5N
1002
{
1000
Class
1070
     4
1000
DIM,SYM
1002
{
1002
}
1000
Color
1070
     1
1070
   256
1002
{
1002
}
1000
LType
1070
     4
1000
BYLAYER
1002
{
1002
}
1002
}
1000
N_HATC
1070
     9
1000
8N
1002
{
1000
Class
1070
     4
1000
HTC,BGD
1002
{
1002
}
1000
Color
1070
     1
1070
   256
1002
{
1002
}
1000
LType
1070
     4
1000
BYLAYER
1002
{
1002
}
1002
}
1000
N_HIDN
1070
     9
1000
3AN
1002
{
1000
Class
1070
     4
1000
HID,BGD
1002
{
1002
}
1000
Color
1070
     1
1070
   256
1002
{
1002
}
1000
LType
1070
     4
1000
BYLAYER
1002
{
1002
}
1002
}
1000
N_HIDW
1070
     9
1000
3N
1002
{
1000
Class
1070
     4
1000
HID,BGD
1002
{
1002
}
1000
Color
1070
     1
1070
   256
1002
{
1002
}
1000
LType
1070
     4
1000
BYLAYER
1002
{
1002
}
1002
}
1000
N_NGIP
1070
     9
1000
IPN
1002
{
1000
Class
1070
     4
1000

1002
{
1002
}
1000
Color
1070
     1
1070
   256
1002
{
1002
}
1000
LType
1070
     4
1000
BYLAYER
1002
{
1002
}
1002
}
1000
N_PHAN
1070
     9
1000
4AN
1002
{
1000
Class
1070
     4
1000

1002
{
1002
}
1000
Color
1070
     1
1070
   256
1002
{
1002
}
1000
LType
1070
     4
1000
BYLAYER
1002
{
1002
}
1002
}
1000
N_POSL
1070
     9
1000
5N
1002
{
1000
Class
1070
     4
1000
SYM
1002
{
1002
}
1000
Color
1070
     1
1070
   256
1002
{
1002
}
1000
LType
1070
     4
1000
BYLAYER
1002
{
1002
}
1002
}
1000
N_TCON
1070
     9
1000
0N
1002
{
1000
Class
1070
     4
1000
CON,BGD
1002
{
1002
}
1000
Color
1070
     1
1070
   256
1002
{
1002
}
1000
LType
1070
     4
1000
BYLAYER
1002
{
1002
}
1002
}
1000
N_THLI
1070
     9
1000
4N
1002
{
1000
Class
1070
     4
1000
BGD
1002
{
1002
}
1000
Color
1070
     1
1070
   256
1002
{
1002
}
1000
LType
1070
     4
1000
BYLAYER
1002
{
1002
}
1002
}
1000
N_TLEN
1070
     9
1000
0N
1002
{
1000
Class
1070
     4
1000
CON,BGD
1002
{
1002
}
1000
Color
1070
     1
1070
   256
1002
{
1002
}
1000
LType
1070
     4
1000
BYLAYER
1002
{
1002
}
1002
}
1000
N_TXT3
1070
     9
1000
6N
1002
{
1000
Class
1070
     4
1000
SYM
1002
{
1002
}
1000
Color
1070
     1
1070
   256
1002
{
1002
}
1000
LType
1070
     4
1000
BYLAYER
1002
{
1002
}
1002
}
1000
N_VPLI
1070
     9
1000
2AN
1002
{
1000
Class
1070
     4
1000

1002
{
1002
}
1000
Color
1070
     1
1070
   256
1002
{
1002
}
1000
LType
1070
     4
1000
BYLAYER
1002
{
1002
}
1002
}
1000
NGIP
1070
     9
1000
IP
1002
{
1000
Class
1070
     4
1000

1002
{
1002
}
1000
Color
1070
     1
1070
   256
1002
{
1002
}
1000
LType
1070
     4
1000
BYLAYER
1002
{
1002
}
1002
}
1000
PAL2
1070
     9
1000
RAHM2
1002
{
1000
Class
1070
     4
1000
SPZ,SYM
1002
{
1002
}
1000
Color
1070
     1
1070
   256
1002
{
1002
}
1000
LType
1070
     4
1000
BYLAYER
1002
{
1002
}
1002
}
1000
PAL3
1070
     9
1000
RAHM3
1002
{
1000
Class
1070
     4
1000
SPZ,SYM
1002
{
1002
}
1000
Color
1070
     1
1070
   256
1002
{
1002
}
1000
LType
1070
     4
1000
BYLAYER
1002
{
1002
}
1002
}
1000
PAL5
1070
     9
1000
RAHM5
1002
{
1000
Class
1070
     4
1000
SPZ,SYM
1002
{
1002
}
1000
Color
1070
     1
1070
   256
1002
{
1002
}
1000
LType
1070
     4
1000
BYLAYER
1002
{
1002
}
1002
}
1000
PAL7
1070
     9
1000
RAHM5
1002
{
1000
Class
1070
     4
1000
SPZ,SYM
1002
{
1002
}
1000
Color
1070
     1
1070
     7
1002
{
1002
}
1000
LType
1070
     4
1000
CONTINUOUS
1002
{
1002
}
1002
}
1000
PHAN
1070
     9
1000
4A
1002
{
1000
Class
1070
     4
1000

1002
{
1002
}
1000
Color
1070
     1
1070
   256
1002
{
1002
}
1000
LType
1070
     4
1000
BYLAYER
1002
{
1002
}
1002
}
1000
POSL
1070
     9
1000
5
1002
{
1000
Class
1070
     4
1000
SYM
1002
{
1002
}
1000
Color
1070
     1
1070
   256
1002
{
1002
}
1000
LType
1070
     4
1000
BYLAYER
1002
{
1002
}
1002
}
1000
POSN
1070
     9
1000
6
1002
{
1000
Class
1070
     4
1000
SYM
1002
{
1002
}
1000
Color
1070
     1
1070
     7
1002
{
1002
}
1000
LType
1070
     4
1000
BYLAYER
1002
{
1002
}
1002
}
1000
POSREF
1070
     9
1000
6
1002
{
1000
Class
1070
     4
1000
SYM
1002
{
1002
}
1000
Color
1070
     1
1070
     5
1002
{
1002
}
1000
LType
1070
     4
1000
BYLAYER
1002
{
1002
}
1002
}
1000
POSX
1070
     9
1000
5
1002
{
1000
Class
1070
     4
1000
SYM
1002
{
1002
}
1000
Color
1070
     1
1070
     2
1002
{
1002
}
1000
LType
1070
     4
1000
CONTINUOUS
1002
{
1002
}
1002
}
1000
PSEC
1070
     9
1000
4A
1002
{
1000
Class
1070
     4
1000

1002
{
1002
}
1000
Color
1070
     1
1070
   256
1002
{
1002
}
1000
LType
1070
     4
1000
BYLAYER
1002
{
1002
}
1002
}
1000
RCGN
1070
     9
1000
7A
1002
{
1000
Class
1070
     4
1000
CEN
1002
{
1002
}
1000
Color
1070
     1
1070
   256
1002
{
1002
}
1000
LType
1070
     4
1000
BYLAYER
1002
{
1002
}
1002
}
1000
RCGW
1070
     9
1000
7
1002
{
1000
Class
1070
     4
1000
CEN
1002
{
1002
}
1000
Color
1070
     1
1070
   256
1002
{
1002
}
1000
LType
1070
     4
1000
BYLAYER
1002
{
1002
}
1002
}
1000
RFDI
1070
     9
1000
4
1002
{
1000
Class
1070
     4
1000
BGD
1002
{
1002
}
1000
Color
1070
     1
1070
   256
1002
{
1002
}
1000
LType
1070
     4
1000
BYLAYER
1002
{
1002
}
1002
}
1000
RQTR
1070
     9
1000
4
1002
{
1000
Class
1070
     4
1000

1002
{
1002
}
1000
Color
1070
     1
1070
     7
1002
{
1002
}
1000
LType
1070
     4
1000
GEN7A
1002
{
1002
}
1002
}
1000
RSBO
1070
     9
1000
4
1002
{
1000
Class
1070
     4
1000
BGD
1002
{
1002
}
1000
Color
1070
     1
1070
   256
1002
{
1002
}
1000
LType
1070
     4
1000
BYLAYER
1002
{
1002
}
1002
}
1000
SBRK
1070
     9
1000
4
1002
{
1000
Class
1070
     4
1000
BGD
1002
{
1002
}
1000
Color
1070
     1
1070
   256
1002
{
1002
}
1000
LType
1070
     4
1000
BYLAYER
1002
{
1002
}
1002
}
1000
SCEN
1070
     9
1000
7
1002
{
1000
Class
1070
     4
1000

1002
{
1002
}
1000
Color
1070
     1
1070
   256
1002
{
1002
}
1000
LType
1070
     4
1000
CONTINUOUS
1002
{
1002
}
1002
}
1000
SECT
1070
     9
1000
4
1002
{
1000
Class
1070
     4
1000
BGD
1002
{
1002
}
1000
Color
1070
     1
1070
   256
1002
{
1002
}
1000
LType
1070
     4
1000
BYLAYER
1002
{
1002
}
1002
}
1000
SELN
1070
     9
1000
7A
1002
{
1000
Class
1070
     4
1000

1002
{
1002
}
1000
Color
1070
     1
1070
   256
1002
{
1002
}
1000
LType
1070
     4
1000
BYLAYER
1002
{
1002
}
1002
}
1000
SELW
1070
     9
1000
7
1002
{
1000
Class
1070
     4
1000

1002
{
1002
}
1000
Color
1070
     1
1070
   256
1002
{
1002
}
1000
LType
1070
     4
1000
BYLAYER
1002
{
1002
}
1002
}
1000
SSYS
1070
     9
1000
0
1002
{
1000
Class
1070
     4
1000

1002
{
1002
}
1000
Color
1070
     1
1070
   256
1002
{
1002
}
1000
LType
1070
     4
1000
BYLAYER
1002
{
1002
}
1002
}
1000
STLI
1070
     9
1000
4
1002
{
1000
Class
1070
     4
1000

1002
{
1002
}
1000
Color
1070
     1
1070
     7
1002
{
1002
}
1000
LType
1070
     4
1000
GEN3A
1002
{
1002
}
1002
}
1000
SYB1
1070
     9
1000
5
1002
{
1000
Class
1070
     4
1000
SYM
1002
{
1002
}
1000
Color
1070
     1
1070
   256
1002
{
1002
}
1000
LType
1070
     4
1000
BYLAYER
1002
{
1002
}
1002
}
1000
SYB2
1070
     9
1000
5
1002
{
1000
Class
1070
     4
1000
SYM
1002
{
1002
}
1000
Color
1070
     1
1070
   256
1002
{
1002
}
1000
LType
1070
     4
1000
BYLAYER
1002
{
1002
}
1002
}
1000
SYB3
1070
     9
1000
6
1002
{
1000
Class
1070
     4
1000
SYM
1002
{
1002
}
1000
Color
1070
     1
1070
   256
1002
{
1002
}
1000
LType
1070
     4
1000
CONTINUOUS
1002
{
1002
}
1002
}
1000
SYB5
1070
     9
1000
5
1002
{
1000
Class
1070
     4
1000
SYM
1002
{
1002
}
1000
Color
1070
     1
1070
     7
1002
{
1002
}
1000
LType
1070
     4
1000
BYLAYER
1002
{
1002
}
1002
}
1000
SYMN
1070
     9
1000
7A
1002
{
1000
Class
1070
     4
1000
CEN
1002
{
1002
}
1000
Color
1070
     1
1070
   256
1002
{
1002
}
1000
LType
1070
     4
1000
BYLAYER
1002
{
1002
}
1002
}
1000
SYMW
1070
     9
1000
7
1002
{
1000
Class
1070
     4
1000
CEN
1002
{
1002
}
1000
Color
1070
     1
1070
   256
1002
{
1002
}
1000
LType
1070
     4
1000
BYLAYER
1002
{
1002
}
1002
}
1000
TCON
1070
     9
1000
0
1002
{
1000
Class
1070
     4
1000
CON,BGD
1002
{
1002
}
1000
Color
1070
     1
1070
   256
1002
{
1002
}
1000
LType
1070
     4
1000
BYLAYER
1002
{
1002
}
1002
}
1000
THLI
1070
     9
1000
4
1002
{
1000
Class
1070
     4
1000
BGD
1002
{
1002
}
1000
Color
1070
     1
1070
   256
1002
{
1002
}
1000
LType
1070
     4
1000
BYLAYER
1002
{
1002
}
1002
}
1000
TIT2
1070
     9
1000
RAHM2
1002
{
1000
Class
1070
     4
1000
SPZ,SYM
1002
{
1002
}
1000
Color
1070
     1
1070
   256
1002
{
1002
}
1000
LType
1070
     4
1000
BYLAYER
1002
{
1002
}
1002
}
1000
TIT3
1070
     9
1000
RAHM3
1002
{
1000
Class
1070
     4
1000
SPZ,SYM
1002
{
1002
}
1000
Color
1070
     1
1070
   256
1002
{
1002
}
1000
LType
1070
     4
1000
BYLAYER
1002
{
1002
}
1002
}
1000
TIT5
1070
     9
1000
RAHM5
1002
{
1000
Class
1070
     4
1000
SPZ,SYM
1002
{
1002
}
1000
Color
1070
     1
1070
   256
1002
{
1002
}
1000
LType
1070
     4
1000
BYLAYER
1002
{
1002
}
1002
}
1000
TIT7
1070
     9
1000
RAHM5
1002
{
1000
Class
1070
     4
1000
SPZ,SYM
1002
{
1002
}
1000
Color
1070
     1
1070
     7
1002
{
1002
}
1000
LType
1070
     4
1000
CONTINUOUS
1002
{
1002
}
1002
}
1000
TLEN
1070
     9
1000
0
1002
{
1000
Class
1070
     4
1000
CON,BGD
1002
{
1002
}
1000
Color
1070
     1
1070
   256
1002
{
1002
}
1000
LType
1070
     4
1000
BYLAYER
1002
{
1002
}
1002
}
1000
TRKN
1070
     9
1000
7A
1002
{
1000
Class
1070
     4
1000

1002
{
1002
}
1000
Color
1070
     1
1070
   256
1002
{
1002
}
1000
LType
1070
     4
1000
BYLAYER
1002
{
1002
}
1002
}
1000
TRKW
1070
     9
1000
7
1002
{
1000
Class
1070
     4
1000

1002
{
1002
}
1000
Color
1070
     1
1070
   256
1002
{
1002
}
1000
LType
1070
     4
1000
BYLAYER
1002
{
1002
}
1002
}
1000
TRLI
1070
     9
1000
4
1002
{
1000
Class
1070
     4
1000
BGD
1002
{
1002
}
1000
Color
1070
     1
1070
   256
1002
{
1002
}
1000
LType
1070
     4
1000
BYLAYER
1002
{
1002
}
1002
}
1000
TXT1
1070
     9
1000
6
1002
{
1000
Class
1070
     4
1000
SYM
1002
{
1002
}
1000
Color
1070
     1
1070
     2
1002
{
1002
}
1000
LType
1070
     4
1000
BYLAYER
1002
{
1002
}
1002
}
1000
TXT2
1070
     9
1000
6
1002
{
1000
Class
1070
     4
1000
SYM
1002
{
1002
}
1000
Color
1070
     1
1070
     2
1002
{
1002
}
1000
LType
1070
     4
1000
BYLAYER
1002
{
1002
}
1002
}
1000
TXT3
1070
     9
1000
6
1002
{
1000
Class
1070
     4
1000
SYM
1002
{
1002
}
1000
Color
1070
     1
1070
   256
1002
{
1002
}
1000
LType
1070
     4
1000
BYLAYER
1002
{
1002
}
1002
}
1000
TXT5
1070
     9
1000
6
1002
{
1000
Class
1070
     4
1000
SYM
1002
{
1002
}
1000
Color
1070
     1
1070
     7
1002
{
1002
}
1000
LType
1070
     4
1000
BYLAYER
1002
{
1002
}
1002
}
1000
TXT7
1070
     9
1000
6
1002
{
1000
Class
1070
     4
1000
SYM
1002
{
1002
}
1000
Color
1070
     1
1070
     7
1002
{
1002
}
1000
LType
1070
     4
1000
BYLAYER
1002
{
1002
}
1002
}
1000
VIEW
1070
     9
1000
VIEW
1002
{
1000
Class
1070
     4
1000
SPZ
1002
{
1002
}
1000
Color
1070
     1
1070
   256
1002
{
1002
}
1000
LType
1070
     4
1000
BYLAYER
1002
{
1002
}
1002
}
1000
VPLI
1070
     9
1000
2A
1002
{
1000
Class
1070
     4
1000

1002
{
1002
}
1000
Color
1070
     1
1070
   256
1002
{
1002
}
1000
LType
1070
     4
1000
BYLAYER
1002
{
1002
}
1002
}
1000
ZIZA
1070
     9
1000
4
1002
{
1000
Class
1070
     4
1000
BGD
1002
{
1002
}
1000
Color
1070
     1
1070
   256
1002
{
1002
}
1000
LType
1070
     4
1000
GENZIGZAG
1002
{
1002
}
1002
}
  0
APPID
  5
1665
330
1610
100
AcDbSymbolTableRecord
100
AcDbRegAppTableRecord
  2
GENIUS_GENCFG4_13
 70
     0
1001
GENIUS_GENCFG_13
1071
1022853031
1000
1665
1000
GEN
1070
     9
1000
GenCfgObject
1000
GenCfgShort
1000
GenCfgReal
1000
GenCfgBool
1000
GenCfgString
1000
GenCfgDim
1000
GenCfgLaySection
1000
GenCfgLType
1000
GenCfgFilter
1000
Balloon
1070
     0
1002
{
1000
GenIF
1070
     1
1070
     0
1002
{
1002
}
1000
GenPosInc
1070
     1
1070
     1
1002
{
1002
}
1000
GenPosBlk
1070
     1
1070
     8
1002
{
1002
}
1000
GenPosVar
1070
     1
1070
     0
1002
{
1002
}
1000
GenZiCir
1070
     2
1040
1.5
1002
{
1002
}
1000
MaxCharForCenteredText
1070
     1
1070
    30
1002
{
1002
}
1000
Snap
1070
     0
1002
{
1000
ActivationRadius
1070
     2
1040
1.0
1002
{
1002
}
1000
M
1070
     0
1002
{
1000
SnapStepX
1070
     2
1040
20.0
1002
{
1002
}
1000
SnapStepY
1070
     2
1040
10.0
1002
{
1002
}
1002
}
1000
I
1070
     0
1002
{
1000
SnapStepX
1070
     2
1040
1.0
1002
{
1002
}
1000
SnapStepY
1070
     2
1040
0.5
1002
{
1002
}
1002
}
1002
}
1002
}
1000
Centerline
1070
     0
1002
{
1000
ScaleNot
1070
     3
1070
     0
1002
{
1002
}
1000
M
1070
     0
1002
{
1000
GenCenAng
1070
     4
1000
45|90|135
1002
{
1002
}
1000
GenCenDia
1070
     2
1040
10.0
1002
{
1002
}
1000
GenCenDias
1070
     4
1000
10|20|30
1002
{
1002
}
1000
GenCenDist
1070
     2
1040
3.0
1002
{
1002
}
1000
GenCenLen
1070
     2
1040
10.0
1002
{
1002
}
1000
GenCenOff
1070
     2
1040
10.0
1002
{
1002
}
1002
}
1000
I
1070
     0
1002
{
1000
GenCenAng
1070
     4
1000
45|90|135
1002
{
1002
}
1000
GenCenDia
1070
     2
1040
0.5
1002
{
1002
}
1000
GenCenDias
1070
     4
1000
0.5|1.0|1.5
1002
{
1002
}
1000
GenCenDist
1070
     2
1040
0.125
1002
{
1002
}
1000
GenCenLen
1070
     2
1040
0.5
1002
{
1002
}
1000
GenCenOff
1070
     2
1040
0.5
1002
{
1002
}
1002
}
1002
}
1000
CLine
1070
     0
1002
{
1000
CAngArray
1070
     4
1000
30|45|60
1002
{
1002
}
1000
Typ
1070
     4
1000
XLINE
1002
{
1002
}
1000
M
1070
     0
1002
{
1000
CLinArray
1070
     4
1000
10|20|30
1002
{
1002
}
1002
}
1000
I
1070
     0
1002
{
1000
CLinArray
1070
     4
1000
0.125|0.25|0.5
1002
{
1002
}
1002
}
1002
}
1000
Detail
1070
     0
1002
{
1002
}
1000
Dimension
1070
     5
1002
{
1000
DIMALT
1070
     1
1070
     0
1002
{
1002
}
1000
DIMALTD
1070
     1
1070
     2
1002
{
1002
}
1000
DIMALTTD
1070
     1
1070
     4
1002
{
1002
}
1000
DIMALTTZ
1070
     1
1070
     0
1002
{
1002
}
1000
DIMALTU
1070
     1
1070
     2
1002
{
1002
}
1000
DIMALTZ
1070
     1
1070
     0
1002
{
1002
}
1000
DIMAUNIT
1070
     1
1070
     0
1002
{
1002
}
1000
DIMBLK
1070
     4
1000

1002
{
1002
}
1000
DIMBLK1
1070
     4
1000

1002
{
1002
}
1000
DIMBLK2
1070
     4
1000

1002
{
1002
}
1000
DIMCLRD
1070
     1
1070
   256
1002
{
1002
}
1000
DIMCLRE
1070
     1
1070
   256
1002
{
1002
}
1000
DIMCLRT
1070
     1
1070
     2
1002
{
1002
}
1000
DIMDLE
1070
     2
1040
0.0
1002
{
1002
}
1000
DIMFIT
1070
     1
1070
     3
1002
{
1002
}
1000
DIMJUST
1070
     1
1070
     0
1002
{
1002
}
1000
DIMLFAC
1070
     2
1040
1.0
1002
{
1002
}
1000
DIMLIM
1070
     1
1070
     0
1002
{
1002
}
1000
DIMPOST
1070
     4
1000

1002
{
1002
}
1000
DIMRND
1070
     2
1040
0.0
1002
{
1002
}
1000
DIMSAH
1070
     1
1070
     0
1002
{
1002
}
1000
DIMSCALE
1070
     2
1040
1.0
1002
{
1002
}
1000
DIMSD1
1070
     1
1070
     0
1002
{
1002
}
1000
DIMSD2
1070
     1
1070
     0
1002
{
1002
}
1000
DIMSE1
1070
     1
1070
     0
1002
{
1002
}
1000
DIMSE2
1070
     1
1070
     0
1002
{
1002
}
1000
DIMSOXD
1070
     1
1070
     0
1002
{
1002
}
1000
DIMTAD
1070
     1
1070
     0
1002
{
1002
}
1000
DIMTFAC
1070
     2
1040
0.71
1002
{
1002
}
1000
DIMTIH
1070
     1
1070
     0
1002
{
1002
}
1000
DIMTIX
1070
     1
1070
     0
1002
{
1002
}
1000
DIMTM
1070
     2
1040
0.1
1002
{
1002
}
1000
DIMTOFL
1070
     1
1070
     0
1002
{
1002
}
1000
DIMTOH
1070
     1
1070
     0
1002
{
1002
}
1000
DIMTOL
1070
     1
1070
     0
1002
{
1002
}
1000
DIMTOLJ
1070
     1
1070
     1
1002
{
1002
}
1000
DIMTP
1070
     2
1040
0.1
1002
{
1002
}
1000
DIMTSZ
1070
     2
1040
0.0
1002
{
1002
}
1000
DIMTVP
1070
     2
1040
0.0
1002
{
1002
}
1000
DIMTXSTY
1070
     4
1000
STANDARD
1002
{
1002
}
1000
DIMTZIN
1070
     1
1070
     0
1002
{
1002
}
1000
DIMUNIT
1070
     1
1070
     2
1002
{
1002
}
1000
DIMUPT
1070
     1
1070
     0
1002
{
1002
}
1000
M
1070
     0
1002
{
1000
DIMALTF
1070
     2
1040
0.03937
1002
{
1002
}
1000
DIMAPOST
1070
     4
1000
"
1002
{
1002
}
1000
DIMASZ
1070
     2
1040
2.5
1002
{
1002
}
1000
DIMCEN
1070
     2
1040
0.0
1002
{
1002
}
1000
DIMDEC
1070
     1
1070
     2
1002
{
1002
}
1000
DIMDLI
1070
     2
1040
7.0
1002
{
1002
}
1000
DIMEXE
1070
     2
1040
1.0
1002
{
1002
}
1000
DIMEXO
1070
     2
1040
1.0
1002
{
1002
}
1000
DIMGAP
1070
     2
1040
0.6
1002
{
1002
}
1000
DIMTDEC
1070
     1
1070
     3
1002
{
1002
}
1000
DIMTXT
1070
     2
1040
3.5
1002
{
1002
}
1000
DIMZIN
1070
     1
1070
     8
1002
{
1002
}
1002
}
1000
I
1070
     0
1002
{
1000
DIMALTF
1070
     2
1040
25.4
1002
{
1002
}
1000
DIMAPOST
1070
     4
1000
mm
1002
{
1002
}
1000
DIMASZ
1070
     2
1040
0.1
1002
{
1002
}
1000
DIMCEN
1070
     2
1040
0.0
1002
{
1002
}
1000
DIMDEC
1070
     1
1070
     4
1002
{
1002
}
1000
DIMDLI
1070
     2
1040
0.5
1002
{
1002
}
1000
DIMEXE
1070
     2
1040
0.1
1002
{
1002
}
1000
DIMEXO
1070
     2
1040
0.05
1002
{
1002
}
1000
DIMGAP
1070
     2
1040
0.06
1002
{
1002
}
1000
DIMTDEC
1070
     1
1070
     4
1002
{
1002
}
1000
DIMTXT
1070
     2
1040
0.12
1002
{
1002
}
1000
DIMZIN
1070
     1
1070
     7
1002
{
1002
}
1002
}
1000
GEN-ISO
1070
     5
1002
{
1000
NAME
1070
     4
1000
GEN-ISO
1002
{
1002
}
1000
DIMTAD
1070
     1
1070
     1
1002
{
1002
}
1000
DIMTOLJ
1070
     1
1070
     0
1002
{
1002
}
1000
DIMTOFL
1070
     1
1070
     1
1002
{
1002
}
1000
M
1070
     0
1002
{
1002
}
1000
I
1070
     0
1002
{
1002
}
1002
}
1000
GEN-ISO-POS
1070
     5
1002
{
1000
NAME
1070
     4
1000
GEN-ISO-POS
1002
{
1002
}
1000
DIMTOLJ
1070
     1
1070
     0
1002
{
1002
}
1000
DIMTXSTY
1070
     4
1000
STANDARD
1002
{
1002
}
1000
M
1070
     0
1002
{
1000
DIMASZ
1070
     2
1040
2.5
1002
{
1002
}
1000
DIMGAP
1070
     2
1040
1.5
1002
{
1002
}
1000
DIMTXT
1070
     2
1040
5.0
1002
{
1002
}
1002
}
1000
I
1070
     0
1002
{
1000
DIMASZ
1070
     2
1040
0.1
1002
{
1002
}
1000
DIMGAP
1070
     2
1040
0.06
1002
{
1002
}
1000
DIMTXT
1070
     2
1040
0.2
1002
{
1002
}
1002
}
1002
}
1000
GEN-ISO-CIR
1070
     5
1002
{
1000
NAME
1070
     4
1000
GEN-ISO$3
1002
{
1002
}
1000
DIMFIT
1070
     1
1070
     0
1002
{
1002
}
1000
DIMTAD
1070
     1
1070
     1
1002
{
1002
}
1000
DIMTOH
1070
     1
1070
     1
1002
{
1002
}
1000
DIMTOLJ
1070
     1
1070
     0
1002
{
1002
}
1000
DIMUPT
1070
     1
1070
     1
1002
{
1002
}
1000
M
1070
     0
1002
{
1002
}
1000
I
1070
     0
1002
{
1002
}
1002
}
1000
GEN-ISO-RAD
1070
     5
1002
{
1000
NAME
1070
     4
1000
GEN-ISO$4
1002
{
1002
}
1000
DIMFIT
1070
     1
1070
     0
1002
{
1002
}
1000
DIMTAD
1070
     1
1070
     1
1002
{
1002
}
1000
DIMTIH
1070
     1
1070
     0
1002
{
1002
}
1000
DIMTIX
1070
     1
1070
     0
1002
{
1002
}
1000
DIMTOH
1070
     1
1070
     1
1002
{
1002
}
1000
DIMTOLJ
1070
     1
1070
     0
1002
{
1002
}
1000
DIMTOFL
1070
     1
1070
     0
1002
{
1002
}
1000
DIMUPT
1070
     1
1070
     1
1002
{
1002
}
1000
M
1070
     0
1002
{
1002
}
1000
I
1070
     0
1002
{
1002
}
1002
}
1000
GEN-ISO-ORD
1070
     5
1002
{
1000
NAME
1070
     4
1000
GEN-ISO$6
1002
{
1002
}
1000
DIMTOLJ
1070
     1
1070
     0
1002
{
1002
}
1000
M
1070
     0
1002
{
1002
}
1000
I
1070
     0
1002
{
1002
}
1002
}
1000
GEN-ISO-AXE-F
1070
     5
1002
{
1000
NAME
1070
     4
1000
GEN-ISO-AXE-F
1002
{
1002
}
1000
DIMSE1
1070
     1
1070
     1
1002
{
1002
}
1000
DIMSE2
1070
     1
1070
     1
1002
{
1002
}
1000
DIMTAD
1070
     1
1070
     1
1002
{
1002
}
1000
DIMTOLJ
1070
     1
1070
     0
1002
{
1002
}
1000
DIMTOFL
1070
     1
1070
     1
1002
{
1002
}
1000
M
1070
     0
1002
{
1002
}
1000
I
1070
     0
1002
{
1002
}
1002
}
1000
GEN-ISO-AXE-H
1070
     5
1002
{
1000
NAME
1070
     4
1000
GEN-ISO-AXE-H
1002
{
1002
}
1000
DIMBLK1
1070
     4
1000
GENAXEH
1002
{
1002
}
1000
DIMLFAC
1070
     2
1040
2.0
1002
{
1002
}
1000
DIMSAH
1070
     1
1070
     1
1002
{
1002
}
1000
DIMSE1
1070
     1
1070
     1
1002
{
1002
}
1000
DIMSE2
1070
     1
1070
     1
1002
{
1002
}
1000
DIMTAD
1070
     1
1070
     1
1002
{
1002
}
1000
DIMTOLJ
1070
     1
1070
     0
1002
{
1002
}
1000
DIMTOFL
1070
     1
1070
     1
1002
{
1002
}
1000
M
1070
     0
1002
{
1002
}
1000
I
1070
     0
1002
{
1002
}
1002
}
1000
GEN-ANSI
1070
     5
1002
{
1000
NAME
1070
     4
1000
GEN-ANSI
1002
{
1002
}
1000
DIMTIH
1070
     1
1070
     1
1002
{
1002
}
1000
DIMTOH
1070
     1
1070
     1
1002
{
1002
}
1000
DIMTAD
1070
     1
1070
     0
1002
{
1002
}
1000
DIMTOLJ
1070
     1
1070
     1
1002
{
1002
}
1000
M
1070
     0
1002
{
1002
}
1000
I
1070
     0
1002
{
1002
}
1002
}
1000
GEN-ANSI-POS
1070
     5
1002
{
1000
NAME
1070
     4
1000
GEN-ANSI-POS
1002
{
1002
}
1000
DIMTOLJ
1070
     1
1070
     1
1002
{
1002
}
1000
DIMTXSTY
1070
     4
1000
STANDARD
1002
{
1002
}
1000
M
1070
     0
1002
{
1000
DIMASZ
1070
     2
1040
2.5
1002
{
1002
}
1000
DIMGAP
1070
     2
1040
1.5
1002
{
1002
}
1000
DIMTXT
1070
     2
1040
5.0
1002
{
1002
}
1002
}
1000
I
1070
     0
1002
{
1000
DIMASZ
1070
     2
1040
0.1
1002
{
1002
}
1000
DIMGAP
1070
     2
1040
0.06
1002
{
1002
}
1000
DIMTXT
1070
     2
1040
0.2
1002
{
1002
}
1002
}
1002
}
1000
GEN-ANSI-CIR
1070
     5
1002
{
1000
NAME
1070
     4
1000
GEN-ANSI$3
1002
{
1002
}
1000
DIMFIT
1070
     1
1070
     0
1002
{
1002
}
1000
DIMTAD
1070
     1
1070
     0
1002
{
1002
}
1000
DIMTIH
1070
     1
1070
     1
1002
{
1002
}
1000
DIMTIX
1070
     1
1070
     0
1002
{
1002
}
1000
DIMTOFL
1070
     1
1070
     0
1002
{
1002
}
1000
DIMTOH
1070
     1
1070
     1
1002
{
1002
}
1000
DIMTOLJ
1070
     1
1070
     1
1002
{
1002
}
1000
DIMUPT
1070
     1
1070
     1
1002
{
1002
}
1000
M
1070
     0
1002
{
1002
}
1000
I
1070
     0
1002
{
1002
}
1002
}
1000
GEN-ANSI-RAD
1070
     5
1002
{
1000
NAME
1070
     4
1000
GEN-ANSI$4
1002
{
1002
}
1000
DIMFIT
1070
     1
1070
     0
1002
{
1002
}
1000
DIMTAD
1070
     1
1070
     0
1002
{
1002
}
1000
DIMTIH
1070
     1
1070
     1
1002
{
1002
}
1000
DIMTIX
1070
     1
1070
     0
1002
{
1002
}
1000
DIMTOFL
1070
     1
1070
     0
1002
{
1002
}
1000
DIMTOH
1070
     1
1070
     1
1002
{
1002
}
1000
DIMTOLJ
1070
     1
1070
     1
1002
{
1002
}
1000
DIMUPT
1070
     1
1070
     1
1002
{
1002
}
1000
M
1070
     0
1002
{
1002
}
1000
I
1070
     0
1002
{
1002
}
1002
}
1000
GEN-ANSI-ORD
1070
     5
1002
{
1000
NAME
1070
     4
1000
GEN-ANSI$6
1002
{
1002
}
1000
DIMTAD
1070
     1
1070
     0
1002
{
1002
}
1000
DIMTIH
1070
     1
1070
     1
1002
{
1002
}
1000
DIMTOH
1070
     1
1070
     1
1002
{
1002
}
1000
DIMTOLJ
1070
     1
1070
     1
1002
{
1002
}
1000
M
1070
     0
1002
{
1002
}
1000
I
1070
     0
1002
{
1002
}
1002
}
1000
GEN-ANSI-AXE-F
1070
     5
1002
{
1000
NAME
1070
     4
1000
GEN-ANSI-AXE-F
1002
{
1002
}
1000
DIMBLK1
1070
     4
1000
GENAXEH
1002
{
1002
}
1000
DIMSAH
1070
     1
1070
     1
1002
{
1002
}
1000
DIMSE1
1070
     1
1070
     1
1002
{
1002
}
1000
DIMSE2
1070
     1
1070
     1
1002
{
1002
}
1000
DIMTAD
1070
     1
1070
     0
1002
{
1002
}
1000
DIMTIH
1070
     1
1070
     1
1002
{
1002
}
1000
DIMTOH
1070
     1
1070
     1
1002
{
1002
}
1000
DIMTOLJ
1070
     1
1070
     1
1002
{
1002
}
1000
M
1070
     0
1002
{
1002
}
1000
I
1070
     0
1002
{
1002
}
1002
}
1000
GEN-ANSI-AXE-H
1070
     5
1002
{
1000
NAME
1070
     4
1000
GEN-ANSI-AXE-H
1002
{
1002
}
1000
DIMBLK1
1070
     4
1000
GENAXEH
1002
{
1002
}
1000
DIMLFAC
1070
     2
1040
2.0
1002
{
1002
}
1000
DIMSAH
1070
     1
1070
     1
1002
{
1002
}
1000
DIMSE1
1070
     1
1070
     1
1002
{
1002
}
1000
DIMSE2
1070
     1
1070
     1
1002
{
1002
}
1000
DIMTAD
1070
     1
1070
     0
1002
{
1002
}
1000
DIMTOFL
1070
     1
1070
     1
1002
{
1002
}
1000
DIMTOLJ
1070
     1
1070
     1
1002
{
1002
}
1000
M
1070
     0
1002
{
1002
}
1000
I
1070
     0
1002
{
1002
}
1002
}
1002
}
1000
DimSet
1070
     0
1002
{
1000
ChainSum
1070
     3
1070
     0
1002
{
1002
}
1000
DimDclTyp0
1070
     4
1000
dim23
1002
{
1002
}
1000
HorBra
1070
     3
1070
     0
1002
{
1002
}
1000
StrDia
1070
     4
1000
%%c<>
1002
{
1002
}
1000
StrRad
1070
     4
1000
R<>
1002
{
1002
}
1000
TextMinus
1070
     4
1000
<>
1002
{
1002
}
1000
TextPlus
1070
     4
1000
<>
1002
{
1002
}
1000
M
1070
     0
1002
{
1000
DimdliFirst
1070
     2
1040
10.0
1002
{
1002
}
1000
PointMakeDist
1070
     2
1040
10.0
1002
{
1002
}
1002
}
1000
I
1070
     0
1002
{
1000
DimdliFirst
1070
     2
1040
0.5
1002
{
1002
}
1000
PointMakeDist
1070
     2
1040
0.5
1002
{
1002
}
1002
}
1000
FitGrade
1070
     4
1000
h7
1002
{
1002
}
1002
}
1000
Drawing
1070
     0
1002
{
1000
ChamferDimMode
1070
     1
1070
     2
1002
{
1002
}
1000
Gen_Fiso
1070
    -3
1040
1.0
1002
{
1002
}
1000
GenDimStil
1070
     4
1000
ISO
1002
{
1002
}
1000
GenDwgUScale
1070
     2
1040
1.0
1002
{
1002
}
1000
GenInch
1070
     4
1000
M
1002
{
1002
}
1000
GenPlotScale
1070
     4
1000
1:5
1002
{
1002
}
1000
Revisi
1070
     4
1000
0
1002
{
1002
}
1000
Version
1070
    -5
1000
14.01/Apr  1 1998
1002
{
1002
}
1000
Platform
1070
    -5
1000
WINNT
1002
{
1002
}
1002
}
1000
DwgVar
1070
     0
1002
{
1000
M
1070
     0
1002
{
1002
}
1000
I
1070
     0
1002
{
1002
}
1002
}
1000
Hatch
1070
     0
1002
{
1000
GenHtcFlag
1070
     3
1070
     0
1002
{
1002
}
1002
}
1000
Info_Pos
1070
     0
1002
{
1000
>
1002
}
1000
Layer
1070
     6
1002
{
1000
Defs
1070
     0
1002
{
1000
>
1002
}
1000
EntSort
1070
     0
1002
{
1000
>
1002
}
1000
Match
1070
     0
1002
{
1002
}
1000
Settings
1070
     0
1002
{
1000
FocGrNC
1070
     3
1070
     0
1002
{
1002
}
1000
FocGrLo
1070
     3
1070
     0
1002
{
1002
}
1000
FocLoNC
1070
     3
1070
     0
1002
{
1002
}
1000
FocusCol
1070
     1
1070
   253
1002
{
1002
}
1000
GenStdLG
1070
     4
1000

1002
{
1002
}
1000
LayMatch
1070
     3
1070
     0
1002
{
1002
}
1000
LgOff
1070
     3
1070
     0
1002
{
1002
}
1000
CurLG
1070
    -5
1000

1002
{
1002
}
1002
}
1002
}
1000
LType
1070
     0
1002
{
1000
GEN3
1070
     7
1000
genius.lin
1002
{
1002
}
1000
GEN7
1070
     7
1000
genius.lin
1002
{
1002
}
1000
GEN4A
1070
     7
1000
genius.lin
1002
{
1002
}
1000
GEN3A
1070
     7
1000
genius.lin
1002
{
1002
}
1000
GEN7A
1070
     7
1000
genius.lin
1002
{
1002
}
1000
GENZIGZAG
1070
     7
1000
genius.lin
1002
{
1002
}
1002
}
1000
Objecter
1070
     0
1002
{
1000
CreateGroups
1070
     3
1070
     0
1002
{
1002
}
1000
LaySwitch
1070
     3
1070
     1
1002
{
1002
}
1000
LastObj
1070
    -5
1000
16EA
1002
{
1002
}
1000
TimeStamp
1070
    -5
1000
20020531.15500003
1002
{
1002
}
1002
}
1000
OSWiz
1070
     0
1002
{
1000
Filter
1070
     0
1002
{
1000
HATCH
1070
     8
1002
{
1000
EntityType
1070
     4
1000
LINE
1002
{
1002
}
1000
Layer
1070
     4
1000
8,8N,*-8,*-8N
1002
{
1002
}
1000
Linetype
1070
     4
1000
*
1002
{
1002
}
1000
Color
1070
     4
1000
*
1002
{
1002
}
1000
ApplyInDims
1070
     3
1070
     1
1002
{
1002
}
1002
}
1000
SYMBOLS
1070
     8
1002
{
1000
EntityType
1070
     4
1000
*
1002
{
1002
}
1000
Layer
1070
     4
1000
[5-6],[5-6]N,*-[5-6],*-[5-6]N
1002
{
1002
}
1000
Linetype
1070
     4
1000
*
1002
{
1002
}
1000
Color
1070
     4
1000
*
1002
{
1002
}
1000
ApplyInDims
1070
     3
1070
     1
1002
{
1002
}
1002
}
1000
FEM
1070
     8
1002
{
1000
EntityType
1070
     4
1000
*
1002
{
1002
}
1000
Layer
1070
     4
1000
4A,4AN,*-4A,*-4AN
1002
{
1002
}
1000
Linetype
1070
     4
1000
*
1002
{
1002
}
1000
Color
1070
     4
1000
*
1002
{
1002
}
1000
ApplyInDims
1070
     3
1070
     1
1002
{
1002
}
1002
}
1002
}
1002
}
1000
PaList
1070
     0
1002
{
1000
AutoUpdatePartList
1070
     1
1070
     0
1002
{
1002
}
1000
ReadInfoPoint
1070
     3
1070
     0
1002
{
1002
}
1000
ReadPosNr
1070
     3
1070
     1
1002
{
1002
}
1000
RevStr
1070
     4
1000
0
1002
{
1002
}
1002
}
1000
Paper
1070
     0
1002
{
1002
}
1000
PartDB
1070
     0
1002
{
1000
GenDbOwner
1070
     4
1000

1002
{
1002
}
1002
}
1000
System
1070
     0
1002
{
1000
Menu
1070
     4
1000
GEV
1002
{
1002
}
1002
}
1000
Title
1070
     0
1002
{
1000
MakeView
1070
     1
1070
     2
1002
{
1002
}
1002
}
1000
Tools
1070
     0
1002
{
1000
Trans
1070
     0
1002
{
1000
Drawingtranslation
1070
    -4
1070
     1
1002
{
1002
}
1000
upreserve
1070
     3
1070
     0
1002
{
1002
}
1000
originally_on
1070
    -4
1070
     0
1002
{
1002
}
1000
sourcelang
1070
    -5
1000
D
1002
{
1002
}
1002
}
1002
}
  0
APPID
  5
1666
330
1610
100
AcDbSymbolTableRecord
100
AcDbRegAppTableRecord
  2
GENIUS_GEVCFG0_13
 70
     0
1001
GENIUS_GENCFG_13
1071
1022853005
1000
1666
1000
GEV
1070
     1
1000
GenCfgObject
1000
VED
1070
     0
1002
{
1002
}
  0
APPID
  5
1669
330
1610
100
AcDbSymbolTableRecord
100
AcDbRegAppTableRecord
  2
GENIUS_GENOENT_13
 70
     0
  0
APPID
  5
167A
330
1610
100
AcDbSymbolTableRecord
100
AcDbRegAppTableRecord
  2
GENIUS_DUMCFG0_13
 70
     0
1001
GENIUS_GENCFG_13
1071
947749064
1000
167A
1000
DUM
1070
     0
  0
APPID
  5
16BA
330
1610
100
AcDbSymbolTableRecord
100
AcDbRegAppTableRecord
  2
GEV_VCCNULL_SWITCH_OFF
 70
     0
  0
APPID
  5
16BB
330
1610
100
AcDbSymbolTableRecord
100
AcDbRegAppTableRecord
  2
GENIUS_GENDTOL_13
 70
     0
  0
APPID
  5
16BC
330
1610
100
AcDbSymbolTableRecord
100
AcDbRegAppTableRecord
  2
GENIUS_GENBLLY_14
 70
     0
  0
APPID
  5
16BD
330
1610
100
AcDbSymbolTableRecord
100
AcDbRegAppTableRecord
  2
GENIUS_GENODEF_13
 70
     0
  0
APPID
  5
16BE
330
1610
100
AcDbSymbolTableRecord
100
AcDbRegAppTableRecord
  2
GENIUS_GENOBJ-N-CRS_13
 70
     0
  0
APPID
  5
16BF
330
1610
100
AcDbSymbolTableRecord
100
AcDbRegAppTableRecord
  2
GENIUS_GENOREF_13
 70
     0
  0
APPID
  5
16C0
330
1610
100
AcDbSymbolTableRecord
100
AcDbRegAppTableRecord
  2
GENIUS_GENOLIS_13
 70
     0
  0
APPID
  5
16C1
330
1610
100
AcDbSymbolTableRecord
100
AcDbRegAppTableRecord
  2
GENIUS_GEFCFG0_13
 70
     0
  0
APPID
  5
16C2
330
1610
100
AcDbSymbolTableRecord
100
AcDbRegAppTableRecord
  2
GENIUS_VERSION2
 70
     0
  0
APPID
  5
16C3
330
1610
100
AcDbSymbolTableRecord
100
AcDbRegAppTableRecord
  2
GENIUS_GENREC_14
 70
     0
  0
APPID
  5
16C4
330
1610
100
AcDbSymbolTableRecord
100
AcDbRegAppTableRecord
  2
GENIUS_GENOBJ-N-REC_13
 70
     0
  0
APPID
  5
16C5
330
1610
100
AcDbSymbolTableRecord
100
AcDbRegAppTableRecord
  2
GENIUS_GENOBJ-N-TIT_13
 70
     0
  0
APPID
  5
16C6
330
1610
100
AcDbSymbolTableRecord
100
AcDbRegAppTableRecord
  2
GENIUS_GENTITLE_13
 70
     0
  0
APPID
  5
16C7
330
1610
100
AcDbSymbolTableRecord
100
AcDbRegAppTableRecord
  2
GENIUS_GENZVEED_13
 70
     0
  0
APPID
  5
16C8
330
1610
100
AcDbSymbolTableRecord
100
AcDbRegAppTableRecord
  2
GENIUS_GENOBJ-N-SDF_13
 70
     0
  0
APPID
  5
16C9
330
1610
100
AcDbSymbolTableRecord
100
AcDbRegAppTableRecord
  2
GENIUS_GENSCREG_13
 70
     0
  0
APPID
  5
16CA
330
1610
100
AcDbSymbolTableRecord
100
AcDbRegAppTableRecord
  2
GENIUS_GENBLKED_14
 70
     0
  0
APPID
  5
1B10
330
1610
100
AcDbSymbolTableRecord
100
AcDbRegAppTableRecord
  2
MCAD_NO_VIS
 70
     0
  0
APPID
  5
1B11
330
1610
100
AcDbSymbolTableRecord
100
AcDbRegAppTableRecord
  2
ACAD_TEMP_GRAPHIC
 70
     0
  0
APPID
  5
1B41
330
1610
100
AcDbSymbolTableRecord
100
AcDbRegAppTableRecord
  2
AD_DRAW
 70
     0
  0
APPID
  5
1B44
330
1610
100
AcDbSymbolTableRecord
100
AcDbRegAppTableRecord
  2
ACATTRIBSERVICES
 70
     0
  0
APPID
  5
1B64
330
1610
100
AcDbSymbolTableRecord
100
AcDbRegAppTableRecord
  2
DESIGNERASSEMBLIES
 70
     0
  0
APPID
  5
1B6A
330
1610
100
AcDbSymbolTableRecord
100
AcDbRegAppTableRecord
  2
ACADM_DIM_EDIT
 70
     0
  0
APPID
  5
1B6B
330
1610
100
AcDbSymbolTableRecord
100
AcDbRegAppTableRecord
  2
AMDT_DM_ADJ
 70
     0
  0
APPID
  5
1B9D
330
1610
100
AcDbSymbolTableRecord
100
AcDbRegAppTableRecord
  2
ACAD_DSTYLE_DIMARC_LENGTH_SYMBOL
 70
     0
  0
APPID
  5
1B9E
330
1610
100
AcDbSymbolTableRecord
100
AcDbRegAppTableRecord
  2
ACAD_DSTYLE_DIMJOGGED_JOGANGLE_SYMBOL
 70
     0
  0
APPID
  5
1C14
330
1610
100
AcDbSymbolTableRecord
100
AcDbRegAppTableRecord
  2
GENIUS_GENDIMSH_14
 70
     0
  0
ENDTAB
  0
TABLE
  2
DIMSTYLE
  5
1611
330
0
100
AcDbSymbolTable
 70
    11
100
AcDbDimStyleTable
 71
     1
340
163A
  0
DIMSTYLE
105
163A
102
{ACAD_REACTORS
330
184C
330
1A5E
330
1888
330
1ACC
330
18EC
102
}
330
1611
100
AcDbSymbolTableRecord
100
AcDbDimStyleTableRecord
  2
GEN-ISO
 70
     0
  4
"
 40
5.0
 41
2.5
 42
1.0
 43
7.0
 44
1.0
 47
0.1
 48
0.1
 73
     0
 74
     0
 77
     1
 78
     8
140
3.5
141
0.0
143
0.03937
146
0.71
147
0.6
172
     1
176
   256
177
   256
178
     2
271
     2
272
     3
274
     4
283
     0
340
1616
  0
DIMSTYLE
105
1B9C
330
1611
100
AcDbSymbolTableRecord
100
AcDbDimStyleTableRecord
  2
AM_DIN
 70
     0
  4
"
 41
2.5
 42
1.0
 43
10.0
 44
1.0
 47
0.1
 48
0.1
 73
     0
 74
     0
 77
     1
 78
     8
 79
     2
140
3.5
141
0.0
143
0.0393701
146
0.71
147
1.5
172
     1
176
   256
177
   256
178
     2
271
     2
272
     3
274
     4
283
     0
284
     8
340
1616
371
    -1
372
    -1
1001
ACAD_DSTYLE_DIMARC_LENGTH_SYMBOL
1070
   379
1070
     0
1001
ACAD_DSTYLE_DIMJOGGED_JOGANGLE_SYMBOL
1070
   384
1040
1.570796326794896
  0
DIMSTYLE
105
1BAD
330
1611
100
AcDbSymbolTableRecord
100
AcDbDimStyleTableRecord
  2
AM_DIN$3
 70
     0
  4
"
 41
2.5
 42
1.0
 43
10.0
 44
1.0
 47
0.1
 48
0.1
 73
     0
 77
     1
 78
     8
 79
     2
140
3.5
141
0.0
143
0.0393701
146
0.71
147
1.5
176
   256
177
   256
178
     2
271
     2
272
     3
274
     4
283
     0
284
     8
288
     1
289
     0
340
1616
371
    -1
372
    -1
1001
ACAD_DSTYLE_DIMARC_LENGTH_SYMBOL
1070
   379
1070
     0
1001
ACAD_DSTYLE_DIMJOGGED_JOGANGLE_SYMBOL
1070
   384
1040
1.570796326794896
  0
DIMSTYLE
105
1BB2
330
1611
100
AcDbSymbolTableRecord
100
AcDbDimStyleTableRecord
  2
AM_DIN$4
 70
     0
  4
"
 41
2.5
 42
1.0
 43
10.0
 44
1.0
 47
0.1
 48
0.1
 73
     0
 77
     1
 78
     8
 79
     2
140
3.5
141
0.0
143
0.0393701
146
0.71
147
1.5
176
   256
177
   256
178
     2
271
     2
272
     3
274
     4
283
     0
284
     8
288
     1
289
     0
340
1616
371
    -1
372
    -1
1001
ACAD_DSTYLE_DIMARC_LENGTH_SYMBOL
1070
   379
1070
     0
1001
ACAD_DSTYLE_DIMJOGGED_JOGANGLE_SYMBOL
1070
   384
1040
1.570796326794896
  0
DIMSTYLE
105
1BB7
330
1611
100
AcDbSymbolTableRecord
100
AcDbDimStyleTableRecord
  2
AM_DIN$6
 70
     0
  4
"
 41
2.5
 42
1.0
 43
10.0
 44
1.0
 47
0.1
 48
0.1
 73
     0
 74
     0
 78
     8
 79
     2
140
3.5
141
0.0
143
0.0393701
146
0.71
147
1.5
172
     1
176
   256
177
   256
178
     2
271
     2
272
     3
274
     4
283
     0
284
     8
340
1616
371
    -1
372
    -1
1001
ACAD_DSTYLE_DIMARC_LENGTH_SYMBOL
1070
   379
1070
     0
1001
ACAD_DSTYLE_DIMJOGGED_JOGANGLE_SYMBOL
1070
   384
1040
1.570796326794896
  0
DIMSTYLE
105
1BBC
330
1611
100
AcDbSymbolTableRecord
100
AcDbDimStyleTableRecord
  2
AM_DIN$7
 70
     0
  4
"
 41
2.5
 42
1.0
 43
10.0
 44
1.0
 47
0.1
 48
0.1
 73
     0
 74
     0
 77
     1
 78
     8
 79
     2
140
5.0
141
0.0
143
0.0393701
146
0.71
147
1.5
172
     1
176
   256
177
   256
178
     2
271
     2
272
     3
274
     4
283
     0
284
     8
340
1616
371
    -1
372
    -1
1001
ACAD_DSTYLE_DIMARC_LENGTH_SYMBOL
1070
   379
1070
     0
1001
ACAD_DSTYLE_DIMJOGGED_JOGANGLE_SYMBOL
1070
   384
1040
1.570796326794896
  0
DIMSTYLE
105
1BC1
330
1611
100
AcDbSymbolTableRecord
100
AcDbDimStyleTableRecord
  2
AM_DIN$SF
 70
     0
  4
"
 41
2.5
 42
1.0
 43
10.0
 44
1.0
 47
0.1
 48
0.1
 73
     0
 74
     0
 75
     1
 76
     1
 77
     1
 78
     8
 79
     2
140
3.5
141
0.0
143
0.0393701
146
0.71
147
1.5
172
     1
176
   256
177
   256
178
     2
271
     2
272
     3
274
     4
283
     0
284
     8
340
1616
371
    -1
372
    -1
1001
ACAD_DSTYLE_DIMARC_LENGTH_SYMBOL
1070
   379
1070
     0
1001
ACAD_DSTYLE_DIMJOGGED_JOGANGLE_SYMBOL
1070
   384
1040
1.570796326794896
  0
DIMSTYLE
105
1BCA
330
1611
100
AcDbSymbolTableRecord
100
AcDbDimStyleTableRecord
  2
AM_DIN$SH
 70
     0
  4
"
 41
2.5
 42
1.0
 43
10.0
 44
1.0
 47
0.1
 48
0.1
 73
     0
 74
     0
 75
     1
 76
     1
 77
     1
 78
     8
 79
     2
140
3.5
141
0.0
143
0.0393701
144
2.0
146
0.71
147
1.5
172
     1
173
     1
176
   256
177
   256
178
     2
271
     2
272
     3
274
     4
283
     0
284
     8
340
1616
343
1BC2
371
    -1
372
    -1
1001
ACAD_DSTYLE_DIMARC_LENGTH_SYMBOL
1070
   379
1070
     0
1001
ACAD_DSTYLE_DIMJOGGED_JOGANGLE_SYMBOL
1070
   384
1040
1.570796326794896
  0
ENDTAB
  0
TABLE
  2
BLOCK_RECORD
  5
1608
330
0
100
AcDbSymbolTable
 70
    34
  0
BLOCK_RECORD
  5
161F
330
1608
100
AcDbSymbolTableRecord
100
AcDbBlockTableRecord
  2
*MODEL_SPACE
340
1B08
  0
BLOCK_RECORD
  5
161C
330
1608
100
AcDbSymbolTableRecord
100
AcDbBlockTableRecord
  2
*PAPER_SPACE
340
1B09
  0
BLOCK_RECORD
  5
163F
330
1608
100
AcDbSymbolTableRecord
100
AcDbBlockTableRecord
  2
*X0
340
0
102
{BLKREFS
331
10B4
102
}
  0
BLOCK_RECORD
  5
1640
330
1608
100
AcDbSymbolTableRecord
100
AcDbBlockTableRecord
  2
*X1
340
0
102
{BLKREFS
331
10D6
102
}
  0
BLOCK_RECORD
  5
1641
330
1608
100
AcDbSymbolTableRecord
100
AcDbBlockTableRecord
  2
*X2
340
0
102
{BLKREFS
331
10F8
102
}
  0
BLOCK_RECORD
  5
1642
330
1608
100
AcDbSymbolTableRecord
100
AcDbBlockTableRecord
  2
*X3
340
0
102
{BLKREFS
331
1119
102
}
  0
BLOCK_RECORD
  5
1643
330
1608
100
AcDbSymbolTableRecord
100
AcDbBlockTableRecord
  2
*X4
340
0
102
{BLKREFS
331
113A
102
}
  0
BLOCK_RECORD
  5
1644
330
1608
100
AcDbSymbolTableRecord
100
AcDbBlockTableRecord
  2
*X5
340
0
102
{BLKREFS
331
115C
102
}
  0
BLOCK_RECORD
  5
1645
330
1608
100
AcDbSymbolTableRecord
100
AcDbBlockTableRecord
  2
*X6
340
0
102
{BLKREFS
331
117E
102
}
  0
BLOCK_RECORD
  5
164A
330
1608
100
AcDbSymbolTableRecord
100
AcDbBlockTableRecord
  2
*X7
340
0
102
{BLKREFS
331
11C3
102
}
  0
BLOCK_RECORD
  5
164B
330
1608
100
AcDbSymbolTableRecord
100
AcDbBlockTableRecord
  2
*X8
340
0
102
{BLKREFS
331
1205
102
}
  0
BLOCK_RECORD
  5
164C
330
1608
100
AcDbSymbolTableRecord
100
AcDbBlockTableRecord
  2
*X9
340
0
102
{BLKREFS
331
1252
102
}
  0
BLOCK_RECORD
  5
168C
330
1608
100
AcDbSymbolTableRecord
100
AcDbBlockTableRecord
  2
KATALOG_LEER
340
0
102
{BLKREFS
331
16CC
331
16E9
102
}
  0
BLOCK_RECORD
  5
1840
330
1608
100
AcDbSymbolTableRecord
100
AcDbBlockTableRecord
  2
*D23
340
0
  0
BLOCK_RECORD
  5
187C
330
1608
100
AcDbSymbolTableRecord
100
AcDbBlockTableRecord
  2
*D24
340
0
  0
BLOCK_RECORD
  5
18E0
330
1608
100
AcDbSymbolTableRecord
100
AcDbBlockTableRecord
  2
*D25
340
0
  0
BLOCK_RECORD
  5
1A50
330
1608
100
AcDbSymbolTableRecord
100
AcDbBlockTableRecord
  2
*D27
340
0
  0
BLOCK_RECORD
  5
1AC0
330
1608
100
AcDbSymbolTableRecord
100
AcDbBlockTableRecord
  2
*D31
340
0
  0
BLOCK_RECORD
  5
1BC2
330
1608
100
AcDbSymbolTableRecord
100
AcDbBlockTableRecord
  2
GENAXEH
340
0
  0
ENDTAB
  0
ENDSEC
  0
SECTION
  2
BLOCKS
  0
BLOCK
  5
1620
330
161F
100
AcDbEntity
  8
0
100
AcDbBlockBegin
  2
*MODEL_SPACE
 70
     0
 10
0.0
 20
0.0
 30
0.0
  3
*MODEL_SPACE
  1

  0
ENDBLK
  5
1621
330
161F
100
AcDbEntity
  8
0
100
AcDbBlockEnd
  0
BLOCK
  5
161D
330
161C
100
AcDbEntity
 67
     1
  8
0
100
AcDbBlockBegin
  2
*PAPER_SPACE
 70
     0
 10
0.0
 20
0.0
 30
0.0
  3
*PAPER_SPACE
  1

  0
ENDBLK
  5
161E
330
161C
100
AcDbEntity
 67
     1
  8
0
100
AcDbBlockEnd
  0
BLOCK
  5
10A7
330
163F
100
AcDbEntity
  8
0
100
AcDbBlockBegin
  2
*X0
 70
     1
 10
0.0
 20
0.0
 30
0.0
  3
*X0
  1

  0
LINE
  5
10A8
330
163F
100
AcDbEntity
  8
8
100
AcDbLine
 10
133.672
 20
480.5799999999999
 30
0.0
 11
139.905
 21
486.814
 31
0.0
  0
LINE
  5
10A9
330
163F
100
AcDbEntity
  8
8
100
AcDbLine
 10
129.182
 20
480.5799999999999
 30
0.0
 11
140.154
 21
491.553
 31
0.0
  0
LINE
  5
10AA
330
163F
100
AcDbEntity
  8
8
100
AcDbLine
 10
124.691
 20
480.5799999999999
 30
0.0
 11
140.402
 21
496.2909999999999
 31
0.0
  0
LINE
  5
10AB
330
163F
100
AcDbEntity
  8
8
100
AcDbLine
 10
121.65
 20
482.0289999999999
 30
0.0
 11
140.65
 21
501.029
 31
0.0
  0
LINE
  5
10AC
330
163F
100
AcDbEntity
  8
8
100
AcDbLine
 10
121.426
 20
486.295
 30
0.0
 11
140.899
 21
505.768
 31
0.0
  0
LINE
  5
10AD
330
163F
100
AcDbEntity
  8
8
100
AcDbLine
 10
121.203
 20
490.5619999999999
 30
0.0
 11
141.147
 21
510.5059999999999
 31
0.0
  0
LINE
  5
10AE
330
163F
100
AcDbEntity
  8
8
100
AcDbLine
 10
120.979
 20
494.829
 30
0.0
 11
136.73
 21
510.58
 31
0.0
  0
LINE
  5
10AF
330
163F
100
AcDbEntity
  8
8
100
AcDbLine
 10
119.988
 20
498.327
 30
0.0
 11
132.24
 21
510.58
 31
0.0
  0
LINE
  5
10B0
330
163F
100
AcDbEntity
  8
8
100
AcDbLine
 10
118.629
 20
501.458
 30
0.0
 11
127.75
 21
510.58
 31
0.0
  0
LINE
  5
10B1
330
163F
100
AcDbEntity
  8
8
100
AcDbLine
 10
118.405
 20
505.725
 30
0.0
 11
123.26
 21
510.58
 31
0.0
  0
LINE
  5
10B2
330
163F
100
AcDbEntity
  8
8
100
AcDbLine
 10
118.181
 20
509.991
 30
0.0
 11
118.77
 21
510.58
 31
0.0
  0
ENDBLK
  5
10B3
330
163F
100
AcDbEntity
  8
0
100
AcDbBlockEnd
  0
BLOCK
  5
10C6
330
1640
100
AcDbEntity
  8
0
100
AcDbBlockBegin
  2
*X1
 70
     1
 10
0.0
 20
0.0
 30
0.0
  3
*X1
  1

  0
LINE
  5
10C7
330
1640
100
AcDbEntity
  8
8
100
AcDbLine
 10
167.553
 20
460.58
 30
0.0
 11
173.861
 21
466.888
 31
0.0
  0
LINE
  5
10C8
330
1640
100
AcDbEntity
  8
8
100
AcDbLine
 10
163.244
 20
460.7619999999999
 30
0.0
 11
174.109
 21
471.626
 31
0.0
  0
LINE
  5
10C9
330
1640
100
AcDbEntity
  8
8
100
AcDbLine
 10
160.537
 20
462.5449999999999
 30
0.0
 11
174.357
 21
476.365
 31
0.0
  0
LINE
  5
10CA
330
1640
100
AcDbEntity
  8
8
100
AcDbLine
 10
159.488
 20
465.985
 30
0.0
 11
174.605
 21
481.103
 31
0.0
  0
LINE
  5
10CB
330
1640
100
AcDbEntity
  8
8
100
AcDbLine
 10
159.264
 20
470.2519999999999
 30
0.0
 11
174.854
 21
485.841
 31
0.0
  0
LINE
  5
10CC
330
1640
100
AcDbEntity
  8
8
100
AcDbLine
 10
159.04
 20
474.518
 30
0.0
 11
175.102
 21
490.58
 31
0.0
  0
LINE
  5
10CD
330
1640
100
AcDbEntity
  8
8
100
AcDbLine
 10
158.817
 20
478.785
 30
0.0
 11
175.351
 21
495.319
 31
0.0
  0
LINE
  5
10CE
330
1640
100
AcDbEntity
  8
8
100
AcDbLine
 10
158.593
 20
483.051
 30
0.0
 11
175.599
 21
500.0569999999999
 31
0.0
  0
LINE
  5
10CF
330
1640
100
AcDbEntity
  8
8
100
AcDbLine
 10
158.37
 20
487.318
 30
0.0
 11
175.848
 21
504.7959999999999
 31
0.0
  0
LINE
  5
10D0
330
1640
100
AcDbEntity
  8
8
100
AcDbLine
 10
158.146
 20
491.584
 30
0.0
 11
176.096
 21
509.534
 31
0.0
  0
LINE
  5
10D1
330
1640
100
AcDbEntity
  8
8
100
AcDbLine
 10
157.922
 20
495.851
 30
0.0
 11
172.651
 21
510.58
 31
0.0
  0
LINE
  5
10D2
330
1640
100
AcDbEntity
  8
8
100
AcDbLine
 10
157.699
 20
500.117
 30
0.0
 11
168.161
 21
510.58
 31
0.0
  0
LINE
  5
10D3
330
1640
100
AcDbEntity
  8
8
100
AcDbLine
 10
157.475
 20
504.384
 30
0.0
 11
163.671
 21
510.58
 31
0.0
  0
LINE
  5
10D4
330
1640
100
AcDbEntity
  8
8
100
AcDbLine
 10
157.252
 20
508.65
 30
0.0
 11
159.181
 21
510.58
 31
0.0
  0
ENDBLK
  5
10D5
330
1640
100
AcDbEntity
  8
0
100
AcDbBlockEnd
  0
BLOCK
  5
10E8
330
1641
100
AcDbEntity
  8
0
100
AcDbBlockBegin
  2
*X2
 70
     1
 10
0.0
 20
0.0
 30
0.0
  3
*X2
  1

  0
LINE
  5
10E9
330
1641
100
AcDbEntity
  8
8
100
AcDbLine
 10
203.474
 20
460.58
 30
0.0
 11
208.81
 21
465.9159999999999
 31
0.0
  0
LINE
  5
10EA
330
1641
100
AcDbEntity
  8
8
100
AcDbLine
 10
199.05
 20
460.6469999999999
 30
0.0
 11
209.058
 21
470.655
 31
0.0
  0
LINE
  5
10EB
330
1641
100
AcDbEntity
  8
8
100
AcDbLine
 10
195.922
 20
462.008
 30
0.0
 11
209.306
 21
475.393
 31
0.0
  0
LINE
  5
10EC
330
1641
100
AcDbEntity
  8
8
100
AcDbLine
 10
194.559
 20
465.1349999999999
 30
0.0
 11
209.555
 21
480.1309999999999
 31
0.0
  0
LINE
  5
10ED
330
1641
100
AcDbEntity
  8
8
100
AcDbLine
 10
194.31
 20
469.3769999999999
 30
0.0
 11
209.803
 21
484.87
 31
0.0
  0
LINE
  5
10EE
330
1641
100
AcDbEntity
  8
8
100
AcDbLine
 10
194.087
 20
473.643
 30
0.0
 11
210.051
 21
489.608
 31
0.0
  0
LINE
  5
10EF
330
1641
100
AcDbEntity
  8
8
100
AcDbLine
 10
193.863
 20
477.91
 30
0.0
 11
210.3
 21
494.3469999999999
 31
0.0
  0
LINE
  5
10F0
330
1641
100
AcDbEntity
  8
8
100
AcDbLine
 10
193.639
 20
482.176
 30
0.0
 11
210.548
 21
499.085
 31
0.0
  0
LINE
  5
10F1
330
1641
100
AcDbEntity
  8
8
100
AcDbLine
 10
193.416
 20
486.443
 30
0.0
 11
210.797
 21
503.824
 31
0.0
  0
LINE
  5
10F2
330
1641
100
AcDbEntity
  8
8
100
AcDbLine
 10
193.192
 20
490.709
 30
0.0
 11
211.045
 21
508.5619999999999
 31
0.0
  0
LINE
  5
10F3
330
1641
100
AcDbEntity
  8
8
100
AcDbLine
 10
192.969
 20
494.976
 30
0.0
 11
208.573
 21
510.58
 31
0.0
  0
LINE
  5
10F4
330
1641
100
AcDbEntity
  8
8
100
AcDbLine
 10
192.745
 20
499.242
 30
0.0
 11
204.082
 21
510.58
 31
0.0
  0
LINE
  5
10F5
330
1641
100
AcDbEntity
  8
8
100
AcDbLine
 10
192.521
 20
503.509
 30
0.0
 11
199.592
 21
510.58
 31
0.0
  0
LINE
  5
10F6
330
1641
100
AcDbEntity
  8
8
100
AcDbLine
 10
192.298
 20
507.776
 30
0.0
 11
195.102
 21
510.58
 31
0.0
  0
ENDBLK
  5
10F7
330
1641
100
AcDbEntity
  8
0
100
AcDbBlockEnd
  0
BLOCK
  5
110A
330
1642
100
AcDbEntity
  8
0
100
AcDbBlockBegin
  2
*X3
 70
     1
 10
0.0
 20
0.0
 30
0.0
  3
*X3
  1

  0
LINE
  5
110B
330
1642
100
AcDbEntity
  8
8
100
AcDbLine
 10
234.905
 20
460.58
 30
0.0
 11
244.007
 21
469.683
 31
0.0
  0
LINE
  5
110C
330
1642
100
AcDbEntity
  8
8
100
AcDbLine
 10
231.443
 20
461.608
 30
0.0
 11
244.256
 21
474.4209999999999
 31
0.0
  0
LINE
  5
110D
330
1642
100
AcDbEntity
  8
8
100
AcDbLine
 10
229.71
 20
464.365
 30
0.0
 11
244.504
 21
479.159
 31
0.0
  0
LINE
  5
110E
330
1642
100
AcDbEntity
  8
8
100
AcDbLine
 10
229.356
 20
468.5019999999999
 30
0.0
 11
244.752
 21
483.898
 31
0.0
  0
LINE
  5
110F
330
1642
100
AcDbEntity
  8
8
100
AcDbLine
 10
229.132
 20
472.768
 30
0.0
 11
245.001
 21
488.6359999999999
 31
0.0
  0
LINE
  5
1110
330
1642
100
AcDbEntity
  8
8
100
AcDbLine
 10
228.909
 20
477.035
 30
0.0
 11
245.249
 21
493.3749999999999
 31
0.0
  0
LINE
  5
1111
330
1642
100
AcDbEntity
  8
8
100
AcDbLine
 10
228.685
 20
481.301
 30
0.0
 11
245.497
 21
498.113
 31
0.0
  0
LINE
  5
1112
330
1642
100
AcDbEntity
  8
8
100
AcDbLine
 10
228.462
 20
485.568
 30
0.0
 11
245.746
 21
502.8519999999999
 31
0.0
  0
LINE
  5
1113
330
1642
100
AcDbEntity
  8
8
100
AcDbLine
 10
228.238
 20
489.834
 30
0.0
 11
245.994
 21
507.5899999999999
 31
0.0
  0
LINE
  5
1114
330
1642
100
AcDbEntity
  8
8
100
AcDbLine
 10
228.014
 20
494.101
 30
0.0
 11
244.493
 21
510.58
 31
0.0
  0
LINE
  5
1115
330
1642
100
AcDbEntity
  8
8
100
AcDbLine
 10
227.791
 20
498.367
 30
0.0
 11
240.003
 21
510.58
 31
0.0
  0
LINE
  5
1116
330
1642
100
AcDbEntity
  8
8
100
AcDbLine
 10
227.567
 20
502.634
 30
0.0
 11
235.513
 21
510.58
 31
0.0
  0
LINE
  5
1117
330
1642
100
AcDbEntity
  8
8
100
AcDbLine
 10
227.344
 20
506.8999999999999
 30
0.0
 11
231.023
 21
510.58
 31
0.0
  0
ENDBLK
  5
1118
330
1642
100
AcDbEntity
  8
0
100
AcDbBlockEnd
  0
BLOCK
  5
112B
330
1643
100
AcDbEntity
  8
0
100
AcDbBlockBegin
  2
*X4
 70
     1
 10
0.0
 20
0.0
 30
0.0
  3
*X4
  1

  0
LINE
  5
112C
330
1643
100
AcDbEntity
  8
8
100
AcDbLine
 10
270.296
 20
460.58
 30
0.0
 11
278.986
 21
469.27
 31
0.0
  0
LINE
  5
112D
330
1643
100
AcDbEntity
  8
8
100
AcDbLine
 10
266.681
 20
461.4559999999999
 30
0.0
 11
279.234
 21
474.009
 31
0.0
  0
LINE
  5
112E
330
1643
100
AcDbEntity
  8
8
100
AcDbLine
 10
264.774
 20
464.039
 30
0.0
 11
279.483
 21
478.7469999999999
 31
0.0
  0
LINE
  5
112F
330
1643
100
AcDbEntity
  8
8
100
AcDbLine
 10
264.376
 20
468.13
 30
0.0
 11
279.731
 21
483.4859999999999
 31
0.0
  0
LINE
  5
1130
330
1643
100
AcDbEntity
  8
8
100
AcDbLine
 10
264.152
 20
472.397
 30
0.0
 11
279.9790000000001
 21
488.224
 31
0.0
  0
LINE
  5
1131
330
1643
100
AcDbEntity
  8
8
100
AcDbLine
 10
263.928
 20
476.663
 30
0.0
 11
280.228
 21
492.963
 31
0.0
  0
LINE
  5
1132
330
1643
100
AcDbEntity
  8
8
100
AcDbLine
 10
263.704
 20
480.93
 30
0.0
 11
280.476
 21
497.7009999999999
 31
0.0
  0
LINE
  5
1133
330
1643
100
AcDbEntity
  8
8
100
AcDbLine
 10
263.481
 20
485.196
 30
0.0
 11
280.724
 21
502.4399999999999
 31
0.0
  0
LINE
  5
1134
330
1643
100
AcDbEntity
  8
8
100
AcDbLine
 10
263.257
 20
489.463
 30
0.0
 11
280.973
 21
507.178
 31
0.0
  0
LINE
  5
1135
330
1643
100
AcDbEntity
  8
8
100
AcDbLine
 10
263.034
 20
493.729
 30
0.0
 11
279.884
 21
510.58
 31
0.0
  0
LINE
  5
1136
330
1643
100
AcDbEntity
  8
8
100
AcDbLine
 10
262.81
 20
497.996
 30
0.0
 11
275.394
 21
510.58
 31
0.0
  0
LINE
  5
1137
330
1643
100
AcDbEntity
  8
8
100
AcDbLine
 10
262.587
 20
502.263
 30
0.0
 11
270.904
 21
510.58
 31
0.0
  0
LINE
  5
1138
330
1643
100
AcDbEntity
  8
8
100
AcDbLine
 10
262.363
 20
506.529
 30
0.0
 11
266.414
 21
510.58
 31
0.0
  0
ENDBLK
  5
1139
330
1643
100
AcDbEntity
  8
0
100
AcDbBlockEnd
  0
BLOCK
  5
114C
330
1644
100
AcDbEntity
  8
0
100
AcDbBlockBegin
  2
*X5
 70
     1
 10
0.0
 20
0.0
 30
0.0
  3
*X5
  1

  0
LINE
  5
114D
330
1644
100
AcDbEntity
  8
8
100
AcDbLine
 10
306.217
 20
460.58
 30
0.0
 11
313.935
 21
468.299
 31
0.0
  0
LINE
  5
114E
330
1644
100
AcDbEntity
  8
8
100
AcDbLine
 10
302.243
 20
461.096
 30
0.0
 11
314.183
 21
473.0369999999999
 31
0.0
  0
LINE
  5
114F
330
1644
100
AcDbEntity
  8
8
100
AcDbLine
 10
299.979
 20
463.323
 30
0.0
 11
314.432
 21
477.775
 31
0.0
  0
LINE
  5
1150
330
1644
100
AcDbEntity
  8
8
100
AcDbLine
 10
299.422
 20
467.255
 30
0.0
 11
314.68
 21
482.514
 31
0.0
  0
LINE
  5
1151
330
1644
100
AcDbEntity
  8
8
100
AcDbLine
 10
299.198
 20
471.522
 30
0.0
 11
314.928
 21
487.2519999999999
 31
0.0
  0
LINE
  5
1152
330
1644
100
AcDbEntity
  8
8
100
AcDbLine
 10
298.974
 20
475.788
 30
0.0
 11
315.177
 21
491.9909999999999
 31
0.0
  0
LINE
  5
1153
330
1644
100
AcDbEntity
  8
8
100
AcDbLine
 10
298.751
 20
480.055
 30
0.0
 11
315.425
 21
496.729
 31
0.0
  0
LINE
  5
1154
330
1644
100
AcDbEntity
  8
8
100
AcDbLine
 10
298.527
 20
484.321
 30
0.0
 11
315.673
 21
501.468
 31
0.0
  0
LINE
  5
1155
330
1644
100
AcDbEntity
  8
8
100
AcDbLine
 10
298.303
 20
488.588
 30
0.0
 11
315.922
 21
506.2059999999999
 31
0.0
  0
LINE
  5
1156
330
1644
100
AcDbEntity
  8
8
100
AcDbLine
 10
298.08
 20
492.854
 30
0.0
 11
315.805
 21
510.58
 31
0.0
  0
LINE
  5
1157
330
1644
100
AcDbEntity
  8
8
100
AcDbLine
 10
297.856
 20
497.121
 30
0.0
 11
311.315
 21
510.58
 31
0.0
  0
LINE
  5
1158
330
1644
100
AcDbEntity
  8
8
100
AcDbLine
 10
297.633
 20
501.388
 30
0.0
 11
306.825
 21
510.58
 31
0.0
  0
LINE
  5
1159
330
1644
100
AcDbEntity
  8
8
100
AcDbLine
 10
297.409
 20
505.654
 30
0.0
 11
302.335
 21
510.58
 31
0.0
  0
LINE
  5
115A
330
1644
100
AcDbEntity
  8
8
100
AcDbLine
 10
297.186
 20
509.921
 30
0.0
 11
297.844
 21
510.58
 31
0.0
  0
ENDBLK
  5
115B
330
1644
100
AcDbEntity
  8
0
100
AcDbBlockEnd
  0
BLOCK
  5
116E
330
1645
100
AcDbEntity
  8
0
100
AcDbBlockBegin
  2
*X6
 70
     1
 10
0.0
 20
0.0
 30
0.0
  3
*X6
  1

  0
LINE
  5
116F
330
1645
100
AcDbEntity
  8
8
100
AcDbLine
 10
342.138
 20
460.58
 30
0.0
 11
348.884
 21
467.327
 31
0.0
  0
LINE
  5
1170
330
1645
100
AcDbEntity
  8
8
100
AcDbLine
 10
337.881
 20
460.813
 30
0.0
 11
349.1319999999999
 21
472.065
 31
0.0
  0
LINE
  5
1171
330
1645
100
AcDbEntity
  8
8
100
AcDbLine
 10
335.364
 20
462.7869999999999
 30
0.0
 11
349.381
 21
476.803
 31
0.0
  0
LINE
  5
1172
330
1645
100
AcDbEntity
  8
8
100
AcDbLine
 10
334.467
 20
466.38
 30
0.0
 11
349.629
 21
481.5419999999999
 31
0.0
  0
LINE
  5
1173
330
1645
100
AcDbEntity
  8
8
100
AcDbLine
 10
334.244
 20
470.647
 30
0.0
 11
349.8769999999999
 21
486.28
 31
0.0
  0
LINE
  5
1174
330
1645
100
AcDbEntity
  8
8
100
AcDbLine
 10
334.02
 20
474.913
 30
0.0
 11
350.126
 21
491.019
 31
0.0
  0
LINE
  5
1175
330
1645
100
AcDbEntity
  8
8
100
AcDbLine
 10
333.796
 20
479.18
 30
0.0
 11
350.374
 21
495.7569999999999
 31
0.0
  0
LINE
  5
1176
330
1645
100
AcDbEntity
  8
8
100
AcDbLine
 10
333.573
 20
483.4459999999999
 30
0.0
 11
350.6219999999999
 21
500.4959999999999
 31
0.0
  0
LINE
  5
1177
330
1645
100
AcDbEntity
  8
8
100
AcDbLine
 10
333.349
 20
487.713
 30
0.0
 11
350.871
 21
505.234
 31
0.0
  0
LINE
  5
1178
330
1645
100
AcDbEntity
  8
8
100
AcDbLine
 10
333.126
 20
491.979
 30
0.0
 11
351.119
 21
509.973
 31
0.0
  0
LINE
  5
1179
330
1645
100
AcDbEntity
  8
8
100
AcDbLine
 10
332.902
 20
496.246
 30
0.0
 11
347.236
 21
510.58
 31
0.0
  0
LINE
  5
117A
330
1645
100
AcDbEntity
  8
8
100
AcDbLine
 10
332.679
 20
500.5119999999999
 30
0.0
 11
342.746
 21
510.58
 31
0.0
  0
LINE
  5
117B
330
1645
100
AcDbEntity
  8
8
100
AcDbLine
 10
332.455
 20
504.7789999999999
 30
0.0
 11
338.256
 21
510.58
 31
0.0
  0
LINE
  5
117C
330
1645
100
AcDbEntity
  8
8
100
AcDbLine
 10
332.231
 20
509.045
 30
0.0
 11
333.766
 21
510.58
 31
0.0
  0
ENDBLK
  5
117D
330
1645
100
AcDbEntity
  8
0
100
AcDbBlockEnd
  0
BLOCK
  5
11B7
330
164A
100
AcDbEntity
  8
0
100
AcDbBlockBegin
  2
*X7
 70
     1
 10
0.0
 20
0.0
 30
0.0
  3
*X7
  1

  0
LINE
  5
11B8
330
164A
100
AcDbEntity
  8
8
100
AcDbLine
 10
381.943
 20
480.5799999999999
 30
0.0
 11
386.832
 21
485.4689999999999
 31
0.0
  0
LINE
  5
11B9
330
164A
100
AcDbEntity
  8
8
100
AcDbLine
 10
377.453
 20
480.5799999999999
 30
0.0
 11
387.08
 21
490.208
 31
0.0
  0
LINE
  5
11BA
330
164A
100
AcDbEntity
  8
8
100
AcDbLine
 10
372.962
 20
480.5799999999999
 30
0.0
 11
387.329
 21
494.946
 31
0.0
  0
LINE
  5
11BB
330
164A
100
AcDbEntity
  8
8
100
AcDbLine
 10
368.71
 20
480.818
 30
0.0
 11
389.69
 21
501.798
 31
0.0
  0
LINE
  5
11BC
330
164A
100
AcDbEntity
  8
8
100
AcDbLine
 10
368.487
 20
485.085
 30
0.0
 11
389.939
 21
506.536
 31
0.0
  0
LINE
  5
11BD
330
164A
100
AcDbEntity
  8
8
100
AcDbLine
 10
368.263
 20
489.351
 30
0.0
 11
389.4919999999999
 21
510.58
 31
0.0
  0
LINE
  5
11BE
330
164A
100
AcDbEntity
  8
8
100
AcDbLine
 10
368.04
 20
493.618
 30
0.0
 11
385.002
 21
510.58
 31
0.0
  0
LINE
  5
11BF
330
164A
100
AcDbEntity
  8
8
100
AcDbLine
 10
367.816
 20
497.8839999999999
 30
0.0
 11
380.512
 21
510.58
 31
0.0
  0
LINE
  5
11C0
330
164A
100
AcDbEntity
  8
8
100
AcDbLine
 10
367.593
 20
502.151
 30
0.0
 11
376.021
 21
510.58
 31
0.0
  0
LINE
  5
11C1
330
164A
100
AcDbEntity
  8
8
100
AcDbLine
 10
367.3690000000001
 20
506.4169999999999
 30
0.0
 11
371.531
 21
510.58
 31
0.0
  0
ENDBLK
  5
11C2
330
164A
100
AcDbEntity
  8
0
100
AcDbBlockEnd
  0
BLOCK
  5
11EB
330
164B
100
AcDbEntity
  8
0
100
AcDbBlockBegin
  2
*X8
 70
     1
 10
0.0
 20
0.0
 30
0.0
  3
*X8
  1

  0
LINE
  5
11EC
330
164B
100
AcDbEntity
  8
8
100
AcDbLine
 10
89.259
 20
472.153
 30
0.0
 11
94.83200000000001
 21
466.5799999999999
 31
0.0
  0
LINE
  5
11ED
330
164B
100
AcDbEntity
  8
8
100
AcDbLine
 10
92.16700000000001
 20
473.735
 30
0.0
 11
99.32200000000001
 21
466.5799999999999
 31
0.0
  0
LINE
  5
11EE
330
164B
100
AcDbEntity
  8
8
100
AcDbLine
 10
96.43299999999999
 20
473.9589999999999
 30
0.0
 11
103.812
 21
466.5799999999999
 31
0.0
  0
LINE
  5
11EF
330
164B
100
AcDbEntity
  8
8
100
AcDbLine
 10
100.499
 20
474.383
 30
0.0
 11
108.302
 21
466.5799999999999
 31
0.0
  0
LINE
  5
11F0
330
164B
100
AcDbEntity
  8
8
100
AcDbLine
 10
103.182
 20
476.1899999999999
 30
0.0
 11
112.792
 21
466.5799999999999
 31
0.0
  0
LINE
  5
11F1
330
164B
100
AcDbEntity
  8
8
100
AcDbLine
 10
104.469
 20
479.393
 30
0.0
 11
117.282
 21
466.5799999999999
 31
0.0
  0
LINE
  5
11F2
330
164B
100
AcDbEntity
  8
8
100
AcDbLine
 10
104.738
 20
483.6149999999999
 30
0.0
 11
121.772
 21
466.5799999999999
 31
0.0
  0
LINE
  5
11F3
330
164B
100
AcDbEntity
  8
8
100
AcDbLine
 10
133.739
 20
454.613
 30
0.0
 11
139.772
 21
448.58
 31
0.0
  0
LINE
  5
11F4
330
164B
100
AcDbEntity
  8
8
100
AcDbLine
 10
147.442
 20
440.91
 30
0.0
 11
157.772
 21
430.5799999999999
 31
0.0
  0
LINE
  5
11F5
330
164B
100
AcDbEntity
  8
8
100
AcDbLine
 10
104.961
 20
487.8809999999999
 30
0.0
 11
126.262
 21
466.5799999999999
 31
0.0
  0
LINE
  5
11F6
330
164B
100
AcDbEntity
  8
8
100
AcDbLine
 10
132.778
 20
460.0649999999999
 30
0.0
 11
167.262
 21
425.5799999999999
 31
0.0
  0
LINE
  5
11F7
330
164B
100
AcDbEntity
  8
8
100
AcDbLine
 10
105.185
 20
492.148
 30
0.0
 11
161.645
 21
435.688
 31
0.0
  0
LINE
  5
11F8
330
164B
100
AcDbEntity
  8
8
100
AcDbLine
 10
161.752
 20
435.58
 30
0.0
 11
169.007
 21
428.3249999999999
 31
0.0
  0
LINE
  5
11F9
330
164B
100
AcDbEntity
  8
8
100
AcDbLine
 10
105.408
 20
496.4139999999999
 30
0.0
 11
117.528
 21
484.294
 31
0.0
  0
LINE
  5
11FA
330
164B
100
AcDbEntity
  8
8
100
AcDbLine
 10
122.243
 20
479.5799999999999
 30
0.0
 11
161.397
 21
440.4259999999999
 31
0.0
  0
LINE
  5
11FB
330
164B
100
AcDbEntity
  8
8
100
AcDbLine
 10
166.243
 20
435.58
 30
0.0
 11
168.651
 21
433.1719999999999
 31
0.0
  0
LINE
  5
11FC
330
164B
100
AcDbEntity
  8
8
100
AcDbLine
 10
105.632
 20
500.6809999999999
 30
0.0
 11
117.28
 21
489.033
 31
0.0
  0
LINE
  5
11FD
330
164B
100
AcDbEntity
  8
8
100
AcDbLine
 10
126.733
 20
479.5799999999999
 30
0.0
 11
142.557
 21
463.7559999999999
 31
0.0
  0
LINE
  5
11FE
330
164B
100
AcDbEntity
  8
8
100
AcDbLine
 10
105.855
 20
504.948
 30
0.0
 11
117.032
 21
493.771
 31
0.0
  0
LINE
  5
11FF
330
164B
100
AcDbEntity
  8
8
100
AcDbLine
 10
131.223
 20
479.5799999999999
 30
0.0
 11
141.61
 21
469.193
 31
0.0
  0
LINE
  5
1200
330
164B
100
AcDbEntity
  8
8
100
AcDbLine
 10
106.079
 20
509.2139999999999
 30
0.0
 11
116.784
 21
498.51
 31
0.0
  0
LINE
  5
1201
330
164B
100
AcDbEntity
  8
8
100
AcDbLine
 10
135.713
 20
479.5799999999999
 30
0.0
 11
140.876
 21
474.4169999999999
 31
0.0
  0
LINE
  5
1202
330
164B
100
AcDbEntity
  8
8
100
AcDbLine
 10
109.203
 20
510.58
 30
0.0
 11
116.535
 21
503.248
 31
0.0
  0
LINE
  5
1203
330
164B
100
AcDbEntity
  8
8
100
AcDbLine
 10
113.694
 20
510.58
 30
0.0
 11
116.287
 21
507.986
 31
0.0
  0
ENDBLK
  5
1204
330
164B
100
AcDbEntity
  8
0
100
AcDbBlockEnd
  0
BLOCK
  5
122D
330
164C
100
AcDbEntity
  8
0
100
AcDbBlockBegin
  2
*X9
 70
     1
 10
0.0
 20
0.0
 30
0.0
  3
*X9
  1

  0
LINE
  5
122E
330
164C
100
AcDbEntity
  8
8
100
AcDbLine
 10
339.311
 20
428.6459999999999
 30
0.0
 11
342.377
 21
425.5799999999999
 31
0.0
  0
LINE
  5
122F
330
164C
100
AcDbEntity
  8
8
100
AcDbLine
 10
339.609
 20
432.838
 30
0.0
 11
345.5080000000001
 21
426.939
 31
0.0
  0
LINE
  5
1230
330
164C
100
AcDbEntity
  8
8
100
AcDbLine
 10
341.358
 20
435.58
 30
0.0
 11
346.358
 21
430.5799999999999
 31
0.0
  0
LINE
  5
1231
330
164C
100
AcDbEntity
  8
8
100
AcDbLine
 10
345.848
 20
435.58
 30
0.0
 11
350.848
 21
430.5799999999999
 31
0.0
  0
LINE
  5
1232
330
164C
100
AcDbEntity
  8
8
100
AcDbLine
 10
346.834
 20
439.0839999999999
 30
0.0
 11
354.618
 21
431.3
 31
0.0
  0
LINE
  5
1233
330
164C
100
AcDbEntity
  8
8
100
AcDbLine
 10
347.2519999999999
 20
443.156
 30
0.0
 11
356.386
 21
434.022
 31
0.0
  0
LINE
  5
1234
330
164C
100
AcDbEntity
  8
8
100
AcDbLine
 10
349.4969999999999
 20
445.401
 30
0.0
 11
358.154
 21
436.7449999999999
 31
0.0
  0
LINE
  5
1235
330
164C
100
AcDbEntity
  8
8
100
AcDbLine
 10
351.7419999999999
 20
447.6469999999999
 30
0.0
 11
359.921
 21
439.4669999999999
 31
0.0
  0
LINE
  5
1236
330
164C
100
AcDbEntity
  8
8
100
AcDbLine
 10
353.987
 20
449.892
 30
0.0
 11
361.689
 21
442.189
 31
0.0
  0
LINE
  5
1237
330
164C
100
AcDbEntity
  8
8
100
AcDbLine
 10
356.232
 20
452.1369999999999
 30
0.0
 11
363.457
 21
444.911
 31
0.0
  0
LINE
  5
1238
330
164C
100
AcDbEntity
  8
8
100
AcDbLine
 10
358.477
 20
454.3819999999999
 30
0.0
 11
365.302
 21
447.5559999999999
 31
0.0
  0
LINE
  5
1239
330
164C
100
AcDbEntity
  8
8
100
AcDbLine
 10
360.722
 20
456.6269999999999
 30
0.0
 11
368.769
 21
448.58
 31
0.0
  0
LINE
  5
123A
330
164C
100
AcDbEntity
  8
8
100
AcDbLine
 10
362.967
 20
458.8719999999999
 30
0.0
 11
372.834
 21
449.005
 31
0.0
  0
LINE
  5
123B
330
164C
100
AcDbEntity
  8
8
100
AcDbLine
 10
364.892
 20
461.437
 30
0.0
 11
374.136
 21
452.193
 31
0.0
  0
LINE
  5
123C
330
164C
100
AcDbEntity
  8
8
100
AcDbLine
 10
366.057
 20
464.7619999999999
 30
0.0
 11
374.809
 21
456.01
 31
0.0
  0
LINE
  5
123D
330
164C
100
AcDbEntity
  8
8
100
AcDbLine
 10
366.62
 20
468.689
 30
0.0
 11
375.482
 21
459.827
 31
0.0
  0
LINE
  5
123E
330
164C
100
AcDbEntity
  8
8
100
AcDbLine
 10
367.174
 20
472.6259999999999
 30
0.0
 11
376.454
 21
463.346
 31
0.0
  0
LINE
  5
123F
330
164C
100
AcDbEntity
  8
8
100
AcDbLine
 10
367.727
 20
476.5619999999999
 30
0.0
 11
378.565
 21
465.725
 31
0.0
  0
LINE
  5
1240
330
164C
100
AcDbEntity
  8
8
100
AcDbLine
 10
369.2
 20
479.5799999999999
 30
0.0
 11
382.2
 21
466.5799999999999
 31
0.0
  0
LINE
  5
1241
330
164C
100
AcDbEntity
  8
8
100
AcDbLine
 10
373.69
 20
479.5799999999999
 30
0.0
 11
386.69
 21
466.5799999999999
 31
0.0
  0
LINE
  5
1242
330
164C
100
AcDbEntity
  8
8
100
AcDbLine
 10
378.18
 20
479.5799999999999
 30
0.0
 11
391.18
 21
466.5799999999999
 31
0.0
  0
LINE
  5
1243
330
164C
100
AcDbEntity
  8
8
100
AcDbLine
 10
382.67
 20
479.5799999999999
 30
0.0
 11
395.67
 21
466.5799999999999
 31
0.0
  0
LINE
  5
1244
330
164C
100
AcDbEntity
  8
8
100
AcDbLine
 10
387.16
 20
479.5799999999999
 30
0.0
 11
400.16
 21
466.5799999999999
 31
0.0
  0
LINE
  5
1245
330
164C
100
AcDbEntity
  8
8
100
AcDbLine
 10
390.582
 20
480.649
 30
0.0
 11
404.6499999999999
 21
466.5799999999999
 31
0.0
  0
LINE
  5
1246
330
164C
100
AcDbEntity
  8
8
100
AcDbLine
 10
390.805
 20
484.915
 30
0.0
 11
409.14
 21
466.5799999999999
 31
0.0
  0
LINE
  5
1247
330
164C
100
AcDbEntity
  8
8
100
AcDbLine
 10
391.029
 20
489.182
 30
0.0
 11
413.6309999999999
 21
466.5799999999999
 31
0.0
  0
LINE
  5
1248
330
164C
100
AcDbEntity
  8
8
100
AcDbLine
 10
391.2530000000001
 20
493.448
 30
0.0
 11
403.7009999999999
 21
481.0
 31
0.0
  0
LINE
  5
1249
330
164C
100
AcDbEntity
  8
8
100
AcDbLine
 10
410.6799999999999
 20
474.0209999999999
 30
0.0
 11
418.121
 21
466.5799999999999
 31
0.0
  0
LINE
  5
124A
330
164C
100
AcDbEntity
  8
8
100
AcDbLine
 10
391.476
 20
497.7149999999999
 30
0.0
 11
403.453
 21
485.738
 31
0.0
  0
LINE
  5
124B
330
164C
100
AcDbEntity
  8
8
100
AcDbLine
 10
415.418
 20
473.772
 30
0.0
 11
419.282
 21
469.9089999999999
 31
0.0
  0
LINE
  5
124C
330
164C
100
AcDbEntity
  8
8
100
AcDbLine
 10
391.7
 20
501.9809999999999
 30
0.0
 11
403.204
 21
490.477
 31
0.0
  0
LINE
  5
124D
330
164C
100
AcDbEntity
  8
8
100
AcDbLine
 10
391.923
 20
506.248
 30
0.0
 11
402.956
 21
495.2149999999999
 31
0.0
  0
LINE
  5
124E
330
164C
100
AcDbEntity
  8
8
100
AcDbLine
 10
392.147
 20
510.514
 30
0.0
 11
402.707
 21
499.954
 31
0.0
  0
LINE
  5
124F
330
164C
100
AcDbEntity
  8
8
100
AcDbLine
 10
396.5709999999999
 20
510.58
 30
0.0
 11
402.4589999999999
 21
504.6919999999999
 31
0.0
  0
LINE
  5
1250
330
164C
100
AcDbEntity
  8
8
100
AcDbLine
 10
401.0609999999999
 20
510.58
 30
0.0
 11
402.211
 21
509.431
 31
0.0
  0
ENDBLK
  5
1251
330
164C
100
AcDbEntity
  8
0
100
AcDbBlockEnd
  0
BLOCK
  5
168D
330
168C
100
AcDbEntity
  8
0
100
AcDbBlockBegin
  2
KATALOG_LEER
 70
     0
 10
0.0
 20
0.0
 30
0.0
  3
KATALOG_LEER
  1

  0
ENDBLK
  5
168E
330
168C
100
AcDbEntity
  8
0
100
AcDbBlockEnd
  0
BLOCK
  5
19BB
330
1840
100
AcDbEntity
  8
0
100
AcDbBlockBegin
  2
*D23
 70
     1
 10
0.0
 20
0.0
 30
0.0
  3
*D23
  1

  0
LINE
  5
1BD2
330
1840
100
AcDbEntity
  8
5
370
    -2
100
AcDbLine
 10
402.151
 20
558.2031409999999
 30
0.0
 11
402.151
 21
643.2031409999999
 31
0.0
  0
LINE
  5
1BD3
330
1840
100
AcDbEntity
  8
5
370
    -2
100
AcDbLine
 10
106.151
 20
558.2031409999999
 30
0.0
 11
106.151
 21
643.2031409999999
 31
0.0
  0
LINE
  5
1BD4
330
1840
100
AcDbEntity
  8
5
370
    -2
100
AcDbLine
 10
377.151
 20
638.2031409999999
 30
0.0
 11
131.151
 21
638.2031409999999
 31
0.0
  0
SOLID
  5
1BD5
330
1840
100
AcDbEntity
  8
5
100
AcDbTrace
 10
377.151
 20
642.3698076666665
 30
0.0
 11
377.151
 21
634.0364743333333
 31
0.0
 12
402.151
 22
638.2031409999999
 32
0.0
 13
402.151
 23
638.2031409999999
 33
0.0
  0
SOLID
  5
1BD6
330
1840
100
AcDbEntity
  8
5
100
AcDbTrace
 10
131.151
 20
642.3698076666665
 30
0.0
 11
131.151
 21
634.0364743333333
 31
0.0
 12
106.151
 22
638.2031409999999
 32
0.0
 13
106.151
 23
638.2031409999999
 33
0.0
  0
MTEXT
  5
1BD7
330
1840
100
AcDbEntity
  8
5
 62
     2
100
AcDbMText
 10
254.151
 20
649.9548634409448
 30
0.0
 40
17.5
 41
0.0
 71
     5
 72
     1
  1
{\Fgeniso.shx|c0;\U+25A1}296
 73
     1
 44
1.0
1001
ACAD
1000
MTEXTBEGIN
1070
    73
1070
     1
1070
    44
1040
1.0
1070
    74
1070
     0
1000
MTEXTEND
  0
POINT
  5
1BD8
330
1840
100
AcDbEntity
  8
DEFPOINTS
 62
     0
100
AcDbPoint
 10
402.151
 20
553.203141
 30
0.0
  0
POINT
  5
1BD9
330
1840
100
AcDbEntity
  8
DEFPOINTS
 62
     0
100
AcDbPoint
 10
106.151
 20
553.203141
 30
0.0
  0
POINT
  5
1BDA
330
1840
100
AcDbEntity
  8
DEFPOINTS
 62
     0
100
AcDbPoint
 10
106.151
 20
638.2031409999999
 30
0.0
  0
ENDBLK
  5
19C5
330
1840
100
AcDbEntity
  8
0
100
AcDbBlockEnd
  0
BLOCK
  5
19F8
330
187C
100
AcDbEntity
  8
0
100
AcDbBlockBegin
  2
*D24
 70
     1
 10
0.0
 20
0.0
 30
0.0
  3
*D24
  1

  0
LINE
  5
1BED
330
187C
100
AcDbEntity
  8
5
370
    -2
100
AcDbLine
 10
407.1509999999999
 20
553.203141
 30
0.0
 11
474.4437759999999
 21
553.203141
 31
0.0
  0
LINE
  5
1BEE
330
187C
100
AcDbEntity
  8
5
370
    -2
100
AcDbLine
 10
424.823
 20
509.203141
 30
0.0
 11
474.4437759999999
 21
509.203141
 31
0.0
  0
LINE
  5
1BEF
330
187C
100
AcDbEntity
  8
5
370
    -2
100
AcDbLine
 10
469.4437759999999
 20
578.203141
 30
0.0
 11
469.4437759999999
 21
603.203141
 31
0.0
  0
LINE
  5
1BF0
330
187C
100
AcDbEntity
  8
5
370
    -2
100
AcDbLine
 10
469.4437759999999
 20
484.203141
 30
0.0
 11
469.4437759999999
 21
459.203141
 31
0.0
  0
LINE
  5
1BF1
330
187C
100
AcDbEntity
  8
5
370
    -2
100
AcDbLine
 10
469.4437759999999
 20
553.203141
 30
0.0
 11
469.4437759999999
 21
509.203141
 31
0.0
  0
SOLID
  5
1BF2
330
187C
100
AcDbEntity
  8
5
100
AcDbTrace
 10
465.2771093333332
 20
578.203141
 30
0.0
 11
473.6104426666666
 21
578.203141
 31
0.0
 12
469.4437759999999
 22
553.203141
 32
0.0
 13
469.4437759999999
 23
553.203141
 33
0.0
  0
SOLID
  5
1BF3
330
187C
100
AcDbEntity
  8
5
100
AcDbTrace
 10
465.2771093333332
 20
484.203141
 30
0.0
 11
473.6104426666666
 21
484.203141
 31
0.0
 12
469.4437759999999
 22
509.203141
 32
0.0
 13
469.4437759999999
 23
509.203141
 33
0.0
  0
MTEXT
  5
1BF4
330
187C
100
AcDbEntity
  8
5
 62
     2
100
AcDbMText
 10
457.6937759999998
 20
531.2031410000001
 30
0.0
 40
17.5
 41
0.0
 71
     5
 72
     1
  1
44
 11
0.0000000000000001
 21
1.0
 31
0.0
 73
     1
 44
1.0
1001
ACAD
1000
MTEXTBEGIN
1070
    73
1070
     1
1070
    44
1040
1.0
1070
    74
1070
     0
1000
MTEXTEND
  0
POINT
  5
1BF5
330
187C
100
AcDbEntity
  8
DEFPOINTS
 62
     0
100
AcDbPoint
 10
402.151
 20
553.203141
 30
0.0
  0
POINT
  5
1BF6
330
187C
100
AcDbEntity
  8
DEFPOINTS
 62
     0
100
AcDbPoint
 10
419.823
 20
509.203141
 30
0.0
  0
POINT
  5
1BF7
330
187C
100
AcDbEntity
  8
DEFPOINTS
 62
     0
100
AcDbPoint
 10
469.4437759999999
 20
509.203141
 30
0.0
  0
ENDBLK
  5
1A02
330
187C
100
AcDbEntity
  8
0
100
AcDbBlockEnd
  0
BLOCK
  5
1A33
330
18E0
100
AcDbEntity
  8
0
100
AcDbBlockBegin
  2
*D25
 70
     1
 10
0.0
 20
0.0
 30
0.0
  3
*D25
  1

  0
LINE
  5
1C0A
330
18E0
100
AcDbEntity
  8
5
370
    -2
100
AcDbLine
 10
149.151
 20
473.203141
 30
0.0
 11
36.45899999999998
 21
473.2031410000001
 31
0.0
  0
LINE
  5
1C0B
330
18E0
100
AcDbEntity
  8
5
370
    -2
100
AcDbLine
 10
101.15
 20
553.203141
 30
0.0
 11
36.459
 21
553.203141
 31
0.0
  0
LINE
  5
1C0C
330
18E0
100
AcDbEntity
  8
5
370
    -2
100
AcDbLine
 10
41.45899999999999
 20
498.2031410000001
 30
0.0
 11
41.459
 21
528.203141
 31
0.0
  0
SOLID
  5
1C0D
330
18E0
100
AcDbEntity
  8
5
100
AcDbTrace
 10
37.29233333333333
 20
498.2031410000001
 30
0.0
 11
45.62566666666665
 21
498.2031410000001
 31
0.0
 12
41.45899999999998
 22
473.2031410000001
 32
0.0
 13
41.45899999999998
 23
473.2031410000001
 33
0.0
  0
SOLID
  5
1C0E
330
18E0
100
AcDbEntity
  8
5
100
AcDbTrace
 10
37.29233333333333
 20
528.203141
 30
0.0
 11
45.62566666666666
 21
528.203141
 31
0.0
 12
41.459
 22
553.203141
 32
0.0
 13
41.459
 23
553.203141
 33
0.0
  0
MTEXT
  5
1C0F
330
18E0
100
AcDbEntity
  8
5
 62
     2
100
AcDbMText
 10
29.70899999999991
 20
513.2031409999999
 30
0.0
 40
17.5
 41
0.0
 71
     5
 72
     1
  1
80
 11
0.0000000000000001
 21
1.0
 31
0.0
 73
     1
 44
1.0
1001
ACAD
1000
MTEXTBEGIN
1070
    73
1070
     1
1070
    44
1040
1.0
1070
    74
1070
     0
1000
MTEXTEND
  0
POINT
  5
1C10
330
18E0
100
AcDbEntity
  8
DEFPOINTS
 62
     0
100
AcDbPoint
 10
154.151
 20
473.203141
 30
0.0
  0
POINT
  5
1C11
330
18E0
100
AcDbEntity
  8
DEFPOINTS
 62
     0
100
AcDbPoint
 10
106.15
 20
553.203141
 30
0.0
  0
POINT
  5
1C12
330
18E0
100
AcDbEntity
  8
DEFPOINTS
 62
     0
100
AcDbPoint
 10
41.459
 20
553.203141
 30
0.0
  0
ENDBLK
  5
1A3D
330
18E0
100
AcDbEntity
  8
0
100
AcDbBlockEnd
  0
BLOCK
  5
1A6C
330
1A50
100
AcDbEntity
  8
0
100
AcDbBlockBegin
  2
*D27
 70
     1
 10
0.0
 20
0.0
 30
0.0
  3
*D27
  1
GEVFRAME
  0
LINE
  5
1BE2
330
1A50
100
AcDbEntity
  8
5
370
    -2
100
AcDbLine
 10
297.151
 20
558.2031409999999
 30
0.0
 11
297.151
 21
608.204142
 31
0.0
  0
LINE
  5
1BE3
330
1A50
100
AcDbEntity
  8
5
370
    -2
100
AcDbLine
 10
281.150948
 20
558.2031409999999
 30
0.0
 11
281.150948
 21
608.204142
 31
0.0
  0
LINE
  5
1BE4
330
1A50
100
AcDbEntity
  8
5
370
    -2
100
AcDbLine
 10
322.151
 20
603.204142
 30
0.0
 11
347.151
 21
603.204142
 31
0.0
  0
LINE
  5
1BE5
330
1A50
100
AcDbEntity
  8
5
370
    -2
100
AcDbLine
 10
256.150948
 20
603.204142
 30
0.0
 11
208.5328377637795
 21
603.204142
 31
0.0
  0
LINE
  5
1BE6
330
1A50
100
AcDbEntity
  8
5
370
    -2
100
AcDbLine
 10
297.151
 20
603.204142
 30
0.0
 11
281.150948
 21
603.204142
 31
0.0
  0
SOLID
  5
1BE7
330
1A50
100
AcDbEntity
  8
5
100
AcDbTrace
 10
322.151
 20
607.3708086666666
 30
0.0
 11
322.151
 21
599.0374753333334
 31
0.0
 12
297.151
 22
603.204142
 32
0.0
 13
297.151
 23
603.204142
 33
0.0
  0
SOLID
  5
1BE8
330
1A50
100
AcDbEntity
  8
5
100
AcDbTrace
 10
256.150948
 20
607.3708086666666
 30
0.0
 11
256.150948
 21
599.0374753333334
 31
0.0
 12
281.150948
 22
603.204142
 32
0.0
 13
281.150948
 23
603.204142
 33
0.0
  0
MTEXT
  5
1BE9
330
1A50
100
AcDbEntity
  8
5
 62
     2
100
AcDbMText
 10
219.8418928818897
 20
614.954142
 30
0.0
 40
17.5
 41
0.0
 71
     5
 72
     1
  1
16
 73
     1
 44
1.0
1001
ACAD
1000
MTEXTBEGIN
1070
    73
1070
     1
1070
    44
1040
1.0
1070
    74
1070
     0
1000
MTEXTEND
  0
POINT
  5
1BEA
330
1A50
100
AcDbEntity
  8
DEFPOINTS
 62
     0
100
AcDbPoint
 10
297.151
 20
553.203141
 30
0.0
  0
POINT
  5
1BEB
330
1A50
100
AcDbEntity
  8
DEFPOINTS
 62
     0
100
AcDbPoint
 10
281.150948
 20
553.203141
 30
0.0
  0
POINT
  5
1BEC
330
1A50
100
AcDbEntity
  8
DEFPOINTS
 62
     0
100
AcDbPoint
 10
281.150948
 20
603.204142
 30
0.0
  0
ENDBLK
  5
1A78
330
1A50
100
AcDbEntity
  8
0
100
AcDbBlockEnd
  0
BLOCK
  5
1AE5
330
1AC0
100
AcDbEntity
  8
0
100
AcDbBlockBegin
  2
*D31
 70
     1
 10
0.0
 20
0.0
 30
0.0
  3
*D31
  1
GEVFRAME
  0
LINE
  5
1BF8
330
1AC0
100
AcDbEntity
  8
5
370
    -2
100
AcDbLine
 10
407.1509999999999
 20
553.203141
 30
0.0
 11
508.7260950000001
 21
553.203141
 31
0.0
  0
LINE
  5
1BF9
330
1AC0
100
AcDbEntity
  8
5
370
    -2
100
AcDbLine
 10
359.151
 20
473.203141
 30
0.0
 11
508.7260950000001
 21
473.2031409999999
 31
0.0
  0
LINE
  5
1BFA
330
1AC0
100
AcDbEntity
  8
5
370
    -2
100
AcDbLine
 10
503.7260950000001
 20
528.203141
 30
0.0
 11
503.7260950000001
 21
498.2031409999999
 31
0.0
  0
SOLID
  5
1BFB
330
1AC0
100
AcDbEntity
  8
5
100
AcDbTrace
 10
499.5594283333334
 20
528.203141
 30
0.0
 11
507.8927616666668
 21
528.203141
 31
0.0
 12
503.7260950000001
 22
553.203141
 32
0.0
 13
503.7260950000001
 23
553.203141
 33
0.0
  0
SOLID
  5
1BFC
330
1AC0
100
AcDbEntity
  8
5
100
AcDbTrace
 10
499.5594283333334
 20
498.2031409999999
 30
0.0
 11
507.8927616666668
 21
498.2031409999999
 31
0.0
 12
503.7260950000001
 22
473.2031409999999
 32
0.0
 13
503.7260950000001
 23
473.2031409999999
 33
0.0
  0
MTEXT
  5
1BFD
330
1AC0
100
AcDbEntity
  8
5
 62
     2
100
AcDbMText
 10
491.976095
 20
514.8781579999999
 30
0.0
 40
17.5
 41
0.0
 71
     5
 72
     1
  1
80
 11
0.0000000000000001
 21
1.0
 31
0.0
 73
     1
 44
1.0
1001
ACAD
1000
MTEXTBEGIN
1070
    73
1070
     1
1070
    44
1040
1.0
1070
    74
1070
     0
1000
MTEXTEND
  0
POINT
  5
1BFE
330
1AC0
100
AcDbEntity
  8
DEFPOINTS
 62
     0
100
AcDbPoint
 10
402.151
 20
553.203141
 30
0.0
  0
POINT
  5
1BFF
330
1AC0
100
AcDbEntity
  8
DEFPOINTS
 62
     0
100
AcDbPoint
 10
354.151
 20
473.203141
 30
0.0
  0
POINT
  5
1C00
330
1AC0
100
AcDbEntity
  8
DEFPOINTS
 62
     0
100
AcDbPoint
 10
503.7260950000001
 20
473.2031409999999
 30
0.0
  0
ENDBLK
  5
1AEF
330
1AC0
100
AcDbEntity
  8
0
100
AcDbBlockEnd
  0
BLOCK
  5
1BC4
330
1BC2
100
AcDbEntity
  8
0
100
AcDbBlockBegin
  2
GENAXEH
 70
     0
 10
0.0
 20
0.0
 30
0.0
  3
GENAXEH
  1

  0
LINE
  5
1BC3
330
1BC2
100
AcDbEntity
  8
0
100
AcDbLine
 10
-1.0
 20
0.0
 30
0.0
 11
1.0
 21
0.0
 31
0.0
  0
ENDBLK
  5
1BC5
330
1BC2
100
AcDbEntity
  8
0
100
AcDbBlockEnd
  0
ENDSEC
  0
SECTION
  2
ENTITIES
  0
LINE
  5
1001
330
161F
100
AcDbEntity
  8
7
100
AcDbLine
 10
254.151
 20
557.357141
 30
0.0
 11
254.151
 21
463.2711409999999
 31
0.0
  0
LINE
  5
1002
330
161F
100
AcDbEntity
  8
0
100
AcDbLine
 10
118.151
 20
553.203141
 30
0.0
 11
254.151
 21
553.203141
 31
0.0
  0
LINE
  5
1003
330
161F
100
AcDbEntity
  8
0
100
AcDbLine
 10
234.516
 20
503.203141
 30
0.0
 11
238.785
 21
503.203141
 31
0.0
  0
LINE
  5
1004
330
161F
100
AcDbEntity
  8
0
100
AcDbLine
 10
246.151
 20
553.203141
 30
0.0
 11
243.779
 21
507.942141
 31
0.0
  0
LINE
  5
1005
330
161F
100
AcDbEntity
  8
0
100
AcDbLine
 10
227.15
 20
553.203141
 30
0.0
 11
229.522
 21
507.942141
 31
0.0
  0
ARC
  5
1006
330
161F
100
AcDbEntity
  8
0
100
AcDbCircle
 10
238.785
 20
508.2031409999999
 30
0.0
 40
5.0
100
AcDbArc
 50
269.999
 51
357.0
  0
ARC
  5
1007
330
161F
100
AcDbEntity
  8
0
100
AcDbCircle
 10
234.516
 20
508.2031409999999
 30
0.0
 40
5.0
100
AcDbArc
 50
183.0
 51
269.999
  0
LINE
  5
1008
330
161F
100
AcDbEntity
  8
0
100
AcDbLine
 10
199.516
 20
503.203141
 30
0.0
 11
203.785
 21
503.203141
 31
0.0
  0
LINE
  5
1009
330
161F
100
AcDbEntity
  8
0
100
AcDbLine
 10
211.151
 20
553.203141
 30
0.0
 11
208.779
 21
507.942141
 31
0.0
  0
LINE
  5
100A
330
161F
100
AcDbEntity
  8
0
100
AcDbLine
 10
192.15
 20
553.203141
 30
0.0
 11
194.522
 21
507.942141
 31
0.0
  0
ARC
  5
100B
330
161F
100
AcDbEntity
  8
0
100
AcDbCircle
 10
203.785
 20
508.2031409999999
 30
0.0
 40
5.0
100
AcDbArc
 50
269.999
 51
357.0
  0
ARC
  5
100C
330
161F
100
AcDbEntity
  8
0
100
AcDbCircle
 10
199.516
 20
508.2031409999999
 30
0.0
 40
5.0
100
AcDbArc
 50
183.0
 51
269.999
  0
LINE
  5
100D
330
161F
100
AcDbEntity
  8
0
100
AcDbLine
 10
164.516
 20
503.203141
 30
0.0
 11
168.785
 21
503.203141
 31
0.0
  0
LINE
  5
100E
330
161F
100
AcDbEntity
  8
0
100
AcDbLine
 10
176.151
 20
553.203141
 30
0.0
 11
173.779
 21
507.942141
 31
0.0
  0
LINE
  5
100F
330
161F
100
AcDbEntity
  8
0
100
AcDbLine
 10
157.15
 20
553.203141
 30
0.0
 11
159.522
 21
507.942141
 31
0.0
  0
ARC
  5
1010
330
161F
100
AcDbEntity
  8
0
100
AcDbCircle
 10
168.785
 20
508.2031409999999
 30
0.0
 40
5.0
100
AcDbArc
 50
269.999
 51
357.0
  0
ARC
  5
1011
330
161F
100
AcDbEntity
  8
0
100
AcDbCircle
 10
164.516
 20
508.2031409999999
 30
0.0
 40
5.0
100
AcDbArc
 50
183.0
 51
269.999
  0
LINE
  5
1012
330
161F
100
AcDbEntity
  8
0
100
AcDbLine
 10
121.726
 20
523.2031409999999
 30
0.0
 11
158.723
 21
523.2031409999999
 31
0.0
  0
LINE
  5
1013
330
161F
100
AcDbEntity
  8
3A
100
AcDbLine
 10
121.673
 20
524.203141
 30
0.0
 11
139.63
 21
524.203141
 31
0.0
  0
LINE
  5
1014
330
161F
100
AcDbEntity
  8
0
100
AcDbLine
 10
141.151
 20
553.203141
 30
0.0
 11
139.578
 21
523.204141
 31
0.0
  0
LINE
  5
1015
330
161F
100
AcDbEntity
  8
0
100
AcDbLine
 10
118.15
 20
553.203141
 30
0.0
 11
118.779
 21
541.200141
 31
0.0
  0
LINE
  5
1016
330
161F
100
AcDbEntity
  8
0
100
AcDbLine
 10
120.881
 20
539.3081409999999
 30
0.0
 11
121.725
 21
523.2031409999999
 31
0.0
  0
LINE
  5
1017
330
161F
100
AcDbEntity
  8
0
100
AcDbLine
 10
118.779
 20
541.2031409999999
 30
0.0
 11
118.884
 21
541.2031409999999
 31
0.0
  0
ARC
  5
1018
330
161F
100
AcDbEntity
  8
0
100
AcDbCircle
 10
118.884
 20
539.2031409999999
 30
0.0
 40
2.0
100
AcDbArc
 50
3.0
 51
89.99700000000002
  0
LINE
  5
1019
330
161F
100
AcDbEntity
  8
3A
 48
0.9919999999999999
100
AcDbLine
 10
162.726
 20
524.203141
 30
0.0
 11
174.63
 21
524.203141
 31
0.0
  0
LINE
  5
101A
330
161F
100
AcDbEntity
  8
3A
 48
0.118
100
AcDbLine
 10
161.726
 20
523.2031409999999
 30
0.0
 11
162.726
 21
524.203141
 31
0.0
  0
LINE
  5
101B
330
161F
100
AcDbEntity
  8
3A
 48
0.118
100
AcDbLine
 10
234.151
 20
523.2031409999999
 30
0.0
 11
233.151
 21
524.203141
 31
0.0
  0
LINE
  5
101C
330
161F
100
AcDbEntity
  8
3A
 48
0.8690000000000001
100
AcDbLine
 10
234.151
 20
523.2031409999999
 30
0.0
 11
244.578
 21
523.2031409999999
 31
0.0
  0
LINE
  5
101D
330
161F
100
AcDbEntity
  8
3A
 48
0.25
100
AcDbLine
 10
158.723
 20
523.2031409999999
 30
0.0
 11
161.726
 21
523.2031409999999
 31
0.0
  0
LINE
  5
101E
330
161F
100
AcDbEntity
  8
3A
100
AcDbLine
 10
193.671
 20
524.203141
 30
0.0
 11
209.63
 21
524.203141
 31
0.0
  0
LINE
  5
101F
330
161F
100
AcDbEntity
  8
0
100
AcDbLine
 10
174.63
 20
524.203141
 30
0.0
 11
193.671
 21
524.203141
 31
0.0
  0
LINE
  5
1020
330
161F
100
AcDbEntity
  8
0
100
AcDbLine
 10
209.63
 20
524.203141
 30
0.0
 11
228.671
 21
524.203141
 31
0.0
  0
LINE
  5
1021
330
161F
100
AcDbEntity
  8
3A
 48
0.373
100
AcDbLine
 10
228.671
 20
524.203141
 30
0.0
 11
233.151
 21
524.203141
 31
0.0
  0
LINE
  5
1022
330
161F
100
AcDbEntity
  8
0
100
AcDbLine
 10
244.578
 20
523.2031409999999
 30
0.0
 11
254.151
 21
523.2031409999999
 31
0.0
  0
LINE
  5
1023
330
161F
100
AcDbEntity
  8
0
100
AcDbLine
 10
390.151
 20
553.203141
 30
0.0
 11
254.151
 21
553.203141
 31
0.0
  0
LINE
  5
1024
330
161F
100
AcDbEntity
  8
0
100
AcDbLine
 10
273.785
 20
503.203141
 30
0.0
 11
269.516
 21
503.203141
 31
0.0
  0
LINE
  5
1025
330
161F
100
AcDbEntity
  8
0
100
AcDbLine
 10
262.151
 20
553.203141
 30
0.0
 11
264.523
 21
507.942141
 31
0.0
  0
LINE
  5
1026
330
161F
100
AcDbEntity
  8
0
100
AcDbLine
 10
281.151
 20
553.204141
 30
0.0
 11
278.779
 21
507.942141
 31
0.0
  0
ARC
  5
1027
330
161F
100
AcDbEntity
  8
0
100
AcDbCircle
 10
269.516
 20
508.2031409999999
 30
0.0
 40
5.0
100
AcDbArc
 50
183.0
 51
270.001
  0
ARC
  5
1028
330
161F
100
AcDbEntity
  8
0
100
AcDbCircle
 10
273.785
 20
508.2031409999999
 30
0.0
 40
5.0
100
AcDbArc
 50
270.001
 51
357.0
  0
LINE
  5
1029
330
161F
100
AcDbEntity
  8
0
100
AcDbLine
 10
308.785
 20
503.203141
 30
0.0
 11
304.516
 21
503.203141
 31
0.0
  0
LINE
  5
102A
330
161F
100
AcDbEntity
  8
0
100
AcDbLine
 10
297.151
 20
553.203141
 30
0.0
 11
299.523
 21
507.941141
 31
0.0
  0
LINE
  5
102B
330
161F
100
AcDbEntity
  8
0
100
AcDbLine
 10
316.151
 20
553.203141
 30
0.0
 11
313.779
 21
507.942141
 31
0.0
  0
ARC
  5
102C
330
161F
100
AcDbEntity
  8
0
100
AcDbCircle
 10
304.516
 20
508.2031409999999
 30
0.0
 40
5.0
100
AcDbArc
 50
183.0
 51
270.001
  0
ARC
  5
102D
330
161F
100
AcDbEntity
  8
0
100
AcDbCircle
 10
308.785
 20
508.2031409999999
 30
0.0
 40
5.0
100
AcDbArc
 50
270.001
 51
357.0
  0
LINE
  5
102E
330
161F
100
AcDbEntity
  8
0
100
AcDbLine
 10
343.785
 20
503.203141
 30
0.0
 11
339.516
 21
503.203141
 31
0.0
  0
LINE
  5
102F
330
161F
100
AcDbEntity
  8
0
100
AcDbLine
 10
332.151
 20
553.203141
 30
0.0
 11
334.523
 21
507.942141
 31
0.0
  0
LINE
  5
1030
330
161F
100
AcDbEntity
  8
0
100
AcDbLine
 10
351.151
 20
553.204141
 30
0.0
 11
348.779
 21
507.942141
 31
0.0
  0
ARC
  5
1031
330
161F
100
AcDbEntity
  8
0
100
AcDbCircle
 10
339.516
 20
508.2031409999999
 30
0.0
 40
5.0
100
AcDbArc
 50
183.0
 51
270.001
  0
ARC
  5
1032
330
161F
100
AcDbEntity
  8
0
100
AcDbCircle
 10
343.785
 20
508.2031409999999
 30
0.0
 40
5.0
100
AcDbArc
 50
270.001
 51
357.0
  0
LINE
  5
1033
330
161F
100
AcDbEntity
  8
0
100
AcDbLine
 10
386.576
 20
523.2031409999999
 30
0.0
 11
349.579
 21
523.2031409999999
 31
0.0
  0
LINE
  5
1034
330
161F
100
AcDbEntity
  8
3A
100
AcDbLine
 10
386.6280000000001
 20
524.203141
 30
0.0
 11
368.671
 21
524.203141
 31
0.0
  0
LINE
  5
1035
330
161F
100
AcDbEntity
  8
0
100
AcDbLine
 10
367.151
 20
553.203141
 30
0.0
 11
368.723
 21
523.2031409999999
 31
0.0
  0
LINE
  5
1036
330
161F
100
AcDbEntity
  8
0
100
AcDbLine
 10
390.151
 20
553.204141
 30
0.0
 11
389.522
 21
541.2011409999999
 31
0.0
  0
LINE
  5
1037
330
161F
100
AcDbEntity
  8
0
100
AcDbLine
 10
387.42
 20
539.3081409999999
 30
0.0
 11
386.576
 21
523.204141
 31
0.0
  0
LINE
  5
1038
330
161F
100
AcDbEntity
  8
0
100
AcDbLine
 10
389.522
 20
541.2031409999999
 30
0.0
 11
389.417
 21
541.2031409999999
 31
0.0
  0
ARC
  5
1039
330
161F
100
AcDbEntity
  8
0
100
AcDbCircle
 10
389.417
 20
539.2031409999999
 30
0.0
 40
2.0
100
AcDbArc
 50
90.00299999999999
 51
177.0
  0
LINE
  5
103A
330
161F
100
AcDbEntity
  8
3A
 48
0.9919999999999999
100
AcDbLine
 10
345.575
 20
524.203141
 30
0.0
 11
333.671
 21
524.203141
 31
0.0
  0
LINE
  5
103B
330
161F
100
AcDbEntity
  8
3A
 48
0.118
100
AcDbLine
 10
346.5759999999999
 20
523.2031409999999
 30
0.0
 11
345.575
 21
524.203141
 31
0.0
  0
LINE
  5
103C
330
161F
100
AcDbEntity
  8
3A
 48
0.118
100
AcDbLine
 10
274.151
 20
523.2031409999999
 30
0.0
 11
275.151
 21
524.203141
 31
0.0
  0
LINE
  5
103D
330
161F
100
AcDbEntity
  8
3A
 48
0.8690000000000001
100
AcDbLine
 10
274.151
 20
523.2031409999999
 30
0.0
 11
263.723
 21
523.2031409999999
 31
0.0
  0
LINE
  5
103E
330
161F
100
AcDbEntity
  8
3A
 48
0.25
100
AcDbLine
 10
349.579
 20
523.2031409999999
 30
0.0
 11
346.5759999999999
 21
523.2031409999999
 31
0.0
  0
LINE
  5
103F
330
161F
100
AcDbEntity
  8
3A
100
AcDbLine
 10
314.631
 20
524.203141
 30
0.0
 11
298.671
 21
524.203141
 31
0.0
  0
LINE
  5
1040
330
161F
100
AcDbEntity
  8
0
100
AcDbLine
 10
333.671
 20
524.203141
 30
0.0
 11
314.631
 21
524.203141
 31
0.0
  0
LINE
  5
1041
330
161F
100
AcDbEntity
  8
0
100
AcDbLine
 10
298.671
 20
524.203141
 30
0.0
 11
279.631
 21
524.203141
 31
0.0
  0
LINE
  5
1042
330
161F
100
AcDbEntity
  8
3A
 48
0.373
100
AcDbLine
 10
279.631
 20
524.203141
 30
0.0
 11
275.151
 21
524.203141
 31
0.0
  0
LINE
  5
1043
330
161F
100
AcDbEntity
  8
0
100
AcDbLine
 10
263.723
 20
523.2031409999999
 30
0.0
 11
254.151
 21
523.2031409999999
 31
0.0
  0
LINE
  5
1044
330
161F
100
AcDbEntity
  8
0
100
AcDbLine
 10
163.032
 20
468.203141
 30
0.0
 11
254.151
 21
468.203141
 31
0.0
  0
LINE
  5
1045
330
161F
100
AcDbEntity
  8
0
100
AcDbLine
 10
154.151
 20
473.203141
 30
0.0
 11
162.151
 21
473.203141
 31
0.0
  0
LINE
  5
1046
330
161F
100
AcDbEntity
  8
0
100
AcDbLine
 10
161.651
 20
478.203141
 30
0.0
 11
254.151
 21
478.203141
 31
0.0
  0
LINE
  5
1047
330
161F
100
AcDbEntity
  8
0
100
AcDbLine
 10
168.827
 20
474.369141
 30
0.0
 11
169.15
 21
468.203141
 31
0.0
  0
LINE
  5
1048
330
161F
100
AcDbEntity
  8
0
100
AcDbLine
 10
162.151
 20
473.203141
 30
0.0
 11
163.032
 21
468.203141
 31
0.0
  0
LINE
  5
1049
330
161F
100
AcDbEntity
  8
0
100
AcDbLine
 10
136.635
 20
491.2031409999999
 30
0.0
 11
140.889
 21
491.2031409999999
 31
0.0
  0
LINE
  5
104A
330
161F
100
AcDbEntity
  8
0
100
AcDbLine
 10
143.317
 20
489.885141
 30
0.0
 11
154.151
 21
473.203141
 31
0.0
  0
LINE
  5
104B
330
161F
100
AcDbEntity
  8
0
100
AcDbLine
 10
161.264
 20
485.565141
 30
0.0
 11
161.65
 21
478.203141
 31
0.0
  0
LINE
  5
104C
330
161F
100
AcDbEntity
  8
0
100
AcDbLine
 10
254.151
 20
522.2031409999999
 30
0.0
 11
244.526
 21
522.2031409999999
 31
0.0
  0
LINE
  5
104D
330
161F
100
AcDbEntity
  8
0
100
AcDbLine
 10
116.15
 20
553.203141
 30
0.0
 11
117.775
 21
522.2031409999999
 31
0.0
  0
LINE
  5
104E
330
161F
100
AcDbEntity
  8
0
100
AcDbLine
 10
118.151
 20
553.203141
 30
0.0
 11
106.151
 21
553.203141
 31
0.0
  0
LINE
  5
104F
330
161F
100
AcDbEntity
  8
0
100
AcDbLine
 10
158.775
 20
522.2031409999999
 30
0.0
 11
117.775
 21
522.2031409999999
 31
0.0
  0
LINE
  5
1050
330
161F
100
AcDbEntity
  8
3A
100
AcDbLine
 10
174.526
 20
522.2031409999999
 30
0.0
 11
158.775
 21
522.2031409999999
 31
0.0
  0
LINE
  5
1051
330
161F
100
AcDbEntity
  8
0
100
AcDbLine
 10
193.775
 20
522.2031409999999
 30
0.0
 11
174.526
 21
522.2031409999999
 31
0.0
  0
LINE
  5
1052
330
161F
100
AcDbEntity
  8
3A
100
AcDbLine
 10
209.526
 20
522.2031409999999
 30
0.0
 11
193.775
 21
522.2031409999999
 31
0.0
  0
LINE
  5
1053
330
161F
100
AcDbEntity
  8
0
100
AcDbLine
 10
228.775
 20
522.2031409999999
 30
0.0
 11
209.526
 21
522.2031409999999
 31
0.0
  0
LINE
  5
1054
330
161F
100
AcDbEntity
  8
3A
100
AcDbLine
 10
244.526
 20
522.2031409999999
 30
0.0
 11
228.775
 21
522.2031409999999
 31
0.0
  0
LINE
  5
1055
330
161F
100
AcDbEntity
  8
0
100
AcDbLine
 10
140.15
 20
522.2031409999999
 30
0.0
 11
142.223
 21
507.454141
 31
0.0
  0
LINE
  5
1056
330
161F
100
AcDbEntity
  8
0
100
AcDbLine
 10
145.055
 20
501.774141
 30
0.0
 11
165.912
 21
480.917141
 31
0.0
  0
ARC
  5
1057
330
161F
100
AcDbEntity
  8
0
100
AcDbCircle
 10
152.126
 20
508.845141
 30
0.0
 40
10.0
100
AcDbArc
 50
188.0
 51
225.001
  0
ARC
  5
1058
330
161F
100
AcDbEntity
  8
0
100
AcDbCircle
 10
158.841
 20
473.846141
 30
0.0
 40
10.0
100
AcDbArc
 50
3.0
 51
45.0
  0
LINE
  5
1059
330
161F
100
AcDbEntity
  8
0
100
AcDbLine
 10
132.503
 20
504.2451409999999
 30
0.0
 11
134.484
 21
493.008141
 31
0.0
  0
ARC
  5
105A
330
161F
100
AcDbEntity
  8
0
100
AcDbCircle
 10
136.635
 20
493.387141
 30
0.0
 40
2.184
100
AcDbArc
 50
190.0
 51
270.0
  0
ARC
  5
105B
330
161F
100
AcDbEntity
  8
0
100
AcDbCircle
 10
140.889
 20
488.308141
 30
0.0
 40
2.896
100
AcDbArc
 50
33.0
 51
90.0
  0
LINE
  5
105C
330
161F
100
AcDbEntity
  8
0
100
AcDbLine
 10
241.651
 20
485.565141
 30
0.0
 11
254.151
 21
485.565141
 31
0.0
  0
LINE
  5
105D
330
161F
100
AcDbEntity
  8
0
100
AcDbLine
 10
241.651
 20
485.565141
 30
0.0
 11
241.651
 21
478.203141
 31
0.0
  0
LINE
  5
105E
330
161F
100
AcDbEntity
  8
0
100
AcDbLine
 10
345.269
 20
468.203141
 30
0.0
 11
254.151
 21
468.203141
 31
0.0
  0
LINE
  5
105F
330
161F
100
AcDbEntity
  8
0
100
AcDbLine
 10
354.151
 20
473.203141
 30
0.0
 11
346.151
 21
473.203141
 31
0.0
  0
LINE
  5
1060
330
161F
100
AcDbEntity
  8
0
100
AcDbLine
 10
346.651
 20
478.203141
 30
0.0
 11
254.151
 21
478.203141
 31
0.0
  0
LINE
  5
1061
330
161F
100
AcDbEntity
  8
0
100
AcDbLine
 10
339.474
 20
474.369141
 30
0.0
 11
339.151
 21
468.203141
 31
0.0
  0
LINE
  5
1062
330
161F
100
AcDbEntity
  8
0
100
AcDbLine
 10
346.15
 20
473.203141
 30
0.0
 11
345.269
 21
468.203141
 31
0.0
  0
LINE
  5
1063
330
161F
100
AcDbEntity
  8
0
100
AcDbLine
 10
371.666
 20
491.2031409999999
 30
0.0
 11
367.412
 21
491.2031409999999
 31
0.0
  0
LINE
  5
1064
330
161F
100
AcDbEntity
  8
0
100
AcDbLine
 10
364.983
 20
489.885141
 30
0.0
 11
354.15
 21
473.203141
 31
0.0
  0
LINE
  5
1065
330
161F
100
AcDbEntity
  8
0
100
AcDbLine
 10
347.036
 20
485.565141
 30
0.0
 11
346.651
 21
478.203141
 31
0.0
  0
LINE
  5
1066
330
161F
100
AcDbEntity
  8
0
100
AcDbLine
 10
254.151
 20
522.2031409999999
 30
0.0
 11
263.775
 21
522.2031409999999
 31
0.0
  0
LINE
  5
1067
330
161F
100
AcDbEntity
  8
0
100
AcDbLine
 10
392.15
 20
553.203141
 30
0.0
 11
390.526
 21
522.2031409999999
 31
0.0
  0
LINE
  5
1068
330
161F
100
AcDbEntity
  8
0
100
AcDbLine
 10
390.151
 20
553.203141
 30
0.0
 11
402.151
 21
553.203141
 31
0.0
  0
LINE
  5
1069
330
161F
100
AcDbEntity
  8
3A
100
AcDbLine
 10
404.457
 20
509.203141
 30
0.0
 11
403.7659999999999
 21
522.386141
 31
0.0
  0
LINE
  5
106A
330
161F
100
AcDbEntity
  8
0
100
AcDbLine
 10
349.526
 20
522.2031409999999
 30
0.0
 11
390.526
 21
522.2031409999999
 31
0.0
  0
LINE
  5
106B
330
161F
100
AcDbEntity
  8
0
100
AcDbLine
 10
314.526
 20
522.2031409999999
 30
0.0
 11
333.775
 21
522.2031409999999
 31
0.0
  0
LINE
  5
106C
330
161F
100
AcDbEntity
  8
0
100
AcDbLine
 10
279.526
 20
522.2031409999999
 30
0.0
 11
298.775
 21
522.2031409999999
 31
0.0
  0
LINE
  5
106D
330
161F
100
AcDbEntity
  8
0
100
AcDbLine
 10
368.151
 20
522.2031409999999
 30
0.0
 11
366.078
 21
507.454141
 31
0.0
  0
LINE
  5
106E
330
161F
100
AcDbEntity
  8
0
100
AcDbLine
 10
363.246
 20
501.774141
 30
0.0
 11
342.389
 21
480.917141
 31
0.0
  0
ARC
  5
106F
330
161F
100
AcDbEntity
  8
0
100
AcDbCircle
 10
356.175
 20
508.845141
 30
0.0
 40
10.0
100
AcDbArc
 50
314.999
 51
352.0
  0
ARC
  5
1070
330
161F
100
AcDbEntity
  8
0
100
AcDbCircle
 10
349.46
 20
473.846141
 30
0.0
 40
10.0
100
AcDbArc
 50
135.0
 51
177.0
  0
LINE
  5
1071
330
161F
100
AcDbEntity
  8
0
100
AcDbLine
 10
375.798
 20
504.2451409999999
 30
0.0
 11
373.817
 21
493.008141
 31
0.0
  0
ARC
  5
1072
330
161F
100
AcDbEntity
  8
0
100
AcDbCircle
 10
371.666
 20
493.387141
 30
0.0
 40
2.184
100
AcDbArc
 50
270.0
 51
350.0
  0
ARC
  5
1073
330
161F
100
AcDbEntity
  8
0
100
AcDbCircle
 10
367.412
 20
488.308141
 30
0.0
 40
2.896
100
AcDbArc
 50
90.0
 51
147.0
  0
LINE
  5
1074
330
161F
100
AcDbEntity
  8
0
100
AcDbLine
 10
266.651
 20
485.565141
 30
0.0
 11
254.151
 21
485.565141
 31
0.0
  0
LINE
  5
1075
330
161F
100
AcDbEntity
  8
0
100
AcDbLine
 10
266.651
 20
485.565141
 30
0.0
 11
266.651
 21
478.203141
 31
0.0
  0
LINE
  5
1076
330
161F
100
AcDbEntity
  8
3A
100
AcDbLine
 10
263.775
 20
522.2031409999999
 30
0.0
 11
279.526
 21
522.2031409999999
 31
0.0
  0
LINE
  5
1077
330
161F
100
AcDbEntity
  8
3A
100
AcDbLine
 10
298.775
 20
522.2031409999999
 30
0.0
 11
314.526
 21
522.2031409999999
 31
0.0
  0
LINE
  5
1078
330
161F
100
AcDbEntity
  8
3A
100
AcDbLine
 10
333.775
 20
522.2031409999999
 30
0.0
 11
349.526
 21
522.2031409999999
 31
0.0
  0
LINE
  5
1079
330
161F
100
AcDbEntity
  8
0
100
AcDbLine
 10
381.707
 20
509.203141
 30
0.0
 11
419.823
 21
509.203141
 31
0.0
  0
LINE
  5
107A
330
161F
100
AcDbEntity
  8
0
100
AcDbLine
 10
419.208
 20
513.955141
 30
0.0
 11
419.4569999999999
 21
509.203141
 31
0.0
  0
LINE
  5
107B
330
161F
100
AcDbEntity
  8
0
100
AcDbLine
 10
409.443
 20
516.709141
 30
0.0
 11
416.842
 21
516.321141
 31
0.0
  0
ARC
  5
107C
330
161F
100
AcDbEntity
  8
0
100
AcDbCircle
 10
409.7569999999999
 20
522.700141
 30
0.0
 40
6.0
100
AcDbArc
 50
183.0
 51
267.0
  0
ARC
  5
107D
330
161F
100
AcDbEntity
  8
0
100
AcDbCircle
 10
381.707
 20
503.203141
 30
0.0
 40
6.0
100
AcDbArc
 50
90.0
 51
170.0
  0
ARC
  5
107E
330
161F
100
AcDbEntity
  8
0
100
AcDbCircle
 10
416.711
 20
513.824141
 30
0.0
 40
2.5
100
AcDbArc
 50
3.0
 51
87.0
  0
LINE
  5
107F
330
161F
100
AcDbEntity
  8
3A
100
AcDbLine
 10
103.845
 20
509.203141
 30
0.0
 11
104.535
 21
522.386141
 31
0.0
  0
LINE
  5
1080
330
161F
100
AcDbEntity
  8
0
100
AcDbLine
 10
126.594
 20
509.203141
 30
0.0
 11
88.47799999999999
 21
509.203141
 31
0.0
  0
LINE
  5
1081
330
161F
100
AcDbEntity
  8
0
100
AcDbLine
 10
89.09399999999999
 20
513.955141
 30
0.0
 11
88.84399999999999
 21
509.203141
 31
0.0
  0
LINE
  5
1082
330
161F
100
AcDbEntity
  8
0
100
AcDbLine
 10
98.85799999999999
 20
516.709141
 30
0.0
 11
91.45900000000001
 21
516.321141
 31
0.0
  0
ARC
  5
1083
330
161F
100
AcDbEntity
  8
0
100
AcDbCircle
 10
98.544
 20
522.700141
 30
0.0
 40
6.0
100
AcDbArc
 50
273.0
 51
357.0
  0
ARC
  5
1084
330
161F
100
AcDbEntity
  8
0
100
AcDbCircle
 10
126.594
 20
503.203141
 30
0.0
 40
6.0
100
AcDbArc
 50
10.0
 51
90.0
  0
ARC
  5
1085
330
161F
100
AcDbEntity
  8
0
100
AcDbCircle
 10
91.59
 20
513.824141
 30
0.0
 40
2.5
100
AcDbArc
 50
93.0
 51
177.0
  0
LINE
  5
1086
330
161F
100
AcDbEntity
  8
0
100
AcDbLine
 10
403.7659999999999
 20
522.386141
 30
0.0
 11
402.151
 21
553.203141
 31
0.0
  0
LINE
  5
1087
330
161F
100
AcDbEntity
  8
0
100
AcDbLine
 10
104.535
 20
522.386141
 30
0.0
 11
106.15
 21
553.203141
 31
0.0
  0
POLYLINE
  5
109C
330
161F
100
AcDbEntity
  8
SCHRAFFUR_RAND
100
AcDb2dPolyline
 66
     1
 10
0.0
 20
0.0
 30
0.0
 70
     1
  0
VERTEX
  5
109D
330
109C
100
AcDbEntity
  8
SCHRAFFUR_RAND
100
AcDbVertex
100
AcDb2dVertex
 10
141.151
 20
553.203141
 30
0.0
  0
VERTEX
  5
109E
330
109C
100
AcDbEntity
  8
SCHRAFFUR_RAND
100
AcDbVertex
100
AcDb2dVertex
 10
118.151
 20
553.203141
 30
0.0
  0
VERTEX
  5
109F
330
109C
100
AcDbEntity
  8
SCHRAFFUR_RAND
100
AcDbVertex
100
AcDb2dVertex
 10
118.78
 20
541.200141
 30
0.0
  0
VERTEX
  5
10A0
330
109C
100
AcDbEntity
  8
SCHRAFFUR_RAND
100
AcDbVertex
100
AcDb2dVertex
 10
119.9
 20
541.034141
 30
0.0
  0
VERTEX
  5
10A1
330
109C
100
AcDbEntity
  8
SCHRAFFUR_RAND
100
AcDbVertex
100
AcDb2dVertex
 10
120.66
 20
540.3121409999999
 30
0.0
  0
VERTEX
  5
10A2
330
109C
100
AcDbEntity
  8
SCHRAFFUR_RAND
100
AcDbVertex
100
AcDb2dVertex
 10
120.882
 20
539.3081409999999
 30
0.0
  0
VERTEX
  5
10A3
330
109C
100
AcDbEntity
  8
SCHRAFFUR_RAND
100
AcDbVertex
100
AcDb2dVertex
 10
121.726
 20
523.2031409999999
 30
0.0
  0
VERTEX
  5
10A4
330
109C
100
AcDbEntity
  8
SCHRAFFUR_RAND
100
AcDbVertex
100
AcDb2dVertex
 10
139.579
 20
523.2031409999999
 30
0.0
  0
VERTEX
  5
10A5
330
109C
100
AcDbEntity
  8
SCHRAFFUR_RAND
100
AcDbVertex
100
AcDb2dVertex
 10
141.151
 20
553.203141
 30
0.0
  0
SEQEND
  5
10A6
330
109C
100
AcDbEntity
  8
SCHRAFFUR_RAND
  0
INSERT
  5
10B4
330
161F
100
AcDbEntity
  8
8
100
AcDbBlockReference
  2
*X0
 10
0.0
 20
42.623141
 30
0.0
1001
ACAD
1000
HATCH
1002
{
1070
    19
1000
ANSI31,_I
1040
3.174999999999999
1040
0.7850000000000001
1002
}
  0
POLYLINE
  5
10B5
330
161F
100
AcDbEntity
  8
SCHRAFFUR_RAND
100
AcDb2dPolyline
 66
     1
 10
0.0
 20
0.0
 30
0.0
 70
     1
  0
VERTEX
  5
10B6
330
10B5
100
AcDbEntity
  8
SCHRAFFUR_RAND
100
AcDbVertex
100
AcDb2dVertex
 10
176.151
 20
553.203141
 30
0.0
  0
VERTEX
  5
10B7
330
10B5
100
AcDbEntity
  8
SCHRAFFUR_RAND
100
AcDbVertex
100
AcDb2dVertex
 10
157.151
 20
553.203141
 30
0.0
  0
VERTEX
  5
10B8
330
10B5
100
AcDbEntity
  8
SCHRAFFUR_RAND
100
AcDbVertex
100
AcDb2dVertex
 10
158.723
 20
523.2031409999999
 30
0.0
  0
VERTEX
  5
10B9
330
10B5
100
AcDbEntity
  8
SCHRAFFUR_RAND
100
AcDbVertex
100
AcDb2dVertex
 10
159.523
 20
507.941141
 30
0.0
  0
VERTEX
  5
10BA
330
10B5
100
AcDbEntity
  8
SCHRAFFUR_RAND
100
AcDbVertex
100
AcDb2dVertex
 10
159.89
 20
506.070141
 30
0.0
  0
VERTEX
  5
10BB
330
10B5
100
AcDbEntity
  8
SCHRAFFUR_RAND
100
AcDbVertex
100
AcDb2dVertex
 10
161.01
 20
504.508141
 30
0.0
  0
VERTEX
  5
10BC
330
10B5
100
AcDbEntity
  8
SCHRAFFUR_RAND
100
AcDbVertex
100
AcDb2dVertex
 10
162.629
 20
503.472141
 30
0.0
  0
VERTEX
  5
10BD
330
10B5
100
AcDbEntity
  8
SCHRAFFUR_RAND
100
AcDbVertex
100
AcDb2dVertex
 10
164.516
 20
503.203141
 30
0.0
  0
VERTEX
  5
10BE
330
10B5
100
AcDbEntity
  8
SCHRAFFUR_RAND
100
AcDbVertex
100
AcDb2dVertex
 10
168.785
 20
503.203141
 30
0.0
  0
VERTEX
  5
10BF
330
10B5
100
AcDbEntity
  8
SCHRAFFUR_RAND
100
AcDbVertex
100
AcDb2dVertex
 10
170.673
 20
503.472141
 30
0.0
  0
VERTEX
  5
10C0
330
10B5
100
AcDbEntity
  8
SCHRAFFUR_RAND
100
AcDbVertex
100
AcDb2dVertex
 10
172.292
 20
504.508141
 30
0.0
  0
VERTEX
  5
10C1
330
10B5
100
AcDbEntity
  8
SCHRAFFUR_RAND
100
AcDbVertex
100
AcDb2dVertex
 10
173.411
 20
506.070141
 30
0.0
  0
VERTEX
  5
10C2
330
10B5
100
AcDbEntity
  8
SCHRAFFUR_RAND
100
AcDbVertex
100
AcDb2dVertex
 10
173.779
 20
507.941141
 30
0.0
  0
VERTEX
  5
10C3
330
10B5
100
AcDbEntity
  8
SCHRAFFUR_RAND
100
AcDbVertex
100
AcDb2dVertex
 10
174.63
 20
524.203141
 30
0.0
  0
VERTEX
  5
10C4
330
10B5
100
AcDbEntity
  8
SCHRAFFUR_RAND
100
AcDbVertex
100
AcDb2dVertex
 10
176.151
 20
553.203141
 30
0.0
  0
SEQEND
  5
10C5
330
10B5
100
AcDbEntity
  8
SCHRAFFUR_RAND
  0
INSERT
  5
10D6
330
161F
100
AcDbEntity
  8
8
100
AcDbBlockReference
  2
*X1
 10
0.0
 20
42.623141
 30
0.0
1001
ACAD
1000
HATCH
1002
{
1070
    19
1000
ANSI31,_I
1040
3.174999999999999
1040
0.7850000000000001
1002
}
  0
POLYLINE
  5
10D7
330
161F
100
AcDbEntity
  8
SCHRAFFUR_RAND
100
AcDb2dPolyline
 66
     1
 10
0.0
 20
0.0
 30
0.0
 70
     1
  0
VERTEX
  5
10D8
330
10D7
100
AcDbEntity
  8
SCHRAFFUR_RAND
100
AcDbVertex
100
AcDb2dVertex
 10
211.151
 20
553.203141
 30
0.0
  0
VERTEX
  5
10D9
330
10D7
100
AcDbEntity
  8
SCHRAFFUR_RAND
100
AcDbVertex
100
AcDb2dVertex
 10
192.1509999999999
 20
553.203141
 30
0.0
  0
VERTEX
  5
10DA
330
10D7
100
AcDbEntity
  8
SCHRAFFUR_RAND
100
AcDbVertex
100
AcDb2dVertex
 10
193.671
 20
524.203141
 30
0.0
  0
VERTEX
  5
10DB
330
10D7
100
AcDbEntity
  8
SCHRAFFUR_RAND
100
AcDbVertex
100
AcDb2dVertex
 10
194.523
 20
507.941141
 30
0.0
  0
VERTEX
  5
10DC
330
10D7
100
AcDbEntity
  8
SCHRAFFUR_RAND
100
AcDbVertex
100
AcDb2dVertex
 10
194.89
 20
506.070141
 30
0.0
  0
VERTEX
  5
10DD
330
10D7
100
AcDbEntity
  8
SCHRAFFUR_RAND
100
AcDbVertex
100
AcDb2dVertex
 10
196.01
 20
504.508141
 30
0.0
  0
VERTEX
  5
10DE
330
10D7
100
AcDbEntity
  8
SCHRAFFUR_RAND
100
AcDbVertex
100
AcDb2dVertex
 10
197.629
 20
503.472141
 30
0.0
  0
VERTEX
  5
10DF
330
10D7
100
AcDbEntity
  8
SCHRAFFUR_RAND
100
AcDbVertex
100
AcDb2dVertex
 10
199.516
 20
503.203141
 30
0.0
  0
VERTEX
  5
10E0
330
10D7
100
AcDbEntity
  8
SCHRAFFUR_RAND
100
AcDbVertex
100
AcDb2dVertex
 10
203.785
 20
503.203141
 30
0.0
  0
VERTEX
  5
10E1
330
10D7
100
AcDbEntity
  8
SCHRAFFUR_RAND
100
AcDbVertex
100
AcDb2dVertex
 10
205.673
 20
503.472141
 30
0.0
  0
VERTEX
  5
10E2
330
10D7
100
AcDbEntity
  8
SCHRAFFUR_RAND
100
AcDbVertex
100
AcDb2dVertex
 10
207.292
 20
504.508141
 30
0.0
  0
VERTEX
  5
10E3
330
10D7
100
AcDbEntity
  8
SCHRAFFUR_RAND
100
AcDbVertex
100
AcDb2dVertex
 10
208.411
 20
506.070141
 30
0.0
  0
VERTEX
  5
10E4
330
10D7
100
AcDbEntity
  8
SCHRAFFUR_RAND
100
AcDbVertex
100
AcDb2dVertex
 10
208.779
 20
507.942141
 30
0.0
  0
VERTEX
  5
10E5
330
10D7
100
AcDbEntity
  8
SCHRAFFUR_RAND
100
AcDbVertex
100
AcDb2dVertex
 10
209.63
 20
524.203141
 30
0.0
  0
VERTEX
  5
10E6
330
10D7
100
AcDbEntity
  8
SCHRAFFUR_RAND
100
AcDbVertex
100
AcDb2dVertex
 10
211.151
 20
553.203141
 30
0.0
  0
SEQEND
  5
10E7
330
10D7
100
AcDbEntity
  8
SCHRAFFUR_RAND
  0
INSERT
  5
10F8
330
161F
100
AcDbEntity
  8
8
100
AcDbBlockReference
  2
*X2
 10
0.0
 20
42.623141
 30
0.0
1001
ACAD
1000
HATCH
1002
{
1070
    19
1000
ANSI31,_I
1040
3.174999999999999
1040
0.7850000000000001
1002
}
  0
POLYLINE
  5
10F9
330
161F
100
AcDbEntity
  8
SCHRAFFUR_RAND
100
AcDb2dPolyline
 66
     1
 10
0.0
 20
0.0
 30
0.0
 70
     1
  0
VERTEX
  5
10FA
330
10F9
100
AcDbEntity
  8
SCHRAFFUR_RAND
100
AcDbVertex
100
AcDb2dVertex
 10
246.151
 20
553.203141
 30
0.0
  0
VERTEX
  5
10FB
330
10F9
100
AcDbEntity
  8
SCHRAFFUR_RAND
100
AcDbVertex
100
AcDb2dVertex
 10
227.151
 20
553.203141
 30
0.0
  0
VERTEX
  5
10FC
330
10F9
100
AcDbEntity
  8
SCHRAFFUR_RAND
100
AcDbVertex
100
AcDb2dVertex
 10
228.671
 20
524.203141
 30
0.0
  0
VERTEX
  5
10FD
330
10F9
100
AcDbEntity
  8
SCHRAFFUR_RAND
100
AcDbVertex
100
AcDb2dVertex
 10
229.523
 20
507.941141
 30
0.0
  0
VERTEX
  5
10FE
330
10F9
100
AcDbEntity
  8
SCHRAFFUR_RAND
100
AcDbVertex
100
AcDb2dVertex
 10
229.89
 20
506.070141
 30
0.0
  0
VERTEX
  5
10FF
330
10F9
100
AcDbEntity
  8
SCHRAFFUR_RAND
100
AcDbVertex
100
AcDb2dVertex
 10
231.01
 20
504.508141
 30
0.0
  0
VERTEX
  5
1100
330
10F9
100
AcDbEntity
  8
SCHRAFFUR_RAND
100
AcDbVertex
100
AcDb2dVertex
 10
232.629
 20
503.472141
 30
0.0
  0
VERTEX
  5
1101
330
10F9
100
AcDbEntity
  8
SCHRAFFUR_RAND
100
AcDbVertex
100
AcDb2dVertex
 10
234.516
 20
503.203141
 30
0.0
  0
VERTEX
  5
1102
330
10F9
100
AcDbEntity
  8
SCHRAFFUR_RAND
100
AcDbVertex
100
AcDb2dVertex
 10
238.785
 20
503.203141
 30
0.0
  0
VERTEX
  5
1103
330
10F9
100
AcDbEntity
  8
SCHRAFFUR_RAND
100
AcDbVertex
100
AcDb2dVertex
 10
240.673
 20
503.472141
 30
0.0
  0
VERTEX
  5
1104
330
10F9
100
AcDbEntity
  8
SCHRAFFUR_RAND
100
AcDbVertex
100
AcDb2dVertex
 10
242.292
 20
504.508141
 30
0.0
  0
VERTEX
  5
1105
330
10F9
100
AcDbEntity
  8
SCHRAFFUR_RAND
100
AcDbVertex
100
AcDb2dVertex
 10
243.411
 20
506.070141
 30
0.0
  0
VERTEX
  5
1106
330
10F9
100
AcDbEntity
  8
SCHRAFFUR_RAND
100
AcDbVertex
100
AcDb2dVertex
 10
243.779
 20
507.942141
 30
0.0
  0
VERTEX
  5
1107
330
10F9
100
AcDbEntity
  8
SCHRAFFUR_RAND
100
AcDbVertex
100
AcDb2dVertex
 10
244.578
 20
523.2031409999999
 30
0.0
  0
VERTEX
  5
1108
330
10F9
100
AcDbEntity
  8
SCHRAFFUR_RAND
100
AcDbVertex
100
AcDb2dVertex
 10
246.151
 20
553.203141
 30
0.0
  0
SEQEND
  5
1109
330
10F9
100
AcDbEntity
  8
SCHRAFFUR_RAND
  0
INSERT
  5
1119
330
161F
100
AcDbEntity
  8
8
100
AcDbBlockReference
  2
*X3
 10
0.0
 20
42.623141
 30
0.0
1001
ACAD
1000
HATCH
1002
{
1070
    19
1000
ANSI31,_I
1040
3.174999999999999
1040
0.7850000000000001
1002
}
  0
POLYLINE
  5
111A
330
161F
100
AcDbEntity
  8
SCHRAFFUR_RAND
100
AcDb2dPolyline
 66
     1
 10
0.0
 20
0.0
 30
0.0
 70
     1
  0
VERTEX
  5
111B
330
111A
100
AcDbEntity
  8
SCHRAFFUR_RAND
100
AcDbVertex
100
AcDb2dVertex
 10
262.151
 20
553.203141
 30
0.0
  0
VERTEX
  5
111C
330
111A
100
AcDbEntity
  8
SCHRAFFUR_RAND
100
AcDbVertex
100
AcDb2dVertex
 10
263.723
 20
523.2031409999999
 30
0.0
  0
VERTEX
  5
111D
330
111A
100
AcDbEntity
  8
SCHRAFFUR_RAND
100
AcDbVertex
100
AcDb2dVertex
 10
264.523
 20
507.941141
 30
0.0
  0
VERTEX
  5
111E
330
111A
100
AcDbEntity
  8
SCHRAFFUR_RAND
100
AcDbVertex
100
AcDb2dVertex
 10
264.89
 20
506.070141
 30
0.0
  0
VERTEX
  5
111F
330
111A
100
AcDbEntity
  8
SCHRAFFUR_RAND
100
AcDbVertex
100
AcDb2dVertex
 10
266.01
 20
504.508141
 30
0.0
  0
VERTEX
  5
1120
330
111A
100
AcDbEntity
  8
SCHRAFFUR_RAND
100
AcDbVertex
100
AcDb2dVertex
 10
267.629
 20
503.472141
 30
0.0
  0
VERTEX
  5
1121
330
111A
100
AcDbEntity
  8
SCHRAFFUR_RAND
100
AcDbVertex
100
AcDb2dVertex
 10
269.516
 20
503.203141
 30
0.0
  0
VERTEX
  5
1122
330
111A
100
AcDbEntity
  8
SCHRAFFUR_RAND
100
AcDbVertex
100
AcDb2dVertex
 10
273.785
 20
503.203141
 30
0.0
  0
VERTEX
  5
1123
330
111A
100
AcDbEntity
  8
SCHRAFFUR_RAND
100
AcDbVertex
100
AcDb2dVertex
 10
275.673
 20
503.472141
 30
0.0
  0
VERTEX
  5
1124
330
111A
100
AcDbEntity
  8
SCHRAFFUR_RAND
100
AcDbVertex
100
AcDb2dVertex
 10
277.292
 20
504.508141
 30
0.0
  0
VERTEX
  5
1125
330
111A
100
AcDbEntity
  8
SCHRAFFUR_RAND
100
AcDbVertex
100
AcDb2dVertex
 10
278.411
 20
506.070141
 30
0.0
  0
VERTEX
  5
1126
330
111A
100
AcDbEntity
  8
SCHRAFFUR_RAND
100
AcDbVertex
100
AcDb2dVertex
 10
278.779
 20
507.942141
 30
0.0
  0
VERTEX
  5
1127
330
111A
100
AcDbEntity
  8
SCHRAFFUR_RAND
100
AcDbVertex
100
AcDb2dVertex
 10
279.631
 20
524.203141
 30
0.0
  0
VERTEX
  5
1128
330
111A
100
AcDbEntity
  8
SCHRAFFUR_RAND
100
AcDbVertex
100
AcDb2dVertex
 10
281.151
 20
553.203141
 30
0.0
  0
VERTEX
  5
1129
330
111A
100
AcDbEntity
  8
SCHRAFFUR_RAND
100
AcDbVertex
100
AcDb2dVertex
 10
262.151
 20
553.203141
 30
0.0
  0
SEQEND
  5
112A
330
111A
100
AcDbEntity
  8
SCHRAFFUR_RAND
  0
INSERT
  5
113A
330
161F
100
AcDbEntity
  8
8
100
AcDbBlockReference
  2
*X4
 10
0.0
 20
42.623141
 30
0.0
1001
ACAD
1000
HATCH
1002
{
1070
    19
1000
ANSI31,_I
1040
3.174999999999999
1040
0.7850000000000001
1002
}
  0
POLYLINE
  5
113B
330
161F
100
AcDbEntity
  8
SCHRAFFUR_RAND
100
AcDb2dPolyline
 66
     1
 10
0.0
 20
0.0
 30
0.0
 70
     1
  0
VERTEX
  5
113C
330
113B
100
AcDbEntity
  8
SCHRAFFUR_RAND
100
AcDbVertex
100
AcDb2dVertex
 10
298.671
 20
524.203141
 30
0.0
  0
VERTEX
  5
113D
330
113B
100
AcDbEntity
  8
SCHRAFFUR_RAND
100
AcDbVertex
100
AcDb2dVertex
 10
299.523
 20
507.941141
 30
0.0
  0
VERTEX
  5
113E
330
113B
100
AcDbEntity
  8
SCHRAFFUR_RAND
100
AcDbVertex
100
AcDb2dVertex
 10
299.89
 20
506.070141
 30
0.0
  0
VERTEX
  5
113F
330
113B
100
AcDbEntity
  8
SCHRAFFUR_RAND
100
AcDbVertex
100
AcDb2dVertex
 10
301.01
 20
504.508141
 30
0.0
  0
VERTEX
  5
1140
330
113B
100
AcDbEntity
  8
SCHRAFFUR_RAND
100
AcDbVertex
100
AcDb2dVertex
 10
302.629
 20
503.472141
 30
0.0
  0
VERTEX
  5
1141
330
113B
100
AcDbEntity
  8
SCHRAFFUR_RAND
100
AcDbVertex
100
AcDb2dVertex
 10
304.516
 20
503.203141
 30
0.0
  0
VERTEX
  5
1142
330
113B
100
AcDbEntity
  8
SCHRAFFUR_RAND
100
AcDbVertex
100
AcDb2dVertex
 10
308.785
 20
503.203141
 30
0.0
  0
VERTEX
  5
1143
330
113B
100
AcDbEntity
  8
SCHRAFFUR_RAND
100
AcDbVertex
100
AcDb2dVertex
 10
310.673
 20
503.472141
 30
0.0
  0
VERTEX
  5
1144
330
113B
100
AcDbEntity
  8
SCHRAFFUR_RAND
100
AcDbVertex
100
AcDb2dVertex
 10
312.2920000000001
 20
504.508141
 30
0.0
  0
VERTEX
  5
1145
330
113B
100
AcDbEntity
  8
SCHRAFFUR_RAND
100
AcDbVertex
100
AcDb2dVertex
 10
313.411
 20
506.070141
 30
0.0
  0
VERTEX
  5
1146
330
113B
100
AcDbEntity
  8
SCHRAFFUR_RAND
100
AcDbVertex
100
AcDb2dVertex
 10
313.779
 20
507.942141
 30
0.0
  0
VERTEX
  5
1147
330
113B
100
AcDbEntity
  8
SCHRAFFUR_RAND
100
AcDbVertex
100
AcDb2dVertex
 10
314.631
 20
524.203141
 30
0.0
  0
VERTEX
  5
1148
330
113B
100
AcDbEntity
  8
SCHRAFFUR_RAND
100
AcDbVertex
100
AcDb2dVertex
 10
316.151
 20
553.203141
 30
0.0
  0
VERTEX
  5
1149
330
113B
100
AcDbEntity
  8
SCHRAFFUR_RAND
100
AcDbVertex
100
AcDb2dVertex
 10
297.151
 20
553.203141
 30
0.0
  0
VERTEX
  5
114A
330
113B
100
AcDbEntity
  8
SCHRAFFUR_RAND
100
AcDbVertex
100
AcDb2dVertex
 10
298.671
 20
524.203141
 30
0.0
  0
SEQEND
  5
114B
330
113B
100
AcDbEntity
  8
SCHRAFFUR_RAND
  0
INSERT
  5
115C
330
161F
100
AcDbEntity
  8
8
100
AcDbBlockReference
  2
*X5
 10
0.0
 20
42.623141
 30
0.0
1001
ACAD
1000
HATCH
1002
{
1070
    19
1000
ANSI31,_I
1040
3.174999999999999
1040
0.7850000000000001
1002
}
  0
POLYLINE
  5
115D
330
161F
100
AcDbEntity
  8
SCHRAFFUR_RAND
100
AcDb2dPolyline
 66
     1
 10
0.0
 20
0.0
 30
0.0
 70
     1
  0
VERTEX
  5
115E
330
115D
100
AcDbEntity
  8
SCHRAFFUR_RAND
100
AcDbVertex
100
AcDb2dVertex
 10
333.671
 20
524.203141
 30
0.0
  0
VERTEX
  5
115F
330
115D
100
AcDbEntity
  8
SCHRAFFUR_RAND
100
AcDbVertex
100
AcDb2dVertex
 10
334.523
 20
507.941141
 30
0.0
  0
VERTEX
  5
1160
330
115D
100
AcDbEntity
  8
SCHRAFFUR_RAND
100
AcDbVertex
100
AcDb2dVertex
 10
334.89
 20
506.070141
 30
0.0
  0
VERTEX
  5
1161
330
115D
100
AcDbEntity
  8
SCHRAFFUR_RAND
100
AcDbVertex
100
AcDb2dVertex
 10
336.01
 20
504.508141
 30
0.0
  0
VERTEX
  5
1162
330
115D
100
AcDbEntity
  8
SCHRAFFUR_RAND
100
AcDbVertex
100
AcDb2dVertex
 10
337.629
 20
503.472141
 30
0.0
  0
VERTEX
  5
1163
330
115D
100
AcDbEntity
  8
SCHRAFFUR_RAND
100
AcDbVertex
100
AcDb2dVertex
 10
339.516
 20
503.203141
 30
0.0
  0
VERTEX
  5
1164
330
115D
100
AcDbEntity
  8
SCHRAFFUR_RAND
100
AcDbVertex
100
AcDb2dVertex
 10
343.785
 20
503.203141
 30
0.0
  0
VERTEX
  5
1165
330
115D
100
AcDbEntity
  8
SCHRAFFUR_RAND
100
AcDbVertex
100
AcDb2dVertex
 10
345.673
 20
503.472141
 30
0.0
  0
VERTEX
  5
1166
330
115D
100
AcDbEntity
  8
SCHRAFFUR_RAND
100
AcDbVertex
100
AcDb2dVertex
 10
347.292
 20
504.508141
 30
0.0
  0
VERTEX
  5
1167
330
115D
100
AcDbEntity
  8
SCHRAFFUR_RAND
100
AcDbVertex
100
AcDb2dVertex
 10
348.411
 20
506.070141
 30
0.0
  0
VERTEX
  5
1168
330
115D
100
AcDbEntity
  8
SCHRAFFUR_RAND
100
AcDbVertex
100
AcDb2dVertex
 10
348.779
 20
507.942141
 30
0.0
  0
VERTEX
  5
1169
330
115D
100
AcDbEntity
  8
SCHRAFFUR_RAND
100
AcDbVertex
100
AcDb2dVertex
 10
349.579
 20
523.2031409999999
 30
0.0
  0
VERTEX
  5
116A
330
115D
100
AcDbEntity
  8
SCHRAFFUR_RAND
100
AcDbVertex
100
AcDb2dVertex
 10
351.151
 20
553.203141
 30
0.0
  0
VERTEX
  5
116B
330
115D
100
AcDbEntity
  8
SCHRAFFUR_RAND
100
AcDbVertex
100
AcDb2dVertex
 10
332.151
 20
553.203141
 30
0.0
  0
VERTEX
  5
116C
330
115D
100
AcDbEntity
  8
SCHRAFFUR_RAND
100
AcDbVertex
100
AcDb2dVertex
 10
333.671
 20
524.203141
 30
0.0
  0
SEQEND
  5
116D
330
115D
100
AcDbEntity
  8
SCHRAFFUR_RAND
  0
INSERT
  5
117E
330
161F
100
AcDbEntity
  8
8
100
AcDbBlockReference
  2
*X6
 10
0.0
 20
42.623141
 30
0.0
1001
ACAD
1000
HATCH
1002
{
1070
    19
1000
ANSI31,_I
1040
3.174999999999999
1040
0.7850000000000001
1002
}
  0
POLYLINE
  5
11A8
330
161F
100
AcDbEntity
  8
SCHRAFFUR_RAND
100
AcDb2dPolyline
 66
     1
 10
0.0
 20
0.0
 30
0.0
 70
     1
  0
VERTEX
  5
11A9
330
11A8
100
AcDbEntity
  8
SCHRAFFUR_RAND
100
AcDbVertex
100
AcDb2dVertex
 10
390.151
 20
553.203141
 30
0.0
  0
VERTEX
  5
11AA
330
11A8
100
AcDbEntity
  8
SCHRAFFUR_RAND
100
AcDbVertex
100
AcDb2dVertex
 10
367.151
 20
553.203141
 30
0.0
  0
VERTEX
  5
11AB
330
11A8
100
AcDbEntity
  8
SCHRAFFUR_RAND
100
AcDbVertex
100
AcDb2dVertex
 10
368.723
 20
523.2031409999999
 30
0.0
  0
VERTEX
  5
11AC
330
11A8
100
AcDbEntity
  8
SCHRAFFUR_RAND
100
AcDbVertex
100
AcDb2dVertex
 10
386.576
 20
523.2031409999999
 30
0.0
  0
VERTEX
  5
11AD
330
11A8
100
AcDbEntity
  8
SCHRAFFUR_RAND
100
AcDbVertex
100
AcDb2dVertex
 10
387.42
 20
539.3081409999999
 30
0.0
  0
VERTEX
  5
11AE
330
11A8
100
AcDbEntity
  8
SCHRAFFUR_RAND
100
AcDbVertex
100
AcDb2dVertex
 10
387.499
 20
539.8081409999999
 30
0.0
  0
VERTEX
  5
11AF
330
11A8
100
AcDbEntity
  8
SCHRAFFUR_RAND
100
AcDbVertex
100
AcDb2dVertex
 10
387.711
 20
540.268141
 30
0.0
  0
VERTEX
  5
11B0
330
11A8
100
AcDbEntity
  8
SCHRAFFUR_RAND
100
AcDbVertex
100
AcDb2dVertex
 10
388.033
 20
540.661141
 30
0.0
  0
VERTEX
  5
11B1
330
11A8
100
AcDbEntity
  8
SCHRAFFUR_RAND
100
AcDbVertex
100
AcDb2dVertex
 10
388.442
 20
540.9621409999999
 30
0.0
  0
VERTEX
  5
11B2
330
11A8
100
AcDbEntity
  8
SCHRAFFUR_RAND
100
AcDbVertex
100
AcDb2dVertex
 10
388.913
 20
541.1501409999999
 30
0.0
  0
VERTEX
  5
11B3
330
11A8
100
AcDbEntity
  8
SCHRAFFUR_RAND
100
AcDbVertex
100
AcDb2dVertex
 10
389.417
 20
541.2031409999999
 30
0.0
  0
VERTEX
  5
11B4
330
11A8
100
AcDbEntity
  8
SCHRAFFUR_RAND
100
AcDbVertex
100
AcDb2dVertex
 10
389.522
 20
541.2011409999999
 30
0.0
  0
VERTEX
  5
11B5
330
11A8
100
AcDbEntity
  8
SCHRAFFUR_RAND
100
AcDbVertex
100
AcDb2dVertex
 10
390.151
 20
553.203141
 30
0.0
  0
SEQEND
  5
11B6
330
11A8
100
AcDbEntity
  8
SCHRAFFUR_RAND
  0
INSERT
  5
11C3
330
161F
100
AcDbEntity
  8
8
100
AcDbBlockReference
  2
*X7
 10
0.0
 20
42.623141
 30
0.0
1001
ACAD
1000
HATCH
1002
{
1070
    19
1000
ANSI31,_I
1040
3.174999999999999
1040
0.7850000000000001
1002
}
  0
POLYLINE
  5
11C4
330
161F
100
AcDbEntity
  8
SCHRAFFUR_RAND
100
AcDb2dPolyline
 66
     1
 10
0.0
 20
0.0
 30
0.0
 70
     1
  0
VERTEX
  5
11C5
330
11C4
100
AcDbEntity
  8
SCHRAFFUR_RAND
100
AcDbVertex
100
AcDb2dVertex
 10
116.151
 20
553.203141
 30
0.0
  0
VERTEX
  5
11C6
330
11C4
100
AcDbEntity
  8
SCHRAFFUR_RAND
100
AcDbVertex
100
AcDb2dVertex
 10
106.151
 20
553.203141
 30
0.0
  0
VERTEX
  5
11C7
330
11C4
100
AcDbEntity
  8
SCHRAFFUR_RAND
100
AcDbVertex
100
AcDb2dVertex
 10
104.536
 20
522.386141
 30
0.0
  0
VERTEX
  5
11C8
330
11C4
100
AcDbEntity
  8
SCHRAFFUR_RAND
100
AcDbVertex
100
AcDb2dVertex
 10
104.141
 20
520.209141
 30
0.0
  0
VERTEX
  5
11C9
330
11C4
100
AcDbEntity
  8
SCHRAFFUR_RAND
100
AcDbVertex
100
AcDb2dVertex
 10
102.876
 20
518.368141
 30
0.0
  0
VERTEX
  5
11CA
330
11C4
100
AcDbEntity
  8
SCHRAFFUR_RAND
100
AcDbVertex
100
AcDb2dVertex
 10
101.036
 20
517.1041409999999
 30
0.0
  0
VERTEX
  5
11CB
330
11C4
100
AcDbEntity
  8
SCHRAFFUR_RAND
100
AcDbVertex
100
AcDb2dVertex
 10
98.85799999999999
 20
516.709141
 30
0.0
  0
VERTEX
  5
11CC
330
11C4
100
AcDbEntity
  8
SCHRAFFUR_RAND
100
AcDbVertex
100
AcDb2dVertex
 10
91.45900000000001
 20
516.321141
 30
0.0
  0
VERTEX
  5
11CD
330
11C4
100
AcDbEntity
  8
SCHRAFFUR_RAND
100
AcDbVertex
100
AcDb2dVertex
 10
90.23700000000001
 20
516.076141
 30
0.0
  0
VERTEX
  5
11CE
330
11C4
100
AcDbEntity
  8
SCHRAFFUR_RAND
100
AcDbVertex
100
AcDb2dVertex
 10
89.33899999999999
 20
515.177141
 30
0.0
  0
VERTEX
  5
11CF
330
11C4
100
AcDbEntity
  8
SCHRAFFUR_RAND
100
AcDbVertex
100
AcDb2dVertex
 10
89.09399999999999
 20
513.955141
 30
0.0
  0
VERTEX
  5
11D0
330
11C4
100
AcDbEntity
  8
SCHRAFFUR_RAND
100
AcDbVertex
100
AcDb2dVertex
 10
88.845
 20
509.203141
 30
0.0
  0
VERTEX
  5
11D1
330
11C4
100
AcDbEntity
  8
SCHRAFFUR_RAND
100
AcDbVertex
100
AcDb2dVertex
 10
126.594
 20
509.203141
 30
0.0
  0
VERTEX
  5
11D2
330
11C4
100
AcDbEntity
  8
SCHRAFFUR_RAND
100
AcDbVertex
100
AcDb2dVertex
 10
129.343
 20
508.678141
 30
0.0
  0
VERTEX
  5
11D3
330
11C4
100
AcDbEntity
  8
SCHRAFFUR_RAND
100
AcDbVertex
100
AcDb2dVertex
 10
131.508
 20
506.861141
 30
0.0
  0
VERTEX
  5
11D4
330
11C4
100
AcDbEntity
  8
SCHRAFFUR_RAND
100
AcDbVertex
100
AcDb2dVertex
 10
132.503
 20
504.244141
 30
0.0
  0
VERTEX
  5
11D5
330
11C4
100
AcDbEntity
  8
SCHRAFFUR_RAND
100
AcDbVertex
100
AcDb2dVertex
 10
134.484
 20
493.008141
 30
0.0
  0
VERTEX
  5
11D6
330
11C4
100
AcDbEntity
  8
SCHRAFFUR_RAND
100
AcDbVertex
100
AcDb2dVertex
 10
135.232
 20
491.714141
 30
0.0
  0
VERTEX
  5
11D7
330
11C4
100
AcDbEntity
  8
SCHRAFFUR_RAND
100
AcDbVertex
100
AcDb2dVertex
 10
136.635
 20
491.2031409999999
 30
0.0
  0
VERTEX
  5
11D8
330
11C4
100
AcDbEntity
  8
SCHRAFFUR_RAND
100
AcDbVertex
100
AcDb2dVertex
 10
140.889
 20
491.2031409999999
 30
0.0
  0
VERTEX
  5
11D9
330
11C4
100
AcDbEntity
  8
SCHRAFFUR_RAND
100
AcDbVertex
100
AcDb2dVertex
 10
142.271
 20
490.852141
 30
0.0
  0
VERTEX
  5
11DA
330
11C4
100
AcDbEntity
  8
SCHRAFFUR_RAND
100
AcDbVertex
100
AcDb2dVertex
 10
143.317
 20
489.885141
 30
0.0
  0
VERTEX
  5
11DB
330
11C4
100
AcDbEntity
  8
SCHRAFFUR_RAND
100
AcDbVertex
100
AcDb2dVertex
 10
154.151
 20
473.203141
 30
0.0
  0
VERTEX
  5
11DC
330
11C4
100
AcDbEntity
  8
SCHRAFFUR_RAND
100
AcDbVertex
100
AcDb2dVertex
 10
162.151
 20
473.203141
 30
0.0
  0
VERTEX
  5
11DD
330
11C4
100
AcDbEntity
  8
SCHRAFFUR_RAND
100
AcDbVertex
100
AcDb2dVertex
 10
163.032
 20
468.203141
 30
0.0
  0
VERTEX
  5
11DE
330
11C4
100
AcDbEntity
  8
SCHRAFFUR_RAND
100
AcDbVertex
100
AcDb2dVertex
 10
169.151
 20
468.203141
 30
0.0
  0
VERTEX
  5
11DF
330
11C4
100
AcDbEntity
  8
SCHRAFFUR_RAND
100
AcDbVertex
100
AcDb2dVertex
 10
168.828
 20
474.3701409999999
 30
0.0
  0
VERTEX
  5
11E0
330
11C4
100
AcDbEntity
  8
SCHRAFFUR_RAND
100
AcDbVertex
100
AcDb2dVertex
 10
168.525
 20
476.807141
 30
0.0
  0
VERTEX
  5
11E1
330
11C4
100
AcDbEntity
  8
SCHRAFFUR_RAND
100
AcDbVertex
100
AcDb2dVertex
 10
167.903
 20
478.203141
 30
0.0
  0
VERTEX
  5
11E2
330
11C4
100
AcDbEntity
  8
SCHRAFFUR_RAND
100
AcDbVertex
100
AcDb2dVertex
 10
161.651
 20
478.203141
 30
0.0
  0
VERTEX
  5
11E3
330
11C4
100
AcDbEntity
  8
SCHRAFFUR_RAND
100
AcDbVertex
100
AcDb2dVertex
 10
161.265
 20
485.565141
 30
0.0
  0
VERTEX
  5
11E4
330
11C4
100
AcDbEntity
  8
SCHRAFFUR_RAND
100
AcDbVertex
100
AcDb2dVertex
 10
145.055
 20
501.774141
 30
0.0
  0
VERTEX
  5
11E5
330
11C4
100
AcDbEntity
  8
SCHRAFFUR_RAND
100
AcDbVertex
100
AcDb2dVertex
 10
143.177
 20
504.383141
 30
0.0
  0
VERTEX
  5
11E6
330
11C4
100
AcDbEntity
  8
SCHRAFFUR_RAND
100
AcDbVertex
100
AcDb2dVertex
 10
142.223
 20
507.454141
 30
0.0
  0
VERTEX
  5
11E7
330
11C4
100
AcDbEntity
  8
SCHRAFFUR_RAND
100
AcDbVertex
100
AcDb2dVertex
 10
140.151
 20
522.2031409999999
 30
0.0
  0
VERTEX
  5
11E8
330
11C4
100
AcDbEntity
  8
SCHRAFFUR_RAND
100
AcDbVertex
100
AcDb2dVertex
 10
117.776
 20
522.2031409999999
 30
0.0
  0
VERTEX
  5
11E9
330
11C4
100
AcDbEntity
  8
SCHRAFFUR_RAND
100
AcDbVertex
100
AcDb2dVertex
 10
116.151
 20
553.203141
 30
0.0
  0
SEQEND
  5
11EA
330
11C4
100
AcDbEntity
  8
SCHRAFFUR_RAND
  0
INSERT
  5
1205
330
161F
100
AcDbEntity
  8
8
100
AcDbBlockReference
  2
*X8
 10
0.0
 20
42.623141
 30
0.0
1001
ACAD
1000
HATCH
1002
{
1070
    19
1000
ANSI31,_I
1040
3.174999999999999
1040
-0.7850000000000001
1002
}
  0
POLYLINE
  5
1206
330
161F
100
AcDbEntity
  8
SCHRAFFUR_RAND
100
AcDb2dPolyline
 66
     1
 10
0.0
 20
0.0
 30
0.0
 70
     1
  0
VERTEX
  5
1207
330
1206
100
AcDbEntity
  8
SCHRAFFUR_RAND
100
AcDbVertex
100
AcDb2dVertex
 10
339.151
 20
468.203141
 30
0.0
  0
VERTEX
  5
1208
330
1206
100
AcDbEntity
  8
SCHRAFFUR_RAND
100
AcDbVertex
100
AcDb2dVertex
 10
345.269
 20
468.203141
 30
0.0
  0
VERTEX
  5
1209
330
1206
100
AcDbEntity
  8
SCHRAFFUR_RAND
100
AcDbVertex
100
AcDb2dVertex
 10
346.151
 20
473.203141
 30
0.0
  0
VERTEX
  5
120A
330
1206
100
AcDbEntity
  8
SCHRAFFUR_RAND
100
AcDbVertex
100
AcDb2dVertex
 10
354.151
 20
473.203141
 30
0.0
  0
VERTEX
  5
120B
330
1206
100
AcDbEntity
  8
SCHRAFFUR_RAND
100
AcDbVertex
100
AcDb2dVertex
 10
364.983
 20
489.885141
 30
0.0
  0
VERTEX
  5
120C
330
1206
100
AcDbEntity
  8
SCHRAFFUR_RAND
100
AcDbVertex
100
AcDb2dVertex
 10
366.031
 20
490.852141
 30
0.0
  0
VERTEX
  5
120D
330
1206
100
AcDbEntity
  8
SCHRAFFUR_RAND
100
AcDbVertex
100
AcDb2dVertex
 10
367.412
 20
491.2031409999999
 30
0.0
  0
VERTEX
  5
120E
330
1206
100
AcDbEntity
  8
SCHRAFFUR_RAND
100
AcDbVertex
100
AcDb2dVertex
 10
371.666
 20
491.2031409999999
 30
0.0
  0
VERTEX
  5
120F
330
1206
100
AcDbEntity
  8
SCHRAFFUR_RAND
100
AcDbVertex
100
AcDb2dVertex
 10
373.07
 20
491.714141
 30
0.0
  0
VERTEX
  5
1210
330
1206
100
AcDbEntity
  8
SCHRAFFUR_RAND
100
AcDbVertex
100
AcDb2dVertex
 10
373.817
 20
493.008141
 30
0.0
  0
VERTEX
  5
1211
330
1206
100
AcDbEntity
  8
SCHRAFFUR_RAND
100
AcDbVertex
100
AcDb2dVertex
 10
375.798
 20
504.2451409999999
 30
0.0
  0
VERTEX
  5
1212
330
1206
100
AcDbEntity
  8
SCHRAFFUR_RAND
100
AcDbVertex
100
AcDb2dVertex
 10
376.793
 20
506.861141
 30
0.0
  0
VERTEX
  5
1213
330
1206
100
AcDbEntity
  8
SCHRAFFUR_RAND
100
AcDbVertex
100
AcDb2dVertex
 10
378.958
 20
508.678141
 30
0.0
  0
VERTEX
  5
1214
330
1206
100
AcDbEntity
  8
SCHRAFFUR_RAND
100
AcDbVertex
100
AcDb2dVertex
 10
381.707
 20
509.203141
 30
0.0
  0
VERTEX
  5
1215
330
1206
100
AcDbEntity
  8
SCHRAFFUR_RAND
100
AcDbVertex
100
AcDb2dVertex
 10
419.4569999999999
 20
509.203141
 30
0.0
  0
VERTEX
  5
1216
330
1206
100
AcDbEntity
  8
SCHRAFFUR_RAND
100
AcDbVertex
100
AcDb2dVertex
 10
419.208
 20
513.955141
 30
0.0
  0
VERTEX
  5
1217
330
1206
100
AcDbEntity
  8
SCHRAFFUR_RAND
100
AcDbVertex
100
AcDb2dVertex
 10
418.9619999999999
 20
515.177141
 30
0.0
  0
VERTEX
  5
1218
330
1206
100
AcDbEntity
  8
SCHRAFFUR_RAND
100
AcDbVertex
100
AcDb2dVertex
 10
418.064
 20
516.076141
 30
0.0
  0
VERTEX
  5
1219
330
1206
100
AcDbEntity
  8
SCHRAFFUR_RAND
100
AcDbVertex
100
AcDb2dVertex
 10
416.842
 20
516.321141
 30
0.0
  0
VERTEX
  5
121A
330
1206
100
AcDbEntity
  8
SCHRAFFUR_RAND
100
AcDbVertex
100
AcDb2dVertex
 10
409.444
 20
516.709141
 30
0.0
  0
VERTEX
  5
121B
330
1206
100
AcDbEntity
  8
SCHRAFFUR_RAND
100
AcDbVertex
100
AcDb2dVertex
 10
407.2659999999999
 20
517.1041409999999
 30
0.0
  0
VERTEX
  5
121C
330
1206
100
AcDbEntity
  8
SCHRAFFUR_RAND
100
AcDbVertex
100
AcDb2dVertex
 10
405.425
 20
518.368141
 30
0.0
  0
VERTEX
  5
121D
330
1206
100
AcDbEntity
  8
SCHRAFFUR_RAND
100
AcDbVertex
100
AcDb2dVertex
 10
404.161
 20
520.209141
 30
0.0
  0
VERTEX
  5
121E
330
1206
100
AcDbEntity
  8
SCHRAFFUR_RAND
100
AcDbVertex
100
AcDb2dVertex
 10
403.7659999999999
 20
522.386141
 30
0.0
  0
VERTEX
  5
121F
330
1206
100
AcDbEntity
  8
SCHRAFFUR_RAND
100
AcDbVertex
100
AcDb2dVertex
 10
402.151
 20
553.203141
 30
0.0
  0
VERTEX
  5
1220
330
1206
100
AcDbEntity
  8
SCHRAFFUR_RAND
100
AcDbVertex
100
AcDb2dVertex
 10
392.15
 20
553.203141
 30
0.0
  0
VERTEX
  5
1221
330
1206
100
AcDbEntity
  8
SCHRAFFUR_RAND
100
AcDbVertex
100
AcDb2dVertex
 10
390.526
 20
522.2031409999999
 30
0.0
  0
VERTEX
  5
1222
330
1206
100
AcDbEntity
  8
SCHRAFFUR_RAND
100
AcDbVertex
100
AcDb2dVertex
 10
368.151
 20
522.2031409999999
 30
0.0
  0
VERTEX
  5
1223
330
1206
100
AcDbEntity
  8
SCHRAFFUR_RAND
100
AcDbVertex
100
AcDb2dVertex
 10
366.078
 20
507.454141
 30
0.0
  0
VERTEX
  5
1224
330
1206
100
AcDbEntity
  8
SCHRAFFUR_RAND
100
AcDbVertex
100
AcDb2dVertex
 10
365.124
 20
504.383141
 30
0.0
  0
VERTEX
  5
1225
330
1206
100
AcDbEntity
  8
SCHRAFFUR_RAND
100
AcDbVertex
100
AcDb2dVertex
 10
363.246
 20
501.774141
 30
0.0
  0
VERTEX
  5
1226
330
1206
100
AcDbEntity
  8
SCHRAFFUR_RAND
100
AcDbVertex
100
AcDb2dVertex
 10
347.037
 20
485.565141
 30
0.0
  0
VERTEX
  5
1227
330
1206
100
AcDbEntity
  8
SCHRAFFUR_RAND
100
AcDbVertex
100
AcDb2dVertex
 10
346.651
 20
478.203141
 30
0.0
  0
VERTEX
  5
1228
330
1206
100
AcDbEntity
  8
SCHRAFFUR_RAND
100
AcDbVertex
100
AcDb2dVertex
 10
340.398
 20
478.203141
 30
0.0
  0
VERTEX
  5
1229
330
1206
100
AcDbEntity
  8
SCHRAFFUR_RAND
100
AcDbVertex
100
AcDb2dVertex
 10
339.776
 20
476.807141
 30
0.0
  0
VERTEX
  5
122A
330
1206
100
AcDbEntity
  8
SCHRAFFUR_RAND
100
AcDbVertex
100
AcDb2dVertex
 10
339.474
 20
474.369141
 30
0.0
  0
VERTEX
  5
122B
330
1206
100
AcDbEntity
  8
SCHRAFFUR_RAND
100
AcDbVertex
100
AcDb2dVertex
 10
339.151
 20
468.203141
 30
0.0
  0
SEQEND
  5
122C
330
1206
100
AcDbEntity
  8
SCHRAFFUR_RAND
  0
INSERT
  5
1252
330
161F
100
AcDbEntity
  8
8
100
AcDbBlockReference
  2
*X9
 10
0.0
 20
42.623141
 30
0.0
1001
ACAD
1000
HATCH
1002
{
1070
    19
1000
ANSI31,_I
1040
3.174999999999999
1040
-0.7850000000000001
1002
}
  0
POINT
  5
1315
330
161F
100
AcDbEntity
  8
PUNKTE
100
AcDbPoint
 10
419.4569999999999
 20
215.348
 30
0.0
  0
LINE
  5
1316
330
161F
100
AcDbEntity
  8
0
100
AcDbLine
 10
118.151
 20
215.348
 30
0.0
 11
118.151
 21
351.348
 31
0.0
  0
LINE
  5
1317
330
161F
100
AcDbEntity
  8
0
100
AcDbLine
 10
141.151
 20
215.348
 30
0.0
 11
141.151
 21
316.744
 31
0.0
  0
LINE
  5
1318
330
161F
100
AcDbEntity
  8
0
100
AcDbLine
 10
157.151
 20
215.348
 30
0.0
 11
157.151
 21
325.848
 31
0.0
  0
LINE
  5
1319
330
161F
100
AcDbEntity
  8
0
100
AcDbLine
 10
176.151
 20
215.348
 30
0.0
 11
176.151
 21
263.774
 31
0.0
  0
LINE
  5
131A
330
161F
100
AcDbEntity
  8
0
100
AcDbLine
 10
192.1509999999999
 20
215.348
 30
0.0
 11
192.1509999999999
 21
325.848
 31
0.0
  0
LINE
  5
131B
330
161F
100
AcDbEntity
  8
0
100
AcDbLine
 10
211.151
 20
215.348
 30
0.0
 11
211.151
 21
296.461
 31
0.0
  0
LINE
  5
131C
330
161F
100
AcDbEntity
  8
0
100
AcDbLine
 10
227.151
 20
215.348
 30
0.0
 11
227.151
 21
325.848
 31
0.0
  0
LINE
  5
131D
330
161F
100
AcDbEntity
  8
0
100
AcDbLine
 10
246.151
 20
215.348
 30
0.0
 11
246.151
 21
306.806
 31
0.0
  0
LINE
  5
131E
330
161F
100
AcDbEntity
  8
0
100
AcDbLine
 10
254.151
 20
351.348
 30
0.0
 11
118.151
 21
351.348
 31
0.0
  0
LINE
  5
131F
330
161F
100
AcDbEntity
  8
0
100
AcDbLine
 10
254.151
 20
328.348
 30
0.0
 11
248.651
 21
328.348
 31
0.0
  0
LINE
  5
1320
330
161F
100
AcDbEntity
  8
0
100
AcDbLine
 10
224.651
 20
328.348
 30
0.0
 11
213.651
 21
328.348
 31
0.0
  0
LINE
  5
1321
330
161F
100
AcDbEntity
  8
0
100
AcDbLine
 10
189.651
 20
328.348
 30
0.0
 11
178.6509999999999
 21
328.348
 31
0.0
  0
ARC
  5
1322
330
161F
100
AcDbEntity
  8
0
100
AcDbCircle
 10
248.651
 20
325.848
 30
0.0
 40
2.5
100
AcDbArc
 50
90.0
 51
180.0
  0
ARC
  5
1323
330
161F
100
AcDbEntity
  8
0
100
AcDbCircle
 10
224.651
 20
325.848
 30
0.0
 40
2.5
100
AcDbArc
 50
0.0
 51
90.0
  0
ARC
  5
1324
330
161F
100
AcDbEntity
  8
0
100
AcDbCircle
 10
213.651
 20
325.848
 30
0.0
 40
2.5
100
AcDbArc
 50
90.0
 51
180.0
  0
ARC
  5
1325
330
161F
100
AcDbEntity
  8
0
100
AcDbCircle
 10
189.651
 20
325.848
 30
0.0
 40
2.5
100
AcDbArc
 50
0.0
 51
90.0
  0
ARC
  5
1326
330
161F
100
AcDbEntity
  8
0
100
AcDbCircle
 10
178.6509999999999
 20
325.848
 30
0.0
 40
2.5
100
AcDbArc
 50
90.0
 51
180.0
  0
LINE
  5
1327
330
161F
100
AcDbEntity
  8
0
100
AcDbLine
 10
390.151
 20
215.348
 30
0.0
 11
390.151
 21
351.348
 31
0.0
  0
LINE
  5
1328
330
161F
100
AcDbEntity
  8
0
100
AcDbLine
 10
367.151
 20
215.348
 30
0.0
 11
367.151
 21
325.848
 31
0.0
  0
LINE
  5
1329
330
161F
100
AcDbEntity
  8
0
100
AcDbLine
 10
351.151
 20
215.348
 30
0.0
 11
351.151
 21
325.848
 31
0.0
  0
LINE
  5
132A
330
161F
100
AcDbEntity
  8
0
100
AcDbLine
 10
332.151
 20
215.348
 30
0.0
 11
332.151
 21
325.848
 31
0.0
  0
LINE
  5
132B
330
161F
100
AcDbEntity
  8
0
100
AcDbLine
 10
316.151
 20
215.348
 30
0.0
 11
316.151
 21
283.233
 31
0.0
  0
LINE
  5
132C
330
161F
100
AcDbEntity
  8
0
100
AcDbLine
 10
297.151
 20
215.348
 30
0.0
 11
297.151
 21
325.848
 31
0.0
  0
LINE
  5
132D
330
161F
100
AcDbEntity
  8
0
100
AcDbLine
 10
281.151
 20
215.348
 30
0.0
 11
281.151
 21
303.093
 31
0.0
  0
LINE
  5
132E
330
161F
100
AcDbEntity
  8
0
100
AcDbLine
 10
262.151
 20
215.348
 30
0.0
 11
262.151
 21
325.848
 31
0.0
  0
LINE
  5
132F
330
161F
100
AcDbEntity
  8
0
100
AcDbLine
 10
254.151
 20
351.348
 30
0.0
 11
390.151
 21
351.348
 31
0.0
  0
LINE
  5
1330
330
161F
100
AcDbEntity
  8
0
100
AcDbLine
 10
254.151
 20
328.348
 30
0.0
 11
259.651
 21
328.348
 31
0.0
  0
LINE
  5
1331
330
161F
100
AcDbEntity
  8
0
100
AcDbLine
 10
283.651
 20
328.348
 30
0.0
 11
294.651
 21
328.348
 31
0.0
  0
LINE
  5
1332
330
161F
100
AcDbEntity
  8
0
100
AcDbLine
 10
318.651
 20
328.348
 30
0.0
 11
329.651
 21
328.348
 31
0.0
  0
LINE
  5
1333
330
161F
100
AcDbEntity
  8
0
100
AcDbLine
 10
353.651
 20
328.348
 30
0.0
 11
364.651
 21
328.348
 31
0.0
  0
ARC
  5
1334
330
161F
100
AcDbEntity
  8
0
100
AcDbCircle
 10
259.651
 20
325.848
 30
0.0
 40
2.5
100
AcDbArc
 50
0.0
 51
90.0
  0
ARC
  5
1335
330
161F
100
AcDbEntity
  8
0
100
AcDbCircle
 10
283.651
 20
325.848
 30
0.0
 40
2.5
100
AcDbArc
 50
90.0
 51
180.0
  0
ARC
  5
1336
330
161F
100
AcDbEntity
  8
0
100
AcDbCircle
 10
294.651
 20
325.848
 30
0.0
 40
2.5
100
AcDbArc
 50
0.0
 51
90.0
  0
ARC
  5
1337
330
161F
100
AcDbEntity
  8
0
100
AcDbCircle
 10
318.651
 20
325.848
 30
0.0
 40
2.5
100
AcDbArc
 50
90.0
 51
180.0
  0
ARC
  5
1338
330
161F
100
AcDbEntity
  8
0
100
AcDbCircle
 10
329.651
 20
325.848
 30
0.0
 40
2.5
100
AcDbArc
 50
0.0
 51
90.0
  0
ARC
  5
1339
330
161F
100
AcDbEntity
  8
0
100
AcDbCircle
 10
353.651
 20
325.848
 30
0.0
 40
2.5
100
AcDbArc
 50
90.0
 51
180.0
  0
ARC
  5
133A
330
161F
100
AcDbEntity
  8
0
100
AcDbCircle
 10
364.651
 20
325.848
 30
0.0
 40
2.5
100
AcDbArc
 50
0.0
 51
90.0
  0
LINE
  5
133B
330
161F
100
AcDbEntity
  8
7
100
AcDbLine
 10
254.151
 20
390.544
 30
0.0
 11
254.151
 21
46.09499999999999
 31
0.0
  0
LINE
  5
133C
330
161F
100
AcDbEntity
  8
0
100
AcDbLine
 10
118.151
 20
215.348
 30
0.0
 11
118.151
 21
79.348
 31
0.0
  0
LINE
  5
133D
330
161F
100
AcDbEntity
  8
0
100
AcDbLine
 10
141.151
 20
215.348
 30
0.0
 11
141.151
 21
104.848
 31
0.0
  0
LINE
  5
133E
330
161F
100
AcDbEntity
  8
0
100
AcDbLine
 10
157.151
 20
215.348
 30
0.0
 11
157.151
 21
104.848
 31
0.0
  0
LINE
  5
133F
330
161F
100
AcDbEntity
  8
0
100
AcDbLine
 10
176.151
 20
215.348
 30
0.0
 11
176.151
 21
104.848
 31
0.0
  0
LINE
  5
1340
330
161F
100
AcDbEntity
  8
0
100
AcDbLine
 10
192.1509999999999
 20
215.348
 30
0.0
 11
192.1509999999999
 21
104.848
 31
0.0
  0
LINE
  5
1341
330
161F
100
AcDbEntity
  8
0
100
AcDbLine
 10
211.151
 20
215.348
 30
0.0
 11
211.151
 21
104.848
 31
0.0
  0
LINE
  5
1342
330
161F
100
AcDbEntity
  8
0
100
AcDbLine
 10
227.151
 20
215.348
 30
0.0
 11
227.151
 21
104.848
 31
0.0
  0
LINE
  5
1343
330
161F
100
AcDbEntity
  8
0
100
AcDbLine
 10
246.151
 20
215.348
 30
0.0
 11
246.151
 21
104.848
 31
0.0
  0
LINE
  5
1344
330
161F
100
AcDbEntity
  8
0
100
AcDbLine
 10
254.151
 20
79.348
 30
0.0
 11
118.151
 21
79.348
 31
0.0
  0
LINE
  5
1345
330
161F
100
AcDbEntity
  8
0
100
AcDbLine
 10
254.151
 20
102.348
 30
0.0
 11
248.651
 21
102.348
 31
0.0
  0
LINE
  5
1346
330
161F
100
AcDbEntity
  8
0
100
AcDbLine
 10
224.651
 20
102.348
 30
0.0
 11
213.651
 21
102.348
 31
0.0
  0
LINE
  5
1347
330
161F
100
AcDbEntity
  8
0
100
AcDbLine
 10
189.651
 20
102.348
 30
0.0
 11
178.6509999999999
 21
102.348
 31
0.0
  0
LINE
  5
1348
330
161F
100
AcDbEntity
  8
0
100
AcDbLine
 10
154.651
 20
102.348
 30
0.0
 11
143.651
 21
102.348
 31
0.0
  0
ARC
  5
1349
330
161F
100
AcDbEntity
  8
0
100
AcDbCircle
 10
248.651
 20
104.848
 30
0.0
 40
2.5
100
AcDbArc
 50
180.0
 51
270.0
  0
ARC
  5
134A
330
161F
100
AcDbEntity
  8
0
100
AcDbCircle
 10
224.651
 20
104.848
 30
0.0
 40
2.5
100
AcDbArc
 50
270.0
 51
0.0
  0
ARC
  5
134B
330
161F
100
AcDbEntity
  8
0
100
AcDbCircle
 10
213.651
 20
104.848
 30
0.0
 40
2.5
100
AcDbArc
 50
180.0
 51
270.0
  0
ARC
  5
134C
330
161F
100
AcDbEntity
  8
0
100
AcDbCircle
 10
189.651
 20
104.848
 30
0.0
 40
2.5
100
AcDbArc
 50
270.0
 51
0.0
  0
ARC
  5
134D
330
161F
100
AcDbEntity
  8
0
100
AcDbCircle
 10
178.6509999999999
 20
104.848
 30
0.0
 40
2.5
100
AcDbArc
 50
180.0
 51
270.0
  0
ARC
  5
134E
330
161F
100
AcDbEntity
  8
0
100
AcDbCircle
 10
154.651
 20
104.848
 30
0.0
 40
2.5
100
AcDbArc
 50
270.0
 51
0.0
  0
ARC
  5
134F
330
161F
100
AcDbEntity
  8
0
100
AcDbCircle
 10
143.651
 20
104.848
 30
0.0
 40
2.5
100
AcDbArc
 50
180.0
 51
270.0
  0
LINE
  5
1350
330
161F
100
AcDbEntity
  8
0
100
AcDbLine
 10
390.151
 20
215.348
 30
0.0
 11
390.151
 21
79.348
 31
0.0
  0
LINE
  5
1351
330
161F
100
AcDbEntity
  8
0
100
AcDbLine
 10
367.151
 20
215.348
 30
0.0
 11
367.151
 21
113.952
 31
0.0
  0
LINE
  5
1352
330
161F
100
AcDbEntity
  8
0
100
AcDbLine
 10
351.151
 20
215.348
 30
0.0
 11
351.151
 21
104.848
 31
0.0
  0
LINE
  5
1353
330
161F
100
AcDbEntity
  8
0
100
AcDbLine
 10
332.151
 20
215.348
 30
0.0
 11
332.151
 21
104.848
 31
0.0
  0
LINE
  5
1354
330
161F
100
AcDbEntity
  8
0
100
AcDbLine
 10
316.151
 20
215.348
 30
0.0
 11
316.151
 21
104.848
 31
0.0
  0
LINE
  5
1355
330
161F
100
AcDbEntity
  8
0
100
AcDbLine
 10
297.151
 20
215.348
 30
0.0
 11
297.151
 21
104.848
 31
0.0
  0
LINE
  5
1356
330
161F
100
AcDbEntity
  8
0
100
AcDbLine
 10
281.151
 20
215.348
 30
0.0
 11
281.151
 21
104.848
 31
0.0
  0
LINE
  5
1357
330
161F
100
AcDbEntity
  8
0
100
AcDbLine
 10
262.151
 20
215.348
 30
0.0
 11
262.151
 21
104.848
 31
0.0
  0
LINE
  5
1358
330
161F
100
AcDbEntity
  8
0
100
AcDbLine
 10
254.151
 20
79.348
 30
0.0
 11
390.151
 21
79.348
 31
0.0
  0
LINE
  5
1359
330
161F
100
AcDbEntity
  8
0
100
AcDbLine
 10
254.151
 20
102.348
 30
0.0
 11
259.651
 21
102.348
 31
0.0
  0
LINE
  5
135A
330
161F
100
AcDbEntity
  8
0
100
AcDbLine
 10
283.651
 20
102.348
 30
0.0
 11
294.651
 21
102.348
 31
0.0
  0
LINE
  5
135B
330
161F
100
AcDbEntity
  8
0
100
AcDbLine
 10
318.651
 20
102.348
 30
0.0
 11
329.651
 21
102.348
 31
0.0
  0
ARC
  5
135C
330
161F
100
AcDbEntity
  8
0
100
AcDbCircle
 10
259.651
 20
104.848
 30
0.0
 40
2.5
100
AcDbArc
 50
270.0
 51
0.0
  0
ARC
  5
135D
330
161F
100
AcDbEntity
  8
0
100
AcDbCircle
 10
283.651
 20
104.848
 30
0.0
 40
2.5
100
AcDbArc
 50
180.0
 51
270.0
  0
ARC
  5
135E
330
161F
100
AcDbEntity
  8
0
100
AcDbCircle
 10
294.651
 20
104.848
 30
0.0
 40
2.5
100
AcDbArc
 50
270.0
 51
0.0
  0
ARC
  5
135F
330
161F
100
AcDbEntity
  8
0
100
AcDbCircle
 10
318.651
 20
104.848
 30
0.0
 40
2.5
100
AcDbArc
 50
180.0
 51
270.0
  0
ARC
  5
1360
330
161F
100
AcDbEntity
  8
0
100
AcDbCircle
 10
329.651
 20
104.848
 30
0.0
 40
2.5
100
AcDbArc
 50
270.0
 51
0.0
  0
LINE
  5
1361
330
161F
100
AcDbEntity
  8
3A
100
AcDbLine
 10
121.725
 20
215.348
 30
0.0
 11
121.725
 21
235.348
 31
0.0
  0
LINE
  5
1362
330
161F
100
AcDbEntity
  8
3A
100
AcDbLine
 10
139.578
 20
215.348
 30
0.0
 11
139.578
 21
235.348
 31
0.0
  0
LINE
  5
1363
330
161F
100
AcDbEntity
  8
3A
100
AcDbLine
 10
162.726
 20
329.868
 30
0.0
 11
162.726
 21
347.773
 31
0.0
  0
LINE
  5
1364
330
161F
100
AcDbEntity
  8
3A
100
AcDbLine
 10
161.725
 20
329.92
 30
0.0
 11
161.725
 21
347.773
 31
0.0
  0
LINE
  5
1365
330
161F
100
AcDbEntity
  8
3A
100
AcDbLine
 10
121.725
 20
347.773
 30
0.0
 11
161.725
 21
347.773
 31
0.0
  0
LINE
  5
1366
330
161F
100
AcDbEntity
  8
3A
 48
0.8019999999999999
100
AcDbLine
 10
152.103
 20
329.92
 30
0.0
 11
161.725
 21
329.92
 31
0.0
  0
LINE
  5
1367
330
161F
100
AcDbEntity
  8
3A
100
AcDbLine
 10
139.578
 20
307.773
 30
0.0
 11
121.725
 21
307.773
 31
0.0
  0
LINE
  5
1368
330
161F
100
AcDbEntity
  8
3A
100
AcDbLine
 10
139.63
 20
306.7709999999999
 30
0.0
 11
121.673
 21
306.7709999999999
 31
0.0
  0
LINE
  5
1369
330
161F
100
AcDbEntity
  8
3A
100
AcDbLine
 10
234.151
 20
347.773
 30
0.0
 11
254.151
 21
347.773
 31
0.0
  0
LINE
  5
136A
330
161F
100
AcDbEntity
  8
3A
100
AcDbLine
 10
234.151
 20
329.92
 30
0.0
 11
254.151
 21
329.92
 31
0.0
  0
LINE
  5
136B
330
161F
100
AcDbEntity
  8
3A
 48
0.8019999999999999
100
AcDbLine
 10
139.578
 20
307.773
 30
0.0
 11
139.578
 21
317.395
 31
0.0
  0
LINE
  5
136C
330
161F
100
AcDbEntity
  8
3A
100
AcDbLine
 10
121.725
 20
307.773
 30
0.0
 11
121.725
 21
347.773
 31
0.0
  0
LINE
  5
136D
330
161F
100
AcDbEntity
  8
3A
100
AcDbLine
 10
121.673
 20
236.35
 30
0.0
 11
121.673
 21
306.7709999999999
 31
0.0
  0
LINE
  5
136E
330
161F
100
AcDbEntity
  8
3A
100
AcDbLine
 10
139.63
 20
236.35
 30
0.0
 11
139.63
 21
306.7709999999999
 31
0.0
  0
LINE
  5
136F
330
161F
100
AcDbEntity
  8
3A
 48
0.084
100
AcDbLine
 10
121.673
 20
306.7709999999999
 30
0.0
 11
121.726
 21
307.773
 31
0.0
  0
LINE
  5
1370
330
161F
100
AcDbEntity
  8
3A
 48
0.084
100
AcDbLine
 10
139.631
 20
306.7709999999999
 30
0.0
 11
139.578
 21
307.772
 31
0.0
  0
LINE
  5
1371
330
161F
100
AcDbEntity
  8
3A
100
AcDbLine
 10
139.578
 20
235.348
 30
0.0
 11
121.725
 21
235.348
 31
0.0
  0
LINE
  5
1372
330
161F
100
AcDbEntity
  8
3A
100
AcDbLine
 10
139.63
 20
236.35
 30
0.0
 11
121.673
 21
236.35
 31
0.0
  0
LINE
  5
1373
330
161F
100
AcDbEntity
  8
3A
 48
0.084
100
AcDbLine
 10
121.673
 20
236.35
 30
0.0
 11
121.725
 21
235.348
 31
0.0
  0
LINE
  5
1374
330
161F
100
AcDbEntity
  8
3A
 48
0.084
100
AcDbLine
 10
139.631
 20
236.35
 30
0.0
 11
139.578
 21
235.348
 31
0.0
  0
LINE
  5
1375
330
161F
100
AcDbEntity
  8
3A
100
AcDbLine
 10
234.151
 20
329.92
 30
0.0
 11
234.151
 21
347.773
 31
0.0
  0
LINE
  5
1376
330
161F
100
AcDbEntity
  8
3A
100
AcDbLine
 10
233.149
 20
329.868
 30
0.0
 11
233.149
 21
347.826
 31
0.0
  0
LINE
  5
1377
330
161F
100
AcDbEntity
  8
3A
100
AcDbLine
 10
162.726
 20
347.826
 30
0.0
 11
233.149
 21
347.826
 31
0.0
  0
LINE
  5
1378
330
161F
100
AcDbEntity
  8
3A
100
AcDbLine
 10
162.726
 20
329.868
 30
0.0
 11
233.149
 21
329.868
 31
0.0
  0
LINE
  5
1379
330
161F
100
AcDbEntity
  8
3A
 48
0.083
100
AcDbLine
 10
161.726
 20
329.92
 30
0.0
 11
162.726
 21
329.868
 31
0.0
  0
LINE
  5
137A
330
161F
100
AcDbEntity
  8
3A
 48
0.083
100
AcDbLine
 10
161.725
 20
347.773
 30
0.0
 11
162.725
 21
347.825
 31
0.0
  0
LINE
  5
137B
330
161F
100
AcDbEntity
  8
3A
 48
0.084
100
AcDbLine
 10
233.148
 20
347.825
 30
0.0
 11
234.151
 21
347.773
 31
0.0
  0
LINE
  5
137C
330
161F
100
AcDbEntity
  8
3A
 48
0.084
100
AcDbLine
 10
233.149
 20
329.868
 30
0.0
 11
234.151
 21
329.92
 31
0.0
  0
LINE
  5
137D
330
161F
100
AcDbEntity
  8
3A
100
AcDbLine
 10
386.575
 20
215.348
 30
0.0
 11
386.575
 21
235.348
 31
0.0
  0
LINE
  5
137E
330
161F
100
AcDbEntity
  8
3A
100
AcDbLine
 10
368.723
 20
215.348
 30
0.0
 11
368.723
 21
235.348
 31
0.0
  0
LINE
  5
137F
330
161F
100
AcDbEntity
  8
3A
100
AcDbLine
 10
345.575
 20
329.868
 30
0.0
 11
345.575
 21
347.773
 31
0.0
  0
LINE
  5
1380
330
161F
100
AcDbEntity
  8
3A
100
AcDbLine
 10
346.575
 20
329.92
 30
0.0
 11
346.575
 21
347.773
 31
0.0
  0
LINE
  5
1381
330
161F
100
AcDbEntity
  8
3A
100
AcDbLine
 10
386.575
 20
347.773
 30
0.0
 11
346.575
 21
347.773
 31
0.0
  0
LINE
  5
1382
330
161F
100
AcDbEntity
  8
3A
100
AcDbLine
 10
368.723
 20
329.92
 30
0.0
 11
346.575
 21
329.92
 31
0.0
  0
LINE
  5
1383
330
161F
100
AcDbEntity
  8
3A
100
AcDbLine
 10
368.723
 20
307.773
 30
0.0
 11
386.575
 21
307.773
 31
0.0
  0
LINE
  5
1384
330
161F
100
AcDbEntity
  8
3A
100
AcDbLine
 10
368.67
 20
306.7709999999999
 30
0.0
 11
386.6280000000001
 21
306.7709999999999
 31
0.0
  0
LINE
  5
1385
330
161F
100
AcDbEntity
  8
3A
100
AcDbLine
 10
274.151
 20
347.773
 30
0.0
 11
254.151
 21
347.773
 31
0.0
  0
LINE
  5
1386
330
161F
100
AcDbEntity
  8
3A
100
AcDbLine
 10
274.151
 20
329.92
 30
0.0
 11
254.151
 21
329.92
 31
0.0
  0
LINE
  5
1387
330
161F
100
AcDbEntity
  8
3A
100
AcDbLine
 10
368.723
 20
307.773
 30
0.0
 11
368.723
 21
329.92
 31
0.0
  0
LINE
  5
1388
330
161F
100
AcDbEntity
  8
3A
100
AcDbLine
 10
386.575
 20
307.773
 30
0.0
 11
386.575
 21
347.773
 31
0.0
  0
LINE
  5
1389
330
161F
100
AcDbEntity
  8
3A
100
AcDbLine
 10
386.6280000000001
 20
236.35
 30
0.0
 11
386.6280000000001
 21
306.7709999999999
 31
0.0
  0
LINE
  5
138A
330
161F
100
AcDbEntity
  8
3A
100
AcDbLine
 10
368.67
 20
236.35
 30
0.0
 11
368.67
 21
306.7709999999999
 31
0.0
  0
LINE
  5
138B
330
161F
100
AcDbEntity
  8
3A
 48
0.084
100
AcDbLine
 10
386.6280000000001
 20
306.77
 30
0.0
 11
386.576
 21
307.773
 31
0.0
  0
LINE
  5
138C
330
161F
100
AcDbEntity
  8
3A
 48
0.084
100
AcDbLine
 10
368.67
 20
306.7709999999999
 30
0.0
 11
368.723
 21
307.772
 31
0.0
  0
LINE
  5
138D
330
161F
100
AcDbEntity
  8
3A
100
AcDbLine
 10
368.723
 20
235.348
 30
0.0
 11
386.575
 21
235.348
 31
0.0
  0
LINE
  5
138E
330
161F
100
AcDbEntity
  8
3A
100
AcDbLine
 10
368.67
 20
236.35
 30
0.0
 11
386.6280000000001
 21
236.35
 31
0.0
  0
LINE
  5
138F
330
161F
100
AcDbEntity
  8
3A
 48
0.084
100
AcDbLine
 10
369.535
 20
194.3459999999999
 30
0.0
 11
369.587
 21
195.348
 31
0.0
  0
LINE
  5
1390
330
161F
100
AcDbEntity
  8
3A
 48
0.084
100
AcDbLine
 10
368.67
 20
236.35
 30
0.0
 11
368.723
 21
235.348
 31
0.0
  0
LINE
  5
1391
330
161F
100
AcDbEntity
  8
3A
100
AcDbLine
 10
274.151
 20
329.92
 30
0.0
 11
274.151
 21
347.773
 31
0.0
  0
LINE
  5
1392
330
161F
100
AcDbEntity
  8
3A
100
AcDbLine
 10
275.152
 20
329.868
 30
0.0
 11
275.152
 21
347.826
 31
0.0
  0
LINE
  5
1393
330
161F
100
AcDbEntity
  8
3A
100
AcDbLine
 10
345.575
 20
347.826
 30
0.0
 11
275.152
 21
347.826
 31
0.0
  0
LINE
  5
1394
330
161F
100
AcDbEntity
  8
3A
100
AcDbLine
 10
345.575
 20
329.868
 30
0.0
 11
275.152
 21
329.868
 31
0.0
  0
LINE
  5
1395
330
161F
100
AcDbEntity
  8
3A
 48
0.083
100
AcDbLine
 10
346.5759999999999
 20
329.92
 30
0.0
 11
345.576
 21
329.868
 31
0.0
  0
LINE
  5
1396
330
161F
100
AcDbEntity
  8
3A
 48
0.083
100
AcDbLine
 10
346.5759999999999
 20
347.773
 30
0.0
 11
345.575
 21
347.825
 31
0.0
  0
LINE
  5
1397
330
161F
100
AcDbEntity
  8
3A
 48
0.084
100
AcDbLine
 10
275.153
 20
347.825
 30
0.0
 11
274.15
 21
347.773
 31
0.0
  0
LINE
  5
1398
330
161F
100
AcDbEntity
  8
3A
 48
0.084
100
AcDbLine
 10
275.153
 20
329.868
 30
0.0
 11
274.151
 21
329.92
 31
0.0
  0
LINE
  5
1399
330
161F
100
AcDbEntity
  8
3A
100
AcDbLine
 10
121.725
 20
215.348
 30
0.0
 11
121.725
 21
195.348
 31
0.0
  0
LINE
  5
139A
330
161F
100
AcDbEntity
  8
3A
100
AcDbLine
 10
139.578
 20
215.348
 30
0.0
 11
139.578
 21
195.348
 31
0.0
  0
LINE
  5
139B
330
161F
100
AcDbEntity
  8
3A
100
AcDbLine
 10
162.726
 20
100.828
 30
0.0
 11
162.726
 21
82.92200000000001
 31
0.0
  0
LINE
  5
139C
330
161F
100
AcDbEntity
  8
3A
100
AcDbLine
 10
161.725
 20
100.776
 30
0.0
 11
161.725
 21
82.92200000000001
 31
0.0
  0
LINE
  5
139D
330
161F
100
AcDbEntity
  8
3A
100
AcDbLine
 10
121.725
 20
82.92200000000001
 30
0.0
 11
161.725
 21
82.92200000000001
 31
0.0
  0
LINE
  5
139E
330
161F
100
AcDbEntity
  8
3A
100
AcDbLine
 10
139.578
 20
100.776
 30
0.0
 11
161.725
 21
100.776
 31
0.0
  0
LINE
  5
139F
330
161F
100
AcDbEntity
  8
3A
100
AcDbLine
 10
139.578
 20
122.923
 30
0.0
 11
121.725
 21
122.923
 31
0.0
  0
LINE
  5
13A0
330
161F
100
AcDbEntity
  8
3A
100
AcDbLine
 10
139.63
 20
123.925
 30
0.0
 11
121.673
 21
123.925
 31
0.0
  0
LINE
  5
13A1
330
161F
100
AcDbEntity
  8
3A
100
AcDbLine
 10
234.151
 20
82.92200000000001
 30
0.0
 11
254.151
 21
82.92200000000001
 31
0.0
  0
LINE
  5
13A2
330
161F
100
AcDbEntity
  8
3A
100
AcDbLine
 10
234.151
 20
100.776
 30
0.0
 11
254.151
 21
100.776
 31
0.0
  0
LINE
  5
13A3
330
161F
100
AcDbEntity
  8
3A
100
AcDbLine
 10
139.578
 20
122.923
 30
0.0
 11
139.578
 21
100.776
 31
0.0
  0
LINE
  5
13A4
330
161F
100
AcDbEntity
  8
3A
100
AcDbLine
 10
121.725
 20
122.923
 30
0.0
 11
121.725
 21
82.92200000000001
 31
0.0
  0
LINE
  5
13A5
330
161F
100
AcDbEntity
  8
3A
100
AcDbLine
 10
121.673
 20
194.3459999999999
 30
0.0
 11
121.673
 21
123.925
 31
0.0
  0
LINE
  5
13A6
330
161F
100
AcDbEntity
  8
3A
100
AcDbLine
 10
139.63
 20
194.3459999999999
 30
0.0
 11
139.63
 21
123.925
 31
0.0
  0
LINE
  5
13A7
330
161F
100
AcDbEntity
  8
3A
 48
0.084
100
AcDbLine
 10
121.673
 20
123.925
 30
0.0
 11
121.725
 21
122.923
 31
0.0
  0
LINE
  5
13A8
330
161F
100
AcDbEntity
  8
3A
 48
0.084
100
AcDbLine
 10
139.631
 20
123.925
 30
0.0
 11
139.579
 21
122.923
 31
0.0
  0
LINE
  5
13A9
330
161F
100
AcDbEntity
  8
3A
100
AcDbLine
 10
139.578
 20
195.348
 30
0.0
 11
121.725
 21
195.348
 31
0.0
  0
LINE
  5
13AA
330
161F
100
AcDbEntity
  8
3A
100
AcDbLine
 10
139.63
 20
194.3459999999999
 30
0.0
 11
121.673
 21
194.3459999999999
 31
0.0
  0
LINE
  5
13AB
330
161F
100
AcDbEntity
  8
3A
 48
0.084
100
AcDbLine
 10
121.673
 20
194.3459999999999
 30
0.0
 11
121.725
 21
195.348
 31
0.0
  0
LINE
  5
13AC
330
161F
100
AcDbEntity
  8
3A
 48
0.084
100
AcDbLine
 10
139.631
 20
194.3459999999999
 30
0.0
 11
139.578
 21
195.348
 31
0.0
  0
LINE
  5
13AD
330
161F
100
AcDbEntity
  8
3A
100
AcDbLine
 10
234.151
 20
100.776
 30
0.0
 11
234.151
 21
82.92200000000001
 31
0.0
  0
LINE
  5
13AE
330
161F
100
AcDbEntity
  8
3A
100
AcDbLine
 10
233.149
 20
100.828
 30
0.0
 11
233.149
 21
82.87
 31
0.0
  0
LINE
  5
13AF
330
161F
100
AcDbEntity
  8
3A
100
AcDbLine
 10
162.726
 20
82.87
 30
0.0
 11
233.149
 21
82.87
 31
0.0
  0
LINE
  5
13B0
330
161F
100
AcDbEntity
  8
3A
100
AcDbLine
 10
162.726
 20
100.828
 30
0.0
 11
233.149
 21
100.828
 31
0.0
  0
LINE
  5
13B1
330
161F
100
AcDbEntity
  8
3A
 48
0.083
100
AcDbLine
 10
161.725
 20
100.775
 30
0.0
 11
162.725
 21
100.828
 31
0.0
  0
LINE
  5
13B2
330
161F
100
AcDbEntity
  8
3A
 48
0.083
100
AcDbLine
 10
161.726
 20
82.92200000000001
 30
0.0
 11
162.726
 21
82.87
 31
0.0
  0
LINE
  5
13B3
330
161F
100
AcDbEntity
  8
3A
 48
0.084
100
AcDbLine
 10
233.148
 20
82.87
 30
0.0
 11
234.15
 21
82.92299999999999
 31
0.0
  0
LINE
  5
13B4
330
161F
100
AcDbEntity
  8
3A
 48
0.084
100
AcDbLine
 10
233.149
 20
100.828
 30
0.0
 11
234.151
 21
100.776
 31
0.0
  0
LINE
  5
13B5
330
161F
100
AcDbEntity
  8
7
100
AcDbLine
 10
254.151
 20
215.348
 30
0.0
 11
431.309
 21
215.348
 31
0.0
  0
LINE
  5
13B6
330
161F
100
AcDbEntity
  8
3A
100
AcDbLine
 10
386.575
 20
215.348
 30
0.0
 11
386.575
 21
195.348
 31
0.0
  0
LINE
  5
13B7
330
161F
100
AcDbEntity
  8
3A
100
AcDbLine
 10
368.723
 20
215.348
 30
0.0
 11
368.723
 21
195.348
 31
0.0
  0
LINE
  5
13B8
330
161F
100
AcDbEntity
  8
3A
100
AcDbLine
 10
345.575
 20
100.828
 30
0.0
 11
345.575
 21
82.92200000000001
 31
0.0
  0
LINE
  5
13B9
330
161F
100
AcDbEntity
  8
3A
100
AcDbLine
 10
346.575
 20
100.776
 30
0.0
 11
346.575
 21
82.92200000000001
 31
0.0
  0
LINE
  5
13BA
330
161F
100
AcDbEntity
  8
3A
100
AcDbLine
 10
386.575
 20
82.92200000000001
 30
0.0
 11
346.575
 21
82.92200000000001
 31
0.0
  0
LINE
  5
13BB
330
161F
100
AcDbEntity
  8
3A
 48
0.8019999999999999
100
AcDbLine
 10
356.1980000000001
 20
100.776
 30
0.0
 11
346.575
 21
100.776
 31
0.0
  0
LINE
  5
13BC
330
161F
100
AcDbEntity
  8
3A
100
AcDbLine
 10
368.723
 20
122.923
 30
0.0
 11
386.575
 21
122.923
 31
0.0
  0
LINE
  5
13BD
330
161F
100
AcDbEntity
  8
3A
100
AcDbLine
 10
368.67
 20
123.925
 30
0.0
 11
386.6280000000001
 21
123.925
 31
0.0
  0
LINE
  5
13BE
330
161F
100
AcDbEntity
  8
3A
100
AcDbLine
 10
274.151
 20
82.92200000000001
 30
0.0
 11
254.151
 21
82.92200000000001
 31
0.0
  0
LINE
  5
13BF
330
161F
100
AcDbEntity
  8
3A
100
AcDbLine
 10
274.151
 20
100.776
 30
0.0
 11
254.151
 21
100.776
 31
0.0
  0
LINE
  5
13C0
330
161F
100
AcDbEntity
  8
3A
 48
0.8019999999999999
100
AcDbLine
 10
368.723
 20
122.923
 30
0.0
 11
368.723
 21
113.3
 31
0.0
  0
LINE
  5
13C1
330
161F
100
AcDbEntity
  8
3A
100
AcDbLine
 10
386.575
 20
122.923
 30
0.0
 11
386.575
 21
82.92200000000001
 31
0.0
  0
LINE
  5
13C2
330
161F
100
AcDbEntity
  8
3A
100
AcDbLine
 10
386.6280000000001
 20
194.3459999999999
 30
0.0
 11
386.6280000000001
 21
123.925
 31
0.0
  0
LINE
  5
13C3
330
161F
100
AcDbEntity
  8
3A
100
AcDbLine
 10
368.67
 20
194.3459999999999
 30
0.0
 11
368.67
 21
123.925
 31
0.0
  0
LINE
  5
13C4
330
161F
100
AcDbEntity
  8
3A
 48
0.084
100
AcDbLine
 10
386.6280000000001
 20
123.925
 30
0.0
 11
386.576
 21
122.923
 31
0.0
  0
LINE
  5
13C5
330
161F
100
AcDbEntity
  8
3A
 48
0.084
100
AcDbLine
 10
368.67
 20
123.925
 30
0.0
 11
368.722
 21
122.923
 31
0.0
  0
LINE
  5
13C6
330
161F
100
AcDbEntity
  8
3A
100
AcDbLine
 10
368.723
 20
195.348
 30
0.0
 11
386.575
 21
195.348
 31
0.0
  0
LINE
  5
13C7
330
161F
100
AcDbEntity
  8
3A
100
AcDbLine
 10
368.67
 20
194.3459999999999
 30
0.0
 11
386.6280000000001
 21
194.3459999999999
 31
0.0
  0
LINE
  5
13C8
330
161F
100
AcDbEntity
  8
3A
 48
0.084
100
AcDbLine
 10
369.535
 20
236.35
 30
0.0
 11
369.587
 21
235.348
 31
0.0
  0
LINE
  5
13C9
330
161F
100
AcDbEntity
  8
3A
 48
0.084
100
AcDbLine
 10
368.67
 20
194.3459999999999
 30
0.0
 11
368.723
 21
195.348
 31
0.0
  0
LINE
  5
13CA
330
161F
100
AcDbEntity
  8
3A
100
AcDbLine
 10
274.151
 20
100.776
 30
0.0
 11
274.151
 21
82.92200000000001
 31
0.0
  0
LINE
  5
13CB
330
161F
100
AcDbEntity
  8
3A
100
AcDbLine
 10
275.152
 20
100.828
 30
0.0
 11
275.152
 21
82.87
 31
0.0
  0
LINE
  5
13CC
330
161F
100
AcDbEntity
  8
3A
100
AcDbLine
 10
345.575
 20
82.87
 30
0.0
 11
275.152
 21
82.87
 31
0.0
  0
LINE
  5
13CD
330
161F
100
AcDbEntity
  8
3A
100
AcDbLine
 10
345.575
 20
100.828
 30
0.0
 11
275.152
 21
100.828
 31
0.0
  0
LINE
  5
13CE
330
161F
100
AcDbEntity
  8
3A
 48
0.083
100
AcDbLine
 10
346.5759999999999
 20
100.775
 30
0.0
 11
345.575
 21
100.828
 31
0.0
  0
LINE
  5
13CF
330
161F
100
AcDbEntity
  8
3A
 48
0.083
100
AcDbLine
 10
346.5759999999999
 20
82.92200000000001
 30
0.0
 11
345.575
 21
82.87
 31
0.0
  0
LINE
  5
13D0
330
161F
100
AcDbEntity
  8
3A
 48
0.084
100
AcDbLine
 10
275.153
 20
82.87
 30
0.0
 11
274.151
 21
82.92200000000001
 31
0.0
  0
LINE
  5
13D1
330
161F
100
AcDbEntity
  8
3A
 48
0.084
100
AcDbLine
 10
275.153
 20
100.828
 30
0.0
 11
274.15
 21
100.776
 31
0.0
  0
LINE
  5
13D2
330
161F
100
AcDbEntity
  8
0
100
AcDbLine
 10
150.987
 20
327.615
 30
0.0
 11
141.8829999999999
 21
318.512
 31
0.0
  0
LINE
  5
13D3
330
161F
100
AcDbEntity
  8
0
100
AcDbLine
 10
154.651
 20
328.348
 30
0.0
 11
152.755
 21
328.348
 31
0.0
  0
ARC
  5
13D4
330
161F
100
AcDbEntity
  8
0
100
AcDbCircle
 10
143.651
 20
316.744
 30
0.0
 40
2.5
100
AcDbArc
 50
134.998
 51
179.998
  0
ARC
  5
13D5
330
161F
100
AcDbEntity
  8
0
100
AcDbCircle
 10
152.755
 20
325.848
 30
0.0
 40
2.5
100
AcDbArc
 50
89.999
 51
134.999
  0
ARC
  5
13D6
330
161F
100
AcDbEntity
  8
0
100
AcDbCircle
 10
154.651
 20
325.848
 30
0.0
 40
2.5
100
AcDbArc
 50
0.0
 51
90.0
  0
LINE
  5
13D7
330
161F
100
AcDbEntity
  8
0
100
AcDbLine
 10
357.315
 20
103.08
 30
0.0
 11
366.418
 21
112.184
 31
0.0
  0
LINE
  5
13D8
330
161F
100
AcDbEntity
  8
0
100
AcDbLine
 10
353.651
 20
102.348
 30
0.0
 11
355.547
 21
102.348
 31
0.0
  0
ARC
  5
13D9
330
161F
100
AcDbEntity
  8
0
100
AcDbCircle
 10
353.651
 20
104.848
 30
0.0
 40
2.5
100
AcDbArc
 50
180.0
 51
270.0
  0
ARC
  5
13DA
330
161F
100
AcDbEntity
  8
0
100
AcDbCircle
 10
355.547
 20
104.848
 30
0.0
 40
2.5
100
AcDbArc
 50
270.0
 51
315.0
  0
ARC
  5
13DB
330
161F
100
AcDbEntity
  8
0
100
AcDbCircle
 10
364.651
 20
113.952
 30
0.0
 40
2.5
100
AcDbArc
 50
315.0
 51
0.0
  0
LINE
  5
13DC
330
161F
100
AcDbEntity
  8
3A
100
AcDbLine
 10
150.336
 20
329.188
 30
0.0
 11
140.311
 21
319.163
 31
0.0
  0
ARC
  5
13DD
330
161F
100
AcDbEntity
  8
3A
 48
0.164
100
AcDbCircle
 10
142.078
 20
317.395
 30
0.0
 40
2.5
100
AcDbArc
 50
135.001
 51
180.002
  0
ARC
  5
13DE
330
161F
100
AcDbEntity
  8
3A
 48
0.164
100
AcDbCircle
 10
152.103
 20
327.42
 30
0.0
 40
2.5
100
AcDbArc
 50
90.00200000000001
 51
135.001
  0
LINE
  5
13DF
330
161F
100
AcDbEntity
  8
3A
100
AcDbLine
 10
357.966
 20
101.507
 30
0.0
 11
367.991
 21
111.532
 31
0.0
  0
ARC
  5
13E0
330
161F
100
AcDbEntity
  8
3A
 48
0.164
100
AcDbCircle
 10
356.1980000000001
 20
103.276
 30
0.0
 40
2.5
100
AcDbArc
 50
269.997
 51
314.998
  0
ARC
  5
13E1
330
161F
100
AcDbEntity
  8
3A
100
AcDbCircle
 10
366.223
 20
113.3
 30
0.0
 40
2.5
100
AcDbArc
 50
315.0
 51
0.0
  0
LINE
  5
13E2
330
161F
100
AcDbEntity
  8
7
100
AcDbLine
 10
254.151
 20
215.348
 30
0.0
 11
74.80199999999999
 21
215.348
 31
0.0
  0
LINE
  5
13E3
330
161F
100
AcDbEntity
  8
0
100
AcDbLine
 10
402.151
 20
67.34799999999999
 30
0.0
 11
402.151
 21
362.565
 31
0.0
  0
LINE
  5
13E4
330
161F
100
AcDbEntity
  8
0
100
AcDbLine
 10
404.457
 20
65.042
 30
0.0
 11
404.457
 21
180.347
 31
0.0
  0
LINE
  5
13E5
330
161F
100
AcDbEntity
  8
0
100
AcDbLine
 10
392.15
 20
77.34799999999999
 30
0.0
 11
392.15
 21
353.348
 31
0.0
  0
LINE
  5
13E6
330
161F
100
AcDbEntity
  8
0
100
AcDbLine
 10
404.457
 20
365.654
 30
0.0
 11
289.151
 21
365.654
 31
0.0
  0
LINE
  5
13E7
330
161F
100
AcDbEntity
  8
0
100
AcDbLine
 10
402.151
 20
363.348
 30
0.0
 11
106.15
 21
363.348
 31
0.0
  0
LINE
  5
13E8
330
161F
100
AcDbEntity
  8
0
100
AcDbLine
 10
392.15
 20
353.348
 30
0.0
 11
116.151
 21
353.348
 31
0.0
  0
LINE
  5
13E9
330
161F
100
AcDbEntity
  8
0
100
AcDbLine
 10
402.151
 20
363.348
 30
0.0
 11
404.457
 21
365.654
 31
0.0
  0
LINE
  5
13EA
330
161F
100
AcDbEntity
  8
0
100
AcDbLine
 10
392.15
 20
77.34799999999999
 30
0.0
 11
116.151
 21
77.34799999999999
 31
0.0
  0
LINE
  5
13EB
330
161F
100
AcDbEntity
  8
0
100
AcDbLine
 10
402.151
 20
67.34799999999999
 30
0.0
 11
106.15
 21
67.34799999999999
 31
0.0
  0
LINE
  5
13EC
330
161F
100
AcDbEntity
  8
0
100
AcDbLine
 10
404.457
 20
65.042
 30
0.0
 11
289.151
 21
65.042
 31
0.0
  0
LINE
  5
13ED
330
161F
100
AcDbEntity
  8
0
100
AcDbLine
 10
402.151
 20
67.34799999999999
 30
0.0
 11
404.457
 21
65.042
 31
0.0
  0
LINE
  5
13EE
330
161F
100
AcDbEntity
  8
0
100
AcDbLine
 10
106.15
 20
363.348
 30
0.0
 11
103.844
 21
365.654
 31
0.0
  0
LINE
  5
13EF
330
161F
100
AcDbEntity
  8
0
100
AcDbLine
 10
103.844
 20
65.042
 30
0.0
 11
103.844
 21
180.348
 31
0.0
  0
LINE
  5
13F0
330
161F
100
AcDbEntity
  8
0
100
AcDbLine
 10
106.15
 20
67.34799999999999
 30
0.0
 11
106.15
 21
363.348
 31
0.0
  0
LINE
  5
13F1
330
161F
100
AcDbEntity
  8
0
100
AcDbLine
 10
116.151
 20
77.34799999999999
 30
0.0
 11
116.151
 21
353.348
 31
0.0
  0
LINE
  5
13F2
330
161F
100
AcDbEntity
  8
0
100
AcDbLine
 10
104.997
 20
179.54
 30
0.0
 11
104.997
 21
251.155
 31
0.0
  0
LINE
  5
13F3
330
161F
100
AcDbEntity
  8
0
100
AcDbLine
 10
88.84399999999999
 20
196.056
 30
0.0
 11
88.84399999999999
 21
234.639
 31
0.0
  0
LINE
  5
13F4
330
161F
100
AcDbEntity
  8
0
100
AcDbLine
 10
104.997
 20
251.155
 30
0.0
 11
93.10799999999998
 21
242.831
 31
0.0
  0
LINE
  5
13F5
330
161F
100
AcDbEntity
  8
0
100
AcDbLine
 10
104.998
 20
179.54
 30
0.0
 11
93.109
 21
187.865
 31
0.0
  0
LINE
  5
13F6
330
161F
100
AcDbEntity
  8
0
100
AcDbLine
 10
103.844
 20
250.348
 30
0.0
 11
103.844
 21
365.654
 31
0.0
  0
ARC
  5
13F7
330
161F
100
AcDbEntity
  8
0
100
AcDbCircle
 10
98.84399999999999
 20
234.639
 30
0.0
 40
10.0
100
AcDbArc
 50
125.0
 51
180.0
  0
ARC
  5
13F8
330
161F
100
AcDbEntity
  8
0
100
AcDbCircle
 10
98.84399999999999
 20
196.056
 30
0.0
 40
10.0
100
AcDbArc
 50
180.0
 51
235.0
  0
LINE
  5
13F9
330
161F
100
AcDbEntity
  8
0
100
AcDbLine
 10
403.304
 20
251.155
 30
0.0
 11
403.304
 21
179.54
 31
0.0
  0
LINE
  5
13FA
330
161F
100
AcDbEntity
  8
0
100
AcDbLine
 10
419.4569999999999
 20
234.639
 30
0.0
 11
419.4569999999999
 21
196.056
 31
0.0
  0
LINE
  5
13FB
330
161F
100
AcDbEntity
  8
0
100
AcDbLine
 10
403.304
 20
179.54
 30
0.0
 11
415.1919999999999
 21
187.865
 31
0.0
  0
LINE
  5
13FC
330
161F
100
AcDbEntity
  8
0
100
AcDbLine
 10
403.304
 20
251.155
 30
0.0
 11
415.1919999999999
 21
242.83
 31
0.0
  0
ARC
  5
13FD
330
161F
100
AcDbEntity
  8
0
100
AcDbCircle
 10
409.457
 20
196.056
 30
0.0
 40
10.0
100
AcDbArc
 50
305.0
 51
0.0
  0
ARC
  5
13FE
330
161F
100
AcDbEntity
  8
0
100
AcDbCircle
 10
409.457
 20
234.639
 30
0.0
 40
10.0
100
AcDbArc
 50
0.0
 51
55.0
  0
LINE
  5
13FF
330
161F
100
AcDbEntity
  8
0
100
AcDbLine
 10
404.457
 20
250.348
 30
0.0
 11
404.457
 21
365.654
 31
0.0
  0
LINE
  5
1400
330
161F
100
AcDbEntity
  8
0
100
AcDbLine
 10
289.958
 20
66.19499999999999
 30
0.0
 11
218.343
 21
66.19499999999999
 31
0.0
  0
LINE
  5
1401
330
161F
100
AcDbEntity
  8
0
100
AcDbLine
 10
273.442
 20
50.042
 30
0.0
 11
234.859
 21
50.042
 31
0.0
  0
LINE
  5
1402
330
161F
100
AcDbEntity
  8
0
100
AcDbLine
 10
218.343
 20
66.19499999999999
 30
0.0
 11
226.667
 21
54.306
 31
0.0
  0
LINE
  5
1403
330
161F
100
AcDbEntity
  8
0
100
AcDbLine
 10
289.958
 20
66.194
 30
0.0
 11
281.633
 21
54.306
 31
0.0
  0
ARC
  5
1404
330
161F
100
AcDbEntity
  8
0
100
AcDbCircle
 10
234.859
 20
60.042
 30
0.0
 40
10.0
100
AcDbArc
 50
215.0
 51
270.0
  0
ARC
  5
1405
330
161F
100
AcDbEntity
  8
0
100
AcDbCircle
 10
273.442
 20
60.042
 30
0.0
 40
10.0
100
AcDbArc
 50
270.0
 51
325.0
  0
LINE
  5
1406
330
161F
100
AcDbEntity
  8
0
100
AcDbLine
 10
218.343
 20
364.501
 30
0.0
 11
289.958
 21
364.501
 31
0.0
  0
LINE
  5
1407
330
161F
100
AcDbEntity
  8
0
100
AcDbLine
 10
234.859
 20
380.654
 30
0.0
 11
273.442
 21
380.654
 31
0.0
  0
LINE
  5
1408
330
161F
100
AcDbEntity
  8
0
100
AcDbLine
 10
289.958
 20
364.501
 30
0.0
 11
281.633
 21
376.39
 31
0.0
  0
LINE
  5
1409
330
161F
100
AcDbEntity
  8
0
100
AcDbLine
 10
218.344
 20
364.501
 30
0.0
 11
226.668
 21
376.389
 31
0.0
  0
ARC
  5
140A
330
161F
100
AcDbEntity
  8
0
100
AcDbCircle
 10
273.442
 20
370.654
 30
0.0
 40
10.0
100
AcDbArc
 50
35.0
 51
90.0
  0
ARC
  5
140B
330
161F
100
AcDbEntity
  8
0
100
AcDbCircle
 10
234.859
 20
370.654
 30
0.0
 40
10.0
100
AcDbArc
 50
90.0
 51
145.0
  0
LINE
  5
140C
330
161F
100
AcDbEntity
  8
0
100
AcDbLine
 10
219.151
 20
65.042
 30
0.0
 11
103.844
 21
65.042
 31
0.0
  0
LINE
  5
140D
330
161F
100
AcDbEntity
  8
0
100
AcDbLine
 10
219.151
 20
365.654
 30
0.0
 11
103.844
 21
365.654
 31
0.0
  0
ARC
  5
140E
330
161F
100
AcDbEntity
  8
0
100
AcDbCircle
 10
254.151
 20
215.348
 30
0.0
 40
92.0
100
AcDbArc
 50
32.024
 51
47.63
  0
LINE
  5
140F
330
161F
100
AcDbEntity
  8
0
100
AcDbLine
 10
316.151
 20
283.233
 30
0.0
 11
316.151
 21
325.848
 31
0.0
  0
LINE
  5
1410
330
161F
100
AcDbEntity
  8
0
100
AcDbLine
 10
281.151
 20
303.093
 30
0.0
 11
281.151
 21
325.848
 31
0.0
  0
LINE
  5
1411
330
161F
100
AcDbEntity
  8
0
100
AcDbLine
 10
246.151
 20
306.806
 30
0.0
 11
246.151
 21
325.848
 31
0.0
  0
LINE
  5
1412
330
161F
100
AcDbEntity
  8
0
100
AcDbLine
 10
211.151
 20
296.461
 30
0.0
 11
211.151
 21
325.848
 31
0.0
  0
LINE
  5
1413
330
161F
100
AcDbEntity
  8
0
100
AcDbLine
 10
176.151
 20
263.774
 30
0.0
 11
176.151
 21
325.848
 31
0.0
  0
ARC
  5
1414
330
161F
100
AcDbEntity
  8
0
100
AcDbCircle
 10
254.151
 20
215.348
 30
0.0
 40
92.0
100
AcDbArc
 50
62.135
 51
72.934
  0
ARC
  5
1415
330
161F
100
AcDbEntity
  8
0
100
AcDbCircle
 10
254.151
 20
215.348
 30
0.0
 40
92.0
100
AcDbArc
 50
85.011
 51
94.98899999999999
  0
ARC
  5
1416
330
161F
100
AcDbEntity
  8
0
100
AcDbCircle
 10
254.151
 20
215.348
 30
0.0
 40
92.0
100
AcDbArc
 50
107.066
 51
117.865
  0
ARC
  5
1417
330
161F
100
AcDbEntity
  8
0
100
AcDbCircle
 10
254.151
 20
215.348
 30
0.0
 40
92.0
100
AcDbArc
 50
132.37
 51
147.976
  0
ARC
  5
1418
330
161F
100
AcDbEntity
  8
0
100
AcDbCircle
 10
254.151
 20
215.348
 30
0.0
 40
92.0
100
AcDbArc
 50
212.024
 51
227.63
  0
ARC
  5
1419
330
161F
100
AcDbEntity
  8
0
100
AcDbCircle
 10
254.151
 20
215.348
 30
0.0
 40
92.0
100
AcDbArc
 50
242.1
 51
252.934
  0
ARC
  5
141A
330
161F
100
AcDbEntity
  8
0
100
AcDbCircle
 10
254.151
 20
215.348
 30
0.0
 40
92.0
100
AcDbArc
 50
265.011
 51
274.989
  0
ARC
  5
141B
330
161F
100
AcDbEntity
  8
0
100
AcDbCircle
 10
254.151
 20
215.348
 30
0.0
 40
92.0
100
AcDbArc
 50
287.066
 51
297.865
  0
ARC
  5
141C
330
161F
100
AcDbEntity
  8
0
100
AcDbCircle
 10
254.151
 20
215.348
 30
0.0
 40
92.0
100
AcDbArc
 50
312.37
 51
327.976
  0
CIRCLE
  5
141F
330
161F
100
AcDbEntity
  8
0
100
AcDbCircle
 10
372.151
 20
97.34799999999999
 30
0.0
 40
10.0
  0
CIRCLE
  5
1420
330
161F
100
AcDbEntity
  8
0
100
AcDbCircle
 10
136.151
 20
333.348
 30
0.0
 40
10.0
  0
CIRCLE
  5
1421
330
161F
100
AcDbEntity
  8
0
100
AcDbCircle
 10
372.151
 20
97.34799999999999
 30
0.0
 40
9.0
  0
CIRCLE
  5
1422
330
161F
100
AcDbEntity
  8
0
100
AcDbCircle
 10
372.151
 20
97.34799999999999
 30
0.0
 40
5.714999999999999
  0
LINE
  5
1423
330
161F
100
AcDbEntity
  8
7
 48
0.273
100
AcDbLine
 10
372.151
 20
85.348
 30
0.0
 11
372.151
 21
109.348
 31
0.0
  0
LINE
  5
1424
330
161F
100
AcDbEntity
  8
7
 48
0.273
100
AcDbLine
 10
360.151
 20
97.34799999999999
 30
0.0
 11
384.151
 21
97.34799999999999
 31
0.0
  0
LINE
  5
1425
330
161F
100
AcDbEntity
  8
0
100
AcDbLine
 10
377.098
 20
100.207
 30
0.0
 11
372.152
 21
103.062
 31
0.0
  0
LINE
  5
1426
330
161F
100
AcDbEntity
  8
0
100
AcDbLine
 10
377.101
 20
94.49299999999999
 30
0.0
 11
377.099
 21
100.205
 31
0.0
  0
LINE
  5
1427
330
161F
100
AcDbEntity
  8
0
100
AcDbLine
 10
372.152
 20
91.63299999999999
 30
0.0
 11
377.099
 21
94.48999999999999
 31
0.0
  0
LINE
  5
1428
330
161F
100
AcDbEntity
  8
0
100
AcDbLine
 10
367.202
 20
94.48999999999999
 30
0.0
 11
372.149
 21
91.63299999999999
 31
0.0
  0
LINE
  5
1429
330
161F
100
AcDbEntity
  8
0
100
AcDbLine
 10
367.202
 20
100.205
 30
0.0
 11
367.201
 21
94.49299999999999
 31
0.0
  0
LINE
  5
142A
330
161F
100
AcDbEntity
  8
0
100
AcDbLine
 10
372.149
 20
103.062
 30
0.0
 11
367.203
 21
100.207
 31
0.0
  0
CIRCLE
  5
142B
330
161F
100
AcDbEntity
  8
0
100
AcDbCircle
 10
136.151
 20
333.348
 30
0.0
 40
9.0
  0
CIRCLE
  5
142C
330
161F
100
AcDbEntity
  8
0
100
AcDbCircle
 10
136.151
 20
333.348
 30
0.0
 40
5.714999999999999
  0
LINE
  5
142D
330
161F
100
AcDbEntity
  8
7
 48
0.273
100
AcDbLine
 10
136.151
 20
321.348
 30
0.0
 11
136.151
 21
345.348
 31
0.0
  0
LINE
  5
142E
330
161F
100
AcDbEntity
  8
7
 48
0.273
100
AcDbLine
 10
124.151
 20
333.348
 30
0.0
 11
148.151
 21
333.348
 31
0.0
  0
LINE
  5
142F
330
161F
100
AcDbEntity
  8
0
100
AcDbLine
 10
141.1
 20
336.205
 30
0.0
 11
136.154
 21
339.062
 31
0.0
  0
LINE
  5
1430
330
161F
100
AcDbEntity
  8
0
100
AcDbLine
 10
141.1
 20
330.489
 30
0.0
 11
141.102
 21
336.202
 31
0.0
  0
LINE
  5
1431
330
161F
100
AcDbEntity
  8
0
100
AcDbLine
 10
136.154
 20
327.633
 30
0.0
 11
141.1
 21
330.489
 31
0.0
  0
LINE
  5
1432
330
161F
100
AcDbEntity
  8
0
100
AcDbLine
 10
131.206
 20
330.487
 30
0.0
 11
136.151
 21
327.633
 31
0.0
  0
LINE
  5
1433
330
161F
100
AcDbEntity
  8
0
100
AcDbLine
 10
131.202
 20
336.202
 30
0.0
 11
131.204
 21
330.49
 31
0.0
  0
LINE
  5
1434
330
161F
100
AcDbEntity
  8
0
100
AcDbLine
 10
136.152
 20
339.061
 30
0.0
 11
131.204
 21
336.204
 31
0.0
  0
INSERT
  5
16E9
330
161F
100
AcDbEntity
  8
0
100
AcDbBlockReference
  2
KATALOG_LEER
 10
251.839706
 20
11.304483
 30
0.0
 41
5.0
 42
5.0
 43
5.0
1001
GENIUS_GENOREF_13
1005
16EA
  0
POINT
  5
16EA
330
161F
100
AcDbEntity
  8
0
 60
     1
100
AcDbPoint
 10
0.0
 20
0.0
 30
0.0
1001
GENIUS_GENOBJ-N-TIT_13
1002
{
1000
OWNER
1000
GEN
1002
}
1001
GENIUS_GENOENT_13
1002
{
1000
MYREF
1005
16EA
1002
}
1002
{
1000
GRP
1005
0
1002
}
1001
GENIUS_GENOLIS_13
1002
{
1000
ENT
1005
16E9
1002
}
1001
GENIUS_GENTITLE_13
1002
{
1000
SCALE
1000
1:5
1002
}
1002
{
1000
BORDER
1000
KATALOG
1002
}
1002
{
1000
TITLE
1000
KATALOG_LEER
1002
}
1002
{
1000
UNCHG
1002
{
1000
GEN-TITLE-SCA
1000
GEN-TITLE-SIZ
1002
}
1002
}
1002
{
1000
HRA
1005
16E2
1002
}
1002
{
1000
HTIT
1005
16E9
1002
}
1002
{
1000
GENIUSID
1005
16EA
1002
}
1001
GENIUS_GENODEF_13
1002
{
1000
HIER
1070
     1
1002
}
1002
{
1000
MANEDIT
1070
     1
1002
}
1002
{
1000
NOSEL
1070
     0
1002
}
1002
{
1000
BEHIND
1070
     0
1002
}
1002
{
1000
REACTOR
1002
}
  0
DIMENSION
  5
184C
330
161F
100
AcDbEntity
  8
5
100
AcDbDimension
  2
*D23
 10
106.151
 20
638.2031409999999
 30
0.0
 11
254.151
 21
649.9548634409448
 31
0.0
 70
    32
  1
{\Fgeniso.shx;\U+25A1}<>
 71
     5
 42
296.0
  3
GEN-ISO
100
AcDbAlignedDimension
 13
402.151
 23
553.203141
 33
0.0
 14
106.151
 24
553.203141
 34
0.0
100
AcDbRotatedDimension
1001
GENIUS_GENDTOL_13
1000

1000
B2/max
1000

1040
0.0
1000
{\Fgeniso.shx;\U+25A1}<>
1001
ACAD
1000
DSTYLE
1002
{
1070
    41
1040
5.0
1070
    40
1040
5.0
1002
}
  0
DIMENSION
  5
1888
330
161F
100
AcDbEntity
  8
5
100
AcDbDimension
  2
*D24
 10
469.4437759999999
 20
509.203141
 30
0.0
 11
457.6937759999998
 21
531.2031410000001
 31
0.0
 70
    32
  1
<>
 71
     5
 42
43.99999999999994
  3
GEN-ISO
100
AcDbAlignedDimension
 13
402.151
 23
553.203141
 33
0.0
 14
419.823
 24
509.203141
 34
0.0
 50
90.0
100
AcDbRotatedDimension
1001
GENIUS_GENDTOL_13
1000

1000
B2/max
1000

1040
0.0
1000
<>
1001
ACAD
1000
DSTYLE
1002
{
1070
    41
1040
5.0
1002
}
  0
DIMENSION
  5
18EC
330
161F
100
AcDbEntity
  8
5
100
AcDbDimension
  2
*D25
 10
41.459
 20
553.203141
 30
0.0
 11
29.70899999999991
 21
513.2031409999999
 31
0.0
 70
    32
  1
<>
 71
     5
 42
79.99999999999989
  3
GEN-ISO
100
AcDbAlignedDimension
 13
154.151
 23
473.203141
 33
0.0
 14
106.15
 24
553.203141
 34
0.0
 50
90.0
100
AcDbRotatedDimension
1001
GENIUS_GENDTOL_13
1000

1000
B2/max
1000

1040
0.0
1000
<>
1001
ACAD
1000
DSTYLE
1002
{
1070
    41
1040
5.0
1002
}
  0
DIMENSION
  5
1A5E
330
161F
100
AcDbEntity
  8
5
100
AcDbDimension
  2
*D27
 10
281.150948
 20
603.204142
 30
0.0
 11
219.8418928818897
 21
614.954142
 31
0.0
 70
    32
  1
<>
 71
     5
 42
16.00005200000004
  3
GEN-ISO
100
AcDbAlignedDimension
 13
297.151
 23
553.203141
 33
0.0
 14
281.150948
 24
553.203141
 34
0.0
100
AcDbRotatedDimension
1001
GENIUS_GENDTOL_13
1000

1000
B2/max
1000

1040
0.0
1000
<>
1001
ACAD
1000
DSTYLE
1002
{
1070
    41
1040
5.0
1002
}
  0
DIMENSION
  5
1ACC
330
161F
100
AcDbEntity
  8
5
100
AcDbDimension
  2
*D31
 10
503.7260950000001
 20
473.2031409999999
 30
0.0
 11
503.726095
 21
514.8781579999999
 31
0.0
 70
   160
  1
<>
 71
     5
 42
80.0
  3
GEN-ISO
100
AcDbAlignedDimension
 13
402.151
 23
553.203141
 33
0.0
 14
354.151
 24
473.203141
 34
0.0
 50
90.0
100
AcDbRotatedDimension
1001
GENIUS_GENDTOL_13
1000

1000
h7
1000

1040
0.0
1000
<>
1001
ACAD
1000
DSTYLE
1002
{
1070
    41
1040
5.0
1002
}
  0
ENDSEC
  0
SECTION
  2
OBJECTS
  0
DICTIONARY
  5
1613
330
0
100
AcDbDictionary
281
     1
  3
ACAD_COLOR
350
1B03
  3
ACAD_GROUP
350
1614
  3
ACAD_LAYOUT
350
1B06
  3
ACAD_MATERIAL
350
1B02
  3
ACAD_MLINESTYLE
350
1622
  3
ACAD_PLOTSETTINGS
350
1B07
  3
ACAD_PLOTSTYLENAME
350
1B00
  3
ACAD_TABLESTYLE
350
1B04
  3
ACDBHEADERROUNDTRIPXREC
350
1C1B
  3
AcDbVariableDictionary
350
1C16
  3
AcmDictionary
350
1B65
  3
AMG
350
1B0B
  3
AMGSNAPSETTINGS
350
1BDB
  0
DICTIONARY
  5
1B03
102
{ACAD_REACTORS
330
1613
102
}
330
1613
100
AcDbDictionary
281
     1
  0
DICTIONARY
  5
1614
102
{ACAD_REACTORS
330
1613
102
}
330
1613
100
AcDbDictionary
281
     1
  0
DICTIONARY
  5
1B06
102
{ACAD_REACTORS
330
1613
102
}
330
1613
100
AcDbDictionary
281
     1
  3
Layout1
350
1B09
  3
Model
350
1B08
  0
DICTIONARY
  5
1B02
102
{ACAD_REACTORS
330
1613
102
}
330
1613
100
AcDbDictionary
281
     1
  0
DICTIONARY
  5
1622
102
{ACAD_REACTORS
330
1613
102
}
330
1613
100
AcDbDictionary
281
     1
  3
STANDARD
350
1623
  0
DICTIONARY
  5
1B07
102
{ACAD_REACTORS
330
1613
102
}
330
1613
100
AcDbDictionary
281
     1
  0
ACDBDICTIONARYWDFLT
  5
1B00
102
{ACAD_REACTORS
330
1613
102
}
330
1613
100
AcDbDictionary
281
     1
  3
Normal
350
1B01
100
AcDbDictionaryWithDefault
340
1B01
  0
DICTIONARY
  5
1B04
102
{ACAD_REACTORS
330
1613
102
}
330
1613
100
AcDbDictionary
281
     1
  3
Standard
350
1B05
  0
DICTIONARY
  5
1C1B
102
{ACAD_REACTORS
330
1613
102
}
330
1613
100
AcDbDictionary
281
     1
  0
DICTIONARY
  5
1C16
102
{ACAD_REACTORS
330
1613
102
}
330
1613
100
AcDbDictionary
281
     1
  3
CTABLESTYLE
350
1C17
  3
DIMASSOC
350
1C18
  3
PROJECTNAME
350
1C19
  0
DICTIONARY
  5
1B65
102
{ACAD_REACTORS
330
1613
102
}
330
1613
100
AcDbDictionary
281
     1
  3
AcmStdDictionary
350
1B70
  3
AMDTSECTSYM_ARROWCOLOR
350
1B93
  0
DICTIONARY
  5
1B0B
102
{ACAD_REACTORS
330
1613
102
}
330
1613
100
AcDbDictionary
281
     1
  0
DICTIONARY
  5
1BDB
102
{ACAD_REACTORS
330
1613
102
}
330
1613
100
AcDbDictionary
281
     1
  0
LAYOUT
  5
1B09
102
{ACAD_XDICTIONARY
360
1C1E
102
}
102
{ACAD_REACTORS
330
1B06
102
}
330
1B06
100
AcDbPlotSettings
  1

  2
Xerox Document Centre CS50 PS
  4

  6

 40
0.0
 41
0.0
 42
0.0
 43
0.0
 44
0.0
 45
0.0
 46
0.0
 47
0.0
 48
0.0
 49
0.0
140
0.0
141
0.0
142
1.0
143
1.0
 70
   688
 72
     0
 73
     0
 74
     5
  7

 75
    16
147
1.0
148
0.0
149
0.0
100
AcDbLayout
  1
Layout1
 70
     1
 71
     1
 10
0.0
 20
0.0
 11
419.8999999999999
 21
296.9
 12
0.0
 22
0.0
 32
0.0
 14
0.0
 24
0.0
 34
0.0
 15
419.8999999999999
 25
296.9
 35
0.0
146
0.0
 13
0.0
 23
0.0
 33
0.0
 16
1.0
 26
0.0
 36
0.0
 17
0.0
 27
1.0
 37
0.0
 76
     0
330
161C
  0
LAYOUT
  5
1B08
102
{ACAD_XDICTIONARY
360
1C1C
102
}
102
{ACAD_REACTORS
330
1B06
102
}
330
1B06
100
AcDbPlotSettings
  1

  2
Xerox Document Centre CS50 PS
  4

  6

 40
0.0
 41
0.0
 42
0.0
 43
0.0
 44
0.0
 45
0.0
 46
0.0
 47
0.0
 48
0.0
 49
0.0
140
0.0
141
0.0
142
1.0
143
1.0
 70
  1712
 72
     0
 73
     0
 74
     0
  7

 75
     0
147
1.0
148
0.0
149
0.0
100
AcDbLayout
  1
Model
 70
     1
 71
     0
 10
0.0
 20
0.0
 11
12.0
 21
9.0
 12
0.0
 22
0.0
 32
0.0
 14
0.0
 24
0.0
 34
0.0
 15
0.0
 25
0.0
 35
0.0
146
0.0
 13
0.0
 23
0.0
 33
0.0
 16
1.0
 26
0.0
 36
0.0
 17
0.0
 27
1.0
 37
0.0
 76
     0
330
161F
  0
MLINESTYLE
  5
1623
102
{ACAD_REACTORS
330
1622
102
}
330
1622
100
AcDbMlineStyle
  2
STANDARD
 70
     0
  3

 62
   256
 51
90.0
 52
90.0
 71
     2
 49
0.5
 62
   256
  6
BYLAYER
 49
-0.5
 62
   256
  6
BYLAYER
  0
ACDBPLACEHOLDER
  5
1B01
102
{ACAD_REACTORS
330
1B00
102
}
330
1B00
  0
TABLESTYLE
  5
1B05
102
{ACAD_REACTORS
330
1B04
102
}
330
1B04
100
AcDbTableStyle
  3
Standard
 70
     0
 71
     0
 40
1.5
 41
1.5
280
     0
281
     0
  7
STANDARD
140
4.5
170
     2
 62
     0
 63
     7
283
     0
274
    -2
284
     1
 64
     0
275
    -2
285
     1
 65
     0
276
    -2
286
     1
 66
     0
277
    -2
287
     1
 67
     0
278
    -2
288
     1
 68
     0
279
    -2
289
     1
 69
     0
  7
STANDARD
140
6.0
170
     5
 62
     0
 63
     7
283
     0
274
    -2
284
     1
 64
     0
275
    -2
285
     1
 65
     0
276
    -2
286
     1
 66
     0
277
    -2
287
     1
 67
     0
278
    -2
288
     1
 68
     0
279
    -2
289
     1
 69
     0
  7
STANDARD
140
4.5
170
     5
 62
     0
 63
     7
283
     0
274
    -2
284
     1
 64
     0
275
    -2
285
     1
 65
     0
276
    -2
286
     1
 66
     0
277
    -2
287
     1
 67
     0
278
    -2
288
     1
 68
     0
279
    -2
289
     1
 69
     0
  0
DICTIONARYVAR
  5
1C17
102
{ACAD_REACTORS
330
1C16
102
}
330
1C16
100
DictionaryVariables
280
     0
  1
STANDARD
  0
DICTIONARYVAR
  5
1C18
102
{ACAD_REACTORS
330
1C16
102
}
330
1C16
100
DictionaryVariables
280
     0
  1
1
  0
DICTIONARYVAR
  5
1C19
102
{ACAD_REACTORS
330
1C16
102
}
330
1C16
100
DictionaryVariables
280
     0
  1

  0
DICTIONARY
  5
1B70
102
{ACAD_REACTORS
330
1B65
102
}
330
1B65
100
AcDbDictionary
281
     1
  0
XRECORD
  5
1B93
102
{ACAD_REACTORS
330
1B65
102
}
330
1B65
100
AcDbXrecord
280
     1
 90
-1023410169
  0
DICTIONARY
  5
1C1E
330
1B09
100
AcDbDictionary
280
     1
281
     1
  3
ACAD_XREC_ROUNDTRIP
360
1C1F
  0
DICTIONARY
  5
1C1C
330
1B08
100
AcDbDictionary
280
     1
281
     1
  3
ACAD_XREC_ROUNDTRIP
360
1C1D
  0
XRECORD
  5
1C1F
102
{ACAD_REACTORS
330
1C1E
102
}
330
1C1E
100
AcDbXrecord
280
     1
102
SHADEPLOT
 70
     0
102
SHADEPLOTRESLEVEL
 70
     2
102
SHADEPLOTCUSTOMDPI
 70
   300
  0
XRECORD
  5
1C1D
102
{ACAD_REACTORS
330
1C1C
102
}
330
1C1C
100
AcDbXrecord
280
     1
102
SHADEPLOT
 70
     0
102
SHADEPLOTRESLEVEL
 70
     2
102
SHADEPLOTCUSTOMDPI
 70
   300
  0
ENDSEC
  0
EOF
