  0
SECTION
  2
HEADER
  9
$ACADVER
  1
AC1015
  9
$ACADMAINTVER
 70
    20
  9
$DWGCODEPAGE
  3
ANSI_1252
  9
$INSBASE
 10
0.0
 20
0.0
 30
0.0
  9
$EXTMIN
 10
137.274172526405
 20
37.05826054450381
 30
-0.0015258207003583
  9
$EXTMAX
 10
594.2138691016166
 20
640.436555923005
 30
0.0000000349246037
  9
$LIMMIN
 10
0.0
 20
0.0
  9
$LIMMAX
 10
1050.0
 20
1050.0
  9
$ORTHOMODE
 70
     0
  9
$REGENMODE
 70
     1
  9
$FILLMODE
 70
     1
  9
$QTEXTMODE
 70
     0
  9
$MIRRTEXT
 70
     0
  9
$LTSCALE
 40
5.0
  9
$ATTMODE
 70
     1
  9
$TEXTSIZE
 40
10.0
  9
$TRACEWID
 40
0.05
  9
$TEXTSTYLE
  7
STANDARD
  9
$CLAYER
  8
0
  9
$CELTYPE
  6
BYLAYER
  9
$CECOLOR
 62
   256
  9
$CELTSCALE
 40
1.0
  9
$DISPSILH
 70
     0
  9
$DIMSCALE
 40
5.0
  9
$DIMASZ
 40
2.5
  9
$DIMEXO
 40
1.0
  9
$DIMDLI
 40
7.0
  9
$DIMRND
 40
0.0
  9
$DIMDLE
 40
0.0
  9
$DIMEXE
 40
1.0
  9
$DIMTP
 40
0.1
  9
$DIMTM
 40
0.1
  9
$DIMTXT
 40
3.5
  9
$DIMCEN
 40
0.0
  9
$DIMTSZ
 40
0.0
  9
$DIMTOL
 70
     0
  9
$DIMLIM
 70
     0
  9
$DIMTIH
 70
     0
  9
$DIMTOH
 70
     0
  9
$DIMSE1
 70
     0
  9
$DIMSE2
 70
     0
  9
$DIMTAD
 70
     1
  9
$DIMZIN
 70
    12
  9
$DIMBLK
  1

  9
$DIMASO
 70
     1
  9
$DIMSHO
 70
     1
  9
$DIMPOST
  1

  9
$DIMAPOST
  1
"
  9
$DIMALT
 70
     0
  9
$DIMALTD
 70
     2
  9
$DIMALTF
 40
0.03937
  9
$DIMLFAC
 40
1.0
  9
$DIMTOFL
 70
     1
  9
$DIMTVP
 40
0.0
  9
$DIMTIX
 70
     0
  9
$DIMSOXD
 70
     0
  9
$DIMSAH
 70
     0
  9
$DIMBLK1
  1

  9
$DIMBLK2
  1

  9
$DIMSTYLE
  2
GEN-ISO
  9
$DIMCLRD
 70
   256
  9
$DIMCLRE
 70
   256
  9
$DIMCLRT
 70
     2
  9
$DIMTFAC
 40
0.71
  9
$DIMGAP
 40
0.6
  9
$DIMJUST
 70
     0
  9
$DIMSD1
 70
     0
  9
$DIMSD2
 70
     0
  9
$DIMTOLJ
 70
     0
  9
$DIMTZIN
 70
     0
  9
$DIMALTZ
 70
     0
  9
$DIMALTTZ
 70
     0
  9
$DIMUPT
 70
     0
  9
$DIMDEC
 70
     2
  9
$DIMTDEC
 70
     3
  9
$DIMALTU
 70
     2
  9
$DIMALTTD
 70
     4
  9
$DIMTXSTY
  7
STANDARD
  9
$DIMAUNIT
 70
     0
  9
$DIMADEC
 70
     0
  9
$DIMALTRND
 40
0.0
  9
$DIMAZIN
 70
     0
  9
$DIMDSEP
 70
    46
  9
$DIMATFIT
 70
     3
  9
$DIMFRAC
 70
     0
  9
$DIMLDRBLK
  1

  9
$DIMLUNIT
 70
     2
  9
$DIMLWD
 70
    -2
  9
$DIMLWE
 70
    -2
  9
$DIMTMOVE
 70
     0
  9
$LUNITS
 70
     2
  9
$LUPREC
 70
     2
  9
$SKETCHINC
 40
0.1
  9
$FILLETRAD
 40
12.5
  9
$AUNITS
 70
     0
  9
$AUPREC
 70
     2
  9
$MENU
  1
.
  9
$ELEVATION
 40
0.0
  9
$PELEVATION
 40
0.0
  9
$THICKNESS
 40
0.0
  9
$LIMCHECK
 70
     0
  9
$CHAMFERA
 40
12.5
  9
$CHAMFERB
 40
12.5
  9
$CHAMFERC
 40
0.0
  9
$CHAMFERD
 40
0.0
  9
$SKPOLY
 70
     0
  9
$TDCREATE
 40
2451295.585428079
  9
$TDUCREATE
 40
2451295.502094745
  9
$TDUPDATE
 40
2454019.928701065
  9
$TDUUPDATE
 40
2454019.845367731
  9
$TDINDWG
 40
0.0031398032
  9
$TDUSRTIMER
 40
0.0031398032
  9
$USRTIMER
 70
     1
  9
$ANGBASE
 50
0.0
  9
$ANGDIR
 70
     0
  9
$PDMODE
 70
     0
  9
$PDSIZE
 40
0.0
  9
$PLINEWID
 40
0.0
  9
$SPLFRAME
 70
     0
  9
$SPLINETYPE
 70
     6
  9
$SPLINESEGS
 70
     8
  9
$HANDSEED
  5
158B
  9
$SURFTAB1
 70
     6
  9
$SURFTAB2
 70
     6
  9
$SURFTYPE
 70
     6
  9
$SURFU
 70
     6
  9
$SURFV
 70
     6
  9
$UCSBASE
  2

  9
$UCSNAME
  2

  9
$UCSORG
 10
0.0
 20
0.0
 30
0.0
  9
$UCSXDIR
 10
1.0
 20
0.0
 30
0.0
  9
$UCSYDIR
 10
0.0
 20
1.0
 30
0.0
  9
$UCSORTHOREF
  2

  9
$UCSORTHOVIEW
 70
     0
  9
$UCSORGTOP
 10
0.0
 20
0.0
 30
0.0
  9
$UCSORGBOTTOM
 10
0.0
 20
0.0
 30
0.0
  9
$UCSORGLEFT
 10
0.0
 20
0.0
 30
0.0
  9
$UCSORGRIGHT
 10
0.0
 20
0.0
 30
0.0
  9
$UCSORGFRONT
 10
0.0
 20
0.0
 30
0.0
  9
$UCSORGBACK
 10
0.0
 20
0.0
 30
0.0
  9
$PUCSBASE
  2

  9
$PUCSNAME
  2

  9
$PUCSORG
 10
0.0
 20
0.0
 30
0.0
  9
$PUCSXDIR
 10
1.0
 20
0.0
 30
0.0
  9
$PUCSYDIR
 10
0.0
 20
1.0
 30
0.0
  9
$PUCSORTHOREF
  2

  9
$PUCSORTHOVIEW
 70
     0
  9
$PUCSORGTOP
 10
0.0
 20
0.0
 30
0.0
  9
$PUCSORGBOTTOM
 10
0.0
 20
0.0
 30
0.0
  9
$PUCSORGLEFT
 10
0.0
 20
0.0
 30
0.0
  9
$PUCSORGRIGHT
 10
0.0
 20
0.0
 30
0.0
  9
$PUCSORGFRONT
 10
0.0
 20
0.0
 30
0.0
  9
$PUCSORGBACK
 10
0.0
 20
0.0
 30
0.0
  9
$USERI1
 70
     0
  9
$USERI2
 70
     0
  9
$USERI3
 70
     0
  9
$USERI4
 70
     0
  9
$USERI5
 70
     0
  9
$USERR1
 40
0.0
  9
$USERR2
 40
0.0
  9
$USERR3
 40
0.0
  9
$USERR4
 40
0.0
  9
$USERR5
 40
0.0
  9
$WORLDVIEW
 70
     1
  9
$SHADEDGE
 70
     3
  9
$SHADEDIF
 70
    70
  9
$TILEMODE
 70
     1
  9
$MAXACTVP
 70
    48
  9
$PINSBASE
 10
0.0
 20
0.0
 30
0.0
  9
$PLIMCHECK
 70
     0
  9
$PEXTMIN
 10
0.0
 20
0.0
 30
0.0
  9
$PEXTMAX
 10
419.8999999999999
 20
296.9
 30
0.0
  9
$PLIMMIN
 10
0.0
 20
0.0
  9
$PLIMMAX
 10
419.8999999999999
 20
296.9
  9
$UNITMODE
 70
     0
  9
$VISRETAIN
 70
     1
  9
$PLINEGEN
 70
     1
  9
$PSLTSCALE
 70
     1
  9
$TREEDEPTH
 70
 -3020
  9
$CMLSTYLE
  2
STANDARD
  9
$CMLJUST
 70
     0
  9
$CMLSCALE
 40
1.0
  9
$PROXYGRAPHICS
 70
     1
  9
$MEASUREMENT
 70
     1
  9
$CELWEIGHT
370
    -1
  9
$ENDCAPS
280
     0
  9
$JOINSTYLE
280
     0
  9
$LWDISPLAY
290
     0
  9
$INSUNITS
 70
     0
  9
$HYPERLINKBASE
  1

  9
$STYLESHEET
  1

  9
$XEDIT
290
     1
  9
$CEPSNTYPE
380
     0
  9
$PSTYLEMODE
290
     1
  9
$FINGERPRINTGUID
  2
{2615D872-43B6-47C6-86B5-9D9B00CEBFA1}
  9
$VERSIONGUID
  2
{FDF7D3B7-B928-4A1F-8A2E-40EEAFB1F75A}
  9
$EXTNAMES
290
     1
  9
$PSVPSCALE
 40
0.0
  9
$OLESTARTUP
290
     0
  0
ENDSEC
  0
SECTION
  2
CLASSES
  0
CLASS
  1
ACDBDICTIONARYWDFLT
  2
AcDbDictionaryWithDefault
  3
ObjectDBX Classes
 90
        0
280
     0
281
     0
  0
CLASS
  1
TABLESTYLE
  2
AcDbTableStyle
  3
ObjectDBX Classes
 90
     2047
280
     0
281
     0
  0
CLASS
  1
AMGSETTINGSOBJ
  2
AmgSettingsObj
  3
"AcadM|Product Description: AutoCAD Mechanical 2000|Company: Autodesk"
 90
        0
280
     0
281
     0
  0
CLASS
  1
ACME_DOCUMENT
  2
AcMeDbDoc
  3
AcMeServices
 90
        0
280
     0
281
     0
  0
CLASS
  1
ACMESCOPE
  2
AcMeScope
  3
AcMeServices
 90
        0
280
     0
281
     0
  0
CLASS
  1
ACMECOMMANDHISTORY
  2
AcMeCommandHistory
  3
AcMeServices
 90
        0
280
     0
281
     0
  0
CLASS
  1
ACIMSYSVARMAN
  2
AcImSysVarManager
  3
AcMeServices
 90
        0
280
     0
281
     0
  0
CLASS
  1
ACIMINTSYSVAR
  2
AcImIntSysVar
  3
AcMeServices
 90
        0
280
     0
281
     0
  0
CLASS
  1
ACMEDRAWINGMAN
  2
AcMeDrawingMan
  3
AcMeServices
 90
        0
280
     0
281
     0
  0
CLASS
  1
ACMEVIEW
  2
AcMeView
  3
AcMeServices
 90
        0
280
     0
281
     0
  0
CLASS
  1
ACDBENTITYCACHE
  2
AcMeEntityCache
  3
AcMeServices
 90
        0
280
     0
281
     0
  0
CLASS
  1
GSMANAGER
  2
AcMeGSManager
  3
AcMeServices
 90
        0
280
     0
281
     0
  0
CLASS
  1
AMDTINTERNALREACTOR
  2
AmdtInternalReactor
  3
AcMeServices
 90
        0
280
     0
281
     0
  0
CLASS
  1
ACMESTATEMGR
  2
AcMeStateMgr
  3
AcMeServices
 90
        0
280
     0
281
     0
  0
CLASS
  1
ACGREFMASTER
  2
AcGrefMaster
  3
AcAttribServices
 90
        0
280
     0
281
     0
  0
CLASS
  1
AM_DRAWING_MGR
  2
AcDmDwgMgr
  3
AcMechDwgViewMgmt
 90
        0
280
     0
281
     0
  0
CLASS
  1
AM_DWG_DOCUMENT
  2
AcDmDwgDocument
  3
AcMechDwgViewMgmt
 90
        0
280
     0
281
     0
  0
CLASS
  1
AM_DWG_SHEET
  2
AcDmSheet
  3
AcMechDwgViewMgmt
 90
        0
280
     0
281
     0
  0
CLASS
  1
AM_VIEWDIMPARMAP
  2
AcDmViewDimParMap
  3
AcMechDwgViewMgmt
 90
        0
280
     0
281
     0
  0
CLASS
  1
ACIMREALSYSVAR
  2
AcImRealSysVar
  3
AcMeServices
 90
        0
280
     0
281
     0
  0
CLASS
  1
AM_DWGMGR_NAME
  2
AcDmDwgMgrName
  3
AcMechDwgViewMgmt
 90
        0
280
     0
281
     0
  0
CLASS
  1
ACME_DATABASE
  2
AcMeDbDatabase
  3
AcMeServices
 90
        0
280
     0
281
     0
  0
CLASS
  1
ACRFINSADJUSTERMGR
  2
AcRfInsAdjusterMgr
  3
AcMeServices
 90
        0
280
     0
281
     0
  0
CLASS
  1
ACGREFACADMASTER
  2
AcGrefacadMaster
  3
AcGrefServices
 90
        0
280
     0
281
     0
  0
CLASS
  1
AMDTMENUSTATEMGR
  2
AmdtMenuStateMgr
  3
McadcomServices
 90
        0
280
     0
281
     0
  0
CLASS
  1
AMDTMCOMMENUSTATE
  2
AmdtMcomMenuState
  3
McadcomServices
 90
        0
280
     0
281
     0
  0
CLASS
  1
AMIMASTER
  2
AmiMaster
  3
AmiServices
 90
        0
280
     0
281
     0
  0
CLASS
  1
MAPIAMMOUDLE
  2
MApiAmModule
  3
MApiAmServices
 90
        0
280
     0
281
     0
  0
CLASS
  1
ACIMSTRSYSVAR
  2
AcImStrSysVar
  3
AcMeServices
 90
        0
280
     0
281
     0
  0
CLASS
  1
AMDTADMENUSTATE
  2
AmdtAdMenuState
  3
DesignerServices
 90
        0
280
     0
281
     0
  0
CLASS
  1
ADAPPL
  2
AcAdAppl
  3
DesignerServices
 90
        0
280
     0
281
     0
  0
CLASS
  1
DEPMGR
  2
AcAdDepMgr
  3
DesignerServices
 90
        0
280
     0
281
     0
  0
CLASS
  1
PARAMMGR
  2
AcAdParamMgr
  3
DesignerServices
 90
        0
280
     0
281
     0
  0
CLASS
  1
PARAMSCOPE
  2
AcAdParamScope
  3
DesignerServices
 90
        0
280
     0
281
     0
  0
CLASS
  1
NAMEDAPPL
  2
AcAdNamedAppl
  3
DesignerServices
 90
        0
280
     0
281
     0
  0
CLASS
  1
AMDTDMMENUSTATE
  2
AmdtDmMenuState
  3
AcMechDwgViewMgmt
 90
        0
280
     0
281
     0
  0
CLASS
  1
AMDTAMMENUSTATE
  2
AmdtAmMenuState
  3
DesignerAssemblies
 90
        0
280
     0
281
     0
  0
CLASS
  1
ACAMPROJECT
  2
AcAmProject
  3
DesignerAssemblies
 90
        0
280
     0
281
     0
  0
CLASS
  1
ACAMGRCOMPDEF
  2
AcAmGrCompDef
  3
DesignerAssemblies
 90
        0
280
     0
281
     0
  0
CLASS
  1
ACCMCONTEXT
  2
AcCmContext
  3
DesignerAssemblies
 90
        0
280
     0
281
     0
  0
CLASS
  1
ACAMCOMPDEF
  2
AcAmCompDef
  3
DesignerAssemblies
 90
        0
280
     0
281
     0
  0
CLASS
  1
ACAMCOMPDEFMGR
  2
AcAmCompDefMgr
  3
DesignerAssemblies
 90
        0
280
     0
281
     0
  0
CLASS
  1
AMCONTEXTMGR
  2
AcAmContextMgr
  3
DesignerAssemblies
 90
        0
280
     0
281
     0
  0
CLASS
  1
ACAMCONTEXTMODELER
  2
AcAmContextModeler
  3
DesignerAssemblies
 90
        0
280
     0
281
     0
  0
CLASS
  1
ACMDATADICTIONARY
  2
AcmDataDictionary
  3
"AcmSymBB|Product Description: AutoCAD Mechanical 2004 DX|Company: Autodesk"
 90
        0
280
     0
281
     0
  0
CLASS
  1
CATALOGSTATE
  2
AcAmCatalogState
  3
DesignerAssemblies
 90
        0
280
     0
281
     0
  0
CLASS
  1
ACAMGRCOMPDEFSET
  2
AcAmGrCompDefSet
  3
DesignerAssemblies
 90
        0
280
     0
281
     0
  0
CLASS
  1
AMDTBROWSERDBTAB
  2
AmdtBrowserDbTab
  3
McadcomServices
 90
        0
280
     0
281
     0
  0
CLASS
  1
CBROWSERAPPOBJECT
  2
CBrowserAppObject
  3
McadcomServices
 90
        0
280
     0
281
     0
  0
CLASS
  1
DM_PLACEHOLDER
  2
AcDmSelsetPlaceholder
  3
AcMechDwgViewMgmt
 90
        0
280
     0
281
     0
  0
CLASS
  1
ACMSTANDARDDIN
  2
AcmStandardDIN
  3
"Amdt_StdImp|Product Description: AutoCAD Mechanical 2004 DX|Company: Autodesk"
 90
        0
280
     0
281
     0
  0
CLASS
  1
AMGOBJPROPCFG
  2
AmgObjPropCfg
  3
"AmgLay|Product Description: AutoCAD Mechanical 2000|Company: Autodesk"
 90
        1
280
     0
281
     0
  0
CLASS
  1
AMDTEDGESTANDARDDIN13715
  2
AmdtEdgeStdDIN13715
  3
"Amdt_StdImp|Product Description: AutoCAD Mechanical 2004 DX|Company: Autodesk"
 90
        0
280
     0
281
     0
  0
CLASS
  1
ACMSURFSTANDARDDIN
  2
AcmSurfTextStdDIN
  3
"Amdt_StdImp|Product Description: AutoCAD Mechanical 2004 DX|Company: Autodesk"
 90
        0
280
     0
281
     0
  0
CLASS
  1
ACMFCFSTANDARDDIN
  2
AcmFCFStdDIN
  3
"Amdt_StdImp|Product Description: AutoCAD Mechanical 2004 DX|Company: Autodesk"
 90
        0
280
     0
281
     0
  0
CLASS
  1
ACMWELDSTANDARDDIN
  2
AcmWeldingStdDIN
  3
"Amdt_StdImp|Product Description: AutoCAD Mechanical 2004 DX|Company: Autodesk"
 90
        0
280
     0
281
     0
  0
CLASS
  1
ACMIDSTANDARDDIN
  2
AcmIdStdDIN
  3
"Amdt_StdImp|Product Description: AutoCAD Mechanical 2004 DX|Company: Autodesk"
 90
        0
280
     0
281
     0
  0
CLASS
  1
ACMDATUMSTANDARDDIN
  2
AcmDatumStdDIN
  3
"Amdt_StdImp|Product Description: AutoCAD Mechanical 2004 DX|Company: Autodesk"
 90
        0
280
     0
281
     0
  0
CLASS
  1
ACMBOMSTANDARDDIN
  2
AcmBOMStdDIN
  3
"Amdt_StdImp|Product Description: AutoCAD Mechanical 2004 DX|Company: Autodesk"
 90
        0
280
     0
281
     0
  0
CLASS
  1
ACMDETAILSTANDARDDIN
  2
AmdtDetailSymStdDIN
  3
"Amdt_StdImp|Product Description: AutoCAD Mechanical 2004 DX|Company: Autodesk"
 90
        0
280
     0
281
     0
  0
CLASS
  1
ACMSECTIONSTANDARDDIN
  2
AmdtSectionSymStdDIN
  3
"Amdt_StdImp|Product Description: AutoCAD Mechanical 2004 DX|Company: Autodesk"
 90
        0
280
     0
281
     0
  0
CLASS
  1
ACMCENTERLINESTANDARDDIN
  2
AmdtCenterLineStdDIN
  3
"Amdt_StdImp|Product Description: AutoCAD Mechanical 2004 DX|Company: Autodesk"
 90
        0
280
     0
281
     0
  0
CLASS
  1
ACMTHREADLINESTANDARDDIN
  2
AmdtThreadLineStdDIN
  3
"Amdt_StdImp|Product Description: AutoCAD Mechanical 2004 DX|Company: Autodesk"
 90
        0
280
     0
281
     0
  0
CLASS
  1
ACMNOTESTANDARDDIN
  2
AmdtNoteStdDIN
  3
"Amdt_StdImp|Product Description: AutoCAD Mechanical 2004 DX|Company: Autodesk"
 90
        0
280
     0
281
     0
  0
CLASS
  1
AMDTNOTETEMPLATEDB
  2
AmdtNoteTemplateDB
  3
AMDT_STDIMP_MODULE_NAME
 90
        0
280
     0
281
     0
  0
CLASS
  1
ACAMGLAYSTD
  2
AcAmgLayStd
  3
"AcAmgLayStd|Product Description: AutoCAD Mechanical 2000|Company: Autodesk"
 90
        0
280
     0
281
     0
  0
CLASS
  1
ACAMGDIMSTD
  2
AcAmgDimStd
  3
"AcAmgDimStd|Product Description: AutoCAD Mechanical 2000|Company: Autodesk"
 90
        0
280
     0
281
     0
  0
CLASS
  1
ACAMGHOLECHARTSTDDIN
  2
AcAmgHoleChartStdDIN
  3
ACMSYMBB_MODULE_NAME
 90
        0
280
     0
281
     0
  0
CLASS
  1
ACAMGTITLESTD
  2
AcAmgTitleStd
  3
"TITLEAPP"
 90
        0
280
     0
281
     0
  0
CLASS
  1
ACAMGFILTERDAT
  2
AcAmgFilterDat
  3
"AcadM|Product Description: AutoCAD Mechanical 2000|Company: Autodesk"
 90
        0
280
     0
281
     0
  0
CLASS
  1
DICTIONARYVAR
  2
AcDbDictionaryVar
  3
ObjectDBX Classes
 90
        0
280
     0
281
     0
  0
CLASS
  1
ACDBPLACEHOLDER
  2
AcDbPlaceHolder
  3
ObjectDBX Classes
 90
        0
280
     0
281
     0
  0
CLASS
  1
LAYOUT
  2
AcDbLayout
  3
ObjectDBX Classes
 90
        0
280
     0
281
     0
  0
ENDSEC
  0
SECTION
  2
TABLES
  0
TABLE
  2
VPORT
  5
12C3
330
0
100
AcDbSymbolTable
 70
     4
  0
VPORT
  5
1585
330
12C3
100
AcDbSymbolTableRecord
100
AcDbViewportTableRecord
  2
*Active
 70
     0
 10
0.0
 20
0.0
 11
1.0
 21
1.0
 12
365.7440208140109
 22
338.7474082337544
 13
0.0
 23
0.0
 14
5.0
 24
5.0
 15
50.0
 25
50.0
 16
0.0
 26
0.0
 36
1.0
 17
0.0
 27
0.0
 37
0.0
 40
607.76118856527
 41
1.494545454545454
 42
50.0
 43
0.0
 44
0.0
 50
0.0
 51
0.0
 71
     0
 72
  1000
 73
     1
 74
     1
 75
     0
 76
     0
 77
     0
 78
     0
281
     0
 65
     0
110
0.0
120
0.0
130
0.0
111
1.0
121
0.0
131
0.0
112
0.0
122
1.0
132
0.0
 79
     0
146
0.0
  0
ENDTAB
  0
TABLE
  2
LTYPE
  5
12C0
330
0
100
AcDbSymbolTable
 70
    21
  0
LTYPE
  5
12CD
330
12C0
100
AcDbSymbolTableRecord
100
AcDbLinetypeTableRecord
  2
BYBLOCK
 70
     0
  3

 72
    65
 73
     0
 40
0.0
  0
LTYPE
  5
12CE
330
12C0
100
AcDbSymbolTableRecord
100
AcDbLinetypeTableRecord
  2
BYLAYER
 70
     0
  3

 72
    65
 73
     0
 40
0.0
  0
LTYPE
  5
12CF
330
12C0
100
AcDbSymbolTableRecord
100
AcDbLinetypeTableRecord
  2
CONTINUOUS
 70
     0
  3
Solid line
 72
    65
 73
     0
 40
0.0
  0
LTYPE
  5
12DE
330
12C0
100
AcDbSymbolTableRecord
100
AcDbLinetypeTableRecord
  2
GEN7
 70
     0
  3
____ _ ____ _ ____ _ ____ _ ____ _ ____ _ ____ _ ____ _ ____ _
 72
    65
 73
     4
 40
22.0
 49
10.75
 74
     0
 49
-3.75
 74
     0
 49
3.75
 74
     0
 49
-3.75
 74
     0
  0
LTYPE
  5
1452
330
12C0
100
AcDbSymbolTableRecord
100
AcDbLinetypeTableRecord
  2
GEN3A
 70
     0
  3
 - - - - -
 72
    65
 73
     2
 40
3.125
 49
2.25
 74
     0
 49
-0.875
 74
     0
  0
LTYPE
  5
14BC
330
12C0
100
AcDbSymbolTableRecord
100
AcDbLinetypeTableRecord
  2
HIDDEN
 70
     0
  3
Verdeckt
 72
    65
 73
     2
 40
9.525
 49
6.349999999999999
 74
     0
 49
-3.174999999999999
 74
     0
  0
LTYPE
  5
14BD
330
12C0
100
AcDbSymbolTableRecord
100
AcDbLinetypeTableRecord
  2
PHANTOM2
 70
     0
  3
Phantom (.5x) ___ _ _ ___ _ _ ___ _ _ ___ _ _
 72
    65
 73
     6
 40
31.75
 49
15.875
 74
     0
 49
-3.174999999999999
 74
     0
 49
3.174999999999999
 74
     0
 49
-3.174999999999999
 74
     0
 49
3.174999999999999
 74
     0
 49
-3.174999999999999
 74
     0
  0
LTYPE
  5
14BE
330
12C0
100
AcDbSymbolTableRecord
100
AcDbLinetypeTableRecord
  2
CENTER
 70
     0
  3
Mitte ____ _ ____ _ ____ _ ____ _ ____ _ ____
 72
    65
 73
     4
 40
50.8
 49
31.75
 74
     0
 49
-6.349999999999999
 74
     0
 49
6.349999999999999
 74
     0
 49
-6.349999999999999
 74
     0
  0
LTYPE
  5
14F5
330
12C0
100
AcDbSymbolTableRecord
100
AcDbLinetypeTableRecord
  2
Amconstr
 70
     0
  3
_______________________
 72
    65
 73
     2
 40
9999.0
 49
9999.0
 74
     0
 49
0.0
 74
     0
  0
LTYPE
  5
14FA
330
12C0
100
AcDbSymbolTableRecord
100
AcDbLinetypeTableRecord
  2
Amzigzag
 70
     0
  3
/\/-/\/-/\/-/\/-/\/-/\/
 72
    65
 73
     2
 40
11.0001
 49
0.0001
 74
     4
 75
   136
340
14F9
 46
0.04
 50
0.0
 44
0.0
 45
0.0
 49
-11.0
 74
     0
  0
LTYPE
  5
14FB
330
12C0
100
AcDbSymbolTableRecord
100
AcDbLinetypeTableRecord
  2
AM_DIN_F_W050
 70
     0
  3
__ __ __ __ __ __ __ __ __ __ __ __ __ __ __
 72
    65
 73
     2
 40
6.25
 49
4.75
 74
     0
 49
-1.5
 74
     0
  0
LTYPE
  5
14FC
330
12C0
100
AcDbSymbolTableRecord
100
AcDbLinetypeTableRecord
  2
AM_DIN_G_W050
 70
     0
  3
____ . ____ . ____ . ____ . ____ . ____ . ____
 72
    65
 73
     4
 40
13.75
 49
9.75
 74
     0
 49
-1.5
 74
     0
 49
1.0
 74
     0
 49
-1.5
 74
     0
  0
LTYPE
  5
14FD
330
12C0
100
AcDbSymbolTableRecord
100
AcDbLinetypeTableRecord
  2
AM_DIN_K_W050
 70
     0
  3
_____ . . _____ . . _____ . . ____ .. ____
 72
    65
 73
     6
 40
16.25
 49
9.75
 74
     0
 49
-1.5
 74
     0
 49
1.0
 74
     0
 49
-1.5
 74
     0
 49
1.0
 74
     0
 49
-1.5
 74
     0
  0
LTYPE
  5
14FE
330
12C0
100
AcDbSymbolTableRecord
100
AcDbLinetypeTableRecord
  2
AM_DIN_G_W050x2
 70
     0
  3
__ . __ . __ . __ . __ . __
 72
    65
 73
     4
 40
6.875
 49
4.75
 74
     0
 49
-0.875
 74
     0
 49
0.375
 74
     0
 49
-0.875
 74
     0
  0
LTYPE
  5
14FF
330
12C0
100
AcDbSymbolTableRecord
100
AcDbLinetypeTableRecord
  2
AM_DIN_F_W050x2
 70
     0
  3
 _ _ _ _ _ _ _ _ _ _ _ _
 72
    65
 73
     2
 40
3.125
 49
2.25
 74
     0
 49
-0.875
 74
     0
  0
LTYPE
  5
150E
330
12C0
100
AcDbSymbolTableRecord
100
AcDbLinetypeTableRecord
  2
ACDINWELD
 70
     0
  3
_ _ _ _ _
 72
    65
 73
     2
 40
2.0
 49
2.0
 74
     0
 49
-1.0
 74
     0
  0
LTYPE
  5
150F
330
12C0
100
AcDbSymbolTableRecord
100
AcDbLinetypeTableRecord
  2
ACDINTGB
 70
     0
  3
__ . . __ . .
 72
    65
 73
     6
 40
9.0
 49
4.0
 74
     0
 49
-1.0
 74
     0
 49
1.0
 74
     0
 49
-1.0
 74
     0
 49
1.0
 74
     0
 49
-1.0
 74
     0
  0
LTYPE
  5
1510
330
12C0
100
AcDbSymbolTableRecord
100
AcDbLinetypeTableRecord
  2
ACDINTGL
 70
     0
  3
_ _ _ _ _
 72
    65
 73
     2
 40
3.0
 49
2.0
 74
     0
 49
-1.0
 74
     0
  0
ENDTAB
  0
TABLE
  2
LAYER
  5
12BD
330
0
100
AcDbSymbolTable
 70
     9
  0
LAYER
  5
12C9
330
12BD
100
AcDbSymbolTableRecord
100
AcDbLayerTableRecord
  2
0
 70
     0
 62
     7
  6
CONTINUOUS
370
    -3
390
1480
  0
LAYER
  5
12E3
330
12BD
100
AcDbSymbolTableRecord
100
AcDbLayerTableRecord
  2
3A
 70
     0
 62
    -6
  6
GEN3A
370
    -3
390
1480
  0
LAYER
  5
12E6
330
12BD
100
AcDbSymbolTableRecord
100
AcDbLayerTableRecord
  2
5
 70
     0
 62
     3
  6
CONTINUOUS
370
    -3
390
1480
  0
LAYER
  5
12E8
330
12BD
100
AcDbSymbolTableRecord
100
AcDbLayerTableRecord
  2
7
 70
     0
 62
     4
  6
GEN7
370
    -3
390
1480
  0
LAYER
  5
12E9
330
12BD
100
AcDbSymbolTableRecord
100
AcDbLayerTableRecord
  2
8
 70
     0
 62
     1
  6
CONTINUOUS
370
    -3
390
1480
  0
LAYER
  5
12EB
330
12BD
100
AcDbSymbolTableRecord
100
AcDbLayerTableRecord
  2
SCHRAFFUR_RAND
 70
     0
 62
    36
  6
CONTINUOUS
370
    -3
390
1480
  0
LAYER
  5
131B
330
12BD
100
AcDbSymbolTableRecord
100
AcDbLayerTableRecord
  2
DEFPOINTS
 70
     0
 62
     7
  6
CONTINUOUS
290
     0
370
    -3
390
1480
  0
ENDTAB
  0
TABLE
  2
STYLE
  5
12BE
330
0
100
AcDbSymbolTable
 70
     4
  0
STYLE
  5
12CA
330
12BE
100
AcDbSymbolTableRecord
100
AcDbTextStyleTableRecord
  2
STANDARD
 70
     0
 40
0.0
 41
1.0
 50
0.0
 71
     0
 42
10.0
  3
ISOCP.SHX
  4

  0
STYLE
  5
14F9
330
12BE
100
AcDbSymbolTableRecord
100
AcDbTextStyleTableRecord
  2

 70
     1
 40
0.0
 41
1.0
 50
0.0
 71
     0
 42
0.2
  3
genltshp.shx
  4

  0
STYLE
  5
1500
330
12BE
100
AcDbSymbolTableRecord
100
AcDbTextStyleTableRecord
  2
ACDINTS
 70
     0
 40
1.0
 41
1.0
 50
0.0
 71
     0
 42
0.2
  3
isocp.shx
  4

  0
STYLE
  5
150D
330
12BE
100
AcDbSymbolTableRecord
100
AcDbTextStyleTableRecord
  2
ACDINGDT
 70
     0
 40
0.0
 41
1.0
 50
0.0
 71
     0
 42
0.2
  3
AMGDT
  4

  0
ENDTAB
  0
TABLE
  2
VIEW
  5
12C1
330
0
100
AcDbSymbolTable
 70
     6
  0
VIEW
  5
135E
330
12C1
100
AcDbSymbolTableRecord
100
AcDbViewTableRecord
  2
GEN1
 70
     0
 40
525.0
 10
403.491903
 20
787.5
 41
806.983806
 11
0.0
 21
0.0
 31
1.0
 12
0.0
 22
0.0
 32
0.0
 42
50.0
 43
0.0
 44
0.0
 50
0.0
 71
     0
281
     0
 72
     0
  0
VIEW
  5
135F
330
12C1
100
AcDbSymbolTableRecord
100
AcDbViewTableRecord
  2
GEN2
 70
     0
 40
525.0
 10
646.508097
 20
787.5
 41
806.983806
 11
0.0
 21
0.0
 31
1.0
 12
0.0
 22
0.0
 32
0.0
 42
50.0
 43
0.0
 44
0.0
 50
0.0
 71
     0
281
     0
 72
     0
  0
VIEW
  5
1360
330
12C1
100
AcDbSymbolTableRecord
100
AcDbViewTableRecord
  2
GEN3
 70
     0
 40
525.0
 10
403.491903
 20
262.5
 41
806.983806
 11
0.0
 21
0.0
 31
1.0
 12
0.0
 22
0.0
 32
0.0
 42
50.0
 43
0.0
 44
0.0
 50
0.0
 71
     0
281
     0
 72
     0
  0
VIEW
  5
1361
330
12C1
100
AcDbSymbolTableRecord
100
AcDbViewTableRecord
  2
GEN4
 70
     0
 40
525.0
 10
646.508097
 20
262.5
 41
806.983806
 11
0.0
 21
0.0
 31
1.0
 12
0.0
 22
0.0
 32
0.0
 42
50.0
 43
0.0
 44
0.0
 50
0.0
 71
     0
281
     0
 72
     0
  0
VIEW
  5
1362
330
12C1
100
AcDbSymbolTableRecord
100
AcDbViewTableRecord
  2
GEN5
 70
     0
 40
525.0
 10
525.0
 20
525.0
 41
806.983806
 11
0.0
 21
0.0
 31
1.0
 12
0.0
 22
0.0
 32
0.0
 42
50.0
 43
0.0
 44
0.0
 50
0.0
 71
     0
281
     0
 72
     0
  0
VIEW
  5
1363
330
12C1
100
AcDbSymbolTableRecord
100
AcDbViewTableRecord
  2
GEN6
 70
     0
 40
1049.9895
 10
525.0
 20
525.0
 41
1613.951472
 11
0.0
 21
0.0
 31
1.0
 12
0.0
 22
0.0
 32
0.0
 42
50.0
 43
0.0
 44
0.0
 50
0.0
 71
     0
281
     0
 72
     0
  0
ENDTAB
  0
TABLE
  2
UCS
  5
12C2
330
0
100
AcDbSymbolTable
 70
     0
  0
ENDTAB
  0
TABLE
  2
APPID
  5
12C4
330
0
100
AcDbSymbolTable
 70
    36
  0
APPID
  5
12CB
330
12C4
100
AcDbSymbolTableRecord
100
AcDbRegAppTableRecord
  2
ACAD
 70
     0
  0
APPID
  5
132C
330
12C4
100
AcDbSymbolTableRecord
100
AcDbRegAppTableRecord
  2
GENIUS_GENCFG_13
 70
     0
1001
GENIUS_DUMCFG0_13
1000
DUM
1001
GENIUS_GENCFG0_13
1000
GEN@INFO_POS@XLATE
1001
GENIUS_GENCFG1_13
1000
GEN@INFO_POS
1001
GENIUS_GENCFG2_13
1000
GEN@LAYER@DEFS
1001
GENIUS_GENCFG3_13
1000
GEN@LAYER@ENTSORT
1001
GENIUS_GENCFG4_13
1000
GEN
1001
GENIUS_GEVCFG0_13
1000
GEV
  0
APPID
  5
132D
330
12C4
100
AcDbSymbolTableRecord
100
AcDbRegAppTableRecord
  2
GENIUS_DUMCFG0_13
 70
     0
1001
GENIUS_GENCFG_13
1071
925128267
1000
132D
1000
DUM
1070
     0
  0
APPID
  5
132E
330
12C4
100
AcDbSymbolTableRecord
100
AcDbRegAppTableRecord
  2
GENIUS_GENCFG0_13
 70
     0
1001
GENIUS_GENCFG_13
1071
1022853085
1000
132E
1000
GEN@INFO_POS@XLATE
1070
     7
1000
GenCfgObject
1000
GenCfgShort
1000
GenCfgReal
1000
GenCfgBool
1000
GenCfgString
1000
GenCfgDim
1000
GenCfgAttrInf
1000
INFOPOINTS
1070
     0
1002
{
1000
GENINF14
1070
     0
1002
{
1000
2GENINF
1070
     4
1000
2
1002
{
1002
}
1000
5GENINF
1070
     4
1000
5
1002
{
1002
}
1000
7GENINF
1070
     4
1000
7
1002
{
1002
}
1000
9GENINF
1070
     4
1000
9
1002
{
1002
}
1000
11GENINF
1070
     4
1000
11
1002
{
1002
}
1000
14GENINF
1070
     4
1000
14
1002
{
1002
}
1002
}
1000
GENINF13
1070
     0
1002
{
1000
2GENINF
1070
     4
1000
2
1002
{
1002
}
1000
3GENINF
1070
     4
1000
3
1002
{
1002
}
1000
4GENINF
1070
     4
1000
4
1002
{
1002
}
1000
5GENINF
1070
     4
1000
5
1002
{
1002
}
1000
6GENINF
1070
     4
1000
6
1002
{
1002
}
1000
7GENINF
1070
     4
1000
7
1002
{
1002
}
1000
8GENINF
1070
     4
1000
8
1002
{
1002
}
1000
9GENINF
1070
     4
1000
9
1002
{
1002
}
1000
10GENINF
1070
     4
1000
10
1002
{
1002
}
1000
11GENINF
1070
     4
1000
11
1002
{
1002
}
1000
12GENINF
1070
     4
1000
12
1002
{
1002
}
1000
13GENINF
1070
     4
1000
13
1002
{
1002
}
1000
14GENINF
1070
     4
1000
14
1002
{
1002
}
1000
15GENINF
1070
     4
1000
15
1002
{
1002
}
1000
16GENINF
1070
     4
1000
16
1002
{
1002
}
1000
17GENINF
1070
     4
1000
17
1002
{
1002
}
1000
18GENINF
1070
     4
1000
18
1002
{
1002
}
1000
19GENINF
1070
     4
1000
19
1002
{
1002
}
1000
20GENINF
1070
     4
1000
20
1002
{
1002
}
1000
21GENINF
1070
     4
1000
21
1002
{
1002
}
1000
22GENINF
1070
     4
1000
22
1002
{
1002
}
1000
23GENINF
1070
     4
1000
23
1002
{
1002
}
1000
24GENINF
1070
     4
1000
24
1002
{
1002
}
1000
0GENINF
1070
     4
1000
0
1002
{
1002
}
1002
}
1000
GENINFO
1070
     0
1002
{
1000
3GENINF
1070
     4
1000
3
1002
{
1002
}
1000
4GENINF
1070
     4
1000
4
1002
{
1002
}
1000
5GENINF
1070
     4
1000
5
1002
{
1002
}
1000
6GENINF
1070
     4
1000
6
1002
{
1002
}
1000
7GENINF
1070
     4
1000
7
1002
{
1002
}
1000
8GENINF
1070
     4
1000
8
1002
{
1002
}
1000
9GENINF
1070
     4
1000
9
1002
{
1002
}
1000
10GENINF
1070
     4
1000
10
1002
{
1002
}
1000
11GENINF
1070
     4
1000
11
1002
{
1002
}
1000
12GENINF
1070
     4
1000
12
1002
{
1002
}
1000
13GENINF
1070
     4
1000
13
1002
{
1002
}
1000
14GENINF
1070
     4
1000
14
1002
{
1002
}
1000
15GENINF
1070
     4
1000
15
1002
{
1002
}
1000
16GENINF
1070
     4
1000
16
1002
{
1002
}
1000
17GENINF
1070
     4
1000
17
1002
{
1002
}
1000
18GENINF
1070
     4
1000
18
1002
{
1002
}
1000
19GENINF
1070
     4
1000
19
1002
{
1002
}
1000
20GENINF
1070
     4
1000
20
1002
{
1002
}
1000
21GENINF
1070
     4
1000
21
1002
{
1002
}
1000
22GENINF
1070
     4
1000
22
1002
{
1002
}
1002
}
1000
DININFO
1070
     0
1002
{
1000
ST-NAME1
1070
     4
1000
5
1002
{
1002
}
1000
ST-NAME2
1070
     4
1000
6
1002
{
1002
}
1000
ST-NORM1
1070
     4
1000
7
1002
{
1002
}
1000
ST-NORM2
1070
     4
1000
8
1002
{
1002
}
1000
ST-MAT1
1070
     4
1000
9
1002
{
1002
}
1000
ST-MAT2
1070
     4
1000
10
1002
{
1002
}
1002
}
1002
}
1000
POS_NUMBERS
1070
     0
1002
{
1000
GENPOS14
1070
     0
1002
{
1000
1GENPOS
1070
     4
1000
1
1002
{
1002
}
1000
2GENPOS
1070
     4
1000
2
1002
{
1002
}
1000
5GENPOS
1070
     4
1000
5
1002
{
1002
}
1000
7GENPOS
1070
     4
1000
7
1002
{
1002
}
1000
9GENPOS
1070
     4
1000
9
1002
{
1002
}
1000
11GENPOS
1070
     4
1000
11
1002
{
1002
}
1000
14GENPOS
1070
     4
1000
14
1002
{
1002
}
1002
}
1000
GENPOS13
1070
     0
1002
{
1000
1GENPOS
1070
     4
1000
1
1002
{
1002
}
1000
2GENPOS
1070
     4
1000
2
1002
{
1002
}
1000
3GENPOS
1070
     4
1000
3
1002
{
1002
}
1000
4GENPOS
1070
     4
1000
4
1002
{
1002
}
1000
5GENPOS
1070
     4
1000
5
1002
{
1002
}
1000
6GENPOS
1070
     4
1000
6
1002
{
1002
}
1000
7GENPOS
1070
     4
1000
7
1002
{
1002
}
1000
8GENPOS
1070
     4
1000
8
1002
{
1002
}
1000
9GENPOS
1070
     4
1000
9
1002
{
1002
}
1000
10GENPOS
1070
     4
1000
10
1002
{
1002
}
1000
11GENPOS
1070
     4
1000
11
1002
{
1002
}
1000
12GENPOS
1070
     4
1000
12
1002
{
1002
}
1000
13GENPOS
1070
     4
1000
13
1002
{
1002
}
1000
14GENPOS
1070
     4
1000
14
1002
{
1002
}
1000
15GENPOS
1070
     4
1000
15
1002
{
1002
}
1000
16GENPOS
1070
     4
1000
16
1002
{
1002
}
1000
17GENPOS
1070
     4
1000
17
1002
{
1002
}
1000
18GENPOS
1070
     4
1000
18
1002
{
1002
}
1000
19GENPOS
1070
     4
1000
19
1002
{
1002
}
1000
20GENPOS
1070
     4
1000
20
1002
{
1002
}
1000
21GENPOS
1070
     4
1000
21
1002
{
1002
}
1000
22GENPOS
1070
     4
1000
22
1002
{
1002
}
1000
23GENPOS
1070
     4
1000
23
1002
{
1002
}
1000
24GENPOS
1070
     4
1000
24
1002
{
1002
}
1000
0GENPOS
1070
     4
1000
0
1002
{
1002
}
1002
}
1000
GENPOS
1070
     0
1002
{
1000
1GENPOS
1070
     4
1000
1
1002
{
1002
}
1000
2GENPOS
1070
     4
1000
2
1002
{
1002
}
1000
3GENPOS
1070
     4
1000
3
1002
{
1002
}
1000
4GENPOS
1070
     4
1000
4
1002
{
1002
}
1000
5GENPOS
1070
     4
1000
5
1002
{
1002
}
1000
6GENPOS
1070
     4
1000
6
1002
{
1002
}
1000
7GENPOS
1070
     4
1000
7
1002
{
1002
}
1000
8GENPOS
1070
     4
1000
8
1002
{
1002
}
1000
9GENPOS
1070
     4
1000
9
1002
{
1002
}
1000
10GENPOS
1070
     4
1000
10
1002
{
1002
}
1000
11GENPOS
1070
     4
1000
11
1002
{
1002
}
1000
12GENPOS
1070
     4
1000
12
1002
{
1002
}
1000
13GENPOS
1070
     4
1000
13
1002
{
1002
}
1000
14GENPOS
1070
     4
1000
14
1002
{
1002
}
1000
15GENPOS
1070
     4
1000
15
1002
{
1002
}
1000
16GENPOS
1070
     4
1000
16
1002
{
1002
}
1000
17GENPOS
1070
     4
1000
17
1002
{
1002
}
1000
18GENPOS
1070
     4
1000
18
1002
{
1002
}
1000
19GENPOS
1070
     4
1000
19
1002
{
1002
}
1000
20GENPOS
1070
     4
1000
20
1002
{
1002
}
1000
21GENPOS
1070
     4
1000
21
1002
{
1002
}
1000
22GENPOS
1070
     4
1000
22
1002
{
1002
}
1000
23GENPOS
1070
     4
1000
23
1002
{
1002
}
1002
}
1000
DIN985
1070
     0
1002
{
1000
POSITION
1070
     4
1000
1
1002
{
1002
}
1000
MENGE
1070
     4
1000
2
1002
{
1002
}
1000
BLATT
1070
     4
1000
3
1002
{
1002
}
1000
BENENN
1070
     4
1000
5
1002
{
1002
}
1000
BENENN2
1070
     4
1000
6
1002
{
1002
}
1000
NORM
1070
     4
1000
7
1002
{
1002
}
1000
NORM2
1070
     4
1000
8
1002
{
1002
}
1000
WERKSTOFF
1070
     4
1000
9
1002
{
1002
}
1000
WERKSTOFF2
1070
     4
1000
10
1002
{
1002
}
1002
}
1000
DIN986
1070
     0
1002
{
1000
POSITION
1070
     4
1000
1
1002
{
1002
}
1000
MENGE
1070
     4
1000
2
1002
{
1002
}
1000
BLATT
1070
     4
1000
3
1002
{
1002
}
1000
BENENN
1070
     4
1000
5
1002
{
1002
}
1000
BENENN2
1070
     4
1000
6
1002
{
1002
}
1000
NORM
1070
     4
1000
7
1002
{
1002
}
1000
NORM2
1070
     4
1000
8
1002
{
1002
}
1000
WERKSTOFF
1070
     4
1000
9
1002
{
1002
}
1000
WERKSTOFF2
1070
     4
1000
10
1002
{
1002
}
1002
}
1000
DIN987
1070
     0
1002
{
1000
POSITION
1070
     4
1000
1
1002
{
1002
}
1000
MENGE
1070
     4
1000
2
1002
{
1002
}
1000
BLATT
1070
     4
1000
3
1002
{
1002
}
1000
BENENN
1070
     4
1000
5
1002
{
1002
}
1000
BENENN2
1070
     4
1000
6
1002
{
1002
}
1000
NORM
1070
     4
1000
7
1002
{
1002
}
1000
NORM2
1070
     4
1000
8
1002
{
1002
}
1000
WERKSTOFF
1070
     4
1000
9
1002
{
1002
}
1000
WERKSTOFF2
1070
     4
1000
10
1002
{
1002
}
1002
}
1002
}
  0
APPID
  5
132F
330
12C4
100
AcDbSymbolTableRecord
100
AcDbRegAppTableRecord
  2
GENIUS_GENCFG1_13
 70
     0
1001
GENIUS_GENCFG_13
1071
1022853085
1000
132F
1000
GEN@INFO_POS
1070
     7
1000
GenCfgObject
1000
GenCfgShort
1000
GenCfgReal
1000
GenCfgBool
1000
GenCfgString
1000
GenCfgDim
1000
GenCfgAttrInf
1000
DescrText
1070
     4
1000
5, ,6, ,7, ,8
1002
{
1002
}
1000
DescrText2
1070
     4
1000
26
1002
{
1002
}
1000
VisibleAttr1
1070
     4
1000
1
1002
{
1002
}
1000
VisibleAttr2
1070
     4
1000
26
1002
{
1002
}
1000
UpdateBlock
1070
     3
1070
     1
1002
{
1002
}
1000
Attrib
1070
     0
1002
{
1000
0
1070
     6
1002
{
1000
Prompt
1070
     4
1000
(genmsg gendwg 103)
1002
{
1002
}
1000
Value
1070
     4
1000

1002
{
1002
}
1000
EditFlag
1070
     1
1070
     0
1002
{
1002
}
1000
PosInDDATTE
1070
     1
1070
    27
1002
{
1002
}
1000
FieldLen
1070
     1
1070
    -1
1002
{
1002
}
1002
}
1000
1
1070
     6
1002
{
1000
Prompt
1070
     4
1000
(genmsg gendwg 31)
1002
{
1002
}
1000
Value
1070
     4
1000
1
1002
{
1002
}
1000
EditFlag
1070
     1
1070
     1
1002
{
1002
}
1000
PosInDDATTE
1070
     1
1070
     1
1002
{
1002
}
1000
FieldLen
1070
     1
1070
    -1
1002
{
1002
}
1002
}
1000
2
1070
     6
1002
{
1000
Prompt
1070
     4
1000
(genmsg gendwg 32)
1002
{
1002
}
1000
Value
1070
     4
1000
1
1002
{
1002
}
1000
EditFlag
1070
     1
1070
     1
1002
{
1002
}
1000
PosInDDATTE
1070
     1
1070
     2
1002
{
1002
}
1000
FieldLen
1070
     1
1070
    -1
1002
{
1002
}
1002
}
1000
3
1070
     6
1002
{
1000
Prompt
1070
     4
1000
(genmsg gendwg 33)
1002
{
1002
}
1000
Value
1070
     4
1000

1002
{
1002
}
1000
EditFlag
1070
     1
1070
     1
1002
{
1002
}
1000
PosInDDATTE
1070
     1
1070
     3
1002
{
1002
}
1000
FieldLen
1070
     1
1070
    -1
1002
{
1002
}
1002
}
1000
4
1070
     6
1002
{
1000
Prompt
1070
     4
1000
(genmsg gendwg 34)
1002
{
1002
}
1000
Value
1070
     4
1000

1002
{
1002
}
1000
EditFlag
1070
     1
1070
     1
1002
{
1002
}
1000
PosInDDATTE
1070
     1
1070
     4
1002
{
1002
}
1000
FieldLen
1070
     1
1070
    -1
1002
{
1002
}
1002
}
1000
5
1070
     6
1002
{
1000
Prompt
1070
     4
1000
(genmsg gendwg 35)
1002
{
1002
}
1000
Value
1070
     4
1000

1002
{
1002
}
1000
EditFlag
1070
     1
1070
     1
1002
{
1002
}
1000
PosInDDATTE
1070
     1
1070
     5
1002
{
1002
}
1000
FieldLen
1070
     1
1070
    -1
1002
{
1002
}
1002
}
1000
6
1070
     6
1002
{
1000
Prompt
1070
     4
1000
(genmsg gendwg 36)
1002
{
1002
}
1000
Value
1070
     4
1000

1002
{
1002
}
1000
EditFlag
1070
     1
1070
     1
1002
{
1002
}
1000
PosInDDATTE
1070
     1
1070
     6
1002
{
1002
}
1000
FieldLen
1070
     1
1070
    -1
1002
{
1002
}
1002
}
1000
7
1070
     6
1002
{
1000
Prompt
1070
     4
1000
(genmsg gendwg 37)
1002
{
1002
}
1000
Value
1070
     4
1000

1002
{
1002
}
1000
EditFlag
1070
     1
1070
     1
1002
{
1002
}
1000
PosInDDATTE
1070
     1
1070
     7
1002
{
1002
}
1000
FieldLen
1070
     1
1070
    -1
1002
{
1002
}
1002
}
1000
8
1070
     6
1002
{
1000
Prompt
1070
     4
1000
(genmsg gendwg 38)
1002
{
1002
}
1000
Value
1070
     4
1000

1002
{
1002
}
1000
EditFlag
1070
     1
1070
     1
1002
{
1002
}
1000
PosInDDATTE
1070
     1
1070
     8
1002
{
1002
}
1000
FieldLen
1070
     1
1070
    -1
1002
{
1002
}
1002
}
1000
9
1070
     6
1002
{
1000
Prompt
1070
     4
1000
(genmsg gendwg 39)
1002
{
1002
}
1000
Value
1070
     4
1000

1002
{
1002
}
1000
EditFlag
1070
     1
1070
     1
1002
{
1002
}
1000
PosInDDATTE
1070
     1
1070
     9
1002
{
1002
}
1000
FieldLen
1070
     1
1070
    -1
1002
{
1002
}
1002
}
1000
10
1070
     6
1002
{
1000
Prompt
1070
     4
1000
(genmsg gendwg 40)
1002
{
1002
}
1000
Value
1070
     4
1000

1002
{
1002
}
1000
EditFlag
1070
     1
1070
     1
1002
{
1002
}
1000
PosInDDATTE
1070
     1
1070
    10
1002
{
1002
}
1000
FieldLen
1070
     1
1070
    -1
1002
{
1002
}
1002
}
1000
11
1070
     6
1002
{
1000
Prompt
1070
     4
1000
(genmsg gendwg 41)
1002
{
1002
}
1000
Value
1070
     4
1000

1002
{
1002
}
1000
EditFlag
1070
     1
1070
     1
1002
{
1002
}
1000
PosInDDATTE
1070
     1
1070
    11
1002
{
1002
}
1000
FieldLen
1070
     1
1070
    -1
1002
{
1002
}
1002
}
1000
12
1070
     6
1002
{
1000
Prompt
1070
     4
1000
(genmsg gendwg 42)
1002
{
1002
}
1000
Value
1070
     4
1000

1002
{
1002
}
1000
EditFlag
1070
     1
1070
     1
1002
{
1002
}
1000
PosInDDATTE
1070
     1
1070
    12
1002
{
1002
}
1000
FieldLen
1070
     1
1070
    -1
1002
{
1002
}
1002
}
1000
13
1070
     6
1002
{
1000
Prompt
1070
     4
1000
(genmsg gendwg 43)
1002
{
1002
}
1000
Value
1070
     4
1000

1002
{
1002
}
1000
EditFlag
1070
     1
1070
     1
1002
{
1002
}
1000
PosInDDATTE
1070
     1
1070
    13
1002
{
1002
}
1000
FieldLen
1070
     1
1070
    -1
1002
{
1002
}
1002
}
1000
14
1070
     6
1002
{
1000
Prompt
1070
     4
1000
(genmsg gendwg 44)
1002
{
1002
}
1000
Value
1070
     4
1000

1002
{
1002
}
1000
EditFlag
1070
     1
1070
     1
1002
{
1002
}
1000
PosInDDATTE
1070
     1
1070
    14
1002
{
1002
}
1000
FieldLen
1070
     1
1070
    -1
1002
{
1002
}
1002
}
1000
15
1070
     6
1002
{
1000
Prompt
1070
     4
1000
(genmsg gendwg 45)
1002
{
1002
}
1000
Value
1070
     4
1000

1002
{
1002
}
1000
EditFlag
1070
     1
1070
     1
1002
{
1002
}
1000
PosInDDATTE
1070
     1
1070
    15
1002
{
1002
}
1000
FieldLen
1070
     1
1070
    -1
1002
{
1002
}
1002
}
1000
16
1070
     6
1002
{
1000
Prompt
1070
     4
1000
(genmsg gendwg 46)
1002
{
1002
}
1000
Value
1070
     4
1000

1002
{
1002
}
1000
EditFlag
1070
     1
1070
     1
1002
{
1002
}
1000
PosInDDATTE
1070
     1
1070
    16
1002
{
1002
}
1000
FieldLen
1070
     1
1070
    -1
1002
{
1002
}
1002
}
1000
17
1070
     6
1002
{
1000
Prompt
1070
     4
1000
(genmsg gendwg 47)
1002
{
1002
}
1000
Value
1070
     4
1000

1002
{
1002
}
1000
EditFlag
1070
     1
1070
     1
1002
{
1002
}
1000
PosInDDATTE
1070
     1
1070
    17
1002
{
1002
}
1000
FieldLen
1070
     1
1070
    -1
1002
{
1002
}
1002
}
1000
18
1070
     6
1002
{
1000
Prompt
1070
     4
1000
(genmsg gendwg 48)
1002
{
1002
}
1000
Value
1070
     4
1000

1002
{
1002
}
1000
EditFlag
1070
     1
1070
     1
1002
{
1002
}
1000
PosInDDATTE
1070
     1
1070
    18
1002
{
1002
}
1000
FieldLen
1070
     1
1070
    -1
1002
{
1002
}
1002
}
1000
19
1070
     6
1002
{
1000
Prompt
1070
     4
1000
(genmsg gendwg 99)
1002
{
1002
}
1000
Value
1070
     4
1000

1002
{
1002
}
1000
EditFlag
1070
     1
1070
     1
1002
{
1002
}
1000
PosInDDATTE
1070
     1
1070
    19
1002
{
1002
}
1000
FieldLen
1070
     1
1070
    -1
1002
{
1002
}
1002
}
1000
20
1070
     6
1002
{
1000
Prompt
1070
     4
1000
(genmsg gendwg 100)
1002
{
1002
}
1000
Value
1070
     4
1000

1002
{
1002
}
1000
EditFlag
1070
     1
1070
     1
1002
{
1002
}
1000
PosInDDATTE
1070
     1
1070
    20
1002
{
1002
}
1000
FieldLen
1070
     1
1070
    -1
1002
{
1002
}
1002
}
1000
21
1070
     6
1002
{
1000
Prompt
1070
     4
1000
(genmsg gendwg 101)
1002
{
1002
}
1000
Value
1070
     4
1000

1002
{
1002
}
1000
EditFlag
1070
     1
1070
     1
1002
{
1002
}
1000
PosInDDATTE
1070
     1
1070
    21
1002
{
1002
}
1000
FieldLen
1070
     1
1070
    -1
1002
{
1002
}
1002
}
1000
22
1070
     6
1002
{
1000
Prompt
1070
     4
1000
(genmsg gendwg 102)
1002
{
1002
}
1000
Value
1070
     4
1000

1002
{
1002
}
1000
EditFlag
1070
     1
1070
     1
1002
{
1002
}
1000
PosInDDATTE
1070
     1
1070
    22
1002
{
1002
}
1000
FieldLen
1070
     1
1070
    -1
1002
{
1002
}
1002
}
1000
23
1070
     6
1002
{
1000
Prompt
1070
     4
1000
(genmsg gendwg 30)
1002
{
1002
}
1000
Value
1070
     4
1000

1002
{
1002
}
1000
EditFlag
1070
     1
1070
     1
1002
{
1002
}
1000
PosInDDATTE
1070
     1
1070
    23
1002
{
1002
}
1000
FieldLen
1070
     1
1070
    -1
1002
{
1002
}
1002
}
1000
24
1070
     6
1002
{
1000
Prompt
1070
     4
1000
(genmsg gendwg 104)
1002
{
1002
}
1000
Value
1070
     4
1000

1002
{
1002
}
1000
EditFlag
1070
     1
1070
     1
1002
{
1002
}
1000
PosInDDATTE
1070
     1
1070
    24
1002
{
1002
}
1000
FieldLen
1070
     1
1070
    -1
1002
{
1002
}
1002
}
1000
25
1070
     6
1002
{
1000
Prompt
1070
     4
1000
(genmsg gendwg 105)
1002
{
1002
}
1000
Value
1070
     4
1000

1002
{
1002
}
1000
EditFlag
1070
     1
1070
     1
1002
{
1002
}
1000
PosInDDATTE
1070
     1
1070
    25
1002
{
1002
}
1000
FieldLen
1070
     1
1070
    -1
1002
{
1002
}
1002
}
1000
26
1070
     6
1002
{
1000
Prompt
1070
     4
1000
(genmsg gendwg 106)
1002
{
1002
}
1000
Value
1070
     4
1000

1002
{
1002
}
1000
EditFlag
1070
     1
1070
     1
1002
{
1002
}
1000
PosInDDATTE
1070
     1
1070
    26
1002
{
1002
}
1000
FieldLen
1070
     1
1070
    -1
1002
{
1002
}
1002
}
1000
27
1070
     6
1002
{
1000
Prompt
1070
     4
1000
(genmsg gendwg 109)
1002
{
1002
}
1000
Value
1070
     4
1000

1002
{
1002
}
1000
EditFlag
1070
     1
1070
     2
1002
{
1002
}
1000
PosInDDATTE
1070
     1
1070
    27
1002
{
1002
}
1000
FieldLen
1070
     1
1070
    -1
1002
{
1002
}
1002
}
1002
}
1000
Xlate
1070
     0
1002
{
1000
>
1002
}
  0
APPID
  5
1330
330
12C4
100
AcDbSymbolTableRecord
100
AcDbRegAppTableRecord
  2
GENIUS_GENCFG2_13
 70
     0
1001
GENIUS_GENCFG_13
1071
1022853085
1000
1330
1000
GEN@LAYER@DEFS
1070
     9
1000
GenCfgObject
1000
GenCfgShort
1000
GenCfgReal
1000
GenCfgBool
1000
GenCfgString
1000
GenCfgDim
1000
GenCfgAttrInf
1000
GenCfgLaySection
1000
GenCfgLayer
1000
Basic
1070
     0
1002
{
1000
0
1070
     8
1000
0
1002
{
1000
Color
1070
     1
1070
     7
1002
{
1002
}
1000
LType
1070
     4
1000
CONTINUOUS
1002
{
1002
}
1000
Base
1070
     3
1070
     0
1002
{
1002
}
1002
}
1000
1
1070
     8
1000
1
1002
{
1000
Color
1070
     1
1070
    14
1002
{
1002
}
1000
LType
1070
     4
1000
CONTINUOUS
1002
{
1002
}
1000
Base
1070
     3
1070
     0
1002
{
1002
}
1002
}
1000
2
1070
     8
1000
2
1002
{
1000
Color
1070
     1
1070
     5
1002
{
1002
}
1000
LType
1070
     4
1000
CONTINUOUS
1002
{
1002
}
1000
Base
1070
     3
1070
     0
1002
{
1002
}
1002
}
1000
3
1070
     8
1000
3
1002
{
1000
Color
1070
     1
1070
     6
1002
{
1002
}
1000
LType
1070
     4
1000
GEN3
1002
{
1002
}
1000
Base
1070
     3
1070
     0
1002
{
1002
}
1002
}
1000
4
1070
     8
1000
4
1002
{
1000
Color
1070
     1
1070
     3
1002
{
1002
}
1000
LType
1070
     4
1000
CONTINUOUS
1002
{
1002
}
1000
Base
1070
     3
1070
     0
1002
{
1002
}
1002
}
1000
5
1070
     8
1000
5
1002
{
1000
Color
1070
     1
1070
     3
1002
{
1002
}
1000
LType
1070
     4
1000
CONTINUOUS
1002
{
1002
}
1000
Base
1070
     3
1070
     0
1002
{
1002
}
1002
}
1000
6
1070
     8
1000
6
1002
{
1000
Color
1070
     1
1070
     2
1002
{
1002
}
1000
LType
1070
     4
1000
CONTINUOUS
1002
{
1002
}
1000
Base
1070
     3
1070
     0
1002
{
1002
}
1002
}
1000
7
1070
     8
1000
7
1002
{
1000
Color
1070
     1
1070
     4
1002
{
1002
}
1000
LType
1070
     4
1000
GEN7
1002
{
1002
}
1000
Base
1070
     3
1070
     0
1002
{
1002
}
1002
}
1000
8
1070
     8
1000
8
1002
{
1000
Color
1070
     1
1070
     1
1002
{
1002
}
1000
LType
1070
     4
1000
CONTINUOUS
1002
{
1002
}
1000
Base
1070
     3
1070
     0
1002
{
1002
}
1002
}
1000
3A
1070
     8
1000
3A
1002
{
1000
Color
1070
     1
1070
     6
1002
{
1002
}
1000
LType
1070
     4
1000
GEN3A
1002
{
1002
}
1000
Base
1070
     3
1070
     0
1002
{
1002
}
1002
}
1000
7A
1070
     8
1000
7A
1002
{
1000
Color
1070
     1
1070
     4
1002
{
1002
}
1000
LType
1070
     4
1000
GEN7A
1002
{
1002
}
1000
Base
1070
     3
1070
     0
1002
{
1002
}
1002
}
1000
2A
1070
     8
1000
2A
1002
{
1000
Color
1070
     1
1070
     7
1002
{
1002
}
1000
LType
1070
     4
1000
GEN7
1002
{
1002
}
1000
Base
1070
     3
1070
     0
1002
{
1002
}
1002
}
1000
4A
1070
     8
1000
4A
1002
{
1000
Color
1070
     1
1070
     3
1002
{
1002
}
1000
LType
1070
     4
1000
GEN4A
1002
{
1002
}
1000
Base
1070
     3
1070
     0
1002
{
1002
}
1002
}
1000
9
1070
     8
1000
9
1002
{
1000
Color
1070
     1
1070
   253
1002
{
1002
}
1000
LType
1070
     4
1000
CONTINUOUS
1002
{
1002
}
1000
Base
1070
     3
1070
     0
1002
{
1002
}
1002
}
1000
IP
1070
     8
1000
IP
1002
{
1000
Color
1070
     1
1070
     7
1002
{
1002
}
1000
LType
1070
     4
1000
CONTINUOUS
1002
{
1002
}
1000
Base
1070
     3
1070
     0
1002
{
1002
}
1002
}
1002
}
1000
Standard
1070
     0
1002
{
1000
0N
1070
     8
1000
0N
1002
{
1000
Color
1070
     1
1070
     7
1002
{
1002
}
1000
LType
1070
     4
1000
CONTINUOUS
1002
{
1002
}
1000
Base
1070
     3
1070
     0
1002
{
1002
}
1002
}
1000
1N
1070
     8
1000
1N
1002
{
1000
Color
1070
     1
1070
    14
1002
{
1002
}
1000
LType
1070
     4
1000
CONTINUOUS
1002
{
1002
}
1000
Base
1070
     3
1070
     0
1002
{
1002
}
1002
}
1000
2N
1070
     8
1000
2N
1002
{
1000
Color
1070
     1
1070
     5
1002
{
1002
}
1000
LType
1070
     4
1000
CONTINUOUS
1002
{
1002
}
1000
Base
1070
     3
1070
     0
1002
{
1002
}
1002
}
1000
3N
1070
     8
1000
3N
1002
{
1000
Color
1070
     1
1070
     6
1002
{
1002
}
1000
LType
1070
     4
1000
GEN3
1002
{
1002
}
1000
Base
1070
     3
1070
     0
1002
{
1002
}
1002
}
1000
4N
1070
     8
1000
4N
1002
{
1000
Color
1070
     1
1070
     3
1002
{
1002
}
1000
LType
1070
     4
1000
CONTINUOUS
1002
{
1002
}
1000
Base
1070
     3
1070
     0
1002
{
1002
}
1002
}
1000
5N
1070
     8
1000
5N
1002
{
1000
Color
1070
     1
1070
     3
1002
{
1002
}
1000
LType
1070
     4
1000
CONTINUOUS
1002
{
1002
}
1000
Base
1070
     3
1070
     0
1002
{
1002
}
1002
}
1000
6N
1070
     8
1000
6N
1002
{
1000
Color
1070
     1
1070
     2
1002
{
1002
}
1000
LType
1070
     4
1000
CONTINUOUS
1002
{
1002
}
1000
Base
1070
     3
1070
     0
1002
{
1002
}
1002
}
1000
7N
1070
     8
1000
7N
1002
{
1000
Color
1070
     1
1070
     4
1002
{
1002
}
1000
LType
1070
     4
1000
GEN7
1002
{
1002
}
1000
Base
1070
     3
1070
     0
1002
{
1002
}
1002
}
1000
8N
1070
     8
1000
8N
1002
{
1000
Color
1070
     1
1070
     1
1002
{
1002
}
1000
LType
1070
     4
1000
CONTINUOUS
1002
{
1002
}
1000
Base
1070
     3
1070
     0
1002
{
1002
}
1002
}
1000
3AN
1070
     8
1000
3AN
1002
{
1000
Color
1070
     1
1070
     6
1002
{
1002
}
1000
LType
1070
     4
1000
GEN3A
1002
{
1002
}
1000
Base
1070
     3
1070
     0
1002
{
1002
}
1002
}
1000
7AN
1070
     8
1000
7AN
1002
{
1000
Color
1070
     1
1070
     4
1002
{
1002
}
1000
LType
1070
     4
1000
GEN7A
1002
{
1002
}
1000
Base
1070
     3
1070
     0
1002
{
1002
}
1002
}
1000
2AN
1070
     8
1000
2AN
1002
{
1000
Color
1070
     1
1070
     7
1002
{
1002
}
1000
LType
1070
     4
1000
GEN7
1002
{
1002
}
1000
Base
1070
     3
1070
     0
1002
{
1002
}
1002
}
1000
4AN
1070
     8
1000
4AN
1002
{
1000
Color
1070
     1
1070
     3
1002
{
1002
}
1000
LType
1070
     4
1000
GEN4A
1002
{
1002
}
1000
Base
1070
     3
1070
     0
1002
{
1002
}
1002
}
1000
9N
1070
     8
1000
9N
1002
{
1000
Color
1070
     1
1070
   253
1002
{
1002
}
1000
LType
1070
     4
1000
CONTINUOUS
1002
{
1002
}
1000
Base
1070
     3
1070
     0
1002
{
1002
}
1002
}
1000
IPN
1070
     8
1000
IPN
1002
{
1000
Color
1070
     1
1070
     7
1002
{
1002
}
1000
LType
1070
     4
1000
CONTINUOUS
1002
{
1002
}
1000
Base
1070
     3
1070
     0
1002
{
1002
}
1002
}
1002
}
1000
Extra
1070
     0
1002
{
1000
Klin
1070
     8
1000
KLIN
1002
{
1000
Color
1070
     1
1070
     1
1002
{
1002
}
1000
LType
1070
     4
1000
CONTINUOUS
1002
{
1002
}
1000
Base
1070
     3
1070
     1
1002
{
1002
}
1002
}
1000
Info
1070
     8
1000
INFO
1002
{
1000
Color
1070
     1
1070
     4
1002
{
1002
}
1000
LType
1070
     4
1000
CONTINUOUS
1002
{
1002
}
1000
Base
1070
     3
1070
     1
1002
{
1002
}
1002
}
1000
Rahm2
1070
     8
1000
RAHM2
1002
{
1000
Color
1070
     1
1070
     1
1002
{
1002
}
1000
LType
1070
     4
1000
CONTINUOUS
1002
{
1002
}
1000
Base
1070
     3
1070
     1
1002
{
1002
}
1002
}
1000
Rahm3
1070
     8
1000
RAHM3
1002
{
1000
Color
1070
     1
1070
     2
1002
{
1002
}
1000
LType
1070
     4
1000
CONTINUOUS
1002
{
1002
}
1000
Base
1070
     3
1070
     1
1002
{
1002
}
1002
}
1000
Rahm5
1070
     8
1000
RAHM5
1002
{
1000
Color
1070
     1
1070
     7
1002
{
1002
}
1000
LType
1070
     4
1000
CONTINUOUS
1002
{
1002
}
1000
Base
1070
     3
1070
     1
1002
{
1002
}
1002
}
1000
View
1070
     8
1000
VIEW
1002
{
1000
Color
1070
     1
1070
     1
1002
{
1002
}
1000
LType
1070
     4
1000
CONTINUOUS
1002
{
1002
}
1000
Base
1070
     3
1070
     1
1002
{
1002
}
1002
}
1000
Behind
1070
     8
1000
BEHIND
1002
{
1000
Color
1070
     1
1070
   253
1002
{
1002
}
1000
LType
1070
     4
1000
CONTINUOUS
1002
{
1002
}
1000
Base
1070
     3
1070
     1
1002
{
1002
}
1002
}
1002
}
  0
APPID
  5
1331
330
12C4
100
AcDbSymbolTableRecord
100
AcDbRegAppTableRecord
  2
GENIUS_GENCFG3_13
 70
     0
1001
GENIUS_GENCFG_13
1071
1022853085
1000
1331
1000
GEN@LAYER@ENTSORT
1070
    10
1000
GenCfgObject
1000
GenCfgShort
1000
GenCfgReal
1000
GenCfgBool
1000
GenCfgString
1000
GenCfgDim
1000
GenCfgAttrInf
1000
GenCfgLaySection
1000
GenCfgLayer
1000
GenCfgEntSort
1000
ADDL
1070
     9
1000
5
1002
{
1000
Class
1070
     4
1000
SYM
1002
{
1002
}
1000
Color
1070
     1
1070
     1
1002
{
1002
}
1000
LType
1070
     4
1000
BYLAYER
1002
{
1002
}
1002
}
1000
ALTR
1070
     9
1000
4
1002
{
1000
Class
1070
     4
1000

1002
{
1002
}
1000
Color
1070
     1
1070
     7
1002
{
1002
}
1000
LType
1070
     4
1000
GEN3A
1002
{
1002
}
1002
}
1000
BELI
1070
     9
1000
4
1002
{
1000
Class
1070
     4
1000

1002
{
1002
}
1000
Color
1070
     1
1070
   256
1002
{
1002
}
1000
LType
1070
     4
1000
BYLAYER
1002
{
1002
}
1002
}
1000
BHNV
1070
     9
1000
9
1002
{
1000
Class
1070
     4
1000
INV
1002
{
1002
}
1000
Color
1070
     1
1070
   256
1002
{
1002
}
1000
LType
1070
     4
1000
BYLAYER
1002
{
1002
}
1002
}
1000
BHNVS
1070
     9
1000
BEHIND
1002
{
1000
Class
1070
     4
1000
INV
1002
{
1002
}
1000
Color
1070
     1
1070
   256
1002
{
1002
}
1000
LType
1070
     4
1000
BYLAYER
1002
{
1002
}
1002
}
1000
BLID
1070
     9
1000
4A
1002
{
1000
Class
1070
     4
1000

1002
{
1002
}
1000
Color
1070
     1
1070
   256
1002
{
1002
}
1000
LType
1070
     4
1000
BYLAYER
1002
{
1002
}
1002
}
1000
BOAP
1070
     9
1000
4A
1002
{
1000
Class
1070
     4
1000

1002
{
1002
}
1000
Color
1070
     1
1070
   256
1002
{
1002
}
1000
LType
1070
     4
1000
BYLAYER
1002
{
1002
}
1002
}
1000
BOR2
1070
     9
1000
RAHM2
1002
{
1000
Class
1070
     4
1000
SPZ,SYM
1002
{
1002
}
1000
Color
1070
     1
1070
   256
1002
{
1002
}
1000
LType
1070
     4
1000
BYLAYER
1002
{
1002
}
1002
}
1000
BOR3
1070
     9
1000
RAHM3
1002
{
1000
Class
1070
     4
1000
SPZ,SYM
1002
{
1002
}
1000
Color
1070
     1
1070
   256
1002
{
1002
}
1000
LType
1070
     4
1000
BYLAYER
1002
{
1002
}
1002
}
1000
BOR5
1070
     9
1000
RAHM5
1002
{
1000
Class
1070
     4
1000
SPZ,SYM
1002
{
1002
}
1000
Color
1070
     1
1070
   256
1002
{
1002
}
1000
LType
1070
     4
1000
BYLAYER
1002
{
1002
}
1002
}
1000
BOR7
1070
     9
1000
RAHM5
1002
{
1000
Class
1070
     4
1000
SPZ,SYM
1002
{
1002
}
1000
Color
1070
     1
1070
     7
1002
{
1002
}
1000
LType
1070
     4
1000
CONTINUOUS
1002
{
1002
}
1002
}
1000
BPAP
1070
     9
1000
4A
1002
{
1000
Class
1070
     4
1000

1002
{
1002
}
1000
Color
1070
     1
1070
   256
1002
{
1002
}
1000
LType
1070
     4
1000
BYLAYER
1002
{
1002
}
1002
}
1000
BPEX
1070
     9
1000
4A
1002
{
1000
Class
1070
     4
1000

1002
{
1002
}
1000
Color
1070
     1
1070
   256
1002
{
1002
}
1000
LType
1070
     4
1000
BYLAYER
1002
{
1002
}
1002
}
1000
BTDI
1070
     9
1000
5
1002
{
1000
Class
1070
     4
1000
DIM,SYM
1002
{
1002
}
1000
Color
1070
     1
1070
   256
1002
{
1002
}
1000
LType
1070
     4
1000
BYLAYER
1002
{
1002
}
1002
}
1000
CAL2
1070
     9
1000
4
1002
{
1000
Class
1070
     4
1000
SYM
1002
{
1002
}
1000
Color
1070
     1
1070
   256
1002
{
1002
}
1000
LType
1070
     4
1000
BYLAYER
1002
{
1002
}
1002
}
1000
CAL3
1070
     9
1000
4
1002
{
1000
Class
1070
     4
1000
SYM
1002
{
1002
}
1000
Color
1070
     1
1070
     2
1002
{
1002
}
1000
LType
1070
     4
1000
BYLAYER
1002
{
1002
}
1002
}
1000
CAL5
1070
     9
1000
4
1002
{
1000
Class
1070
     4
1000
SYM
1002
{
1002
}
1000
Color
1070
     1
1070
     7
1002
{
1002
}
1000
LType
1070
     4
1000
BYLAYER
1002
{
1002
}
1002
}
1000
CAL7
1070
     9
1000
4
1002
{
1000
Class
1070
     4
1000
SYM
1002
{
1002
}
1000
Color
1070
     1
1070
     5
1002
{
1002
}
1000
LType
1070
     4
1000
BYLAYER
1002
{
1002
}
1002
}
1000
CENN
1070
     9
1000
7A
1002
{
1000
Class
1070
     4
1000
CEN
1002
{
1002
}
1000
Color
1070
     1
1070
   256
1002
{
1002
}
1000
LType
1070
     4
1000
BYLAYER
1002
{
1002
}
1002
}
1000
CENW
1070
     9
1000
7
1002
{
1000
Class
1070
     4
1000
CEN
1002
{
1002
}
1000
Color
1070
     1
1070
   256
1002
{
1002
}
1000
LType
1070
     4
1000
BYLAYER
1002
{
1002
}
1002
}
1000
CLIN
1070
     9
1000
KLIN
1002
{
1000
Class
1070
     4
1000
SPZ
1002
{
1002
}
1000
Color
1070
     1
1070
   256
1002
{
1002
}
1000
LType
1070
     4
1000
BYLAYER
1002
{
1002
}
1002
}
1000
CON1
1070
     9
1000
0
1002
{
1000
Class
1070
     4
1000
CON,BGD
1002
{
1002
}
1000
Color
1070
     1
1070
   256
1002
{
1002
}
1000
LType
1070
     4
1000
BYLAYER
1002
{
1002
}
1002
}
1000
CON2
1070
     9
1000
1
1002
{
1000
Class
1070
     4
1000
CON,BGD
1002
{
1002
}
1000
Color
1070
     1
1070
   256
1002
{
1002
}
1000
LType
1070
     4
1000
BYLAYER
1002
{
1002
}
1002
}
1000
CON3
1070
     9
1000
2
1002
{
1000
Class
1070
     4
1000
CON,BGD
1002
{
1002
}
1000
Color
1070
     1
1070
   256
1002
{
1002
}
1000
LType
1070
     4
1000
BYLAYER
1002
{
1002
}
1002
}
1000
CON4
1070
     9
1000
2
1002
{
1000
Class
1070
     4
1000
CON,BGD
1002
{
1002
}
1000
Color
1070
     1
1070
   256
1002
{
1002
}
1000
LType
1070
     4
1000
BYLAYER
1002
{
1002
}
1002
}
1000
DERP
1070
     9
1000
4
1002
{
1000
Class
1070
     4
1000

1002
{
1002
}
1000
Color
1070
     1
1070
   256
1002
{
1002
}
1000
LType
1070
     4
1000
BYLAYER
1002
{
1002
}
1002
}
1000
DETA
1070
     9
1000
4
1002
{
1000
Class
1070
     4
1000

1002
{
1002
}
1000
Color
1070
     1
1070
   256
1002
{
1002
}
1000
LType
1070
     4
1000
BYLAYER
1002
{
1002
}
1002
}
1000
DIAG
1070
     9
1000
5
1002
{
1000
Class
1070
     4
1000
SYM
1002
{
1002
}
1000
Color
1070
     1
1070
   256
1002
{
1002
}
1000
LType
1070
     4
1000
BYLAYER
1002
{
1002
}
1002
}
1000
DILI
1070
     9
1000
5
1002
{
1000
Class
1070
     4
1000
DIM,SYM
1002
{
1002
}
1000
Color
1070
     1
1070
   256
1002
{
1002
}
1000
LType
1070
     4
1000
BYLAYER
1002
{
1002
}
1002
}
1000
DITO2
1070
     9
1000
5
1002
{
1000
Class
1070
     4
1000
DIM,SYM
1002
{
1002
}
1000
Color
1070
     1
1070
     3
1002
{
1002
}
1000
LType
1070
     4
1000
BYLAYER
1002
{
1002
}
1002
}
1000
DITO3
1070
     9
1000
5
1002
{
1000
Class
1070
     4
1000
DIM,SYM
1002
{
1002
}
1000
Color
1070
     1
1070
     2
1002
{
1002
}
1000
LType
1070
     4
1000
BYLAYER
1002
{
1002
}
1002
}
1000
DITX
1070
     9
1000
5
1002
{
1000
Class
1070
     4
1000
DIM,SYM
1002
{
1002
}
1000
Color
1070
     1
1070
     2
1002
{
1002
}
1000
LType
1070
     4
1000
CONTINUOUS
1002
{
1002
}
1002
}
1000
DIXL
1070
     9
1000
5
1002
{
1000
Class
1070
     4
1000
DIM,SYM
1002
{
1002
}
1000
Color
1070
     1
1070
   256
1002
{
1002
}
1000
LType
1070
     4
1000
BYLAYER
1002
{
1002
}
1002
}
1000
EXMP
1070
     9
1000
4A
1002
{
1000
Class
1070
     4
1000

1002
{
1002
}
1000
Color
1070
     1
1070
   256
1002
{
1002
}
1000
LType
1070
     4
1000
BYLAYER
1002
{
1002
}
1002
}
1000
FEMN
1070
     9
1000
8
1002
{
1000
Class
1070
     4
1000

1002
{
1002
}
1000
Color
1070
     1
1070
   256
1002
{
1002
}
1000
LType
1070
     4
1000
BYLAYER
1002
{
1002
}
1002
}
1000
FEMPN
1070
     9
1000
8
1002
{
1000
Class
1070
     4
1000
SYM
1002
{
1002
}
1000
Color
1070
     1
1070
     3
1002
{
1002
}
1000
LType
1070
     4
1000
BYLAYER
1002
{
1002
}
1002
}
1000
FEMSP
1070
     9
1000
4A
1002
{
1000
Class
1070
     4
1000

1002
{
1002
}
1000
Color
1070
     1
1070
   256
1002
{
1002
}
1000
LType
1070
     4
1000
CONTINUOUS
1002
{
1002
}
1002
}
1000
FEMST
1070
     9
1000
4A
1002
{
1000
Class
1070
     4
1000
SYM
1002
{
1002
}
1000
Color
1070
     1
1070
     3
1002
{
1002
}
1000
LType
1070
     4
1000
BYLAYER
1002
{
1002
}
1002
}
1000
FEMVN
1070
     9
1000
2
1002
{
1000
Class
1070
     4
1000
CON
1002
{
1002
}
1000
Color
1070
     1
1070
   256
1002
{
1002
}
1000
LType
1070
     4
1000
BYLAYER
1002
{
1002
}
1002
}
1000
FEMVT
1070
     9
1000
2
1002
{
1000
Class
1070
     4
1000
SYM
1002
{
1002
}
1000
Color
1070
     1
1070
     3
1002
{
1002
}
1000
LType
1070
     4
1000
BYLAYER
1002
{
1002
}
1002
}
1000
FLAT
1070
     9
1000
0
1002
{
1000
Class
1070
     4
1000

1002
{
1002
}
1000
Color
1070
     1
1070
   256
1002
{
1002
}
1000
LType
1070
     4
1000
BYLAYER
1002
{
1002
}
1002
}
1000
FRAR
1070
     9
1000
4A
1002
{
1000
Class
1070
     4
1000

1002
{
1002
}
1000
Color
1070
     1
1070
   256
1002
{
1002
}
1000
LType
1070
     4
1000
BYLAYER
1002
{
1002
}
1002
}
1000
GRLI
1070
     9
1000
5
1002
{
1000
Class
1070
     4
1000
SYM
1002
{
1002
}
1000
Color
1070
     1
1070
   256
1002
{
1002
}
1000
LType
1070
     4
1000
BYLAYER
1002
{
1002
}
1002
}
1000
GVLI
1070
     9
1000
4A
1002
{
1000
Class
1070
     4
1000

1002
{
1002
}
1000
Color
1070
     1
1070
   256
1002
{
1002
}
1000
LType
1070
     4
1000
BYLAYER
1002
{
1002
}
1002
}
1000
HATC
1070
     9
1000
8
1002
{
1000
Class
1070
     4
1000
HTC,BGD
1002
{
1002
}
1000
Color
1070
     1
1070
   256
1002
{
1002
}
1000
LType
1070
     4
1000
BYLAYER
1002
{
1002
}
1002
}
1000
HIDN
1070
     9
1000
3A
1002
{
1000
Class
1070
     4
1000
HID,BGD
1002
{
1002
}
1000
Color
1070
     1
1070
   256
1002
{
1002
}
1000
LType
1070
     4
1000
BYLAYER
1002
{
1002
}
1002
}
1000
HIDW
1070
     9
1000
3
1002
{
1000
Class
1070
     4
1000
HID,BGD
1002
{
1002
}
1000
Color
1070
     1
1070
   256
1002
{
1002
}
1000
LType
1070
     4
1000
BYLAYER
1002
{
1002
}
1002
}
1000
HLIN
1070
     9
1000
4
1002
{
1000
Class
1070
     4
1000
BGD
1002
{
1002
}
1000
Color
1070
     1
1070
   256
1002
{
1002
}
1000
LType
1070
     4
1000
BYLAYER
1002
{
1002
}
1002
}
1000
HOCN
1070
     9
1000
7A
1002
{
1000
Class
1070
     4
1000
CEN
1002
{
1002
}
1000
Color
1070
     1
1070
   256
1002
{
1002
}
1000
LType
1070
     4
1000
BYLAYER
1002
{
1002
}
1002
}
1000
HOCW
1070
     9
1000
7
1002
{
1000
Class
1070
     4
1000
CEN
1002
{
1002
}
1000
Color
1070
     1
1070
   256
1002
{
1002
}
1000
LType
1070
     4
1000
BYLAYER
1002
{
1002
}
1002
}
1000
INFO
1070
     9
1000
INFO
1002
{
1000
Class
1070
     4
1000
SPZ,SYM
1002
{
1002
}
1000
Color
1070
     1
1070
   256
1002
{
1002
}
1000
LType
1070
     4
1000
BYLAYER
1002
{
1002
}
1002
}
1000
LADI
1070
     9
1000
4
1002
{
1000
Class
1070
     4
1000
BGD
1002
{
1002
}
1000
Color
1070
     1
1070
   256
1002
{
1002
}
1000
LType
1070
     4
1000
BYLAYER
1002
{
1002
}
1002
}
1000
LEAD
1070
     9
1000
5
1002
{
1000
Class
1070
     4
1000
SYM
1002
{
1002
}
1000
Color
1070
     1
1070
   256
1002
{
1002
}
1000
LType
1070
     4
1000
BYLAYER
1002
{
1002
}
1002
}
1000
N_ADDL
1070
     9
1000
5N
1002
{
1000
Class
1070
     4
1000
SYM
1002
{
1002
}
1000
Color
1070
     1
1070
     1
1002
{
1002
}
1000
LType
1070
     4
1000
BYLAYER
1002
{
1002
}
1002
}
1000
N_BHNV
1070
     9
1000
9N
1002
{
1000
Class
1070
     4
1000
INV
1002
{
1002
}
1000
Color
1070
     1
1070
   256
1002
{
1002
}
1000
LType
1070
     4
1000
BYLAYER
1002
{
1002
}
1002
}
1000
N_CON1
1070
     9
1000
0N
1002
{
1000
Class
1070
     4
1000
CON,BGD
1002
{
1002
}
1000
Color
1070
     1
1070
   256
1002
{
1002
}
1000
LType
1070
     4
1000
BYLAYER
1002
{
1002
}
1002
}
1000
N_CON2
1070
     9
1000
1N
1002
{
1000
Class
1070
     4
1000
CON,BGD
1002
{
1002
}
1000
Color
1070
     1
1070
   256
1002
{
1002
}
1000
LType
1070
     4
1000
BYLAYER
1002
{
1002
}
1002
}
1000
N_CON3
1070
     9
1000
2N
1002
{
1000
Class
1070
     4
1000
CON,BGD
1002
{
1002
}
1000
Color
1070
     1
1070
   256
1002
{
1002
}
1000
LType
1070
     4
1000
BYLAYER
1002
{
1002
}
1002
}
1000
N_CON4
1070
     9
1000
2N
1002
{
1000
Class
1070
     4
1000
CON,BGD
1002
{
1002
}
1000
Color
1070
     1
1070
   256
1002
{
1002
}
1000
LType
1070
     4
1000
BYLAYER
1002
{
1002
}
1002
}
1000
N_CENN
1070
     9
1000
7AN
1002
{
1000
Class
1070
     4
1000
CEN
1002
{
1002
}
1000
Color
1070
     1
1070
   256
1002
{
1002
}
1000
LType
1070
     4
1000
BYLAYER
1002
{
1002
}
1002
}
1000
N_CENW
1070
     9
1000
7N
1002
{
1000
Class
1070
     4
1000
CEN
1002
{
1002
}
1000
Color
1070
     1
1070
   256
1002
{
1002
}
1000
LType
1070
     4
1000
BYLAYER
1002
{
1002
}
1002
}
1000
N_DILI
1070
     9
1000
5N
1002
{
1000
Class
1070
     4
1000
DIM,SYM
1002
{
1002
}
1000
Color
1070
     1
1070
   256
1002
{
1002
}
1000
LType
1070
     4
1000
BYLAYER
1002
{
1002
}
1002
}
1000
N_DITX
1070
     9
1000
5N
1002
{
1000
Class
1070
     4
1000
DIM,SYM
1002
{
1002
}
1000
Color
1070
     1
1070
     2
1002
{
1002
}
1000
LType
1070
     4
1000
CONTINUOUS
1002
{
1002
}
1002
}
1000
N_DIXL
1070
     9
1000
5N
1002
{
1000
Class
1070
     4
1000
DIM,SYM
1002
{
1002
}
1000
Color
1070
     1
1070
   256
1002
{
1002
}
1000
LType
1070
     4
1000
BYLAYER
1002
{
1002
}
1002
}
1000
N_HATC
1070
     9
1000
8N
1002
{
1000
Class
1070
     4
1000
HTC,BGD
1002
{
1002
}
1000
Color
1070
     1
1070
   256
1002
{
1002
}
1000
LType
1070
     4
1000
BYLAYER
1002
{
1002
}
1002
}
1000
N_HIDN
1070
     9
1000
3AN
1002
{
1000
Class
1070
     4
1000
HID,BGD
1002
{
1002
}
1000
Color
1070
     1
1070
   256
1002
{
1002
}
1000
LType
1070
     4
1000
BYLAYER
1002
{
1002
}
1002
}
1000
N_HIDW
1070
     9
1000
3N
1002
{
1000
Class
1070
     4
1000
HID,BGD
1002
{
1002
}
1000
Color
1070
     1
1070
   256
1002
{
1002
}
1000
LType
1070
     4
1000
BYLAYER
1002
{
1002
}
1002
}
1000
N_NGIP
1070
     9
1000
IPN
1002
{
1000
Class
1070
     4
1000

1002
{
1002
}
1000
Color
1070
     1
1070
   256
1002
{
1002
}
1000
LType
1070
     4
1000
BYLAYER
1002
{
1002
}
1002
}
1000
N_PHAN
1070
     9
1000
4AN
1002
{
1000
Class
1070
     4
1000

1002
{
1002
}
1000
Color
1070
     1
1070
   256
1002
{
1002
}
1000
LType
1070
     4
1000
BYLAYER
1002
{
1002
}
1002
}
1000
N_POSL
1070
     9
1000
5N
1002
{
1000
Class
1070
     4
1000
SYM
1002
{
1002
}
1000
Color
1070
     1
1070
   256
1002
{
1002
}
1000
LType
1070
     4
1000
BYLAYER
1002
{
1002
}
1002
}
1000
N_TCON
1070
     9
1000
0N
1002
{
1000
Class
1070
     4
1000
CON,BGD
1002
{
1002
}
1000
Color
1070
     1
1070
   256
1002
{
1002
}
1000
LType
1070
     4
1000
BYLAYER
1002
{
1002
}
1002
}
1000
N_THLI
1070
     9
1000
4N
1002
{
1000
Class
1070
     4
1000
BGD
1002
{
1002
}
1000
Color
1070
     1
1070
   256
1002
{
1002
}
1000
LType
1070
     4
1000
BYLAYER
1002
{
1002
}
1002
}
1000
N_TLEN
1070
     9
1000
0N
1002
{
1000
Class
1070
     4
1000
CON,BGD
1002
{
1002
}
1000
Color
1070
     1
1070
   256
1002
{
1002
}
1000
LType
1070
     4
1000
BYLAYER
1002
{
1002
}
1002
}
1000
N_TXT3
1070
     9
1000
6N
1002
{
1000
Class
1070
     4
1000
SYM
1002
{
1002
}
1000
Color
1070
     1
1070
   256
1002
{
1002
}
1000
LType
1070
     4
1000
BYLAYER
1002
{
1002
}
1002
}
1000
N_VPLI
1070
     9
1000
2AN
1002
{
1000
Class
1070
     4
1000

1002
{
1002
}
1000
Color
1070
     1
1070
   256
1002
{
1002
}
1000
LType
1070
     4
1000
BYLAYER
1002
{
1002
}
1002
}
1000
NGIP
1070
     9
1000
IP
1002
{
1000
Class
1070
     4
1000

1002
{
1002
}
1000
Color
1070
     1
1070
   256
1002
{
1002
}
1000
LType
1070
     4
1000
BYLAYER
1002
{
1002
}
1002
}
1000
PAL2
1070
     9
1000
RAHM2
1002
{
1000
Class
1070
     4
1000
SPZ,SYM
1002
{
1002
}
1000
Color
1070
     1
1070
   256
1002
{
1002
}
1000
LType
1070
     4
1000
BYLAYER
1002
{
1002
}
1002
}
1000
PAL3
1070
     9
1000
RAHM3
1002
{
1000
Class
1070
     4
1000
SPZ,SYM
1002
{
1002
}
1000
Color
1070
     1
1070
   256
1002
{
1002
}
1000
LType
1070
     4
1000
BYLAYER
1002
{
1002
}
1002
}
1000
PAL5
1070
     9
1000
RAHM5
1002
{
1000
Class
1070
     4
1000
SPZ,SYM
1002
{
1002
}
1000
Color
1070
     1
1070
   256
1002
{
1002
}
1000
LType
1070
     4
1000
BYLAYER
1002
{
1002
}
1002
}
1000
PAL7
1070
     9
1000
RAHM5
1002
{
1000
Class
1070
     4
1000
SPZ,SYM
1002
{
1002
}
1000
Color
1070
     1
1070
     7
1002
{
1002
}
1000
LType
1070
     4
1000
CONTINUOUS
1002
{
1002
}
1002
}
1000
PHAN
1070
     9
1000
4A
1002
{
1000
Class
1070
     4
1000

1002
{
1002
}
1000
Color
1070
     1
1070
   256
1002
{
1002
}
1000
LType
1070
     4
1000
BYLAYER
1002
{
1002
}
1002
}
1000
POSL
1070
     9
1000
5
1002
{
1000
Class
1070
     4
1000
SYM
1002
{
1002
}
1000
Color
1070
     1
1070
   256
1002
{
1002
}
1000
LType
1070
     4
1000
BYLAYER
1002
{
1002
}
1002
}
1000
POSN
1070
     9
1000
6
1002
{
1000
Class
1070
     4
1000
SYM
1002
{
1002
}
1000
Color
1070
     1
1070
     7
1002
{
1002
}
1000
LType
1070
     4
1000
BYLAYER
1002
{
1002
}
1002
}
1000
POSREF
1070
     9
1000
6
1002
{
1000
Class
1070
     4
1000
SYM
1002
{
1002
}
1000
Color
1070
     1
1070
     5
1002
{
1002
}
1000
LType
1070
     4
1000
BYLAYER
1002
{
1002
}
1002
}
1000
POSX
1070
     9
1000
5
1002
{
1000
Class
1070
     4
1000
SYM
1002
{
1002
}
1000
Color
1070
     1
1070
     2
1002
{
1002
}
1000
LType
1070
     4
1000
CONTINUOUS
1002
{
1002
}
1002
}
1000
PSEC
1070
     9
1000
4A
1002
{
1000
Class
1070
     4
1000

1002
{
1002
}
1000
Color
1070
     1
1070
   256
1002
{
1002
}
1000
LType
1070
     4
1000
BYLAYER
1002
{
1002
}
1002
}
1000
RCGN
1070
     9
1000
7A
1002
{
1000
Class
1070
     4
1000
CEN
1002
{
1002
}
1000
Color
1070
     1
1070
   256
1002
{
1002
}
1000
LType
1070
     4
1000
BYLAYER
1002
{
1002
}
1002
}
1000
RCGW
1070
     9
1000
7
1002
{
1000
Class
1070
     4
1000
CEN
1002
{
1002
}
1000
Color
1070
     1
1070
   256
1002
{
1002
}
1000
LType
1070
     4
1000
BYLAYER
1002
{
1002
}
1002
}
1000
RFDI
1070
     9
1000
4
1002
{
1000
Class
1070
     4
1000
BGD
1002
{
1002
}
1000
Color
1070
     1
1070
   256
1002
{
1002
}
1000
LType
1070
     4
1000
BYLAYER
1002
{
1002
}
1002
}
1000
RQTR
1070
     9
1000
4
1002
{
1000
Class
1070
     4
1000

1002
{
1002
}
1000
Color
1070
     1
1070
     7
1002
{
1002
}
1000
LType
1070
     4
1000
GEN7A
1002
{
1002
}
1002
}
1000
RSBO
1070
     9
1000
4
1002
{
1000
Class
1070
     4
1000
BGD
1002
{
1002
}
1000
Color
1070
     1
1070
   256
1002
{
1002
}
1000
LType
1070
     4
1000
BYLAYER
1002
{
1002
}
1002
}
1000
SBRK
1070
     9
1000
4
1002
{
1000
Class
1070
     4
1000
BGD
1002
{
1002
}
1000
Color
1070
     1
1070
   256
1002
{
1002
}
1000
LType
1070
     4
1000
BYLAYER
1002
{
1002
}
1002
}
1000
SCEN
1070
     9
1000
7
1002
{
1000
Class
1070
     4
1000

1002
{
1002
}
1000
Color
1070
     1
1070
   256
1002
{
1002
}
1000
LType
1070
     4
1000
CONTINUOUS
1002
{
1002
}
1002
}
1000
SECT
1070
     9
1000
4
1002
{
1000
Class
1070
     4
1000
BGD
1002
{
1002
}
1000
Color
1070
     1
1070
   256
1002
{
1002
}
1000
LType
1070
     4
1000
BYLAYER
1002
{
1002
}
1002
}
1000
SELN
1070
     9
1000
7A
1002
{
1000
Class
1070
     4
1000

1002
{
1002
}
1000
Color
1070
     1
1070
   256
1002
{
1002
}
1000
LType
1070
     4
1000
BYLAYER
1002
{
1002
}
1002
}
1000
SELW
1070
     9
1000
7
1002
{
1000
Class
1070
     4
1000

1002
{
1002
}
1000
Color
1070
     1
1070
   256
1002
{
1002
}
1000
LType
1070
     4
1000
BYLAYER
1002
{
1002
}
1002
}
1000
SSYS
1070
     9
1000
0
1002
{
1000
Class
1070
     4
1000

1002
{
1002
}
1000
Color
1070
     1
1070
   256
1002
{
1002
}
1000
LType
1070
     4
1000
BYLAYER
1002
{
1002
}
1002
}
1000
STLI
1070
     9
1000
4
1002
{
1000
Class
1070
     4
1000

1002
{
1002
}
1000
Color
1070
     1
1070
     7
1002
{
1002
}
1000
LType
1070
     4
1000
GEN3A
1002
{
1002
}
1002
}
1000
SYB1
1070
     9
1000
5
1002
{
1000
Class
1070
     4
1000
SYM
1002
{
1002
}
1000
Color
1070
     1
1070
   256
1002
{
1002
}
1000
LType
1070
     4
1000
BYLAYER
1002
{
1002
}
1002
}
1000
SYB2
1070
     9
1000
5
1002
{
1000
Class
1070
     4
1000
SYM
1002
{
1002
}
1000
Color
1070
     1
1070
   256
1002
{
1002
}
1000
LType
1070
     4
1000
BYLAYER
1002
{
1002
}
1002
}
1000
SYB3
1070
     9
1000
6
1002
{
1000
Class
1070
     4
1000
SYM
1002
{
1002
}
1000
Color
1070
     1
1070
   256
1002
{
1002
}
1000
LType
1070
     4
1000
CONTINUOUS
1002
{
1002
}
1002
}
1000
SYB5
1070
     9
1000
5
1002
{
1000
Class
1070
     4
1000
SYM
1002
{
1002
}
1000
Color
1070
     1
1070
     7
1002
{
1002
}
1000
LType
1070
     4
1000
BYLAYER
1002
{
1002
}
1002
}
1000
SYMN
1070
     9
1000
7A
1002
{
1000
Class
1070
     4
1000
CEN
1002
{
1002
}
1000
Color
1070
     1
1070
   256
1002
{
1002
}
1000
LType
1070
     4
1000
BYLAYER
1002
{
1002
}
1002
}
1000
SYMW
1070
     9
1000
7
1002
{
1000
Class
1070
     4
1000
CEN
1002
{
1002
}
1000
Color
1070
     1
1070
   256
1002
{
1002
}
1000
LType
1070
     4
1000
BYLAYER
1002
{
1002
}
1002
}
1000
TCON
1070
     9
1000
0
1002
{
1000
Class
1070
     4
1000
CON,BGD
1002
{
1002
}
1000
Color
1070
     1
1070
   256
1002
{
1002
}
1000
LType
1070
     4
1000
BYLAYER
1002
{
1002
}
1002
}
1000
THLI
1070
     9
1000
4
1002
{
1000
Class
1070
     4
1000
BGD
1002
{
1002
}
1000
Color
1070
     1
1070
   256
1002
{
1002
}
1000
LType
1070
     4
1000
BYLAYER
1002
{
1002
}
1002
}
1000
TIT2
1070
     9
1000
RAHM2
1002
{
1000
Class
1070
     4
1000
SPZ,SYM
1002
{
1002
}
1000
Color
1070
     1
1070
   256
1002
{
1002
}
1000
LType
1070
     4
1000
BYLAYER
1002
{
1002
}
1002
}
1000
TIT3
1070
     9
1000
RAHM3
1002
{
1000
Class
1070
     4
1000
SPZ,SYM
1002
{
1002
}
1000
Color
1070
     1
1070
   256
1002
{
1002
}
1000
LType
1070
     4
1000
BYLAYER
1002
{
1002
}
1002
}
1000
TIT5
1070
     9
1000
RAHM5
1002
{
1000
Class
1070
     4
1000
SPZ,SYM
1002
{
1002
}
1000
Color
1070
     1
1070
   256
1002
{
1002
}
1000
LType
1070
     4
1000
BYLAYER
1002
{
1002
}
1002
}
1000
TIT7
1070
     9
1000
RAHM5
1002
{
1000
Class
1070
     4
1000
SPZ,SYM
1002
{
1002
}
1000
Color
1070
     1
1070
     7
1002
{
1002
}
1000
LType
1070
     4
1000
CONTINUOUS
1002
{
1002
}
1002
}
1000
TLEN
1070
     9
1000
0
1002
{
1000
Class
1070
     4
1000
CON,BGD
1002
{
1002
}
1000
Color
1070
     1
1070
   256
1002
{
1002
}
1000
LType
1070
     4
1000
BYLAYER
1002
{
1002
}
1002
}
1000
TRKN
1070
     9
1000
7A
1002
{
1000
Class
1070
     4
1000

1002
{
1002
}
1000
Color
1070
     1
1070
   256
1002
{
1002
}
1000
LType
1070
     4
1000
BYLAYER
1002
{
1002
}
1002
}
1000
TRKW
1070
     9
1000
7
1002
{
1000
Class
1070
     4
1000

1002
{
1002
}
1000
Color
1070
     1
1070
   256
1002
{
1002
}
1000
LType
1070
     4
1000
BYLAYER
1002
{
1002
}
1002
}
1000
TRLI
1070
     9
1000
4
1002
{
1000
Class
1070
     4
1000
BGD
1002
{
1002
}
1000
Color
1070
     1
1070
   256
1002
{
1002
}
1000
LType
1070
     4
1000
BYLAYER
1002
{
1002
}
1002
}
1000
TXT1
1070
     9
1000
6
1002
{
1000
Class
1070
     4
1000
SYM
1002
{
1002
}
1000
Color
1070
     1
1070
     2
1002
{
1002
}
1000
LType
1070
     4
1000
BYLAYER
1002
{
1002
}
1002
}
1000
TXT2
1070
     9
1000
6
1002
{
1000
Class
1070
     4
1000
SYM
1002
{
1002
}
1000
Color
1070
     1
1070
     2
1002
{
1002
}
1000
LType
1070
     4
1000
BYLAYER
1002
{
1002
}
1002
}
1000
TXT3
1070
     9
1000
6
1002
{
1000
Class
1070
     4
1000
SYM
1002
{
1002
}
1000
Color
1070
     1
1070
   256
1002
{
1002
}
1000
LType
1070
     4
1000
BYLAYER
1002
{
1002
}
1002
}
1000
TXT5
1070
     9
1000
6
1002
{
1000
Class
1070
     4
1000
SYM
1002
{
1002
}
1000
Color
1070
     1
1070
     7
1002
{
1002
}
1000
LType
1070
     4
1000
BYLAYER
1002
{
1002
}
1002
}
1000
TXT7
1070
     9
1000
6
1002
{
1000
Class
1070
     4
1000
SYM
1002
{
1002
}
1000
Color
1070
     1
1070
     7
1002
{
1002
}
1000
LType
1070
     4
1000
BYLAYER
1002
{
1002
}
1002
}
1000
VIEW
1070
     9
1000
VIEW
1002
{
1000
Class
1070
     4
1000
SPZ
1002
{
1002
}
1000
Color
1070
     1
1070
   256
1002
{
1002
}
1000
LType
1070
     4
1000
BYLAYER
1002
{
1002
}
1002
}
1000
VPLI
1070
     9
1000
2A
1002
{
1000
Class
1070
     4
1000

1002
{
1002
}
1000
Color
1070
     1
1070
   256
1002
{
1002
}
1000
LType
1070
     4
1000
BYLAYER
1002
{
1002
}
1002
}
1000
ZIZA
1070
     9
1000
4
1002
{
1000
Class
1070
     4
1000
BGD
1002
{
1002
}
1000
Color
1070
     1
1070
   256
1002
{
1002
}
1000
LType
1070
     4
1000
GENZIGZAG
1002
{
1002
}
1002
}
  0
APPID
  5
1332
330
12C4
100
AcDbSymbolTableRecord
100
AcDbRegAppTableRecord
  2
GENIUS_GENCFG4_13
 70
     0
1001
GENIUS_GENCFG_13
1071
1022853085
1000
1332
1000
GEN
1070
    12
1000
GenCfgObject
1000
GenCfgShort
1000
GenCfgReal
1000
GenCfgBool
1000
GenCfgString
1000
GenCfgDim
1000
GenCfgAttrInf
1000
GenCfgLaySection
1000
GenCfgLayer
1000
GenCfgEntSort
1000
GenCfgLType
1000
GenCfgFilter
1000
Balloon
1070
     0
1002
{
1000
GenIF
1070
     1
1070
     0
1002
{
1002
}
1000
GenPosInc
1070
     1
1070
     1
1002
{
1002
}
1000
GenPosBlk
1070
     1
1070
     8
1002
{
1002
}
1000
GenPosVar
1070
     1
1070
     0
1002
{
1002
}
1000
GenZiCir
1070
     2
1040
1.5
1002
{
1002
}
1000
MaxCharForCenteredText
1070
     1
1070
    30
1002
{
1002
}
1000
Snap
1070
     0
1002
{
1000
ActivationRadius
1070
     2
1040
1.0
1002
{
1002
}
1000
M
1070
     0
1002
{
1000
SnapStepX
1070
     2
1040
20.0
1002
{
1002
}
1000
SnapStepY
1070
     2
1040
10.0
1002
{
1002
}
1002
}
1000
I
1070
     0
1002
{
1000
SnapStepX
1070
     2
1040
1.0
1002
{
1002
}
1000
SnapStepY
1070
     2
1040
0.5
1002
{
1002
}
1002
}
1002
}
1002
}
1000
Centerline
1070
     0
1002
{
1000
ScaleNot
1070
     3
1070
     0
1002
{
1002
}
1000
M
1070
     0
1002
{
1000
GenCenAng
1070
     4
1000
45|90|135
1002
{
1002
}
1000
GenCenDia
1070
     2
1040
10.0
1002
{
1002
}
1000
GenCenDias
1070
     4
1000
10|20|30
1002
{
1002
}
1000
GenCenDist
1070
     2
1040
3.0
1002
{
1002
}
1000
GenCenLen
1070
     2
1040
10.0
1002
{
1002
}
1000
GenCenOff
1070
     2
1040
10.0
1002
{
1002
}
1002
}
1000
I
1070
     0
1002
{
1000
GenCenAng
1070
     4
1000
45|90|135
1002
{
1002
}
1000
GenCenDia
1070
     2
1040
0.5
1002
{
1002
}
1000
GenCenDias
1070
     4
1000
0.5|1.0|1.5
1002
{
1002
}
1000
GenCenDist
1070
     2
1040
0.125
1002
{
1002
}
1000
GenCenLen
1070
     2
1040
0.5
1002
{
1002
}
1000
GenCenOff
1070
     2
1040
0.5
1002
{
1002
}
1002
}
1002
}
1000
CLine
1070
     0
1002
{
1000
CAngArray
1070
     4
1000
30|45|60
1002
{
1002
}
1000
Typ
1070
     4
1000
XLINE
1002
{
1002
}
1000
M
1070
     0
1002
{
1000
CLinArray
1070
     4
1000
10|20|30
1002
{
1002
}
1002
}
1000
I
1070
     0
1002
{
1000
CLinArray
1070
     4
1000
0.125|0.25|0.5
1002
{
1002
}
1002
}
1002
}
1000
Detail
1070
     0
1002
{
1002
}
1000
Dimension
1070
     5
1002
{
1000
DIMALT
1070
     1
1070
     0
1002
{
1002
}
1000
DIMALTD
1070
     1
1070
     2
1002
{
1002
}
1000
DIMALTTD
1070
     1
1070
     4
1002
{
1002
}
1000
DIMALTTZ
1070
     1
1070
     0
1002
{
1002
}
1000
DIMALTU
1070
     1
1070
     2
1002
{
1002
}
1000
DIMALTZ
1070
     1
1070
     0
1002
{
1002
}
1000
DIMAUNIT
1070
     1
1070
     0
1002
{
1002
}
1000
DIMBLK
1070
     4
1000

1002
{
1002
}
1000
DIMBLK1
1070
     4
1000

1002
{
1002
}
1000
DIMBLK2
1070
     4
1000

1002
{
1002
}
1000
DIMCLRD
1070
     1
1070
   256
1002
{
1002
}
1000
DIMCLRE
1070
     1
1070
   256
1002
{
1002
}
1000
DIMCLRT
1070
     1
1070
     2
1002
{
1002
}
1000
DIMDLE
1070
     2
1040
0.0
1002
{
1002
}
1000
DIMFIT
1070
     1
1070
     3
1002
{
1002
}
1000
DIMJUST
1070
     1
1070
     0
1002
{
1002
}
1000
DIMLFAC
1070
     2
1040
1.0
1002
{
1002
}
1000
DIMLIM
1070
     1
1070
     0
1002
{
1002
}
1000
DIMPOST
1070
     4
1000

1002
{
1002
}
1000
DIMRND
1070
     2
1040
0.0
1002
{
1002
}
1000
DIMSAH
1070
     1
1070
     0
1002
{
1002
}
1000
DIMSCALE
1070
     2
1040
1.0
1002
{
1002
}
1000
DIMSD1
1070
     1
1070
     0
1002
{
1002
}
1000
DIMSD2
1070
     1
1070
     0
1002
{
1002
}
1000
DIMSE1
1070
     1
1070
     0
1002
{
1002
}
1000
DIMSE2
1070
     1
1070
     0
1002
{
1002
}
1000
DIMSOXD
1070
     1
1070
     0
1002
{
1002
}
1000
DIMTAD
1070
     1
1070
     0
1002
{
1002
}
1000
DIMTFAC
1070
     2
1040
0.71
1002
{
1002
}
1000
DIMTIH
1070
     1
1070
     0
1002
{
1002
}
1000
DIMTIX
1070
     1
1070
     0
1002
{
1002
}
1000
DIMTM
1070
     2
1040
0.1
1002
{
1002
}
1000
DIMTOFL
1070
     1
1070
     0
1002
{
1002
}
1000
DIMTOH
1070
     1
1070
     0
1002
{
1002
}
1000
DIMTOL
1070
     1
1070
     0
1002
{
1002
}
1000
DIMTOLJ
1070
     1
1070
     1
1002
{
1002
}
1000
DIMTP
1070
     2
1040
0.1
1002
{
1002
}
1000
DIMTSZ
1070
     2
1040
0.0
1002
{
1002
}
1000
DIMTVP
1070
     2
1040
0.0
1002
{
1002
}
1000
DIMTXSTY
1070
     4
1000
STANDARD
1002
{
1002
}
1000
DIMTZIN
1070
     1
1070
     0
1002
{
1002
}
1000
DIMUNIT
1070
     1
1070
     2
1002
{
1002
}
1000
DIMUPT
1070
     1
1070
     0
1002
{
1002
}
1000
M
1070
     0
1002
{
1000
DIMALTF
1070
     2
1040
0.03937
1002
{
1002
}
1000
DIMAPOST
1070
     4
1000
"
1002
{
1002
}
1000
DIMASZ
1070
     2
1040
2.5
1002
{
1002
}
1000
DIMCEN
1070
     2
1040
0.0
1002
{
1002
}
1000
DIMDEC
1070
     1
1070
     2
1002
{
1002
}
1000
DIMDLI
1070
     2
1040
7.0
1002
{
1002
}
1000
DIMEXE
1070
     2
1040
1.0
1002
{
1002
}
1000
DIMEXO
1070
     2
1040
1.0
1002
{
1002
}
1000
DIMGAP
1070
     2
1040
0.6
1002
{
1002
}
1000
DIMTDEC
1070
     1
1070
     3
1002
{
1002
}
1000
DIMTXT
1070
     2
1040
3.5
1002
{
1002
}
1000
DIMZIN
1070
     1
1070
     8
1002
{
1002
}
1002
}
1000
I
1070
     0
1002
{
1000
DIMALTF
1070
     2
1040
25.4
1002
{
1002
}
1000
DIMAPOST
1070
     4
1000
mm
1002
{
1002
}
1000
DIMASZ
1070
     2
1040
0.1
1002
{
1002
}
1000
DIMCEN
1070
     2
1040
0.0
1002
{
1002
}
1000
DIMDEC
1070
     1
1070
     4
1002
{
1002
}
1000
DIMDLI
1070
     2
1040
0.5
1002
{
1002
}
1000
DIMEXE
1070
     2
1040
0.1
1002
{
1002
}
1000
DIMEXO
1070
     2
1040
0.05
1002
{
1002
}
1000
DIMGAP
1070
     2
1040
0.06
1002
{
1002
}
1000
DIMTDEC
1070
     1
1070
     4
1002
{
1002
}
1000
DIMTXT
1070
     2
1040
0.12
1002
{
1002
}
1000
DIMZIN
1070
     1
1070
     7
1002
{
1002
}
1002
}
1000
GEN-ISO
1070
     5
1002
{
1000
NAME
1070
     4
1000
GEN-ISO
1002
{
1002
}
1000
DIMTAD
1070
     1
1070
     1
1002
{
1002
}
1000
DIMTOLJ
1070
     1
1070
     0
1002
{
1002
}
1000
DIMTOFL
1070
     1
1070
     1
1002
{
1002
}
1000
M
1070
     0
1002
{
1002
}
1000
I
1070
     0
1002
{
1002
}
1002
}
1000
GEN-ISO-POS
1070
     5
1002
{
1000
NAME
1070
     4
1000
GEN-ISO-POS
1002
{
1002
}
1000
DIMTOLJ
1070
     1
1070
     0
1002
{
1002
}
1000
DIMTXSTY
1070
     4
1000
STANDARD
1002
{
1002
}
1000
M
1070
     0
1002
{
1000
DIMASZ
1070
     2
1040
2.5
1002
{
1002
}
1000
DIMGAP
1070
     2
1040
1.5
1002
{
1002
}
1000
DIMTXT
1070
     2
1040
5.0
1002
{
1002
}
1002
}
1000
I
1070
     0
1002
{
1000
DIMASZ
1070
     2
1040
0.1
1002
{
1002
}
1000
DIMGAP
1070
     2
1040
0.06
1002
{
1002
}
1000
DIMTXT
1070
     2
1040
0.2
1002
{
1002
}
1002
}
1002
}
1000
GEN-ISO-CIR
1070
     5
1002
{
1000
NAME
1070
     4
1000
GEN-ISO$3
1002
{
1002
}
1000
DIMFIT
1070
     1
1070
     0
1002
{
1002
}
1000
DIMTAD
1070
     1
1070
     1
1002
{
1002
}
1000
DIMTOH
1070
     1
1070
     1
1002
{
1002
}
1000
DIMTOLJ
1070
     1
1070
     0
1002
{
1002
}
1000
DIMUPT
1070
     1
1070
     1
1002
{
1002
}
1000
M
1070
     0
1002
{
1002
}
1000
I
1070
     0
1002
{
1002
}
1002
}
1000
GEN-ISO-RAD
1070
     5
1002
{
1000
NAME
1070
     4
1000
GEN-ISO$4
1002
{
1002
}
1000
DIMFIT
1070
     1
1070
     0
1002
{
1002
}
1000
DIMTAD
1070
     1
1070
     1
1002
{
1002
}
1000
DIMTIH
1070
     1
1070
     0
1002
{
1002
}
1000
DIMTIX
1070
     1
1070
     0
1002
{
1002
}
1000
DIMTOH
1070
     1
1070
     1
1002
{
1002
}
1000
DIMTOLJ
1070
     1
1070
     0
1002
{
1002
}
1000
DIMTOFL
1070
     1
1070
     0
1002
{
1002
}
1000
DIMUPT
1070
     1
1070
     1
1002
{
1002
}
1000
M
1070
     0
1002
{
1002
}
1000
I
1070
     0
1002
{
1002
}
1002
}
1000
GEN-ISO-ORD
1070
     5
1002
{
1000
NAME
1070
     4
1000
GEN-ISO$6
1002
{
1002
}
1000
DIMTOLJ
1070
     1
1070
     0
1002
{
1002
}
1000
M
1070
     0
1002
{
1002
}
1000
I
1070
     0
1002
{
1002
}
1002
}
1000
GEN-ISO-AXE-F
1070
     5
1002
{
1000
NAME
1070
     4
1000
GEN-ISO-AXE-F
1002
{
1002
}
1000
DIMSE1
1070
     1
1070
     1
1002
{
1002
}
1000
DIMSE2
1070
     1
1070
     1
1002
{
1002
}
1000
DIMTAD
1070
     1
1070
     1
1002
{
1002
}
1000
DIMTOLJ
1070
     1
1070
     0
1002
{
1002
}
1000
DIMTOFL
1070
     1
1070
     1
1002
{
1002
}
1000
M
1070
     0
1002
{
1002
}
1000
I
1070
     0
1002
{
1002
}
1002
}
1000
GEN-ISO-AXE-H
1070
     5
1002
{
1000
NAME
1070
     4
1000
GEN-ISO-AXE-H
1002
{
1002
}
1000
DIMBLK1
1070
     4
1000
GENAXEH
1002
{
1002
}
1000
DIMLFAC
1070
     2
1040
2.0
1002
{
1002
}
1000
DIMSAH
1070
     1
1070
     1
1002
{
1002
}
1000
DIMSE1
1070
     1
1070
     1
1002
{
1002
}
1000
DIMSE2
1070
     1
1070
     1
1002
{
1002
}
1000
DIMTAD
1070
     1
1070
     1
1002
{
1002
}
1000
DIMTOLJ
1070
     1
1070
     0
1002
{
1002
}
1000
DIMTOFL
1070
     1
1070
     1
1002
{
1002
}
1000
M
1070
     0
1002
{
1002
}
1000
I
1070
     0
1002
{
1002
}
1002
}
1000
GEN-ANSI
1070
     5
1002
{
1000
NAME
1070
     4
1000
GEN-ANSI
1002
{
1002
}
1000
DIMTIH
1070
     1
1070
     1
1002
{
1002
}
1000
DIMTOH
1070
     1
1070
     1
1002
{
1002
}
1000
DIMTAD
1070
     1
1070
     0
1002
{
1002
}
1000
DIMTOLJ
1070
     1
1070
     1
1002
{
1002
}
1000
M
1070
     0
1002
{
1002
}
1000
I
1070
     0
1002
{
1002
}
1002
}
1000
GEN-ANSI-POS
1070
     5
1002
{
1000
NAME
1070
     4
1000
GEN-ANSI-POS
1002
{
1002
}
1000
DIMTOLJ
1070
     1
1070
     1
1002
{
1002
}
1000
DIMTXSTY
1070
     4
1000
STANDARD
1002
{
1002
}
1000
M
1070
     0
1002
{
1000
DIMASZ
1070
     2
1040
2.5
1002
{
1002
}
1000
DIMGAP
1070
     2
1040
1.5
1002
{
1002
}
1000
DIMTXT
1070
     2
1040
5.0
1002
{
1002
}
1002
}
1000
I
1070
     0
1002
{
1000
DIMASZ
1070
     2
1040
0.1
1002
{
1002
}
1000
DIMGAP
1070
     2
1040
0.06
1002
{
1002
}
1000
DIMTXT
1070
     2
1040
0.2
1002
{
1002
}
1002
}
1002
}
1000
GEN-ANSI-CIR
1070
     5
1002
{
1000
NAME
1070
     4
1000
GEN-ANSI$3
1002
{
1002
}
1000
DIMFIT
1070
     1
1070
     0
1002
{
1002
}
1000
DIMTAD
1070
     1
1070
     0
1002
{
1002
}
1000
DIMTIH
1070
     1
1070
     1
1002
{
1002
}
1000
DIMTIX
1070
     1
1070
     0
1002
{
1002
}
1000
DIMTOFL
1070
     1
1070
     0
1002
{
1002
}
1000
DIMTOH
1070
     1
1070
     1
1002
{
1002
}
1000
DIMTOLJ
1070
     1
1070
     1
1002
{
1002
}
1000
DIMUPT
1070
     1
1070
     1
1002
{
1002
}
1000
M
1070
     0
1002
{
1002
}
1000
I
1070
     0
1002
{
1002
}
1002
}
1000
GEN-ANSI-RAD
1070
     5
1002
{
1000
NAME
1070
     4
1000
GEN-ANSI$4
1002
{
1002
}
1000
DIMFIT
1070
     1
1070
     0
1002
{
1002
}
1000
DIMTAD
1070
     1
1070
     0
1002
{
1002
}
1000
DIMTIH
1070
     1
1070
     1
1002
{
1002
}
1000
DIMTIX
1070
     1
1070
     0
1002
{
1002
}
1000
DIMTOFL
1070
     1
1070
     0
1002
{
1002
}
1000
DIMTOH
1070
     1
1070
     1
1002
{
1002
}
1000
DIMTOLJ
1070
     1
1070
     1
1002
{
1002
}
1000
DIMUPT
1070
     1
1070
     1
1002
{
1002
}
1000
M
1070
     0
1002
{
1002
}
1000
I
1070
     0
1002
{
1002
}
1002
}
1000
GEN-ANSI-ORD
1070
     5
1002
{
1000
NAME
1070
     4
1000
GEN-ANSI$6
1002
{
1002
}
1000
DIMTAD
1070
     1
1070
     0
1002
{
1002
}
1000
DIMTIH
1070
     1
1070
     1
1002
{
1002
}
1000
DIMTOH
1070
     1
1070
     1
1002
{
1002
}
1000
DIMTOLJ
1070
     1
1070
     1
1002
{
1002
}
1000
M
1070
     0
1002
{
1002
}
1000
I
1070
     0
1002
{
1002
}
1002
}
1000
GEN-ANSI-AXE-F
1070
     5
1002
{
1000
NAME
1070
     4
1000
GEN-ANSI-AXE-F
1002
{
1002
}
1000
DIMBLK1
1070
     4
1000
GENAXEH
1002
{
1002
}
1000
DIMSAH
1070
     1
1070
     1
1002
{
1002
}
1000
DIMSE1
1070
     1
1070
     1
1002
{
1002
}
1000
DIMSE2
1070
     1
1070
     1
1002
{
1002
}
1000
DIMTAD
1070
     1
1070
     0
1002
{
1002
}
1000
DIMTIH
1070
     1
1070
     1
1002
{
1002
}
1000
DIMTOH
1070
     1
1070
     1
1002
{
1002
}
1000
DIMTOLJ
1070
     1
1070
     1
1002
{
1002
}
1000
M
1070
     0
1002
{
1002
}
1000
I
1070
     0
1002
{
1002
}
1002
}
1000
GEN-ANSI-AXE-H
1070
     5
1002
{
1000
NAME
1070
     4
1000
GEN-ANSI-AXE-H
1002
{
1002
}
1000
DIMBLK1
1070
     4
1000
GENAXEH
1002
{
1002
}
1000
DIMLFAC
1070
     2
1040
2.0
1002
{
1002
}
1000
DIMSAH
1070
     1
1070
     1
1002
{
1002
}
1000
DIMSE1
1070
     1
1070
     1
1002
{
1002
}
1000
DIMSE2
1070
     1
1070
     1
1002
{
1002
}
1000
DIMTAD
1070
     1
1070
     0
1002
{
1002
}
1000
DIMTOFL
1070
     1
1070
     1
1002
{
1002
}
1000
DIMTOLJ
1070
     1
1070
     1
1002
{
1002
}
1000
M
1070
     0
1002
{
1002
}
1000
I
1070
     0
1002
{
1002
}
1002
}
1002
}
1000
DimSet
1070
     0
1002
{
1000
ChainSum
1070
     3
1070
     0
1002
{
1002
}
1000
DimDclTyp0
1070
     4
1000
dim23
1002
{
1002
}
1000
HorBra
1070
     3
1070
     0
1002
{
1002
}
1000
StrDia
1070
     4
1000
%%c<>
1002
{
1002
}
1000
StrRad
1070
     4
1000
R<>
1002
{
1002
}
1000
TextMinus
1070
     4
1000
<>
1002
{
1002
}
1000
TextPlus
1070
     4
1000
<>
1002
{
1002
}
1000
M
1070
     0
1002
{
1000
DimdliFirst
1070
     2
1040
10.0
1002
{
1002
}
1000
PointMakeDist
1070
     2
1040
10.0
1002
{
1002
}
1002
}
1000
I
1070
     0
1002
{
1000
DimdliFirst
1070
     2
1040
0.5
1002
{
1002
}
1000
PointMakeDist
1070
     2
1040
0.5
1002
{
1002
}
1002
}
1000
FitGrade
1070
     4
1000
h7
1002
{
1002
}
1002
}
1000
Drawing
1070
     0
1002
{
1000
ChamferDimMode
1070
     1
1070
     2
1002
{
1002
}
1000
Gen_Fiso
1070
    -3
1040
1.0
1002
{
1002
}
1000
GenDimStil
1070
     4
1000
ISO
1002
{
1002
}
1000
GenDwgUScale
1070
     2
1040
1.0
1002
{
1002
}
1000
GenInch
1070
     4
1000
M
1002
{
1002
}
1000
GenPlotScale
1070
     4
1000
1:5
1002
{
1002
}
1000
Revisi
1070
     4
1000
0
1002
{
1002
}
1000
Version
1070
    -5
1000
14.01/Apr  1 1998
1002
{
1002
}
1000
Platform
1070
    -5
1000
WINNT
1002
{
1002
}
1002
}
1000
DwgVar
1070
     0
1002
{
1000
M
1070
     0
1002
{
1002
}
1000
I
1070
     0
1002
{
1002
}
1002
}
1000
Hatch
1070
     0
1002
{
1000
GenHtcFlag
1070
     3
1070
     0
1002
{
1002
}
1002
}
1000
Info_Pos
1070
     0
1002
{
1000
>
1002
}
1000
Layer
1070
     7
1002
{
1000
Defs
1070
     0
1002
{
1000
>
1002
}
1000
EntSort
1070
     0
1002
{
1000
>
1002
}
1000
Match
1070
     0
1002
{
1002
}
1000
Settings
1070
     0
1002
{
1000
FocGrNC
1070
     3
1070
     0
1002
{
1002
}
1000
FocGrLo
1070
     3
1070
     0
1002
{
1002
}
1000
FocLoNC
1070
     3
1070
     0
1002
{
1002
}
1000
FocusCol
1070
     1
1070
   253
1002
{
1002
}
1000
GenStdLG
1070
     4
1000

1002
{
1002
}
1000
LayMatch
1070
     3
1070
     0
1002
{
1002
}
1000
LgOff
1070
     3
1070
     0
1002
{
1002
}
1000
CurLG
1070
    -5
1000

1002
{
1002
}
1002
}
1002
}
1000
LType
1070
     0
1002
{
1000
GEN3
1070
    10
1000
genius.lin
1002
{
1002
}
1000
GEN7
1070
    10
1000
genius.lin
1002
{
1002
}
1000
GEN4A
1070
    10
1000
genius.lin
1002
{
1002
}
1000
GEN3A
1070
    10
1000
genius.lin
1002
{
1002
}
1000
GEN7A
1070
    10
1000
genius.lin
1002
{
1002
}
1000
GENZIGZAG
1070
    10
1000
genius.lin
1002
{
1002
}
1002
}
1000
Objecter
1070
     0
1002
{
1000
CreateGroups
1070
     3
1070
     0
1002
{
1002
}
1000
LaySwitch
1070
     3
1070
     1
1002
{
1002
}
1000
LastObj
1070
    -5
1000
1365
1002
{
1002
}
1000
TimeStamp
1070
    -5
1000
20020531.15511908
1002
{
1002
}
1002
}
1000
OSWiz
1070
     0
1002
{
1000
Filter
1070
     0
1002
{
1000
HATCH
1070
    11
1002
{
1000
EntityType
1070
     4
1000
LINE
1002
{
1002
}
1000
Layer
1070
     4
1000
8,8N,*-8,*-8N
1002
{
1002
}
1000
Linetype
1070
     4
1000
*
1002
{
1002
}
1000
Color
1070
     4
1000
*
1002
{
1002
}
1000
ApplyInDims
1070
     3
1070
     1
1002
{
1002
}
1002
}
1000
SYMBOLS
1070
    11
1002
{
1000
EntityType
1070
     4
1000
*
1002
{
1002
}
1000
Layer
1070
     4
1000
[5-6],[5-6]N,*-[5-6],*-[5-6]N
1002
{
1002
}
1000
Linetype
1070
     4
1000
*
1002
{
1002
}
1000
Color
1070
     4
1000
*
1002
{
1002
}
1000
ApplyInDims
1070
     3
1070
     1
1002
{
1002
}
1002
}
1000
FEM
1070
    11
1002
{
1000
EntityType
1070
     4
1000
*
1002
{
1002
}
1000
Layer
1070
     4
1000
4A,4AN,*-4A,*-4AN
1002
{
1002
}
1000
Linetype
1070
     4
1000
*
1002
{
1002
}
1000
Color
1070
     4
1000
*
1002
{
1002
}
1000
ApplyInDims
1070
     3
1070
     1
1002
{
1002
}
1002
}
1002
}
1002
}
1000
PaList
1070
     0
1002
{
1000
AutoUpdatePartList
1070
     1
1070
     0
1002
{
1002
}
1000
ReadInfoPoint
1070
     3
1070
     0
1002
{
1002
}
1000
ReadPosNr
1070
     3
1070
     1
1002
{
1002
}
1000
RevStr
1070
     4
1000
0
1002
{
1002
}
1002
}
1000
Paper
1070
     0
1002
{
1002
}
1000
PartDB
1070
     0
1002
{
1000
GenDbOwner
1070
     4
1000

1002
{
1002
}
1002
}
1000
System
1070
     0
1002
{
1000
Menu
1070
     4
1000
GEV
1002
{
1002
}
1002
}
1000
Title
1070
     0
1002
{
1000
MakeView
1070
     1
1070
     2
1002
{
1002
}
1002
}
1000
Tools
1070
     0
1002
{
1000
Trans
1070
     0
1002
{
1000
Drawingtranslation
1070
    -4
1070
     1
1002
{
1002
}
1000
upreserve
1070
     3
1070
     0
1002
{
1002
}
1000
originally_on
1070
    -4
1070
     0
1002
{
1002
}
1000
sourcelang
1070
    -5
1000
D
1002
{
1002
}
1002
}
1002
}
  0
APPID
  5
1333
330
12C4
100
AcDbSymbolTableRecord
100
AcDbRegAppTableRecord
  2
GENIUS_GEVCFG0_13
 70
     0
1001
GENIUS_GENCFG_13
1071
1022853085
1000
1333
1000
GEV
1070
     1
1000
GenCfgObject
1000
VED
1070
     0
1002
{
1002
}
  0
APPID
  5
1334
330
12C4
100
AcDbSymbolTableRecord
100
AcDbRegAppTableRecord
  2
GEV_VCCNULL_SWITCH_OFF
 70
     0
  0
APPID
  5
1335
330
12C4
100
AcDbSymbolTableRecord
100
AcDbRegAppTableRecord
  2
GENIUS_GENDTOL_13
 70
     0
  0
APPID
  5
1336
330
12C4
100
AcDbSymbolTableRecord
100
AcDbRegAppTableRecord
  2
GENIUS_GENOENT_13
 70
     0
  0
APPID
  5
1337
330
12C4
100
AcDbSymbolTableRecord
100
AcDbRegAppTableRecord
  2
GENIUS_GENBLLY_14
 70
     0
  0
APPID
  5
1338
330
12C4
100
AcDbSymbolTableRecord
100
AcDbRegAppTableRecord
  2
GENIUS_GENODEF_13
 70
     0
  0
APPID
  5
1339
330
12C4
100
AcDbSymbolTableRecord
100
AcDbRegAppTableRecord
  2
GENIUS_GENOBJ-N-CRS_13
 70
     0
  0
APPID
  5
133A
330
12C4
100
AcDbSymbolTableRecord
100
AcDbRegAppTableRecord
  2
GENIUS_GENOREF_13
 70
     0
  0
APPID
  5
133B
330
12C4
100
AcDbSymbolTableRecord
100
AcDbRegAppTableRecord
  2
GENIUS_GENOLIS_13
 70
     0
  0
APPID
  5
133C
330
12C4
100
AcDbSymbolTableRecord
100
AcDbRegAppTableRecord
  2
GENIUS_GEFCFG0_13
 70
     0
  0
APPID
  5
133D
330
12C4
100
AcDbSymbolTableRecord
100
AcDbRegAppTableRecord
  2
GENIUS_VERSION2
 70
     0
  0
APPID
  5
133E
330
12C4
100
AcDbSymbolTableRecord
100
AcDbRegAppTableRecord
  2
GENIUS_GENREC_14
 70
     0
  0
APPID
  5
133F
330
12C4
100
AcDbSymbolTableRecord
100
AcDbRegAppTableRecord
  2
GENIUS_GENOBJ-N-REC_13
 70
     0
  0
APPID
  5
1340
330
12C4
100
AcDbSymbolTableRecord
100
AcDbRegAppTableRecord
  2
GENIUS_GENOBJ-N-TIT_13
 70
     0
  0
APPID
  5
1341
330
12C4
100
AcDbSymbolTableRecord
100
AcDbRegAppTableRecord
  2
GENIUS_GENTITLE_13
 70
     0
  0
APPID
  5
1342
330
12C4
100
AcDbSymbolTableRecord
100
AcDbRegAppTableRecord
  2
GENIUS_GENZVEED_13
 70
     0
  0
APPID
  5
1343
330
12C4
100
AcDbSymbolTableRecord
100
AcDbRegAppTableRecord
  2
GENIUS_GENOBJ-N-SDF_13
 70
     0
  0
APPID
  5
1344
330
12C4
100
AcDbSymbolTableRecord
100
AcDbRegAppTableRecord
  2
GENIUS_GENSCREG_13
 70
     0
  0
APPID
  5
1345
330
12C4
100
AcDbSymbolTableRecord
100
AcDbRegAppTableRecord
  2
GENIUS_GENBLKED_14
 70
     0
  0
APPID
  5
148F
330
12C4
100
AcDbSymbolTableRecord
100
AcDbRegAppTableRecord
  2
MCAD_NO_VIS
 70
     0
  0
APPID
  5
1490
330
12C4
100
AcDbSymbolTableRecord
100
AcDbRegAppTableRecord
  2
ACAD_TEMP_GRAPHIC
 70
     0
  0
APPID
  5
14C0
330
12C4
100
AcDbSymbolTableRecord
100
AcDbRegAppTableRecord
  2
AD_DRAW
 70
     0
  0
APPID
  5
14C3
330
12C4
100
AcDbSymbolTableRecord
100
AcDbRegAppTableRecord
  2
ACATTRIBSERVICES
 70
     0
  0
APPID
  5
14E3
330
12C4
100
AcDbSymbolTableRecord
100
AcDbRegAppTableRecord
  2
DESIGNERASSEMBLIES
 70
     0
  0
APPID
  5
14E9
330
12C4
100
AcDbSymbolTableRecord
100
AcDbRegAppTableRecord
  2
ACADM_DIM_EDIT
 70
     0
  0
APPID
  5
14EA
330
12C4
100
AcDbSymbolTableRecord
100
AcDbRegAppTableRecord
  2
AMDT_DM_ADJ
 70
     0
  0
APPID
  5
151C
330
12C4
100
AcDbSymbolTableRecord
100
AcDbRegAppTableRecord
  2
ACAD_DSTYLE_DIMARC_LENGTH_SYMBOL
 70
     0
  0
APPID
  5
151D
330
12C4
100
AcDbSymbolTableRecord
100
AcDbRegAppTableRecord
  2
ACAD_DSTYLE_DIMJOGGED_JOGANGLE_SYMBOL
 70
     0
  0
ENDTAB
  0
TABLE
  2
DIMSTYLE
  5
12C5
330
0
100
AcDbSymbolTable
 70
     8
100
AcDbDimStyleTable
 71
     1
340
12EC
  0
DIMSTYLE
105
12EC
102
{ACAD_REACTORS
330
1145
330
11EE
330
1296
330
11F8
102
}
330
12C5
100
AcDbSymbolTableRecord
100
AcDbDimStyleTableRecord
  2
GEN-ISO
 70
     0
  4
"
 40
5.0
 41
2.5
 42
1.0
 43
7.0
 44
1.0
 47
0.1
 48
0.1
 73
     0
 74
     0
 77
     1
 78
     8
140
3.5
141
0.0
143
0.03937
146
0.71
147
0.6
172
     1
176
   256
177
   256
178
     2
271
     2
272
     3
274
     4
283
     0
340
12CA
  0
DIMSTYLE
105
151B
330
12C5
100
AcDbSymbolTableRecord
100
AcDbDimStyleTableRecord
  2
AM_DIN
 70
     0
  4
"
 41
2.5
 42
1.0
 43
10.0
 44
1.0
 47
0.1
 48
0.1
 73
     0
 74
     0
 77
     1
 78
     8
 79
     2
140
3.5
141
0.0
143
0.0393701
146
0.71
147
1.5
172
     1
176
   256
177
   256
178
     2
271
     2
272
     3
274
     4
283
     0
284
     8
340
12CA
371
    -1
372
    -1
1001
ACAD_DSTYLE_DIMARC_LENGTH_SYMBOL
1070
   379
1070
     0
1001
ACAD_DSTYLE_DIMJOGGED_JOGANGLE_SYMBOL
1070
   384
1040
1.570796326794896
  0
DIMSTYLE
105
152C
330
12C5
100
AcDbSymbolTableRecord
100
AcDbDimStyleTableRecord
  2
AM_DIN$3
 70
     0
  4
"
 41
2.5
 42
1.0
 43
10.0
 44
1.0
 47
0.1
 48
0.1
 73
     0
 77
     1
 78
     8
 79
     2
140
3.5
141
0.0
143
0.0393701
146
0.71
147
1.5
176
   256
177
   256
178
     2
271
     2
272
     3
274
     4
283
     0
284
     8
288
     1
289
     0
340
12CA
371
    -1
372
    -1
1001
ACAD_DSTYLE_DIMARC_LENGTH_SYMBOL
1070
   379
1070
     0
1001
ACAD_DSTYLE_DIMJOGGED_JOGANGLE_SYMBOL
1070
   384
1040
1.570796326794896
  0
DIMSTYLE
105
1531
330
12C5
100
AcDbSymbolTableRecord
100
AcDbDimStyleTableRecord
  2
AM_DIN$4
 70
     0
  4
"
 41
2.5
 42
1.0
 43
10.0
 44
1.0
 47
0.1
 48
0.1
 73
     0
 77
     1
 78
     8
 79
     2
140
3.5
141
0.0
143
0.0393701
146
0.71
147
1.5
176
   256
177
   256
178
     2
271
     2
272
     3
274
     4
283
     0
284
     8
288
     1
289
     0
340
12CA
371
    -1
372
    -1
1001
ACAD_DSTYLE_DIMARC_LENGTH_SYMBOL
1070
   379
1070
     0
1001
ACAD_DSTYLE_DIMJOGGED_JOGANGLE_SYMBOL
1070
   384
1040
1.570796326794896
  0
DIMSTYLE
105
1536
330
12C5
100
AcDbSymbolTableRecord
100
AcDbDimStyleTableRecord
  2
AM_DIN$6
 70
     0
  4
"
 41
2.5
 42
1.0
 43
10.0
 44
1.0
 47
0.1
 48
0.1
 73
     0
 74
     0
 78
     8
 79
     2
140
3.5
141
0.0
143
0.0393701
146
0.71
147
1.5
172
     1
176
   256
177
   256
178
     2
271
     2
272
     3
274
     4
283
     0
284
     8
340
12CA
371
    -1
372
    -1
1001
ACAD_DSTYLE_DIMARC_LENGTH_SYMBOL
1070
   379
1070
     0
1001
ACAD_DSTYLE_DIMJOGGED_JOGANGLE_SYMBOL
1070
   384
1040
1.570796326794896
  0
DIMSTYLE
105
153B
330
12C5
100
AcDbSymbolTableRecord
100
AcDbDimStyleTableRecord
  2
AM_DIN$7
 70
     0
  4
"
 41
2.5
 42
1.0
 43
10.0
 44
1.0
 47
0.1
 48
0.1
 73
     0
 74
     0
 77
     1
 78
     8
 79
     2
140
5.0
141
0.0
143
0.0393701
146
0.71
147
1.5
172
     1
176
   256
177
   256
178
     2
271
     2
272
     3
274
     4
283
     0
284
     8
340
12CA
371
    -1
372
    -1
1001
ACAD_DSTYLE_DIMARC_LENGTH_SYMBOL
1070
   379
1070
     0
1001
ACAD_DSTYLE_DIMJOGGED_JOGANGLE_SYMBOL
1070
   384
1040
1.570796326794896
  0
DIMSTYLE
105
1540
330
12C5
100
AcDbSymbolTableRecord
100
AcDbDimStyleTableRecord
  2
AM_DIN$SF
 70
     0
  4
"
 41
2.5
 42
1.0
 43
10.0
 44
1.0
 47
0.1
 48
0.1
 73
     0
 74
     0
 75
     1
 76
     1
 77
     1
 78
     8
 79
     2
140
3.5
141
0.0
143
0.0393701
146
0.71
147
1.5
172
     1
176
   256
177
   256
178
     2
271
     2
272
     3
274
     4
283
     0
284
     8
340
12CA
371
    -1
372
    -1
1001
ACAD_DSTYLE_DIMARC_LENGTH_SYMBOL
1070
   379
1070
     0
1001
ACAD_DSTYLE_DIMJOGGED_JOGANGLE_SYMBOL
1070
   384
1040
1.570796326794896
  0
DIMSTYLE
105
1549
330
12C5
100
AcDbSymbolTableRecord
100
AcDbDimStyleTableRecord
  2
AM_DIN$SH
 70
     0
  4
"
 41
2.5
 42
1.0
 43
10.0
 44
1.0
 47
0.1
 48
0.1
 73
     0
 74
     0
 75
     1
 76
     1
 77
     1
 78
     8
 79
     2
140
3.5
141
0.0
143
0.0393701
144
2.0
146
0.71
147
1.5
172
     1
173
     1
176
   256
177
   256
178
     2
271
     2
272
     3
274
     4
283
     0
284
     8
340
12CA
343
1541
371
    -1
372
    -1
1001
ACAD_DSTYLE_DIMARC_LENGTH_SYMBOL
1070
   379
1070
     0
1001
ACAD_DSTYLE_DIMJOGGED_JOGANGLE_SYMBOL
1070
   384
1040
1.570796326794896
  0
ENDTAB
  0
TABLE
  2
BLOCK_RECORD
  5
12BC
330
0
100
AcDbSymbolTable
 70
    18
  0
BLOCK_RECORD
  5
12D3
330
12BC
100
AcDbSymbolTableRecord
100
AcDbBlockTableRecord
  2
*MODEL_SPACE
340
1487
  0
BLOCK_RECORD
  5
12D0
330
12BC
100
AcDbSymbolTableRecord
100
AcDbBlockTableRecord
  2
*PAPER_SPACE
340
1488
  0
BLOCK_RECORD
  5
12EE
330
12BC
100
AcDbSymbolTableRecord
100
AcDbBlockTableRecord
  2
*X0
340
0
102
{BLKREFS
331
109D
102
}
  0
BLOCK_RECORD
  5
12EF
330
12BC
100
AcDbSymbolTableRecord
100
AcDbBlockTableRecord
  2
*X1
340
0
102
{BLKREFS
331
10B7
102
}
  0
BLOCK_RECORD
  5
12F0
330
12BC
100
AcDbSymbolTableRecord
100
AcDbBlockTableRecord
  2
*X2
340
0
102
{BLKREFS
331
10D1
102
}
  0
BLOCK_RECORD
  5
12F1
330
12BC
100
AcDbSymbolTableRecord
100
AcDbBlockTableRecord
  2
*X3
340
0
102
{BLKREFS
331
10EB
102
}
  0
BLOCK_RECORD
  5
12F2
330
12BC
100
AcDbSymbolTableRecord
100
AcDbBlockTableRecord
  2
*X4
340
0
102
{BLKREFS
331
1105
102
}
  0
BLOCK_RECORD
  5
12F3
330
12BC
100
AcDbSymbolTableRecord
100
AcDbBlockTableRecord
  2
*X5
340
0
102
{BLKREFS
331
1120
102
}
  0
BLOCK_RECORD
  5
12F4
330
12BC
100
AcDbSymbolTableRecord
100
AcDbBlockTableRecord
  2
*X6
340
0
102
{BLKREFS
331
113B
102
}
  0
BLOCK_RECORD
  5
12F6
330
12BC
100
AcDbSymbolTableRecord
100
AcDbBlockTableRecord
  2
*X7
340
0
102
{BLKREFS
331
115C
102
}
  0
BLOCK_RECORD
  5
12F7
330
12BC
100
AcDbSymbolTableRecord
100
AcDbBlockTableRecord
  2
*X8
340
0
102
{BLKREFS
331
119E
102
}
  0
BLOCK_RECORD
  5
12F8
330
12BC
100
AcDbSymbolTableRecord
100
AcDbBlockTableRecord
  2
*X9
340
0
102
{BLKREFS
331
11E4
102
}
  0
BLOCK_RECORD
  5
1303
330
12BC
100
AcDbSymbolTableRecord
100
AcDbBlockTableRecord
  2
KATALOG_LEER
340
0
102
{BLKREFS
331
1347
331
1364
102
}
  0
BLOCK_RECORD
  5
1366
330
12BC
100
AcDbSymbolTableRecord
100
AcDbBlockTableRecord
  2
*D12
340
0
  0
BLOCK_RECORD
  5
1372
330
12BC
100
AcDbSymbolTableRecord
100
AcDbBlockTableRecord
  2
*D13
340
0
  0
BLOCK_RECORD
  5
138D
330
12BC
100
AcDbSymbolTableRecord
100
AcDbBlockTableRecord
  2
*D14
340
0
  0
BLOCK_RECORD
  5
13A4
330
12BC
100
AcDbSymbolTableRecord
100
AcDbBlockTableRecord
  2
*D15
340
0
  0
BLOCK_RECORD
  5
1541
330
12BC
100
AcDbSymbolTableRecord
100
AcDbBlockTableRecord
  2
GENAXEH
340
0
  0
ENDTAB
  0
ENDSEC
  0
SECTION
  2
BLOCKS
  0
BLOCK
  5
12D4
330
12D3
100
AcDbEntity
  8
0
100
AcDbBlockBegin
  2
*MODEL_SPACE
 70
     0
 10
0.0
 20
0.0
 30
0.0
  3
*MODEL_SPACE
  1

  0
ENDBLK
  5
12D5
330
12D3
100
AcDbEntity
  8
0
100
AcDbBlockEnd
  0
BLOCK
  5
12D1
330
12D0
100
AcDbEntity
 67
     1
  8
0
100
AcDbBlockBegin
  2
*PAPER_SPACE
 70
     0
 10
0.0
 20
0.0
 30
0.0
  3
*PAPER_SPACE
  1

  0
ENDBLK
  5
12D2
330
12D0
100
AcDbEntity
 67
     1
  8
0
100
AcDbBlockEnd
  0
BLOCK
  5
1095
330
12EE
100
AcDbEntity
  8
0
100
AcDbBlockBegin
  2
*X0
 70
     1
 10
0.0
 20
0.0
 30
0.0
  3
*X0
  1

  0
LINE
  5
1096
330
12EE
100
AcDbEntity
  8
8
100
AcDbLine
 10
133.672
 20
480.5799999999999
 30
0.0
 11
139.905
 21
486.814
 31
0.0
  0
LINE
  5
1097
330
12EE
100
AcDbEntity
  8
8
100
AcDbLine
 10
124.691
 20
480.5799999999999
 30
0.0
 11
140.402
 21
496.2909999999999
 31
0.0
  0
LINE
  5
1098
330
12EE
100
AcDbEntity
  8
8
100
AcDbLine
 10
121.426
 20
486.295
 30
0.0
 11
140.899
 21
505.768
 31
0.0
  0
LINE
  5
1099
330
12EE
100
AcDbEntity
  8
8
100
AcDbLine
 10
120.979
 20
494.829
 30
0.0
 11
136.73
 21
510.58
 31
0.0
  0
LINE
  5
109A
330
12EE
100
AcDbEntity
  8
8
100
AcDbLine
 10
118.629
 20
501.458
 30
0.0
 11
127.75
 21
510.58
 31
0.0
  0
LINE
  5
109B
330
12EE
100
AcDbEntity
  8
8
100
AcDbLine
 10
118.181
 20
509.991
 30
0.0
 11
118.77
 21
510.58
 31
0.0
  0
ENDBLK
  5
109C
330
12EE
100
AcDbEntity
  8
0
100
AcDbBlockEnd
  0
BLOCK
  5
10AF
330
12EF
100
AcDbEntity
  8
0
100
AcDbBlockBegin
  2
*X1
 70
     1
 10
0.0
 20
0.0
 30
0.0
  3
*X1
  1

  0
LINE
  5
10B0
330
12EF
100
AcDbEntity
  8
8
100
AcDbLine
 10
160.537
 20
462.5449999999999
 30
0.0
 11
174.357
 21
476.365
 31
0.0
  0
LINE
  5
10B1
330
12EF
100
AcDbEntity
  8
8
100
AcDbLine
 10
159.264
 20
470.2519999999999
 30
0.0
 11
174.854
 21
485.841
 31
0.0
  0
LINE
  5
10B2
330
12EF
100
AcDbEntity
  8
8
100
AcDbLine
 10
158.817
 20
478.785
 30
0.0
 11
175.351
 21
495.319
 31
0.0
  0
LINE
  5
10B3
330
12EF
100
AcDbEntity
  8
8
100
AcDbLine
 10
158.37
 20
487.318
 30
0.0
 11
175.848
 21
504.7959999999999
 31
0.0
  0
LINE
  5
10B4
330
12EF
100
AcDbEntity
  8
8
100
AcDbLine
 10
157.922
 20
495.851
 30
0.0
 11
172.651
 21
510.58
 31
0.0
  0
LINE
  5
10B5
330
12EF
100
AcDbEntity
  8
8
100
AcDbLine
 10
157.475
 20
504.384
 30
0.0
 11
163.671
 21
510.58
 31
0.0
  0
ENDBLK
  5
10B6
330
12EF
100
AcDbEntity
  8
0
100
AcDbBlockEnd
  0
BLOCK
  5
10C9
330
12F0
100
AcDbEntity
  8
0
100
AcDbBlockBegin
  2
*X2
 70
     1
 10
0.0
 20
0.0
 30
0.0
  3
*X2
  1

  0
LINE
  5
10CA
330
12F0
100
AcDbEntity
  8
8
100
AcDbLine
 10
195.922
 20
462.008
 30
0.0
 11
209.306
 21
475.393
 31
0.0
  0
LINE
  5
10CB
330
12F0
100
AcDbEntity
  8
8
100
AcDbLine
 10
194.31
 20
469.3769999999999
 30
0.0
 11
209.803
 21
484.87
 31
0.0
  0
LINE
  5
10CC
330
12F0
100
AcDbEntity
  8
8
100
AcDbLine
 10
193.863
 20
477.91
 30
0.0
 11
210.3
 21
494.3469999999999
 31
0.0
  0
LINE
  5
10CD
330
12F0
100
AcDbEntity
  8
8
100
AcDbLine
 10
193.416
 20
486.443
 30
0.0
 11
210.797
 21
503.824
 31
0.0
  0
LINE
  5
10CE
330
12F0
100
AcDbEntity
  8
8
100
AcDbLine
 10
192.969
 20
494.976
 30
0.0
 11
208.573
 21
510.58
 31
0.0
  0
LINE
  5
10CF
330
12F0
100
AcDbEntity
  8
8
100
AcDbLine
 10
192.521
 20
503.509
 30
0.0
 11
199.592
 21
510.58
 31
0.0
  0
ENDBLK
  5
10D0
330
12F0
100
AcDbEntity
  8
0
100
AcDbBlockEnd
  0
BLOCK
  5
10E3
330
12F1
100
AcDbEntity
  8
0
100
AcDbBlockBegin
  2
*X3
 70
     1
 10
0.0
 20
0.0
 30
0.0
  3
*X3
  1

  0
LINE
  5
10E4
330
12F1
100
AcDbEntity
  8
8
100
AcDbLine
 10
231.443
 20
461.608
 30
0.0
 11
244.256
 21
474.4209999999999
 31
0.0
  0
LINE
  5
10E5
330
12F1
100
AcDbEntity
  8
8
100
AcDbLine
 10
229.356
 20
468.5019999999999
 30
0.0
 11
244.752
 21
483.898
 31
0.0
  0
LINE
  5
10E6
330
12F1
100
AcDbEntity
  8
8
100
AcDbLine
 10
228.909
 20
477.035
 30
0.0
 11
245.249
 21
493.3749999999999
 31
0.0
  0
LINE
  5
10E7
330
12F1
100
AcDbEntity
  8
8
100
AcDbLine
 10
228.462
 20
485.568
 30
0.0
 11
245.746
 21
502.8519999999999
 31
0.0
  0
LINE
  5
10E8
330
12F1
100
AcDbEntity
  8
8
100
AcDbLine
 10
228.014
 20
494.101
 30
0.0
 11
244.493
 21
510.58
 31
0.0
  0
LINE
  5
10E9
330
12F1
100
AcDbEntity
  8
8
100
AcDbLine
 10
227.567
 20
502.634
 30
0.0
 11
235.513
 21
510.58
 31
0.0
  0
ENDBLK
  5
10EA
330
12F1
100
AcDbEntity
  8
0
100
AcDbBlockEnd
  0
BLOCK
  5
10FD
330
12F2
100
AcDbEntity
  8
0
100
AcDbBlockBegin
  2
*X4
 70
     1
 10
0.0
 20
0.0
 30
0.0
  3
*X4
  1

  0
LINE
  5
10FE
330
12F2
100
AcDbEntity
  8
8
100
AcDbLine
 10
266.681
 20
461.4559999999999
 30
0.0
 11
279.234
 21
474.009
 31
0.0
  0
LINE
  5
10FF
330
12F2
100
AcDbEntity
  8
8
100
AcDbLine
 10
264.376
 20
468.13
 30
0.0
 11
279.731
 21
483.4859999999999
 31
0.0
  0
LINE
  5
1100
330
12F2
100
AcDbEntity
  8
8
100
AcDbLine
 10
263.928
 20
476.663
 30
0.0
 11
280.228
 21
492.963
 31
0.0
  0
LINE
  5
1101
330
12F2
100
AcDbEntity
  8
8
100
AcDbLine
 10
263.481
 20
485.196
 30
0.0
 11
280.724
 21
502.4399999999999
 31
0.0
  0
LINE
  5
1102
330
12F2
100
AcDbEntity
  8
8
100
AcDbLine
 10
263.034
 20
493.729
 30
0.0
 11
279.884
 21
510.58
 31
0.0
  0
LINE
  5
1103
330
12F2
100
AcDbEntity
  8
8
100
AcDbLine
 10
262.587
 20
502.263
 30
0.0
 11
270.904
 21
510.58
 31
0.0
  0
ENDBLK
  5
1104
330
12F2
100
AcDbEntity
  8
0
100
AcDbBlockEnd
  0
BLOCK
  5
1117
330
12F3
100
AcDbEntity
  8
0
100
AcDbBlockBegin
  2
*X5
 70
     1
 10
0.0
 20
0.0
 30
0.0
  3
*X5
  1

  0
LINE
  5
1118
330
12F3
100
AcDbEntity
  8
8
100
AcDbLine
 10
302.243
 20
461.096
 30
0.0
 11
314.183
 21
473.0369999999999
 31
0.0
  0
LINE
  5
1119
330
12F3
100
AcDbEntity
  8
8
100
AcDbLine
 10
299.422
 20
467.255
 30
0.0
 11
314.68
 21
482.514
 31
0.0
  0
LINE
  5
111A
330
12F3
100
AcDbEntity
  8
8
100
AcDbLine
 10
298.974
 20
475.788
 30
0.0
 11
315.177
 21
491.9909999999999
 31
0.0
  0
LINE
  5
111B
330
12F3
100
AcDbEntity
  8
8
100
AcDbLine
 10
298.527
 20
484.321
 30
0.0
 11
315.673
 21
501.468
 31
0.0
  0
LINE
  5
111C
330
12F3
100
AcDbEntity
  8
8
100
AcDbLine
 10
298.08
 20
492.854
 30
0.0
 11
315.805
 21
510.58
 31
0.0
  0
LINE
  5
111D
330
12F3
100
AcDbEntity
  8
8
100
AcDbLine
 10
297.633
 20
501.388
 30
0.0
 11
306.825
 21
510.58
 31
0.0
  0
LINE
  5
111E
330
12F3
100
AcDbEntity
  8
8
100
AcDbLine
 10
297.186
 20
509.921
 30
0.0
 11
297.844
 21
510.58
 31
0.0
  0
ENDBLK
  5
111F
330
12F3
100
AcDbEntity
  8
0
100
AcDbBlockEnd
  0
BLOCK
  5
1132
330
12F4
100
AcDbEntity
  8
0
100
AcDbBlockBegin
  2
*X6
 70
     1
 10
0.0
 20
0.0
 30
0.0
  3
*X6
  1

  0
LINE
  5
1133
330
12F4
100
AcDbEntity
  8
8
100
AcDbLine
 10
337.881
 20
460.813
 30
0.0
 11
349.1319999999999
 21
472.065
 31
0.0
  0
LINE
  5
1134
330
12F4
100
AcDbEntity
  8
8
100
AcDbLine
 10
334.467
 20
466.38
 30
0.0
 11
349.629
 21
481.5419999999999
 31
0.0
  0
LINE
  5
1135
330
12F4
100
AcDbEntity
  8
8
100
AcDbLine
 10
334.02
 20
474.913
 30
0.0
 11
350.126
 21
491.019
 31
0.0
  0
LINE
  5
1136
330
12F4
100
AcDbEntity
  8
8
100
AcDbLine
 10
333.573
 20
483.4459999999999
 30
0.0
 11
350.6219999999999
 21
500.4959999999999
 31
0.0
  0
LINE
  5
1137
330
12F4
100
AcDbEntity
  8
8
100
AcDbLine
 10
333.126
 20
491.979
 30
0.0
 11
351.119
 21
509.973
 31
0.0
  0
LINE
  5
1138
330
12F4
100
AcDbEntity
  8
8
100
AcDbLine
 10
332.679
 20
500.5119999999999
 30
0.0
 11
342.746
 21
510.58
 31
0.0
  0
LINE
  5
1139
330
12F4
100
AcDbEntity
  8
8
100
AcDbLine
 10
332.231
 20
509.045
 30
0.0
 11
333.766
 21
510.58
 31
0.0
  0
ENDBLK
  5
113A
330
12F4
100
AcDbEntity
  8
0
100
AcDbBlockEnd
  0
BLOCK
  5
1155
330
12F6
100
AcDbEntity
  8
0
100
AcDbBlockBegin
  2
*X7
 70
     1
 10
0.0
 20
0.0
 30
0.0
  3
*X7
  1

  0
LINE
  5
1156
330
12F6
100
AcDbEntity
  8
8
100
AcDbLine
 10
377.453
 20
480.5799999999999
 30
0.0
 11
387.08
 21
490.208
 31
0.0
  0
LINE
  5
1157
330
12F6
100
AcDbEntity
  8
8
100
AcDbLine
 10
368.71
 20
480.818
 30
0.0
 11
389.69
 21
501.798
 31
0.0
  0
LINE
  5
1158
330
12F6
100
AcDbEntity
  8
8
100
AcDbLine
 10
368.263
 20
489.351
 30
0.0
 11
389.4919999999999
 21
510.58
 31
0.0
  0
LINE
  5
1159
330
12F6
100
AcDbEntity
  8
8
100
AcDbLine
 10
367.816
 20
497.8839999999999
 30
0.0
 11
380.512
 21
510.58
 31
0.0
  0
LINE
  5
115A
330
12F6
100
AcDbEntity
  8
8
100
AcDbLine
 10
367.3690000000001
 20
506.4169999999999
 30
0.0
 11
371.531
 21
510.58
 31
0.0
  0
ENDBLK
  5
115B
330
12F6
100
AcDbEntity
  8
0
100
AcDbBlockEnd
  0
BLOCK
  5
118F
330
12F7
100
AcDbEntity
  8
0
100
AcDbBlockBegin
  2
*X8
 70
     1
 10
0.0
 20
0.0
 30
0.0
  3
*X8
  1

  0
LINE
  5
1190
330
12F7
100
AcDbEntity
  8
8
100
AcDbLine
 10
89.01700000000001
 20
472.3939999999999
 30
0.0
 11
94.831
 21
466.5799999999999
 31
0.0
  0
LINE
  5
1191
330
12F7
100
AcDbEntity
  8
8
100
AcDbLine
 10
96.415
 20
473.977
 30
0.0
 11
103.812
 21
466.5799999999999
 31
0.0
  0
LINE
  5
1192
330
12F7
100
AcDbEntity
  8
8
100
AcDbLine
 10
103.134
 20
476.238
 30
0.0
 11
112.792
 21
466.5799999999999
 31
0.0
  0
LINE
  5
1193
330
12F7
100
AcDbEntity
  8
8
100
AcDbLine
 10
104.738
 20
483.6149999999999
 30
0.0
 11
121.772
 21
466.5799999999999
 31
0.0
  0
LINE
  5
1194
330
12F7
100
AcDbEntity
  8
8
100
AcDbLine
 10
133.739
 20
454.613
 30
0.0
 11
139.772
 21
448.58
 31
0.0
  0
LINE
  5
1195
330
12F7
100
AcDbEntity
  8
8
100
AcDbLine
 10
147.442
 20
440.91
 30
0.0
 11
157.772
 21
430.5799999999999
 31
0.0
  0
LINE
  5
1196
330
12F7
100
AcDbEntity
  8
8
100
AcDbLine
 10
105.185
 20
492.148
 30
0.0
 11
161.645
 21
435.688
 31
0.0
  0
LINE
  5
1197
330
12F7
100
AcDbEntity
  8
8
100
AcDbLine
 10
161.752
 20
435.58
 30
0.0
 11
169.007
 21
428.3249999999999
 31
0.0
  0
LINE
  5
1198
330
12F7
100
AcDbEntity
  8
8
100
AcDbLine
 10
105.632
 20
500.6809999999999
 30
0.0
 11
117.28
 21
489.033
 31
0.0
  0
LINE
  5
1199
330
12F7
100
AcDbEntity
  8
8
100
AcDbLine
 10
126.733
 20
479.5799999999999
 30
0.0
 11
142.409
 21
463.904
 31
0.0
  0
LINE
  5
119A
330
12F7
100
AcDbEntity
  8
8
100
AcDbLine
 10
106.079
 20
509.2139999999999
 30
0.0
 11
116.784
 21
498.51
 31
0.0
  0
LINE
  5
119B
330
12F7
100
AcDbEntity
  8
8
100
AcDbLine
 10
135.713
 20
479.5799999999999
 30
0.0
 11
140.876
 21
474.4169999999999
 31
0.0
  0
LINE
  5
119C
330
12F7
100
AcDbEntity
  8
8
100
AcDbLine
 10
113.694
 20
510.58
 30
0.0
 11
116.287
 21
507.986
 31
0.0
  0
ENDBLK
  5
119D
330
12F7
100
AcDbEntity
  8
0
100
AcDbBlockEnd
  0
BLOCK
  5
11D1
330
12F8
100
AcDbEntity
  8
0
100
AcDbBlockBegin
  2
*X9
 70
     1
 10
0.0
 20
0.0
 30
0.0
  3
*X9
  1

  0
LINE
  5
11D2
330
12F8
100
AcDbEntity
  8
8
100
AcDbLine
 10
341.358
 20
435.58
 30
0.0
 11
346.358
 21
430.5799999999999
 31
0.0
  0
LINE
  5
11D3
330
12F8
100
AcDbEntity
  8
8
100
AcDbLine
 10
346.834
 20
439.0839999999999
 30
0.0
 11
354.618
 21
431.3
 31
0.0
  0
LINE
  5
11D4
330
12F8
100
AcDbEntity
  8
8
100
AcDbLine
 10
349.4969999999999
 20
445.401
 30
0.0
 11
358.154
 21
436.7449999999999
 31
0.0
  0
LINE
  5
11D5
330
12F8
100
AcDbEntity
  8
8
100
AcDbLine
 10
353.987
 20
449.892
 30
0.0
 11
361.689
 21
442.189
 31
0.0
  0
LINE
  5
11D6
330
12F8
100
AcDbEntity
  8
8
100
AcDbLine
 10
358.477
 20
454.3819999999999
 30
0.0
 11
365.265
 21
447.5929999999999
 31
0.0
  0
LINE
  5
11D7
330
12F8
100
AcDbEntity
  8
8
100
AcDbLine
 10
362.967
 20
458.8719999999999
 30
0.0
 11
372.892
 21
448.9469999999999
 31
0.0
  0
LINE
  5
11D8
330
12F8
100
AcDbEntity
  8
8
100
AcDbLine
 10
366.0630000000001
 20
464.7559999999999
 30
0.0
 11
374.809
 21
456.01
 31
0.0
  0
LINE
  5
11D9
330
12F8
100
AcDbEntity
  8
8
100
AcDbLine
 10
367.174
 20
472.6259999999999
 30
0.0
 11
376.399
 21
463.3999999999999
 31
0.0
  0
LINE
  5
11DA
330
12F8
100
AcDbEntity
  8
8
100
AcDbLine
 10
369.2
 20
479.5799999999999
 30
0.0
 11
382.2
 21
466.5799999999999
 31
0.0
  0
LINE
  5
11DB
330
12F8
100
AcDbEntity
  8
8
100
AcDbLine
 10
378.18
 20
479.5799999999999
 30
0.0
 11
391.18
 21
466.5799999999999
 31
0.0
  0
LINE
  5
11DC
330
12F8
100
AcDbEntity
  8
8
100
AcDbLine
 10
387.16
 20
479.5799999999999
 30
0.0
 11
400.16
 21
466.5799999999999
 31
0.0
  0
LINE
  5
11DD
330
12F8
100
AcDbEntity
  8
8
100
AcDbLine
 10
390.805
 20
484.915
 30
0.0
 11
409.14
 21
466.5799999999999
 31
0.0
  0
LINE
  5
11DE
330
12F8
100
AcDbEntity
  8
8
100
AcDbLine
 10
391.2530000000001
 20
493.448
 30
0.0
 11
403.7009999999999
 21
481.0
 31
0.0
  0
LINE
  5
11DF
330
12F8
100
AcDbEntity
  8
8
100
AcDbLine
 10
410.66
 20
474.0409999999999
 30
0.0
 11
418.121
 21
466.5799999999999
 31
0.0
  0
LINE
  5
11E0
330
12F8
100
AcDbEntity
  8
8
100
AcDbLine
 10
391.7
 20
501.9809999999999
 30
0.0
 11
403.204
 21
490.477
 31
0.0
  0
LINE
  5
11E1
330
12F8
100
AcDbEntity
  8
8
100
AcDbLine
 10
392.147
 20
510.514
 30
0.0
 11
402.707
 21
499.954
 31
0.0
  0
LINE
  5
11E2
330
12F8
100
AcDbEntity
  8
8
100
AcDbLine
 10
401.0609999999999
 20
510.58
 30
0.0
 11
402.211
 21
509.431
 31
0.0
  0
ENDBLK
  5
11E3
330
12F8
100
AcDbEntity
  8
0
100
AcDbBlockEnd
  0
BLOCK
  5
1304
330
1303
100
AcDbEntity
  8
0
100
AcDbBlockBegin
  2
KATALOG_LEER
 70
     0
 10
0.0
 20
0.0
 30
0.0
  3
KATALOG_LEER
  1

  0
ENDBLK
  5
1305
330
1303
100
AcDbEntity
  8
0
100
AcDbBlockEnd
  0
BLOCK
  5
1462
330
1366
100
AcDbEntity
  8
0
100
AcDbBlockBegin
  2
*D12
 70
     1
 10
0.0
 20
0.0
 30
0.0
  3
*D12
  1

  0
LINE
  5
1558
330
1366
100
AcDbEntity
  8
5
370
    -2
100
AcDbLine
 10
225.521912
 20
577.3179629999999
 30
0.0
 11
225.521912
 21
625.3346669999999
 31
0.0
  0
LINE
  5
1559
330
1366
100
AcDbEntity
  8
5
370
    -2
100
AcDbLine
 10
521.521912
 20
577.3179629999999
 30
0.0
 11
521.521912
 21
625.3346669999999
 31
0.0
  0
LINE
  5
155A
330
1366
100
AcDbEntity
  8
5
370
    -2
100
AcDbLine
 10
250.521912
 20
620.334667
 30
0.0
 11
496.521912
 21
620.334667
 31
0.0
  0
SOLID
  5
155B
330
1366
100
AcDbEntity
  8
5
100
AcDbTrace
 10
250.521912
 20
624.5013336666666
 30
0.0
 11
250.521912
 21
616.1680003333333
 31
0.0
 12
225.521912
 22
620.334667
 32
0.0
 13
225.521912
 23
620.334667
 33
0.0
  0
SOLID
  5
155C
330
1366
100
AcDbEntity
  8
5
100
AcDbTrace
 10
496.521912
 20
624.5013336666666
 30
0.0
 11
496.521912
 21
616.1680003333333
 31
0.0
 12
521.521912
 22
620.334667
 32
0.0
 13
521.521912
 23
620.334667
 33
0.0
  0
MTEXT
  5
155D
330
1366
100
AcDbEntity
  8
5
 62
     2
100
AcDbMText
 10
373.521912
 20
632.0863894409447
 30
0.0
 40
17.5
 41
0.0
 71
     5
 72
     1
  1
{\Fgeniso.shx|c0;\U+25A1}296
 73
     1
 44
1.0
1001
ACAD
1000
MTEXTBEGIN
1070
    73
1070
     1
1070
    44
1040
1.0
1070
    74
1070
     0
1000
MTEXTEND
  0
POINT
  5
155E
330
1366
100
AcDbEntity
  8
DEFPOINTS
 62
     0
100
AcDbPoint
 10
225.521912
 20
572.3179629999999
 30
0.0
  0
POINT
  5
155F
330
1366
100
AcDbEntity
  8
DEFPOINTS
 62
     0
100
AcDbPoint
 10
521.521912
 20
572.3179629999999
 30
0.0
  0
POINT
  5
1560
330
1366
100
AcDbEntity
  8
DEFPOINTS
 62
     0
100
AcDbPoint
 10
521.521912
 20
620.334667
 30
0.0
  0
ENDBLK
  5
146C
330
1366
100
AcDbEntity
  8
0
100
AcDbBlockEnd
  0
BLOCK
  5
13E0
330
1372
100
AcDbEntity
  8
0
100
AcDbBlockBegin
  2
*D13
 70
     1
 10
0.0
 20
0.0
 30
0.0
  3
*D13
  1

  0
LINE
  5
156A
330
1372
100
AcDbEntity
  8
5
370
    -2
100
AcDbLine
 10
445.094912
 20
321.811963
 30
0.0
 11
445.094912
 21
409.311963
 31
0.0
  0
LINE
  5
156B
330
1372
100
AcDbEntity
  8
5
370
    -2
100
AcDbLine
 10
461.0949119999999
 20
321.811963
 30
0.0
 11
461.0949119999999
 21
409.311963
 31
0.0
  0
LINE
  5
156C
330
1372
100
AcDbEntity
  8
5
370
    -2
100
AcDbLine
 10
420.094912
 20
404.3119629999999
 30
0.0
 11
395.094912
 21
404.3119629999999
 31
0.0
  0
LINE
  5
156D
330
1372
100
AcDbEntity
  8
5
370
    -2
100
AcDbLine
 10
486.0949119999999
 20
404.3119629999999
 30
0.0
 11
533.7130222362204
 21
404.3119629999999
 31
0.0
  0
LINE
  5
156E
330
1372
100
AcDbEntity
  8
5
370
    -2
100
AcDbLine
 10
445.094912
 20
404.3119629999999
 30
0.0
 11
461.0949119999999
 21
404.3119629999999
 31
0.0
  0
SOLID
  5
156F
330
1372
100
AcDbEntity
  8
5
100
AcDbTrace
 10
420.094912
 20
408.4786296666666
 30
0.0
 11
420.094912
 21
400.1452963333333
 31
0.0
 12
445.094912
 22
404.3119629999999
 32
0.0
 13
445.094912
 23
404.3119629999999
 33
0.0
  0
SOLID
  5
1570
330
1372
100
AcDbEntity
  8
5
100
AcDbTrace
 10
486.0949119999999
 20
408.4786296666666
 30
0.0
 11
486.0949119999999
 21
400.1452963333333
 31
0.0
 12
461.0949119999999
 22
404.3119629999999
 32
0.0
 13
461.0949119999999
 23
404.3119629999999
 33
0.0
  0
MTEXT
  5
1571
330
1372
100
AcDbEntity
  8
5
 62
     2
100
AcDbMText
 10
522.4039671181102
 20
416.061963
 30
0.0
 40
17.5
 41
0.0
 71
     5
 72
     1
  1
16
 73
     1
 44
1.0
1001
ACAD
1000
MTEXTBEGIN
1070
    73
1070
     1
1070
    44
1040
1.0
1070
    74
1070
     0
1000
MTEXTEND
  0
POINT
  5
1572
330
1372
100
AcDbEntity
  8
DEFPOINTS
 62
     0
100
AcDbPoint
 10
445.094912
 20
316.811963
 30
0.0
  0
POINT
  5
1573
330
1372
100
AcDbEntity
  8
DEFPOINTS
 62
     0
100
AcDbPoint
 10
461.0949119999999
 20
316.811963
 30
0.0
  0
POINT
  5
1574
330
1372
100
AcDbEntity
  8
DEFPOINTS
 62
     0
100
AcDbPoint
 10
461.0949119999999
 20
404.3119629999999
 30
0.0
  0
ENDBLK
  5
13EC
330
1372
100
AcDbEntity
  8
0
100
AcDbBlockEnd
  0
BLOCK
  5
142C
330
138D
100
AcDbEntity
  8
0
100
AcDbBlockBegin
  2
*D14
 70
     1
 10
0.0
 20
0.0
 30
0.0
  3
*D14
  1

  0
LINE
  5
1575
330
138D
100
AcDbEntity
  8
5
370
    -2
100
AcDbLine
 10
544.1939119999999
 20
528.3179629999999
 30
0.0
 11
594.17659
 21
528.3179629999999
 31
0.0
  0
LINE
  5
1576
330
138D
100
AcDbEntity
  8
5
370
    -2
100
AcDbLine
 10
526.521912
 20
572.3179629999999
 30
0.0
 11
594.17659
 21
572.3179629999999
 31
0.0
  0
LINE
  5
1577
330
138D
100
AcDbEntity
  8
5
370
    -2
100
AcDbLine
 10
589.17659
 20
503.3179629999999
 30
0.0
 11
589.17659
 21
478.3179629999999
 31
0.0
  0
LINE
  5
1578
330
138D
100
AcDbEntity
  8
5
370
    -2
100
AcDbLine
 10
589.17659
 20
597.3179629999999
 30
0.0
 11
589.17659
 21
622.3179629999999
 31
0.0
  0
LINE
  5
1579
330
138D
100
AcDbEntity
  8
5
370
    -2
100
AcDbLine
 10
589.17659
 20
528.3179629999999
 30
0.0
 11
589.17659
 21
572.3179629999999
 31
0.0
  0
SOLID
  5
157A
330
138D
100
AcDbEntity
  8
5
100
AcDbTrace
 10
585.0099233333334
 20
503.3179629999999
 30
0.0
 11
593.3432566666666
 21
503.3179629999999
 31
0.0
 12
589.17659
 22
528.3179629999999
 32
0.0
 13
589.17659
 23
528.3179629999999
 33
0.0
  0
SOLID
  5
157B
330
138D
100
AcDbEntity
  8
5
100
AcDbTrace
 10
585.0099233333334
 20
597.3179629999999
 30
0.0
 11
593.3432566666666
 21
597.3179629999999
 31
0.0
 12
589.17659
 22
572.3179629999999
 32
0.0
 13
589.17659
 23
572.3179629999999
 33
0.0
  0
MTEXT
  5
157C
330
138D
100
AcDbEntity
  8
5
 62
     2
100
AcDbMText
 10
577.4265899999999
 20
550.317963
 30
0.0
 40
17.5
 41
0.0
 71
     5
 72
     1
  1
44
 11
0.0000000000000001
 21
1.0
 31
0.0
 73
     1
 44
1.0
1001
ACAD
1000
MTEXTBEGIN
1070
    73
1070
     1
1070
    44
1040
1.0
1070
    74
1070
     0
1000
MTEXTEND
  0
POINT
  5
157D
330
138D
100
AcDbEntity
  8
DEFPOINTS
 62
     0
100
AcDbPoint
 10
539.1939119999999
 20
528.3179629999999
 30
0.0
  0
POINT
  5
157E
330
138D
100
AcDbEntity
  8
DEFPOINTS
 62
     0
100
AcDbPoint
 10
521.521912
 20
572.3179629999999
 30
0.0
  0
POINT
  5
157F
330
138D
100
AcDbEntity
  8
DEFPOINTS
 62
     0
100
AcDbPoint
 10
589.17659
 20
572.3179629999999
 30
0.0
  0
ENDBLK
  5
1436
330
138D
100
AcDbEntity
  8
0
100
AcDbBlockEnd
  0
BLOCK
  5
1414
330
13A4
100
AcDbEntity
  8
0
100
AcDbBlockBegin
  2
*D15
 70
     1
 10
0.0
 20
0.0
 30
0.0
  3
*D15
  1

  0
LINE
  5
1561
330
13A4
100
AcDbEntity
  8
5
370
    -2
100
AcDbLine
 10
268.521912
 20
492.3179629999999
 30
0.0
 11
152.847912
 21
492.3179629999999
 31
0.0
  0
LINE
  5
1562
330
13A4
100
AcDbEntity
  8
5
370
    -2
100
AcDbLine
 10
220.521912
 20
572.3179629999999
 30
0.0
 11
152.847912
 21
572.3179629999999
 31
0.0
  0
LINE
  5
1563
330
13A4
100
AcDbEntity
  8
5
370
    -2
100
AcDbLine
 10
157.847912
 20
517.3179629999999
 30
0.0
 11
157.847912
 21
547.3179629999999
 31
0.0
  0
SOLID
  5
1564
330
13A4
100
AcDbEntity
  8
5
100
AcDbTrace
 10
153.6812453333333
 20
517.3179629999999
 30
0.0
 11
162.0145786666666
 21
517.3179629999999
 31
0.0
 12
157.847912
 22
492.3179629999999
 32
0.0
 13
157.847912
 23
492.3179629999999
 33
0.0
  0
SOLID
  5
1565
330
13A4
100
AcDbEntity
  8
5
100
AcDbTrace
 10
153.6812453333333
 20
547.3179629999999
 30
0.0
 11
162.0145786666666
 21
547.3179629999999
 31
0.0
 12
157.847912
 22
572.3179629999999
 32
0.0
 13
157.847912
 23
572.3179629999999
 33
0.0
  0
MTEXT
  5
1566
330
13A4
100
AcDbEntity
  8
5
 62
     2
100
AcDbMText
 10
146.0979119999999
 20
532.3179629999999
 30
0.0
 40
17.5
 41
0.0
 71
     5
 72
     1
  1
80
 11
0.0000000000000001
 21
1.0
 31
0.0
 73
     1
 44
1.0
1001
ACAD
1000
MTEXTBEGIN
1070
    73
1070
     1
1070
    44
1040
1.0
1070
    74
1070
     0
1000
MTEXTEND
  0
POINT
  5
1567
330
13A4
100
AcDbEntity
  8
DEFPOINTS
 62
     0
100
AcDbPoint
 10
273.521912
 20
492.3179629999999
 30
0.0
  0
POINT
  5
1568
330
13A4
100
AcDbEntity
  8
DEFPOINTS
 62
     0
100
AcDbPoint
 10
225.521912
 20
572.3179629999999
 30
0.0
  0
POINT
  5
1569
330
13A4
100
AcDbEntity
  8
DEFPOINTS
 62
     0
100
AcDbPoint
 10
157.847912
 20
572.3179629999999
 30
0.0
  0
ENDBLK
  5
141E
330
13A4
100
AcDbEntity
  8
0
100
AcDbBlockEnd
  0
BLOCK
  5
1543
330
1541
100
AcDbEntity
  8
0
100
AcDbBlockBegin
  2
GENAXEH
 70
     0
 10
0.0
 20
0.0
 30
0.0
  3
GENAXEH
  1

  0
LINE
  5
1542
330
1541
100
AcDbEntity
  8
0
100
AcDbLine
 10
-1.0
 20
0.0
 30
0.0
 11
1.0
 21
0.0
 31
0.0
  0
ENDBLK
  5
1544
330
1541
100
AcDbEntity
  8
0
100
AcDbBlockEnd
  0
ENDSEC
  0
SECTION
  2
ENTITIES
  0
LINE
  5
1001
330
12D3
100
AcDbEntity
  8
7
100
AcDbLine
 10
373.521912
 20
576.471963
 30
0.0
 11
373.521912
 21
482.385963
 31
0.0
  0
LINE
  5
1002
330
12D3
100
AcDbEntity
  8
0
100
AcDbLine
 10
237.521912
 20
572.3179629999999
 30
0.0
 11
373.521912
 21
572.3179629999999
 31
0.0
  0
LINE
  5
1003
330
12D3
100
AcDbEntity
  8
0
100
AcDbLine
 10
353.886912
 20
522.3179629999999
 30
0.0
 11
358.155912
 21
522.3179629999999
 31
0.0
  0
LINE
  5
1004
330
12D3
100
AcDbEntity
  8
0
100
AcDbLine
 10
365.521912
 20
572.3179629999999
 30
0.0
 11
363.149912
 21
527.0569629999999
 31
0.0
  0
LINE
  5
1005
330
12D3
100
AcDbEntity
  8
0
100
AcDbLine
 10
346.520912
 20
572.3179629999999
 30
0.0
 11
348.892912
 21
527.0569629999999
 31
0.0
  0
ARC
  5
1006
330
12D3
100
AcDbEntity
  8
0
100
AcDbCircle
 10
358.155912
 20
527.3179629999999
 30
0.0
 40
5.0
100
AcDbArc
 50
269.999
 51
357.0
  0
ARC
  5
1007
330
12D3
100
AcDbEntity
  8
0
100
AcDbCircle
 10
353.886912
 20
527.3179629999999
 30
0.0
 40
5.0
100
AcDbArc
 50
183.0
 51
269.999
  0
LINE
  5
1008
330
12D3
100
AcDbEntity
  8
0
100
AcDbLine
 10
318.886912
 20
522.3179629999999
 30
0.0
 11
323.155912
 21
522.3179629999999
 31
0.0
  0
LINE
  5
1009
330
12D3
100
AcDbEntity
  8
0
100
AcDbLine
 10
330.521912
 20
572.3179629999999
 30
0.0
 11
328.149912
 21
527.0569629999999
 31
0.0
  0
LINE
  5
100A
330
12D3
100
AcDbEntity
  8
0
100
AcDbLine
 10
311.520912
 20
572.3179629999999
 30
0.0
 11
313.892912
 21
527.0569629999999
 31
0.0
  0
ARC
  5
100B
330
12D3
100
AcDbEntity
  8
0
100
AcDbCircle
 10
323.155912
 20
527.3179629999999
 30
0.0
 40
5.0
100
AcDbArc
 50
269.999
 51
357.0
  0
ARC
  5
100C
330
12D3
100
AcDbEntity
  8
0
100
AcDbCircle
 10
318.886912
 20
527.3179629999999
 30
0.0
 40
5.0
100
AcDbArc
 50
183.0
 51
269.999
  0
LINE
  5
100D
330
12D3
100
AcDbEntity
  8
0
100
AcDbLine
 10
283.886912
 20
522.3179629999999
 30
0.0
 11
288.155912
 21
522.3179629999999
 31
0.0
  0
LINE
  5
100E
330
12D3
100
AcDbEntity
  8
0
100
AcDbLine
 10
295.521912
 20
572.3179629999999
 30
0.0
 11
293.149912
 21
527.0569629999999
 31
0.0
  0
LINE
  5
100F
330
12D3
100
AcDbEntity
  8
0
100
AcDbLine
 10
276.520912
 20
572.3179629999999
 30
0.0
 11
278.892912
 21
527.0569629999999
 31
0.0
  0
ARC
  5
1010
330
12D3
100
AcDbEntity
  8
0
100
AcDbCircle
 10
288.155912
 20
527.3179629999999
 30
0.0
 40
5.0
100
AcDbArc
 50
269.999
 51
357.0
  0
ARC
  5
1011
330
12D3
100
AcDbEntity
  8
0
100
AcDbCircle
 10
283.886912
 20
527.3179629999999
 30
0.0
 40
5.0
100
AcDbArc
 50
183.0
 51
269.999
  0
LINE
  5
1012
330
12D3
100
AcDbEntity
  8
0
100
AcDbLine
 10
241.096912
 20
542.3179629999999
 30
0.0
 11
278.093912
 21
542.3179629999999
 31
0.0
  0
LINE
  5
1013
330
12D3
100
AcDbEntity
  8
3A
100
AcDbLine
 10
241.043912
 20
543.3179629999999
 30
0.0
 11
259.000912
 21
543.3179629999999
 31
0.0
  0
LINE
  5
1014
330
12D3
100
AcDbEntity
  8
0
100
AcDbLine
 10
260.521912
 20
572.3179629999999
 30
0.0
 11
258.948912
 21
542.3189629999999
 31
0.0
  0
LINE
  5
1015
330
12D3
100
AcDbEntity
  8
0
100
AcDbLine
 10
237.520912
 20
572.3179629999999
 30
0.0
 11
238.149912
 21
560.314963
 31
0.0
  0
LINE
  5
1016
330
12D3
100
AcDbEntity
  8
0
100
AcDbLine
 10
240.251912
 20
558.422963
 30
0.0
 11
241.095912
 21
542.3179629999999
 31
0.0
  0
LINE
  5
1017
330
12D3
100
AcDbEntity
  8
0
100
AcDbLine
 10
238.149912
 20
560.3179629999999
 30
0.0
 11
238.254912
 21
560.3179629999999
 31
0.0
  0
ARC
  5
1018
330
12D3
100
AcDbEntity
  8
0
100
AcDbCircle
 10
238.254912
 20
558.317963
 30
0.0
 40
2.0
100
AcDbArc
 50
3.0
 51
89.99700000000002
  0
LINE
  5
1019
330
12D3
100
AcDbEntity
  8
3A
 48
0.9919999999999999
100
AcDbLine
 10
282.096912
 20
543.3179629999999
 30
0.0
 11
294.000912
 21
543.3179629999999
 31
0.0
  0
LINE
  5
101A
330
12D3
100
AcDbEntity
  8
3A
 48
0.118
100
AcDbLine
 10
281.096912
 20
542.3179629999999
 30
0.0
 11
282.096912
 21
543.3179629999999
 31
0.0
  0
LINE
  5
101B
330
12D3
100
AcDbEntity
  8
3A
 48
0.118
100
AcDbLine
 10
353.521912
 20
542.3179629999999
 30
0.0
 11
352.521912
 21
543.3179629999999
 31
0.0
  0
LINE
  5
101C
330
12D3
100
AcDbEntity
  8
3A
 48
0.8690000000000001
100
AcDbLine
 10
353.521912
 20
542.3179629999999
 30
0.0
 11
363.948912
 21
542.3179629999999
 31
0.0
  0
LINE
  5
101D
330
12D3
100
AcDbEntity
  8
3A
 48
0.25
100
AcDbLine
 10
278.093912
 20
542.3179629999999
 30
0.0
 11
281.096912
 21
542.3179629999999
 31
0.0
  0
LINE
  5
101E
330
12D3
100
AcDbEntity
  8
3A
100
AcDbLine
 10
313.041912
 20
543.3179629999999
 30
0.0
 11
329.0009120000001
 21
543.3179629999999
 31
0.0
  0
LINE
  5
101F
330
12D3
100
AcDbEntity
  8
0
100
AcDbLine
 10
294.000912
 20
543.3179629999999
 30
0.0
 11
313.041912
 21
543.3179629999999
 31
0.0
  0
LINE
  5
1020
330
12D3
100
AcDbEntity
  8
0
100
AcDbLine
 10
329.0009120000001
 20
543.3179629999999
 30
0.0
 11
348.041912
 21
543.3179629999999
 31
0.0
  0
LINE
  5
1021
330
12D3
100
AcDbEntity
  8
3A
 48
0.373
100
AcDbLine
 10
348.041912
 20
543.3179629999999
 30
0.0
 11
352.521912
 21
543.3179629999999
 31
0.0
  0
LINE
  5
1022
330
12D3
100
AcDbEntity
  8
0
100
AcDbLine
 10
363.948912
 20
542.3179629999999
 30
0.0
 11
373.521912
 21
542.3179629999999
 31
0.0
  0
LINE
  5
1023
330
12D3
100
AcDbEntity
  8
0
100
AcDbLine
 10
509.521912
 20
572.3179629999999
 30
0.0
 11
373.521912
 21
572.3179629999999
 31
0.0
  0
LINE
  5
1024
330
12D3
100
AcDbEntity
  8
0
100
AcDbLine
 10
393.155912
 20
522.3179629999999
 30
0.0
 11
388.886912
 21
522.3179629999999
 31
0.0
  0
LINE
  5
1025
330
12D3
100
AcDbEntity
  8
0
100
AcDbLine
 10
381.521912
 20
572.3179629999999
 30
0.0
 11
383.893912
 21
527.0569629999999
 31
0.0
  0
LINE
  5
1026
330
12D3
100
AcDbEntity
  8
0
100
AcDbLine
 10
400.5219119999999
 20
572.3189629999999
 30
0.0
 11
398.149912
 21
527.0569629999999
 31
0.0
  0
ARC
  5
1027
330
12D3
100
AcDbEntity
  8
0
100
AcDbCircle
 10
388.886912
 20
527.3179629999999
 30
0.0
 40
5.0
100
AcDbArc
 50
183.0
 51
270.001
  0
ARC
  5
1028
330
12D3
100
AcDbEntity
  8
0
100
AcDbCircle
 10
393.155912
 20
527.3179629999999
 30
0.0
 40
5.0
100
AcDbArc
 50
270.001
 51
357.0
  0
LINE
  5
1029
330
12D3
100
AcDbEntity
  8
0
100
AcDbLine
 10
428.1559119999999
 20
522.3179629999999
 30
0.0
 11
423.886912
 21
522.3179629999999
 31
0.0
  0
LINE
  5
102A
330
12D3
100
AcDbEntity
  8
0
100
AcDbLine
 10
416.5219119999999
 20
572.3179629999999
 30
0.0
 11
418.8939119999999
 21
527.055963
 31
0.0
  0
LINE
  5
102B
330
12D3
100
AcDbEntity
  8
0
100
AcDbLine
 10
435.521912
 20
572.3179629999999
 30
0.0
 11
433.149912
 21
527.0569629999999
 31
0.0
  0
ARC
  5
102C
330
12D3
100
AcDbEntity
  8
0
100
AcDbCircle
 10
423.886912
 20
527.3179629999999
 30
0.0
 40
5.0
100
AcDbArc
 50
183.0
 51
270.001
  0
ARC
  5
102D
330
12D3
100
AcDbEntity
  8
0
100
AcDbCircle
 10
428.1559119999999
 20
527.3179629999999
 30
0.0
 40
5.0
100
AcDbArc
 50
270.001
 51
357.0
  0
LINE
  5
102E
330
12D3
100
AcDbEntity
  8
0
100
AcDbLine
 10
463.155912
 20
522.3179629999999
 30
0.0
 11
458.886912
 21
522.3179629999999
 31
0.0
  0
LINE
  5
102F
330
12D3
100
AcDbEntity
  8
0
100
AcDbLine
 10
451.521912
 20
572.3179629999999
 30
0.0
 11
453.893912
 21
527.0569629999999
 31
0.0
  0
LINE
  5
1030
330
12D3
100
AcDbEntity
  8
0
100
AcDbLine
 10
470.5219119999999
 20
572.3189629999999
 30
0.0
 11
468.149912
 21
527.0569629999999
 31
0.0
  0
ARC
  5
1031
330
12D3
100
AcDbEntity
  8
0
100
AcDbCircle
 10
458.886912
 20
527.3179629999999
 30
0.0
 40
5.0
100
AcDbArc
 50
183.0
 51
270.001
  0
ARC
  5
1032
330
12D3
100
AcDbEntity
  8
0
100
AcDbCircle
 10
463.155912
 20
527.3179629999999
 30
0.0
 40
5.0
100
AcDbArc
 50
270.001
 51
357.0
  0
LINE
  5
1033
330
12D3
100
AcDbEntity
  8
0
100
AcDbLine
 10
505.946912
 20
542.3179629999999
 30
0.0
 11
468.9499119999999
 21
542.3179629999999
 31
0.0
  0
LINE
  5
1035
330
12D3
100
AcDbEntity
  8
0
100
AcDbLine
 10
486.5219119999999
 20
572.3179629999999
 30
0.0
 11
488.0939119999999
 21
542.3179629999999
 31
0.0
  0
LINE
  5
1036
330
12D3
100
AcDbEntity
  8
0
100
AcDbLine
 10
509.521912
 20
572.3189629999999
 30
0.0
 11
508.892912
 21
560.315963
 31
0.0
  0
LINE
  5
1037
330
12D3
100
AcDbEntity
  8
0
100
AcDbLine
 10
506.790912
 20
558.422963
 30
0.0
 11
505.946912
 21
542.3189629999999
 31
0.0
  0
LINE
  5
1038
330
12D3
100
AcDbEntity
  8
0
100
AcDbLine
 10
508.892912
 20
560.3179629999999
 30
0.0
 11
508.787912
 21
560.3179629999999
 31
0.0
  0
ARC
  5
1039
330
12D3
100
AcDbEntity
  8
0
100
AcDbCircle
 10
508.787912
 20
558.317963
 30
0.0
 40
2.0
100
AcDbArc
 50
90.00299999999999
 51
177.0
  0
LINE
  5
103A
330
12D3
100
AcDbEntity
  8
3A
 48
0.9919999999999999
100
AcDbLine
 10
464.945912
 20
543.3179629999999
 30
0.0
 11
453.041912
 21
543.3179629999999
 31
0.0
  0
LINE
  5
103B
330
12D3
100
AcDbEntity
  8
3A
 48
0.118
100
AcDbLine
 10
465.9469119999999
 20
542.3179629999999
 30
0.0
 11
464.945912
 21
543.3179629999999
 31
0.0
  0
LINE
  5
103C
330
12D3
100
AcDbEntity
  8
3A
 48
0.118
100
AcDbLine
 10
393.521912
 20
542.3179629999999
 30
0.0
 11
394.521912
 21
543.3179629999999
 31
0.0
  0
LINE
  5
103D
330
12D3
100
AcDbEntity
  8
3A
 48
0.8690000000000001
100
AcDbLine
 10
393.521912
 20
542.3179629999999
 30
0.0
 11
383.093912
 21
542.3179629999999
 31
0.0
  0
LINE
  5
103E
330
12D3
100
AcDbEntity
  8
3A
 48
0.25
100
AcDbLine
 10
468.9499119999999
 20
542.3179629999999
 30
0.0
 11
465.9469119999999
 21
542.3179629999999
 31
0.0
  0
LINE
  5
103F
330
12D3
100
AcDbEntity
  8
3A
100
AcDbLine
 10
434.001912
 20
543.3179629999999
 30
0.0
 11
418.041912
 21
543.3179629999999
 31
0.0
  0
LINE
  5
1040
330
12D3
100
AcDbEntity
  8
0
100
AcDbLine
 10
453.041912
 20
543.3179629999999
 30
0.0
 11
434.001912
 21
543.3179629999999
 31
0.0
  0
LINE
  5
1041
330
12D3
100
AcDbEntity
  8
0
100
AcDbLine
 10
418.041912
 20
543.3179629999999
 30
0.0
 11
399.001912
 21
543.3179629999999
 31
0.0
  0
LINE
  5
1042
330
12D3
100
AcDbEntity
  8
3A
 48
0.373
100
AcDbLine
 10
399.001912
 20
543.3179629999999
 30
0.0
 11
394.521912
 21
543.3179629999999
 31
0.0
  0
LINE
  5
1043
330
12D3
100
AcDbEntity
  8
0
100
AcDbLine
 10
383.093912
 20
542.3179629999999
 30
0.0
 11
373.521912
 21
542.3179629999999
 31
0.0
  0
LINE
  5
1044
330
12D3
100
AcDbEntity
  8
0
100
AcDbLine
 10
282.402912
 20
487.317963
 30
0.0
 11
373.521912
 21
487.317963
 31
0.0
  0
LINE
  5
1045
330
12D3
100
AcDbEntity
  8
0
100
AcDbLine
 10
273.521912
 20
492.3179629999999
 30
0.0
 11
281.521912
 21
492.3179629999999
 31
0.0
  0
LINE
  5
1046
330
12D3
100
AcDbEntity
  8
0
100
AcDbLine
 10
281.021912
 20
497.3179629999999
 30
0.0
 11
373.521912
 21
497.3179629999999
 31
0.0
  0
LINE
  5
1047
330
12D3
100
AcDbEntity
  8
0
100
AcDbLine
 10
288.197912
 20
493.4839629999999
 30
0.0
 11
288.520912
 21
487.317963
 31
0.0
  0
LINE
  5
1048
330
12D3
100
AcDbEntity
  8
0
100
AcDbLine
 10
281.521912
 20
492.3179629999999
 30
0.0
 11
282.402912
 21
487.317963
 31
0.0
  0
LINE
  5
1049
330
12D3
100
AcDbEntity
  8
0
100
AcDbLine
 10
256.005912
 20
510.3179629999999
 30
0.0
 11
260.259912
 21
510.3179629999999
 31
0.0
  0
LINE
  5
104A
330
12D3
100
AcDbEntity
  8
0
100
AcDbLine
 10
262.687912
 20
508.999963
 30
0.0
 11
273.521912
 21
492.3179629999999
 31
0.0
  0
LINE
  5
104B
330
12D3
100
AcDbEntity
  8
0
100
AcDbLine
 10
280.634912
 20
504.6799629999999
 30
0.0
 11
281.020912
 21
497.3179629999999
 31
0.0
  0
LINE
  5
104C
330
12D3
100
AcDbEntity
  8
0
100
AcDbLine
 10
373.521912
 20
541.317963
 30
0.0
 11
363.896912
 21
541.317963
 31
0.0
  0
LINE
  5
104D
330
12D3
100
AcDbEntity
  8
0
100
AcDbLine
 10
235.520912
 20
572.3179629999999
 30
0.0
 11
237.145912
 21
541.317963
 31
0.0
  0
LINE
  5
104E
330
12D3
100
AcDbEntity
  8
0
100
AcDbLine
 10
237.521912
 20
572.3179629999999
 30
0.0
 11
225.521912
 21
572.3179629999999
 31
0.0
  0
LINE
  5
104F
330
12D3
100
AcDbEntity
  8
3A
100
AcDbLine
 10
223.215912
 20
528.3179629999999
 30
0.0
 11
223.906912
 21
541.5209629999999
 31
0.0
  0
LINE
  5
1051
330
12D3
100
AcDbEntity
  8
0
100
AcDbLine
 10
278.145912
 20
541.317963
 30
0.0
 11
237.145912
 21
541.317963
 31
0.0
  0
LINE
  5
1052
330
12D3
100
AcDbEntity
  8
3A
100
AcDbLine
 10
293.896912
 20
541.317963
 30
0.0
 11
278.145912
 21
541.317963
 31
0.0
  0
LINE
  5
1053
330
12D3
100
AcDbEntity
  8
0
100
AcDbLine
 10
313.145912
 20
541.317963
 30
0.0
 11
293.896912
 21
541.317963
 31
0.0
  0
LINE
  5
1054
330
12D3
100
AcDbEntity
  8
3A
100
AcDbLine
 10
328.896912
 20
541.317963
 30
0.0
 11
313.145912
 21
541.317963
 31
0.0
  0
LINE
  5
1055
330
12D3
100
AcDbEntity
  8
0
100
AcDbLine
 10
348.145912
 20
541.317963
 30
0.0
 11
328.896912
 21
541.317963
 31
0.0
  0
LINE
  5
1056
330
12D3
100
AcDbEntity
  8
3A
100
AcDbLine
 10
363.896912
 20
541.317963
 30
0.0
 11
348.145912
 21
541.317963
 31
0.0
  0
LINE
  5
1057
330
12D3
100
AcDbEntity
  8
0
100
AcDbLine
 10
259.520912
 20
541.317963
 30
0.0
 11
261.593912
 21
526.5689629999999
 31
0.0
  0
LINE
  5
1058
330
12D3
100
AcDbEntity
  8
0
100
AcDbLine
 10
264.425912
 20
520.8889629999999
 30
0.0
 11
285.282912
 21
500.0319629999999
 31
0.0
  0
ARC
  5
1059
330
12D3
100
AcDbEntity
  8
0
100
AcDbCircle
 10
271.496912
 20
527.9599629999999
 30
0.0
 40
10.0
100
AcDbArc
 50
188.0
 51
225.001
  0
ARC
  5
105A
330
12D3
100
AcDbEntity
  8
0
100
AcDbCircle
 10
278.211912
 20
492.9609629999999
 30
0.0
 40
10.0
100
AcDbArc
 50
3.0
 51
45.0
  0
LINE
  5
105B
330
12D3
100
AcDbEntity
  8
0
100
AcDbLine
 10
251.873912
 20
523.3599629999999
 30
0.0
 11
253.854912
 21
512.122963
 31
0.0
  0
ARC
  5
105C
330
12D3
100
AcDbEntity
  8
0
100
AcDbCircle
 10
256.005912
 20
512.5019629999999
 30
0.0
 40
2.184
100
AcDbArc
 50
190.0
 51
270.0
  0
ARC
  5
105D
330
12D3
100
AcDbEntity
  8
0
100
AcDbCircle
 10
260.259912
 20
507.4229629999999
 30
0.0
 40
2.896
100
AcDbArc
 50
33.0
 51
90.0
  0
LINE
  5
105E
330
12D3
100
AcDbEntity
  8
0
100
AcDbLine
 10
361.021912
 20
504.6799629999999
 30
0.0
 11
373.521912
 21
504.6799629999999
 31
0.0
  0
LINE
  5
105F
330
12D3
100
AcDbEntity
  8
0
100
AcDbLine
 10
361.021912
 20
504.6799629999999
 30
0.0
 11
361.021912
 21
497.3179629999999
 31
0.0
  0
LINE
  5
1060
330
12D3
100
AcDbEntity
  8
0
100
AcDbLine
 10
464.639912
 20
487.317963
 30
0.0
 11
373.521912
 21
487.317963
 31
0.0
  0
LINE
  5
1061
330
12D3
100
AcDbEntity
  8
0
100
AcDbLine
 10
473.521912
 20
492.3179629999999
 30
0.0
 11
465.5219119999999
 21
492.3179629999999
 31
0.0
  0
LINE
  5
1062
330
12D3
100
AcDbEntity
  8
0
100
AcDbLine
 10
466.0219119999999
 20
497.3179629999999
 30
0.0
 11
373.521912
 21
497.3179629999999
 31
0.0
  0
LINE
  5
1063
330
12D3
100
AcDbEntity
  8
0
100
AcDbLine
 10
458.8449119999999
 20
493.4839629999999
 30
0.0
 11
458.5219119999999
 21
487.317963
 31
0.0
  0
LINE
  5
1064
330
12D3
100
AcDbEntity
  8
0
100
AcDbLine
 10
465.520912
 20
492.3179629999999
 30
0.0
 11
464.639912
 21
487.317963
 31
0.0
  0
LINE
  5
1065
330
12D3
100
AcDbEntity
  8
0
100
AcDbLine
 10
491.036912
 20
510.3179629999999
 30
0.0
 11
486.782912
 21
510.3179629999999
 31
0.0
  0
LINE
  5
1066
330
12D3
100
AcDbEntity
  8
0
100
AcDbLine
 10
484.353912
 20
508.999963
 30
0.0
 11
473.520912
 21
492.3179629999999
 31
0.0
  0
LINE
  5
1067
330
12D3
100
AcDbEntity
  8
0
100
AcDbLine
 10
466.406912
 20
504.6799629999999
 30
0.0
 11
466.0219119999999
 21
497.3179629999999
 31
0.0
  0
LINE
  5
1068
330
12D3
100
AcDbEntity
  8
0
100
AcDbLine
 10
373.521912
 20
541.317963
 30
0.0
 11
383.145912
 21
541.317963
 31
0.0
  0
LINE
  5
1069
330
12D3
100
AcDbEntity
  8
0
100
AcDbLine
 10
511.520912
 20
572.3179629999999
 30
0.0
 11
509.8969119999999
 21
541.317963
 31
0.0
  0
LINE
  5
106A
330
12D3
100
AcDbEntity
  8
0
100
AcDbLine
 10
509.521912
 20
572.3179629999999
 30
0.0
 11
521.521912
 21
572.3179629999999
 31
0.0
  0
LINE
  5
106B
330
12D3
100
AcDbEntity
  8
3A
100
AcDbLine
 10
523.8279119999999
 20
528.3179629999999
 30
0.0
 11
523.1359119999999
 21
541.5209629999999
 31
0.0
  0
LINE
  5
106D
330
12D3
100
AcDbEntity
  8
0
100
AcDbLine
 10
468.896912
 20
541.317963
 30
0.0
 11
509.8969119999999
 21
541.317963
 31
0.0
  0
LINE
  5
106E
330
12D3
100
AcDbEntity
  8
0
100
AcDbLine
 10
433.8969119999999
 20
541.317963
 30
0.0
 11
453.145912
 21
541.317963
 31
0.0
  0
LINE
  5
106F
330
12D3
100
AcDbEntity
  8
0
100
AcDbLine
 10
398.896912
 20
541.317963
 30
0.0
 11
418.145912
 21
541.317963
 31
0.0
  0
LINE
  5
1070
330
12D3
100
AcDbEntity
  8
0
100
AcDbLine
 10
487.5219119999999
 20
541.317963
 30
0.0
 11
485.448912
 21
526.5689629999999
 31
0.0
  0
LINE
  5
1071
330
12D3
100
AcDbEntity
  8
0
100
AcDbLine
 10
482.616912
 20
520.8889629999999
 30
0.0
 11
461.759912
 21
500.0319629999999
 31
0.0
  0
ARC
  5
1072
330
12D3
100
AcDbEntity
  8
0
100
AcDbCircle
 10
475.545912
 20
527.9599629999999
 30
0.0
 40
10.0
100
AcDbArc
 50
314.999
 51
352.0
  0
ARC
  5
1073
330
12D3
100
AcDbEntity
  8
0
100
AcDbCircle
 10
468.830912
 20
492.9609629999999
 30
0.0
 40
10.0
100
AcDbArc
 50
135.0
 51
177.0
  0
LINE
  5
1074
330
12D3
100
AcDbEntity
  8
0
100
AcDbLine
 10
495.168912
 20
523.3599629999999
 30
0.0
 11
493.1879119999999
 21
512.122963
 31
0.0
  0
ARC
  5
1075
330
12D3
100
AcDbEntity
  8
0
100
AcDbCircle
 10
491.036912
 20
512.5019629999999
 30
0.0
 40
2.184
100
AcDbArc
 50
270.0
 51
350.0
  0
ARC
  5
1076
330
12D3
100
AcDbEntity
  8
0
100
AcDbCircle
 10
486.782912
 20
507.4229629999999
 30
0.0
 40
2.896
100
AcDbArc
 50
90.0
 51
147.0
  0
LINE
  5
1077
330
12D3
100
AcDbEntity
  8
0
100
AcDbLine
 10
386.021912
 20
504.6799629999999
 30
0.0
 11
373.521912
 21
504.6799629999999
 31
0.0
  0
LINE
  5
1078
330
12D3
100
AcDbEntity
  8
0
100
AcDbLine
 10
386.021912
 20
504.6799629999999
 30
0.0
 11
386.021912
 21
497.3179629999999
 31
0.0
  0
LINE
  5
1079
330
12D3
100
AcDbEntity
  8
3A
100
AcDbLine
 10
383.145912
 20
541.317963
 30
0.0
 11
398.896912
 21
541.317963
 31
0.0
  0
LINE
  5
107A
330
12D3
100
AcDbEntity
  8
3A
100
AcDbLine
 10
418.145912
 20
541.317963
 30
0.0
 11
433.8969119999999
 21
541.317963
 31
0.0
  0
LINE
  5
107B
330
12D3
100
AcDbEntity
  8
3A
100
AcDbLine
 10
453.145912
 20
541.317963
 30
0.0
 11
468.896912
 21
541.317963
 31
0.0
  0
LINE
  5
107C
330
12D3
100
AcDbEntity
  8
0
100
AcDbLine
 10
501.077912
 20
528.3179629999999
 30
0.0
 11
539.1939119999999
 21
528.3179629999999
 31
0.0
  0
LINE
  5
107D
330
12D3
100
AcDbEntity
  8
0
100
AcDbLine
 10
538.945912
 20
533.069963
 30
0.0
 11
539.194912
 21
528.3179629999999
 31
0.0
  0
LINE
  5
107E
330
12D3
100
AcDbEntity
  8
0
100
AcDbLine
 10
528.8129119999999
 20
535.8429629999999
 30
0.0
 11
536.579912
 21
535.435963
 31
0.0
  0
ARC
  5
107F
330
12D3
100
AcDbEntity
  8
0
100
AcDbCircle
 10
529.126912
 20
541.834963
 30
0.0
 40
6.0
100
AcDbArc
 50
183.0
 51
267.0
  0
ARC
  5
1080
330
12D3
100
AcDbEntity
  8
0
100
AcDbCircle
 10
501.077912
 20
522.3179629999999
 30
0.0
 40
6.0
100
AcDbArc
 50
90.0
 51
170.0
  0
ARC
  5
1081
330
12D3
100
AcDbEntity
  8
0
100
AcDbCircle
 10
536.448912
 20
532.9389629999999
 30
0.0
 40
2.5
100
AcDbArc
 50
3.0
 51
87.0
  0
LINE
  5
1082
330
12D3
100
AcDbEntity
  8
0
100
AcDbLine
 10
245.964912
 20
528.3179629999999
 30
0.0
 11
207.848912
 21
528.3179629999999
 31
0.0
  0
LINE
  5
1083
330
12D3
100
AcDbEntity
  8
0
100
AcDbLine
 10
208.096912
 20
533.069963
 30
0.0
 11
207.847912
 21
528.3179629999999
 31
0.0
  0
LINE
  5
1084
330
12D3
100
AcDbEntity
  8
0
100
AcDbLine
 10
218.228912
 20
535.8429629999999
 30
0.0
 11
210.462912
 21
535.435963
 31
0.0
  0
ARC
  5
1085
330
12D3
100
AcDbEntity
  8
0
100
AcDbCircle
 10
217.915912
 20
541.834963
 30
0.0
 40
6.0
100
AcDbArc
 50
273.0
 51
357.0
  0
ARC
  5
1086
330
12D3
100
AcDbEntity
  8
0
100
AcDbCircle
 10
245.964912
 20
522.3179629999999
 30
0.0
 40
6.0
100
AcDbArc
 50
10.0
 51
90.0
  0
ARC
  5
1087
330
12D3
100
AcDbEntity
  8
0
100
AcDbCircle
 10
210.593912
 20
532.9389629999999
 30
0.0
 40
2.5
100
AcDbArc
 50
93.0
 51
177.0
  0
LINE
  5
1088
330
12D3
100
AcDbEntity
  8
0
100
AcDbLine
 10
523.1359119999999
 20
541.5209629999999
 30
0.0
 11
521.521912
 21
572.3179629999999
 31
0.0
  0
LINE
  5
1089
330
12D3
100
AcDbEntity
  8
0
100
AcDbLine
 10
223.906912
 20
541.5209629999999
 30
0.0
 11
225.520912
 21
572.3179629999999
 31
0.0
  0
POLYLINE
  5
108A
330
12D3
100
AcDbEntity
  8
SCHRAFFUR_RAND
100
AcDb2dPolyline
 66
     1
 10
0.0
 20
0.0
 30
0.0
 70
     1
  0
VERTEX
  5
108B
330
108A
100
AcDbEntity
  8
SCHRAFFUR_RAND
100
AcDbVertex
100
AcDb2dVertex
 10
260.521912
 20
572.3179629999999
 30
0.0
  0
VERTEX
  5
108C
330
108A
100
AcDbEntity
  8
SCHRAFFUR_RAND
100
AcDbVertex
100
AcDb2dVertex
 10
237.521912
 20
572.3179629999999
 30
0.0
  0
VERTEX
  5
108D
330
108A
100
AcDbEntity
  8
SCHRAFFUR_RAND
100
AcDbVertex
100
AcDb2dVertex
 10
238.150912
 20
560.314963
 30
0.0
  0
VERTEX
  5
108E
330
108A
100
AcDbEntity
  8
SCHRAFFUR_RAND
100
AcDbVertex
100
AcDb2dVertex
 10
239.270912
 20
560.1489629999999
 30
0.0
  0
VERTEX
  5
108F
330
108A
100
AcDbEntity
  8
SCHRAFFUR_RAND
100
AcDbVertex
100
AcDb2dVertex
 10
240.030912
 20
559.426963
 30
0.0
  0
VERTEX
  5
1090
330
108A
100
AcDbEntity
  8
SCHRAFFUR_RAND
100
AcDbVertex
100
AcDb2dVertex
 10
240.252912
 20
558.422963
 30
0.0
  0
VERTEX
  5
1091
330
108A
100
AcDbEntity
  8
SCHRAFFUR_RAND
100
AcDbVertex
100
AcDb2dVertex
 10
241.096912
 20
542.3179629999999
 30
0.0
  0
VERTEX
  5
1092
330
108A
100
AcDbEntity
  8
SCHRAFFUR_RAND
100
AcDbVertex
100
AcDb2dVertex
 10
258.949912
 20
542.3179629999999
 30
0.0
  0
VERTEX
  5
1093
330
108A
100
AcDbEntity
  8
SCHRAFFUR_RAND
100
AcDbVertex
100
AcDb2dVertex
 10
260.521912
 20
572.3179629999999
 30
0.0
  0
SEQEND
  5
1094
330
108A
100
AcDbEntity
  8
SCHRAFFUR_RAND
  0
INSERT
  5
109D
330
12D3
100
AcDbEntity
  8
8
100
AcDbBlockReference
  2
*X0
 10
119.370912
 20
61.737963
 30
0.0
1001
ACAD
1000
HATCH
1002
{
1070
    19
1000
ANSI31,_I
1040
6.349999999999999
1040
0.7850000000000001
1002
}
  0
POLYLINE
  5
109E
330
12D3
100
AcDbEntity
  8
SCHRAFFUR_RAND
100
AcDb2dPolyline
 66
     1
 10
0.0
 20
0.0
 30
0.0
 70
     1
  0
VERTEX
  5
109F
330
109E
100
AcDbEntity
  8
SCHRAFFUR_RAND
100
AcDbVertex
100
AcDb2dVertex
 10
295.521912
 20
572.3179629999999
 30
0.0
  0
VERTEX
  5
10A0
330
109E
100
AcDbEntity
  8
SCHRAFFUR_RAND
100
AcDbVertex
100
AcDb2dVertex
 10
276.521912
 20
572.3179629999999
 30
0.0
  0
VERTEX
  5
10A1
330
109E
100
AcDbEntity
  8
SCHRAFFUR_RAND
100
AcDbVertex
100
AcDb2dVertex
 10
278.093912
 20
542.3179629999999
 30
0.0
  0
VERTEX
  5
10A2
330
109E
100
AcDbEntity
  8
SCHRAFFUR_RAND
100
AcDbVertex
100
AcDb2dVertex
 10
278.893912
 20
527.055963
 30
0.0
  0
VERTEX
  5
10A3
330
109E
100
AcDbEntity
  8
SCHRAFFUR_RAND
100
AcDbVertex
100
AcDb2dVertex
 10
279.260912
 20
525.184963
 30
0.0
  0
VERTEX
  5
10A4
330
109E
100
AcDbEntity
  8
SCHRAFFUR_RAND
100
AcDbVertex
100
AcDb2dVertex
 10
280.380912
 20
523.622963
 30
0.0
  0
VERTEX
  5
10A5
330
109E
100
AcDbEntity
  8
SCHRAFFUR_RAND
100
AcDbVertex
100
AcDb2dVertex
 10
281.999912
 20
522.586963
 30
0.0
  0
VERTEX
  5
10A6
330
109E
100
AcDbEntity
  8
SCHRAFFUR_RAND
100
AcDbVertex
100
AcDb2dVertex
 10
283.886912
 20
522.3179629999999
 30
0.0
  0
VERTEX
  5
10A7
330
109E
100
AcDbEntity
  8
SCHRAFFUR_RAND
100
AcDbVertex
100
AcDb2dVertex
 10
288.155912
 20
522.3179629999999
 30
0.0
  0
VERTEX
  5
10A8
330
109E
100
AcDbEntity
  8
SCHRAFFUR_RAND
100
AcDbVertex
100
AcDb2dVertex
 10
290.0439120000001
 20
522.586963
 30
0.0
  0
VERTEX
  5
10A9
330
109E
100
AcDbEntity
  8
SCHRAFFUR_RAND
100
AcDbVertex
100
AcDb2dVertex
 10
291.662912
 20
523.622963
 30
0.0
  0
VERTEX
  5
10AA
330
109E
100
AcDbEntity
  8
SCHRAFFUR_RAND
100
AcDbVertex
100
AcDb2dVertex
 10
292.781912
 20
525.184963
 30
0.0
  0
VERTEX
  5
10AB
330
109E
100
AcDbEntity
  8
SCHRAFFUR_RAND
100
AcDbVertex
100
AcDb2dVertex
 10
293.149912
 20
527.055963
 30
0.0
  0
VERTEX
  5
10AC
330
109E
100
AcDbEntity
  8
SCHRAFFUR_RAND
100
AcDbVertex
100
AcDb2dVertex
 10
294.000912
 20
543.3179629999999
 30
0.0
  0
VERTEX
  5
10AD
330
109E
100
AcDbEntity
  8
SCHRAFFUR_RAND
100
AcDbVertex
100
AcDb2dVertex
 10
295.521912
 20
572.3179629999999
 30
0.0
  0
SEQEND
  5
10AE
330
109E
100
AcDbEntity
  8
SCHRAFFUR_RAND
  0
INSERT
  5
10B7
330
12D3
100
AcDbEntity
  8
8
100
AcDbBlockReference
  2
*X1
 10
119.370912
 20
61.737963
 30
0.0
1001
ACAD
1000
HATCH
1002
{
1070
    19
1000
ANSI31,_I
1040
6.349999999999999
1040
0.7850000000000001
1002
}
  0
POLYLINE
  5
10B8
330
12D3
100
AcDbEntity
  8
SCHRAFFUR_RAND
100
AcDb2dPolyline
 66
     1
 10
0.0
 20
0.0
 30
0.0
 70
     1
  0
VERTEX
  5
10B9
330
10B8
100
AcDbEntity
  8
SCHRAFFUR_RAND
100
AcDbVertex
100
AcDb2dVertex
 10
330.521912
 20
572.3179629999999
 30
0.0
  0
VERTEX
  5
10BA
330
10B8
100
AcDbEntity
  8
SCHRAFFUR_RAND
100
AcDbVertex
100
AcDb2dVertex
 10
311.521912
 20
572.3179629999999
 30
0.0
  0
VERTEX
  5
10BB
330
10B8
100
AcDbEntity
  8
SCHRAFFUR_RAND
100
AcDbVertex
100
AcDb2dVertex
 10
313.041912
 20
543.3179629999999
 30
0.0
  0
VERTEX
  5
10BC
330
10B8
100
AcDbEntity
  8
SCHRAFFUR_RAND
100
AcDbVertex
100
AcDb2dVertex
 10
313.893912
 20
527.055963
 30
0.0
  0
VERTEX
  5
10BD
330
10B8
100
AcDbEntity
  8
SCHRAFFUR_RAND
100
AcDbVertex
100
AcDb2dVertex
 10
314.260912
 20
525.184963
 30
0.0
  0
VERTEX
  5
10BE
330
10B8
100
AcDbEntity
  8
SCHRAFFUR_RAND
100
AcDbVertex
100
AcDb2dVertex
 10
315.380912
 20
523.622963
 30
0.0
  0
VERTEX
  5
10BF
330
10B8
100
AcDbEntity
  8
SCHRAFFUR_RAND
100
AcDbVertex
100
AcDb2dVertex
 10
316.999912
 20
522.586963
 30
0.0
  0
VERTEX
  5
10C0
330
10B8
100
AcDbEntity
  8
SCHRAFFUR_RAND
100
AcDbVertex
100
AcDb2dVertex
 10
318.886912
 20
522.3179629999999
 30
0.0
  0
VERTEX
  5
10C1
330
10B8
100
AcDbEntity
  8
SCHRAFFUR_RAND
100
AcDbVertex
100
AcDb2dVertex
 10
323.155912
 20
522.3179629999999
 30
0.0
  0
VERTEX
  5
10C2
330
10B8
100
AcDbEntity
  8
SCHRAFFUR_RAND
100
AcDbVertex
100
AcDb2dVertex
 10
325.043912
 20
522.586963
 30
0.0
  0
VERTEX
  5
10C3
330
10B8
100
AcDbEntity
  8
SCHRAFFUR_RAND
100
AcDbVertex
100
AcDb2dVertex
 10
326.662912
 20
523.622963
 30
0.0
  0
VERTEX
  5
10C4
330
10B8
100
AcDbEntity
  8
SCHRAFFUR_RAND
100
AcDbVertex
100
AcDb2dVertex
 10
327.781912
 20
525.184963
 30
0.0
  0
VERTEX
  5
10C5
330
10B8
100
AcDbEntity
  8
SCHRAFFUR_RAND
100
AcDbVertex
100
AcDb2dVertex
 10
328.149912
 20
527.0569629999999
 30
0.0
  0
VERTEX
  5
10C6
330
10B8
100
AcDbEntity
  8
SCHRAFFUR_RAND
100
AcDbVertex
100
AcDb2dVertex
 10
329.0009120000001
 20
543.3179629999999
 30
0.0
  0
VERTEX
  5
10C7
330
10B8
100
AcDbEntity
  8
SCHRAFFUR_RAND
100
AcDbVertex
100
AcDb2dVertex
 10
330.521912
 20
572.3179629999999
 30
0.0
  0
SEQEND
  5
10C8
330
10B8
100
AcDbEntity
  8
SCHRAFFUR_RAND
  0
INSERT
  5
10D1
330
12D3
100
AcDbEntity
  8
8
100
AcDbBlockReference
  2
*X2
 10
119.370912
 20
61.737963
 30
0.0
1001
ACAD
1000
HATCH
1002
{
1070
    19
1000
ANSI31,_I
1040
6.349999999999999
1040
0.7850000000000001
1002
}
  0
POLYLINE
  5
10D2
330
12D3
100
AcDbEntity
  8
SCHRAFFUR_RAND
100
AcDb2dPolyline
 66
     1
 10
0.0
 20
0.0
 30
0.0
 70
     1
  0
VERTEX
  5
10D3
330
10D2
100
AcDbEntity
  8
SCHRAFFUR_RAND
100
AcDbVertex
100
AcDb2dVertex
 10
365.521912
 20
572.3179629999999
 30
0.0
  0
VERTEX
  5
10D4
330
10D2
100
AcDbEntity
  8
SCHRAFFUR_RAND
100
AcDbVertex
100
AcDb2dVertex
 10
346.521912
 20
572.3179629999999
 30
0.0
  0
VERTEX
  5
10D5
330
10D2
100
AcDbEntity
  8
SCHRAFFUR_RAND
100
AcDbVertex
100
AcDb2dVertex
 10
348.041912
 20
543.3179629999999
 30
0.0
  0
VERTEX
  5
10D6
330
10D2
100
AcDbEntity
  8
SCHRAFFUR_RAND
100
AcDbVertex
100
AcDb2dVertex
 10
348.893912
 20
527.055963
 30
0.0
  0
VERTEX
  5
10D7
330
10D2
100
AcDbEntity
  8
SCHRAFFUR_RAND
100
AcDbVertex
100
AcDb2dVertex
 10
349.260912
 20
525.184963
 30
0.0
  0
VERTEX
  5
10D8
330
10D2
100
AcDbEntity
  8
SCHRAFFUR_RAND
100
AcDbVertex
100
AcDb2dVertex
 10
350.380912
 20
523.622963
 30
0.0
  0
VERTEX
  5
10D9
330
10D2
100
AcDbEntity
  8
SCHRAFFUR_RAND
100
AcDbVertex
100
AcDb2dVertex
 10
351.999912
 20
522.586963
 30
0.0
  0
VERTEX
  5
10DA
330
10D2
100
AcDbEntity
  8
SCHRAFFUR_RAND
100
AcDbVertex
100
AcDb2dVertex
 10
353.886912
 20
522.3179629999999
 30
0.0
  0
VERTEX
  5
10DB
330
10D2
100
AcDbEntity
  8
SCHRAFFUR_RAND
100
AcDbVertex
100
AcDb2dVertex
 10
358.155912
 20
522.3179629999999
 30
0.0
  0
VERTEX
  5
10DC
330
10D2
100
AcDbEntity
  8
SCHRAFFUR_RAND
100
AcDbVertex
100
AcDb2dVertex
 10
360.043912
 20
522.586963
 30
0.0
  0
VERTEX
  5
10DD
330
10D2
100
AcDbEntity
  8
SCHRAFFUR_RAND
100
AcDbVertex
100
AcDb2dVertex
 10
361.662912
 20
523.622963
 30
0.0
  0
VERTEX
  5
10DE
330
10D2
100
AcDbEntity
  8
SCHRAFFUR_RAND
100
AcDbVertex
100
AcDb2dVertex
 10
362.781912
 20
525.184963
 30
0.0
  0
VERTEX
  5
10DF
330
10D2
100
AcDbEntity
  8
SCHRAFFUR_RAND
100
AcDbVertex
100
AcDb2dVertex
 10
363.149912
 20
527.0569629999999
 30
0.0
  0
VERTEX
  5
10E0
330
10D2
100
AcDbEntity
  8
SCHRAFFUR_RAND
100
AcDbVertex
100
AcDb2dVertex
 10
363.948912
 20
542.3179629999999
 30
0.0
  0
VERTEX
  5
10E1
330
10D2
100
AcDbEntity
  8
SCHRAFFUR_RAND
100
AcDbVertex
100
AcDb2dVertex
 10
365.521912
 20
572.3179629999999
 30
0.0
  0
SEQEND
  5
10E2
330
10D2
100
AcDbEntity
  8
SCHRAFFUR_RAND
  0
INSERT
  5
10EB
330
12D3
100
AcDbEntity
  8
8
100
AcDbBlockReference
  2
*X3
 10
119.370912
 20
61.737963
 30
0.0
1001
ACAD
1000
HATCH
1002
{
1070
    19
1000
ANSI31,_I
1040
6.349999999999999
1040
0.7850000000000001
1002
}
  0
POLYLINE
  5
10EC
330
12D3
100
AcDbEntity
  8
SCHRAFFUR_RAND
100
AcDb2dPolyline
 66
     1
 10
0.0
 20
0.0
 30
0.0
 70
     1
  0
VERTEX
  5
10ED
330
10EC
100
AcDbEntity
  8
SCHRAFFUR_RAND
100
AcDbVertex
100
AcDb2dVertex
 10
381.521912
 20
572.3179629999999
 30
0.0
  0
VERTEX
  5
10EE
330
10EC
100
AcDbEntity
  8
SCHRAFFUR_RAND
100
AcDbVertex
100
AcDb2dVertex
 10
383.093912
 20
542.3179629999999
 30
0.0
  0
VERTEX
  5
10EF
330
10EC
100
AcDbEntity
  8
SCHRAFFUR_RAND
100
AcDbVertex
100
AcDb2dVertex
 10
383.893912
 20
527.055963
 30
0.0
  0
VERTEX
  5
10F0
330
10EC
100
AcDbEntity
  8
SCHRAFFUR_RAND
100
AcDbVertex
100
AcDb2dVertex
 10
384.260912
 20
525.184963
 30
0.0
  0
VERTEX
  5
10F1
330
10EC
100
AcDbEntity
  8
SCHRAFFUR_RAND
100
AcDbVertex
100
AcDb2dVertex
 10
385.380912
 20
523.622963
 30
0.0
  0
VERTEX
  5
10F2
330
10EC
100
AcDbEntity
  8
SCHRAFFUR_RAND
100
AcDbVertex
100
AcDb2dVertex
 10
386.999912
 20
522.586963
 30
0.0
  0
VERTEX
  5
10F3
330
10EC
100
AcDbEntity
  8
SCHRAFFUR_RAND
100
AcDbVertex
100
AcDb2dVertex
 10
388.886912
 20
522.3179629999999
 30
0.0
  0
VERTEX
  5
10F4
330
10EC
100
AcDbEntity
  8
SCHRAFFUR_RAND
100
AcDbVertex
100
AcDb2dVertex
 10
393.155912
 20
522.3179629999999
 30
0.0
  0
VERTEX
  5
10F5
330
10EC
100
AcDbEntity
  8
SCHRAFFUR_RAND
100
AcDbVertex
100
AcDb2dVertex
 10
395.043912
 20
522.586963
 30
0.0
  0
VERTEX
  5
10F6
330
10EC
100
AcDbEntity
  8
SCHRAFFUR_RAND
100
AcDbVertex
100
AcDb2dVertex
 10
396.662912
 20
523.622963
 30
0.0
  0
VERTEX
  5
10F7
330
10EC
100
AcDbEntity
  8
SCHRAFFUR_RAND
100
AcDbVertex
100
AcDb2dVertex
 10
397.781912
 20
525.184963
 30
0.0
  0
VERTEX
  5
10F8
330
10EC
100
AcDbEntity
  8
SCHRAFFUR_RAND
100
AcDbVertex
100
AcDb2dVertex
 10
398.149912
 20
527.0569629999999
 30
0.0
  0
VERTEX
  5
10F9
330
10EC
100
AcDbEntity
  8
SCHRAFFUR_RAND
100
AcDbVertex
100
AcDb2dVertex
 10
399.001912
 20
543.3179629999999
 30
0.0
  0
VERTEX
  5
10FA
330
10EC
100
AcDbEntity
  8
SCHRAFFUR_RAND
100
AcDbVertex
100
AcDb2dVertex
 10
400.5219119999999
 20
572.3179629999999
 30
0.0
  0
VERTEX
  5
10FB
330
10EC
100
AcDbEntity
  8
SCHRAFFUR_RAND
100
AcDbVertex
100
AcDb2dVertex
 10
381.521912
 20
572.3179629999999
 30
0.0
  0
SEQEND
  5
10FC
330
10EC
100
AcDbEntity
  8
SCHRAFFUR_RAND
  0
INSERT
  5
1105
330
12D3
100
AcDbEntity
  8
8
100
AcDbBlockReference
  2
*X4
 10
119.370912
 20
61.737963
 30
0.0
1001
ACAD
1000
HATCH
1002
{
1070
    19
1000
ANSI31,_I
1040
6.349999999999999
1040
0.7850000000000001
1002
}
  0
POLYLINE
  5
1106
330
12D3
100
AcDbEntity
  8
SCHRAFFUR_RAND
100
AcDb2dPolyline
 66
     1
 10
0.0
 20
0.0
 30
0.0
 70
     1
  0
VERTEX
  5
1107
330
1106
100
AcDbEntity
  8
SCHRAFFUR_RAND
100
AcDbVertex
100
AcDb2dVertex
 10
418.041912
 20
543.3179629999999
 30
0.0
  0
VERTEX
  5
1108
330
1106
100
AcDbEntity
  8
SCHRAFFUR_RAND
100
AcDbVertex
100
AcDb2dVertex
 10
418.8939119999999
 20
527.055963
 30
0.0
  0
VERTEX
  5
1109
330
1106
100
AcDbEntity
  8
SCHRAFFUR_RAND
100
AcDbVertex
100
AcDb2dVertex
 10
419.260912
 20
525.184963
 30
0.0
  0
VERTEX
  5
110A
330
1106
100
AcDbEntity
  8
SCHRAFFUR_RAND
100
AcDbVertex
100
AcDb2dVertex
 10
420.380912
 20
523.622963
 30
0.0
  0
VERTEX
  5
110B
330
1106
100
AcDbEntity
  8
SCHRAFFUR_RAND
100
AcDbVertex
100
AcDb2dVertex
 10
421.9999119999999
 20
522.586963
 30
0.0
  0
VERTEX
  5
110C
330
1106
100
AcDbEntity
  8
SCHRAFFUR_RAND
100
AcDbVertex
100
AcDb2dVertex
 10
423.886912
 20
522.3179629999999
 30
0.0
  0
VERTEX
  5
110D
330
1106
100
AcDbEntity
  8
SCHRAFFUR_RAND
100
AcDbVertex
100
AcDb2dVertex
 10
428.1559119999999
 20
522.3179629999999
 30
0.0
  0
VERTEX
  5
110E
330
1106
100
AcDbEntity
  8
SCHRAFFUR_RAND
100
AcDbVertex
100
AcDb2dVertex
 10
430.043912
 20
522.586963
 30
0.0
  0
VERTEX
  5
110F
330
1106
100
AcDbEntity
  8
SCHRAFFUR_RAND
100
AcDbVertex
100
AcDb2dVertex
 10
431.6629119999999
 20
523.622963
 30
0.0
  0
VERTEX
  5
1110
330
1106
100
AcDbEntity
  8
SCHRAFFUR_RAND
100
AcDbVertex
100
AcDb2dVertex
 10
432.781912
 20
525.184963
 30
0.0
  0
VERTEX
  5
1111
330
1106
100
AcDbEntity
  8
SCHRAFFUR_RAND
100
AcDbVertex
100
AcDb2dVertex
 10
433.149912
 20
527.0569629999999
 30
0.0
  0
VERTEX
  5
1112
330
1106
100
AcDbEntity
  8
SCHRAFFUR_RAND
100
AcDbVertex
100
AcDb2dVertex
 10
434.001912
 20
543.3179629999999
 30
0.0
  0
VERTEX
  5
1113
330
1106
100
AcDbEntity
  8
SCHRAFFUR_RAND
100
AcDbVertex
100
AcDb2dVertex
 10
435.521912
 20
572.3179629999999
 30
0.0
  0
VERTEX
  5
1114
330
1106
100
AcDbEntity
  8
SCHRAFFUR_RAND
100
AcDbVertex
100
AcDb2dVertex
 10
416.5219119999999
 20
572.3179629999999
 30
0.0
  0
VERTEX
  5
1115
330
1106
100
AcDbEntity
  8
SCHRAFFUR_RAND
100
AcDbVertex
100
AcDb2dVertex
 10
418.041912
 20
543.3179629999999
 30
0.0
  0
SEQEND
  5
1116
330
1106
100
AcDbEntity
  8
SCHRAFFUR_RAND
  0
INSERT
  5
1120
330
12D3
100
AcDbEntity
  8
8
100
AcDbBlockReference
  2
*X5
 10
119.370912
 20
61.737963
 30
0.0
1001
ACAD
1000
HATCH
1002
{
1070
    19
1000
ANSI31,_I
1040
6.349999999999999
1040
0.7850000000000001
1002
}
  0
POLYLINE
  5
1121
330
12D3
100
AcDbEntity
  8
SCHRAFFUR_RAND
100
AcDb2dPolyline
 66
     1
 10
0.0
 20
0.0
 30
0.0
 70
     1
  0
VERTEX
  5
1122
330
1121
100
AcDbEntity
  8
SCHRAFFUR_RAND
100
AcDbVertex
100
AcDb2dVertex
 10
453.041912
 20
543.3179629999999
 30
0.0
  0
VERTEX
  5
1123
330
1121
100
AcDbEntity
  8
SCHRAFFUR_RAND
100
AcDbVertex
100
AcDb2dVertex
 10
453.893912
 20
527.055963
 30
0.0
  0
VERTEX
  5
1124
330
1121
100
AcDbEntity
  8
SCHRAFFUR_RAND
100
AcDbVertex
100
AcDb2dVertex
 10
454.260912
 20
525.184963
 30
0.0
  0
VERTEX
  5
1125
330
1121
100
AcDbEntity
  8
SCHRAFFUR_RAND
100
AcDbVertex
100
AcDb2dVertex
 10
455.380912
 20
523.622963
 30
0.0
  0
VERTEX
  5
1126
330
1121
100
AcDbEntity
  8
SCHRAFFUR_RAND
100
AcDbVertex
100
AcDb2dVertex
 10
456.999912
 20
522.586963
 30
0.0
  0
VERTEX
  5
1127
330
1121
100
AcDbEntity
  8
SCHRAFFUR_RAND
100
AcDbVertex
100
AcDb2dVertex
 10
458.886912
 20
522.3179629999999
 30
0.0
  0
VERTEX
  5
1128
330
1121
100
AcDbEntity
  8
SCHRAFFUR_RAND
100
AcDbVertex
100
AcDb2dVertex
 10
463.155912
 20
522.3179629999999
 30
0.0
  0
VERTEX
  5
1129
330
1121
100
AcDbEntity
  8
SCHRAFFUR_RAND
100
AcDbVertex
100
AcDb2dVertex
 10
465.043912
 20
522.586963
 30
0.0
  0
VERTEX
  5
112A
330
1121
100
AcDbEntity
  8
SCHRAFFUR_RAND
100
AcDbVertex
100
AcDb2dVertex
 10
466.662912
 20
523.622963
 30
0.0
  0
VERTEX
  5
112B
330
1121
100
AcDbEntity
  8
SCHRAFFUR_RAND
100
AcDbVertex
100
AcDb2dVertex
 10
467.781912
 20
525.184963
 30
0.0
  0
VERTEX
  5
112C
330
1121
100
AcDbEntity
  8
SCHRAFFUR_RAND
100
AcDbVertex
100
AcDb2dVertex
 10
468.149912
 20
527.0569629999999
 30
0.0
  0
VERTEX
  5
112D
330
1121
100
AcDbEntity
  8
SCHRAFFUR_RAND
100
AcDbVertex
100
AcDb2dVertex
 10
468.9499119999999
 20
542.3179629999999
 30
0.0
  0
VERTEX
  5
112E
330
1121
100
AcDbEntity
  8
SCHRAFFUR_RAND
100
AcDbVertex
100
AcDb2dVertex
 10
470.5219119999999
 20
572.3179629999999
 30
0.0
  0
VERTEX
  5
112F
330
1121
100
AcDbEntity
  8
SCHRAFFUR_RAND
100
AcDbVertex
100
AcDb2dVertex
 10
451.521912
 20
572.3179629999999
 30
0.0
  0
VERTEX
  5
1130
330
1121
100
AcDbEntity
  8
SCHRAFFUR_RAND
100
AcDbVertex
100
AcDb2dVertex
 10
453.041912
 20
543.3179629999999
 30
0.0
  0
SEQEND
  5
1131
330
1121
100
AcDbEntity
  8
SCHRAFFUR_RAND
  0
INSERT
  5
113B
330
12D3
100
AcDbEntity
  8
8
100
AcDbBlockReference
  2
*X6
 10
119.370912
 20
61.737963
 30
0.0
1001
ACAD
1000
HATCH
1002
{
1070
    19
1000
ANSI31,_I
1040
6.349999999999999
1040
0.7850000000000001
1002
}
  0
DIMENSION
  5
1145
330
12D3
100
AcDbEntity
  8
5
100
AcDbDimension
  2
*D12
 10
521.521912
 20
620.334667
 30
0.0
 11
373.521912
 21
632.0863894409447
 31
0.0
 70
    32
  1
{\Fgeniso.shx;\U+25A1}296
 71
     5
 42
296.0
  3
GEN-ISO
100
AcDbAlignedDimension
 13
225.521912
 23
572.3179629999999
 33
0.0
 14
521.521912
 24
572.3179629999999
 34
0.0
100
AcDbRotatedDimension
1001
GENIUS_GENDTOL_13
1000

1000
h7
1000

1040
0.0
1000
{\Fgeniso.shx;\U+25A1}296
1001
ACAD
1000
DSTYLE
1002
{
1070
    41
1040
5.0
1002
}
  0
POLYLINE
  5
1146
330
12D3
100
AcDbEntity
  8
SCHRAFFUR_RAND
100
AcDb2dPolyline
 66
     1
 10
0.0
 20
0.0
 30
0.0
 70
     1
  0
VERTEX
  5
1147
330
1146
100
AcDbEntity
  8
SCHRAFFUR_RAND
100
AcDbVertex
100
AcDb2dVertex
 10
509.521912
 20
572.3179629999999
 30
0.0
  0
VERTEX
  5
1148
330
1146
100
AcDbEntity
  8
SCHRAFFUR_RAND
100
AcDbVertex
100
AcDb2dVertex
 10
486.5219119999999
 20
572.3179629999999
 30
0.0
  0
VERTEX
  5
1149
330
1146
100
AcDbEntity
  8
SCHRAFFUR_RAND
100
AcDbVertex
100
AcDb2dVertex
 10
488.0939119999999
 20
542.3179629999999
 30
0.0
  0
VERTEX
  5
114A
330
1146
100
AcDbEntity
  8
SCHRAFFUR_RAND
100
AcDbVertex
100
AcDb2dVertex
 10
505.946912
 20
542.3179629999999
 30
0.0
  0
VERTEX
  5
114B
330
1146
100
AcDbEntity
  8
SCHRAFFUR_RAND
100
AcDbVertex
100
AcDb2dVertex
 10
506.790912
 20
558.422963
 30
0.0
  0
VERTEX
  5
114C
330
1146
100
AcDbEntity
  8
SCHRAFFUR_RAND
100
AcDbVertex
100
AcDb2dVertex
 10
506.8699119999999
 20
558.922963
 30
0.0
  0
VERTEX
  5
114D
330
1146
100
AcDbEntity
  8
SCHRAFFUR_RAND
100
AcDbVertex
100
AcDb2dVertex
 10
507.081912
 20
559.382963
 30
0.0
  0
VERTEX
  5
114E
330
1146
100
AcDbEntity
  8
SCHRAFFUR_RAND
100
AcDbVertex
100
AcDb2dVertex
 10
507.403912
 20
559.7759629999999
 30
0.0
  0
VERTEX
  5
114F
330
1146
100
AcDbEntity
  8
SCHRAFFUR_RAND
100
AcDbVertex
100
AcDb2dVertex
 10
507.8129119999999
 20
560.076963
 30
0.0
  0
VERTEX
  5
1150
330
1146
100
AcDbEntity
  8
SCHRAFFUR_RAND
100
AcDbVertex
100
AcDb2dVertex
 10
508.283912
 20
560.264963
 30
0.0
  0
VERTEX
  5
1151
330
1146
100
AcDbEntity
  8
SCHRAFFUR_RAND
100
AcDbVertex
100
AcDb2dVertex
 10
508.787912
 20
560.3179629999999
 30
0.0
  0
VERTEX
  5
1152
330
1146
100
AcDbEntity
  8
SCHRAFFUR_RAND
100
AcDbVertex
100
AcDb2dVertex
 10
508.892912
 20
560.315963
 30
0.0
  0
VERTEX
  5
1153
330
1146
100
AcDbEntity
  8
SCHRAFFUR_RAND
100
AcDbVertex
100
AcDb2dVertex
 10
509.521912
 20
572.3179629999999
 30
0.0
  0
SEQEND
  5
1154
330
1146
100
AcDbEntity
  8
SCHRAFFUR_RAND
  0
INSERT
  5
115C
330
12D3
100
AcDbEntity
  8
8
100
AcDbBlockReference
  2
*X7
 10
119.370912
 20
61.737963
 30
0.0
1001
ACAD
1000
HATCH
1002
{
1070
    19
1000
ANSI31,_I
1040
6.349999999999999
1040
0.7850000000000001
1002
}
  0
POLYLINE
  5
115D
330
12D3
100
AcDbEntity
  8
SCHRAFFUR_RAND
100
AcDb2dPolyline
 66
     1
 10
0.0
 20
0.0
 30
0.0
 70
     1
  0
VERTEX
  5
115E
330
115D
100
AcDbEntity
  8
SCHRAFFUR_RAND
100
AcDbVertex
100
AcDb2dVertex
 10
235.521912
 20
572.3179629999999
 30
0.0
  0
VERTEX
  5
115F
330
115D
100
AcDbEntity
  8
SCHRAFFUR_RAND
100
AcDbVertex
100
AcDb2dVertex
 10
225.521912
 20
572.3179629999999
 30
0.0
  0
VERTEX
  5
1160
330
115D
100
AcDbEntity
  8
SCHRAFFUR_RAND
100
AcDbVertex
100
AcDb2dVertex
 10
223.907912
 20
541.5209629999999
 30
0.0
  0
VERTEX
  5
1161
330
115D
100
AcDbEntity
  8
SCHRAFFUR_RAND
100
AcDbVertex
100
AcDb2dVertex
 10
223.687912
 20
540.069963
 30
0.0
  0
VERTEX
  5
1162
330
115D
100
AcDbEntity
  8
SCHRAFFUR_RAND
100
AcDbVertex
100
AcDb2dVertex
 10
223.089912
 20
538.7259629999999
 30
0.0
  0
VERTEX
  5
1163
330
115D
100
AcDbEntity
  8
SCHRAFFUR_RAND
100
AcDbVertex
100
AcDb2dVertex
 10
222.183912
 20
537.565963
 30
0.0
  0
VERTEX
  5
1164
330
115D
100
AcDbEntity
  8
SCHRAFFUR_RAND
100
AcDbVertex
100
AcDb2dVertex
 10
221.024912
 20
536.6599629999999
 30
0.0
  0
VERTEX
  5
1165
330
115D
100
AcDbEntity
  8
SCHRAFFUR_RAND
100
AcDbVertex
100
AcDb2dVertex
 10
219.680912
 20
536.061963
 30
0.0
  0
VERTEX
  5
1166
330
115D
100
AcDbEntity
  8
SCHRAFFUR_RAND
100
AcDbVertex
100
AcDb2dVertex
 10
218.229912
 20
535.8429629999999
 30
0.0
  0
VERTEX
  5
1167
330
115D
100
AcDbEntity
  8
SCHRAFFUR_RAND
100
AcDbVertex
100
AcDb2dVertex
 10
210.462912
 20
535.435963
 30
0.0
  0
VERTEX
  5
1168
330
115D
100
AcDbEntity
  8
SCHRAFFUR_RAND
100
AcDbVertex
100
AcDb2dVertex
 10
209.562912
 20
535.255963
 30
0.0
  0
VERTEX
  5
1169
330
115D
100
AcDbEntity
  8
SCHRAFFUR_RAND
100
AcDbVertex
100
AcDb2dVertex
 10
208.800912
 20
534.732963
 30
0.0
  0
VERTEX
  5
116A
330
115D
100
AcDbEntity
  8
SCHRAFFUR_RAND
100
AcDbVertex
100
AcDb2dVertex
 10
208.276912
 20
533.9709629999999
 30
0.0
  0
VERTEX
  5
116B
330
115D
100
AcDbEntity
  8
SCHRAFFUR_RAND
100
AcDbVertex
100
AcDb2dVertex
 10
208.097912
 20
533.069963
 30
0.0
  0
VERTEX
  5
116C
330
115D
100
AcDbEntity
  8
SCHRAFFUR_RAND
100
AcDbVertex
100
AcDb2dVertex
 10
207.848912
 20
528.3179629999999
 30
0.0
  0
VERTEX
  5
116D
330
115D
100
AcDbEntity
  8
SCHRAFFUR_RAND
100
AcDbVertex
100
AcDb2dVertex
 10
245.964912
 20
528.3179629999999
 30
0.0
  0
VERTEX
  5
116E
330
115D
100
AcDbEntity
  8
SCHRAFFUR_RAND
100
AcDbVertex
100
AcDb2dVertex
 10
247.628912
 20
528.1209629999999
 30
0.0
  0
VERTEX
  5
116F
330
115D
100
AcDbEntity
  8
SCHRAFFUR_RAND
100
AcDbVertex
100
AcDb2dVertex
 10
249.163912
 20
527.4369629999999
 30
0.0
  0
VERTEX
  5
1170
330
115D
100
AcDbEntity
  8
SCHRAFFUR_RAND
100
AcDbVertex
100
AcDb2dVertex
 10
250.450912
 20
526.3569629999999
 30
0.0
  0
VERTEX
  5
1171
330
115D
100
AcDbEntity
  8
SCHRAFFUR_RAND
100
AcDbVertex
100
AcDb2dVertex
 10
251.390912
 20
524.963963
 30
0.0
  0
VERTEX
  5
1172
330
115D
100
AcDbEntity
  8
SCHRAFFUR_RAND
100
AcDbVertex
100
AcDb2dVertex
 10
251.873912
 20
523.3589629999999
 30
0.0
  0
VERTEX
  5
1173
330
115D
100
AcDbEntity
  8
SCHRAFFUR_RAND
100
AcDbVertex
100
AcDb2dVertex
 10
253.854912
 20
512.122963
 30
0.0
  0
VERTEX
  5
1174
330
115D
100
AcDbEntity
  8
SCHRAFFUR_RAND
100
AcDbVertex
100
AcDb2dVertex
 10
254.083912
 20
511.3919629999999
 30
0.0
  0
VERTEX
  5
1175
330
115D
100
AcDbEntity
  8
SCHRAFFUR_RAND
100
AcDbVertex
100
AcDb2dVertex
 10
254.578912
 20
510.8009629999999
 30
0.0
  0
VERTEX
  5
1176
330
115D
100
AcDbEntity
  8
SCHRAFFUR_RAND
100
AcDbVertex
100
AcDb2dVertex
 10
255.246912
 20
510.4159629999999
 30
0.0
  0
VERTEX
  5
1177
330
115D
100
AcDbEntity
  8
SCHRAFFUR_RAND
100
AcDbVertex
100
AcDb2dVertex
 10
256.005912
 20
510.3179629999999
 30
0.0
  0
VERTEX
  5
1178
330
115D
100
AcDbEntity
  8
SCHRAFFUR_RAND
100
AcDbVertex
100
AcDb2dVertex
 10
260.259912
 20
510.3179629999999
 30
0.0
  0
VERTEX
  5
1179
330
115D
100
AcDbEntity
  8
SCHRAFFUR_RAND
100
AcDbVertex
100
AcDb2dVertex
 10
261.213912
 20
510.194963
 30
0.0
  0
VERTEX
  5
117A
330
115D
100
AcDbEntity
  8
SCHRAFFUR_RAND
100
AcDbVertex
100
AcDb2dVertex
 10
262.064912
 20
509.7329629999999
 30
0.0
  0
VERTEX
  5
117B
330
115D
100
AcDbEntity
  8
SCHRAFFUR_RAND
100
AcDbVertex
100
AcDb2dVertex
 10
262.687912
 20
508.999963
 30
0.0
  0
VERTEX
  5
117C
330
115D
100
AcDbEntity
  8
SCHRAFFUR_RAND
100
AcDbVertex
100
AcDb2dVertex
 10
273.521912
 20
492.3179629999999
 30
0.0
  0
VERTEX
  5
117D
330
115D
100
AcDbEntity
  8
SCHRAFFUR_RAND
100
AcDbVertex
100
AcDb2dVertex
 10
281.521912
 20
492.3179629999999
 30
0.0
  0
VERTEX
  5
117E
330
115D
100
AcDbEntity
  8
SCHRAFFUR_RAND
100
AcDbVertex
100
AcDb2dVertex
 10
282.402912
 20
487.317963
 30
0.0
  0
VERTEX
  5
117F
330
115D
100
AcDbEntity
  8
SCHRAFFUR_RAND
100
AcDbVertex
100
AcDb2dVertex
 10
288.521912
 20
487.317963
 30
0.0
  0
VERTEX
  5
1180
330
115D
100
AcDbEntity
  8
SCHRAFFUR_RAND
100
AcDbVertex
100
AcDb2dVertex
 10
288.198912
 20
493.484963
 30
0.0
  0
VERTEX
  5
1181
330
115D
100
AcDbEntity
  8
SCHRAFFUR_RAND
100
AcDbVertex
100
AcDb2dVertex
 10
287.970912
 20
495.303963
 30
0.0
  0
VERTEX
  5
1182
330
115D
100
AcDbEntity
  8
SCHRAFFUR_RAND
100
AcDbVertex
100
AcDb2dVertex
 10
287.380912
 20
497.0429629999999
 30
0.0
  0
VERTEX
  5
1183
330
115D
100
AcDbEntity
  8
SCHRAFFUR_RAND
100
AcDbVertex
100
AcDb2dVertex
 10
287.226912
 20
497.3179629999999
 30
0.0
  0
VERTEX
  5
1184
330
115D
100
AcDbEntity
  8
SCHRAFFUR_RAND
100
AcDbVertex
100
AcDb2dVertex
 10
281.021912
 20
497.3179629999999
 30
0.0
  0
VERTEX
  5
1185
330
115D
100
AcDbEntity
  8
SCHRAFFUR_RAND
100
AcDbVertex
100
AcDb2dVertex
 10
280.635912
 20
504.6799629999999
 30
0.0
  0
VERTEX
  5
1186
330
115D
100
AcDbEntity
  8
SCHRAFFUR_RAND
100
AcDbVertex
100
AcDb2dVertex
 10
264.425912
 20
520.8889629999999
 30
0.0
  0
VERTEX
  5
1187
330
115D
100
AcDbEntity
  8
SCHRAFFUR_RAND
100
AcDbVertex
100
AcDb2dVertex
 10
263.351912
 20
522.0969629999999
 30
0.0
  0
VERTEX
  5
1188
330
115D
100
AcDbEntity
  8
SCHRAFFUR_RAND
100
AcDbVertex
100
AcDb2dVertex
 10
262.5149120000001
 20
523.4819629999999
 30
0.0
  0
VERTEX
  5
1189
330
115D
100
AcDbEntity
  8
SCHRAFFUR_RAND
100
AcDbVertex
100
AcDb2dVertex
 10
261.911912
 20
524.983963
 30
0.0
  0
VERTEX
  5
118A
330
115D
100
AcDbEntity
  8
SCHRAFFUR_RAND
100
AcDbVertex
100
AcDb2dVertex
 10
261.593912
 20
526.5689629999999
 30
0.0
  0
VERTEX
  5
118B
330
115D
100
AcDbEntity
  8
SCHRAFFUR_RAND
100
AcDbVertex
100
AcDb2dVertex
 10
259.521912
 20
541.317963
 30
0.0
  0
VERTEX
  5
118C
330
115D
100
AcDbEntity
  8
SCHRAFFUR_RAND
100
AcDbVertex
100
AcDb2dVertex
 10
237.146912
 20
541.317963
 30
0.0
  0
VERTEX
  5
118D
330
115D
100
AcDbEntity
  8
SCHRAFFUR_RAND
100
AcDbVertex
100
AcDb2dVertex
 10
235.521912
 20
572.3179629999999
 30
0.0
  0
SEQEND
  5
118E
330
115D
100
AcDbEntity
  8
SCHRAFFUR_RAND
  0
INSERT
  5
119E
330
12D3
100
AcDbEntity
  8
8
100
AcDbBlockReference
  2
*X8
 10
119.370912
 20
61.737963
 30
0.0
1001
ACAD
1000
HATCH
1002
{
1070
    19
1000
ANSI31,_I
1040
6.349999999999999
1040
-0.7850000000000001
1002
}
  0
POLYLINE
  5
119F
330
12D3
100
AcDbEntity
  8
SCHRAFFUR_RAND
100
AcDb2dPolyline
 66
     1
 10
0.0
 20
0.0
 30
0.0
 70
     1
  0
VERTEX
  5
11A0
330
119F
100
AcDbEntity
  8
SCHRAFFUR_RAND
100
AcDbVertex
100
AcDb2dVertex
 10
458.5219119999999
 20
487.317963
 30
0.0
  0
VERTEX
  5
11A1
330
119F
100
AcDbEntity
  8
SCHRAFFUR_RAND
100
AcDbVertex
100
AcDb2dVertex
 10
464.639912
 20
487.317963
 30
0.0
  0
VERTEX
  5
11A2
330
119F
100
AcDbEntity
  8
SCHRAFFUR_RAND
100
AcDbVertex
100
AcDb2dVertex
 10
465.5219119999999
 20
492.3179629999999
 30
0.0
  0
VERTEX
  5
11A3
330
119F
100
AcDbEntity
  8
SCHRAFFUR_RAND
100
AcDbVertex
100
AcDb2dVertex
 10
473.521912
 20
492.3179629999999
 30
0.0
  0
VERTEX
  5
11A4
330
119F
100
AcDbEntity
  8
SCHRAFFUR_RAND
100
AcDbVertex
100
AcDb2dVertex
 10
484.353912
 20
508.999963
 30
0.0
  0
VERTEX
  5
11A5
330
119F
100
AcDbEntity
  8
SCHRAFFUR_RAND
100
AcDbVertex
100
AcDb2dVertex
 10
484.9779119999999
 20
509.7329629999999
 30
0.0
  0
VERTEX
  5
11A6
330
119F
100
AcDbEntity
  8
SCHRAFFUR_RAND
100
AcDbVertex
100
AcDb2dVertex
 10
485.828912
 20
510.194963
 30
0.0
  0
VERTEX
  5
11A7
330
119F
100
AcDbEntity
  8
SCHRAFFUR_RAND
100
AcDbVertex
100
AcDb2dVertex
 10
486.782912
 20
510.3179629999999
 30
0.0
  0
VERTEX
  5
11A8
330
119F
100
AcDbEntity
  8
SCHRAFFUR_RAND
100
AcDbVertex
100
AcDb2dVertex
 10
491.036912
 20
510.3179629999999
 30
0.0
  0
VERTEX
  5
11A9
330
119F
100
AcDbEntity
  8
SCHRAFFUR_RAND
100
AcDbVertex
100
AcDb2dVertex
 10
491.7959119999999
 20
510.4159629999999
 30
0.0
  0
VERTEX
  5
11AA
330
119F
100
AcDbEntity
  8
SCHRAFFUR_RAND
100
AcDbVertex
100
AcDb2dVertex
 10
492.463912
 20
510.8009629999999
 30
0.0
  0
VERTEX
  5
11AB
330
119F
100
AcDbEntity
  8
SCHRAFFUR_RAND
100
AcDbVertex
100
AcDb2dVertex
 10
492.959912
 20
511.3919629999999
 30
0.0
  0
VERTEX
  5
11AC
330
119F
100
AcDbEntity
  8
SCHRAFFUR_RAND
100
AcDbVertex
100
AcDb2dVertex
 10
493.1879119999999
 20
512.122963
 30
0.0
  0
VERTEX
  5
11AD
330
119F
100
AcDbEntity
  8
SCHRAFFUR_RAND
100
AcDbVertex
100
AcDb2dVertex
 10
495.168912
 20
523.3599629999999
 30
0.0
  0
VERTEX
  5
11AE
330
119F
100
AcDbEntity
  8
SCHRAFFUR_RAND
100
AcDbVertex
100
AcDb2dVertex
 10
495.6529119999999
 20
524.963963
 30
0.0
  0
VERTEX
  5
11AF
330
119F
100
AcDbEntity
  8
SCHRAFFUR_RAND
100
AcDbVertex
100
AcDb2dVertex
 10
496.591912
 20
526.3569629999999
 30
0.0
  0
VERTEX
  5
11B0
330
119F
100
AcDbEntity
  8
SCHRAFFUR_RAND
100
AcDbVertex
100
AcDb2dVertex
 10
497.878912
 20
527.4369629999999
 30
0.0
  0
VERTEX
  5
11B1
330
119F
100
AcDbEntity
  8
SCHRAFFUR_RAND
100
AcDbVertex
100
AcDb2dVertex
 10
499.413912
 20
528.1209629999999
 30
0.0
  0
VERTEX
  5
11B2
330
119F
100
AcDbEntity
  8
SCHRAFFUR_RAND
100
AcDbVertex
100
AcDb2dVertex
 10
501.077912
 20
528.3179629999999
 30
0.0
  0
VERTEX
  5
11B3
330
119F
100
AcDbEntity
  8
SCHRAFFUR_RAND
100
AcDbVertex
100
AcDb2dVertex
 10
539.1939119999999
 20
528.3179629999999
 30
0.0
  0
VERTEX
  5
11B4
330
119F
100
AcDbEntity
  8
SCHRAFFUR_RAND
100
AcDbVertex
100
AcDb2dVertex
 10
538.945912
 20
533.069963
 30
0.0
  0
VERTEX
  5
11B5
330
119F
100
AcDbEntity
  8
SCHRAFFUR_RAND
100
AcDbVertex
100
AcDb2dVertex
 10
538.7659119999999
 20
533.9709629999999
 30
0.0
  0
VERTEX
  5
11B6
330
119F
100
AcDbEntity
  8
SCHRAFFUR_RAND
100
AcDbVertex
100
AcDb2dVertex
 10
538.2419119999999
 20
534.732963
 30
0.0
  0
VERTEX
  5
11B7
330
119F
100
AcDbEntity
  8
SCHRAFFUR_RAND
100
AcDbVertex
100
AcDb2dVertex
 10
537.480912
 20
535.255963
 30
0.0
  0
VERTEX
  5
11B8
330
119F
100
AcDbEntity
  8
SCHRAFFUR_RAND
100
AcDbVertex
100
AcDb2dVertex
 10
536.579912
 20
535.435963
 30
0.0
  0
VERTEX
  5
11B9
330
119F
100
AcDbEntity
  8
SCHRAFFUR_RAND
100
AcDbVertex
100
AcDb2dVertex
 10
528.8139119999999
 20
535.8429629999999
 30
0.0
  0
VERTEX
  5
11BA
330
119F
100
AcDbEntity
  8
SCHRAFFUR_RAND
100
AcDbVertex
100
AcDb2dVertex
 10
527.362912
 20
536.061963
 30
0.0
  0
VERTEX
  5
11BB
330
119F
100
AcDbEntity
  8
SCHRAFFUR_RAND
100
AcDbVertex
100
AcDb2dVertex
 10
526.0189119999999
 20
536.6599629999999
 30
0.0
  0
VERTEX
  5
11BC
330
119F
100
AcDbEntity
  8
SCHRAFFUR_RAND
100
AcDbVertex
100
AcDb2dVertex
 10
524.858912
 20
537.565963
 30
0.0
  0
VERTEX
  5
11BD
330
119F
100
AcDbEntity
  8
SCHRAFFUR_RAND
100
AcDbVertex
100
AcDb2dVertex
 10
523.9529119999999
 20
538.7259629999999
 30
0.0
  0
VERTEX
  5
11BE
330
119F
100
AcDbEntity
  8
SCHRAFFUR_RAND
100
AcDbVertex
100
AcDb2dVertex
 10
523.354912
 20
540.069963
 30
0.0
  0
VERTEX
  5
11BF
330
119F
100
AcDbEntity
  8
SCHRAFFUR_RAND
100
AcDbVertex
100
AcDb2dVertex
 10
523.1359119999999
 20
541.5209629999999
 30
0.0
  0
VERTEX
  5
11C0
330
119F
100
AcDbEntity
  8
SCHRAFFUR_RAND
100
AcDbVertex
100
AcDb2dVertex
 10
521.521912
 20
572.3179629999999
 30
0.0
  0
VERTEX
  5
11C1
330
119F
100
AcDbEntity
  8
SCHRAFFUR_RAND
100
AcDbVertex
100
AcDb2dVertex
 10
511.520912
 20
572.3179629999999
 30
0.0
  0
VERTEX
  5
11C2
330
119F
100
AcDbEntity
  8
SCHRAFFUR_RAND
100
AcDbVertex
100
AcDb2dVertex
 10
509.8969119999999
 20
541.317963
 30
0.0
  0
VERTEX
  5
11C3
330
119F
100
AcDbEntity
  8
SCHRAFFUR_RAND
100
AcDbVertex
100
AcDb2dVertex
 10
487.5219119999999
 20
541.317963
 30
0.0
  0
VERTEX
  5
11C4
330
119F
100
AcDbEntity
  8
SCHRAFFUR_RAND
100
AcDbVertex
100
AcDb2dVertex
 10
485.448912
 20
526.5689629999999
 30
0.0
  0
VERTEX
  5
11C5
330
119F
100
AcDbEntity
  8
SCHRAFFUR_RAND
100
AcDbVertex
100
AcDb2dVertex
 10
485.130912
 20
524.983963
 30
0.0
  0
VERTEX
  5
11C6
330
119F
100
AcDbEntity
  8
SCHRAFFUR_RAND
100
AcDbVertex
100
AcDb2dVertex
 10
484.5279119999999
 20
523.4819629999999
 30
0.0
  0
VERTEX
  5
11C7
330
119F
100
AcDbEntity
  8
SCHRAFFUR_RAND
100
AcDbVertex
100
AcDb2dVertex
 10
483.690912
 20
522.0969629999999
 30
0.0
  0
VERTEX
  5
11C8
330
119F
100
AcDbEntity
  8
SCHRAFFUR_RAND
100
AcDbVertex
100
AcDb2dVertex
 10
482.616912
 20
520.8889629999999
 30
0.0
  0
VERTEX
  5
11C9
330
119F
100
AcDbEntity
  8
SCHRAFFUR_RAND
100
AcDbVertex
100
AcDb2dVertex
 10
466.407912
 20
504.6799629999999
 30
0.0
  0
VERTEX
  5
11CA
330
119F
100
AcDbEntity
  8
SCHRAFFUR_RAND
100
AcDbVertex
100
AcDb2dVertex
 10
466.0219119999999
 20
497.3179629999999
 30
0.0
  0
VERTEX
  5
11CB
330
119F
100
AcDbEntity
  8
SCHRAFFUR_RAND
100
AcDbVertex
100
AcDb2dVertex
 10
459.815912
 20
497.3179629999999
 30
0.0
  0
VERTEX
  5
11CC
330
119F
100
AcDbEntity
  8
SCHRAFFUR_RAND
100
AcDbVertex
100
AcDb2dVertex
 10
459.661912
 20
497.0429629999999
 30
0.0
  0
VERTEX
  5
11CD
330
119F
100
AcDbEntity
  8
SCHRAFFUR_RAND
100
AcDbVertex
100
AcDb2dVertex
 10
459.071912
 20
495.303963
 30
0.0
  0
VERTEX
  5
11CE
330
119F
100
AcDbEntity
  8
SCHRAFFUR_RAND
100
AcDbVertex
100
AcDb2dVertex
 10
458.8449119999999
 20
493.4839629999999
 30
0.0
  0
VERTEX
  5
11CF
330
119F
100
AcDbEntity
  8
SCHRAFFUR_RAND
100
AcDbVertex
100
AcDb2dVertex
 10
458.5219119999999
 20
487.317963
 30
0.0
  0
SEQEND
  5
11D0
330
119F
100
AcDbEntity
  8
SCHRAFFUR_RAND
  0
INSERT
  5
11E4
330
12D3
100
AcDbEntity
  8
8
100
AcDbBlockReference
  2
*X9
 10
119.370912
 20
61.737963
 30
0.0
1001
ACAD
1000
HATCH
1002
{
1070
    19
1000
ANSI31,_I
1040
6.349999999999999
1040
-0.7850000000000001
1002
}
  0
DIMENSION
  5
11EE
330
12D3
100
AcDbEntity
  8
5
100
AcDbDimension
  2
*D15
 10
157.847912
 20
572.3179629999999
 30
0.0
 11
146.0979119999999
 21
532.3179629999999
 31
0.0
 70
    32
  1
80
 71
     5
 42
79.99999999999994
  3
GEN-ISO
100
AcDbAlignedDimension
 13
273.521912
 23
492.3179629999999
 33
0.0
 14
225.521912
 24
572.3179629999999
 34
0.0
 50
90.0
100
AcDbRotatedDimension
1001
ACAD
1000
DSTYLE
1002
{
1070
    41
1040
5.0
1002
}
  0
DIMENSION
  5
11F8
330
12D3
100
AcDbEntity
  8
5
100
AcDbDimension
  2
*D14
 10
589.17659
 20
572.3179629999999
 30
0.0
 11
577.4265899999999
 21
550.317963
 31
0.0
 70
    32
  1
44
 71
     5
 42
44.0
  3
GEN-ISO
100
AcDbAlignedDimension
 13
539.1939119999999
 23
528.3179629999999
 33
0.0
 14
521.521912
 24
572.3179629999999
 34
0.0
 50
90.0
100
AcDbRotatedDimension
1001
ACAD
1000
DSTYLE
1002
{
1070
    41
1040
5.0
1002
}
  0
LINE
  5
11F9
330
12D3
100
AcDbEntity
  8
0
100
AcDbLine
 10
247.094912
 20
206.311963
 30
0.0
 11
247.094912
 21
342.311963
 31
0.0
  0
LINE
  5
11FA
330
12D3
100
AcDbEntity
  8
0
100
AcDbLine
 10
270.094912
 20
206.311963
 30
0.0
 11
270.094912
 21
307.707963
 31
0.0
  0
LINE
  5
11FB
330
12D3
100
AcDbEntity
  8
0
100
AcDbLine
 10
286.094912
 20
206.311963
 30
0.0
 11
286.094912
 21
316.811963
 31
0.0
  0
LINE
  5
11FC
330
12D3
100
AcDbEntity
  8
0
100
AcDbLine
 10
305.094912
 20
206.311963
 30
0.0
 11
305.094912
 21
254.737963
 31
0.0
  0
LINE
  5
11FD
330
12D3
100
AcDbEntity
  8
0
100
AcDbLine
 10
321.094912
 20
206.311963
 30
0.0
 11
321.094912
 21
316.811963
 31
0.0
  0
LINE
  5
11FE
330
12D3
100
AcDbEntity
  8
0
100
AcDbLine
 10
340.094912
 20
206.311963
 30
0.0
 11
340.094912
 21
287.424963
 31
0.0
  0
LINE
  5
11FF
330
12D3
100
AcDbEntity
  8
0
100
AcDbLine
 10
356.094912
 20
206.311963
 30
0.0
 11
356.094912
 21
316.811963
 31
0.0
  0
LINE
  5
1200
330
12D3
100
AcDbEntity
  8
0
100
AcDbLine
 10
375.094912
 20
206.311963
 30
0.0
 11
375.094912
 21
297.769963
 31
0.0
  0
LINE
  5
1201
330
12D3
100
AcDbEntity
  8
0
100
AcDbLine
 10
383.094912
 20
342.311963
 30
0.0
 11
247.094912
 21
342.311963
 31
0.0
  0
LINE
  5
1202
330
12D3
100
AcDbEntity
  8
0
100
AcDbLine
 10
383.094912
 20
319.311963
 30
0.0
 11
377.594912
 21
319.311963
 31
0.0
  0
LINE
  5
1203
330
12D3
100
AcDbEntity
  8
0
100
AcDbLine
 10
353.594912
 20
319.311963
 30
0.0
 11
342.594912
 21
319.311963
 31
0.0
  0
LINE
  5
1204
330
12D3
100
AcDbEntity
  8
0
100
AcDbLine
 10
318.594912
 20
319.311963
 30
0.0
 11
307.594912
 21
319.311963
 31
0.0
  0
ARC
  5
1205
330
12D3
100
AcDbEntity
  8
0
100
AcDbCircle
 10
377.594912
 20
316.811963
 30
0.0
 40
2.5
100
AcDbArc
 50
90.0
 51
180.0
  0
ARC
  5
1206
330
12D3
100
AcDbEntity
  8
0
100
AcDbCircle
 10
353.594912
 20
316.811963
 30
0.0
 40
2.5
100
AcDbArc
 50
0.0
 51
90.0
  0
ARC
  5
1207
330
12D3
100
AcDbEntity
  8
0
100
AcDbCircle
 10
342.594912
 20
316.811963
 30
0.0
 40
2.5
100
AcDbArc
 50
90.0
 51
180.0
  0
ARC
  5
1208
330
12D3
100
AcDbEntity
  8
0
100
AcDbCircle
 10
318.594912
 20
316.811963
 30
0.0
 40
2.5
100
AcDbArc
 50
0.0
 51
90.0
  0
ARC
  5
1209
330
12D3
100
AcDbEntity
  8
0
100
AcDbCircle
 10
307.594912
 20
316.811963
 30
0.0
 40
2.5
100
AcDbArc
 50
90.0
 51
180.0
  0
LINE
  5
120A
330
12D3
100
AcDbEntity
  8
0
100
AcDbLine
 10
519.0949119999999
 20
206.311963
 30
0.0
 11
519.0949119999999
 21
342.311963
 31
0.0
  0
LINE
  5
120B
330
12D3
100
AcDbEntity
  8
0
100
AcDbLine
 10
496.094912
 20
206.311963
 30
0.0
 11
496.094912
 21
316.811963
 31
0.0
  0
LINE
  5
120C
330
12D3
100
AcDbEntity
  8
0
100
AcDbLine
 10
480.094912
 20
206.311963
 30
0.0
 11
480.094912
 21
316.811963
 31
0.0
  0
LINE
  5
120D
330
12D3
100
AcDbEntity
  8
0
100
AcDbLine
 10
461.0949119999999
 20
206.311963
 30
0.0
 11
461.0949119999999
 21
316.811963
 31
0.0
  0
LINE
  5
120E
330
12D3
100
AcDbEntity
  8
0
100
AcDbLine
 10
445.094912
 20
206.311963
 30
0.0
 11
445.094912
 21
274.196963
 31
0.0
  0
LINE
  5
120F
330
12D3
100
AcDbEntity
  8
0
100
AcDbLine
 10
426.094912
 20
206.311963
 30
0.0
 11
426.094912
 21
316.811963
 31
0.0
  0
LINE
  5
1210
330
12D3
100
AcDbEntity
  8
0
100
AcDbLine
 10
410.094912
 20
206.311963
 30
0.0
 11
410.094912
 21
294.056963
 31
0.0
  0
LINE
  5
1211
330
12D3
100
AcDbEntity
  8
0
100
AcDbLine
 10
391.094912
 20
206.311963
 30
0.0
 11
391.094912
 21
316.811963
 31
0.0
  0
LINE
  5
1212
330
12D3
100
AcDbEntity
  8
0
100
AcDbLine
 10
383.094912
 20
342.311963
 30
0.0
 11
519.0949119999999
 21
342.311963
 31
0.0
  0
LINE
  5
1213
330
12D3
100
AcDbEntity
  8
0
100
AcDbLine
 10
383.094912
 20
319.311963
 30
0.0
 11
388.594912
 21
319.311963
 31
0.0
  0
LINE
  5
1214
330
12D3
100
AcDbEntity
  8
0
100
AcDbLine
 10
412.594912
 20
319.311963
 30
0.0
 11
423.5949119999999
 21
319.311963
 31
0.0
  0
LINE
  5
1215
330
12D3
100
AcDbEntity
  8
0
100
AcDbLine
 10
447.594912
 20
319.311963
 30
0.0
 11
458.594912
 21
319.311963
 31
0.0
  0
LINE
  5
1216
330
12D3
100
AcDbEntity
  8
0
100
AcDbLine
 10
482.594912
 20
319.311963
 30
0.0
 11
493.594912
 21
319.311963
 31
0.0
  0
ARC
  5
1217
330
12D3
100
AcDbEntity
  8
0
100
AcDbCircle
 10
388.594912
 20
316.811963
 30
0.0
 40
2.5
100
AcDbArc
 50
0.0
 51
90.0
  0
ARC
  5
1218
330
12D3
100
AcDbEntity
  8
0
100
AcDbCircle
 10
412.594912
 20
316.811963
 30
0.0
 40
2.5
100
AcDbArc
 50
90.0
 51
180.0
  0
ARC
  5
1219
330
12D3
100
AcDbEntity
  8
0
100
AcDbCircle
 10
423.5949119999999
 20
316.811963
 30
0.0
 40
2.5
100
AcDbArc
 50
0.0
 51
90.0
  0
ARC
  5
121A
330
12D3
100
AcDbEntity
  8
0
100
AcDbCircle
 10
447.594912
 20
316.811963
 30
0.0
 40
2.5
100
AcDbArc
 50
90.0
 51
180.0
  0
ARC
  5
121B
330
12D3
100
AcDbEntity
  8
0
100
AcDbCircle
 10
458.594912
 20
316.811963
 30
0.0
 40
2.5
100
AcDbArc
 50
0.0
 51
90.0
  0
ARC
  5
121C
330
12D3
100
AcDbEntity
  8
0
100
AcDbCircle
 10
482.594912
 20
316.811963
 30
0.0
 40
2.5
100
AcDbArc
 50
90.0
 51
180.0
  0
ARC
  5
121D
330
12D3
100
AcDbEntity
  8
0
100
AcDbCircle
 10
493.594912
 20
316.811963
 30
0.0
 40
2.5
100
AcDbArc
 50
0.0
 51
90.0
  0
LINE
  5
121E
330
12D3
100
AcDbEntity
  8
7
100
AcDbLine
 10
383.094912
 20
381.5079629999999
 30
0.0
 11
383.094912
 21
37.058963
 31
0.0
  0
LINE
  5
121F
330
12D3
100
AcDbEntity
  8
0
100
AcDbLine
 10
247.094912
 20
206.311963
 30
0.0
 11
247.094912
 21
70.31196300000001
 31
0.0
  0
LINE
  5
1220
330
12D3
100
AcDbEntity
  8
0
100
AcDbLine
 10
270.094912
 20
206.311963
 30
0.0
 11
270.094912
 21
95.811963
 31
0.0
  0
LINE
  5
1221
330
12D3
100
AcDbEntity
  8
0
100
AcDbLine
 10
286.094912
 20
206.311963
 30
0.0
 11
286.094912
 21
95.811963
 31
0.0
  0
LINE
  5
1222
330
12D3
100
AcDbEntity
  8
0
100
AcDbLine
 10
305.094912
 20
206.311963
 30
0.0
 11
305.094912
 21
95.811963
 31
0.0
  0
LINE
  5
1223
330
12D3
100
AcDbEntity
  8
0
100
AcDbLine
 10
321.094912
 20
206.311963
 30
0.0
 11
321.094912
 21
95.811963
 31
0.0
  0
LINE
  5
1224
330
12D3
100
AcDbEntity
  8
0
100
AcDbLine
 10
340.094912
 20
206.311963
 30
0.0
 11
340.094912
 21
95.811963
 31
0.0
  0
LINE
  5
1225
330
12D3
100
AcDbEntity
  8
0
100
AcDbLine
 10
356.094912
 20
206.311963
 30
0.0
 11
356.094912
 21
95.811963
 31
0.0
  0
LINE
  5
1226
330
12D3
100
AcDbEntity
  8
0
100
AcDbLine
 10
375.094912
 20
206.311963
 30
0.0
 11
375.094912
 21
95.811963
 31
0.0
  0
LINE
  5
1227
330
12D3
100
AcDbEntity
  8
0
100
AcDbLine
 10
383.094912
 20
70.31196300000001
 30
0.0
 11
247.094912
 21
70.31196300000001
 31
0.0
  0
LINE
  5
1228
330
12D3
100
AcDbEntity
  8
0
100
AcDbLine
 10
383.094912
 20
93.311963
 30
0.0
 11
377.594912
 21
93.311963
 31
0.0
  0
LINE
  5
1229
330
12D3
100
AcDbEntity
  8
0
100
AcDbLine
 10
353.594912
 20
93.311963
 30
0.0
 11
342.594912
 21
93.311963
 31
0.0
  0
LINE
  5
122A
330
12D3
100
AcDbEntity
  8
0
100
AcDbLine
 10
318.594912
 20
93.311963
 30
0.0
 11
307.594912
 21
93.311963
 31
0.0
  0
LINE
  5
122B
330
12D3
100
AcDbEntity
  8
0
100
AcDbLine
 10
283.594912
 20
93.311963
 30
0.0
 11
272.594912
 21
93.311963
 31
0.0
  0
ARC
  5
122C
330
12D3
100
AcDbEntity
  8
0
100
AcDbCircle
 10
377.594912
 20
95.811963
 30
0.0
 40
2.5
100
AcDbArc
 50
180.0
 51
270.0
  0
ARC
  5
122D
330
12D3
100
AcDbEntity
  8
0
100
AcDbCircle
 10
353.594912
 20
95.811963
 30
0.0
 40
2.5
100
AcDbArc
 50
270.0
 51
0.0
  0
ARC
  5
122E
330
12D3
100
AcDbEntity
  8
0
100
AcDbCircle
 10
342.594912
 20
95.811963
 30
0.0
 40
2.5
100
AcDbArc
 50
180.0
 51
270.0
  0
ARC
  5
122F
330
12D3
100
AcDbEntity
  8
0
100
AcDbCircle
 10
318.594912
 20
95.811963
 30
0.0
 40
2.5
100
AcDbArc
 50
270.0
 51
0.0
  0
ARC
  5
1230
330
12D3
100
AcDbEntity
  8
0
100
AcDbCircle
 10
307.594912
 20
95.811963
 30
0.0
 40
2.5
100
AcDbArc
 50
180.0
 51
270.0
  0
ARC
  5
1231
330
12D3
100
AcDbEntity
  8
0
100
AcDbCircle
 10
283.594912
 20
95.811963
 30
0.0
 40
2.5
100
AcDbArc
 50
270.0
 51
0.0
  0
ARC
  5
1232
330
12D3
100
AcDbEntity
  8
0
100
AcDbCircle
 10
272.594912
 20
95.811963
 30
0.0
 40
2.5
100
AcDbArc
 50
180.0
 51
270.0
  0
LINE
  5
1233
330
12D3
100
AcDbEntity
  8
0
100
AcDbLine
 10
519.0949119999999
 20
206.311963
 30
0.0
 11
519.0949119999999
 21
70.31196300000001
 31
0.0
  0
LINE
  5
1234
330
12D3
100
AcDbEntity
  8
0
100
AcDbLine
 10
496.094912
 20
206.311963
 30
0.0
 11
496.094912
 21
104.915963
 31
0.0
  0
LINE
  5
1235
330
12D3
100
AcDbEntity
  8
0
100
AcDbLine
 10
480.094912
 20
206.311963
 30
0.0
 11
480.094912
 21
95.811963
 31
0.0
  0
LINE
  5
1236
330
12D3
100
AcDbEntity
  8
0
100
AcDbLine
 10
461.0949119999999
 20
206.311963
 30
0.0
 11
461.0949119999999
 21
95.811963
 31
0.0
  0
LINE
  5
1237
330
12D3
100
AcDbEntity
  8
0
100
AcDbLine
 10
445.094912
 20
206.311963
 30
0.0
 11
445.094912
 21
95.811963
 31
0.0
  0
LINE
  5
1238
330
12D3
100
AcDbEntity
  8
0
100
AcDbLine
 10
426.094912
 20
206.311963
 30
0.0
 11
426.094912
 21
95.811963
 31
0.0
  0
LINE
  5
1239
330
12D3
100
AcDbEntity
  8
0
100
AcDbLine
 10
410.094912
 20
206.311963
 30
0.0
 11
410.094912
 21
95.811963
 31
0.0
  0
LINE
  5
123A
330
12D3
100
AcDbEntity
  8
0
100
AcDbLine
 10
391.094912
 20
206.311963
 30
0.0
 11
391.094912
 21
95.811963
 31
0.0
  0
LINE
  5
123B
330
12D3
100
AcDbEntity
  8
0
100
AcDbLine
 10
383.094912
 20
70.31196300000001
 30
0.0
 11
519.0949119999999
 21
70.31196300000001
 31
0.0
  0
LINE
  5
123C
330
12D3
100
AcDbEntity
  8
0
100
AcDbLine
 10
383.094912
 20
93.311963
 30
0.0
 11
388.594912
 21
93.311963
 31
0.0
  0
LINE
  5
123D
330
12D3
100
AcDbEntity
  8
0
100
AcDbLine
 10
412.594912
 20
93.311963
 30
0.0
 11
423.5949119999999
 21
93.311963
 31
0.0
  0
LINE
  5
123E
330
12D3
100
AcDbEntity
  8
0
100
AcDbLine
 10
447.594912
 20
93.311963
 30
0.0
 11
458.594912
 21
93.311963
 31
0.0
  0
ARC
  5
123F
330
12D3
100
AcDbEntity
  8
0
100
AcDbCircle
 10
388.594912
 20
95.811963
 30
0.0
 40
2.5
100
AcDbArc
 50
270.0
 51
0.0
  0
ARC
  5
1240
330
12D3
100
AcDbEntity
  8
0
100
AcDbCircle
 10
412.594912
 20
95.811963
 30
0.0
 40
2.5
100
AcDbArc
 50
180.0
 51
270.0
  0
ARC
  5
1241
330
12D3
100
AcDbEntity
  8
0
100
AcDbCircle
 10
423.5949119999999
 20
95.811963
 30
0.0
 40
2.5
100
AcDbArc
 50
270.0
 51
0.0
  0
ARC
  5
1242
330
12D3
100
AcDbEntity
  8
0
100
AcDbCircle
 10
447.594912
 20
95.811963
 30
0.0
 40
2.5
100
AcDbArc
 50
180.0
 51
270.0
  0
ARC
  5
1243
330
12D3
100
AcDbEntity
  8
0
100
AcDbCircle
 10
458.594912
 20
95.811963
 30
0.0
 40
2.5
100
AcDbArc
 50
270.0
 51
0.0
  0
LINE
  5
1244
330
12D3
100
AcDbEntity
  8
7
100
AcDbLine
 10
383.094912
 20
206.311963
 30
0.0
 11
560.252912
 21
206.311963
 31
0.0
  0
LINE
  5
1245
330
12D3
100
AcDbEntity
  8
0
100
AcDbLine
 10
279.930912
 20
318.578963
 30
0.0
 11
270.826912
 21
309.475963
 31
0.0
  0
LINE
  5
1246
330
12D3
100
AcDbEntity
  8
0
100
AcDbLine
 10
283.594912
 20
319.311963
 30
0.0
 11
281.698912
 21
319.311963
 31
0.0
  0
ARC
  5
1247
330
12D3
100
AcDbEntity
  8
0
100
AcDbCircle
 10
272.594912
 20
307.707963
 30
0.0
 40
2.5
100
AcDbArc
 50
134.998
 51
179.998
  0
ARC
  5
1248
330
12D3
100
AcDbEntity
  8
0
100
AcDbCircle
 10
281.698912
 20
316.811963
 30
0.0
 40
2.5
100
AcDbArc
 50
89.999
 51
134.999
  0
ARC
  5
1249
330
12D3
100
AcDbEntity
  8
0
100
AcDbCircle
 10
283.594912
 20
316.811963
 30
0.0
 40
2.5
100
AcDbArc
 50
0.0
 51
90.0
  0
LINE
  5
124A
330
12D3
100
AcDbEntity
  8
0
100
AcDbLine
 10
486.2589119999999
 20
94.043963
 30
0.0
 11
495.3619119999999
 21
103.147963
 31
0.0
  0
LINE
  5
124B
330
12D3
100
AcDbEntity
  8
0
100
AcDbLine
 10
482.594912
 20
93.311963
 30
0.0
 11
484.490912
 21
93.311963
 31
0.0
  0
ARC
  5
124C
330
12D3
100
AcDbEntity
  8
0
100
AcDbCircle
 10
482.594912
 20
95.811963
 30
0.0
 40
2.5
100
AcDbArc
 50
180.0
 51
270.0
  0
ARC
  5
124D
330
12D3
100
AcDbEntity
  8
0
100
AcDbCircle
 10
484.490912
 20
95.811963
 30
0.0
 40
2.5
100
AcDbArc
 50
270.0
 51
315.0
  0
ARC
  5
124E
330
12D3
100
AcDbEntity
  8
0
100
AcDbCircle
 10
493.594912
 20
104.915963
 30
0.0
 40
2.5
100
AcDbArc
 50
315.0
 51
0.0
  0
ARC
  5
124F
330
12D3
100
AcDbEntity
  8
3A
 48
0.164
100
AcDbCircle
 10
485.141912
 20
94.239963
 30
0.0
 40
2.5
100
AcDbArc
 50
269.997
 51
314.998
  0
ARC
  5
1250
330
12D3
100
AcDbEntity
  8
3A
100
AcDbCircle
 10
495.166912
 20
104.263963
 30
0.0
 40
2.5
100
AcDbArc
 50
315.0
 51
0.0
  0
LINE
  5
1251
330
12D3
100
AcDbEntity
  8
7
100
AcDbLine
 10
383.094912
 20
206.311963
 30
0.0
 11
203.745912
 21
206.311963
 31
0.0
  0
LINE
  5
1252
330
12D3
100
AcDbEntity
  8
0
100
AcDbLine
 10
531.094912
 20
58.311963
 30
0.0
 11
531.094912
 21
353.528963
 31
0.0
  0
LINE
  5
1253
330
12D3
100
AcDbEntity
  8
0
100
AcDbLine
 10
533.4009120000001
 20
56.005963
 30
0.0
 11
533.4009120000001
 21
171.310963
 31
0.0
  0
LINE
  5
1254
330
12D3
100
AcDbEntity
  8
0
100
AcDbLine
 10
521.093912
 20
68.31196300000001
 30
0.0
 11
521.093912
 21
344.311963
 31
0.0
  0
LINE
  5
1255
330
12D3
100
AcDbEntity
  8
0
100
AcDbLine
 10
533.4009120000001
 20
356.617963
 30
0.0
 11
418.094912
 21
356.617963
 31
0.0
  0
LINE
  5
1256
330
12D3
100
AcDbEntity
  8
0
100
AcDbLine
 10
531.094912
 20
354.311963
 30
0.0
 11
235.093912
 21
354.311963
 31
0.0
  0
LINE
  5
1257
330
12D3
100
AcDbEntity
  8
0
100
AcDbLine
 10
521.093912
 20
344.311963
 30
0.0
 11
245.094912
 21
344.311963
 31
0.0
  0
LINE
  5
1258
330
12D3
100
AcDbEntity
  8
0
100
AcDbLine
 10
531.094912
 20
354.311963
 30
0.0
 11
533.4009120000001
 21
356.617963
 31
0.0
  0
LINE
  5
1259
330
12D3
100
AcDbEntity
  8
0
100
AcDbLine
 10
521.093912
 20
68.31196300000001
 30
0.0
 11
245.094912
 21
68.31196300000001
 31
0.0
  0
LINE
  5
125A
330
12D3
100
AcDbEntity
  8
0
100
AcDbLine
 10
531.094912
 20
58.311963
 30
0.0
 11
235.093912
 21
58.311963
 31
0.0
  0
LINE
  5
125B
330
12D3
100
AcDbEntity
  8
0
100
AcDbLine
 10
533.4009120000001
 20
56.005963
 30
0.0
 11
418.094912
 21
56.005963
 31
0.0
  0
LINE
  5
125C
330
12D3
100
AcDbEntity
  8
0
100
AcDbLine
 10
531.094912
 20
58.311963
 30
0.0
 11
533.4009120000001
 21
56.005963
 31
0.0
  0
LINE
  5
125D
330
12D3
100
AcDbEntity
  8
0
100
AcDbLine
 10
235.093912
 20
354.311963
 30
0.0
 11
232.787912
 21
356.617963
 31
0.0
  0
LINE
  5
125E
330
12D3
100
AcDbEntity
  8
0
100
AcDbLine
 10
232.787912
 20
56.005963
 30
0.0
 11
232.787912
 21
171.311963
 31
0.0
  0
LINE
  5
125F
330
12D3
100
AcDbEntity
  8
0
100
AcDbLine
 10
235.093912
 20
58.311963
 30
0.0
 11
235.093912
 21
354.311963
 31
0.0
  0
LINE
  5
1260
330
12D3
100
AcDbEntity
  8
0
100
AcDbLine
 10
245.094912
 20
68.31196300000001
 30
0.0
 11
245.094912
 21
344.311963
 31
0.0
  0
LINE
  5
1261
330
12D3
100
AcDbEntity
  8
0
100
AcDbLine
 10
233.940912
 20
170.503963
 30
0.0
 11
233.940912
 21
242.118963
 31
0.0
  0
LINE
  5
1262
330
12D3
100
AcDbEntity
  8
0
100
AcDbLine
 10
217.787912
 20
187.019963
 30
0.0
 11
217.787912
 21
225.602963
 31
0.0
  0
LINE
  5
1263
330
12D3
100
AcDbEntity
  8
0
100
AcDbLine
 10
233.940912
 20
242.118963
 30
0.0
 11
222.052912
 21
233.794963
 31
0.0
  0
LINE
  5
1264
330
12D3
100
AcDbEntity
  8
0
100
AcDbLine
 10
233.940912
 20
170.503963
 30
0.0
 11
222.052912
 21
178.828963
 31
0.0
  0
LINE
  5
1265
330
12D3
100
AcDbEntity
  8
0
100
AcDbLine
 10
232.787912
 20
241.311963
 30
0.0
 11
232.787912
 21
356.617963
 31
0.0
  0
ARC
  5
1266
330
12D3
100
AcDbEntity
  8
0
100
AcDbCircle
 10
227.787912
 20
225.602963
 30
0.0
 40
10.0
100
AcDbArc
 50
125.0
 51
180.0
  0
ARC
  5
1267
330
12D3
100
AcDbEntity
  8
0
100
AcDbCircle
 10
227.787912
 20
187.019963
 30
0.0
 40
10.0
100
AcDbArc
 50
180.0
 51
235.0
  0
LINE
  5
1268
330
12D3
100
AcDbEntity
  8
0
100
AcDbLine
 10
532.247912
 20
242.118963
 30
0.0
 11
532.247912
 21
170.503963
 31
0.0
  0
LINE
  5
1269
330
12D3
100
AcDbEntity
  8
0
100
AcDbLine
 10
548.400912
 20
225.602963
 30
0.0
 11
548.400912
 21
187.019963
 31
0.0
  0
LINE
  5
126A
330
12D3
100
AcDbEntity
  8
0
100
AcDbLine
 10
532.247912
 20
170.503963
 30
0.0
 11
544.1359119999999
 21
178.828963
 31
0.0
  0
LINE
  5
126B
330
12D3
100
AcDbEntity
  8
0
100
AcDbLine
 10
532.247912
 20
242.118963
 30
0.0
 11
544.1359119999999
 21
233.793963
 31
0.0
  0
ARC
  5
126C
330
12D3
100
AcDbEntity
  8
0
100
AcDbCircle
 10
538.400912
 20
187.019963
 30
0.0
 40
10.0
100
AcDbArc
 50
305.0
 51
0.0
  0
ARC
  5
126D
330
12D3
100
AcDbEntity
  8
0
100
AcDbCircle
 10
538.400912
 20
225.602963
 30
0.0
 40
10.0
100
AcDbArc
 50
0.0
 51
55.0
  0
LINE
  5
126E
330
12D3
100
AcDbEntity
  8
0
100
AcDbLine
 10
533.4009120000001
 20
241.311963
 30
0.0
 11
533.4009120000001
 21
356.617963
 31
0.0
  0
LINE
  5
126F
330
12D3
100
AcDbEntity
  8
0
100
AcDbLine
 10
418.901912
 20
57.157963
 30
0.0
 11
347.286912
 21
57.157963
 31
0.0
  0
LINE
  5
1270
330
12D3
100
AcDbEntity
  8
0
100
AcDbLine
 10
402.385912
 20
41.005963
 30
0.0
 11
363.802912
 21
41.005963
 31
0.0
  0
LINE
  5
1271
330
12D3
100
AcDbEntity
  8
0
100
AcDbLine
 10
347.286912
 20
57.158963
 30
0.0
 11
355.610912
 21
45.26996299999999
 31
0.0
  0
LINE
  5
1272
330
12D3
100
AcDbEntity
  8
0
100
AcDbLine
 10
418.901912
 20
57.157963
 30
0.0
 11
410.5769119999999
 21
45.26996299999999
 31
0.0
  0
ARC
  5
1273
330
12D3
100
AcDbEntity
  8
0
100
AcDbCircle
 10
363.802912
 20
51.005963
 30
0.0
 40
10.0
100
AcDbArc
 50
215.0
 51
270.0
  0
ARC
  5
1274
330
12D3
100
AcDbEntity
  8
0
100
AcDbCircle
 10
402.385912
 20
51.005963
 30
0.0
 40
10.0
100
AcDbArc
 50
270.0
 51
325.0
  0
LINE
  5
1275
330
12D3
100
AcDbEntity
  8
0
100
AcDbLine
 10
347.286912
 20
355.464963
 30
0.0
 11
418.901912
 21
355.464963
 31
0.0
  0
LINE
  5
1276
330
12D3
100
AcDbEntity
  8
0
100
AcDbLine
 10
363.802912
 20
371.617963
 30
0.0
 11
402.385912
 21
371.617963
 31
0.0
  0
LINE
  5
1277
330
12D3
100
AcDbEntity
  8
0
100
AcDbLine
 10
418.901912
 20
355.464963
 30
0.0
 11
410.5769119999999
 21
367.353963
 31
0.0
  0
LINE
  5
1278
330
12D3
100
AcDbEntity
  8
0
100
AcDbLine
 10
347.287912
 20
355.464963
 30
0.0
 11
355.611912
 21
367.352963
 31
0.0
  0
ARC
  5
1279
330
12D3
100
AcDbEntity
  8
0
100
AcDbCircle
 10
402.385912
 20
361.617963
 30
0.0
 40
10.0
100
AcDbArc
 50
35.0
 51
90.0
  0
ARC
  5
127A
330
12D3
100
AcDbEntity
  8
0
100
AcDbCircle
 10
363.802912
 20
361.617963
 30
0.0
 40
10.0
100
AcDbArc
 50
90.0
 51
145.0
  0
LINE
  5
127B
330
12D3
100
AcDbEntity
  8
0
100
AcDbLine
 10
348.094912
 20
56.005963
 30
0.0
 11
232.787912
 21
56.005963
 31
0.0
  0
LINE
  5
127C
330
12D3
100
AcDbEntity
  8
0
100
AcDbLine
 10
348.094912
 20
356.617963
 30
0.0
 11
232.787912
 21
356.617963
 31
0.0
  0
ARC
  5
127D
330
12D3
100
AcDbEntity
  8
0
100
AcDbCircle
 10
383.094912
 20
206.311963
 30
0.0
 40
92.0
100
AcDbArc
 50
32.024
 51
47.63
  0
LINE
  5
127E
330
12D3
100
AcDbEntity
  8
0
100
AcDbLine
 10
445.094912
 20
274.196963
 30
0.0
 11
445.094912
 21
316.811963
 31
0.0
  0
LINE
  5
127F
330
12D3
100
AcDbEntity
  8
0
100
AcDbLine
 10
410.094912
 20
294.056963
 30
0.0
 11
410.094912
 21
316.811963
 31
0.0
  0
LINE
  5
1280
330
12D3
100
AcDbEntity
  8
0
100
AcDbLine
 10
375.094912
 20
297.769963
 30
0.0
 11
375.094912
 21
316.811963
 31
0.0
  0
LINE
  5
1281
330
12D3
100
AcDbEntity
  8
0
100
AcDbLine
 10
340.094912
 20
287.424963
 30
0.0
 11
340.094912
 21
316.811963
 31
0.0
  0
LINE
  5
1282
330
12D3
100
AcDbEntity
  8
0
100
AcDbLine
 10
305.094912
 20
254.737963
 30
0.0
 11
305.094912
 21
316.811963
 31
0.0
  0
ARC
  5
1283
330
12D3
100
AcDbEntity
  8
0
100
AcDbCircle
 10
383.094912
 20
206.311963
 30
0.0
 40
92.0
100
AcDbArc
 50
62.135
 51
72.934
  0
ARC
  5
1284
330
12D3
100
AcDbEntity
  8
0
100
AcDbCircle
 10
383.094912
 20
206.311963
 30
0.0
 40
92.0
100
AcDbArc
 50
85.011
 51
94.98899999999999
  0
ARC
  5
1285
330
12D3
100
AcDbEntity
  8
0
100
AcDbCircle
 10
383.094912
 20
206.311963
 30
0.0
 40
92.0
100
AcDbArc
 50
107.066
 51
117.865
  0
ARC
  5
1286
330
12D3
100
AcDbEntity
  8
0
100
AcDbCircle
 10
383.094912
 20
206.311963
 30
0.0
 40
92.0
100
AcDbArc
 50
132.37
 51
147.976
  0
ARC
  5
1287
330
12D3
100
AcDbEntity
  8
0
100
AcDbCircle
 10
383.094912
 20
206.311963
 30
0.0
 40
92.0
100
AcDbArc
 50
212.024
 51
227.63
  0
ARC
  5
1288
330
12D3
100
AcDbEntity
  8
0
100
AcDbCircle
 10
383.094912
 20
206.311963
 30
0.0
 40
92.0
100
AcDbArc
 50
242.1
 51
252.934
  0
ARC
  5
1289
330
12D3
100
AcDbEntity
  8
0
100
AcDbCircle
 10
383.094912
 20
206.311963
 30
0.0
 40
92.0
100
AcDbArc
 50
265.011
 51
274.989
  0
ARC
  5
128A
330
12D3
100
AcDbEntity
  8
0
100
AcDbCircle
 10
383.094912
 20
206.311963
 30
0.0
 40
92.0
100
AcDbArc
 50
287.066
 51
297.865
  0
ARC
  5
128B
330
12D3
100
AcDbEntity
  8
0
100
AcDbCircle
 10
383.094912
 20
206.311963
 30
0.0
 40
92.0
100
AcDbArc
 50
312.37
 51
327.976
  0
DIMENSION
  5
1296
330
12D3
100
AcDbEntity
  8
5
100
AcDbDimension
  2
*D13
 10
461.0949119999999
 20
404.3119629999999
 30
0.0
 11
522.4039671181102
 21
416.061963
 31
0.0
 70
    32
  1
16
 71
     5
 42
16.0
  3
GEN-ISO
100
AcDbAlignedDimension
 13
445.094912
 23
316.811963
 33
0.0
 14
461.0949119999999
 24
316.811963
 34
0.0
100
AcDbRotatedDimension
1001
ACAD
1000
DSTYLE
1002
{
1070
    41
1040
5.0
1002
}
  0
INSERT
  5
1364
330
12D3
100
AcDbEntity
  8
0
100
AcDbBlockReference
  2
KATALOG_LEER
 10
251.839706
 20
11.304483
 30
0.0
 41
5.0
 42
5.0
 43
5.0
1001
GENIUS_GENOREF_13
1005
1365
  0
POINT
  5
1365
330
12D3
100
AcDbEntity
  8
0
 60
     1
100
AcDbPoint
 10
0.0
 20
0.0
 30
0.0
1001
GENIUS_GENOBJ-N-TIT_13
1002
{
1000
OWNER
1000
GEN
1002
}
1001
GENIUS_GENOENT_13
1002
{
1000
MYREF
1005
1365
1002
}
1002
{
1000
GRP
1005
0
1002
}
1001
GENIUS_GENOLIS_13
1002
{
1000
ENT
1005
1364
1002
}
1001
GENIUS_GENTITLE_13
1002
{
1000
SCALE
1000
1:5
1002
}
1002
{
1000
BORDER
1000
KATALOG
1002
}
1002
{
1000
TITLE
1000
KATALOG_LEER
1002
}
1002
{
1000
UNCHG
1002
{
1000
GEN-TITLE-SCA
1000
GEN-TITLE-SIZ
1002
}
1002
}
1002
{
1000
HRA
1005
135D
1002
}
1002
{
1000
HTIT
1005
1364
1002
}
1002
{
1000
GENIUSID
1005
1365
1002
}
1001
GENIUS_GENODEF_13
1002
{
1000
HIER
1070
     1
1002
}
1002
{
1000
MANEDIT
1070
     1
1002
}
1002
{
1000
NOSEL
1070
     0
1002
}
1002
{
1000
BEHIND
1070
     0
1002
}
1002
{
1000
REACTOR
1002
}
  0
ENDSEC
  0
SECTION
  2
OBJECTS
  0
DICTIONARY
  5
12C7
330
0
100
AcDbDictionary
281
     1
  3
ACAD_COLOR
350
1482
  3
ACAD_GROUP
350
12C8
  3
ACAD_LAYOUT
350
1485
  3
ACAD_MATERIAL
350
1481
  3
ACAD_MLINESTYLE
350
12D6
  3
ACAD_PLOTSETTINGS
350
1486
  3
ACAD_PLOTSTYLENAME
350
147F
  3
ACAD_TABLESTYLE
350
1483
  3
ACDBHEADERROUNDTRIPXREC
350
1586
  3
AcDbVariableDictionary
350
1581
  3
AcmDictionary
350
14E4
  3
AMG
350
148A
  3
AMGSNAPSETTINGS
350
1551
  0
DICTIONARY
  5
1482
102
{ACAD_REACTORS
330
12C7
102
}
330
12C7
100
AcDbDictionary
281
     1
  0
DICTIONARY
  5
12C8
102
{ACAD_REACTORS
330
12C7
102
}
330
12C7
100
AcDbDictionary
281
     1
  0
DICTIONARY
  5
1485
102
{ACAD_REACTORS
330
12C7
102
}
330
12C7
100
AcDbDictionary
281
     1
  3
Layout1
350
1488
  3
Model
350
1487
  0
DICTIONARY
  5
1481
102
{ACAD_REACTORS
330
12C7
102
}
330
12C7
100
AcDbDictionary
281
     1
  0
DICTIONARY
  5
12D6
102
{ACAD_REACTORS
330
12C7
102
}
330
12C7
100
AcDbDictionary
281
     1
  3
STANDARD
350
12D7
  0
DICTIONARY
  5
1486
102
{ACAD_REACTORS
330
12C7
102
}
330
12C7
100
AcDbDictionary
281
     1
  0
ACDBDICTIONARYWDFLT
  5
147F
102
{ACAD_REACTORS
330
12C7
102
}
330
12C7
100
AcDbDictionary
281
     1
  3
Normal
350
1480
100
AcDbDictionaryWithDefault
340
1480
  0
DICTIONARY
  5
1483
102
{ACAD_REACTORS
330
12C7
102
}
330
12C7
100
AcDbDictionary
281
     1
  3
Standard
350
1484
  0
DICTIONARY
  5
1586
102
{ACAD_REACTORS
330
12C7
102
}
330
12C7
100
AcDbDictionary
281
     1
  0
DICTIONARY
  5
1581
102
{ACAD_REACTORS
330
12C7
102
}
330
12C7
100
AcDbDictionary
281
     1
  3
CTABLESTYLE
350
1582
  3
DIMASSOC
350
1583
  3
PROJECTNAME
350
1584
  0
DICTIONARY
  5
14E4
102
{ACAD_REACTORS
330
12C7
102
}
330
12C7
100
AcDbDictionary
281
     1
  3
AcmStdDictionary
350
14EF
  3
AMDTSECTSYM_ARROWCOLOR
350
1512
  0
DICTIONARY
  5
148A
102
{ACAD_REACTORS
330
12C7
102
}
330
12C7
100
AcDbDictionary
281
     1
  0
DICTIONARY
  5
1551
102
{ACAD_REACTORS
330
12C7
102
}
330
12C7
100
AcDbDictionary
281
     1
  0
LAYOUT
  5
1488
102
{ACAD_XDICTIONARY
360
1589
102
}
102
{ACAD_REACTORS
330
1485
102
}
330
1485
100
AcDbPlotSettings
  1

  2
Xerox Document Centre CS50 PS
  4

  6

 40
0.0
 41
0.0
 42
0.0
 43
0.0
 44
0.0
 45
0.0
 46
0.0
 47
0.0
 48
0.0
 49
0.0
140
0.0
141
0.0
142
1.0
143
1.0
 70
   688
 72
     0
 73
     0
 74
     5
  7

 75
    16
147
1.0
148
0.0
149
0.0
100
AcDbLayout
  1
Layout1
 70
     1
 71
     1
 10
0.0
 20
0.0
 11
419.8999999999999
 21
296.9
 12
0.0
 22
0.0
 32
0.0
 14
0.0
 24
0.0
 34
0.0
 15
419.8999999999999
 25
296.9
 35
0.0
146
0.0
 13
0.0
 23
0.0
 33
0.0
 16
1.0
 26
0.0
 36
0.0
 17
0.0
 27
1.0
 37
0.0
 76
     0
330
12D0
  0
LAYOUT
  5
1487
102
{ACAD_XDICTIONARY
360
1587
102
}
102
{ACAD_REACTORS
330
1485
102
}
330
1485
100
AcDbPlotSettings
  1

  2
Xerox Document Centre CS50 PS
  4

  6

 40
0.0
 41
0.0
 42
0.0
 43
0.0
 44
0.0
 45
0.0
 46
0.0
 47
0.0
 48
0.0
 49
0.0
140
0.0
141
0.0
142
1.0
143
1.0
 70
  1712
 72
     0
 73
     0
 74
     0
  7

 75
     0
147
1.0
148
0.0
149
0.0
100
AcDbLayout
  1
Model
 70
     1
 71
     0
 10
0.0
 20
0.0
 11
12.0
 21
9.0
 12
0.0
 22
0.0
 32
0.0
 14
0.0
 24
0.0
 34
0.0
 15
0.0
 25
0.0
 35
0.0
146
0.0
 13
0.0
 23
0.0
 33
0.0
 16
1.0
 26
0.0
 36
0.0
 17
0.0
 27
1.0
 37
0.0
 76
     0
330
12D3
  0
MLINESTYLE
  5
12D7
102
{ACAD_REACTORS
330
12D6
102
}
330
12D6
100
AcDbMlineStyle
  2
STANDARD
 70
     0
  3

 62
   256
 51
90.0
 52
90.0
 71
     2
 49
0.5
 62
   256
  6
BYLAYER
 49
-0.5
 62
   256
  6
BYLAYER
  0
ACDBPLACEHOLDER
  5
1480
102
{ACAD_REACTORS
330
147F
102
}
330
147F
  0
TABLESTYLE
  5
1484
102
{ACAD_REACTORS
330
1483
102
}
330
1483
100
AcDbTableStyle
  3
Standard
 70
     0
 71
     0
 40
1.5
 41
1.5
280
     0
281
     0
  7
STANDARD
140
4.5
170
     2
 62
     0
 63
     7
283
     0
274
    -2
284
     1
 64
     0
275
    -2
285
     1
 65
     0
276
    -2
286
     1
 66
     0
277
    -2
287
     1
 67
     0
278
    -2
288
     1
 68
     0
279
    -2
289
     1
 69
     0
  7
STANDARD
140
6.0
170
     5
 62
     0
 63
     7
283
     0
274
    -2
284
     1
 64
     0
275
    -2
285
     1
 65
     0
276
    -2
286
     1
 66
     0
277
    -2
287
     1
 67
     0
278
    -2
288
     1
 68
     0
279
    -2
289
     1
 69
     0
  7
STANDARD
140
4.5
170
     5
 62
     0
 63
     7
283
     0
274
    -2
284
     1
 64
     0
275
    -2
285
     1
 65
     0
276
    -2
286
     1
 66
     0
277
    -2
287
     1
 67
     0
278
    -2
288
     1
 68
     0
279
    -2
289
     1
 69
     0
  0
DICTIONARYVAR
  5
1582
102
{ACAD_REACTORS
330
1581
102
}
330
1581
100
DictionaryVariables
280
     0
  1
STANDARD
  0
DICTIONARYVAR
  5
1583
102
{ACAD_REACTORS
330
1581
102
}
330
1581
100
DictionaryVariables
280
     0
  1
1
  0
DICTIONARYVAR
  5
1584
102
{ACAD_REACTORS
330
1581
102
}
330
1581
100
DictionaryVariables
280
     0
  1

  0
DICTIONARY
  5
14EF
102
{ACAD_REACTORS
330
14E4
102
}
330
14E4
100
AcDbDictionary
281
     1
  0
XRECORD
  5
1512
102
{ACAD_REACTORS
330
14E4
102
}
330
14E4
100
AcDbXrecord
280
     1
 90
-1023410169
  0
DICTIONARY
  5
1589
330
1488
100
AcDbDictionary
280
     1
281
     1
  3
ACAD_XREC_ROUNDTRIP
360
158A
  0
DICTIONARY
  5
1587
330
1487
100
AcDbDictionary
280
     1
281
     1
  3
ACAD_XREC_ROUNDTRIP
360
1588
  0
XRECORD
  5
158A
102
{ACAD_REACTORS
330
1589
102
}
330
1589
100
AcDbXrecord
280
     1
102
SHADEPLOT
 70
     0
102
SHADEPLOTRESLEVEL
 70
     2
102
SHADEPLOTCUSTOMDPI
 70
   300
  0
XRECORD
  5
1588
102
{ACAD_REACTORS
330
1587
102
}
330
1587
100
AcDbXrecord
280
     1
102
SHADEPLOT
 70
     0
102
SHADEPLOTRESLEVEL
 70
     2
102
SHADEPLOTCUSTOMDPI
 70
   300
  0
ENDSEC
  0
EOF
