  0
SECTION
  2
HEADER
  9
$ACADVER
  1
AC1015
  9
$ACADMAINTVER
 70
    20
  9
$DWGCODEPAGE
  3
ANSI_1252
  9
$INSBASE
 10
0.0
 20
0.0
 30
0.0
  9
$EXTMIN
 10
211.6951015681202
 20
129.1030909739238
 30
-0.0015258207003583
  9
$EXTMAX
 10
502.4894732428824
 20
606.8710346436955
 30
0.0000000349246037
  9
$LIMMIN
 10
0.0
 20
0.0
  9
$LIMMAX
 10
1050.0
 20
1050.0
  9
$ORTHOMODE
 70
     0
  9
$REGENMODE
 70
     1
  9
$FILLMODE
 70
     1
  9
$QTEXTMODE
 70
     0
  9
$MIRRTEXT
 70
     0
  9
$LTSCALE
 40
5.0
  9
$ATTMODE
 70
     1
  9
$TEXTSIZE
 40
7.0
  9
$TRACEWID
 40
0.05
  9
$TEXTSTYLE
  7
STANDARD
  9
$CLAYER
  8
0
  9
$CELTYPE
  6
BYLAYER
  9
$CECOLOR
 62
   256
  9
$CELTSCALE
 40
1.0
  9
$DISPSILH
 70
     0
  9
$DIMSCALE
 40
5.0
  9
$DIMASZ
 40
2.5
  9
$DIMEXO
 40
1.0
  9
$DIMDLI
 40
7.0
  9
$DIMRND
 40
0.0
  9
$DIMDLE
 40
0.0
  9
$DIMEXE
 40
1.0
  9
$DIMTP
 40
0.1
  9
$DIMTM
 40
0.1
  9
$DIMTXT
 40
3.5
  9
$DIMCEN
 40
0.0
  9
$DIMTSZ
 40
0.0
  9
$DIMTOL
 70
     0
  9
$DIMLIM
 70
     0
  9
$DIMTIH
 70
     0
  9
$DIMTOH
 70
     0
  9
$DIMSE1
 70
     0
  9
$DIMSE2
 70
     0
  9
$DIMTAD
 70
     1
  9
$DIMZIN
 70
    12
  9
$DIMBLK
  1

  9
$DIMASO
 70
     1
  9
$DIMSHO
 70
     1
  9
$DIMPOST
  1

  9
$DIMAPOST
  1
"
  9
$DIMALT
 70
     0
  9
$DIMALTD
 70
     2
  9
$DIMALTF
 40
0.03937
  9
$DIMLFAC
 40
1.0
  9
$DIMTOFL
 70
     1
  9
$DIMTVP
 40
0.0
  9
$DIMTIX
 70
     0
  9
$DIMSOXD
 70
     0
  9
$DIMSAH
 70
     0
  9
$DIMBLK1
  1

  9
$DIMBLK2
  1

  9
$DIMSTYLE
  2
GEN-ISO
  9
$DIMCLRD
 70
   256
  9
$DIMCLRE
 70
   256
  9
$DIMCLRT
 70
     2
  9
$DIMTFAC
 40
0.71
  9
$DIMGAP
 40
0.6
  9
$DIMJUST
 70
     0
  9
$DIMSD1
 70
     0
  9
$DIMSD2
 70
     0
  9
$DIMTOLJ
 70
     0
  9
$DIMTZIN
 70
     0
  9
$DIMALTZ
 70
     0
  9
$DIMALTTZ
 70
     0
  9
$DIMUPT
 70
     0
  9
$DIMDEC
 70
     2
  9
$DIMTDEC
 70
     3
  9
$DIMALTU
 70
     2
  9
$DIMALTTD
 70
     4
  9
$DIMTXSTY
  7
STANDARD
  9
$DIMAUNIT
 70
     0
  9
$DIMADEC
 70
     0
  9
$DIMALTRND
 40
0.0
  9
$DIMAZIN
 70
     0
  9
$DIMDSEP
 70
    46
  9
$DIMATFIT
 70
     3
  9
$DIMFRAC
 70
     0
  9
$DIMLDRBLK
  1

  9
$DIMLUNIT
 70
     2
  9
$DIMLWD
 70
    -2
  9
$DIMLWE
 70
    -2
  9
$DIMTMOVE
 70
     0
  9
$LUNITS
 70
     2
  9
$LUPREC
 70
     2
  9
$SKETCHINC
 40
0.1
  9
$FILLETRAD
 40
12.5
  9
$AUNITS
 70
     0
  9
$AUPREC
 70
     2
  9
$MENU
  1
.
  9
$ELEVATION
 40
0.0
  9
$PELEVATION
 40
0.0
  9
$THICKNESS
 40
0.0
  9
$LIMCHECK
 70
     0
  9
$CHAMFERA
 40
12.5
  9
$CHAMFERB
 40
12.5
  9
$CHAMFERC
 40
0.0
  9
$CHAMFERD
 40
0.0
  9
$SKPOLY
 70
     0
  9
$TDCREATE
 40
2451295.587109317
  9
$TDUCREATE
 40
2451295.503775984
  9
$TDUPDATE
 40
2454019.930761898
  9
$TDUUPDATE
 40
2454019.847428565
  9
$TDINDWG
 40
0.0089870833
  9
$TDUSRTIMER
 40
0.0089870833
  9
$USRTIMER
 70
     1
  9
$ANGBASE
 50
0.0
  9
$ANGDIR
 70
     0
  9
$PDMODE
 70
     0
  9
$PDSIZE
 40
0.0
  9
$PLINEWID
 40
0.0
  9
$SPLFRAME
 70
     0
  9
$SPLINETYPE
 70
     6
  9
$SPLINESEGS
 70
     8
  9
$HANDSEED
  5
1452
  9
$SURFTAB1
 70
     6
  9
$SURFTAB2
 70
     6
  9
$SURFTYPE
 70
     6
  9
$SURFU
 70
     6
  9
$SURFV
 70
     6
  9
$UCSBASE
  2

  9
$UCSNAME
  2

  9
$UCSORG
 10
0.0
 20
0.0
 30
0.0
  9
$UCSXDIR
 10
1.0
 20
0.0
 30
0.0
  9
$UCSYDIR
 10
0.0
 20
1.0
 30
0.0
  9
$UCSORTHOREF
  2

  9
$UCSORTHOVIEW
 70
     0
  9
$UCSORGTOP
 10
0.0
 20
0.0
 30
0.0
  9
$UCSORGBOTTOM
 10
0.0
 20
0.0
 30
0.0
  9
$UCSORGLEFT
 10
0.0
 20
0.0
 30
0.0
  9
$UCSORGRIGHT
 10
0.0
 20
0.0
 30
0.0
  9
$UCSORGFRONT
 10
0.0
 20
0.0
 30
0.0
  9
$UCSORGBACK
 10
0.0
 20
0.0
 30
0.0
  9
$PUCSBASE
  2

  9
$PUCSNAME
  2

  9
$PUCSORG
 10
0.0
 20
0.0
 30
0.0
  9
$PUCSXDIR
 10
1.0
 20
0.0
 30
0.0
  9
$PUCSYDIR
 10
0.0
 20
1.0
 30
0.0
  9
$PUCSORTHOREF
  2

  9
$PUCSORTHOVIEW
 70
     0
  9
$PUCSORGTOP
 10
0.0
 20
0.0
 30
0.0
  9
$PUCSORGBOTTOM
 10
0.0
 20
0.0
 30
0.0
  9
$PUCSORGLEFT
 10
0.0
 20
0.0
 30
0.0
  9
$PUCSORGRIGHT
 10
0.0
 20
0.0
 30
0.0
  9
$PUCSORGFRONT
 10
0.0
 20
0.0
 30
0.0
  9
$PUCSORGBACK
 10
0.0
 20
0.0
 30
0.0
  9
$USERI1
 70
     0
  9
$USERI2
 70
     0
  9
$USERI3
 70
     0
  9
$USERI4
 70
     0
  9
$USERI5
 70
     0
  9
$USERR1
 40
0.0
  9
$USERR2
 40
0.0
  9
$USERR3
 40
0.0
  9
$USERR4
 40
0.0
  9
$USERR5
 40
0.0
  9
$WORLDVIEW
 70
     1
  9
$SHADEDGE
 70
     3
  9
$SHADEDIF
 70
    70
  9
$TILEMODE
 70
     1
  9
$MAXACTVP
 70
    48
  9
$PINSBASE
 10
0.0
 20
0.0
 30
0.0
  9
$PLIMCHECK
 70
     0
  9
$PEXTMIN
 10
0.0
 20
0.0
 30
0.0
  9
$PEXTMAX
 10
133.002
 20
180.693
 30
0.0
  9
$PLIMMIN
 10
0.0
 20
0.0
  9
$PLIMMAX
 10
133.002
 20
180.693
  9
$UNITMODE
 70
     0
  9
$VISRETAIN
 70
     1
  9
$PLINEGEN
 70
     1
  9
$PSLTSCALE
 70
     1
  9
$TREEDEPTH
 70
 -3020
  9
$CMLSTYLE
  2
STANDARD
  9
$CMLJUST
 70
     0
  9
$CMLSCALE
 40
1.0
  9
$PROXYGRAPHICS
 70
     1
  9
$MEASUREMENT
 70
     1
  9
$CELWEIGHT
370
    -1
  9
$ENDCAPS
280
     0
  9
$JOINSTYLE
280
     0
  9
$LWDISPLAY
290
     0
  9
$INSUNITS
 70
     0
  9
$HYPERLINKBASE
  1

  9
$STYLESHEET
  1

  9
$XEDIT
290
     1
  9
$CEPSNTYPE
380
     0
  9
$PSTYLEMODE
290
     1
  9
$FINGERPRINTGUID
  2
{407141B9-B9D3-41E4-87D0-536F72E26C08}
  9
$VERSIONGUID
  2
{94C629C7-5798-4892-93B3-E12E1B72E7AC}
  9
$EXTNAMES
290
     1
  9
$PSVPSCALE
 40
0.0
  9
$OLESTARTUP
290
     0
  0
ENDSEC
  0
SECTION
  2
CLASSES
  0
CLASS
  1
ARCALIGNEDTEXT
  2
AcDbArcAlignedText
  3
ATEXT
 90
        0
280
     0
281
     1
  0
CLASS
  1
ACDBDICTIONARYWDFLT
  2
AcDbDictionaryWithDefault
  3
ObjectDBX Classes
 90
        0
280
     0
281
     0
  0
CLASS
  1
TABLESTYLE
  2
AcDbTableStyle
  3
ObjectDBX Classes
 90
     2047
280
     0
281
     0
  0
CLASS
  1
AMGSETTINGSOBJ
  2
AmgSettingsObj
  3
"AcadM|Product Description: AutoCAD Mechanical 2000|Company: Autodesk"
 90
        0
280
     0
281
     0
  0
CLASS
  1
ACME_DOCUMENT
  2
AcMeDbDoc
  3
AcMeServices
 90
        0
280
     0
281
     0
  0
CLASS
  1
ACMESCOPE
  2
AcMeScope
  3
AcMeServices
 90
        0
280
     0
281
     0
  0
CLASS
  1
ACMECOMMANDHISTORY
  2
AcMeCommandHistory
  3
AcMeServices
 90
        0
280
     0
281
     0
  0
CLASS
  1
ACIMSYSVARMAN
  2
AcImSysVarManager
  3
AcMeServices
 90
        0
280
     0
281
     0
  0
CLASS
  1
ACIMINTSYSVAR
  2
AcImIntSysVar
  3
AcMeServices
 90
        0
280
     0
281
     0
  0
CLASS
  1
ACMEDRAWINGMAN
  2
AcMeDrawingMan
  3
AcMeServices
 90
        0
280
     0
281
     0
  0
CLASS
  1
ACMEVIEW
  2
AcMeView
  3
AcMeServices
 90
        0
280
     0
281
     0
  0
CLASS
  1
ACDBENTITYCACHE
  2
AcMeEntityCache
  3
AcMeServices
 90
        0
280
     0
281
     0
  0
CLASS
  1
GSMANAGER
  2
AcMeGSManager
  3
AcMeServices
 90
        0
280
     0
281
     0
  0
CLASS
  1
AMDTINTERNALREACTOR
  2
AmdtInternalReactor
  3
AcMeServices
 90
        0
280
     0
281
     0
  0
CLASS
  1
ACMESTATEMGR
  2
AcMeStateMgr
  3
AcMeServices
 90
        0
280
     0
281
     0
  0
CLASS
  1
ACGREFMASTER
  2
AcGrefMaster
  3
AcAttribServices
 90
        0
280
     0
281
     0
  0
CLASS
  1
AM_DRAWING_MGR
  2
AcDmDwgMgr
  3
AcMechDwgViewMgmt
 90
        0
280
     0
281
     0
  0
CLASS
  1
AM_DWG_DOCUMENT
  2
AcDmDwgDocument
  3
AcMechDwgViewMgmt
 90
        0
280
     0
281
     0
  0
CLASS
  1
AM_DWG_SHEET
  2
AcDmSheet
  3
AcMechDwgViewMgmt
 90
        0
280
     0
281
     0
  0
CLASS
  1
AM_VIEWDIMPARMAP
  2
AcDmViewDimParMap
  3
AcMechDwgViewMgmt
 90
        0
280
     0
281
     0
  0
CLASS
  1
ACIMREALSYSVAR
  2
AcImRealSysVar
  3
AcMeServices
 90
        0
280
     0
281
     0
  0
CLASS
  1
AM_DWGMGR_NAME
  2
AcDmDwgMgrName
  3
AcMechDwgViewMgmt
 90
        0
280
     0
281
     0
  0
CLASS
  1
ACME_DATABASE
  2
AcMeDbDatabase
  3
AcMeServices
 90
        0
280
     0
281
     0
  0
CLASS
  1
ACRFINSADJUSTERMGR
  2
AcRfInsAdjusterMgr
  3
AcMeServices
 90
        0
280
     0
281
     0
  0
CLASS
  1
ACGREFACADMASTER
  2
AcGrefacadMaster
  3
AcGrefServices
 90
        0
280
     0
281
     0
  0
CLASS
  1
AMDTMENUSTATEMGR
  2
AmdtMenuStateMgr
  3
McadcomServices
 90
        0
280
     0
281
     0
  0
CLASS
  1
AMDTMCOMMENUSTATE
  2
AmdtMcomMenuState
  3
McadcomServices
 90
        0
280
     0
281
     0
  0
CLASS
  1
AMIMASTER
  2
AmiMaster
  3
AmiServices
 90
        0
280
     0
281
     0
  0
CLASS
  1
MAPIAMMOUDLE
  2
MApiAmModule
  3
MApiAmServices
 90
        0
280
     0
281
     0
  0
CLASS
  1
ACIMSTRSYSVAR
  2
AcImStrSysVar
  3
AcMeServices
 90
        0
280
     0
281
     0
  0
CLASS
  1
AMDTADMENUSTATE
  2
AmdtAdMenuState
  3
DesignerServices
 90
        0
280
     0
281
     0
  0
CLASS
  1
ADAPPL
  2
AcAdAppl
  3
DesignerServices
 90
        0
280
     0
281
     0
  0
CLASS
  1
DEPMGR
  2
AcAdDepMgr
  3
DesignerServices
 90
        0
280
     0
281
     0
  0
CLASS
  1
PARAMMGR
  2
AcAdParamMgr
  3
DesignerServices
 90
        0
280
     0
281
     0
  0
CLASS
  1
PARAMSCOPE
  2
AcAdParamScope
  3
DesignerServices
 90
        0
280
     0
281
     0
  0
CLASS
  1
NAMEDAPPL
  2
AcAdNamedAppl
  3
DesignerServices
 90
        0
280
     0
281
     0
  0
CLASS
  1
AMDTDMMENUSTATE
  2
AmdtDmMenuState
  3
AcMechDwgViewMgmt
 90
        0
280
     0
281
     0
  0
CLASS
  1
AMDTAMMENUSTATE
  2
AmdtAmMenuState
  3
DesignerAssemblies
 90
        0
280
     0
281
     0
  0
CLASS
  1
ACAMPROJECT
  2
AcAmProject
  3
DesignerAssemblies
 90
        0
280
     0
281
     0
  0
CLASS
  1
ACAMGRCOMPDEF
  2
AcAmGrCompDef
  3
DesignerAssemblies
 90
        0
280
     0
281
     0
  0
CLASS
  1
ACCMCONTEXT
  2
AcCmContext
  3
DesignerAssemblies
 90
        0
280
     0
281
     0
  0
CLASS
  1
ACAMCOMPDEF
  2
AcAmCompDef
  3
DesignerAssemblies
 90
        0
280
     0
281
     0
  0
CLASS
  1
ACAMCOMPDEFMGR
  2
AcAmCompDefMgr
  3
DesignerAssemblies
 90
        0
280
     0
281
     0
  0
CLASS
  1
AMCONTEXTMGR
  2
AcAmContextMgr
  3
DesignerAssemblies
 90
        0
280
     0
281
     0
  0
CLASS
  1
ACAMCONTEXTMODELER
  2
AcAmContextModeler
  3
DesignerAssemblies
 90
        0
280
     0
281
     0
  0
CLASS
  1
ACMDATADICTIONARY
  2
AcmDataDictionary
  3
"AcmSymBB|Product Description: AutoCAD Mechanical 2004 DX|Company: Autodesk"
 90
        0
280
     0
281
     0
  0
CLASS
  1
CATALOGSTATE
  2
AcAmCatalogState
  3
DesignerAssemblies
 90
        0
280
     0
281
     0
  0
CLASS
  1
ACAMGRCOMPDEFSET
  2
AcAmGrCompDefSet
  3
DesignerAssemblies
 90
        0
280
     0
281
     0
  0
CLASS
  1
AMDTBROWSERDBTAB
  2
AmdtBrowserDbTab
  3
McadcomServices
 90
        0
280
     0
281
     0
  0
CLASS
  1
CBROWSERAPPOBJECT
  2
CBrowserAppObject
  3
McadcomServices
 90
        0
280
     0
281
     0
  0
CLASS
  1
DM_PLACEHOLDER
  2
AcDmSelsetPlaceholder
  3
AcMechDwgViewMgmt
 90
        0
280
     0
281
     0
  0
CLASS
  1
ACMSTANDARDDIN
  2
AcmStandardDIN
  3
"Amdt_StdImp|Product Description: AutoCAD Mechanical 2004 DX|Company: Autodesk"
 90
        0
280
     0
281
     0
  0
CLASS
  1
AMGOBJPROPCFG
  2
AmgObjPropCfg
  3
"AmgLay|Product Description: AutoCAD Mechanical 2000|Company: Autodesk"
 90
        1
280
     0
281
     0
  0
CLASS
  1
AMDTEDGESTANDARDDIN13715
  2
AmdtEdgeStdDIN13715
  3
"Amdt_StdImp|Product Description: AutoCAD Mechanical 2004 DX|Company: Autodesk"
 90
        0
280
     0
281
     0
  0
CLASS
  1
ACMSURFSTANDARDDIN
  2
AcmSurfTextStdDIN
  3
"Amdt_StdImp|Product Description: AutoCAD Mechanical 2004 DX|Company: Autodesk"
 90
        0
280
     0
281
     0
  0
CLASS
  1
ACMFCFSTANDARDDIN
  2
AcmFCFStdDIN
  3
"Amdt_StdImp|Product Description: AutoCAD Mechanical 2004 DX|Company: Autodesk"
 90
        0
280
     0
281
     0
  0
CLASS
  1
ACMWELDSTANDARDDIN
  2
AcmWeldingStdDIN
  3
"Amdt_StdImp|Product Description: AutoCAD Mechanical 2004 DX|Company: Autodesk"
 90
        0
280
     0
281
     0
  0
CLASS
  1
ACMIDSTANDARDDIN
  2
AcmIdStdDIN
  3
"Amdt_StdImp|Product Description: AutoCAD Mechanical 2004 DX|Company: Autodesk"
 90
        0
280
     0
281
     0
  0
CLASS
  1
ACMDATUMSTANDARDDIN
  2
AcmDatumStdDIN
  3
"Amdt_StdImp|Product Description: AutoCAD Mechanical 2004 DX|Company: Autodesk"
 90
        0
280
     0
281
     0
  0
CLASS
  1
ACMBOMSTANDARDDIN
  2
AcmBOMStdDIN
  3
"Amdt_StdImp|Product Description: AutoCAD Mechanical 2004 DX|Company: Autodesk"
 90
        0
280
     0
281
     0
  0
CLASS
  1
ACMDETAILSTANDARDDIN
  2
AmdtDetailSymStdDIN
  3
"Amdt_StdImp|Product Description: AutoCAD Mechanical 2004 DX|Company: Autodesk"
 90
        0
280
     0
281
     0
  0
CLASS
  1
ACMSECTIONSTANDARDDIN
  2
AmdtSectionSymStdDIN
  3
"Amdt_StdImp|Product Description: AutoCAD Mechanical 2004 DX|Company: Autodesk"
 90
        0
280
     0
281
     0
  0
CLASS
  1
ACMCENTERLINESTANDARDDIN
  2
AmdtCenterLineStdDIN
  3
"Amdt_StdImp|Product Description: AutoCAD Mechanical 2004 DX|Company: Autodesk"
 90
        0
280
     0
281
     0
  0
CLASS
  1
ACMTHREADLINESTANDARDDIN
  2
AmdtThreadLineStdDIN
  3
"Amdt_StdImp|Product Description: AutoCAD Mechanical 2004 DX|Company: Autodesk"
 90
        0
280
     0
281
     0
  0
CLASS
  1
ACMNOTESTANDARDDIN
  2
AmdtNoteStdDIN
  3
"Amdt_StdImp|Product Description: AutoCAD Mechanical 2004 DX|Company: Autodesk"
 90
        0
280
     0
281
     0
  0
CLASS
  1
AMDTNOTETEMPLATEDB
  2
AmdtNoteTemplateDB
  3
AMDT_STDIMP_MODULE_NAME
 90
        0
280
     0
281
     0
  0
CLASS
  1
ACAMGLAYSTD
  2
AcAmgLayStd
  3
"AcAmgLayStd|Product Description: AutoCAD Mechanical 2000|Company: Autodesk"
 90
        0
280
     0
281
     0
  0
CLASS
  1
ACAMGDIMSTD
  2
AcAmgDimStd
  3
"AcAmgDimStd|Product Description: AutoCAD Mechanical 2000|Company: Autodesk"
 90
        0
280
     0
281
     0
  0
CLASS
  1
ACAMGHOLECHARTSTDDIN
  2
AcAmgHoleChartStdDIN
  3
ACMSYMBB_MODULE_NAME
 90
        0
280
     0
281
     0
  0
CLASS
  1
ACAMGTITLESTD
  2
AcAmgTitleStd
  3
"TITLEAPP"
 90
        0
280
     0
281
     0
  0
CLASS
  1
ACAMGFILTERDAT
  2
AcAmgFilterDat
  3
"AcadM|Product Description: AutoCAD Mechanical 2000|Company: Autodesk"
 90
        0
280
     0
281
     0
  0
CLASS
  1
DICTIONARYVAR
  2
AcDbDictionaryVar
  3
ObjectDBX Classes
 90
        0
280
     0
281
     0
  0
CLASS
  1
ACDBPLACEHOLDER
  2
AcDbPlaceHolder
  3
ObjectDBX Classes
 90
        0
280
     0
281
     0
  0
CLASS
  1
LAYOUT
  2
AcDbLayout
  3
ObjectDBX Classes
 90
        0
280
     0
281
     0
  0
ENDSEC
  0
SECTION
  2
TABLES
  0
TABLE
  2
VPORT
  5
11DD
330
0
100
AcDbSymbolTable
 70
     4
  0
VPORT
  5
144C
330
11DD
100
AcDbSymbolTableRecord
100
AcDbViewportTableRecord
  2
*Active
 70
     0
 10
0.0
 20
0.0
 11
1.0
 21
1.0
 12
357.0922874055014
 22
367.9870628088097
 13
0.0
 23
0.0
 14
5.0
 24
5.0
 15
50.0
 25
50.0
 16
0.0
 26
0.0
 36
1.0
 17
0.0
 27
0.0
 37
0.0
 40
481.2384129942495
 41
1.494545454545454
 42
50.0
 43
0.0
 44
0.0
 50
0.0
 51
0.0
 71
     0
 72
  1000
 73
     1
 74
     1
 75
     0
 76
     0
 77
     0
 78
     0
281
     0
 65
     0
110
0.0
120
0.0
130
0.0
111
1.0
121
0.0
131
0.0
112
0.0
122
1.0
132
0.0
 79
     0
146
0.0
  0
ENDTAB
  0
TABLE
  2
LTYPE
  5
11DA
330
0
100
AcDbSymbolTable
 70
    22
  0
LTYPE
  5
11E7
330
11DA
100
AcDbSymbolTableRecord
100
AcDbLinetypeTableRecord
  2
BYBLOCK
 70
     0
  3

 72
    65
 73
     0
 40
0.0
  0
LTYPE
  5
11E8
330
11DA
100
AcDbSymbolTableRecord
100
AcDbLinetypeTableRecord
  2
BYLAYER
 70
     0
  3

 72
    65
 73
     0
 40
0.0
  0
LTYPE
  5
11E9
330
11DA
100
AcDbSymbolTableRecord
100
AcDbLinetypeTableRecord
  2
CONTINUOUS
 70
     0
  3
Solid line
 72
    65
 73
     0
 40
0.0
  0
LTYPE
  5
11F8
330
11DA
100
AcDbSymbolTableRecord
100
AcDbLinetypeTableRecord
  2
GEN7
 70
     0
  3
____ _ ____ _ ____ _ ____ _ ____ _ ____ _ ____ _ ____ _ ____ _
 72
    65
 73
     4
 40
22.0
 49
10.75
 74
     0
 49
-3.75
 74
     0
 49
3.75
 74
     0
 49
-3.75
 74
     0
  0
LTYPE
  5
1326
330
11DA
100
AcDbSymbolTableRecord
100
AcDbLinetypeTableRecord
  2
GEN3A
 70
     0
  3
 - - - - -
 72
    65
 73
     2
 40
3.125
 49
2.25
 74
     0
 49
-0.875
 74
     0
  0
LTYPE
  5
1381
330
11DA
100
AcDbSymbolTableRecord
100
AcDbLinetypeTableRecord
  2
HIDDEN
 70
     0
  3
Verdeckt
 72
    65
 73
     2
 40
9.525
 49
6.349999999999999
 74
     0
 49
-3.174999999999999
 74
     0
  0
LTYPE
  5
1382
330
11DA
100
AcDbSymbolTableRecord
100
AcDbLinetypeTableRecord
  2
PHANTOM2
 70
     0
  3
Phantom (.5x) ___ _ _ ___ _ _ ___ _ _ ___ _ _
 72
    65
 73
     6
 40
31.75
 49
15.875
 74
     0
 49
-3.174999999999999
 74
     0
 49
3.174999999999999
 74
     0
 49
-3.174999999999999
 74
     0
 49
3.174999999999999
 74
     0
 49
-3.174999999999999
 74
     0
  0
LTYPE
  5
1383
330
11DA
100
AcDbSymbolTableRecord
100
AcDbLinetypeTableRecord
  2
CENTER
 70
     0
  3
Mitte ____ _ ____ _ ____ _ ____ _ ____ _ ____
 72
    65
 73
     4
 40
50.8
 49
31.75
 74
     0
 49
-6.349999999999999
 74
     0
 49
6.349999999999999
 74
     0
 49
-6.349999999999999
 74
     0
  0
LTYPE
  5
13BA
330
11DA
100
AcDbSymbolTableRecord
100
AcDbLinetypeTableRecord
  2
Amconstr
 70
     0
  3
_______________________
 72
    65
 73
     2
 40
9999.0
 49
9999.0
 74
     0
 49
0.0
 74
     0
  0
LTYPE
  5
13BF
330
11DA
100
AcDbSymbolTableRecord
100
AcDbLinetypeTableRecord
  2
Amzigzag
 70
     0
  3
/\/-/\/-/\/-/\/-/\/-/\/
 72
    65
 73
     2
 40
11.0001
 49
0.0001
 74
     4
 75
   136
340
13BE
 46
0.04
 50
0.0
 44
0.0
 45
0.0
 49
-11.0
 74
     0
  0
LTYPE
  5
13C0
330
11DA
100
AcDbSymbolTableRecord
100
AcDbLinetypeTableRecord
  2
AM_DIN_F_W050
 70
     0
  3
__ __ __ __ __ __ __ __ __ __ __ __ __ __ __
 72
    65
 73
     2
 40
6.25
 49
4.75
 74
     0
 49
-1.5
 74
     0
  0
LTYPE
  5
13C1
330
11DA
100
AcDbSymbolTableRecord
100
AcDbLinetypeTableRecord
  2
AM_DIN_G_W050
 70
     0
  3
____ . ____ . ____ . ____ . ____ . ____ . ____
 72
    65
 73
     4
 40
13.75
 49
9.75
 74
     0
 49
-1.5
 74
     0
 49
1.0
 74
     0
 49
-1.5
 74
     0
  0
LTYPE
  5
13C2
330
11DA
100
AcDbSymbolTableRecord
100
AcDbLinetypeTableRecord
  2
AM_DIN_K_W050
 70
     0
  3
_____ . . _____ . . _____ . . ____ .. ____
 72
    65
 73
     6
 40
16.25
 49
9.75
 74
     0
 49
-1.5
 74
     0
 49
1.0
 74
     0
 49
-1.5
 74
     0
 49
1.0
 74
     0
 49
-1.5
 74
     0
  0
LTYPE
  5
13C3
330
11DA
100
AcDbSymbolTableRecord
100
AcDbLinetypeTableRecord
  2
AM_DIN_G_W050x2
 70
     0
  3
__ . __ . __ . __ . __ . __
 72
    65
 73
     4
 40
6.875
 49
4.75
 74
     0
 49
-0.875
 74
     0
 49
0.375
 74
     0
 49
-0.875
 74
     0
  0
LTYPE
  5
13C4
330
11DA
100
AcDbSymbolTableRecord
100
AcDbLinetypeTableRecord
  2
AM_DIN_F_W050x2
 70
     0
  3
 _ _ _ _ _ _ _ _ _ _ _ _
 72
    65
 73
     2
 40
3.125
 49
2.25
 74
     0
 49
-0.875
 74
     0
  0
LTYPE
  5
13D3
330
11DA
100
AcDbSymbolTableRecord
100
AcDbLinetypeTableRecord
  2
ACDINWELD
 70
     0
  3
_ _ _ _ _
 72
    65
 73
     2
 40
2.0
 49
2.0
 74
     0
 49
-1.0
 74
     0
  0
LTYPE
  5
13D4
330
11DA
100
AcDbSymbolTableRecord
100
AcDbLinetypeTableRecord
  2
ACDINTGB
 70
     0
  3
__ . . __ . .
 72
    65
 73
     6
 40
9.0
 49
4.0
 74
     0
 49
-1.0
 74
     0
 49
1.0
 74
     0
 49
-1.0
 74
     0
 49
1.0
 74
     0
 49
-1.0
 74
     0
  0
LTYPE
  5
13D5
330
11DA
100
AcDbSymbolTableRecord
100
AcDbLinetypeTableRecord
  2
ACDINTGL
 70
     0
  3
_ _ _ _ _
 72
    65
 73
     2
 40
3.0
 49
2.0
 74
     0
 49
-1.0
 74
     0
  0
ENDTAB
  0
TABLE
  2
LAYER
  5
11D7
330
0
100
AcDbSymbolTable
 70
     9
  0
LAYER
  5
11E3
330
11D7
100
AcDbSymbolTableRecord
100
AcDbLayerTableRecord
  2
0
 70
     0
 62
     7
  6
CONTINUOUS
370
    -3
390
1345
  0
LAYER
  5
11FD
330
11D7
100
AcDbSymbolTableRecord
100
AcDbLayerTableRecord
  2
3A
 70
     0
 62
    -6
  6
GEN3A
370
    -3
390
1345
  0
LAYER
  5
1200
330
11D7
100
AcDbSymbolTableRecord
100
AcDbLayerTableRecord
  2
5
 70
     0
 62
     3
  6
CONTINUOUS
370
    -3
390
1345
  0
LAYER
  5
1202
330
11D7
100
AcDbSymbolTableRecord
100
AcDbLayerTableRecord
  2
7
 70
     0
 62
     4
  6
GEN7
370
    -3
390
1345
  0
LAYER
  5
1203
330
11D7
100
AcDbSymbolTableRecord
100
AcDbLayerTableRecord
  2
8
 70
     0
 62
     1
  6
CONTINUOUS
370
    -3
390
1345
  0
LAYER
  5
1204
330
11D7
100
AcDbSymbolTableRecord
100
AcDbLayerTableRecord
  2
SCHRAFFUR_RAND
 70
     0
 62
    36
  6
CONTINUOUS
370
    -3
390
1345
  0
LAYER
  5
1231
330
11D7
100
AcDbSymbolTableRecord
100
AcDbLayerTableRecord
  2
DEFPOINTS
 70
     0
 62
     7
  6
CONTINUOUS
290
     0
370
    -3
390
1345
  0
ENDTAB
  0
TABLE
  2
STYLE
  5
11D8
330
0
100
AcDbSymbolTable
 70
     4
  0
STYLE
  5
11E4
330
11D8
100
AcDbSymbolTableRecord
100
AcDbTextStyleTableRecord
  2
STANDARD
 70
     0
 40
0.0
 41
1.0
 50
0.0
 71
     0
 42
7.0
  3
ISOCP.SHX
  4

  0
STYLE
  5
13BE
330
11D8
100
AcDbSymbolTableRecord
100
AcDbTextStyleTableRecord
  2

 70
     1
 40
0.0
 41
1.0
 50
0.0
 71
     0
 42
0.2
  3
genltshp.shx
  4

  0
STYLE
  5
13C5
330
11D8
100
AcDbSymbolTableRecord
100
AcDbTextStyleTableRecord
  2
ACDINTS
 70
     0
 40
1.0
 41
1.0
 50
0.0
 71
     0
 42
0.2
  3
isocp.shx
  4

  0
STYLE
  5
13D2
330
11D8
100
AcDbSymbolTableRecord
100
AcDbTextStyleTableRecord
  2
ACDINGDT
 70
     0
 40
0.0
 41
1.0
 50
0.0
 71
     0
 42
0.2
  3
AMGDT
  4

  0
ENDTAB
  0
TABLE
  2
VIEW
  5
11DB
330
0
100
AcDbSymbolTable
 70
     6
  0
VIEW
  5
1274
330
11DB
100
AcDbSymbolTableRecord
100
AcDbViewTableRecord
  2
GEN1
 70
     0
 40
525.0
 10
403.491903
 20
787.5
 41
806.983806
 11
0.0
 21
0.0
 31
1.0
 12
0.0
 22
0.0
 32
0.0
 42
50.0
 43
0.0
 44
0.0
 50
0.0
 71
     0
281
     0
 72
     0
  0
VIEW
  5
1275
330
11DB
100
AcDbSymbolTableRecord
100
AcDbViewTableRecord
  2
GEN2
 70
     0
 40
525.0
 10
646.508097
 20
787.5
 41
806.983806
 11
0.0
 21
0.0
 31
1.0
 12
0.0
 22
0.0
 32
0.0
 42
50.0
 43
0.0
 44
0.0
 50
0.0
 71
     0
281
     0
 72
     0
  0
VIEW
  5
1276
330
11DB
100
AcDbSymbolTableRecord
100
AcDbViewTableRecord
  2
GEN3
 70
     0
 40
525.0
 10
403.491903
 20
262.5
 41
806.983806
 11
0.0
 21
0.0
 31
1.0
 12
0.0
 22
0.0
 32
0.0
 42
50.0
 43
0.0
 44
0.0
 50
0.0
 71
     0
281
     0
 72
     0
  0
VIEW
  5
1277
330
11DB
100
AcDbSymbolTableRecord
100
AcDbViewTableRecord
  2
GEN4
 70
     0
 40
525.0
 10
646.508097
 20
262.5
 41
806.983806
 11
0.0
 21
0.0
 31
1.0
 12
0.0
 22
0.0
 32
0.0
 42
50.0
 43
0.0
 44
0.0
 50
0.0
 71
     0
281
     0
 72
     0
  0
VIEW
  5
1278
330
11DB
100
AcDbSymbolTableRecord
100
AcDbViewTableRecord
  2
GEN5
 70
     0
 40
525.0
 10
525.0
 20
525.0
 41
806.983806
 11
0.0
 21
0.0
 31
1.0
 12
0.0
 22
0.0
 32
0.0
 42
50.0
 43
0.0
 44
0.0
 50
0.0
 71
     0
281
     0
 72
     0
  0
VIEW
  5
1279
330
11DB
100
AcDbSymbolTableRecord
100
AcDbViewTableRecord
  2
GEN6
 70
     0
 40
1049.9895
 10
525.0
 20
525.0
 41
1613.951472
 11
0.0
 21
0.0
 31
1.0
 12
0.0
 22
0.0
 32
0.0
 42
50.0
 43
0.0
 44
0.0
 50
0.0
 71
     0
281
     0
 72
     0
  0
ENDTAB
  0
TABLE
  2
UCS
  5
11DC
330
0
100
AcDbSymbolTable
 70
     0
  0
ENDTAB
  0
TABLE
  2
APPID
  5
11DE
330
0
100
AcDbSymbolTable
 70
    36
  0
APPID
  5
11E5
330
11DE
100
AcDbSymbolTableRecord
100
AcDbRegAppTableRecord
  2
ACAD
 70
     0
  0
APPID
  5
1242
330
11DE
100
AcDbSymbolTableRecord
100
AcDbRegAppTableRecord
  2
GENIUS_GENCFG_13
 70
     0
1001
GENIUS_DUMCFG0_13
1000
DUM
1001
GENIUS_GENCFG0_13
1000
GEN@INFO_POS@XLATE
1001
GENIUS_GENCFG1_13
1000
GEN@INFO_POS
1001
GENIUS_GENCFG2_13
1000
GEN@LAYER@DEFS
1001
GENIUS_GENCFG3_13
1000
GEN@LAYER@ENTSORT
1001
GENIUS_GENCFG4_13
1000
GEN
1001
GENIUS_GEVCFG0_13
1000
GEV
  0
APPID
  5
1243
330
11DE
100
AcDbSymbolTableRecord
100
AcDbRegAppTableRecord
  2
GENIUS_DUMCFG0_13
 70
     0
1001
GENIUS_GENCFG_13
1071
925128581
1000
1243
1000
DUM
1070
     0
  0
APPID
  5
1244
330
11DE
100
AcDbSymbolTableRecord
100
AcDbRegAppTableRecord
  2
GENIUS_GENCFG0_13
 70
     0
1001
GENIUS_GENCFG_13
1071
1022853059
1000
1244
1000
GEN@INFO_POS@XLATE
1070
     7
1000
GenCfgObject
1000
GenCfgShort
1000
GenCfgReal
1000
GenCfgBool
1000
GenCfgString
1000
GenCfgDim
1000
GenCfgAttrInf
1000
INFOPOINTS
1070
     0
1002
{
1000
GENINF14
1070
     0
1002
{
1000
2GENINF
1070
     4
1000
2
1002
{
1002
}
1000
5GENINF
1070
     4
1000
5
1002
{
1002
}
1000
7GENINF
1070
     4
1000
7
1002
{
1002
}
1000
9GENINF
1070
     4
1000
9
1002
{
1002
}
1000
11GENINF
1070
     4
1000
11
1002
{
1002
}
1000
14GENINF
1070
     4
1000
14
1002
{
1002
}
1002
}
1000
GENINF13
1070
     0
1002
{
1000
2GENINF
1070
     4
1000
2
1002
{
1002
}
1000
3GENINF
1070
     4
1000
3
1002
{
1002
}
1000
4GENINF
1070
     4
1000
4
1002
{
1002
}
1000
5GENINF
1070
     4
1000
5
1002
{
1002
}
1000
6GENINF
1070
     4
1000
6
1002
{
1002
}
1000
7GENINF
1070
     4
1000
7
1002
{
1002
}
1000
8GENINF
1070
     4
1000
8
1002
{
1002
}
1000
9GENINF
1070
     4
1000
9
1002
{
1002
}
1000
10GENINF
1070
     4
1000
10
1002
{
1002
}
1000
11GENINF
1070
     4
1000
11
1002
{
1002
}
1000
12GENINF
1070
     4
1000
12
1002
{
1002
}
1000
13GENINF
1070
     4
1000
13
1002
{
1002
}
1000
14GENINF
1070
     4
1000
14
1002
{
1002
}
1000
15GENINF
1070
     4
1000
15
1002
{
1002
}
1000
16GENINF
1070
     4
1000
16
1002
{
1002
}
1000
17GENINF
1070
     4
1000
17
1002
{
1002
}
1000
18GENINF
1070
     4
1000
18
1002
{
1002
}
1000
19GENINF
1070
     4
1000
19
1002
{
1002
}
1000
20GENINF
1070
     4
1000
20
1002
{
1002
}
1000
21GENINF
1070
     4
1000
21
1002
{
1002
}
1000
22GENINF
1070
     4
1000
22
1002
{
1002
}
1000
23GENINF
1070
     4
1000
23
1002
{
1002
}
1000
24GENINF
1070
     4
1000
24
1002
{
1002
}
1000
0GENINF
1070
     4
1000
0
1002
{
1002
}
1002
}
1000
GENINFO
1070
     0
1002
{
1000
3GENINF
1070
     4
1000
3
1002
{
1002
}
1000
4GENINF
1070
     4
1000
4
1002
{
1002
}
1000
5GENINF
1070
     4
1000
5
1002
{
1002
}
1000
6GENINF
1070
     4
1000
6
1002
{
1002
}
1000
7GENINF
1070
     4
1000
7
1002
{
1002
}
1000
8GENINF
1070
     4
1000
8
1002
{
1002
}
1000
9GENINF
1070
     4
1000
9
1002
{
1002
}
1000
10GENINF
1070
     4
1000
10
1002
{
1002
}
1000
11GENINF
1070
     4
1000
11
1002
{
1002
}
1000
12GENINF
1070
     4
1000
12
1002
{
1002
}
1000
13GENINF
1070
     4
1000
13
1002
{
1002
}
1000
14GENINF
1070
     4
1000
14
1002
{
1002
}
1000
15GENINF
1070
     4
1000
15
1002
{
1002
}
1000
16GENINF
1070
     4
1000
16
1002
{
1002
}
1000
17GENINF
1070
     4
1000
17
1002
{
1002
}
1000
18GENINF
1070
     4
1000
18
1002
{
1002
}
1000
19GENINF
1070
     4
1000
19
1002
{
1002
}
1000
20GENINF
1070
     4
1000
20
1002
{
1002
}
1000
21GENINF
1070
     4
1000
21
1002
{
1002
}
1000
22GENINF
1070
     4
1000
22
1002
{
1002
}
1002
}
1000
DININFO
1070
     0
1002
{
1000
ST-NAME1
1070
     4
1000
5
1002
{
1002
}
1000
ST-NAME2
1070
     4
1000
6
1002
{
1002
}
1000
ST-NORM1
1070
     4
1000
7
1002
{
1002
}
1000
ST-NORM2
1070
     4
1000
8
1002
{
1002
}
1000
ST-MAT1
1070
     4
1000
9
1002
{
1002
}
1000
ST-MAT2
1070
     4
1000
10
1002
{
1002
}
1002
}
1002
}
1000
POS_NUMBERS
1070
     0
1002
{
1000
GENPOS14
1070
     0
1002
{
1000
1GENPOS
1070
     4
1000
1
1002
{
1002
}
1000
2GENPOS
1070
     4
1000
2
1002
{
1002
}
1000
5GENPOS
1070
     4
1000
5
1002
{
1002
}
1000
7GENPOS
1070
     4
1000
7
1002
{
1002
}
1000
9GENPOS
1070
     4
1000
9
1002
{
1002
}
1000
11GENPOS
1070
     4
1000
11
1002
{
1002
}
1000
14GENPOS
1070
     4
1000
14
1002
{
1002
}
1002
}
1000
GENPOS13
1070
     0
1002
{
1000
1GENPOS
1070
     4
1000
1
1002
{
1002
}
1000
2GENPOS
1070
     4
1000
2
1002
{
1002
}
1000
3GENPOS
1070
     4
1000
3
1002
{
1002
}
1000
4GENPOS
1070
     4
1000
4
1002
{
1002
}
1000
5GENPOS
1070
     4
1000
5
1002
{
1002
}
1000
6GENPOS
1070
     4
1000
6
1002
{
1002
}
1000
7GENPOS
1070
     4
1000
7
1002
{
1002
}
1000
8GENPOS
1070
     4
1000
8
1002
{
1002
}
1000
9GENPOS
1070
     4
1000
9
1002
{
1002
}
1000
10GENPOS
1070
     4
1000
10
1002
{
1002
}
1000
11GENPOS
1070
     4
1000
11
1002
{
1002
}
1000
12GENPOS
1070
     4
1000
12
1002
{
1002
}
1000
13GENPOS
1070
     4
1000
13
1002
{
1002
}
1000
14GENPOS
1070
     4
1000
14
1002
{
1002
}
1000
15GENPOS
1070
     4
1000
15
1002
{
1002
}
1000
16GENPOS
1070
     4
1000
16
1002
{
1002
}
1000
17GENPOS
1070
     4
1000
17
1002
{
1002
}
1000
18GENPOS
1070
     4
1000
18
1002
{
1002
}
1000
19GENPOS
1070
     4
1000
19
1002
{
1002
}
1000
20GENPOS
1070
     4
1000
20
1002
{
1002
}
1000
21GENPOS
1070
     4
1000
21
1002
{
1002
}
1000
22GENPOS
1070
     4
1000
22
1002
{
1002
}
1000
23GENPOS
1070
     4
1000
23
1002
{
1002
}
1000
24GENPOS
1070
     4
1000
24
1002
{
1002
}
1000
0GENPOS
1070
     4
1000
0
1002
{
1002
}
1002
}
1000
GENPOS
1070
     0
1002
{
1000
1GENPOS
1070
     4
1000
1
1002
{
1002
}
1000
2GENPOS
1070
     4
1000
2
1002
{
1002
}
1000
3GENPOS
1070
     4
1000
3
1002
{
1002
}
1000
4GENPOS
1070
     4
1000
4
1002
{
1002
}
1000
5GENPOS
1070
     4
1000
5
1002
{
1002
}
1000
6GENPOS
1070
     4
1000
6
1002
{
1002
}
1000
7GENPOS
1070
     4
1000
7
1002
{
1002
}
1000
8GENPOS
1070
     4
1000
8
1002
{
1002
}
1000
9GENPOS
1070
     4
1000
9
1002
{
1002
}
1000
10GENPOS
1070
     4
1000
10
1002
{
1002
}
1000
11GENPOS
1070
     4
1000
11
1002
{
1002
}
1000
12GENPOS
1070
     4
1000
12
1002
{
1002
}
1000
13GENPOS
1070
     4
1000
13
1002
{
1002
}
1000
14GENPOS
1070
     4
1000
14
1002
{
1002
}
1000
15GENPOS
1070
     4
1000
15
1002
{
1002
}
1000
16GENPOS
1070
     4
1000
16
1002
{
1002
}
1000
17GENPOS
1070
     4
1000
17
1002
{
1002
}
1000
18GENPOS
1070
     4
1000
18
1002
{
1002
}
1000
19GENPOS
1070
     4
1000
19
1002
{
1002
}
1000
20GENPOS
1070
     4
1000
20
1002
{
1002
}
1000
21GENPOS
1070
     4
1000
21
1002
{
1002
}
1000
22GENPOS
1070
     4
1000
22
1002
{
1002
}
1000
23GENPOS
1070
     4
1000
23
1002
{
1002
}
1002
}
1000
DIN985
1070
     0
1002
{
1000
POSITION
1070
     4
1000
1
1002
{
1002
}
1000
MENGE
1070
     4
1000
2
1002
{
1002
}
1000
BLATT
1070
     4
1000
3
1002
{
1002
}
1000
BENENN
1070
     4
1000
5
1002
{
1002
}
1000
BENENN2
1070
     4
1000
6
1002
{
1002
}
1000
NORM
1070
     4
1000
7
1002
{
1002
}
1000
NORM2
1070
     4
1000
8
1002
{
1002
}
1000
WERKSTOFF
1070
     4
1000
9
1002
{
1002
}
1000
WERKSTOFF2
1070
     4
1000
10
1002
{
1002
}
1002
}
1000
DIN986
1070
     0
1002
{
1000
POSITION
1070
     4
1000
1
1002
{
1002
}
1000
MENGE
1070
     4
1000
2
1002
{
1002
}
1000
BLATT
1070
     4
1000
3
1002
{
1002
}
1000
BENENN
1070
     4
1000
5
1002
{
1002
}
1000
BENENN2
1070
     4
1000
6
1002
{
1002
}
1000
NORM
1070
     4
1000
7
1002
{
1002
}
1000
NORM2
1070
     4
1000
8
1002
{
1002
}
1000
WERKSTOFF
1070
     4
1000
9
1002
{
1002
}
1000
WERKSTOFF2
1070
     4
1000
10
1002
{
1002
}
1002
}
1000
DIN987
1070
     0
1002
{
1000
POSITION
1070
     4
1000
1
1002
{
1002
}
1000
MENGE
1070
     4
1000
2
1002
{
1002
}
1000
BLATT
1070
     4
1000
3
1002
{
1002
}
1000
BENENN
1070
     4
1000
5
1002
{
1002
}
1000
BENENN2
1070
     4
1000
6
1002
{
1002
}
1000
NORM
1070
     4
1000
7
1002
{
1002
}
1000
NORM2
1070
     4
1000
8
1002
{
1002
}
1000
WERKSTOFF
1070
     4
1000
9
1002
{
1002
}
1000
WERKSTOFF2
1070
     4
1000
10
1002
{
1002
}
1002
}
1002
}
  0
APPID
  5
1245
330
11DE
100
AcDbSymbolTableRecord
100
AcDbRegAppTableRecord
  2
GENIUS_GENCFG1_13
 70
     0
1001
GENIUS_GENCFG_13
1071
1022853059
1000
1245
1000
GEN@INFO_POS
1070
     7
1000
GenCfgObject
1000
GenCfgShort
1000
GenCfgReal
1000
GenCfgBool
1000
GenCfgString
1000
GenCfgDim
1000
GenCfgAttrInf
1000
DescrText
1070
     4
1000
5, ,6, ,7, ,8
1002
{
1002
}
1000
DescrText2
1070
     4
1000
26
1002
{
1002
}
1000
VisibleAttr1
1070
     4
1000
1
1002
{
1002
}
1000
VisibleAttr2
1070
     4
1000
26
1002
{
1002
}
1000
UpdateBlock
1070
     3
1070
     1
1002
{
1002
}
1000
Attrib
1070
     0
1002
{
1000
0
1070
     6
1002
{
1000
Prompt
1070
     4
1000
(genmsg gendwg 103)
1002
{
1002
}
1000
Value
1070
     4
1000

1002
{
1002
}
1000
EditFlag
1070
     1
1070
     0
1002
{
1002
}
1000
PosInDDATTE
1070
     1
1070
    27
1002
{
1002
}
1000
FieldLen
1070
     1
1070
    -1
1002
{
1002
}
1002
}
1000
1
1070
     6
1002
{
1000
Prompt
1070
     4
1000
(genmsg gendwg 31)
1002
{
1002
}
1000
Value
1070
     4
1000
1
1002
{
1002
}
1000
EditFlag
1070
     1
1070
     1
1002
{
1002
}
1000
PosInDDATTE
1070
     1
1070
     1
1002
{
1002
}
1000
FieldLen
1070
     1
1070
    -1
1002
{
1002
}
1002
}
1000
2
1070
     6
1002
{
1000
Prompt
1070
     4
1000
(genmsg gendwg 32)
1002
{
1002
}
1000
Value
1070
     4
1000
1
1002
{
1002
}
1000
EditFlag
1070
     1
1070
     1
1002
{
1002
}
1000
PosInDDATTE
1070
     1
1070
     2
1002
{
1002
}
1000
FieldLen
1070
     1
1070
    -1
1002
{
1002
}
1002
}
1000
3
1070
     6
1002
{
1000
Prompt
1070
     4
1000
(genmsg gendwg 33)
1002
{
1002
}
1000
Value
1070
     4
1000

1002
{
1002
}
1000
EditFlag
1070
     1
1070
     1
1002
{
1002
}
1000
PosInDDATTE
1070
     1
1070
     3
1002
{
1002
}
1000
FieldLen
1070
     1
1070
    -1
1002
{
1002
}
1002
}
1000
4
1070
     6
1002
{
1000
Prompt
1070
     4
1000
(genmsg gendwg 34)
1002
{
1002
}
1000
Value
1070
     4
1000

1002
{
1002
}
1000
EditFlag
1070
     1
1070
     1
1002
{
1002
}
1000
PosInDDATTE
1070
     1
1070
     4
1002
{
1002
}
1000
FieldLen
1070
     1
1070
    -1
1002
{
1002
}
1002
}
1000
5
1070
     6
1002
{
1000
Prompt
1070
     4
1000
(genmsg gendwg 35)
1002
{
1002
}
1000
Value
1070
     4
1000

1002
{
1002
}
1000
EditFlag
1070
     1
1070
     1
1002
{
1002
}
1000
PosInDDATTE
1070
     1
1070
     5
1002
{
1002
}
1000
FieldLen
1070
     1
1070
    -1
1002
{
1002
}
1002
}
1000
6
1070
     6
1002
{
1000
Prompt
1070
     4
1000
(genmsg gendwg 36)
1002
{
1002
}
1000
Value
1070
     4
1000

1002
{
1002
}
1000
EditFlag
1070
     1
1070
     1
1002
{
1002
}
1000
PosInDDATTE
1070
     1
1070
     6
1002
{
1002
}
1000
FieldLen
1070
     1
1070
    -1
1002
{
1002
}
1002
}
1000
7
1070
     6
1002
{
1000
Prompt
1070
     4
1000
(genmsg gendwg 37)
1002
{
1002
}
1000
Value
1070
     4
1000

1002
{
1002
}
1000
EditFlag
1070
     1
1070
     1
1002
{
1002
}
1000
PosInDDATTE
1070
     1
1070
     7
1002
{
1002
}
1000
FieldLen
1070
     1
1070
    -1
1002
{
1002
}
1002
}
1000
8
1070
     6
1002
{
1000
Prompt
1070
     4
1000
(genmsg gendwg 38)
1002
{
1002
}
1000
Value
1070
     4
1000

1002
{
1002
}
1000
EditFlag
1070
     1
1070
     1
1002
{
1002
}
1000
PosInDDATTE
1070
     1
1070
     8
1002
{
1002
}
1000
FieldLen
1070
     1
1070
    -1
1002
{
1002
}
1002
}
1000
9
1070
     6
1002
{
1000
Prompt
1070
     4
1000
(genmsg gendwg 39)
1002
{
1002
}
1000
Value
1070
     4
1000

1002
{
1002
}
1000
EditFlag
1070
     1
1070
     1
1002
{
1002
}
1000
PosInDDATTE
1070
     1
1070
     9
1002
{
1002
}
1000
FieldLen
1070
     1
1070
    -1
1002
{
1002
}
1002
}
1000
10
1070
     6
1002
{
1000
Prompt
1070
     4
1000
(genmsg gendwg 40)
1002
{
1002
}
1000
Value
1070
     4
1000

1002
{
1002
}
1000
EditFlag
1070
     1
1070
     1
1002
{
1002
}
1000
PosInDDATTE
1070
     1
1070
    10
1002
{
1002
}
1000
FieldLen
1070
     1
1070
    -1
1002
{
1002
}
1002
}
1000
11
1070
     6
1002
{
1000
Prompt
1070
     4
1000
(genmsg gendwg 41)
1002
{
1002
}
1000
Value
1070
     4
1000

1002
{
1002
}
1000
EditFlag
1070
     1
1070
     1
1002
{
1002
}
1000
PosInDDATTE
1070
     1
1070
    11
1002
{
1002
}
1000
FieldLen
1070
     1
1070
    -1
1002
{
1002
}
1002
}
1000
12
1070
     6
1002
{
1000
Prompt
1070
     4
1000
(genmsg gendwg 42)
1002
{
1002
}
1000
Value
1070
     4
1000

1002
{
1002
}
1000
EditFlag
1070
     1
1070
     1
1002
{
1002
}
1000
PosInDDATTE
1070
     1
1070
    12
1002
{
1002
}
1000
FieldLen
1070
     1
1070
    -1
1002
{
1002
}
1002
}
1000
13
1070
     6
1002
{
1000
Prompt
1070
     4
1000
(genmsg gendwg 43)
1002
{
1002
}
1000
Value
1070
     4
1000

1002
{
1002
}
1000
EditFlag
1070
     1
1070
     1
1002
{
1002
}
1000
PosInDDATTE
1070
     1
1070
    13
1002
{
1002
}
1000
FieldLen
1070
     1
1070
    -1
1002
{
1002
}
1002
}
1000
14
1070
     6
1002
{
1000
Prompt
1070
     4
1000
(genmsg gendwg 44)
1002
{
1002
}
1000
Value
1070
     4
1000

1002
{
1002
}
1000
EditFlag
1070
     1
1070
     1
1002
{
1002
}
1000
PosInDDATTE
1070
     1
1070
    14
1002
{
1002
}
1000
FieldLen
1070
     1
1070
    -1
1002
{
1002
}
1002
}
1000
15
1070
     6
1002
{
1000
Prompt
1070
     4
1000
(genmsg gendwg 45)
1002
{
1002
}
1000
Value
1070
     4
1000

1002
{
1002
}
1000
EditFlag
1070
     1
1070
     1
1002
{
1002
}
1000
PosInDDATTE
1070
     1
1070
    15
1002
{
1002
}
1000
FieldLen
1070
     1
1070
    -1
1002
{
1002
}
1002
}
1000
16
1070
     6
1002
{
1000
Prompt
1070
     4
1000
(genmsg gendwg 46)
1002
{
1002
}
1000
Value
1070
     4
1000

1002
{
1002
}
1000
EditFlag
1070
     1
1070
     1
1002
{
1002
}
1000
PosInDDATTE
1070
     1
1070
    16
1002
{
1002
}
1000
FieldLen
1070
     1
1070
    -1
1002
{
1002
}
1002
}
1000
17
1070
     6
1002
{
1000
Prompt
1070
     4
1000
(genmsg gendwg 47)
1002
{
1002
}
1000
Value
1070
     4
1000

1002
{
1002
}
1000
EditFlag
1070
     1
1070
     1
1002
{
1002
}
1000
PosInDDATTE
1070
     1
1070
    17
1002
{
1002
}
1000
FieldLen
1070
     1
1070
    -1
1002
{
1002
}
1002
}
1000
18
1070
     6
1002
{
1000
Prompt
1070
     4
1000
(genmsg gendwg 48)
1002
{
1002
}
1000
Value
1070
     4
1000

1002
{
1002
}
1000
EditFlag
1070
     1
1070
     1
1002
{
1002
}
1000
PosInDDATTE
1070
     1
1070
    18
1002
{
1002
}
1000
FieldLen
1070
     1
1070
    -1
1002
{
1002
}
1002
}
1000
19
1070
     6
1002
{
1000
Prompt
1070
     4
1000
(genmsg gendwg 99)
1002
{
1002
}
1000
Value
1070
     4
1000

1002
{
1002
}
1000
EditFlag
1070
     1
1070
     1
1002
{
1002
}
1000
PosInDDATTE
1070
     1
1070
    19
1002
{
1002
}
1000
FieldLen
1070
     1
1070
    -1
1002
{
1002
}
1002
}
1000
20
1070
     6
1002
{
1000
Prompt
1070
     4
1000
(genmsg gendwg 100)
1002
{
1002
}
1000
Value
1070
     4
1000

1002
{
1002
}
1000
EditFlag
1070
     1
1070
     1
1002
{
1002
}
1000
PosInDDATTE
1070
     1
1070
    20
1002
{
1002
}
1000
FieldLen
1070
     1
1070
    -1
1002
{
1002
}
1002
}
1000
21
1070
     6
1002
{
1000
Prompt
1070
     4
1000
(genmsg gendwg 101)
1002
{
1002
}
1000
Value
1070
     4
1000

1002
{
1002
}
1000
EditFlag
1070
     1
1070
     1
1002
{
1002
}
1000
PosInDDATTE
1070
     1
1070
    21
1002
{
1002
}
1000
FieldLen
1070
     1
1070
    -1
1002
{
1002
}
1002
}
1000
22
1070
     6
1002
{
1000
Prompt
1070
     4
1000
(genmsg gendwg 102)
1002
{
1002
}
1000
Value
1070
     4
1000

1002
{
1002
}
1000
EditFlag
1070
     1
1070
     1
1002
{
1002
}
1000
PosInDDATTE
1070
     1
1070
    22
1002
{
1002
}
1000
FieldLen
1070
     1
1070
    -1
1002
{
1002
}
1002
}
1000
23
1070
     6
1002
{
1000
Prompt
1070
     4
1000
(genmsg gendwg 30)
1002
{
1002
}
1000
Value
1070
     4
1000

1002
{
1002
}
1000
EditFlag
1070
     1
1070
     1
1002
{
1002
}
1000
PosInDDATTE
1070
     1
1070
    23
1002
{
1002
}
1000
FieldLen
1070
     1
1070
    -1
1002
{
1002
}
1002
}
1000
24
1070
     6
1002
{
1000
Prompt
1070
     4
1000
(genmsg gendwg 104)
1002
{
1002
}
1000
Value
1070
     4
1000

1002
{
1002
}
1000
EditFlag
1070
     1
1070
     1
1002
{
1002
}
1000
PosInDDATTE
1070
     1
1070
    24
1002
{
1002
}
1000
FieldLen
1070
     1
1070
    -1
1002
{
1002
}
1002
}
1000
25
1070
     6
1002
{
1000
Prompt
1070
     4
1000
(genmsg gendwg 105)
1002
{
1002
}
1000
Value
1070
     4
1000

1002
{
1002
}
1000
EditFlag
1070
     1
1070
     1
1002
{
1002
}
1000
PosInDDATTE
1070
     1
1070
    25
1002
{
1002
}
1000
FieldLen
1070
     1
1070
    -1
1002
{
1002
}
1002
}
1000
26
1070
     6
1002
{
1000
Prompt
1070
     4
1000
(genmsg gendwg 106)
1002
{
1002
}
1000
Value
1070
     4
1000

1002
{
1002
}
1000
EditFlag
1070
     1
1070
     1
1002
{
1002
}
1000
PosInDDATTE
1070
     1
1070
    26
1002
{
1002
}
1000
FieldLen
1070
     1
1070
    -1
1002
{
1002
}
1002
}
1000
27
1070
     6
1002
{
1000
Prompt
1070
     4
1000
(genmsg gendwg 109)
1002
{
1002
}
1000
Value
1070
     4
1000

1002
{
1002
}
1000
EditFlag
1070
     1
1070
     2
1002
{
1002
}
1000
PosInDDATTE
1070
     1
1070
    27
1002
{
1002
}
1000
FieldLen
1070
     1
1070
    -1
1002
{
1002
}
1002
}
1002
}
1000
Xlate
1070
     0
1002
{
1000
>
1002
}
  0
APPID
  5
1246
330
11DE
100
AcDbSymbolTableRecord
100
AcDbRegAppTableRecord
  2
GENIUS_GENCFG2_13
 70
     0
1001
GENIUS_GENCFG_13
1071
1022853059
1000
1246
1000
GEN@LAYER@DEFS
1070
     9
1000
GenCfgObject
1000
GenCfgShort
1000
GenCfgReal
1000
GenCfgBool
1000
GenCfgString
1000
GenCfgDim
1000
GenCfgAttrInf
1000
GenCfgLaySection
1000
GenCfgLayer
1000
Basic
1070
     0
1002
{
1000
0
1070
     8
1000
0
1002
{
1000
Color
1070
     1
1070
     7
1002
{
1002
}
1000
LType
1070
     4
1000
CONTINUOUS
1002
{
1002
}
1000
Base
1070
     3
1070
     0
1002
{
1002
}
1002
}
1000
1
1070
     8
1000
1
1002
{
1000
Color
1070
     1
1070
    14
1002
{
1002
}
1000
LType
1070
     4
1000
CONTINUOUS
1002
{
1002
}
1000
Base
1070
     3
1070
     0
1002
{
1002
}
1002
}
1000
2
1070
     8
1000
2
1002
{
1000
Color
1070
     1
1070
     5
1002
{
1002
}
1000
LType
1070
     4
1000
CONTINUOUS
1002
{
1002
}
1000
Base
1070
     3
1070
     0
1002
{
1002
}
1002
}
1000
3
1070
     8
1000
3
1002
{
1000
Color
1070
     1
1070
     6
1002
{
1002
}
1000
LType
1070
     4
1000
GEN3
1002
{
1002
}
1000
Base
1070
     3
1070
     0
1002
{
1002
}
1002
}
1000
4
1070
     8
1000
4
1002
{
1000
Color
1070
     1
1070
     3
1002
{
1002
}
1000
LType
1070
     4
1000
CONTINUOUS
1002
{
1002
}
1000
Base
1070
     3
1070
     0
1002
{
1002
}
1002
}
1000
5
1070
     8
1000
5
1002
{
1000
Color
1070
     1
1070
     3
1002
{
1002
}
1000
LType
1070
     4
1000
CONTINUOUS
1002
{
1002
}
1000
Base
1070
     3
1070
     0
1002
{
1002
}
1002
}
1000
6
1070
     8
1000
6
1002
{
1000
Color
1070
     1
1070
     2
1002
{
1002
}
1000
LType
1070
     4
1000
CONTINUOUS
1002
{
1002
}
1000
Base
1070
     3
1070
     0
1002
{
1002
}
1002
}
1000
7
1070
     8
1000
7
1002
{
1000
Color
1070
     1
1070
     4
1002
{
1002
}
1000
LType
1070
     4
1000
GEN7
1002
{
1002
}
1000
Base
1070
     3
1070
     0
1002
{
1002
}
1002
}
1000
8
1070
     8
1000
8
1002
{
1000
Color
1070
     1
1070
     1
1002
{
1002
}
1000
LType
1070
     4
1000
CONTINUOUS
1002
{
1002
}
1000
Base
1070
     3
1070
     0
1002
{
1002
}
1002
}
1000
3A
1070
     8
1000
3A
1002
{
1000
Color
1070
     1
1070
     6
1002
{
1002
}
1000
LType
1070
     4
1000
GEN3A
1002
{
1002
}
1000
Base
1070
     3
1070
     0
1002
{
1002
}
1002
}
1000
7A
1070
     8
1000
7A
1002
{
1000
Color
1070
     1
1070
     4
1002
{
1002
}
1000
LType
1070
     4
1000
GEN7A
1002
{
1002
}
1000
Base
1070
     3
1070
     0
1002
{
1002
}
1002
}
1000
2A
1070
     8
1000
2A
1002
{
1000
Color
1070
     1
1070
     7
1002
{
1002
}
1000
LType
1070
     4
1000
GEN7
1002
{
1002
}
1000
Base
1070
     3
1070
     0
1002
{
1002
}
1002
}
1000
4A
1070
     8
1000
4A
1002
{
1000
Color
1070
     1
1070
     3
1002
{
1002
}
1000
LType
1070
     4
1000
GEN4A
1002
{
1002
}
1000
Base
1070
     3
1070
     0
1002
{
1002
}
1002
}
1000
9
1070
     8
1000
9
1002
{
1000
Color
1070
     1
1070
   253
1002
{
1002
}
1000
LType
1070
     4
1000
CONTINUOUS
1002
{
1002
}
1000
Base
1070
     3
1070
     0
1002
{
1002
}
1002
}
1000
IP
1070
     8
1000
IP
1002
{
1000
Color
1070
     1
1070
     7
1002
{
1002
}
1000
LType
1070
     4
1000
CONTINUOUS
1002
{
1002
}
1000
Base
1070
     3
1070
     0
1002
{
1002
}
1002
}
1002
}
1000
Standard
1070
     0
1002
{
1000
0N
1070
     8
1000
0N
1002
{
1000
Color
1070
     1
1070
     7
1002
{
1002
}
1000
LType
1070
     4
1000
CONTINUOUS
1002
{
1002
}
1000
Base
1070
     3
1070
     0
1002
{
1002
}
1002
}
1000
1N
1070
     8
1000
1N
1002
{
1000
Color
1070
     1
1070
    14
1002
{
1002
}
1000
LType
1070
     4
1000
CONTINUOUS
1002
{
1002
}
1000
Base
1070
     3
1070
     0
1002
{
1002
}
1002
}
1000
2N
1070
     8
1000
2N
1002
{
1000
Color
1070
     1
1070
     5
1002
{
1002
}
1000
LType
1070
     4
1000
CONTINUOUS
1002
{
1002
}
1000
Base
1070
     3
1070
     0
1002
{
1002
}
1002
}
1000
3N
1070
     8
1000
3N
1002
{
1000
Color
1070
     1
1070
     6
1002
{
1002
}
1000
LType
1070
     4
1000
GEN3
1002
{
1002
}
1000
Base
1070
     3
1070
     0
1002
{
1002
}
1002
}
1000
4N
1070
     8
1000
4N
1002
{
1000
Color
1070
     1
1070
     3
1002
{
1002
}
1000
LType
1070
     4
1000
CONTINUOUS
1002
{
1002
}
1000
Base
1070
     3
1070
     0
1002
{
1002
}
1002
}
1000
5N
1070
     8
1000
5N
1002
{
1000
Color
1070
     1
1070
     3
1002
{
1002
}
1000
LType
1070
     4
1000
CONTINUOUS
1002
{
1002
}
1000
Base
1070
     3
1070
     0
1002
{
1002
}
1002
}
1000
6N
1070
     8
1000
6N
1002
{
1000
Color
1070
     1
1070
     2
1002
{
1002
}
1000
LType
1070
     4
1000
CONTINUOUS
1002
{
1002
}
1000
Base
1070
     3
1070
     0
1002
{
1002
}
1002
}
1000
7N
1070
     8
1000
7N
1002
{
1000
Color
1070
     1
1070
     4
1002
{
1002
}
1000
LType
1070
     4
1000
GEN7
1002
{
1002
}
1000
Base
1070
     3
1070
     0
1002
{
1002
}
1002
}
1000
8N
1070
     8
1000
8N
1002
{
1000
Color
1070
     1
1070
     1
1002
{
1002
}
1000
LType
1070
     4
1000
CONTINUOUS
1002
{
1002
}
1000
Base
1070
     3
1070
     0
1002
{
1002
}
1002
}
1000
3AN
1070
     8
1000
3AN
1002
{
1000
Color
1070
     1
1070
     6
1002
{
1002
}
1000
LType
1070
     4
1000
GEN3A
1002
{
1002
}
1000
Base
1070
     3
1070
     0
1002
{
1002
}
1002
}
1000
7AN
1070
     8
1000
7AN
1002
{
1000
Color
1070
     1
1070
     4
1002
{
1002
}
1000
LType
1070
     4
1000
GEN7A
1002
{
1002
}
1000
Base
1070
     3
1070
     0
1002
{
1002
}
1002
}
1000
2AN
1070
     8
1000
2AN
1002
{
1000
Color
1070
     1
1070
     7
1002
{
1002
}
1000
LType
1070
     4
1000
GEN7
1002
{
1002
}
1000
Base
1070
     3
1070
     0
1002
{
1002
}
1002
}
1000
4AN
1070
     8
1000
4AN
1002
{
1000
Color
1070
     1
1070
     3
1002
{
1002
}
1000
LType
1070
     4
1000
GEN4A
1002
{
1002
}
1000
Base
1070
     3
1070
     0
1002
{
1002
}
1002
}
1000
9N
1070
     8
1000
9N
1002
{
1000
Color
1070
     1
1070
   253
1002
{
1002
}
1000
LType
1070
     4
1000
CONTINUOUS
1002
{
1002
}
1000
Base
1070
     3
1070
     0
1002
{
1002
}
1002
}
1000
IPN
1070
     8
1000
IPN
1002
{
1000
Color
1070
     1
1070
     7
1002
{
1002
}
1000
LType
1070
     4
1000
CONTINUOUS
1002
{
1002
}
1000
Base
1070
     3
1070
     0
1002
{
1002
}
1002
}
1002
}
1000
Extra
1070
     0
1002
{
1000
Klin
1070
     8
1000
KLIN
1002
{
1000
Color
1070
     1
1070
     1
1002
{
1002
}
1000
LType
1070
     4
1000
CONTINUOUS
1002
{
1002
}
1000
Base
1070
     3
1070
     1
1002
{
1002
}
1002
}
1000
Info
1070
     8
1000
INFO
1002
{
1000
Color
1070
     1
1070
     4
1002
{
1002
}
1000
LType
1070
     4
1000
CONTINUOUS
1002
{
1002
}
1000
Base
1070
     3
1070
     1
1002
{
1002
}
1002
}
1000
Rahm2
1070
     8
1000
RAHM2
1002
{
1000
Color
1070
     1
1070
     1
1002
{
1002
}
1000
LType
1070
     4
1000
CONTINUOUS
1002
{
1002
}
1000
Base
1070
     3
1070
     1
1002
{
1002
}
1002
}
1000
Rahm3
1070
     8
1000
RAHM3
1002
{
1000
Color
1070
     1
1070
     2
1002
{
1002
}
1000
LType
1070
     4
1000
CONTINUOUS
1002
{
1002
}
1000
Base
1070
     3
1070
     1
1002
{
1002
}
1002
}
1000
Rahm5
1070
     8
1000
RAHM5
1002
{
1000
Color
1070
     1
1070
     7
1002
{
1002
}
1000
LType
1070
     4
1000
CONTINUOUS
1002
{
1002
}
1000
Base
1070
     3
1070
     1
1002
{
1002
}
1002
}
1000
View
1070
     8
1000
VIEW
1002
{
1000
Color
1070
     1
1070
     1
1002
{
1002
}
1000
LType
1070
     4
1000
CONTINUOUS
1002
{
1002
}
1000
Base
1070
     3
1070
     1
1002
{
1002
}
1002
}
1000
Behind
1070
     8
1000
BEHIND
1002
{
1000
Color
1070
     1
1070
   253
1002
{
1002
}
1000
LType
1070
     4
1000
CONTINUOUS
1002
{
1002
}
1000
Base
1070
     3
1070
     1
1002
{
1002
}
1002
}
1002
}
  0
APPID
  5
1247
330
11DE
100
AcDbSymbolTableRecord
100
AcDbRegAppTableRecord
  2
GENIUS_GENCFG3_13
 70
     0
1001
GENIUS_GENCFG_13
1071
1022853059
1000
1247
1000
GEN@LAYER@ENTSORT
1070
    10
1000
GenCfgObject
1000
GenCfgShort
1000
GenCfgReal
1000
GenCfgBool
1000
GenCfgString
1000
GenCfgDim
1000
GenCfgAttrInf
1000
GenCfgLaySection
1000
GenCfgLayer
1000
GenCfgEntSort
1000
ADDL
1070
     9
1000
5
1002
{
1000
Class
1070
     4
1000
SYM
1002
{
1002
}
1000
Color
1070
     1
1070
     1
1002
{
1002
}
1000
LType
1070
     4
1000
BYLAYER
1002
{
1002
}
1002
}
1000
ALTR
1070
     9
1000
4
1002
{
1000
Class
1070
     4
1000

1002
{
1002
}
1000
Color
1070
     1
1070
     7
1002
{
1002
}
1000
LType
1070
     4
1000
GEN3A
1002
{
1002
}
1002
}
1000
BELI
1070
     9
1000
4
1002
{
1000
Class
1070
     4
1000

1002
{
1002
}
1000
Color
1070
     1
1070
   256
1002
{
1002
}
1000
LType
1070
     4
1000
BYLAYER
1002
{
1002
}
1002
}
1000
BHNV
1070
     9
1000
9
1002
{
1000
Class
1070
     4
1000
INV
1002
{
1002
}
1000
Color
1070
     1
1070
   256
1002
{
1002
}
1000
LType
1070
     4
1000
BYLAYER
1002
{
1002
}
1002
}
1000
BHNVS
1070
     9
1000
BEHIND
1002
{
1000
Class
1070
     4
1000
INV
1002
{
1002
}
1000
Color
1070
     1
1070
   256
1002
{
1002
}
1000
LType
1070
     4
1000
BYLAYER
1002
{
1002
}
1002
}
1000
BLID
1070
     9
1000
4A
1002
{
1000
Class
1070
     4
1000

1002
{
1002
}
1000
Color
1070
     1
1070
   256
1002
{
1002
}
1000
LType
1070
     4
1000
BYLAYER
1002
{
1002
}
1002
}
1000
BOAP
1070
     9
1000
4A
1002
{
1000
Class
1070
     4
1000

1002
{
1002
}
1000
Color
1070
     1
1070
   256
1002
{
1002
}
1000
LType
1070
     4
1000
BYLAYER
1002
{
1002
}
1002
}
1000
BOR2
1070
     9
1000
RAHM2
1002
{
1000
Class
1070
     4
1000
SPZ,SYM
1002
{
1002
}
1000
Color
1070
     1
1070
   256
1002
{
1002
}
1000
LType
1070
     4
1000
BYLAYER
1002
{
1002
}
1002
}
1000
BOR3
1070
     9
1000
RAHM3
1002
{
1000
Class
1070
     4
1000
SPZ,SYM
1002
{
1002
}
1000
Color
1070
     1
1070
   256
1002
{
1002
}
1000
LType
1070
     4
1000
BYLAYER
1002
{
1002
}
1002
}
1000
BOR5
1070
     9
1000
RAHM5
1002
{
1000
Class
1070
     4
1000
SPZ,SYM
1002
{
1002
}
1000
Color
1070
     1
1070
   256
1002
{
1002
}
1000
LType
1070
     4
1000
BYLAYER
1002
{
1002
}
1002
}
1000
BOR7
1070
     9
1000
RAHM5
1002
{
1000
Class
1070
     4
1000
SPZ,SYM
1002
{
1002
}
1000
Color
1070
     1
1070
     7
1002
{
1002
}
1000
LType
1070
     4
1000
CONTINUOUS
1002
{
1002
}
1002
}
1000
BPAP
1070
     9
1000
4A
1002
{
1000
Class
1070
     4
1000

1002
{
1002
}
1000
Color
1070
     1
1070
   256
1002
{
1002
}
1000
LType
1070
     4
1000
BYLAYER
1002
{
1002
}
1002
}
1000
BPEX
1070
     9
1000
4A
1002
{
1000
Class
1070
     4
1000

1002
{
1002
}
1000
Color
1070
     1
1070
   256
1002
{
1002
}
1000
LType
1070
     4
1000
BYLAYER
1002
{
1002
}
1002
}
1000
BTDI
1070
     9
1000
5
1002
{
1000
Class
1070
     4
1000
DIM,SYM
1002
{
1002
}
1000
Color
1070
     1
1070
   256
1002
{
1002
}
1000
LType
1070
     4
1000
BYLAYER
1002
{
1002
}
1002
}
1000
CAL2
1070
     9
1000
4
1002
{
1000
Class
1070
     4
1000
SYM
1002
{
1002
}
1000
Color
1070
     1
1070
   256
1002
{
1002
}
1000
LType
1070
     4
1000
BYLAYER
1002
{
1002
}
1002
}
1000
CAL3
1070
     9
1000
4
1002
{
1000
Class
1070
     4
1000
SYM
1002
{
1002
}
1000
Color
1070
     1
1070
     2
1002
{
1002
}
1000
LType
1070
     4
1000
BYLAYER
1002
{
1002
}
1002
}
1000
CAL5
1070
     9
1000
4
1002
{
1000
Class
1070
     4
1000
SYM
1002
{
1002
}
1000
Color
1070
     1
1070
     7
1002
{
1002
}
1000
LType
1070
     4
1000
BYLAYER
1002
{
1002
}
1002
}
1000
CAL7
1070
     9
1000
4
1002
{
1000
Class
1070
     4
1000
SYM
1002
{
1002
}
1000
Color
1070
     1
1070
     5
1002
{
1002
}
1000
LType
1070
     4
1000
BYLAYER
1002
{
1002
}
1002
}
1000
CENN
1070
     9
1000
7A
1002
{
1000
Class
1070
     4
1000
CEN
1002
{
1002
}
1000
Color
1070
     1
1070
   256
1002
{
1002
}
1000
LType
1070
     4
1000
BYLAYER
1002
{
1002
}
1002
}
1000
CENW
1070
     9
1000
7
1002
{
1000
Class
1070
     4
1000
CEN
1002
{
1002
}
1000
Color
1070
     1
1070
   256
1002
{
1002
}
1000
LType
1070
     4
1000
BYLAYER
1002
{
1002
}
1002
}
1000
CLIN
1070
     9
1000
KLIN
1002
{
1000
Class
1070
     4
1000
SPZ
1002
{
1002
}
1000
Color
1070
     1
1070
   256
1002
{
1002
}
1000
LType
1070
     4
1000
BYLAYER
1002
{
1002
}
1002
}
1000
CON1
1070
     9
1000
0
1002
{
1000
Class
1070
     4
1000
CON,BGD
1002
{
1002
}
1000
Color
1070
     1
1070
   256
1002
{
1002
}
1000
LType
1070
     4
1000
BYLAYER
1002
{
1002
}
1002
}
1000
CON2
1070
     9
1000
1
1002
{
1000
Class
1070
     4
1000
CON,BGD
1002
{
1002
}
1000
Color
1070
     1
1070
   256
1002
{
1002
}
1000
LType
1070
     4
1000
BYLAYER
1002
{
1002
}
1002
}
1000
CON3
1070
     9
1000
2
1002
{
1000
Class
1070
     4
1000
CON,BGD
1002
{
1002
}
1000
Color
1070
     1
1070
   256
1002
{
1002
}
1000
LType
1070
     4
1000
BYLAYER
1002
{
1002
}
1002
}
1000
CON4
1070
     9
1000
2
1002
{
1000
Class
1070
     4
1000
CON,BGD
1002
{
1002
}
1000
Color
1070
     1
1070
   256
1002
{
1002
}
1000
LType
1070
     4
1000
BYLAYER
1002
{
1002
}
1002
}
1000
DERP
1070
     9
1000
4
1002
{
1000
Class
1070
     4
1000

1002
{
1002
}
1000
Color
1070
     1
1070
   256
1002
{
1002
}
1000
LType
1070
     4
1000
BYLAYER
1002
{
1002
}
1002
}
1000
DETA
1070
     9
1000
4
1002
{
1000
Class
1070
     4
1000

1002
{
1002
}
1000
Color
1070
     1
1070
   256
1002
{
1002
}
1000
LType
1070
     4
1000
BYLAYER
1002
{
1002
}
1002
}
1000
DIAG
1070
     9
1000
5
1002
{
1000
Class
1070
     4
1000
SYM
1002
{
1002
}
1000
Color
1070
     1
1070
   256
1002
{
1002
}
1000
LType
1070
     4
1000
BYLAYER
1002
{
1002
}
1002
}
1000
DILI
1070
     9
1000
5
1002
{
1000
Class
1070
     4
1000
DIM,SYM
1002
{
1002
}
1000
Color
1070
     1
1070
   256
1002
{
1002
}
1000
LType
1070
     4
1000
BYLAYER
1002
{
1002
}
1002
}
1000
DITO2
1070
     9
1000
5
1002
{
1000
Class
1070
     4
1000
DIM,SYM
1002
{
1002
}
1000
Color
1070
     1
1070
     3
1002
{
1002
}
1000
LType
1070
     4
1000
BYLAYER
1002
{
1002
}
1002
}
1000
DITO3
1070
     9
1000
5
1002
{
1000
Class
1070
     4
1000
DIM,SYM
1002
{
1002
}
1000
Color
1070
     1
1070
     2
1002
{
1002
}
1000
LType
1070
     4
1000
BYLAYER
1002
{
1002
}
1002
}
1000
DITX
1070
     9
1000
5
1002
{
1000
Class
1070
     4
1000
DIM,SYM
1002
{
1002
}
1000
Color
1070
     1
1070
     2
1002
{
1002
}
1000
LType
1070
     4
1000
CONTINUOUS
1002
{
1002
}
1002
}
1000
DIXL
1070
     9
1000
5
1002
{
1000
Class
1070
     4
1000
DIM,SYM
1002
{
1002
}
1000
Color
1070
     1
1070
   256
1002
{
1002
}
1000
LType
1070
     4
1000
BYLAYER
1002
{
1002
}
1002
}
1000
EXMP
1070
     9
1000
4A
1002
{
1000
Class
1070
     4
1000

1002
{
1002
}
1000
Color
1070
     1
1070
   256
1002
{
1002
}
1000
LType
1070
     4
1000
BYLAYER
1002
{
1002
}
1002
}
1000
FEMN
1070
     9
1000
8
1002
{
1000
Class
1070
     4
1000

1002
{
1002
}
1000
Color
1070
     1
1070
   256
1002
{
1002
}
1000
LType
1070
     4
1000
BYLAYER
1002
{
1002
}
1002
}
1000
FEMPN
1070
     9
1000
8
1002
{
1000
Class
1070
     4
1000
SYM
1002
{
1002
}
1000
Color
1070
     1
1070
     3
1002
{
1002
}
1000
LType
1070
     4
1000
BYLAYER
1002
{
1002
}
1002
}
1000
FEMSP
1070
     9
1000
4A
1002
{
1000
Class
1070
     4
1000

1002
{
1002
}
1000
Color
1070
     1
1070
   256
1002
{
1002
}
1000
LType
1070
     4
1000
CONTINUOUS
1002
{
1002
}
1002
}
1000
FEMST
1070
     9
1000
4A
1002
{
1000
Class
1070
     4
1000
SYM
1002
{
1002
}
1000
Color
1070
     1
1070
     3
1002
{
1002
}
1000
LType
1070
     4
1000
BYLAYER
1002
{
1002
}
1002
}
1000
FEMVN
1070
     9
1000
2
1002
{
1000
Class
1070
     4
1000
CON
1002
{
1002
}
1000
Color
1070
     1
1070
   256
1002
{
1002
}
1000
LType
1070
     4
1000
BYLAYER
1002
{
1002
}
1002
}
1000
FEMVT
1070
     9
1000
2
1002
{
1000
Class
1070
     4
1000
SYM
1002
{
1002
}
1000
Color
1070
     1
1070
     3
1002
{
1002
}
1000
LType
1070
     4
1000
BYLAYER
1002
{
1002
}
1002
}
1000
FLAT
1070
     9
1000
0
1002
{
1000
Class
1070
     4
1000

1002
{
1002
}
1000
Color
1070
     1
1070
   256
1002
{
1002
}
1000
LType
1070
     4
1000
BYLAYER
1002
{
1002
}
1002
}
1000
FRAR
1070
     9
1000
4A
1002
{
1000
Class
1070
     4
1000

1002
{
1002
}
1000
Color
1070
     1
1070
   256
1002
{
1002
}
1000
LType
1070
     4
1000
BYLAYER
1002
{
1002
}
1002
}
1000
GRLI
1070
     9
1000
5
1002
{
1000
Class
1070
     4
1000
SYM
1002
{
1002
}
1000
Color
1070
     1
1070
   256
1002
{
1002
}
1000
LType
1070
     4
1000
BYLAYER
1002
{
1002
}
1002
}
1000
GVLI
1070
     9
1000
4A
1002
{
1000
Class
1070
     4
1000

1002
{
1002
}
1000
Color
1070
     1
1070
   256
1002
{
1002
}
1000
LType
1070
     4
1000
BYLAYER
1002
{
1002
}
1002
}
1000
HATC
1070
     9
1000
8
1002
{
1000
Class
1070
     4
1000
HTC,BGD
1002
{
1002
}
1000
Color
1070
     1
1070
   256
1002
{
1002
}
1000
LType
1070
     4
1000
BYLAYER
1002
{
1002
}
1002
}
1000
HIDN
1070
     9
1000
3A
1002
{
1000
Class
1070
     4
1000
HID,BGD
1002
{
1002
}
1000
Color
1070
     1
1070
   256
1002
{
1002
}
1000
LType
1070
     4
1000
BYLAYER
1002
{
1002
}
1002
}
1000
HIDW
1070
     9
1000
3
1002
{
1000
Class
1070
     4
1000
HID,BGD
1002
{
1002
}
1000
Color
1070
     1
1070
   256
1002
{
1002
}
1000
LType
1070
     4
1000
BYLAYER
1002
{
1002
}
1002
}
1000
HLIN
1070
     9
1000
4
1002
{
1000
Class
1070
     4
1000
BGD
1002
{
1002
}
1000
Color
1070
     1
1070
   256
1002
{
1002
}
1000
LType
1070
     4
1000
BYLAYER
1002
{
1002
}
1002
}
1000
HOCN
1070
     9
1000
7A
1002
{
1000
Class
1070
     4
1000
CEN
1002
{
1002
}
1000
Color
1070
     1
1070
   256
1002
{
1002
}
1000
LType
1070
     4
1000
BYLAYER
1002
{
1002
}
1002
}
1000
HOCW
1070
     9
1000
7
1002
{
1000
Class
1070
     4
1000
CEN
1002
{
1002
}
1000
Color
1070
     1
1070
   256
1002
{
1002
}
1000
LType
1070
     4
1000
BYLAYER
1002
{
1002
}
1002
}
1000
INFO
1070
     9
1000
INFO
1002
{
1000
Class
1070
     4
1000
SPZ,SYM
1002
{
1002
}
1000
Color
1070
     1
1070
   256
1002
{
1002
}
1000
LType
1070
     4
1000
BYLAYER
1002
{
1002
}
1002
}
1000
LADI
1070
     9
1000
4
1002
{
1000
Class
1070
     4
1000
BGD
1002
{
1002
}
1000
Color
1070
     1
1070
   256
1002
{
1002
}
1000
LType
1070
     4
1000
BYLAYER
1002
{
1002
}
1002
}
1000
LEAD
1070
     9
1000
5
1002
{
1000
Class
1070
     4
1000
SYM
1002
{
1002
}
1000
Color
1070
     1
1070
   256
1002
{
1002
}
1000
LType
1070
     4
1000
BYLAYER
1002
{
1002
}
1002
}
1000
N_ADDL
1070
     9
1000
5N
1002
{
1000
Class
1070
     4
1000
SYM
1002
{
1002
}
1000
Color
1070
     1
1070
     1
1002
{
1002
}
1000
LType
1070
     4
1000
BYLAYER
1002
{
1002
}
1002
}
1000
N_BHNV
1070
     9
1000
9N
1002
{
1000
Class
1070
     4
1000
INV
1002
{
1002
}
1000
Color
1070
     1
1070
   256
1002
{
1002
}
1000
LType
1070
     4
1000
BYLAYER
1002
{
1002
}
1002
}
1000
N_CON1
1070
     9
1000
0N
1002
{
1000
Class
1070
     4
1000
CON,BGD
1002
{
1002
}
1000
Color
1070
     1
1070
   256
1002
{
1002
}
1000
LType
1070
     4
1000
BYLAYER
1002
{
1002
}
1002
}
1000
N_CON2
1070
     9
1000
1N
1002
{
1000
Class
1070
     4
1000
CON,BGD
1002
{
1002
}
1000
Color
1070
     1
1070
   256
1002
{
1002
}
1000
LType
1070
     4
1000
BYLAYER
1002
{
1002
}
1002
}
1000
N_CON3
1070
     9
1000
2N
1002
{
1000
Class
1070
     4
1000
CON,BGD
1002
{
1002
}
1000
Color
1070
     1
1070
   256
1002
{
1002
}
1000
LType
1070
     4
1000
BYLAYER
1002
{
1002
}
1002
}
1000
N_CON4
1070
     9
1000
2N
1002
{
1000
Class
1070
     4
1000
CON,BGD
1002
{
1002
}
1000
Color
1070
     1
1070
   256
1002
{
1002
}
1000
LType
1070
     4
1000
BYLAYER
1002
{
1002
}
1002
}
1000
N_CENN
1070
     9
1000
7AN
1002
{
1000
Class
1070
     4
1000
CEN
1002
{
1002
}
1000
Color
1070
     1
1070
   256
1002
{
1002
}
1000
LType
1070
     4
1000
BYLAYER
1002
{
1002
}
1002
}
1000
N_CENW
1070
     9
1000
7N
1002
{
1000
Class
1070
     4
1000
CEN
1002
{
1002
}
1000
Color
1070
     1
1070
   256
1002
{
1002
}
1000
LType
1070
     4
1000
BYLAYER
1002
{
1002
}
1002
}
1000
N_DILI
1070
     9
1000
5N
1002
{
1000
Class
1070
     4
1000
DIM,SYM
1002
{
1002
}
1000
Color
1070
     1
1070
   256
1002
{
1002
}
1000
LType
1070
     4
1000
BYLAYER
1002
{
1002
}
1002
}
1000
N_DITX
1070
     9
1000
5N
1002
{
1000
Class
1070
     4
1000
DIM,SYM
1002
{
1002
}
1000
Color
1070
     1
1070
     2
1002
{
1002
}
1000
LType
1070
     4
1000
CONTINUOUS
1002
{
1002
}
1002
}
1000
N_DIXL
1070
     9
1000
5N
1002
{
1000
Class
1070
     4
1000
DIM,SYM
1002
{
1002
}
1000
Color
1070
     1
1070
   256
1002
{
1002
}
1000
LType
1070
     4
1000
BYLAYER
1002
{
1002
}
1002
}
1000
N_HATC
1070
     9
1000
8N
1002
{
1000
Class
1070
     4
1000
HTC,BGD
1002
{
1002
}
1000
Color
1070
     1
1070
   256
1002
{
1002
}
1000
LType
1070
     4
1000
BYLAYER
1002
{
1002
}
1002
}
1000
N_HIDN
1070
     9
1000
3AN
1002
{
1000
Class
1070
     4
1000
HID,BGD
1002
{
1002
}
1000
Color
1070
     1
1070
   256
1002
{
1002
}
1000
LType
1070
     4
1000
BYLAYER
1002
{
1002
}
1002
}
1000
N_HIDW
1070
     9
1000
3N
1002
{
1000
Class
1070
     4
1000
HID,BGD
1002
{
1002
}
1000
Color
1070
     1
1070
   256
1002
{
1002
}
1000
LType
1070
     4
1000
BYLAYER
1002
{
1002
}
1002
}
1000
N_NGIP
1070
     9
1000
IPN
1002
{
1000
Class
1070
     4
1000

1002
{
1002
}
1000
Color
1070
     1
1070
   256
1002
{
1002
}
1000
LType
1070
     4
1000
BYLAYER
1002
{
1002
}
1002
}
1000
N_PHAN
1070
     9
1000
4AN
1002
{
1000
Class
1070
     4
1000

1002
{
1002
}
1000
Color
1070
     1
1070
   256
1002
{
1002
}
1000
LType
1070
     4
1000
BYLAYER
1002
{
1002
}
1002
}
1000
N_POSL
1070
     9
1000
5N
1002
{
1000
Class
1070
     4
1000
SYM
1002
{
1002
}
1000
Color
1070
     1
1070
   256
1002
{
1002
}
1000
LType
1070
     4
1000
BYLAYER
1002
{
1002
}
1002
}
1000
N_TCON
1070
     9
1000
0N
1002
{
1000
Class
1070
     4
1000
CON,BGD
1002
{
1002
}
1000
Color
1070
     1
1070
   256
1002
{
1002
}
1000
LType
1070
     4
1000
BYLAYER
1002
{
1002
}
1002
}
1000
N_THLI
1070
     9
1000
4N
1002
{
1000
Class
1070
     4
1000
BGD
1002
{
1002
}
1000
Color
1070
     1
1070
   256
1002
{
1002
}
1000
LType
1070
     4
1000
BYLAYER
1002
{
1002
}
1002
}
1000
N_TLEN
1070
     9
1000
0N
1002
{
1000
Class
1070
     4
1000
CON,BGD
1002
{
1002
}
1000
Color
1070
     1
1070
   256
1002
{
1002
}
1000
LType
1070
     4
1000
BYLAYER
1002
{
1002
}
1002
}
1000
N_TXT3
1070
     9
1000
6N
1002
{
1000
Class
1070
     4
1000
SYM
1002
{
1002
}
1000
Color
1070
     1
1070
   256
1002
{
1002
}
1000
LType
1070
     4
1000
BYLAYER
1002
{
1002
}
1002
}
1000
N_VPLI
1070
     9
1000
2AN
1002
{
1000
Class
1070
     4
1000

1002
{
1002
}
1000
Color
1070
     1
1070
   256
1002
{
1002
}
1000
LType
1070
     4
1000
BYLAYER
1002
{
1002
}
1002
}
1000
NGIP
1070
     9
1000
IP
1002
{
1000
Class
1070
     4
1000

1002
{
1002
}
1000
Color
1070
     1
1070
   256
1002
{
1002
}
1000
LType
1070
     4
1000
BYLAYER
1002
{
1002
}
1002
}
1000
PAL2
1070
     9
1000
RAHM2
1002
{
1000
Class
1070
     4
1000
SPZ,SYM
1002
{
1002
}
1000
Color
1070
     1
1070
   256
1002
{
1002
}
1000
LType
1070
     4
1000
BYLAYER
1002
{
1002
}
1002
}
1000
PAL3
1070
     9
1000
RAHM3
1002
{
1000
Class
1070
     4
1000
SPZ,SYM
1002
{
1002
}
1000
Color
1070
     1
1070
   256
1002
{
1002
}
1000
LType
1070
     4
1000
BYLAYER
1002
{
1002
}
1002
}
1000
PAL5
1070
     9
1000
RAHM5
1002
{
1000
Class
1070
     4
1000
SPZ,SYM
1002
{
1002
}
1000
Color
1070
     1
1070
   256
1002
{
1002
}
1000
LType
1070
     4
1000
BYLAYER
1002
{
1002
}
1002
}
1000
PAL7
1070
     9
1000
RAHM5
1002
{
1000
Class
1070
     4
1000
SPZ,SYM
1002
{
1002
}
1000
Color
1070
     1
1070
     7
1002
{
1002
}
1000
LType
1070
     4
1000
CONTINUOUS
1002
{
1002
}
1002
}
1000
PHAN
1070
     9
1000
4A
1002
{
1000
Class
1070
     4
1000

1002
{
1002
}
1000
Color
1070
     1
1070
   256
1002
{
1002
}
1000
LType
1070
     4
1000
BYLAYER
1002
{
1002
}
1002
}
1000
POSL
1070
     9
1000
5
1002
{
1000
Class
1070
     4
1000
SYM
1002
{
1002
}
1000
Color
1070
     1
1070
   256
1002
{
1002
}
1000
LType
1070
     4
1000
BYLAYER
1002
{
1002
}
1002
}
1000
POSN
1070
     9
1000
6
1002
{
1000
Class
1070
     4
1000
SYM
1002
{
1002
}
1000
Color
1070
     1
1070
     7
1002
{
1002
}
1000
LType
1070
     4
1000
BYLAYER
1002
{
1002
}
1002
}
1000
POSREF
1070
     9
1000
6
1002
{
1000
Class
1070
     4
1000
SYM
1002
{
1002
}
1000
Color
1070
     1
1070
     5
1002
{
1002
}
1000
LType
1070
     4
1000
BYLAYER
1002
{
1002
}
1002
}
1000
POSX
1070
     9
1000
5
1002
{
1000
Class
1070
     4
1000
SYM
1002
{
1002
}
1000
Color
1070
     1
1070
     2
1002
{
1002
}
1000
LType
1070
     4
1000
CONTINUOUS
1002
{
1002
}
1002
}
1000
PSEC
1070
     9
1000
4A
1002
{
1000
Class
1070
     4
1000

1002
{
1002
}
1000
Color
1070
     1
1070
   256
1002
{
1002
}
1000
LType
1070
     4
1000
BYLAYER
1002
{
1002
}
1002
}
1000
RCGN
1070
     9
1000
7A
1002
{
1000
Class
1070
     4
1000
CEN
1002
{
1002
}
1000
Color
1070
     1
1070
   256
1002
{
1002
}
1000
LType
1070
     4
1000
BYLAYER
1002
{
1002
}
1002
}
1000
RCGW
1070
     9
1000
7
1002
{
1000
Class
1070
     4
1000
CEN
1002
{
1002
}
1000
Color
1070
     1
1070
   256
1002
{
1002
}
1000
LType
1070
     4
1000
BYLAYER
1002
{
1002
}
1002
}
1000
RFDI
1070
     9
1000
4
1002
{
1000
Class
1070
     4
1000
BGD
1002
{
1002
}
1000
Color
1070
     1
1070
   256
1002
{
1002
}
1000
LType
1070
     4
1000
BYLAYER
1002
{
1002
}
1002
}
1000
RQTR
1070
     9
1000
4
1002
{
1000
Class
1070
     4
1000

1002
{
1002
}
1000
Color
1070
     1
1070
     7
1002
{
1002
}
1000
LType
1070
     4
1000
GEN7A
1002
{
1002
}
1002
}
1000
RSBO
1070
     9
1000
4
1002
{
1000
Class
1070
     4
1000
BGD
1002
{
1002
}
1000
Color
1070
     1
1070
   256
1002
{
1002
}
1000
LType
1070
     4
1000
BYLAYER
1002
{
1002
}
1002
}
1000
SBRK
1070
     9
1000
4
1002
{
1000
Class
1070
     4
1000
BGD
1002
{
1002
}
1000
Color
1070
     1
1070
   256
1002
{
1002
}
1000
LType
1070
     4
1000
BYLAYER
1002
{
1002
}
1002
}
1000
SCEN
1070
     9
1000
7
1002
{
1000
Class
1070
     4
1000

1002
{
1002
}
1000
Color
1070
     1
1070
   256
1002
{
1002
}
1000
LType
1070
     4
1000
CONTINUOUS
1002
{
1002
}
1002
}
1000
SECT
1070
     9
1000
4
1002
{
1000
Class
1070
     4
1000
BGD
1002
{
1002
}
1000
Color
1070
     1
1070
   256
1002
{
1002
}
1000
LType
1070
     4
1000
BYLAYER
1002
{
1002
}
1002
}
1000
SELN
1070
     9
1000
7A
1002
{
1000
Class
1070
     4
1000

1002
{
1002
}
1000
Color
1070
     1
1070
   256
1002
{
1002
}
1000
LType
1070
     4
1000
BYLAYER
1002
{
1002
}
1002
}
1000
SELW
1070
     9
1000
7
1002
{
1000
Class
1070
     4
1000

1002
{
1002
}
1000
Color
1070
     1
1070
   256
1002
{
1002
}
1000
LType
1070
     4
1000
BYLAYER
1002
{
1002
}
1002
}
1000
SSYS
1070
     9
1000
0
1002
{
1000
Class
1070
     4
1000

1002
{
1002
}
1000
Color
1070
     1
1070
   256
1002
{
1002
}
1000
LType
1070
     4
1000
BYLAYER
1002
{
1002
}
1002
}
1000
STLI
1070
     9
1000
4
1002
{
1000
Class
1070
     4
1000

1002
{
1002
}
1000
Color
1070
     1
1070
     7
1002
{
1002
}
1000
LType
1070
     4
1000
GEN3A
1002
{
1002
}
1002
}
1000
SYB1
1070
     9
1000
5
1002
{
1000
Class
1070
     4
1000
SYM
1002
{
1002
}
1000
Color
1070
     1
1070
   256
1002
{
1002
}
1000
LType
1070
     4
1000
BYLAYER
1002
{
1002
}
1002
}
1000
SYB2
1070
     9
1000
5
1002
{
1000
Class
1070
     4
1000
SYM
1002
{
1002
}
1000
Color
1070
     1
1070
   256
1002
{
1002
}
1000
LType
1070
     4
1000
BYLAYER
1002
{
1002
}
1002
}
1000
SYB3
1070
     9
1000
6
1002
{
1000
Class
1070
     4
1000
SYM
1002
{
1002
}
1000
Color
1070
     1
1070
   256
1002
{
1002
}
1000
LType
1070
     4
1000
CONTINUOUS
1002
{
1002
}
1002
}
1000
SYB5
1070
     9
1000
5
1002
{
1000
Class
1070
     4
1000
SYM
1002
{
1002
}
1000
Color
1070
     1
1070
     7
1002
{
1002
}
1000
LType
1070
     4
1000
BYLAYER
1002
{
1002
}
1002
}
1000
SYMN
1070
     9
1000
7A
1002
{
1000
Class
1070
     4
1000
CEN
1002
{
1002
}
1000
Color
1070
     1
1070
   256
1002
{
1002
}
1000
LType
1070
     4
1000
BYLAYER
1002
{
1002
}
1002
}
1000
SYMW
1070
     9
1000
7
1002
{
1000
Class
1070
     4
1000
CEN
1002
{
1002
}
1000
Color
1070
     1
1070
   256
1002
{
1002
}
1000
LType
1070
     4
1000
BYLAYER
1002
{
1002
}
1002
}
1000
TCON
1070
     9
1000
0
1002
{
1000
Class
1070
     4
1000
CON,BGD
1002
{
1002
}
1000
Color
1070
     1
1070
   256
1002
{
1002
}
1000
LType
1070
     4
1000
BYLAYER
1002
{
1002
}
1002
}
1000
THLI
1070
     9
1000
4
1002
{
1000
Class
1070
     4
1000
BGD
1002
{
1002
}
1000
Color
1070
     1
1070
   256
1002
{
1002
}
1000
LType
1070
     4
1000
BYLAYER
1002
{
1002
}
1002
}
1000
TIT2
1070
     9
1000
RAHM2
1002
{
1000
Class
1070
     4
1000
SPZ,SYM
1002
{
1002
}
1000
Color
1070
     1
1070
   256
1002
{
1002
}
1000
LType
1070
     4
1000
BYLAYER
1002
{
1002
}
1002
}
1000
TIT3
1070
     9
1000
RAHM3
1002
{
1000
Class
1070
     4
1000
SPZ,SYM
1002
{
1002
}
1000
Color
1070
     1
1070
   256
1002
{
1002
}
1000
LType
1070
     4
1000
BYLAYER
1002
{
1002
}
1002
}
1000
TIT5
1070
     9
1000
RAHM5
1002
{
1000
Class
1070
     4
1000
SPZ,SYM
1002
{
1002
}
1000
Color
1070
     1
1070
   256
1002
{
1002
}
1000
LType
1070
     4
1000
BYLAYER
1002
{
1002
}
1002
}
1000
TIT7
1070
     9
1000
RAHM5
1002
{
1000
Class
1070
     4
1000
SPZ,SYM
1002
{
1002
}
1000
Color
1070
     1
1070
     7
1002
{
1002
}
1000
LType
1070
     4
1000
CONTINUOUS
1002
{
1002
}
1002
}
1000
TLEN
1070
     9
1000
0
1002
{
1000
Class
1070
     4
1000
CON,BGD
1002
{
1002
}
1000
Color
1070
     1
1070
   256
1002
{
1002
}
1000
LType
1070
     4
1000
BYLAYER
1002
{
1002
}
1002
}
1000
TRKN
1070
     9
1000
7A
1002
{
1000
Class
1070
     4
1000

1002
{
1002
}
1000
Color
1070
     1
1070
   256
1002
{
1002
}
1000
LType
1070
     4
1000
BYLAYER
1002
{
1002
}
1002
}
1000
TRKW
1070
     9
1000
7
1002
{
1000
Class
1070
     4
1000

1002
{
1002
}
1000
Color
1070
     1
1070
   256
1002
{
1002
}
1000
LType
1070
     4
1000
BYLAYER
1002
{
1002
}
1002
}
1000
TRLI
1070
     9
1000
4
1002
{
1000
Class
1070
     4
1000
BGD
1002
{
1002
}
1000
Color
1070
     1
1070
   256
1002
{
1002
}
1000
LType
1070
     4
1000
BYLAYER
1002
{
1002
}
1002
}
1000
TXT1
1070
     9
1000
6
1002
{
1000
Class
1070
     4
1000
SYM
1002
{
1002
}
1000
Color
1070
     1
1070
     2
1002
{
1002
}
1000
LType
1070
     4
1000
BYLAYER
1002
{
1002
}
1002
}
1000
TXT2
1070
     9
1000
6
1002
{
1000
Class
1070
     4
1000
SYM
1002
{
1002
}
1000
Color
1070
     1
1070
     2
1002
{
1002
}
1000
LType
1070
     4
1000
BYLAYER
1002
{
1002
}
1002
}
1000
TXT3
1070
     9
1000
6
1002
{
1000
Class
1070
     4
1000
SYM
1002
{
1002
}
1000
Color
1070
     1
1070
   256
1002
{
1002
}
1000
LType
1070
     4
1000
BYLAYER
1002
{
1002
}
1002
}
1000
TXT5
1070
     9
1000
6
1002
{
1000
Class
1070
     4
1000
SYM
1002
{
1002
}
1000
Color
1070
     1
1070
     7
1002
{
1002
}
1000
LType
1070
     4
1000
BYLAYER
1002
{
1002
}
1002
}
1000
TXT7
1070
     9
1000
6
1002
{
1000
Class
1070
     4
1000
SYM
1002
{
1002
}
1000
Color
1070
     1
1070
     7
1002
{
1002
}
1000
LType
1070
     4
1000
BYLAYER
1002
{
1002
}
1002
}
1000
VIEW
1070
     9
1000
VIEW
1002
{
1000
Class
1070
     4
1000
SPZ
1002
{
1002
}
1000
Color
1070
     1
1070
   256
1002
{
1002
}
1000
LType
1070
     4
1000
BYLAYER
1002
{
1002
}
1002
}
1000
VPLI
1070
     9
1000
2A
1002
{
1000
Class
1070
     4
1000

1002
{
1002
}
1000
Color
1070
     1
1070
   256
1002
{
1002
}
1000
LType
1070
     4
1000
BYLAYER
1002
{
1002
}
1002
}
1000
ZIZA
1070
     9
1000
4
1002
{
1000
Class
1070
     4
1000
BGD
1002
{
1002
}
1000
Color
1070
     1
1070
   256
1002
{
1002
}
1000
LType
1070
     4
1000
GENZIGZAG
1002
{
1002
}
1002
}
  0
APPID
  5
1248
330
11DE
100
AcDbSymbolTableRecord
100
AcDbRegAppTableRecord
  2
GENIUS_GENCFG4_13
 70
     0
1001
GENIUS_GENCFG_13
1071
1022853059
1000
1248
1000
GEN
1070
    12
1000
GenCfgObject
1000
GenCfgShort
1000
GenCfgReal
1000
GenCfgBool
1000
GenCfgString
1000
GenCfgDim
1000
GenCfgAttrInf
1000
GenCfgLaySection
1000
GenCfgLayer
1000
GenCfgEntSort
1000
GenCfgLType
1000
GenCfgFilter
1000
Balloon
1070
     0
1002
{
1000
GenIF
1070
     1
1070
     0
1002
{
1002
}
1000
GenPosInc
1070
     1
1070
     1
1002
{
1002
}
1000
GenPosBlk
1070
     1
1070
     8
1002
{
1002
}
1000
GenPosVar
1070
     1
1070
     0
1002
{
1002
}
1000
GenZiCir
1070
     2
1040
1.5
1002
{
1002
}
1000
MaxCharForCenteredText
1070
     1
1070
    30
1002
{
1002
}
1000
Snap
1070
     0
1002
{
1000
ActivationRadius
1070
     2
1040
1.0
1002
{
1002
}
1000
M
1070
     0
1002
{
1000
SnapStepX
1070
     2
1040
20.0
1002
{
1002
}
1000
SnapStepY
1070
     2
1040
10.0
1002
{
1002
}
1002
}
1000
I
1070
     0
1002
{
1000
SnapStepX
1070
     2
1040
1.0
1002
{
1002
}
1000
SnapStepY
1070
     2
1040
0.5
1002
{
1002
}
1002
}
1002
}
1002
}
1000
Centerline
1070
     0
1002
{
1000
ScaleNot
1070
     3
1070
     0
1002
{
1002
}
1000
M
1070
     0
1002
{
1000
GenCenAng
1070
     4
1000
45|90|135
1002
{
1002
}
1000
GenCenDia
1070
     2
1040
10.0
1002
{
1002
}
1000
GenCenDias
1070
     4
1000
10|20|30
1002
{
1002
}
1000
GenCenDist
1070
     2
1040
3.0
1002
{
1002
}
1000
GenCenLen
1070
     2
1040
10.0
1002
{
1002
}
1000
GenCenOff
1070
     2
1040
10.0
1002
{
1002
}
1002
}
1000
I
1070
     0
1002
{
1000
GenCenAng
1070
     4
1000
45|90|135
1002
{
1002
}
1000
GenCenDia
1070
     2
1040
0.5
1002
{
1002
}
1000
GenCenDias
1070
     4
1000
0.5|1.0|1.5
1002
{
1002
}
1000
GenCenDist
1070
     2
1040
0.125
1002
{
1002
}
1000
GenCenLen
1070
     2
1040
0.5
1002
{
1002
}
1000
GenCenOff
1070
     2
1040
0.5
1002
{
1002
}
1002
}
1002
}
1000
CLine
1070
     0
1002
{
1000
CAngArray
1070
     4
1000
30|45|60
1002
{
1002
}
1000
Typ
1070
     4
1000
XLINE
1002
{
1002
}
1000
M
1070
     0
1002
{
1000
CLinArray
1070
     4
1000
10|20|30
1002
{
1002
}
1002
}
1000
I
1070
     0
1002
{
1000
CLinArray
1070
     4
1000
0.125|0.25|0.5
1002
{
1002
}
1002
}
1002
}
1000
Detail
1070
     0
1002
{
1002
}
1000
Dimension
1070
     5
1002
{
1000
DIMALT
1070
     1
1070
     0
1002
{
1002
}
1000
DIMALTD
1070
     1
1070
     2
1002
{
1002
}
1000
DIMALTTD
1070
     1
1070
     4
1002
{
1002
}
1000
DIMALTTZ
1070
     1
1070
     0
1002
{
1002
}
1000
DIMALTU
1070
     1
1070
     2
1002
{
1002
}
1000
DIMALTZ
1070
     1
1070
     0
1002
{
1002
}
1000
DIMAUNIT
1070
     1
1070
     0
1002
{
1002
}
1000
DIMBLK
1070
     4
1000

1002
{
1002
}
1000
DIMBLK1
1070
     4
1000

1002
{
1002
}
1000
DIMBLK2
1070
     4
1000

1002
{
1002
}
1000
DIMCLRD
1070
     1
1070
   256
1002
{
1002
}
1000
DIMCLRE
1070
     1
1070
   256
1002
{
1002
}
1000
DIMCLRT
1070
     1
1070
     2
1002
{
1002
}
1000
DIMDLE
1070
     2
1040
0.0
1002
{
1002
}
1000
DIMFIT
1070
     1
1070
     3
1002
{
1002
}
1000
DIMJUST
1070
     1
1070
     0
1002
{
1002
}
1000
DIMLFAC
1070
     2
1040
1.0
1002
{
1002
}
1000
DIMLIM
1070
     1
1070
     0
1002
{
1002
}
1000
DIMPOST
1070
     4
1000

1002
{
1002
}
1000
DIMRND
1070
     2
1040
0.0
1002
{
1002
}
1000
DIMSAH
1070
     1
1070
     0
1002
{
1002
}
1000
DIMSCALE
1070
     2
1040
1.0
1002
{
1002
}
1000
DIMSD1
1070
     1
1070
     0
1002
{
1002
}
1000
DIMSD2
1070
     1
1070
     0
1002
{
1002
}
1000
DIMSE1
1070
     1
1070
     0
1002
{
1002
}
1000
DIMSE2
1070
     1
1070
     0
1002
{
1002
}
1000
DIMSOXD
1070
     1
1070
     0
1002
{
1002
}
1000
DIMTAD
1070
     1
1070
     0
1002
{
1002
}
1000
DIMTFAC
1070
     2
1040
0.71
1002
{
1002
}
1000
DIMTIH
1070
     1
1070
     0
1002
{
1002
}
1000
DIMTIX
1070
     1
1070
     0
1002
{
1002
}
1000
DIMTM
1070
     2
1040
0.1
1002
{
1002
}
1000
DIMTOFL
1070
     1
1070
     0
1002
{
1002
}
1000
DIMTOH
1070
     1
1070
     0
1002
{
1002
}
1000
DIMTOL
1070
     1
1070
     0
1002
{
1002
}
1000
DIMTOLJ
1070
     1
1070
     1
1002
{
1002
}
1000
DIMTP
1070
     2
1040
0.1
1002
{
1002
}
1000
DIMTSZ
1070
     2
1040
0.0
1002
{
1002
}
1000
DIMTVP
1070
     2
1040
0.0
1002
{
1002
}
1000
DIMTXSTY
1070
     4
1000
STANDARD
1002
{
1002
}
1000
DIMTZIN
1070
     1
1070
     0
1002
{
1002
}
1000
DIMUNIT
1070
     1
1070
     2
1002
{
1002
}
1000
DIMUPT
1070
     1
1070
     0
1002
{
1002
}
1000
M
1070
     0
1002
{
1000
DIMALTF
1070
     2
1040
0.03937
1002
{
1002
}
1000
DIMAPOST
1070
     4
1000
"
1002
{
1002
}
1000
DIMASZ
1070
     2
1040
2.5
1002
{
1002
}
1000
DIMCEN
1070
     2
1040
0.0
1002
{
1002
}
1000
DIMDEC
1070
     1
1070
     2
1002
{
1002
}
1000
DIMDLI
1070
     2
1040
7.0
1002
{
1002
}
1000
DIMEXE
1070
     2
1040
1.0
1002
{
1002
}
1000
DIMEXO
1070
     2
1040
1.0
1002
{
1002
}
1000
DIMGAP
1070
     2
1040
0.6
1002
{
1002
}
1000
DIMTDEC
1070
     1
1070
     3
1002
{
1002
}
1000
DIMTXT
1070
     2
1040
3.5
1002
{
1002
}
1000
DIMZIN
1070
     1
1070
     8
1002
{
1002
}
1002
}
1000
I
1070
     0
1002
{
1000
DIMALTF
1070
     2
1040
25.4
1002
{
1002
}
1000
DIMAPOST
1070
     4
1000
mm
1002
{
1002
}
1000
DIMASZ
1070
     2
1040
0.1
1002
{
1002
}
1000
DIMCEN
1070
     2
1040
0.0
1002
{
1002
}
1000
DIMDEC
1070
     1
1070
     4
1002
{
1002
}
1000
DIMDLI
1070
     2
1040
0.5
1002
{
1002
}
1000
DIMEXE
1070
     2
1040
0.1
1002
{
1002
}
1000
DIMEXO
1070
     2
1040
0.05
1002
{
1002
}
1000
DIMGAP
1070
     2
1040
0.06
1002
{
1002
}
1000
DIMTDEC
1070
     1
1070
     4
1002
{
1002
}
1000
DIMTXT
1070
     2
1040
0.12
1002
{
1002
}
1000
DIMZIN
1070
     1
1070
     7
1002
{
1002
}
1002
}
1000
GEN-ISO
1070
     5
1002
{
1000
NAME
1070
     4
1000
GEN-ISO
1002
{
1002
}
1000
DIMTAD
1070
     1
1070
     1
1002
{
1002
}
1000
DIMTOLJ
1070
     1
1070
     0
1002
{
1002
}
1000
DIMTOFL
1070
     1
1070
     1
1002
{
1002
}
1000
M
1070
     0
1002
{
1002
}
1000
I
1070
     0
1002
{
1002
}
1002
}
1000
GEN-ISO-POS
1070
     5
1002
{
1000
NAME
1070
     4
1000
GEN-ISO-POS
1002
{
1002
}
1000
DIMTOLJ
1070
     1
1070
     0
1002
{
1002
}
1000
DIMTXSTY
1070
     4
1000
STANDARD
1002
{
1002
}
1000
M
1070
     0
1002
{
1000
DIMASZ
1070
     2
1040
2.5
1002
{
1002
}
1000
DIMGAP
1070
     2
1040
1.5
1002
{
1002
}
1000
DIMTXT
1070
     2
1040
5.0
1002
{
1002
}
1002
}
1000
I
1070
     0
1002
{
1000
DIMASZ
1070
     2
1040
0.1
1002
{
1002
}
1000
DIMGAP
1070
     2
1040
0.06
1002
{
1002
}
1000
DIMTXT
1070
     2
1040
0.2
1002
{
1002
}
1002
}
1002
}
1000
GEN-ISO-CIR
1070
     5
1002
{
1000
NAME
1070
     4
1000
GEN-ISO$3
1002
{
1002
}
1000
DIMFIT
1070
     1
1070
     0
1002
{
1002
}
1000
DIMTAD
1070
     1
1070
     1
1002
{
1002
}
1000
DIMTOH
1070
     1
1070
     1
1002
{
1002
}
1000
DIMTOLJ
1070
     1
1070
     0
1002
{
1002
}
1000
DIMUPT
1070
     1
1070
     1
1002
{
1002
}
1000
M
1070
     0
1002
{
1002
}
1000
I
1070
     0
1002
{
1002
}
1002
}
1000
GEN-ISO-RAD
1070
     5
1002
{
1000
NAME
1070
     4
1000
GEN-ISO$4
1002
{
1002
}
1000
DIMFIT
1070
     1
1070
     0
1002
{
1002
}
1000
DIMTAD
1070
     1
1070
     1
1002
{
1002
}
1000
DIMTIH
1070
     1
1070
     0
1002
{
1002
}
1000
DIMTIX
1070
     1
1070
     0
1002
{
1002
}
1000
DIMTOH
1070
     1
1070
     1
1002
{
1002
}
1000
DIMTOLJ
1070
     1
1070
     0
1002
{
1002
}
1000
DIMTOFL
1070
     1
1070
     0
1002
{
1002
}
1000
DIMUPT
1070
     1
1070
     1
1002
{
1002
}
1000
M
1070
     0
1002
{
1002
}
1000
I
1070
     0
1002
{
1002
}
1002
}
1000
GEN-ISO-ORD
1070
     5
1002
{
1000
NAME
1070
     4
1000
GEN-ISO$6
1002
{
1002
}
1000
DIMTOLJ
1070
     1
1070
     0
1002
{
1002
}
1000
M
1070
     0
1002
{
1002
}
1000
I
1070
     0
1002
{
1002
}
1002
}
1000
GEN-ISO-AXE-F
1070
     5
1002
{
1000
NAME
1070
     4
1000
GEN-ISO-AXE-F
1002
{
1002
}
1000
DIMSE1
1070
     1
1070
     1
1002
{
1002
}
1000
DIMSE2
1070
     1
1070
     1
1002
{
1002
}
1000
DIMTAD
1070
     1
1070
     1
1002
{
1002
}
1000
DIMTOLJ
1070
     1
1070
     0
1002
{
1002
}
1000
DIMTOFL
1070
     1
1070
     1
1002
{
1002
}
1000
M
1070
     0
1002
{
1002
}
1000
I
1070
     0
1002
{
1002
}
1002
}
1000
GEN-ISO-AXE-H
1070
     5
1002
{
1000
NAME
1070
     4
1000
GEN-ISO-AXE-H
1002
{
1002
}
1000
DIMBLK1
1070
     4
1000
GENAXEH
1002
{
1002
}
1000
DIMLFAC
1070
     2
1040
2.0
1002
{
1002
}
1000
DIMSAH
1070
     1
1070
     1
1002
{
1002
}
1000
DIMSE1
1070
     1
1070
     1
1002
{
1002
}
1000
DIMSE2
1070
     1
1070
     1
1002
{
1002
}
1000
DIMTAD
1070
     1
1070
     1
1002
{
1002
}
1000
DIMTOLJ
1070
     1
1070
     0
1002
{
1002
}
1000
DIMTOFL
1070
     1
1070
     1
1002
{
1002
}
1000
M
1070
     0
1002
{
1002
}
1000
I
1070
     0
1002
{
1002
}
1002
}
1000
GEN-ANSI
1070
     5
1002
{
1000
NAME
1070
     4
1000
GEN-ANSI
1002
{
1002
}
1000
DIMTIH
1070
     1
1070
     1
1002
{
1002
}
1000
DIMTOH
1070
     1
1070
     1
1002
{
1002
}
1000
DIMTAD
1070
     1
1070
     0
1002
{
1002
}
1000
DIMTOLJ
1070
     1
1070
     1
1002
{
1002
}
1000
M
1070
     0
1002
{
1002
}
1000
I
1070
     0
1002
{
1002
}
1002
}
1000
GEN-ANSI-POS
1070
     5
1002
{
1000
NAME
1070
     4
1000
GEN-ANSI-POS
1002
{
1002
}
1000
DIMTOLJ
1070
     1
1070
     1
1002
{
1002
}
1000
DIMTXSTY
1070
     4
1000
STANDARD
1002
{
1002
}
1000
M
1070
     0
1002
{
1000
DIMASZ
1070
     2
1040
2.5
1002
{
1002
}
1000
DIMGAP
1070
     2
1040
1.5
1002
{
1002
}
1000
DIMTXT
1070
     2
1040
5.0
1002
{
1002
}
1002
}
1000
I
1070
     0
1002
{
1000
DIMASZ
1070
     2
1040
0.1
1002
{
1002
}
1000
DIMGAP
1070
     2
1040
0.06
1002
{
1002
}
1000
DIMTXT
1070
     2
1040
0.2
1002
{
1002
}
1002
}
1002
}
1000
GEN-ANSI-CIR
1070
     5
1002
{
1000
NAME
1070
     4
1000
GEN-ANSI$3
1002
{
1002
}
1000
DIMFIT
1070
     1
1070
     0
1002
{
1002
}
1000
DIMTAD
1070
     1
1070
     0
1002
{
1002
}
1000
DIMTIH
1070
     1
1070
     1
1002
{
1002
}
1000
DIMTIX
1070
     1
1070
     0
1002
{
1002
}
1000
DIMTOFL
1070
     1
1070
     0
1002
{
1002
}
1000
DIMTOH
1070
     1
1070
     1
1002
{
1002
}
1000
DIMTOLJ
1070
     1
1070
     1
1002
{
1002
}
1000
DIMUPT
1070
     1
1070
     1
1002
{
1002
}
1000
M
1070
     0
1002
{
1002
}
1000
I
1070
     0
1002
{
1002
}
1002
}
1000
GEN-ANSI-RAD
1070
     5
1002
{
1000
NAME
1070
     4
1000
GEN-ANSI$4
1002
{
1002
}
1000
DIMFIT
1070
     1
1070
     0
1002
{
1002
}
1000
DIMTAD
1070
     1
1070
     0
1002
{
1002
}
1000
DIMTIH
1070
     1
1070
     1
1002
{
1002
}
1000
DIMTIX
1070
     1
1070
     0
1002
{
1002
}
1000
DIMTOFL
1070
     1
1070
     0
1002
{
1002
}
1000
DIMTOH
1070
     1
1070
     1
1002
{
1002
}
1000
DIMTOLJ
1070
     1
1070
     1
1002
{
1002
}
1000
DIMUPT
1070
     1
1070
     1
1002
{
1002
}
1000
M
1070
     0
1002
{
1002
}
1000
I
1070
     0
1002
{
1002
}
1002
}
1000
GEN-ANSI-ORD
1070
     5
1002
{
1000
NAME
1070
     4
1000
GEN-ANSI$6
1002
{
1002
}
1000
DIMTAD
1070
     1
1070
     0
1002
{
1002
}
1000
DIMTIH
1070
     1
1070
     1
1002
{
1002
}
1000
DIMTOH
1070
     1
1070
     1
1002
{
1002
}
1000
DIMTOLJ
1070
     1
1070
     1
1002
{
1002
}
1000
M
1070
     0
1002
{
1002
}
1000
I
1070
     0
1002
{
1002
}
1002
}
1000
GEN-ANSI-AXE-F
1070
     5
1002
{
1000
NAME
1070
     4
1000
GEN-ANSI-AXE-F
1002
{
1002
}
1000
DIMBLK1
1070
     4
1000
GENAXEH
1002
{
1002
}
1000
DIMSAH
1070
     1
1070
     1
1002
{
1002
}
1000
DIMSE1
1070
     1
1070
     1
1002
{
1002
}
1000
DIMSE2
1070
     1
1070
     1
1002
{
1002
}
1000
DIMTAD
1070
     1
1070
     0
1002
{
1002
}
1000
DIMTIH
1070
     1
1070
     1
1002
{
1002
}
1000
DIMTOH
1070
     1
1070
     1
1002
{
1002
}
1000
DIMTOLJ
1070
     1
1070
     1
1002
{
1002
}
1000
M
1070
     0
1002
{
1002
}
1000
I
1070
     0
1002
{
1002
}
1002
}
1000
GEN-ANSI-AXE-H
1070
     5
1002
{
1000
NAME
1070
     4
1000
GEN-ANSI-AXE-H
1002
{
1002
}
1000
DIMBLK1
1070
     4
1000
GENAXEH
1002
{
1002
}
1000
DIMLFAC
1070
     2
1040
2.0
1002
{
1002
}
1000
DIMSAH
1070
     1
1070
     1
1002
{
1002
}
1000
DIMSE1
1070
     1
1070
     1
1002
{
1002
}
1000
DIMSE2
1070
     1
1070
     1
1002
{
1002
}
1000
DIMTAD
1070
     1
1070
     0
1002
{
1002
}
1000
DIMTOFL
1070
     1
1070
     1
1002
{
1002
}
1000
DIMTOLJ
1070
     1
1070
     1
1002
{
1002
}
1000
M
1070
     0
1002
{
1002
}
1000
I
1070
     0
1002
{
1002
}
1002
}
1002
}
1000
DimSet
1070
     0
1002
{
1000
ChainSum
1070
     3
1070
     0
1002
{
1002
}
1000
DimDclTyp0
1070
     4
1000
dim23
1002
{
1002
}
1000
HorBra
1070
     3
1070
     0
1002
{
1002
}
1000
StrDia
1070
     4
1000
%%c<>
1002
{
1002
}
1000
StrRad
1070
     4
1000
R<>
1002
{
1002
}
1000
TextMinus
1070
     4
1000
<>
1002
{
1002
}
1000
TextPlus
1070
     4
1000
<>
1002
{
1002
}
1000
M
1070
     0
1002
{
1000
DimdliFirst
1070
     2
1040
10.0
1002
{
1002
}
1000
PointMakeDist
1070
     2
1040
10.0
1002
{
1002
}
1002
}
1000
I
1070
     0
1002
{
1000
DimdliFirst
1070
     2
1040
0.5
1002
{
1002
}
1000
PointMakeDist
1070
     2
1040
0.5
1002
{
1002
}
1002
}
1000
FitGrade
1070
     4
1000
h7
1002
{
1002
}
1002
}
1000
Drawing
1070
     0
1002
{
1000
ChamferDimMode
1070
     1
1070
     2
1002
{
1002
}
1000
Gen_Fiso
1070
    -3
1040
1.0
1002
{
1002
}
1000
GenDimStil
1070
     4
1000
ISO
1002
{
1002
}
1000
GenDwgUScale
1070
     2
1040
1.0
1002
{
1002
}
1000
GenInch
1070
     4
1000
M
1002
{
1002
}
1000
GenPlotScale
1070
     4
1000
1:5
1002
{
1002
}
1000
Revisi
1070
     4
1000
0
1002
{
1002
}
1000
Version
1070
    -5
1000
14.01/Apr  1 1998
1002
{
1002
}
1000
Platform
1070
    -5
1000
WINNT
1002
{
1002
}
1002
}
1000
DwgVar
1070
     0
1002
{
1000
M
1070
     0
1002
{
1002
}
1000
I
1070
     0
1002
{
1002
}
1002
}
1000
Hatch
1070
     0
1002
{
1000
GenHtcFlag
1070
     3
1070
     0
1002
{
1002
}
1002
}
1000
Info_Pos
1070
     0
1002
{
1000
>
1002
}
1000
Layer
1070
     7
1002
{
1000
Defs
1070
     0
1002
{
1000
>
1002
}
1000
EntSort
1070
     0
1002
{
1000
>
1002
}
1000
Match
1070
     0
1002
{
1002
}
1000
Settings
1070
     0
1002
{
1000
FocGrNC
1070
     3
1070
     0
1002
{
1002
}
1000
FocGrLo
1070
     3
1070
     0
1002
{
1002
}
1000
FocLoNC
1070
     3
1070
     0
1002
{
1002
}
1000
FocusCol
1070
     1
1070
   253
1002
{
1002
}
1000
GenStdLG
1070
     4
1000

1002
{
1002
}
1000
LayMatch
1070
     3
1070
     0
1002
{
1002
}
1000
LgOff
1070
     3
1070
     0
1002
{
1002
}
1000
CurLG
1070
    -5
1000

1002
{
1002
}
1002
}
1002
}
1000
LType
1070
     0
1002
{
1000
GEN3
1070
    10
1000
genius.lin
1002
{
1002
}
1000
GEN7
1070
    10
1000
genius.lin
1002
{
1002
}
1000
GEN4A
1070
    10
1000
genius.lin
1002
{
1002
}
1000
GEN3A
1070
    10
1000
genius.lin
1002
{
1002
}
1000
GEN7A
1070
    10
1000
genius.lin
1002
{
1002
}
1000
GENZIGZAG
1070
    10
1000
genius.lin
1002
{
1002
}
1002
}
1000
Objecter
1070
     0
1002
{
1000
CreateGroups
1070
     3
1070
     0
1002
{
1002
}
1000
LaySwitch
1070
     3
1070
     1
1002
{
1002
}
1000
LastObj
1070
    -5
1000
127B
1002
{
1002
}
1000
TimeStamp
1070
    -5
1000
20020531.15505210
1002
{
1002
}
1002
}
1000
OSWiz
1070
     0
1002
{
1000
Filter
1070
     0
1002
{
1000
HATCH
1070
    11
1002
{
1000
EntityType
1070
     4
1000
LINE
1002
{
1002
}
1000
Layer
1070
     4
1000
8,8N,*-8,*-8N
1002
{
1002
}
1000
Linetype
1070
     4
1000
*
1002
{
1002
}
1000
Color
1070
     4
1000
*
1002
{
1002
}
1000
ApplyInDims
1070
     3
1070
     1
1002
{
1002
}
1002
}
1000
SYMBOLS
1070
    11
1002
{
1000
EntityType
1070
     4
1000
*
1002
{
1002
}
1000
Layer
1070
     4
1000
[5-6],[5-6]N,*-[5-6],*-[5-6]N
1002
{
1002
}
1000
Linetype
1070
     4
1000
*
1002
{
1002
}
1000
Color
1070
     4
1000
*
1002
{
1002
}
1000
ApplyInDims
1070
     3
1070
     1
1002
{
1002
}
1002
}
1000
FEM
1070
    11
1002
{
1000
EntityType
1070
     4
1000
*
1002
{
1002
}
1000
Layer
1070
     4
1000
4A,4AN,*-4A,*-4AN
1002
{
1002
}
1000
Linetype
1070
     4
1000
*
1002
{
1002
}
1000
Color
1070
     4
1000
*
1002
{
1002
}
1000
ApplyInDims
1070
     3
1070
     1
1002
{
1002
}
1002
}
1002
}
1002
}
1000
PaList
1070
     0
1002
{
1000
AutoUpdatePartList
1070
     1
1070
     0
1002
{
1002
}
1000
ReadInfoPoint
1070
     3
1070
     0
1002
{
1002
}
1000
ReadPosNr
1070
     3
1070
     1
1002
{
1002
}
1000
RevStr
1070
     4
1000
0
1002
{
1002
}
1002
}
1000
Paper
1070
     0
1002
{
1002
}
1000
PartDB
1070
     0
1002
{
1000
GenDbOwner
1070
     4
1000

1002
{
1002
}
1002
}
1000
System
1070
     0
1002
{
1000
Menu
1070
     4
1000
GEV
1002
{
1002
}
1002
}
1000
Title
1070
     0
1002
{
1000
MakeView
1070
     1
1070
     2
1002
{
1002
}
1002
}
1000
Tools
1070
     0
1002
{
1000
Trans
1070
     0
1002
{
1000
Drawingtranslation
1070
    -4
1070
     1
1002
{
1002
}
1000
upreserve
1070
     3
1070
     0
1002
{
1002
}
1000
originally_on
1070
    -4
1070
     0
1002
{
1002
}
1000
sourcelang
1070
    -5
1000
D
1002
{
1002
}
1002
}
1002
}
  0
APPID
  5
1249
330
11DE
100
AcDbSymbolTableRecord
100
AcDbRegAppTableRecord
  2
GENIUS_GEVCFG0_13
 70
     0
1001
GENIUS_GENCFG_13
1071
1022853059
1000
1249
1000
GEV
1070
     1
1000
GenCfgObject
1000
VED
1070
     0
1002
{
1002
}
  0
APPID
  5
124A
330
11DE
100
AcDbSymbolTableRecord
100
AcDbRegAppTableRecord
  2
GEV_VCCNULL_SWITCH_OFF
 70
     0
  0
APPID
  5
124B
330
11DE
100
AcDbSymbolTableRecord
100
AcDbRegAppTableRecord
  2
GENIUS_GENDTOL_13
 70
     0
  0
APPID
  5
124C
330
11DE
100
AcDbSymbolTableRecord
100
AcDbRegAppTableRecord
  2
GENIUS_GENOENT_13
 70
     0
  0
APPID
  5
124D
330
11DE
100
AcDbSymbolTableRecord
100
AcDbRegAppTableRecord
  2
GENIUS_GENBLLY_14
 70
     0
  0
APPID
  5
124E
330
11DE
100
AcDbSymbolTableRecord
100
AcDbRegAppTableRecord
  2
GENIUS_GENODEF_13
 70
     0
  0
APPID
  5
124F
330
11DE
100
AcDbSymbolTableRecord
100
AcDbRegAppTableRecord
  2
GENIUS_GENOBJ-N-CRS_13
 70
     0
  0
APPID
  5
1250
330
11DE
100
AcDbSymbolTableRecord
100
AcDbRegAppTableRecord
  2
GENIUS_GENOREF_13
 70
     0
  0
APPID
  5
1251
330
11DE
100
AcDbSymbolTableRecord
100
AcDbRegAppTableRecord
  2
GENIUS_GENOLIS_13
 70
     0
  0
APPID
  5
1252
330
11DE
100
AcDbSymbolTableRecord
100
AcDbRegAppTableRecord
  2
GENIUS_GEFCFG0_13
 70
     0
  0
APPID
  5
1253
330
11DE
100
AcDbSymbolTableRecord
100
AcDbRegAppTableRecord
  2
GENIUS_VERSION2
 70
     0
  0
APPID
  5
1254
330
11DE
100
AcDbSymbolTableRecord
100
AcDbRegAppTableRecord
  2
GENIUS_GENREC_14
 70
     0
  0
APPID
  5
1255
330
11DE
100
AcDbSymbolTableRecord
100
AcDbRegAppTableRecord
  2
GENIUS_GENOBJ-N-REC_13
 70
     0
  0
APPID
  5
1256
330
11DE
100
AcDbSymbolTableRecord
100
AcDbRegAppTableRecord
  2
GENIUS_GENOBJ-N-TIT_13
 70
     0
  0
APPID
  5
1257
330
11DE
100
AcDbSymbolTableRecord
100
AcDbRegAppTableRecord
  2
GENIUS_GENTITLE_13
 70
     0
  0
APPID
  5
1258
330
11DE
100
AcDbSymbolTableRecord
100
AcDbRegAppTableRecord
  2
GENIUS_GENZVEED_13
 70
     0
  0
APPID
  5
1259
330
11DE
100
AcDbSymbolTableRecord
100
AcDbRegAppTableRecord
  2
GENIUS_GENOBJ-N-SDF_13
 70
     0
  0
APPID
  5
125A
330
11DE
100
AcDbSymbolTableRecord
100
AcDbRegAppTableRecord
  2
GENIUS_GENSCREG_13
 70
     0
  0
APPID
  5
125B
330
11DE
100
AcDbSymbolTableRecord
100
AcDbRegAppTableRecord
  2
GENIUS_GENBLKED_14
 70
     0
  0
APPID
  5
1354
330
11DE
100
AcDbSymbolTableRecord
100
AcDbRegAppTableRecord
  2
MCAD_NO_VIS
 70
     0
  0
APPID
  5
1355
330
11DE
100
AcDbSymbolTableRecord
100
AcDbRegAppTableRecord
  2
ACAD_TEMP_GRAPHIC
 70
     0
  0
APPID
  5
1385
330
11DE
100
AcDbSymbolTableRecord
100
AcDbRegAppTableRecord
  2
AD_DRAW
 70
     0
  0
APPID
  5
1388
330
11DE
100
AcDbSymbolTableRecord
100
AcDbRegAppTableRecord
  2
ACATTRIBSERVICES
 70
     0
  0
APPID
  5
13A8
330
11DE
100
AcDbSymbolTableRecord
100
AcDbRegAppTableRecord
  2
DESIGNERASSEMBLIES
 70
     0
  0
APPID
  5
13AE
330
11DE
100
AcDbSymbolTableRecord
100
AcDbRegAppTableRecord
  2
ACADM_DIM_EDIT
 70
     0
  0
APPID
  5
13AF
330
11DE
100
AcDbSymbolTableRecord
100
AcDbRegAppTableRecord
  2
AMDT_DM_ADJ
 70
     0
  0
APPID
  5
13E1
330
11DE
100
AcDbSymbolTableRecord
100
AcDbRegAppTableRecord
  2
ACAD_DSTYLE_DIMARC_LENGTH_SYMBOL
 70
     0
  0
APPID
  5
13E2
330
11DE
100
AcDbSymbolTableRecord
100
AcDbRegAppTableRecord
  2
ACAD_DSTYLE_DIMJOGGED_JOGANGLE_SYMBOL
 70
     0
  0
ENDTAB
  0
TABLE
  2
DIMSTYLE
  5
11DF
330
0
100
AcDbSymbolTable
 70
     9
100
AcDbDimStyleTable
 71
     1
340
1205
  0
DIMSTYLE
105
1205
102
{ACAD_REACTORS
330
117C
330
1187
330
1191
102
}
330
11DF
100
AcDbSymbolTableRecord
100
AcDbDimStyleTableRecord
  2
GEN-ISO
 70
     0
  4
"
 40
5.0
 41
2.5
 42
1.0
 43
7.0
 44
1.0
 47
0.1
 48
0.1
 73
     0
 74
     0
 77
     1
 78
     8
140
3.5
141
0.0
143
0.03937
146
0.71
147
0.6
172
     1
176
   256
177
   256
178
     2
271
     2
272
     3
274
     4
283
     0
340
11E4
  0
DIMSTYLE
105
13E0
330
11DF
100
AcDbSymbolTableRecord
100
AcDbDimStyleTableRecord
  2
AM_DIN
 70
     0
  4
"
 41
2.5
 42
1.0
 43
10.0
 44
1.0
 47
0.1
 48
0.1
 73
     0
 74
     0
 77
     1
 78
     8
 79
     2
140
3.5
141
0.0
143
0.0393701
146
0.71
147
1.5
172
     1
176
   256
177
   256
178
     2
271
     2
272
     3
274
     4
283
     0
284
     8
340
11E4
371
    -1
372
    -1
1001
ACAD_DSTYLE_DIMARC_LENGTH_SYMBOL
1070
   379
1070
     0
1001
ACAD_DSTYLE_DIMJOGGED_JOGANGLE_SYMBOL
1070
   384
1040
1.570796326794896
  0
DIMSTYLE
105
13F1
330
11DF
100
AcDbSymbolTableRecord
100
AcDbDimStyleTableRecord
  2
AM_DIN$3
 70
     0
  4
"
 41
2.5
 42
1.0
 43
10.0
 44
1.0
 47
0.1
 48
0.1
 73
     0
 77
     1
 78
     8
 79
     2
140
3.5
141
0.0
143
0.0393701
146
0.71
147
1.5
176
   256
177
   256
178
     2
271
     2
272
     3
274
     4
283
     0
284
     8
288
     1
289
     0
340
11E4
371
    -1
372
    -1
1001
ACAD_DSTYLE_DIMARC_LENGTH_SYMBOL
1070
   379
1070
     0
1001
ACAD_DSTYLE_DIMJOGGED_JOGANGLE_SYMBOL
1070
   384
1040
1.570796326794896
  0
DIMSTYLE
105
13F6
330
11DF
100
AcDbSymbolTableRecord
100
AcDbDimStyleTableRecord
  2
AM_DIN$4
 70
     0
  4
"
 41
2.5
 42
1.0
 43
10.0
 44
1.0
 47
0.1
 48
0.1
 73
     0
 77
     1
 78
     8
 79
     2
140
3.5
141
0.0
143
0.0393701
146
0.71
147
1.5
176
   256
177
   256
178
     2
271
     2
272
     3
274
     4
283
     0
284
     8
288
     1
289
     0
340
11E4
371
    -1
372
    -1
1001
ACAD_DSTYLE_DIMARC_LENGTH_SYMBOL
1070
   379
1070
     0
1001
ACAD_DSTYLE_DIMJOGGED_JOGANGLE_SYMBOL
1070
   384
1040
1.570796326794896
  0
DIMSTYLE
105
13FB
330
11DF
100
AcDbSymbolTableRecord
100
AcDbDimStyleTableRecord
  2
AM_DIN$6
 70
     0
  4
"
 41
2.5
 42
1.0
 43
10.0
 44
1.0
 47
0.1
 48
0.1
 73
     0
 74
     0
 78
     8
 79
     2
140
3.5
141
0.0
143
0.0393701
146
0.71
147
1.5
172
     1
176
   256
177
   256
178
     2
271
     2
272
     3
274
     4
283
     0
284
     8
340
11E4
371
    -1
372
    -1
1001
ACAD_DSTYLE_DIMARC_LENGTH_SYMBOL
1070
   379
1070
     0
1001
ACAD_DSTYLE_DIMJOGGED_JOGANGLE_SYMBOL
1070
   384
1040
1.570796326794896
  0
DIMSTYLE
105
1400
330
11DF
100
AcDbSymbolTableRecord
100
AcDbDimStyleTableRecord
  2
AM_DIN$7
 70
     0
  4
"
 41
2.5
 42
1.0
 43
10.0
 44
1.0
 47
0.1
 48
0.1
 73
     0
 74
     0
 77
     1
 78
     8
 79
     2
140
5.0
141
0.0
143
0.0393701
146
0.71
147
1.5
172
     1
176
   256
177
   256
178
     2
271
     2
272
     3
274
     4
283
     0
284
     8
340
11E4
371
    -1
372
    -1
1001
ACAD_DSTYLE_DIMARC_LENGTH_SYMBOL
1070
   379
1070
     0
1001
ACAD_DSTYLE_DIMJOGGED_JOGANGLE_SYMBOL
1070
   384
1040
1.570796326794896
  0
DIMSTYLE
105
1405
330
11DF
100
AcDbSymbolTableRecord
100
AcDbDimStyleTableRecord
  2
AM_DIN$SF
 70
     0
  4
"
 41
2.5
 42
1.0
 43
10.0
 44
1.0
 47
0.1
 48
0.1
 73
     0
 74
     0
 75
     1
 76
     1
 77
     1
 78
     8
 79
     2
140
3.5
141
0.0
143
0.0393701
146
0.71
147
1.5
172
     1
176
   256
177
   256
178
     2
271
     2
272
     3
274
     4
283
     0
284
     8
340
11E4
371
    -1
372
    -1
1001
ACAD_DSTYLE_DIMARC_LENGTH_SYMBOL
1070
   379
1070
     0
1001
ACAD_DSTYLE_DIMJOGGED_JOGANGLE_SYMBOL
1070
   384
1040
1.570796326794896
  0
DIMSTYLE
105
140E
330
11DF
100
AcDbSymbolTableRecord
100
AcDbDimStyleTableRecord
  2
AM_DIN$SH
 70
     0
  4
"
 41
2.5
 42
1.0
 43
10.0
 44
1.0
 47
0.1
 48
0.1
 73
     0
 74
     0
 75
     1
 76
     1
 77
     1
 78
     8
 79
     2
140
3.5
141
0.0
143
0.0393701
144
2.0
146
0.71
147
1.5
172
     1
173
     1
176
   256
177
   256
178
     2
271
     2
272
     3
274
     4
283
     0
284
     8
340
11E4
343
1406
371
    -1
372
    -1
1001
ACAD_DSTYLE_DIMARC_LENGTH_SYMBOL
1070
   379
1070
     0
1001
ACAD_DSTYLE_DIMJOGGED_JOGANGLE_SYMBOL
1070
   384
1040
1.570796326794896
  0
ENDTAB
  0
TABLE
  2
BLOCK_RECORD
  5
11D6
330
0
100
AcDbSymbolTable
 70
    15
  0
BLOCK_RECORD
  5
11ED
330
11D6
100
AcDbSymbolTableRecord
100
AcDbBlockTableRecord
  2
*MODEL_SPACE
340
134C
  0
BLOCK_RECORD
  5
11EA
330
11D6
100
AcDbSymbolTableRecord
100
AcDbBlockTableRecord
  2
*PAPER_SPACE
340
134D
  0
BLOCK_RECORD
  5
1207
330
11D6
100
AcDbSymbolTableRecord
100
AcDbBlockTableRecord
  2
*X0
340
0
102
{BLKREFS
331
1084
102
}
  0
BLOCK_RECORD
  5
1208
330
11D6
100
AcDbSymbolTableRecord
100
AcDbBlockTableRecord
  2
*X1
340
0
102
{BLKREFS
331
10A1
102
}
  0
BLOCK_RECORD
  5
1209
330
11D6
100
AcDbSymbolTableRecord
100
AcDbBlockTableRecord
  2
*X2
340
0
102
{BLKREFS
331
10BE
102
}
  0
BLOCK_RECORD
  5
120A
330
11D6
100
AcDbSymbolTableRecord
100
AcDbBlockTableRecord
  2
*X3
340
0
102
{BLKREFS
331
10DB
102
}
  0
BLOCK_RECORD
  5
120B
330
11D6
100
AcDbSymbolTableRecord
100
AcDbBlockTableRecord
  2
*X4
340
0
102
{BLKREFS
331
10F9
102
}
  0
BLOCK_RECORD
  5
120C
330
11D6
100
AcDbSymbolTableRecord
100
AcDbBlockTableRecord
  2
*X5
340
0
102
{BLKREFS
331
111B
102
}
  0
BLOCK_RECORD
  5
120D
330
11D6
100
AcDbSymbolTableRecord
100
AcDbBlockTableRecord
  2
*X6
340
0
102
{BLKREFS
331
1143
102
}
  0
BLOCK_RECORD
  5
120E
330
11D6
100
AcDbSymbolTableRecord
100
AcDbBlockTableRecord
  2
*X7
340
0
102
{BLKREFS
331
1171
102
}
  0
BLOCK_RECORD
  5
1219
330
11D6
100
AcDbSymbolTableRecord
100
AcDbBlockTableRecord
  2
KATALOG_LEER
340
0
102
{BLKREFS
331
125D
331
127A
102
}
  0
BLOCK_RECORD
  5
127C
330
11D6
100
AcDbSymbolTableRecord
100
AcDbBlockTableRecord
  2
*D10
340
0
  0
BLOCK_RECORD
  5
1288
330
11D6
100
AcDbSymbolTableRecord
100
AcDbBlockTableRecord
  2
*D11
340
0
  0
BLOCK_RECORD
  5
129F
330
11D6
100
AcDbSymbolTableRecord
100
AcDbBlockTableRecord
  2
*D12
340
0
  0
BLOCK_RECORD
  5
1406
330
11D6
100
AcDbSymbolTableRecord
100
AcDbBlockTableRecord
  2
GENAXEH
340
0
  0
ENDTAB
  0
ENDSEC
  0
SECTION
  2
BLOCKS
  0
BLOCK
  5
11EE
330
11ED
100
AcDbEntity
  8
0
100
AcDbBlockBegin
  2
*MODEL_SPACE
 70
     0
 10
0.0
 20
0.0
 30
0.0
  3
*MODEL_SPACE
  1

  0
ENDBLK
  5
11EF
330
11ED
100
AcDbEntity
  8
0
100
AcDbBlockEnd
  0
BLOCK
  5
11EB
330
11EA
100
AcDbEntity
 67
     1
  8
0
100
AcDbBlockBegin
  2
*PAPER_SPACE
 70
     0
 10
0.0
 20
0.0
 30
0.0
  3
*PAPER_SPACE
  1

  0
ENDBLK
  5
11EC
330
11EA
100
AcDbEntity
 67
     1
  8
0
100
AcDbBlockEnd
  0
BLOCK
  5
107A
330
1207
100
AcDbEntity
  8
0
100
AcDbBlockBegin
  2
*X0
 70
     1
 10
0.0
 20
0.0
 30
0.0
  3
*X0
  1

  0
LINE
  5
107B
330
1207
100
AcDbEntity
  8
8
100
AcDbLine
 10
221.127
 20
285.78
 30
0.0
 11
223.452
 21
288.105
 31
0.0
  0
LINE
  5
107C
330
1207
100
AcDbEntity
  8
8
100
AcDbLine
 10
229.093
 20
293.746
 30
0.0
 11
237.778
 21
302.431
 31
0.0
  0
LINE
  5
107D
330
1207
100
AcDbEntity
  8
8
100
AcDbLine
 10
216.603
 20
285.746
 30
0.0
 11
238.209
 21
307.352
 31
0.0
  0
LINE
  5
107E
330
1207
100
AcDbEntity
  8
8
100
AcDbLine
 10
214.028
 20
287.661
 30
0.0
 11
235.113
 21
308.746
 31
0.0
  0
LINE
  5
107F
330
1207
100
AcDbEntity
  8
8
100
AcDbLine
 10
213.717
 20
291.84
 30
0.0
 11
230.623
 21
308.746
 31
0.0
  0
LINE
  5
1080
330
1207
100
AcDbEntity
  8
8
100
AcDbLine
 10
213.493
 20
296.106
 30
0.0
 11
226.133
 21
308.746
 31
0.0
  0
LINE
  5
1081
330
1207
100
AcDbEntity
  8
8
100
AcDbLine
 10
213.269
 20
300.373
 30
0.0
 11
221.643
 21
308.746
 31
0.0
  0
LINE
  5
1082
330
1207
100
AcDbEntity
  8
8
100
AcDbLine
 10
213.046
 20
304.639
 30
0.0
 11
217.152
 21
308.746
 31
0.0
  0
ENDBLK
  5
1083
330
1207
100
AcDbEntity
  8
0
100
AcDbBlockEnd
  0
BLOCK
  5
1096
330
1208
100
AcDbEntity
  8
0
100
AcDbBlockBegin
  2
*X1
 70
     1
 10
0.0
 20
0.0
 30
0.0
  3
*X1
  1

  0
LINE
  5
1097
330
1208
100
AcDbEntity
  8
8
100
AcDbLine
 10
186.612
 20
273.715
 30
0.0
 11
197.041
 21
284.145
 31
0.0
  0
LINE
  5
1098
330
1208
100
AcDbEntity
  8
8
100
AcDbLine
 10
185.015
 20
276.608
 30
0.0
 11
197.29
 21
288.883
 31
0.0
  0
LINE
  5
1099
330
1208
100
AcDbEntity
  8
8
100
AcDbLine
 10
184.791
 20
280.875
 30
0.0
 11
197.538
 21
293.622
 31
0.0
  0
LINE
  5
109A
330
1208
100
AcDbEntity
  8
8
100
AcDbLine
 10
184.5679999999999
 20
285.142
 30
0.0
 11
197.7859999999999
 21
298.36
 31
0.0
  0
LINE
  5
109B
330
1208
100
AcDbEntity
  8
8
100
AcDbLine
 10
184.344
 20
289.408
 30
0.0
 11
198.035
 21
303.099
 31
0.0
  0
LINE
  5
109C
330
1208
100
AcDbEntity
  8
8
100
AcDbLine
 10
184.121
 20
293.675
 30
0.0
 11
198.283
 21
307.837
 31
0.0
  0
LINE
  5
109D
330
1208
100
AcDbEntity
  8
8
100
AcDbLine
 10
183.897
 20
297.941
 30
0.0
 11
194.702
 21
308.746
 31
0.0
  0
LINE
  5
109E
330
1208
100
AcDbEntity
  8
8
100
AcDbLine
 10
183.673
 20
302.208
 30
0.0
 11
190.212
 21
308.746
 31
0.0
  0
LINE
  5
109F
330
1208
100
AcDbEntity
  8
8
100
AcDbLine
 10
183.45
 20
306.474
 30
0.0
 11
185.722
 21
308.746
 31
0.0
  0
ENDBLK
  5
10A0
330
1208
100
AcDbEntity
  8
0
100
AcDbBlockEnd
  0
BLOCK
  5
10B1
330
1209
100
AcDbEntity
  8
0
100
AcDbBlockBegin
  2
*X2
 70
     1
 10
0.0
 20
0.0
 30
0.0
  3
*X2
  1

  0
LINE
  5
10B2
330
1209
100
AcDbEntity
  8
8
100
AcDbLine
 10
157.794
 20
267.348
 30
0.0
 11
166.624
 21
276.178
 31
0.0
  0
LINE
  5
10B3
330
1209
100
AcDbEntity
  8
8
100
AcDbLine
 10
155.432
 20
269.476
 30
0.0
 11
166.872
 21
280.916
 31
0.0
  0
LINE
  5
10B4
330
1209
100
AcDbEntity
  8
8
100
AcDbLine
 10
155.167
 20
273.702
 30
0.0
 11
167.121
 21
285.655
 31
0.0
  0
LINE
  5
10B5
330
1209
100
AcDbEntity
  8
8
100
AcDbLine
 10
154.944
 20
277.968
 30
0.0
 11
167.369
 21
290.393
 31
0.0
  0
LINE
  5
10B6
330
1209
100
AcDbEntity
  8
8
100
AcDbLine
 10
154.72
 20
282.235
 30
0.0
 11
167.617
 21
295.132
 31
0.0
  0
LINE
  5
10B7
330
1209
100
AcDbEntity
  8
8
100
AcDbLine
 10
154.496
 20
286.501
 30
0.0
 11
167.8659999999999
 21
299.87
 31
0.0
  0
LINE
  5
10B8
330
1209
100
AcDbEntity
  8
8
100
AcDbLine
 10
154.273
 20
290.768
 30
0.0
 11
168.114
 21
304.609
 31
0.0
  0
LINE
  5
10B9
330
1209
100
AcDbEntity
  8
8
100
AcDbLine
 10
154.049
 20
295.034
 30
0.0
 11
167.761
 21
308.746
 31
0.0
  0
LINE
  5
10BA
330
1209
100
AcDbEntity
  8
8
100
AcDbLine
 10
153.826
 20
299.301
 30
0.0
 11
163.271
 21
308.746
 31
0.0
  0
LINE
  5
10BB
330
1209
100
AcDbEntity
  8
8
100
AcDbLine
 10
153.602
 20
303.567
 30
0.0
 11
158.781
 21
308.746
 31
0.0
  0
LINE
  5
10BC
330
1209
100
AcDbEntity
  8
8
100
AcDbLine
 10
153.378
 20
307.834
 30
0.0
 11
154.291
 21
308.746
 31
0.0
  0
ENDBLK
  5
10BD
330
1209
100
AcDbEntity
  8
0
100
AcDbBlockEnd
  0
BLOCK
  5
10CE
330
120A
100
AcDbEntity
  8
0
100
AcDbBlockBegin
  2
*X3
 70
     1
 10
0.0
 20
0.0
 30
0.0
  3
*X3
  1

  0
LINE
  5
10CF
330
120A
100
AcDbEntity
  8
8
100
AcDbLine
 10
131.097
 20
267.592
 30
0.0
 11
136.455
 21
272.949
 31
0.0
  0
LINE
  5
10D0
330
120A
100
AcDbEntity
  8
8
100
AcDbLine
 10
127.136
 20
268.121
 30
0.0
 11
136.703
 21
277.688
 31
0.0
  0
LINE
  5
10D1
330
120A
100
AcDbEntity
  8
8
100
AcDbLine
 10
125.32
 20
270.795
 30
0.0
 11
136.951
 21
282.426
 31
0.0
  0
LINE
  5
10D2
330
120A
100
AcDbEntity
  8
8
100
AcDbLine
 10
125.096
 20
275.061
 30
0.0
 11
137.2
 21
287.165
 31
0.0
  0
LINE
  5
10D3
330
120A
100
AcDbEntity
  8
8
100
AcDbLine
 10
124.872
 20
279.328
 30
0.0
 11
137.448
 21
291.903
 31
0.0
  0
LINE
  5
10D4
330
120A
100
AcDbEntity
  8
8
100
AcDbLine
 10
124.649
 20
283.594
 30
0.0
 11
137.696
 21
296.642
 31
0.0
  0
LINE
  5
10D5
330
120A
100
AcDbEntity
  8
8
100
AcDbLine
 10
124.425
 20
287.861
 30
0.0
 11
137.945
 21
301.38
 31
0.0
  0
LINE
  5
10D6
330
120A
100
AcDbEntity
  8
8
100
AcDbLine
 10
124.202
 20
292.127
 30
0.0
 11
138.193
 21
306.119
 31
0.0
  0
LINE
  5
10D7
330
120A
100
AcDbEntity
  8
8
100
AcDbLine
 10
123.978
 20
296.394
 30
0.0
 11
136.33
 21
308.746
 31
0.0
  0
LINE
  5
10D8
330
120A
100
AcDbEntity
  8
8
100
AcDbLine
 10
123.754
 20
300.66
 30
0.0
 11
131.84
 21
308.746
 31
0.0
  0
LINE
  5
10D9
330
120A
100
AcDbEntity
  8
8
100
AcDbLine
 10
123.531
 20
304.927
 30
0.0
 11
127.35
 21
308.746
 31
0.0
  0
ENDBLK
  5
10DA
330
120A
100
AcDbEntity
  8
0
100
AcDbBlockEnd
  0
BLOCK
  5
10ED
330
120B
100
AcDbEntity
  8
0
100
AcDbBlockBegin
  2
*X4
 70
     1
 10
0.0
 20
0.0
 30
0.0
  3
*X4
  1

  0
LINE
  5
10EE
330
120B
100
AcDbEntity
  8
8
100
AcDbLine
 10
101.788
 20
274.204
 30
0.0
 11
106.782
 21
279.198
 31
0.0
  0
LINE
  5
10EF
330
120B
100
AcDbEntity
  8
8
100
AcDbLine
 10
98.49299999999999
 20
275.399
 30
0.0
 11
107.03
 21
283.936
 31
0.0
  0
LINE
  5
10F0
330
120B
100
AcDbEntity
  8
8
100
AcDbLine
 10
95.47
 20
276.866
 30
0.0
 11
107.279
 21
288.675
 31
0.0
  0
LINE
  5
10F1
330
120B
100
AcDbEntity
  8
8
100
AcDbLine
 10
94.801
 20
280.687
 30
0.0
 11
107.527
 21
293.413
 31
0.0
  0
LINE
  5
10F2
330
120B
100
AcDbEntity
  8
8
100
AcDbLine
 10
94.57799999999998
 20
284.954
 30
0.0
 11
107.775
 21
298.152
 31
0.0
  0
LINE
  5
10F3
330
120B
100
AcDbEntity
  8
8
100
AcDbLine
 10
94.35399999999999
 20
289.22
 30
0.0
 11
108.024
 21
302.89
 31
0.0
  0
LINE
  5
10F4
330
120B
100
AcDbEntity
  8
8
100
AcDbLine
 10
94.13
 20
293.487
 30
0.0
 11
108.272
 21
307.629
 31
0.0
  0
LINE
  5
10F5
330
120B
100
AcDbEntity
  8
8
100
AcDbLine
 10
93.907
 20
297.753
 30
0.0
 11
104.899
 21
308.746
 31
0.0
  0
LINE
  5
10F6
330
120B
100
AcDbEntity
  8
8
100
AcDbLine
 10
93.68299999999999
 20
302.02
 30
0.0
 11
100.409
 21
308.746
 31
0.0
  0
LINE
  5
10F7
330
120B
100
AcDbEntity
  8
8
100
AcDbLine
 10
93.46
 20
306.286
 30
0.0
 11
95.919
 21
308.746
 31
0.0
  0
ENDBLK
  5
10F8
330
120B
100
AcDbEntity
  8
0
100
AcDbBlockEnd
  0
BLOCK
  5
110F
330
120C
100
AcDbEntity
  8
0
100
AcDbBlockBegin
  2
*X5
 70
     1
 10
0.0
 20
0.0
 30
0.0
  3
*X5
  1

  0
LINE
  5
1110
330
120C
100
AcDbEntity
  8
8
100
AcDbLine
 10
72.919
 20
285.746
 30
0.0
 11
77.88600000000001
 21
290.713
 31
0.0
  0
LINE
  5
1111
330
120C
100
AcDbEntity
  8
8
100
AcDbLine
 10
69.057
 20
286.374
 30
0.0
 11
78.134
 21
295.4509999999999
 31
0.0
  0
LINE
  5
1112
330
120C
100
AcDbEntity
  8
8
100
AcDbLine
 10
68.11199999999999
 20
289.919
 30
0.0
 11
78.382
 21
300.189
 31
0.0
  0
LINE
  5
1113
330
120C
100
AcDbEntity
  8
8
100
AcDbLine
 10
66.998
 20
293.296
 30
0.0
 11
78.631
 21
304.928
 31
0.0
  0
LINE
  5
1114
330
120C
100
AcDbEntity
  8
8
100
AcDbLine
 10
62.95899999999999
 20
293.746
 30
0.0
 11
77.95799999999999
 21
308.746
 31
0.0
  0
LINE
  5
1115
330
120C
100
AcDbEntity
  8
8
100
AcDbLine
 10
58.468
 20
293.746
 30
0.0
 11
73.468
 21
308.746
 31
0.0
  0
LINE
  5
1116
330
120C
100
AcDbEntity
  8
8
100
AcDbLine
 10
54.93
 20
294.698
 30
0.0
 11
68.97800000000001
 21
308.746
 31
0.0
  0
LINE
  5
1117
330
120C
100
AcDbEntity
  8
8
100
AcDbLine
 10
54.228
 20
298.486
 30
0.0
 11
64.488
 21
308.746
 31
0.0
  0
LINE
  5
1118
330
120C
100
AcDbEntity
  8
8
100
AcDbLine
 10
53.867
 20
302.615
 30
0.0
 11
59.998
 21
308.746
 31
0.0
  0
LINE
  5
1119
330
120C
100
AcDbEntity
  8
8
100
AcDbLine
 10
53.506
 20
306.744
 30
0.0
 11
55.508
 21
308.746
 31
0.0
  0
ENDBLK
  5
111A
330
120C
100
AcDbEntity
  8
0
100
AcDbBlockEnd
  0
BLOCK
  5
1131
330
120D
100
AcDbEntity
  8
0
100
AcDbBlockBegin
  2
*X6
 70
     1
 10
0.0
 20
0.0
 30
0.0
  3
*X6
  1

  0
LINE
  5
1132
330
120D
100
AcDbEntity
  8
8
100
AcDbLine
 10
221.961
 20
263.262
 30
0.0
 11
226.477
 21
258.746
 31
0.0
  0
LINE
  5
1133
330
120D
100
AcDbEntity
  8
8
100
AcDbLine
 10
221.937
 20
267.776
 30
0.0
 11
230.967
 21
258.746
 31
0.0
  0
LINE
  5
1134
330
120D
100
AcDbEntity
  8
8
100
AcDbLine
 10
225.457
 20
268.746
 30
0.0
 11
235.457
 21
258.746
 31
0.0
  0
LINE
  5
1135
330
120D
100
AcDbEntity
  8
8
100
AcDbLine
 10
229.947
 20
268.746
 30
0.0
 11
238.637
 21
260.056
 31
0.0
  0
LINE
  5
1136
330
120D
100
AcDbEntity
  8
8
100
AcDbLine
 10
234.437
 20
268.746
 30
0.0
 11
239.437
 21
263.746
 31
0.0
  0
LINE
  5
1137
330
120D
100
AcDbEntity
  8
8
100
AcDbLine
 10
237.921
 20
269.753
 30
0.0
 11
243.928
 21
263.746
 31
0.0
  0
LINE
  5
1138
330
120D
100
AcDbEntity
  8
8
100
AcDbLine
 10
238.492
 20
273.671
 30
0.0
 11
247.843
 21
264.321
 31
0.0
  0
LINE
  5
1139
330
120D
100
AcDbEntity
  8
8
100
AcDbLine
 10
238.716
 20
277.938
 30
0.0
 11
248.067
 21
268.587
 31
0.0
  0
LINE
  5
113A
330
120D
100
AcDbEntity
  8
8
100
AcDbLine
 10
238.94
 20
282.204
 30
0.0
 11
248.29
 21
272.8540000000001
 31
0.0
  0
LINE
  5
113B
330
120D
100
AcDbEntity
  8
8
100
AcDbLine
 10
239.163
 20
286.471
 30
0.0
 11
248.514
 21
277.12
 31
0.0
  0
LINE
  5
113C
330
120D
100
AcDbEntity
  8
8
100
AcDbLine
 10
239.387
 20
290.737
 30
0.0
 11
248.738
 21
281.387
 31
0.0
  0
LINE
  5
113D
330
120D
100
AcDbEntity
  8
8
100
AcDbLine
 10
239.61
 20
295.004
 30
0.0
 11
248.911
 21
285.704
 31
0.0
  0
LINE
  5
113E
330
120D
100
AcDbEntity
  8
8
100
AcDbLine
 10
239.834
 20
299.27
 30
0.0
 11
248.662
 21
290.442
 31
0.0
  0
LINE
  5
113F
330
120D
100
AcDbEntity
  8
8
100
AcDbLine
 10
240.058
 20
303.537
 30
0.0
 11
248.414
 21
295.181
 31
0.0
  0
LINE
  5
1140
330
120D
100
AcDbEntity
  8
8
100
AcDbLine
 10
240.281
 20
307.803
 30
0.0
 11
245.662
 21
302.423
 31
0.0
  0
LINE
  5
1141
330
120D
100
AcDbEntity
  8
8
100
AcDbLine
 10
243.829
 20
308.746
 30
0.0
 11
245.414
 21
307.161
 31
0.0
  0
ENDBLK
  5
1142
330
120D
100
AcDbEntity
  8
0
100
AcDbBlockEnd
  0
BLOCK
  5
1163
330
120E
100
AcDbEntity
  8
0
100
AcDbBlockBegin
  2
*X7
 70
     1
 10
0.0
 20
0.0
 30
0.0
  3
*X7
  1

  0
LINE
  5
1164
330
120E
100
AcDbEntity
  8
8
100
AcDbLine
 10
56.328
 20
262.761
 30
0.0
 11
59.56100000000001
 21
259.527
 31
0.0
  0
LINE
  5
1165
330
120E
100
AcDbEntity
  8
8
100
AcDbLine
 10
56.101
 20
267.477
 30
0.0
 11
59.785
 21
263.793
 31
0.0
  0
LINE
  5
1166
330
120E
100
AcDbEntity
  8
8
100
AcDbLine
 10
55.87399999999999
 20
272.194
 30
0.0
 11
60.00899999999999
 21
268.06
 31
0.0
  0
LINE
  5
1167
330
120E
100
AcDbEntity
  8
8
100
AcDbLine
 10
45.209
 20
287.349
 30
0.0
 11
47.813
 21
284.746
 31
0.0
  0
LINE
  5
1168
330
120E
100
AcDbEntity
  8
8
100
AcDbLine
 10
55.648
 20
276.911
 30
0.0
 11
60.232
 21
272.326
 31
0.0
  0
LINE
  5
1169
330
120E
100
AcDbEntity
  8
8
100
AcDbLine
 10
45.433
 20
291.616
 30
0.0
 11
60.456
 21
276.593
 31
0.0
  0
LINE
  5
116A
330
120E
100
AcDbEntity
  8
8
100
AcDbLine
 10
45.65699999999999
 20
295.882
 30
0.0
 11
60.67899999999999
 21
280.859
 31
0.0
  0
LINE
  5
116B
330
120E
100
AcDbEntity
  8
8
100
AcDbLine
 10
45.88
 20
300.149
 30
0.0
 11
62.42
 21
283.609
 31
0.0
  0
LINE
  5
116C
330
120E
100
AcDbEntity
  8
8
100
AcDbLine
 10
46.104
 20
304.415
 30
0.0
 11
51.859
 21
298.66
 31
0.0
  0
LINE
  5
116D
330
120E
100
AcDbEntity
  8
8
100
AcDbLine
 10
57.16
 20
293.359
 30
0.0
 11
65.792
 21
284.727
 31
0.0
  0
LINE
  5
116E
330
120E
100
AcDbEntity
  8
8
100
AcDbLine
 10
46.32699999999999
 20
308.682
 30
0.0
 11
51.61100000000001
 21
303.398
 31
0.0
  0
LINE
  5
116F
330
120E
100
AcDbEntity
  8
8
100
AcDbLine
 10
50.753
 20
308.746
 30
0.0
 11
51.363
 21
308.137
 31
0.0
  0
ENDBLK
  5
1170
330
120E
100
AcDbEntity
  8
0
100
AcDbBlockEnd
  0
BLOCK
  5
121A
330
1219
100
AcDbEntity
  8
0
100
AcDbBlockBegin
  2
KATALOG_LEER
 70
     0
 10
0.0
 20
0.0
 30
0.0
  3
KATALOG_LEER
  1

  0
ENDBLK
  5
121B
330
1219
100
AcDbEntity
  8
0
100
AcDbBlockEnd
  0
BLOCK
  5
1327
330
127C
100
AcDbEntity
  8
0
100
AcDbBlockBegin
  2
*D10
 70
     1
 10
0.0
 20
0.0
 30
0.0
  3
*D10
  1

  0
LINE
  5
1416
330
127C
100
AcDbEntity
  8
5
370
    -2
100
AcDbLine
 10
281.319117
 20
482.3165269999999
 30
0.0
 11
281.319117
 21
591.3165269999999
 31
0.0
  0
LINE
  5
1417
330
127C
100
AcDbEntity
  8
5
370
    -2
100
AcDbLine
 10
485.1831169999999
 20
482.7675269999999
 30
0.0
 11
485.1831169999999
 21
591.3165269999999
 31
0.0
  0
LINE
  5
1418
330
127C
100
AcDbEntity
  8
5
370
    -2
100
AcDbLine
 10
306.319117
 20
586.3165269999999
 30
0.0
 11
460.1831169999999
 21
586.3165269999999
 31
0.0
  0
SOLID
  5
1419
330
127C
100
AcDbEntity
  8
5
100
AcDbTrace
 10
306.319117
 20
590.4831936666665
 30
0.0
 11
306.319117
 21
582.1498603333333
 31
0.0
 12
281.319117
 22
586.3165269999999
 32
0.0
 13
281.319117
 23
586.3165269999999
 33
0.0
  0
SOLID
  5
141A
330
127C
100
AcDbEntity
  8
5
100
AcDbTrace
 10
460.1831169999999
 20
590.4831936666665
 30
0.0
 11
460.1831169999999
 21
582.1498603333333
 31
0.0
 12
485.1831169999999
 22
586.3165269999999
 32
0.0
 13
485.1831169999999
 23
586.3165269999999
 33
0.0
  0
MTEXT
  5
141B
330
127C
100
AcDbEntity
  8
5
 62
     2
100
AcDbMText
 10
383.251117
 20
598.0682494409448
 30
0.0
 40
17.5
 41
0.0
 71
     5
 72
     1
  1
%%c 200
 73
     1
 44
1.0
1001
ACAD
1000
MTEXTBEGIN
1070
    73
1070
     1
1070
    44
1040
1.0
1070
    74
1070
     0
1000
MTEXTEND
  0
POINT
  5
141C
330
127C
100
AcDbEntity
  8
DEFPOINTS
 62
     0
100
AcDbPoint
 10
281.319117
 20
477.3165269999999
 30
0.0
  0
POINT
  5
141D
330
127C
100
AcDbEntity
  8
DEFPOINTS
 62
     0
100
AcDbPoint
 10
485.1831169999999
 20
477.7675269999999
 30
0.0
  0
POINT
  5
141E
330
127C
100
AcDbEntity
  8
DEFPOINTS
 62
     0
100
AcDbPoint
 10
485.1831169999999
 20
586.3165269999999
 30
0.0
  0
ENDBLK
  5
1331
330
127C
100
AcDbEntity
  8
0
100
AcDbBlockEnd
  0
BLOCK
  5
1315
330
1288
100
AcDbEntity
  8
0
100
AcDbBlockBegin
  2
*D11
 70
     1
 10
0.0
 20
0.0
 30
0.0
  3
*D11
  1

  0
LINE
  5
1431
330
1288
100
AcDbEntity
  8
5
370
    -2
100
AcDbLine
 10
277.577117
 20
501.316527
 30
0.0
 11
226.332867
 21
501.316527
 31
0.0
  0
LINE
  5
1432
330
1288
100
AcDbEntity
  8
5
370
    -2
100
AcDbLine
 10
277.419117
 20
456.3165269999999
 30
0.0
 11
226.332867
 21
456.3165269999999
 31
0.0
  0
LINE
  5
1433
330
1288
100
AcDbEntity
  8
5
370
    -2
100
AcDbLine
 10
231.332867
 20
526.316527
 30
0.0
 11
231.332867
 21
551.316527
 31
0.0
  0
LINE
  5
1434
330
1288
100
AcDbEntity
  8
5
370
    -2
100
AcDbLine
 10
231.332867
 20
431.3165269999999
 30
0.0
 11
231.332867
 21
406.3165269999999
 31
0.0
  0
LINE
  5
1435
330
1288
100
AcDbEntity
  8
5
370
    -2
100
AcDbLine
 10
231.332867
 20
501.316527
 30
0.0
 11
231.332867
 21
456.3165269999999
 31
0.0
  0
SOLID
  5
1436
330
1288
100
AcDbEntity
  8
5
100
AcDbTrace
 10
227.1662003333333
 20
526.316527
 30
0.0
 11
235.4995336666667
 21
526.316527
 31
0.0
 12
231.332867
 22
501.316527
 32
0.0
 13
231.332867
 23
501.316527
 33
0.0
  0
SOLID
  5
1437
330
1288
100
AcDbEntity
  8
5
100
AcDbTrace
 10
227.1662003333333
 20
431.3165269999999
 30
0.0
 11
235.4995336666666
 21
431.3165269999999
 31
0.0
 12
231.332867
 22
456.3165269999999
 32
0.0
 13
231.332867
 23
456.3165269999999
 33
0.0
  0
MTEXT
  5
1438
330
1288
100
AcDbEntity
  8
5
 62
     2
100
AcDbMText
 10
219.5828669999999
 20
478.816527
 30
0.0
 40
17.5
 41
0.0
 71
     5
 72
     1
  1
45
 11
0.0000000000000001
 21
1.0
 31
0.0
 73
     1
 44
1.0
1001
ACAD
1000
MTEXTBEGIN
1070
    73
1070
     1
1070
    44
1040
1.0
1070
    74
1070
     0
1000
MTEXTEND
  0
POINT
  5
1439
330
1288
100
AcDbEntity
  8
DEFPOINTS
 62
     0
100
AcDbPoint
 10
282.577117
 20
501.316527
 30
0.0
  0
POINT
  5
143A
330
1288
100
AcDbEntity
  8
DEFPOINTS
 62
     0
100
AcDbPoint
 10
282.419117
 20
456.3165269999999
 30
0.0
  0
POINT
  5
143B
330
1288
100
AcDbEntity
  8
DEFPOINTS
 62
     0
100
AcDbPoint
 10
231.332867
 20
456.3165269999999
 30
0.0
  0
ENDBLK
  5
131F
330
1288
100
AcDbEntity
  8
0
100
AcDbBlockEnd
  0
BLOCK
  5
12FB
330
129F
100
AcDbEntity
  8
0
100
AcDbBlockBegin
  2
*D12
 70
     1
 10
0.0
 20
0.0
 30
0.0
  3
*D12
  1

  0
LINE
  5
143C
330
129F
100
AcDbEntity
  8
5
370
    -2
100
AcDbLine
 10
404.577117
 20
506.3165269999999
 30
0.0
 11
404.577117
 21
550.8700860779851
 31
0.0
  0
LINE
  5
143D
330
129F
100
AcDbEntity
  8
5
370
    -2
100
AcDbLine
 10
419.5771169999999
 20
506.3165269999999
 30
0.0
 11
419.5771169999999
 21
550.8700860779851
 31
0.0
  0
LINE
  5
143E
330
129F
100
AcDbEntity
  8
5
370
    -2
100
AcDbLine
 10
444.5771169999999
 20
545.8700860779852
 30
0.0
 11
469.5771169999999
 21
545.8700860779852
 31
0.0
  0
LINE
  5
143F
330
129F
100
AcDbEntity
  8
5
370
    -2
100
AcDbLine
 10
379.577117
 20
545.8700860779852
 30
0.0
 11
332.102243265847
 21
545.8700860779852
 31
0.0
  0
LINE
  5
1440
330
129F
100
AcDbEntity
  8
5
370
    -2
100
AcDbLine
 10
419.5771169999999
 20
545.8700860779852
 30
0.0
 11
404.577117
 21
545.8700860779852
 31
0.0
  0
SOLID
  5
1441
330
129F
100
AcDbEntity
  8
5
100
AcDbTrace
 10
444.5771169999999
 20
550.0367527446518
 30
0.0
 11
444.5771169999999
 21
541.7034194113186
 31
0.0
 12
419.5771169999999
 22
545.8700860779852
 32
0.0
 13
419.5771169999999
 23
545.8700860779852
 33
0.0
  0
SOLID
  5
1442
330
129F
100
AcDbEntity
  8
5
100
AcDbTrace
 10
379.577117
 20
550.0367527446518
 30
0.0
 11
379.577117
 21
541.7034194113186
 31
0.0
 12
404.577117
 22
545.8700860779852
 32
0.0
 13
404.577117
 23
545.8700860779852
 33
0.0
  0
MTEXT
  5
1443
330
129F
100
AcDbEntity
  8
5
 62
     2
100
AcDbMText
 10
343.3396801329235
 20
557.6200860779851
 30
0.0
 40
17.5
 41
0.0
 71
     5
 72
     1
  1
15
 73
     1
 44
1.0
1001
ACAD
1000
MTEXTBEGIN
1070
    73
1070
     1
1070
    44
1040
1.0
1070
    74
1070
     0
1000
MTEXTEND
  0
POINT
  5
1444
330
129F
100
AcDbEntity
  8
DEFPOINTS
 62
     0
100
AcDbPoint
 10
404.577117
 20
501.316527
 30
0.0
  0
POINT
  5
1445
330
129F
100
AcDbEntity
  8
DEFPOINTS
 62
     0
100
AcDbPoint
 10
419.5771169999999
 20
501.316527
 30
0.0
  0
POINT
  5
1446
330
129F
100
AcDbEntity
  8
DEFPOINTS
 62
     0
100
AcDbPoint
 10
419.5771169999999
 20
545.8700860779852
 30
0.0
  0
ENDBLK
  5
1307
330
129F
100
AcDbEntity
  8
0
100
AcDbBlockEnd
  0
BLOCK
  5
1408
330
1406
100
AcDbEntity
  8
0
100
AcDbBlockBegin
  2
GENAXEH
 70
     0
 10
0.0
 20
0.0
 30
0.0
  3
GENAXEH
  1

  0
LINE
  5
1407
330
1406
100
AcDbEntity
  8
0
100
AcDbLine
 10
-1.0
 20
0.0
 30
0.0
 11
1.0
 21
0.0
 31
0.0
  0
ENDBLK
  5
1409
330
1406
100
AcDbEntity
  8
0
100
AcDbBlockEnd
  0
ENDSEC
  0
SECTION
  2
ENTITIES
  0
LINE
  5
1001
330
11ED
100
AcDbEntity
  8
7
 48
0.76
100
AcDbLine
 10
382.077117
 20
513.328527
 30
0.0
 11
382.077117
 21
446.4325269999999
 31
0.0
  0
LINE
  5
1002
330
11ED
100
AcDbEntity
  8
0
100
AcDbLine
 10
474.577117
 20
501.316527
 30
0.0
 11
289.577117
 21
501.316527
 31
0.0
  0
LINE
  5
1003
330
11ED
100
AcDbEntity
  8
0
100
AcDbLine
 10
474.577117
 20
501.316527
 30
0.0
 11
473.4641169999999
 21
488.5985269999999
 31
0.0
  0
LINE
  5
1004
330
11ED
100
AcDbEntity
  8
0
100
AcDbLine
 10
473.418117
 20
486.3165269999999
 30
0.0
 11
462.368117
 21
486.3165269999999
 31
0.0
  0
LINE
  5
1005
330
11ED
100
AcDbEntity
  8
0
100
AcDbLine
 10
457.204117
 20
478.3165269999999
 30
0.0
 11
433.3711169999999
 21
478.3165269999999
 31
0.0
  0
LINE
  5
1006
330
11ED
100
AcDbEntity
  8
0
100
AcDbLine
 10
450.158117
 20
480.6855269999999
 30
0.0
 11
449.077117
 21
501.316527
 31
0.0
  0
LINE
  5
1007
330
11ED
100
AcDbEntity
  8
0
100
AcDbLine
 10
459.872117
 20
483.947527
 30
0.0
 11
459.701117
 21
480.6855269999999
 31
0.0
  0
LINE
  5
1008
330
11ED
100
AcDbEntity
  8
0
100
AcDbLine
 10
421.2981169999999
 20
468.4785269999999
 30
0.0
 11
419.5771169999999
 21
501.316527
 31
0.0
  0
LINE
  5
1009
330
11ED
100
AcDbEntity
  8
0
100
AcDbLine
 10
391.625117
 20
462.2385269999999
 30
0.0
 11
389.577117
 21
501.316527
 31
0.0
  0
LINE
  5
100A
330
11ED
100
AcDbEntity
  8
0
100
AcDbLine
 10
434.5771169999999
 20
501.316527
 30
0.0
 11
432.9841169999999
 21
470.9205269999999
 31
0.0
  0
LINE
  5
100B
330
11ED
100
AcDbEntity
  8
0
100
AcDbLine
 10
404.577117
 20
501.316527
 30
0.0
 11
402.5651169999999
 21
462.9225269999999
 31
0.0
  0
ARC
  5
100C
330
11ED
100
AcDbEntity
  8
0
100
AcDbCircle
 10
382.077117
 20
593.3165269999999
 30
0.0
 40
134.0
100
AcDbArc
 50
288.496
 51
291.601
  0
ARC
  5
100D
330
11ED
100
AcDbEntity
  8
0
100
AcDbCircle
 10
382.077117
 20
593.3165269999999
 30
0.0
 40
134.0
100
AcDbArc
 50
275.255
 51
277.864
  0
ARC
  5
100E
330
11ED
100
AcDbEntity
  8
0
100
AcDbCircle
 10
452.6541169999999
 20
480.8165269999999
 30
0.0
 40
2.5
100
AcDbArc
 50
183.0
 51
270.0
  0
ARC
  5
100F
330
11ED
100
AcDbEntity
  8
0
100
AcDbCircle
 10
457.204117
 20
480.8165269999999
 30
0.0
 40
2.5
100
AcDbArc
 50
270.0
 51
357.0
  0
ARC
  5
1010
330
11ED
100
AcDbEntity
  8
0
100
AcDbCircle
 10
462.368117
 20
483.8165269999999
 30
0.0
 40
2.5
100
AcDbArc
 50
90.0
 51
177.0
  0
ARC
  5
1011
330
11ED
100
AcDbEntity
  8
0
100
AcDbCircle
 10
430.487117
 20
471.051527
 30
0.0
 40
2.5
100
AcDbArc
 50
291.601
 51
357.0
  0
ARC
  5
1012
330
11ED
100
AcDbEntity
  8
0
100
AcDbCircle
 10
423.794117
 20
468.609527
 30
0.0
 40
2.5
100
AcDbArc
 50
183.0
 51
288.497
  0
ARC
  5
1013
330
11ED
100
AcDbEntity
  8
0
100
AcDbCircle
 10
400.068117
 20
463.053527
 30
0.0
 40
2.5
100
AcDbArc
 50
277.864
 51
357.0
  0
ARC
  5
1014
330
11ED
100
AcDbEntity
  8
0
100
AcDbCircle
 10
394.121117
 20
462.3695269999999
 30
0.0
 40
2.5
100
AcDbArc
 50
183.0
 51
275.255
  0
ARC
  5
1015
330
11ED
100
AcDbEntity
  8
0
100
AcDbCircle
 10
470.974117
 20
488.816527
 30
0.0
 40
2.5
100
AcDbArc
 50
270.0
 51
355.0
  0
LINE
  5
1016
330
11ED
100
AcDbEntity
  8
0
100
AcDbLine
 10
289.577117
 20
501.316527
 30
0.0
 11
290.689117
 21
488.5985269999999
 31
0.0
  0
LINE
  5
1017
330
11ED
100
AcDbEntity
  8
0
100
AcDbLine
 10
293.180117
 20
486.3165269999999
 30
0.0
 11
295.691117
 21
486.3165269999999
 31
0.0
  0
LINE
  5
1018
330
11ED
100
AcDbEntity
  8
0
100
AcDbLine
 10
302.038117
 20
478.3165269999999
 30
0.0
 11
311.499117
 21
478.3165269999999
 31
0.0
  0
LINE
  5
1019
330
11ED
100
AcDbEntity
  8
0
100
AcDbLine
 10
313.996117
 20
480.6855269999999
 30
0.0
 11
315.077117
 21
501.316527
 31
0.0
  0
LINE
  5
101A
330
11ED
100
AcDbEntity
  8
0
100
AcDbLine
 10
304.282117
 20
483.947527
 30
0.0
 11
304.453117
 21
480.6855269999999
 31
0.0
  0
LINE
  5
101B
330
11ED
100
AcDbEntity
  8
0
100
AcDbLine
 10
342.856117
 20
468.4785269999999
 30
0.0
 11
344.577117
 21
501.316527
 31
0.0
  0
LINE
  5
101C
330
11ED
100
AcDbEntity
  8
0
100
AcDbLine
 10
372.529117
 20
462.2385269999999
 30
0.0
 11
374.577117
 21
501.316527
 31
0.0
  0
LINE
  5
101D
330
11ED
100
AcDbEntity
  8
0
100
AcDbLine
 10
329.577117
 20
501.316527
 30
0.0
 11
331.170117
 21
470.9205269999999
 31
0.0
  0
LINE
  5
101E
330
11ED
100
AcDbEntity
  8
0
100
AcDbLine
 10
359.577117
 20
501.316527
 30
0.0
 11
361.589117
 21
462.9225269999999
 31
0.0
  0
ARC
  5
101F
330
11ED
100
AcDbEntity
  8
0
100
AcDbCircle
 10
382.077117
 20
593.3165269999999
 30
0.0
 40
134.0
100
AcDbArc
 50
248.399
 51
251.504
  0
ARC
  5
1020
330
11ED
100
AcDbEntity
  8
0
100
AcDbCircle
 10
382.077117
 20
593.3165269999999
 30
0.0
 40
134.0
100
AcDbArc
 50
262.136
 51
264.745
  0
ARC
  5
1021
330
11ED
100
AcDbEntity
  8
0
100
AcDbCircle
 10
311.499117
 20
480.8165269999999
 30
0.0
 40
2.5
100
AcDbArc
 50
270.0
 51
357.0
  0
ARC
  5
1022
330
11ED
100
AcDbEntity
  8
0
100
AcDbCircle
 10
306.949117
 20
480.8165269999999
 30
0.0
 40
2.5
100
AcDbArc
 50
183.0
 51
270.0
  0
ARC
  5
1023
330
11ED
100
AcDbEntity
  8
0
100
AcDbCircle
 10
301.785117
 20
483.8165269999999
 30
0.0
 40
2.5
100
AcDbArc
 50
3.0
 51
90.0
  0
ARC
  5
1024
330
11ED
100
AcDbEntity
  8
0
100
AcDbCircle
 10
333.666117
 20
471.051527
 30
0.0
 40
2.5
100
AcDbArc
 50
183.0
 51
248.399
  0
ARC
  5
1025
330
11ED
100
AcDbEntity
  8
0
100
AcDbCircle
 10
340.359117
 20
468.609527
 30
0.0
 40
2.5
100
AcDbArc
 50
251.503
 51
357.0
  0
ARC
  5
1026
330
11ED
100
AcDbEntity
  8
0
100
AcDbCircle
 10
364.085117
 20
463.053527
 30
0.0
 40
2.5
100
AcDbArc
 50
183.0
 51
262.136
  0
ARC
  5
1027
330
11ED
100
AcDbEntity
  8
0
100
AcDbCircle
 10
370.032117
 20
462.3695269999999
 30
0.0
 40
2.5
100
AcDbArc
 50
264.745
 51
357.0
  0
ARC
  5
1028
330
11ED
100
AcDbEntity
  8
0
100
AcDbCircle
 10
293.180117
 20
488.816527
 30
0.0
 40
2.5
100
AcDbArc
 50
185.0
 51
270.0
  0
LINE
  5
1029
330
11ED
100
AcDbEntity
  8
0
100
AcDbLine
 10
420.7821169999999
 20
478.3165269999999
 30
0.0
 11
403.371117
 21
478.3165269999999
 31
0.0
  0
LINE
  5
102A
330
11ED
100
AcDbEntity
  8
0
100
AcDbLine
 10
390.782117
 20
478.3165269999999
 30
0.0
 11
373.371117
 21
478.3165269999999
 31
0.0
  0
LINE
  5
102B
330
11ED
100
AcDbEntity
  8
3A
100
AcDbLine
 10
433.3711169999999
 20
478.3165269999999
 30
0.0
 11
420.7821169999999
 21
478.3165269999999
 31
0.0
  0
LINE
  5
102C
330
11ED
100
AcDbEntity
  8
3A
100
AcDbLine
 10
403.371117
 20
478.3165269999999
 30
0.0
 11
390.782117
 21
478.3165269999999
 31
0.0
  0
LINE
  5
102D
330
11ED
100
AcDbEntity
  8
3A
100
AcDbLine
 10
373.371117
 20
478.3165269999999
 30
0.0
 11
360.782117
 21
478.3165269999999
 31
0.0
  0
LINE
  5
102E
330
11ED
100
AcDbEntity
  8
3A
100
AcDbLine
 10
343.371117
 20
478.3165269999999
 30
0.0
 11
330.782117
 21
478.3165269999999
 31
0.0
  0
LINE
  5
102F
330
11ED
100
AcDbEntity
  8
0
100
AcDbLine
 10
481.5771169999999
 20
501.316527
 30
0.0
 11
474.577117
 21
501.316527
 31
0.0
  0
LINE
  5
1030
330
11ED
100
AcDbEntity
  8
0
100
AcDbLine
 10
481.9241169999999
 20
494.6855269999999
 30
0.0
 11
481.5771169999999
 21
501.316527
 31
0.0
  0
ARC
  5
1031
330
11ED
100
AcDbEntity
  8
0
100
AcDbCircle
 10
484.421117
 20
494.8165269999999
 30
0.0
 40
2.5
100
AcDbArc
 50
183.0
 51
270.0
  0
LINE
  5
1032
330
11ED
100
AcDbEntity
  8
0
100
AcDbLine
 10
485.1831169999999
 20
477.7675269999999
 30
0.0
 11
484.421117
 21
492.3165269999999
 31
0.0
  0
LINE
  5
1033
330
11ED
100
AcDbEntity
  8
0
100
AcDbLine
 10
485.1831169999999
 20
477.7675269999999
 30
0.0
 11
484.059117
 21
456.3165269999999
 31
0.0
  0
LINE
  5
1034
330
11ED
100
AcDbEntity
  8
0
100
AcDbLine
 10
484.059117
 20
456.3165269999999
 30
0.0
 11
475.077117
 21
456.3165269999999
 31
0.0
  0
LINE
  5
1035
330
11ED
100
AcDbEntity
  8
0
100
AcDbLine
 10
289.077117
 20
456.3165269999999
 30
0.0
 11
282.419117
 21
456.3165269999999
 31
0.0
  0
LINE
  5
1036
330
11ED
100
AcDbEntity
  8
0
100
AcDbLine
 10
475.077117
 20
456.3165269999999
 30
0.0
 11
474.8151169999999
 21
451.316527
 31
0.0
  0
LINE
  5
1037
330
11ED
100
AcDbEntity
  8
0
100
AcDbLine
 10
474.8151169999999
 20
451.316527
 30
0.0
 11
289.339117
 21
451.316527
 31
0.0
  0
LINE
  5
1038
330
11ED
100
AcDbEntity
  8
0
100
AcDbLine
 10
476.5771169999999
 20
501.316527
 30
0.0
 11
475.9151169999999
 21
488.6855269999999
 31
0.0
  0
LINE
  5
1039
330
11ED
100
AcDbEntity
  8
0
100
AcDbLine
 10
472.1081169999999
 20
461.3165269999999
 30
0.0
 11
458.2341169999999
 21
461.3165269999999
 31
0.0
  0
ARC
  5
103A
330
11ED
100
AcDbEntity
  8
0
100
AcDbCircle
 10
472.1081169999999
 20
463.816527
 30
0.0
 40
2.5
100
AcDbArc
 50
270.0
 51
357.0
  0
LINE
  5
103B
330
11ED
100
AcDbEntity
  8
0
100
AcDbLine
 10
458.077117
 20
458.3165269999999
 30
0.0
 11
303.077117
 21
458.3165269999999
 31
0.0
  0
LINE
  5
103C
330
11ED
100
AcDbEntity
  8
0
100
AcDbLine
 10
458.4441169999999
 20
451.316527
 30
0.0
 11
458.077117
 21
458.3165269999999
 31
0.0
  0
LINE
  5
103D
330
11ED
100
AcDbEntity
  8
0
100
AcDbLine
 10
458.3391169999999
 20
463.3165269999999
 30
0.0
 11
458.077117
 21
458.3165269999999
 31
0.0
  0
LINE
  5
103E
330
11ED
100
AcDbEntity
  8
0
100
AcDbLine
 10
458.551117
 20
463.3165269999999
 30
0.0
 11
402.585117
 21
463.3165269999999
 31
0.0
  0
LINE
  5
103F
330
11ED
100
AcDbEntity
  8
0
100
AcDbLine
 10
462.129117
 20
486.3165269999999
 30
0.0
 11
461.0481169999999
 21
465.685527
 31
0.0
  0
ARC
  5
1040
330
11ED
100
AcDbEntity
  8
0
100
AcDbCircle
 10
458.551117
 20
465.8165269999999
 30
0.0
 40
2.5
100
AcDbArc
 50
270.0
 51
357.0
  0
LINE
  5
1041
330
11ED
100
AcDbEntity
  8
0
100
AcDbLine
 10
475.9151169999999
 20
488.6855269999999
 30
0.0
 11
474.605117
 21
463.6855269999999
 31
0.0
  0
ARC
  5
1042
330
11ED
100
AcDbEntity
  8
0
100
AcDbCircle
 10
473.418117
 20
488.816527
 30
0.0
 40
2.5
100
AcDbArc
 50
270.0
 51
357.0
  0
LINE
  5
1043
330
11ED
100
AcDbEntity
  8
0
100
AcDbLine
 10
455.4481169999999
 20
451.1595269999999
 30
0.0
 11
455.0731169999999
 21
458.3165269999999
 31
0.0
  0
LINE
  5
1044
330
11ED
100
AcDbEntity
  8
0
100
AcDbLine
 10
455.343117
 20
463.4735269999999
 30
0.0
 11
455.0731169999999
 21
458.3165269999999
 31
0.0
  0
LINE
  5
1045
330
11ED
100
AcDbEntity
  8
3A
 48
0.9179999999999999
100
AcDbLine
 10
402.585117
 20
463.3165269999999
 30
0.0
 11
391.568117
 21
463.3165269999999
 31
0.0
  0
LINE
  5
1046
330
11ED
100
AcDbEntity
  8
0
100
AcDbLine
 10
391.568117
 20
463.3165269999999
 30
0.0
 11
372.585117
 21
463.3165269999999
 31
0.0
  0
LINE
  5
1047
330
11ED
100
AcDbEntity
  8
3A
 48
0.9179999999999999
100
AcDbLine
 10
372.585117
 20
463.3165269999999
 30
0.0
 11
361.568117
 21
463.3165269999999
 31
0.0
  0
LINE
  5
1048
330
11ED
100
AcDbEntity
  8
0
100
AcDbLine
 10
361.568117
 20
463.3165269999999
 30
0.0
 11
299.030117
 21
463.3165269999999
 31
0.0
  0
LINE
  5
1049
330
11ED
100
AcDbEntity
  8
0
100
AcDbLine
 10
289.577117
 20
501.316527
 30
0.0
 11
282.577117
 21
501.316527
 31
0.0
  0
LINE
  5
104A
330
11ED
100
AcDbEntity
  8
0
100
AcDbLine
 10
282.577117
 20
501.316527
 30
0.0
 11
281.319117
 21
477.3165269999999
 31
0.0
  0
LINE
  5
104B
330
11ED
100
AcDbEntity
  8
0
100
AcDbLine
 10
285.834117
 20
477.3165269999999
 30
0.0
 11
281.319117
 21
477.3165269999999
 31
0.0
  0
ARC
  5
104C
330
11ED
100
AcDbEntity
  8
0
100
AcDbCircle
 10
285.834117
 20
471.3165269999999
 30
0.0
 40
6.0
100
AcDbArc
 50
9.0
 51
90.0
  0
LINE
  5
104D
330
11ED
100
AcDbEntity
  8
0
100
AcDbLine
 10
289.339117
 20
451.316527
 30
0.0
 11
289.077117
 21
456.3165269999999
 31
0.0
  0
LINE
  5
104E
330
11ED
100
AcDbEntity
  8
0
100
AcDbLine
 10
282.419117
 20
456.3165269999999
 30
0.0
 11
281.319117
 21
477.3165269999999
 31
0.0
  0
LINE
  5
104F
330
11ED
100
AcDbEntity
  8
0
100
AcDbLine
 10
288.291117
 20
487.685527
 30
0.0
 11
287.577117
 21
501.316527
 31
0.0
  0
LINE
  5
1050
330
11ED
100
AcDbEntity
  8
0
100
AcDbLine
 10
297.811117
 20
485.1415269999999
 30
0.0
 11
302.077117
 21
478.3165269999999
 31
0.0
  0
LINE
  5
1051
330
11ED
100
AcDbEntity
  8
0
100
AcDbLine
 10
295.691117
 20
486.3165269999999
 30
0.0
 11
301.785117
 21
486.3165269999999
 31
0.0
  0
ARC
  5
1052
330
11ED
100
AcDbEntity
  8
0
100
AcDbCircle
 10
295.691117
 20
483.8165269999999
 30
0.0
 40
2.5
100
AcDbArc
 50
32.005
 51
90.0
  0
ARC
  5
1053
330
11ED
100
AcDbEntity
  8
0
100
AcDbCircle
 10
290.788117
 20
487.8165269999999
 30
0.0
 40
2.5
100
AcDbArc
 50
183.0
 51
285.0
  0
LINE
  5
1054
330
11ED
100
AcDbEntity
  8
0
100
AcDbLine
 10
294.849117
 20
486.3165269999999
 30
0.0
 11
291.435117
 21
485.4015269999999
 31
0.0
  0
LINE
  5
1055
330
11ED
100
AcDbEntity
  8
0
100
AcDbLine
 10
296.954117
 20
473.9765269999999
 30
0.0
 11
295.767117
 21
451.316527
 31
0.0
  0
LINE
  5
1056
330
11ED
100
AcDbEntity
  8
0
100
AcDbLine
 10
302.038117
 20
478.378527
 30
0.0
 11
302.038117
 21
476.3785269999999
 31
0.0
  0
LINE
  5
1057
330
11ED
100
AcDbEntity
  8
0
100
AcDbLine
 10
302.038117
 20
476.3785269999999
 30
0.0
 11
299.420117
 21
476.3455269999999
 31
0.0
  0
ARC
  5
1058
330
11ED
100
AcDbEntity
  8
0
100
AcDbCircle
 10
299.451117
 20
473.8455269999999
 30
0.0
 40
2.5
100
AcDbArc
 50
90.70999999999999
 51
177.0
  0
LINE
  5
1059
330
11ED
100
AcDbEntity
  8
0
100
AcDbLine
 10
360.782117
 20
478.3165269999999
 30
0.0
 11
343.371117
 21
478.3165269999999
 31
0.0
  0
LINE
  5
105A
330
11ED
100
AcDbEntity
  8
0
100
AcDbLine
 10
330.782117
 20
478.3165269999999
 30
0.0
 11
311.499117
 21
478.3165269999999
 31
0.0
  0
ARC
  5
105B
330
11ED
100
AcDbEntity
  8
0
100
AcDbCircle
 10
299.030117
 20
465.8165269999999
 30
0.0
 40
2.5
100
AcDbArc
 50
177.0
 51
270.0
  0
LINE
  5
105C
330
11ED
100
AcDbEntity
  8
0
100
AcDbLine
 10
291.760117
 20
472.2555269999999
 30
0.0
 11
292.767117
 21
451.316527
 31
0.0
  0
LINE
  5
105D
330
11ED
100
AcDbEntity
  8
0
100
AcDbLine
 10
303.081117
 20
458.159527
 30
0.0
 11
302.819117
 21
463.159527
 31
0.0
  0
LINE
  5
105E
330
11ED
100
AcDbEntity
  8
0
100
AcDbLine
 10
303.081117
 20
458.4735269999999
 30
0.0
 11
302.714117
 21
451.4735269999999
 31
0.0
  0
LINE
  5
105F
330
11ED
100
AcDbEntity
  8
0
100
AcDbLine
 10
358.077117
 20
458.3165269999999
 30
0.0
 11
357.815117
 21
463.3165269999999
 31
0.0
  0
LINE
  5
1060
330
11ED
100
AcDbEntity
  8
0
100
AcDbLine
 10
333.444117
 20
451.316527
 30
0.0
 11
333.077117
 21
458.3165269999999
 31
0.0
  0
LINE
  5
1061
330
11ED
100
AcDbEntity
  8
0
100
AcDbLine
 10
328.444117
 20
451.316527
 30
0.0
 11
328.077117
 21
458.3165269999999
 31
0.0
  0
LINE
  5
1062
330
11ED
100
AcDbEntity
  8
0
100
AcDbLine
 10
358.077117
 20
458.3165269999999
 30
0.0
 11
357.710117
 21
451.316527
 31
0.0
  0
LINE
  5
1063
330
11ED
100
AcDbEntity
  8
0
100
AcDbLine
 10
333.339117
 20
463.3165269999999
 30
0.0
 11
333.077117
 21
458.3165269999999
 31
0.0
  0
LINE
  5
1064
330
11ED
100
AcDbEntity
  8
0
100
AcDbLine
 10
328.339117
 20
463.3165269999999
 30
0.0
 11
328.077117
 21
458.3165269999999
 31
0.0
  0
POLYLINE
  5
1065
330
11ED
100
AcDbEntity
  8
SCHRAFFUR_RAND
100
AcDb2dPolyline
 66
     1
 10
0.0
 20
0.0
 30
0.0
 70
     1
  0
VERTEX
  5
1066
330
1065
100
AcDbEntity
  8
SCHRAFFUR_RAND
100
AcDbVertex
100
AcDb2dVertex
 10
449.077117
 20
501.316527
 30
0.0
  0
VERTEX
  5
1067
330
1065
100
AcDbEntity
  8
SCHRAFFUR_RAND
100
AcDbVertex
100
AcDb2dVertex
 10
474.577117
 20
501.316527
 30
0.0
  0
VERTEX
  5
1068
330
1065
100
AcDbEntity
  8
SCHRAFFUR_RAND
100
AcDbVertex
100
AcDb2dVertex
 10
473.4641169999999
 20
488.5985269999999
 30
0.0
  0
VERTEX
  5
1069
330
1065
100
AcDbEntity
  8
SCHRAFFUR_RAND
100
AcDbVertex
100
AcDb2dVertex
 10
473.123117
 20
487.4025269999999
 30
0.0
  0
VERTEX
  5
106A
330
1065
100
AcDbEntity
  8
SCHRAFFUR_RAND
100
AcDbVertex
100
AcDb2dVertex
 10
472.1951169999999
 20
486.5515269999999
 30
0.0
  0
VERTEX
  5
106B
330
1065
100
AcDbEntity
  8
SCHRAFFUR_RAND
100
AcDbVertex
100
AcDb2dVertex
 10
470.974117
 20
486.3165269999999
 30
0.0
  0
VERTEX
  5
106C
330
1065
100
AcDbEntity
  8
SCHRAFFUR_RAND
100
AcDbVertex
100
AcDb2dVertex
 10
462.368117
 20
486.3165269999999
 30
0.0
  0
VERTEX
  5
106D
330
1065
100
AcDbEntity
  8
SCHRAFFUR_RAND
100
AcDbVertex
100
AcDb2dVertex
 10
461.1211169999999
 20
486.0665269999999
 30
0.0
  0
VERTEX
  5
106E
330
1065
100
AcDbEntity
  8
SCHRAFFUR_RAND
100
AcDbVertex
100
AcDb2dVertex
 10
460.1861169999999
 20
485.1805269999999
 30
0.0
  0
VERTEX
  5
106F
330
1065
100
AcDbEntity
  8
SCHRAFFUR_RAND
100
AcDbVertex
100
AcDb2dVertex
 10
459.872117
 20
483.947527
 30
0.0
  0
VERTEX
  5
1070
330
1065
100
AcDbEntity
  8
SCHRAFFUR_RAND
100
AcDbVertex
100
AcDb2dVertex
 10
459.701117
 20
480.6855269999999
 30
0.0
  0
VERTEX
  5
1071
330
1065
100
AcDbEntity
  8
SCHRAFFUR_RAND
100
AcDbVertex
100
AcDb2dVertex
 10
459.386117
 20
479.452527
 30
0.0
  0
VERTEX
  5
1072
330
1065
100
AcDbEntity
  8
SCHRAFFUR_RAND
100
AcDbVertex
100
AcDb2dVertex
 10
458.452117
 20
478.5665269999999
 30
0.0
  0
VERTEX
  5
1073
330
1065
100
AcDbEntity
  8
SCHRAFFUR_RAND
100
AcDbVertex
100
AcDb2dVertex
 10
457.204117
 20
478.3165269999999
 30
0.0
  0
VERTEX
  5
1074
330
1065
100
AcDbEntity
  8
SCHRAFFUR_RAND
100
AcDbVertex
100
AcDb2dVertex
 10
452.6541169999999
 20
478.3165269999999
 30
0.0
  0
VERTEX
  5
1075
330
1065
100
AcDbEntity
  8
SCHRAFFUR_RAND
100
AcDbVertex
100
AcDb2dVertex
 10
451.407117
 20
478.5665269999999
 30
0.0
  0
VERTEX
  5
1076
330
1065
100
AcDbEntity
  8
SCHRAFFUR_RAND
100
AcDbVertex
100
AcDb2dVertex
 10
450.4721169999999
 20
479.452527
 30
0.0
  0
VERTEX
  5
1077
330
1065
100
AcDbEntity
  8
SCHRAFFUR_RAND
100
AcDbVertex
100
AcDb2dVertex
 10
450.158117
 20
480.6855269999999
 30
0.0
  0
VERTEX
  5
1078
330
1065
100
AcDbEntity
  8
SCHRAFFUR_RAND
100
AcDbVertex
100
AcDb2dVertex
 10
449.077117
 20
501.316527
 30
0.0
  0
SEQEND
  5
1079
330
1065
100
AcDbEntity
  8
SCHRAFFUR_RAND
  0
INSERT
  5
1084
330
11ED
100
AcDbEntity
  8
8
100
AcDbBlockReference
  2
*X0
 10
236.246117
 20
192.570527
 30
0.0
1001
ACAD
1000
HATCH
1002
{
1070
    19
1000
ANSI31,_I
1040
3.174999999999999
1040
0.7850000000000001
1002
}
  0
POLYLINE
  5
1085
330
11ED
100
AcDbEntity
  8
SCHRAFFUR_RAND
100
AcDb2dPolyline
 66
     1
 10
0.0
 20
0.0
 30
0.0
 70
     1
  0
VERTEX
  5
1086
330
1085
100
AcDbEntity
  8
SCHRAFFUR_RAND
100
AcDbVertex
100
AcDb2dVertex
 10
419.5771169999999
 20
501.316527
 30
0.0
  0
VERTEX
  5
1087
330
1085
100
AcDbEntity
  8
SCHRAFFUR_RAND
100
AcDbVertex
100
AcDb2dVertex
 10
434.5771169999999
 20
501.316527
 30
0.0
  0
VERTEX
  5
1088
330
1085
100
AcDbEntity
  8
SCHRAFFUR_RAND
100
AcDbVertex
100
AcDb2dVertex
 10
433.3711169999999
 20
478.3165269999999
 30
0.0
  0
VERTEX
  5
1089
330
1085
100
AcDbEntity
  8
SCHRAFFUR_RAND
100
AcDbVertex
100
AcDb2dVertex
 10
432.9841169999999
 20
470.9205269999999
 30
0.0
  0
VERTEX
  5
108A
330
1085
100
AcDbEntity
  8
SCHRAFFUR_RAND
100
AcDbVertex
100
AcDb2dVertex
 10
432.8231169999999
 20
469.972527
 30
0.0
  0
VERTEX
  5
108B
330
1085
100
AcDbEntity
  8
SCHRAFFUR_RAND
100
AcDbVertex
100
AcDb2dVertex
 10
432.2551169999999
 20
469.1825269999999
 30
0.0
  0
VERTEX
  5
108C
330
1085
100
AcDbEntity
  8
SCHRAFFUR_RAND
100
AcDbVertex
100
AcDb2dVertex
 10
431.407117
 20
468.7275269999999
 30
0.0
  0
VERTEX
  5
108D
330
1085
100
AcDbEntity
  8
SCHRAFFUR_RAND
100
AcDbVertex
100
AcDb2dVertex
 10
428.014117
 20
467.436527
 30
0.0
  0
VERTEX
  5
108E
330
1085
100
AcDbEntity
  8
SCHRAFFUR_RAND
100
AcDbVertex
100
AcDb2dVertex
 10
424.587117
 20
466.2385269999999
 30
0.0
  0
VERTEX
  5
108F
330
1085
100
AcDbEntity
  8
SCHRAFFUR_RAND
100
AcDbVertex
100
AcDb2dVertex
 10
423.442117
 20
466.0605269999999
 30
0.0
  0
VERTEX
  5
1090
330
1085
100
AcDbEntity
  8
SCHRAFFUR_RAND
100
AcDbVertex
100
AcDb2dVertex
 10
422.346117
 20
466.4825269999999
 30
0.0
  0
VERTEX
  5
1091
330
1085
100
AcDbEntity
  8
SCHRAFFUR_RAND
100
AcDbVertex
100
AcDb2dVertex
 10
421.552117
 20
467.3475269999999
 30
0.0
  0
VERTEX
  5
1092
330
1085
100
AcDbEntity
  8
SCHRAFFUR_RAND
100
AcDbVertex
100
AcDb2dVertex
 10
421.2981169999999
 20
468.4785269999999
 30
0.0
  0
VERTEX
  5
1093
330
1085
100
AcDbEntity
  8
SCHRAFFUR_RAND
100
AcDbVertex
100
AcDb2dVertex
 10
420.7821169999999
 20
478.3165269999999
 30
0.0
  0
VERTEX
  5
1094
330
1085
100
AcDbEntity
  8
SCHRAFFUR_RAND
100
AcDbVertex
100
AcDb2dVertex
 10
419.5771169999999
 20
501.316527
 30
0.0
  0
SEQEND
  5
1095
330
1085
100
AcDbEntity
  8
SCHRAFFUR_RAND
  0
INSERT
  5
10A1
330
11ED
100
AcDbEntity
  8
8
100
AcDbBlockReference
  2
*X1
 10
236.246117
 20
192.570527
 30
0.0
1001
ACAD
1000
HATCH
1002
{
1070
    19
1000
ANSI31,_I
1040
3.174999999999999
1040
0.7850000000000001
1002
}
  0
POLYLINE
  5
10A2
330
11ED
100
AcDbEntity
  8
SCHRAFFUR_RAND
100
AcDb2dPolyline
 66
     1
 10
0.0
 20
0.0
 30
0.0
 70
     1
  0
VERTEX
  5
10A3
330
10A2
100
AcDbEntity
  8
SCHRAFFUR_RAND
100
AcDbVertex
100
AcDb2dVertex
 10
389.577117
 20
501.316527
 30
0.0
  0
VERTEX
  5
10A4
330
10A2
100
AcDbEntity
  8
SCHRAFFUR_RAND
100
AcDbVertex
100
AcDb2dVertex
 10
404.577117
 20
501.316527
 30
0.0
  0
VERTEX
  5
10A5
330
10A2
100
AcDbEntity
  8
SCHRAFFUR_RAND
100
AcDbVertex
100
AcDb2dVertex
 10
403.371117
 20
478.3165269999999
 30
0.0
  0
VERTEX
  5
10A6
330
10A2
100
AcDbEntity
  8
SCHRAFFUR_RAND
100
AcDbVertex
100
AcDb2dVertex
 10
402.5651169999999
 20
462.9225269999999
 30
0.0
  0
VERTEX
  5
10A7
330
10A2
100
AcDbEntity
  8
SCHRAFFUR_RAND
100
AcDbVertex
100
AcDb2dVertex
 10
402.310117
 20
461.7905269999999
 30
0.0
  0
VERTEX
  5
10A8
330
10A2
100
AcDbEntity
  8
SCHRAFFUR_RAND
100
AcDbVertex
100
AcDb2dVertex
 10
401.5161169999999
 20
460.9265269999999
 30
0.0
  0
VERTEX
  5
10A9
330
10A2
100
AcDbEntity
  8
SCHRAFFUR_RAND
100
AcDbVertex
100
AcDb2dVertex
 10
400.410117
 20
460.5765269999999
 30
0.0
  0
VERTEX
  5
10AA
330
10A2
100
AcDbEntity
  8
SCHRAFFUR_RAND
100
AcDbVertex
100
AcDb2dVertex
 10
394.350117
 20
459.8795269999999
 30
0.0
  0
VERTEX
  5
10AB
330
10A2
100
AcDbEntity
  8
SCHRAFFUR_RAND
100
AcDbVertex
100
AcDb2dVertex
 10
393.014117
 20
460.0465269999999
 30
0.0
  0
VERTEX
  5
10AC
330
10A2
100
AcDbEntity
  8
SCHRAFFUR_RAND
100
AcDbVertex
100
AcDb2dVertex
 10
391.982117
 20
460.9395269999999
 30
0.0
  0
VERTEX
  5
10AD
330
10A2
100
AcDbEntity
  8
SCHRAFFUR_RAND
100
AcDbVertex
100
AcDb2dVertex
 10
391.625117
 20
462.2385269999999
 30
0.0
  0
VERTEX
  5
10AE
330
10A2
100
AcDbEntity
  8
SCHRAFFUR_RAND
100
AcDbVertex
100
AcDb2dVertex
 10
390.782117
 20
478.3165269999999
 30
0.0
  0
VERTEX
  5
10AF
330
10A2
100
AcDbEntity
  8
SCHRAFFUR_RAND
100
AcDbVertex
100
AcDb2dVertex
 10
389.577117
 20
501.316527
 30
0.0
  0
SEQEND
  5
10B0
330
10A2
100
AcDbEntity
  8
SCHRAFFUR_RAND
  0
INSERT
  5
10BE
330
11ED
100
AcDbEntity
  8
8
100
AcDbBlockReference
  2
*X2
 10
236.246117
 20
192.570527
 30
0.0
1001
ACAD
1000
HATCH
1002
{
1070
    19
1000
ANSI31,_I
1040
3.174999999999999
1040
0.7850000000000001
1002
}
  0
POLYLINE
  5
10BF
330
11ED
100
AcDbEntity
  8
SCHRAFFUR_RAND
100
AcDb2dPolyline
 66
     1
 10
0.0
 20
0.0
 30
0.0
 70
     1
  0
VERTEX
  5
10C0
330
10BF
100
AcDbEntity
  8
SCHRAFFUR_RAND
100
AcDbVertex
100
AcDb2dVertex
 10
374.577117
 20
501.316527
 30
0.0
  0
VERTEX
  5
10C1
330
10BF
100
AcDbEntity
  8
SCHRAFFUR_RAND
100
AcDbVertex
100
AcDb2dVertex
 10
373.371117
 20
478.3165269999999
 30
0.0
  0
VERTEX
  5
10C2
330
10BF
100
AcDbEntity
  8
SCHRAFFUR_RAND
100
AcDbVertex
100
AcDb2dVertex
 10
372.529117
 20
462.2385269999999
 30
0.0
  0
VERTEX
  5
10C3
330
10BF
100
AcDbEntity
  8
SCHRAFFUR_RAND
100
AcDbVertex
100
AcDb2dVertex
 10
372.172117
 20
460.9395269999999
 30
0.0
  0
VERTEX
  5
10C4
330
10BF
100
AcDbEntity
  8
SCHRAFFUR_RAND
100
AcDbVertex
100
AcDb2dVertex
 10
371.140117
 20
460.0465269999999
 30
0.0
  0
VERTEX
  5
10C5
330
10BF
100
AcDbEntity
  8
SCHRAFFUR_RAND
100
AcDbVertex
100
AcDb2dVertex
 10
369.803117
 20
459.8795269999999
 30
0.0
  0
VERTEX
  5
10C6
330
10BF
100
AcDbEntity
  8
SCHRAFFUR_RAND
100
AcDbVertex
100
AcDb2dVertex
 10
363.743117
 20
460.5765269999999
 30
0.0
  0
VERTEX
  5
10C7
330
10BF
100
AcDbEntity
  8
SCHRAFFUR_RAND
100
AcDbVertex
100
AcDb2dVertex
 10
362.638117
 20
460.9265269999999
 30
0.0
  0
VERTEX
  5
10C8
330
10BF
100
AcDbEntity
  8
SCHRAFFUR_RAND
100
AcDbVertex
100
AcDb2dVertex
 10
361.843117
 20
461.7905269999999
 30
0.0
  0
VERTEX
  5
10C9
330
10BF
100
AcDbEntity
  8
SCHRAFFUR_RAND
100
AcDbVertex
100
AcDb2dVertex
 10
361.589117
 20
462.9225269999999
 30
0.0
  0
VERTEX
  5
10CA
330
10BF
100
AcDbEntity
  8
SCHRAFFUR_RAND
100
AcDbVertex
100
AcDb2dVertex
 10
360.782117
 20
478.3165269999999
 30
0.0
  0
VERTEX
  5
10CB
330
10BF
100
AcDbEntity
  8
SCHRAFFUR_RAND
100
AcDbVertex
100
AcDb2dVertex
 10
359.577117
 20
501.316527
 30
0.0
  0
VERTEX
  5
10CC
330
10BF
100
AcDbEntity
  8
SCHRAFFUR_RAND
100
AcDbVertex
100
AcDb2dVertex
 10
374.577117
 20
501.316527
 30
0.0
  0
SEQEND
  5
10CD
330
10BF
100
AcDbEntity
  8
SCHRAFFUR_RAND
  0
INSERT
  5
10DB
330
11ED
100
AcDbEntity
  8
8
100
AcDbBlockReference
  2
*X3
 10
236.246117
 20
192.570527
 30
0.0
1001
ACAD
1000
HATCH
1002
{
1070
    19
1000
ANSI31,_I
1040
3.174999999999999
1040
0.7850000000000001
1002
}
  0
POLYLINE
  5
10DC
330
11ED
100
AcDbEntity
  8
SCHRAFFUR_RAND
100
AcDb2dPolyline
 66
     1
 10
0.0
 20
0.0
 30
0.0
 70
     1
  0
VERTEX
  5
10DD
330
10DC
100
AcDbEntity
  8
SCHRAFFUR_RAND
100
AcDbVertex
100
AcDb2dVertex
 10
343.371117
 20
478.3165269999999
 30
0.0
  0
VERTEX
  5
10DE
330
10DC
100
AcDbEntity
  8
SCHRAFFUR_RAND
100
AcDbVertex
100
AcDb2dVertex
 10
342.856117
 20
468.4785269999999
 30
0.0
  0
VERTEX
  5
10DF
330
10DC
100
AcDbEntity
  8
SCHRAFFUR_RAND
100
AcDbVertex
100
AcDb2dVertex
 10
342.601117
 20
467.3475269999999
 30
0.0
  0
VERTEX
  5
10E0
330
10DC
100
AcDbEntity
  8
SCHRAFFUR_RAND
100
AcDbVertex
100
AcDb2dVertex
 10
341.807117
 20
466.4825269999999
 30
0.0
  0
VERTEX
  5
10E1
330
10DC
100
AcDbEntity
  8
SCHRAFFUR_RAND
100
AcDbVertex
100
AcDb2dVertex
 10
340.712117
 20
466.0605269999999
 30
0.0
  0
VERTEX
  5
10E2
330
10DC
100
AcDbEntity
  8
SCHRAFFUR_RAND
100
AcDbVertex
100
AcDb2dVertex
 10
339.566117
 20
466.2385269999999
 30
0.0
  0
VERTEX
  5
10E3
330
10DC
100
AcDbEntity
  8
SCHRAFFUR_RAND
100
AcDbVertex
100
AcDb2dVertex
 10
336.139117
 20
467.436527
 30
0.0
  0
VERTEX
  5
10E4
330
10DC
100
AcDbEntity
  8
SCHRAFFUR_RAND
100
AcDbVertex
100
AcDb2dVertex
 10
332.746117
 20
468.7275269999999
 30
0.0
  0
VERTEX
  5
10E5
330
10DC
100
AcDbEntity
  8
SCHRAFFUR_RAND
100
AcDbVertex
100
AcDb2dVertex
 10
331.898117
 20
469.1825269999999
 30
0.0
  0
VERTEX
  5
10E6
330
10DC
100
AcDbEntity
  8
SCHRAFFUR_RAND
100
AcDbVertex
100
AcDb2dVertex
 10
331.330117
 20
469.972527
 30
0.0
  0
VERTEX
  5
10E7
330
10DC
100
AcDbEntity
  8
SCHRAFFUR_RAND
100
AcDbVertex
100
AcDb2dVertex
 10
331.170117
 20
470.9205269999999
 30
0.0
  0
VERTEX
  5
10E8
330
10DC
100
AcDbEntity
  8
SCHRAFFUR_RAND
100
AcDbVertex
100
AcDb2dVertex
 10
330.782117
 20
478.3165269999999
 30
0.0
  0
VERTEX
  5
10E9
330
10DC
100
AcDbEntity
  8
SCHRAFFUR_RAND
100
AcDbVertex
100
AcDb2dVertex
 10
329.577117
 20
501.316527
 30
0.0
  0
VERTEX
  5
10EA
330
10DC
100
AcDbEntity
  8
SCHRAFFUR_RAND
100
AcDbVertex
100
AcDb2dVertex
 10
344.577117
 20
501.316527
 30
0.0
  0
VERTEX
  5
10EB
330
10DC
100
AcDbEntity
  8
SCHRAFFUR_RAND
100
AcDbVertex
100
AcDb2dVertex
 10
343.371117
 20
478.3165269999999
 30
0.0
  0
SEQEND
  5
10EC
330
10DC
100
AcDbEntity
  8
SCHRAFFUR_RAND
  0
INSERT
  5
10F9
330
11ED
100
AcDbEntity
  8
8
100
AcDbBlockReference
  2
*X4
 10
236.246117
 20
192.570527
 30
0.0
1001
ACAD
1000
HATCH
1002
{
1070
    19
1000
ANSI31,_I
1040
3.174999999999999
1040
0.7850000000000001
1002
}
  0
POLYLINE
  5
10FA
330
11ED
100
AcDbEntity
  8
SCHRAFFUR_RAND
100
AcDb2dPolyline
 66
     1
 10
0.0
 20
0.0
 30
0.0
 70
     1
  0
VERTEX
  5
10FB
330
10FA
100
AcDbEntity
  8
SCHRAFFUR_RAND
100
AcDbVertex
100
AcDb2dVertex
 10
311.499117
 20
478.3165269999999
 30
0.0
  0
VERTEX
  5
10FC
330
10FA
100
AcDbEntity
  8
SCHRAFFUR_RAND
100
AcDbVertex
100
AcDb2dVertex
 10
306.949117
 20
478.3165269999999
 30
0.0
  0
VERTEX
  5
10FD
330
10FA
100
AcDbEntity
  8
SCHRAFFUR_RAND
100
AcDbVertex
100
AcDb2dVertex
 10
305.702117
 20
478.5665269999999
 30
0.0
  0
VERTEX
  5
10FE
330
10FA
100
AcDbEntity
  8
SCHRAFFUR_RAND
100
AcDbVertex
100
AcDb2dVertex
 10
304.767117
 20
479.452527
 30
0.0
  0
VERTEX
  5
10FF
330
10FA
100
AcDbEntity
  8
SCHRAFFUR_RAND
100
AcDbVertex
100
AcDb2dVertex
 10
304.453117
 20
480.6855269999999
 30
0.0
  0
VERTEX
  5
1100
330
10FA
100
AcDbEntity
  8
SCHRAFFUR_RAND
100
AcDbVertex
100
AcDb2dVertex
 10
304.282117
 20
483.947527
 30
0.0
  0
VERTEX
  5
1101
330
10FA
100
AcDbEntity
  8
SCHRAFFUR_RAND
100
AcDbVertex
100
AcDb2dVertex
 10
303.967117
 20
485.1805269999999
 30
0.0
  0
VERTEX
  5
1102
330
10FA
100
AcDbEntity
  8
SCHRAFFUR_RAND
100
AcDbVertex
100
AcDb2dVertex
 10
303.032117
 20
486.0665269999999
 30
0.0
  0
VERTEX
  5
1103
330
10FA
100
AcDbEntity
  8
SCHRAFFUR_RAND
100
AcDbVertex
100
AcDb2dVertex
 10
301.785117
 20
486.3165269999999
 30
0.0
  0
VERTEX
  5
1104
330
10FA
100
AcDbEntity
  8
SCHRAFFUR_RAND
100
AcDbVertex
100
AcDb2dVertex
 10
293.180117
 20
486.3165269999999
 30
0.0
  0
VERTEX
  5
1105
330
10FA
100
AcDbEntity
  8
SCHRAFFUR_RAND
100
AcDbVertex
100
AcDb2dVertex
 10
291.959117
 20
486.5515269999999
 30
0.0
  0
VERTEX
  5
1106
330
10FA
100
AcDbEntity
  8
SCHRAFFUR_RAND
100
AcDbVertex
100
AcDb2dVertex
 10
291.030117
 20
487.4025269999999
 30
0.0
  0
VERTEX
  5
1107
330
10FA
100
AcDbEntity
  8
SCHRAFFUR_RAND
100
AcDbVertex
100
AcDb2dVertex
 10
290.689117
 20
488.5985269999999
 30
0.0
  0
VERTEX
  5
1108
330
10FA
100
AcDbEntity
  8
SCHRAFFUR_RAND
100
AcDbVertex
100
AcDb2dVertex
 10
289.577117
 20
501.316527
 30
0.0
  0
VERTEX
  5
1109
330
10FA
100
AcDbEntity
  8
SCHRAFFUR_RAND
100
AcDbVertex
100
AcDb2dVertex
 10
315.077117
 20
501.316527
 30
0.0
  0
VERTEX
  5
110A
330
10FA
100
AcDbEntity
  8
SCHRAFFUR_RAND
100
AcDbVertex
100
AcDb2dVertex
 10
313.995117
 20
480.6855269999999
 30
0.0
  0
VERTEX
  5
110B
330
10FA
100
AcDbEntity
  8
SCHRAFFUR_RAND
100
AcDbVertex
100
AcDb2dVertex
 10
313.681117
 20
479.452527
 30
0.0
  0
VERTEX
  5
110C
330
10FA
100
AcDbEntity
  8
SCHRAFFUR_RAND
100
AcDbVertex
100
AcDb2dVertex
 10
312.746117
 20
478.5665269999999
 30
0.0
  0
VERTEX
  5
110D
330
10FA
100
AcDbEntity
  8
SCHRAFFUR_RAND
100
AcDbVertex
100
AcDb2dVertex
 10
311.499117
 20
478.3165269999999
 30
0.0
  0
SEQEND
  5
110E
330
10FA
100
AcDbEntity
  8
SCHRAFFUR_RAND
  0
INSERT
  5
111B
330
11ED
100
AcDbEntity
  8
8
100
AcDbBlockReference
  2
*X5
 10
236.246117
 20
192.570527
 30
0.0
1001
ACAD
1000
HATCH
1002
{
1070
    19
1000
ANSI31,_I
1040
3.174999999999999
1040
0.7850000000000001
1002
}
  0
POLYLINE
  5
111C
330
11ED
100
AcDbEntity
  8
SCHRAFFUR_RAND
100
AcDb2dPolyline
 66
     1
 10
0.0
 20
0.0
 30
0.0
 70
     1
  0
VERTEX
  5
111D
330
111C
100
AcDbEntity
  8
SCHRAFFUR_RAND
100
AcDbVertex
100
AcDb2dVertex
 10
476.5771169999999
 20
501.316527
 30
0.0
  0
VERTEX
  5
111E
330
111C
100
AcDbEntity
  8
SCHRAFFUR_RAND
100
AcDbVertex
100
AcDb2dVertex
 10
481.5771169999999
 20
501.316527
 30
0.0
  0
VERTEX
  5
111F
330
111C
100
AcDbEntity
  8
SCHRAFFUR_RAND
100
AcDbVertex
100
AcDb2dVertex
 10
481.9241169999999
 20
494.6855269999999
 30
0.0
  0
VERTEX
  5
1120
330
111C
100
AcDbEntity
  8
SCHRAFFUR_RAND
100
AcDbVertex
100
AcDb2dVertex
 10
482.2311169999999
 20
493.4485269999999
 30
0.0
  0
VERTEX
  5
1121
330
111C
100
AcDbEntity
  8
SCHRAFFUR_RAND
100
AcDbVertex
100
AcDb2dVertex
 10
483.169117
 20
492.5575269999999
 30
0.0
  0
VERTEX
  5
1122
330
111C
100
AcDbEntity
  8
SCHRAFFUR_RAND
100
AcDbVertex
100
AcDb2dVertex
 10
484.421117
 20
492.3165269999999
 30
0.0
  0
VERTEX
  5
1123
330
111C
100
AcDbEntity
  8
SCHRAFFUR_RAND
100
AcDbVertex
100
AcDb2dVertex
 10
485.1831169999999
 20
477.7675269999999
 30
0.0
  0
VERTEX
  5
1124
330
111C
100
AcDbEntity
  8
SCHRAFFUR_RAND
100
AcDbVertex
100
AcDb2dVertex
 10
484.059117
 20
456.3165269999999
 30
0.0
  0
VERTEX
  5
1125
330
111C
100
AcDbEntity
  8
SCHRAFFUR_RAND
100
AcDbVertex
100
AcDb2dVertex
 10
475.077117
 20
456.3165269999999
 30
0.0
  0
VERTEX
  5
1126
330
111C
100
AcDbEntity
  8
SCHRAFFUR_RAND
100
AcDbVertex
100
AcDb2dVertex
 10
474.8151169999999
 20
451.316527
 30
0.0
  0
VERTEX
  5
1127
330
111C
100
AcDbEntity
  8
SCHRAFFUR_RAND
100
AcDbVertex
100
AcDb2dVertex
 10
458.4441169999999
 20
451.316527
 30
0.0
  0
VERTEX
  5
1128
330
111C
100
AcDbEntity
  8
SCHRAFFUR_RAND
100
AcDbVertex
100
AcDb2dVertex
 10
458.077117
 20
458.3165269999999
 30
0.0
  0
VERTEX
  5
1129
330
111C
100
AcDbEntity
  8
SCHRAFFUR_RAND
100
AcDbVertex
100
AcDb2dVertex
 10
458.2341169999999
 20
461.3165269999999
 30
0.0
  0
VERTEX
  5
112A
330
111C
100
AcDbEntity
  8
SCHRAFFUR_RAND
100
AcDbVertex
100
AcDb2dVertex
 10
472.1081169999999
 20
461.3165269999999
 30
0.0
  0
VERTEX
  5
112B
330
111C
100
AcDbEntity
  8
SCHRAFFUR_RAND
100
AcDbVertex
100
AcDb2dVertex
 10
473.360117
 20
461.5575269999999
 30
0.0
  0
VERTEX
  5
112C
330
111C
100
AcDbEntity
  8
SCHRAFFUR_RAND
100
AcDbVertex
100
AcDb2dVertex
 10
474.298117
 20
462.448527
 30
0.0
  0
VERTEX
  5
112D
330
111C
100
AcDbEntity
  8
SCHRAFFUR_RAND
100
AcDbVertex
100
AcDb2dVertex
 10
474.605117
 20
463.6855269999999
 30
0.0
  0
VERTEX
  5
112E
330
111C
100
AcDbEntity
  8
SCHRAFFUR_RAND
100
AcDbVertex
100
AcDb2dVertex
 10
475.9151169999999
 20
488.6855269999999
 30
0.0
  0
VERTEX
  5
112F
330
111C
100
AcDbEntity
  8
SCHRAFFUR_RAND
100
AcDbVertex
100
AcDb2dVertex
 10
476.5771169999999
 20
501.316527
 30
0.0
  0
SEQEND
  5
1130
330
111C
100
AcDbEntity
  8
SCHRAFFUR_RAND
  0
INSERT
  5
1143
330
11ED
100
AcDbEntity
  8
8
100
AcDbBlockReference
  2
*X6
 10
236.246117
 20
192.570527
 30
0.0
1001
ACAD
1000
HATCH
1002
{
1070
    19
1000
ANSI31,_I
1040
3.174999999999999
1040
-0.7850000000000001
1002
}
  0
POLYLINE
  5
1144
330
11ED
100
AcDbEntity
  8
SCHRAFFUR_RAND
100
AcDb2dPolyline
 66
     1
 10
0.0
 20
0.0
 30
0.0
 70
     1
  0
VERTEX
  5
1145
330
1144
100
AcDbEntity
  8
SCHRAFFUR_RAND
100
AcDbVertex
100
AcDb2dVertex
 10
295.766117
 20
451.316527
 30
0.0
  0
VERTEX
  5
1146
330
1144
100
AcDbEntity
  8
SCHRAFFUR_RAND
100
AcDbVertex
100
AcDb2dVertex
 10
292.766117
 20
451.316527
 30
0.0
  0
VERTEX
  5
1147
330
1144
100
AcDbEntity
  8
SCHRAFFUR_RAND
100
AcDbVertex
100
AcDb2dVertex
 10
291.760117
 20
472.2555269999999
 30
0.0
  0
VERTEX
  5
1148
330
1144
100
AcDbEntity
  8
SCHRAFFUR_RAND
100
AcDbVertex
100
AcDb2dVertex
 10
291.317117
 20
473.8965269999999
 30
0.0
  0
VERTEX
  5
1149
330
1144
100
AcDbEntity
  8
SCHRAFFUR_RAND
100
AcDbVertex
100
AcDb2dVertex
 10
290.380117
 20
475.3235269999999
 30
0.0
  0
VERTEX
  5
114A
330
1144
100
AcDbEntity
  8
SCHRAFFUR_RAND
100
AcDbVertex
100
AcDb2dVertex
 10
289.081117
 20
476.4325269999999
 30
0.0
  0
VERTEX
  5
114B
330
1144
100
AcDbEntity
  8
SCHRAFFUR_RAND
100
AcDbVertex
100
AcDb2dVertex
 10
287.525117
 20
477.1355269999999
 30
0.0
  0
VERTEX
  5
114C
330
1144
100
AcDbEntity
  8
SCHRAFFUR_RAND
100
AcDbVertex
100
AcDb2dVertex
 10
285.834117
 20
477.3165269999999
 30
0.0
  0
VERTEX
  5
114D
330
1144
100
AcDbEntity
  8
SCHRAFFUR_RAND
100
AcDbVertex
100
AcDb2dVertex
 10
281.319117
 20
477.3165269999999
 30
0.0
  0
VERTEX
  5
114E
330
1144
100
AcDbEntity
  8
SCHRAFFUR_RAND
100
AcDbVertex
100
AcDb2dVertex
 10
282.577117
 20
501.316527
 30
0.0
  0
VERTEX
  5
114F
330
1144
100
AcDbEntity
  8
SCHRAFFUR_RAND
100
AcDbVertex
100
AcDb2dVertex
 10
287.577117
 20
501.316527
 30
0.0
  0
VERTEX
  5
1150
330
1144
100
AcDbEntity
  8
SCHRAFFUR_RAND
100
AcDbVertex
100
AcDb2dVertex
 10
288.291117
 20
487.685527
 30
0.0
  0
VERTEX
  5
1151
330
1144
100
AcDbEntity
  8
SCHRAFFUR_RAND
100
AcDbVertex
100
AcDb2dVertex
 10
288.538117
 20
486.5955269999999
 30
0.0
  0
VERTEX
  5
1152
330
1144
100
AcDbEntity
  8
SCHRAFFUR_RAND
100
AcDbVertex
100
AcDb2dVertex
 10
289.283117
 20
485.7455269999999
 30
0.0
  0
VERTEX
  5
1153
330
1144
100
AcDbEntity
  8
SCHRAFFUR_RAND
100
AcDbVertex
100
AcDb2dVertex
 10
290.321117
 20
485.299527
 30
0.0
  0
VERTEX
  5
1154
330
1144
100
AcDbEntity
  8
SCHRAFFUR_RAND
100
AcDbVertex
100
AcDb2dVertex
 10
291.435117
 20
485.4015269999999
 30
0.0
  0
VERTEX
  5
1155
330
1144
100
AcDbEntity
  8
SCHRAFFUR_RAND
100
AcDbVertex
100
AcDb2dVertex
 10
294.849117
 20
486.3165269999999
 30
0.0
  0
VERTEX
  5
1156
330
1144
100
AcDbEntity
  8
SCHRAFFUR_RAND
100
AcDbVertex
100
AcDb2dVertex
 10
295.691117
 20
486.3165269999999
 30
0.0
  0
VERTEX
  5
1157
330
1144
100
AcDbEntity
  8
SCHRAFFUR_RAND
100
AcDbVertex
100
AcDb2dVertex
 10
296.538117
 20
486.2315269999999
 30
0.0
  0
VERTEX
  5
1158
330
1144
100
AcDbEntity
  8
SCHRAFFUR_RAND
100
AcDbVertex
100
AcDb2dVertex
 10
297.290117
 20
485.815527
 30
0.0
  0
VERTEX
  5
1159
330
1144
100
AcDbEntity
  8
SCHRAFFUR_RAND
100
AcDbVertex
100
AcDb2dVertex
 10
297.811117
 20
485.1415269999999
 30
0.0
  0
VERTEX
  5
115A
330
1144
100
AcDbEntity
  8
SCHRAFFUR_RAND
100
AcDbVertex
100
AcDb2dVertex
 10
302.038117
 20
478.3165269999999
 30
0.0
  0
VERTEX
  5
115B
330
1144
100
AcDbEntity
  8
SCHRAFFUR_RAND
100
AcDbVertex
100
AcDb2dVertex
 10
302.038117
 20
476.3785269999999
 30
0.0
  0
VERTEX
  5
115C
330
1144
100
AcDbEntity
  8
SCHRAFFUR_RAND
100
AcDbVertex
100
AcDb2dVertex
 10
299.420117
 20
476.3455269999999
 30
0.0
  0
VERTEX
  5
115D
330
1144
100
AcDbEntity
  8
SCHRAFFUR_RAND
100
AcDbVertex
100
AcDb2dVertex
 10
298.191117
 20
476.0745269999999
 30
0.0
  0
VERTEX
  5
115E
330
1144
100
AcDbEntity
  8
SCHRAFFUR_RAND
100
AcDbVertex
100
AcDb2dVertex
 10
297.274117
 20
475.1935269999999
 30
0.0
  0
VERTEX
  5
115F
330
1144
100
AcDbEntity
  8
SCHRAFFUR_RAND
100
AcDbVertex
100
AcDb2dVertex
 10
296.954117
 20
473.9765269999999
 30
0.0
  0
VERTEX
  5
1160
330
1144
100
AcDbEntity
  8
SCHRAFFUR_RAND
100
AcDbVertex
100
AcDb2dVertex
 10
296.533117
 20
465.9475269999999
 30
0.0
  0
VERTEX
  5
1161
330
1144
100
AcDbEntity
  8
SCHRAFFUR_RAND
100
AcDbVertex
100
AcDb2dVertex
 10
295.766117
 20
451.316527
 30
0.0
  0
SEQEND
  5
1162
330
1144
100
AcDbEntity
  8
SCHRAFFUR_RAND
  0
INSERT
  5
1171
330
11ED
100
AcDbEntity
  8
8
100
AcDbBlockReference
  2
*X7
 10
236.246117
 20
192.570527
 30
0.0
1001
ACAD
1000
HATCH
1002
{
1070
    19
1000
ANSI31,_I
1040
3.174999999999999
1040
-0.7850000000000001
1002
}
  0
DIMENSION
  5
117C
330
11ED
100
AcDbEntity
  8
5
100
AcDbDimension
  2
*D10
 10
485.1831169999999
 20
586.3165269999999
 30
0.0
 11
383.251117
 21
598.0682494409448
 31
0.0
 70
    32
  1
%%c 200
 71
     5
 42
203.864
  3
GEN-ISO
100
AcDbAlignedDimension
 13
281.319117
 23
477.3165269999999
 33
0.0
 14
485.1831169999999
 24
477.7675269999999
 34
0.0
100
AcDbRotatedDimension
1001
ACAD
1000
DSTYLE
1002
{
1070
    41
1040
5.0
1002
}
  0
DIMENSION
  5
1187
330
11ED
100
AcDbEntity
  8
5
100
AcDbDimension
  2
*D12
 10
419.5771169999999
 20
545.8700860779852
 30
0.0
 11
343.3396801329235
 21
545.8700860779852
 31
0.0
 70
   160
  1
15
 71
     5
 42
15.0
  3
GEN-ISO
100
AcDbAlignedDimension
 13
404.577117
 23
501.316527
 33
0.0
 14
419.5771169999999
 24
501.316527
 34
0.0
100
AcDbRotatedDimension
1001
ACAD
1000
DSTYLE
1002
{
1070
    41
1040
5.0
1002
}
  0
DIMENSION
  5
1191
330
11ED
100
AcDbEntity
  8
5
100
AcDbDimension
  2
*D11
 10
231.332867
 20
456.3165269999999
 30
0.0
 11
219.5828669999999
 21
478.816527
 31
0.0
 70
    32
  1
45
 71
     5
 42
45.0
  3
GEN-ISO
100
AcDbAlignedDimension
 13
282.577117
 23
501.316527
 33
0.0
 14
282.419117
 24
456.3165269999999
 34
0.0
 50
270.0
100
AcDbRotatedDimension
1001
ACAD
1000
DSTYLE
1002
{
1070
    41
1040
5.0
1002
}
  0
LINE
  5
1192
330
11ED
100
AcDbEntity
  8
7
100
AcDbLine
 10
502.489117
 20
240.402078
 30
0.0
 11
270.659117
 21
240.402078
 31
0.0
  0
LINE
  5
1193
330
11ED
100
AcDbEntity
  8
7
100
AcDbLine
 10
382.315117
 20
129.170078
 30
0.0
 11
382.315117
 21
349.634078
 31
0.0
  0
CIRCLE
  5
1194
330
11ED
100
AcDbEntity
  8
0
100
AcDbCircle
 10
382.315117
 20
240.402078
 30
0.0
 40
92.5
  0
ARC
  5
1195
330
11ED
100
AcDbEntity
  8
0
100
AcDbCircle
 10
382.315117
 20
240.402078
 30
0.0
 40
67.0
100
AcDbArc
 50
152.45
 51
204.765
  0
LINE
  5
1196
330
11ED
100
AcDbEntity
  8
0
100
AcDbLine
 10
374.815117
 20
180.902078
 30
0.0
 11
374.815117
 21
299.902078
 31
0.0
  0
LINE
  5
1197
330
11ED
100
AcDbEntity
  8
0
100
AcDbLine
 10
359.815117
 20
189.019078
 30
0.0
 11
359.815117
 21
291.786078
 31
0.0
  0
LINE
  5
1198
330
11ED
100
AcDbEntity
  8
0
100
AcDbLine
 10
344.815117
 20
189.019078
 30
0.0
 11
344.815117
 21
291.786078
 31
0.0
  0
LINE
  5
1199
330
11ED
100
AcDbEntity
  8
0
100
AcDbLine
 10
329.815117
 20
214.174078
 30
0.0
 11
329.815117
 21
269.699078
 31
0.0
  0
ARC
  5
119A
330
11ED
100
AcDbEntity
  8
0
100
AcDbCircle
 10
382.315117
 20
299.902078
 30
0.0
 40
7.5
100
AcDbArc
 50
90.0
 51
180.0
  0
ARC
  5
119B
330
11ED
100
AcDbEntity
  8
0
100
AcDbCircle
 10
352.315117
 20
291.786078
 30
0.0
 40
7.5
100
AcDbArc
 50
0.0
 51
180.0
  0
ARC
  5
119C
330
11ED
100
AcDbEntity
  8
0
100
AcDbCircle
 10
352.315117
 20
189.019078
 30
0.0
 40
7.5
100
AcDbArc
 50
180.0
 51
0.0
  0
ARC
  5
119D
330
11ED
100
AcDbEntity
  8
0
100
AcDbCircle
 10
326.156117
 20
269.699078
 30
0.0
 40
3.658999999999999
100
AcDbArc
 50
0.0
 51
152.45
  0
ARC
  5
119E
330
11ED
100
AcDbEntity
  8
0
100
AcDbCircle
 10
382.315117
 20
180.902078
 30
0.0
 40
7.5
100
AcDbArc
 50
180.0
 51
270.0
  0
ARC
  5
119F
330
11ED
100
AcDbEntity
  8
0
100
AcDbCircle
 10
325.443117
 20
214.174078
 30
0.0
 40
4.371999999999999
100
AcDbArc
 50
204.658
 51
0.0
  0
ARC
  5
11A0
102
{ACAD_REACTORS
330
1320
102
}
330
11ED
100
AcDbEntity
  8
0
100
AcDbCircle
 10
382.315117
 20
240.402078
 30
0.0
 40
67.0
100
AcDbArc
 50
335.235
 51
27.55
  0
LINE
  5
11A1
330
11ED
100
AcDbEntity
  8
0
100
AcDbLine
 10
389.815117
 20
180.902078
 30
0.0
 11
389.815117
 21
299.902078
 31
0.0
  0
LINE
  5
11A2
330
11ED
100
AcDbEntity
  8
0
100
AcDbLine
 10
404.8151169999999
 20
189.019078
 30
0.0
 11
404.8151169999999
 21
291.786078
 31
0.0
  0
LINE
  5
11A3
330
11ED
100
AcDbEntity
  8
0
100
AcDbLine
 10
419.815117
 20
189.019078
 30
0.0
 11
419.815117
 21
291.786078
 31
0.0
  0
LINE
  5
11A4
330
11ED
100
AcDbEntity
  8
0
100
AcDbLine
 10
434.815117
 20
214.174078
 30
0.0
 11
434.815117
 21
269.699078
 31
0.0
  0
ARC
  5
11A5
330
11ED
100
AcDbEntity
  8
0
100
AcDbCircle
 10
382.315117
 20
299.902078
 30
0.0
 40
7.5
100
AcDbArc
 50
0.0
 51
90.0
  0
ARC
  5
11A6
330
11ED
100
AcDbEntity
  8
0
100
AcDbCircle
 10
412.3151169999999
 20
291.786078
 30
0.0
 40
7.5
100
AcDbArc
 50
0.0
 51
180.0
  0
ARC
  5
11A7
330
11ED
100
AcDbEntity
  8
0
100
AcDbCircle
 10
412.3151169999999
 20
189.019078
 30
0.0
 40
7.5
100
AcDbArc
 50
180.0
 51
0.0
  0
ARC
  5
11A8
330
11ED
100
AcDbEntity
  8
0
100
AcDbCircle
 10
438.4741169999999
 20
269.699078
 30
0.0
 40
3.658999999999999
100
AcDbArc
 50
27.55
 51
180.0
  0
ARC
  5
11A9
330
11ED
100
AcDbEntity
  8
0
100
AcDbCircle
 10
382.315117
 20
180.902078
 30
0.0
 40
7.5
100
AcDbArc
 50
270.0
 51
0.0
  0
ARC
  5
11AA
330
11ED
100
AcDbEntity
  8
0
100
AcDbCircle
 10
439.1861169999999
 20
214.174078
 30
0.0
 40
4.371999999999999
100
AcDbArc
 50
180.0
 51
335.342
  0
CIRCLE
  5
11AB
330
11ED
100
AcDbEntity
  8
0
100
AcDbCircle
 10
382.315117
 20
240.402078
 30
0.0
 40
99.50000000000001
  0
CIRCLE
  5
11AC
330
11ED
100
AcDbEntity
  8
0
100
AcDbCircle
 10
382.315117
 20
240.402078
 30
0.0
 40
94.50000000000001
  0
LINE
  5
11AD
330
11ED
100
AcDbEntity
  8
0
100
AcDbLine
 10
485.421117
 20
197.902078
 30
0.0
 11
485.421117
 21
282.902078
 31
0.0
  0
LINE
  5
11AE
330
11ED
100
AcDbEntity
  8
0
100
AcDbLine
 10
485.421117
 20
282.902078
 30
0.0
 11
473.8521169999999
 21
282.902078
 31
0.0
  0
LINE
  5
11AF
330
11ED
100
AcDbEntity
  8
0
100
AcDbLine
 10
485.421117
 20
197.902078
 30
0.0
 11
473.8521169999999
 21
197.902078
 31
0.0
  0
ARC
  5
11B0
330
11ED
100
AcDbEntity
  8
0
100
AcDbCircle
 10
473.8521169999999
 20
285.4020779999999
 30
0.0
 40
2.5
100
AcDbArc
 50
206.179
 51
270.0
  0
ARC
  5
11B1
330
11ED
100
AcDbEntity
  8
0
100
AcDbCircle
 10
473.8521169999999
 20
195.402078
 30
0.0
 40
2.5
100
AcDbArc
 50
90.0
 51
153.821
  0
INSERT
  5
127A
330
11ED
100
AcDbEntity
  8
0
100
AcDbBlockReference
  2
KATALOG_LEER
 10
251.839706
 20
11.304483
 30
0.0
 41
5.0
 42
5.0
 43
5.0
1001
GENIUS_GENOREF_13
1005
127B
  0
POINT
  5
127B
330
11ED
100
AcDbEntity
  8
0
 60
     1
100
AcDbPoint
 10
0.0
 20
0.0
 30
0.0
1001
GENIUS_GENOBJ-N-TIT_13
1002
{
1000
OWNER
1000
GEN
1002
}
1001
GENIUS_GENOENT_13
1002
{
1000
MYREF
1005
127B
1002
}
1002
{
1000
GRP
1005
0
1002
}
1001
GENIUS_GENOLIS_13
1002
{
1000
ENT
1005
127A
1002
}
1001
GENIUS_GENTITLE_13
1002
{
1000
SCALE
1000
1:5
1002
}
1002
{
1000
BORDER
1000
KATALOG
1002
}
1002
{
1000
TITLE
1000
KATALOG_LEER
1002
}
1002
{
1000
UNCHG
1002
{
1000
GEN-TITLE-SCA
1000
GEN-TITLE-SIZ
1002
}
1002
}
1002
{
1000
HRA
1005
1273
1002
}
1002
{
1000
HTIT
1005
127A
1002
}
1002
{
1000
GENIUSID
1005
127B
1002
}
1001
GENIUS_GENODEF_13
1002
{
1000
HIER
1070
     1
1002
}
1002
{
1000
MANEDIT
1070
     1
1002
}
1002
{
1000
NOSEL
1070
     0
1002
}
1002
{
1000
BEHIND
1070
     0
1002
}
1002
{
1000
REACTOR
1002
}
  0
ACAD_PROXY_ENTITY
  5
1320
330
11ED
100
AcDbEntity
  8
0
100
AcDbProxyEntity
 90
      498
 91
      500
 95
       21
 70
     0
 92
     1376
310
6005000009000000980000000B000000EBEDD55233037C40B83EACFF3EA57140000000000000000000000000000000000000000000000000000000000000F03F08BBDD169A4D4340DC7BB65FA6F150C0000000000000000050006F6E01000000000000000000000000002440000000000000F03F0000000000000000000000
310
000000F03F00000000000000000000000000000000000000000009D65700FF2C71980000000B000000E9D78CBF7E477C4009D657A7FF2C7140000000000000000000000000000000000000000000000000000000000000F03FE09B312D99203E40DCDD438B98FC51C000000000000000004100000001000000000000000000
310
000000002440000000000000F03F0000000000000000000000000000F03F00000000000000000000000000000000000000000000000000000000980000000B0000003DDD50B5A5857C404F9B0D4DA2947040000000000000000000000000000000000000000000000000000000000000F03F90B5E5719BEA344000D4906F2A
310
C952C000000000000000005300000001000000000000000000000000002440000000000000F03F0000000000000000000000000000F03F00000000000000000000000000000000000000000000000000000000980000000B000000B4C1931765AC7C401FF28562E50570400000000000000000000000000000000000000000
310
00000000000000000000F03F601DF117FAC82740504208A2A24553C000000000000000005300000001000000000000000000000000002440000000000000F03F0000000000000000000000000000F03F00000000000000000000000000000000000000000002210700000000980000000B0000005DD79C6279C27C405E0010
310
E73DE76E40000000000000000000000000000000000000000000000000000000000000F03F00C2654C2B760140905C878A0B7E53C000000000000000004100000001000000000000000000000000002440000000000000F03F0000000000000000000000000000F03F00000000000000000000000000000000000000000000
310
000000006500980000000B000000FCA1A479B1C57C409BD8372E2E9E6D40000000000000000000000000000000000000000000000000000000000000F03F0023253500DF1EC0A838A0DC806753C000000000000000005600000001000000000000000000000000002440000000000000F03F00000000000000000000000000
310
00F03F00000000000000000000000000000000000000000000000000000000980000000B0000004379F65BE9B57C40906D9F4CDE6D6C40000000000000000000000000000000000000000000000000000000000000F03F806DC861667E31C05C477430D40053C0000000000000000041003603010000000000000000000000
310
00002440000000000000F03F0000000000000000000000000000F03F0000000000000000000000000000000000000000005B31B600C93AC0980000000B0000002611EEF87A8F7C4027DFFA56DE2D6B40000000000000000000000000000000000000000000000000000000000000F03FA05B31B6DBC93AC0D82CDDF35A5052
310
C000000000000000004E0000F001000000000000000000000000002440000000000000F03F0000000000000000000000000000F03F000000000000000000000000000000000000000000CD0F63000A1C6A980000000B000000CE8314895C5C7C40CD0F63D60A1C6A4000000000000000000000000000000000000000000000
310
0000000000000000F03FD8D6A941258D41C0F8BD0D57E96951C000000000000000005400000001000000000000000000000000002440000000000000F03F0000000000000000000000000000F03F00000000000000000000000000000000000000000000000000000000
 93
      846
310
408C4C10131404C5085354414E444152444254D85B9CD4D95C9A59A42541054D4D055905395102313140CC0B8C103302E30183A052E02B95DD00A6A7BCD2DD0C6E4080000000000C0504011DD00E7D819C5D00EBD97F9F0DC6DE3FA40001000040902901A41240501406
330
11A0
 94
        0
1001
ACAD
1000
AcRTDxfName
1000
ARCALIGNEDTEXT
  0
ENDSEC
  0
SECTION
  2
OBJECTS
  0
DICTIONARY
  5
11E1
330
0
100
AcDbDictionary
281
     1
  3
ACAD_COLOR
350
1347
  3
ACAD_GROUP
350
11E2
  3
ACAD_LAYOUT
350
134A
  3
ACAD_MATERIAL
350
1346
  3
ACAD_MLINESTYLE
350
11F0
  3
ACAD_PLOTSETTINGS
350
134B
  3
ACAD_PLOTSTYLENAME
350
1344
  3
ACAD_TABLESTYLE
350
1348
  3
ACDBHEADERROUNDTRIPXREC
350
144D
  3
AcDbVariableDictionary
350
1448
  3
AcmDictionary
350
13A9
  3
AMG
350
134F
  3
AMGSNAPSETTINGS
350
141F
  0
DICTIONARY
  5
1347
102
{ACAD_REACTORS
330
11E1
102
}
330
11E1
100
AcDbDictionary
281
     1
  0
DICTIONARY
  5
11E2
102
{ACAD_REACTORS
330
11E1
102
}
330
11E1
100
AcDbDictionary
281
     1
  0
DICTIONARY
  5
134A
102
{ACAD_REACTORS
330
11E1
102
}
330
11E1
100
AcDbDictionary
281
     1
  3
Layout1
350
134D
  3
Model
350
134C
  0
DICTIONARY
  5
1346
102
{ACAD_REACTORS
330
11E1
102
}
330
11E1
100
AcDbDictionary
281
     1
  0
DICTIONARY
  5
11F0
102
{ACAD_REACTORS
330
11E1
102
}
330
11E1
100
AcDbDictionary
281
     1
  3
STANDARD
350
11F1
  0
DICTIONARY
  5
134B
102
{ACAD_REACTORS
330
11E1
102
}
330
11E1
100
AcDbDictionary
281
     1
  0
ACDBDICTIONARYWDFLT
  5
1344
102
{ACAD_REACTORS
330
11E1
102
}
330
11E1
100
AcDbDictionary
281
     1
  3
Normal
350
1345
100
AcDbDictionaryWithDefault
340
1345
  0
DICTIONARY
  5
1348
102
{ACAD_REACTORS
330
11E1
102
}
330
11E1
100
AcDbDictionary
281
     1
  3
Standard
350
1349
  0
DICTIONARY
  5
144D
102
{ACAD_REACTORS
330
11E1
102
}
330
11E1
100
AcDbDictionary
281
     1
  0
DICTIONARY
  5
1448
102
{ACAD_REACTORS
330
11E1
102
}
330
11E1
100
AcDbDictionary
281
     1
  3
CTABLESTYLE
350
1449
  3
DIMASSOC
350
144A
  3
PROJECTNAME
350
144B
  0
DICTIONARY
  5
13A9
102
{ACAD_REACTORS
330
11E1
102
}
330
11E1
100
AcDbDictionary
281
     1
  3
AcmStdDictionary
350
13B4
  3
AMDTSECTSYM_ARROWCOLOR
350
13D7
  0
DICTIONARY
  5
134F
102
{ACAD_REACTORS
330
11E1
102
}
330
11E1
100
AcDbDictionary
281
     1
  0
DICTIONARY
  5
141F
102
{ACAD_REACTORS
330
11E1
102
}
330
11E1
100
AcDbDictionary
281
     1
  0
LAYOUT
  5
134D
102
{ACAD_XDICTIONARY
360
1450
102
}
102
{ACAD_REACTORS
330
134A
102
}
330
134A
100
AcDbPlotSettings
  1

  2
Xerox Document Centre CS50 PS
  4

  6

 40
0.0
 41
0.0
 42
0.0
 43
0.0
 44
0.0
 45
0.0
 46
0.0
 47
0.0
 48
0.0
 49
0.0
140
0.0
141
0.0
142
1.0
143
1.0
 70
   688
 72
     0
 73
     0
 74
     5
  7

 75
    16
147
1.0
148
0.0
149
0.0
100
AcDbLayout
  1
Layout1
 70
     1
 71
     1
 10
0.0
 20
0.0
 11
133.002
 21
180.693
 12
0.0
 22
0.0
 32
0.0
 14
0.0
 24
0.0
 34
0.0
 15
133.002
 25
180.693
 35
0.0
146
0.0
 13
0.0
 23
0.0
 33
0.0
 16
1.0
 26
0.0
 36
0.0
 17
0.0
 27
1.0
 37
0.0
 76
     0
330
11EA
  0
LAYOUT
  5
134C
102
{ACAD_XDICTIONARY
360
144E
102
}
102
{ACAD_REACTORS
330
134A
102
}
330
134A
100
AcDbPlotSettings
  1

  2
Xerox Document Centre CS50 PS
  4

  6

 40
0.0
 41
0.0
 42
0.0
 43
0.0
 44
0.0
 45
0.0
 46
0.0
 47
0.0
 48
0.0
 49
0.0
140
0.0
141
0.0
142
1.0
143
1.0
 70
  1712
 72
     0
 73
     0
 74
     0
  7

 75
     0
147
1.0
148
0.0
149
0.0
100
AcDbLayout
  1
Model
 70
     1
 71
     0
 10
0.0
 20
0.0
 11
12.0
 21
9.0
 12
0.0
 22
0.0
 32
0.0
 14
0.0
 24
0.0
 34
0.0
 15
0.0
 25
0.0
 35
0.0
146
0.0
 13
0.0
 23
0.0
 33
0.0
 16
1.0
 26
0.0
 36
0.0
 17
0.0
 27
1.0
 37
0.0
 76
     0
330
11ED
  0
MLINESTYLE
  5
11F1
102
{ACAD_REACTORS
330
11F0
102
}
330
11F0
100
AcDbMlineStyle
  2
STANDARD
 70
     0
  3

 62
   256
 51
90.0
 52
90.0
 71
     2
 49
0.5
 62
   256
  6
BYLAYER
 49
-0.5
 62
   256
  6
BYLAYER
  0
ACDBPLACEHOLDER
  5
1345
102
{ACAD_REACTORS
330
1344
102
}
330
1344
  0
TABLESTYLE
  5
1349
102
{ACAD_REACTORS
330
1348
102
}
330
1348
100
AcDbTableStyle
  3
Standard
 70
     0
 71
     0
 40
1.5
 41
1.5
280
     0
281
     0
  7
STANDARD
140
4.5
170
     2
 62
     0
 63
     7
283
     0
274
    -2
284
     1
 64
     0
275
    -2
285
     1
 65
     0
276
    -2
286
     1
 66
     0
277
    -2
287
     1
 67
     0
278
    -2
288
     1
 68
     0
279
    -2
289
     1
 69
     0
  7
STANDARD
140
6.0
170
     5
 62
     0
 63
     7
283
     0
274
    -2
284
     1
 64
     0
275
    -2
285
     1
 65
     0
276
    -2
286
     1
 66
     0
277
    -2
287
     1
 67
     0
278
    -2
288
     1
 68
     0
279
    -2
289
     1
 69
     0
  7
STANDARD
140
4.5
170
     5
 62
     0
 63
     7
283
     0
274
    -2
284
     1
 64
     0
275
    -2
285
     1
 65
     0
276
    -2
286
     1
 66
     0
277
    -2
287
     1
 67
     0
278
    -2
288
     1
 68
     0
279
    -2
289
     1
 69
     0
  0
DICTIONARYVAR
  5
1449
102
{ACAD_REACTORS
330
1448
102
}
330
1448
100
DictionaryVariables
280
     0
  1
STANDARD
  0
DICTIONARYVAR
  5
144A
102
{ACAD_REACTORS
330
1448
102
}
330
1448
100
DictionaryVariables
280
     0
  1
1
  0
DICTIONARYVAR
  5
144B
102
{ACAD_REACTORS
330
1448
102
}
330
1448
100
DictionaryVariables
280
     0
  1

  0
DICTIONARY
  5
13B4
102
{ACAD_REACTORS
330
13A9
102
}
330
13A9
100
AcDbDictionary
281
     1
  0
XRECORD
  5
13D7
102
{ACAD_REACTORS
330
13A9
102
}
330
13A9
100
AcDbXrecord
280
     1
 90
-1023410169
  0
DICTIONARY
  5
1450
330
134D
100
AcDbDictionary
280
     1
281
     1
  3
ACAD_XREC_ROUNDTRIP
360
1451
  0
DICTIONARY
  5
144E
330
134C
100
AcDbDictionary
280
     1
281
     1
  3
ACAD_XREC_ROUNDTRIP
360
144F
  0
XRECORD
  5
1451
102
{ACAD_REACTORS
330
1450
102
}
330
1450
100
AcDbXrecord
280
     1
102
SHADEPLOT
 70
     0
102
SHADEPLOTRESLEVEL
 70
     2
102
SHADEPLOTCUSTOMDPI
 70
   300
  0
XRECORD
  5
144F
102
{ACAD_REACTORS
330
144E
102
}
330
144E
100
AcDbXrecord
280
     1
102
SHADEPLOT
 70
     0
102
SHADEPLOTRESLEVEL
 70
     2
102
SHADEPLOTCUSTOMDPI
 70
   300
  0
ENDSEC
  0
EOF
