  0
SECTION
  2
HEADER
  9
$ACADVER
  1
AC1015
  9
$ACADMAINTVER
 70
    20
  9
$DWGCODEPAGE
  3
ANSI_1252
  9
$INSBASE
 10
0.0
 20
0.0
 30
0.0
  9
$EXTMIN
 10
150.878780021113
 20
78.03267586764798
 30
-0.0000000000112498
  9
$EXTMAX
 10
369.3736471988583
 20
379.3060547105737
 30
0.0000000000002956
  9
$LIMMIN
 10
0.0
 20
0.0
  9
$LIMMAX
 10
12.0
 20
9.0
  9
$ORTHOMODE
 70
     0
  9
$REGENMODE
 70
     1
  9
$FILLMODE
 70
     1
  9
$QTEXTMODE
 70
     0
  9
$MIRRTEXT
 70
     0
  9
$LTSCALE
 40
1.0
  9
$ATTMODE
 70
     1
  9
$TEXTSIZE
 40
3.5
  9
$TRACEWID
 40
0.05
  9
$TEXTSTYLE
  7
STANDARD
  9
$CLAYER
  8
0
  9
$CELTYPE
  6
BYLAYER
  9
$CECOLOR
 62
   256
  9
$CELTSCALE
 40
1.0
  9
$DISPSILH
 70
     0
  9
$DIMSCALE
 40
1.0
  9
$DIMASZ
 40
3.5
  9
$DIMEXO
 40
0.0
  9
$DIMDLI
 40
0.38
  9
$DIMRND
 40
0.0
  9
$DIMDLE
 40
0.0
  9
$DIMEXE
 40
3.5
  9
$DIMTP
 40
0.0
  9
$DIMTM
 40
0.0
  9
$DIMTXT
 40
3.5
  9
$DIMCEN
 40
1.75
  9
$DIMTSZ
 40
0.0
  9
$DIMTOL
 70
     0
  9
$DIMLIM
 70
     0
  9
$DIMTIH
 70
     0
  9
$DIMTOH
 70
     0
  9
$DIMSE1
 70
     0
  9
$DIMSE2
 70
     0
  9
$DIMTAD
 70
     1
  9
$DIMZIN
 70
    12
  9
$DIMBLK
  1

  9
$DIMASO
 70
     1
  9
$DIMSHO
 70
     1
  9
$DIMPOST
  1

  9
$DIMAPOST
  1

  9
$DIMALT
 70
     0
  9
$DIMALTD
 70
     2
  9
$DIMALTF
 40
25.4
  9
$DIMLFAC
 40
1.0
  9
$DIMTOFL
 70
     0
  9
$DIMTVP
 40
0.0
  9
$DIMTIX
 70
     0
  9
$DIMSOXD
 70
     0
  9
$DIMSAH
 70
     0
  9
$DIMBLK1
  1

  9
$DIMBLK2
  1

  9
$DIMSTYLE
  2
GEN-ISO
  9
$DIMCLRD
 70
   256
  9
$DIMCLRE
 70
   256
  9
$DIMCLRT
 70
   256
  9
$DIMTFAC
 40
1.0
  9
$DIMGAP
 40
0.0
  9
$DIMJUST
 70
     0
  9
$DIMSD1
 70
     0
  9
$DIMSD2
 70
     0
  9
$DIMTOLJ
 70
     1
  9
$DIMTZIN
 70
     0
  9
$DIMALTZ
 70
     0
  9
$DIMALTTZ
 70
     0
  9
$DIMUPT
 70
     0
  9
$DIMDEC
 70
     2
  9
$DIMTDEC
 70
     2
  9
$DIMALTU
 70
     2
  9
$DIMALTTD
 70
     2
  9
$DIMTXSTY
  7
STANDARD
  9
$DIMAUNIT
 70
     0
  9
$DIMADEC
 70
     0
  9
$DIMALTRND
 40
0.0
  9
$DIMAZIN
 70
     0
  9
$DIMDSEP
 70
    46
  9
$DIMATFIT
 70
     3
  9
$DIMFRAC
 70
     0
  9
$DIMLDRBLK
  1

  9
$DIMLUNIT
 70
     2
  9
$DIMLWD
 70
    -2
  9
$DIMLWE
 70
    -2
  9
$DIMTMOVE
 70
     0
  9
$LUNITS
 70
     2
  9
$LUPREC
 70
     2
  9
$SKETCHINC
 40
0.1
  9
$FILLETRAD
 40
0.0
  9
$AUNITS
 70
     0
  9
$AUPREC
 70
     2
  9
$MENU
  1
.
  9
$ELEVATION
 40
0.0
  9
$PELEVATION
 40
0.0
  9
$THICKNESS
 40
0.0
  9
$LIMCHECK
 70
     0
  9
$CHAMFERA
 40
0.0
  9
$CHAMFERB
 40
0.0
  9
$CHAMFERC
 40
0.0
  9
$CHAMFERD
 40
0.0
  9
$SKPOLY
 70
     0
  9
$TDCREATE
 40
2444972.083333333
  9
$TDUCREATE
 40
2444972.000000000
  9
$TDUPDATE
 40
2454019.922065024
  9
$TDUUPDATE
 40
2454019.838731690
  9
$TDINDWG
 40
0.0534743981
  9
$TDUSRTIMER
 40
0.0534743981
  9
$USRTIMER
 70
     1
  9
$ANGBASE
 50
0.0
  9
$ANGDIR
 70
     0
  9
$PDMODE
 70
     0
  9
$PDSIZE
 40
0.0
  9
$PLINEWID
 40
0.0
  9
$SPLFRAME
 70
     0
  9
$SPLINETYPE
 70
     6
  9
$SPLINESEGS
 70
     8
  9
$HANDSEED
  5
14AA
  9
$SURFTAB1
 70
     6
  9
$SURFTAB2
 70
     6
  9
$SURFTYPE
 70
     6
  9
$SURFU
 70
     6
  9
$SURFV
 70
     6
  9
$UCSBASE
  2

  9
$UCSNAME
  2

  9
$UCSORG
 10
0.0
 20
0.0
 30
0.0
  9
$UCSXDIR
 10
1.0
 20
0.0
 30
0.0
  9
$UCSYDIR
 10
0.0
 20
1.0
 30
0.0
  9
$UCSORTHOREF
  2

  9
$UCSORTHOVIEW
 70
     0
  9
$UCSORGTOP
 10
0.0
 20
0.0
 30
0.0
  9
$UCSORGBOTTOM
 10
0.0
 20
0.0
 30
0.0
  9
$UCSORGLEFT
 10
0.0
 20
0.0
 30
0.0
  9
$UCSORGRIGHT
 10
0.0
 20
0.0
 30
0.0
  9
$UCSORGFRONT
 10
0.0
 20
0.0
 30
0.0
  9
$UCSORGBACK
 10
0.0
 20
0.0
 30
0.0
  9
$PUCSBASE
  2

  9
$PUCSNAME
  2

  9
$PUCSORG
 10
0.0
 20
0.0
 30
0.0
  9
$PUCSXDIR
 10
1.0
 20
0.0
 30
0.0
  9
$PUCSYDIR
 10
0.0
 20
1.0
 30
0.0
  9
$PUCSORTHOREF
  2

  9
$PUCSORTHOVIEW
 70
     0
  9
$PUCSORGTOP
 10
0.0
 20
0.0
 30
0.0
  9
$PUCSORGBOTTOM
 10
0.0
 20
0.0
 30
0.0
  9
$PUCSORGLEFT
 10
0.0
 20
0.0
 30
0.0
  9
$PUCSORGRIGHT
 10
0.0
 20
0.0
 30
0.0
  9
$PUCSORGFRONT
 10
0.0
 20
0.0
 30
0.0
  9
$PUCSORGBACK
 10
0.0
 20
0.0
 30
0.0
  9
$USERI1
 70
     0
  9
$USERI2
 70
     0
  9
$USERI3
 70
     0
  9
$USERI4
 70
     0
  9
$USERI5
 70
     0
  9
$USERR1
 40
0.0
  9
$USERR2
 40
0.0
  9
$USERR3
 40
0.0
  9
$USERR4
 40
0.0
  9
$USERR5
 40
0.0
  9
$WORLDVIEW
 70
     1
  9
$SHADEDGE
 70
     3
  9
$SHADEDIF
 70
    70
  9
$TILEMODE
 70
     1
  9
$MAXACTVP
 70
    48
  9
$PINSBASE
 10
0.0
 20
0.0
 30
0.0
  9
$PLIMCHECK
 70
     0
  9
$PEXTMIN
 10
0.0
 20
0.0
 30
0.0
  9
$PEXTMAX
 10
420.0
 20
297.001
 30
0.0
  9
$PLIMMIN
 10
0.0
 20
0.0
  9
$PLIMMAX
 10
420.0
 20
297.001
  9
$UNITMODE
 70
     0
  9
$VISRETAIN
 70
     1
  9
$PLINEGEN
 70
     1
  9
$PSLTSCALE
 70
     1
  9
$TREEDEPTH
 70
 -3020
  9
$CMLSTYLE
  2
STANDARD
  9
$CMLJUST
 70
     0
  9
$CMLSCALE
 40
1.0
  9
$PROXYGRAPHICS
 70
     1
  9
$MEASUREMENT
 70
     0
  9
$CELWEIGHT
370
    -1
  9
$ENDCAPS
280
     0
  9
$JOINSTYLE
280
     0
  9
$LWDISPLAY
290
     0
  9
$INSUNITS
 70
     0
  9
$HYPERLINKBASE
  1

  9
$STYLESHEET
  1

  9
$XEDIT
290
     1
  9
$CEPSNTYPE
380
     0
  9
$PSTYLEMODE
290
     1
  9
$FINGERPRINTGUID
  2
{D908AFA0-DDBF-43AB-8FE8-124BB93019B4}
  9
$VERSIONGUID
  2
{30E6A7E2-6A40-4222-BD89-2BFFE434B8D1}
  9
$EXTNAMES
290
     1
  9
$PSVPSCALE
 40
0.0
  9
$OLESTARTUP
290
     0
  0
ENDSEC
  0
SECTION
  2
CLASSES
  0
CLASS
  1
ACDBDICTIONARYWDFLT
  2
AcDbDictionaryWithDefault
  3
ObjectDBX Classes
 90
        0
280
     0
281
     0
  0
CLASS
  1
TABLESTYLE
  2
AcDbTableStyle
  3
ObjectDBX Classes
 90
     2047
280
     0
281
     0
  0
CLASS
  1
ACME_DOCUMENT
  2
AcMeDbDoc
  3
AcMeServices
 90
        0
280
     0
281
     0
  0
CLASS
  1
AMGSETTINGSOBJ
  2
AmgSettingsObj
  3
"AcadM|Product Description: AutoCAD Mechanical 2000|Company: Autodesk"
 90
        0
280
     0
281
     0
  0
CLASS
  1
ACMESCOPE
  2
AcMeScope
  3
AcMeServices
 90
        0
280
     0
281
     0
  0
CLASS
  1
ACMECOMMANDHISTORY
  2
AcMeCommandHistory
  3
AcMeServices
 90
        0
280
     0
281
     0
  0
CLASS
  1
ACIMSYSVARMAN
  2
AcImSysVarManager
  3
AcMeServices
 90
        0
280
     0
281
     0
  0
CLASS
  1
ACIMINTSYSVAR
  2
AcImIntSysVar
  3
AcMeServices
 90
        0
280
     0
281
     0
  0
CLASS
  1
ACMEDRAWINGMAN
  2
AcMeDrawingMan
  3
AcMeServices
 90
        0
280
     0
281
     0
  0
CLASS
  1
ACMEVIEW
  2
AcMeView
  3
AcMeServices
 90
        0
280
     0
281
     0
  0
CLASS
  1
ACDBENTITYCACHE
  2
AcMeEntityCache
  3
AcMeServices
 90
        0
280
     0
281
     0
  0
CLASS
  1
GSMANAGER
  2
AcMeGSManager
  3
AcMeServices
 90
        0
280
     0
281
     0
  0
CLASS
  1
AMDTINTERNALREACTOR
  2
AmdtInternalReactor
  3
AcMeServices
 90
        0
280
     0
281
     0
  0
CLASS
  1
ACMESTATEMGR
  2
AcMeStateMgr
  3
AcMeServices
 90
        0
280
     0
281
     0
  0
CLASS
  1
ACGREFMASTER
  2
AcGrefMaster
  3
AcAttribServices
 90
        0
280
     0
281
     0
  0
CLASS
  1
AM_DRAWING_MGR
  2
AcDmDwgMgr
  3
AcMechDwgViewMgmt
 90
        0
280
     0
281
     0
  0
CLASS
  1
AM_DWG_DOCUMENT
  2
AcDmDwgDocument
  3
AcMechDwgViewMgmt
 90
        0
280
     0
281
     0
  0
CLASS
  1
AM_DWG_SHEET
  2
AcDmSheet
  3
AcMechDwgViewMgmt
 90
        0
280
     0
281
     0
  0
CLASS
  1
AM_VIEWDIMPARMAP
  2
AcDmViewDimParMap
  3
AcMechDwgViewMgmt
 90
        0
280
     0
281
     0
  0
CLASS
  1
ACIMREALSYSVAR
  2
AcImRealSysVar
  3
AcMeServices
 90
        0
280
     0
281
     0
  0
CLASS
  1
AM_DWGMGR_NAME
  2
AcDmDwgMgrName
  3
AcMechDwgViewMgmt
 90
        0
280
     0
281
     0
  0
CLASS
  1
ACME_DATABASE
  2
AcMeDbDatabase
  3
AcMeServices
 90
        0
280
     0
281
     0
  0
CLASS
  1
ACRFINSADJUSTERMGR
  2
AcRfInsAdjusterMgr
  3
AcMeServices
 90
        0
280
     0
281
     0
  0
CLASS
  1
ACGREFACADMASTER
  2
AcGrefacadMaster
  3
AcGrefServices
 90
        0
280
     0
281
     0
  0
CLASS
  1
AMDTMENUSTATEMGR
  2
AmdtMenuStateMgr
  3
McadcomServices
 90
        0
280
     0
281
     0
  0
CLASS
  1
AMDTMCOMMENUSTATE
  2
AmdtMcomMenuState
  3
McadcomServices
 90
        0
280
     0
281
     0
  0
CLASS
  1
AMIMASTER
  2
AmiMaster
  3
AmiServices
 90
        0
280
     0
281
     0
  0
CLASS
  1
MAPIAMMOUDLE
  2
MApiAmModule
  3
MApiAmServices
 90
        0
280
     0
281
     0
  0
CLASS
  1
ACIMSTRSYSVAR
  2
AcImStrSysVar
  3
AcMeServices
 90
        0
280
     0
281
     0
  0
CLASS
  1
AMDTADMENUSTATE
  2
AmdtAdMenuState
  3
DesignerServices
 90
        0
280
     0
281
     0
  0
CLASS
  1
ADAPPL
  2
AcAdAppl
  3
DesignerServices
 90
        0
280
     0
281
     0
  0
CLASS
  1
DEPMGR
  2
AcAdDepMgr
  3
DesignerServices
 90
        0
280
     0
281
     0
  0
CLASS
  1
PARAMMGR
  2
AcAdParamMgr
  3
DesignerServices
 90
        0
280
     0
281
     0
  0
CLASS
  1
PARAMSCOPE
  2
AcAdParamScope
  3
DesignerServices
 90
        0
280
     0
281
     0
  0
CLASS
  1
NAMEDAPPL
  2
AcAdNamedAppl
  3
DesignerServices
 90
        0
280
     0
281
     0
  0
CLASS
  1
AMDTDMMENUSTATE
  2
AmdtDmMenuState
  3
AcMechDwgViewMgmt
 90
        0
280
     0
281
     0
  0
CLASS
  1
AMDTAMMENUSTATE
  2
AmdtAmMenuState
  3
DesignerAssemblies
 90
        0
280
     0
281
     0
  0
CLASS
  1
ACAMPROJECT
  2
AcAmProject
  3
DesignerAssemblies
 90
        0
280
     0
281
     0
  0
CLASS
  1
ACAMGRCOMPDEF
  2
AcAmGrCompDef
  3
DesignerAssemblies
 90
        0
280
     0
281
     0
  0
CLASS
  1
ACCMCONTEXT
  2
AcCmContext
  3
DesignerAssemblies
 90
        0
280
     0
281
     0
  0
CLASS
  1
ACAMCOMPDEF
  2
AcAmCompDef
  3
DesignerAssemblies
 90
        0
280
     0
281
     0
  0
CLASS
  1
ACAMCOMPDEFMGR
  2
AcAmCompDefMgr
  3
DesignerAssemblies
 90
        0
280
     0
281
     0
  0
CLASS
  1
AMCONTEXTMGR
  2
AcAmContextMgr
  3
DesignerAssemblies
 90
        0
280
     0
281
     0
  0
CLASS
  1
ACAMCONTEXTMODELER
  2
AcAmContextModeler
  3
DesignerAssemblies
 90
        0
280
     0
281
     0
  0
CLASS
  1
ACMDATADICTIONARY
  2
AcmDataDictionary
  3
"AcmSymBB|Product Description: AutoCAD Mechanical 2004 DX|Company: Autodesk"
 90
        0
280
     0
281
     0
  0
CLASS
  1
CATALOGSTATE
  2
AcAmCatalogState
  3
DesignerAssemblies
 90
        0
280
     0
281
     0
  0
CLASS
  1
ACAMGRCOMPDEFSET
  2
AcAmGrCompDefSet
  3
DesignerAssemblies
 90
        0
280
     0
281
     0
  0
CLASS
  1
AMDTBROWSERDBTAB
  2
AmdtBrowserDbTab
  3
McadcomServices
 90
        0
280
     0
281
     0
  0
CLASS
  1
CBROWSERAPPOBJECT
  2
CBrowserAppObject
  3
McadcomServices
 90
        0
280
     0
281
     0
  0
CLASS
  1
DM_PLACEHOLDER
  2
AcDmSelsetPlaceholder
  3
AcMechDwgViewMgmt
 90
        0
280
     0
281
     0
  0
CLASS
  1
ACMSTANDARDANSI
  2
AcmStandardANSI
  3
"Amdt_StdImp|Product Description: AutoCAD Mechanical 2004 DX|Company: Autodesk"
 90
        0
280
     0
281
     0
  0
CLASS
  1
AMGOBJPROPCFG
  2
AmgObjPropCfg
  3
"AmgLay|Product Description: AutoCAD Mechanical 2000|Company: Autodesk"
 90
        1
280
     0
281
     0
  0
CLASS
  1
ACMSURFSTANDARDANSI
  2
AcmSurfTextStdANSI
  3
"Amdt_StdImp|Product Description: AutoCAD Mechanical 2004 DX|Company: Autodesk"
 90
        0
280
     0
281
     0
  0
CLASS
  1
ACMFCFSTANDARDANSI
  2
AcmFCFStdANSI
  3
"Amdt_StdImp|Product Description: AutoCAD Mechanical 2004 DX|Company: Autodesk"
 90
        0
280
     0
281
     0
  0
CLASS
  1
ACMWELDSTANDARDANSI
  2
AcmWeldingStdANSI
  3
"Amdt_StdImp|Product Description: AutoCAD Mechanical 2004 DX|Company: Autodesk"
 90
        0
280
     0
281
     0
  0
CLASS
  1
ACMIDSTANDARDANSI
  2
AcmIdStdANSI
  3
"Amdt_StdImp|Product Description: AutoCAD Mechanical 2004 DX|Company: Autodesk"
 90
        0
280
     0
281
     0
  0
CLASS
  1
ACMDATUMSTANDARDANSI
  2
AcmDatumStdANSI
  3
"Amdt_StdImp|Product Description: AutoCAD Mechanical 2004 DX|Company: Autodesk"
 90
        0
280
     0
281
     0
  0
CLASS
  1
ACMBOMSTANDARDANSI
  2
AcmBOMStdANSI
  3
"Amdt_StdImp|Product Description: AutoCAD Mechanical 2004 DX|Company: Autodesk"
 90
        0
280
     0
281
     0
  0
CLASS
  1
ACMDETAILSTANDARDANSI
  2
AmdtDetailSymStdANSI
  3
"Amdt_StdImp|Product Description: AutoCAD Mechanical 2004 DX|Company: Autodesk"
 90
        0
280
     0
281
     0
  0
CLASS
  1
ACMSECTIONSTANDARDANSI
  2
AmdtSectionSymStdANSI
  3
"Amdt_StdImp|Product Description: AutoCAD Mechanical 2004 DX|Company: Autodesk"
 90
        0
280
     0
281
     0
  0
CLASS
  1
ACMCENTERLINESTANDARDANSI
  2
AmdtCenterLineStdANSI
  3
"Amdt_StdImp|Product Description: AutoCAD Mechanical 2004 DX|Company: Autodesk"
 90
        0
280
     0
281
     0
  0
CLASS
  1
ACMTHREADLINESTANDARDANSI
  2
AmdtThreadLineStdANSI
  3
"Amdt_StdImp|Product Description: AutoCAD Mechanical 2004 DX|Company: Autodesk"
 90
        0
280
     0
281
     0
  0
CLASS
  1
ACMNOTESTANDARDANSI
  2
AmdtNoteStdANSI
  3
"Amdt_StdImp|Product Description: AutoCAD Mechanical 2004 DX|Company: Autodesk"
 90
        0
280
     0
281
     0
  0
CLASS
  1
AMDTNOTETEMPLATEDB
  2
AmdtNoteTemplateDB
  3
AMDT_STDIMP_MODULE_NAME
 90
        0
280
     0
281
     0
  0
CLASS
  1
ACAMGLAYSTD
  2
AcAmgLayStd
  3
"AcAmgLayStd|Product Description: AutoCAD Mechanical 2000|Company: Autodesk"
 90
        0
280
     0
281
     0
  0
CLASS
  1
ACAMGDIMSTD
  2
AcAmgDimStd
  3
"AcAmgDimStd|Product Description: AutoCAD Mechanical 2000|Company: Autodesk"
 90
        0
280
     0
281
     0
  0
CLASS
  1
ACAMGHOLECHARTSTDANSI
  2
AcAmgHoleChartStdANSI
  3
ACMSYMBB_MODULE_NAME
 90
        0
280
     0
281
     0
  0
CLASS
  1
ACAMGTITLESTD
  2
AcAmgTitleStd
  3
"TITLEAPP"
 90
        0
280
     0
281
     0
  0
CLASS
  1
DICTIONARYVAR
  2
AcDbDictionaryVar
  3
ObjectDBX Classes
 90
        0
280
     0
281
     0
  0
CLASS
  1
ACAMGFILTERDAT
  2
AcAmgFilterDat
  3
"AcadM|Product Description: AutoCAD Mechanical 2000|Company: Autodesk"
 90
    32768
280
     0
281
     0
  0
CLASS
  1
EXACXREFPANELOBJECT
  2
ExAcXREFPanelObject
  3
EXAC_ESW
 90
    32768
280
     0
281
     0
  0
CLASS
  1
ACDBPLACEHOLDER
  2
AcDbPlaceHolder
  3
ObjectDBX Classes
 90
        0
280
     0
281
     0
  0
CLASS
  1
LAYOUT
  2
AcDbLayout
  3
ObjectDBX Classes
 90
        0
280
     0
281
     0
  0
ENDSEC
  0
SECTION
  2
TABLES
  0
TABLE
  2
VPORT
  5
1285
330
0
100
AcDbSymbolTable
 70
    18
  0
VPORT
  5
14A4
330
1285
100
AcDbSymbolTableRecord
100
AcDbViewportTableRecord
  2
*Active
 70
     0
 10
0.0
 20
0.0
 11
1.0
 21
1.0
 12
260.1262136099857
 22
228.6693652891109
 13
0.0
 23
0.0
 14
1.0
 24
1.0
 15
0.0
 25
0.0
 16
0.0
 26
0.0
 36
1.0
 17
0.0
 27
0.0
 37
0.0
 40
303.461805323625
 41
1.494545454545454
 42
50.0
 43
0.0
 44
0.0
 50
0.0
 51
0.0
 71
     0
 72
  1000
 73
     1
 74
     1
 75
     0
 76
     0
 77
     0
 78
     0
281
     0
 65
     0
110
0.0
120
0.0
130
0.0
111
1.0
121
0.0
131
0.0
112
0.0
122
1.0
132
0.0
 79
     0
146
0.0
  0
ENDTAB
  0
TABLE
  2
LTYPE
  5
1282
330
0
100
AcDbSymbolTable
 70
    21
  0
LTYPE
  5
128F
330
1282
100
AcDbSymbolTableRecord
100
AcDbLinetypeTableRecord
  2
BYBLOCK
 70
     0
  3

 72
    65
 73
     0
 40
0.0
  0
LTYPE
  5
1290
330
1282
100
AcDbSymbolTableRecord
100
AcDbLinetypeTableRecord
  2
BYLAYER
 70
     0
  3

 72
    65
 73
     0
 40
0.0
  0
LTYPE
  5
1291
330
1282
100
AcDbSymbolTableRecord
100
AcDbLinetypeTableRecord
  2
CONTINUOUS
 70
     0
  3
Solid line
 72
    65
 73
     0
 40
0.0
  0
LTYPE
  5
12A0
330
1282
100
AcDbSymbolTableRecord
100
AcDbLinetypeTableRecord
  2
GEN7
 70
     0
  3
____ _ ____ _ ____ _ ____ _ ____ _ ____ _ ____ _ ____ _ ____ _
 72
    65
 73
     4
 40
22.0
 49
10.75
 74
     0
 49
-3.75
 74
     0
 49
3.75
 74
     0
 49
-3.75
 74
     0
  0
LTYPE
  5
1302
330
1282
100
AcDbSymbolTableRecord
100
AcDbLinetypeTableRecord
  2
HIDDEN
 70
     0
  3
Verdeckt
 72
    65
 73
     2
 40
0.375
 49
0.25
 74
     0
 49
-0.125
 74
     0
  0
LTYPE
  5
1303
330
1282
100
AcDbSymbolTableRecord
100
AcDbLinetypeTableRecord
  2
PHANTOM2
 70
     0
  3
Phantom (.5x) ___ _ _ ___ _ _ ___ _ _ ___ _ _
 72
    65
 73
     6
 40
1.25
 49
0.625
 74
     0
 49
-0.125
 74
     0
 49
0.125
 74
     0
 49
-0.125
 74
     0
 49
0.125
 74
     0
 49
-0.125
 74
     0
  0
LTYPE
  5
1304
330
1282
100
AcDbSymbolTableRecord
100
AcDbLinetypeTableRecord
  2
CENTER
 70
     0
  3
Mitte ____ _ ____ _ ____ _ ____ _ ____ _ ____
 72
    65
 73
     4
 40
2.0
 49
1.25
 74
     0
 49
-0.25
 74
     0
 49
0.25
 74
     0
 49
-0.25
 74
     0
  0
LTYPE
  5
133B
330
1282
100
AcDbSymbolTableRecord
100
AcDbLinetypeTableRecord
  2
Amconstr
 70
     0
  3
_______________________
 72
    65
 73
     2
 40
9999.0
 49
9999.0
 74
     0
 49
0.0
 74
     0
  0
LTYPE
  5
1341
330
1282
100
AcDbSymbolTableRecord
100
AcDbLinetypeTableRecord
  2
CENTER2
 70
     0
  3
Center (.5x) ___ _ ___ _ ___ _ ___ _ ___ _ ___
 72
    65
 73
     4
 40
1.125
 49
0.75
 74
     0
 49
-0.125
 74
     0
 49
0.125
 74
     0
 49
-0.125
 74
     0
  0
LTYPE
  5
1342
330
1282
100
AcDbSymbolTableRecord
100
AcDbLinetypeTableRecord
  2
HIDDEN2
 70
     0
  3
Hidden (.5x) _ _ _ _ _ _ _ _ _ _ _ _ _ _ _ _ _
 72
    65
 73
     2
 40
0.1875
 49
0.125
 74
     0
 49
-0.0625
 74
     0
  0
LTYPE
  5
1343
330
1282
100
AcDbSymbolTableRecord
100
AcDbLinetypeTableRecord
  2
Amzigzag2
 70
     0
  3
/\/-/\/-/\/-/\/-/\/-/\/
 72
    65
 73
     2
 40
0.4401
 49
0.0001
 74
     4
 75
   136
340
133F
 46
0.0016
 50
0.0
 44
0.0
 45
0.0
 49
-0.4400000000000002
 74
     0
  0
LTYPE
  5
1351
330
1282
100
AcDbSymbolTableRecord
100
AcDbLinetypeTableRecord
  2
ACANSTGB
 70
     0
  3
__ . . __ . .
 72
    65
 73
     6
 40
0.35433070866
 49
0.15748031496
 74
     0
 49
-0.03937007874
 74
     0
 49
0.03937007874
 74
     0
 49
-0.03937007874
 74
     0
 49
0.03937007874
 74
     0
 49
-0.03937007874
 74
     0
  0
LTYPE
  5
1352
330
1282
100
AcDbSymbolTableRecord
100
AcDbLinetypeTableRecord
  2
ACANSTGL
 70
     0
  3
_ _ _ _ _
 72
    65
 73
     2
 40
0.11811023622
 49
0.07874015748
 74
     0
 49
-0.03937007874
 74
     0
  0
ENDTAB
  0
TABLE
  2
LAYER
  5
127F
330
0
100
AcDbSymbolTable
 70
    17
  0
LAYER
  5
128B
330
127F
100
AcDbSymbolTableRecord
100
AcDbLayerTableRecord
  2
0
 70
     0
 62
     7
  6
CONTINUOUS
370
    -3
390
12C4
  0
LAYER
  5
12A8
330
127F
100
AcDbSymbolTableRecord
100
AcDbLayerTableRecord
  2
5
 70
     0
 62
     3
  6
CONTINUOUS
370
    -3
390
12C4
  0
LAYER
  5
12AA
330
127F
100
AcDbSymbolTableRecord
100
AcDbLayerTableRecord
  2
7
 70
     0
 62
     4
  6
GEN7
370
    -3
390
12C4
  0
LAYER
  5
12AB
330
127F
100
AcDbSymbolTableRecord
100
AcDbLayerTableRecord
  2
8
 70
     0
 62
     1
  6
CONTINUOUS
370
    -3
390
12C4
  0
LAYER
  5
12AC
330
127F
100
AcDbSymbolTableRecord
100
AcDbLayerTableRecord
  2
ND_0
 70
     1
 62
     2
  6
CONTINUOUS
370
    -3
390
12C4
  0
LAYER
  5
12AE
330
127F
100
AcDbSymbolTableRecord
100
AcDbLayerTableRecord
  2
SCHRAFFUR_RAND
 70
     1
 62
    -1
  6
CONTINUOUS
370
    -3
390
12C4
  0
LAYER
  5
1432
330
127F
100
AcDbSymbolTableRecord
100
AcDbLayerTableRecord
  2
Defpoints
 70
     0
 62
     7
  6
CONTINUOUS
290
     0
370
    -3
390
12C4
  0
LAYER
  5
1497
330
127F
100
AcDbSymbolTableRecord
100
AcDbLayerTableRecord
  2
AM_7
 70
     0
 62
     4
  6
CENTER
370
    15
390
12C4
1001
AcAecLayerStandard
1000

1000

  0
ENDTAB
  0
TABLE
  2
STYLE
  5
1280
330
0
100
AcDbSymbolTable
 70
     4
  0
STYLE
  5
128C
330
1280
100
AcDbSymbolTableRecord
100
AcDbTextStyleTableRecord
  2
STANDARD
 70
     0
 40
0.0
 41
1.0
 50
0.0
 71
     0
 42
3.5
  3
isocp
  4

  0
STYLE
  5
133F
330
1280
100
AcDbSymbolTableRecord
100
AcDbTextStyleTableRecord
  2

 70
     1
 40
0.0
 41
1.0
 50
0.0
 71
     0
 42
0.2
  3
genltshp.shx
  4

  0
STYLE
  5
1344
330
1280
100
AcDbSymbolTableRecord
100
AcDbTextStyleTableRecord
  2
ACANSTS
 70
     0
 40
1.0
 41
1.0
 50
0.0
 71
     0
 42
0.2
  3
romans.shx
  4

  0
STYLE
  5
1350
330
1280
100
AcDbSymbolTableRecord
100
AcDbTextStyleTableRecord
  2
ACANSGDT
 70
     0
 40
0.0
 41
1.0
 50
0.0
 71
     0
 42
0.2
  3
AMGDT
  4

  0
ENDTAB
  0
TABLE
  2
VIEW
  5
1283
330
0
100
AcDbSymbolTable
 70
     0
  0
ENDTAB
  0
TABLE
  2
UCS
  5
1284
330
0
100
AcDbSymbolTable
 70
     0
  0
ENDTAB
  0
TABLE
  2
APPID
  5
1286
330
0
100
AcDbSymbolTable
 70
    17
  0
APPID
  5
128D
330
1286
100
AcDbSymbolTableRecord
100
AcDbRegAppTableRecord
  2
ACAD
 70
     0
  0
APPID
  5
12D5
330
1286
100
AcDbSymbolTableRecord
100
AcDbRegAppTableRecord
  2
MCAD_NO_VIS
 70
     0
  0
APPID
  5
12D6
330
1286
100
AcDbSymbolTableRecord
100
AcDbRegAppTableRecord
  2
ACAD_TEMP_GRAPHIC
 70
     0
  0
APPID
  5
1306
330
1286
100
AcDbSymbolTableRecord
100
AcDbRegAppTableRecord
  2
AD_DRAW
 70
     0
  0
APPID
  5
1309
330
1286
100
AcDbSymbolTableRecord
100
AcDbRegAppTableRecord
  2
ACATTRIBSERVICES
 70
     0
  0
APPID
  5
1329
330
1286
100
AcDbSymbolTableRecord
100
AcDbRegAppTableRecord
  2
DESIGNERASSEMBLIES
 70
     0
  0
APPID
  5
132F
330
1286
100
AcDbSymbolTableRecord
100
AcDbRegAppTableRecord
  2
ACADM_DIM_EDIT
 70
     0
  0
APPID
  5
1330
330
1286
100
AcDbSymbolTableRecord
100
AcDbRegAppTableRecord
  2
AMDT_DM_ADJ
 70
     0
  0
APPID
  5
135E
330
1286
100
AcDbSymbolTableRecord
100
AcDbRegAppTableRecord
  2
ACAD_DSTYLE_DIMARC_LENGTH_SYMBOL
 70
     0
  0
APPID
  5
135F
330
1286
100
AcDbSymbolTableRecord
100
AcDbRegAppTableRecord
  2
ACAD_DSTYLE_DIMJOGGED_JOGANGLE_SYMBOL
 70
     0
  0
APPID
  5
147F
330
1286
100
AcDbSymbolTableRecord
100
AcDbRegAppTableRecord
  2
GENIUS_GENDIMSH_14
 70
     0
  0
APPID
  5
1498
330
1286
100
AcDbSymbolTableRecord
100
AcDbRegAppTableRecord
  2
AcAecLayerStandard
 70
     0
  0
APPID
  5
149E
330
1286
100
AcDbSymbolTableRecord
100
AcDbRegAppTableRecord
  2
GENIUS_GENODEF_13
 70
     0
  0
APPID
  5
149F
330
1286
100
AcDbSymbolTableRecord
100
AcDbRegAppTableRecord
  2
GENIUS_GENOENT_13
 70
     0
  0
APPID
  5
14A0
330
1286
100
AcDbSymbolTableRecord
100
AcDbRegAppTableRecord
  2
GENIUS_GENOBJ-N-CRS_13
 70
     0
  0
APPID
  5
14A1
330
1286
100
AcDbSymbolTableRecord
100
AcDbRegAppTableRecord
  2
GENIUS_GENOLIS_13
 70
     0
  0
APPID
  5
14A2
330
1286
100
AcDbSymbolTableRecord
100
AcDbRegAppTableRecord
  2
GENIUS_GENOREF_13
 70
     0
  0
ENDTAB
  0
TABLE
  2
DIMSTYLE
  5
1287
330
0
100
AcDbSymbolTable
 70
     7
100
AcDbDimStyleTable
 71
     1
340
12AF
  0
DIMSTYLE
105
12AF
102
{ACAD_REACTORS
330
1241
330
1257
102
}
330
1287
100
AcDbSymbolTableRecord
100
AcDbDimStyleTableRecord
  2
GEN-ISO
 70
     0
 41
3.5
 42
1.0
 43
8.0
 44
2.0
 47
0.1
 48
0.1
 73
     0
 74
     0
 77
     1
 78
     8
140
3.5
141
2.0
146
0.71
147
1.5
172
     1
176
   256
177
   256
178
     2
271
     2
272
     2
340
128C
  0
DIMSTYLE
105
135D
330
1287
100
AcDbSymbolTableRecord
100
AcDbDimStyleTableRecord
  2
AM_ANSI
 70
     0
  4
mm
 41
0.1
 42
0.05
 43
0.5
 44
0.1
 47
0.1
 48
0.1
 78
     7
 79
     2
140
0.12
141
0.0
146
0.71
147
0.06
176
   256
177
   256
178
     2
274
     4
284
     7
340
128C
371
    -1
372
    -1
1001
ACAD_DSTYLE_DIMARC_LENGTH_SYMBOL
1070
   379
1070
     1
1001
ACAD_DSTYLE_DIMJOGGED_JOGANGLE_SYMBOL
1070
   384
1040
0.7853981633974483
  0
DIMSTYLE
105
1366
330
1287
100
AcDbSymbolTableRecord
100
AcDbDimStyleTableRecord
  2
AM_ANSI$3
 70
     0
  4
mm
 41
0.1
 42
0.05
 43
0.5
 44
0.1
 47
0.1
 48
0.1
 78
     7
 79
     2
140
0.12
141
0.0
146
0.71
147
0.06
176
   256
177
   256
178
     2
274
     4
284
     7
288
     1
289
     0
340
128C
371
    -1
372
    -1
1001
ACAD_DSTYLE_DIMARC_LENGTH_SYMBOL
1070
   379
1070
     1
1001
ACAD_DSTYLE_DIMJOGGED_JOGANGLE_SYMBOL
1070
   384
1040
0.7853981633974483
  0
DIMSTYLE
105
1369
330
1287
100
AcDbSymbolTableRecord
100
AcDbDimStyleTableRecord
  2
AM_ANSI$4
 70
     0
  4
mm
 41
0.1
 42
0.05
 43
0.5
 44
0.1
 47
0.1
 48
0.1
 78
     7
 79
     2
140
0.12
141
0.0
146
0.71
147
0.06
176
   256
177
   256
178
     2
274
     4
284
     7
288
     1
289
     0
340
128C
371
    -1
372
    -1
1001
ACAD_DSTYLE_DIMARC_LENGTH_SYMBOL
1070
   379
1070
     1
1001
ACAD_DSTYLE_DIMJOGGED_JOGANGLE_SYMBOL
1070
   384
1040
0.7853981633974483
  0
DIMSTYLE
105
136E
330
1287
100
AcDbSymbolTableRecord
100
AcDbDimStyleTableRecord
  2
AM_ANSI$7
 70
     0
  4
mm
 41
0.1
 42
0.05
 43
0.5
 44
0.1
 47
0.1
 48
0.1
 78
     7
 79
     2
140
0.24
141
0.0
146
0.71
147
0.06
176
   256
177
   256
178
     2
274
     4
284
     7
340
128C
371
    -1
372
    -1
1001
ACAD_DSTYLE_DIMARC_LENGTH_SYMBOL
1070
   379
1070
     1
1001
ACAD_DSTYLE_DIMJOGGED_JOGANGLE_SYMBOL
1070
   384
1040
0.7853981633974483
  0
DIMSTYLE
105
1371
330
1287
100
AcDbSymbolTableRecord
100
AcDbDimStyleTableRecord
  2
AM_ANSI$SF
 70
     0
  4
mm
 41
0.1
 42
0.05
 43
0.5
 44
0.1
 47
0.1
 48
0.1
 75
     1
 76
     1
 78
     7
 79
     2
140
0.12
141
0.0
146
0.71
147
0.06
176
   256
177
   256
178
     2
274
     4
284
     7
340
128C
371
    -1
372
    -1
1001
ACAD_DSTYLE_DIMARC_LENGTH_SYMBOL
1070
   379
1070
     1
1001
ACAD_DSTYLE_DIMJOGGED_JOGANGLE_SYMBOL
1070
   384
1040
0.7853981633974483
  0
DIMSTYLE
105
1378
330
1287
100
AcDbSymbolTableRecord
100
AcDbDimStyleTableRecord
  2
AM_ANSI$SH
 70
     0
  4
mm
 41
0.1
 42
0.05
 43
0.5
 44
0.1
 47
0.1
 48
0.1
 75
     1
 76
     1
 78
     7
 79
     2
140
0.12
141
0.0
146
0.71
147
0.06
173
     1
176
   256
177
   256
178
     2
274
     4
284
     7
340
128C
343
1372
371
    -1
372
    -1
1001
ACAD_DSTYLE_DIMARC_LENGTH_SYMBOL
1070
   379
1070
     1
1001
ACAD_DSTYLE_DIMJOGGED_JOGANGLE_SYMBOL
1070
   384
1040
0.7853981633974483
  0
ENDTAB
  0
TABLE
  2
BLOCK_RECORD
  5
127E
330
0
100
AcDbSymbolTable
 70
    19
  0
BLOCK_RECORD
  5
1295
330
127E
100
AcDbSymbolTableRecord
100
AcDbBlockTableRecord
  2
*MODEL_SPACE
340
12CB
  0
BLOCK_RECORD
  5
1292
330
127E
100
AcDbSymbolTableRecord
100
AcDbBlockTableRecord
  2
*PAPER_SPACE
340
12CC
  0
BLOCK_RECORD
  5
12B3
330
127E
100
AcDbSymbolTableRecord
100
AcDbBlockTableRecord
  2
*X1
340
0
102
{BLKREFS
331
1189
102
}
  0
BLOCK_RECORD
  5
12B4
330
127E
100
AcDbSymbolTableRecord
100
AcDbBlockTableRecord
  2
*X2
340
0
102
{BLKREFS
331
11A0
102
}
  0
BLOCK_RECORD
  5
12B5
330
127E
100
AcDbSymbolTableRecord
100
AcDbBlockTableRecord
  2
*X3
340
0
102
{BLKREFS
331
11B7
102
}
  0
BLOCK_RECORD
  5
12B6
330
127E
100
AcDbSymbolTableRecord
100
AcDbBlockTableRecord
  2
*X4
340
0
102
{BLKREFS
331
11D0
102
}
  0
BLOCK_RECORD
  5
12B7
330
127E
100
AcDbSymbolTableRecord
100
AcDbBlockTableRecord
  2
*X5
340
0
102
{BLKREFS
331
11E7
102
}
  0
BLOCK_RECORD
  5
12B8
330
127E
100
AcDbSymbolTableRecord
100
AcDbBlockTableRecord
  2
*X6
340
0
102
{BLKREFS
331
11FE
102
}
  0
BLOCK_RECORD
  5
12B9
330
127E
100
AcDbSymbolTableRecord
100
AcDbBlockTableRecord
  2
*X7
340
0
102
{BLKREFS
331
1216
102
}
  0
BLOCK_RECORD
  5
1372
330
127E
100
AcDbSymbolTableRecord
100
AcDbBlockTableRecord
  2
GENAXEH
340
0
  0
BLOCK_RECORD
  5
144B
330
127E
100
AcDbSymbolTableRecord
100
AcDbBlockTableRecord
  2
*D17
340
0
  0
BLOCK_RECORD
  5
1457
330
127E
100
AcDbSymbolTableRecord
100
AcDbBlockTableRecord
  2
*D18
340
0
  0
ENDTAB
  0
ENDSEC
  0
SECTION
  2
BLOCKS
  0
BLOCK
  5
1296
330
1295
100
AcDbEntity
  8
0
100
AcDbBlockBegin
  2
*MODEL_SPACE
 70
     0
 10
0.0
 20
0.0
 30
0.0
  3
*MODEL_SPACE
  1

  0
ENDBLK
  5
1297
330
1295
100
AcDbEntity
  8
0
100
AcDbBlockEnd
  0
BLOCK
  5
1293
330
1292
100
AcDbEntity
 67
     1
  8
0
100
AcDbBlockBegin
  2
*PAPER_SPACE
 70
     0
 10
0.0
 20
0.0
 30
0.0
  3
*PAPER_SPACE
  1

  0
ENDBLK
  5
1294
330
1292
100
AcDbEntity
 67
     1
  8
0
100
AcDbBlockEnd
  0
BLOCK
  5
1180
330
12B3
100
AcDbEntity
  8
0
100
AcDbBlockBegin
  2
*X1
 70
     1
 10
0.0
 20
0.0
 30
0.0
  3
*X1
  1

  0
LINE
  5
1181
330
12B3
100
AcDbEntity
  8
8
100
AcDbLine
 10
114.533
 20
242.328
 30
0.0
 11
119.215
 21
247.01
 31
0.0
  0
LINE
  5
1182
330
12B3
100
AcDbEntity
  8
8
100
AcDbLine
 10
109.794
 20
242.08
 30
0.0
 11
119.215
 21
251.5
 31
0.0
  0
LINE
  5
1183
330
12B3
100
AcDbEntity
  8
8
100
AcDbLine
 10
105.056
 20
241.831
 30
0.0
 11
119.178
 21
255.953
 31
0.0
  0
LINE
  5
1184
330
12B3
100
AcDbEntity
  8
8
100
AcDbLine
 10
104.215
 20
245.48
 30
0.0
 11
116.911
 21
258.176
 31
0.0
  0
LINE
  5
1185
330
12B3
100
AcDbEntity
  8
8
100
AcDbLine
 10
104.215
 20
249.97
 30
0.0
 11
112.782
 21
258.538
 31
0.0
  0
LINE
  5
1186
330
12B3
100
AcDbEntity
  8
8
100
AcDbLine
 10
104.215
 20
254.46
 30
0.0
 11
108.653
 21
258.899
 31
0.0
  0
LINE
  5
1187
330
12B3
100
AcDbEntity
  8
8
100
AcDbLine
 10
104.215
 20
258.951
 30
0.0
 11
104.524
 21
259.26
 31
0.0
  0
ENDBLK
  5
1188
330
12B3
100
AcDbEntity
  8
0
100
AcDbBlockEnd
  0
BLOCK
  5
1199
330
12B4
100
AcDbEntity
  8
0
100
AcDbBlockBegin
  2
*X2
 70
     1
 10
0.0
 20
0.0
 30
0.0
  3
*X2
  1

  0
LINE
  5
119A
330
12B4
100
AcDbEntity
  8
8
100
AcDbLine
 10
114.47
 20
215.325
 30
0.0
 11
119.215
 21
220.069
 31
0.0
  0
LINE
  5
119B
330
12B4
100
AcDbEntity
  8
8
100
AcDbLine
 10
109.732
 20
215.076
 30
0.0
 11
119.1
 21
224.444
 31
0.0
  0
LINE
  5
119C
330
12B4
100
AcDbEntity
  8
8
100
AcDbLine
 10
104.994
 20
214.828
 30
0.0
 11
116.318
 21
226.153
 31
0.0
  0
LINE
  5
119D
330
12B4
100
AcDbEntity
  8
8
100
AcDbLine
 10
104.215
 20
218.54
 30
0.0
 11
112.052
 21
226.377
 31
0.0
  0
LINE
  5
119E
330
12B4
100
AcDbEntity
  8
8
100
AcDbLine
 10
104.215
 20
223.03
 30
0.0
 11
107.785
 21
226.6
 31
0.0
  0
ENDBLK
  5
119F
330
12B4
100
AcDbEntity
  8
0
100
AcDbBlockEnd
  0
BLOCK
  5
11B0
330
12B5
100
AcDbEntity
  8
0
100
AcDbBlockBegin
  2
*X3
 70
     1
 10
0.0
 20
0.0
 30
0.0
  3
*X3
  1

  0
LINE
  5
11B1
330
12B5
100
AcDbEntity
  8
8
100
AcDbLine
 10
114.408
 20
188.322
 30
0.0
 11
119.215
 21
193.128
 31
0.0
  0
LINE
  5
11B2
330
12B5
100
AcDbEntity
  8
8
100
AcDbLine
 10
109.669
 20
188.0729999999999
 30
0.0
 11
118.942
 21
197.345
 31
0.0
  0
LINE
  5
11B3
330
12B5
100
AcDbEntity
  8
8
100
AcDbLine
 10
104.931
 20
187.825
 30
0.0
 11
115.873
 21
198.767
 31
0.0
  0
LINE
  5
11B4
330
12B5
100
AcDbEntity
  8
8
100
AcDbLine
 10
104.215
 20
191.599
 30
0.0
 11
111.745
 21
199.129
 31
0.0
  0
LINE
  5
11B5
330
12B5
100
AcDbEntity
  8
8
100
AcDbLine
 10
104.215
 20
196.089
 30
0.0
 11
107.616
 21
199.49
 31
0.0
  0
ENDBLK
  5
11B6
330
12B5
100
AcDbEntity
  8
0
100
AcDbBlockEnd
  0
BLOCK
  5
11C9
330
12B6
100
AcDbEntity
  8
0
100
AcDbBlockBegin
  2
*X4
 70
     1
 10
0.0
 20
0.0
 30
0.0
  3
*X4
  1

  0
LINE
  5
11CA
330
12B6
100
AcDbEntity
  8
8
100
AcDbLine
 10
114.345
 20
161.318
 30
0.0
 11
119.215
 21
166.187
 31
0.0
  0
LINE
  5
11CB
330
12B6
100
AcDbEntity
  8
8
100
AcDbLine
 10
109.607
 20
161.07
 30
0.0
 11
119.08
 21
170.543
 31
0.0
  0
LINE
  5
11CC
330
12B6
100
AcDbEntity
  8
8
100
AcDbLine
 10
104.869
 20
160.822
 30
0.0
 11
116.206
 21
172.159
 31
0.0
  0
LINE
  5
11CD
330
12B6
100
AcDbEntity
  8
8
100
AcDbLine
 10
104.215
 20
164.658
 30
0.0
 11
111.939
 21
172.3829999999999
 31
0.0
  0
LINE
  5
11CE
330
12B6
100
AcDbEntity
  8
8
100
AcDbLine
 10
104.215
 20
169.148
 30
0.0
 11
107.673
 21
172.606
 31
0.0
  0
ENDBLK
  5
11CF
330
12B6
100
AcDbEntity
  8
0
100
AcDbBlockEnd
  0
BLOCK
  5
11E0
330
12B7
100
AcDbEntity
  8
0
100
AcDbBlockBegin
  2
*X5
 70
     1
 10
0.0
 20
0.0
 30
0.0
  3
*X5
  1

  0
LINE
  5
11E1
330
12B7
100
AcDbEntity
  8
8
100
AcDbLine
 10
114.67
 20
134.702
 30
0.0
 11
119.215
 21
139.247
 31
0.0
  0
LINE
  5
11E2
330
12B7
100
AcDbEntity
  8
8
100
AcDbLine
 10
109.749
 20
134.272
 30
0.0
 11
119.065
 21
143.587
 31
0.0
  0
LINE
  5
11E3
330
12B7
100
AcDbEntity
  8
8
100
AcDbLine
 10
104.829
 20
133.841
 30
0.0
 11
116.15
 21
145.162
 31
0.0
  0
LINE
  5
11E4
330
12B7
100
AcDbEntity
  8
8
100
AcDbLine
 10
104.215
 20
137.717
 30
0.0
 11
111.883
 21
145.385
 31
0.0
  0
LINE
  5
11E5
330
12B7
100
AcDbEntity
  8
8
100
AcDbLine
 10
104.215
 20
142.207
 30
0.0
 11
107.617
 21
145.609
 31
0.0
  0
ENDBLK
  5
11E6
330
12B7
100
AcDbEntity
  8
0
100
AcDbBlockEnd
  0
BLOCK
  5
11F7
330
12B8
100
AcDbEntity
  8
0
100
AcDbBlockBegin
  2
*X6
 70
     1
 10
0.0
 20
0.0
 30
0.0
  3
*X6
  1

  0
LINE
  5
11F8
330
12B8
100
AcDbEntity
  8
8
100
AcDbLine
 10
114.22
 20
107.312
 30
0.0
 11
119.215
 21
112.306
 31
0.0
  0
LINE
  5
11F9
330
12B8
100
AcDbEntity
  8
8
100
AcDbLine
 10
109.482
 20
107.063
 30
0.0
 11
119.042
 21
116.623
 31
0.0
  0
LINE
  5
11FA
330
12B8
100
AcDbEntity
  8
8
100
AcDbLine
 10
104.744
 20
106.815
 30
0.0
 11
116.093
 21
118.165
 31
0.0
  0
LINE
  5
11FB
330
12B8
100
AcDbEntity
  8
8
100
AcDbLine
 10
104.215
 20
110.777
 30
0.0
 11
111.827
 21
118.388
 31
0.0
  0
LINE
  5
11FC
330
12B8
100
AcDbEntity
  8
8
100
AcDbLine
 10
104.215
 20
115.267
 30
0.0
 11
107.56
 21
118.612
 31
0.0
  0
ENDBLK
  5
11FD
330
12B8
100
AcDbEntity
  8
0
100
AcDbBlockEnd
  0
BLOCK
  5
120E
330
12B9
100
AcDbEntity
  8
0
100
AcDbBlockBegin
  2
*X7
 70
     1
 10
0.0
 20
0.0
 30
0.0
  3
*X7
  1

  0
LINE
  5
120F
330
12B9
100
AcDbEntity
  8
8
100
AcDbLine
 10
113.434
 20
75.09399999999998
 30
0.0
 11
119.215
 21
80.875
 31
0.0
  0
LINE
  5
1210
330
12B9
100
AcDbEntity
  8
8
100
AcDbLine
 10
108.513
 20
74.663
 30
0.0
 11
119.215
 21
85.365
 31
0.0
  0
LINE
  5
1211
330
12B9
100
AcDbEntity
  8
8
100
AcDbLine
 10
104.215
 20
74.855
 30
0.0
 11
119.019
 21
89.65899999999997
 31
0.0
  0
LINE
  5
1212
330
12B9
100
AcDbEntity
  8
8
100
AcDbLine
 10
104.215
 20
79.34499999999998
 30
0.0
 11
116.037
 21
91.16800000000001
 31
0.0
  0
LINE
  5
1213
330
12B9
100
AcDbEntity
  8
8
100
AcDbLine
 10
104.215
 20
83.83599999999999
 30
0.0
 11
111.771
 21
91.391
 31
0.0
  0
LINE
  5
1214
330
12B9
100
AcDbEntity
  8
8
100
AcDbLine
 10
104.215
 20
88.32600000000002
 30
0.0
 11
107.504
 21
91.615
 31
0.0
  0
ENDBLK
  5
1215
330
12B9
100
AcDbEntity
  8
0
100
AcDbBlockEnd
  0
BLOCK
  5
1374
330
1372
100
AcDbEntity
  8
0
100
AcDbBlockBegin
  2
GENAXEH
 70
     0
 10
0.0
 20
0.0
 30
0.0
  3
GENAXEH
  1

  0
LINE
  5
1373
330
1372
100
AcDbEntity
  8
0
100
AcDbLine
 10
-1.0
 20
0.0
 30
0.0
 11
1.0
 21
0.0
 31
0.0
  0
ENDBLK
  5
1375
330
1372
100
AcDbEntity
  8
0
100
AcDbBlockEnd
  0
BLOCK
  5
1455
330
144B
100
AcDbEntity
  8
0
100
AcDbBlockBegin
  2
*D17
 70
     1
 10
0.0
 20
0.0
 30
0.0
  3
*D17
  1

  0
LINE
  5
1480
330
144B
100
AcDbEntity
  8
5
370
    -2
100
AcDbLine
 10
184.365
 20
347.937
 30
0.0
 11
184.365
 21
370.295
 31
0.0
  0
LINE
  5
1481
330
144B
100
AcDbEntity
  8
5
370
    -2
100
AcDbLine
 10
369.3650000000001
 20
347.937
 30
0.0
 11
369.3650000000001
 21
370.295
 31
0.0
  0
LINE
  5
1482
330
144B
100
AcDbEntity
  8
5
370
    -2
100
AcDbLine
 10
189.365
 20
368.295
 30
0.0
 11
364.3650000000001
 21
368.295
 31
0.0
  0
SOLID
  5
1483
330
144B
100
AcDbEntity
  8
5
100
AcDbTrace
 10
189.365
 20
369.1283333333333
 30
0.0
 11
189.365
 21
367.4616666666667
 31
0.0
 12
184.365
 22
368.295
 32
0.0
 13
184.365
 23
368.295
 33
0.0
  0
SOLID
  5
1484
330
144B
100
AcDbEntity
  8
5
100
AcDbTrace
 10
364.3650000000001
 20
369.1283333333333
 30
0.0
 11
364.3650000000001
 21
367.4616666666667
 31
0.0
 12
369.3650000000001
 22
368.295
 32
0.0
 13
369.3650000000001
 23
368.295
 33
0.0
  0
MTEXT
  5
1485
330
144B
100
AcDbEntity
  8
5
 62
     2
100
AcDbMText
 10
288.119
 20
374.795
 30
0.0
 40
10.0
 41
0.0
 71
     5
 72
     1
  1
\A1;%%c185
 73
     1
 44
1.0
1001
ACAD
1000
MTEXTBEGIN
1070
    73
1070
     1
1070
    44
1040
1.0
1070
    74
1070
     0
1000
MTEXTEND
  0
POINT
  5
1486
330
144B
100
AcDbEntity
  8
Defpoints
 62
     0
100
AcDbPoint
 10
184.365
 20
346.937
 30
0.0
  0
POINT
  5
1487
330
144B
100
AcDbEntity
  8
Defpoints
 62
     0
100
AcDbPoint
 10
369.3650000000001
 20
346.937
 30
0.0
  0
POINT
  5
1488
330
144B
100
AcDbEntity
  8
Defpoints
 62
     0
100
AcDbPoint
 10
369.3650000000001
 20
368.295
 30
0.0
  0
ENDBLK
  5
1456
330
144B
100
AcDbEntity
  8
0
100
AcDbBlockEnd
  0
BLOCK
  5
1461
330
1457
100
AcDbEntity
  8
0
100
AcDbBlockBegin
  2
*D18
 70
     1
 10
0.0
 20
0.0
 30
0.0
  3
*D18
  1

  0
LINE
  5
1475
330
1457
100
AcDbEntity
  8
5
370
    -2
100
AcDbLine
 10
183.365
 20
346.937
 30
0.0
 11
159.9010000000001
 21
346.937
 31
0.0
  0
LINE
  5
1476
330
1457
100
AcDbEntity
  8
5
370
    -2
100
AcDbLine
 10
186.969
 20
331.937
 30
0.0
 11
159.9010000000001
 21
331.937
 31
0.0
  0
LINE
  5
1477
330
1457
100
AcDbEntity
  8
5
370
    -2
100
AcDbLine
 10
161.9010000000001
 20
341.937
 30
0.0
 11
161.9010000000001
 21
336.937
 31
0.0
  0
SOLID
  5
1478
330
1457
100
AcDbEntity
  8
5
100
AcDbTrace
 10
161.0676666666667
 20
341.937
 30
0.0
 11
162.7343333333334
 21
341.937
 31
0.0
 12
161.9010000000001
 22
346.937
 32
0.0
 13
161.9010000000001
 23
346.937
 33
0.0
  0
SOLID
  5
1479
330
1457
100
AcDbEntity
  8
5
100
AcDbTrace
 10
161.0676666666667
 20
336.937
 30
0.0
 11
162.7343333333334
 21
336.937
 31
0.0
 12
161.9010000000001
 22
331.937
 32
0.0
 13
161.9010000000001
 23
331.937
 33
0.0
  0
MTEXT
  5
147A
330
1457
100
AcDbEntity
  8
5
 62
     2
100
AcDbMText
 10
155.401
 20
341.268
 30
0.0
 40
10.0
 41
0.0
 71
     5
 72
     1
  1
\A1;15
 11
0.0000000000000001
 21
1.0
 31
0.0
 73
     1
 44
1.0
1001
ACAD
1000
MTEXTBEGIN
1070
    73
1070
     1
1070
    44
1040
1.0
1070
    74
1070
     0
1000
MTEXTEND
  0
POINT
  5
147B
330
1457
100
AcDbEntity
  8
Defpoints
 62
     0
100
AcDbPoint
 10
184.365
 20
346.937
 30
0.0
  0
POINT
  5
147C
330
1457
100
AcDbEntity
  8
Defpoints
 62
     0
100
AcDbPoint
 10
187.969
 20
331.937
 30
0.0
  0
POINT
  5
147D
330
1457
100
AcDbEntity
  8
Defpoints
 62
     0
100
AcDbPoint
 10
161.9010000000001
 20
331.937
 30
0.0
  0
ENDBLK
  5
1462
330
1457
100
AcDbEntity
  8
0
100
AcDbBlockEnd
  0
ENDSEC
  0
SECTION
  2
ENTITIES
  0
ARC
  5
1004
330
1295
100
AcDbEntity
  8
0
100
AcDbCircle
 10
276.865
 20
170.537
 30
0.0
 40
75.0
100
AcDbArc
 50
334.8050000000004
 51
24.28199999999974
  0
LINE
  5
1005
330
1295
100
AcDbEntity
  8
0
100
AcDbLine
 10
282.865
 20
236.674
 30
0.0
 11
282.865
 21
104.401
 31
0.0
  0
LINE
  5
1006
330
1295
100
AcDbEntity
  8
0
100
AcDbLine
 10
297.865
 20
236.674
 30
0.0
 11
297.865
 21
104.401
 31
0.0
  0
LINE
  5
1007
330
1295
100
AcDbEntity
  8
0
100
AcDbLine
 10
309.865
 20
224.537
 30
0.0
 11
309.865
 21
116.537
 31
0.0
  0
LINE
  5
1008
330
1295
100
AcDbEntity
  8
0
100
AcDbLine
 10
324.865
 20
224.537
 30
0.0
 11
324.865
 21
116.537
 31
0.0
  0
LINE
  5
1009
330
1295
100
AcDbEntity
  8
0
100
AcDbLine
 10
336.865
 20
199.575
 30
0.0
 11
336.865
 21
140.37
 31
0.0
  0
ARC
  5
100A
330
1295
100
AcDbEntity
  8
0
100
AcDbCircle
 10
290.365
 20
236.674
 30
0.0
 40
7.5
100
AcDbArc
 50
0.0
 51
180.0
  0
ARC
  5
100B
330
1295
100
AcDbEntity
  8
0
100
AcDbCircle
 10
290.365
 20
104.401
 30
0.0
 40
7.5
100
AcDbArc
 50
269.2430000000002
 51
270.0
  0
ARC
  5
100C
330
1295
100
AcDbEntity
  8
0
100
AcDbCircle
 10
317.365
 20
224.537
 30
0.0
 40
7.5
100
AcDbArc
 50
0.0
 51
180.0
  0
ARC
  5
100D
330
1295
100
AcDbEntity
  8
0
100
AcDbCircle
 10
317.365
 20
116.537
 30
0.0
 40
7.5
100
AcDbArc
 50
180.0
 51
0.0
  0
ARC
  5
100E
330
1295
100
AcDbEntity
  8
0
100
AcDbCircle
 10
341.242
 20
199.575
 30
0.0
 40
4.376999999999998
100
AcDbArc
 50
24.20100000000092
 51
180.0
  0
ARC
  5
100F
330
1295
100
AcDbEntity
  8
0
100
AcDbCircle
 10
340.995
 20
140.37
 30
0.0
 40
4.128999999999998
100
AcDbArc
 50
180.0
 51
334.8370000000004
  0
ARC
  5
1010
330
1295
100
AcDbEntity
  8
0
100
AcDbCircle
 10
290.365
 20
104.401
 30
0.0
 40
7.5
100
AcDbArc
 50
180.0
 51
0.0
  0
LINE
  5
1011
330
1295
100
AcDbEntity
  8
0
100
AcDbLine
 10
270.865
 20
236.674
 30
0.0
 11
270.865
 21
104.401
 31
0.0
  0
LINE
  5
1012
330
1295
100
AcDbEntity
  8
0
100
AcDbLine
 10
255.865
 20
236.674
 30
0.0
 11
255.865
 21
104.401
 31
0.0
  0
LINE
  5
1013
330
1295
100
AcDbEntity
  8
0
100
AcDbLine
 10
243.865
 20
224.537
 30
0.0
 11
243.865
 21
116.537
 31
0.0
  0
LINE
  5
1014
330
1295
100
AcDbEntity
  8
0
100
AcDbLine
 10
228.865
 20
224.537
 30
0.0
 11
228.865
 21
116.537
 31
0.0
  0
ARC
  5
1015
330
1295
100
AcDbEntity
  8
0
100
AcDbCircle
 10
263.365
 20
236.674
 30
0.0
 40
7.5
100
AcDbArc
 50
0.0
 51
180.0
  0
ARC
  5
1016
330
1295
100
AcDbEntity
  8
0
100
AcDbCircle
 10
236.365
 20
224.537
 30
0.0
 40
7.5
100
AcDbArc
 50
0.0
 51
180.0
  0
ARC
  5
1017
330
1295
100
AcDbEntity
  8
0
100
AcDbCircle
 10
236.365
 20
116.537
 30
0.0
 40
7.5
100
AcDbArc
 50
180.0
 51
0.0
  0
ARC
  5
1018
330
1295
100
AcDbEntity
  8
0
100
AcDbCircle
 10
263.365
 20
104.401
 30
0.0
 40
7.5
100
AcDbArc
 50
180.0
 51
0.0
  0
POLYLINE
  5
1061
330
1295
100
AcDbEntity
  8
ND_0
100
AcDb2dPolyline
 66
     1
 10
0.0
 20
0.0
 30
0.0
 70
   132
 75
     6
  0
VERTEX
  5
1062
330
1061
100
AcDbEntity
  8
ND_0
100
AcDbVertex
100
AcDb2dVertex
 10
194.094
 20
121.34
 30
0.0
 70
     8
  0
VERTEX
  5
1063
330
1061
100
AcDbEntity
  8
ND_0
100
AcDbVertex
100
AcDb2dVertex
 10
194.094
 20
121.34
 30
0.0
 70
    16
  0
VERTEX
  5
1064
330
1061
100
AcDbEntity
  8
ND_0
100
AcDbVertex
100
AcDb2dVertex
 10
198.679
 20
122.618
 30
0.0
 70
     8
  0
VERTEX
  5
1065
330
1061
100
AcDbEntity
  8
ND_0
100
AcDbVertex
100
AcDb2dVertex
 10
203.4
 20
122.639
 30
0.0
 70
     8
  0
VERTEX
  5
1066
330
1061
100
AcDbEntity
  8
ND_0
100
AcDbVertex
100
AcDb2dVertex
 10
203.4
 20
122.639
 30
0.0
 70
    16
  0
VERTEX
  5
1067
330
1061
100
AcDbEntity
  8
ND_0
100
AcDbVertex
100
AcDb2dVertex
 10
203.4
 20
122.639
 30
0.0
 70
     8
  0
VERTEX
  5
1068
330
1061
100
AcDbEntity
  8
ND_0
100
AcDbVertex
100
AcDb2dVertex
 10
203.4
 20
122.639
 30
0.0
 70
    16
  0
VERTEX
  5
1069
330
1061
100
AcDbEntity
  8
ND_0
100
AcDbVertex
100
AcDb2dVertex
 10
207.063
 20
121.553
 30
0.0
 70
     8
  0
VERTEX
  5
106A
330
1061
100
AcDbEntity
  8
ND_0
100
AcDbVertex
100
AcDb2dVertex
 10
210.541
 20
119.825
 30
0.0
 70
     8
  0
VERTEX
  5
106B
330
1061
100
AcDbEntity
  8
ND_0
100
AcDbVertex
100
AcDb2dVertex
 10
210.541
 20
119.825
 30
0.0
 70
    16
  0
VERTEX
  5
106C
330
1061
100
AcDbEntity
  8
ND_0
100
AcDbVertex
100
AcDb2dVertex
 10
210.541
 20
119.825
 30
0.0
 70
     8
  0
VERTEX
  5
106D
330
1061
100
AcDbEntity
  8
ND_0
100
AcDbVertex
100
AcDb2dVertex
 10
210.541
 20
119.825
 30
0.0
 70
    16
  0
VERTEX
  5
106E
330
1061
100
AcDbEntity
  8
ND_0
100
AcDbVertex
100
AcDb2dVertex
 10
213.983
 20
117.874
 30
0.0
 70
     8
  0
VERTEX
  5
106F
330
1061
100
AcDbEntity
  8
ND_0
100
AcDbVertex
100
AcDb2dVertex
 10
217.467
 20
116.146
 30
0.0
 70
     8
  0
VERTEX
  5
1070
330
1061
100
AcDbEntity
  8
ND_0
100
AcDbVertex
100
AcDb2dVertex
 10
217.467
 20
116.146
 30
0.0
 70
    16
  0
VERTEX
  5
1071
330
1061
100
AcDbEntity
  8
ND_0
100
AcDbVertex
100
AcDb2dVertex
 10
217.467
 20
116.146
 30
0.0
 70
     8
  0
VERTEX
  5
1072
330
1061
100
AcDbEntity
  8
ND_0
100
AcDbVertex
100
AcDb2dVertex
 10
217.467
 20
116.146
 30
0.0
 70
    16
  0
VERTEX
  5
1073
330
1061
100
AcDbEntity
  8
ND_0
100
AcDbVertex
100
AcDb2dVertex
 10
227.043
 20
114.008
 30
0.0
 70
     8
  0
VERTEX
  5
1074
330
1061
100
AcDbEntity
  8
ND_0
100
AcDbVertex
100
AcDb2dVertex
 10
237.16
 20
113.549
 30
0.0
 70
     8
  0
VERTEX
  5
1075
330
1061
100
AcDbEntity
  8
ND_0
100
AcDbVertex
100
AcDb2dVertex
 10
237.16
 20
113.549
 30
0.0
 70
    16
  0
VERTEX
  5
1076
330
1061
100
AcDbEntity
  8
ND_0
100
AcDbVertex
100
AcDb2dVertex
 10
237.16
 20
113.549
 30
0.0
 70
     8
  0
VERTEX
  5
1077
330
1061
100
AcDbEntity
  8
ND_0
100
AcDbVertex
100
AcDb2dVertex
 10
237.16
 20
113.549
 30
0.0
 70
    16
  0
VERTEX
  5
1078
330
1061
100
AcDbEntity
  8
ND_0
100
AcDbVertex
100
AcDb2dVertex
 10
248.159
 20
112.836
 30
0.0
 70
     8
  0
VERTEX
  5
1079
330
1061
100
AcDbEntity
  8
ND_0
100
AcDbVertex
100
AcDb2dVertex
 10
259.018
 20
112.035
 30
0.0
 70
     8
  0
VERTEX
  5
107A
330
1061
100
AcDbEntity
  8
ND_0
100
AcDbVertex
100
AcDb2dVertex
 10
259.018
 20
112.035
 30
0.0
 70
    16
  0
VERTEX
  5
107B
330
1061
100
AcDbEntity
  8
ND_0
100
AcDbVertex
100
AcDb2dVertex
 10
259.018
 20
112.035
 30
0.0
 70
     8
  0
VERTEX
  5
107C
330
1061
100
AcDbEntity
  8
ND_0
100
AcDbVertex
100
AcDb2dVertex
 10
259.018
 20
112.035
 30
0.0
 70
    16
  0
VERTEX
  5
107D
330
1061
100
AcDbEntity
  8
ND_0
100
AcDbVertex
100
AcDb2dVertex
 10
274.987
 20
111.717
 30
0.0
 70
     8
  0
VERTEX
  5
107E
330
1061
100
AcDbEntity
  8
ND_0
100
AcDbVertex
100
AcDb2dVertex
 10
291.047
 20
112.251
 30
0.0
 70
     8
  0
VERTEX
  5
107F
330
1061
100
AcDbEntity
  8
ND_0
100
AcDbVertex
100
AcDb2dVertex
 10
291.047
 20
112.251
 30
0.0
 70
    16
  0
VERTEX
  5
1080
330
1061
100
AcDbEntity
  8
ND_0
100
AcDbVertex
100
AcDb2dVertex
 10
291.047
 20
112.251
 30
0.0
 70
     8
  0
VERTEX
  5
1081
330
1061
100
AcDbEntity
  8
ND_0
100
AcDbVertex
100
AcDb2dVertex
 10
291.047
 20
112.251
 30
0.0
 70
    16
  0
VERTEX
  5
1082
330
1061
100
AcDbEntity
  8
ND_0
100
AcDbVertex
100
AcDb2dVertex
 10
305.797
 20
112.947
 30
0.0
 70
     8
  0
VERTEX
  5
1083
330
1061
100
AcDbEntity
  8
ND_0
100
AcDbVertex
100
AcDb2dVertex
 10
320.48
 20
112.684
 30
0.0
 70
     8
  0
VERTEX
  5
1084
330
1061
100
AcDbEntity
  8
ND_0
100
AcDbVertex
100
AcDb2dVertex
 10
320.48
 20
112.684
 30
0.0
 70
    16
  0
VERTEX
  5
1085
330
1061
100
AcDbEntity
  8
ND_0
100
AcDbVertex
100
AcDb2dVertex
 10
320.48
 20
112.684
 30
0.0
 70
     8
  0
VERTEX
  5
1086
330
1061
100
AcDbEntity
  8
ND_0
100
AcDbVertex
100
AcDb2dVertex
 10
320.48
 20
112.684
 30
0.0
 70
    16
  0
VERTEX
  5
1087
330
1061
100
AcDbEntity
  8
ND_0
100
AcDbVertex
100
AcDb2dVertex
 10
328.924
 20
111.716
 30
0.0
 70
     8
  0
VERTEX
  5
1088
330
1061
100
AcDbEntity
  8
ND_0
100
AcDbVertex
100
AcDb2dVertex
 10
337.36
 20
110.52
 30
0.0
 70
     8
  0
VERTEX
  5
1089
330
1061
100
AcDbEntity
  8
ND_0
100
AcDbVertex
100
AcDb2dVertex
 10
337.36
 20
110.52
 30
0.0
 70
    16
  0
VERTEX
  5
108A
330
1061
100
AcDbEntity
  8
ND_0
100
AcDbVertex
100
AcDb2dVertex
 10
337.36
 20
110.52
 30
0.0
 70
     8
  0
VERTEX
  5
108B
330
1061
100
AcDbEntity
  8
ND_0
100
AcDbVertex
100
AcDb2dVertex
 10
337.36
 20
110.52
 30
0.0
 70
    16
  0
VERTEX
  5
108C
330
1061
100
AcDbEntity
  8
ND_0
100
AcDbVertex
100
AcDb2dVertex
 10
347.307
 20
109.348
 30
0.0
 70
     8
  0
VERTEX
  5
108D
330
1061
100
AcDbEntity
  8
ND_0
100
AcDbVertex
100
AcDb2dVertex
 10
357.27
 20
108.356
 30
0.0
 70
     8
  0
VERTEX
  5
108E
330
1061
100
AcDbEntity
  8
ND_0
100
AcDbVertex
100
AcDb2dVertex
 10
357.27
 20
108.356
 30
0.0
 70
    16
  0
SEQEND
  5
108F
330
1061
100
AcDbEntity
  8
ND_0
  0
LINE
  5
1147
330
1295
100
AcDbEntity
  8
7
 48
0.8519999999999999
100
AcDbLine
 10
276.865
 20
359.422
 30
0.0
 11
276.865
 21
321.937
 31
0.0
  0
LINE
  5
1148
330
1295
100
AcDbEntity
  8
0
100
AcDbLine
 10
276.865
 20
346.937
 30
0.0
 11
184.365
 21
346.937
 31
0.0
  0
LINE
  5
1149
330
1295
100
AcDbEntity
  8
0
100
AcDbLine
 10
271.527
 20
334.307
 30
0.0
 11
270.865
 21
346.937
 31
0.0
  0
LINE
  5
114A
330
1295
100
AcDbEntity
  8
0
100
AcDbLine
 10
255.865
 20
346.938
 30
0.0
 11
255.203
 21
334.307
 31
0.0
  0
LINE
  5
114B
330
1295
100
AcDbEntity
  8
0
100
AcDbLine
 10
228.865
 20
346.937
 30
0.0
 11
228.203
 21
334.307
 31
0.0
  0
LINE
  5
114C
330
1295
100
AcDbEntity
  8
0
100
AcDbLine
 10
201.865
 20
346.937
 30
0.0
 11
201.203
 21
334.307
 31
0.0
  0
LINE
  5
114D
330
1295
100
AcDbEntity
  8
0
100
AcDbLine
 10
244.978
 20
334.22
 30
0.0
 11
243.865
 21
346.937
 31
0.0
  0
LINE
  5
114E
330
1295
100
AcDbEntity
  8
0
100
AcDbLine
 10
184.365
 20
346.937
 30
0.0
 11
185.478
 21
334.22
 31
0.0
  0
ARC
  5
114F
330
1295
100
AcDbEntity
  8
0
100
AcDbCircle
 10
187.969
 20
334.437
 30
0.0
 40
2.5
100
AcDbArc
 50
184.9999999999998
 51
270.0
  0
ARC
  5
1150
330
1295
100
AcDbEntity
  8
0
100
AcDbCircle
 10
198.707
 20
334.437
 30
0.0
 40
2.5
100
AcDbArc
 50
270.0
 51
357.0000000000009
  0
ARC
  5
1151
330
1295
100
AcDbEntity
  8
0
100
AcDbCircle
 10
225.707
 20
334.437
 30
0.0
 40
2.5
100
AcDbArc
 50
270.0
 51
357.0000000000009
  0
LINE
  5
1152
330
1295
100
AcDbEntity
  8
0
100
AcDbLine
 10
216.8650000000001
 20
346.937
 30
0.0
 11
217.5270000000001
 21
334.306
 31
0.0
  0
ARC
  5
1153
330
1295
100
AcDbEntity
  8
0
100
AcDbCircle
 10
220.024
 20
334.437
 30
0.0
 40
2.5
100
AcDbArc
 50
182.9999999999991
 51
270.0
  0
ARC
  5
1154
330
1295
100
AcDbEntity
  8
0
100
AcDbCircle
 10
247.469
 20
334.437
 30
0.0
 40
2.5
100
AcDbArc
 50
184.9999999999998
 51
270.0
  0
ARC
  5
1155
330
1295
100
AcDbEntity
  8
0
100
AcDbCircle
 10
252.707
 20
334.437
 30
0.0
 40
2.5
100
AcDbArc
 50
270.0
 51
357.0000000000009
  0
ARC
  5
1156
330
1295
100
AcDbEntity
  8
0
100
AcDbCircle
 10
274.024
 20
334.437
 30
0.0
 40
2.5
100
AcDbArc
 50
182.9999999999991
 51
270.0
  0
LINE
  5
1157
330
1295
100
AcDbEntity
  8
0
100
AcDbLine
 10
187.969
 20
331.937
 30
0.0
 11
276.865
 21
331.937
 31
0.0
  0
LINE
  5
1158
330
1295
100
AcDbEntity
  8
0
100
AcDbLine
 10
276.865
 20
346.937
 30
0.0
 11
369.3650000000001
 21
346.937
 31
0.0
  0
LINE
  5
1159
330
1295
100
AcDbEntity
  8
0
100
AcDbLine
 10
282.203
 20
334.307
 30
0.0
 11
282.865
 21
346.937
 31
0.0
  0
LINE
  5
115A
330
1295
100
AcDbEntity
  8
0
100
AcDbLine
 10
297.865
 20
346.937
 30
0.0
 11
298.527
 21
334.307
 31
0.0
  0
LINE
  5
115B
330
1295
100
AcDbEntity
  8
0
100
AcDbLine
 10
324.865
 20
346.937
 30
0.0
 11
325.527
 21
334.307
 31
0.0
  0
LINE
  5
115C
330
1295
100
AcDbEntity
  8
0
100
AcDbLine
 10
351.865
 20
346.937
 30
0.0
 11
352.527
 21
334.307
 31
0.0
  0
LINE
  5
115D
330
1295
100
AcDbEntity
  8
0
100
AcDbLine
 10
308.753
 20
334.22
 30
0.0
 11
309.865
 21
346.937
 31
0.0
  0
LINE
  5
115E
330
1295
100
AcDbEntity
  8
0
100
AcDbLine
 10
369.3650000000001
 20
346.937
 30
0.0
 11
368.253
 21
334.22
 31
0.0
  0
ARC
  5
115F
330
1295
100
AcDbEntity
  8
0
100
AcDbCircle
 10
365.762
 20
334.437
 30
0.0
 40
2.5
100
AcDbArc
 50
270.0
 51
355.0000000000002
  0
ARC
  5
1160
330
1295
100
AcDbEntity
  8
0
100
AcDbCircle
 10
355.024
 20
334.437
 30
0.0
 40
2.5
100
AcDbArc
 50
182.9999999999991
 51
270.0
  0
ARC
  5
1161
330
1295
100
AcDbEntity
  8
0
100
AcDbCircle
 10
328.024
 20
334.437
 30
0.0
 40
2.5
100
AcDbArc
 50
182.9999999999991
 51
270.0
  0
LINE
  5
1162
330
1295
100
AcDbEntity
  8
0
100
AcDbLine
 10
336.865
 20
346.937
 30
0.0
 11
336.203
 21
334.306
 31
0.0
  0
ARC
  5
1163
330
1295
100
AcDbEntity
  8
0
100
AcDbCircle
 10
333.7070000000001
 20
334.437
 30
0.0
 40
2.5
100
AcDbArc
 50
270.0
 51
357.0000000000009
  0
ARC
  5
1164
330
1295
100
AcDbEntity
  8
0
100
AcDbCircle
 10
306.2620000000001
 20
334.437
 30
0.0
 40
2.5
100
AcDbArc
 50
270.0
 51
355.0000000000002
  0
ARC
  5
1165
330
1295
100
AcDbEntity
  8
0
100
AcDbCircle
 10
301.024
 20
334.437
 30
0.0
 40
2.5
100
AcDbArc
 50
182.9999999999991
 51
270.0
  0
ARC
  5
1166
330
1295
100
AcDbEntity
  8
0
100
AcDbCircle
 10
279.7070000000001
 20
334.437
 30
0.0
 40
2.5
100
AcDbArc
 50
270.0
 51
357.0000000000009
  0
LINE
  5
1167
330
1295
100
AcDbEntity
  8
0
100
AcDbLine
 10
365.762
 20
331.937
 30
0.0
 11
276.865
 21
331.937
 31
0.0
  0
POLYLINE
  5
1171
330
1295
100
AcDbEntity
  8
SCHRAFFUR_RAND
100
AcDb2dPolyline
 66
     1
 10
0.0
 20
0.0
 30
0.0
 70
     1
  0
VERTEX
  5
1172
330
1171
100
AcDbEntity
  8
SCHRAFFUR_RAND
100
AcDbVertex
100
AcDb2dVertex
 10
119.215
 20
244.946
 30
0.0
  0
VERTEX
  5
1173
330
1171
100
AcDbEntity
  8
SCHRAFFUR_RAND
100
AcDbVertex
100
AcDb2dVertex
 10
119.215
 20
255.684
 30
0.0
  0
VERTEX
  5
1174
330
1171
100
AcDbEntity
  8
SCHRAFFUR_RAND
100
AcDbVertex
100
AcDb2dVertex
 10
119.089
 20
256.608
 30
0.0
  0
VERTEX
  5
1175
330
1171
100
AcDbEntity
  8
SCHRAFFUR_RAND
100
AcDbVertex
100
AcDb2dVertex
 10
118.593
 20
257.406
 30
0.0
  0
VERTEX
  5
1176
330
1171
100
AcDbEntity
  8
SCHRAFFUR_RAND
100
AcDbVertex
100
AcDb2dVertex
 10
117.842
 20
257.969
 30
0.0
  0
VERTEX
  5
1177
330
1171
100
AcDbEntity
  8
SCHRAFFUR_RAND
100
AcDbVertex
100
AcDb2dVertex
 10
116.933
 20
258.175
 30
0.0
  0
VERTEX
  5
1178
330
1171
100
AcDbEntity
  8
SCHRAFFUR_RAND
100
AcDbVertex
100
AcDb2dVertex
 10
104.215
 20
259.287
 30
0.0
  0
VERTEX
  5
1179
330
1171
100
AcDbEntity
  8
SCHRAFFUR_RAND
100
AcDbVertex
100
AcDb2dVertex
 10
104.215
 20
241.787
 30
0.0
  0
VERTEX
  5
117A
330
1171
100
AcDbEntity
  8
SCHRAFFUR_RAND
100
AcDbVertex
100
AcDb2dVertex
 10
116.846
 20
242.449
 30
0.0
  0
VERTEX
  5
117B
330
1171
100
AcDbEntity
  8
SCHRAFFUR_RAND
100
AcDbVertex
100
AcDb2dVertex
 10
117.781
 20
242.632
 30
0.0
  0
VERTEX
  5
117C
330
1171
100
AcDbEntity
  8
SCHRAFFUR_RAND
100
AcDbVertex
100
AcDb2dVertex
 10
118.563
 20
243.192
 30
0.0
  0
VERTEX
  5
117D
330
1171
100
AcDbEntity
  8
SCHRAFFUR_RAND
100
AcDbVertex
100
AcDb2dVertex
 10
119.081
 20
244.002
 30
0.0
  0
VERTEX
  5
117E
330
1171
100
AcDbEntity
  8
SCHRAFFUR_RAND
100
AcDbVertex
100
AcDb2dVertex
 10
119.215
 20
244.946
 30
0.0
  0
SEQEND
  5
117F
330
1171
100
AcDbEntity
  8
SCHRAFFUR_RAND
  0
INSERT
  5
1189
330
1295
100
AcDbEntity
  8
8
100
AcDbBlockReference
  2
*X1
 10
110.078
 20
451.152
 30
0.0
 50
270.0
1001
ACAD
1000
HATCH
1002
{
1070
    19
1000
ANSI31,_I
1040
3.174999999999998
1040
5.497999999999998
1002
}
  0
POLYLINE
  5
118A
330
1295
100
AcDbEntity
  8
SCHRAFFUR_RAND
100
AcDb2dPolyline
 66
     1
 10
0.0
 20
0.0
 30
0.0
 70
     1
  0
VERTEX
  5
118B
330
118A
100
AcDbEntity
  8
SCHRAFFUR_RAND
100
AcDbVertex
100
AcDb2dVertex
 10
119.215
 20
217.946
 30
0.0
  0
VERTEX
  5
118C
330
118A
100
AcDbEntity
  8
SCHRAFFUR_RAND
100
AcDbVertex
100
AcDb2dVertex
 10
119.215
 20
223.629
 30
0.0
  0
VERTEX
  5
118D
330
118A
100
AcDbEntity
  8
SCHRAFFUR_RAND
100
AcDbVertex
100
AcDb2dVertex
 10
119.081
 20
224.573
 30
0.0
  0
VERTEX
  5
118E
330
118A
100
AcDbEntity
  8
SCHRAFFUR_RAND
100
AcDbVertex
100
AcDb2dVertex
 10
118.563
 20
225.383
 30
0.0
  0
VERTEX
  5
118F
330
118A
100
AcDbEntity
  8
SCHRAFFUR_RAND
100
AcDbVertex
100
AcDb2dVertex
 10
117.781
 20
225.943
 30
0.0
  0
VERTEX
  5
1190
330
118A
100
AcDbEntity
  8
SCHRAFFUR_RAND
100
AcDbVertex
100
AcDb2dVertex
 10
116.846
 20
226.125
 30
0.0
  0
VERTEX
  5
1191
330
118A
100
AcDbEntity
  8
SCHRAFFUR_RAND
100
AcDbVertex
100
AcDb2dVertex
 10
104.215
 20
226.787
 30
0.0
  0
VERTEX
  5
1192
330
118A
100
AcDbEntity
  8
SCHRAFFUR_RAND
100
AcDbVertex
100
AcDb2dVertex
 10
104.215
 20
214.787
 30
0.0
  0
VERTEX
  5
1193
330
118A
100
AcDbEntity
  8
SCHRAFFUR_RAND
100
AcDbVertex
100
AcDb2dVertex
 10
116.846
 20
215.449
 30
0.0
  0
VERTEX
  5
1194
330
118A
100
AcDbEntity
  8
SCHRAFFUR_RAND
100
AcDbVertex
100
AcDb2dVertex
 10
117.781
 20
215.632
 30
0.0
  0
VERTEX
  5
1195
330
118A
100
AcDbEntity
  8
SCHRAFFUR_RAND
100
AcDbVertex
100
AcDb2dVertex
 10
118.563
 20
216.192
 30
0.0
  0
VERTEX
  5
1196
330
118A
100
AcDbEntity
  8
SCHRAFFUR_RAND
100
AcDbVertex
100
AcDb2dVertex
 10
119.081
 20
217.002
 30
0.0
  0
VERTEX
  5
1197
330
118A
100
AcDbEntity
  8
SCHRAFFUR_RAND
100
AcDbVertex
100
AcDb2dVertex
 10
119.215
 20
217.946
 30
0.0
  0
SEQEND
  5
1198
330
118A
100
AcDbEntity
  8
SCHRAFFUR_RAND
  0
INSERT
  5
11A0
330
1295
100
AcDbEntity
  8
8
100
AcDbBlockReference
  2
*X2
 10
110.078
 20
451.152
 30
0.0
 50
270.0
1001
ACAD
1000
HATCH
1002
{
1070
    19
1000
ANSI31,_I
1040
3.174999999999998
1040
5.497999999999998
1002
}
  0
POLYLINE
  5
11A1
330
1295
100
AcDbEntity
  8
SCHRAFFUR_RAND
100
AcDb2dPolyline
 66
     1
 10
0.0
 20
0.0
 30
0.0
 70
     1
  0
VERTEX
  5
11A2
330
11A1
100
AcDbEntity
  8
SCHRAFFUR_RAND
100
AcDbVertex
100
AcDb2dVertex
 10
119.215
 20
190.946
 30
0.0
  0
VERTEX
  5
11A3
330
11A1
100
AcDbEntity
  8
SCHRAFFUR_RAND
100
AcDbVertex
100
AcDb2dVertex
 10
119.215
 20
196.184
 30
0.0
  0
VERTEX
  5
11A4
330
11A1
100
AcDbEntity
  8
SCHRAFFUR_RAND
100
AcDbVertex
100
AcDb2dVertex
 10
119.089
 20
197.108
 30
0.0
  0
VERTEX
  5
11A5
330
11A1
100
AcDbEntity
  8
SCHRAFFUR_RAND
100
AcDbVertex
100
AcDb2dVertex
 10
118.593
 20
197.906
 30
0.0
  0
VERTEX
  5
11A6
330
11A1
100
AcDbEntity
  8
SCHRAFFUR_RAND
100
AcDbVertex
100
AcDb2dVertex
 10
117.842
 20
198.469
 30
0.0
  0
VERTEX
  5
11A7
330
11A1
100
AcDbEntity
  8
SCHRAFFUR_RAND
100
AcDbVertex
100
AcDb2dVertex
 10
116.933
 20
198.675
 30
0.0
  0
VERTEX
  5
11A8
330
11A1
100
AcDbEntity
  8
SCHRAFFUR_RAND
100
AcDbVertex
100
AcDb2dVertex
 10
104.215
 20
199.787
 30
0.0
  0
VERTEX
  5
11A9
330
11A1
100
AcDbEntity
  8
SCHRAFFUR_RAND
100
AcDbVertex
100
AcDb2dVertex
 10
104.215
 20
187.787
 30
0.0
  0
VERTEX
  5
11AA
330
11A1
100
AcDbEntity
  8
SCHRAFFUR_RAND
100
AcDbVertex
100
AcDb2dVertex
 10
116.846
 20
188.449
 30
0.0
  0
VERTEX
  5
11AB
330
11A1
100
AcDbEntity
  8
SCHRAFFUR_RAND
100
AcDbVertex
100
AcDb2dVertex
 10
117.781
 20
188.632
 30
0.0
  0
VERTEX
  5
11AC
330
11A1
100
AcDbEntity
  8
SCHRAFFUR_RAND
100
AcDbVertex
100
AcDb2dVertex
 10
118.563
 20
189.192
 30
0.0
  0
VERTEX
  5
11AD
330
11A1
100
AcDbEntity
  8
SCHRAFFUR_RAND
100
AcDbVertex
100
AcDb2dVertex
 10
119.081
 20
190.002
 30
0.0
  0
VERTEX
  5
11AE
330
11A1
100
AcDbEntity
  8
SCHRAFFUR_RAND
100
AcDbVertex
100
AcDb2dVertex
 10
119.215
 20
190.946
 30
0.0
  0
SEQEND
  5
11AF
330
11A1
100
AcDbEntity
  8
SCHRAFFUR_RAND
  0
INSERT
  5
11B7
330
1295
100
AcDbEntity
  8
8
100
AcDbBlockReference
  2
*X3
 10
110.078
 20
451.152
 30
0.0
 50
270.0
1001
ACAD
1000
HATCH
1002
{
1070
    19
1000
ANSI31,_I
1040
3.174999999999998
1040
5.497999999999998
1002
}
  0
POLYLINE
  5
11B8
330
1295
100
AcDbEntity
  8
SCHRAFFUR_RAND
100
AcDb2dPolyline
 66
     1
 10
0.0
 20
0.0
 30
0.0
 70
     1
  0
VERTEX
  5
11B9
330
11B8
100
AcDbEntity
  8
SCHRAFFUR_RAND
100
AcDbVertex
100
AcDb2dVertex
 10
104.215
 20
160.787
 30
0.0
  0
VERTEX
  5
11BA
330
11B8
100
AcDbEntity
  8
SCHRAFFUR_RAND
100
AcDbVertex
100
AcDb2dVertex
 10
116.846
 20
161.449
 30
0.0
  0
VERTEX
  5
11BB
330
11B8
100
AcDbEntity
  8
SCHRAFFUR_RAND
100
AcDbVertex
100
AcDb2dVertex
 10
117.779
 20
161.638
 30
0.0
  0
VERTEX
  5
11BC
330
11B8
100
AcDbEntity
  8
SCHRAFFUR_RAND
100
AcDbVertex
100
AcDb2dVertex
 10
118.558
 20
162.196
 30
0.0
  0
VERTEX
  5
11BD
330
11B8
100
AcDbEntity
  8
SCHRAFFUR_RAND
100
AcDbVertex
100
AcDb2dVertex
 10
119.075
 20
163.004
 30
0.0
  0
VERTEX
  5
11BE
330
11B8
100
AcDbEntity
  8
SCHRAFFUR_RAND
100
AcDbVertex
100
AcDb2dVertex
 10
119.215
 20
163.946
 30
0.0
  0
VERTEX
  5
11BF
330
11B8
100
AcDbEntity
  8
SCHRAFFUR_RAND
100
AcDbVertex
100
AcDb2dVertex
 10
119.215
 20
166.787
 30
0.0
  0
VERTEX
  5
11C0
330
11B8
100
AcDbEntity
  8
SCHRAFFUR_RAND
100
AcDbVertex
100
AcDb2dVertex
 10
119.215
 20
169.629
 30
0.0
  0
VERTEX
  5
11C1
330
11B8
100
AcDbEntity
  8
SCHRAFFUR_RAND
100
AcDbVertex
100
AcDb2dVertex
 10
119.075
 20
170.571
 30
0.0
  0
VERTEX
  5
11C2
330
11B8
100
AcDbEntity
  8
SCHRAFFUR_RAND
100
AcDbVertex
100
AcDb2dVertex
 10
118.558
 20
171.378
 30
0.0
  0
VERTEX
  5
11C3
330
11B8
100
AcDbEntity
  8
SCHRAFFUR_RAND
100
AcDbVertex
100
AcDb2dVertex
 10
117.779
 20
171.937
 30
0.0
  0
VERTEX
  5
11C4
330
11B8
100
AcDbEntity
  8
SCHRAFFUR_RAND
100
AcDbVertex
100
AcDb2dVertex
 10
116.846
 20
172.125
 30
0.0
  0
VERTEX
  5
11C5
330
11B8
100
AcDbEntity
  8
SCHRAFFUR_RAND
100
AcDbVertex
100
AcDb2dVertex
 10
104.215
 20
172.787
 30
0.0
  0
VERTEX
  5
11C6
330
11B8
100
AcDbEntity
  8
SCHRAFFUR_RAND
100
AcDbVertex
100
AcDb2dVertex
 10
104.215
 20
166.787
 30
0.0
  0
VERTEX
  5
11C7
330
11B8
100
AcDbEntity
  8
SCHRAFFUR_RAND
100
AcDbVertex
100
AcDb2dVertex
 10
104.215
 20
160.787
 30
0.0
  0
SEQEND
  5
11C8
330
11B8
100
AcDbEntity
  8
SCHRAFFUR_RAND
  0
INSERT
  5
11D0
330
1295
100
AcDbEntity
  8
8
100
AcDbBlockReference
  2
*X4
 10
110.078
 20
451.152
 30
0.0
 50
270.0
1001
ACAD
1000
HATCH
1002
{
1070
    19
1000
ANSI31,_I
1040
3.174999999999998
1040
5.497999999999998
1002
}
  0
POLYLINE
  5
11D1
330
1295
100
AcDbEntity
  8
SCHRAFFUR_RAND
100
AcDb2dPolyline
 66
     1
 10
0.0
 20
0.0
 30
0.0
 70
     1
  0
VERTEX
  5
11D2
330
11D1
100
AcDbEntity
  8
SCHRAFFUR_RAND
100
AcDbVertex
100
AcDb2dVertex
 10
119.215
 20
142.629
 30
0.0
  0
VERTEX
  5
11D3
330
11D1
100
AcDbEntity
  8
SCHRAFFUR_RAND
100
AcDbVertex
100
AcDb2dVertex
 10
119.075
 20
143.571
 30
0.0
  0
VERTEX
  5
11D4
330
11D1
100
AcDbEntity
  8
SCHRAFFUR_RAND
100
AcDbVertex
100
AcDb2dVertex
 10
118.558
 20
144.378
 30
0.0
  0
VERTEX
  5
11D5
330
11D1
100
AcDbEntity
  8
SCHRAFFUR_RAND
100
AcDbVertex
100
AcDb2dVertex
 10
117.779
 20
144.937
 30
0.0
  0
VERTEX
  5
11D6
330
11D1
100
AcDbEntity
  8
SCHRAFFUR_RAND
100
AcDbVertex
100
AcDb2dVertex
 10
116.846
 20
145.125
 30
0.0
  0
VERTEX
  5
11D7
330
11D1
100
AcDbEntity
  8
SCHRAFFUR_RAND
100
AcDbVertex
100
AcDb2dVertex
 10
104.215
 20
145.787
 30
0.0
  0
VERTEX
  5
11D8
330
11D1
100
AcDbEntity
  8
SCHRAFFUR_RAND
100
AcDbVertex
100
AcDb2dVertex
 10
104.215
 20
133.787
 30
0.0
  0
VERTEX
  5
11D9
330
11D1
100
AcDbEntity
  8
SCHRAFFUR_RAND
100
AcDbVertex
100
AcDb2dVertex
 10
116.933
 20
134.9
 30
0.0
  0
VERTEX
  5
11DA
330
11D1
100
AcDbEntity
  8
SCHRAFFUR_RAND
100
AcDbVertex
100
AcDb2dVertex
 10
117.839
 20
135.111
 30
0.0
  0
VERTEX
  5
11DB
330
11D1
100
AcDbEntity
  8
SCHRAFFUR_RAND
100
AcDbVertex
100
AcDb2dVertex
 10
118.589
 20
135.673
 30
0.0
  0
VERTEX
  5
11DC
330
11D1
100
AcDbEntity
  8
SCHRAFFUR_RAND
100
AcDbVertex
100
AcDb2dVertex
 10
119.083
 20
136.469
 30
0.0
  0
VERTEX
  5
11DD
330
11D1
100
AcDbEntity
  8
SCHRAFFUR_RAND
100
AcDbVertex
100
AcDb2dVertex
 10
119.215
 20
137.391
 30
0.0
  0
VERTEX
  5
11DE
330
11D1
100
AcDbEntity
  8
SCHRAFFUR_RAND
100
AcDbVertex
100
AcDb2dVertex
 10
119.215
 20
142.629
 30
0.0
  0
SEQEND
  5
11DF
330
11D1
100
AcDbEntity
  8
SCHRAFFUR_RAND
  0
INSERT
  5
11E7
330
1295
100
AcDbEntity
  8
8
100
AcDbBlockReference
  2
*X5
 10
110.078
 20
451.152
 30
0.0
 50
270.0
1001
ACAD
1000
HATCH
1002
{
1070
    19
1000
ANSI31,_I
1040
3.174999999999998
1040
5.497999999999998
1002
}
  0
POLYLINE
  5
11E8
330
1295
100
AcDbEntity
  8
SCHRAFFUR_RAND
100
AcDb2dPolyline
 66
     1
 10
0.0
 20
0.0
 30
0.0
 70
     1
  0
VERTEX
  5
11E9
330
11E8
100
AcDbEntity
  8
SCHRAFFUR_RAND
100
AcDbVertex
100
AcDb2dVertex
 10
104.215
 20
118.787
 30
0.0
  0
VERTEX
  5
11EA
330
11E8
100
AcDbEntity
  8
SCHRAFFUR_RAND
100
AcDbVertex
100
AcDb2dVertex
 10
104.215
 20
106.787
 30
0.0
  0
VERTEX
  5
11EB
330
11E8
100
AcDbEntity
  8
SCHRAFFUR_RAND
100
AcDbVertex
100
AcDb2dVertex
 10
116.846
 20
107.449
 30
0.0
  0
VERTEX
  5
11EC
330
11E8
100
AcDbEntity
  8
SCHRAFFUR_RAND
100
AcDbVertex
100
AcDb2dVertex
 10
117.779
 20
107.638
 30
0.0
  0
VERTEX
  5
11ED
330
11E8
100
AcDbEntity
  8
SCHRAFFUR_RAND
100
AcDbVertex
100
AcDb2dVertex
 10
118.558
 20
108.196
 30
0.0
  0
VERTEX
  5
11EE
330
11E8
100
AcDbEntity
  8
SCHRAFFUR_RAND
100
AcDbVertex
100
AcDb2dVertex
 10
119.075
 20
109.004
 30
0.0
  0
VERTEX
  5
11EF
330
11E8
100
AcDbEntity
  8
SCHRAFFUR_RAND
100
AcDbVertex
100
AcDb2dVertex
 10
119.215
 20
109.946
 30
0.0
  0
VERTEX
  5
11F0
330
11E8
100
AcDbEntity
  8
SCHRAFFUR_RAND
100
AcDbVertex
100
AcDb2dVertex
 10
119.215
 20
115.629
 30
0.0
  0
VERTEX
  5
11F1
330
11E8
100
AcDbEntity
  8
SCHRAFFUR_RAND
100
AcDbVertex
100
AcDb2dVertex
 10
119.075
 20
116.571
 30
0.0
  0
VERTEX
  5
11F2
330
11E8
100
AcDbEntity
  8
SCHRAFFUR_RAND
100
AcDbVertex
100
AcDb2dVertex
 10
118.558
 20
117.378
 30
0.0
  0
VERTEX
  5
11F3
330
11E8
100
AcDbEntity
  8
SCHRAFFUR_RAND
100
AcDbVertex
100
AcDb2dVertex
 10
117.779
 20
117.937
 30
0.0
  0
VERTEX
  5
11F4
330
11E8
100
AcDbEntity
  8
SCHRAFFUR_RAND
100
AcDbVertex
100
AcDb2dVertex
 10
116.846
 20
118.125
 30
0.0
  0
VERTEX
  5
11F5
330
11E8
100
AcDbEntity
  8
SCHRAFFUR_RAND
100
AcDbVertex
100
AcDb2dVertex
 10
104.215
 20
118.787
 30
0.0
  0
SEQEND
  5
11F6
330
11E8
100
AcDbEntity
  8
SCHRAFFUR_RAND
  0
INSERT
  5
11FE
330
1295
100
AcDbEntity
  8
8
100
AcDbBlockReference
  2
*X6
 10
110.078
 20
451.152
 30
0.0
 50
270.0
1001
ACAD
1000
HATCH
1002
{
1070
    19
1000
ANSI31,_I
1040
3.174999999999998
1040
5.497999999999998
1002
}
  0
POLYLINE
  5
11FF
330
1295
100
AcDbEntity
  8
SCHRAFFUR_RAND
100
AcDb2dPolyline
 66
     1
 10
0.0
 20
0.0
 30
0.0
 70
     1
  0
VERTEX
  5
1200
330
11FF
100
AcDbEntity
  8
SCHRAFFUR_RAND
100
AcDbVertex
100
AcDb2dVertex
 10
104.215
 20
91.787
 30
0.0
  0
VERTEX
  5
1201
330
11FF
100
AcDbEntity
  8
SCHRAFFUR_RAND
100
AcDbVertex
100
AcDb2dVertex
 10
104.215
 20
74.28699999999998
 30
0.0
  0
VERTEX
  5
1202
330
11FF
100
AcDbEntity
  8
SCHRAFFUR_RAND
100
AcDbVertex
100
AcDb2dVertex
 10
116.933
 20
75.4
 30
0.0
  0
VERTEX
  5
1203
330
11FF
100
AcDbEntity
  8
SCHRAFFUR_RAND
100
AcDbVertex
100
AcDb2dVertex
 10
117.839
 20
75.611
 30
0.0
  0
VERTEX
  5
1204
330
11FF
100
AcDbEntity
  8
SCHRAFFUR_RAND
100
AcDbVertex
100
AcDb2dVertex
 10
118.589
 20
76.173
 30
0.0
  0
VERTEX
  5
1205
330
11FF
100
AcDbEntity
  8
SCHRAFFUR_RAND
100
AcDbVertex
100
AcDb2dVertex
 10
119.083
 20
76.96899999999998
 30
0.0
  0
VERTEX
  5
1206
330
11FF
100
AcDbEntity
  8
SCHRAFFUR_RAND
100
AcDbVertex
100
AcDb2dVertex
 10
119.215
 20
77.89100000000002
 30
0.0
  0
VERTEX
  5
1207
330
11FF
100
AcDbEntity
  8
SCHRAFFUR_RAND
100
AcDbVertex
100
AcDb2dVertex
 10
119.215
 20
88.62899999999998
 30
0.0
  0
VERTEX
  5
1208
330
11FF
100
AcDbEntity
  8
SCHRAFFUR_RAND
100
AcDbVertex
100
AcDb2dVertex
 10
119.075
 20
89.571
 30
0.0
  0
VERTEX
  5
1209
330
11FF
100
AcDbEntity
  8
SCHRAFFUR_RAND
100
AcDbVertex
100
AcDb2dVertex
 10
118.558
 20
90.37799999999998
 30
0.0
  0
VERTEX
  5
120A
330
11FF
100
AcDbEntity
  8
SCHRAFFUR_RAND
100
AcDbVertex
100
AcDb2dVertex
 10
117.779
 20
90.937
 30
0.0
  0
VERTEX
  5
120B
330
11FF
100
AcDbEntity
  8
SCHRAFFUR_RAND
100
AcDbVertex
100
AcDb2dVertex
 10
116.846
 20
91.125
 30
0.0
  0
VERTEX
  5
120C
330
11FF
100
AcDbEntity
  8
SCHRAFFUR_RAND
100
AcDbVertex
100
AcDb2dVertex
 10
104.215
 20
91.787
 30
0.0
  0
SEQEND
  5
120D
330
11FF
100
AcDbEntity
  8
SCHRAFFUR_RAND
  0
INSERT
  5
1216
330
1295
100
AcDbEntity
  8
8
100
AcDbBlockReference
  2
*X7
 10
110.078
 20
451.152
 30
0.0
 50
270.0
1001
ACAD
1000
HATCH
1002
{
1070
    19
1000
ANSI31,_I
1040
3.174999999999998
1040
5.497999999999998
1002
}
  0
DIMENSION
  5
1241
330
1295
100
AcDbEntity
  8
5
100
AcDbDimension
  2
*D17
 10
369.3650000000001
 20
368.295
 30
0.0
 11
288.119
 21
368.295
 31
0.0
 70
   160
  1
%%c185
 71
     5
 42
185.0000000000001
  3
GEN-ISO
100
AcDbAlignedDimension
 13
184.365
 23
346.937
 33
0.0
 14
369.3650000000001
 24
346.937
 34
0.0
100
AcDbRotatedDimension
1001
ACAD
1000
DSTYLE
1002
{
1070
   140
1040
10.0
1070
    41
1040
5.0
1002
}
  0
DIMENSION
  5
1257
330
1295
100
AcDbEntity
  8
5
100
AcDbDimension
  2
*D18
 10
161.9010000000001
 20
331.937
 30
0.0
 11
161.901
 21
341.268
 31
0.0
 70
   160
  1
15
 71
     5
 42
15.0
  3
GEN-ISO
100
AcDbAlignedDimension
 13
184.365
 23
346.937
 33
0.0
 14
187.969
 24
331.937
 34
0.0
 50
270.0
100
AcDbRotatedDimension
1001
ACAD
1000
DSTYLE
1002
{
1070
    41
1040
5.0
1070
   140
1040
10.0
1002
}
  0
CIRCLE
  5
1388
330
1295
100
AcDbEntity
  8
0
100
AcDbCircle
 10
276.865
 20
170.537
 30
0.0
 40
92.5
  0
ARC
  5
1389
330
1295
100
AcDbEntity
  8
0
100
AcDbCircle
 10
276.8649999999999
 20
170.537
 30
0.0
 40
75.0
100
AcDbArc
 50
155.7179999999999
 51
205.1949999999996
  0
LINE
  5
138A
330
1295
100
AcDbEntity
  8
0
100
AcDbLine
 10
216.865
 20
199.575
 30
0.0
 11
216.865
 21
140.37
 31
0.0
  0
ARC
  5
138B
330
1295
100
AcDbEntity
  8
0
100
AcDbCircle
 10
212.488
 20
199.575
 30
0.0
 40
4.376999999999998
100
AcDbArc
 50
0.0
 51
155.798999999999
  0
ARC
  5
138C
330
1295
100
AcDbEntity
  8
0
100
AcDbCircle
 10
212.735
 20
140.37
 30
0.0
 40
4.128999999999998
100
AcDbArc
 50
205.1629999999996
 51
0.0
  0
LINE
  5
1499
330
1295
100
AcDbEntity
  8
AM_7
100
AcDbLine
 10
276.865
 20
170.537
 30
0.0
 11
317.0458420985691
 21
170.537
 31
0.0
1001
GENIUS_GENOREF_13
1005
149D
  0
LINE
  5
149A
330
1295
100
AcDbEntity
  8
AM_7
100
AcDbLine
 10
276.865
 20
170.537
 30
0.0
 11
276.865
 21
210.7178420985691
 31
0.0
1001
GENIUS_GENOREF_13
1005
149D
  0
LINE
  5
149B
330
1295
100
AcDbEntity
  8
AM_7
100
AcDbLine
 10
276.865
 20
170.537
 30
0.0
 11
236.6841579014309
 21
170.537
 31
0.0
1001
GENIUS_GENOREF_13
1005
149D
  0
LINE
  5
149C
330
1295
100
AcDbEntity
  8
AM_7
100
AcDbLine
 10
276.865
 20
170.537
 30
0.0
 11
276.865
 21
130.3561579014308
 31
0.0
1001
GENIUS_GENOREF_13
1005
149D
  0
POINT
  5
149D
330
1295
100
AcDbEntity
  8
0
 60
     1
100
AcDbPoint
 10
0.0
 20
0.0
 30
0.0
1001
GENIUS_GENODEF_13
1002
{
1000
HIER
1070
    10
1002
}
1002
{
1000
MANEDIT
1070
     0
1002
}
1002
{
1000
NOSEL
1070
     0
1002
}
1002
{
1000
BEHIND
1070
     0
1002
}
1002
{
1000
OTHER
1070
     0
1002
}
1002
{
1000
REACTOR
1002
}
1001
GENIUS_GENOENT_13
1002
{
1000
MYREF
1005
149D
1002
}
1002
{
1000
GRP
1005
0
1002
}
1001
GENIUS_GENOBJ-N-CRS_13
1002
{
1000
OWNER
1000
GEN
1002
}
1001
GENIUS_GENOLIS_13
1002
{
1000
ENT
1005
149C
1005
149B
1005
149A
1005
1499
1002
}
  0
ENDSEC
  0
SECTION
  2
OBJECTS
  0
DICTIONARY
  5
1289
330
0
100
AcDbDictionary
281
     1
  3
ACAD_COLOR
350
12C6
  3
ACAD_GROUP
350
128A
  3
ACAD_LAYOUT
350
12C9
  3
ACAD_MATERIAL
350
12C5
  3
ACAD_MLINESTYLE
350
1298
  3
ACAD_PLOTSETTINGS
350
12CA
  3
ACAD_PLOTSTYLENAME
350
12C3
  3
ACAD_TABLESTYLE
350
12C7
  3
ACDBHEADERROUNDTRIPXREC
350
14A5
  3
AcDbVariableDictionary
350
137F
  3
AcmDictionary
350
132A
  3
AMG
350
12D0
  3
AMGSNAPSETTINGS
350
1381
  0
DICTIONARY
  5
12C6
102
{ACAD_REACTORS
330
1289
102
}
330
1289
100
AcDbDictionary
281
     1
  0
DICTIONARY
  5
128A
102
{ACAD_REACTORS
330
1289
102
}
330
1289
100
AcDbDictionary
281
     1
  0
DICTIONARY
  5
12C9
102
{ACAD_REACTORS
330
1289
102
}
330
1289
100
AcDbDictionary
281
     1
  3
Layout1
350
12CC
  3
Model
350
12CB
  0
DICTIONARY
  5
12C5
102
{ACAD_REACTORS
330
1289
102
}
330
1289
100
AcDbDictionary
281
     1
  0
DICTIONARY
  5
1298
102
{ACAD_REACTORS
330
1289
102
}
330
1289
100
AcDbDictionary
281
     1
  3
STANDARD
350
1299
  0
DICTIONARY
  5
12CA
102
{ACAD_REACTORS
330
1289
102
}
330
1289
100
AcDbDictionary
281
     1
  0
ACDBDICTIONARYWDFLT
  5
12C3
102
{ACAD_REACTORS
330
1289
102
}
330
1289
100
AcDbDictionary
281
     1
  3
Normal
350
12C4
100
AcDbDictionaryWithDefault
340
12C4
  0
DICTIONARY
  5
12C7
102
{ACAD_REACTORS
330
1289
102
}
330
1289
100
AcDbDictionary
281
     1
  3
Standard
350
12C8
  0
DICTIONARY
  5
14A5
102
{ACAD_REACTORS
330
1289
102
}
330
1289
100
AcDbDictionary
281
     1
  0
DICTIONARY
  5
137F
102
{ACAD_REACTORS
330
1289
102
}
330
1289
100
AcDbDictionary
281
     1
  3
CTABLESTYLE
350
1380
  3
DIMASSOC
350
13AA
  3
PROJECTNAME
350
13AB
  0
DICTIONARY
  5
132A
102
{ACAD_REACTORS
330
1289
102
}
330
1289
100
AcDbDictionary
281
     1
  3
AcmStdDictionary
350
1335
  3
AMDTSECTSYM_ARROWCOLOR
350
1354
  0
DICTIONARY
  5
12D0
102
{ACAD_REACTORS
330
1289
102
}
330
1289
100
AcDbDictionary
281
     1
  0
DICTIONARY
  5
1381
102
{ACAD_REACTORS
330
1289
102
}
330
1289
100
AcDbDictionary
281
     1
  0
LAYOUT
  5
12CC
102
{ACAD_XDICTIONARY
360
14A8
102
}
102
{ACAD_REACTORS
330
12C9
102
}
330
12C9
100
AcDbPlotSettings
  1

  2
\\RD-SR-210\PH-PR-011
  4

  6

 40
0.0
 41
0.0
 42
0.0
 43
0.0
 44
0.0
 45
0.0
 46
0.0
 47
0.0
 48
0.0
 49
0.0
140
0.0
141
0.0
142
1.0
143
1.0
 70
   688
 72
     0
 73
     0
 74
     5
  7

 75
    16
147
1.0
148
0.0
149
0.0
100
AcDbLayout
  1
Layout1
 70
     1
 71
     1
 10
0.0
 20
0.0
 11
420.0
 21
297.001
 12
0.0
 22
0.0
 32
0.0
 14
0.0
 24
0.0
 34
0.0
 15
420.0
 25
297.001
 35
0.0
146
0.0
 13
0.0
 23
0.0
 33
0.0
 16
1.0
 26
0.0
 36
0.0
 17
0.0
 27
1.0
 37
0.0
 76
     0
330
1292
  0
LAYOUT
  5
12CB
102
{ACAD_XDICTIONARY
360
14A6
102
}
102
{ACAD_REACTORS
330
12C9
102
}
330
12C9
100
AcDbPlotSettings
  1

  2
\\RD-SR-210\PH-PR-011
  4

  6

 40
0.0
 41
0.0
 42
0.0
 43
0.0
 44
0.0
 45
0.0
 46
0.0
 47
0.0
 48
0.0
 49
0.0
140
0.0
141
0.0
142
1.0
143
1.0
 70
  1712
 72
     0
 73
     0
 74
     0
  7

 75
     0
147
1.0
148
0.0
149
0.0
100
AcDbLayout
  1
Model
 70
     1
 71
     0
 10
0.0
 20
0.0
 11
12.0
 21
9.0
 12
0.0
 22
0.0
 32
0.0
 14
0.0
 24
0.0
 34
0.0
 15
0.0
 25
0.0
 35
0.0
146
0.0
 13
0.0
 23
0.0
 33
0.0
 16
1.0
 26
0.0
 36
0.0
 17
0.0
 27
1.0
 37
0.0
 76
     0
330
1295
  0
MLINESTYLE
  5
1299
102
{ACAD_REACTORS
330
1298
102
}
330
1298
100
AcDbMlineStyle
  2
STANDARD
 70
     0
  3

 62
   256
 51
90.0
 52
90.0
 71
     2
 49
0.5
 62
   256
  6
BYLAYER
 49
-0.5
 62
   256
  6
BYLAYER
  0
ACDBPLACEHOLDER
  5
12C4
102
{ACAD_REACTORS
330
12C3
102
}
330
12C3
  0
TABLESTYLE
  5
12C8
102
{ACAD_REACTORS
330
12C7
102
}
330
12C7
100
AcDbTableStyle
  3
Standard
 70
     0
 71
     0
 40
0.06
 41
0.06
280
     0
281
     0
  7
STANDARD
140
0.18
170
     2
 62
     0
 63
     7
283
     0
274
    -2
284
     1
 64
     0
275
    -2
285
     1
 65
     0
276
    -2
286
     1
 66
     0
277
    -2
287
     1
 67
     0
278
    -2
288
     1
 68
     0
279
    -2
289
     1
 69
     0
  7
STANDARD
140
0.25
170
     5
 62
     0
 63
     7
283
     0
274
    -2
284
     1
 64
     0
275
    -2
285
     1
 65
     0
276
    -2
286
     1
 66
     0
277
    -2
287
     1
 67
     0
278
    -2
288
     1
 68
     0
279
    -2
289
     1
 69
     0
  7
STANDARD
140
0.18
170
     5
 62
     0
 63
     7
283
     0
274
    -2
284
     1
 64
     0
275
    -2
285
     1
 65
     0
276
    -2
286
     1
 66
     0
277
    -2
287
     1
 67
     0
278
    -2
288
     1
 68
     0
279
    -2
289
     1
 69
     0
  0
DICTIONARYVAR
  5
1380
102
{ACAD_REACTORS
330
137F
102
}
330
137F
100
DictionaryVariables
280
     0
  1
STANDARD
  0
DICTIONARYVAR
  5
13AA
102
{ACAD_REACTORS
330
137F
102
}
330
137F
100
DictionaryVariables
280
     0
  1
1
  0
DICTIONARYVAR
  5
13AB
102
{ACAD_REACTORS
330
137F
102
}
330
137F
100
DictionaryVariables
280
     0
  1

  0
DICTIONARY
  5
1335
102
{ACAD_REACTORS
330
132A
102
}
330
132A
100
AcDbDictionary
281
     1
  0
XRECORD
  5
1354
102
{ACAD_REACTORS
330
132A
102
}
330
132A
100
AcDbXrecord
280
     1
 90
-1023410169
  0
DICTIONARY
  5
14A8
330
12CC
100
AcDbDictionary
280
     1
281
     1
  3
ACAD_XREC_ROUNDTRIP
360
14A9
  0
DICTIONARY
  5
14A6
330
12CB
100
AcDbDictionary
280
     1
281
     1
  3
ACAD_XREC_ROUNDTRIP
360
14A7
  0
XRECORD
  5
14A9
102
{ACAD_REACTORS
330
14A8
102
}
330
14A8
100
AcDbXrecord
280
     1
102
SHADEPLOT
 70
     0
102
SHADEPLOTRESLEVEL
 70
     2
102
SHADEPLOTCUSTOMDPI
 70
   300
  0
XRECORD
  5
14A7
102
{ACAD_REACTORS
330
14A6
102
}
330
14A6
100
AcDbXrecord
280
     1
102
SHADEPLOT
 70
     0
102
SHADEPLOTRESLEVEL
 70
     2
102
SHADEPLOTCUSTOMDPI
 70
   300
  0
ENDSEC
  0
EOF
