  0
SECTION
  2
HEADER
  9
$ACADVER
  1
AC1015
  9
$ACADMAINTVER
 70
    20
  9
$DWGCODEPAGE
  3
ANSI_1252
  9
$INSBASE
 10
0.0
 20
0.0
 30
0.0
  9
$EXTMIN
 10
243.1777981379742
 20
318.6401395344178
 30
-0.0015258207003583
  9
$EXTMAX
 10
450.659181434497
 20
483.3435076444215
 30
0.0000000349246037
  9
$LIMMIN
 10
0.0
 20
0.0
  9
$LIMMAX
 10
1050.0
 20
1050.0
  9
$ORTHOMODE
 70
     0
  9
$REGENMODE
 70
     1
  9
$FILLMODE
 70
     1
  9
$QTEXTMODE
 70
     0
  9
$MIRRTEXT
 70
     0
  9
$LTSCALE
 40
5.0
  9
$ATTMODE
 70
     1
  9
$TEXTSIZE
 40
5.0
  9
$TRACEWID
 40
0.05
  9
$TEXTSTYLE
  7
STANDARD
  9
$CLAYER
  8
0
  9
$CELTYPE
  6
BYLAYER
  9
$CECOLOR
 62
   256
  9
$CELTSCALE
 40
1.0
  9
$DISPSILH
 70
     0
  9
$DIMSCALE
 40
5.0
  9
$DIMASZ
 40
2.5
  9
$DIMEXO
 40
1.0
  9
$DIMDLI
 40
7.0
  9
$DIMRND
 40
0.0
  9
$DIMDLE
 40
0.0
  9
$DIMEXE
 40
1.0
  9
$DIMTP
 40
0.1
  9
$DIMTM
 40
0.1
  9
$DIMTXT
 40
3.5
  9
$DIMCEN
 40
0.0
  9
$DIMTSZ
 40
0.0
  9
$DIMTOL
 70
     0
  9
$DIMLIM
 70
     0
  9
$DIMTIH
 70
     0
  9
$DIMTOH
 70
     0
  9
$DIMSE1
 70
     0
  9
$DIMSE2
 70
     0
  9
$DIMTAD
 70
     1
  9
$DIMZIN
 70
    12
  9
$DIMBLK
  1

  9
$DIMASO
 70
     1
  9
$DIMSHO
 70
     1
  9
$DIMPOST
  1

  9
$DIMAPOST
  1
"
  9
$DIMALT
 70
     0
  9
$DIMALTD
 70
     2
  9
$DIMALTF
 40
0.03937
  9
$DIMLFAC
 40
1.0
  9
$DIMTOFL
 70
     1
  9
$DIMTVP
 40
0.0
  9
$DIMTIX
 70
     0
  9
$DIMSOXD
 70
     0
  9
$DIMSAH
 70
     0
  9
$DIMBLK1
  1

  9
$DIMBLK2
  1

  9
$DIMSTYLE
  2
GEN-ISO
  9
$DIMCLRD
 70
   256
  9
$DIMCLRE
 70
   256
  9
$DIMCLRT
 70
     2
  9
$DIMTFAC
 40
0.71
  9
$DIMGAP
 40
0.6
  9
$DIMJUST
 70
     0
  9
$DIMSD1
 70
     0
  9
$DIMSD2
 70
     0
  9
$DIMTOLJ
 70
     0
  9
$DIMTZIN
 70
     0
  9
$DIMALTZ
 70
     0
  9
$DIMALTTZ
 70
     0
  9
$DIMUPT
 70
     0
  9
$DIMDEC
 70
     2
  9
$DIMTDEC
 70
     3
  9
$DIMALTU
 70
     2
  9
$DIMALTTD
 70
     4
  9
$DIMTXSTY
  7
STANDARD
  9
$DIMAUNIT
 70
     0
  9
$DIMADEC
 70
     0
  9
$DIMALTRND
 40
0.0
  9
$DIMAZIN
 70
     0
  9
$DIMDSEP
 70
    46
  9
$DIMATFIT
 70
     3
  9
$DIMFRAC
 70
     0
  9
$DIMLDRBLK
  1

  9
$DIMLUNIT
 70
     2
  9
$DIMLWD
 70
    -2
  9
$DIMLWE
 70
    -2
  9
$DIMTMOVE
 70
     0
  9
$LUNITS
 70
     2
  9
$LUPREC
 70
     2
  9
$SKETCHINC
 40
0.1
  9
$FILLETRAD
 40
12.5
  9
$AUNITS
 70
     0
  9
$AUPREC
 70
     2
  9
$MENU
  1
.
  9
$ELEVATION
 40
0.0
  9
$PELEVATION
 40
0.0
  9
$THICKNESS
 40
0.0
  9
$LIMCHECK
 70
     0
  9
$CHAMFERA
 40
12.5
  9
$CHAMFERB
 40
12.5
  9
$CHAMFERC
 40
0.0
  9
$CHAMFERD
 40
0.0
  9
$SKPOLY
 70
     0
  9
$TDCREATE
 40
2451295.547707743
  9
$TDUCREATE
 40
2451295.464374410
  9
$TDUPDATE
 40
2454019.995516007
  9
$TDUUPDATE
 40
2454019.912182674
  9
$TDINDWG
 40
0.0020619792
  9
$TDUSRTIMER
 40
0.0020618634
  9
$USRTIMER
 70
     1
  9
$ANGBASE
 50
0.0
  9
$ANGDIR
 70
     0
  9
$PDMODE
 70
     0
  9
$PDSIZE
 40
0.0
  9
$PLINEWID
 40
0.0
  9
$SPLFRAME
 70
     0
  9
$SPLINETYPE
 70
     6
  9
$SPLINESEGS
 70
     8
  9
$HANDSEED
  5
13E9
  9
$SURFTAB1
 70
     6
  9
$SURFTAB2
 70
     6
  9
$SURFTYPE
 70
     6
  9
$SURFU
 70
     6
  9
$SURFV
 70
     6
  9
$UCSBASE
  2

  9
$UCSNAME
  2

  9
$UCSORG
 10
0.0
 20
0.0
 30
0.0
  9
$UCSXDIR
 10
1.0
 20
0.0
 30
0.0
  9
$UCSYDIR
 10
0.0
 20
1.0
 30
0.0
  9
$UCSORTHOREF
  2

  9
$UCSORTHOVIEW
 70
     0
  9
$UCSORGTOP
 10
0.0
 20
0.0
 30
0.0
  9
$UCSORGBOTTOM
 10
0.0
 20
0.0
 30
0.0
  9
$UCSORGLEFT
 10
0.0
 20
0.0
 30
0.0
  9
$UCSORGRIGHT
 10
0.0
 20
0.0
 30
0.0
  9
$UCSORGFRONT
 10
0.0
 20
0.0
 30
0.0
  9
$UCSORGBACK
 10
0.0
 20
0.0
 30
0.0
  9
$PUCSBASE
  2

  9
$PUCSNAME
  2

  9
$PUCSORG
 10
0.0
 20
0.0
 30
0.0
  9
$PUCSXDIR
 10
1.0
 20
0.0
 30
0.0
  9
$PUCSYDIR
 10
0.0
 20
1.0
 30
0.0
  9
$PUCSORTHOREF
  2

  9
$PUCSORTHOVIEW
 70
     0
  9
$PUCSORGTOP
 10
0.0
 20
0.0
 30
0.0
  9
$PUCSORGBOTTOM
 10
0.0
 20
0.0
 30
0.0
  9
$PUCSORGLEFT
 10
0.0
 20
0.0
 30
0.0
  9
$PUCSORGRIGHT
 10
0.0
 20
0.0
 30
0.0
  9
$PUCSORGFRONT
 10
0.0
 20
0.0
 30
0.0
  9
$PUCSORGBACK
 10
0.0
 20
0.0
 30
0.0
  9
$USERI1
 70
     0
  9
$USERI2
 70
     0
  9
$USERI3
 70
     0
  9
$USERI4
 70
     0
  9
$USERI5
 70
     0
  9
$USERR1
 40
0.0
  9
$USERR2
 40
0.0
  9
$USERR3
 40
0.0
  9
$USERR4
 40
0.0
  9
$USERR5
 40
0.0
  9
$WORLDVIEW
 70
     1
  9
$SHADEDGE
 70
     3
  9
$SHADEDIF
 70
    70
  9
$TILEMODE
 70
     1
  9
$MAXACTVP
 70
    48
  9
$PINSBASE
 10
0.0
 20
0.0
 30
0.0
  9
$PLIMCHECK
 70
     0
  9
$PEXTMIN
 10
0.0
 20
0.0
 30
0.0
  9
$PEXTMAX
 10
170.032
 20
234.064
 30
0.0
  9
$PLIMMIN
 10
0.0
 20
0.0
  9
$PLIMMAX
 10
170.032
 20
234.064
  9
$UNITMODE
 70
     0
  9
$VISRETAIN
 70
     1
  9
$PLINEGEN
 70
     1
  9
$PSLTSCALE
 70
     1
  9
$TREEDEPTH
 70
 -3020
  9
$CMLSTYLE
  2
STANDARD
  9
$CMLJUST
 70
     0
  9
$CMLSCALE
 40
1.0
  9
$PROXYGRAPHICS
 70
     1
  9
$MEASUREMENT
 70
     1
  9
$CELWEIGHT
370
    -1
  9
$ENDCAPS
280
     0
  9
$JOINSTYLE
280
     0
  9
$LWDISPLAY
290
     0
  9
$INSUNITS
 70
     0
  9
$HYPERLINKBASE
  1

  9
$STYLESHEET
  1

  9
$XEDIT
290
     1
  9
$CEPSNTYPE
380
     0
  9
$PSTYLEMODE
290
     1
  9
$FINGERPRINTGUID
  2
{79BC6B22-DD1F-4CBC-A50E-FD40A2250506}
  9
$VERSIONGUID
  2
{1F9E28A6-F888-44E5-AF05-FBEF6CB33693}
  9
$EXTNAMES
290
     1
  9
$PSVPSCALE
 40
0.0
  9
$OLESTARTUP
290
     0
  0
ENDSEC
  0
SECTION
  2
CLASSES
  0
CLASS
  1
ACDBDICTIONARYWDFLT
  2
AcDbDictionaryWithDefault
  3
ObjectDBX Classes
 90
        0
280
     0
281
     0
  0
CLASS
  1
TABLESTYLE
  2
AcDbTableStyle
  3
ObjectDBX Classes
 90
     2047
280
     0
281
     0
  0
CLASS
  1
AMGSETTINGSOBJ
  2
AmgSettingsObj
  3
"AcadM|Product Description: AutoCAD Mechanical 2000|Company: Autodesk"
 90
        0
280
     0
281
     0
  0
CLASS
  1
ACME_DOCUMENT
  2
AcMeDbDoc
  3
AcMeServices
 90
        0
280
     0
281
     0
  0
CLASS
  1
ACMESCOPE
  2
AcMeScope
  3
AcMeServices
 90
        0
280
     0
281
     0
  0
CLASS
  1
ACMECOMMANDHISTORY
  2
AcMeCommandHistory
  3
AcMeServices
 90
        0
280
     0
281
     0
  0
CLASS
  1
ACIMSYSVARMAN
  2
AcImSysVarManager
  3
AcMeServices
 90
        0
280
     0
281
     0
  0
CLASS
  1
ACIMINTSYSVAR
  2
AcImIntSysVar
  3
AcMeServices
 90
        0
280
     0
281
     0
  0
CLASS
  1
ACMEDRAWINGMAN
  2
AcMeDrawingMan
  3
AcMeServices
 90
        0
280
     0
281
     0
  0
CLASS
  1
ACMEVIEW
  2
AcMeView
  3
AcMeServices
 90
        0
280
     0
281
     0
  0
CLASS
  1
ACDBENTITYCACHE
  2
AcMeEntityCache
  3
AcMeServices
 90
        0
280
     0
281
     0
  0
CLASS
  1
GSMANAGER
  2
AcMeGSManager
  3
AcMeServices
 90
        0
280
     0
281
     0
  0
CLASS
  1
AMDTINTERNALREACTOR
  2
AmdtInternalReactor
  3
AcMeServices
 90
        0
280
     0
281
     0
  0
CLASS
  1
ACMESTATEMGR
  2
AcMeStateMgr
  3
AcMeServices
 90
        0
280
     0
281
     0
  0
CLASS
  1
ACGREFMASTER
  2
AcGrefMaster
  3
AcAttribServices
 90
        0
280
     0
281
     0
  0
CLASS
  1
AM_DRAWING_MGR
  2
AcDmDwgMgr
  3
AcMechDwgViewMgmt
 90
        0
280
     0
281
     0
  0
CLASS
  1
AM_DWG_DOCUMENT
  2
AcDmDwgDocument
  3
AcMechDwgViewMgmt
 90
        0
280
     0
281
     0
  0
CLASS
  1
AM_DWG_SHEET
  2
AcDmSheet
  3
AcMechDwgViewMgmt
 90
        0
280
     0
281
     0
  0
CLASS
  1
AM_VIEWDIMPARMAP
  2
AcDmViewDimParMap
  3
AcMechDwgViewMgmt
 90
        0
280
     0
281
     0
  0
CLASS
  1
ACIMREALSYSVAR
  2
AcImRealSysVar
  3
AcMeServices
 90
        0
280
     0
281
     0
  0
CLASS
  1
AM_DWGMGR_NAME
  2
AcDmDwgMgrName
  3
AcMechDwgViewMgmt
 90
        0
280
     0
281
     0
  0
CLASS
  1
ACME_DATABASE
  2
AcMeDbDatabase
  3
AcMeServices
 90
        0
280
     0
281
     0
  0
CLASS
  1
ACRFINSADJUSTERMGR
  2
AcRfInsAdjusterMgr
  3
AcMeServices
 90
        0
280
     0
281
     0
  0
CLASS
  1
ACGREFACADMASTER
  2
AcGrefacadMaster
  3
AcGrefServices
 90
        0
280
     0
281
     0
  0
CLASS
  1
AMDTMENUSTATEMGR
  2
AmdtMenuStateMgr
  3
McadcomServices
 90
        0
280
     0
281
     0
  0
CLASS
  1
AMDTMCOMMENUSTATE
  2
AmdtMcomMenuState
  3
McadcomServices
 90
        0
280
     0
281
     0
  0
CLASS
  1
AMIMASTER
  2
AmiMaster
  3
AmiServices
 90
        0
280
     0
281
     0
  0
CLASS
  1
MAPIAMMOUDLE
  2
MApiAmModule
  3
MApiAmServices
 90
        0
280
     0
281
     0
  0
CLASS
  1
ACIMSTRSYSVAR
  2
AcImStrSysVar
  3
AcMeServices
 90
        0
280
     0
281
     0
  0
CLASS
  1
AMDTADMENUSTATE
  2
AmdtAdMenuState
  3
DesignerServices
 90
        0
280
     0
281
     0
  0
CLASS
  1
ADAPPL
  2
AcAdAppl
  3
DesignerServices
 90
        0
280
     0
281
     0
  0
CLASS
  1
DEPMGR
  2
AcAdDepMgr
  3
DesignerServices
 90
        0
280
     0
281
     0
  0
CLASS
  1
PARAMMGR
  2
AcAdParamMgr
  3
DesignerServices
 90
        0
280
     0
281
     0
  0
CLASS
  1
PARAMSCOPE
  2
AcAdParamScope
  3
DesignerServices
 90
        0
280
     0
281
     0
  0
CLASS
  1
NAMEDAPPL
  2
AcAdNamedAppl
  3
DesignerServices
 90
        0
280
     0
281
     0
  0
CLASS
  1
AMDTDMMENUSTATE
  2
AmdtDmMenuState
  3
AcMechDwgViewMgmt
 90
        0
280
     0
281
     0
  0
CLASS
  1
AMDTAMMENUSTATE
  2
AmdtAmMenuState
  3
DesignerAssemblies
 90
        0
280
     0
281
     0
  0
CLASS
  1
ACAMPROJECT
  2
AcAmProject
  3
DesignerAssemblies
 90
        0
280
     0
281
     0
  0
CLASS
  1
ACAMGRCOMPDEF
  2
AcAmGrCompDef
  3
DesignerAssemblies
 90
        0
280
     0
281
     0
  0
CLASS
  1
ACCMCONTEXT
  2
AcCmContext
  3
DesignerAssemblies
 90
        0
280
     0
281
     0
  0
CLASS
  1
ACAMCOMPDEF
  2
AcAmCompDef
  3
DesignerAssemblies
 90
        0
280
     0
281
     0
  0
CLASS
  1
ACAMCOMPDEFMGR
  2
AcAmCompDefMgr
  3
DesignerAssemblies
 90
        0
280
     0
281
     0
  0
CLASS
  1
AMCONTEXTMGR
  2
AcAmContextMgr
  3
DesignerAssemblies
 90
        0
280
     0
281
     0
  0
CLASS
  1
ACAMCONTEXTMODELER
  2
AcAmContextModeler
  3
DesignerAssemblies
 90
        0
280
     0
281
     0
  0
CLASS
  1
ACMDATADICTIONARY
  2
AcmDataDictionary
  3
"AcmSymBB|Product Description: AutoCAD Mechanical 2004 DX|Company: Autodesk"
 90
        0
280
     0
281
     0
  0
CLASS
  1
CATALOGSTATE
  2
AcAmCatalogState
  3
DesignerAssemblies
 90
        0
280
     0
281
     0
  0
CLASS
  1
ACAMGRCOMPDEFSET
  2
AcAmGrCompDefSet
  3
DesignerAssemblies
 90
        0
280
     0
281
     0
  0
CLASS
  1
AMDTBROWSERDBTAB
  2
AmdtBrowserDbTab
  3
McadcomServices
 90
        0
280
     0
281
     0
  0
CLASS
  1
CBROWSERAPPOBJECT
  2
CBrowserAppObject
  3
McadcomServices
 90
        0
280
     0
281
     0
  0
CLASS
  1
DM_PLACEHOLDER
  2
AcDmSelsetPlaceholder
  3
AcMechDwgViewMgmt
 90
        0
280
     0
281
     0
  0
CLASS
  1
ACMSTANDARDDIN
  2
AcmStandardDIN
  3
"Amdt_StdImp|Product Description: AutoCAD Mechanical 2004 DX|Company: Autodesk"
 90
        0
280
     0
281
     0
  0
CLASS
  1
AMGOBJPROPCFG
  2
AmgObjPropCfg
  3
"AmgLay|Product Description: AutoCAD Mechanical 2000|Company: Autodesk"
 90
        1
280
     0
281
     0
  0
CLASS
  1
AMDTEDGESTANDARDDIN13715
  2
AmdtEdgeStdDIN13715
  3
"Amdt_StdImp|Product Description: AutoCAD Mechanical 2004 DX|Company: Autodesk"
 90
        0
280
     0
281
     0
  0
CLASS
  1
ACMSURFSTANDARDDIN
  2
AcmSurfTextStdDIN
  3
"Amdt_StdImp|Product Description: AutoCAD Mechanical 2004 DX|Company: Autodesk"
 90
        0
280
     0
281
     0
  0
CLASS
  1
ACMFCFSTANDARDDIN
  2
AcmFCFStdDIN
  3
"Amdt_StdImp|Product Description: AutoCAD Mechanical 2004 DX|Company: Autodesk"
 90
        0
280
     0
281
     0
  0
CLASS
  1
ACMWELDSTANDARDDIN
  2
AcmWeldingStdDIN
  3
"Amdt_StdImp|Product Description: AutoCAD Mechanical 2004 DX|Company: Autodesk"
 90
        0
280
     0
281
     0
  0
CLASS
  1
ACMIDSTANDARDDIN
  2
AcmIdStdDIN
  3
"Amdt_StdImp|Product Description: AutoCAD Mechanical 2004 DX|Company: Autodesk"
 90
        0
280
     0
281
     0
  0
CLASS
  1
ACMDATUMSTANDARDDIN
  2
AcmDatumStdDIN
  3
"Amdt_StdImp|Product Description: AutoCAD Mechanical 2004 DX|Company: Autodesk"
 90
        0
280
     0
281
     0
  0
CLASS
  1
ACMBOMSTANDARDDIN
  2
AcmBOMStdDIN
  3
"Amdt_StdImp|Product Description: AutoCAD Mechanical 2004 DX|Company: Autodesk"
 90
        0
280
     0
281
     0
  0
CLASS
  1
ACMDETAILSTANDARDDIN
  2
AmdtDetailSymStdDIN
  3
"Amdt_StdImp|Product Description: AutoCAD Mechanical 2004 DX|Company: Autodesk"
 90
        0
280
     0
281
     0
  0
CLASS
  1
ACMSECTIONSTANDARDDIN
  2
AmdtSectionSymStdDIN
  3
"Amdt_StdImp|Product Description: AutoCAD Mechanical 2004 DX|Company: Autodesk"
 90
        0
280
     0
281
     0
  0
CLASS
  1
ACMCENTERLINESTANDARDDIN
  2
AmdtCenterLineStdDIN
  3
"Amdt_StdImp|Product Description: AutoCAD Mechanical 2004 DX|Company: Autodesk"
 90
        0
280
     0
281
     0
  0
CLASS
  1
ACMTHREADLINESTANDARDDIN
  2
AmdtThreadLineStdDIN
  3
"Amdt_StdImp|Product Description: AutoCAD Mechanical 2004 DX|Company: Autodesk"
 90
        0
280
     0
281
     0
  0
CLASS
  1
ACMNOTESTANDARDDIN
  2
AmdtNoteStdDIN
  3
"Amdt_StdImp|Product Description: AutoCAD Mechanical 2004 DX|Company: Autodesk"
 90
        0
280
     0
281
     0
  0
CLASS
  1
AMDTNOTETEMPLATEDB
  2
AmdtNoteTemplateDB
  3
AMDT_STDIMP_MODULE_NAME
 90
        0
280
     0
281
     0
  0
CLASS
  1
ACAMGLAYSTD
  2
AcAmgLayStd
  3
"AcAmgLayStd|Product Description: AutoCAD Mechanical 2000|Company: Autodesk"
 90
        0
280
     0
281
     0
  0
CLASS
  1
ACAMGDIMSTD
  2
AcAmgDimStd
  3
"AcAmgDimStd|Product Description: AutoCAD Mechanical 2000|Company: Autodesk"
 90
        0
280
     0
281
     0
  0
CLASS
  1
ACAMGHOLECHARTSTDDIN
  2
AcAmgHoleChartStdDIN
  3
ACMSYMBB_MODULE_NAME
 90
        0
280
     0
281
     0
  0
CLASS
  1
ACAMGTITLESTD
  2
AcAmgTitleStd
  3
"TITLEAPP"
 90
        0
280
     0
281
     0
  0
CLASS
  1
ACAMGFILTERDAT
  2
AcAmgFilterDat
  3
"AcadM|Product Description: AutoCAD Mechanical 2000|Company: Autodesk"
 90
        0
280
     0
281
     0
  0
CLASS
  1
DICTIONARYVAR
  2
AcDbDictionaryVar
  3
ObjectDBX Classes
 90
        0
280
     0
281
     0
  0
CLASS
  1
ACDBPLACEHOLDER
  2
AcDbPlaceHolder
  3
ObjectDBX Classes
 90
        0
280
     0
281
     0
  0
CLASS
  1
LAYOUT
  2
AcDbLayout
  3
ObjectDBX Classes
 90
        0
280
     0
281
     0
  0
ENDSEC
  0
SECTION
  2
TABLES
  0
TABLE
  2
VPORT
  5
117E
330
0
100
AcDbSymbolTable
 70
     4
  0
VPORT
  5
13E3
330
117E
100
AcDbSymbolTableRecord
100
AcDbViewportTableRecord
  2
*Active
 70
     0
 10
0.0
 20
0.0
 11
1.0
 21
1.0
 12
346.9184897862356
 22
400.9918235894197
 13
0.0
 23
0.0
 14
5.0
 24
5.0
 15
50.0
 25
50.0
 16
0.0
 26
0.0
 36
1.0
 17
0.0
 27
0.0
 37
0.0
 40
165.8997606144348
 41
1.494545454545454
 42
50.0
 43
0.0
 44
0.0
 50
0.0
 51
0.0
 71
     0
 72
  1000
 73
     1
 74
     1
 75
     0
 76
     0
 77
     0
 78
     0
281
     0
 65
     0
110
0.0
120
0.0
130
0.0
111
1.0
121
0.0
131
0.0
112
0.0
122
1.0
132
0.0
 79
     0
146
0.0
  0
ENDTAB
  0
TABLE
  2
LTYPE
  5
117B
330
0
100
AcDbSymbolTable
 70
    19
  0
LTYPE
  5
1188
330
117B
100
AcDbSymbolTableRecord
100
AcDbLinetypeTableRecord
  2
BYBLOCK
 70
     0
  3

 72
    65
 73
     0
 40
0.0
  0
LTYPE
  5
1189
330
117B
100
AcDbSymbolTableRecord
100
AcDbLinetypeTableRecord
  2
BYLAYER
 70
     0
  3

 72
    65
 73
     0
 40
0.0
  0
LTYPE
  5
118A
330
117B
100
AcDbSymbolTableRecord
100
AcDbLinetypeTableRecord
  2
CONTINUOUS
 70
     0
  3
Solid line
 72
    65
 73
     0
 40
0.0
  0
LTYPE
  5
1323
330
117B
100
AcDbSymbolTableRecord
100
AcDbLinetypeTableRecord
  2
HIDDEN
 70
     0
  3
Verdeckt
 72
    65
 73
     2
 40
9.525
 49
6.349999999999999
 74
     0
 49
-3.174999999999999
 74
     0
  0
LTYPE
  5
1324
330
117B
100
AcDbSymbolTableRecord
100
AcDbLinetypeTableRecord
  2
PHANTOM2
 70
     0
  3
Phantom (.5x) ___ _ _ ___ _ _ ___ _ _ ___ _ _
 72
    65
 73
     6
 40
31.75
 49
15.875
 74
     0
 49
-3.174999999999999
 74
     0
 49
3.174999999999999
 74
     0
 49
-3.174999999999999
 74
     0
 49
3.174999999999999
 74
     0
 49
-3.174999999999999
 74
     0
  0
LTYPE
  5
1325
330
117B
100
AcDbSymbolTableRecord
100
AcDbLinetypeTableRecord
  2
CENTER
 70
     0
  3
Mitte ____ _ ____ _ ____ _ ____ _ ____ _ ____
 72
    65
 73
     4
 40
50.8
 49
31.75
 74
     0
 49
-6.349999999999999
 74
     0
 49
6.349999999999999
 74
     0
 49
-6.349999999999999
 74
     0
  0
LTYPE
  5
135C
330
117B
100
AcDbSymbolTableRecord
100
AcDbLinetypeTableRecord
  2
Amconstr
 70
     0
  3
_______________________
 72
    65
 73
     2
 40
9999.0
 49
9999.0
 74
     0
 49
0.0
 74
     0
  0
LTYPE
  5
1361
330
117B
100
AcDbSymbolTableRecord
100
AcDbLinetypeTableRecord
  2
Amzigzag
 70
     0
  3
/\/-/\/-/\/-/\/-/\/-/\/
 72
    65
 73
     2
 40
11.0001
 49
0.0001
 74
     4
 75
   136
340
1360
 46
0.04
 50
0.0
 44
0.0
 45
0.0
 49
-11.0
 74
     0
  0
LTYPE
  5
1362
330
117B
100
AcDbSymbolTableRecord
100
AcDbLinetypeTableRecord
  2
AM_DIN_F_W050
 70
     0
  3
__ __ __ __ __ __ __ __ __ __ __ __ __ __ __
 72
    65
 73
     2
 40
6.25
 49
4.75
 74
     0
 49
-1.5
 74
     0
  0
LTYPE
  5
1363
330
117B
100
AcDbSymbolTableRecord
100
AcDbLinetypeTableRecord
  2
AM_DIN_G_W050
 70
     0
  3
____ . ____ . ____ . ____ . ____ . ____ . ____
 72
    65
 73
     4
 40
13.75
 49
9.75
 74
     0
 49
-1.5
 74
     0
 49
1.0
 74
     0
 49
-1.5
 74
     0
  0
LTYPE
  5
1364
330
117B
100
AcDbSymbolTableRecord
100
AcDbLinetypeTableRecord
  2
AM_DIN_K_W050
 70
     0
  3
_____ . . _____ . . _____ . . ____ .. ____
 72
    65
 73
     6
 40
16.25
 49
9.75
 74
     0
 49
-1.5
 74
     0
 49
1.0
 74
     0
 49
-1.5
 74
     0
 49
1.0
 74
     0
 49
-1.5
 74
     0
  0
LTYPE
  5
1365
330
117B
100
AcDbSymbolTableRecord
100
AcDbLinetypeTableRecord
  2
AM_DIN_G_W050x2
 70
     0
  3
__ . __ . __ . __ . __ . __
 72
    65
 73
     4
 40
6.875
 49
4.75
 74
     0
 49
-0.875
 74
     0
 49
0.375
 74
     0
 49
-0.875
 74
     0
  0
LTYPE
  5
1366
330
117B
100
AcDbSymbolTableRecord
100
AcDbLinetypeTableRecord
  2
AM_DIN_F_W050x2
 70
     0
  3
 _ _ _ _ _ _ _ _ _ _ _ _
 72
    65
 73
     2
 40
3.125
 49
2.25
 74
     0
 49
-0.875
 74
     0
  0
LTYPE
  5
1375
330
117B
100
AcDbSymbolTableRecord
100
AcDbLinetypeTableRecord
  2
ACDINWELD
 70
     0
  3
_ _ _ _ _
 72
    65
 73
     2
 40
2.0
 49
2.0
 74
     0
 49
-1.0
 74
     0
  0
LTYPE
  5
1376
330
117B
100
AcDbSymbolTableRecord
100
AcDbLinetypeTableRecord
  2
ACDINTGB
 70
     0
  3
__ . . __ . .
 72
    65
 73
     6
 40
9.0
 49
4.0
 74
     0
 49
-1.0
 74
     0
 49
1.0
 74
     0
 49
-1.0
 74
     0
 49
1.0
 74
     0
 49
-1.0
 74
     0
  0
LTYPE
  5
1377
330
117B
100
AcDbSymbolTableRecord
100
AcDbLinetypeTableRecord
  2
ACDINTGL
 70
     0
  3
_ _ _ _ _
 72
    65
 73
     2
 40
3.0
 49
2.0
 74
     0
 49
-1.0
 74
     0
  0
ENDTAB
  0
TABLE
  2
LAYER
  5
1178
330
0
100
AcDbSymbolTable
 70
     8
  0
LAYER
  5
1184
330
1178
100
AcDbSymbolTableRecord
100
AcDbLayerTableRecord
  2
0
 70
     0
 62
     7
  6
CONTINUOUS
370
    -3
390
12E7
  0
LAYER
  5
11A1
330
1178
100
AcDbSymbolTableRecord
100
AcDbLayerTableRecord
  2
5
 70
     0
 62
     3
  6
CONTINUOUS
370
    -3
390
12E7
  0
LAYER
  5
11A4
330
1178
100
AcDbSymbolTableRecord
100
AcDbLayerTableRecord
  2
8
 70
     0
 62
     1
  6
CONTINUOUS
370
    -3
390
12E7
  0
LAYER
  5
11A6
330
1178
100
AcDbSymbolTableRecord
100
AcDbLayerTableRecord
  2
SCHRAFFUR_RAND
 70
     0
 62
    36
  6
CONTINUOUS
370
    -3
390
12E7
  0
LAYER
  5
11D2
330
1178
100
AcDbSymbolTableRecord
100
AcDbLayerTableRecord
  2
DEFPOINTS
 70
     0
 62
     7
  6
CONTINUOUS
290
     0
370
    -3
390
12E7
  0
ENDTAB
  0
TABLE
  2
STYLE
  5
1179
330
0
100
AcDbSymbolTable
 70
     4
  0
STYLE
  5
1185
330
1179
100
AcDbSymbolTableRecord
100
AcDbTextStyleTableRecord
  2
STANDARD
 70
     0
 40
0.0
 41
1.0
 50
0.0
 71
     0
 42
5.0
  3
ISOCP.SHX
  4

  0
STYLE
  5
1360
330
1179
100
AcDbSymbolTableRecord
100
AcDbTextStyleTableRecord
  2

 70
     1
 40
0.0
 41
1.0
 50
0.0
 71
     0
 42
0.2
  3
genltshp.shx
  4

  0
STYLE
  5
1367
330
1179
100
AcDbSymbolTableRecord
100
AcDbTextStyleTableRecord
  2
ACDINTS
 70
     0
 40
1.0
 41
1.0
 50
0.0
 71
     0
 42
0.2
  3
isocp.shx
  4

  0
STYLE
  5
1374
330
1179
100
AcDbSymbolTableRecord
100
AcDbTextStyleTableRecord
  2
ACDINGDT
 70
     0
 40
0.0
 41
1.0
 50
0.0
 71
     0
 42
0.2
  3
AMGDT
  4

  0
ENDTAB
  0
TABLE
  2
VIEW
  5
117C
330
0
100
AcDbSymbolTable
 70
     6
  0
VIEW
  5
1216
330
117C
100
AcDbSymbolTableRecord
100
AcDbViewTableRecord
  2
GEN1
 70
     0
 40
525.0
 10
403.491903
 20
787.5
 41
806.983806
 11
0.0
 21
0.0
 31
1.0
 12
0.0
 22
0.0
 32
0.0
 42
50.0
 43
0.0
 44
0.0
 50
0.0
 71
     0
281
     0
 72
     0
  0
VIEW
  5
1217
330
117C
100
AcDbSymbolTableRecord
100
AcDbViewTableRecord
  2
GEN2
 70
     0
 40
525.0
 10
646.508097
 20
787.5
 41
806.983806
 11
0.0
 21
0.0
 31
1.0
 12
0.0
 22
0.0
 32
0.0
 42
50.0
 43
0.0
 44
0.0
 50
0.0
 71
     0
281
     0
 72
     0
  0
VIEW
  5
1218
330
117C
100
AcDbSymbolTableRecord
100
AcDbViewTableRecord
  2
GEN3
 70
     0
 40
525.0
 10
403.491903
 20
262.5
 41
806.983806
 11
0.0
 21
0.0
 31
1.0
 12
0.0
 22
0.0
 32
0.0
 42
50.0
 43
0.0
 44
0.0
 50
0.0
 71
     0
281
     0
 72
     0
  0
VIEW
  5
1219
330
117C
100
AcDbSymbolTableRecord
100
AcDbViewTableRecord
  2
GEN4
 70
     0
 40
525.0
 10
646.508097
 20
262.5
 41
806.983806
 11
0.0
 21
0.0
 31
1.0
 12
0.0
 22
0.0
 32
0.0
 42
50.0
 43
0.0
 44
0.0
 50
0.0
 71
     0
281
     0
 72
     0
  0
VIEW
  5
121A
330
117C
100
AcDbSymbolTableRecord
100
AcDbViewTableRecord
  2
GEN5
 70
     0
 40
525.0
 10
525.0
 20
525.0
 41
806.983806
 11
0.0
 21
0.0
 31
1.0
 12
0.0
 22
0.0
 32
0.0
 42
50.0
 43
0.0
 44
0.0
 50
0.0
 71
     0
281
     0
 72
     0
  0
VIEW
  5
121B
330
117C
100
AcDbSymbolTableRecord
100
AcDbViewTableRecord
  2
GEN6
 70
     0
 40
1049.9895
 10
525.0
 20
525.0
 41
1613.951472
 11
0.0
 21
0.0
 31
1.0
 12
0.0
 22
0.0
 32
0.0
 42
50.0
 43
0.0
 44
0.0
 50
0.0
 71
     0
281
     0
 72
     0
  0
ENDTAB
  0
TABLE
  2
UCS
  5
117D
330
0
100
AcDbSymbolTable
 70
     0
  0
ENDTAB
  0
TABLE
  2
APPID
  5
117F
330
0
100
AcDbSymbolTable
 70
    36
  0
APPID
  5
1186
330
117F
100
AcDbSymbolTableRecord
100
AcDbRegAppTableRecord
  2
ACAD
 70
     0
  0
APPID
  5
11E4
330
117F
100
AcDbSymbolTableRecord
100
AcDbRegAppTableRecord
  2
GENIUS_GENCFG_13
 70
     0
1001
GENIUS_DUMCFG0_13
1000
DUM
1001
GENIUS_GENCFG0_13
1000
GEN@INFO_POS@XLATE
1001
GENIUS_GENCFG1_13
1000
GEN@INFO_POS
1001
GENIUS_GENCFG2_13
1000
GEN@LAYER@DEFS
1001
GENIUS_GENCFG3_13
1000
GEN@LAYER@ENTSORT
1001
GENIUS_GENCFG4_13
1000
GEN
1001
GENIUS_GEVCFG0_13
1000
GEV
  0
APPID
  5
11E5
330
117F
100
AcDbSymbolTableRecord
100
AcDbRegAppTableRecord
  2
GENIUS_DUMCFG0_13
 70
     0
1001
GENIUS_GENCFG_13
1071
925124978
1000
11E5
1000
DUM
1070
     0
  0
APPID
  5
11E6
330
117F
100
AcDbSymbolTableRecord
100
AcDbRegAppTableRecord
  2
GENIUS_GENCFG0_13
 70
     0
1001
GENIUS_GENCFG_13
1071
1022849943
1000
11E6
1000
GEN@INFO_POS@XLATE
1070
     7
1000
GenCfgObject
1000
GenCfgShort
1000
GenCfgReal
1000
GenCfgBool
1000
GenCfgString
1000
GenCfgDim
1000
GenCfgAttrInf
1000
INFOPOINTS
1070
     0
1002
{
1000
GENINF14
1070
     0
1002
{
1000
2GENINF
1070
     4
1000
2
1002
{
1002
}
1000
5GENINF
1070
     4
1000
5
1002
{
1002
}
1000
7GENINF
1070
     4
1000
7
1002
{
1002
}
1000
9GENINF
1070
     4
1000
9
1002
{
1002
}
1000
11GENINF
1070
     4
1000
11
1002
{
1002
}
1000
14GENINF
1070
     4
1000
14
1002
{
1002
}
1002
}
1000
GENINF13
1070
     0
1002
{
1000
2GENINF
1070
     4
1000
2
1002
{
1002
}
1000
3GENINF
1070
     4
1000
3
1002
{
1002
}
1000
4GENINF
1070
     4
1000
4
1002
{
1002
}
1000
5GENINF
1070
     4
1000
5
1002
{
1002
}
1000
6GENINF
1070
     4
1000
6
1002
{
1002
}
1000
7GENINF
1070
     4
1000
7
1002
{
1002
}
1000
8GENINF
1070
     4
1000
8
1002
{
1002
}
1000
9GENINF
1070
     4
1000
9
1002
{
1002
}
1000
10GENINF
1070
     4
1000
10
1002
{
1002
}
1000
11GENINF
1070
     4
1000
11
1002
{
1002
}
1000
12GENINF
1070
     4
1000
12
1002
{
1002
}
1000
13GENINF
1070
     4
1000
13
1002
{
1002
}
1000
14GENINF
1070
     4
1000
14
1002
{
1002
}
1000
15GENINF
1070
     4
1000
15
1002
{
1002
}
1000
16GENINF
1070
     4
1000
16
1002
{
1002
}
1000
17GENINF
1070
     4
1000
17
1002
{
1002
}
1000
18GENINF
1070
     4
1000
18
1002
{
1002
}
1000
19GENINF
1070
     4
1000
19
1002
{
1002
}
1000
20GENINF
1070
     4
1000
20
1002
{
1002
}
1000
21GENINF
1070
     4
1000
21
1002
{
1002
}
1000
22GENINF
1070
     4
1000
22
1002
{
1002
}
1000
23GENINF
1070
     4
1000
23
1002
{
1002
}
1000
24GENINF
1070
     4
1000
24
1002
{
1002
}
1000
0GENINF
1070
     4
1000
0
1002
{
1002
}
1002
}
1000
GENINFO
1070
     0
1002
{
1000
3GENINF
1070
     4
1000
3
1002
{
1002
}
1000
4GENINF
1070
     4
1000
4
1002
{
1002
}
1000
5GENINF
1070
     4
1000
5
1002
{
1002
}
1000
6GENINF
1070
     4
1000
6
1002
{
1002
}
1000
7GENINF
1070
     4
1000
7
1002
{
1002
}
1000
8GENINF
1070
     4
1000
8
1002
{
1002
}
1000
9GENINF
1070
     4
1000
9
1002
{
1002
}
1000
10GENINF
1070
     4
1000
10
1002
{
1002
}
1000
11GENINF
1070
     4
1000
11
1002
{
1002
}
1000
12GENINF
1070
     4
1000
12
1002
{
1002
}
1000
13GENINF
1070
     4
1000
13
1002
{
1002
}
1000
14GENINF
1070
     4
1000
14
1002
{
1002
}
1000
15GENINF
1070
     4
1000
15
1002
{
1002
}
1000
16GENINF
1070
     4
1000
16
1002
{
1002
}
1000
17GENINF
1070
     4
1000
17
1002
{
1002
}
1000
18GENINF
1070
     4
1000
18
1002
{
1002
}
1000
19GENINF
1070
     4
1000
19
1002
{
1002
}
1000
20GENINF
1070
     4
1000
20
1002
{
1002
}
1000
21GENINF
1070
     4
1000
21
1002
{
1002
}
1000
22GENINF
1070
     4
1000
22
1002
{
1002
}
1002
}
1000
DININFO
1070
     0
1002
{
1000
ST-NAME1
1070
     4
1000
5
1002
{
1002
}
1000
ST-NAME2
1070
     4
1000
6
1002
{
1002
}
1000
ST-NORM1
1070
     4
1000
7
1002
{
1002
}
1000
ST-NORM2
1070
     4
1000
8
1002
{
1002
}
1000
ST-MAT1
1070
     4
1000
9
1002
{
1002
}
1000
ST-MAT2
1070
     4
1000
10
1002
{
1002
}
1002
}
1002
}
1000
POS_NUMBERS
1070
     0
1002
{
1000
GENPOS14
1070
     0
1002
{
1000
1GENPOS
1070
     4
1000
1
1002
{
1002
}
1000
2GENPOS
1070
     4
1000
2
1002
{
1002
}
1000
5GENPOS
1070
     4
1000
5
1002
{
1002
}
1000
7GENPOS
1070
     4
1000
7
1002
{
1002
}
1000
9GENPOS
1070
     4
1000
9
1002
{
1002
}
1000
11GENPOS
1070
     4
1000
11
1002
{
1002
}
1000
14GENPOS
1070
     4
1000
14
1002
{
1002
}
1002
}
1000
GENPOS13
1070
     0
1002
{
1000
1GENPOS
1070
     4
1000
1
1002
{
1002
}
1000
2GENPOS
1070
     4
1000
2
1002
{
1002
}
1000
3GENPOS
1070
     4
1000
3
1002
{
1002
}
1000
4GENPOS
1070
     4
1000
4
1002
{
1002
}
1000
5GENPOS
1070
     4
1000
5
1002
{
1002
}
1000
6GENPOS
1070
     4
1000
6
1002
{
1002
}
1000
7GENPOS
1070
     4
1000
7
1002
{
1002
}
1000
8GENPOS
1070
     4
1000
8
1002
{
1002
}
1000
9GENPOS
1070
     4
1000
9
1002
{
1002
}
1000
10GENPOS
1070
     4
1000
10
1002
{
1002
}
1000
11GENPOS
1070
     4
1000
11
1002
{
1002
}
1000
12GENPOS
1070
     4
1000
12
1002
{
1002
}
1000
13GENPOS
1070
     4
1000
13
1002
{
1002
}
1000
14GENPOS
1070
     4
1000
14
1002
{
1002
}
1000
15GENPOS
1070
     4
1000
15
1002
{
1002
}
1000
16GENPOS
1070
     4
1000
16
1002
{
1002
}
1000
17GENPOS
1070
     4
1000
17
1002
{
1002
}
1000
18GENPOS
1070
     4
1000
18
1002
{
1002
}
1000
19GENPOS
1070
     4
1000
19
1002
{
1002
}
1000
20GENPOS
1070
     4
1000
20
1002
{
1002
}
1000
21GENPOS
1070
     4
1000
21
1002
{
1002
}
1000
22GENPOS
1070
     4
1000
22
1002
{
1002
}
1000
23GENPOS
1070
     4
1000
23
1002
{
1002
}
1000
24GENPOS
1070
     4
1000
24
1002
{
1002
}
1000
0GENPOS
1070
     4
1000
0
1002
{
1002
}
1002
}
1000
GENPOS
1070
     0
1002
{
1000
1GENPOS
1070
     4
1000
1
1002
{
1002
}
1000
2GENPOS
1070
     4
1000
2
1002
{
1002
}
1000
3GENPOS
1070
     4
1000
3
1002
{
1002
}
1000
4GENPOS
1070
     4
1000
4
1002
{
1002
}
1000
5GENPOS
1070
     4
1000
5
1002
{
1002
}
1000
6GENPOS
1070
     4
1000
6
1002
{
1002
}
1000
7GENPOS
1070
     4
1000
7
1002
{
1002
}
1000
8GENPOS
1070
     4
1000
8
1002
{
1002
}
1000
9GENPOS
1070
     4
1000
9
1002
{
1002
}
1000
10GENPOS
1070
     4
1000
10
1002
{
1002
}
1000
11GENPOS
1070
     4
1000
11
1002
{
1002
}
1000
12GENPOS
1070
     4
1000
12
1002
{
1002
}
1000
13GENPOS
1070
     4
1000
13
1002
{
1002
}
1000
14GENPOS
1070
     4
1000
14
1002
{
1002
}
1000
15GENPOS
1070
     4
1000
15
1002
{
1002
}
1000
16GENPOS
1070
     4
1000
16
1002
{
1002
}
1000
17GENPOS
1070
     4
1000
17
1002
{
1002
}
1000
18GENPOS
1070
     4
1000
18
1002
{
1002
}
1000
19GENPOS
1070
     4
1000
19
1002
{
1002
}
1000
20GENPOS
1070
     4
1000
20
1002
{
1002
}
1000
21GENPOS
1070
     4
1000
21
1002
{
1002
}
1000
22GENPOS
1070
     4
1000
22
1002
{
1002
}
1000
23GENPOS
1070
     4
1000
23
1002
{
1002
}
1002
}
1000
DIN985
1070
     0
1002
{
1000
POSITION
1070
     4
1000
1
1002
{
1002
}
1000
MENGE
1070
     4
1000
2
1002
{
1002
}
1000
BLATT
1070
     4
1000
3
1002
{
1002
}
1000
BENENN
1070
     4
1000
5
1002
{
1002
}
1000
BENENN2
1070
     4
1000
6
1002
{
1002
}
1000
NORM
1070
     4
1000
7
1002
{
1002
}
1000
NORM2
1070
     4
1000
8
1002
{
1002
}
1000
WERKSTOFF
1070
     4
1000
9
1002
{
1002
}
1000
WERKSTOFF2
1070
     4
1000
10
1002
{
1002
}
1002
}
1000
DIN986
1070
     0
1002
{
1000
POSITION
1070
     4
1000
1
1002
{
1002
}
1000
MENGE
1070
     4
1000
2
1002
{
1002
}
1000
BLATT
1070
     4
1000
3
1002
{
1002
}
1000
BENENN
1070
     4
1000
5
1002
{
1002
}
1000
BENENN2
1070
     4
1000
6
1002
{
1002
}
1000
NORM
1070
     4
1000
7
1002
{
1002
}
1000
NORM2
1070
     4
1000
8
1002
{
1002
}
1000
WERKSTOFF
1070
     4
1000
9
1002
{
1002
}
1000
WERKSTOFF2
1070
     4
1000
10
1002
{
1002
}
1002
}
1000
DIN987
1070
     0
1002
{
1000
POSITION
1070
     4
1000
1
1002
{
1002
}
1000
MENGE
1070
     4
1000
2
1002
{
1002
}
1000
BLATT
1070
     4
1000
3
1002
{
1002
}
1000
BENENN
1070
     4
1000
5
1002
{
1002
}
1000
BENENN2
1070
     4
1000
6
1002
{
1002
}
1000
NORM
1070
     4
1000
7
1002
{
1002
}
1000
NORM2
1070
     4
1000
8
1002
{
1002
}
1000
WERKSTOFF
1070
     4
1000
9
1002
{
1002
}
1000
WERKSTOFF2
1070
     4
1000
10
1002
{
1002
}
1002
}
1002
}
  0
APPID
  5
11E7
330
117F
100
AcDbSymbolTableRecord
100
AcDbRegAppTableRecord
  2
GENIUS_GENCFG1_13
 70
     0
1001
GENIUS_GENCFG_13
1071
1022849943
1000
11E7
1000
GEN@INFO_POS
1070
     7
1000
GenCfgObject
1000
GenCfgShort
1000
GenCfgReal
1000
GenCfgBool
1000
GenCfgString
1000
GenCfgDim
1000
GenCfgAttrInf
1000
DescrText
1070
     4
1000
5, ,6, ,7, ,8
1002
{
1002
}
1000
DescrText2
1070
     4
1000
26
1002
{
1002
}
1000
VisibleAttr1
1070
     4
1000
1
1002
{
1002
}
1000
VisibleAttr2
1070
     4
1000
26
1002
{
1002
}
1000
UpdateBlock
1070
     3
1070
     1
1002
{
1002
}
1000
Attrib
1070
     0
1002
{
1000
0
1070
     6
1002
{
1000
Prompt
1070
     4
1000
(genmsg gendwg 103)
1002
{
1002
}
1000
Value
1070
     4
1000

1002
{
1002
}
1000
EditFlag
1070
     1
1070
     0
1002
{
1002
}
1000
PosInDDATTE
1070
     1
1070
    27
1002
{
1002
}
1000
FieldLen
1070
     1
1070
    -1
1002
{
1002
}
1002
}
1000
1
1070
     6
1002
{
1000
Prompt
1070
     4
1000
(genmsg gendwg 31)
1002
{
1002
}
1000
Value
1070
     4
1000
1
1002
{
1002
}
1000
EditFlag
1070
     1
1070
     1
1002
{
1002
}
1000
PosInDDATTE
1070
     1
1070
     1
1002
{
1002
}
1000
FieldLen
1070
     1
1070
    -1
1002
{
1002
}
1002
}
1000
2
1070
     6
1002
{
1000
Prompt
1070
     4
1000
(genmsg gendwg 32)
1002
{
1002
}
1000
Value
1070
     4
1000
1
1002
{
1002
}
1000
EditFlag
1070
     1
1070
     1
1002
{
1002
}
1000
PosInDDATTE
1070
     1
1070
     2
1002
{
1002
}
1000
FieldLen
1070
     1
1070
    -1
1002
{
1002
}
1002
}
1000
3
1070
     6
1002
{
1000
Prompt
1070
     4
1000
(genmsg gendwg 33)
1002
{
1002
}
1000
Value
1070
     4
1000

1002
{
1002
}
1000
EditFlag
1070
     1
1070
     1
1002
{
1002
}
1000
PosInDDATTE
1070
     1
1070
     3
1002
{
1002
}
1000
FieldLen
1070
     1
1070
    -1
1002
{
1002
}
1002
}
1000
4
1070
     6
1002
{
1000
Prompt
1070
     4
1000
(genmsg gendwg 34)
1002
{
1002
}
1000
Value
1070
     4
1000

1002
{
1002
}
1000
EditFlag
1070
     1
1070
     1
1002
{
1002
}
1000
PosInDDATTE
1070
     1
1070
     4
1002
{
1002
}
1000
FieldLen
1070
     1
1070
    -1
1002
{
1002
}
1002
}
1000
5
1070
     6
1002
{
1000
Prompt
1070
     4
1000
(genmsg gendwg 35)
1002
{
1002
}
1000
Value
1070
     4
1000

1002
{
1002
}
1000
EditFlag
1070
     1
1070
     1
1002
{
1002
}
1000
PosInDDATTE
1070
     1
1070
     5
1002
{
1002
}
1000
FieldLen
1070
     1
1070
    -1
1002
{
1002
}
1002
}
1000
6
1070
     6
1002
{
1000
Prompt
1070
     4
1000
(genmsg gendwg 36)
1002
{
1002
}
1000
Value
1070
     4
1000

1002
{
1002
}
1000
EditFlag
1070
     1
1070
     1
1002
{
1002
}
1000
PosInDDATTE
1070
     1
1070
     6
1002
{
1002
}
1000
FieldLen
1070
     1
1070
    -1
1002
{
1002
}
1002
}
1000
7
1070
     6
1002
{
1000
Prompt
1070
     4
1000
(genmsg gendwg 37)
1002
{
1002
}
1000
Value
1070
     4
1000

1002
{
1002
}
1000
EditFlag
1070
     1
1070
     1
1002
{
1002
}
1000
PosInDDATTE
1070
     1
1070
     7
1002
{
1002
}
1000
FieldLen
1070
     1
1070
    -1
1002
{
1002
}
1002
}
1000
8
1070
     6
1002
{
1000
Prompt
1070
     4
1000
(genmsg gendwg 38)
1002
{
1002
}
1000
Value
1070
     4
1000

1002
{
1002
}
1000
EditFlag
1070
     1
1070
     1
1002
{
1002
}
1000
PosInDDATTE
1070
     1
1070
     8
1002
{
1002
}
1000
FieldLen
1070
     1
1070
    -1
1002
{
1002
}
1002
}
1000
9
1070
     6
1002
{
1000
Prompt
1070
     4
1000
(genmsg gendwg 39)
1002
{
1002
}
1000
Value
1070
     4
1000

1002
{
1002
}
1000
EditFlag
1070
     1
1070
     1
1002
{
1002
}
1000
PosInDDATTE
1070
     1
1070
     9
1002
{
1002
}
1000
FieldLen
1070
     1
1070
    -1
1002
{
1002
}
1002
}
1000
10
1070
     6
1002
{
1000
Prompt
1070
     4
1000
(genmsg gendwg 40)
1002
{
1002
}
1000
Value
1070
     4
1000

1002
{
1002
}
1000
EditFlag
1070
     1
1070
     1
1002
{
1002
}
1000
PosInDDATTE
1070
     1
1070
    10
1002
{
1002
}
1000
FieldLen
1070
     1
1070
    -1
1002
{
1002
}
1002
}
1000
11
1070
     6
1002
{
1000
Prompt
1070
     4
1000
(genmsg gendwg 41)
1002
{
1002
}
1000
Value
1070
     4
1000

1002
{
1002
}
1000
EditFlag
1070
     1
1070
     1
1002
{
1002
}
1000
PosInDDATTE
1070
     1
1070
    11
1002
{
1002
}
1000
FieldLen
1070
     1
1070
    -1
1002
{
1002
}
1002
}
1000
12
1070
     6
1002
{
1000
Prompt
1070
     4
1000
(genmsg gendwg 42)
1002
{
1002
}
1000
Value
1070
     4
1000

1002
{
1002
}
1000
EditFlag
1070
     1
1070
     1
1002
{
1002
}
1000
PosInDDATTE
1070
     1
1070
    12
1002
{
1002
}
1000
FieldLen
1070
     1
1070
    -1
1002
{
1002
}
1002
}
1000
13
1070
     6
1002
{
1000
Prompt
1070
     4
1000
(genmsg gendwg 43)
1002
{
1002
}
1000
Value
1070
     4
1000

1002
{
1002
}
1000
EditFlag
1070
     1
1070
     1
1002
{
1002
}
1000
PosInDDATTE
1070
     1
1070
    13
1002
{
1002
}
1000
FieldLen
1070
     1
1070
    -1
1002
{
1002
}
1002
}
1000
14
1070
     6
1002
{
1000
Prompt
1070
     4
1000
(genmsg gendwg 44)
1002
{
1002
}
1000
Value
1070
     4
1000

1002
{
1002
}
1000
EditFlag
1070
     1
1070
     1
1002
{
1002
}
1000
PosInDDATTE
1070
     1
1070
    14
1002
{
1002
}
1000
FieldLen
1070
     1
1070
    -1
1002
{
1002
}
1002
}
1000
15
1070
     6
1002
{
1000
Prompt
1070
     4
1000
(genmsg gendwg 45)
1002
{
1002
}
1000
Value
1070
     4
1000

1002
{
1002
}
1000
EditFlag
1070
     1
1070
     1
1002
{
1002
}
1000
PosInDDATTE
1070
     1
1070
    15
1002
{
1002
}
1000
FieldLen
1070
     1
1070
    -1
1002
{
1002
}
1002
}
1000
16
1070
     6
1002
{
1000
Prompt
1070
     4
1000
(genmsg gendwg 46)
1002
{
1002
}
1000
Value
1070
     4
1000

1002
{
1002
}
1000
EditFlag
1070
     1
1070
     1
1002
{
1002
}
1000
PosInDDATTE
1070
     1
1070
    16
1002
{
1002
}
1000
FieldLen
1070
     1
1070
    -1
1002
{
1002
}
1002
}
1000
17
1070
     6
1002
{
1000
Prompt
1070
     4
1000
(genmsg gendwg 47)
1002
{
1002
}
1000
Value
1070
     4
1000

1002
{
1002
}
1000
EditFlag
1070
     1
1070
     1
1002
{
1002
}
1000
PosInDDATTE
1070
     1
1070
    17
1002
{
1002
}
1000
FieldLen
1070
     1
1070
    -1
1002
{
1002
}
1002
}
1000
18
1070
     6
1002
{
1000
Prompt
1070
     4
1000
(genmsg gendwg 48)
1002
{
1002
}
1000
Value
1070
     4
1000

1002
{
1002
}
1000
EditFlag
1070
     1
1070
     1
1002
{
1002
}
1000
PosInDDATTE
1070
     1
1070
    18
1002
{
1002
}
1000
FieldLen
1070
     1
1070
    -1
1002
{
1002
}
1002
}
1000
19
1070
     6
1002
{
1000
Prompt
1070
     4
1000
(genmsg gendwg 99)
1002
{
1002
}
1000
Value
1070
     4
1000

1002
{
1002
}
1000
EditFlag
1070
     1
1070
     1
1002
{
1002
}
1000
PosInDDATTE
1070
     1
1070
    19
1002
{
1002
}
1000
FieldLen
1070
     1
1070
    -1
1002
{
1002
}
1002
}
1000
20
1070
     6
1002
{
1000
Prompt
1070
     4
1000
(genmsg gendwg 100)
1002
{
1002
}
1000
Value
1070
     4
1000

1002
{
1002
}
1000
EditFlag
1070
     1
1070
     1
1002
{
1002
}
1000
PosInDDATTE
1070
     1
1070
    20
1002
{
1002
}
1000
FieldLen
1070
     1
1070
    -1
1002
{
1002
}
1002
}
1000
21
1070
     6
1002
{
1000
Prompt
1070
     4
1000
(genmsg gendwg 101)
1002
{
1002
}
1000
Value
1070
     4
1000

1002
{
1002
}
1000
EditFlag
1070
     1
1070
     1
1002
{
1002
}
1000
PosInDDATTE
1070
     1
1070
    21
1002
{
1002
}
1000
FieldLen
1070
     1
1070
    -1
1002
{
1002
}
1002
}
1000
22
1070
     6
1002
{
1000
Prompt
1070
     4
1000
(genmsg gendwg 102)
1002
{
1002
}
1000
Value
1070
     4
1000

1002
{
1002
}
1000
EditFlag
1070
     1
1070
     1
1002
{
1002
}
1000
PosInDDATTE
1070
     1
1070
    22
1002
{
1002
}
1000
FieldLen
1070
     1
1070
    -1
1002
{
1002
}
1002
}
1000
23
1070
     6
1002
{
1000
Prompt
1070
     4
1000
(genmsg gendwg 30)
1002
{
1002
}
1000
Value
1070
     4
1000

1002
{
1002
}
1000
EditFlag
1070
     1
1070
     1
1002
{
1002
}
1000
PosInDDATTE
1070
     1
1070
    23
1002
{
1002
}
1000
FieldLen
1070
     1
1070
    -1
1002
{
1002
}
1002
}
1000
24
1070
     6
1002
{
1000
Prompt
1070
     4
1000
(genmsg gendwg 104)
1002
{
1002
}
1000
Value
1070
     4
1000

1002
{
1002
}
1000
EditFlag
1070
     1
1070
     1
1002
{
1002
}
1000
PosInDDATTE
1070
     1
1070
    24
1002
{
1002
}
1000
FieldLen
1070
     1
1070
    -1
1002
{
1002
}
1002
}
1000
25
1070
     6
1002
{
1000
Prompt
1070
     4
1000
(genmsg gendwg 105)
1002
{
1002
}
1000
Value
1070
     4
1000

1002
{
1002
}
1000
EditFlag
1070
     1
1070
     1
1002
{
1002
}
1000
PosInDDATTE
1070
     1
1070
    25
1002
{
1002
}
1000
FieldLen
1070
     1
1070
    -1
1002
{
1002
}
1002
}
1000
26
1070
     6
1002
{
1000
Prompt
1070
     4
1000
(genmsg gendwg 106)
1002
{
1002
}
1000
Value
1070
     4
1000

1002
{
1002
}
1000
EditFlag
1070
     1
1070
     1
1002
{
1002
}
1000
PosInDDATTE
1070
     1
1070
    26
1002
{
1002
}
1000
FieldLen
1070
     1
1070
    -1
1002
{
1002
}
1002
}
1000
27
1070
     6
1002
{
1000
Prompt
1070
     4
1000
(genmsg gendwg 109)
1002
{
1002
}
1000
Value
1070
     4
1000

1002
{
1002
}
1000
EditFlag
1070
     1
1070
     2
1002
{
1002
}
1000
PosInDDATTE
1070
     1
1070
    27
1002
{
1002
}
1000
FieldLen
1070
     1
1070
    -1
1002
{
1002
}
1002
}
1002
}
1000
Xlate
1070
     0
1002
{
1000
>
1002
}
  0
APPID
  5
11E8
330
117F
100
AcDbSymbolTableRecord
100
AcDbRegAppTableRecord
  2
GENIUS_GENCFG2_13
 70
     0
1001
GENIUS_GENCFG_13
1071
1022849943
1000
11E8
1000
GEN@LAYER@DEFS
1070
     9
1000
GenCfgObject
1000
GenCfgShort
1000
GenCfgReal
1000
GenCfgBool
1000
GenCfgString
1000
GenCfgDim
1000
GenCfgAttrInf
1000
GenCfgLaySection
1000
GenCfgLayer
1000
Basic
1070
     0
1002
{
1000
0
1070
     8
1000
0
1002
{
1000
Color
1070
     1
1070
     7
1002
{
1002
}
1000
LType
1070
     4
1000
CONTINUOUS
1002
{
1002
}
1000
Base
1070
     3
1070
     0
1002
{
1002
}
1002
}
1000
1
1070
     8
1000
1
1002
{
1000
Color
1070
     1
1070
    14
1002
{
1002
}
1000
LType
1070
     4
1000
CONTINUOUS
1002
{
1002
}
1000
Base
1070
     3
1070
     0
1002
{
1002
}
1002
}
1000
2
1070
     8
1000
2
1002
{
1000
Color
1070
     1
1070
     5
1002
{
1002
}
1000
LType
1070
     4
1000
CONTINUOUS
1002
{
1002
}
1000
Base
1070
     3
1070
     0
1002
{
1002
}
1002
}
1000
3
1070
     8
1000
3
1002
{
1000
Color
1070
     1
1070
     6
1002
{
1002
}
1000
LType
1070
     4
1000
GEN3
1002
{
1002
}
1000
Base
1070
     3
1070
     0
1002
{
1002
}
1002
}
1000
4
1070
     8
1000
4
1002
{
1000
Color
1070
     1
1070
     3
1002
{
1002
}
1000
LType
1070
     4
1000
CONTINUOUS
1002
{
1002
}
1000
Base
1070
     3
1070
     0
1002
{
1002
}
1002
}
1000
5
1070
     8
1000
5
1002
{
1000
Color
1070
     1
1070
     3
1002
{
1002
}
1000
LType
1070
     4
1000
CONTINUOUS
1002
{
1002
}
1000
Base
1070
     3
1070
     0
1002
{
1002
}
1002
}
1000
6
1070
     8
1000
6
1002
{
1000
Color
1070
     1
1070
     2
1002
{
1002
}
1000
LType
1070
     4
1000
CONTINUOUS
1002
{
1002
}
1000
Base
1070
     3
1070
     0
1002
{
1002
}
1002
}
1000
7
1070
     8
1000
7
1002
{
1000
Color
1070
     1
1070
     4
1002
{
1002
}
1000
LType
1070
     4
1000
GEN7
1002
{
1002
}
1000
Base
1070
     3
1070
     0
1002
{
1002
}
1002
}
1000
8
1070
     8
1000
8
1002
{
1000
Color
1070
     1
1070
     1
1002
{
1002
}
1000
LType
1070
     4
1000
CONTINUOUS
1002
{
1002
}
1000
Base
1070
     3
1070
     0
1002
{
1002
}
1002
}
1000
3A
1070
     8
1000
3A
1002
{
1000
Color
1070
     1
1070
     6
1002
{
1002
}
1000
LType
1070
     4
1000
GEN3A
1002
{
1002
}
1000
Base
1070
     3
1070
     0
1002
{
1002
}
1002
}
1000
7A
1070
     8
1000
7A
1002
{
1000
Color
1070
     1
1070
     4
1002
{
1002
}
1000
LType
1070
     4
1000
GEN7A
1002
{
1002
}
1000
Base
1070
     3
1070
     0
1002
{
1002
}
1002
}
1000
2A
1070
     8
1000
2A
1002
{
1000
Color
1070
     1
1070
     7
1002
{
1002
}
1000
LType
1070
     4
1000
GEN7
1002
{
1002
}
1000
Base
1070
     3
1070
     0
1002
{
1002
}
1002
}
1000
4A
1070
     8
1000
4A
1002
{
1000
Color
1070
     1
1070
     3
1002
{
1002
}
1000
LType
1070
     4
1000
GEN4A
1002
{
1002
}
1000
Base
1070
     3
1070
     0
1002
{
1002
}
1002
}
1000
9
1070
     8
1000
9
1002
{
1000
Color
1070
     1
1070
   253
1002
{
1002
}
1000
LType
1070
     4
1000
CONTINUOUS
1002
{
1002
}
1000
Base
1070
     3
1070
     0
1002
{
1002
}
1002
}
1000
IP
1070
     8
1000
IP
1002
{
1000
Color
1070
     1
1070
     7
1002
{
1002
}
1000
LType
1070
     4
1000
CONTINUOUS
1002
{
1002
}
1000
Base
1070
     3
1070
     0
1002
{
1002
}
1002
}
1002
}
1000
Standard
1070
     0
1002
{
1000
0N
1070
     8
1000
0N
1002
{
1000
Color
1070
     1
1070
     7
1002
{
1002
}
1000
LType
1070
     4
1000
CONTINUOUS
1002
{
1002
}
1000
Base
1070
     3
1070
     0
1002
{
1002
}
1002
}
1000
1N
1070
     8
1000
1N
1002
{
1000
Color
1070
     1
1070
    14
1002
{
1002
}
1000
LType
1070
     4
1000
CONTINUOUS
1002
{
1002
}
1000
Base
1070
     3
1070
     0
1002
{
1002
}
1002
}
1000
2N
1070
     8
1000
2N
1002
{
1000
Color
1070
     1
1070
     5
1002
{
1002
}
1000
LType
1070
     4
1000
CONTINUOUS
1002
{
1002
}
1000
Base
1070
     3
1070
     0
1002
{
1002
}
1002
}
1000
3N
1070
     8
1000
3N
1002
{
1000
Color
1070
     1
1070
     6
1002
{
1002
}
1000
LType
1070
     4
1000
GEN3
1002
{
1002
}
1000
Base
1070
     3
1070
     0
1002
{
1002
}
1002
}
1000
4N
1070
     8
1000
4N
1002
{
1000
Color
1070
     1
1070
     3
1002
{
1002
}
1000
LType
1070
     4
1000
CONTINUOUS
1002
{
1002
}
1000
Base
1070
     3
1070
     0
1002
{
1002
}
1002
}
1000
5N
1070
     8
1000
5N
1002
{
1000
Color
1070
     1
1070
     3
1002
{
1002
}
1000
LType
1070
     4
1000
CONTINUOUS
1002
{
1002
}
1000
Base
1070
     3
1070
     0
1002
{
1002
}
1002
}
1000
6N
1070
     8
1000
6N
1002
{
1000
Color
1070
     1
1070
     2
1002
{
1002
}
1000
LType
1070
     4
1000
CONTINUOUS
1002
{
1002
}
1000
Base
1070
     3
1070
     0
1002
{
1002
}
1002
}
1000
7N
1070
     8
1000
7N
1002
{
1000
Color
1070
     1
1070
     4
1002
{
1002
}
1000
LType
1070
     4
1000
GEN7
1002
{
1002
}
1000
Base
1070
     3
1070
     0
1002
{
1002
}
1002
}
1000
8N
1070
     8
1000
8N
1002
{
1000
Color
1070
     1
1070
     1
1002
{
1002
}
1000
LType
1070
     4
1000
CONTINUOUS
1002
{
1002
}
1000
Base
1070
     3
1070
     0
1002
{
1002
}
1002
}
1000
3AN
1070
     8
1000
3AN
1002
{
1000
Color
1070
     1
1070
     6
1002
{
1002
}
1000
LType
1070
     4
1000
GEN3A
1002
{
1002
}
1000
Base
1070
     3
1070
     0
1002
{
1002
}
1002
}
1000
7AN
1070
     8
1000
7AN
1002
{
1000
Color
1070
     1
1070
     4
1002
{
1002
}
1000
LType
1070
     4
1000
GEN7A
1002
{
1002
}
1000
Base
1070
     3
1070
     0
1002
{
1002
}
1002
}
1000
2AN
1070
     8
1000
2AN
1002
{
1000
Color
1070
     1
1070
     7
1002
{
1002
}
1000
LType
1070
     4
1000
GEN7
1002
{
1002
}
1000
Base
1070
     3
1070
     0
1002
{
1002
}
1002
}
1000
4AN
1070
     8
1000
4AN
1002
{
1000
Color
1070
     1
1070
     3
1002
{
1002
}
1000
LType
1070
     4
1000
GEN4A
1002
{
1002
}
1000
Base
1070
     3
1070
     0
1002
{
1002
}
1002
}
1000
9N
1070
     8
1000
9N
1002
{
1000
Color
1070
     1
1070
   253
1002
{
1002
}
1000
LType
1070
     4
1000
CONTINUOUS
1002
{
1002
}
1000
Base
1070
     3
1070
     0
1002
{
1002
}
1002
}
1000
IPN
1070
     8
1000
IPN
1002
{
1000
Color
1070
     1
1070
     7
1002
{
1002
}
1000
LType
1070
     4
1000
CONTINUOUS
1002
{
1002
}
1000
Base
1070
     3
1070
     0
1002
{
1002
}
1002
}
1002
}
1000
Extra
1070
     0
1002
{
1000
Klin
1070
     8
1000
KLIN
1002
{
1000
Color
1070
     1
1070
     1
1002
{
1002
}
1000
LType
1070
     4
1000
CONTINUOUS
1002
{
1002
}
1000
Base
1070
     3
1070
     1
1002
{
1002
}
1002
}
1000
Info
1070
     8
1000
INFO
1002
{
1000
Color
1070
     1
1070
     4
1002
{
1002
}
1000
LType
1070
     4
1000
CONTINUOUS
1002
{
1002
}
1000
Base
1070
     3
1070
     1
1002
{
1002
}
1002
}
1000
Rahm2
1070
     8
1000
RAHM2
1002
{
1000
Color
1070
     1
1070
     1
1002
{
1002
}
1000
LType
1070
     4
1000
CONTINUOUS
1002
{
1002
}
1000
Base
1070
     3
1070
     1
1002
{
1002
}
1002
}
1000
Rahm3
1070
     8
1000
RAHM3
1002
{
1000
Color
1070
     1
1070
     2
1002
{
1002
}
1000
LType
1070
     4
1000
CONTINUOUS
1002
{
1002
}
1000
Base
1070
     3
1070
     1
1002
{
1002
}
1002
}
1000
Rahm5
1070
     8
1000
RAHM5
1002
{
1000
Color
1070
     1
1070
     7
1002
{
1002
}
1000
LType
1070
     4
1000
CONTINUOUS
1002
{
1002
}
1000
Base
1070
     3
1070
     1
1002
{
1002
}
1002
}
1000
View
1070
     8
1000
VIEW
1002
{
1000
Color
1070
     1
1070
     1
1002
{
1002
}
1000
LType
1070
     4
1000
CONTINUOUS
1002
{
1002
}
1000
Base
1070
     3
1070
     1
1002
{
1002
}
1002
}
1000
Behind
1070
     8
1000
BEHIND
1002
{
1000
Color
1070
     1
1070
   253
1002
{
1002
}
1000
LType
1070
     4
1000
CONTINUOUS
1002
{
1002
}
1000
Base
1070
     3
1070
     1
1002
{
1002
}
1002
}
1002
}
  0
APPID
  5
11E9
330
117F
100
AcDbSymbolTableRecord
100
AcDbRegAppTableRecord
  2
GENIUS_GENCFG3_13
 70
     0
1001
GENIUS_GENCFG_13
1071
1022849943
1000
11E9
1000
GEN@LAYER@ENTSORT
1070
    10
1000
GenCfgObject
1000
GenCfgShort
1000
GenCfgReal
1000
GenCfgBool
1000
GenCfgString
1000
GenCfgDim
1000
GenCfgAttrInf
1000
GenCfgLaySection
1000
GenCfgLayer
1000
GenCfgEntSort
1000
ADDL
1070
     9
1000
5
1002
{
1000
Class
1070
     4
1000
SYM
1002
{
1002
}
1000
Color
1070
     1
1070
     1
1002
{
1002
}
1000
LType
1070
     4
1000
BYLAYER
1002
{
1002
}
1002
}
1000
ALTR
1070
     9
1000
4
1002
{
1000
Class
1070
     4
1000

1002
{
1002
}
1000
Color
1070
     1
1070
     7
1002
{
1002
}
1000
LType
1070
     4
1000
GEN3A
1002
{
1002
}
1002
}
1000
BELI
1070
     9
1000
4
1002
{
1000
Class
1070
     4
1000

1002
{
1002
}
1000
Color
1070
     1
1070
   256
1002
{
1002
}
1000
LType
1070
     4
1000
BYLAYER
1002
{
1002
}
1002
}
1000
BHNV
1070
     9
1000
9
1002
{
1000
Class
1070
     4
1000
INV
1002
{
1002
}
1000
Color
1070
     1
1070
   256
1002
{
1002
}
1000
LType
1070
     4
1000
BYLAYER
1002
{
1002
}
1002
}
1000
BHNVS
1070
     9
1000
BEHIND
1002
{
1000
Class
1070
     4
1000
INV
1002
{
1002
}
1000
Color
1070
     1
1070
   256
1002
{
1002
}
1000
LType
1070
     4
1000
BYLAYER
1002
{
1002
}
1002
}
1000
BLID
1070
     9
1000
4A
1002
{
1000
Class
1070
     4
1000

1002
{
1002
}
1000
Color
1070
     1
1070
   256
1002
{
1002
}
1000
LType
1070
     4
1000
BYLAYER
1002
{
1002
}
1002
}
1000
BOAP
1070
     9
1000
4A
1002
{
1000
Class
1070
     4
1000

1002
{
1002
}
1000
Color
1070
     1
1070
   256
1002
{
1002
}
1000
LType
1070
     4
1000
BYLAYER
1002
{
1002
}
1002
}
1000
BOR2
1070
     9
1000
RAHM2
1002
{
1000
Class
1070
     4
1000
SPZ,SYM
1002
{
1002
}
1000
Color
1070
     1
1070
   256
1002
{
1002
}
1000
LType
1070
     4
1000
BYLAYER
1002
{
1002
}
1002
}
1000
BOR3
1070
     9
1000
RAHM3
1002
{
1000
Class
1070
     4
1000
SPZ,SYM
1002
{
1002
}
1000
Color
1070
     1
1070
   256
1002
{
1002
}
1000
LType
1070
     4
1000
BYLAYER
1002
{
1002
}
1002
}
1000
BOR5
1070
     9
1000
RAHM5
1002
{
1000
Class
1070
     4
1000
SPZ,SYM
1002
{
1002
}
1000
Color
1070
     1
1070
   256
1002
{
1002
}
1000
LType
1070
     4
1000
BYLAYER
1002
{
1002
}
1002
}
1000
BOR7
1070
     9
1000
RAHM5
1002
{
1000
Class
1070
     4
1000
SPZ,SYM
1002
{
1002
}
1000
Color
1070
     1
1070
     7
1002
{
1002
}
1000
LType
1070
     4
1000
CONTINUOUS
1002
{
1002
}
1002
}
1000
BPAP
1070
     9
1000
4A
1002
{
1000
Class
1070
     4
1000

1002
{
1002
}
1000
Color
1070
     1
1070
   256
1002
{
1002
}
1000
LType
1070
     4
1000
BYLAYER
1002
{
1002
}
1002
}
1000
BPEX
1070
     9
1000
4A
1002
{
1000
Class
1070
     4
1000

1002
{
1002
}
1000
Color
1070
     1
1070
   256
1002
{
1002
}
1000
LType
1070
     4
1000
BYLAYER
1002
{
1002
}
1002
}
1000
BTDI
1070
     9
1000
5
1002
{
1000
Class
1070
     4
1000
DIM,SYM
1002
{
1002
}
1000
Color
1070
     1
1070
   256
1002
{
1002
}
1000
LType
1070
     4
1000
BYLAYER
1002
{
1002
}
1002
}
1000
CAL2
1070
     9
1000
4
1002
{
1000
Class
1070
     4
1000
SYM
1002
{
1002
}
1000
Color
1070
     1
1070
   256
1002
{
1002
}
1000
LType
1070
     4
1000
BYLAYER
1002
{
1002
}
1002
}
1000
CAL3
1070
     9
1000
4
1002
{
1000
Class
1070
     4
1000
SYM
1002
{
1002
}
1000
Color
1070
     1
1070
     2
1002
{
1002
}
1000
LType
1070
     4
1000
BYLAYER
1002
{
1002
}
1002
}
1000
CAL5
1070
     9
1000
4
1002
{
1000
Class
1070
     4
1000
SYM
1002
{
1002
}
1000
Color
1070
     1
1070
     7
1002
{
1002
}
1000
LType
1070
     4
1000
BYLAYER
1002
{
1002
}
1002
}
1000
CAL7
1070
     9
1000
4
1002
{
1000
Class
1070
     4
1000
SYM
1002
{
1002
}
1000
Color
1070
     1
1070
     5
1002
{
1002
}
1000
LType
1070
     4
1000
BYLAYER
1002
{
1002
}
1002
}
1000
CENN
1070
     9
1000
7A
1002
{
1000
Class
1070
     4
1000
CEN
1002
{
1002
}
1000
Color
1070
     1
1070
   256
1002
{
1002
}
1000
LType
1070
     4
1000
BYLAYER
1002
{
1002
}
1002
}
1000
CENW
1070
     9
1000
7
1002
{
1000
Class
1070
     4
1000
CEN
1002
{
1002
}
1000
Color
1070
     1
1070
   256
1002
{
1002
}
1000
LType
1070
     4
1000
BYLAYER
1002
{
1002
}
1002
}
1000
CLIN
1070
     9
1000
KLIN
1002
{
1000
Class
1070
     4
1000
SPZ
1002
{
1002
}
1000
Color
1070
     1
1070
   256
1002
{
1002
}
1000
LType
1070
     4
1000
BYLAYER
1002
{
1002
}
1002
}
1000
CON1
1070
     9
1000
0
1002
{
1000
Class
1070
     4
1000
CON,BGD
1002
{
1002
}
1000
Color
1070
     1
1070
   256
1002
{
1002
}
1000
LType
1070
     4
1000
BYLAYER
1002
{
1002
}
1002
}
1000
CON2
1070
     9
1000
1
1002
{
1000
Class
1070
     4
1000
CON,BGD
1002
{
1002
}
1000
Color
1070
     1
1070
   256
1002
{
1002
}
1000
LType
1070
     4
1000
BYLAYER
1002
{
1002
}
1002
}
1000
CON3
1070
     9
1000
2
1002
{
1000
Class
1070
     4
1000
CON,BGD
1002
{
1002
}
1000
Color
1070
     1
1070
   256
1002
{
1002
}
1000
LType
1070
     4
1000
BYLAYER
1002
{
1002
}
1002
}
1000
CON4
1070
     9
1000
2
1002
{
1000
Class
1070
     4
1000
CON,BGD
1002
{
1002
}
1000
Color
1070
     1
1070
   256
1002
{
1002
}
1000
LType
1070
     4
1000
BYLAYER
1002
{
1002
}
1002
}
1000
DERP
1070
     9
1000
4
1002
{
1000
Class
1070
     4
1000

1002
{
1002
}
1000
Color
1070
     1
1070
   256
1002
{
1002
}
1000
LType
1070
     4
1000
BYLAYER
1002
{
1002
}
1002
}
1000
DETA
1070
     9
1000
4
1002
{
1000
Class
1070
     4
1000

1002
{
1002
}
1000
Color
1070
     1
1070
   256
1002
{
1002
}
1000
LType
1070
     4
1000
BYLAYER
1002
{
1002
}
1002
}
1000
DIAG
1070
     9
1000
5
1002
{
1000
Class
1070
     4
1000
SYM
1002
{
1002
}
1000
Color
1070
     1
1070
   256
1002
{
1002
}
1000
LType
1070
     4
1000
BYLAYER
1002
{
1002
}
1002
}
1000
DILI
1070
     9
1000
5
1002
{
1000
Class
1070
     4
1000
DIM,SYM
1002
{
1002
}
1000
Color
1070
     1
1070
   256
1002
{
1002
}
1000
LType
1070
     4
1000
BYLAYER
1002
{
1002
}
1002
}
1000
DITO2
1070
     9
1000
5
1002
{
1000
Class
1070
     4
1000
DIM,SYM
1002
{
1002
}
1000
Color
1070
     1
1070
     3
1002
{
1002
}
1000
LType
1070
     4
1000
BYLAYER
1002
{
1002
}
1002
}
1000
DITO3
1070
     9
1000
5
1002
{
1000
Class
1070
     4
1000
DIM,SYM
1002
{
1002
}
1000
Color
1070
     1
1070
     2
1002
{
1002
}
1000
LType
1070
     4
1000
BYLAYER
1002
{
1002
}
1002
}
1000
DITX
1070
     9
1000
5
1002
{
1000
Class
1070
     4
1000
DIM,SYM
1002
{
1002
}
1000
Color
1070
     1
1070
     2
1002
{
1002
}
1000
LType
1070
     4
1000
CONTINUOUS
1002
{
1002
}
1002
}
1000
DIXL
1070
     9
1000
5
1002
{
1000
Class
1070
     4
1000
DIM,SYM
1002
{
1002
}
1000
Color
1070
     1
1070
   256
1002
{
1002
}
1000
LType
1070
     4
1000
BYLAYER
1002
{
1002
}
1002
}
1000
EXMP
1070
     9
1000
4A
1002
{
1000
Class
1070
     4
1000

1002
{
1002
}
1000
Color
1070
     1
1070
   256
1002
{
1002
}
1000
LType
1070
     4
1000
BYLAYER
1002
{
1002
}
1002
}
1000
FEMN
1070
     9
1000
8
1002
{
1000
Class
1070
     4
1000

1002
{
1002
}
1000
Color
1070
     1
1070
   256
1002
{
1002
}
1000
LType
1070
     4
1000
BYLAYER
1002
{
1002
}
1002
}
1000
FEMPN
1070
     9
1000
8
1002
{
1000
Class
1070
     4
1000
SYM
1002
{
1002
}
1000
Color
1070
     1
1070
     3
1002
{
1002
}
1000
LType
1070
     4
1000
BYLAYER
1002
{
1002
}
1002
}
1000
FEMSP
1070
     9
1000
4A
1002
{
1000
Class
1070
     4
1000

1002
{
1002
}
1000
Color
1070
     1
1070
   256
1002
{
1002
}
1000
LType
1070
     4
1000
CONTINUOUS
1002
{
1002
}
1002
}
1000
FEMST
1070
     9
1000
4A
1002
{
1000
Class
1070
     4
1000
SYM
1002
{
1002
}
1000
Color
1070
     1
1070
     3
1002
{
1002
}
1000
LType
1070
     4
1000
BYLAYER
1002
{
1002
}
1002
}
1000
FEMVN
1070
     9
1000
2
1002
{
1000
Class
1070
     4
1000
CON
1002
{
1002
}
1000
Color
1070
     1
1070
   256
1002
{
1002
}
1000
LType
1070
     4
1000
BYLAYER
1002
{
1002
}
1002
}
1000
FEMVT
1070
     9
1000
2
1002
{
1000
Class
1070
     4
1000
SYM
1002
{
1002
}
1000
Color
1070
     1
1070
     3
1002
{
1002
}
1000
LType
1070
     4
1000
BYLAYER
1002
{
1002
}
1002
}
1000
FLAT
1070
     9
1000
0
1002
{
1000
Class
1070
     4
1000

1002
{
1002
}
1000
Color
1070
     1
1070
   256
1002
{
1002
}
1000
LType
1070
     4
1000
BYLAYER
1002
{
1002
}
1002
}
1000
FRAR
1070
     9
1000
4A
1002
{
1000
Class
1070
     4
1000

1002
{
1002
}
1000
Color
1070
     1
1070
   256
1002
{
1002
}
1000
LType
1070
     4
1000
BYLAYER
1002
{
1002
}
1002
}
1000
GRLI
1070
     9
1000
5
1002
{
1000
Class
1070
     4
1000
SYM
1002
{
1002
}
1000
Color
1070
     1
1070
   256
1002
{
1002
}
1000
LType
1070
     4
1000
BYLAYER
1002
{
1002
}
1002
}
1000
GVLI
1070
     9
1000
4A
1002
{
1000
Class
1070
     4
1000

1002
{
1002
}
1000
Color
1070
     1
1070
   256
1002
{
1002
}
1000
LType
1070
     4
1000
BYLAYER
1002
{
1002
}
1002
}
1000
HATC
1070
     9
1000
8
1002
{
1000
Class
1070
     4
1000
HTC,BGD
1002
{
1002
}
1000
Color
1070
     1
1070
   256
1002
{
1002
}
1000
LType
1070
     4
1000
BYLAYER
1002
{
1002
}
1002
}
1000
HIDN
1070
     9
1000
3A
1002
{
1000
Class
1070
     4
1000
HID,BGD
1002
{
1002
}
1000
Color
1070
     1
1070
   256
1002
{
1002
}
1000
LType
1070
     4
1000
BYLAYER
1002
{
1002
}
1002
}
1000
HIDW
1070
     9
1000
3
1002
{
1000
Class
1070
     4
1000
HID,BGD
1002
{
1002
}
1000
Color
1070
     1
1070
   256
1002
{
1002
}
1000
LType
1070
     4
1000
BYLAYER
1002
{
1002
}
1002
}
1000
HLIN
1070
     9
1000
4
1002
{
1000
Class
1070
     4
1000
BGD
1002
{
1002
}
1000
Color
1070
     1
1070
   256
1002
{
1002
}
1000
LType
1070
     4
1000
BYLAYER
1002
{
1002
}
1002
}
1000
HOCN
1070
     9
1000
7A
1002
{
1000
Class
1070
     4
1000
CEN
1002
{
1002
}
1000
Color
1070
     1
1070
   256
1002
{
1002
}
1000
LType
1070
     4
1000
BYLAYER
1002
{
1002
}
1002
}
1000
HOCW
1070
     9
1000
7
1002
{
1000
Class
1070
     4
1000
CEN
1002
{
1002
}
1000
Color
1070
     1
1070
   256
1002
{
1002
}
1000
LType
1070
     4
1000
BYLAYER
1002
{
1002
}
1002
}
1000
INFO
1070
     9
1000
INFO
1002
{
1000
Class
1070
     4
1000
SPZ,SYM
1002
{
1002
}
1000
Color
1070
     1
1070
   256
1002
{
1002
}
1000
LType
1070
     4
1000
BYLAYER
1002
{
1002
}
1002
}
1000
LADI
1070
     9
1000
4
1002
{
1000
Class
1070
     4
1000
BGD
1002
{
1002
}
1000
Color
1070
     1
1070
   256
1002
{
1002
}
1000
LType
1070
     4
1000
BYLAYER
1002
{
1002
}
1002
}
1000
LEAD
1070
     9
1000
5
1002
{
1000
Class
1070
     4
1000
SYM
1002
{
1002
}
1000
Color
1070
     1
1070
   256
1002
{
1002
}
1000
LType
1070
     4
1000
BYLAYER
1002
{
1002
}
1002
}
1000
N_ADDL
1070
     9
1000
5N
1002
{
1000
Class
1070
     4
1000
SYM
1002
{
1002
}
1000
Color
1070
     1
1070
     1
1002
{
1002
}
1000
LType
1070
     4
1000
BYLAYER
1002
{
1002
}
1002
}
1000
N_BHNV
1070
     9
1000
9N
1002
{
1000
Class
1070
     4
1000
INV
1002
{
1002
}
1000
Color
1070
     1
1070
   256
1002
{
1002
}
1000
LType
1070
     4
1000
BYLAYER
1002
{
1002
}
1002
}
1000
N_CON1
1070
     9
1000
0N
1002
{
1000
Class
1070
     4
1000
CON,BGD
1002
{
1002
}
1000
Color
1070
     1
1070
   256
1002
{
1002
}
1000
LType
1070
     4
1000
BYLAYER
1002
{
1002
}
1002
}
1000
N_CON2
1070
     9
1000
1N
1002
{
1000
Class
1070
     4
1000
CON,BGD
1002
{
1002
}
1000
Color
1070
     1
1070
   256
1002
{
1002
}
1000
LType
1070
     4
1000
BYLAYER
1002
{
1002
}
1002
}
1000
N_CON3
1070
     9
1000
2N
1002
{
1000
Class
1070
     4
1000
CON,BGD
1002
{
1002
}
1000
Color
1070
     1
1070
   256
1002
{
1002
}
1000
LType
1070
     4
1000
BYLAYER
1002
{
1002
}
1002
}
1000
N_CON4
1070
     9
1000
2N
1002
{
1000
Class
1070
     4
1000
CON,BGD
1002
{
1002
}
1000
Color
1070
     1
1070
   256
1002
{
1002
}
1000
LType
1070
     4
1000
BYLAYER
1002
{
1002
}
1002
}
1000
N_CENN
1070
     9
1000
7AN
1002
{
1000
Class
1070
     4
1000
CEN
1002
{
1002
}
1000
Color
1070
     1
1070
   256
1002
{
1002
}
1000
LType
1070
     4
1000
BYLAYER
1002
{
1002
}
1002
}
1000
N_CENW
1070
     9
1000
7N
1002
{
1000
Class
1070
     4
1000
CEN
1002
{
1002
}
1000
Color
1070
     1
1070
   256
1002
{
1002
}
1000
LType
1070
     4
1000
BYLAYER
1002
{
1002
}
1002
}
1000
N_DILI
1070
     9
1000
5N
1002
{
1000
Class
1070
     4
1000
DIM,SYM
1002
{
1002
}
1000
Color
1070
     1
1070
   256
1002
{
1002
}
1000
LType
1070
     4
1000
BYLAYER
1002
{
1002
}
1002
}
1000
N_DITX
1070
     9
1000
5N
1002
{
1000
Class
1070
     4
1000
DIM,SYM
1002
{
1002
}
1000
Color
1070
     1
1070
     2
1002
{
1002
}
1000
LType
1070
     4
1000
CONTINUOUS
1002
{
1002
}
1002
}
1000
N_DIXL
1070
     9
1000
5N
1002
{
1000
Class
1070
     4
1000
DIM,SYM
1002
{
1002
}
1000
Color
1070
     1
1070
   256
1002
{
1002
}
1000
LType
1070
     4
1000
BYLAYER
1002
{
1002
}
1002
}
1000
N_HATC
1070
     9
1000
8N
1002
{
1000
Class
1070
     4
1000
HTC,BGD
1002
{
1002
}
1000
Color
1070
     1
1070
   256
1002
{
1002
}
1000
LType
1070
     4
1000
BYLAYER
1002
{
1002
}
1002
}
1000
N_HIDN
1070
     9
1000
3AN
1002
{
1000
Class
1070
     4
1000
HID,BGD
1002
{
1002
}
1000
Color
1070
     1
1070
   256
1002
{
1002
}
1000
LType
1070
     4
1000
BYLAYER
1002
{
1002
}
1002
}
1000
N_HIDW
1070
     9
1000
3N
1002
{
1000
Class
1070
     4
1000
HID,BGD
1002
{
1002
}
1000
Color
1070
     1
1070
   256
1002
{
1002
}
1000
LType
1070
     4
1000
BYLAYER
1002
{
1002
}
1002
}
1000
N_NGIP
1070
     9
1000
IPN
1002
{
1000
Class
1070
     4
1000

1002
{
1002
}
1000
Color
1070
     1
1070
   256
1002
{
1002
}
1000
LType
1070
     4
1000
BYLAYER
1002
{
1002
}
1002
}
1000
N_PHAN
1070
     9
1000
4AN
1002
{
1000
Class
1070
     4
1000

1002
{
1002
}
1000
Color
1070
     1
1070
   256
1002
{
1002
}
1000
LType
1070
     4
1000
BYLAYER
1002
{
1002
}
1002
}
1000
N_POSL
1070
     9
1000
5N
1002
{
1000
Class
1070
     4
1000
SYM
1002
{
1002
}
1000
Color
1070
     1
1070
   256
1002
{
1002
}
1000
LType
1070
     4
1000
BYLAYER
1002
{
1002
}
1002
}
1000
N_TCON
1070
     9
1000
0N
1002
{
1000
Class
1070
     4
1000
CON,BGD
1002
{
1002
}
1000
Color
1070
     1
1070
   256
1002
{
1002
}
1000
LType
1070
     4
1000
BYLAYER
1002
{
1002
}
1002
}
1000
N_THLI
1070
     9
1000
4N
1002
{
1000
Class
1070
     4
1000
BGD
1002
{
1002
}
1000
Color
1070
     1
1070
   256
1002
{
1002
}
1000
LType
1070
     4
1000
BYLAYER
1002
{
1002
}
1002
}
1000
N_TLEN
1070
     9
1000
0N
1002
{
1000
Class
1070
     4
1000
CON,BGD
1002
{
1002
}
1000
Color
1070
     1
1070
   256
1002
{
1002
}
1000
LType
1070
     4
1000
BYLAYER
1002
{
1002
}
1002
}
1000
N_TXT3
1070
     9
1000
6N
1002
{
1000
Class
1070
     4
1000
SYM
1002
{
1002
}
1000
Color
1070
     1
1070
   256
1002
{
1002
}
1000
LType
1070
     4
1000
BYLAYER
1002
{
1002
}
1002
}
1000
N_VPLI
1070
     9
1000
2AN
1002
{
1000
Class
1070
     4
1000

1002
{
1002
}
1000
Color
1070
     1
1070
   256
1002
{
1002
}
1000
LType
1070
     4
1000
BYLAYER
1002
{
1002
}
1002
}
1000
NGIP
1070
     9
1000
IP
1002
{
1000
Class
1070
     4
1000

1002
{
1002
}
1000
Color
1070
     1
1070
   256
1002
{
1002
}
1000
LType
1070
     4
1000
BYLAYER
1002
{
1002
}
1002
}
1000
PAL2
1070
     9
1000
RAHM2
1002
{
1000
Class
1070
     4
1000
SPZ,SYM
1002
{
1002
}
1000
Color
1070
     1
1070
   256
1002
{
1002
}
1000
LType
1070
     4
1000
BYLAYER
1002
{
1002
}
1002
}
1000
PAL3
1070
     9
1000
RAHM3
1002
{
1000
Class
1070
     4
1000
SPZ,SYM
1002
{
1002
}
1000
Color
1070
     1
1070
   256
1002
{
1002
}
1000
LType
1070
     4
1000
BYLAYER
1002
{
1002
}
1002
}
1000
PAL5
1070
     9
1000
RAHM5
1002
{
1000
Class
1070
     4
1000
SPZ,SYM
1002
{
1002
}
1000
Color
1070
     1
1070
   256
1002
{
1002
}
1000
LType
1070
     4
1000
BYLAYER
1002
{
1002
}
1002
}
1000
PAL7
1070
     9
1000
RAHM5
1002
{
1000
Class
1070
     4
1000
SPZ,SYM
1002
{
1002
}
1000
Color
1070
     1
1070
     7
1002
{
1002
}
1000
LType
1070
     4
1000
CONTINUOUS
1002
{
1002
}
1002
}
1000
PHAN
1070
     9
1000
4A
1002
{
1000
Class
1070
     4
1000

1002
{
1002
}
1000
Color
1070
     1
1070
   256
1002
{
1002
}
1000
LType
1070
     4
1000
BYLAYER
1002
{
1002
}
1002
}
1000
POSL
1070
     9
1000
5
1002
{
1000
Class
1070
     4
1000
SYM
1002
{
1002
}
1000
Color
1070
     1
1070
   256
1002
{
1002
}
1000
LType
1070
     4
1000
BYLAYER
1002
{
1002
}
1002
}
1000
POSN
1070
     9
1000
6
1002
{
1000
Class
1070
     4
1000
SYM
1002
{
1002
}
1000
Color
1070
     1
1070
     7
1002
{
1002
}
1000
LType
1070
     4
1000
BYLAYER
1002
{
1002
}
1002
}
1000
POSREF
1070
     9
1000
6
1002
{
1000
Class
1070
     4
1000
SYM
1002
{
1002
}
1000
Color
1070
     1
1070
     5
1002
{
1002
}
1000
LType
1070
     4
1000
BYLAYER
1002
{
1002
}
1002
}
1000
POSX
1070
     9
1000
5
1002
{
1000
Class
1070
     4
1000
SYM
1002
{
1002
}
1000
Color
1070
     1
1070
     2
1002
{
1002
}
1000
LType
1070
     4
1000
CONTINUOUS
1002
{
1002
}
1002
}
1000
PSEC
1070
     9
1000
4A
1002
{
1000
Class
1070
     4
1000

1002
{
1002
}
1000
Color
1070
     1
1070
   256
1002
{
1002
}
1000
LType
1070
     4
1000
BYLAYER
1002
{
1002
}
1002
}
1000
RCGN
1070
     9
1000
7A
1002
{
1000
Class
1070
     4
1000
CEN
1002
{
1002
}
1000
Color
1070
     1
1070
   256
1002
{
1002
}
1000
LType
1070
     4
1000
BYLAYER
1002
{
1002
}
1002
}
1000
RCGW
1070
     9
1000
7
1002
{
1000
Class
1070
     4
1000
CEN
1002
{
1002
}
1000
Color
1070
     1
1070
   256
1002
{
1002
}
1000
LType
1070
     4
1000
BYLAYER
1002
{
1002
}
1002
}
1000
RFDI
1070
     9
1000
4
1002
{
1000
Class
1070
     4
1000
BGD
1002
{
1002
}
1000
Color
1070
     1
1070
   256
1002
{
1002
}
1000
LType
1070
     4
1000
BYLAYER
1002
{
1002
}
1002
}
1000
RQTR
1070
     9
1000
4
1002
{
1000
Class
1070
     4
1000

1002
{
1002
}
1000
Color
1070
     1
1070
     7
1002
{
1002
}
1000
LType
1070
     4
1000
GEN7A
1002
{
1002
}
1002
}
1000
RSBO
1070
     9
1000
4
1002
{
1000
Class
1070
     4
1000
BGD
1002
{
1002
}
1000
Color
1070
     1
1070
   256
1002
{
1002
}
1000
LType
1070
     4
1000
BYLAYER
1002
{
1002
}
1002
}
1000
SBRK
1070
     9
1000
4
1002
{
1000
Class
1070
     4
1000
BGD
1002
{
1002
}
1000
Color
1070
     1
1070
   256
1002
{
1002
}
1000
LType
1070
     4
1000
BYLAYER
1002
{
1002
}
1002
}
1000
SCEN
1070
     9
1000
7
1002
{
1000
Class
1070
     4
1000

1002
{
1002
}
1000
Color
1070
     1
1070
   256
1002
{
1002
}
1000
LType
1070
     4
1000
CONTINUOUS
1002
{
1002
}
1002
}
1000
SECT
1070
     9
1000
4
1002
{
1000
Class
1070
     4
1000
BGD
1002
{
1002
}
1000
Color
1070
     1
1070
   256
1002
{
1002
}
1000
LType
1070
     4
1000
BYLAYER
1002
{
1002
}
1002
}
1000
SELN
1070
     9
1000
7A
1002
{
1000
Class
1070
     4
1000

1002
{
1002
}
1000
Color
1070
     1
1070
   256
1002
{
1002
}
1000
LType
1070
     4
1000
BYLAYER
1002
{
1002
}
1002
}
1000
SELW
1070
     9
1000
7
1002
{
1000
Class
1070
     4
1000

1002
{
1002
}
1000
Color
1070
     1
1070
   256
1002
{
1002
}
1000
LType
1070
     4
1000
BYLAYER
1002
{
1002
}
1002
}
1000
SSYS
1070
     9
1000
0
1002
{
1000
Class
1070
     4
1000

1002
{
1002
}
1000
Color
1070
     1
1070
   256
1002
{
1002
}
1000
LType
1070
     4
1000
BYLAYER
1002
{
1002
}
1002
}
1000
STLI
1070
     9
1000
4
1002
{
1000
Class
1070
     4
1000

1002
{
1002
}
1000
Color
1070
     1
1070
     7
1002
{
1002
}
1000
LType
1070
     4
1000
GEN3A
1002
{
1002
}
1002
}
1000
SYB1
1070
     9
1000
5
1002
{
1000
Class
1070
     4
1000
SYM
1002
{
1002
}
1000
Color
1070
     1
1070
   256
1002
{
1002
}
1000
LType
1070
     4
1000
BYLAYER
1002
{
1002
}
1002
}
1000
SYB2
1070
     9
1000
5
1002
{
1000
Class
1070
     4
1000
SYM
1002
{
1002
}
1000
Color
1070
     1
1070
   256
1002
{
1002
}
1000
LType
1070
     4
1000
BYLAYER
1002
{
1002
}
1002
}
1000
SYB3
1070
     9
1000
6
1002
{
1000
Class
1070
     4
1000
SYM
1002
{
1002
}
1000
Color
1070
     1
1070
   256
1002
{
1002
}
1000
LType
1070
     4
1000
CONTINUOUS
1002
{
1002
}
1002
}
1000
SYB5
1070
     9
1000
5
1002
{
1000
Class
1070
     4
1000
SYM
1002
{
1002
}
1000
Color
1070
     1
1070
     7
1002
{
1002
}
1000
LType
1070
     4
1000
BYLAYER
1002
{
1002
}
1002
}
1000
SYMN
1070
     9
1000
7A
1002
{
1000
Class
1070
     4
1000
CEN
1002
{
1002
}
1000
Color
1070
     1
1070
   256
1002
{
1002
}
1000
LType
1070
     4
1000
BYLAYER
1002
{
1002
}
1002
}
1000
SYMW
1070
     9
1000
7
1002
{
1000
Class
1070
     4
1000
CEN
1002
{
1002
}
1000
Color
1070
     1
1070
   256
1002
{
1002
}
1000
LType
1070
     4
1000
BYLAYER
1002
{
1002
}
1002
}
1000
TCON
1070
     9
1000
0
1002
{
1000
Class
1070
     4
1000
CON,BGD
1002
{
1002
}
1000
Color
1070
     1
1070
   256
1002
{
1002
}
1000
LType
1070
     4
1000
BYLAYER
1002
{
1002
}
1002
}
1000
THLI
1070
     9
1000
4
1002
{
1000
Class
1070
     4
1000
BGD
1002
{
1002
}
1000
Color
1070
     1
1070
   256
1002
{
1002
}
1000
LType
1070
     4
1000
BYLAYER
1002
{
1002
}
1002
}
1000
TIT2
1070
     9
1000
RAHM2
1002
{
1000
Class
1070
     4
1000
SPZ,SYM
1002
{
1002
}
1000
Color
1070
     1
1070
   256
1002
{
1002
}
1000
LType
1070
     4
1000
BYLAYER
1002
{
1002
}
1002
}
1000
TIT3
1070
     9
1000
RAHM3
1002
{
1000
Class
1070
     4
1000
SPZ,SYM
1002
{
1002
}
1000
Color
1070
     1
1070
   256
1002
{
1002
}
1000
LType
1070
     4
1000
BYLAYER
1002
{
1002
}
1002
}
1000
TIT5
1070
     9
1000
RAHM5
1002
{
1000
Class
1070
     4
1000
SPZ,SYM
1002
{
1002
}
1000
Color
1070
     1
1070
   256
1002
{
1002
}
1000
LType
1070
     4
1000
BYLAYER
1002
{
1002
}
1002
}
1000
TIT7
1070
     9
1000
RAHM5
1002
{
1000
Class
1070
     4
1000
SPZ,SYM
1002
{
1002
}
1000
Color
1070
     1
1070
     7
1002
{
1002
}
1000
LType
1070
     4
1000
CONTINUOUS
1002
{
1002
}
1002
}
1000
TLEN
1070
     9
1000
0
1002
{
1000
Class
1070
     4
1000
CON,BGD
1002
{
1002
}
1000
Color
1070
     1
1070
   256
1002
{
1002
}
1000
LType
1070
     4
1000
BYLAYER
1002
{
1002
}
1002
}
1000
TRKN
1070
     9
1000
7A
1002
{
1000
Class
1070
     4
1000

1002
{
1002
}
1000
Color
1070
     1
1070
   256
1002
{
1002
}
1000
LType
1070
     4
1000
BYLAYER
1002
{
1002
}
1002
}
1000
TRKW
1070
     9
1000
7
1002
{
1000
Class
1070
     4
1000

1002
{
1002
}
1000
Color
1070
     1
1070
   256
1002
{
1002
}
1000
LType
1070
     4
1000
BYLAYER
1002
{
1002
}
1002
}
1000
TRLI
1070
     9
1000
4
1002
{
1000
Class
1070
     4
1000
BGD
1002
{
1002
}
1000
Color
1070
     1
1070
   256
1002
{
1002
}
1000
LType
1070
     4
1000
BYLAYER
1002
{
1002
}
1002
}
1000
TXT1
1070
     9
1000
6
1002
{
1000
Class
1070
     4
1000
SYM
1002
{
1002
}
1000
Color
1070
     1
1070
     2
1002
{
1002
}
1000
LType
1070
     4
1000
BYLAYER
1002
{
1002
}
1002
}
1000
TXT2
1070
     9
1000
6
1002
{
1000
Class
1070
     4
1000
SYM
1002
{
1002
}
1000
Color
1070
     1
1070
     2
1002
{
1002
}
1000
LType
1070
     4
1000
BYLAYER
1002
{
1002
}
1002
}
1000
TXT3
1070
     9
1000
6
1002
{
1000
Class
1070
     4
1000
SYM
1002
{
1002
}
1000
Color
1070
     1
1070
   256
1002
{
1002
}
1000
LType
1070
     4
1000
BYLAYER
1002
{
1002
}
1002
}
1000
TXT5
1070
     9
1000
6
1002
{
1000
Class
1070
     4
1000
SYM
1002
{
1002
}
1000
Color
1070
     1
1070
     7
1002
{
1002
}
1000
LType
1070
     4
1000
BYLAYER
1002
{
1002
}
1002
}
1000
TXT7
1070
     9
1000
6
1002
{
1000
Class
1070
     4
1000
SYM
1002
{
1002
}
1000
Color
1070
     1
1070
     7
1002
{
1002
}
1000
LType
1070
     4
1000
BYLAYER
1002
{
1002
}
1002
}
1000
VIEW
1070
     9
1000
VIEW
1002
{
1000
Class
1070
     4
1000
SPZ
1002
{
1002
}
1000
Color
1070
     1
1070
   256
1002
{
1002
}
1000
LType
1070
     4
1000
BYLAYER
1002
{
1002
}
1002
}
1000
VPLI
1070
     9
1000
2A
1002
{
1000
Class
1070
     4
1000

1002
{
1002
}
1000
Color
1070
     1
1070
   256
1002
{
1002
}
1000
LType
1070
     4
1000
BYLAYER
1002
{
1002
}
1002
}
1000
ZIZA
1070
     9
1000
4
1002
{
1000
Class
1070
     4
1000
BGD
1002
{
1002
}
1000
Color
1070
     1
1070
   256
1002
{
1002
}
1000
LType
1070
     4
1000
GENZIGZAG
1002
{
1002
}
1002
}
  0
APPID
  5
11EA
330
117F
100
AcDbSymbolTableRecord
100
AcDbRegAppTableRecord
  2
GENIUS_GENCFG4_13
 70
     0
1001
GENIUS_GENCFG_13
1071
1022849950
1000
11EA
1000
GEN
1070
     9
1000
GenCfgObject
1000
GenCfgShort
1000
GenCfgReal
1000
GenCfgBool
1000
GenCfgString
1000
GenCfgDim
1000
GenCfgLaySection
1000
GenCfgLType
1000
GenCfgFilter
1000
Balloon
1070
     0
1002
{
1000
GenIF
1070
     1
1070
     0
1002
{
1002
}
1000
GenPosInc
1070
     1
1070
     1
1002
{
1002
}
1000
GenPosBlk
1070
     1
1070
     8
1002
{
1002
}
1000
GenPosVar
1070
     1
1070
     0
1002
{
1002
}
1000
GenZiCir
1070
     2
1040
1.5
1002
{
1002
}
1000
MaxCharForCenteredText
1070
     1
1070
    30
1002
{
1002
}
1000
Snap
1070
     0
1002
{
1000
ActivationRadius
1070
     2
1040
1.0
1002
{
1002
}
1000
M
1070
     0
1002
{
1000
SnapStepX
1070
     2
1040
20.0
1002
{
1002
}
1000
SnapStepY
1070
     2
1040
10.0
1002
{
1002
}
1002
}
1000
I
1070
     0
1002
{
1000
SnapStepX
1070
     2
1040
1.0
1002
{
1002
}
1000
SnapStepY
1070
     2
1040
0.5
1002
{
1002
}
1002
}
1002
}
1002
}
1000
Centerline
1070
     0
1002
{
1000
ScaleNot
1070
     3
1070
     0
1002
{
1002
}
1000
M
1070
     0
1002
{
1000
GenCenAng
1070
     4
1000
45|90|135
1002
{
1002
}
1000
GenCenDia
1070
     2
1040
10.0
1002
{
1002
}
1000
GenCenDias
1070
     4
1000
10|20|30
1002
{
1002
}
1000
GenCenDist
1070
     2
1040
3.0
1002
{
1002
}
1000
GenCenLen
1070
     2
1040
10.0
1002
{
1002
}
1000
GenCenOff
1070
     2
1040
10.0
1002
{
1002
}
1002
}
1000
I
1070
     0
1002
{
1000
GenCenAng
1070
     4
1000
45|90|135
1002
{
1002
}
1000
GenCenDia
1070
     2
1040
0.5
1002
{
1002
}
1000
GenCenDias
1070
     4
1000
0.5|1.0|1.5
1002
{
1002
}
1000
GenCenDist
1070
     2
1040
0.125
1002
{
1002
}
1000
GenCenLen
1070
     2
1040
0.5
1002
{
1002
}
1000
GenCenOff
1070
     2
1040
0.5
1002
{
1002
}
1002
}
1002
}
1000
CLine
1070
     0
1002
{
1000
CAngArray
1070
     4
1000
30|45|60
1002
{
1002
}
1000
Typ
1070
     4
1000
XLINE
1002
{
1002
}
1000
M
1070
     0
1002
{
1000
CLinArray
1070
     4
1000
10|20|30
1002
{
1002
}
1002
}
1000
I
1070
     0
1002
{
1000
CLinArray
1070
     4
1000
0.125|0.25|0.5
1002
{
1002
}
1002
}
1002
}
1000
Detail
1070
     0
1002
{
1002
}
1000
Dimension
1070
     5
1002
{
1000
DIMALT
1070
     1
1070
     0
1002
{
1002
}
1000
DIMALTD
1070
     1
1070
     2
1002
{
1002
}
1000
DIMALTTD
1070
     1
1070
     4
1002
{
1002
}
1000
DIMALTTZ
1070
     1
1070
     0
1002
{
1002
}
1000
DIMALTU
1070
     1
1070
     2
1002
{
1002
}
1000
DIMALTZ
1070
     1
1070
     0
1002
{
1002
}
1000
DIMAUNIT
1070
     1
1070
     0
1002
{
1002
}
1000
DIMBLK
1070
     4
1000

1002
{
1002
}
1000
DIMBLK1
1070
     4
1000

1002
{
1002
}
1000
DIMBLK2
1070
     4
1000

1002
{
1002
}
1000
DIMCLRD
1070
     1
1070
   256
1002
{
1002
}
1000
DIMCLRE
1070
     1
1070
   256
1002
{
1002
}
1000
DIMCLRT
1070
     1
1070
     2
1002
{
1002
}
1000
DIMDLE
1070
     2
1040
0.0
1002
{
1002
}
1000
DIMFIT
1070
     1
1070
     3
1002
{
1002
}
1000
DIMJUST
1070
     1
1070
     0
1002
{
1002
}
1000
DIMLFAC
1070
     2
1040
1.0
1002
{
1002
}
1000
DIMLIM
1070
     1
1070
     0
1002
{
1002
}
1000
DIMPOST
1070
     4
1000

1002
{
1002
}
1000
DIMRND
1070
     2
1040
0.0
1002
{
1002
}
1000
DIMSAH
1070
     1
1070
     0
1002
{
1002
}
1000
DIMSCALE
1070
     2
1040
1.0
1002
{
1002
}
1000
DIMSD1
1070
     1
1070
     0
1002
{
1002
}
1000
DIMSD2
1070
     1
1070
     0
1002
{
1002
}
1000
DIMSE1
1070
     1
1070
     0
1002
{
1002
}
1000
DIMSE2
1070
     1
1070
     0
1002
{
1002
}
1000
DIMSOXD
1070
     1
1070
     0
1002
{
1002
}
1000
DIMTAD
1070
     1
1070
     0
1002
{
1002
}
1000
DIMTFAC
1070
     2
1040
0.71
1002
{
1002
}
1000
DIMTIH
1070
     1
1070
     0
1002
{
1002
}
1000
DIMTIX
1070
     1
1070
     0
1002
{
1002
}
1000
DIMTM
1070
     2
1040
0.1
1002
{
1002
}
1000
DIMTOFL
1070
     1
1070
     0
1002
{
1002
}
1000
DIMTOH
1070
     1
1070
     0
1002
{
1002
}
1000
DIMTOL
1070
     1
1070
     0
1002
{
1002
}
1000
DIMTOLJ
1070
     1
1070
     1
1002
{
1002
}
1000
DIMTP
1070
     2
1040
0.1
1002
{
1002
}
1000
DIMTSZ
1070
     2
1040
0.0
1002
{
1002
}
1000
DIMTVP
1070
     2
1040
0.0
1002
{
1002
}
1000
DIMTXSTY
1070
     4
1000
STANDARD
1002
{
1002
}
1000
DIMTZIN
1070
     1
1070
     0
1002
{
1002
}
1000
DIMUNIT
1070
     1
1070
     2
1002
{
1002
}
1000
DIMUPT
1070
     1
1070
     0
1002
{
1002
}
1000
M
1070
     0
1002
{
1000
DIMALTF
1070
     2
1040
0.03937
1002
{
1002
}
1000
DIMAPOST
1070
     4
1000
"
1002
{
1002
}
1000
DIMASZ
1070
     2
1040
2.5
1002
{
1002
}
1000
DIMCEN
1070
     2
1040
0.0
1002
{
1002
}
1000
DIMDEC
1070
     1
1070
     2
1002
{
1002
}
1000
DIMDLI
1070
     2
1040
7.0
1002
{
1002
}
1000
DIMEXE
1070
     2
1040
1.0
1002
{
1002
}
1000
DIMEXO
1070
     2
1040
1.0
1002
{
1002
}
1000
DIMGAP
1070
     2
1040
0.6
1002
{
1002
}
1000
DIMTDEC
1070
     1
1070
     3
1002
{
1002
}
1000
DIMTXT
1070
     2
1040
3.5
1002
{
1002
}
1000
DIMZIN
1070
     1
1070
     8
1002
{
1002
}
1002
}
1000
I
1070
     0
1002
{
1000
DIMALTF
1070
     2
1040
25.4
1002
{
1002
}
1000
DIMAPOST
1070
     4
1000
mm
1002
{
1002
}
1000
DIMASZ
1070
     2
1040
0.1
1002
{
1002
}
1000
DIMCEN
1070
     2
1040
0.0
1002
{
1002
}
1000
DIMDEC
1070
     1
1070
     4
1002
{
1002
}
1000
DIMDLI
1070
     2
1040
0.5
1002
{
1002
}
1000
DIMEXE
1070
     2
1040
0.1
1002
{
1002
}
1000
DIMEXO
1070
     2
1040
0.05
1002
{
1002
}
1000
DIMGAP
1070
     2
1040
0.06
1002
{
1002
}
1000
DIMTDEC
1070
     1
1070
     4
1002
{
1002
}
1000
DIMTXT
1070
     2
1040
0.12
1002
{
1002
}
1000
DIMZIN
1070
     1
1070
     7
1002
{
1002
}
1002
}
1000
GEN-ISO
1070
     5
1002
{
1000
NAME
1070
     4
1000
GEN-ISO
1002
{
1002
}
1000
DIMTAD
1070
     1
1070
     1
1002
{
1002
}
1000
DIMTOLJ
1070
     1
1070
     0
1002
{
1002
}
1000
DIMTOFL
1070
     1
1070
     1
1002
{
1002
}
1000
M
1070
     0
1002
{
1002
}
1000
I
1070
     0
1002
{
1002
}
1002
}
1000
GEN-ISO-POS
1070
     5
1002
{
1000
NAME
1070
     4
1000
GEN-ISO-POS
1002
{
1002
}
1000
DIMTOLJ
1070
     1
1070
     0
1002
{
1002
}
1000
DIMTXSTY
1070
     4
1000
STANDARD
1002
{
1002
}
1000
M
1070
     0
1002
{
1000
DIMASZ
1070
     2
1040
2.5
1002
{
1002
}
1000
DIMGAP
1070
     2
1040
1.5
1002
{
1002
}
1000
DIMTXT
1070
     2
1040
5.0
1002
{
1002
}
1002
}
1000
I
1070
     0
1002
{
1000
DIMASZ
1070
     2
1040
0.1
1002
{
1002
}
1000
DIMGAP
1070
     2
1040
0.06
1002
{
1002
}
1000
DIMTXT
1070
     2
1040
0.2
1002
{
1002
}
1002
}
1002
}
1000
GEN-ISO-CIR
1070
     5
1002
{
1000
NAME
1070
     4
1000
GEN-ISO$3
1002
{
1002
}
1000
DIMFIT
1070
     1
1070
     0
1002
{
1002
}
1000
DIMTAD
1070
     1
1070
     1
1002
{
1002
}
1000
DIMTOH
1070
     1
1070
     1
1002
{
1002
}
1000
DIMTOLJ
1070
     1
1070
     0
1002
{
1002
}
1000
DIMUPT
1070
     1
1070
     1
1002
{
1002
}
1000
M
1070
     0
1002
{
1002
}
1000
I
1070
     0
1002
{
1002
}
1002
}
1000
GEN-ISO-RAD
1070
     5
1002
{
1000
NAME
1070
     4
1000
GEN-ISO$4
1002
{
1002
}
1000
DIMFIT
1070
     1
1070
     0
1002
{
1002
}
1000
DIMTAD
1070
     1
1070
     1
1002
{
1002
}
1000
DIMTIH
1070
     1
1070
     0
1002
{
1002
}
1000
DIMTIX
1070
     1
1070
     0
1002
{
1002
}
1000
DIMTOH
1070
     1
1070
     1
1002
{
1002
}
1000
DIMTOLJ
1070
     1
1070
     0
1002
{
1002
}
1000
DIMTOFL
1070
     1
1070
     0
1002
{
1002
}
1000
DIMUPT
1070
     1
1070
     1
1002
{
1002
}
1000
M
1070
     0
1002
{
1002
}
1000
I
1070
     0
1002
{
1002
}
1002
}
1000
GEN-ISO-ORD
1070
     5
1002
{
1000
NAME
1070
     4
1000
GEN-ISO$6
1002
{
1002
}
1000
DIMTOLJ
1070
     1
1070
     0
1002
{
1002
}
1000
M
1070
     0
1002
{
1002
}
1000
I
1070
     0
1002
{
1002
}
1002
}
1000
GEN-ISO-AXE-F
1070
     5
1002
{
1000
NAME
1070
     4
1000
GEN-ISO-AXE-F
1002
{
1002
}
1000
DIMSE1
1070
     1
1070
     1
1002
{
1002
}
1000
DIMSE2
1070
     1
1070
     1
1002
{
1002
}
1000
DIMTAD
1070
     1
1070
     1
1002
{
1002
}
1000
DIMTOLJ
1070
     1
1070
     0
1002
{
1002
}
1000
DIMTOFL
1070
     1
1070
     1
1002
{
1002
}
1000
M
1070
     0
1002
{
1002
}
1000
I
1070
     0
1002
{
1002
}
1002
}
1000
GEN-ISO-AXE-H
1070
     5
1002
{
1000
NAME
1070
     4
1000
GEN-ISO-AXE-H
1002
{
1002
}
1000
DIMBLK1
1070
     4
1000
GENAXEH
1002
{
1002
}
1000
DIMLFAC
1070
     2
1040
2.0
1002
{
1002
}
1000
DIMSAH
1070
     1
1070
     1
1002
{
1002
}
1000
DIMSE1
1070
     1
1070
     1
1002
{
1002
}
1000
DIMSE2
1070
     1
1070
     1
1002
{
1002
}
1000
DIMTAD
1070
     1
1070
     1
1002
{
1002
}
1000
DIMTOLJ
1070
     1
1070
     0
1002
{
1002
}
1000
DIMTOFL
1070
     1
1070
     1
1002
{
1002
}
1000
M
1070
     0
1002
{
1002
}
1000
I
1070
     0
1002
{
1002
}
1002
}
1000
GEN-ANSI
1070
     5
1002
{
1000
NAME
1070
     4
1000
GEN-ANSI
1002
{
1002
}
1000
DIMTIH
1070
     1
1070
     1
1002
{
1002
}
1000
DIMTOH
1070
     1
1070
     1
1002
{
1002
}
1000
DIMTAD
1070
     1
1070
     0
1002
{
1002
}
1000
DIMTOLJ
1070
     1
1070
     1
1002
{
1002
}
1000
M
1070
     0
1002
{
1002
}
1000
I
1070
     0
1002
{
1002
}
1002
}
1000
GEN-ANSI-POS
1070
     5
1002
{
1000
NAME
1070
     4
1000
GEN-ANSI-POS
1002
{
1002
}
1000
DIMTOLJ
1070
     1
1070
     1
1002
{
1002
}
1000
DIMTXSTY
1070
     4
1000
STANDARD
1002
{
1002
}
1000
M
1070
     0
1002
{
1000
DIMASZ
1070
     2
1040
2.5
1002
{
1002
}
1000
DIMGAP
1070
     2
1040
1.5
1002
{
1002
}
1000
DIMTXT
1070
     2
1040
5.0
1002
{
1002
}
1002
}
1000
I
1070
     0
1002
{
1000
DIMASZ
1070
     2
1040
0.1
1002
{
1002
}
1000
DIMGAP
1070
     2
1040
0.06
1002
{
1002
}
1000
DIMTXT
1070
     2
1040
0.2
1002
{
1002
}
1002
}
1002
}
1000
GEN-ANSI-CIR
1070
     5
1002
{
1000
NAME
1070
     4
1000
GEN-ANSI$3
1002
{
1002
}
1000
DIMFIT
1070
     1
1070
     0
1002
{
1002
}
1000
DIMTAD
1070
     1
1070
     0
1002
{
1002
}
1000
DIMTIH
1070
     1
1070
     1
1002
{
1002
}
1000
DIMTIX
1070
     1
1070
     0
1002
{
1002
}
1000
DIMTOFL
1070
     1
1070
     0
1002
{
1002
}
1000
DIMTOH
1070
     1
1070
     1
1002
{
1002
}
1000
DIMTOLJ
1070
     1
1070
     1
1002
{
1002
}
1000
DIMUPT
1070
     1
1070
     1
1002
{
1002
}
1000
M
1070
     0
1002
{
1002
}
1000
I
1070
     0
1002
{
1002
}
1002
}
1000
GEN-ANSI-RAD
1070
     5
1002
{
1000
NAME
1070
     4
1000
GEN-ANSI$4
1002
{
1002
}
1000
DIMFIT
1070
     1
1070
     0
1002
{
1002
}
1000
DIMTAD
1070
     1
1070
     0
1002
{
1002
}
1000
DIMTIH
1070
     1
1070
     1
1002
{
1002
}
1000
DIMTIX
1070
     1
1070
     0
1002
{
1002
}
1000
DIMTOFL
1070
     1
1070
     0
1002
{
1002
}
1000
DIMTOH
1070
     1
1070
     1
1002
{
1002
}
1000
DIMTOLJ
1070
     1
1070
     1
1002
{
1002
}
1000
DIMUPT
1070
     1
1070
     1
1002
{
1002
}
1000
M
1070
     0
1002
{
1002
}
1000
I
1070
     0
1002
{
1002
}
1002
}
1000
GEN-ANSI-ORD
1070
     5
1002
{
1000
NAME
1070
     4
1000
GEN-ANSI$6
1002
{
1002
}
1000
DIMTAD
1070
     1
1070
     0
1002
{
1002
}
1000
DIMTIH
1070
     1
1070
     1
1002
{
1002
}
1000
DIMTOH
1070
     1
1070
     1
1002
{
1002
}
1000
DIMTOLJ
1070
     1
1070
     1
1002
{
1002
}
1000
M
1070
     0
1002
{
1002
}
1000
I
1070
     0
1002
{
1002
}
1002
}
1000
GEN-ANSI-AXE-F
1070
     5
1002
{
1000
NAME
1070
     4
1000
GEN-ANSI-AXE-F
1002
{
1002
}
1000
DIMBLK1
1070
     4
1000
GENAXEH
1002
{
1002
}
1000
DIMSAH
1070
     1
1070
     1
1002
{
1002
}
1000
DIMSE1
1070
     1
1070
     1
1002
{
1002
}
1000
DIMSE2
1070
     1
1070
     1
1002
{
1002
}
1000
DIMTAD
1070
     1
1070
     0
1002
{
1002
}
1000
DIMTIH
1070
     1
1070
     1
1002
{
1002
}
1000
DIMTOH
1070
     1
1070
     1
1002
{
1002
}
1000
DIMTOLJ
1070
     1
1070
     1
1002
{
1002
}
1000
M
1070
     0
1002
{
1002
}
1000
I
1070
     0
1002
{
1002
}
1002
}
1000
GEN-ANSI-AXE-H
1070
     5
1002
{
1000
NAME
1070
     4
1000
GEN-ANSI-AXE-H
1002
{
1002
}
1000
DIMBLK1
1070
     4
1000
GENAXEH
1002
{
1002
}
1000
DIMLFAC
1070
     2
1040
2.0
1002
{
1002
}
1000
DIMSAH
1070
     1
1070
     1
1002
{
1002
}
1000
DIMSE1
1070
     1
1070
     1
1002
{
1002
}
1000
DIMSE2
1070
     1
1070
     1
1002
{
1002
}
1000
DIMTAD
1070
     1
1070
     0
1002
{
1002
}
1000
DIMTOFL
1070
     1
1070
     1
1002
{
1002
}
1000
DIMTOLJ
1070
     1
1070
     1
1002
{
1002
}
1000
M
1070
     0
1002
{
1002
}
1000
I
1070
     0
1002
{
1002
}
1002
}
1002
}
1000
DimSet
1070
     0
1002
{
1000
ChainSum
1070
     3
1070
     0
1002
{
1002
}
1000
DimDclTyp0
1070
     4
1000
dim23
1002
{
1002
}
1000
HorBra
1070
     3
1070
     0
1002
{
1002
}
1000
StrDia
1070
     4
1000
%%c<>
1002
{
1002
}
1000
StrRad
1070
     4
1000
R<>
1002
{
1002
}
1000
TextMinus
1070
     4
1000
<>
1002
{
1002
}
1000
TextPlus
1070
     4
1000
<>
1002
{
1002
}
1000
M
1070
     0
1002
{
1000
DimdliFirst
1070
     2
1040
10.0
1002
{
1002
}
1000
PointMakeDist
1070
     2
1040
10.0
1002
{
1002
}
1002
}
1000
I
1070
     0
1002
{
1000
DimdliFirst
1070
     2
1040
0.5
1002
{
1002
}
1000
PointMakeDist
1070
     2
1040
0.5
1002
{
1002
}
1002
}
1000
FitGrade
1070
     4
1000
h7
1002
{
1002
}
1002
}
1000
Drawing
1070
     0
1002
{
1000
ChamferDimMode
1070
     1
1070
     2
1002
{
1002
}
1000
Gen_Fiso
1070
    -3
1040
1.0
1002
{
1002
}
1000
GenDimStil
1070
     4
1000
ISO
1002
{
1002
}
1000
GenDwgUScale
1070
     2
1040
1.0
1002
{
1002
}
1000
GenInch
1070
     4
1000
M
1002
{
1002
}
1000
GenPlotScale
1070
     4
1000
1:5
1002
{
1002
}
1000
Revisi
1070
     4
1000
0
1002
{
1002
}
1000
Version
1070
    -5
1000
14.01/Apr  1 1998
1002
{
1002
}
1000
Platform
1070
    -5
1000
WINNT
1002
{
1002
}
1002
}
1000
DwgVar
1070
     0
1002
{
1000
M
1070
     0
1002
{
1002
}
1000
I
1070
     0
1002
{
1002
}
1002
}
1000
Hatch
1070
     0
1002
{
1000
GenHtcFlag
1070
     3
1070
     0
1002
{
1002
}
1002
}
1000
Info_Pos
1070
     0
1002
{
1000
>
1002
}
1000
Layer
1070
     6
1002
{
1000
Defs
1070
     0
1002
{
1000
>
1002
}
1000
EntSort
1070
     0
1002
{
1000
>
1002
}
1000
Match
1070
     0
1002
{
1002
}
1000
Settings
1070
     0
1002
{
1000
FocGrNC
1070
     3
1070
     0
1002
{
1002
}
1000
FocGrLo
1070
     3
1070
     0
1002
{
1002
}
1000
FocLoNC
1070
     3
1070
     0
1002
{
1002
}
1000
FocusCol
1070
     1
1070
   253
1002
{
1002
}
1000
GenStdLG
1070
     4
1000

1002
{
1002
}
1000
LayMatch
1070
     3
1070
     0
1002
{
1002
}
1000
LgOff
1070
     3
1070
     0
1002
{
1002
}
1000
CurLG
1070
    -5
1000

1002
{
1002
}
1002
}
1002
}
1000
LType
1070
     0
1002
{
1000
GEN3
1070
     7
1000
genius.lin
1002
{
1002
}
1000
GEN7
1070
     7
1000
genius.lin
1002
{
1002
}
1000
GEN4A
1070
     7
1000
genius.lin
1002
{
1002
}
1000
GEN3A
1070
     7
1000
genius.lin
1002
{
1002
}
1000
GEN7A
1070
     7
1000
genius.lin
1002
{
1002
}
1000
GENZIGZAG
1070
     7
1000
genius.lin
1002
{
1002
}
1002
}
1000
Objecter
1070
     0
1002
{
1000
CreateGroups
1070
     3
1070
     0
1002
{
1002
}
1000
LaySwitch
1070
     3
1070
     1
1002
{
1002
}
1000
LastObj
1070
    -5
1000
121D
1002
{
1002
}
1000
TimeStamp
1070
    -5
1000
20020531.14585871
1002
{
1002
}
1002
}
1000
OSWiz
1070
     0
1002
{
1000
Filter
1070
     0
1002
{
1000
HATCH
1070
     8
1002
{
1000
EntityType
1070
     4
1000
LINE
1002
{
1002
}
1000
Layer
1070
     4
1000
8,8N,*-8,*-8N
1002
{
1002
}
1000
Linetype
1070
     4
1000
*
1002
{
1002
}
1000
Color
1070
     4
1000
*
1002
{
1002
}
1000
ApplyInDims
1070
     3
1070
     1
1002
{
1002
}
1002
}
1000
SYMBOLS
1070
     8
1002
{
1000
EntityType
1070
     4
1000
*
1002
{
1002
}
1000
Layer
1070
     4
1000
[5-6],[5-6]N,*-[5-6],*-[5-6]N
1002
{
1002
}
1000
Linetype
1070
     4
1000
*
1002
{
1002
}
1000
Color
1070
     4
1000
*
1002
{
1002
}
1000
ApplyInDims
1070
     3
1070
     1
1002
{
1002
}
1002
}
1000
FEM
1070
     8
1002
{
1000
EntityType
1070
     4
1000
*
1002
{
1002
}
1000
Layer
1070
     4
1000
4A,4AN,*-4A,*-4AN
1002
{
1002
}
1000
Linetype
1070
     4
1000
*
1002
{
1002
}
1000
Color
1070
     4
1000
*
1002
{
1002
}
1000
ApplyInDims
1070
     3
1070
     1
1002
{
1002
}
1002
}
1002
}
1002
}
1000
PaList
1070
     0
1002
{
1000
AutoUpdatePartList
1070
     1
1070
     0
1002
{
1002
}
1000
ReadInfoPoint
1070
     3
1070
     0
1002
{
1002
}
1000
ReadPosNr
1070
     3
1070
     1
1002
{
1002
}
1000
RevStr
1070
     4
1000
0
1002
{
1002
}
1002
}
1000
Paper
1070
     0
1002
{
1002
}
1000
PartDB
1070
     0
1002
{
1000
GenDbOwner
1070
     4
1000

1002
{
1002
}
1002
}
1000
System
1070
     0
1002
{
1000
Menu
1070
     4
1000
GEV
1002
{
1002
}
1002
}
1000
Title
1070
     0
1002
{
1000
MakeView
1070
     1
1070
     2
1002
{
1002
}
1002
}
1000
Tools
1070
     0
1002
{
1000
Trans
1070
     0
1002
{
1000
Drawingtranslation
1070
    -4
1070
     1
1002
{
1002
}
1000
upreserve
1070
     3
1070
     0
1002
{
1002
}
1000
originally_on
1070
    -4
1070
     0
1002
{
1002
}
1000
sourcelang
1070
    -5
1000
D
1002
{
1002
}
1002
}
1002
}
  0
APPID
  5
11EB
330
117F
100
AcDbSymbolTableRecord
100
AcDbRegAppTableRecord
  2
GENIUS_GEVCFG0_13
 70
     0
1001
GENIUS_GENCFG_13
1071
1022849943
1000
11EB
1000
GEV
1070
     1
1000
GenCfgObject
1000
VED
1070
     0
1002
{
1002
}
  0
APPID
  5
11EC
330
117F
100
AcDbSymbolTableRecord
100
AcDbRegAppTableRecord
  2
GEV_VCCNULL_SWITCH_OFF
 70
     0
  0
APPID
  5
11ED
330
117F
100
AcDbSymbolTableRecord
100
AcDbRegAppTableRecord
  2
GENIUS_GENDTOL_13
 70
     0
  0
APPID
  5
11EE
330
117F
100
AcDbSymbolTableRecord
100
AcDbRegAppTableRecord
  2
GENIUS_GENOENT_13
 70
     0
  0
APPID
  5
11EF
330
117F
100
AcDbSymbolTableRecord
100
AcDbRegAppTableRecord
  2
GENIUS_GENBLLY_14
 70
     0
  0
APPID
  5
11F0
330
117F
100
AcDbSymbolTableRecord
100
AcDbRegAppTableRecord
  2
GENIUS_GENODEF_13
 70
     0
  0
APPID
  5
11F1
330
117F
100
AcDbSymbolTableRecord
100
AcDbRegAppTableRecord
  2
GENIUS_GENOBJ-N-CRS_13
 70
     0
  0
APPID
  5
11F2
330
117F
100
AcDbSymbolTableRecord
100
AcDbRegAppTableRecord
  2
GENIUS_GENOREF_13
 70
     0
  0
APPID
  5
11F3
330
117F
100
AcDbSymbolTableRecord
100
AcDbRegAppTableRecord
  2
GENIUS_GENOLIS_13
 70
     0
  0
APPID
  5
11F4
330
117F
100
AcDbSymbolTableRecord
100
AcDbRegAppTableRecord
  2
GENIUS_GEFCFG0_13
 70
     0
  0
APPID
  5
11F5
330
117F
100
AcDbSymbolTableRecord
100
AcDbRegAppTableRecord
  2
GENIUS_VERSION2
 70
     0
  0
APPID
  5
11F6
330
117F
100
AcDbSymbolTableRecord
100
AcDbRegAppTableRecord
  2
GENIUS_GENREC_14
 70
     0
  0
APPID
  5
11F7
330
117F
100
AcDbSymbolTableRecord
100
AcDbRegAppTableRecord
  2
GENIUS_GENOBJ-N-REC_13
 70
     0
  0
APPID
  5
11F8
330
117F
100
AcDbSymbolTableRecord
100
AcDbRegAppTableRecord
  2
GENIUS_GENOBJ-N-TIT_13
 70
     0
  0
APPID
  5
11F9
330
117F
100
AcDbSymbolTableRecord
100
AcDbRegAppTableRecord
  2
GENIUS_GENTITLE_13
 70
     0
  0
APPID
  5
11FA
330
117F
100
AcDbSymbolTableRecord
100
AcDbRegAppTableRecord
  2
GENIUS_GENZVEED_13
 70
     0
  0
APPID
  5
11FB
330
117F
100
AcDbSymbolTableRecord
100
AcDbRegAppTableRecord
  2
GENIUS_GENOBJ-N-SDF_13
 70
     0
  0
APPID
  5
11FC
330
117F
100
AcDbSymbolTableRecord
100
AcDbRegAppTableRecord
  2
GENIUS_GENSCREG_13
 70
     0
  0
APPID
  5
11FD
330
117F
100
AcDbSymbolTableRecord
100
AcDbRegAppTableRecord
  2
GENIUS_GENBLKED_14
 70
     0
  0
APPID
  5
12F6
330
117F
100
AcDbSymbolTableRecord
100
AcDbRegAppTableRecord
  2
MCAD_NO_VIS
 70
     0
  0
APPID
  5
12F7
330
117F
100
AcDbSymbolTableRecord
100
AcDbRegAppTableRecord
  2
ACAD_TEMP_GRAPHIC
 70
     0
  0
APPID
  5
1327
330
117F
100
AcDbSymbolTableRecord
100
AcDbRegAppTableRecord
  2
AD_DRAW
 70
     0
  0
APPID
  5
132A
330
117F
100
AcDbSymbolTableRecord
100
AcDbRegAppTableRecord
  2
ACATTRIBSERVICES
 70
     0
  0
APPID
  5
134A
330
117F
100
AcDbSymbolTableRecord
100
AcDbRegAppTableRecord
  2
DESIGNERASSEMBLIES
 70
     0
  0
APPID
  5
1350
330
117F
100
AcDbSymbolTableRecord
100
AcDbRegAppTableRecord
  2
ACADM_DIM_EDIT
 70
     0
  0
APPID
  5
1351
330
117F
100
AcDbSymbolTableRecord
100
AcDbRegAppTableRecord
  2
AMDT_DM_ADJ
 70
     0
  0
APPID
  5
1383
330
117F
100
AcDbSymbolTableRecord
100
AcDbRegAppTableRecord
  2
ACAD_DSTYLE_DIMARC_LENGTH_SYMBOL
 70
     0
  0
APPID
  5
1384
330
117F
100
AcDbSymbolTableRecord
100
AcDbRegAppTableRecord
  2
ACAD_DSTYLE_DIMJOGGED_JOGANGLE_SYMBOL
 70
     0
  0
ENDTAB
  0
TABLE
  2
DIMSTYLE
  5
1180
330
0
100
AcDbSymbolTable
 70
     9
100
AcDbDimStyleTable
 71
     1
340
11A7
  0
DIMSTYLE
105
11A7
102
{ACAD_REACTORS
330
111C
330
1127
330
1132
102
}
330
1180
100
AcDbSymbolTableRecord
100
AcDbDimStyleTableRecord
  2
GEN-ISO
 70
     0
  4
"
 40
5.0
 41
2.5
 42
1.0
 43
7.0
 44
1.0
 47
0.1
 48
0.1
 73
     0
 74
     0
 77
     1
 78
     8
140
3.5
141
0.0
143
0.03937
146
0.71
147
0.6
172
     1
176
   256
177
   256
178
     2
271
     2
272
     3
274
     4
283
     0
340
1185
  0
DIMSTYLE
105
1382
330
1180
100
AcDbSymbolTableRecord
100
AcDbDimStyleTableRecord
  2
AM_DIN
 70
     0
  4
"
 41
2.5
 42
1.0
 43
10.0
 44
1.0
 47
0.1
 48
0.1
 73
     0
 74
     0
 77
     1
 78
     8
 79
     2
140
3.5
141
0.0
143
0.0393701
146
0.71
147
1.5
172
     1
176
   256
177
   256
178
     2
271
     2
272
     3
274
     4
283
     0
284
     8
340
1185
371
    -1
372
    -1
1001
ACAD_DSTYLE_DIMARC_LENGTH_SYMBOL
1070
   379
1070
     0
1001
ACAD_DSTYLE_DIMJOGGED_JOGANGLE_SYMBOL
1070
   384
1040
1.570796326794896
  0
DIMSTYLE
105
1393
330
1180
100
AcDbSymbolTableRecord
100
AcDbDimStyleTableRecord
  2
AM_DIN$3
 70
     0
  4
"
 41
2.5
 42
1.0
 43
10.0
 44
1.0
 47
0.1
 48
0.1
 73
     0
 77
     1
 78
     8
 79
     2
140
3.5
141
0.0
143
0.0393701
146
0.71
147
1.5
176
   256
177
   256
178
     2
271
     2
272
     3
274
     4
283
     0
284
     8
288
     1
289
     0
340
1185
371
    -1
372
    -1
1001
ACAD_DSTYLE_DIMARC_LENGTH_SYMBOL
1070
   379
1070
     0
1001
ACAD_DSTYLE_DIMJOGGED_JOGANGLE_SYMBOL
1070
   384
1040
1.570796326794896
  0
DIMSTYLE
105
1398
330
1180
100
AcDbSymbolTableRecord
100
AcDbDimStyleTableRecord
  2
AM_DIN$4
 70
     0
  4
"
 41
2.5
 42
1.0
 43
10.0
 44
1.0
 47
0.1
 48
0.1
 73
     0
 77
     1
 78
     8
 79
     2
140
3.5
141
0.0
143
0.0393701
146
0.71
147
1.5
176
   256
177
   256
178
     2
271
     2
272
     3
274
     4
283
     0
284
     8
288
     1
289
     0
340
1185
371
    -1
372
    -1
1001
ACAD_DSTYLE_DIMARC_LENGTH_SYMBOL
1070
   379
1070
     0
1001
ACAD_DSTYLE_DIMJOGGED_JOGANGLE_SYMBOL
1070
   384
1040
1.570796326794896
  0
DIMSTYLE
105
139D
330
1180
100
AcDbSymbolTableRecord
100
AcDbDimStyleTableRecord
  2
AM_DIN$6
 70
     0
  4
"
 41
2.5
 42
1.0
 43
10.0
 44
1.0
 47
0.1
 48
0.1
 73
     0
 74
     0
 78
     8
 79
     2
140
3.5
141
0.0
143
0.0393701
146
0.71
147
1.5
172
     1
176
   256
177
   256
178
     2
271
     2
272
     3
274
     4
283
     0
284
     8
340
1185
371
    -1
372
    -1
1001
ACAD_DSTYLE_DIMARC_LENGTH_SYMBOL
1070
   379
1070
     0
1001
ACAD_DSTYLE_DIMJOGGED_JOGANGLE_SYMBOL
1070
   384
1040
1.570796326794896
  0
DIMSTYLE
105
13A2
330
1180
100
AcDbSymbolTableRecord
100
AcDbDimStyleTableRecord
  2
AM_DIN$7
 70
     0
  4
"
 41
2.5
 42
1.0
 43
10.0
 44
1.0
 47
0.1
 48
0.1
 73
     0
 74
     0
 77
     1
 78
     8
 79
     2
140
5.0
141
0.0
143
0.0393701
146
0.71
147
1.5
172
     1
176
   256
177
   256
178
     2
271
     2
272
     3
274
     4
283
     0
284
     8
340
1185
371
    -1
372
    -1
1001
ACAD_DSTYLE_DIMARC_LENGTH_SYMBOL
1070
   379
1070
     0
1001
ACAD_DSTYLE_DIMJOGGED_JOGANGLE_SYMBOL
1070
   384
1040
1.570796326794896
  0
DIMSTYLE
105
13A7
330
1180
100
AcDbSymbolTableRecord
100
AcDbDimStyleTableRecord
  2
AM_DIN$SF
 70
     0
  4
"
 41
2.5
 42
1.0
 43
10.0
 44
1.0
 47
0.1
 48
0.1
 73
     0
 74
     0
 75
     1
 76
     1
 77
     1
 78
     8
 79
     2
140
3.5
141
0.0
143
0.0393701
146
0.71
147
1.5
172
     1
176
   256
177
   256
178
     2
271
     2
272
     3
274
     4
283
     0
284
     8
340
1185
371
    -1
372
    -1
1001
ACAD_DSTYLE_DIMARC_LENGTH_SYMBOL
1070
   379
1070
     0
1001
ACAD_DSTYLE_DIMJOGGED_JOGANGLE_SYMBOL
1070
   384
1040
1.570796326794896
  0
DIMSTYLE
105
13B0
330
1180
100
AcDbSymbolTableRecord
100
AcDbDimStyleTableRecord
  2
AM_DIN$SH
 70
     0
  4
"
 41
2.5
 42
1.0
 43
10.0
 44
1.0
 47
0.1
 48
0.1
 73
     0
 74
     0
 75
     1
 76
     1
 77
     1
 78
     8
 79
     2
140
3.5
141
0.0
143
0.0393701
144
2.0
146
0.71
147
1.5
172
     1
173
     1
176
   256
177
   256
178
     2
271
     2
272
     3
274
     4
283
     0
284
     8
340
1185
343
13A8
371
    -1
372
    -1
1001
ACAD_DSTYLE_DIMARC_LENGTH_SYMBOL
1070
   379
1070
     0
1001
ACAD_DSTYLE_DIMJOGGED_JOGANGLE_SYMBOL
1070
   384
1040
1.570796326794896
  0
ENDTAB
  0
TABLE
  2
BLOCK_RECORD
  5
1177
330
0
100
AcDbSymbolTable
 70
    15
  0
BLOCK_RECORD
  5
118E
330
1177
100
AcDbSymbolTableRecord
100
AcDbBlockTableRecord
  2
*MODEL_SPACE
340
12EE
  0
BLOCK_RECORD
  5
118B
330
1177
100
AcDbSymbolTableRecord
100
AcDbBlockTableRecord
  2
*PAPER_SPACE
340
12EF
  0
BLOCK_RECORD
  5
11A9
330
1177
100
AcDbSymbolTableRecord
100
AcDbBlockTableRecord
  2
*X0
340
0
102
{BLKREFS
331
104A
102
}
  0
BLOCK_RECORD
  5
11AA
330
1177
100
AcDbSymbolTableRecord
100
AcDbBlockTableRecord
  2
*X1
340
0
102
{BLKREFS
331
1067
102
}
  0
BLOCK_RECORD
  5
11AB
330
1177
100
AcDbSymbolTableRecord
100
AcDbBlockTableRecord
  2
*X2
340
0
102
{BLKREFS
331
1084
102
}
  0
BLOCK_RECORD
  5
11AC
330
1177
100
AcDbSymbolTableRecord
100
AcDbBlockTableRecord
  2
*X3
340
0
102
{BLKREFS
331
10A1
102
}
  0
BLOCK_RECORD
  5
11AD
330
1177
100
AcDbSymbolTableRecord
100
AcDbBlockTableRecord
  2
*X4
340
0
102
{BLKREFS
331
10BE
102
}
  0
BLOCK_RECORD
  5
11AE
330
1177
100
AcDbSymbolTableRecord
100
AcDbBlockTableRecord
  2
*X5
340
0
102
{BLKREFS
331
10DB
102
}
  0
BLOCK_RECORD
  5
11AF
330
1177
100
AcDbSymbolTableRecord
100
AcDbBlockTableRecord
  2
*X6
340
0
102
{BLKREFS
331
10F8
102
}
  0
BLOCK_RECORD
  5
11B0
330
1177
100
AcDbSymbolTableRecord
100
AcDbBlockTableRecord
  2
*X7
340
0
102
{BLKREFS
331
1111
102
}
  0
BLOCK_RECORD
  5
11BA
330
1177
100
AcDbSymbolTableRecord
100
AcDbBlockTableRecord
  2
KATALOG_LEER
340
0
102
{BLKREFS
331
11FF
331
121C
102
}
  0
BLOCK_RECORD
  5
121E
330
1177
100
AcDbSymbolTableRecord
100
AcDbBlockTableRecord
  2
*D10
340
0
  0
BLOCK_RECORD
  5
122A
330
1177
100
AcDbSymbolTableRecord
100
AcDbBlockTableRecord
  2
*D11
340
0
  0
BLOCK_RECORD
  5
1245
330
1177
100
AcDbSymbolTableRecord
100
AcDbBlockTableRecord
  2
*D12
340
0
  0
BLOCK_RECORD
  5
13A8
330
1177
100
AcDbSymbolTableRecord
100
AcDbBlockTableRecord
  2
GENAXEH
340
0
  0
ENDTAB
  0
ENDSEC
  0
SECTION
  2
BLOCKS
  0
BLOCK
  5
118F
330
118E
100
AcDbEntity
  8
0
100
AcDbBlockBegin
  2
*MODEL_SPACE
 70
     0
 10
0.0
 20
0.0
 30
0.0
  3
*MODEL_SPACE
  1

  0
ENDBLK
  5
1190
330
118E
100
AcDbEntity
  8
0
100
AcDbBlockEnd
  0
BLOCK
  5
118C
330
118B
100
AcDbEntity
 67
     1
  8
0
100
AcDbBlockBegin
  2
*PAPER_SPACE
 70
     0
 10
0.0
 20
0.0
 30
0.0
  3
*PAPER_SPACE
  1

  0
ENDBLK
  5
118D
330
118B
100
AcDbEntity
 67
     1
  8
0
100
AcDbBlockEnd
  0
BLOCK
  5
1040
330
11A9
100
AcDbEntity
  8
0
100
AcDbBlockBegin
  2
*X0
 70
     1
 10
0.0
 20
0.0
 30
0.0
  3
*X0
  1

  0
LINE
  5
1041
330
11A9
100
AcDbEntity
  8
8
100
AcDbLine
 10
39.537
 20
179.248
 30
0.0
 11
41.61699999999999
 21
181.328
 31
0.0
  0
LINE
  5
1042
330
11A9
100
AcDbEntity
  8
8
100
AcDbLine
 10
37.292
 20
179.248
 30
0.0
 11
41.74100000000001
 21
183.697
 31
0.0
  0
LINE
  5
1043
330
11A9
100
AcDbEntity
  8
8
100
AcDbLine
 10
35.047
 20
179.248
 30
0.0
 11
41.86600000000001
 21
186.067
 31
0.0
  0
LINE
  5
1044
330
11A9
100
AcDbEntity
  8
8
100
AcDbLine
 10
33.552
 20
179.998
 30
0.0
 11
41.99
 21
188.436
 31
0.0
  0
LINE
  5
1045
330
11A9
100
AcDbEntity
  8
8
100
AcDbLine
 10
33.258
 20
181.949
 30
0.0
 11
40.556
 21
189.248
 31
0.0
  0
LINE
  5
1046
330
11A9
100
AcDbEntity
  8
8
100
AcDbLine
 10
33.146
 20
184.082
 30
0.0
 11
38.311
 21
189.248
 31
0.0
  0
LINE
  5
1047
330
11A9
100
AcDbEntity
  8
8
100
AcDbLine
 10
32.622
 20
185.803
 30
0.0
 11
36.066
 21
189.248
 31
0.0
  0
LINE
  5
1048
330
11A9
100
AcDbEntity
  8
8
100
AcDbLine
 10
32.121
 20
187.548
 30
0.0
 11
33.821
 21
189.248
 31
0.0
  0
ENDBLK
  5
1049
330
11A9
100
AcDbEntity
  8
0
100
AcDbBlockEnd
  0
BLOCK
  5
105E
330
11AA
100
AcDbEntity
  8
0
100
AcDbBlockBegin
  2
*X1
 70
     1
 10
0.0
 20
0.0
 30
0.0
  3
*X1
  1

  0
LINE
  5
105F
330
11AA
100
AcDbEntity
  8
8
100
AcDbLine
 10
57.497
 20
179.248
 30
0.0
 11
59.61899999999999
 21
181.37
 31
0.0
  0
LINE
  5
1060
330
11AA
100
AcDbEntity
  8
8
100
AcDbLine
 10
55.25199999999999
 20
179.248
 30
0.0
 11
59.744
 21
183.739
 31
0.0
  0
LINE
  5
1061
330
11AA
100
AcDbEntity
  8
8
100
AcDbLine
 10
53.24100000000001
 20
179.481
 30
0.0
 11
59.868
 21
186.108
 31
0.0
  0
LINE
  5
1062
330
11AA
100
AcDbEntity
  8
8
100
AcDbLine
 10
52.467
 20
180.953
 30
0.0
 11
59.992
 21
188.478
 31
0.0
  0
LINE
  5
1063
330
11AA
100
AcDbEntity
  8
8
100
AcDbLine
 10
52.355
 20
183.086
 30
0.0
 11
58.517
 21
189.248
 31
0.0
  0
LINE
  5
1064
330
11AA
100
AcDbEntity
  8
8
100
AcDbLine
 10
52.243
 20
185.219
 30
0.0
 11
56.272
 21
189.248
 31
0.0
  0
LINE
  5
1065
330
11AA
100
AcDbEntity
  8
8
100
AcDbLine
 10
52.132
 20
187.352
 30
0.0
 11
54.027
 21
189.248
 31
0.0
  0
ENDBLK
  5
1066
330
11AA
100
AcDbEntity
  8
0
100
AcDbBlockEnd
  0
BLOCK
  5
107B
330
11AB
100
AcDbEntity
  8
0
100
AcDbBlockBegin
  2
*X2
 70
     1
 10
0.0
 20
0.0
 30
0.0
  3
*X2
  1

  0
LINE
  5
107C
330
11AB
100
AcDbEntity
  8
8
100
AcDbLine
 10
75.45799999999999
 20
179.248
 30
0.0
 11
77.62199999999999
 21
181.412
 31
0.0
  0
LINE
  5
107D
330
11AB
100
AcDbEntity
  8
8
100
AcDbLine
 10
73.213
 20
179.248
 30
0.0
 11
77.74600000000001
 21
183.7809999999999
 31
0.0
  0
LINE
  5
107E
330
11AB
100
AcDbEntity
  8
8
100
AcDbLine
 10
71.218
 20
179.498
 30
0.0
 11
77.87
 21
186.15
 31
0.0
  0
LINE
  5
107F
330
11AB
100
AcDbEntity
  8
8
100
AcDbLine
 10
70.465
 20
180.99
 30
0.0
 11
77.994
 21
188.519
 31
0.0
  0
LINE
  5
1080
330
11AB
100
AcDbEntity
  8
8
100
AcDbLine
 10
70.35300000000001
 20
183.123
 30
0.0
 11
76.477
 21
189.248
 31
0.0
  0
LINE
  5
1081
330
11AB
100
AcDbEntity
  8
8
100
AcDbLine
 10
70.241
 20
185.257
 30
0.0
 11
74.232
 21
189.248
 31
0.0
  0
LINE
  5
1082
330
11AB
100
AcDbEntity
  8
8
100
AcDbLine
 10
70.12999999999999
 20
187.39
 30
0.0
 11
71.98699999999999
 21
189.248
 31
0.0
  0
ENDBLK
  5
1083
330
11AB
100
AcDbEntity
  8
0
100
AcDbBlockEnd
  0
BLOCK
  5
1098
330
11AC
100
AcDbEntity
  8
0
100
AcDbBlockBegin
  2
*X3
 70
     1
 10
0.0
 20
0.0
 30
0.0
  3
*X3
  1

  0
LINE
  5
1099
330
11AC
100
AcDbEntity
  8
8
100
AcDbLine
 10
93.41799999999999
 20
179.248
 30
0.0
 11
95.624
 21
181.453
 31
0.0
  0
LINE
  5
109A
330
11AC
100
AcDbEntity
  8
8
100
AcDbLine
 10
91.17299999999998
 20
179.248
 30
0.0
 11
95.74799999999999
 21
183.822
 31
0.0
  0
LINE
  5
109B
330
11AC
100
AcDbEntity
  8
8
100
AcDbLine
 10
89.19499999999999
 20
179.515
 30
0.0
 11
95.87200000000001
 21
186.192
 31
0.0
  0
LINE
  5
109C
330
11AC
100
AcDbEntity
  8
8
100
AcDbLine
 10
88.46299999999999
 20
181.028
 30
0.0
 11
95.996
 21
188.5609999999999
 31
0.0
  0
LINE
  5
109D
330
11AC
100
AcDbEntity
  8
8
100
AcDbLine
 10
88.351
 20
183.1609999999999
 30
0.0
 11
94.43799999999999
 21
189.248
 31
0.0
  0
LINE
  5
109E
330
11AC
100
AcDbEntity
  8
8
100
AcDbLine
 10
88.239
 20
185.294
 30
0.0
 11
92.193
 21
189.248
 31
0.0
  0
LINE
  5
109F
330
11AC
100
AcDbEntity
  8
8
100
AcDbLine
 10
88.12799999999999
 20
187.427
 30
0.0
 11
89.94799999999999
 21
189.248
 31
0.0
  0
ENDBLK
  5
10A0
330
11AC
100
AcDbEntity
  8
0
100
AcDbBlockEnd
  0
BLOCK
  5
10B5
330
11AD
100
AcDbEntity
  8
0
100
AcDbBlockBegin
  2
*X4
 70
     1
 10
0.0
 20
0.0
 30
0.0
  3
*X4
  1

  0
LINE
  5
10B6
330
11AD
100
AcDbEntity
  8
8
100
AcDbLine
 10
111.379
 20
179.248
 30
0.0
 11
113.626
 21
181.495
 31
0.0
  0
LINE
  5
10B7
330
11AD
100
AcDbEntity
  8
8
100
AcDbLine
 10
109.134
 20
179.248
 30
0.0
 11
113.75
 21
183.864
 31
0.0
  0
LINE
  5
10B8
330
11AD
100
AcDbEntity
  8
8
100
AcDbLine
 10
107.172
 20
179.5309999999999
 30
0.0
 11
113.874
 21
186.233
 31
0.0
  0
LINE
  5
10B9
330
11AD
100
AcDbEntity
  8
8
100
AcDbLine
 10
106.461
 20
181.065
 30
0.0
 11
113.998
 21
188.603
 31
0.0
  0
LINE
  5
10BA
330
11AD
100
AcDbEntity
  8
8
100
AcDbLine
 10
106.349
 20
183.1979999999999
 30
0.0
 11
112.398
 21
189.248
 31
0.0
  0
LINE
  5
10BB
330
11AD
100
AcDbEntity
  8
8
100
AcDbLine
 10
106.237
 20
185.332
 30
0.0
 11
110.153
 21
189.248
 31
0.0
  0
LINE
  5
10BC
330
11AD
100
AcDbEntity
  8
8
100
AcDbLine
 10
106.126
 20
187.465
 30
0.0
 11
107.908
 21
189.248
 31
0.0
  0
ENDBLK
  5
10BD
330
11AD
100
AcDbEntity
  8
0
100
AcDbBlockEnd
  0
BLOCK
  5
10D2
330
11AE
100
AcDbEntity
  8
0
100
AcDbBlockBegin
  2
*X5
 70
     1
 10
0.0
 20
0.0
 30
0.0
  3
*X5
  1

  0
LINE
  5
10D3
330
11AE
100
AcDbEntity
  8
8
100
AcDbLine
 10
129.339
 20
179.248
 30
0.0
 11
131.628
 21
181.537
 31
0.0
  0
LINE
  5
10D4
330
11AE
100
AcDbEntity
  8
8
100
AcDbLine
 10
127.094
 20
179.248
 30
0.0
 11
131.752
 21
183.906
 31
0.0
  0
LINE
  5
10D5
330
11AE
100
AcDbEntity
  8
8
100
AcDbLine
 10
125.149
 20
179.548
 30
0.0
 11
131.876
 21
186.275
 31
0.0
  0
LINE
  5
10D6
330
11AE
100
AcDbEntity
  8
8
100
AcDbLine
 10
124.459
 20
181.103
 30
0.0
 11
132.001
 21
188.644
 31
0.0
  0
LINE
  5
10D7
330
11AE
100
AcDbEntity
  8
8
100
AcDbLine
 10
124.347
 20
183.236
 30
0.0
 11
130.359
 21
189.248
 31
0.0
  0
LINE
  5
10D8
330
11AE
100
AcDbEntity
  8
8
100
AcDbLine
 10
124.235
 20
185.369
 30
0.0
 11
128.114
 21
189.248
 31
0.0
  0
LINE
  5
10D9
330
11AE
100
AcDbEntity
  8
8
100
AcDbLine
 10
124.124
 20
187.503
 30
0.0
 11
125.869
 21
189.248
 31
0.0
  0
ENDBLK
  5
10DA
330
11AE
100
AcDbEntity
  8
0
100
AcDbBlockEnd
  0
BLOCK
  5
10EF
330
11AF
100
AcDbEntity
  8
0
100
AcDbBlockBegin
  2
*X6
 70
     1
 10
0.0
 20
0.0
 30
0.0
  3
*X6
  1

  0
LINE
  5
10F0
330
11AF
100
AcDbEntity
  8
8
100
AcDbLine
 10
147.3
 20
179.248
 30
0.0
 11
149.63
 21
181.578
 31
0.0
  0
LINE
  5
10F1
330
11AF
100
AcDbEntity
  8
8
100
AcDbLine
 10
145.055
 20
179.248
 30
0.0
 11
149.754
 21
183.947
 31
0.0
  0
LINE
  5
10F2
330
11AF
100
AcDbEntity
  8
8
100
AcDbLine
 10
143.127
 20
179.565
 30
0.0
 11
149.879
 21
186.317
 31
0.0
  0
LINE
  5
10F3
330
11AF
100
AcDbEntity
  8
8
100
AcDbLine
 10
142.457
 20
181.14
 30
0.0
 11
150.003
 21
188.686
 31
0.0
  0
LINE
  5
10F4
330
11AF
100
AcDbEntity
  8
8
100
AcDbLine
 10
142.345
 20
183.274
 30
0.0
 11
148.319
 21
189.248
 31
0.0
  0
LINE
  5
10F5
330
11AF
100
AcDbEntity
  8
8
100
AcDbLine
 10
142.234
 20
185.407
 30
0.0
 11
146.074
 21
189.248
 31
0.0
  0
LINE
  5
10F6
330
11AF
100
AcDbEntity
  8
8
100
AcDbLine
 10
142.122
 20
187.54
 30
0.0
 11
143.829
 21
189.248
 31
0.0
  0
ENDBLK
  5
10F7
330
11AF
100
AcDbEntity
  8
0
100
AcDbBlockEnd
  0
BLOCK
  5
1107
330
11B0
100
AcDbEntity
  8
0
100
AcDbBlockBegin
  2
*X7
 70
     1
 10
0.0
 20
0.0
 30
0.0
  3
*X7
  1

  0
LINE
  5
1108
330
11B0
100
AcDbEntity
  8
8
100
AcDbLine
 10
165.26
 20
179.248
 30
0.0
 11
168.854
 21
182.841
 31
0.0
  0
LINE
  5
1109
330
11B0
100
AcDbEntity
  8
8
100
AcDbLine
 10
163.015
 20
179.248
 30
0.0
 11
169.182
 21
185.414
 31
0.0
  0
LINE
  5
110A
330
11B0
100
AcDbEntity
  8
8
100
AcDbLine
 10
169.839
 20
186.071
 30
0.0
 11
169.867
 21
186.1
 31
0.0
  0
LINE
  5
110B
330
11B0
100
AcDbEntity
  8
8
100
AcDbLine
 10
161.142
 20
179.62
 30
0.0
 11
169.991
 21
188.469
 31
0.0
  0
LINE
  5
110C
330
11B0
100
AcDbEntity
  8
8
100
AcDbLine
 10
160.455
 20
181.178
 30
0.0
 11
168.525
 21
189.248
 31
0.0
  0
LINE
  5
110D
330
11B0
100
AcDbEntity
  8
8
100
AcDbLine
 10
160.343
 20
183.3109999999999
 30
0.0
 11
166.28
 21
189.248
 31
0.0
  0
LINE
  5
110E
330
11B0
100
AcDbEntity
  8
8
100
AcDbLine
 10
160.232
 20
185.444
 30
0.0
 11
164.035
 21
189.248
 31
0.0
  0
LINE
  5
110F
330
11B0
100
AcDbEntity
  8
8
100
AcDbLine
 10
160.12
 20
187.578
 30
0.0
 11
161.79
 21
189.248
 31
0.0
  0
ENDBLK
  5
1110
330
11B0
100
AcDbEntity
  8
0
100
AcDbBlockEnd
  0
BLOCK
  5
11BB
330
11BA
100
AcDbEntity
  8
0
100
AcDbBlockBegin
  2
KATALOG_LEER
 70
     0
 10
0.0
 20
0.0
 30
0.0
  3
KATALOG_LEER
  1

  0
ENDBLK
  5
11BC
330
11BA
100
AcDbEntity
  8
0
100
AcDbBlockEnd
  0
BLOCK
  5
12C8
330
121E
100
AcDbEntity
  8
0
100
AcDbBlockBegin
  2
*D10
 70
     1
 10
0.0
 20
0.0
 30
0.0
  3
*D10
  1

  0
LINE
  5
13B8
330
121E
100
AcDbEntity
  8
5
370
    -2
100
AcDbLine
 10
312.592971
 20
383.665478
 30
0.0
 11
312.592971
 21
468.665478
 31
0.0
  0
LINE
  5
13B9
330
121E
100
AcDbEntity
  8
5
370
    -2
100
AcDbLine
 10
450.592971
 20
383.665478
 30
0.0
 11
450.592971
 21
468.665478
 31
0.0
  0
LINE
  5
13BA
330
121E
100
AcDbEntity
  8
5
370
    -2
100
AcDbLine
 10
337.592971
 20
463.6654779999999
 30
0.0
 11
425.592971
 21
463.6654779999999
 31
0.0
  0
SOLID
  5
13BB
330
121E
100
AcDbEntity
  8
5
100
AcDbTrace
 10
337.592971
 20
467.8321446666666
 30
0.0
 11
337.592971
 21
459.4988113333333
 31
0.0
 12
312.592971
 22
463.6654779999999
 32
0.0
 13
312.592971
 23
463.6654779999999
 33
0.0
  0
SOLID
  5
13BC
330
121E
100
AcDbEntity
  8
5
100
AcDbTrace
 10
425.592971
 20
467.8321446666666
 30
0.0
 11
425.592971
 21
459.4988113333333
 31
0.0
 12
450.592971
 22
463.6654779999999
 32
0.0
 13
450.592971
 23
463.6654779999999
 33
0.0
  0
MTEXT
  5
13BD
330
121E
100
AcDbEntity
  8
5
 62
     2
100
AcDbMText
 10
381.592971
 20
475.415478
 30
0.0
 40
17.5
 41
0.0
 71
     5
 72
     1
  1
%%c138
 73
     1
 44
1.0
1001
ACAD
1000
MTEXTBEGIN
1070
    73
1070
     1
1070
    44
1040
1.0
1070
    74
1070
     0
1000
MTEXTEND
  0
POINT
  5
13BE
330
121E
100
AcDbEntity
  8
DEFPOINTS
 62
     0
100
AcDbPoint
 10
312.592971
 20
378.665478
 30
0.0
  0
POINT
  5
13BF
330
121E
100
AcDbEntity
  8
DEFPOINTS
 62
     0
100
AcDbPoint
 10
450.592971
 20
378.665478
 30
0.0
  0
POINT
  5
13C0
330
121E
100
AcDbEntity
  8
DEFPOINTS
 62
     0
100
AcDbPoint
 10
450.592971
 20
463.6654779999999
 30
0.0
  0
ENDBLK
  5
12D2
330
121E
100
AcDbEntity
  8
0
100
AcDbBlockEnd
  0
BLOCK
  5
12B7
330
122A
100
AcDbEntity
  8
0
100
AcDbBlockBegin
  2
*D11
 70
     1
 10
0.0
 20
0.0
 30
0.0
  3
*D11
  1

  0
LINE
  5
13D3
330
122A
100
AcDbEntity
  8
5
370
    -2
100
AcDbLine
 10
310.477971
 20
368.665478
 30
0.0
 11
258.709465
 21
368.665478
 31
0.0
  0
LINE
  5
13D4
330
122A
100
AcDbEntity
  8
5
370
    -2
100
AcDbLine
 10
307.592971
 20
378.665478
 30
0.0
 11
258.709465
 21
378.665478
 31
0.0
  0
LINE
  5
13D5
330
122A
100
AcDbEntity
  8
5
370
    -2
100
AcDbLine
 10
263.709465
 20
343.665478
 30
0.0
 11
263.709465
 21
318.665478
 31
0.0
  0
LINE
  5
13D6
330
122A
100
AcDbEntity
  8
5
370
    -2
100
AcDbLine
 10
263.709465
 20
403.665478
 30
0.0
 11
263.709465
 21
450.429257527559
 31
0.0
  0
LINE
  5
13D7
330
122A
100
AcDbEntity
  8
5
370
    -2
100
AcDbLine
 10
263.709465
 20
368.665478
 30
0.0
 11
263.709465
 21
378.665478
 31
0.0
  0
SOLID
  5
13D8
330
122A
100
AcDbEntity
  8
5
100
AcDbTrace
 10
259.5427983333333
 20
343.665478
 30
0.0
 11
267.8761316666666
 21
343.665478
 31
0.0
 12
263.709465
 22
368.665478
 32
0.0
 13
263.709465
 23
368.665478
 33
0.0
  0
SOLID
  5
13D9
330
122A
100
AcDbEntity
  8
5
100
AcDbTrace
 10
259.5427983333333
 20
403.665478
 30
0.0
 11
267.8761316666667
 21
403.665478
 31
0.0
 12
263.709465
 22
378.665478
 32
0.0
 13
263.709465
 23
378.665478
 33
0.0
  0
MTEXT
  5
13DA
330
122A
100
AcDbEntity
  8
5
 62
     2
100
AcDbMText
 10
251.9594649999999
 20
439.5473677637795
 30
0.0
 40
17.5
 41
0.0
 71
     5
 72
     1
  1
10
 11
0.0000000000000001
 21
1.0
 31
0.0
 73
     1
 44
1.0
1001
ACAD
1000
MTEXTBEGIN
1070
    73
1070
     1
1070
    44
1040
1.0
1070
    74
1070
     0
1000
MTEXTEND
  0
POINT
  5
13DB
330
122A
100
AcDbEntity
  8
DEFPOINTS
 62
     0
100
AcDbPoint
 10
315.477971
 20
368.665478
 30
0.0
  0
POINT
  5
13DC
330
122A
100
AcDbEntity
  8
DEFPOINTS
 62
     0
100
AcDbPoint
 10
312.592971
 20
378.665478
 30
0.0
  0
POINT
  5
13DD
330
122A
100
AcDbEntity
  8
DEFPOINTS
 62
     0
100
AcDbPoint
 10
263.709465
 20
378.665478
 30
0.0
  0
ENDBLK
  5
12C3
330
122A
100
AcDbEntity
  8
0
100
AcDbBlockEnd
  0
BLOCK
  5
129B
330
1245
100
AcDbEntity
  8
0
100
AcDbBlockBegin
  2
*D12
 70
     1
 10
0.0
 20
0.0
 30
0.0
  3
*D12
  1

  0
LINE
  5
13C8
330
1245
100
AcDbEntity
  8
5
370
    -2
100
AcDbLine
 10
340.592971
 20
383.665478
 30
0.0
 11
340.592971
 21
433.6654779999999
 31
0.0
  0
LINE
  5
13C9
330
1245
100
AcDbEntity
  8
5
370
    -2
100
AcDbLine
 10
350.592971
 20
383.665478
 30
0.0
 11
350.592971
 21
433.6654779999999
 31
0.0
  0
LINE
  5
13CA
330
1245
100
AcDbEntity
  8
5
370
    -2
100
AcDbLine
 10
315.592971
 20
428.665478
 30
0.0
 11
290.592971
 21
428.665478
 31
0.0
  0
LINE
  5
13CB
330
1245
100
AcDbEntity
  8
5
370
    -2
100
AcDbLine
 10
375.592971
 20
428.665478
 30
0.0
 11
422.3567505275589
 21
428.665478
 31
0.0
  0
LINE
  5
13CC
330
1245
100
AcDbEntity
  8
5
370
    -2
100
AcDbLine
 10
340.592971
 20
428.665478
 30
0.0
 11
350.592971
 21
428.665478
 31
0.0
  0
SOLID
  5
13CD
330
1245
100
AcDbEntity
  8
5
100
AcDbTrace
 10
315.592971
 20
432.8321446666667
 30
0.0
 11
315.592971
 21
424.4988113333333
 31
0.0
 12
340.592971
 22
428.665478
 32
0.0
 13
340.592971
 23
428.665478
 33
0.0
  0
SOLID
  5
13CE
330
1245
100
AcDbEntity
  8
5
100
AcDbTrace
 10
375.592971
 20
432.8321446666667
 30
0.0
 11
375.592971
 21
424.4988113333333
 31
0.0
 12
350.592971
 22
428.665478
 32
0.0
 13
350.592971
 23
428.665478
 33
0.0
  0
MTEXT
  5
13CF
330
1245
100
AcDbEntity
  8
5
 62
     2
100
AcDbMText
 10
411.4748607637794
 20
440.4154779999999
 30
0.0
 40
17.5
 41
0.0
 71
     5
 72
     1
  1
10
 73
     1
 44
1.0
1001
ACAD
1000
MTEXTBEGIN
1070
    73
1070
     1
1070
    44
1040
1.0
1070
    74
1070
     0
1000
MTEXTEND
  0
POINT
  5
13D0
330
1245
100
AcDbEntity
  8
DEFPOINTS
 62
     0
100
AcDbPoint
 10
340.592971
 20
378.665478
 30
0.0
  0
POINT
  5
13D1
330
1245
100
AcDbEntity
  8
DEFPOINTS
 62
     0
100
AcDbPoint
 10
350.592971
 20
378.665478
 30
0.0
  0
POINT
  5
13D2
330
1245
100
AcDbEntity
  8
DEFPOINTS
 62
     0
100
AcDbPoint
 10
350.592971
 20
428.665478
 30
0.0
  0
ENDBLK
  5
12A7
330
1245
100
AcDbEntity
  8
0
100
AcDbBlockEnd
  0
BLOCK
  5
13AA
330
13A8
100
AcDbEntity
  8
0
100
AcDbBlockBegin
  2
GENAXEH
 70
     0
 10
0.0
 20
0.0
 30
0.0
  3
GENAXEH
  1

  0
LINE
  5
13A9
330
13A8
100
AcDbEntity
  8
0
100
AcDbLine
 10
-1.0
 20
0.0
 30
0.0
 11
1.0
 21
0.0
 31
0.0
  0
ENDBLK
  5
13AB
330
13A8
100
AcDbEntity
  8
0
100
AcDbBlockEnd
  0
ENDSEC
  0
SECTION
  2
ENTITIES
  0
LINE
  5
1001
330
118E
100
AcDbEntity
  8
0
100
AcDbLine
 10
312.592971
 20
378.665478
 30
0.0
 11
450.592971
 21
378.665478
 31
0.0
  0
LINE
  5
1002
330
118E
100
AcDbEntity
  8
0
100
AcDbLine
 10
450.592971
 20
378.665478
 30
0.0
 11
450.427971
 21
375.513478
 31
0.0
  0
LINE
  5
1003
330
118E
100
AcDbEntity
  8
0
100
AcDbLine
 10
449.508971
 20
374.065478
 30
0.0
 11
449.3059709999999
 21
370.181478
 31
0.0
  0
LINE
  5
1004
330
118E
100
AcDbEntity
  8
0
100
AcDbLine
 10
312.757971
 20
375.512478
 30
0.0
 11
312.592971
 21
378.665478
 31
0.0
  0
LINE
  5
1005
330
118E
100
AcDbEntity
  8
0
100
AcDbLine
 10
313.880971
 20
370.181478
 30
0.0
 11
313.672971
 21
374.149478
 31
0.0
  0
ARC
  5
1006
330
118E
100
AcDbEntity
  8
0
100
AcDbCircle
 10
312.076971
 20
374.065478
 30
0.0
 40
1.6
100
AcDbArc
 50
3.0
 51
64.79600000000001
  0
LINE
  5
1007
330
118E
100
AcDbEntity
  8
0
100
AcDbLine
 10
376.148971
 20
370.181478
 30
0.0
 11
376.592971
 21
378.665478
 31
0.0
  0
LINE
  5
1008
330
118E
100
AcDbEntity
  8
0
100
AcDbLine
 10
394.148971
 20
370.181478
 30
0.0
 11
394.592971
 21
378.665478
 31
0.0
  0
LINE
  5
1009
330
118E
100
AcDbEntity
  8
0
100
AcDbLine
 10
412.148971
 20
370.181478
 30
0.0
 11
412.5929709999999
 21
378.665478
 31
0.0
  0
LINE
  5
100A
330
118E
100
AcDbEntity
  8
0
100
AcDbLine
 10
430.148971
 20
370.181478
 30
0.0
 11
430.592971
 21
378.665478
 31
0.0
  0
LINE
  5
100B
330
118E
100
AcDbEntity
  8
0
100
AcDbLine
 10
387.037971
 20
370.181478
 30
0.0
 11
386.592971
 21
378.665478
 31
0.0
  0
LINE
  5
100C
330
118E
100
AcDbEntity
  8
0
100
AcDbLine
 10
369.037971
 20
370.181478
 30
0.0
 11
368.592971
 21
378.665478
 31
0.0
  0
LINE
  5
100D
330
118E
100
AcDbEntity
  8
0
100
AcDbLine
 10
351.037971
 20
370.181478
 30
0.0
 11
350.592971
 21
378.665478
 31
0.0
  0
LINE
  5
100E
330
118E
100
AcDbEntity
  8
0
100
AcDbLine
 10
333.037971
 20
370.181478
 30
0.0
 11
332.592971
 21
378.665478
 31
0.0
  0
ARC
  5
100F
330
118E
100
AcDbEntity
  8
0
100
AcDbCircle
 10
451.108971
 20
374.065478
 30
0.0
 40
1.6
100
AcDbArc
 50
115.205
 51
177.0
  0
ARC
  5
1010
330
118E
100
AcDbEntity
  8
0
100
AcDbCircle
 10
447.7079709999999
 20
370.265478
 30
0.0
 40
1.6
100
AcDbArc
 50
270.0
 51
357.0
  0
ARC
  5
1011
330
118E
100
AcDbEntity
  8
0
100
AcDbCircle
 10
428.550971
 20
370.265478
 30
0.0
 40
1.6
100
AcDbArc
 50
270.0
 51
357.0
  0
ARC
  5
1012
330
118E
100
AcDbEntity
  8
0
100
AcDbCircle
 10
315.477971
 20
370.265478
 30
0.0
 40
1.6
100
AcDbArc
 50
183.0
 51
270.0
  0
ARC
  5
1013
330
118E
100
AcDbEntity
  8
0
100
AcDbCircle
 10
334.635971
 20
370.265478
 30
0.0
 40
1.6
100
AcDbArc
 50
183.0
 51
270.0
  0
ARC
  5
1014
330
118E
100
AcDbEntity
  8
0
100
AcDbCircle
 10
352.635971
 20
370.265478
 30
0.0
 40
1.6
100
AcDbArc
 50
183.0
 51
270.0
  0
ARC
  5
1015
330
118E
100
AcDbEntity
  8
0
100
AcDbCircle
 10
370.635971
 20
370.265478
 30
0.0
 40
1.6
100
AcDbArc
 50
183.0
 51
270.0
  0
ARC
  5
1016
330
118E
100
AcDbEntity
  8
0
100
AcDbCircle
 10
374.550971
 20
370.265478
 30
0.0
 40
1.6
100
AcDbArc
 50
270.0
 51
357.0
  0
ARC
  5
1017
330
118E
100
AcDbEntity
  8
0
100
AcDbCircle
 10
388.635971
 20
370.265478
 30
0.0
 40
1.6
100
AcDbArc
 50
183.0
 51
270.0
  0
ARC
  5
1018
330
118E
100
AcDbEntity
  8
0
100
AcDbCircle
 10
392.550971
 20
370.265478
 30
0.0
 40
1.6
100
AcDbArc
 50
270.0
 51
357.0
  0
ARC
  5
1019
330
118E
100
AcDbEntity
  8
0
100
AcDbCircle
 10
410.5509709999999
 20
370.265478
 30
0.0
 40
1.6
100
AcDbArc
 50
270.0
 51
357.0
  0
LINE
  5
101A
330
118E
100
AcDbEntity
  8
0
100
AcDbLine
 10
405.0379709999999
 20
370.181478
 30
0.0
 11
404.592971
 21
378.665478
 31
0.0
  0
LINE
  5
101B
330
118E
100
AcDbEntity
  8
0
100
AcDbLine
 10
358.148971
 20
370.181478
 30
0.0
 11
358.592971
 21
378.665478
 31
0.0
  0
LINE
  5
101C
330
118E
100
AcDbEntity
  8
0
100
AcDbLine
 10
340.148971
 20
370.181478
 30
0.0
 11
340.592971
 21
378.665478
 31
0.0
  0
LINE
  5
101D
330
118E
100
AcDbEntity
  8
0
100
AcDbLine
 10
423.0379709999999
 20
370.181478
 30
0.0
 11
422.5929709999999
 21
378.665478
 31
0.0
  0
LINE
  5
101E
330
118E
100
AcDbEntity
  8
0
100
AcDbLine
 10
441.0379709999999
 20
370.181478
 30
0.0
 11
440.5929709999999
 21
378.665478
 31
0.0
  0
LINE
  5
101F
330
118E
100
AcDbEntity
  8
0
100
AcDbLine
 10
322.148971
 20
370.181478
 30
0.0
 11
322.592971
 21
378.665478
 31
0.0
  0
ARC
  5
1020
330
118E
100
AcDbEntity
  8
0
100
AcDbCircle
 10
442.6359709999999
 20
370.265478
 30
0.0
 40
1.6
100
AcDbArc
 50
183.0
 51
270.0
  0
ARC
  5
1021
330
118E
100
AcDbEntity
  8
0
100
AcDbCircle
 10
424.635971
 20
370.265478
 30
0.0
 40
1.6
100
AcDbArc
 50
183.0
 51
270.0
  0
ARC
  5
1022
330
118E
100
AcDbEntity
  8
0
100
AcDbCircle
 10
338.550971
 20
370.265478
 30
0.0
 40
1.6
100
AcDbArc
 50
270.0
 51
357.0
  0
ARC
  5
1023
330
118E
100
AcDbEntity
  8
0
100
AcDbCircle
 10
356.550971
 20
370.265478
 30
0.0
 40
1.6
100
AcDbArc
 50
270.0
 51
357.0
  0
ARC
  5
1024
330
118E
100
AcDbEntity
  8
0
100
AcDbCircle
 10
406.6359709999999
 20
370.265478
 30
0.0
 40
1.6
100
AcDbArc
 50
183.0
 51
270.0
  0
ARC
  5
1025
330
118E
100
AcDbEntity
  8
0
100
AcDbCircle
 10
320.550971
 20
370.265478
 30
0.0
 40
1.6
100
AcDbArc
 50
270.0
 51
357.0
  0
LINE
  5
1026
330
118E
100
AcDbEntity
  8
0
100
AcDbLine
 10
315.477971
 20
368.665478
 30
0.0
 11
447.7079709999999
 21
368.665478
 31
0.0
  0
POLYLINE
  5
1027
330
118E
100
AcDbEntity
  8
SCHRAFFUR_RAND
100
AcDb2dPolyline
 66
     1
 10
0.0
 20
0.0
 30
0.0
 70
     1
  0
VERTEX
  5
1028
330
1027
100
AcDbEntity
  8
SCHRAFFUR_RAND
100
AcDbVertex
100
AcDb2dVertex
 10
322.592971
 20
378.665478
 30
0.0
  0
VERTEX
  5
1029
330
1027
100
AcDbEntity
  8
SCHRAFFUR_RAND
100
AcDbVertex
100
AcDb2dVertex
 10
312.592971
 20
378.665478
 30
0.0
  0
VERTEX
  5
102A
330
1027
100
AcDbEntity
  8
SCHRAFFUR_RAND
100
AcDbVertex
100
AcDb2dVertex
 10
312.757971
 20
375.512478
 30
0.0
  0
VERTEX
  5
102B
330
1027
100
AcDbEntity
  8
SCHRAFFUR_RAND
100
AcDbVertex
100
AcDb2dVertex
 10
313.056971
 20
375.340478
 30
0.0
  0
VERTEX
  5
102C
330
1027
100
AcDbEntity
  8
SCHRAFFUR_RAND
100
AcDbVertex
100
AcDb2dVertex
 10
313.307971
 20
375.100478
 30
0.0
  0
VERTEX
  5
102D
330
1027
100
AcDbEntity
  8
SCHRAFFUR_RAND
100
AcDbVertex
100
AcDb2dVertex
 10
313.500971
 20
374.813478
 30
0.0
  0
VERTEX
  5
102E
330
1027
100
AcDbEntity
  8
SCHRAFFUR_RAND
100
AcDbVertex
100
AcDb2dVertex
 10
313.627971
 20
374.491478
 30
0.0
  0
VERTEX
  5
102F
330
1027
100
AcDbEntity
  8
SCHRAFFUR_RAND
100
AcDbVertex
100
AcDb2dVertex
 10
313.672971
 20
374.1484779999999
 30
0.0
  0
VERTEX
  5
1030
330
1027
100
AcDbEntity
  8
SCHRAFFUR_RAND
100
AcDbVertex
100
AcDb2dVertex
 10
313.880971
 20
370.181478
 30
0.0
  0
VERTEX
  5
1031
330
1027
100
AcDbEntity
  8
SCHRAFFUR_RAND
100
AcDbVertex
100
AcDb2dVertex
 10
313.944971
 20
369.781478
 30
0.0
  0
VERTEX
  5
1032
330
1027
100
AcDbEntity
  8
SCHRAFFUR_RAND
100
AcDbVertex
100
AcDb2dVertex
 10
314.114971
 20
369.413478
 30
0.0
  0
VERTEX
  5
1033
330
1027
100
AcDbEntity
  8
SCHRAFFUR_RAND
100
AcDbVertex
100
AcDb2dVertex
 10
314.370971
 20
369.098478
 30
0.0
  0
VERTEX
  5
1034
330
1027
100
AcDbEntity
  8
SCHRAFFUR_RAND
100
AcDbVertex
100
AcDb2dVertex
 10
314.698971
 20
368.858478
 30
0.0
  0
VERTEX
  5
1035
330
1027
100
AcDbEntity
  8
SCHRAFFUR_RAND
100
AcDbVertex
100
AcDb2dVertex
 10
315.075971
 20
368.708478
 30
0.0
  0
VERTEX
  5
1036
330
1027
100
AcDbEntity
  8
SCHRAFFUR_RAND
100
AcDbVertex
100
AcDb2dVertex
 10
315.477971
 20
368.665478
 30
0.0
  0
VERTEX
  5
1037
330
1027
100
AcDbEntity
  8
SCHRAFFUR_RAND
100
AcDbVertex
100
AcDb2dVertex
 10
320.550971
 20
368.665478
 30
0.0
  0
VERTEX
  5
1038
330
1027
100
AcDbEntity
  8
SCHRAFFUR_RAND
100
AcDbVertex
100
AcDb2dVertex
 10
320.952971
 20
368.708478
 30
0.0
  0
VERTEX
  5
1039
330
1027
100
AcDbEntity
  8
SCHRAFFUR_RAND
100
AcDbVertex
100
AcDb2dVertex
 10
321.329971
 20
368.858478
 30
0.0
  0
VERTEX
  5
103A
330
1027
100
AcDbEntity
  8
SCHRAFFUR_RAND
100
AcDbVertex
100
AcDb2dVertex
 10
321.657971
 20
369.098478
 30
0.0
  0
VERTEX
  5
103B
330
1027
100
AcDbEntity
  8
SCHRAFFUR_RAND
100
AcDbVertex
100
AcDb2dVertex
 10
321.914971
 20
369.413478
 30
0.0
  0
VERTEX
  5
103C
330
1027
100
AcDbEntity
  8
SCHRAFFUR_RAND
100
AcDbVertex
100
AcDb2dVertex
 10
322.084971
 20
369.781478
 30
0.0
  0
VERTEX
  5
103D
330
1027
100
AcDbEntity
  8
SCHRAFFUR_RAND
100
AcDbVertex
100
AcDb2dVertex
 10
322.148971
 20
370.181478
 30
0.0
  0
VERTEX
  5
103E
330
1027
100
AcDbEntity
  8
SCHRAFFUR_RAND
100
AcDbVertex
100
AcDb2dVertex
 10
322.592971
 20
378.665478
 30
0.0
  0
SEQEND
  5
103F
330
1027
100
AcDbEntity
  8
SCHRAFFUR_RAND
  0
INSERT
  5
104A
330
118E
100
AcDbEntity
  8
8
100
AcDbBlockReference
  2
*X0
 10
280.560971
 20
189.417478
 30
0.0
1001
ACAD
1000
HATCH
1002
{
1070
    19
1000
ANSI31,_I
1040
1.586999999999999
1040
0.7850000000000001
1002
}
  0
POLYLINE
  5
104B
330
118E
100
AcDbEntity
  8
SCHRAFFUR_RAND
100
AcDb2dPolyline
 66
     1
 10
0.0
 20
0.0
 30
0.0
 70
     1
  0
VERTEX
  5
104C
330
104B
100
AcDbEntity
  8
SCHRAFFUR_RAND
100
AcDbVertex
100
AcDb2dVertex
 10
334.635971
 20
368.665478
 30
0.0
  0
VERTEX
  5
104D
330
104B
100
AcDbEntity
  8
SCHRAFFUR_RAND
100
AcDbVertex
100
AcDb2dVertex
 10
338.550971
 20
368.665478
 30
0.0
  0
VERTEX
  5
104E
330
104B
100
AcDbEntity
  8
SCHRAFFUR_RAND
100
AcDbVertex
100
AcDb2dVertex
 10
338.952971
 20
368.708478
 30
0.0
  0
VERTEX
  5
104F
330
104B
100
AcDbEntity
  8
SCHRAFFUR_RAND
100
AcDbVertex
100
AcDb2dVertex
 10
339.329971
 20
368.858478
 30
0.0
  0
VERTEX
  5
1050
330
104B
100
AcDbEntity
  8
SCHRAFFUR_RAND
100
AcDbVertex
100
AcDb2dVertex
 10
339.657971
 20
369.098478
 30
0.0
  0
VERTEX
  5
1051
330
104B
100
AcDbEntity
  8
SCHRAFFUR_RAND
100
AcDbVertex
100
AcDb2dVertex
 10
339.914971
 20
369.413478
 30
0.0
  0
VERTEX
  5
1052
330
104B
100
AcDbEntity
  8
SCHRAFFUR_RAND
100
AcDbVertex
100
AcDb2dVertex
 10
340.084971
 20
369.781478
 30
0.0
  0
VERTEX
  5
1053
330
104B
100
AcDbEntity
  8
SCHRAFFUR_RAND
100
AcDbVertex
100
AcDb2dVertex
 10
340.148971
 20
370.181478
 30
0.0
  0
VERTEX
  5
1054
330
104B
100
AcDbEntity
  8
SCHRAFFUR_RAND
100
AcDbVertex
100
AcDb2dVertex
 10
340.592971
 20
378.665478
 30
0.0
  0
VERTEX
  5
1055
330
104B
100
AcDbEntity
  8
SCHRAFFUR_RAND
100
AcDbVertex
100
AcDb2dVertex
 10
332.592971
 20
378.665478
 30
0.0
  0
VERTEX
  5
1056
330
104B
100
AcDbEntity
  8
SCHRAFFUR_RAND
100
AcDbVertex
100
AcDb2dVertex
 10
333.037971
 20
370.181478
 30
0.0
  0
VERTEX
  5
1057
330
104B
100
AcDbEntity
  8
SCHRAFFUR_RAND
100
AcDbVertex
100
AcDb2dVertex
 10
333.101971
 20
369.781478
 30
0.0
  0
VERTEX
  5
1058
330
104B
100
AcDbEntity
  8
SCHRAFFUR_RAND
100
AcDbVertex
100
AcDb2dVertex
 10
333.271971
 20
369.413478
 30
0.0
  0
VERTEX
  5
1059
330
104B
100
AcDbEntity
  8
SCHRAFFUR_RAND
100
AcDbVertex
100
AcDb2dVertex
 10
333.528971
 20
369.098478
 30
0.0
  0
VERTEX
  5
105A
330
104B
100
AcDbEntity
  8
SCHRAFFUR_RAND
100
AcDbVertex
100
AcDb2dVertex
 10
333.855971
 20
368.858478
 30
0.0
  0
VERTEX
  5
105B
330
104B
100
AcDbEntity
  8
SCHRAFFUR_RAND
100
AcDbVertex
100
AcDb2dVertex
 10
334.232971
 20
368.708478
 30
0.0
  0
VERTEX
  5
105C
330
104B
100
AcDbEntity
  8
SCHRAFFUR_RAND
100
AcDbVertex
100
AcDb2dVertex
 10
334.635971
 20
368.665478
 30
0.0
  0
SEQEND
  5
105D
330
104B
100
AcDbEntity
  8
SCHRAFFUR_RAND
  0
INSERT
  5
1067
330
118E
100
AcDbEntity
  8
8
100
AcDbBlockReference
  2
*X1
 10
280.560971
 20
189.417478
 30
0.0
1001
ACAD
1000
HATCH
1002
{
1070
    19
1000
ANSI31,_I
1040
1.586999999999999
1040
0.7850000000000001
1002
}
  0
POLYLINE
  5
1068
330
118E
100
AcDbEntity
  8
SCHRAFFUR_RAND
100
AcDb2dPolyline
 66
     1
 10
0.0
 20
0.0
 30
0.0
 70
     1
  0
VERTEX
  5
1069
330
1068
100
AcDbEntity
  8
SCHRAFFUR_RAND
100
AcDbVertex
100
AcDb2dVertex
 10
352.635971
 20
368.665478
 30
0.0
  0
VERTEX
  5
106A
330
1068
100
AcDbEntity
  8
SCHRAFFUR_RAND
100
AcDbVertex
100
AcDb2dVertex
 10
356.550971
 20
368.665478
 30
0.0
  0
VERTEX
  5
106B
330
1068
100
AcDbEntity
  8
SCHRAFFUR_RAND
100
AcDbVertex
100
AcDb2dVertex
 10
356.952971
 20
368.708478
 30
0.0
  0
VERTEX
  5
106C
330
1068
100
AcDbEntity
  8
SCHRAFFUR_RAND
100
AcDbVertex
100
AcDb2dVertex
 10
357.329971
 20
368.858478
 30
0.0
  0
VERTEX
  5
106D
330
1068
100
AcDbEntity
  8
SCHRAFFUR_RAND
100
AcDbVertex
100
AcDb2dVertex
 10
357.657971
 20
369.098478
 30
0.0
  0
VERTEX
  5
106E
330
1068
100
AcDbEntity
  8
SCHRAFFUR_RAND
100
AcDbVertex
100
AcDb2dVertex
 10
357.914971
 20
369.413478
 30
0.0
  0
VERTEX
  5
106F
330
1068
100
AcDbEntity
  8
SCHRAFFUR_RAND
100
AcDbVertex
100
AcDb2dVertex
 10
358.084971
 20
369.781478
 30
0.0
  0
VERTEX
  5
1070
330
1068
100
AcDbEntity
  8
SCHRAFFUR_RAND
100
AcDbVertex
100
AcDb2dVertex
 10
358.148971
 20
370.181478
 30
0.0
  0
VERTEX
  5
1071
330
1068
100
AcDbEntity
  8
SCHRAFFUR_RAND
100
AcDbVertex
100
AcDb2dVertex
 10
358.592971
 20
378.665478
 30
0.0
  0
VERTEX
  5
1072
330
1068
100
AcDbEntity
  8
SCHRAFFUR_RAND
100
AcDbVertex
100
AcDb2dVertex
 10
350.592971
 20
378.665478
 30
0.0
  0
VERTEX
  5
1073
330
1068
100
AcDbEntity
  8
SCHRAFFUR_RAND
100
AcDbVertex
100
AcDb2dVertex
 10
351.037971
 20
370.181478
 30
0.0
  0
VERTEX
  5
1074
330
1068
100
AcDbEntity
  8
SCHRAFFUR_RAND
100
AcDbVertex
100
AcDb2dVertex
 10
351.101971
 20
369.781478
 30
0.0
  0
VERTEX
  5
1075
330
1068
100
AcDbEntity
  8
SCHRAFFUR_RAND
100
AcDbVertex
100
AcDb2dVertex
 10
351.271971
 20
369.413478
 30
0.0
  0
VERTEX
  5
1076
330
1068
100
AcDbEntity
  8
SCHRAFFUR_RAND
100
AcDbVertex
100
AcDb2dVertex
 10
351.528971
 20
369.098478
 30
0.0
  0
VERTEX
  5
1077
330
1068
100
AcDbEntity
  8
SCHRAFFUR_RAND
100
AcDbVertex
100
AcDb2dVertex
 10
351.855971
 20
368.858478
 30
0.0
  0
VERTEX
  5
1078
330
1068
100
AcDbEntity
  8
SCHRAFFUR_RAND
100
AcDbVertex
100
AcDb2dVertex
 10
352.232971
 20
368.708478
 30
0.0
  0
VERTEX
  5
1079
330
1068
100
AcDbEntity
  8
SCHRAFFUR_RAND
100
AcDbVertex
100
AcDb2dVertex
 10
352.635971
 20
368.665478
 30
0.0
  0
SEQEND
  5
107A
330
1068
100
AcDbEntity
  8
SCHRAFFUR_RAND
  0
INSERT
  5
1084
330
118E
100
AcDbEntity
  8
8
100
AcDbBlockReference
  2
*X2
 10
280.560971
 20
189.417478
 30
0.0
1001
ACAD
1000
HATCH
1002
{
1070
    19
1000
ANSI31,_I
1040
1.586999999999999
1040
0.7850000000000001
1002
}
  0
POLYLINE
  5
1085
330
118E
100
AcDbEntity
  8
SCHRAFFUR_RAND
100
AcDb2dPolyline
 66
     1
 10
0.0
 20
0.0
 30
0.0
 70
     1
  0
VERTEX
  5
1086
330
1085
100
AcDbEntity
  8
SCHRAFFUR_RAND
100
AcDbVertex
100
AcDb2dVertex
 10
370.635971
 20
368.665478
 30
0.0
  0
VERTEX
  5
1087
330
1085
100
AcDbEntity
  8
SCHRAFFUR_RAND
100
AcDbVertex
100
AcDb2dVertex
 10
374.550971
 20
368.665478
 30
0.0
  0
VERTEX
  5
1088
330
1085
100
AcDbEntity
  8
SCHRAFFUR_RAND
100
AcDbVertex
100
AcDb2dVertex
 10
374.952971
 20
368.708478
 30
0.0
  0
VERTEX
  5
1089
330
1085
100
AcDbEntity
  8
SCHRAFFUR_RAND
100
AcDbVertex
100
AcDb2dVertex
 10
375.329971
 20
368.858478
 30
0.0
  0
VERTEX
  5
108A
330
1085
100
AcDbEntity
  8
SCHRAFFUR_RAND
100
AcDbVertex
100
AcDb2dVertex
 10
375.657971
 20
369.098478
 30
0.0
  0
VERTEX
  5
108B
330
1085
100
AcDbEntity
  8
SCHRAFFUR_RAND
100
AcDbVertex
100
AcDb2dVertex
 10
375.914971
 20
369.413478
 30
0.0
  0
VERTEX
  5
108C
330
1085
100
AcDbEntity
  8
SCHRAFFUR_RAND
100
AcDbVertex
100
AcDb2dVertex
 10
376.084971
 20
369.781478
 30
0.0
  0
VERTEX
  5
108D
330
1085
100
AcDbEntity
  8
SCHRAFFUR_RAND
100
AcDbVertex
100
AcDb2dVertex
 10
376.148971
 20
370.181478
 30
0.0
  0
VERTEX
  5
108E
330
1085
100
AcDbEntity
  8
SCHRAFFUR_RAND
100
AcDbVertex
100
AcDb2dVertex
 10
376.592971
 20
378.665478
 30
0.0
  0
VERTEX
  5
108F
330
1085
100
AcDbEntity
  8
SCHRAFFUR_RAND
100
AcDbVertex
100
AcDb2dVertex
 10
368.592971
 20
378.665478
 30
0.0
  0
VERTEX
  5
1090
330
1085
100
AcDbEntity
  8
SCHRAFFUR_RAND
100
AcDbVertex
100
AcDb2dVertex
 10
369.037971
 20
370.181478
 30
0.0
  0
VERTEX
  5
1091
330
1085
100
AcDbEntity
  8
SCHRAFFUR_RAND
100
AcDbVertex
100
AcDb2dVertex
 10
369.101971
 20
369.781478
 30
0.0
  0
VERTEX
  5
1092
330
1085
100
AcDbEntity
  8
SCHRAFFUR_RAND
100
AcDbVertex
100
AcDb2dVertex
 10
369.271971
 20
369.413478
 30
0.0
  0
VERTEX
  5
1093
330
1085
100
AcDbEntity
  8
SCHRAFFUR_RAND
100
AcDbVertex
100
AcDb2dVertex
 10
369.528971
 20
369.098478
 30
0.0
  0
VERTEX
  5
1094
330
1085
100
AcDbEntity
  8
SCHRAFFUR_RAND
100
AcDbVertex
100
AcDb2dVertex
 10
369.855971
 20
368.858478
 30
0.0
  0
VERTEX
  5
1095
330
1085
100
AcDbEntity
  8
SCHRAFFUR_RAND
100
AcDbVertex
100
AcDb2dVertex
 10
370.232971
 20
368.708478
 30
0.0
  0
VERTEX
  5
1096
330
1085
100
AcDbEntity
  8
SCHRAFFUR_RAND
100
AcDbVertex
100
AcDb2dVertex
 10
370.635971
 20
368.665478
 30
0.0
  0
SEQEND
  5
1097
330
1085
100
AcDbEntity
  8
SCHRAFFUR_RAND
  0
INSERT
  5
10A1
330
118E
100
AcDbEntity
  8
8
100
AcDbBlockReference
  2
*X3
 10
280.560971
 20
189.417478
 30
0.0
1001
ACAD
1000
HATCH
1002
{
1070
    19
1000
ANSI31,_I
1040
1.586999999999999
1040
0.7850000000000001
1002
}
  0
POLYLINE
  5
10A2
330
118E
100
AcDbEntity
  8
SCHRAFFUR_RAND
100
AcDb2dPolyline
 66
     1
 10
0.0
 20
0.0
 30
0.0
 70
     1
  0
VERTEX
  5
10A3
330
10A2
100
AcDbEntity
  8
SCHRAFFUR_RAND
100
AcDbVertex
100
AcDb2dVertex
 10
388.635971
 20
368.665478
 30
0.0
  0
VERTEX
  5
10A4
330
10A2
100
AcDbEntity
  8
SCHRAFFUR_RAND
100
AcDbVertex
100
AcDb2dVertex
 10
392.550971
 20
368.665478
 30
0.0
  0
VERTEX
  5
10A5
330
10A2
100
AcDbEntity
  8
SCHRAFFUR_RAND
100
AcDbVertex
100
AcDb2dVertex
 10
392.952971
 20
368.708478
 30
0.0
  0
VERTEX
  5
10A6
330
10A2
100
AcDbEntity
  8
SCHRAFFUR_RAND
100
AcDbVertex
100
AcDb2dVertex
 10
393.329971
 20
368.858478
 30
0.0
  0
VERTEX
  5
10A7
330
10A2
100
AcDbEntity
  8
SCHRAFFUR_RAND
100
AcDbVertex
100
AcDb2dVertex
 10
393.657971
 20
369.098478
 30
0.0
  0
VERTEX
  5
10A8
330
10A2
100
AcDbEntity
  8
SCHRAFFUR_RAND
100
AcDbVertex
100
AcDb2dVertex
 10
393.914971
 20
369.413478
 30
0.0
  0
VERTEX
  5
10A9
330
10A2
100
AcDbEntity
  8
SCHRAFFUR_RAND
100
AcDbVertex
100
AcDb2dVertex
 10
394.084971
 20
369.781478
 30
0.0
  0
VERTEX
  5
10AA
330
10A2
100
AcDbEntity
  8
SCHRAFFUR_RAND
100
AcDbVertex
100
AcDb2dVertex
 10
394.148971
 20
370.181478
 30
0.0
  0
VERTEX
  5
10AB
330
10A2
100
AcDbEntity
  8
SCHRAFFUR_RAND
100
AcDbVertex
100
AcDb2dVertex
 10
394.592971
 20
378.665478
 30
0.0
  0
VERTEX
  5
10AC
330
10A2
100
AcDbEntity
  8
SCHRAFFUR_RAND
100
AcDbVertex
100
AcDb2dVertex
 10
386.592971
 20
378.665478
 30
0.0
  0
VERTEX
  5
10AD
330
10A2
100
AcDbEntity
  8
SCHRAFFUR_RAND
100
AcDbVertex
100
AcDb2dVertex
 10
387.037971
 20
370.181478
 30
0.0
  0
VERTEX
  5
10AE
330
10A2
100
AcDbEntity
  8
SCHRAFFUR_RAND
100
AcDbVertex
100
AcDb2dVertex
 10
387.101971
 20
369.781478
 30
0.0
  0
VERTEX
  5
10AF
330
10A2
100
AcDbEntity
  8
SCHRAFFUR_RAND
100
AcDbVertex
100
AcDb2dVertex
 10
387.271971
 20
369.413478
 30
0.0
  0
VERTEX
  5
10B0
330
10A2
100
AcDbEntity
  8
SCHRAFFUR_RAND
100
AcDbVertex
100
AcDb2dVertex
 10
387.528971
 20
369.098478
 30
0.0
  0
VERTEX
  5
10B1
330
10A2
100
AcDbEntity
  8
SCHRAFFUR_RAND
100
AcDbVertex
100
AcDb2dVertex
 10
387.855971
 20
368.858478
 30
0.0
  0
VERTEX
  5
10B2
330
10A2
100
AcDbEntity
  8
SCHRAFFUR_RAND
100
AcDbVertex
100
AcDb2dVertex
 10
388.232971
 20
368.708478
 30
0.0
  0
VERTEX
  5
10B3
330
10A2
100
AcDbEntity
  8
SCHRAFFUR_RAND
100
AcDbVertex
100
AcDb2dVertex
 10
388.635971
 20
368.665478
 30
0.0
  0
SEQEND
  5
10B4
330
10A2
100
AcDbEntity
  8
SCHRAFFUR_RAND
  0
INSERT
  5
10BE
330
118E
100
AcDbEntity
  8
8
100
AcDbBlockReference
  2
*X4
 10
280.560971
 20
189.417478
 30
0.0
1001
ACAD
1000
HATCH
1002
{
1070
    19
1000
ANSI31,_I
1040
1.586999999999999
1040
0.7850000000000001
1002
}
  0
POLYLINE
  5
10BF
330
118E
100
AcDbEntity
  8
SCHRAFFUR_RAND
100
AcDb2dPolyline
 66
     1
 10
0.0
 20
0.0
 30
0.0
 70
     1
  0
VERTEX
  5
10C0
330
10BF
100
AcDbEntity
  8
SCHRAFFUR_RAND
100
AcDbVertex
100
AcDb2dVertex
 10
406.6359709999999
 20
368.665478
 30
0.0
  0
VERTEX
  5
10C1
330
10BF
100
AcDbEntity
  8
SCHRAFFUR_RAND
100
AcDbVertex
100
AcDb2dVertex
 10
410.5509709999999
 20
368.665478
 30
0.0
  0
VERTEX
  5
10C2
330
10BF
100
AcDbEntity
  8
SCHRAFFUR_RAND
100
AcDbVertex
100
AcDb2dVertex
 10
410.952971
 20
368.708478
 30
0.0
  0
VERTEX
  5
10C3
330
10BF
100
AcDbEntity
  8
SCHRAFFUR_RAND
100
AcDbVertex
100
AcDb2dVertex
 10
411.3299709999999
 20
368.858478
 30
0.0
  0
VERTEX
  5
10C4
330
10BF
100
AcDbEntity
  8
SCHRAFFUR_RAND
100
AcDbVertex
100
AcDb2dVertex
 10
411.6579709999999
 20
369.098478
 30
0.0
  0
VERTEX
  5
10C5
330
10BF
100
AcDbEntity
  8
SCHRAFFUR_RAND
100
AcDbVertex
100
AcDb2dVertex
 10
411.914971
 20
369.413478
 30
0.0
  0
VERTEX
  5
10C6
330
10BF
100
AcDbEntity
  8
SCHRAFFUR_RAND
100
AcDbVertex
100
AcDb2dVertex
 10
412.0849709999999
 20
369.781478
 30
0.0
  0
VERTEX
  5
10C7
330
10BF
100
AcDbEntity
  8
SCHRAFFUR_RAND
100
AcDbVertex
100
AcDb2dVertex
 10
412.148971
 20
370.181478
 30
0.0
  0
VERTEX
  5
10C8
330
10BF
100
AcDbEntity
  8
SCHRAFFUR_RAND
100
AcDbVertex
100
AcDb2dVertex
 10
412.5929709999999
 20
378.665478
 30
0.0
  0
VERTEX
  5
10C9
330
10BF
100
AcDbEntity
  8
SCHRAFFUR_RAND
100
AcDbVertex
100
AcDb2dVertex
 10
404.592971
 20
378.665478
 30
0.0
  0
VERTEX
  5
10CA
330
10BF
100
AcDbEntity
  8
SCHRAFFUR_RAND
100
AcDbVertex
100
AcDb2dVertex
 10
405.0379709999999
 20
370.181478
 30
0.0
  0
VERTEX
  5
10CB
330
10BF
100
AcDbEntity
  8
SCHRAFFUR_RAND
100
AcDbVertex
100
AcDb2dVertex
 10
405.101971
 20
369.781478
 30
0.0
  0
VERTEX
  5
10CC
330
10BF
100
AcDbEntity
  8
SCHRAFFUR_RAND
100
AcDbVertex
100
AcDb2dVertex
 10
405.2719709999999
 20
369.413478
 30
0.0
  0
VERTEX
  5
10CD
330
10BF
100
AcDbEntity
  8
SCHRAFFUR_RAND
100
AcDbVertex
100
AcDb2dVertex
 10
405.528971
 20
369.098478
 30
0.0
  0
VERTEX
  5
10CE
330
10BF
100
AcDbEntity
  8
SCHRAFFUR_RAND
100
AcDbVertex
100
AcDb2dVertex
 10
405.8559709999999
 20
368.858478
 30
0.0
  0
VERTEX
  5
10CF
330
10BF
100
AcDbEntity
  8
SCHRAFFUR_RAND
100
AcDbVertex
100
AcDb2dVertex
 10
406.232971
 20
368.708478
 30
0.0
  0
VERTEX
  5
10D0
330
10BF
100
AcDbEntity
  8
SCHRAFFUR_RAND
100
AcDbVertex
100
AcDb2dVertex
 10
406.6359709999999
 20
368.665478
 30
0.0
  0
SEQEND
  5
10D1
330
10BF
100
AcDbEntity
  8
SCHRAFFUR_RAND
  0
INSERT
  5
10DB
330
118E
100
AcDbEntity
  8
8
100
AcDbBlockReference
  2
*X5
 10
280.560971
 20
189.417478
 30
0.0
1001
ACAD
1000
HATCH
1002
{
1070
    19
1000
ANSI31,_I
1040
1.586999999999999
1040
0.7850000000000001
1002
}
  0
POLYLINE
  5
10DC
330
118E
100
AcDbEntity
  8
SCHRAFFUR_RAND
100
AcDb2dPolyline
 66
     1
 10
0.0
 20
0.0
 30
0.0
 70
     1
  0
VERTEX
  5
10DD
330
10DC
100
AcDbEntity
  8
SCHRAFFUR_RAND
100
AcDbVertex
100
AcDb2dVertex
 10
424.635971
 20
368.665478
 30
0.0
  0
VERTEX
  5
10DE
330
10DC
100
AcDbEntity
  8
SCHRAFFUR_RAND
100
AcDbVertex
100
AcDb2dVertex
 10
428.550971
 20
368.665478
 30
0.0
  0
VERTEX
  5
10DF
330
10DC
100
AcDbEntity
  8
SCHRAFFUR_RAND
100
AcDbVertex
100
AcDb2dVertex
 10
428.952971
 20
368.708478
 30
0.0
  0
VERTEX
  5
10E0
330
10DC
100
AcDbEntity
  8
SCHRAFFUR_RAND
100
AcDbVertex
100
AcDb2dVertex
 10
429.329971
 20
368.858478
 30
0.0
  0
VERTEX
  5
10E1
330
10DC
100
AcDbEntity
  8
SCHRAFFUR_RAND
100
AcDbVertex
100
AcDb2dVertex
 10
429.6579709999999
 20
369.098478
 30
0.0
  0
VERTEX
  5
10E2
330
10DC
100
AcDbEntity
  8
SCHRAFFUR_RAND
100
AcDbVertex
100
AcDb2dVertex
 10
429.914971
 20
369.413478
 30
0.0
  0
VERTEX
  5
10E3
330
10DC
100
AcDbEntity
  8
SCHRAFFUR_RAND
100
AcDbVertex
100
AcDb2dVertex
 10
430.084971
 20
369.781478
 30
0.0
  0
VERTEX
  5
10E4
330
10DC
100
AcDbEntity
  8
SCHRAFFUR_RAND
100
AcDbVertex
100
AcDb2dVertex
 10
430.148971
 20
370.181478
 30
0.0
  0
VERTEX
  5
10E5
330
10DC
100
AcDbEntity
  8
SCHRAFFUR_RAND
100
AcDbVertex
100
AcDb2dVertex
 10
430.592971
 20
378.665478
 30
0.0
  0
VERTEX
  5
10E6
330
10DC
100
AcDbEntity
  8
SCHRAFFUR_RAND
100
AcDbVertex
100
AcDb2dVertex
 10
422.5929709999999
 20
378.665478
 30
0.0
  0
VERTEX
  5
10E7
330
10DC
100
AcDbEntity
  8
SCHRAFFUR_RAND
100
AcDbVertex
100
AcDb2dVertex
 10
423.0379709999999
 20
370.181478
 30
0.0
  0
VERTEX
  5
10E8
330
10DC
100
AcDbEntity
  8
SCHRAFFUR_RAND
100
AcDbVertex
100
AcDb2dVertex
 10
423.1019709999999
 20
369.781478
 30
0.0
  0
VERTEX
  5
10E9
330
10DC
100
AcDbEntity
  8
SCHRAFFUR_RAND
100
AcDbVertex
100
AcDb2dVertex
 10
423.271971
 20
369.413478
 30
0.0
  0
VERTEX
  5
10EA
330
10DC
100
AcDbEntity
  8
SCHRAFFUR_RAND
100
AcDbVertex
100
AcDb2dVertex
 10
423.5289709999999
 20
369.098478
 30
0.0
  0
VERTEX
  5
10EB
330
10DC
100
AcDbEntity
  8
SCHRAFFUR_RAND
100
AcDbVertex
100
AcDb2dVertex
 10
423.855971
 20
368.858478
 30
0.0
  0
VERTEX
  5
10EC
330
10DC
100
AcDbEntity
  8
SCHRAFFUR_RAND
100
AcDbVertex
100
AcDb2dVertex
 10
424.2329709999999
 20
368.708478
 30
0.0
  0
VERTEX
  5
10ED
330
10DC
100
AcDbEntity
  8
SCHRAFFUR_RAND
100
AcDbVertex
100
AcDb2dVertex
 10
424.635971
 20
368.665478
 30
0.0
  0
SEQEND
  5
10EE
330
10DC
100
AcDbEntity
  8
SCHRAFFUR_RAND
  0
INSERT
  5
10F8
330
118E
100
AcDbEntity
  8
8
100
AcDbBlockReference
  2
*X6
 10
280.560971
 20
189.417478
 30
0.0
1001
ACAD
1000
HATCH
1002
{
1070
    19
1000
ANSI31,_I
1040
1.586999999999999
1040
0.7850000000000001
1002
}
  0
POLYLINE
  5
10F9
330
118E
100
AcDbEntity
  8
SCHRAFFUR_RAND
100
AcDb2dPolyline
 66
     1
 10
0.0
 20
0.0
 30
0.0
 70
     1
  0
VERTEX
  5
10FA
330
10F9
100
AcDbEntity
  8
SCHRAFFUR_RAND
100
AcDbVertex
100
AcDb2dVertex
 10
442.6359709999999
 20
368.665478
 30
0.0
  0
VERTEX
  5
10FB
330
10F9
100
AcDbEntity
  8
SCHRAFFUR_RAND
100
AcDbVertex
100
AcDb2dVertex
 10
447.7079709999999
 20
368.665478
 30
0.0
  0
VERTEX
  5
10FC
330
10F9
100
AcDbEntity
  8
SCHRAFFUR_RAND
100
AcDbVertex
100
AcDb2dVertex
 10
448.8089709999999
 20
369.104478
 30
0.0
  0
VERTEX
  5
10FD
330
10F9
100
AcDbEntity
  8
SCHRAFFUR_RAND
100
AcDbVertex
100
AcDb2dVertex
 10
449.3059709999999
 20
370.181478
 30
0.0
  0
VERTEX
  5
10FE
330
10F9
100
AcDbEntity
  8
SCHRAFFUR_RAND
100
AcDbVertex
100
AcDb2dVertex
 10
449.508971
 20
374.065478
 30
0.0
  0
VERTEX
  5
10FF
330
10F9
100
AcDbEntity
  8
SCHRAFFUR_RAND
100
AcDbVertex
100
AcDb2dVertex
 10
449.780971
 20
374.957478
 30
0.0
  0
VERTEX
  5
1100
330
10F9
100
AcDbEntity
  8
SCHRAFFUR_RAND
100
AcDbVertex
100
AcDb2dVertex
 10
450.427971
 20
375.513478
 30
0.0
  0
VERTEX
  5
1101
330
10F9
100
AcDbEntity
  8
SCHRAFFUR_RAND
100
AcDbVertex
100
AcDb2dVertex
 10
450.592971
 20
378.665478
 30
0.0
  0
VERTEX
  5
1102
330
10F9
100
AcDbEntity
  8
SCHRAFFUR_RAND
100
AcDbVertex
100
AcDb2dVertex
 10
440.5929709999999
 20
378.665478
 30
0.0
  0
VERTEX
  5
1103
330
10F9
100
AcDbEntity
  8
SCHRAFFUR_RAND
100
AcDbVertex
100
AcDb2dVertex
 10
441.0379709999999
 20
370.181478
 30
0.0
  0
VERTEX
  5
1104
330
10F9
100
AcDbEntity
  8
SCHRAFFUR_RAND
100
AcDbVertex
100
AcDb2dVertex
 10
441.533971
 20
369.104478
 30
0.0
  0
VERTEX
  5
1105
330
10F9
100
AcDbEntity
  8
SCHRAFFUR_RAND
100
AcDbVertex
100
AcDb2dVertex
 10
442.6359709999999
 20
368.665478
 30
0.0
  0
SEQEND
  5
1106
330
10F9
100
AcDbEntity
  8
SCHRAFFUR_RAND
  0
INSERT
  5
1111
330
118E
100
AcDbEntity
  8
8
100
AcDbBlockReference
  2
*X7
 10
280.560971
 20
189.417478
 30
0.0
1001
ACAD
1000
HATCH
1002
{
1070
    19
1000
ANSI31,_I
1040
1.586999999999999
1040
0.7850000000000001
1002
}
  0
DIMENSION
  5
111C
330
118E
100
AcDbEntity
  8
5
100
AcDbDimension
  2
*D10
 10
450.592971
 20
463.6654779999999
 30
0.0
 11
381.592971
 21
475.415478
 31
0.0
 70
    32
  1
%%c138
 71
     5
 42
138.0
  3
GEN-ISO
100
AcDbAlignedDimension
 13
312.592971
 23
378.665478
 33
0.0
 14
450.592971
 24
378.665478
 34
0.0
100
AcDbRotatedDimension
1001
ACAD
1000
DSTYLE
1002
{
1070
    41
1040
5.0
1002
}
  0
DIMENSION
  5
1127
330
118E
100
AcDbEntity
  8
5
100
AcDbDimension
  2
*D12
 10
350.592971
 20
428.665478
 30
0.0
 11
411.4748607637794
 21
440.4154779999999
 31
0.0
 70
    32
  1
10
 71
     5
 42
10.0
  3
GEN-ISO
100
AcDbAlignedDimension
 13
340.592971
 23
378.665478
 33
0.0
 14
350.592971
 24
378.665478
 34
0.0
100
AcDbRotatedDimension
1001
ACAD
1000
DSTYLE
1002
{
1070
    41
1040
5.0
1002
}
  0
DIMENSION
  5
1132
330
118E
100
AcDbEntity
  8
5
100
AcDbDimension
  2
*D11
 10
263.709465
 20
378.665478
 30
0.0
 11
251.9594649999999
 21
439.5473677637795
 31
0.0
 70
    32
  1
10
 71
     5
 42
10.0
  3
GEN-ISO
100
AcDbAlignedDimension
 13
315.477971
 23
368.665478
 33
0.0
 14
312.592971
 24
378.665478
 34
0.0
 50
90.0
100
AcDbRotatedDimension
1001
ACAD
1000
DSTYLE
1002
{
1070
    41
1040
5.0
1002
}
  0
INSERT
  5
121C
330
118E
100
AcDbEntity
  8
0
100
AcDbBlockReference
  2
KATALOG_LEER
 10
251.839706
 20
11.304483
 30
0.0
 41
5.0
 42
5.0
 43
5.0
1001
GENIUS_GENOREF_13
1005
121D
  0
POINT
  5
121D
330
118E
100
AcDbEntity
  8
0
 60
     1
100
AcDbPoint
 10
0.0
 20
0.0
 30
0.0
1001
GENIUS_GENOBJ-N-TIT_13
1002
{
1000
OWNER
1000
GEN
1002
}
1001
GENIUS_GENOENT_13
1002
{
1000
MYREF
1005
121D
1002
}
1002
{
1000
GRP
1005
0
1002
}
1001
GENIUS_GENOLIS_13
1002
{
1000
ENT
1005
121C
1002
}
1001
GENIUS_GENTITLE_13
1002
{
1000
SCALE
1000
1:5
1002
}
1002
{
1000
BORDER
1000
KATALOG
1002
}
1002
{
1000
TITLE
1000
KATALOG_LEER
1002
}
1002
{
1000
UNCHG
1002
{
1000
GEN-TITLE-SCA
1000
GEN-TITLE-SIZ
1002
}
1002
}
1002
{
1000
HRA
1005
1215
1002
}
1002
{
1000
HTIT
1005
121C
1002
}
1002
{
1000
GENIUSID
1005
121D
1002
}
1001
GENIUS_GENODEF_13
1002
{
1000
HIER
1070
     1
1002
}
1002
{
1000
MANEDIT
1070
     1
1002
}
1002
{
1000
NOSEL
1070
     0
1002
}
1002
{
1000
BEHIND
1070
     0
1002
}
1002
{
1000
REACTOR
1002
}
  0
ENDSEC
  0
SECTION
  2
OBJECTS
  0
DICTIONARY
  5
1182
330
0
100
AcDbDictionary
281
     1
  3
ACAD_COLOR
350
12E9
  3
ACAD_GROUP
350
1183
  3
ACAD_LAYOUT
350
12EC
  3
ACAD_MATERIAL
350
12E8
  3
ACAD_MLINESTYLE
350
1191
  3
ACAD_PLOTSETTINGS
350
12ED
  3
ACAD_PLOTSTYLENAME
350
12E6
  3
ACAD_TABLESTYLE
350
12EA
  3
ACDBHEADERROUNDTRIPXREC
350
13E4
  3
AcDbVariableDictionary
350
13DF
  3
AcmDictionary
350
134B
  3
AMG
350
12F1
  3
AMGSNAPSETTINGS
350
13C1
  0
DICTIONARY
  5
12E9
102
{ACAD_REACTORS
330
1182
102
}
330
1182
100
AcDbDictionary
281
     1
  0
DICTIONARY
  5
1183
102
{ACAD_REACTORS
330
1182
102
}
330
1182
100
AcDbDictionary
281
     1
  0
DICTIONARY
  5
12EC
102
{ACAD_REACTORS
330
1182
102
}
330
1182
100
AcDbDictionary
281
     1
  3
Layout1
350
12EF
  3
Model
350
12EE
  0
DICTIONARY
  5
12E8
102
{ACAD_REACTORS
330
1182
102
}
330
1182
100
AcDbDictionary
281
     1
  0
DICTIONARY
  5
1191
102
{ACAD_REACTORS
330
1182
102
}
330
1182
100
AcDbDictionary
281
     1
  3
STANDARD
350
1192
  0
DICTIONARY
  5
12ED
102
{ACAD_REACTORS
330
1182
102
}
330
1182
100
AcDbDictionary
281
     1
  0
ACDBDICTIONARYWDFLT
  5
12E6
102
{ACAD_REACTORS
330
1182
102
}
330
1182
100
AcDbDictionary
281
     1
  3
Normal
350
12E7
100
AcDbDictionaryWithDefault
340
12E7
  0
DICTIONARY
  5
12EA
102
{ACAD_REACTORS
330
1182
102
}
330
1182
100
AcDbDictionary
281
     1
  3
Standard
350
12EB
  0
DICTIONARY
  5
13E4
102
{ACAD_REACTORS
330
1182
102
}
330
1182
100
AcDbDictionary
281
     1
  0
DICTIONARY
  5
13DF
102
{ACAD_REACTORS
330
1182
102
}
330
1182
100
AcDbDictionary
281
     1
  3
CTABLESTYLE
350
13E0
  3
DIMASSOC
350
13E1
  3
PROJECTNAME
350
13E2
  0
DICTIONARY
  5
134B
102
{ACAD_REACTORS
330
1182
102
}
330
1182
100
AcDbDictionary
281
     1
  3
AcmStdDictionary
350
1356
  3
AMDTSECTSYM_ARROWCOLOR
350
1379
  0
DICTIONARY
  5
12F1
102
{ACAD_REACTORS
330
1182
102
}
330
1182
100
AcDbDictionary
281
     1
  0
DICTIONARY
  5
13C1
102
{ACAD_REACTORS
330
1182
102
}
330
1182
100
AcDbDictionary
281
     1
  0
LAYOUT
  5
12EF
102
{ACAD_XDICTIONARY
360
13E7
102
}
102
{ACAD_REACTORS
330
12EC
102
}
330
12EC
100
AcDbPlotSettings
  1

  2
Xerox Document Centre CS50 PS
  4

  6

 40
0.0
 41
0.0
 42
0.0
 43
0.0
 44
0.0
 45
0.0
 46
0.0
 47
0.0
 48
0.0
 49
0.0
140
0.0
141
0.0
142
1.0
143
1.0
 70
   688
 72
     0
 73
     0
 74
     5
  7

 75
    16
147
1.0
148
0.0
149
0.0
100
AcDbLayout
  1
Layout1
 70
     1
 71
     1
 10
0.0
 20
0.0
 11
170.032
 21
234.064
 12
0.0
 22
0.0
 32
0.0
 14
0.0
 24
0.0
 34
0.0
 15
170.032
 25
234.064
 35
0.0
146
0.0
 13
0.0
 23
0.0
 33
0.0
 16
1.0
 26
0.0
 36
0.0
 17
0.0
 27
1.0
 37
0.0
 76
     0
330
118B
  0
LAYOUT
  5
12EE
102
{ACAD_XDICTIONARY
360
13E5
102
}
102
{ACAD_REACTORS
330
12EC
102
}
330
12EC
100
AcDbPlotSettings
  1

  2
Xerox Document Centre CS50 PS
  4

  6

 40
0.0
 41
0.0
 42
0.0
 43
0.0
 44
0.0
 45
0.0
 46
0.0
 47
0.0
 48
0.0
 49
0.0
140
0.0
141
0.0
142
1.0
143
1.0
 70
  1712
 72
     0
 73
     0
 74
     0
  7

 75
     0
147
1.0
148
0.0
149
0.0
100
AcDbLayout
  1
Model
 70
     1
 71
     0
 10
0.0
 20
0.0
 11
12.0
 21
9.0
 12
0.0
 22
0.0
 32
0.0
 14
0.0
 24
0.0
 34
0.0
 15
0.0
 25
0.0
 35
0.0
146
0.0
 13
0.0
 23
0.0
 33
0.0
 16
1.0
 26
0.0
 36
0.0
 17
0.0
 27
1.0
 37
0.0
 76
     0
330
118E
  0
MLINESTYLE
  5
1192
102
{ACAD_REACTORS
330
1191
102
}
330
1191
100
AcDbMlineStyle
  2
STANDARD
 70
     0
  3

 62
   256
 51
90.0
 52
90.0
 71
     2
 49
0.5
 62
   256
  6
BYLAYER
 49
-0.5
 62
   256
  6
BYLAYER
  0
ACDBPLACEHOLDER
  5
12E7
102
{ACAD_REACTORS
330
12E6
102
}
330
12E6
  0
TABLESTYLE
  5
12EB
102
{ACAD_REACTORS
330
12EA
102
}
330
12EA
100
AcDbTableStyle
  3
Standard
 70
     0
 71
     0
 40
1.5
 41
1.5
280
     0
281
     0
  7
STANDARD
140
4.5
170
     2
 62
     0
 63
     7
283
     0
274
    -2
284
     1
 64
     0
275
    -2
285
     1
 65
     0
276
    -2
286
     1
 66
     0
277
    -2
287
     1
 67
     0
278
    -2
288
     1
 68
     0
279
    -2
289
     1
 69
     0
  7
STANDARD
140
6.0
170
     5
 62
     0
 63
     7
283
     0
274
    -2
284
     1
 64
     0
275
    -2
285
     1
 65
     0
276
    -2
286
     1
 66
     0
277
    -2
287
     1
 67
     0
278
    -2
288
     1
 68
     0
279
    -2
289
     1
 69
     0
  7
STANDARD
140
4.5
170
     5
 62
     0
 63
     7
283
     0
274
    -2
284
     1
 64
     0
275
    -2
285
     1
 65
     0
276
    -2
286
     1
 66
     0
277
    -2
287
     1
 67
     0
278
    -2
288
     1
 68
     0
279
    -2
289
     1
 69
     0
  0
DICTIONARYVAR
  5
13E0
102
{ACAD_REACTORS
330
13DF
102
}
330
13DF
100
DictionaryVariables
280
     0
  1
STANDARD
  0
DICTIONARYVAR
  5
13E1
102
{ACAD_REACTORS
330
13DF
102
}
330
13DF
100
DictionaryVariables
280
     0
  1
1
  0
DICTIONARYVAR
  5
13E2
102
{ACAD_REACTORS
330
13DF
102
}
330
13DF
100
DictionaryVariables
280
     0
  1

  0
DICTIONARY
  5
1356
102
{ACAD_REACTORS
330
134B
102
}
330
134B
100
AcDbDictionary
281
     1
  0
XRECORD
  5
1379
102
{ACAD_REACTORS
330
134B
102
}
330
134B
100
AcDbXrecord
280
     1
 90
-1023410169
  0
DICTIONARY
  5
13E7
330
12EF
100
AcDbDictionary
280
     1
281
     1
  3
ACAD_XREC_ROUNDTRIP
360
13E8
  0
DICTIONARY
  5
13E5
330
12EE
100
AcDbDictionary
280
     1
281
     1
  3
ACAD_XREC_ROUNDTRIP
360
13E6
  0
XRECORD
  5
13E8
102
{ACAD_REACTORS
330
13E7
102
}
330
13E7
100
AcDbXrecord
280
     1
102
SHADEPLOT
 70
     0
102
SHADEPLOTRESLEVEL
 70
     2
102
SHADEPLOTCUSTOMDPI
 70
   300
  0
XRECORD
  5
13E6
102
{ACAD_REACTORS
330
13E5
102
}
330
13E5
100
AcDbXrecord
280
     1
102
SHADEPLOT
 70
     0
102
SHADEPLOTRESLEVEL
 70
     2
102
SHADEPLOTCUSTOMDPI
 70
   300
  0
ENDSEC
  0
EOF
