  0
SECTION
  2
HEADER
  9
$ACADVER
  1
AC1015
  9
$ACADMAINTVER
 70
    20
  9
$DWGCODEPAGE
  3
ANSI_1252
  9
$INSBASE
 10
0.0
 20
0.0
 30
0.0
  9
$EXTMIN
 10
225.6340053929412
 20
177.8892543607962
 30
-0.0000000698494069
  9
$EXTMAX
 10
502.4093646002111
 20
555.0407428353101
 30
0.0000000465733773
  9
$LIMMIN
 10
0.0
 20
0.0
  9
$LIMMAX
 10
1050.0
 20
1050.0
  9
$ORTHOMODE
 70
     0
  9
$REGENMODE
 70
     1
  9
$FILLMODE
 70
     1
  9
$QTEXTMODE
 70
     0
  9
$MIRRTEXT
 70
     0
  9
$LTSCALE
 40
5.0
  9
$ATTMODE
 70
     1
  9
$TEXTSIZE
 40
7.0
  9
$TRACEWID
 40
0.05
  9
$TEXTSTYLE
  7
STANDARD
  9
$CLAYER
  8
0
  9
$CELTYPE
  6
BYLAYER
  9
$CECOLOR
 62
   256
  9
$CELTSCALE
 40
1.0
  9
$DISPSILH
 70
     0
  9
$DIMSCALE
 40
5.0
  9
$DIMASZ
 40
2.5
  9
$DIMEXO
 40
1.0
  9
$DIMDLI
 40
7.0
  9
$DIMRND
 40
0.0
  9
$DIMDLE
 40
0.0
  9
$DIMEXE
 40
1.0
  9
$DIMTP
 40
0.1
  9
$DIMTM
 40
0.1
  9
$DIMTXT
 40
3.5
  9
$DIMCEN
 40
0.0
  9
$DIMTSZ
 40
0.0
  9
$DIMTOL
 70
     0
  9
$DIMLIM
 70
     0
  9
$DIMTIH
 70
     0
  9
$DIMTOH
 70
     0
  9
$DIMSE1
 70
     0
  9
$DIMSE2
 70
     0
  9
$DIMTAD
 70
     1
  9
$DIMZIN
 70
    12
  9
$DIMBLK
  1

  9
$DIMASO
 70
     1
  9
$DIMSHO
 70
     1
  9
$DIMPOST
  1

  9
$DIMAPOST
  1
"
  9
$DIMALT
 70
     0
  9
$DIMALTD
 70
     2
  9
$DIMALTF
 40
0.03937
  9
$DIMLFAC
 40
1.0
  9
$DIMTOFL
 70
     1
  9
$DIMTVP
 40
0.0
  9
$DIMTIX
 70
     0
  9
$DIMSOXD
 70
     0
  9
$DIMSAH
 70
     0
  9
$DIMBLK1
  1

  9
$DIMBLK2
  1

  9
$DIMSTYLE
  2
GEN-ISO
  9
$DIMCLRD
 70
   256
  9
$DIMCLRE
 70
   256
  9
$DIMCLRT
 70
     2
  9
$DIMTFAC
 40
0.71
  9
$DIMGAP
 40
0.6
  9
$DIMJUST
 70
     0
  9
$DIMSD1
 70
     0
  9
$DIMSD2
 70
     0
  9
$DIMTOLJ
 70
     0
  9
$DIMTZIN
 70
     0
  9
$DIMALTZ
 70
     0
  9
$DIMALTTZ
 70
     0
  9
$DIMUPT
 70
     0
  9
$DIMDEC
 70
     2
  9
$DIMTDEC
 70
     3
  9
$DIMALTU
 70
     2
  9
$DIMALTTD
 70
     4
  9
$DIMTXSTY
  7
STANDARD
  9
$DIMAUNIT
 70
     0
  9
$DIMADEC
 70
     0
  9
$DIMALTRND
 40
0.0
  9
$DIMAZIN
 70
     0
  9
$DIMDSEP
 70
    46
  9
$DIMATFIT
 70
     3
  9
$DIMFRAC
 70
     0
  9
$DIMLDRBLK
  1

  9
$DIMLUNIT
 70
     2
  9
$DIMLWD
 70
    -2
  9
$DIMLWE
 70
    -2
  9
$DIMTMOVE
 70
     0
  9
$LUNITS
 70
     2
  9
$LUPREC
 70
     2
  9
$SKETCHINC
 40
0.1
  9
$FILLETRAD
 40
12.5
  9
$AUNITS
 70
     0
  9
$AUPREC
 70
     2
  9
$MENU
  1
.
  9
$ELEVATION
 40
0.0
  9
$PELEVATION
 40
0.0
  9
$THICKNESS
 40
0.0
  9
$LIMCHECK
 70
     0
  9
$CHAMFERA
 40
12.5
  9
$CHAMFERB
 40
12.5
  9
$CHAMFERC
 40
0.0
  9
$CHAMFERD
 40
0.0
  9
$SKPOLY
 70
     0
  9
$TDCREATE
 40
2451295.549029560
  9
$TDUCREATE
 40
2451295.465696227
  9
$TDUPDATE
 40
2454019.996357269
  9
$TDUUPDATE
 40
2454019.913023935
  9
$TDINDWG
 40
0.0099223727
  9
$TDUSRTIMER
 40
0.0099223727
  9
$USRTIMER
 70
     1
  9
$ANGBASE
 50
0.0
  9
$ANGDIR
 70
     0
  9
$PDMODE
 70
     0
  9
$PDSIZE
 40
0.0
  9
$PLINEWID
 40
0.0
  9
$SPLFRAME
 70
     0
  9
$SPLINETYPE
 70
     6
  9
$SPLINESEGS
 70
     8
  9
$HANDSEED
  5
14FB
  9
$SURFTAB1
 70
     6
  9
$SURFTAB2
 70
     6
  9
$SURFTYPE
 70
     6
  9
$SURFU
 70
     6
  9
$SURFV
 70
     6
  9
$UCSBASE
  2

  9
$UCSNAME
  2

  9
$UCSORG
 10
0.0
 20
0.0
 30
0.0
  9
$UCSXDIR
 10
1.0
 20
0.0
 30
0.0
  9
$UCSYDIR
 10
0.0
 20
1.0
 30
0.0
  9
$UCSORTHOREF
  2

  9
$UCSORTHOVIEW
 70
     0
  9
$UCSORGTOP
 10
0.0
 20
0.0
 30
0.0
  9
$UCSORGBOTTOM
 10
0.0
 20
0.0
 30
0.0
  9
$UCSORGLEFT
 10
0.0
 20
0.0
 30
0.0
  9
$UCSORGRIGHT
 10
0.0
 20
0.0
 30
0.0
  9
$UCSORGFRONT
 10
0.0
 20
0.0
 30
0.0
  9
$UCSORGBACK
 10
0.0
 20
0.0
 30
0.0
  9
$PUCSBASE
  2

  9
$PUCSNAME
  2

  9
$PUCSORG
 10
0.0
 20
0.0
 30
0.0
  9
$PUCSXDIR
 10
1.0
 20
0.0
 30
0.0
  9
$PUCSYDIR
 10
0.0
 20
1.0
 30
0.0
  9
$PUCSORTHOREF
  2

  9
$PUCSORTHOVIEW
 70
     0
  9
$PUCSORGTOP
 10
0.0
 20
0.0
 30
0.0
  9
$PUCSORGBOTTOM
 10
0.0
 20
0.0
 30
0.0
  9
$PUCSORGLEFT
 10
0.0
 20
0.0
 30
0.0
  9
$PUCSORGRIGHT
 10
0.0
 20
0.0
 30
0.0
  9
$PUCSORGFRONT
 10
0.0
 20
0.0
 30
0.0
  9
$PUCSORGBACK
 10
0.0
 20
0.0
 30
0.0
  9
$USERI1
 70
     0
  9
$USERI2
 70
     0
  9
$USERI3
 70
     0
  9
$USERI4
 70
     0
  9
$USERI5
 70
     0
  9
$USERR1
 40
0.0
  9
$USERR2
 40
0.0
  9
$USERR3
 40
0.0
  9
$USERR4
 40
0.0
  9
$USERR5
 40
0.0
  9
$WORLDVIEW
 70
     1
  9
$SHADEDGE
 70
     3
  9
$SHADEDIF
 70
    70
  9
$TILEMODE
 70
     1
  9
$MAXACTVP
 70
    48
  9
$PINSBASE
 10
0.0
 20
0.0
 30
0.0
  9
$PLIMCHECK
 70
     0
  9
$PEXTMIN
 10
0.0
 20
0.0
 30
0.0
  9
$PEXTMAX
 10
123.915
 20
153.419
 30
0.0
  9
$PLIMMIN
 10
0.0
 20
0.0
  9
$PLIMMAX
 10
123.915
 20
153.419
  9
$UNITMODE
 70
     0
  9
$VISRETAIN
 70
     1
  9
$PLINEGEN
 70
     1
  9
$PSLTSCALE
 70
     1
  9
$TREEDEPTH
 70
 -3020
  9
$CMLSTYLE
  2
STANDARD
  9
$CMLJUST
 70
     0
  9
$CMLSCALE
 40
1.0
  9
$PROXYGRAPHICS
 70
     1
  9
$MEASUREMENT
 70
     1
  9
$CELWEIGHT
370
    -1
  9
$ENDCAPS
280
     0
  9
$JOINSTYLE
280
     0
  9
$LWDISPLAY
290
     0
  9
$INSUNITS
 70
     0
  9
$HYPERLINKBASE
  1

  9
$STYLESHEET
  1

  9
$XEDIT
290
     1
  9
$CEPSNTYPE
380
     0
  9
$PSTYLEMODE
290
     1
  9
$FINGERPRINTGUID
  2
{D29D7264-D77B-454C-AA74-5E981F4D91DE}
  9
$VERSIONGUID
  2
{62F43399-3D77-479D-8645-060E52BA8754}
  9
$EXTNAMES
290
     1
  9
$PSVPSCALE
 40
0.0
  9
$OLESTARTUP
290
     0
  0
ENDSEC
  0
SECTION
  2
CLASSES
  0
CLASS
  1
ACDBDICTIONARYWDFLT
  2
AcDbDictionaryWithDefault
  3
ObjectDBX Classes
 90
        0
280
     0
281
     0
  0
CLASS
  1
TABLESTYLE
  2
AcDbTableStyle
  3
ObjectDBX Classes
 90
     2047
280
     0
281
     0
  0
CLASS
  1
AMGSETTINGSOBJ
  2
AmgSettingsObj
  3
"AcadM|Product Description: AutoCAD Mechanical 2000|Company: Autodesk"
 90
        0
280
     0
281
     0
  0
CLASS
  1
ACME_DOCUMENT
  2
AcMeDbDoc
  3
AcMeServices
 90
        0
280
     0
281
     0
  0
CLASS
  1
ACMESCOPE
  2
AcMeScope
  3
AcMeServices
 90
        0
280
     0
281
     0
  0
CLASS
  1
ACMECOMMANDHISTORY
  2
AcMeCommandHistory
  3
AcMeServices
 90
        0
280
     0
281
     0
  0
CLASS
  1
ACIMSYSVARMAN
  2
AcImSysVarManager
  3
AcMeServices
 90
        0
280
     0
281
     0
  0
CLASS
  1
ACIMINTSYSVAR
  2
AcImIntSysVar
  3
AcMeServices
 90
        0
280
     0
281
     0
  0
CLASS
  1
ACMEDRAWINGMAN
  2
AcMeDrawingMan
  3
AcMeServices
 90
        0
280
     0
281
     0
  0
CLASS
  1
ACMEVIEW
  2
AcMeView
  3
AcMeServices
 90
        0
280
     0
281
     0
  0
CLASS
  1
ACDBENTITYCACHE
  2
AcMeEntityCache
  3
AcMeServices
 90
        0
280
     0
281
     0
  0
CLASS
  1
GSMANAGER
  2
AcMeGSManager
  3
AcMeServices
 90
        0
280
     0
281
     0
  0
CLASS
  1
AMDTINTERNALREACTOR
  2
AmdtInternalReactor
  3
AcMeServices
 90
        0
280
     0
281
     0
  0
CLASS
  1
ACMESTATEMGR
  2
AcMeStateMgr
  3
AcMeServices
 90
        0
280
     0
281
     0
  0
CLASS
  1
ACGREFMASTER
  2
AcGrefMaster
  3
AcAttribServices
 90
        0
280
     0
281
     0
  0
CLASS
  1
AM_DRAWING_MGR
  2
AcDmDwgMgr
  3
AcMechDwgViewMgmt
 90
        0
280
     0
281
     0
  0
CLASS
  1
AM_DWG_DOCUMENT
  2
AcDmDwgDocument
  3
AcMechDwgViewMgmt
 90
        0
280
     0
281
     0
  0
CLASS
  1
AM_DWG_SHEET
  2
AcDmSheet
  3
AcMechDwgViewMgmt
 90
        0
280
     0
281
     0
  0
CLASS
  1
AM_VIEWDIMPARMAP
  2
AcDmViewDimParMap
  3
AcMechDwgViewMgmt
 90
        0
280
     0
281
     0
  0
CLASS
  1
ACIMREALSYSVAR
  2
AcImRealSysVar
  3
AcMeServices
 90
        0
280
     0
281
     0
  0
CLASS
  1
AM_DWGMGR_NAME
  2
AcDmDwgMgrName
  3
AcMechDwgViewMgmt
 90
        0
280
     0
281
     0
  0
CLASS
  1
ACME_DATABASE
  2
AcMeDbDatabase
  3
AcMeServices
 90
        0
280
     0
281
     0
  0
CLASS
  1
ACRFINSADJUSTERMGR
  2
AcRfInsAdjusterMgr
  3
AcMeServices
 90
        0
280
     0
281
     0
  0
CLASS
  1
ACGREFACADMASTER
  2
AcGrefacadMaster
  3
AcGrefServices
 90
        0
280
     0
281
     0
  0
CLASS
  1
AMDTMENUSTATEMGR
  2
AmdtMenuStateMgr
  3
McadcomServices
 90
        0
280
     0
281
     0
  0
CLASS
  1
AMDTMCOMMENUSTATE
  2
AmdtMcomMenuState
  3
McadcomServices
 90
        0
280
     0
281
     0
  0
CLASS
  1
AMIMASTER
  2
AmiMaster
  3
AmiServices
 90
        0
280
     0
281
     0
  0
CLASS
  1
MAPIAMMOUDLE
  2
MApiAmModule
  3
MApiAmServices
 90
        0
280
     0
281
     0
  0
CLASS
  1
ACIMSTRSYSVAR
  2
AcImStrSysVar
  3
AcMeServices
 90
        0
280
     0
281
     0
  0
CLASS
  1
AMDTADMENUSTATE
  2
AmdtAdMenuState
  3
DesignerServices
 90
        0
280
     0
281
     0
  0
CLASS
  1
ADAPPL
  2
AcAdAppl
  3
DesignerServices
 90
        0
280
     0
281
     0
  0
CLASS
  1
DEPMGR
  2
AcAdDepMgr
  3
DesignerServices
 90
        0
280
     0
281
     0
  0
CLASS
  1
PARAMMGR
  2
AcAdParamMgr
  3
DesignerServices
 90
        0
280
     0
281
     0
  0
CLASS
  1
PARAMSCOPE
  2
AcAdParamScope
  3
DesignerServices
 90
        0
280
     0
281
     0
  0
CLASS
  1
NAMEDAPPL
  2
AcAdNamedAppl
  3
DesignerServices
 90
        0
280
     0
281
     0
  0
CLASS
  1
AMDTDMMENUSTATE
  2
AmdtDmMenuState
  3
AcMechDwgViewMgmt
 90
        0
280
     0
281
     0
  0
CLASS
  1
AMDTAMMENUSTATE
  2
AmdtAmMenuState
  3
DesignerAssemblies
 90
        0
280
     0
281
     0
  0
CLASS
  1
ACAMPROJECT
  2
AcAmProject
  3
DesignerAssemblies
 90
        0
280
     0
281
     0
  0
CLASS
  1
ACAMGRCOMPDEF
  2
AcAmGrCompDef
  3
DesignerAssemblies
 90
        0
280
     0
281
     0
  0
CLASS
  1
ACCMCONTEXT
  2
AcCmContext
  3
DesignerAssemblies
 90
        0
280
     0
281
     0
  0
CLASS
  1
ACAMCOMPDEF
  2
AcAmCompDef
  3
DesignerAssemblies
 90
        0
280
     0
281
     0
  0
CLASS
  1
ACAMCOMPDEFMGR
  2
AcAmCompDefMgr
  3
DesignerAssemblies
 90
        0
280
     0
281
     0
  0
CLASS
  1
AMCONTEXTMGR
  2
AcAmContextMgr
  3
DesignerAssemblies
 90
        0
280
     0
281
     0
  0
CLASS
  1
ACAMCONTEXTMODELER
  2
AcAmContextModeler
  3
DesignerAssemblies
 90
        0
280
     0
281
     0
  0
CLASS
  1
ACMDATADICTIONARY
  2
AcmDataDictionary
  3
"AcmSymBB|Product Description: AutoCAD Mechanical 2004 DX|Company: Autodesk"
 90
        0
280
     0
281
     0
  0
CLASS
  1
CATALOGSTATE
  2
AcAmCatalogState
  3
DesignerAssemblies
 90
        0
280
     0
281
     0
  0
CLASS
  1
ACAMGRCOMPDEFSET
  2
AcAmGrCompDefSet
  3
DesignerAssemblies
 90
        0
280
     0
281
     0
  0
CLASS
  1
AMDTBROWSERDBTAB
  2
AmdtBrowserDbTab
  3
McadcomServices
 90
        0
280
     0
281
     0
  0
CLASS
  1
CBROWSERAPPOBJECT
  2
CBrowserAppObject
  3
McadcomServices
 90
        0
280
     0
281
     0
  0
CLASS
  1
DM_PLACEHOLDER
  2
AcDmSelsetPlaceholder
  3
AcMechDwgViewMgmt
 90
        0
280
     0
281
     0
  0
CLASS
  1
ACMSTANDARDDIN
  2
AcmStandardDIN
  3
"Amdt_StdImp|Product Description: AutoCAD Mechanical 2004 DX|Company: Autodesk"
 90
        0
280
     0
281
     0
  0
CLASS
  1
AMGOBJPROPCFG
  2
AmgObjPropCfg
  3
"AmgLay|Product Description: AutoCAD Mechanical 2000|Company: Autodesk"
 90
        1
280
     0
281
     0
  0
CLASS
  1
AMDTEDGESTANDARDDIN13715
  2
AmdtEdgeStdDIN13715
  3
"Amdt_StdImp|Product Description: AutoCAD Mechanical 2004 DX|Company: Autodesk"
 90
        0
280
     0
281
     0
  0
CLASS
  1
ACMSURFSTANDARDDIN
  2
AcmSurfTextStdDIN
  3
"Amdt_StdImp|Product Description: AutoCAD Mechanical 2004 DX|Company: Autodesk"
 90
        0
280
     0
281
     0
  0
CLASS
  1
ACMFCFSTANDARDDIN
  2
AcmFCFStdDIN
  3
"Amdt_StdImp|Product Description: AutoCAD Mechanical 2004 DX|Company: Autodesk"
 90
        0
280
     0
281
     0
  0
CLASS
  1
ACMWELDSTANDARDDIN
  2
AcmWeldingStdDIN
  3
"Amdt_StdImp|Product Description: AutoCAD Mechanical 2004 DX|Company: Autodesk"
 90
        0
280
     0
281
     0
  0
CLASS
  1
ACMIDSTANDARDDIN
  2
AcmIdStdDIN
  3
"Amdt_StdImp|Product Description: AutoCAD Mechanical 2004 DX|Company: Autodesk"
 90
        0
280
     0
281
     0
  0
CLASS
  1
ACMDATUMSTANDARDDIN
  2
AcmDatumStdDIN
  3
"Amdt_StdImp|Product Description: AutoCAD Mechanical 2004 DX|Company: Autodesk"
 90
        0
280
     0
281
     0
  0
CLASS
  1
ACMBOMSTANDARDDIN
  2
AcmBOMStdDIN
  3
"Amdt_StdImp|Product Description: AutoCAD Mechanical 2004 DX|Company: Autodesk"
 90
        0
280
     0
281
     0
  0
CLASS
  1
ACMDETAILSTANDARDDIN
  2
AmdtDetailSymStdDIN
  3
"Amdt_StdImp|Product Description: AutoCAD Mechanical 2004 DX|Company: Autodesk"
 90
        0
280
     0
281
     0
  0
CLASS
  1
ACMSECTIONSTANDARDDIN
  2
AmdtSectionSymStdDIN
  3
"Amdt_StdImp|Product Description: AutoCAD Mechanical 2004 DX|Company: Autodesk"
 90
        0
280
     0
281
     0
  0
CLASS
  1
ACMCENTERLINESTANDARDDIN
  2
AmdtCenterLineStdDIN
  3
"Amdt_StdImp|Product Description: AutoCAD Mechanical 2004 DX|Company: Autodesk"
 90
        0
280
     0
281
     0
  0
CLASS
  1
ACMTHREADLINESTANDARDDIN
  2
AmdtThreadLineStdDIN
  3
"Amdt_StdImp|Product Description: AutoCAD Mechanical 2004 DX|Company: Autodesk"
 90
        0
280
     0
281
     0
  0
CLASS
  1
ACMNOTESTANDARDDIN
  2
AmdtNoteStdDIN
  3
"Amdt_StdImp|Product Description: AutoCAD Mechanical 2004 DX|Company: Autodesk"
 90
        0
280
     0
281
     0
  0
CLASS
  1
AMDTNOTETEMPLATEDB
  2
AmdtNoteTemplateDB
  3
AMDT_STDIMP_MODULE_NAME
 90
        0
280
     0
281
     0
  0
CLASS
  1
ACAMGLAYSTD
  2
AcAmgLayStd
  3
"AcAmgLayStd|Product Description: AutoCAD Mechanical 2000|Company: Autodesk"
 90
        0
280
     0
281
     0
  0
CLASS
  1
ACAMGDIMSTD
  2
AcAmgDimStd
  3
"AcAmgDimStd|Product Description: AutoCAD Mechanical 2000|Company: Autodesk"
 90
        0
280
     0
281
     0
  0
CLASS
  1
ACAMGHOLECHARTSTDDIN
  2
AcAmgHoleChartStdDIN
  3
ACMSYMBB_MODULE_NAME
 90
        0
280
     0
281
     0
  0
CLASS
  1
ACAMGTITLESTD
  2
AcAmgTitleStd
  3
"TITLEAPP"
 90
        0
280
     0
281
     0
  0
CLASS
  1
ACAMGFILTERDAT
  2
AcAmgFilterDat
  3
"AcadM|Product Description: AutoCAD Mechanical 2000|Company: Autodesk"
 90
        0
280
     0
281
     0
  0
CLASS
  1
DICTIONARYVAR
  2
AcDbDictionaryVar
  3
ObjectDBX Classes
 90
        0
280
     0
281
     0
  0
CLASS
  1
ACDBPLACEHOLDER
  2
AcDbPlaceHolder
  3
ObjectDBX Classes
 90
        0
280
     0
281
     0
  0
CLASS
  1
LAYOUT
  2
AcDbLayout
  3
ObjectDBX Classes
 90
        0
280
     0
281
     0
  0
ENDSEC
  0
SECTION
  2
TABLES
  0
TABLE
  2
VPORT
  5
11CA
330
0
100
AcDbSymbolTable
 70
     5
  0
VPORT
  5
14F5
330
11CA
100
AcDbSymbolTableRecord
100
AcDbViewportTableRecord
  2
*Active
 70
     0
 10
0.0
 20
0.0
 11
1.0
 21
1.0
 12
364.0216849965761
 22
366.4649985980532
 13
0.0
 23
0.0
 14
5.0
 24
5.0
 15
50.0
 25
50.0
 16
0.0
 26
0.0
 36
1.0
 17
0.0
 27
0.0
 37
0.0
 40
379.8910876644013
 41
1.494545454545454
 42
50.0
 43
0.0
 44
0.0
 50
0.0
 51
0.0
 71
     0
 72
  1000
 73
     1
 74
     1
 75
     0
 76
     0
 77
     0
 78
     0
281
     0
 65
     0
110
0.0
120
0.0
130
0.0
111
1.0
121
0.0
131
0.0
112
0.0
122
1.0
132
0.0
 79
     0
146
0.0
  0
ENDTAB
  0
TABLE
  2
LTYPE
  5
11C7
330
0
100
AcDbSymbolTable
 70
    19
  0
LTYPE
  5
11D4
330
11C7
100
AcDbSymbolTableRecord
100
AcDbLinetypeTableRecord
  2
BYBLOCK
 70
     0
  3

 72
    65
 73
     0
 40
0.0
  0
LTYPE
  5
11D5
330
11C7
100
AcDbSymbolTableRecord
100
AcDbLinetypeTableRecord
  2
BYLAYER
 70
     0
  3

 72
    65
 73
     0
 40
0.0
  0
LTYPE
  5
11D6
330
11C7
100
AcDbSymbolTableRecord
100
AcDbLinetypeTableRecord
  2
CONTINUOUS
 70
     0
  3
Solid line
 72
    65
 73
     0
 40
0.0
  0
LTYPE
  5
1409
330
11C7
100
AcDbSymbolTableRecord
100
AcDbLinetypeTableRecord
  2
HIDDEN
 70
     0
  3
Verdeckt
 72
    65
 73
     2
 40
9.525
 49
6.349999999999999
 74
     0
 49
-3.174999999999999
 74
     0
  0
LTYPE
  5
140A
330
11C7
100
AcDbSymbolTableRecord
100
AcDbLinetypeTableRecord
  2
PHANTOM2
 70
     0
  3
Phantom (.5x) ___ _ _ ___ _ _ ___ _ _ ___ _ _
 72
    65
 73
     6
 40
31.75
 49
15.875
 74
     0
 49
-3.174999999999999
 74
     0
 49
3.174999999999999
 74
     0
 49
-3.174999999999999
 74
     0
 49
3.174999999999999
 74
     0
 49
-3.174999999999999
 74
     0
  0
LTYPE
  5
140B
330
11C7
100
AcDbSymbolTableRecord
100
AcDbLinetypeTableRecord
  2
CENTER
 70
     0
  3
Mitte ____ _ ____ _ ____ _ ____ _ ____ _ ____
 72
    65
 73
     4
 40
50.8
 49
31.75
 74
     0
 49
-6.349999999999999
 74
     0
 49
6.349999999999999
 74
     0
 49
-6.349999999999999
 74
     0
  0
LTYPE
  5
1442
330
11C7
100
AcDbSymbolTableRecord
100
AcDbLinetypeTableRecord
  2
Amconstr
 70
     0
  3
_______________________
 72
    65
 73
     2
 40
9999.0
 49
9999.0
 74
     0
 49
0.0
 74
     0
  0
LTYPE
  5
1447
330
11C7
100
AcDbSymbolTableRecord
100
AcDbLinetypeTableRecord
  2
Amzigzag
 70
     0
  3
/\/-/\/-/\/-/\/-/\/-/\/
 72
    65
 73
     2
 40
11.0001
 49
0.0001
 74
     4
 75
   136
340
1446
 46
0.04
 50
0.0
 44
0.0
 45
0.0
 49
-11.0
 74
     0
  0
LTYPE
  5
1448
330
11C7
100
AcDbSymbolTableRecord
100
AcDbLinetypeTableRecord
  2
AM_DIN_F_W050
 70
     0
  3
__ __ __ __ __ __ __ __ __ __ __ __ __ __ __
 72
    65
 73
     2
 40
6.25
 49
4.75
 74
     0
 49
-1.5
 74
     0
  0
LTYPE
  5
1449
330
11C7
100
AcDbSymbolTableRecord
100
AcDbLinetypeTableRecord
  2
AM_DIN_G_W050
 70
     0
  3
____ . ____ . ____ . ____ . ____ . ____ . ____
 72
    65
 73
     4
 40
13.75
 49
9.75
 74
     0
 49
-1.5
 74
     0
 49
1.0
 74
     0
 49
-1.5
 74
     0
  0
LTYPE
  5
144A
330
11C7
100
AcDbSymbolTableRecord
100
AcDbLinetypeTableRecord
  2
AM_DIN_K_W050
 70
     0
  3
_____ . . _____ . . _____ . . ____ .. ____
 72
    65
 73
     6
 40
16.25
 49
9.75
 74
     0
 49
-1.5
 74
     0
 49
1.0
 74
     0
 49
-1.5
 74
     0
 49
1.0
 74
     0
 49
-1.5
 74
     0
  0
LTYPE
  5
144B
330
11C7
100
AcDbSymbolTableRecord
100
AcDbLinetypeTableRecord
  2
AM_DIN_G_W050x2
 70
     0
  3
__ . __ . __ . __ . __ . __
 72
    65
 73
     4
 40
6.875
 49
4.75
 74
     0
 49
-0.875
 74
     0
 49
0.375
 74
     0
 49
-0.875
 74
     0
  0
LTYPE
  5
144C
330
11C7
100
AcDbSymbolTableRecord
100
AcDbLinetypeTableRecord
  2
AM_DIN_F_W050x2
 70
     0
  3
 _ _ _ _ _ _ _ _ _ _ _ _
 72
    65
 73
     2
 40
3.125
 49
2.25
 74
     0
 49
-0.875
 74
     0
  0
LTYPE
  5
145B
330
11C7
100
AcDbSymbolTableRecord
100
AcDbLinetypeTableRecord
  2
ACDINWELD
 70
     0
  3
_ _ _ _ _
 72
    65
 73
     2
 40
2.0
 49
2.0
 74
     0
 49
-1.0
 74
     0
  0
LTYPE
  5
145C
330
11C7
100
AcDbSymbolTableRecord
100
AcDbLinetypeTableRecord
  2
ACDINTGB
 70
     0
  3
__ . . __ . .
 72
    65
 73
     6
 40
9.0
 49
4.0
 74
     0
 49
-1.0
 74
     0
 49
1.0
 74
     0
 49
-1.0
 74
     0
 49
1.0
 74
     0
 49
-1.0
 74
     0
  0
LTYPE
  5
145D
330
11C7
100
AcDbSymbolTableRecord
100
AcDbLinetypeTableRecord
  2
ACDINTGL
 70
     0
  3
_ _ _ _ _
 72
    65
 73
     2
 40
3.0
 49
2.0
 74
     0
 49
-1.0
 74
     0
  0
ENDTAB
  0
TABLE
  2
LAYER
  5
11C4
330
0
100
AcDbSymbolTable
 70
     7
  0
LAYER
  5
11D0
330
11C4
100
AcDbSymbolTableRecord
100
AcDbLayerTableRecord
  2
0
 70
     0
 62
     7
  6
CONTINUOUS
370
    -3
390
13CD
  0
LAYER
  5
11ED
330
11C4
100
AcDbSymbolTableRecord
100
AcDbLayerTableRecord
  2
5
 70
     0
 62
     3
  6
CONTINUOUS
370
    -3
390
13CD
  0
LAYER
  5
11F0
330
11C4
100
AcDbSymbolTableRecord
100
AcDbLayerTableRecord
  2
8
 70
     0
 62
     1
  6
CONTINUOUS
370
    -3
390
13CD
  0
LAYER
  5
11F1
330
11C4
100
AcDbSymbolTableRecord
100
AcDbLayerTableRecord
  2
SCHRAFFUR_RAND
 70
     0
 62
    36
  6
CONTINUOUS
370
    -3
390
13CD
  0
LAYER
  5
1220
330
11C4
100
AcDbSymbolTableRecord
100
AcDbLayerTableRecord
  2
DEFPOINTS
 70
     0
 62
     7
  6
CONTINUOUS
290
     0
370
    -3
390
13CD
  0
ENDTAB
  0
TABLE
  2
STYLE
  5
11C5
330
0
100
AcDbSymbolTable
 70
     4
  0
STYLE
  5
11D1
330
11C5
100
AcDbSymbolTableRecord
100
AcDbTextStyleTableRecord
  2
STANDARD
 70
     0
 40
0.0
 41
1.0
 50
0.0
 71
     0
 42
7.0
  3
ISOCP.SHX
  4

  0
STYLE
  5
1446
330
11C5
100
AcDbSymbolTableRecord
100
AcDbTextStyleTableRecord
  2

 70
     1
 40
0.0
 41
1.0
 50
0.0
 71
     0
 42
0.2
  3
genltshp.shx
  4

  0
STYLE
  5
144D
330
11C5
100
AcDbSymbolTableRecord
100
AcDbTextStyleTableRecord
  2
ACDINTS
 70
     0
 40
1.0
 41
1.0
 50
0.0
 71
     0
 42
0.2
  3
isocp.shx
  4

  0
STYLE
  5
145A
330
11C5
100
AcDbSymbolTableRecord
100
AcDbTextStyleTableRecord
  2
ACDINGDT
 70
     0
 40
0.0
 41
1.0
 50
0.0
 71
     0
 42
0.2
  3
AMGDT
  4

  0
ENDTAB
  0
TABLE
  2
VIEW
  5
11C8
330
0
100
AcDbSymbolTable
 70
     6
  0
VIEW
  5
1264
330
11C8
100
AcDbSymbolTableRecord
100
AcDbViewTableRecord
  2
GEN1
 70
     0
 40
525.0
 10
403.491903
 20
787.5
 41
806.983806
 11
0.0
 21
0.0
 31
1.0
 12
0.0
 22
0.0
 32
0.0
 42
50.0
 43
0.0
 44
0.0
 50
0.0
 71
     0
281
     0
 72
     0
  0
VIEW
  5
1265
330
11C8
100
AcDbSymbolTableRecord
100
AcDbViewTableRecord
  2
GEN2
 70
     0
 40
525.0
 10
646.508097
 20
787.5
 41
806.983806
 11
0.0
 21
0.0
 31
1.0
 12
0.0
 22
0.0
 32
0.0
 42
50.0
 43
0.0
 44
0.0
 50
0.0
 71
     0
281
     0
 72
     0
  0
VIEW
  5
1266
330
11C8
100
AcDbSymbolTableRecord
100
AcDbViewTableRecord
  2
GEN3
 70
     0
 40
525.0
 10
403.491903
 20
262.5
 41
806.983806
 11
0.0
 21
0.0
 31
1.0
 12
0.0
 22
0.0
 32
0.0
 42
50.0
 43
0.0
 44
0.0
 50
0.0
 71
     0
281
     0
 72
     0
  0
VIEW
  5
1267
330
11C8
100
AcDbSymbolTableRecord
100
AcDbViewTableRecord
  2
GEN4
 70
     0
 40
525.0
 10
646.508097
 20
262.5
 41
806.983806
 11
0.0
 21
0.0
 31
1.0
 12
0.0
 22
0.0
 32
0.0
 42
50.0
 43
0.0
 44
0.0
 50
0.0
 71
     0
281
     0
 72
     0
  0
VIEW
  5
1268
330
11C8
100
AcDbSymbolTableRecord
100
AcDbViewTableRecord
  2
GEN5
 70
     0
 40
525.0
 10
525.0
 20
525.0
 41
806.983806
 11
0.0
 21
0.0
 31
1.0
 12
0.0
 22
0.0
 32
0.0
 42
50.0
 43
0.0
 44
0.0
 50
0.0
 71
     0
281
     0
 72
     0
  0
VIEW
  5
1269
330
11C8
100
AcDbSymbolTableRecord
100
AcDbViewTableRecord
  2
GEN6
 70
     0
 40
1049.9895
 10
525.0
 20
525.0
 41
1613.951472
 11
0.0
 21
0.0
 31
1.0
 12
0.0
 22
0.0
 32
0.0
 42
50.0
 43
0.0
 44
0.0
 50
0.0
 71
     0
281
     0
 72
     0
  0
ENDTAB
  0
TABLE
  2
UCS
  5
11C9
330
0
100
AcDbSymbolTable
 70
     0
  0
ENDTAB
  0
TABLE
  2
APPID
  5
11CB
330
0
100
AcDbSymbolTable
 70
    37
  0
APPID
  5
11D2
330
11CB
100
AcDbSymbolTableRecord
100
AcDbRegAppTableRecord
  2
ACAD
 70
     0
  0
APPID
  5
1232
330
11CB
100
AcDbSymbolTableRecord
100
AcDbRegAppTableRecord
  2
GENIUS_GENCFG_13
 70
     0
1001
GENIUS_GENCFG0_13
1000
GEN@INFO_POS@XLATE
1001
GENIUS_GENCFG1_13
1000
GEN@INFO_POS
1001
GENIUS_GENCFG2_13
1000
GEN@LAYER@DEFS
1001
GENIUS_GENCFG3_13
1000
GEN@LAYER@ENTSORT
1001
GENIUS_GENCFG4_13
1000
GEN
1001
GENIUS_GEVCFG0_13
1000
GEV
1001
GENIUS_DUMCFG0_13
1000
DUM
  0
APPID
  5
1233
330
11CB
100
AcDbSymbolTableRecord
100
AcDbRegAppTableRecord
  2
GENIUS_DUMCFG0_13
 70
     0
1001
GENIUS_GENCFG_13
1071
925125968
1000
1233
1000
DUM
1070
     0
  0
APPID
  5
1234
330
11CB
100
AcDbSymbolTableRecord
100
AcDbRegAppTableRecord
  2
GENIUS_GENCFG0_13
 70
     0
1001
GENIUS_GENCFG_13
1071
967100632
1000
1234
1000
GEN@INFO_POS@XLATE
1070
     8
1000
GenCfgObject
1000
GenCfgShort
1000
GenCfgReal
1000
GenCfgBool
1000
GenCfgString
1000
GenCfgDim
1000
GenCfgPoint
1000
GenCfgAttrInf
1000
INFOPOINTS
1070
     0
1002
{
1000
GENINF14
1070
     0
1002
{
1000
2GENINF
1070
     4
1000
2
1002
{
1002
}
1000
5GENINF
1070
     4
1000
5
1002
{
1002
}
1000
7GENINF
1070
     4
1000
7
1002
{
1002
}
1000
9GENINF
1070
     4
1000
9
1002
{
1002
}
1000
11GENINF
1070
     4
1000
11
1002
{
1002
}
1000
14GENINF
1070
     4
1000
14
1002
{
1002
}
1002
}
1000
GENINF13
1070
     0
1002
{
1000
2GENINF
1070
     4
1000
2
1002
{
1002
}
1000
3GENINF
1070
     4
1000
3
1002
{
1002
}
1000
4GENINF
1070
     4
1000
4
1002
{
1002
}
1000
5GENINF
1070
     4
1000
5
1002
{
1002
}
1000
6GENINF
1070
     4
1000
6
1002
{
1002
}
1000
7GENINF
1070
     4
1000
7
1002
{
1002
}
1000
8GENINF
1070
     4
1000
8
1002
{
1002
}
1000
9GENINF
1070
     4
1000
9
1002
{
1002
}
1000
10GENINF
1070
     4
1000
10
1002
{
1002
}
1000
11GENINF
1070
     4
1000
11
1002
{
1002
}
1000
12GENINF
1070
     4
1000
12
1002
{
1002
}
1000
13GENINF
1070
     4
1000
13
1002
{
1002
}
1000
14GENINF
1070
     4
1000
14
1002
{
1002
}
1000
15GENINF
1070
     4
1000
15
1002
{
1002
}
1000
16GENINF
1070
     4
1000
16
1002
{
1002
}
1000
17GENINF
1070
     4
1000
17
1002
{
1002
}
1000
18GENINF
1070
     4
1000
18
1002
{
1002
}
1000
19GENINF
1070
     4
1000
19
1002
{
1002
}
1000
20GENINF
1070
     4
1000
20
1002
{
1002
}
1000
21GENINF
1070
     4
1000
21
1002
{
1002
}
1000
22GENINF
1070
     4
1000
22
1002
{
1002
}
1000
23GENINF
1070
     4
1000
23
1002
{
1002
}
1000
24GENINF
1070
     4
1000
24
1002
{
1002
}
1000
0GENINF
1070
     4
1000
0
1002
{
1002
}
1002
}
1000
GENINFO
1070
     0
1002
{
1000
3GENINF
1070
     4
1000
3
1002
{
1002
}
1000
4GENINF
1070
     4
1000
4
1002
{
1002
}
1000
5GENINF
1070
     4
1000
5
1002
{
1002
}
1000
6GENINF
1070
     4
1000
6
1002
{
1002
}
1000
7GENINF
1070
     4
1000
7
1002
{
1002
}
1000
8GENINF
1070
     4
1000
8
1002
{
1002
}
1000
9GENINF
1070
     4
1000
9
1002
{
1002
}
1000
10GENINF
1070
     4
1000
10
1002
{
1002
}
1000
11GENINF
1070
     4
1000
11
1002
{
1002
}
1000
12GENINF
1070
     4
1000
12
1002
{
1002
}
1000
13GENINF
1070
     4
1000
13
1002
{
1002
}
1000
14GENINF
1070
     4
1000
14
1002
{
1002
}
1000
15GENINF
1070
     4
1000
15
1002
{
1002
}
1000
16GENINF
1070
     4
1000
16
1002
{
1002
}
1000
17GENINF
1070
     4
1000
17
1002
{
1002
}
1000
18GENINF
1070
     4
1000
18
1002
{
1002
}
1000
19GENINF
1070
     4
1000
19
1002
{
1002
}
1000
20GENINF
1070
     4
1000
20
1002
{
1002
}
1000
21GENINF
1070
     4
1000
21
1002
{
1002
}
1000
22GENINF
1070
     4
1000
22
1002
{
1002
}
1002
}
1000
DININFO
1070
     0
1002
{
1000
ST-NAME1
1070
     4
1000
5
1002
{
1002
}
1000
ST-NAME2
1070
     4
1000
6
1002
{
1002
}
1000
ST-NORM1
1070
     4
1000
7
1002
{
1002
}
1000
ST-NORM2
1070
     4
1000
8
1002
{
1002
}
1000
ST-MAT1
1070
     4
1000
9
1002
{
1002
}
1000
ST-MAT2
1070
     4
1000
10
1002
{
1002
}
1002
}
1002
}
1000
POS_NUMBERS
1070
     0
1002
{
1000
GENPOS14
1070
     0
1002
{
1000
1GENPOS
1070
     4
1000
1
1002
{
1002
}
1000
2GENPOS
1070
     4
1000
2
1002
{
1002
}
1000
5GENPOS
1070
     4
1000
5
1002
{
1002
}
1000
7GENPOS
1070
     4
1000
7
1002
{
1002
}
1000
9GENPOS
1070
     4
1000
9
1002
{
1002
}
1000
11GENPOS
1070
     4
1000
11
1002
{
1002
}
1000
14GENPOS
1070
     4
1000
14
1002
{
1002
}
1002
}
1000
GENPOS13
1070
     0
1002
{
1000
1GENPOS
1070
     4
1000
1
1002
{
1002
}
1000
2GENPOS
1070
     4
1000
2
1002
{
1002
}
1000
3GENPOS
1070
     4
1000
3
1002
{
1002
}
1000
4GENPOS
1070
     4
1000
4
1002
{
1002
}
1000
5GENPOS
1070
     4
1000
5
1002
{
1002
}
1000
6GENPOS
1070
     4
1000
6
1002
{
1002
}
1000
7GENPOS
1070
     4
1000
7
1002
{
1002
}
1000
8GENPOS
1070
     4
1000
8
1002
{
1002
}
1000
9GENPOS
1070
     4
1000
9
1002
{
1002
}
1000
10GENPOS
1070
     4
1000
10
1002
{
1002
}
1000
11GENPOS
1070
     4
1000
11
1002
{
1002
}
1000
12GENPOS
1070
     4
1000
12
1002
{
1002
}
1000
13GENPOS
1070
     4
1000
13
1002
{
1002
}
1000
14GENPOS
1070
     4
1000
14
1002
{
1002
}
1000
15GENPOS
1070
     4
1000
15
1002
{
1002
}
1000
16GENPOS
1070
     4
1000
16
1002
{
1002
}
1000
17GENPOS
1070
     4
1000
17
1002
{
1002
}
1000
18GENPOS
1070
     4
1000
18
1002
{
1002
}
1000
19GENPOS
1070
     4
1000
19
1002
{
1002
}
1000
20GENPOS
1070
     4
1000
20
1002
{
1002
}
1000
21GENPOS
1070
     4
1000
21
1002
{
1002
}
1000
22GENPOS
1070
     4
1000
22
1002
{
1002
}
1000
23GENPOS
1070
     4
1000
23
1002
{
1002
}
1000
24GENPOS
1070
     4
1000
24
1002
{
1002
}
1000
0GENPOS
1070
     4
1000
0
1002
{
1002
}
1002
}
1000
GENPOS
1070
     0
1002
{
1000
1GENPOS
1070
     4
1000
1
1002
{
1002
}
1000
2GENPOS
1070
     4
1000
2
1002
{
1002
}
1000
3GENPOS
1070
     4
1000
3
1002
{
1002
}
1000
4GENPOS
1070
     4
1000
4
1002
{
1002
}
1000
5GENPOS
1070
     4
1000
5
1002
{
1002
}
1000
6GENPOS
1070
     4
1000
6
1002
{
1002
}
1000
7GENPOS
1070
     4
1000
7
1002
{
1002
}
1000
8GENPOS
1070
     4
1000
8
1002
{
1002
}
1000
9GENPOS
1070
     4
1000
9
1002
{
1002
}
1000
10GENPOS
1070
     4
1000
10
1002
{
1002
}
1000
11GENPOS
1070
     4
1000
11
1002
{
1002
}
1000
12GENPOS
1070
     4
1000
12
1002
{
1002
}
1000
13GENPOS
1070
     4
1000
13
1002
{
1002
}
1000
14GENPOS
1070
     4
1000
14
1002
{
1002
}
1000
15GENPOS
1070
     4
1000
15
1002
{
1002
}
1000
16GENPOS
1070
     4
1000
16
1002
{
1002
}
1000
17GENPOS
1070
     4
1000
17
1002
{
1002
}
1000
18GENPOS
1070
     4
1000
18
1002
{
1002
}
1000
19GENPOS
1070
     4
1000
19
1002
{
1002
}
1000
20GENPOS
1070
     4
1000
20
1002
{
1002
}
1000
21GENPOS
1070
     4
1000
21
1002
{
1002
}
1000
22GENPOS
1070
     4
1000
22
1002
{
1002
}
1000
23GENPOS
1070
     4
1000
23
1002
{
1002
}
1002
}
1000
DIN985
1070
     0
1002
{
1000
POSITION
1070
     4
1000
1
1002
{
1002
}
1000
MENGE
1070
     4
1000
2
1002
{
1002
}
1000
BLATT
1070
     4
1000
3
1002
{
1002
}
1000
BENENN
1070
     4
1000
5
1002
{
1002
}
1000
BENENN2
1070
     4
1000
6
1002
{
1002
}
1000
NORM
1070
     4
1000
7
1002
{
1002
}
1000
NORM2
1070
     4
1000
8
1002
{
1002
}
1000
WERKSTOFF
1070
     4
1000
9
1002
{
1002
}
1000
WERKSTOFF2
1070
     4
1000
10
1002
{
1002
}
1002
}
1000
DIN986
1070
     0
1002
{
1000
POSITION
1070
     4
1000
1
1002
{
1002
}
1000
MENGE
1070
     4
1000
2
1002
{
1002
}
1000
BLATT
1070
     4
1000
3
1002
{
1002
}
1000
BENENN
1070
     4
1000
5
1002
{
1002
}
1000
BENENN2
1070
     4
1000
6
1002
{
1002
}
1000
NORM
1070
     4
1000
7
1002
{
1002
}
1000
NORM2
1070
     4
1000
8
1002
{
1002
}
1000
WERKSTOFF
1070
     4
1000
9
1002
{
1002
}
1000
WERKSTOFF2
1070
     4
1000
10
1002
{
1002
}
1002
}
1000
DIN987
1070
     0
1002
{
1000
POSITION
1070
     4
1000
1
1002
{
1002
}
1000
MENGE
1070
     4
1000
2
1002
{
1002
}
1000
BLATT
1070
     4
1000
3
1002
{
1002
}
1000
BENENN
1070
     4
1000
5
1002
{
1002
}
1000
BENENN2
1070
     4
1000
6
1002
{
1002
}
1000
NORM
1070
     4
1000
7
1002
{
1002
}
1000
NORM2
1070
     4
1000
8
1002
{
1002
}
1000
WERKSTOFF
1070
     4
1000
9
1002
{
1002
}
1000
WERKSTOFF2
1070
     4
1000
10
1002
{
1002
}
1002
}
1002
}
  0
APPID
  5
1235
330
11CB
100
AcDbSymbolTableRecord
100
AcDbRegAppTableRecord
  2
GENIUS_GENCFG1_13
 70
     0
1001
GENIUS_GENCFG_13
1071
967100632
1000
1235
1000
GEN@INFO_POS
1070
     8
1000
GenCfgObject
1000
GenCfgShort
1000
GenCfgReal
1000
GenCfgBool
1000
GenCfgString
1000
GenCfgDim
1000
GenCfgPoint
1000
GenCfgAttrInf
1000
DescrText
1070
     4
1000
5, ,6, ,7, ,8
1002
{
1002
}
1000
DescrText2
1070
     4
1000
26
1002
{
1002
}
1000
VisibleAttr1
1070
     4
1000
1
1002
{
1002
}
1000
VisibleAttr2
1070
     4
1000
26
1002
{
1002
}
1000
UpdateBlock
1070
     3
1070
     1
1002
{
1002
}
1000
Attrib
1070
     0
1002
{
1000
0
1070
     7
1002
{
1000
Prompt
1070
     4
1000
(genmsg gendwg 103)
1002
{
1002
}
1000
Value
1070
     4
1000

1002
{
1002
}
1000
EditFlag
1070
     1
1070
     0
1002
{
1002
}
1000
PosInDDATTE
1070
     1
1070
    27
1002
{
1002
}
1000
FieldLen
1070
     1
1070
    -1
1002
{
1002
}
1002
}
1000
1
1070
     7
1002
{
1000
Prompt
1070
     4
1000
(genmsg gendwg 31)
1002
{
1002
}
1000
Value
1070
     4
1000
1
1002
{
1002
}
1000
EditFlag
1070
     1
1070
     1
1002
{
1002
}
1000
PosInDDATTE
1070
     1
1070
     1
1002
{
1002
}
1000
FieldLen
1070
     1
1070
    -1
1002
{
1002
}
1002
}
1000
2
1070
     7
1002
{
1000
Prompt
1070
     4
1000
(genmsg gendwg 32)
1002
{
1002
}
1000
Value
1070
     4
1000
1
1002
{
1002
}
1000
EditFlag
1070
     1
1070
     1
1002
{
1002
}
1000
PosInDDATTE
1070
     1
1070
     2
1002
{
1002
}
1000
FieldLen
1070
     1
1070
    -1
1002
{
1002
}
1002
}
1000
3
1070
     7
1002
{
1000
Prompt
1070
     4
1000
(genmsg gendwg 33)
1002
{
1002
}
1000
Value
1070
     4
1000

1002
{
1002
}
1000
EditFlag
1070
     1
1070
     1
1002
{
1002
}
1000
PosInDDATTE
1070
     1
1070
     3
1002
{
1002
}
1000
FieldLen
1070
     1
1070
    -1
1002
{
1002
}
1002
}
1000
4
1070
     7
1002
{
1000
Prompt
1070
     4
1000
(genmsg gendwg 34)
1002
{
1002
}
1000
Value
1070
     4
1000

1002
{
1002
}
1000
EditFlag
1070
     1
1070
     1
1002
{
1002
}
1000
PosInDDATTE
1070
     1
1070
     4
1002
{
1002
}
1000
FieldLen
1070
     1
1070
    -1
1002
{
1002
}
1002
}
1000
5
1070
     7
1002
{
1000
Prompt
1070
     4
1000
(genmsg gendwg 35)
1002
{
1002
}
1000
Value
1070
     4
1000

1002
{
1002
}
1000
EditFlag
1070
     1
1070
     1
1002
{
1002
}
1000
PosInDDATTE
1070
     1
1070
     5
1002
{
1002
}
1000
FieldLen
1070
     1
1070
    -1
1002
{
1002
}
1002
}
1000
6
1070
     7
1002
{
1000
Prompt
1070
     4
1000
(genmsg gendwg 36)
1002
{
1002
}
1000
Value
1070
     4
1000

1002
{
1002
}
1000
EditFlag
1070
     1
1070
     1
1002
{
1002
}
1000
PosInDDATTE
1070
     1
1070
     6
1002
{
1002
}
1000
FieldLen
1070
     1
1070
    -1
1002
{
1002
}
1002
}
1000
7
1070
     7
1002
{
1000
Prompt
1070
     4
1000
(genmsg gendwg 37)
1002
{
1002
}
1000
Value
1070
     4
1000

1002
{
1002
}
1000
EditFlag
1070
     1
1070
     1
1002
{
1002
}
1000
PosInDDATTE
1070
     1
1070
     7
1002
{
1002
}
1000
FieldLen
1070
     1
1070
    -1
1002
{
1002
}
1002
}
1000
8
1070
     7
1002
{
1000
Prompt
1070
     4
1000
(genmsg gendwg 38)
1002
{
1002
}
1000
Value
1070
     4
1000

1002
{
1002
}
1000
EditFlag
1070
     1
1070
     1
1002
{
1002
}
1000
PosInDDATTE
1070
     1
1070
     8
1002
{
1002
}
1000
FieldLen
1070
     1
1070
    -1
1002
{
1002
}
1002
}
1000
9
1070
     7
1002
{
1000
Prompt
1070
     4
1000
(genmsg gendwg 39)
1002
{
1002
}
1000
Value
1070
     4
1000

1002
{
1002
}
1000
EditFlag
1070
     1
1070
     1
1002
{
1002
}
1000
PosInDDATTE
1070
     1
1070
     9
1002
{
1002
}
1000
FieldLen
1070
     1
1070
    -1
1002
{
1002
}
1002
}
1000
10
1070
     7
1002
{
1000
Prompt
1070
     4
1000
(genmsg gendwg 40)
1002
{
1002
}
1000
Value
1070
     4
1000

1002
{
1002
}
1000
EditFlag
1070
     1
1070
     1
1002
{
1002
}
1000
PosInDDATTE
1070
     1
1070
    10
1002
{
1002
}
1000
FieldLen
1070
     1
1070
    -1
1002
{
1002
}
1002
}
1000
11
1070
     7
1002
{
1000
Prompt
1070
     4
1000
(genmsg gendwg 41)
1002
{
1002
}
1000
Value
1070
     4
1000

1002
{
1002
}
1000
EditFlag
1070
     1
1070
     1
1002
{
1002
}
1000
PosInDDATTE
1070
     1
1070
    11
1002
{
1002
}
1000
FieldLen
1070
     1
1070
    -1
1002
{
1002
}
1002
}
1000
12
1070
     7
1002
{
1000
Prompt
1070
     4
1000
(genmsg gendwg 42)
1002
{
1002
}
1000
Value
1070
     4
1000

1002
{
1002
}
1000
EditFlag
1070
     1
1070
     1
1002
{
1002
}
1000
PosInDDATTE
1070
     1
1070
    12
1002
{
1002
}
1000
FieldLen
1070
     1
1070
    -1
1002
{
1002
}
1002
}
1000
13
1070
     7
1002
{
1000
Prompt
1070
     4
1000
(genmsg gendwg 43)
1002
{
1002
}
1000
Value
1070
     4
1000

1002
{
1002
}
1000
EditFlag
1070
     1
1070
     1
1002
{
1002
}
1000
PosInDDATTE
1070
     1
1070
    13
1002
{
1002
}
1000
FieldLen
1070
     1
1070
    -1
1002
{
1002
}
1002
}
1000
14
1070
     7
1002
{
1000
Prompt
1070
     4
1000
(genmsg gendwg 44)
1002
{
1002
}
1000
Value
1070
     4
1000

1002
{
1002
}
1000
EditFlag
1070
     1
1070
     1
1002
{
1002
}
1000
PosInDDATTE
1070
     1
1070
    14
1002
{
1002
}
1000
FieldLen
1070
     1
1070
    -1
1002
{
1002
}
1002
}
1000
15
1070
     7
1002
{
1000
Prompt
1070
     4
1000
(genmsg gendwg 45)
1002
{
1002
}
1000
Value
1070
     4
1000

1002
{
1002
}
1000
EditFlag
1070
     1
1070
     1
1002
{
1002
}
1000
PosInDDATTE
1070
     1
1070
    15
1002
{
1002
}
1000
FieldLen
1070
     1
1070
    -1
1002
{
1002
}
1002
}
1000
16
1070
     7
1002
{
1000
Prompt
1070
     4
1000
(genmsg gendwg 46)
1002
{
1002
}
1000
Value
1070
     4
1000

1002
{
1002
}
1000
EditFlag
1070
     1
1070
     1
1002
{
1002
}
1000
PosInDDATTE
1070
     1
1070
    16
1002
{
1002
}
1000
FieldLen
1070
     1
1070
    -1
1002
{
1002
}
1002
}
1000
17
1070
     7
1002
{
1000
Prompt
1070
     4
1000
(genmsg gendwg 47)
1002
{
1002
}
1000
Value
1070
     4
1000

1002
{
1002
}
1000
EditFlag
1070
     1
1070
     1
1002
{
1002
}
1000
PosInDDATTE
1070
     1
1070
    17
1002
{
1002
}
1000
FieldLen
1070
     1
1070
    -1
1002
{
1002
}
1002
}
1000
18
1070
     7
1002
{
1000
Prompt
1070
     4
1000
(genmsg gendwg 48)
1002
{
1002
}
1000
Value
1070
     4
1000

1002
{
1002
}
1000
EditFlag
1070
     1
1070
     1
1002
{
1002
}
1000
PosInDDATTE
1070
     1
1070
    18
1002
{
1002
}
1000
FieldLen
1070
     1
1070
    -1
1002
{
1002
}
1002
}
1000
19
1070
     7
1002
{
1000
Prompt
1070
     4
1000
(genmsg gendwg 99)
1002
{
1002
}
1000
Value
1070
     4
1000

1002
{
1002
}
1000
EditFlag
1070
     1
1070
     1
1002
{
1002
}
1000
PosInDDATTE
1070
     1
1070
    19
1002
{
1002
}
1000
FieldLen
1070
     1
1070
    -1
1002
{
1002
}
1002
}
1000
20
1070
     7
1002
{
1000
Prompt
1070
     4
1000
(genmsg gendwg 100)
1002
{
1002
}
1000
Value
1070
     4
1000

1002
{
1002
}
1000
EditFlag
1070
     1
1070
     1
1002
{
1002
}
1000
PosInDDATTE
1070
     1
1070
    20
1002
{
1002
}
1000
FieldLen
1070
     1
1070
    -1
1002
{
1002
}
1002
}
1000
21
1070
     7
1002
{
1000
Prompt
1070
     4
1000
(genmsg gendwg 101)
1002
{
1002
}
1000
Value
1070
     4
1000

1002
{
1002
}
1000
EditFlag
1070
     1
1070
     1
1002
{
1002
}
1000
PosInDDATTE
1070
     1
1070
    21
1002
{
1002
}
1000
FieldLen
1070
     1
1070
    -1
1002
{
1002
}
1002
}
1000
22
1070
     7
1002
{
1000
Prompt
1070
     4
1000
(genmsg gendwg 102)
1002
{
1002
}
1000
Value
1070
     4
1000

1002
{
1002
}
1000
EditFlag
1070
     1
1070
     1
1002
{
1002
}
1000
PosInDDATTE
1070
     1
1070
    22
1002
{
1002
}
1000
FieldLen
1070
     1
1070
    -1
1002
{
1002
}
1002
}
1000
23
1070
     7
1002
{
1000
Prompt
1070
     4
1000
(genmsg gendwg 30)
1002
{
1002
}
1000
Value
1070
     4
1000

1002
{
1002
}
1000
EditFlag
1070
     1
1070
     1
1002
{
1002
}
1000
PosInDDATTE
1070
     1
1070
    23
1002
{
1002
}
1000
FieldLen
1070
     1
1070
    -1
1002
{
1002
}
1002
}
1000
24
1070
     7
1002
{
1000
Prompt
1070
     4
1000
(genmsg gendwg 104)
1002
{
1002
}
1000
Value
1070
     4
1000

1002
{
1002
}
1000
EditFlag
1070
     1
1070
     1
1002
{
1002
}
1000
PosInDDATTE
1070
     1
1070
    24
1002
{
1002
}
1000
FieldLen
1070
     1
1070
    -1
1002
{
1002
}
1002
}
1000
25
1070
     7
1002
{
1000
Prompt
1070
     4
1000
(genmsg gendwg 105)
1002
{
1002
}
1000
Value
1070
     4
1000

1002
{
1002
}
1000
EditFlag
1070
     1
1070
     1
1002
{
1002
}
1000
PosInDDATTE
1070
     1
1070
    25
1002
{
1002
}
1000
FieldLen
1070
     1
1070
    -1
1002
{
1002
}
1002
}
1000
26
1070
     7
1002
{
1000
Prompt
1070
     4
1000
(genmsg gendwg 106)
1002
{
1002
}
1000
Value
1070
     4
1000

1002
{
1002
}
1000
EditFlag
1070
     1
1070
     1
1002
{
1002
}
1000
PosInDDATTE
1070
     1
1070
    26
1002
{
1002
}
1000
FieldLen
1070
     1
1070
    -1
1002
{
1002
}
1002
}
1000
27
1070
     7
1002
{
1000
Prompt
1070
     4
1000
(genmsg gendwg 109)
1002
{
1002
}
1000
Value
1070
     4
1000

1002
{
1002
}
1000
EditFlag
1070
     1
1070
     2
1002
{
1002
}
1000
PosInDDATTE
1070
     1
1070
    27
1002
{
1002
}
1000
FieldLen
1070
     1
1070
    -1
1002
{
1002
}
1002
}
1002
}
1000
Xlate
1070
     0
1002
{
1000
>
1002
}
  0
APPID
  5
1236
330
11CB
100
AcDbSymbolTableRecord
100
AcDbRegAppTableRecord
  2
GENIUS_GENCFG2_13
 70
     0
1001
GENIUS_GENCFG_13
1071
967100632
1000
1236
1000
GEN@LAYER@DEFS
1070
    10
1000
GenCfgObject
1000
GenCfgShort
1000
GenCfgReal
1000
GenCfgBool
1000
GenCfgString
1000
GenCfgDim
1000
GenCfgPoint
1000
GenCfgAttrInf
1000
GenCfgLaySection
1000
GenCfgLayer
1000
Basic
1070
     0
1002
{
1000
0
1070
     9
1000
0
1002
{
1000
Color
1070
     1
1070
     7
1002
{
1002
}
1000
LType
1070
     4
1000
CONTINUOUS
1002
{
1002
}
1000
Base
1070
     3
1070
     0
1002
{
1002
}
1002
}
1000
1
1070
     9
1000
1
1002
{
1000
Color
1070
     1
1070
    14
1002
{
1002
}
1000
LType
1070
     4
1000
CONTINUOUS
1002
{
1002
}
1000
Base
1070
     3
1070
     0
1002
{
1002
}
1002
}
1000
2
1070
     9
1000
2
1002
{
1000
Color
1070
     1
1070
     5
1002
{
1002
}
1000
LType
1070
     4
1000
CONTINUOUS
1002
{
1002
}
1000
Base
1070
     3
1070
     0
1002
{
1002
}
1002
}
1000
3
1070
     9
1000
3
1002
{
1000
Color
1070
     1
1070
     6
1002
{
1002
}
1000
LType
1070
     4
1000
GEN3
1002
{
1002
}
1000
Base
1070
     3
1070
     0
1002
{
1002
}
1002
}
1000
4
1070
     9
1000
4
1002
{
1000
Color
1070
     1
1070
     3
1002
{
1002
}
1000
LType
1070
     4
1000
CONTINUOUS
1002
{
1002
}
1000
Base
1070
     3
1070
     0
1002
{
1002
}
1002
}
1000
5
1070
     9
1000
5
1002
{
1000
Color
1070
     1
1070
     3
1002
{
1002
}
1000
LType
1070
     4
1000
CONTINUOUS
1002
{
1002
}
1000
Base
1070
     3
1070
     0
1002
{
1002
}
1002
}
1000
6
1070
     9
1000
6
1002
{
1000
Color
1070
     1
1070
     2
1002
{
1002
}
1000
LType
1070
     4
1000
CONTINUOUS
1002
{
1002
}
1000
Base
1070
     3
1070
     0
1002
{
1002
}
1002
}
1000
7
1070
     9
1000
7
1002
{
1000
Color
1070
     1
1070
     4
1002
{
1002
}
1000
LType
1070
     4
1000
GEN7
1002
{
1002
}
1000
Base
1070
     3
1070
     0
1002
{
1002
}
1002
}
1000
8
1070
     9
1000
8
1002
{
1000
Color
1070
     1
1070
     1
1002
{
1002
}
1000
LType
1070
     4
1000
CONTINUOUS
1002
{
1002
}
1000
Base
1070
     3
1070
     0
1002
{
1002
}
1002
}
1000
3A
1070
     9
1000
3A
1002
{
1000
Color
1070
     1
1070
     6
1002
{
1002
}
1000
LType
1070
     4
1000
GEN3A
1002
{
1002
}
1000
Base
1070
     3
1070
     0
1002
{
1002
}
1002
}
1000
7A
1070
     9
1000
7A
1002
{
1000
Color
1070
     1
1070
     4
1002
{
1002
}
1000
LType
1070
     4
1000
GEN7A
1002
{
1002
}
1000
Base
1070
     3
1070
     0
1002
{
1002
}
1002
}
1000
2A
1070
     9
1000
2A
1002
{
1000
Color
1070
     1
1070
     7
1002
{
1002
}
1000
LType
1070
     4
1000
GEN7
1002
{
1002
}
1000
Base
1070
     3
1070
     0
1002
{
1002
}
1002
}
1000
4A
1070
     9
1000
4A
1002
{
1000
Color
1070
     1
1070
     3
1002
{
1002
}
1000
LType
1070
     4
1000
GEN4A
1002
{
1002
}
1000
Base
1070
     3
1070
     0
1002
{
1002
}
1002
}
1000
9
1070
     9
1000
9
1002
{
1000
Color
1070
     1
1070
   253
1002
{
1002
}
1000
LType
1070
     4
1000
CONTINUOUS
1002
{
1002
}
1000
Base
1070
     3
1070
     0
1002
{
1002
}
1002
}
1000
IP
1070
     9
1000
IP
1002
{
1000
Color
1070
     1
1070
     7
1002
{
1002
}
1000
LType
1070
     4
1000
CONTINUOUS
1002
{
1002
}
1000
Base
1070
     3
1070
     0
1002
{
1002
}
1002
}
1002
}
1000
Standard
1070
     0
1002
{
1000
0N
1070
     9
1000
0N
1002
{
1000
Color
1070
     1
1070
     7
1002
{
1002
}
1000
LType
1070
     4
1000
CONTINUOUS
1002
{
1002
}
1000
Base
1070
     3
1070
     0
1002
{
1002
}
1002
}
1000
1N
1070
     9
1000
1N
1002
{
1000
Color
1070
     1
1070
    14
1002
{
1002
}
1000
LType
1070
     4
1000
CONTINUOUS
1002
{
1002
}
1000
Base
1070
     3
1070
     0
1002
{
1002
}
1002
}
1000
2N
1070
     9
1000
2N
1002
{
1000
Color
1070
     1
1070
     5
1002
{
1002
}
1000
LType
1070
     4
1000
CONTINUOUS
1002
{
1002
}
1000
Base
1070
     3
1070
     0
1002
{
1002
}
1002
}
1000
3N
1070
     9
1000
3N
1002
{
1000
Color
1070
     1
1070
     6
1002
{
1002
}
1000
LType
1070
     4
1000
GEN3
1002
{
1002
}
1000
Base
1070
     3
1070
     0
1002
{
1002
}
1002
}
1000
4N
1070
     9
1000
4N
1002
{
1000
Color
1070
     1
1070
     3
1002
{
1002
}
1000
LType
1070
     4
1000
CONTINUOUS
1002
{
1002
}
1000
Base
1070
     3
1070
     0
1002
{
1002
}
1002
}
1000
5N
1070
     9
1000
5N
1002
{
1000
Color
1070
     1
1070
     3
1002
{
1002
}
1000
LType
1070
     4
1000
CONTINUOUS
1002
{
1002
}
1000
Base
1070
     3
1070
     0
1002
{
1002
}
1002
}
1000
6N
1070
     9
1000
6N
1002
{
1000
Color
1070
     1
1070
     2
1002
{
1002
}
1000
LType
1070
     4
1000
CONTINUOUS
1002
{
1002
}
1000
Base
1070
     3
1070
     0
1002
{
1002
}
1002
}
1000
7N
1070
     9
1000
7N
1002
{
1000
Color
1070
     1
1070
     4
1002
{
1002
}
1000
LType
1070
     4
1000
GEN7
1002
{
1002
}
1000
Base
1070
     3
1070
     0
1002
{
1002
}
1002
}
1000
8N
1070
     9
1000
8N
1002
{
1000
Color
1070
     1
1070
     1
1002
{
1002
}
1000
LType
1070
     4
1000
CONTINUOUS
1002
{
1002
}
1000
Base
1070
     3
1070
     0
1002
{
1002
}
1002
}
1000
3AN
1070
     9
1000
3AN
1002
{
1000
Color
1070
     1
1070
     6
1002
{
1002
}
1000
LType
1070
     4
1000
GEN3A
1002
{
1002
}
1000
Base
1070
     3
1070
     0
1002
{
1002
}
1002
}
1000
7AN
1070
     9
1000
7AN
1002
{
1000
Color
1070
     1
1070
     4
1002
{
1002
}
1000
LType
1070
     4
1000
GEN7A
1002
{
1002
}
1000
Base
1070
     3
1070
     0
1002
{
1002
}
1002
}
1000
2AN
1070
     9
1000
2AN
1002
{
1000
Color
1070
     1
1070
     7
1002
{
1002
}
1000
LType
1070
     4
1000
GEN7
1002
{
1002
}
1000
Base
1070
     3
1070
     0
1002
{
1002
}
1002
}
1000
4AN
1070
     9
1000
4AN
1002
{
1000
Color
1070
     1
1070
     3
1002
{
1002
}
1000
LType
1070
     4
1000
GEN4A
1002
{
1002
}
1000
Base
1070
     3
1070
     0
1002
{
1002
}
1002
}
1000
9N
1070
     9
1000
9N
1002
{
1000
Color
1070
     1
1070
   253
1002
{
1002
}
1000
LType
1070
     4
1000
CONTINUOUS
1002
{
1002
}
1000
Base
1070
     3
1070
     0
1002
{
1002
}
1002
}
1000
IPN
1070
     9
1000
IPN
1002
{
1000
Color
1070
     1
1070
     7
1002
{
1002
}
1000
LType
1070
     4
1000
CONTINUOUS
1002
{
1002
}
1000
Base
1070
     3
1070
     0
1002
{
1002
}
1002
}
1002
}
1000
Extra
1070
     0
1002
{
1000
Klin
1070
     9
1000
KLIN
1002
{
1000
Color
1070
     1
1070
     1
1002
{
1002
}
1000
LType
1070
     4
1000
CONTINUOUS
1002
{
1002
}
1000
Base
1070
     3
1070
     1
1002
{
1002
}
1002
}
1000
Info
1070
     9
1000
INFO
1002
{
1000
Color
1070
     1
1070
     4
1002
{
1002
}
1000
LType
1070
     4
1000
CONTINUOUS
1002
{
1002
}
1000
Base
1070
     3
1070
     1
1002
{
1002
}
1002
}
1000
Rahm2
1070
     9
1000
RAHM2
1002
{
1000
Color
1070
     1
1070
     1
1002
{
1002
}
1000
LType
1070
     4
1000
CONTINUOUS
1002
{
1002
}
1000
Base
1070
     3
1070
     1
1002
{
1002
}
1002
}
1000
Rahm3
1070
     9
1000
RAHM3
1002
{
1000
Color
1070
     1
1070
     2
1002
{
1002
}
1000
LType
1070
     4
1000
CONTINUOUS
1002
{
1002
}
1000
Base
1070
     3
1070
     1
1002
{
1002
}
1002
}
1000
Rahm5
1070
     9
1000
RAHM5
1002
{
1000
Color
1070
     1
1070
     7
1002
{
1002
}
1000
LType
1070
     4
1000
CONTINUOUS
1002
{
1002
}
1000
Base
1070
     3
1070
     1
1002
{
1002
}
1002
}
1000
View
1070
     9
1000
VIEW
1002
{
1000
Color
1070
     1
1070
     1
1002
{
1002
}
1000
LType
1070
     4
1000
CONTINUOUS
1002
{
1002
}
1000
Base
1070
     3
1070
     1
1002
{
1002
}
1002
}
1000
Behind
1070
     9
1000
BEHIND
1002
{
1000
Color
1070
     1
1070
   253
1002
{
1002
}
1000
LType
1070
     4
1000
CONTINUOUS
1002
{
1002
}
1000
Base
1070
     3
1070
     1
1002
{
1002
}
1002
}
1002
}
  0
APPID
  5
1237
330
11CB
100
AcDbSymbolTableRecord
100
AcDbRegAppTableRecord
  2
GENIUS_GENCFG3_13
 70
     0
1001
GENIUS_GENCFG_13
1071
967100632
1000
1237
1000
GEN@LAYER@ENTSORT
1070
    11
1000
GenCfgObject
1000
GenCfgShort
1000
GenCfgReal
1000
GenCfgBool
1000
GenCfgString
1000
GenCfgDim
1000
GenCfgPoint
1000
GenCfgAttrInf
1000
GenCfgLaySection
1000
GenCfgLayer
1000
GenCfgEntSort
1000
ADDL
1070
    10
1000
5
1002
{
1000
Class
1070
     4
1000
SYM
1002
{
1002
}
1000
Color
1070
     1
1070
     1
1002
{
1002
}
1000
LType
1070
     4
1000
BYLAYER
1002
{
1002
}
1002
}
1000
ALTR
1070
    10
1000
4
1002
{
1000
Class
1070
     4
1000

1002
{
1002
}
1000
Color
1070
     1
1070
     7
1002
{
1002
}
1000
LType
1070
     4
1000
GEN3A
1002
{
1002
}
1002
}
1000
BELI
1070
    10
1000
4
1002
{
1000
Class
1070
     4
1000

1002
{
1002
}
1000
Color
1070
     1
1070
   256
1002
{
1002
}
1000
LType
1070
     4
1000
BYLAYER
1002
{
1002
}
1002
}
1000
BHNV
1070
    10
1000
9
1002
{
1000
Class
1070
     4
1000
INV
1002
{
1002
}
1000
Color
1070
     1
1070
   256
1002
{
1002
}
1000
LType
1070
     4
1000
BYLAYER
1002
{
1002
}
1002
}
1000
BHNVS
1070
    10
1000
BEHIND
1002
{
1000
Class
1070
     4
1000
INV
1002
{
1002
}
1000
Color
1070
     1
1070
   256
1002
{
1002
}
1000
LType
1070
     4
1000
BYLAYER
1002
{
1002
}
1002
}
1000
BLID
1070
    10
1000
4A
1002
{
1000
Class
1070
     4
1000

1002
{
1002
}
1000
Color
1070
     1
1070
   256
1002
{
1002
}
1000
LType
1070
     4
1000
BYLAYER
1002
{
1002
}
1002
}
1000
BOAP
1070
    10
1000
4A
1002
{
1000
Class
1070
     4
1000

1002
{
1002
}
1000
Color
1070
     1
1070
   256
1002
{
1002
}
1000
LType
1070
     4
1000
BYLAYER
1002
{
1002
}
1002
}
1000
BOR2
1070
    10
1000
RAHM2
1002
{
1000
Class
1070
     4
1000
SPZ,SYM
1002
{
1002
}
1000
Color
1070
     1
1070
   256
1002
{
1002
}
1000
LType
1070
     4
1000
BYLAYER
1002
{
1002
}
1002
}
1000
BOR3
1070
    10
1000
RAHM3
1002
{
1000
Class
1070
     4
1000
SPZ,SYM
1002
{
1002
}
1000
Color
1070
     1
1070
   256
1002
{
1002
}
1000
LType
1070
     4
1000
BYLAYER
1002
{
1002
}
1002
}
1000
BOR5
1070
    10
1000
RAHM5
1002
{
1000
Class
1070
     4
1000
SPZ,SYM
1002
{
1002
}
1000
Color
1070
     1
1070
   256
1002
{
1002
}
1000
LType
1070
     4
1000
BYLAYER
1002
{
1002
}
1002
}
1000
BOR7
1070
    10
1000
RAHM5
1002
{
1000
Class
1070
     4
1000
SPZ,SYM
1002
{
1002
}
1000
Color
1070
     1
1070
     7
1002
{
1002
}
1000
LType
1070
     4
1000
CONTINUOUS
1002
{
1002
}
1002
}
1000
BPAP
1070
    10
1000
4A
1002
{
1000
Class
1070
     4
1000

1002
{
1002
}
1000
Color
1070
     1
1070
   256
1002
{
1002
}
1000
LType
1070
     4
1000
BYLAYER
1002
{
1002
}
1002
}
1000
BPEX
1070
    10
1000
4A
1002
{
1000
Class
1070
     4
1000

1002
{
1002
}
1000
Color
1070
     1
1070
   256
1002
{
1002
}
1000
LType
1070
     4
1000
BYLAYER
1002
{
1002
}
1002
}
1000
BTDI
1070
    10
1000
5
1002
{
1000
Class
1070
     4
1000
DIM,SYM
1002
{
1002
}
1000
Color
1070
     1
1070
   256
1002
{
1002
}
1000
LType
1070
     4
1000
BYLAYER
1002
{
1002
}
1002
}
1000
CAL2
1070
    10
1000
4
1002
{
1000
Class
1070
     4
1000
SYM
1002
{
1002
}
1000
Color
1070
     1
1070
   256
1002
{
1002
}
1000
LType
1070
     4
1000
BYLAYER
1002
{
1002
}
1002
}
1000
CAL3
1070
    10
1000
4
1002
{
1000
Class
1070
     4
1000
SYM
1002
{
1002
}
1000
Color
1070
     1
1070
     2
1002
{
1002
}
1000
LType
1070
     4
1000
BYLAYER
1002
{
1002
}
1002
}
1000
CAL5
1070
    10
1000
4
1002
{
1000
Class
1070
     4
1000
SYM
1002
{
1002
}
1000
Color
1070
     1
1070
     7
1002
{
1002
}
1000
LType
1070
     4
1000
BYLAYER
1002
{
1002
}
1002
}
1000
CAL7
1070
    10
1000
4
1002
{
1000
Class
1070
     4
1000
SYM
1002
{
1002
}
1000
Color
1070
     1
1070
     5
1002
{
1002
}
1000
LType
1070
     4
1000
BYLAYER
1002
{
1002
}
1002
}
1000
CENN
1070
    10
1000
7A
1002
{
1000
Class
1070
     4
1000
CEN
1002
{
1002
}
1000
Color
1070
     1
1070
   256
1002
{
1002
}
1000
LType
1070
     4
1000
BYLAYER
1002
{
1002
}
1002
}
1000
CENW
1070
    10
1000
7
1002
{
1000
Class
1070
     4
1000
CEN
1002
{
1002
}
1000
Color
1070
     1
1070
   256
1002
{
1002
}
1000
LType
1070
     4
1000
BYLAYER
1002
{
1002
}
1002
}
1000
CLIN
1070
    10
1000
KLIN
1002
{
1000
Class
1070
     4
1000
SPZ
1002
{
1002
}
1000
Color
1070
     1
1070
   256
1002
{
1002
}
1000
LType
1070
     4
1000
BYLAYER
1002
{
1002
}
1002
}
1000
CON1
1070
    10
1000
0
1002
{
1000
Class
1070
     4
1000
CON,BGD
1002
{
1002
}
1000
Color
1070
     1
1070
   256
1002
{
1002
}
1000
LType
1070
     4
1000
BYLAYER
1002
{
1002
}
1002
}
1000
CON2
1070
    10
1000
1
1002
{
1000
Class
1070
     4
1000
CON,BGD
1002
{
1002
}
1000
Color
1070
     1
1070
   256
1002
{
1002
}
1000
LType
1070
     4
1000
BYLAYER
1002
{
1002
}
1002
}
1000
CON3
1070
    10
1000
2
1002
{
1000
Class
1070
     4
1000
CON,BGD
1002
{
1002
}
1000
Color
1070
     1
1070
   256
1002
{
1002
}
1000
LType
1070
     4
1000
BYLAYER
1002
{
1002
}
1002
}
1000
CON4
1070
    10
1000
2
1002
{
1000
Class
1070
     4
1000
CON,BGD
1002
{
1002
}
1000
Color
1070
     1
1070
   256
1002
{
1002
}
1000
LType
1070
     4
1000
BYLAYER
1002
{
1002
}
1002
}
1000
DERP
1070
    10
1000
4
1002
{
1000
Class
1070
     4
1000

1002
{
1002
}
1000
Color
1070
     1
1070
   256
1002
{
1002
}
1000
LType
1070
     4
1000
BYLAYER
1002
{
1002
}
1002
}
1000
DETA
1070
    10
1000
4
1002
{
1000
Class
1070
     4
1000

1002
{
1002
}
1000
Color
1070
     1
1070
   256
1002
{
1002
}
1000
LType
1070
     4
1000
BYLAYER
1002
{
1002
}
1002
}
1000
DIAG
1070
    10
1000
5
1002
{
1000
Class
1070
     4
1000
SYM
1002
{
1002
}
1000
Color
1070
     1
1070
   256
1002
{
1002
}
1000
LType
1070
     4
1000
BYLAYER
1002
{
1002
}
1002
}
1000
DILI
1070
    10
1000
5
1002
{
1000
Class
1070
     4
1000
DIM,SYM
1002
{
1002
}
1000
Color
1070
     1
1070
   256
1002
{
1002
}
1000
LType
1070
     4
1000
BYLAYER
1002
{
1002
}
1002
}
1000
DITO2
1070
    10
1000
5
1002
{
1000
Class
1070
     4
1000
DIM,SYM
1002
{
1002
}
1000
Color
1070
     1
1070
     3
1002
{
1002
}
1000
LType
1070
     4
1000
BYLAYER
1002
{
1002
}
1002
}
1000
DITO3
1070
    10
1000
5
1002
{
1000
Class
1070
     4
1000
DIM,SYM
1002
{
1002
}
1000
Color
1070
     1
1070
     2
1002
{
1002
}
1000
LType
1070
     4
1000
BYLAYER
1002
{
1002
}
1002
}
1000
DITX
1070
    10
1000
5
1002
{
1000
Class
1070
     4
1000
DIM,SYM
1002
{
1002
}
1000
Color
1070
     1
1070
     2
1002
{
1002
}
1000
LType
1070
     4
1000
CONTINUOUS
1002
{
1002
}
1002
}
1000
DIXL
1070
    10
1000
5
1002
{
1000
Class
1070
     4
1000
DIM,SYM
1002
{
1002
}
1000
Color
1070
     1
1070
   256
1002
{
1002
}
1000
LType
1070
     4
1000
BYLAYER
1002
{
1002
}
1002
}
1000
EXMP
1070
    10
1000
4A
1002
{
1000
Class
1070
     4
1000

1002
{
1002
}
1000
Color
1070
     1
1070
   256
1002
{
1002
}
1000
LType
1070
     4
1000
BYLAYER
1002
{
1002
}
1002
}
1000
FEMN
1070
    10
1000
8
1002
{
1000
Class
1070
     4
1000

1002
{
1002
}
1000
Color
1070
     1
1070
   256
1002
{
1002
}
1000
LType
1070
     4
1000
BYLAYER
1002
{
1002
}
1002
}
1000
FEMPN
1070
    10
1000
8
1002
{
1000
Class
1070
     4
1000
SYM
1002
{
1002
}
1000
Color
1070
     1
1070
     3
1002
{
1002
}
1000
LType
1070
     4
1000
BYLAYER
1002
{
1002
}
1002
}
1000
FEMSP
1070
    10
1000
4A
1002
{
1000
Class
1070
     4
1000

1002
{
1002
}
1000
Color
1070
     1
1070
   256
1002
{
1002
}
1000
LType
1070
     4
1000
CONTINUOUS
1002
{
1002
}
1002
}
1000
FEMST
1070
    10
1000
4A
1002
{
1000
Class
1070
     4
1000
SYM
1002
{
1002
}
1000
Color
1070
     1
1070
     3
1002
{
1002
}
1000
LType
1070
     4
1000
BYLAYER
1002
{
1002
}
1002
}
1000
FEMVN
1070
    10
1000
2
1002
{
1000
Class
1070
     4
1000
CON
1002
{
1002
}
1000
Color
1070
     1
1070
   256
1002
{
1002
}
1000
LType
1070
     4
1000
BYLAYER
1002
{
1002
}
1002
}
1000
FEMVT
1070
    10
1000
2
1002
{
1000
Class
1070
     4
1000
SYM
1002
{
1002
}
1000
Color
1070
     1
1070
     3
1002
{
1002
}
1000
LType
1070
     4
1000
BYLAYER
1002
{
1002
}
1002
}
1000
FLAT
1070
    10
1000
0
1002
{
1000
Class
1070
     4
1000

1002
{
1002
}
1000
Color
1070
     1
1070
   256
1002
{
1002
}
1000
LType
1070
     4
1000
BYLAYER
1002
{
1002
}
1002
}
1000
FRAR
1070
    10
1000
4A
1002
{
1000
Class
1070
     4
1000

1002
{
1002
}
1000
Color
1070
     1
1070
   256
1002
{
1002
}
1000
LType
1070
     4
1000
BYLAYER
1002
{
1002
}
1002
}
1000
GRLI
1070
    10
1000
5
1002
{
1000
Class
1070
     4
1000
SYM
1002
{
1002
}
1000
Color
1070
     1
1070
   256
1002
{
1002
}
1000
LType
1070
     4
1000
BYLAYER
1002
{
1002
}
1002
}
1000
GVLI
1070
    10
1000
4A
1002
{
1000
Class
1070
     4
1000

1002
{
1002
}
1000
Color
1070
     1
1070
   256
1002
{
1002
}
1000
LType
1070
     4
1000
BYLAYER
1002
{
1002
}
1002
}
1000
HATC
1070
    10
1000
8
1002
{
1000
Class
1070
     4
1000
HTC,BGD
1002
{
1002
}
1000
Color
1070
     1
1070
   256
1002
{
1002
}
1000
LType
1070
     4
1000
BYLAYER
1002
{
1002
}
1002
}
1000
HIDN
1070
    10
1000
3A
1002
{
1000
Class
1070
     4
1000
HID,BGD
1002
{
1002
}
1000
Color
1070
     1
1070
   256
1002
{
1002
}
1000
LType
1070
     4
1000
BYLAYER
1002
{
1002
}
1002
}
1000
HIDW
1070
    10
1000
3
1002
{
1000
Class
1070
     4
1000
HID,BGD
1002
{
1002
}
1000
Color
1070
     1
1070
   256
1002
{
1002
}
1000
LType
1070
     4
1000
BYLAYER
1002
{
1002
}
1002
}
1000
HLIN
1070
    10
1000
4
1002
{
1000
Class
1070
     4
1000
BGD
1002
{
1002
}
1000
Color
1070
     1
1070
   256
1002
{
1002
}
1000
LType
1070
     4
1000
BYLAYER
1002
{
1002
}
1002
}
1000
HOCN
1070
    10
1000
7A
1002
{
1000
Class
1070
     4
1000
CEN
1002
{
1002
}
1000
Color
1070
     1
1070
   256
1002
{
1002
}
1000
LType
1070
     4
1000
BYLAYER
1002
{
1002
}
1002
}
1000
HOCW
1070
    10
1000
7
1002
{
1000
Class
1070
     4
1000
CEN
1002
{
1002
}
1000
Color
1070
     1
1070
   256
1002
{
1002
}
1000
LType
1070
     4
1000
BYLAYER
1002
{
1002
}
1002
}
1000
INFO
1070
    10
1000
INFO
1002
{
1000
Class
1070
     4
1000
SPZ,SYM
1002
{
1002
}
1000
Color
1070
     1
1070
   256
1002
{
1002
}
1000
LType
1070
     4
1000
BYLAYER
1002
{
1002
}
1002
}
1000
LADI
1070
    10
1000
4
1002
{
1000
Class
1070
     4
1000
BGD
1002
{
1002
}
1000
Color
1070
     1
1070
   256
1002
{
1002
}
1000
LType
1070
     4
1000
BYLAYER
1002
{
1002
}
1002
}
1000
LEAD
1070
    10
1000
5
1002
{
1000
Class
1070
     4
1000
SYM
1002
{
1002
}
1000
Color
1070
     1
1070
   256
1002
{
1002
}
1000
LType
1070
     4
1000
BYLAYER
1002
{
1002
}
1002
}
1000
N_ADDL
1070
    10
1000
5N
1002
{
1000
Class
1070
     4
1000
SYM
1002
{
1002
}
1000
Color
1070
     1
1070
     1
1002
{
1002
}
1000
LType
1070
     4
1000
BYLAYER
1002
{
1002
}
1002
}
1000
N_BHNV
1070
    10
1000
9N
1002
{
1000
Class
1070
     4
1000
INV
1002
{
1002
}
1000
Color
1070
     1
1070
   256
1002
{
1002
}
1000
LType
1070
     4
1000
BYLAYER
1002
{
1002
}
1002
}
1000
N_CON1
1070
    10
1000
0N
1002
{
1000
Class
1070
     4
1000
CON,BGD
1002
{
1002
}
1000
Color
1070
     1
1070
   256
1002
{
1002
}
1000
LType
1070
     4
1000
BYLAYER
1002
{
1002
}
1002
}
1000
N_CON2
1070
    10
1000
1N
1002
{
1000
Class
1070
     4
1000
CON,BGD
1002
{
1002
}
1000
Color
1070
     1
1070
   256
1002
{
1002
}
1000
LType
1070
     4
1000
BYLAYER
1002
{
1002
}
1002
}
1000
N_CON3
1070
    10
1000
2N
1002
{
1000
Class
1070
     4
1000
CON,BGD
1002
{
1002
}
1000
Color
1070
     1
1070
   256
1002
{
1002
}
1000
LType
1070
     4
1000
BYLAYER
1002
{
1002
}
1002
}
1000
N_CON4
1070
    10
1000
2N
1002
{
1000
Class
1070
     4
1000
CON,BGD
1002
{
1002
}
1000
Color
1070
     1
1070
   256
1002
{
1002
}
1000
LType
1070
     4
1000
BYLAYER
1002
{
1002
}
1002
}
1000
N_CENN
1070
    10
1000
7AN
1002
{
1000
Class
1070
     4
1000
CEN
1002
{
1002
}
1000
Color
1070
     1
1070
   256
1002
{
1002
}
1000
LType
1070
     4
1000
BYLAYER
1002
{
1002
}
1002
}
1000
N_CENW
1070
    10
1000
7N
1002
{
1000
Class
1070
     4
1000
CEN
1002
{
1002
}
1000
Color
1070
     1
1070
   256
1002
{
1002
}
1000
LType
1070
     4
1000
BYLAYER
1002
{
1002
}
1002
}
1000
N_DILI
1070
    10
1000
5N
1002
{
1000
Class
1070
     4
1000
DIM,SYM
1002
{
1002
}
1000
Color
1070
     1
1070
   256
1002
{
1002
}
1000
LType
1070
     4
1000
BYLAYER
1002
{
1002
}
1002
}
1000
N_DITX
1070
    10
1000
5N
1002
{
1000
Class
1070
     4
1000
DIM,SYM
1002
{
1002
}
1000
Color
1070
     1
1070
     2
1002
{
1002
}
1000
LType
1070
     4
1000
CONTINUOUS
1002
{
1002
}
1002
}
1000
N_DIXL
1070
    10
1000
5N
1002
{
1000
Class
1070
     4
1000
DIM,SYM
1002
{
1002
}
1000
Color
1070
     1
1070
   256
1002
{
1002
}
1000
LType
1070
     4
1000
BYLAYER
1002
{
1002
}
1002
}
1000
N_HATC
1070
    10
1000
8N
1002
{
1000
Class
1070
     4
1000
HTC,BGD
1002
{
1002
}
1000
Color
1070
     1
1070
   256
1002
{
1002
}
1000
LType
1070
     4
1000
BYLAYER
1002
{
1002
}
1002
}
1000
N_HIDN
1070
    10
1000
3AN
1002
{
1000
Class
1070
     4
1000
HID,BGD
1002
{
1002
}
1000
Color
1070
     1
1070
   256
1002
{
1002
}
1000
LType
1070
     4
1000
BYLAYER
1002
{
1002
}
1002
}
1000
N_HIDW
1070
    10
1000
3N
1002
{
1000
Class
1070
     4
1000
HID,BGD
1002
{
1002
}
1000
Color
1070
     1
1070
   256
1002
{
1002
}
1000
LType
1070
     4
1000
BYLAYER
1002
{
1002
}
1002
}
1000
N_NGIP
1070
    10
1000
IPN
1002
{
1000
Class
1070
     4
1000

1002
{
1002
}
1000
Color
1070
     1
1070
   256
1002
{
1002
}
1000
LType
1070
     4
1000
BYLAYER
1002
{
1002
}
1002
}
1000
N_PHAN
1070
    10
1000
4AN
1002
{
1000
Class
1070
     4
1000

1002
{
1002
}
1000
Color
1070
     1
1070
   256
1002
{
1002
}
1000
LType
1070
     4
1000
BYLAYER
1002
{
1002
}
1002
}
1000
N_POSL
1070
    10
1000
5N
1002
{
1000
Class
1070
     4
1000
SYM
1002
{
1002
}
1000
Color
1070
     1
1070
   256
1002
{
1002
}
1000
LType
1070
     4
1000
BYLAYER
1002
{
1002
}
1002
}
1000
N_TCON
1070
    10
1000
0N
1002
{
1000
Class
1070
     4
1000
CON,BGD
1002
{
1002
}
1000
Color
1070
     1
1070
   256
1002
{
1002
}
1000
LType
1070
     4
1000
BYLAYER
1002
{
1002
}
1002
}
1000
N_THLI
1070
    10
1000
4N
1002
{
1000
Class
1070
     4
1000
BGD
1002
{
1002
}
1000
Color
1070
     1
1070
   256
1002
{
1002
}
1000
LType
1070
     4
1000
BYLAYER
1002
{
1002
}
1002
}
1000
N_TLEN
1070
    10
1000
0N
1002
{
1000
Class
1070
     4
1000
CON,BGD
1002
{
1002
}
1000
Color
1070
     1
1070
   256
1002
{
1002
}
1000
LType
1070
     4
1000
BYLAYER
1002
{
1002
}
1002
}
1000
N_TXT3
1070
    10
1000
6N
1002
{
1000
Class
1070
     4
1000
SYM
1002
{
1002
}
1000
Color
1070
     1
1070
   256
1002
{
1002
}
1000
LType
1070
     4
1000
BYLAYER
1002
{
1002
}
1002
}
1000
N_VPLI
1070
    10
1000
2AN
1002
{
1000
Class
1070
     4
1000

1002
{
1002
}
1000
Color
1070
     1
1070
   256
1002
{
1002
}
1000
LType
1070
     4
1000
BYLAYER
1002
{
1002
}
1002
}
1000
NGIP
1070
    10
1000
IP
1002
{
1000
Class
1070
     4
1000

1002
{
1002
}
1000
Color
1070
     1
1070
   256
1002
{
1002
}
1000
LType
1070
     4
1000
BYLAYER
1002
{
1002
}
1002
}
1000
PAL2
1070
    10
1000
RAHM2
1002
{
1000
Class
1070
     4
1000
SPZ,SYM
1002
{
1002
}
1000
Color
1070
     1
1070
   256
1002
{
1002
}
1000
LType
1070
     4
1000
BYLAYER
1002
{
1002
}
1002
}
1000
PAL3
1070
    10
1000
RAHM3
1002
{
1000
Class
1070
     4
1000
SPZ,SYM
1002
{
1002
}
1000
Color
1070
     1
1070
   256
1002
{
1002
}
1000
LType
1070
     4
1000
BYLAYER
1002
{
1002
}
1002
}
1000
PAL5
1070
    10
1000
RAHM5
1002
{
1000
Class
1070
     4
1000
SPZ,SYM
1002
{
1002
}
1000
Color
1070
     1
1070
   256
1002
{
1002
}
1000
LType
1070
     4
1000
BYLAYER
1002
{
1002
}
1002
}
1000
PAL7
1070
    10
1000
RAHM5
1002
{
1000
Class
1070
     4
1000
SPZ,SYM
1002
{
1002
}
1000
Color
1070
     1
1070
     7
1002
{
1002
}
1000
LType
1070
     4
1000
CONTINUOUS
1002
{
1002
}
1002
}
1000
PHAN
1070
    10
1000
4A
1002
{
1000
Class
1070
     4
1000

1002
{
1002
}
1000
Color
1070
     1
1070
   256
1002
{
1002
}
1000
LType
1070
     4
1000
BYLAYER
1002
{
1002
}
1002
}
1000
POSL
1070
    10
1000
5
1002
{
1000
Class
1070
     4
1000
SYM
1002
{
1002
}
1000
Color
1070
     1
1070
   256
1002
{
1002
}
1000
LType
1070
     4
1000
BYLAYER
1002
{
1002
}
1002
}
1000
POSN
1070
    10
1000
6
1002
{
1000
Class
1070
     4
1000
SYM
1002
{
1002
}
1000
Color
1070
     1
1070
     7
1002
{
1002
}
1000
LType
1070
     4
1000
BYLAYER
1002
{
1002
}
1002
}
1000
POSREF
1070
    10
1000
6
1002
{
1000
Class
1070
     4
1000
SYM
1002
{
1002
}
1000
Color
1070
     1
1070
     5
1002
{
1002
}
1000
LType
1070
     4
1000
BYLAYER
1002
{
1002
}
1002
}
1000
POSX
1070
    10
1000
5
1002
{
1000
Class
1070
     4
1000
SYM
1002
{
1002
}
1000
Color
1070
     1
1070
     2
1002
{
1002
}
1000
LType
1070
     4
1000
CONTINUOUS
1002
{
1002
}
1002
}
1000
PSEC
1070
    10
1000
4A
1002
{
1000
Class
1070
     4
1000

1002
{
1002
}
1000
Color
1070
     1
1070
   256
1002
{
1002
}
1000
LType
1070
     4
1000
BYLAYER
1002
{
1002
}
1002
}
1000
RCGN
1070
    10
1000
7A
1002
{
1000
Class
1070
     4
1000
CEN
1002
{
1002
}
1000
Color
1070
     1
1070
   256
1002
{
1002
}
1000
LType
1070
     4
1000
BYLAYER
1002
{
1002
}
1002
}
1000
RCGW
1070
    10
1000
7
1002
{
1000
Class
1070
     4
1000
CEN
1002
{
1002
}
1000
Color
1070
     1
1070
   256
1002
{
1002
}
1000
LType
1070
     4
1000
BYLAYER
1002
{
1002
}
1002
}
1000
RFDI
1070
    10
1000
4
1002
{
1000
Class
1070
     4
1000
BGD
1002
{
1002
}
1000
Color
1070
     1
1070
   256
1002
{
1002
}
1000
LType
1070
     4
1000
BYLAYER
1002
{
1002
}
1002
}
1000
RQTR
1070
    10
1000
4
1002
{
1000
Class
1070
     4
1000

1002
{
1002
}
1000
Color
1070
     1
1070
     7
1002
{
1002
}
1000
LType
1070
     4
1000
GEN7A
1002
{
1002
}
1002
}
1000
RSBO
1070
    10
1000
4
1002
{
1000
Class
1070
     4
1000
BGD
1002
{
1002
}
1000
Color
1070
     1
1070
   256
1002
{
1002
}
1000
LType
1070
     4
1000
BYLAYER
1002
{
1002
}
1002
}
1000
SBRK
1070
    10
1000
4
1002
{
1000
Class
1070
     4
1000
BGD
1002
{
1002
}
1000
Color
1070
     1
1070
   256
1002
{
1002
}
1000
LType
1070
     4
1000
BYLAYER
1002
{
1002
}
1002
}
1000
SCEN
1070
    10
1000
7
1002
{
1000
Class
1070
     4
1000

1002
{
1002
}
1000
Color
1070
     1
1070
   256
1002
{
1002
}
1000
LType
1070
     4
1000
CONTINUOUS
1002
{
1002
}
1002
}
1000
SECT
1070
    10
1000
4
1002
{
1000
Class
1070
     4
1000
BGD
1002
{
1002
}
1000
Color
1070
     1
1070
   256
1002
{
1002
}
1000
LType
1070
     4
1000
BYLAYER
1002
{
1002
}
1002
}
1000
SELN
1070
    10
1000
7A
1002
{
1000
Class
1070
     4
1000

1002
{
1002
}
1000
Color
1070
     1
1070
   256
1002
{
1002
}
1000
LType
1070
     4
1000
BYLAYER
1002
{
1002
}
1002
}
1000
SELW
1070
    10
1000
7
1002
{
1000
Class
1070
     4
1000

1002
{
1002
}
1000
Color
1070
     1
1070
   256
1002
{
1002
}
1000
LType
1070
     4
1000
BYLAYER
1002
{
1002
}
1002
}
1000
SSYS
1070
    10
1000
0
1002
{
1000
Class
1070
     4
1000

1002
{
1002
}
1000
Color
1070
     1
1070
   256
1002
{
1002
}
1000
LType
1070
     4
1000
BYLAYER
1002
{
1002
}
1002
}
1000
STLI
1070
    10
1000
4
1002
{
1000
Class
1070
     4
1000

1002
{
1002
}
1000
Color
1070
     1
1070
     7
1002
{
1002
}
1000
LType
1070
     4
1000
GEN3A
1002
{
1002
}
1002
}
1000
SYB1
1070
    10
1000
5
1002
{
1000
Class
1070
     4
1000
SYM
1002
{
1002
}
1000
Color
1070
     1
1070
   256
1002
{
1002
}
1000
LType
1070
     4
1000
BYLAYER
1002
{
1002
}
1002
}
1000
SYB2
1070
    10
1000
5
1002
{
1000
Class
1070
     4
1000
SYM
1002
{
1002
}
1000
Color
1070
     1
1070
   256
1002
{
1002
}
1000
LType
1070
     4
1000
BYLAYER
1002
{
1002
}
1002
}
1000
SYB3
1070
    10
1000
6
1002
{
1000
Class
1070
     4
1000
SYM
1002
{
1002
}
1000
Color
1070
     1
1070
   256
1002
{
1002
}
1000
LType
1070
     4
1000
CONTINUOUS
1002
{
1002
}
1002
}
1000
SYB5
1070
    10
1000
5
1002
{
1000
Class
1070
     4
1000
SYM
1002
{
1002
}
1000
Color
1070
     1
1070
     7
1002
{
1002
}
1000
LType
1070
     4
1000
BYLAYER
1002
{
1002
}
1002
}
1000
SYMN
1070
    10
1000
7A
1002
{
1000
Class
1070
     4
1000
CEN
1002
{
1002
}
1000
Color
1070
     1
1070
   256
1002
{
1002
}
1000
LType
1070
     4
1000
BYLAYER
1002
{
1002
}
1002
}
1000
SYMW
1070
    10
1000
7
1002
{
1000
Class
1070
     4
1000
CEN
1002
{
1002
}
1000
Color
1070
     1
1070
   256
1002
{
1002
}
1000
LType
1070
     4
1000
BYLAYER
1002
{
1002
}
1002
}
1000
TCON
1070
    10
1000
0
1002
{
1000
Class
1070
     4
1000
CON,BGD
1002
{
1002
}
1000
Color
1070
     1
1070
   256
1002
{
1002
}
1000
LType
1070
     4
1000
BYLAYER
1002
{
1002
}
1002
}
1000
THLI
1070
    10
1000
4
1002
{
1000
Class
1070
     4
1000
BGD
1002
{
1002
}
1000
Color
1070
     1
1070
   256
1002
{
1002
}
1000
LType
1070
     4
1000
BYLAYER
1002
{
1002
}
1002
}
1000
TIT2
1070
    10
1000
RAHM2
1002
{
1000
Class
1070
     4
1000
SPZ,SYM
1002
{
1002
}
1000
Color
1070
     1
1070
   256
1002
{
1002
}
1000
LType
1070
     4
1000
BYLAYER
1002
{
1002
}
1002
}
1000
TIT3
1070
    10
1000
RAHM3
1002
{
1000
Class
1070
     4
1000
SPZ,SYM
1002
{
1002
}
1000
Color
1070
     1
1070
   256
1002
{
1002
}
1000
LType
1070
     4
1000
BYLAYER
1002
{
1002
}
1002
}
1000
TIT5
1070
    10
1000
RAHM5
1002
{
1000
Class
1070
     4
1000
SPZ,SYM
1002
{
1002
}
1000
Color
1070
     1
1070
   256
1002
{
1002
}
1000
LType
1070
     4
1000
BYLAYER
1002
{
1002
}
1002
}
1000
TIT7
1070
    10
1000
RAHM5
1002
{
1000
Class
1070
     4
1000
SPZ,SYM
1002
{
1002
}
1000
Color
1070
     1
1070
     7
1002
{
1002
}
1000
LType
1070
     4
1000
CONTINUOUS
1002
{
1002
}
1002
}
1000
TLEN
1070
    10
1000
0
1002
{
1000
Class
1070
     4
1000
CON,BGD
1002
{
1002
}
1000
Color
1070
     1
1070
   256
1002
{
1002
}
1000
LType
1070
     4
1000
BYLAYER
1002
{
1002
}
1002
}
1000
TRKN
1070
    10
1000
7A
1002
{
1000
Class
1070
     4
1000

1002
{
1002
}
1000
Color
1070
     1
1070
   256
1002
{
1002
}
1000
LType
1070
     4
1000
BYLAYER
1002
{
1002
}
1002
}
1000
TRKW
1070
    10
1000
7
1002
{
1000
Class
1070
     4
1000

1002
{
1002
}
1000
Color
1070
     1
1070
   256
1002
{
1002
}
1000
LType
1070
     4
1000
BYLAYER
1002
{
1002
}
1002
}
1000
TRLI
1070
    10
1000
4
1002
{
1000
Class
1070
     4
1000
BGD
1002
{
1002
}
1000
Color
1070
     1
1070
   256
1002
{
1002
}
1000
LType
1070
     4
1000
BYLAYER
1002
{
1002
}
1002
}
1000
TXT1
1070
    10
1000
6
1002
{
1000
Class
1070
     4
1000
SYM
1002
{
1002
}
1000
Color
1070
     1
1070
     2
1002
{
1002
}
1000
LType
1070
     4
1000
BYLAYER
1002
{
1002
}
1002
}
1000
TXT2
1070
    10
1000
6
1002
{
1000
Class
1070
     4
1000
SYM
1002
{
1002
}
1000
Color
1070
     1
1070
     2
1002
{
1002
}
1000
LType
1070
     4
1000
BYLAYER
1002
{
1002
}
1002
}
1000
TXT3
1070
    10
1000
6
1002
{
1000
Class
1070
     4
1000
SYM
1002
{
1002
}
1000
Color
1070
     1
1070
   256
1002
{
1002
}
1000
LType
1070
     4
1000
BYLAYER
1002
{
1002
}
1002
}
1000
TXT5
1070
    10
1000
6
1002
{
1000
Class
1070
     4
1000
SYM
1002
{
1002
}
1000
Color
1070
     1
1070
     7
1002
{
1002
}
1000
LType
1070
     4
1000
BYLAYER
1002
{
1002
}
1002
}
1000
TXT7
1070
    10
1000
6
1002
{
1000
Class
1070
     4
1000
SYM
1002
{
1002
}
1000
Color
1070
     1
1070
     7
1002
{
1002
}
1000
LType
1070
     4
1000
BYLAYER
1002
{
1002
}
1002
}
1000
VIEW
1070
    10
1000
VIEW
1002
{
1000
Class
1070
     4
1000
SPZ
1002
{
1002
}
1000
Color
1070
     1
1070
   256
1002
{
1002
}
1000
LType
1070
     4
1000
BYLAYER
1002
{
1002
}
1002
}
1000
VPLI
1070
    10
1000
2A
1002
{
1000
Class
1070
     4
1000

1002
{
1002
}
1000
Color
1070
     1
1070
   256
1002
{
1002
}
1000
LType
1070
     4
1000
BYLAYER
1002
{
1002
}
1002
}
1000
ZIZA
1070
    10
1000
4
1002
{
1000
Class
1070
     4
1000
BGD
1002
{
1002
}
1000
Color
1070
     1
1070
   256
1002
{
1002
}
1000
LType
1070
     4
1000
GENZIGZAG
1002
{
1002
}
1002
}
  0
APPID
  5
1238
330
11CB
100
AcDbSymbolTableRecord
100
AcDbRegAppTableRecord
  2
GENIUS_GENCFG4_13
 70
     0
1001
GENIUS_GENCFG_13
1071
967100656
1000
1238
1000
GEN
1070
    10
1000
GenCfgObject
1000
GenCfgShort
1000
GenCfgReal
1000
GenCfgBool
1000
GenCfgString
1000
GenCfgDim
1000
GenCfgPoint
1000
GenCfgLaySection
1000
GenCfgLType
1000
GenCfgFilter
1000
Balloon
1070
     0
1002
{
1000
GenIF
1070
     1
1070
     0
1002
{
1002
}
1000
GenPosInc
1070
     1
1070
     1
1002
{
1002
}
1000
GenPosBlk
1070
     1
1070
     8
1002
{
1002
}
1000
GenPosVar
1070
     1
1070
     0
1002
{
1002
}
1000
GenZiCir
1070
     2
1040
1.5
1002
{
1002
}
1000
MaxCharForCenteredText
1070
     1
1070
    30
1002
{
1002
}
1000
Snap
1070
     0
1002
{
1000
ActivationRadius
1070
     2
1040
1.0
1002
{
1002
}
1000
M
1070
     0
1002
{
1000
SnapStepX
1070
     2
1040
20.0
1002
{
1002
}
1000
SnapStepY
1070
     2
1040
10.0
1002
{
1002
}
1002
}
1000
I
1070
     0
1002
{
1000
SnapStepX
1070
     2
1040
1.0
1002
{
1002
}
1000
SnapStepY
1070
     2
1040
0.5
1002
{
1002
}
1002
}
1002
}
1002
}
1000
Centerline
1070
     0
1002
{
1000
ScaleNot
1070
     3
1070
     0
1002
{
1002
}
1000
M
1070
     0
1002
{
1000
GenCenAng
1070
     4
1000
45|90|135
1002
{
1002
}
1000
GenCenDia
1070
     2
1040
10.0
1002
{
1002
}
1000
GenCenDias
1070
     4
1000
10|20|30
1002
{
1002
}
1000
GenCenDist
1070
     2
1040
3.0
1002
{
1002
}
1000
GenCenLen
1070
     2
1040
10.0
1002
{
1002
}
1000
GenCenOff
1070
     2
1040
10.0
1002
{
1002
}
1002
}
1000
I
1070
     0
1002
{
1000
GenCenAng
1070
     4
1000
45|90|135
1002
{
1002
}
1000
GenCenDia
1070
     2
1040
0.5
1002
{
1002
}
1000
GenCenDias
1070
     4
1000
0.5|1.0|1.5
1002
{
1002
}
1000
GenCenDist
1070
     2
1040
0.125
1002
{
1002
}
1000
GenCenLen
1070
     2
1040
0.5
1002
{
1002
}
1000
GenCenOff
1070
     2
1040
0.5
1002
{
1002
}
1002
}
1002
}
1000
CLine
1070
     0
1002
{
1000
CAngArray
1070
     4
1000
30|45|60
1002
{
1002
}
1000
Typ
1070
     4
1000
XLINE
1002
{
1002
}
1000
M
1070
     0
1002
{
1000
CLinArray
1070
     4
1000
10|20|30
1002
{
1002
}
1002
}
1000
I
1070
     0
1002
{
1000
CLinArray
1070
     4
1000
0.125|0.25|0.5
1002
{
1002
}
1002
}
1002
}
1000
Detail
1070
     0
1002
{
1002
}
1000
Dimension
1070
     5
1002
{
1000
DIMALT
1070
     1
1070
     0
1002
{
1002
}
1000
DIMALTD
1070
     1
1070
     2
1002
{
1002
}
1000
DIMALTTD
1070
     1
1070
     4
1002
{
1002
}
1000
DIMALTTZ
1070
     1
1070
     0
1002
{
1002
}
1000
DIMALTU
1070
     1
1070
     2
1002
{
1002
}
1000
DIMALTZ
1070
     1
1070
     0
1002
{
1002
}
1000
DIMAUNIT
1070
     1
1070
     0
1002
{
1002
}
1000
DIMBLK
1070
     4
1000

1002
{
1002
}
1000
DIMBLK1
1070
     4
1000

1002
{
1002
}
1000
DIMBLK2
1070
     4
1000

1002
{
1002
}
1000
DIMCLRD
1070
     1
1070
   256
1002
{
1002
}
1000
DIMCLRE
1070
     1
1070
   256
1002
{
1002
}
1000
DIMCLRT
1070
     1
1070
     2
1002
{
1002
}
1000
DIMDLE
1070
     2
1040
0.0
1002
{
1002
}
1000
DIMFIT
1070
     1
1070
     3
1002
{
1002
}
1000
DIMJUST
1070
     1
1070
     0
1002
{
1002
}
1000
DIMLFAC
1070
     2
1040
1.0
1002
{
1002
}
1000
DIMLIM
1070
     1
1070
     0
1002
{
1002
}
1000
DIMPOST
1070
     4
1000

1002
{
1002
}
1000
DIMRND
1070
     2
1040
0.0
1002
{
1002
}
1000
DIMSAH
1070
     1
1070
     0
1002
{
1002
}
1000
DIMSCALE
1070
     2
1040
1.0
1002
{
1002
}
1000
DIMSD1
1070
     1
1070
     0
1002
{
1002
}
1000
DIMSD2
1070
     1
1070
     0
1002
{
1002
}
1000
DIMSE1
1070
     1
1070
     0
1002
{
1002
}
1000
DIMSE2
1070
     1
1070
     0
1002
{
1002
}
1000
DIMSOXD
1070
     1
1070
     0
1002
{
1002
}
1000
DIMTAD
1070
     1
1070
     0
1002
{
1002
}
1000
DIMTFAC
1070
     2
1040
0.71
1002
{
1002
}
1000
DIMTIH
1070
     1
1070
     0
1002
{
1002
}
1000
DIMTIX
1070
     1
1070
     0
1002
{
1002
}
1000
DIMTM
1070
     2
1040
0.1
1002
{
1002
}
1000
DIMTOFL
1070
     1
1070
     0
1002
{
1002
}
1000
DIMTOH
1070
     1
1070
     0
1002
{
1002
}
1000
DIMTOL
1070
     1
1070
     0
1002
{
1002
}
1000
DIMTOLJ
1070
     1
1070
     1
1002
{
1002
}
1000
DIMTP
1070
     2
1040
0.1
1002
{
1002
}
1000
DIMTSZ
1070
     2
1040
0.0
1002
{
1002
}
1000
DIMTVP
1070
     2
1040
0.0
1002
{
1002
}
1000
DIMTXSTY
1070
     4
1000
STANDARD
1002
{
1002
}
1000
DIMTZIN
1070
     1
1070
     0
1002
{
1002
}
1000
DIMUNIT
1070
     1
1070
     2
1002
{
1002
}
1000
DIMUPT
1070
     1
1070
     0
1002
{
1002
}
1000
M
1070
     0
1002
{
1000
DIMALTF
1070
     2
1040
0.03937
1002
{
1002
}
1000
DIMAPOST
1070
     4
1000
"
1002
{
1002
}
1000
DIMASZ
1070
     2
1040
2.5
1002
{
1002
}
1000
DIMCEN
1070
     2
1040
0.0
1002
{
1002
}
1000
DIMDEC
1070
     1
1070
     2
1002
{
1002
}
1000
DIMDLI
1070
     2
1040
7.0
1002
{
1002
}
1000
DIMEXE
1070
     2
1040
1.0
1002
{
1002
}
1000
DIMEXO
1070
     2
1040
1.0
1002
{
1002
}
1000
DIMGAP
1070
     2
1040
0.6
1002
{
1002
}
1000
DIMTDEC
1070
     1
1070
     3
1002
{
1002
}
1000
DIMTXT
1070
     2
1040
3.5
1002
{
1002
}
1000
DIMZIN
1070
     1
1070
     8
1002
{
1002
}
1002
}
1000
I
1070
     0
1002
{
1000
DIMALTF
1070
     2
1040
25.4
1002
{
1002
}
1000
DIMAPOST
1070
     4
1000
mm
1002
{
1002
}
1000
DIMASZ
1070
     2
1040
0.1
1002
{
1002
}
1000
DIMCEN
1070
     2
1040
0.0
1002
{
1002
}
1000
DIMDEC
1070
     1
1070
     4
1002
{
1002
}
1000
DIMDLI
1070
     2
1040
0.5
1002
{
1002
}
1000
DIMEXE
1070
     2
1040
0.1
1002
{
1002
}
1000
DIMEXO
1070
     2
1040
0.05
1002
{
1002
}
1000
DIMGAP
1070
     2
1040
0.06
1002
{
1002
}
1000
DIMTDEC
1070
     1
1070
     4
1002
{
1002
}
1000
DIMTXT
1070
     2
1040
0.12
1002
{
1002
}
1000
DIMZIN
1070
     1
1070
     7
1002
{
1002
}
1002
}
1000
GEN-ISO
1070
     5
1002
{
1000
NAME
1070
     4
1000
GEN-ISO
1002
{
1002
}
1000
DIMTAD
1070
     1
1070
     1
1002
{
1002
}
1000
DIMTOLJ
1070
     1
1070
     0
1002
{
1002
}
1000
DIMTOFL
1070
     1
1070
     1
1002
{
1002
}
1000
M
1070
     0
1002
{
1002
}
1000
I
1070
     0
1002
{
1002
}
1002
}
1000
GEN-ISO-POS
1070
     5
1002
{
1000
NAME
1070
     4
1000
GEN-ISO-POS
1002
{
1002
}
1000
DIMTOLJ
1070
     1
1070
     0
1002
{
1002
}
1000
DIMTXSTY
1070
     4
1000
STANDARD
1002
{
1002
}
1000
M
1070
     0
1002
{
1000
DIMASZ
1070
     2
1040
2.5
1002
{
1002
}
1000
DIMGAP
1070
     2
1040
1.5
1002
{
1002
}
1000
DIMTXT
1070
     2
1040
5.0
1002
{
1002
}
1002
}
1000
I
1070
     0
1002
{
1000
DIMASZ
1070
     2
1040
0.1
1002
{
1002
}
1000
DIMGAP
1070
     2
1040
0.06
1002
{
1002
}
1000
DIMTXT
1070
     2
1040
0.2
1002
{
1002
}
1002
}
1002
}
1000
GEN-ISO-CIR
1070
     5
1002
{
1000
NAME
1070
     4
1000
GEN-ISO$3
1002
{
1002
}
1000
DIMFIT
1070
     1
1070
     0
1002
{
1002
}
1000
DIMTAD
1070
     1
1070
     1
1002
{
1002
}
1000
DIMTOH
1070
     1
1070
     1
1002
{
1002
}
1000
DIMTOLJ
1070
     1
1070
     0
1002
{
1002
}
1000
DIMUPT
1070
     1
1070
     1
1002
{
1002
}
1000
M
1070
     0
1002
{
1002
}
1000
I
1070
     0
1002
{
1002
}
1002
}
1000
GEN-ISO-RAD
1070
     5
1002
{
1000
NAME
1070
     4
1000
GEN-ISO$4
1002
{
1002
}
1000
DIMFIT
1070
     1
1070
     0
1002
{
1002
}
1000
DIMTAD
1070
     1
1070
     1
1002
{
1002
}
1000
DIMTIH
1070
     1
1070
     0
1002
{
1002
}
1000
DIMTIX
1070
     1
1070
     0
1002
{
1002
}
1000
DIMTOH
1070
     1
1070
     1
1002
{
1002
}
1000
DIMTOLJ
1070
     1
1070
     0
1002
{
1002
}
1000
DIMTOFL
1070
     1
1070
     0
1002
{
1002
}
1000
DIMUPT
1070
     1
1070
     1
1002
{
1002
}
1000
M
1070
     0
1002
{
1002
}
1000
I
1070
     0
1002
{
1002
}
1002
}
1000
GEN-ISO-ORD
1070
     5
1002
{
1000
NAME
1070
     4
1000
GEN-ISO$6
1002
{
1002
}
1000
DIMTOLJ
1070
     1
1070
     0
1002
{
1002
}
1000
M
1070
     0
1002
{
1002
}
1000
I
1070
     0
1002
{
1002
}
1002
}
1000
GEN-ISO-AXE-F
1070
     5
1002
{
1000
NAME
1070
     4
1000
GEN-ISO-AXE-F
1002
{
1002
}
1000
DIMSE1
1070
     1
1070
     1
1002
{
1002
}
1000
DIMSE2
1070
     1
1070
     1
1002
{
1002
}
1000
DIMTAD
1070
     1
1070
     1
1002
{
1002
}
1000
DIMTOLJ
1070
     1
1070
     0
1002
{
1002
}
1000
DIMTOFL
1070
     1
1070
     1
1002
{
1002
}
1000
M
1070
     0
1002
{
1002
}
1000
I
1070
     0
1002
{
1002
}
1002
}
1000
GEN-ISO-AXE-H
1070
     5
1002
{
1000
NAME
1070
     4
1000
GEN-ISO-AXE-H
1002
{
1002
}
1000
DIMBLK1
1070
     4
1000
GENAXEH
1002
{
1002
}
1000
DIMLFAC
1070
     2
1040
2.0
1002
{
1002
}
1000
DIMSAH
1070
     1
1070
     1
1002
{
1002
}
1000
DIMSE1
1070
     1
1070
     1
1002
{
1002
}
1000
DIMSE2
1070
     1
1070
     1
1002
{
1002
}
1000
DIMTAD
1070
     1
1070
     1
1002
{
1002
}
1000
DIMTOLJ
1070
     1
1070
     0
1002
{
1002
}
1000
DIMTOFL
1070
     1
1070
     1
1002
{
1002
}
1000
M
1070
     0
1002
{
1002
}
1000
I
1070
     0
1002
{
1002
}
1002
}
1000
GEN-ANSI
1070
     5
1002
{
1000
NAME
1070
     4
1000
GEN-ANSI
1002
{
1002
}
1000
DIMTIH
1070
     1
1070
     1
1002
{
1002
}
1000
DIMTOH
1070
     1
1070
     1
1002
{
1002
}
1000
DIMTAD
1070
     1
1070
     0
1002
{
1002
}
1000
DIMTOLJ
1070
     1
1070
     1
1002
{
1002
}
1000
M
1070
     0
1002
{
1002
}
1000
I
1070
     0
1002
{
1002
}
1002
}
1000
GEN-ANSI-POS
1070
     5
1002
{
1000
NAME
1070
     4
1000
GEN-ANSI-POS
1002
{
1002
}
1000
DIMTOLJ
1070
     1
1070
     1
1002
{
1002
}
1000
DIMTXSTY
1070
     4
1000
STANDARD
1002
{
1002
}
1000
M
1070
     0
1002
{
1000
DIMASZ
1070
     2
1040
2.5
1002
{
1002
}
1000
DIMGAP
1070
     2
1040
1.5
1002
{
1002
}
1000
DIMTXT
1070
     2
1040
5.0
1002
{
1002
}
1002
}
1000
I
1070
     0
1002
{
1000
DIMASZ
1070
     2
1040
0.1
1002
{
1002
}
1000
DIMGAP
1070
     2
1040
0.06
1002
{
1002
}
1000
DIMTXT
1070
     2
1040
0.2
1002
{
1002
}
1002
}
1002
}
1000
GEN-ANSI-CIR
1070
     5
1002
{
1000
NAME
1070
     4
1000
GEN-ANSI$3
1002
{
1002
}
1000
DIMFIT
1070
     1
1070
     0
1002
{
1002
}
1000
DIMTAD
1070
     1
1070
     0
1002
{
1002
}
1000
DIMTIH
1070
     1
1070
     1
1002
{
1002
}
1000
DIMTIX
1070
     1
1070
     0
1002
{
1002
}
1000
DIMTOFL
1070
     1
1070
     0
1002
{
1002
}
1000
DIMTOH
1070
     1
1070
     1
1002
{
1002
}
1000
DIMTOLJ
1070
     1
1070
     1
1002
{
1002
}
1000
DIMUPT
1070
     1
1070
     1
1002
{
1002
}
1000
M
1070
     0
1002
{
1002
}
1000
I
1070
     0
1002
{
1002
}
1002
}
1000
GEN-ANSI-RAD
1070
     5
1002
{
1000
NAME
1070
     4
1000
GEN-ANSI$4
1002
{
1002
}
1000
DIMFIT
1070
     1
1070
     0
1002
{
1002
}
1000
DIMTAD
1070
     1
1070
     0
1002
{
1002
}
1000
DIMTIH
1070
     1
1070
     1
1002
{
1002
}
1000
DIMTIX
1070
     1
1070
     0
1002
{
1002
}
1000
DIMTOFL
1070
     1
1070
     0
1002
{
1002
}
1000
DIMTOH
1070
     1
1070
     1
1002
{
1002
}
1000
DIMTOLJ
1070
     1
1070
     1
1002
{
1002
}
1000
DIMUPT
1070
     1
1070
     1
1002
{
1002
}
1000
M
1070
     0
1002
{
1002
}
1000
I
1070
     0
1002
{
1002
}
1002
}
1000
GEN-ANSI-ORD
1070
     5
1002
{
1000
NAME
1070
     4
1000
GEN-ANSI$6
1002
{
1002
}
1000
DIMTAD
1070
     1
1070
     0
1002
{
1002
}
1000
DIMTIH
1070
     1
1070
     1
1002
{
1002
}
1000
DIMTOH
1070
     1
1070
     1
1002
{
1002
}
1000
DIMTOLJ
1070
     1
1070
     1
1002
{
1002
}
1000
M
1070
     0
1002
{
1002
}
1000
I
1070
     0
1002
{
1002
}
1002
}
1000
GEN-ANSI-AXE-F
1070
     5
1002
{
1000
NAME
1070
     4
1000
GEN-ANSI-AXE-F
1002
{
1002
}
1000
DIMBLK1
1070
     4
1000
GENAXEH
1002
{
1002
}
1000
DIMSAH
1070
     1
1070
     1
1002
{
1002
}
1000
DIMSE1
1070
     1
1070
     1
1002
{
1002
}
1000
DIMSE2
1070
     1
1070
     1
1002
{
1002
}
1000
DIMTAD
1070
     1
1070
     0
1002
{
1002
}
1000
DIMTIH
1070
     1
1070
     1
1002
{
1002
}
1000
DIMTOH
1070
     1
1070
     1
1002
{
1002
}
1000
DIMTOLJ
1070
     1
1070
     1
1002
{
1002
}
1000
M
1070
     0
1002
{
1002
}
1000
I
1070
     0
1002
{
1002
}
1002
}
1000
GEN-ANSI-AXE-H
1070
     5
1002
{
1000
NAME
1070
     4
1000
GEN-ANSI-AXE-H
1002
{
1002
}
1000
DIMBLK1
1070
     4
1000
GENAXEH
1002
{
1002
}
1000
DIMLFAC
1070
     2
1040
2.0
1002
{
1002
}
1000
DIMSAH
1070
     1
1070
     1
1002
{
1002
}
1000
DIMSE1
1070
     1
1070
     1
1002
{
1002
}
1000
DIMSE2
1070
     1
1070
     1
1002
{
1002
}
1000
DIMTAD
1070
     1
1070
     0
1002
{
1002
}
1000
DIMTOFL
1070
     1
1070
     1
1002
{
1002
}
1000
DIMTOLJ
1070
     1
1070
     1
1002
{
1002
}
1000
M
1070
     0
1002
{
1002
}
1000
I
1070
     0
1002
{
1002
}
1002
}
1002
}
1000
DimSet
1070
     0
1002
{
1000
ChainSum
1070
     3
1070
     0
1002
{
1002
}
1000
DimDclTyp0
1070
     4
1000
dim23
1002
{
1002
}
1000
HorBra
1070
     3
1070
     0
1002
{
1002
}
1000
StrDia
1070
     4
1000
%%c<>
1002
{
1002
}
1000
StrRad
1070
     4
1000
R<>
1002
{
1002
}
1000
TextMinus
1070
     4
1000
<>
1002
{
1002
}
1000
TextPlus
1070
     4
1000
<>
1002
{
1002
}
1000
M
1070
     0
1002
{
1000
DimdliFirst
1070
     2
1040
10.0
1002
{
1002
}
1000
PointMakeDist
1070
     2
1040
10.0
1002
{
1002
}
1002
}
1000
I
1070
     0
1002
{
1000
DimdliFirst
1070
     2
1040
0.5
1002
{
1002
}
1000
PointMakeDist
1070
     2
1040
0.5
1002
{
1002
}
1002
}
1000
FitGrade
1070
     4
1000
h7
1002
{
1002
}
1002
}
1000
Drawing
1070
     0
1002
{
1000
ChamferDimMode
1070
     1
1070
     2
1002
{
1002
}
1000
Gen_Fiso
1070
    -3
1040
1.0
1002
{
1002
}
1000
GenDimStil
1070
     4
1000
ISO
1002
{
1002
}
1000
GenDwgUScale
1070
     2
1040
1.0
1002
{
1002
}
1000
GenInch
1070
     4
1000
M
1002
{
1002
}
1000
GenPlotScale
1070
     4
1000
1:5
1002
{
1002
}
1000
Revisi
1070
     4
1000
0
1002
{
1002
}
1000
Version
1070
    -5
1000
14.01/Apr  1 1998
1002
{
1002
}
1000
Platform
1070
    -5
1000
WINNT
1002
{
1002
}
1002
}
1000
DwgVar
1070
     0
1002
{
1000
M
1070
     0
1002
{
1000
FILLETRAD
1070
     2
1040
0.000001
1002
{
1002
}
1000
LIMMAX
1070
     6
1010
-1.000000000000000E+20
1020
0.0
1030
0.0
1002
{
1002
}
1002
}
1000
I
1070
     0
1002
{
1002
}
1002
}
1000
Hatch
1070
     0
1002
{
1000
GenHtcFlag
1070
     3
1070
     0
1002
{
1002
}
1002
}
1000
Info_Pos
1070
     0
1002
{
1000
>
1002
}
1000
Layer
1070
     7
1002
{
1000
Defs
1070
     0
1002
{
1000
>
1002
}
1000
EntSort
1070
     0
1002
{
1000
>
1002
}
1000
Match
1070
     0
1002
{
1002
}
1000
Settings
1070
     0
1002
{
1000
FocGrNC
1070
     3
1070
     0
1002
{
1002
}
1000
FocGrLo
1070
     3
1070
     0
1002
{
1002
}
1000
FocLoNC
1070
     3
1070
     0
1002
{
1002
}
1000
FocusCol
1070
     1
1070
   253
1002
{
1002
}
1000
GenStdLG
1070
     4
1000

1002
{
1002
}
1000
LayMatch
1070
     3
1070
     0
1002
{
1002
}
1000
LgOff
1070
     3
1070
     0
1002
{
1002
}
1000
CurLG
1070
    -5
1000

1002
{
1002
}
1002
}
1002
}
1000
LType
1070
     0
1002
{
1000
GEN3
1070
     8
1000
genius.lin
1002
{
1002
}
1000
GEN7
1070
     8
1000
genius.lin
1002
{
1002
}
1000
GEN4A
1070
     8
1000
genius.lin
1002
{
1002
}
1000
GEN3A
1070
     8
1000
genius.lin
1002
{
1002
}
1000
GEN7A
1070
     8
1000
genius.lin
1002
{
1002
}
1000
GENZIGZAG
1070
     8
1000
genius.lin
1002
{
1002
}
1002
}
1000
Objecter
1070
     0
1002
{
1000
CreateGroups
1070
     3
1070
     0
1002
{
1002
}
1000
LaySwitch
1070
     3
1070
     1
1002
{
1002
}
1000
LastObj
1070
    -5
1000
126B
1002
{
1002
}
1000
TimeStamp
1070
    -5
1000
20000824.09034479
1002
{
1002
}
1002
}
1000
OSWiz
1070
     0
1002
{
1000
Filter
1070
     0
1002
{
1000
HATCH
1070
     9
1002
{
1000
EntityType
1070
     4
1000
LINE
1002
{
1002
}
1000
Layer
1070
     4
1000
8,8N,*-8,*-8N
1002
{
1002
}
1000
Linetype
1070
     4
1000
*
1002
{
1002
}
1000
Color
1070
     4
1000
*
1002
{
1002
}
1000
ApplyInDims
1070
     3
1070
     1
1002
{
1002
}
1002
}
1000
SYMBOLS
1070
     9
1002
{
1000
EntityType
1070
     4
1000
*
1002
{
1002
}
1000
Layer
1070
     4
1000
[5-6],[5-6]N,*-[5-6],*-[5-6]N
1002
{
1002
}
1000
Linetype
1070
     4
1000
*
1002
{
1002
}
1000
Color
1070
     4
1000
*
1002
{
1002
}
1000
ApplyInDims
1070
     3
1070
     1
1002
{
1002
}
1002
}
1000
FEM
1070
     9
1002
{
1000
EntityType
1070
     4
1000
*
1002
{
1002
}
1000
Layer
1070
     4
1000
4A,4AN,*-4A,*-4AN
1002
{
1002
}
1000
Linetype
1070
     4
1000
*
1002
{
1002
}
1000
Color
1070
     4
1000
*
1002
{
1002
}
1000
ApplyInDims
1070
     3
1070
     1
1002
{
1002
}
1002
}
1002
}
1002
}
1000
PaList
1070
     0
1002
{
1000
AutoUpdatePartList
1070
     1
1070
     0
1002
{
1002
}
1000
ReadInfoPoint
1070
     3
1070
     0
1002
{
1002
}
1000
ReadPosNr
1070
     3
1070
     1
1002
{
1002
}
1000
RevStr
1070
     4
1000
0
1002
{
1002
}
1002
}
1000
Paper
1070
     0
1002
{
1002
}
1000
PartDB
1070
     0
1002
{
1000
GenDbOwner
1070
     4
1000

1002
{
1002
}
1002
}
1000
System
1070
     0
1002
{
1000
Menu
1070
     4
1000
GEV
1002
{
1002
}
1002
}
1000
Title
1070
     0
1002
{
1000
MakeView
1070
     1
1070
     2
1002
{
1002
}
1002
}
1000
Tools
1070
     0
1002
{
1000
Trans
1070
     0
1002
{
1000
Drawingtranslation
1070
    -4
1070
     1
1002
{
1002
}
1000
upreserve
1070
     3
1070
     0
1002
{
1002
}
1000
originally_on
1070
    -4
1070
     0
1002
{
1002
}
1000
sourcelang
1070
    -5
1000
D
1002
{
1002
}
1002
}
1002
}
  0
APPID
  5
1239
330
11CB
100
AcDbSymbolTableRecord
100
AcDbRegAppTableRecord
  2
GENIUS_GEVCFG0_13
 70
     0
1001
GENIUS_GENCFG_13
1071
967100632
1000
1239
1000
GEV
1070
     1
1000
GenCfgObject
1000
VED
1070
     0
1002
{
1002
}
  0
APPID
  5
123A
330
11CB
100
AcDbSymbolTableRecord
100
AcDbRegAppTableRecord
  2
GEV_VCCNULL_SWITCH_OFF
 70
     0
  0
APPID
  5
123B
330
11CB
100
AcDbSymbolTableRecord
100
AcDbRegAppTableRecord
  2
GENIUS_GENDTOL_13
 70
     0
  0
APPID
  5
123C
330
11CB
100
AcDbSymbolTableRecord
100
AcDbRegAppTableRecord
  2
GENIUS_GENOENT_13
 70
     0
  0
APPID
  5
123D
330
11CB
100
AcDbSymbolTableRecord
100
AcDbRegAppTableRecord
  2
GENIUS_GENBLLY_14
 70
     0
  0
APPID
  5
123E
330
11CB
100
AcDbSymbolTableRecord
100
AcDbRegAppTableRecord
  2
GENIUS_GENODEF_13
 70
     0
  0
APPID
  5
123F
330
11CB
100
AcDbSymbolTableRecord
100
AcDbRegAppTableRecord
  2
GENIUS_GENOBJ-N-CRS_13
 70
     0
  0
APPID
  5
1240
330
11CB
100
AcDbSymbolTableRecord
100
AcDbRegAppTableRecord
  2
GENIUS_GENOREF_13
 70
     0
  0
APPID
  5
1241
330
11CB
100
AcDbSymbolTableRecord
100
AcDbRegAppTableRecord
  2
GENIUS_GENOLIS_13
 70
     0
  0
APPID
  5
1242
330
11CB
100
AcDbSymbolTableRecord
100
AcDbRegAppTableRecord
  2
GENIUS_GEFCFG0_13
 70
     0
  0
APPID
  5
1243
330
11CB
100
AcDbSymbolTableRecord
100
AcDbRegAppTableRecord
  2
GENIUS_VERSION2
 70
     0
  0
APPID
  5
1244
330
11CB
100
AcDbSymbolTableRecord
100
AcDbRegAppTableRecord
  2
GENIUS_GENREC_14
 70
     0
  0
APPID
  5
1245
330
11CB
100
AcDbSymbolTableRecord
100
AcDbRegAppTableRecord
  2
GENIUS_GENOBJ-N-REC_13
 70
     0
  0
APPID
  5
1246
330
11CB
100
AcDbSymbolTableRecord
100
AcDbRegAppTableRecord
  2
GENIUS_GENOBJ-N-TIT_13
 70
     0
  0
APPID
  5
1247
330
11CB
100
AcDbSymbolTableRecord
100
AcDbRegAppTableRecord
  2
GENIUS_GENTITLE_13
 70
     0
  0
APPID
  5
1248
330
11CB
100
AcDbSymbolTableRecord
100
AcDbRegAppTableRecord
  2
GENIUS_GENZVEED_13
 70
     0
  0
APPID
  5
1249
330
11CB
100
AcDbSymbolTableRecord
100
AcDbRegAppTableRecord
  2
GENIUS_GENOBJ-N-SDF_13
 70
     0
  0
APPID
  5
124A
330
11CB
100
AcDbSymbolTableRecord
100
AcDbRegAppTableRecord
  2
GENIUS_GENSCREG_13
 70
     0
  0
APPID
  5
124B
330
11CB
100
AcDbSymbolTableRecord
100
AcDbRegAppTableRecord
  2
GENIUS_GENBLKED_14
 70
     0
  0
APPID
  5
13DC
330
11CB
100
AcDbSymbolTableRecord
100
AcDbRegAppTableRecord
  2
MCAD_NO_VIS
 70
     0
  0
APPID
  5
13DD
330
11CB
100
AcDbSymbolTableRecord
100
AcDbRegAppTableRecord
  2
ACAD_TEMP_GRAPHIC
 70
     0
  0
APPID
  5
140D
330
11CB
100
AcDbSymbolTableRecord
100
AcDbRegAppTableRecord
  2
AD_DRAW
 70
     0
  0
APPID
  5
1410
330
11CB
100
AcDbSymbolTableRecord
100
AcDbRegAppTableRecord
  2
ACATTRIBSERVICES
 70
     0
  0
APPID
  5
1430
330
11CB
100
AcDbSymbolTableRecord
100
AcDbRegAppTableRecord
  2
DESIGNERASSEMBLIES
 70
     0
  0
APPID
  5
1436
330
11CB
100
AcDbSymbolTableRecord
100
AcDbRegAppTableRecord
  2
ACADM_DIM_EDIT
 70
     0
  0
APPID
  5
1437
330
11CB
100
AcDbSymbolTableRecord
100
AcDbRegAppTableRecord
  2
AMDT_DM_ADJ
 70
     0
  0
APPID
  5
1469
330
11CB
100
AcDbSymbolTableRecord
100
AcDbRegAppTableRecord
  2
ACAD_DSTYLE_DIMARC_LENGTH_SYMBOL
 70
     0
  0
APPID
  5
146A
330
11CB
100
AcDbSymbolTableRecord
100
AcDbRegAppTableRecord
  2
ACAD_DSTYLE_DIMJOGGED_JOGANGLE_SYMBOL
 70
     0
  0
APPID
  5
14E4
330
11CB
100
AcDbSymbolTableRecord
100
AcDbRegAppTableRecord
  2
GENIUS_GENDIMSH_14
 70
     0
  0
ENDTAB
  0
TABLE
  2
DIMSTYLE
  5
11CC
330
0
100
AcDbSymbolTable
 70
     9
100
AcDbDimStyleTable
 71
     1
340
11F2
  0
DIMSTYLE
105
11F2
102
{ACAD_REACTORS
330
117C
330
1167
330
115C
330
1147
330
1171
102
}
330
11CC
100
AcDbSymbolTableRecord
100
AcDbDimStyleTableRecord
  2
GEN-ISO
 70
     0
  4
"
 40
5.0
 41
2.5
 42
1.0
 43
7.0
 44
1.0
 47
0.1
 48
0.1
 73
     0
 74
     0
 77
     1
 78
     8
140
3.5
141
0.0
143
0.03937
146
0.71
147
0.6
172
     1
176
   256
177
   256
178
     2
271
     2
272
     3
274
     4
283
     0
340
11D1
  0
DIMSTYLE
105
1468
330
11CC
100
AcDbSymbolTableRecord
100
AcDbDimStyleTableRecord
  2
AM_DIN
 70
     0
  4
"
 41
2.5
 42
1.0
 43
10.0
 44
1.0
 47
0.1
 48
0.1
 73
     0
 74
     0
 77
     1
 78
     8
 79
     2
140
3.5
141
0.0
143
0.0393701
146
0.71
147
1.5
172
     1
176
   256
177
   256
178
     2
271
     2
272
     3
274
     4
283
     0
284
     8
340
11D1
371
    -1
372
    -1
1001
ACAD_DSTYLE_DIMARC_LENGTH_SYMBOL
1070
   379
1070
     0
1001
ACAD_DSTYLE_DIMJOGGED_JOGANGLE_SYMBOL
1070
   384
1040
1.570796326794896
  0
DIMSTYLE
105
1479
330
11CC
100
AcDbSymbolTableRecord
100
AcDbDimStyleTableRecord
  2
AM_DIN$3
 70
     0
  4
"
 41
2.5
 42
1.0
 43
10.0
 44
1.0
 47
0.1
 48
0.1
 73
     0
 77
     1
 78
     8
 79
     2
140
3.5
141
0.0
143
0.0393701
146
0.71
147
1.5
176
   256
177
   256
178
     2
271
     2
272
     3
274
     4
283
     0
284
     8
288
     1
289
     0
340
11D1
371
    -1
372
    -1
1001
ACAD_DSTYLE_DIMARC_LENGTH_SYMBOL
1070
   379
1070
     0
1001
ACAD_DSTYLE_DIMJOGGED_JOGANGLE_SYMBOL
1070
   384
1040
1.570796326794896
  0
DIMSTYLE
105
147E
330
11CC
100
AcDbSymbolTableRecord
100
AcDbDimStyleTableRecord
  2
AM_DIN$4
 70
     0
  4
"
 41
2.5
 42
1.0
 43
10.0
 44
1.0
 47
0.1
 48
0.1
 73
     0
 77
     1
 78
     8
 79
     2
140
3.5
141
0.0
143
0.0393701
146
0.71
147
1.5
176
   256
177
   256
178
     2
271
     2
272
     3
274
     4
283
     0
284
     8
288
     1
289
     0
340
11D1
371
    -1
372
    -1
1001
ACAD_DSTYLE_DIMARC_LENGTH_SYMBOL
1070
   379
1070
     0
1001
ACAD_DSTYLE_DIMJOGGED_JOGANGLE_SYMBOL
1070
   384
1040
1.570796326794896
  0
DIMSTYLE
105
1483
330
11CC
100
AcDbSymbolTableRecord
100
AcDbDimStyleTableRecord
  2
AM_DIN$6
 70
     0
  4
"
 41
2.5
 42
1.0
 43
10.0
 44
1.0
 47
0.1
 48
0.1
 73
     0
 74
     0
 78
     8
 79
     2
140
3.5
141
0.0
143
0.0393701
146
0.71
147
1.5
172
     1
176
   256
177
   256
178
     2
271
     2
272
     3
274
     4
283
     0
284
     8
340
11D1
371
    -1
372
    -1
1001
ACAD_DSTYLE_DIMARC_LENGTH_SYMBOL
1070
   379
1070
     0
1001
ACAD_DSTYLE_DIMJOGGED_JOGANGLE_SYMBOL
1070
   384
1040
1.570796326794896
  0
DIMSTYLE
105
1488
330
11CC
100
AcDbSymbolTableRecord
100
AcDbDimStyleTableRecord
  2
AM_DIN$7
 70
     0
  4
"
 41
2.5
 42
1.0
 43
10.0
 44
1.0
 47
0.1
 48
0.1
 73
     0
 74
     0
 77
     1
 78
     8
 79
     2
140
5.0
141
0.0
143
0.0393701
146
0.71
147
1.5
172
     1
176
   256
177
   256
178
     2
271
     2
272
     3
274
     4
283
     0
284
     8
340
11D1
371
    -1
372
    -1
1001
ACAD_DSTYLE_DIMARC_LENGTH_SYMBOL
1070
   379
1070
     0
1001
ACAD_DSTYLE_DIMJOGGED_JOGANGLE_SYMBOL
1070
   384
1040
1.570796326794896
  0
DIMSTYLE
105
148D
330
11CC
100
AcDbSymbolTableRecord
100
AcDbDimStyleTableRecord
  2
AM_DIN$SF
 70
     0
  4
"
 41
2.5
 42
1.0
 43
10.0
 44
1.0
 47
0.1
 48
0.1
 73
     0
 74
     0
 75
     1
 76
     1
 77
     1
 78
     8
 79
     2
140
3.5
141
0.0
143
0.0393701
146
0.71
147
1.5
172
     1
176
   256
177
   256
178
     2
271
     2
272
     3
274
     4
283
     0
284
     8
340
11D1
371
    -1
372
    -1
1001
ACAD_DSTYLE_DIMARC_LENGTH_SYMBOL
1070
   379
1070
     0
1001
ACAD_DSTYLE_DIMJOGGED_JOGANGLE_SYMBOL
1070
   384
1040
1.570796326794896
  0
DIMSTYLE
105
1496
330
11CC
100
AcDbSymbolTableRecord
100
AcDbDimStyleTableRecord
  2
AM_DIN$SH
 70
     0
  4
"
 41
2.5
 42
1.0
 43
10.0
 44
1.0
 47
0.1
 48
0.1
 73
     0
 74
     0
 75
     1
 76
     1
 77
     1
 78
     8
 79
     2
140
3.5
141
0.0
143
0.0393701
144
2.0
146
0.71
147
1.5
172
     1
173
     1
176
   256
177
   256
178
     2
271
     2
272
     3
274
     4
283
     0
284
     8
340
11D1
343
148E
371
    -1
372
    -1
1001
ACAD_DSTYLE_DIMARC_LENGTH_SYMBOL
1070
   379
1070
     0
1001
ACAD_DSTYLE_DIMJOGGED_JOGANGLE_SYMBOL
1070
   384
1040
1.570796326794896
  0
ENDTAB
  0
TABLE
  2
BLOCK_RECORD
  5
11C3
330
0
100
AcDbSymbolTable
 70
    18
  0
BLOCK_RECORD
  5
11DA
330
11C3
100
AcDbSymbolTableRecord
100
AcDbBlockTableRecord
  2
*MODEL_SPACE
340
13D4
  0
BLOCK_RECORD
  5
11D7
330
11C3
100
AcDbSymbolTableRecord
100
AcDbBlockTableRecord
  2
*PAPER_SPACE
340
13D5
  0
BLOCK_RECORD
  5
11F4
330
11C3
100
AcDbSymbolTableRecord
100
AcDbBlockTableRecord
  2
*X0
340
0
102
{BLKREFS
331
106E
102
}
  0
BLOCK_RECORD
  5
11F5
330
11C3
100
AcDbSymbolTableRecord
100
AcDbBlockTableRecord
  2
*X1
340
0
102
{BLKREFS
331
1089
102
}
  0
BLOCK_RECORD
  5
11F6
330
11C3
100
AcDbSymbolTableRecord
100
AcDbBlockTableRecord
  2
*X2
340
0
102
{BLKREFS
331
10A9
102
}
  0
BLOCK_RECORD
  5
11F7
330
11C3
100
AcDbSymbolTableRecord
100
AcDbBlockTableRecord
  2
*X3
340
0
102
{BLKREFS
331
10C7
102
}
  0
BLOCK_RECORD
  5
11F8
330
11C3
100
AcDbSymbolTableRecord
100
AcDbBlockTableRecord
  2
*X4
340
0
102
{BLKREFS
331
10E5
102
}
  0
BLOCK_RECORD
  5
11F9
330
11C3
100
AcDbSymbolTableRecord
100
AcDbBlockTableRecord
  2
*X5
340
0
102
{BLKREFS
331
1104
102
}
  0
BLOCK_RECORD
  5
11FA
330
11C3
100
AcDbSymbolTableRecord
100
AcDbBlockTableRecord
  2
*X6
340
0
102
{BLKREFS
331
1121
102
}
  0
BLOCK_RECORD
  5
11FB
330
11C3
100
AcDbSymbolTableRecord
100
AcDbBlockTableRecord
  2
*X7
340
0
102
{BLKREFS
331
113E
102
}
  0
BLOCK_RECORD
  5
1208
330
11C3
100
AcDbSymbolTableRecord
100
AcDbBlockTableRecord
  2
KATALOG_LEER
340
0
102
{BLKREFS
331
124D
331
126A
102
}
  0
BLOCK_RECORD
  5
126C
330
11C3
100
AcDbSymbolTableRecord
100
AcDbBlockTableRecord
  2
*D10
340
0
  0
BLOCK_RECORD
  5
1279
330
11C3
100
AcDbSymbolTableRecord
100
AcDbBlockTableRecord
  2
*D11
340
0
  0
BLOCK_RECORD
  5
1290
330
11C3
100
AcDbSymbolTableRecord
100
AcDbBlockTableRecord
  2
*D12
340
0
  0
BLOCK_RECORD
  5
12A7
330
11C3
100
AcDbSymbolTableRecord
100
AcDbBlockTableRecord
  2
*D13
340
0
  0
BLOCK_RECORD
  5
12BE
330
11C3
100
AcDbSymbolTableRecord
100
AcDbBlockTableRecord
  2
*D14
340
0
  0
BLOCK_RECORD
  5
148E
330
11C3
100
AcDbSymbolTableRecord
100
AcDbBlockTableRecord
  2
GENAXEH
340
0
  0
ENDTAB
  0
ENDSEC
  0
SECTION
  2
BLOCKS
  0
BLOCK
  5
11DB
330
11DA
100
AcDbEntity
  8
0
100
AcDbBlockBegin
  2
*MODEL_SPACE
 70
     0
 10
0.0
 20
0.0
 30
0.0
  3
*MODEL_SPACE
  1

  0
ENDBLK
  5
11DC
330
11DA
100
AcDbEntity
  8
0
100
AcDbBlockEnd
  0
BLOCK
  5
11D8
330
11D7
100
AcDbEntity
 67
     1
  8
0
100
AcDbBlockBegin
  2
*PAPER_SPACE
 70
     0
 10
0.0
 20
0.0
 30
0.0
  3
*PAPER_SPACE
  1

  0
ENDBLK
  5
11D9
330
11D7
100
AcDbEntity
 67
     1
  8
0
100
AcDbBlockEnd
  0
BLOCK
  5
1062
330
11F4
100
AcDbEntity
  8
0
100
AcDbBlockBegin
  2
*X0
 70
     1
 10
0.0
 20
0.0
 30
0.0
  3
*X0
  1

  0
LINE
  5
1063
330
11F4
100
AcDbEntity
  8
8
100
AcDbLine
 10
72.02899999999999
 20
222.732
 30
0.0
 11
68.744
 21
226.017
 31
0.0
  0
LINE
  5
1064
330
11F4
100
AcDbEntity
  8
8
100
AcDbLine
 10
64.387
 20
230.375
 30
0.0
 11
59.92399999999999
 21
234.837
 31
0.0
  0
LINE
  5
1065
330
11F4
100
AcDbEntity
  8
8
100
AcDbLine
 10
72.277
 20
217.994
 30
0.0
 11
59.701
 21
230.571
 31
0.0
  0
LINE
  5
1066
330
11F4
100
AcDbEntity
  8
8
100
AcDbLine
 10
76.67100000000001
 20
209.11
 30
0.0
 11
72.76399999999999
 21
213.017
 31
0.0
  0
LINE
  5
1067
330
11F4
100
AcDbEntity
  8
8
100
AcDbLine
 10
72.52600000000001
 20
213.255
 30
0.0
 11
59.477
 21
226.304
 31
0.0
  0
LINE
  5
1068
330
11F4
100
AcDbEntity
  8
8
100
AcDbLine
 10
75.72199999999999
 20
205.569
 30
0.0
 11
66.608
 21
214.683
 31
0.0
  0
LINE
  5
1069
330
11F4
100
AcDbEntity
  8
8
100
AcDbLine
 10
65.274
 20
216.017
 30
0.0
 11
59.253
 21
222.038
 31
0.0
  0
LINE
  5
106A
330
11F4
100
AcDbEntity
  8
8
100
AcDbLine
 10
73.783
 20
203.017
 30
0.0
 11
66.857
 21
209.944
 31
0.0
  0
LINE
  5
106B
330
11F4
100
AcDbEntity
  8
8
100
AcDbLine
 10
60.783
 20
216.017
 30
0.0
 11
59.03
 21
217.771
 31
0.0
  0
LINE
  5
106C
330
11F4
100
AcDbEntity
  8
8
100
AcDbLine
 10
69.29300000000001
 20
203.017
 30
0.0
 11
67.105
 21
205.206
 31
0.0
  0
ENDBLK
  5
106D
330
11F4
100
AcDbEntity
  8
0
100
AcDbBlockEnd
  0
BLOCK
  5
107D
330
11F5
100
AcDbEntity
  8
0
100
AcDbBlockBegin
  2
*X1
 70
     1
 10
0.0
 20
0.0
 30
0.0
  3
*X1
  1

  0
LINE
  5
107E
330
11F5
100
AcDbEntity
  8
8
100
AcDbLine
 10
210.266
 20
232.669
 30
0.0
 11
206.032
 21
236.903
 31
0.0
  0
LINE
  5
107F
330
11F5
100
AcDbEntity
  8
8
100
AcDbLine
 10
210.515
 20
227.931
 30
0.0
 11
205.809
 21
232.637
 31
0.0
  0
LINE
  5
1080
330
11F5
100
AcDbEntity
  8
8
100
AcDbLine
 10
210.763
 20
223.192
 30
0.0
 11
205.585
 21
228.37
 31
0.0
  0
LINE
  5
1081
330
11F5
100
AcDbEntity
  8
8
100
AcDbLine
 10
211.011
 20
218.454
 30
0.0
 11
203.448
 21
226.017
 31
0.0
  0
LINE
  5
1082
330
11F5
100
AcDbEntity
  8
8
100
AcDbLine
 10
208.958
 20
216.017
 30
0.0
 11
198.958
 21
226.017
 31
0.0
  0
LINE
  5
1083
330
11F5
100
AcDbEntity
  8
8
100
AcDbLine
 10
204.468
 20
216.017
 30
0.0
 11
198.033
 21
222.452
 31
0.0
  0
LINE
  5
1084
330
11F5
100
AcDbEntity
  8
8
100
AcDbLine
 10
203.361
 20
212.634
 30
0.0
 11
197.809
 21
218.185
 31
0.0
  0
LINE
  5
1085
330
11F5
100
AcDbEntity
  8
8
100
AcDbLine
 10
203.137
 20
208.367
 30
0.0
 11
197.586
 21
213.919
 31
0.0
  0
LINE
  5
1086
330
11F5
100
AcDbEntity
  8
8
100
AcDbLine
 10
202.914
 20
204.101
 30
0.0
 11
193.997
 21
213.017
 31
0.0
  0
LINE
  5
1087
330
11F5
100
AcDbEntity
  8
8
100
AcDbLine
 10
199.507
 20
203.017
 30
0.0
 11
193.403
 21
209.122
 31
0.0
  0
ENDBLK
  5
1088
330
11F5
100
AcDbEntity
  8
0
100
AcDbBlockEnd
  0
BLOCK
  5
109F
330
11F6
100
AcDbEntity
  8
0
100
AcDbBlockBegin
  2
*X2
 70
     1
 10
0.0
 20
0.0
 30
0.0
  3
*X2
  1

  0
LINE
  5
10A0
330
11F6
100
AcDbEntity
  8
8
100
AcDbLine
 10
81.803
 20
216.017
 30
0.0
 11
85.166
 21
219.381
 31
0.0
  0
LINE
  5
10A1
330
11F6
100
AcDbEntity
  8
8
100
AcDbLine
 10
77.797
 20
216.502
 30
0.0
 11
85.415
 21
224.119
 31
0.0
  0
LINE
  5
10A2
330
11F6
100
AcDbEntity
  8
8
100
AcDbLine
 10
76.68300000000001
 20
219.878
 30
0.0
 11
85.663
 21
228.858
 31
0.0
  0
LINE
  5
10A3
330
11F6
100
AcDbEntity
  8
8
100
AcDbLine
 10
75.73399999999999
 20
223.419
 30
0.0
 11
85.912
 21
233.596
 31
0.0
  0
LINE
  5
10A4
330
11F6
100
AcDbEntity
  8
8
100
AcDbLine
 10
73.75499999999999
 20
225.93
 30
0.0
 11
83.84200000000001
 21
236.017
 31
0.0
  0
LINE
  5
10A5
330
11F6
100
AcDbEntity
  8
8
100
AcDbLine
 10
69.352
 20
226.017
 30
0.0
 11
79.352
 21
236.017
 31
0.0
  0
LINE
  5
10A6
330
11F6
100
AcDbEntity
  8
8
100
AcDbLine
 10
66.47800000000001
 20
227.633
 30
0.0
 11
74.862
 21
236.017
 31
0.0
  0
LINE
  5
10A7
330
11F6
100
AcDbEntity
  8
8
100
AcDbLine
 10
66.25399999999999
 20
231.9
 30
0.0
 11
70.372
 21
236.017
 31
0.0
  0
ENDBLK
  5
10A8
330
11F6
100
AcDbEntity
  8
0
100
AcDbBlockEnd
  0
BLOCK
  5
10BD
330
11F7
100
AcDbEntity
  8
0
100
AcDbBlockBegin
  2
*X3
 70
     1
 10
0.0
 20
0.0
 30
0.0
  3
*X3
  1

  0
LINE
  5
10BE
330
11F7
100
AcDbEntity
  8
8
100
AcDbLine
 10
102.303
 20
209.577
 30
0.0
 11
106.895
 21
214.168
 31
0.0
  0
LINE
  5
10BF
330
11F7
100
AcDbEntity
  8
8
100
AcDbLine
 10
98.84700000000002
 20
210.611
 30
0.0
 11
107.143
 21
218.907
 31
0.0
  0
LINE
  5
10C0
330
11F7
100
AcDbEntity
  8
8
100
AcDbLine
 10
97.21899999999999
 20
213.473
 30
0.0
 11
107.391
 21
223.645
 31
0.0
  0
LINE
  5
10C1
330
11F7
100
AcDbEntity
  8
8
100
AcDbLine
 10
96.995
 20
217.739
 30
0.0
 11
107.64
 21
228.384
 31
0.0
  0
LINE
  5
10C2
330
11F7
100
AcDbEntity
  8
8
100
AcDbLine
 10
96.77100000000001
 20
222.006
 30
0.0
 11
107.888
 21
233.122
 31
0.0
  0
LINE
  5
10C3
330
11F7
100
AcDbEntity
  8
8
100
AcDbLine
 10
96.54799999999999
 20
226.272
 30
0.0
 11
106.293
 21
236.017
 31
0.0
  0
LINE
  5
10C4
330
11F7
100
AcDbEntity
  8
8
100
AcDbLine
 10
96.324
 20
230.539
 30
0.0
 11
101.803
 21
236.017
 31
0.0
  0
LINE
  5
10C5
330
11F7
100
AcDbEntity
  8
8
100
AcDbLine
 10
96.101
 20
234.805
 30
0.0
 11
97.31299999999999
 21
236.017
 31
0.0
  0
ENDBLK
  5
10C6
330
11F7
100
AcDbEntity
  8
0
100
AcDbBlockEnd
  0
BLOCK
  5
10DA
330
11F8
100
AcDbEntity
  8
0
100
AcDbBlockBegin
  2
*X4
 70
     1
 10
0.0
 20
0.0
 30
0.0
  3
*X4
  1

  0
LINE
  5
10DB
330
11F8
100
AcDbEntity
  8
8
100
AcDbLine
 10
125.393
 20
205.415
 30
0.0
 11
128.604
 21
208.625
 31
0.0
  0
LINE
  5
10DC
330
11F8
100
AcDbEntity
  8
8
100
AcDbLine
 10
121.299
 20
205.81
 30
0.0
 11
128.8529999999999
 21
213.364
 31
0.0
  0
LINE
  5
10DD
330
11F8
100
AcDbEntity
  8
8
100
AcDbLine
 10
119.48
 20
208.482
 30
0.0
 11
129.101
 21
218.102
 31
0.0
  0
LINE
  5
10DE
330
11F8
100
AcDbEntity
  8
8
100
AcDbLine
 10
119.256
 20
212.748
 30
0.0
 11
129.349
 21
222.841
 31
0.0
  0
LINE
  5
10DF
330
11F8
100
AcDbEntity
  8
8
100
AcDbLine
 10
119.033
 20
217.015
 30
0.0
 11
129.598
 21
227.579
 31
0.0
  0
LINE
  5
10E0
330
11F8
100
AcDbEntity
  8
8
100
AcDbLine
 10
118.809
 20
221.281
 30
0.0
 11
129.846
 21
232.318
 31
0.0
  0
LINE
  5
10E1
330
11F8
100
AcDbEntity
  8
8
100
AcDbLine
 10
118.586
 20
225.548
 30
0.0
 11
129.055
 21
236.017
 31
0.0
  0
LINE
  5
10E2
330
11F8
100
AcDbEntity
  8
8
100
AcDbLine
 10
118.362
 20
229.814
 30
0.0
 11
124.565
 21
236.017
 31
0.0
  0
LINE
  5
10E3
330
11F8
100
AcDbEntity
  8
8
100
AcDbLine
 10
118.139
 20
234.081
 30
0.0
 11
120.075
 21
236.017
 31
0.0
  0
ENDBLK
  5
10E4
330
11F8
100
AcDbEntity
  8
0
100
AcDbBlockEnd
  0
BLOCK
  5
10FB
330
11F9
100
AcDbEntity
  8
0
100
AcDbBlockBegin
  2
*X5
 70
     1
 10
0.0
 20
0.0
 30
0.0
  3
*X5
  1

  0
LINE
  5
10FC
330
11F9
100
AcDbEntity
  8
8
100
AcDbLine
 10
189.68
 20
216.017
 30
0.0
 11
193.339
 21
219.676
 31
0.0
  0
LINE
  5
10FD
330
11F9
100
AcDbEntity
  8
8
100
AcDbLine
 10
199.68
 20
226.017
 30
0.0
 11
203.726
 21
230.063
 31
0.0
  0
LINE
  5
10FE
330
11F9
100
AcDbEntity
  8
8
100
AcDbLine
 10
185.565
 20
216.392
 30
0.0
 11
203.975
 21
234.802
 31
0.0
  0
LINE
  5
10FF
330
11F9
100
AcDbEntity
  8
8
100
AcDbLine
 10
184.868
 20
220.185
 30
0.0
 11
200.7
 21
236.017
 31
0.0
  0
LINE
  5
1100
330
11F9
100
AcDbEntity
  8
8
100
AcDbLine
 10
184.644
 20
224.452
 30
0.0
 11
196.21
 21
236.017
 31
0.0
  0
LINE
  5
1101
330
11F9
100
AcDbEntity
  8
8
100
AcDbLine
 10
184.421
 20
228.718
 30
0.0
 11
191.72
 21
236.017
 31
0.0
  0
LINE
  5
1102
330
11F9
100
AcDbEntity
  8
8
100
AcDbLine
 10
184.197
 20
232.985
 30
0.0
 11
187.23
 21
236.017
 31
0.0
  0
ENDBLK
  5
1103
330
11F9
100
AcDbEntity
  8
0
100
AcDbBlockEnd
  0
BLOCK
  5
1118
330
11FA
100
AcDbEntity
  8
0
100
AcDbBlockBegin
  2
*X6
 70
     1
 10
0.0
 20
0.0
 30
0.0
  3
*X6
  1

  0
LINE
  5
1119
330
11FA
100
AcDbEntity
  8
8
100
AcDbLine
 10
164.966
 20
208.869
 30
0.0
 11
173.04
 21
216.943
 31
0.0
  0
LINE
  5
111A
330
11FA
100
AcDbEntity
  8
8
100
AcDbLine
 10
163.311
 20
211.704
 30
0.0
 11
173.2879999999999
 21
221.681
 31
0.0
  0
LINE
  5
111B
330
11FA
100
AcDbEntity
  8
8
100
AcDbLine
 10
163.088
 20
215.971
 30
0.0
 11
173.537
 21
226.42
 31
0.0
  0
LINE
  5
111C
330
11FA
100
AcDbEntity
  8
8
100
AcDbLine
 10
162.864
 20
220.237
 30
0.0
 11
173.785
 21
231.158
 31
0.0
  0
LINE
  5
111D
330
11FA
100
AcDbEntity
  8
8
100
AcDbLine
 10
162.64
 20
224.504
 30
0.0
 11
174.033
 21
235.897
 31
0.0
  0
LINE
  5
111E
330
11FA
100
AcDbEntity
  8
8
100
AcDbLine
 10
162.417
 20
228.77
 30
0.0
 11
169.664
 21
236.017
 31
0.0
  0
LINE
  5
111F
330
11FA
100
AcDbEntity
  8
8
100
AcDbLine
 10
162.193
 20
233.037
 30
0.0
 11
165.174
 21
236.017
 31
0.0
  0
ENDBLK
  5
1120
330
11FA
100
AcDbEntity
  8
0
100
AcDbBlockEnd
  0
BLOCK
  5
1134
330
11FB
100
AcDbEntity
  8
0
100
AcDbBlockBegin
  2
*X7
 70
     1
 10
0.0
 20
0.0
 30
0.0
  3
*X7
  1

  0
LINE
  5
1135
330
11FB
100
AcDbEntity
  8
8
100
AcDbLine
 10
143.092
 20
205.318
 30
0.0
 11
150.837
 21
213.063
 31
0.0
  0
LINE
  5
1136
330
11FB
100
AcDbEntity
  8
8
100
AcDbLine
 10
141.494
 20
208.21
 30
0.0
 11
151.085
 21
217.801
 31
0.0
  0
LINE
  5
1137
330
11FB
100
AcDbEntity
  8
8
100
AcDbLine
 10
141.271
 20
212.477
 30
0.0
 11
151.333
 21
222.54
 31
0.0
  0
LINE
  5
1138
330
11FB
100
AcDbEntity
  8
8
100
AcDbLine
 10
141.047
 20
216.743
 30
0.0
 11
151.582
 21
227.278
 31
0.0
  0
LINE
  5
1139
330
11FB
100
AcDbEntity
  8
8
100
AcDbLine
 10
140.823
 20
221.01
 30
0.0
 11
151.83
 21
232.017
 31
0.0
  0
LINE
  5
113A
330
11FB
100
AcDbEntity
  8
8
100
AcDbLine
 10
140.6
 20
225.277
 30
0.0
 11
151.341
 21
236.017
 31
0.0
  0
LINE
  5
113B
330
11FB
100
AcDbEntity
  8
8
100
AcDbLine
 10
140.376
 20
229.543
 30
0.0
 11
146.851
 21
236.017
 31
0.0
  0
LINE
  5
113C
330
11FB
100
AcDbEntity
  8
8
100
AcDbLine
 10
140.153
 20
233.81
 30
0.0
 11
142.36
 21
236.017
 31
0.0
  0
ENDBLK
  5
113D
330
11FB
100
AcDbEntity
  8
0
100
AcDbBlockEnd
  0
BLOCK
  5
1209
330
1208
100
AcDbEntity
  8
0
100
AcDbBlockBegin
  2
KATALOG_LEER
 70
     0
 10
0.0
 20
0.0
 30
0.0
  3
KATALOG_LEER
  1

  0
ENDBLK
  5
120A
330
1208
100
AcDbEntity
  8
0
100
AcDbBlockEnd
  0
BLOCK
  5
13B3
330
126C
100
AcDbEntity
  8
0
100
AcDbBlockBegin
  2
*D10
 70
     1
 10
0.0
 20
0.0
 30
0.0
  3
*D10
  1

  0
LINE
  5
14E5
330
126C
100
AcDbEntity
  8
5
370
    -2
100
AcDbLine
 10
291.4383200000001
 20
414.953897
 30
0.0
 11
240.7211790000001
 21
414.953897
 31
0.0
  0
LINE
  5
14E6
330
126C
100
AcDbEntity
  8
5
370
    -2
100
AcDbLine
 10
290.33832
 20
393.953897
 30
0.0
 11
240.7211790000001
 21
393.953897
 31
0.0
  0
LINE
  5
14E7
330
126C
100
AcDbEntity
  8
5
370
    -2
100
AcDbLine
 10
245.7211790000001
 20
368.953897
 30
0.0
 11
245.7211790000001
 21
343.953897
 31
0.0
  0
LINE
  5
14E8
330
126C
100
AcDbEntity
  8
5
370
    -2
100
AcDbLine
 10
245.7211790000001
 20
439.953897
 30
0.0
 11
245.7211790000001
 21
487.1482867637795
 31
0.0
  0
LINE
  5
14E9
330
126C
100
AcDbEntity
  8
5
370
    -2
100
AcDbLine
 10
245.7211790000001
 20
393.953897
 30
0.0
 11
245.7211790000001
 21
414.953897
 31
0.0
  0
SOLID
  5
14EA
330
126C
100
AcDbEntity
  8
5
100
AcDbTrace
 10
241.5545123333334
 20
368.953897
 30
0.0
 11
249.8878456666667
 21
368.953897
 31
0.0
 12
245.7211790000001
 22
393.953897
 32
0.0
 13
245.7211790000001
 23
393.953897
 33
0.0
  0
SOLID
  5
14EB
330
126C
100
AcDbEntity
  8
5
100
AcDbTrace
 10
241.5545123333334
 20
439.953897
 30
0.0
 11
249.8878456666667
 21
439.953897
 31
0.0
 12
245.7211790000001
 22
414.953897
 32
0.0
 13
245.7211790000001
 23
414.953897
 33
0.0
  0
MTEXT
  5
14EC
330
126C
100
AcDbEntity
  8
5
 62
     2
100
AcDbMText
 10
233.9694565590551
 20
476.0510918818899
 30
0.0
 40
17.5
 41
0.0
 71
     5
 72
     1
  1
21
 11
0.0000000000000001
 21
1.0
 31
0.0
 73
     1
 44
1.0
1001
ACAD
1000
MTEXTBEGIN
1070
    73
1070
     1
1070
    44
1040
1.0
1070
    74
1070
     0
1000
MTEXTEND
  0
POINT
  5
14ED
330
126C
100
AcDbEntity
  8
DEFPOINTS
 62
     0
100
AcDbPoint
 10
296.43832
 20
414.953897
 30
0.0
  0
POINT
  5
14EE
330
126C
100
AcDbEntity
  8
DEFPOINTS
 62
     0
100
AcDbPoint
 10
295.33832
 20
393.953897
 30
0.0
  0
POINT
  5
14EF
330
126C
100
AcDbEntity
  8
DEFPOINTS
 62
     0
100
AcDbPoint
 10
245.7211790000001
 20
393.953897
 30
0.0
  0
ENDBLK
  5
13BF
330
126C
100
AcDbEntity
  8
0
100
AcDbBlockEnd
  0
BLOCK
  5
1347
330
1279
100
AcDbEntity
  8
0
100
AcDbBlockBegin
  2
*D11
 70
     1
 10
0.0
 20
0.0
 30
0.0
  3
*D11
  1

  0
LINE
  5
149E
330
1279
100
AcDbEntity
  8
5
370
    -2
100
AcDbLine
 10
295.33832
 20
398.953897
 30
0.0
 11
295.33832
 21
539.953897
 31
0.0
  0
LINE
  5
149F
330
1279
100
AcDbEntity
  8
5
370
    -2
100
AcDbLine
 10
447.53932
 20
398.953897
 30
0.0
 11
447.53932
 21
539.953897
 31
0.0
  0
LINE
  5
14A0
330
1279
100
AcDbEntity
  8
5
370
    -2
100
AcDbLine
 10
320.33832
 20
534.953897
 30
0.0
 11
422.53932
 21
534.953897
 31
0.0
  0
SOLID
  5
14A1
330
1279
100
AcDbEntity
  8
5
100
AcDbTrace
 10
320.33832
 20
539.1205636666666
 30
0.0
 11
320.33832
 21
530.7872303333333
 31
0.0
 12
295.33832
 22
534.953897
 32
0.0
 13
295.33832
 23
534.953897
 33
0.0
  0
SOLID
  5
14A2
330
1279
100
AcDbEntity
  8
5
100
AcDbTrace
 10
422.53932
 20
539.1205636666666
 30
0.0
 11
422.53932
 21
530.7872303333333
 31
0.0
 12
447.53932
 22
534.953897
 32
0.0
 13
447.53932
 23
534.953897
 33
0.0
  0
MTEXT
  5
14A3
330
1279
100
AcDbEntity
  8
5
 62
     2
100
AcDbMText
 10
371.43882
 20
546.7056194409448
 30
0.0
 40
17.5
 41
0.0
 71
     5
 72
     1
  1
%%c152
 73
     1
 44
1.0
1001
ACAD
1000
MTEXTBEGIN
1070
    73
1070
     1
1070
    44
1040
1.0
1070
    74
1070
     0
1000
MTEXTEND
  0
POINT
  5
14A4
330
1279
100
AcDbEntity
  8
DEFPOINTS
 62
     0
100
AcDbPoint
 10
295.33832
 20
393.953897
 30
0.0
  0
POINT
  5
14A5
330
1279
100
AcDbEntity
  8
DEFPOINTS
 62
     0
100
AcDbPoint
 10
447.53932
 20
393.953897
 30
0.0
  0
POINT
  5
14A6
330
1279
100
AcDbEntity
  8
DEFPOINTS
 62
     0
100
AcDbPoint
 10
447.53932
 20
534.953897
 30
0.0
  0
ENDBLK
  5
1351
330
1279
100
AcDbEntity
  8
0
100
AcDbBlockEnd
  0
BLOCK
  5
135F
330
1290
100
AcDbEntity
  8
0
100
AcDbBlockBegin
  2
*D12
 70
     1
 10
0.0
 20
0.0
 30
0.0
  3
*D12
  1

  0
LINE
  5
14D8
330
1290
100
AcDbEntity
  8
5
370
    -2
100
AcDbLine
 10
451.43832
 20
414.953897
 30
0.0
 11
502.365692
 21
414.953897
 31
0.0
  0
LINE
  5
14D9
330
1290
100
AcDbEntity
  8
5
370
    -2
100
AcDbLine
 10
391.86732
 20
383.949897
 30
0.0
 11
502.3656919999999
 21
383.949897
 31
0.0
  0
LINE
  5
14DA
330
1290
100
AcDbEntity
  8
5
370
    -2
100
AcDbLine
 10
497.365692
 20
439.953897
 30
0.0
 11
497.365692
 21
464.953897
 31
0.0
  0
LINE
  5
14DB
330
1290
100
AcDbEntity
  8
5
370
    -2
100
AcDbLine
 10
497.3656919999999
 20
358.949897
 30
0.0
 11
497.3656919999999
 21
333.949897
 31
0.0
  0
LINE
  5
14DC
330
1290
100
AcDbEntity
  8
5
370
    -2
100
AcDbLine
 10
497.365692
 20
414.953897
 30
0.0
 11
497.3656919999999
 21
383.949897
 31
0.0
  0
SOLID
  5
14DD
330
1290
100
AcDbEntity
  8
5
100
AcDbTrace
 10
493.1990253333333
 20
439.953897
 30
0.0
 11
501.5323586666666
 21
439.953897
 31
0.0
 12
497.365692
 22
414.953897
 32
0.0
 13
497.365692
 23
414.953897
 33
0.0
  0
SOLID
  5
14DE
330
1290
100
AcDbEntity
  8
5
100
AcDbTrace
 10
493.1990253333332
 20
358.949897
 30
0.0
 11
501.5323586666666
 21
358.949897
 31
0.0
 12
497.3656919999999
 22
383.949897
 32
0.0
 13
497.3656919999999
 23
383.949897
 33
0.0
  0
MTEXT
  5
14DF
330
1290
100
AcDbEntity
  8
5
 62
     2
100
AcDbMText
 10
485.6156919999999
 20
399.4518970000001
 30
0.0
 40
17.5
 41
0.0
 71
     5
 72
     1
  1
31
 11
0.0000000000000001
 21
1.0
 31
0.0
 73
     1
 44
1.0
1001
ACAD
1000
MTEXTBEGIN
1070
    73
1070
     1
1070
    44
1040
1.0
1070
    74
1070
     0
1000
MTEXTEND
  0
POINT
  5
14E0
330
1290
100
AcDbEntity
  8
DEFPOINTS
 62
     0
100
AcDbPoint
 10
446.43832
 20
414.953897
 30
0.0
  0
POINT
  5
14E1
330
1290
100
AcDbEntity
  8
DEFPOINTS
 62
     0
100
AcDbPoint
 10
386.86732
 20
383.949897
 30
0.0
  0
POINT
  5
14E2
330
1290
100
AcDbEntity
  8
DEFPOINTS
 62
     0
100
AcDbPoint
 10
497.3656919999999
 20
383.949897
 30
0.0
  0
ENDBLK
  5
1369
330
1290
100
AcDbEntity
  8
0
100
AcDbBlockEnd
  0
BLOCK
  5
133C
330
12A7
100
AcDbEntity
  8
0
100
AcDbBlockBegin
  2
*D13
 70
     1
 10
0.0
 20
0.0
 30
0.0
  3
*D13
  1

  0
LINE
  5
14AE
330
12A7
100
AcDbEntity
  8
5
370
    -2
100
AcDbLine
 10
296.43932
 20
419.953897
 30
0.0
 11
296.43932
 21
504.9538969999999
 31
0.0
  0
LINE
  5
14AF
330
12A7
100
AcDbEntity
  8
5
370
    -2
100
AcDbLine
 10
446.43832
 20
419.953897
 30
0.0
 11
446.43832
 21
504.9538969999999
 31
0.0
  0
LINE
  5
14B0
330
12A7
100
AcDbEntity
  8
5
370
    -2
100
AcDbLine
 10
321.43932
 20
499.9538969999999
 30
0.0
 11
421.43832
 21
499.9538969999999
 31
0.0
  0
SOLID
  5
14B1
330
12A7
100
AcDbEntity
  8
5
100
AcDbTrace
 10
321.43932
 20
504.1205636666666
 30
0.0
 11
321.43932
 21
495.7872303333332
 31
0.0
 12
296.43932
 22
499.9538969999999
 32
0.0
 13
296.43932
 23
499.9538969999999
 33
0.0
  0
SOLID
  5
14B2
330
12A7
100
AcDbEntity
  8
5
100
AcDbTrace
 10
421.43832
 20
504.1205636666666
 30
0.0
 11
421.43832
 21
495.7872303333332
 31
0.0
 12
446.43832
 22
499.9538969999999
 32
0.0
 13
446.43832
 23
499.9538969999999
 33
0.0
  0
MTEXT
  5
14B3
330
12A7
100
AcDbEntity
  8
5
 62
     2
100
AcDbMText
 10
371.43882
 20
511.703897
 30
0.0
 40
17.5
 41
0.0
 71
     5
 72
     1
  1
%%c150
 73
     1
 44
1.0
1001
ACAD
1000
MTEXTBEGIN
1070
    73
1070
     1
1070
    44
1040
1.0
1070
    74
1070
     0
1000
MTEXTEND
  0
POINT
  5
14B4
330
12A7
100
AcDbEntity
  8
DEFPOINTS
 62
     0
100
AcDbPoint
 10
296.43932
 20
414.953897
 30
0.0
  0
POINT
  5
14B5
330
12A7
100
AcDbEntity
  8
DEFPOINTS
 62
     0
100
AcDbPoint
 10
446.43832
 20
414.953897
 30
0.0
  0
POINT
  5
14B6
330
12A7
100
AcDbEntity
  8
DEFPOINTS
 62
     0
100
AcDbPoint
 10
446.43832
 20
499.9538969999999
 30
0.0
  0
ENDBLK
  5
1346
330
12A7
100
AcDbEntity
  8
0
100
AcDbBlockEnd
  0
BLOCK
  5
132F
330
12BE
100
AcDbEntity
  8
0
100
AcDbBlockBegin
  2
*D14
 70
     1
 10
0.0
 20
0.0
 30
0.0
  3
*D14
  1

  0
LINE
  5
14B7
330
12BE
100
AcDbEntity
  8
5
370
    -2
100
AcDbLine
 10
388.44032
 20
418.953897
 30
0.0
 11
388.44032
 21
469.9538969999999
 31
0.0
  0
LINE
  5
14B8
330
12BE
100
AcDbEntity
  8
5
370
    -2
100
AcDbLine
 10
398.43732
 20
418.953897
 30
0.0
 11
398.43732
 21
469.9538969999999
 31
0.0
  0
LINE
  5
14B9
330
12BE
100
AcDbEntity
  8
5
370
    -2
100
AcDbLine
 10
363.44032
 20
464.953897
 30
0.0
 11
338.44032
 21
464.953897
 31
0.0
  0
LINE
  5
14BA
330
12BE
100
AcDbEntity
  8
5
370
    -2
100
AcDbLine
 10
423.43732
 20
464.953897
 30
0.0
 11
470.201099527559
 21
464.953897
 31
0.0
  0
LINE
  5
14BB
330
12BE
100
AcDbEntity
  8
5
370
    -2
100
AcDbLine
 10
388.44032
 20
464.953897
 30
0.0
 11
398.43732
 21
464.953897
 31
0.0
  0
SOLID
  5
14BC
330
12BE
100
AcDbEntity
  8
5
100
AcDbTrace
 10
363.44032
 20
469.1205636666667
 30
0.0
 11
363.44032
 21
460.7872303333333
 31
0.0
 12
388.44032
 22
464.953897
 32
0.0
 13
388.44032
 23
464.953897
 33
0.0
  0
SOLID
  5
14BD
330
12BE
100
AcDbEntity
  8
5
100
AcDbTrace
 10
423.43732
 20
469.1205636666667
 30
0.0
 11
423.43732
 21
460.7872303333333
 31
0.0
 12
398.43732
 22
464.953897
 32
0.0
 13
398.43732
 23
464.953897
 33
0.0
  0
MTEXT
  5
14BE
330
12BE
100
AcDbEntity
  8
5
 62
     2
100
AcDbMText
 10
459.3192097637795
 20
476.7038969999999
 30
0.0
 40
17.5
 41
0.0
 71
     5
 72
     1
  1
10
 73
     1
 44
1.0
1001
ACAD
1000
MTEXTBEGIN
1070
    73
1070
     1
1070
    44
1040
1.0
1070
    74
1070
     0
1000
MTEXTEND
  0
POINT
  5
14BF
330
12BE
100
AcDbEntity
  8
DEFPOINTS
 62
     0
100
AcDbPoint
 10
388.44032
 20
413.953897
 30
0.0
  0
POINT
  5
14C0
330
12BE
100
AcDbEntity
  8
DEFPOINTS
 62
     0
100
AcDbPoint
 10
398.43732
 20
413.953897
 30
0.0
  0
POINT
  5
14C1
330
12BE
100
AcDbEntity
  8
DEFPOINTS
 62
     0
100
AcDbPoint
 10
398.43732
 20
464.953897
 30
0.0
  0
ENDBLK
  5
133B
330
12BE
100
AcDbEntity
  8
0
100
AcDbBlockEnd
  0
BLOCK
  5
1490
330
148E
100
AcDbEntity
  8
0
100
AcDbBlockBegin
  2
GENAXEH
 70
     0
 10
0.0
 20
0.0
 30
0.0
  3
GENAXEH
  1

  0
LINE
  5
148F
330
148E
100
AcDbEntity
  8
0
100
AcDbLine
 10
-1.0
 20
0.0
 30
0.0
 11
1.0
 21
0.0
 31
0.0
  0
ENDBLK
  5
1491
330
148E
100
AcDbEntity
  8
0
100
AcDbBlockEnd
  0
ENDSEC
  0
SECTION
  2
ENTITIES
  0
LINE
  5
1001
330
11DA
100
AcDbEntity
  8
0
100
AcDbLine
 10
296.43832
 20
414.953897
 30
0.0
 11
446.43832
 21
414.953897
 31
0.0
  0
LINE
  5
1002
330
11DA
100
AcDbEntity
  8
0
100
AcDbLine
 10
301.01532
 20
403.953897
 30
0.0
 11
308.25732
 21
403.953897
 31
0.0
  0
LINE
  5
1003
330
11DA
100
AcDbEntity
  8
0
100
AcDbLine
 10
441.8623199999999
 20
403.953897
 30
0.0
 11
442.43832
 21
414.953897
 31
0.0
  0
LINE
  5
1004
330
11DA
100
AcDbEntity
  8
0
100
AcDbLine
 10
301.01532
 20
403.953897
 30
0.0
 11
300.43832
 21
414.953897
 31
0.0
  0
LINE
  5
1005
330
11DA
100
AcDbEntity
  8
0
100
AcDbLine
 10
295.33832
 20
393.953897
 30
0.0
 11
302.93832
 21
393.953897
 31
0.0
  0
LINE
  5
1006
330
11DA
100
AcDbEntity
  8
0
100
AcDbLine
 10
295.33832
 20
393.953897
 30
0.0
 11
296.43932
 21
414.953897
 31
0.0
  0
LINE
  5
1007
330
11DA
100
AcDbEntity
  8
0
100
AcDbLine
 10
447.53932
 20
393.953897
 30
0.0
 11
446.43832
 21
414.953897
 31
0.0
  0
LINE
  5
1008
330
11DA
100
AcDbEntity
  8
0
100
AcDbLine
 10
439.93832
 20
393.953897
 30
0.0
 11
447.53932
 21
393.953897
 31
0.0
  0
LINE
  5
1009
330
11DA
100
AcDbEntity
  8
0
100
AcDbLine
 10
308.93832
 20
390.953897
 30
0.0
 11
333.64232
 21
390.953897
 31
0.0
  0
LINE
  5
100A
330
11DA
100
AcDbEntity
  8
0
100
AcDbLine
 10
308.93832
 20
390.953897
 30
0.0
 11
308.25732
 21
403.953897
 31
0.0
  0
LINE
  5
100B
330
11DA
100
AcDbEntity
  8
0
100
AcDbLine
 10
433.93832
 20
390.953897
 30
0.0
 11
434.6203199999999
 21
403.953897
 31
0.0
  0
LINE
  5
100C
330
11DA
100
AcDbEntity
  8
0
100
AcDbLine
 10
313.31432
 20
387.953897
 30
0.0
 11
337.31132
 21
387.953897
 31
0.0
  0
LINE
  5
100D
330
11DA
100
AcDbEntity
  8
0
100
AcDbLine
 10
303.62032
 20
380.9538970000001
 30
0.0
 11
313.34432
 21
380.9538970000001
 31
0.0
  0
LINE
  5
100E
330
11DA
100
AcDbEntity
  8
0
100
AcDbLine
 10
311.43832
 20
380.9538970000001
 30
0.0
 11
313.31432
 21
387.953897
 31
0.0
  0
LINE
  5
100F
330
11DA
100
AcDbEntity
  8
0
100
AcDbLine
 10
431.43832
 20
380.9538970000001
 30
0.0
 11
429.56332
 21
387.953897
 31
0.0
  0
LINE
  5
1010
330
11DA
100
AcDbEntity
  8
0
100
AcDbLine
 10
313.31432
 20
387.953897
 30
0.0
 11
312.51032
 21
390.953897
 31
0.0
  0
LINE
  5
1011
330
11DA
100
AcDbEntity
  8
0
100
AcDbLine
 10
429.56332
 20
387.953897
 30
0.0
 11
430.36632
 21
390.953897
 31
0.0
  0
LINE
  5
1012
330
11DA
100
AcDbEntity
  8
0
100
AcDbLine
 10
303.62032
 20
380.9538970000001
 30
0.0
 11
302.93832
 21
393.953897
 31
0.0
  0
LINE
  5
1013
330
11DA
100
AcDbEntity
  8
0
100
AcDbLine
 10
439.25732
 20
380.9538970000001
 30
0.0
 11
439.93832
 21
393.953897
 31
0.0
  0
LINE
  5
1014
330
11DA
100
AcDbEntity
  8
0
100
AcDbLine
 10
313.34432
 20
380.9538970000001
 30
0.0
 11
316.01132
 21
387.953897
 31
0.0
  0
LINE
  5
1015
330
11DA
100
AcDbEntity
  8
0
100
AcDbLine
 10
426.86632
 20
387.953897
 30
0.0
 11
429.5333199999999
 21
380.9538970000001
 31
0.0
  0
LINE
  5
1016
330
11DA
100
AcDbEntity
  8
0
100
AcDbLine
 10
387.49532
 20
380.9538970000001
 30
0.0
 11
417.68632
 21
380.9538970000001
 31
0.0
  0
LINE
  5
1017
330
11DA
100
AcDbEntity
  8
0
100
AcDbLine
 10
329.40132
 20
380.9538970000001
 30
0.0
 11
328.56932
 21
387.953897
 31
0.0
  0
LINE
  5
1018
330
11DA
100
AcDbEntity
  8
0
100
AcDbLine
 10
325.19032
 20
380.9538970000001
 30
0.0
 11
323.52232
 21
387.953897
 31
0.0
  0
LINE
  5
1019
330
11DA
100
AcDbEntity
  8
0
100
AcDbLine
 10
325.19032
 20
380.9538970000001
 30
0.0
 11
355.38132
 21
380.9538970000001
 31
0.0
  0
LINE
  5
101A
330
11DA
100
AcDbEntity
  8
0
100
AcDbLine
 10
355.38132
 20
380.9538970000001
 30
0.0
 11
356.88132
 21
383.955897
 31
0.0
  0
LINE
  5
101B
330
11DA
100
AcDbEntity
  8
0
100
AcDbLine
 10
387.49532
 20
380.9538970000001
 30
0.0
 11
385.99532
 21
383.955897
 31
0.0
  0
LINE
  5
101C
330
11DA
100
AcDbEntity
  8
0
100
AcDbLine
 10
413.47632
 20
380.9538970000001
 30
0.0
 11
414.3073199999999
 21
387.953897
 31
0.0
  0
LINE
  5
101D
330
11DA
100
AcDbEntity
  8
0
100
AcDbLine
 10
417.68632
 20
380.9538970000001
 30
0.0
 11
419.35532
 21
387.953897
 31
0.0
  0
LINE
  5
101E
330
11DA
100
AcDbEntity
  8
0
100
AcDbLine
 10
429.5333199999999
 20
380.9538970000001
 30
0.0
 11
439.25732
 21
380.9538970000001
 31
0.0
  0
LINE
  5
101F
330
11DA
100
AcDbEntity
  8
0
100
AcDbLine
 10
302.43832
 20
413.953897
 30
0.0
 11
371.43832
 21
413.953897
 31
0.0
  0
LINE
  5
1020
330
11DA
100
AcDbEntity
  8
0
100
AcDbLine
 10
321.47032
 20
395.470897
 30
0.0
 11
322.4383200000001
 21
413.953897
 31
0.0
  0
LINE
  5
1021
330
11DA
100
AcDbEntity
  8
0
100
AcDbLine
 10
302.96232
 20
403.953897
 30
0.0
 11
309.52032
 21
403.953897
 31
0.0
  0
LINE
  5
1022
330
11DA
100
AcDbEntity
  8
0
100
AcDbLine
 10
315.34632
 20
393.953897
 30
0.0
 11
319.87232
 21
393.953897
 31
0.0
  0
LINE
  5
1023
330
11DA
100
AcDbEntity
  8
0
100
AcDbLine
 10
311.93532
 20
402.100897
 30
0.0
 11
313.80032
 21
395.139897
 31
0.0
  0
LINE
  5
1024
330
11DA
100
AcDbEntity
  8
0
100
AcDbLine
 10
302.43832
 20
413.953897
 30
0.0
 11
302.96232
 21
403.953897
 31
0.0
  0
ARC
  5
1025
330
11DA
100
AcDbEntity
  8
0
100
AcDbCircle
 10
315.34632
 20
395.553897
 30
0.0
 40
1.6
100
AcDbArc
 50
195.0
 51
270.0
  0
LINE
  5
1026
330
11DA
100
AcDbEntity
  8
0
100
AcDbLine
 10
319.87232
 20
393.953897
 30
0.0
 11
333.48532
 21
393.953897
 31
0.0
  0
ARC
  5
1027
330
11DA
100
AcDbEntity
  8
0
100
AcDbCircle
 10
319.87232
 20
395.553897
 30
0.0
 40
1.6
100
AcDbArc
 50
270.0
 51
357.0
  0
LINE
  5
1028
330
11DA
100
AcDbEntity
  8
0
100
AcDbLine
 10
343.3923200000001
 20
393.953897
 30
0.0
 11
355.48532
 21
393.953897
 31
0.0
  0
LINE
  5
1029
330
11DA
100
AcDbEntity
  8
0
100
AcDbLine
 10
365.39232
 20
393.953897
 30
0.0
 11
371.43832
 21
393.953897
 31
0.0
  0
ARC
  5
102A
330
11DA
100
AcDbEntity
  8
0
100
AcDbCircle
 10
309.52032
 20
401.453897
 30
0.0
 40
2.5
100
AcDbArc
 50
15.0
 51
90.0
  0
ARC
  5
102B
330
11DA
100
AcDbEntity
  8
0
100
AcDbCircle
 10
371.43832
 20
502.9538969999999
 30
0.0
 40
120.0
100
AcDbArc
 50
263.257
 51
266.064
  0
ARC
  5
102C
330
11DA
100
AcDbEntity
  8
0
100
AcDbCircle
 10
371.43832
 20
502.9538969999999
 30
0.0
 40
120.0
100
AcDbArc
 50
252.22
 51
255.353
  0
LINE
  5
102D
330
11DA
100
AcDbEntity
  8
0
100
AcDbLine
 10
364.90932
 20
384.7498970000001
 30
0.0
 11
366.4403200000001
 21
413.953897
 31
0.0
  0
LINE
  5
102E
330
11DA
100
AcDbEntity
  8
0
100
AcDbLine
 10
354.43732
 20
413.953897
 30
0.0
 11
355.93932
 21
385.288897
 31
0.0
  0
LINE
  5
102F
330
11DA
100
AcDbEntity
  8
0
100
AcDbLine
 10
343.09632
 20
388.318897
 30
0.0
 11
344.44032
 21
413.953897
 31
0.0
  0
LINE
  5
1030
330
11DA
100
AcDbEntity
  8
0
100
AcDbLine
 10
332.43732
 20
413.953897
 30
0.0
 11
333.68632
 21
390.125897
 31
0.0
  0
ARC
  5
1031
330
11DA
100
AcDbEntity
  8
0
100
AcDbCircle
 10
335.2843200000001
 20
390.208897
 30
0.0
 40
1.6
100
AcDbArc
 50
183.0
 51
252.22
  0
ARC
  5
1032
330
11DA
100
AcDbEntity
  8
0
100
AcDbCircle
 10
341.49832
 20
388.401897
 30
0.0
 40
1.6
100
AcDbArc
 50
255.352
 51
357.0
  0
ARC
  5
1033
330
11DA
100
AcDbEntity
  8
0
100
AcDbCircle
 10
357.53732
 20
385.372897
 30
0.0
 40
1.6
100
AcDbArc
 50
183.0
 51
263.257
  0
ARC
  5
1034
330
11DA
100
AcDbEntity
  8
0
100
AcDbCircle
 10
363.31132
 20
384.833897
 30
0.0
 40
1.6
100
AcDbArc
 50
266.064
 51
357.0
  0
LINE
  5
1035
330
11DA
100
AcDbEntity
  8
0
100
AcDbLine
 10
440.43832
 20
413.953897
 30
0.0
 11
371.43832
 21
413.953897
 31
0.0
  0
LINE
  5
1036
330
11DA
100
AcDbEntity
  8
0
100
AcDbLine
 10
421.40732
 20
395.470897
 30
0.0
 11
420.43832
 21
413.953897
 31
0.0
  0
LINE
  5
1037
330
11DA
100
AcDbEntity
  8
0
100
AcDbLine
 10
439.91432
 20
403.953897
 30
0.0
 11
433.35732
 21
403.953897
 31
0.0
  0
LINE
  5
1038
330
11DA
100
AcDbEntity
  8
0
100
AcDbLine
 10
427.53132
 20
393.953897
 30
0.0
 11
423.00532
 21
393.953897
 31
0.0
  0
LINE
  5
1039
330
11DA
100
AcDbEntity
  8
0
100
AcDbLine
 10
430.94232
 20
402.100897
 30
0.0
 11
429.07732
 21
395.139897
 31
0.0
  0
LINE
  5
103A
330
11DA
100
AcDbEntity
  8
0
100
AcDbLine
 10
440.43832
 20
413.953897
 30
0.0
 11
439.91432
 21
403.953897
 31
0.0
  0
ARC
  5
103B
330
11DA
100
AcDbEntity
  8
0
100
AcDbCircle
 10
427.53132
 20
395.553897
 30
0.0
 40
1.6
100
AcDbArc
 50
270.0
 51
345.0
  0
LINE
  5
103C
330
11DA
100
AcDbEntity
  8
0
100
AcDbLine
 10
423.00532
 20
393.953897
 30
0.0
 11
409.39232
 21
393.953897
 31
0.0
  0
ARC
  5
103D
330
11DA
100
AcDbEntity
  8
0
100
AcDbCircle
 10
423.00532
 20
395.553897
 30
0.0
 40
1.6
100
AcDbArc
 50
183.0
 51
270.0
  0
LINE
  5
103E
330
11DA
100
AcDbEntity
  8
0
100
AcDbLine
 10
399.48532
 20
393.953897
 30
0.0
 11
387.3923200000001
 21
393.953897
 31
0.0
  0
LINE
  5
103F
330
11DA
100
AcDbEntity
  8
0
100
AcDbLine
 10
377.48532
 20
393.953897
 30
0.0
 11
371.43832
 21
393.953897
 31
0.0
  0
ARC
  5
1040
330
11DA
100
AcDbEntity
  8
0
100
AcDbCircle
 10
433.35732
 20
401.453897
 30
0.0
 40
2.5
100
AcDbArc
 50
90.0
 51
165.0
  0
ARC
  5
1041
330
11DA
100
AcDbEntity
  8
0
100
AcDbCircle
 10
371.43832
 20
502.9538969999999
 30
0.0
 40
120.0
100
AcDbArc
 50
273.936
 51
276.743
  0
ARC
  5
1042
330
11DA
100
AcDbEntity
  8
0
100
AcDbCircle
 10
371.43832
 20
502.9538969999999
 30
0.0
 40
120.0
100
AcDbArc
 50
284.647
 51
287.78
  0
LINE
  5
1043
330
11DA
100
AcDbEntity
  8
0
100
AcDbLine
 10
377.96832
 20
384.7498970000001
 30
0.0
 11
376.43732
 21
413.953897
 31
0.0
  0
LINE
  5
1044
330
11DA
100
AcDbEntity
  8
0
100
AcDbLine
 10
388.44032
 20
413.953897
 30
0.0
 11
386.93732
 21
385.288897
 31
0.0
  0
LINE
  5
1045
330
11DA
100
AcDbEntity
  8
0
100
AcDbLine
 10
399.78032
 20
388.318897
 30
0.0
 11
398.43732
 21
413.953897
 31
0.0
  0
LINE
  5
1046
330
11DA
100
AcDbEntity
  8
0
100
AcDbLine
 10
410.44032
 20
413.953897
 30
0.0
 11
409.19132
 21
390.125897
 31
0.0
  0
ARC
  5
1047
330
11DA
100
AcDbEntity
  8
0
100
AcDbCircle
 10
407.5933199999999
 20
390.208897
 30
0.0
 40
1.6
100
AcDbArc
 50
287.78
 51
357.0
  0
ARC
  5
1048
330
11DA
100
AcDbEntity
  8
0
100
AcDbCircle
 10
401.37832
 20
388.401897
 30
0.0
 40
1.6
100
AcDbArc
 50
183.0
 51
284.648
  0
ARC
  5
1049
330
11DA
100
AcDbEntity
  8
0
100
AcDbCircle
 10
385.34032
 20
385.372897
 30
0.0
 40
1.6
100
AcDbArc
 50
276.743
 51
357.0
  0
ARC
  5
104A
330
11DA
100
AcDbEntity
  8
0
100
AcDbCircle
 10
379.56532
 20
384.833897
 30
0.0
 40
1.6
100
AcDbArc
 50
183.0
 51
273.936
  0
LINE
  5
104B
330
11DA
100
AcDbEntity
  8
0
100
AcDbLine
 10
434.6203199999999
 20
403.953897
 30
0.0
 11
441.8623199999999
 21
403.953897
 31
0.0
  0
LINE
  5
104C
330
11DA
100
AcDbEntity
  8
0
100
AcDbLine
 10
342.99432
 20
387.953897
 30
0.0
 11
355.80032
 21
387.953897
 31
0.0
  0
LINE
  5
104D
330
11DA
100
AcDbEntity
  8
0
100
AcDbLine
 10
343.23432
 20
390.953897
 30
0.0
 11
355.6423200000001
 21
390.953897
 31
0.0
  0
LINE
  5
104E
330
11DA
100
AcDbEntity
  8
0
100
AcDbLine
 10
365.0773200000001
 20
387.953897
 30
0.0
 11
377.80032
 21
387.953897
 31
0.0
  0
LINE
  5
104F
330
11DA
100
AcDbEntity
  8
0
100
AcDbLine
 10
365.23432
 20
390.953897
 30
0.0
 11
377.64232
 21
390.953897
 31
0.0
  0
LINE
  5
1050
330
11DA
100
AcDbEntity
  8
0
100
AcDbLine
 10
387.23432
 20
390.953897
 30
0.0
 11
399.64232
 21
390.953897
 31
0.0
  0
LINE
  5
1051
330
11DA
100
AcDbEntity
  8
0
100
AcDbLine
 10
387.07732
 20
387.953897
 30
0.0
 11
399.91332
 21
387.953897
 31
0.0
  0
LINE
  5
1052
330
11DA
100
AcDbEntity
  8
0
100
AcDbLine
 10
409.23432
 20
390.953897
 30
0.0
 11
433.93832
 21
390.953897
 31
0.0
  0
LINE
  5
1053
330
11DA
100
AcDbEntity
  8
0
100
AcDbLine
 10
405.56632
 20
387.953897
 30
0.0
 11
429.56332
 21
387.953897
 31
0.0
  0
POLYLINE
  5
1054
330
11DA
100
AcDbEntity
  8
SCHRAFFUR_RAND
100
AcDb2dPolyline
 66
     1
 10
0.0
 20
0.0
 30
0.0
 70
     1
  0
VERTEX
  5
1055
330
1054
100
AcDbEntity
  8
SCHRAFFUR_RAND
100
AcDbVertex
100
AcDb2dVertex
 10
312.51032
 20
390.953897
 30
0.0
  0
VERTEX
  5
1056
330
1054
100
AcDbEntity
  8
SCHRAFFUR_RAND
100
AcDbVertex
100
AcDb2dVertex
 10
308.93832
 20
390.953897
 30
0.0
  0
VERTEX
  5
1057
330
1054
100
AcDbEntity
  8
SCHRAFFUR_RAND
100
AcDbVertex
100
AcDb2dVertex
 10
308.25732
 20
403.953897
 30
0.0
  0
VERTEX
  5
1058
330
1054
100
AcDbEntity
  8
SCHRAFFUR_RAND
100
AcDbVertex
100
AcDb2dVertex
 10
301.01532
 20
403.953897
 30
0.0
  0
VERTEX
  5
1059
330
1054
100
AcDbEntity
  8
SCHRAFFUR_RAND
100
AcDbVertex
100
AcDb2dVertex
 10
300.43832
 20
414.953897
 30
0.0
  0
VERTEX
  5
105A
330
1054
100
AcDbEntity
  8
SCHRAFFUR_RAND
100
AcDbVertex
100
AcDb2dVertex
 10
296.43832
 20
414.953897
 30
0.0
  0
VERTEX
  5
105B
330
1054
100
AcDbEntity
  8
SCHRAFFUR_RAND
100
AcDbVertex
100
AcDb2dVertex
 10
295.33832
 20
393.953897
 30
0.0
  0
VERTEX
  5
105C
330
1054
100
AcDbEntity
  8
SCHRAFFUR_RAND
100
AcDbVertex
100
AcDb2dVertex
 10
302.93832
 20
393.953897
 30
0.0
  0
VERTEX
  5
105D
330
1054
100
AcDbEntity
  8
SCHRAFFUR_RAND
100
AcDbVertex
100
AcDb2dVertex
 10
303.62032
 20
380.9538970000001
 30
0.0
  0
VERTEX
  5
105E
330
1054
100
AcDbEntity
  8
SCHRAFFUR_RAND
100
AcDbVertex
100
AcDb2dVertex
 10
311.43932
 20
380.9538970000001
 30
0.0
  0
VERTEX
  5
105F
330
1054
100
AcDbEntity
  8
SCHRAFFUR_RAND
100
AcDbVertex
100
AcDb2dVertex
 10
313.31432
 20
387.953897
 30
0.0
  0
VERTEX
  5
1060
330
1054
100
AcDbEntity
  8
SCHRAFFUR_RAND
100
AcDbVertex
100
AcDb2dVertex
 10
312.51032
 20
390.953897
 30
0.0
  0
SEQEND
  5
1061
330
1054
100
AcDbEntity
  8
SCHRAFFUR_RAND
  0
INSERT
  5
106E
330
11DA
100
AcDbEntity
  8
8
100
AcDbBlockReference
  2
*X0
 10
236.40032
 20
177.936897
 30
0.0
1001
ACAD
1000
HATCH
1002
{
1070
    19
1000
ANSI31,_I
1040
3.174999999999999
1040
2.355999999999999
1002
}
  0
POLYLINE
  5
106F
330
11DA
100
AcDbEntity
  8
SCHRAFFUR_RAND
100
AcDb2dPolyline
 66
     1
 10
0.0
 20
0.0
 30
0.0
 70
     1
  0
VERTEX
  5
1070
330
106F
100
AcDbEntity
  8
SCHRAFFUR_RAND
100
AcDbVertex
100
AcDb2dVertex
 10
431.43832
 20
380.9538970000001
 30
0.0
  0
VERTEX
  5
1071
330
106F
100
AcDbEntity
  8
SCHRAFFUR_RAND
100
AcDbVertex
100
AcDb2dVertex
 10
439.25732
 20
380.9538970000001
 30
0.0
  0
VERTEX
  5
1072
330
106F
100
AcDbEntity
  8
SCHRAFFUR_RAND
100
AcDbVertex
100
AcDb2dVertex
 10
439.93832
 20
393.953897
 30
0.0
  0
VERTEX
  5
1073
330
106F
100
AcDbEntity
  8
SCHRAFFUR_RAND
100
AcDbVertex
100
AcDb2dVertex
 10
447.53932
 20
393.953897
 30
0.0
  0
VERTEX
  5
1074
330
106F
100
AcDbEntity
  8
SCHRAFFUR_RAND
100
AcDbVertex
100
AcDb2dVertex
 10
446.43832
 20
414.953897
 30
0.0
  0
VERTEX
  5
1075
330
106F
100
AcDbEntity
  8
SCHRAFFUR_RAND
100
AcDbVertex
100
AcDb2dVertex
 10
442.43832
 20
414.953897
 30
0.0
  0
VERTEX
  5
1076
330
106F
100
AcDbEntity
  8
SCHRAFFUR_RAND
100
AcDbVertex
100
AcDb2dVertex
 10
441.8623199999999
 20
403.953897
 30
0.0
  0
VERTEX
  5
1077
330
106F
100
AcDbEntity
  8
SCHRAFFUR_RAND
100
AcDbVertex
100
AcDb2dVertex
 10
434.6203199999999
 20
403.953897
 30
0.0
  0
VERTEX
  5
1078
330
106F
100
AcDbEntity
  8
SCHRAFFUR_RAND
100
AcDbVertex
100
AcDb2dVertex
 10
433.93832
 20
390.953897
 30
0.0
  0
VERTEX
  5
1079
330
106F
100
AcDbEntity
  8
SCHRAFFUR_RAND
100
AcDbVertex
100
AcDb2dVertex
 10
430.36632
 20
390.953897
 30
0.0
  0
VERTEX
  5
107A
330
106F
100
AcDbEntity
  8
SCHRAFFUR_RAND
100
AcDbVertex
100
AcDb2dVertex
 10
429.56332
 20
387.953897
 30
0.0
  0
VERTEX
  5
107B
330
106F
100
AcDbEntity
  8
SCHRAFFUR_RAND
100
AcDbVertex
100
AcDb2dVertex
 10
431.43832
 20
380.9538970000001
 30
0.0
  0
SEQEND
  5
107C
330
106F
100
AcDbEntity
  8
SCHRAFFUR_RAND
  0
INSERT
  5
1089
330
11DA
100
AcDbEntity
  8
8
100
AcDbBlockReference
  2
*X1
 10
236.40032
 20
177.936897
 30
0.0
1001
ACAD
1000
HATCH
1002
{
1070
    19
1000
ANSI31,_I
1040
3.174999999999999
1040
2.355999999999999
1002
}
  0
POLYLINE
  5
108A
330
11DA
100
AcDbEntity
  8
SCHRAFFUR_RAND
100
AcDb2dPolyline
 66
     1
 10
0.0
 20
0.0
 30
0.0
 70
     1
  0
VERTEX
  5
108B
330
108A
100
AcDbEntity
  8
SCHRAFFUR_RAND
100
AcDbVertex
100
AcDb2dVertex
 10
319.87232
 20
393.953897
 30
0.0
  0
VERTEX
  5
108C
330
108A
100
AcDbEntity
  8
SCHRAFFUR_RAND
100
AcDbVertex
100
AcDb2dVertex
 10
320.47332
 20
394.047897
 30
0.0
  0
VERTEX
  5
108D
330
108A
100
AcDbEntity
  8
SCHRAFFUR_RAND
100
AcDbVertex
100
AcDb2dVertex
 10
320.9883200000001
 20
394.377897
 30
0.0
  0
VERTEX
  5
108E
330
108A
100
AcDbEntity
  8
SCHRAFFUR_RAND
100
AcDbVertex
100
AcDb2dVertex
 10
321.34532
 20
394.874897
 30
0.0
  0
VERTEX
  5
108F
330
108A
100
AcDbEntity
  8
SCHRAFFUR_RAND
100
AcDbVertex
100
AcDb2dVertex
 10
321.47032
 20
395.470897
 30
0.0
  0
VERTEX
  5
1090
330
108A
100
AcDbEntity
  8
SCHRAFFUR_RAND
100
AcDbVertex
100
AcDb2dVertex
 10
322.4383200000001
 20
413.953897
 30
0.0
  0
VERTEX
  5
1091
330
108A
100
AcDbEntity
  8
SCHRAFFUR_RAND
100
AcDbVertex
100
AcDb2dVertex
 10
302.43832
 20
413.953897
 30
0.0
  0
VERTEX
  5
1092
330
108A
100
AcDbEntity
  8
SCHRAFFUR_RAND
100
AcDbVertex
100
AcDb2dVertex
 10
302.96232
 20
403.953897
 30
0.0
  0
VERTEX
  5
1093
330
108A
100
AcDbEntity
  8
SCHRAFFUR_RAND
100
AcDbVertex
100
AcDb2dVertex
 10
309.52032
 20
403.953897
 30
0.0
  0
VERTEX
  5
1094
330
108A
100
AcDbEntity
  8
SCHRAFFUR_RAND
100
AcDbVertex
100
AcDb2dVertex
 10
310.33132
 20
403.841897
 30
0.0
  0
VERTEX
  5
1095
330
108A
100
AcDbEntity
  8
SCHRAFFUR_RAND
100
AcDbVertex
100
AcDb2dVertex
 10
311.05532
 20
403.454897
 30
0.0
  0
VERTEX
  5
1096
330
108A
100
AcDbEntity
  8
SCHRAFFUR_RAND
100
AcDbVertex
100
AcDb2dVertex
 10
311.61732
 20
402.854897
 30
0.0
  0
VERTEX
  5
1097
330
108A
100
AcDbEntity
  8
SCHRAFFUR_RAND
100
AcDbVertex
100
AcDb2dVertex
 10
311.93532
 20
402.100897
 30
0.0
  0
VERTEX
  5
1098
330
108A
100
AcDbEntity
  8
SCHRAFFUR_RAND
100
AcDbVertex
100
AcDb2dVertex
 10
313.80032
 20
395.139897
 30
0.0
  0
VERTEX
  5
1099
330
108A
100
AcDbEntity
  8
SCHRAFFUR_RAND
100
AcDbVertex
100
AcDb2dVertex
 10
313.99732
 20
394.652897
 30
0.0
  0
VERTEX
  5
109A
330
108A
100
AcDbEntity
  8
SCHRAFFUR_RAND
100
AcDbVertex
100
AcDb2dVertex
 10
314.35832
 20
394.267897
 30
0.0
  0
VERTEX
  5
109B
330
108A
100
AcDbEntity
  8
SCHRAFFUR_RAND
100
AcDbVertex
100
AcDb2dVertex
 10
314.82432
 20
394.017897
 30
0.0
  0
VERTEX
  5
109C
330
108A
100
AcDbEntity
  8
SCHRAFFUR_RAND
100
AcDbVertex
100
AcDb2dVertex
 10
315.34632
 20
393.953897
 30
0.0
  0
VERTEX
  5
109D
330
108A
100
AcDbEntity
  8
SCHRAFFUR_RAND
100
AcDbVertex
100
AcDb2dVertex
 10
319.87232
 20
393.953897
 30
0.0
  0
SEQEND
  5
109E
330
108A
100
AcDbEntity
  8
SCHRAFFUR_RAND
  0
INSERT
  5
10A9
330
11DA
100
AcDbEntity
  8
8
100
AcDbBlockReference
  2
*X2
 10
236.40032
 20
177.936897
 30
0.0
1001
ACAD
1000
HATCH
1002
{
1070
    19
1000
ANSI31,_I
1040
3.174999999999999
1040
0.7850000000000001
1002
}
  0
POLYLINE
  5
10AA
330
11DA
100
AcDbEntity
  8
SCHRAFFUR_RAND
100
AcDb2dPolyline
 66
     1
 10
0.0
 20
0.0
 30
0.0
 70
     1
  0
VERTEX
  5
10AB
330
10AA
100
AcDbEntity
  8
SCHRAFFUR_RAND
100
AcDbVertex
100
AcDb2dVertex
 10
344.44032
 20
413.953897
 30
0.0
  0
VERTEX
  5
10AC
330
10AA
100
AcDbEntity
  8
SCHRAFFUR_RAND
100
AcDbVertex
100
AcDb2dVertex
 10
332.43732
 20
413.953897
 30
0.0
  0
VERTEX
  5
10AD
330
10AA
100
AcDbEntity
  8
SCHRAFFUR_RAND
100
AcDbVertex
100
AcDb2dVertex
 10
333.48532
 20
393.953897
 30
0.0
  0
VERTEX
  5
10AE
330
10AA
100
AcDbEntity
  8
SCHRAFFUR_RAND
100
AcDbVertex
100
AcDb2dVertex
 10
333.68632
 20
390.125897
 30
0.0
  0
VERTEX
  5
10AF
330
10AA
100
AcDbEntity
  8
SCHRAFFUR_RAND
100
AcDbVertex
100
AcDb2dVertex
 10
333.76332
 20
389.646897
 30
0.0
  0
VERTEX
  5
10B0
330
10AA
100
AcDbEntity
  8
SCHRAFFUR_RAND
100
AcDbVertex
100
AcDb2dVertex
 10
333.99932
 20
389.219897
 30
0.0
  0
VERTEX
  5
10B1
330
10AA
100
AcDbEntity
  8
SCHRAFFUR_RAND
100
AcDbVertex
100
AcDb2dVertex
 10
334.35232
 20
388.882897
 30
0.0
  0
VERTEX
  5
10B2
330
10AA
100
AcDbEntity
  8
SCHRAFFUR_RAND
100
AcDbVertex
100
AcDb2dVertex
 10
334.79532
 20
388.685897
 30
0.0
  0
VERTEX
  5
10B3
330
10AA
100
AcDbEntity
  8
SCHRAFFUR_RAND
100
AcDbVertex
100
AcDb2dVertex
 10
337.93232
 20
387.726897
 30
0.0
  0
VERTEX
  5
10B4
330
10AA
100
AcDbEntity
  8
SCHRAFFUR_RAND
100
AcDbVertex
100
AcDb2dVertex
 10
341.0943200000001
 20
386.853897
 30
0.0
  0
VERTEX
  5
10B5
330
10AA
100
AcDbEntity
  8
SCHRAFFUR_RAND
100
AcDbVertex
100
AcDb2dVertex
 10
341.65932
 20
386.788897
 30
0.0
  0
VERTEX
  5
10B6
330
10AA
100
AcDbEntity
  8
SCHRAFFUR_RAND
100
AcDbVertex
100
AcDb2dVertex
 10
342.21032
 20
386.944897
 30
0.0
  0
VERTEX
  5
10B7
330
10AA
100
AcDbEntity
  8
SCHRAFFUR_RAND
100
AcDbVertex
100
AcDb2dVertex
 10
342.67132
 20
387.282897
 30
0.0
  0
VERTEX
  5
10B8
330
10AA
100
AcDbEntity
  8
SCHRAFFUR_RAND
100
AcDbVertex
100
AcDb2dVertex
 10
342.98732
 20
387.759897
 30
0.0
  0
VERTEX
  5
10B9
330
10AA
100
AcDbEntity
  8
SCHRAFFUR_RAND
100
AcDbVertex
100
AcDb2dVertex
 10
343.09632
 20
388.318897
 30
0.0
  0
VERTEX
  5
10BA
330
10AA
100
AcDbEntity
  8
SCHRAFFUR_RAND
100
AcDbVertex
100
AcDb2dVertex
 10
343.3923200000001
 20
393.953897
 30
0.0
  0
VERTEX
  5
10BB
330
10AA
100
AcDbEntity
  8
SCHRAFFUR_RAND
100
AcDbVertex
100
AcDb2dVertex
 10
344.44032
 20
413.953897
 30
0.0
  0
SEQEND
  5
10BC
330
10AA
100
AcDbEntity
  8
SCHRAFFUR_RAND
  0
INSERT
  5
10C7
330
11DA
100
AcDbEntity
  8
8
100
AcDbBlockReference
  2
*X3
 10
236.40032
 20
177.936897
 30
0.0
1001
ACAD
1000
HATCH
1002
{
1070
    19
1000
ANSI31,_I
1040
3.174999999999999
1040
0.7850000000000001
1002
}
  0
POLYLINE
  5
10C8
330
11DA
100
AcDbEntity
  8
SCHRAFFUR_RAND
100
AcDb2dPolyline
 66
     1
 10
0.0
 20
0.0
 30
0.0
 70
     1
  0
VERTEX
  5
10C9
330
10C8
100
AcDbEntity
  8
SCHRAFFUR_RAND
100
AcDbVertex
100
AcDb2dVertex
 10
365.39232
 20
393.953897
 30
0.0
  0
VERTEX
  5
10CA
330
10C8
100
AcDbEntity
  8
SCHRAFFUR_RAND
100
AcDbVertex
100
AcDb2dVertex
 10
366.4403200000001
 20
413.953897
 30
0.0
  0
VERTEX
  5
10CB
330
10C8
100
AcDbEntity
  8
SCHRAFFUR_RAND
100
AcDbVertex
100
AcDb2dVertex
 10
354.43732
 20
413.953897
 30
0.0
  0
VERTEX
  5
10CC
330
10C8
100
AcDbEntity
  8
SCHRAFFUR_RAND
100
AcDbVertex
100
AcDb2dVertex
 10
355.48532
 20
393.953897
 30
0.0
  0
VERTEX
  5
10CD
330
10C8
100
AcDbEntity
  8
SCHRAFFUR_RAND
100
AcDbVertex
100
AcDb2dVertex
 10
355.93932
 20
385.289897
 30
0.0
  0
VERTEX
  5
10CE
330
10C8
100
AcDbEntity
  8
SCHRAFFUR_RAND
100
AcDbVertex
100
AcDb2dVertex
 10
356.04532
 20
384.737897
 30
0.0
  0
VERTEX
  5
10CF
330
10C8
100
AcDbEntity
  8
SCHRAFFUR_RAND
100
AcDbVertex
100
AcDb2dVertex
 10
356.35432
 20
384.264897
 30
0.0
  0
VERTEX
  5
10D0
330
10C8
100
AcDbEntity
  8
SCHRAFFUR_RAND
100
AcDbVertex
100
AcDb2dVertex
 10
356.80632
 20
383.925897
 30
0.0
  0
VERTEX
  5
10D1
330
10C8
100
AcDbEntity
  8
SCHRAFFUR_RAND
100
AcDbVertex
100
AcDb2dVertex
 10
357.3493200000001
 20
383.783897
 30
0.0
  0
VERTEX
  5
10D2
330
10C8
100
AcDbEntity
  8
SCHRAFFUR_RAND
100
AcDbVertex
100
AcDb2dVertex
 10
360.27232
 20
383.474897
 30
0.0
  0
VERTEX
  5
10D3
330
10C8
100
AcDbEntity
  8
SCHRAFFUR_RAND
100
AcDbVertex
100
AcDb2dVertex
 10
363.20232
 20
383.236897
 30
0.0
  0
VERTEX
  5
10D4
330
10C8
100
AcDbEntity
  8
SCHRAFFUR_RAND
100
AcDbVertex
100
AcDb2dVertex
 10
363.83432
 20
383.298897
 30
0.0
  0
VERTEX
  5
10D5
330
10C8
100
AcDbEntity
  8
SCHRAFFUR_RAND
100
AcDbVertex
100
AcDb2dVertex
 10
364.38632
 20
383.619897
 30
0.0
  0
VERTEX
  5
10D6
330
10C8
100
AcDbEntity
  8
SCHRAFFUR_RAND
100
AcDbVertex
100
AcDb2dVertex
 10
364.7723200000001
 20
384.129897
 30
0.0
  0
VERTEX
  5
10D7
330
10C8
100
AcDbEntity
  8
SCHRAFFUR_RAND
100
AcDbVertex
100
AcDb2dVertex
 10
364.90932
 20
384.7498970000001
 30
0.0
  0
VERTEX
  5
10D8
330
10C8
100
AcDbEntity
  8
SCHRAFFUR_RAND
100
AcDbVertex
100
AcDb2dVertex
 10
365.39232
 20
393.953897
 30
0.0
  0
SEQEND
  5
10D9
330
10C8
100
AcDbEntity
  8
SCHRAFFUR_RAND
  0
INSERT
  5
10E5
330
11DA
100
AcDbEntity
  8
8
100
AcDbBlockReference
  2
*X4
 10
236.40032
 20
177.936897
 30
0.0
1001
ACAD
1000
HATCH
1002
{
1070
    19
1000
ANSI31,_I
1040
3.174999999999999
1040
0.7850000000000001
1002
}
  0
POLYLINE
  5
10E6
330
11DA
100
AcDbEntity
  8
SCHRAFFUR_RAND
100
AcDb2dPolyline
 66
     1
 10
0.0
 20
0.0
 30
0.0
 70
     1
  0
VERTEX
  5
10E7
330
10E6
100
AcDbEntity
  8
SCHRAFFUR_RAND
100
AcDbVertex
100
AcDb2dVertex
 10
423.00532
 20
393.953897
 30
0.0
  0
VERTEX
  5
10E8
330
10E6
100
AcDbEntity
  8
SCHRAFFUR_RAND
100
AcDbVertex
100
AcDb2dVertex
 10
422.40432
 20
394.047897
 30
0.0
  0
VERTEX
  5
10E9
330
10E6
100
AcDbEntity
  8
SCHRAFFUR_RAND
100
AcDbVertex
100
AcDb2dVertex
 10
421.88832
 20
394.377897
 30
0.0
  0
VERTEX
  5
10EA
330
10E6
100
AcDbEntity
  8
SCHRAFFUR_RAND
100
AcDbVertex
100
AcDb2dVertex
 10
421.53232
 20
394.874897
 30
0.0
  0
VERTEX
  5
10EB
330
10E6
100
AcDbEntity
  8
SCHRAFFUR_RAND
100
AcDbVertex
100
AcDb2dVertex
 10
421.40732
 20
395.470897
 30
0.0
  0
VERTEX
  5
10EC
330
10E6
100
AcDbEntity
  8
SCHRAFFUR_RAND
100
AcDbVertex
100
AcDb2dVertex
 10
420.43832
 20
413.953897
 30
0.0
  0
VERTEX
  5
10ED
330
10E6
100
AcDbEntity
  8
SCHRAFFUR_RAND
100
AcDbVertex
100
AcDb2dVertex
 10
440.43832
 20
413.953897
 30
0.0
  0
VERTEX
  5
10EE
330
10E6
100
AcDbEntity
  8
SCHRAFFUR_RAND
100
AcDbVertex
100
AcDb2dVertex
 10
439.91432
 20
403.953897
 30
0.0
  0
VERTEX
  5
10EF
330
10E6
100
AcDbEntity
  8
SCHRAFFUR_RAND
100
AcDbVertex
100
AcDb2dVertex
 10
433.35732
 20
403.953897
 30
0.0
  0
VERTEX
  5
10F0
330
10E6
100
AcDbEntity
  8
SCHRAFFUR_RAND
100
AcDbVertex
100
AcDb2dVertex
 10
432.54632
 20
403.841897
 30
0.0
  0
VERTEX
  5
10F1
330
10E6
100
AcDbEntity
  8
SCHRAFFUR_RAND
100
AcDbVertex
100
AcDb2dVertex
 10
431.82132
 20
403.454897
 30
0.0
  0
VERTEX
  5
10F2
330
10E6
100
AcDbEntity
  8
SCHRAFFUR_RAND
100
AcDbVertex
100
AcDb2dVertex
 10
431.26032
 20
402.854897
 30
0.0
  0
VERTEX
  5
10F3
330
10E6
100
AcDbEntity
  8
SCHRAFFUR_RAND
100
AcDbVertex
100
AcDb2dVertex
 10
430.94232
 20
402.100897
 30
0.0
  0
VERTEX
  5
10F4
330
10E6
100
AcDbEntity
  8
SCHRAFFUR_RAND
100
AcDbVertex
100
AcDb2dVertex
 10
429.07732
 20
395.139897
 30
0.0
  0
VERTEX
  5
10F5
330
10E6
100
AcDbEntity
  8
SCHRAFFUR_RAND
100
AcDbVertex
100
AcDb2dVertex
 10
428.88032
 20
394.652897
 30
0.0
  0
VERTEX
  5
10F6
330
10E6
100
AcDbEntity
  8
SCHRAFFUR_RAND
100
AcDbVertex
100
AcDb2dVertex
 10
428.51932
 20
394.267897
 30
0.0
  0
VERTEX
  5
10F7
330
10E6
100
AcDbEntity
  8
SCHRAFFUR_RAND
100
AcDbVertex
100
AcDb2dVertex
 10
428.05232
 20
394.017897
 30
0.0
  0
VERTEX
  5
10F8
330
10E6
100
AcDbEntity
  8
SCHRAFFUR_RAND
100
AcDbVertex
100
AcDb2dVertex
 10
427.53132
 20
393.953897
 30
0.0
  0
VERTEX
  5
10F9
330
10E6
100
AcDbEntity
  8
SCHRAFFUR_RAND
100
AcDbVertex
100
AcDb2dVertex
 10
423.00532
 20
393.953897
 30
0.0
  0
SEQEND
  5
10FA
330
10E6
100
AcDbEntity
  8
SCHRAFFUR_RAND
  0
INSERT
  5
1104
330
11DA
100
AcDbEntity
  8
8
100
AcDbBlockReference
  2
*X5
 10
236.40032
 20
177.936897
 30
0.0
1001
ACAD
1000
HATCH
1002
{
1070
    19
1000
ANSI31,_I
1040
3.174999999999999
1040
0.7850000000000001
1002
}
  0
POLYLINE
  5
1105
330
11DA
100
AcDbEntity
  8
SCHRAFFUR_RAND
100
AcDb2dPolyline
 66
     1
 10
0.0
 20
0.0
 30
0.0
 70
     1
  0
VERTEX
  5
1106
330
1105
100
AcDbEntity
  8
SCHRAFFUR_RAND
100
AcDbVertex
100
AcDb2dVertex
 10
398.43732
 20
413.953897
 30
0.0
  0
VERTEX
  5
1107
330
1105
100
AcDbEntity
  8
SCHRAFFUR_RAND
100
AcDbVertex
100
AcDb2dVertex
 10
410.44032
 20
413.953897
 30
0.0
  0
VERTEX
  5
1108
330
1105
100
AcDbEntity
  8
SCHRAFFUR_RAND
100
AcDbVertex
100
AcDb2dVertex
 10
409.39232
 20
393.953897
 30
0.0
  0
VERTEX
  5
1109
330
1105
100
AcDbEntity
  8
SCHRAFFUR_RAND
100
AcDbVertex
100
AcDb2dVertex
 10
409.19132
 20
390.125897
 30
0.0
  0
VERTEX
  5
110A
330
1105
100
AcDbEntity
  8
SCHRAFFUR_RAND
100
AcDbVertex
100
AcDb2dVertex
 10
409.11432
 20
389.646897
 30
0.0
  0
VERTEX
  5
110B
330
1105
100
AcDbEntity
  8
SCHRAFFUR_RAND
100
AcDbVertex
100
AcDb2dVertex
 10
408.8783199999999
 20
389.219897
 30
0.0
  0
VERTEX
  5
110C
330
1105
100
AcDbEntity
  8
SCHRAFFUR_RAND
100
AcDbVertex
100
AcDb2dVertex
 10
408.52532
 20
388.882897
 30
0.0
  0
VERTEX
  5
110D
330
1105
100
AcDbEntity
  8
SCHRAFFUR_RAND
100
AcDbVertex
100
AcDb2dVertex
 10
408.08232
 20
388.685897
 30
0.0
  0
VERTEX
  5
110E
330
1105
100
AcDbEntity
  8
SCHRAFFUR_RAND
100
AcDbVertex
100
AcDb2dVertex
 10
404.94532
 20
387.726897
 30
0.0
  0
VERTEX
  5
110F
330
1105
100
AcDbEntity
  8
SCHRAFFUR_RAND
100
AcDbVertex
100
AcDb2dVertex
 10
401.78332
 20
386.853897
 30
0.0
  0
VERTEX
  5
1110
330
1105
100
AcDbEntity
  8
SCHRAFFUR_RAND
100
AcDbVertex
100
AcDb2dVertex
 10
401.2183199999999
 20
386.788897
 30
0.0
  0
VERTEX
  5
1111
330
1105
100
AcDbEntity
  8
SCHRAFFUR_RAND
100
AcDbVertex
100
AcDb2dVertex
 10
400.6673199999999
 20
386.944897
 30
0.0
  0
VERTEX
  5
1112
330
1105
100
AcDbEntity
  8
SCHRAFFUR_RAND
100
AcDbVertex
100
AcDb2dVertex
 10
400.20532
 20
387.282897
 30
0.0
  0
VERTEX
  5
1113
330
1105
100
AcDbEntity
  8
SCHRAFFUR_RAND
100
AcDbVertex
100
AcDb2dVertex
 10
399.88932
 20
387.759897
 30
0.0
  0
VERTEX
  5
1114
330
1105
100
AcDbEntity
  8
SCHRAFFUR_RAND
100
AcDbVertex
100
AcDb2dVertex
 10
399.78032
 20
388.318897
 30
0.0
  0
VERTEX
  5
1115
330
1105
100
AcDbEntity
  8
SCHRAFFUR_RAND
100
AcDbVertex
100
AcDb2dVertex
 10
399.48532
 20
393.953897
 30
0.0
  0
VERTEX
  5
1116
330
1105
100
AcDbEntity
  8
SCHRAFFUR_RAND
100
AcDbVertex
100
AcDb2dVertex
 10
398.43732
 20
413.953897
 30
0.0
  0
SEQEND
  5
1117
330
1105
100
AcDbEntity
  8
SCHRAFFUR_RAND
  0
INSERT
  5
1121
330
11DA
100
AcDbEntity
  8
8
100
AcDbBlockReference
  2
*X6
 10
236.40032
 20
177.936897
 30
0.0
1001
ACAD
1000
HATCH
1002
{
1070
    19
1000
ANSI31,_I
1040
3.174999999999999
1040
0.7850000000000001
1002
}
  0
POLYLINE
  5
1122
330
11DA
100
AcDbEntity
  8
SCHRAFFUR_RAND
100
AcDb2dPolyline
 66
     1
 10
0.0
 20
0.0
 30
0.0
 70
     1
  0
VERTEX
  5
1123
330
1122
100
AcDbEntity
  8
SCHRAFFUR_RAND
100
AcDbVertex
100
AcDb2dVertex
 10
377.48532
 20
393.953897
 30
0.0
  0
VERTEX
  5
1124
330
1122
100
AcDbEntity
  8
SCHRAFFUR_RAND
100
AcDbVertex
100
AcDb2dVertex
 10
376.43732
 20
413.953897
 30
0.0
  0
VERTEX
  5
1125
330
1122
100
AcDbEntity
  8
SCHRAFFUR_RAND
100
AcDbVertex
100
AcDb2dVertex
 10
388.44032
 20
413.953897
 30
0.0
  0
VERTEX
  5
1126
330
1122
100
AcDbEntity
  8
SCHRAFFUR_RAND
100
AcDbVertex
100
AcDb2dVertex
 10
387.3923200000001
 20
393.953897
 30
0.0
  0
VERTEX
  5
1127
330
1122
100
AcDbEntity
  8
SCHRAFFUR_RAND
100
AcDbVertex
100
AcDb2dVertex
 10
386.93732
 20
385.288897
 30
0.0
  0
VERTEX
  5
1128
330
1122
100
AcDbEntity
  8
SCHRAFFUR_RAND
100
AcDbVertex
100
AcDb2dVertex
 10
386.83232
 20
384.737897
 30
0.0
  0
VERTEX
  5
1129
330
1122
100
AcDbEntity
  8
SCHRAFFUR_RAND
100
AcDbVertex
100
AcDb2dVertex
 10
386.52332
 20
384.264897
 30
0.0
  0
VERTEX
  5
112A
330
1122
100
AcDbEntity
  8
SCHRAFFUR_RAND
100
AcDbVertex
100
AcDb2dVertex
 10
386.07132
 20
383.925897
 30
0.0
  0
VERTEX
  5
112B
330
1122
100
AcDbEntity
  8
SCHRAFFUR_RAND
100
AcDbVertex
100
AcDb2dVertex
 10
385.52732
 20
383.783897
 30
0.0
  0
VERTEX
  5
112C
330
1122
100
AcDbEntity
  8
SCHRAFFUR_RAND
100
AcDbVertex
100
AcDb2dVertex
 10
382.60532
 20
383.474897
 30
0.0
  0
VERTEX
  5
112D
330
1122
100
AcDbEntity
  8
SCHRAFFUR_RAND
100
AcDbVertex
100
AcDb2dVertex
 10
379.67532
 20
383.236897
 30
0.0
  0
VERTEX
  5
112E
330
1122
100
AcDbEntity
  8
SCHRAFFUR_RAND
100
AcDbVertex
100
AcDb2dVertex
 10
379.04332
 20
383.298897
 30
0.0
  0
VERTEX
  5
112F
330
1122
100
AcDbEntity
  8
SCHRAFFUR_RAND
100
AcDbVertex
100
AcDb2dVertex
 10
378.49032
 20
383.619897
 30
0.0
  0
VERTEX
  5
1130
330
1122
100
AcDbEntity
  8
SCHRAFFUR_RAND
100
AcDbVertex
100
AcDb2dVertex
 10
378.10532
 20
384.129897
 30
0.0
  0
VERTEX
  5
1131
330
1122
100
AcDbEntity
  8
SCHRAFFUR_RAND
100
AcDbVertex
100
AcDb2dVertex
 10
377.96732
 20
384.7498970000001
 30
0.0
  0
VERTEX
  5
1132
330
1122
100
AcDbEntity
  8
SCHRAFFUR_RAND
100
AcDbVertex
100
AcDb2dVertex
 10
377.48532
 20
393.953897
 30
0.0
  0
SEQEND
  5
1133
330
1122
100
AcDbEntity
  8
SCHRAFFUR_RAND
  0
INSERT
  5
113E
330
11DA
100
AcDbEntity
  8
8
100
AcDbBlockReference
  2
*X7
 10
236.40032
 20
177.936897
 30
0.0
1001
ACAD
1000
HATCH
1002
{
1070
    19
1000
ANSI31,_I
1040
3.174999999999999
1040
0.7850000000000001
1002
}
  0
DIMENSION
  5
1147
330
11DA
100
AcDbEntity
  8
5
100
AcDbDimension
  2
*D10
 10
245.7211790000001
 20
393.953897
 30
0.0
 11
245.721179
 21
476.0510918818899
 31
0.0
 70
   160
  1
21
 71
     5
 42
21.0
  3
GEN-ISO
100
AcDbAlignedDimension
 13
296.43832
 23
414.953897
 33
0.0
 14
295.33832
 24
393.953897
 34
0.0
 50
270.0
100
AcDbRotatedDimension
1001
ACAD
1000
DSTYLE
1002
{
1070
    41
1040
5.0
1002
}
  0
DIMENSION
  5
115C
330
11DA
100
AcDbEntity
  8
5
100
AcDbDimension
  2
*D14
 10
398.43732
 20
464.953897
 30
0.0
 11
459.3192097637795
 21
476.7038969999999
 31
0.0
 70
    32
  1
10
 71
     5
 42
9.996999999999957
  3
GEN-ISO
100
AcDbAlignedDimension
 13
388.44032
 23
413.953897
 33
0.0
 14
398.43732
 24
413.953897
 34
0.0
100
AcDbRotatedDimension
1001
ACAD
1000
DSTYLE
1002
{
1070
    41
1040
5.0
1002
}
  0
DIMENSION
  5
1167
330
11DA
100
AcDbEntity
  8
5
100
AcDbDimension
  2
*D13
 10
446.43832
 20
499.9538969999999
 30
0.0
 11
371.43882
 21
511.703897
 31
0.0
 70
    32
  1
%%c150
 71
     5
 42
149.999
  3
GEN-ISO
100
AcDbAlignedDimension
 13
296.43932
 23
414.953897
 33
0.0
 14
446.43832
 24
414.953897
 34
0.0
100
AcDbRotatedDimension
1001
ACAD
1000
DSTYLE
1002
{
1070
    41
1040
5.0
1002
}
  0
DIMENSION
  5
1171
330
11DA
100
AcDbEntity
  8
5
100
AcDbDimension
  2
*D12
 10
497.3656919999999
 20
383.949897
 30
0.0
 11
485.6156919999999
 21
399.4518970000001
 31
0.0
 70
    32
  1
31
 71
     5
 42
31.00400000000002
  3
GEN-ISO
100
AcDbAlignedDimension
 13
446.43832
 23
414.953897
 33
0.0
 14
386.86732
 24
383.949897
 34
0.0
 50
270.0
100
AcDbRotatedDimension
1001
ACAD
1000
DSTYLE
1002
{
1070
    41
1040
5.0
1002
}
  0
DIMENSION
  5
117C
330
11DA
100
AcDbEntity
  8
5
100
AcDbDimension
  2
*D11
 10
447.53932
 20
534.953897
 30
0.0
 11
371.43882
 21
546.7056194409448
 31
0.0
 70
    32
  1
%%c152
 71
     5
 42
152.201
  3
GEN-ISO
100
AcDbAlignedDimension
 13
295.33832
 23
393.953897
 33
0.0
 14
447.53932
 24
393.953897
 34
0.0
100
AcDbRotatedDimension
1001
ACAD
1000
DSTYLE
1002
{
1070
    41
1040
5.0
1002
}
  0
CIRCLE
  5
117D
330
11DA
100
AcDbEntity
  8
0
100
AcDbCircle
 10
371.43832
 20
253.936897
 30
0.0
 40
69.0
  0
LINE
  5
117E
330
11DA
100
AcDbEntity
  8
0
100
AcDbLine
 10
376.4383200000001
 20
253.936897
 30
0.0
 11
376.4383200000001
 21
297.936897
 31
0.0
  0
LINE
  5
117F
330
11DA
100
AcDbEntity
  8
0
100
AcDbLine
 10
376.4383200000001
 20
253.936897
 30
0.0
 11
376.4383200000001
 21
209.936897
 31
0.0
  0
LINE
  5
1180
330
11DA
100
AcDbEntity
  8
0
100
AcDbLine
 10
388.43832
 20
253.936897
 30
0.0
 11
388.43832
 21
292.041897
 31
0.0
  0
LINE
  5
1181
330
11DA
100
AcDbEntity
  8
0
100
AcDbLine
 10
388.43832
 20
253.936897
 30
0.0
 11
388.43832
 21
215.831897
 31
0.0
  0
LINE
  5
1182
330
11DA
100
AcDbEntity
  8
0
100
AcDbLine
 10
398.43832
 20
253.936897
 30
0.0
 11
398.43832
 21
292.041897
 31
0.0
  0
LINE
  5
1183
330
11DA
100
AcDbEntity
  8
0
100
AcDbLine
 10
398.43832
 20
253.936897
 30
0.0
 11
398.43832
 21
215.831897
 31
0.0
  0
LINE
  5
1184
330
11DA
100
AcDbEntity
  8
0
100
AcDbLine
 10
410.43832
 20
253.936897
 30
0.0
 11
410.43832
 21
276.544897
 31
0.0
  0
LINE
  5
1185
330
11DA
100
AcDbEntity
  8
0
100
AcDbLine
 10
410.43832
 20
253.936897
 30
0.0
 11
410.43832
 21
231.864897
 31
0.0
  0
ARC
  5
1186
330
11DA
100
AcDbEntity
  8
0
100
AcDbCircle
 10
393.43832
 20
292.041897
 30
0.0
 40
5.0
100
AcDbArc
 50
0.0
 51
180.0
  0
ARC
  5
1187
330
11DA
100
AcDbEntity
  8
0
100
AcDbCircle
 10
393.43832
 20
215.831897
 30
0.0
 40
5.0
100
AcDbArc
 50
180.0
 51
0.0
  0
ARC
  5
1188
330
11DA
100
AcDbEntity
  8
0
100
AcDbCircle
 10
371.43832
 20
297.936897
 30
0.0
 40
5.0
100
AcDbArc
 50
0.0
 51
90.0
  0
ARC
  5
1189
330
11DA
100
AcDbEntity
  8
0
100
AcDbCircle
 10
371.43832
 20
209.936897
 30
0.0
 40
5.0
100
AcDbArc
 50
274.681
 51
0.0
  0
ARC
  5
118A
330
11DA
100
AcDbEntity
  8
0
100
AcDbCircle
 10
412.53432
 20
276.544897
 30
0.0
 40
2.096
100
AcDbArc
 50
28.816
 51
180.0
  0
ARC
  5
118B
330
11DA
100
AcDbEntity
  8
0
100
AcDbCircle
 10
412.6703199999999
 20
231.864897
 30
0.0
 40
2.231999999999999
100
AcDbArc
 50
180.0
 51
331.711
  0
LINE
  5
118C
330
11DA
100
AcDbEntity
  8
0
100
AcDbLine
 10
366.43832
 20
253.936897
 30
0.0
 11
366.43832
 21
297.936897
 31
0.0
  0
LINE
  5
118D
330
11DA
100
AcDbEntity
  8
0
100
AcDbLine
 10
366.43832
 20
253.936897
 30
0.0
 11
366.43832
 21
209.936897
 31
0.0
  0
LINE
  5
118E
330
11DA
100
AcDbEntity
  8
0
100
AcDbLine
 10
354.43832
 20
253.936897
 30
0.0
 11
354.43832
 21
292.041897
 31
0.0
  0
LINE
  5
118F
330
11DA
100
AcDbEntity
  8
0
100
AcDbLine
 10
354.43832
 20
253.936897
 30
0.0
 11
354.43832
 21
215.831897
 31
0.0
  0
LINE
  5
1190
330
11DA
100
AcDbEntity
  8
0
100
AcDbLine
 10
344.43832
 20
253.936897
 30
0.0
 11
344.43832
 21
292.041897
 31
0.0
  0
LINE
  5
1191
330
11DA
100
AcDbEntity
  8
0
100
AcDbLine
 10
344.43832
 20
253.936897
 30
0.0
 11
344.43832
 21
215.831897
 31
0.0
  0
LINE
  5
1192
330
11DA
100
AcDbEntity
  8
0
100
AcDbLine
 10
332.43832
 20
253.936897
 30
0.0
 11
332.43832
 21
276.544897
 31
0.0
  0
LINE
  5
1193
330
11DA
100
AcDbEntity
  8
0
100
AcDbLine
 10
332.43832
 20
253.936897
 30
0.0
 11
332.43832
 21
231.864897
 31
0.0
  0
ARC
  5
1194
330
11DA
100
AcDbEntity
  8
0
100
AcDbCircle
 10
349.4383200000001
 20
292.041897
 30
0.0
 40
5.0
100
AcDbArc
 50
0.0
 51
180.0
  0
ARC
  5
1195
330
11DA
100
AcDbEntity
  8
0
100
AcDbCircle
 10
349.4383200000001
 20
215.831897
 30
0.0
 40
5.0
100
AcDbArc
 50
180.0
 51
0.0
  0
ARC
  5
1196
330
11DA
100
AcDbEntity
  8
0
100
AcDbCircle
 10
371.43832
 20
297.936897
 30
0.0
 40
5.0
100
AcDbArc
 50
90.0
 51
180.0
  0
ARC
  5
1197
330
11DA
100
AcDbEntity
  8
0
100
AcDbCircle
 10
371.43832
 20
209.936897
 30
0.0
 40
5.0
100
AcDbArc
 50
180.0
 51
265.319
  0
ARC
  5
1198
330
11DA
100
AcDbEntity
  8
0
100
AcDbCircle
 10
330.3423200000001
 20
276.544897
 30
0.0
 40
2.096
100
AcDbArc
 50
0.0
 51
151.184
  0
ARC
  5
1199
330
11DA
100
AcDbEntity
  8
0
100
AcDbCircle
 10
330.20632
 20
231.864897
 30
0.0
 40
2.231999999999999
100
AcDbArc
 50
208.289
 51
0.0
  0
ARC
  5
119A
330
11DA
100
AcDbEntity
  8
0
100
AcDbCircle
 10
371.43832
 20
253.936897
 30
0.0
 40
49.0
100
AcDbArc
 50
331.833
 51
28.816
  0
ARC
  5
119B
330
11DA
100
AcDbEntity
  8
0
100
AcDbCircle
 10
371.43832
 20
253.936897
 30
0.0
 40
49.0
100
AcDbArc
 50
151.184
 51
208.167
  0
CIRCLE
  5
119C
330
11DA
100
AcDbEntity
  8
0
100
AcDbCircle
 10
371.43832
 20
253.936897
 30
0.0
 40
71.0
  0
CIRCLE
  5
119D
330
11DA
100
AcDbEntity
  8
0
100
AcDbCircle
 10
371.43832
 20
253.936897
 30
0.0
 40
76.0
  0
CIRCLE
  5
119E
330
11DA
100
AcDbEntity
  8
0
100
AcDbCircle
 10
371.43832
 20
253.936897
 30
0.0
 40
75.0
  0
INSERT
  5
126A
330
11DA
100
AcDbEntity
  8
0
100
AcDbBlockReference
  2
KATALOG_LEER
 10
251.839706
 20
11.304483
 30
0.0
 41
5.0
 42
5.0
 43
5.0
1001
GENIUS_GENOREF_13
1005
126B
  0
POINT
  5
126B
330
11DA
100
AcDbEntity
  8
0
 60
     1
100
AcDbPoint
 10
0.0
 20
0.0
 30
0.0
1001
GENIUS_GENOBJ-N-TIT_13
1002
{
1000
OWNER
1000
GEN
1002
}
1001
GENIUS_GENOENT_13
1002
{
1000
MYREF
1005
126B
1002
}
1002
{
1000
GRP
1005
0
1002
}
1001
GENIUS_GENOLIS_13
1002
{
1000
ENT
1005
126A
1002
}
1001
GENIUS_GENTITLE_13
1002
{
1000
SCALE
1000
1:5
1002
}
1002
{
1000
BORDER
1000
KATALOG
1002
}
1002
{
1000
TITLE
1000
KATALOG_LEER
1002
}
1002
{
1000
UNCHG
1002
{
1000
GEN-TITLE-SCA
1000
GEN-TITLE-SIZ
1002
}
1002
}
1002
{
1000
HRA
1005
1263
1002
}
1002
{
1000
HTIT
1005
126A
1002
}
1002
{
1000
GENIUSID
1005
126B
1002
}
1001
GENIUS_GENODEF_13
1002
{
1000
HIER
1070
     1
1002
}
1002
{
1000
MANEDIT
1070
     1
1002
}
1002
{
1000
NOSEL
1070
     0
1002
}
1002
{
1000
BEHIND
1070
     0
1002
}
1002
{
1000
REACTOR
1002
}
  0
ENDSEC
  0
SECTION
  2
OBJECTS
  0
DICTIONARY
  5
11CE
330
0
100
AcDbDictionary
281
     1
  3
ACAD_COLOR
350
13CF
  3
ACAD_GROUP
350
11CF
  3
ACAD_LAYOUT
350
13D2
  3
ACAD_MATERIAL
350
13CE
  3
ACAD_MLINESTYLE
350
11DD
  3
ACAD_PLOTSETTINGS
350
13D3
  3
ACAD_PLOTSTYLENAME
350
13CC
  3
ACAD_TABLESTYLE
350
13D0
  3
ACDBHEADERROUNDTRIPXREC
350
14F6
  3
AcDbVariableDictionary
350
14F1
  3
AcmDictionary
350
1431
  3
AMG
350
13D7
  3
AMGSNAPSETTINGS
350
14A7
  0
DICTIONARY
  5
13CF
102
{ACAD_REACTORS
330
11CE
102
}
330
11CE
100
AcDbDictionary
281
     1
  0
DICTIONARY
  5
11CF
102
{ACAD_REACTORS
330
11CE
102
}
330
11CE
100
AcDbDictionary
281
     1
  0
DICTIONARY
  5
13D2
102
{ACAD_REACTORS
330
11CE
102
}
330
11CE
100
AcDbDictionary
281
     1
  3
Layout1
350
13D5
  3
Model
350
13D4
  0
DICTIONARY
  5
13CE
102
{ACAD_REACTORS
330
11CE
102
}
330
11CE
100
AcDbDictionary
281
     1
  0
DICTIONARY
  5
11DD
102
{ACAD_REACTORS
330
11CE
102
}
330
11CE
100
AcDbDictionary
281
     1
  3
STANDARD
350
11DE
  0
DICTIONARY
  5
13D3
102
{ACAD_REACTORS
330
11CE
102
}
330
11CE
100
AcDbDictionary
281
     1
  0
ACDBDICTIONARYWDFLT
  5
13CC
102
{ACAD_REACTORS
330
11CE
102
}
330
11CE
100
AcDbDictionary
281
     1
  3
Normal
350
13CD
100
AcDbDictionaryWithDefault
340
13CD
  0
DICTIONARY
  5
13D0
102
{ACAD_REACTORS
330
11CE
102
}
330
11CE
100
AcDbDictionary
281
     1
  3
Standard
350
13D1
  0
DICTIONARY
  5
14F6
102
{ACAD_REACTORS
330
11CE
102
}
330
11CE
100
AcDbDictionary
281
     1
  0
DICTIONARY
  5
14F1
102
{ACAD_REACTORS
330
11CE
102
}
330
11CE
100
AcDbDictionary
281
     1
  3
CTABLESTYLE
350
14F2
  3
DIMASSOC
350
14F3
  3
PROJECTNAME
350
14F4
  0
DICTIONARY
  5
1431
102
{ACAD_REACTORS
330
11CE
102
}
330
11CE
100
AcDbDictionary
281
     1
  3
AcmStdDictionary
350
143C
  3
AMDTSECTSYM_ARROWCOLOR
350
145F
  0
DICTIONARY
  5
13D7
102
{ACAD_REACTORS
330
11CE
102
}
330
11CE
100
AcDbDictionary
281
     1
  0
DICTIONARY
  5
14A7
102
{ACAD_REACTORS
330
11CE
102
}
330
11CE
100
AcDbDictionary
281
     1
  0
LAYOUT
  5
13D5
102
{ACAD_XDICTIONARY
360
14F9
102
}
102
{ACAD_REACTORS
330
13D2
102
}
330
13D2
100
AcDbPlotSettings
  1

  2
Xerox Document Centre CS50 PS
  4

  6

 40
0.0
 41
0.0
 42
0.0
 43
0.0
 44
0.0
 45
0.0
 46
0.0
 47
0.0
 48
0.0
 49
0.0
140
0.0
141
0.0
142
1.0
143
1.0
 70
   688
 72
     0
 73
     0
 74
     5
  7

 75
    16
147
1.0
148
0.0
149
0.0
100
AcDbLayout
  1
Layout1
 70
     1
 71
     1
 10
0.0
 20
0.0
 11
123.915
 21
153.419
 12
0.0
 22
0.0
 32
0.0
 14
0.0
 24
0.0
 34
0.0
 15
123.915
 25
153.419
 35
0.0
146
0.0
 13
0.0
 23
0.0
 33
0.0
 16
1.0
 26
0.0
 36
0.0
 17
0.0
 27
1.0
 37
0.0
 76
     0
330
11D7
  0
LAYOUT
  5
13D4
102
{ACAD_XDICTIONARY
360
14F7
102
}
102
{ACAD_REACTORS
330
13D2
102
}
330
13D2
100
AcDbPlotSettings
  1

  2
Xerox Document Centre CS50 PS
  4

  6

 40
0.0
 41
0.0
 42
0.0
 43
0.0
 44
0.0
 45
0.0
 46
0.0
 47
0.0
 48
0.0
 49
0.0
140
0.0
141
0.0
142
1.0
143
1.0
 70
  1712
 72
     0
 73
     0
 74
     0
  7

 75
     0
147
1.0
148
0.0
149
0.0
100
AcDbLayout
  1
Model
 70
     1
 71
     0
 10
0.0
 20
0.0
 11
12.0
 21
9.0
 12
0.0
 22
0.0
 32
0.0
 14
0.0
 24
0.0
 34
0.0
 15
0.0
 25
0.0
 35
0.0
146
0.0
 13
0.0
 23
0.0
 33
0.0
 16
1.0
 26
0.0
 36
0.0
 17
0.0
 27
1.0
 37
0.0
 76
     0
330
11DA
  0
MLINESTYLE
  5
11DE
102
{ACAD_REACTORS
330
11DD
102
}
330
11DD
100
AcDbMlineStyle
  2
STANDARD
 70
     0
  3

 62
   256
 51
90.0
 52
90.0
 71
     2
 49
0.5
 62
   256
  6
BYLAYER
 49
-0.5
 62
   256
  6
BYLAYER
  0
ACDBPLACEHOLDER
  5
13CD
102
{ACAD_REACTORS
330
13CC
102
}
330
13CC
  0
TABLESTYLE
  5
13D1
102
{ACAD_REACTORS
330
13D0
102
}
330
13D0
100
AcDbTableStyle
  3
Standard
 70
     0
 71
     0
 40
1.5
 41
1.5
280
     0
281
     0
  7
STANDARD
140
4.5
170
     2
 62
     0
 63
     7
283
     0
274
    -2
284
     1
 64
     0
275
    -2
285
     1
 65
     0
276
    -2
286
     1
 66
     0
277
    -2
287
     1
 67
     0
278
    -2
288
     1
 68
     0
279
    -2
289
     1
 69
     0
  7
STANDARD
140
6.0
170
     5
 62
     0
 63
     7
283
     0
274
    -2
284
     1
 64
     0
275
    -2
285
     1
 65
     0
276
    -2
286
     1
 66
     0
277
    -2
287
     1
 67
     0
278
    -2
288
     1
 68
     0
279
    -2
289
     1
 69
     0
  7
STANDARD
140
4.5
170
     5
 62
     0
 63
     7
283
     0
274
    -2
284
     1
 64
     0
275
    -2
285
     1
 65
     0
276
    -2
286
     1
 66
     0
277
    -2
287
     1
 67
     0
278
    -2
288
     1
 68
     0
279
    -2
289
     1
 69
     0
  0
DICTIONARYVAR
  5
14F2
102
{ACAD_REACTORS
330
14F1
102
}
330
14F1
100
DictionaryVariables
280
     0
  1
STANDARD
  0
DICTIONARYVAR
  5
14F3
102
{ACAD_REACTORS
330
14F1
102
}
330
14F1
100
DictionaryVariables
280
     0
  1
1
  0
DICTIONARYVAR
  5
14F4
102
{ACAD_REACTORS
330
14F1
102
}
330
14F1
100
DictionaryVariables
280
     0
  1

  0
DICTIONARY
  5
143C
102
{ACAD_REACTORS
330
1431
102
}
330
1431
100
AcDbDictionary
281
     1
  0
XRECORD
  5
145F
102
{ACAD_REACTORS
330
1431
102
}
330
1431
100
AcDbXrecord
280
     1
 90
-1023410169
  0
DICTIONARY
  5
14F9
330
13D5
100
AcDbDictionary
280
     1
281
     1
  3
ACAD_XREC_ROUNDTRIP
360
14FA
  0
DICTIONARY
  5
14F7
330
13D4
100
AcDbDictionary
280
     1
281
     1
  3
ACAD_XREC_ROUNDTRIP
360
14F8
  0
XRECORD
  5
14FA
102
{ACAD_REACTORS
330
14F9
102
}
330
14F9
100
AcDbXrecord
280
     1
102
SHADEPLOT
 70
     0
102
SHADEPLOTRESLEVEL
 70
     2
102
SHADEPLOTCUSTOMDPI
 70
   300
  0
XRECORD
  5
14F8
102
{ACAD_REACTORS
330
14F7
102
}
330
14F7
100
AcDbXrecord
280
     1
102
SHADEPLOT
 70
     0
102
SHADEPLOTRESLEVEL
 70
     2
102
SHADEPLOTCUSTOMDPI
 70
   300
  0
ENDSEC
  0
EOF
