  0
SECTION
  2
HEADER
  9
$ACADVER
  1
AC1015
  9
$ACADMAINTVER
 70
    20
  9
$DWGCODEPAGE
  3
ANSI_1252
  9
$INSBASE
 10
0.0
 20
0.0
 30
0.0
  9
$EXTMIN
 10
25.98928734956917
 20
340.5861895324972
 30
-0.0015258207003583
  9
$EXTMAX
 10
497.7556748177343
 20
554.9006269522724
 30
0.0000000349246037
  9
$LIMMIN
 10
0.0
 20
0.0
  9
$LIMMAX
 10
420.0
 20
297.0
  9
$ORTHOMODE
 70
     0
  9
$REGENMODE
 70
     1
  9
$FILLMODE
 70
     1
  9
$QTEXTMODE
 70
     0
  9
$MIRRTEXT
 70
     1
  9
$LTSCALE
 40
1.0
  9
$ATTMODE
 70
     1
  9
$TEXTSIZE
 40
2.5
  9
$TRACEWID
 40
1.0
  9
$TEXTSTYLE
  7
Standard
  9
$CLAYER
  8
0
  9
$CELTYPE
  6
ByLayer
  9
$CECOLOR
 62
   256
  9
$CELTSCALE
 40
1.0
  9
$DISPSILH
 70
     0
  9
$DIMSCALE
 40
1.0
  9
$DIMASZ
 40
2.5
  9
$DIMEXO
 40
0.625
  9
$DIMDLI
 40
3.75
  9
$DIMRND
 40
0.0
  9
$DIMDLE
 40
0.0
  9
$DIMEXE
 40
1.25
  9
$DIMTP
 40
0.0
  9
$DIMTM
 40
0.0
  9
$DIMTXT
 40
2.5
  9
$DIMCEN
 40
2.5
  9
$DIMTSZ
 40
0.0
  9
$DIMTOL
 70
     0
  9
$DIMLIM
 70
     0
  9
$DIMTIH
 70
     0
  9
$DIMTOH
 70
     0
  9
$DIMSE1
 70
     0
  9
$DIMSE2
 70
     0
  9
$DIMTAD
 70
     1
  9
$DIMZIN
 70
     8
  9
$DIMBLK
  1

  9
$DIMASO
 70
     1
  9
$DIMSHO
 70
     1
  9
$DIMPOST
  1

  9
$DIMAPOST
  1

  9
$DIMALT
 70
     0
  9
$DIMALTD
 70
     3
  9
$DIMALTF
 40
0.03937007874016
  9
$DIMLFAC
 40
1.0
  9
$DIMTOFL
 70
     1
  9
$DIMTVP
 40
0.0
  9
$DIMTIX
 70
     0
  9
$DIMSOXD
 70
     0
  9
$DIMSAH
 70
     0
  9
$DIMBLK1
  1

  9
$DIMBLK2
  1

  9
$DIMSTYLE
  2
ISO-25
  9
$DIMCLRD
 70
     0
  9
$DIMCLRE
 70
     0
  9
$DIMCLRT
 70
     0
  9
$DIMTFAC
 40
1.0
  9
$DIMGAP
 40
0.625
  9
$DIMJUST
 70
     0
  9
$DIMSD1
 70
     0
  9
$DIMSD2
 70
     0
  9
$DIMTOLJ
 70
     0
  9
$DIMTZIN
 70
     8
  9
$DIMALTZ
 70
     0
  9
$DIMALTTZ
 70
     0
  9
$DIMUPT
 70
     0
  9
$DIMDEC
 70
     2
  9
$DIMTDEC
 70
     2
  9
$DIMALTU
 70
     2
  9
$DIMALTTD
 70
     3
  9
$DIMTXSTY
  7
Standard
  9
$DIMAUNIT
 70
     0
  9
$DIMADEC
 70
     0
  9
$DIMALTRND
 40
0.0
  9
$DIMAZIN
 70
     0
  9
$DIMDSEP
 70
    44
  9
$DIMATFIT
 70
     3
  9
$DIMFRAC
 70
     0
  9
$DIMLDRBLK
  1

  9
$DIMLUNIT
 70
     2
  9
$DIMLWD
 70
    -2
  9
$DIMLWE
 70
    -2
  9
$DIMTMOVE
 70
     0
  9
$LUNITS
 70
     2
  9
$LUPREC
 70
     4
  9
$SKETCHINC
 40
1.0
  9
$FILLETRAD
 40
10.0
  9
$AUNITS
 70
     0
  9
$AUPREC
 70
     0
  9
$MENU
  1
.
  9
$ELEVATION
 40
0.0
  9
$PELEVATION
 40
0.0
  9
$THICKNESS
 40
0.0
  9
$LIMCHECK
 70
     0
  9
$CHAMFERA
 40
10.0
  9
$CHAMFERB
 40
10.0
  9
$CHAMFERC
 40
20.0
  9
$CHAMFERD
 40
0.0
  9
$SKPOLY
 70
     0
  9
$TDCREATE
 40
2452544.525936887
  9
$TDUCREATE
 40
2452544.442603553
  9
$TDUPDATE
 40
2454020.003995567
  9
$TDUUPDATE
 40
2454019.920662234
  9
$TDINDWG
 40
0.2300718287
  9
$TDUSRTIMER
 40
0.2300714815
  9
$USRTIMER
 70
     1
  9
$ANGBASE
 50
0.0
  9
$ANGDIR
 70
     0
  9
$PDMODE
 70
     0
  9
$PDSIZE
 40
0.0
  9
$PLINEWID
 40
0.0
  9
$SPLFRAME
 70
     0
  9
$SPLINETYPE
 70
     6
  9
$SPLINESEGS
 70
     8
  9
$HANDSEED
  5
13BA
  9
$SURFTAB1
 70
     6
  9
$SURFTAB2
 70
     6
  9
$SURFTYPE
 70
     6
  9
$SURFU
 70
     6
  9
$SURFV
 70
     6
  9
$UCSBASE
  2

  9
$UCSNAME
  2

  9
$UCSORG
 10
0.0
 20
0.0
 30
0.0
  9
$UCSXDIR
 10
1.0
 20
0.0
 30
0.0
  9
$UCSYDIR
 10
0.0
 20
1.0
 30
0.0
  9
$UCSORTHOREF
  2

  9
$UCSORTHOVIEW
 70
     0
  9
$UCSORGTOP
 10
0.0
 20
0.0
 30
0.0
  9
$UCSORGBOTTOM
 10
0.0
 20
0.0
 30
0.0
  9
$UCSORGLEFT
 10
0.0
 20
0.0
 30
0.0
  9
$UCSORGRIGHT
 10
0.0
 20
0.0
 30
0.0
  9
$UCSORGFRONT
 10
0.0
 20
0.0
 30
0.0
  9
$UCSORGBACK
 10
0.0
 20
0.0
 30
0.0
  9
$PUCSBASE
  2

  9
$PUCSNAME
  2

  9
$PUCSORG
 10
0.0
 20
0.0
 30
0.0
  9
$PUCSXDIR
 10
1.0
 20
0.0
 30
0.0
  9
$PUCSYDIR
 10
0.0
 20
1.0
 30
0.0
  9
$PUCSORTHOREF
  2

  9
$PUCSORTHOVIEW
 70
     0
  9
$PUCSORGTOP
 10
0.0
 20
0.0
 30
0.0
  9
$PUCSORGBOTTOM
 10
0.0
 20
0.0
 30
0.0
  9
$PUCSORGLEFT
 10
0.0
 20
0.0
 30
0.0
  9
$PUCSORGRIGHT
 10
0.0
 20
0.0
 30
0.0
  9
$PUCSORGFRONT
 10
0.0
 20
0.0
 30
0.0
  9
$PUCSORGBACK
 10
0.0
 20
0.0
 30
0.0
  9
$USERI1
 70
     0
  9
$USERI2
 70
     0
  9
$USERI3
 70
     0
  9
$USERI4
 70
     0
  9
$USERI5
 70
     0
  9
$USERR1
 40
0.0
  9
$USERR2
 40
0.0
  9
$USERR3
 40
0.0
  9
$USERR4
 40
0.0
  9
$USERR5
 40
0.0
  9
$WORLDVIEW
 70
     1
  9
$SHADEDGE
 70
     3
  9
$SHADEDIF
 70
    70
  9
$TILEMODE
 70
     1
  9
$MAXACTVP
 70
    64
  9
$PINSBASE
 10
0.0
 20
0.0
 30
0.0
  9
$PLIMCHECK
 70
     0
  9
$PEXTMIN
 10
0.0
 20
0.0
 30
0.0
  9
$PEXTMAX
 10
0.0
 20
0.0
 30
0.0
  9
$PLIMMIN
 10
0.0
 20
0.0
  9
$PLIMMAX
 10
12.0
 20
9.0
  9
$UNITMODE
 70
     0
  9
$VISRETAIN
 70
     1
  9
$PLINEGEN
 70
     0
  9
$PSLTSCALE
 70
     1
  9
$TREEDEPTH
 70
  3020
  9
$CMLSTYLE
  2
Standard
  9
$CMLJUST
 70
     0
  9
$CMLSCALE
 40
20.0
  9
$PROXYGRAPHICS
 70
     1
  9
$MEASUREMENT
 70
     1
  9
$CELWEIGHT
370
    -1
  9
$ENDCAPS
280
     0
  9
$JOINSTYLE
280
     0
  9
$LWDISPLAY
290
     1
  9
$INSUNITS
 70
     4
  9
$HYPERLINKBASE
  1

  9
$STYLESHEET
  1
monochrome.ctb
  9
$XEDIT
290
     1
  9
$CEPSNTYPE
380
     0
  9
$PSTYLEMODE
290
     1
  9
$FINGERPRINTGUID
  2
{FDEAD578-A652-11D2-9A35-0060089B3A3F}
  9
$VERSIONGUID
  2
{DE7026B4-9545-4E9C-8F91-3AD31B5D169B}
  9
$EXTNAMES
290
     1
  9
$PSVPSCALE
 40
0.0
  9
$OLESTARTUP
290
     0
  0
ENDSEC
  0
SECTION
  2
CLASSES
  0
CLASS
  1
ACDBDICTIONARYWDFLT
  2
AcDbDictionaryWithDefault
  3
ObjectDBX Classes
 90
        0
280
     0
281
     0
  0
CLASS
  1
ACDBPLACEHOLDER
  2
AcDbPlaceHolder
  3
ObjectDBX Classes
 90
        0
280
     0
281
     0
  0
CLASS
  1
LAYOUT
  2
AcDbLayout
  3
ObjectDBX Classes
 90
        0
280
     0
281
     0
  0
CLASS
  1
DICTIONARYVAR
  2
AcDbDictionaryVar
  3
ObjectDBX Classes
 90
        0
280
     0
281
     0
  0
CLASS
  1
TABLESTYLE
  2
AcDbTableStyle
  3
ObjectDBX Classes
 90
     2047
280
     0
281
     0
  0
CLASS
  1
ACME_DOCUMENT
  2
AcMeDbDoc
  3
AcMeServices
 90
        0
280
     0
281
     0
  0
CLASS
  1
AMGSETTINGSOBJ
  2
AmgSettingsObj
  3
"AcadM|Product Description: AutoCAD Mechanical 2000|Company: Autodesk"
 90
        0
280
     0
281
     0
  0
CLASS
  1
ACMESCOPE
  2
AcMeScope
  3
AcMeServices
 90
        0
280
     0
281
     0
  0
CLASS
  1
ACMECOMMANDHISTORY
  2
AcMeCommandHistory
  3
AcMeServices
 90
        0
280
     0
281
     0
  0
CLASS
  1
ACIMSYSVARMAN
  2
AcImSysVarManager
  3
AcMeServices
 90
        0
280
     0
281
     0
  0
CLASS
  1
ACIMINTSYSVAR
  2
AcImIntSysVar
  3
AcMeServices
 90
        0
280
     0
281
     0
  0
CLASS
  1
ACMEDRAWINGMAN
  2
AcMeDrawingMan
  3
AcMeServices
 90
        0
280
     0
281
     0
  0
CLASS
  1
ACMEVIEW
  2
AcMeView
  3
AcMeServices
 90
        0
280
     0
281
     0
  0
CLASS
  1
ACDBENTITYCACHE
  2
AcMeEntityCache
  3
AcMeServices
 90
        0
280
     0
281
     0
  0
CLASS
  1
GSMANAGER
  2
AcMeGSManager
  3
AcMeServices
 90
        0
280
     0
281
     0
  0
CLASS
  1
AMDTINTERNALREACTOR
  2
AmdtInternalReactor
  3
AcMeServices
 90
        0
280
     0
281
     0
  0
CLASS
  1
ACMESTATEMGR
  2
AcMeStateMgr
  3
AcMeServices
 90
        0
280
     0
281
     0
  0
CLASS
  1
ACGREFMASTER
  2
AcGrefMaster
  3
AcAttribServices
 90
        0
280
     0
281
     0
  0
CLASS
  1
AM_DRAWING_MGR
  2
AcDmDwgMgr
  3
AcMechDwgViewMgmt
 90
        0
280
     0
281
     0
  0
CLASS
  1
AM_DWG_DOCUMENT
  2
AcDmDwgDocument
  3
AcMechDwgViewMgmt
 90
        0
280
     0
281
     0
  0
CLASS
  1
AM_DWG_SHEET
  2
AcDmSheet
  3
AcMechDwgViewMgmt
 90
        0
280
     0
281
     0
  0
CLASS
  1
AM_VIEWDIMPARMAP
  2
AcDmViewDimParMap
  3
AcMechDwgViewMgmt
 90
        0
280
     0
281
     0
  0
CLASS
  1
ACIMREALSYSVAR
  2
AcImRealSysVar
  3
AcMeServices
 90
        0
280
     0
281
     0
  0
CLASS
  1
AM_DWGMGR_NAME
  2
AcDmDwgMgrName
  3
AcMechDwgViewMgmt
 90
        0
280
     0
281
     0
  0
CLASS
  1
ACME_DATABASE
  2
AcMeDbDatabase
  3
AcMeServices
 90
        0
280
     0
281
     0
  0
CLASS
  1
ACRFINSADJUSTERMGR
  2
AcRfInsAdjusterMgr
  3
AcMeServices
 90
        0
280
     0
281
     0
  0
CLASS
  1
ACGREFACADMASTER
  2
AcGrefacadMaster
  3
AcGrefServices
 90
        0
280
     0
281
     0
  0
CLASS
  1
AMDTMENUSTATEMGR
  2
AmdtMenuStateMgr
  3
McadcomServices
 90
        0
280
     0
281
     0
  0
CLASS
  1
AMDTMCOMMENUSTATE
  2
AmdtMcomMenuState
  3
McadcomServices
 90
        0
280
     0
281
     0
  0
CLASS
  1
AMIMASTER
  2
AmiMaster
  3
AmiServices
 90
        0
280
     0
281
     0
  0
CLASS
  1
MAPIAMMOUDLE
  2
MApiAmModule
  3
MApiAmServices
 90
        0
280
     0
281
     0
  0
CLASS
  1
ACIMSTRSYSVAR
  2
AcImStrSysVar
  3
AcMeServices
 90
        0
280
     0
281
     0
  0
CLASS
  1
AMDTADMENUSTATE
  2
AmdtAdMenuState
  3
DesignerServices
 90
        0
280
     0
281
     0
  0
CLASS
  1
ADAPPL
  2
AcAdAppl
  3
DesignerServices
 90
        0
280
     0
281
     0
  0
CLASS
  1
DEPMGR
  2
AcAdDepMgr
  3
DesignerServices
 90
        0
280
     0
281
     0
  0
CLASS
  1
PARAMMGR
  2
AcAdParamMgr
  3
DesignerServices
 90
        0
280
     0
281
     0
  0
CLASS
  1
PARAMSCOPE
  2
AcAdParamScope
  3
DesignerServices
 90
        0
280
     0
281
     0
  0
CLASS
  1
NAMEDAPPL
  2
AcAdNamedAppl
  3
DesignerServices
 90
        0
280
     0
281
     0
  0
CLASS
  1
AMDTDMMENUSTATE
  2
AmdtDmMenuState
  3
AcMechDwgViewMgmt
 90
        0
280
     0
281
     0
  0
CLASS
  1
AMDTAMMENUSTATE
  2
AmdtAmMenuState
  3
DesignerAssemblies
 90
        0
280
     0
281
     0
  0
CLASS
  1
ACAMPROJECT
  2
AcAmProject
  3
DesignerAssemblies
 90
        0
280
     0
281
     0
  0
CLASS
  1
ACAMGRCOMPDEF
  2
AcAmGrCompDef
  3
DesignerAssemblies
 90
        0
280
     0
281
     0
  0
CLASS
  1
ACCMCONTEXT
  2
AcCmContext
  3
DesignerAssemblies
 90
        0
280
     0
281
     0
  0
CLASS
  1
ACAMCOMPDEF
  2
AcAmCompDef
  3
DesignerAssemblies
 90
        0
280
     0
281
     0
  0
CLASS
  1
ACAMCOMPDEFMGR
  2
AcAmCompDefMgr
  3
DesignerAssemblies
 90
        0
280
     0
281
     0
  0
CLASS
  1
AMCONTEXTMGR
  2
AcAmContextMgr
  3
DesignerAssemblies
 90
        0
280
     0
281
     0
  0
CLASS
  1
ACAMCONTEXTMODELER
  2
AcAmContextModeler
  3
DesignerAssemblies
 90
        0
280
     0
281
     0
  0
CLASS
  1
ACMDATADICTIONARY
  2
AcmDataDictionary
  3
"AcmSymBB|Product Description: AutoCAD Mechanical 2004 DX|Company: Autodesk"
 90
        0
280
     0
281
     0
  0
CLASS
  1
CATALOGSTATE
  2
AcAmCatalogState
  3
DesignerAssemblies
 90
        0
280
     0
281
     0
  0
CLASS
  1
ACAMGRCOMPDEFSET
  2
AcAmGrCompDefSet
  3
DesignerAssemblies
 90
        0
280
     0
281
     0
  0
CLASS
  1
AMDTBROWSERDBTAB
  2
AmdtBrowserDbTab
  3
McadcomServices
 90
        0
280
     0
281
     0
  0
CLASS
  1
CBROWSERAPPOBJECT
  2
CBrowserAppObject
  3
McadcomServices
 90
        0
280
     0
281
     0
  0
CLASS
  1
DM_PLACEHOLDER
  2
AcDmSelsetPlaceholder
  3
AcMechDwgViewMgmt
 90
        0
280
     0
281
     0
  0
CLASS
  1
ACMSTANDARDDIN
  2
AcmStandardDIN
  3
"Amdt_StdImp|Product Description: AutoCAD Mechanical 2004 DX|Company: Autodesk"
 90
        0
280
     0
281
     0
  0
CLASS
  1
AMGOBJPROPCFG
  2
AmgObjPropCfg
  3
"AmgLay|Product Description: AutoCAD Mechanical 2000|Company: Autodesk"
 90
        1
280
     0
281
     0
  0
CLASS
  1
AMDTEDGESTANDARDDIN13715
  2
AmdtEdgeStdDIN13715
  3
"Amdt_StdImp|Product Description: AutoCAD Mechanical 2004 DX|Company: Autodesk"
 90
        0
280
     0
281
     0
  0
CLASS
  1
ACMSURFSTANDARDDIN
  2
AcmSurfTextStdDIN
  3
"Amdt_StdImp|Product Description: AutoCAD Mechanical 2004 DX|Company: Autodesk"
 90
        0
280
     0
281
     0
  0
CLASS
  1
ACMFCFSTANDARDDIN
  2
AcmFCFStdDIN
  3
"Amdt_StdImp|Product Description: AutoCAD Mechanical 2004 DX|Company: Autodesk"
 90
        0
280
     0
281
     0
  0
CLASS
  1
ACMWELDSTANDARDDIN
  2
AcmWeldingStdDIN
  3
"Amdt_StdImp|Product Description: AutoCAD Mechanical 2004 DX|Company: Autodesk"
 90
        0
280
     0
281
     0
  0
CLASS
  1
ACMIDSTANDARDDIN
  2
AcmIdStdDIN
  3
"Amdt_StdImp|Product Description: AutoCAD Mechanical 2004 DX|Company: Autodesk"
 90
        0
280
     0
281
     0
  0
CLASS
  1
ACMDATUMSTANDARDDIN
  2
AcmDatumStdDIN
  3
"Amdt_StdImp|Product Description: AutoCAD Mechanical 2004 DX|Company: Autodesk"
 90
        0
280
     0
281
     0
  0
CLASS
  1
ACMBOMSTANDARDDIN
  2
AcmBOMStdDIN
  3
"Amdt_StdImp|Product Description: AutoCAD Mechanical 2004 DX|Company: Autodesk"
 90
        0
280
     0
281
     0
  0
CLASS
  1
ACMDETAILSTANDARDDIN
  2
AmdtDetailSymStdDIN
  3
"Amdt_StdImp|Product Description: AutoCAD Mechanical 2004 DX|Company: Autodesk"
 90
        0
280
     0
281
     0
  0
CLASS
  1
ACMSECTIONSTANDARDDIN
  2
AmdtSectionSymStdDIN
  3
"Amdt_StdImp|Product Description: AutoCAD Mechanical 2004 DX|Company: Autodesk"
 90
        0
280
     0
281
     0
  0
CLASS
  1
ACMCENTERLINESTANDARDDIN
  2
AmdtCenterLineStdDIN
  3
"Amdt_StdImp|Product Description: AutoCAD Mechanical 2004 DX|Company: Autodesk"
 90
        0
280
     0
281
     0
  0
CLASS
  1
ACMTHREADLINESTANDARDDIN
  2
AmdtThreadLineStdDIN
  3
"Amdt_StdImp|Product Description: AutoCAD Mechanical 2004 DX|Company: Autodesk"
 90
        0
280
     0
281
     0
  0
CLASS
  1
ACMNOTESTANDARDDIN
  2
AmdtNoteStdDIN
  3
"Amdt_StdImp|Product Description: AutoCAD Mechanical 2004 DX|Company: Autodesk"
 90
        0
280
     0
281
     0
  0
CLASS
  1
AMDTNOTETEMPLATEDB
  2
AmdtNoteTemplateDB
  3
AMDT_STDIMP_MODULE_NAME
 90
        0
280
     0
281
     0
  0
CLASS
  1
ACAMGLAYSTD
  2
AcAmgLayStd
  3
"AcAmgLayStd|Product Description: AutoCAD Mechanical 2000|Company: Autodesk"
 90
        0
280
     0
281
     0
  0
CLASS
  1
ACAMGDIMSTD
  2
AcAmgDimStd
  3
"AcAmgDimStd|Product Description: AutoCAD Mechanical 2000|Company: Autodesk"
 90
        0
280
     0
281
     0
  0
CLASS
  1
ACAMGHOLECHARTSTDDIN
  2
AcAmgHoleChartStdDIN
  3
ACMSYMBB_MODULE_NAME
 90
        0
280
     0
281
     0
  0
CLASS
  1
ACAMGTITLESTD
  2
AcAmgTitleStd
  3
"TITLEAPP"
 90
        0
280
     0
281
     0
  0
CLASS
  1
ACAMGFILTERDAT
  2
AcAmgFilterDat
  3
"AcadM|Product Description: AutoCAD Mechanical 2000|Company: Autodesk"
 90
        0
280
     0
281
     0
  0
CLASS
  1
AMDTSECTIONSYM
  2
AmdtSectionSym
  3
"AcmSymBB|Product Description: AutoCAD Mechanical 2004 DX|Company: Autodesk"
 90
    33791
280
     0
281
     1
  0
CLASS
  1
AMDTSECTIONSYMLABEL
  2
AmdtSectionSymLabel
  3
"AcmSymBB|Product Description: AutoCAD Mechanical 2004 DX|Company: Autodesk"
 90
    33791
280
     0
281
     1
  0
CLASS
  1
ACMDATAENTRYBLOCK
  2
AcmDataEntryBlock
  3
"AcmSymBB|Product Description: AutoCAD Mechanical 2004 DX|Company: Autodesk"
 90
    32768
280
     0
281
     0
  0
CLASS
  1
STDPART2D
  2
AmgStdPart
  3
"AmgStdPart|Product Description: AutoCAD Mechanical 2000|Company: Autodesk"
 90
     1023
280
     0
281
     1
  0
CLASS
  1
SORTENTSTABLE
  2
AcDbSortentsTable
  3
ObjectDBX Classes
 90
    32768
280
     0
281
     0
  0
CLASS
  1
ACMSTANDARDISO
  2
AcmStandardISO
  3
"Amdt_StdImp|Product Description: AutoCAD Mechanical 2004 DX|Company: Autodesk"
 90
        0
280
     0
281
     0
  0
CLASS
  1
AMDTEDGESTANDARDISO
  2
AmdtEdgeStdISO
  3
"Amdt_StdImp|Product Description: AutoCAD Mechanical 2004 DX|Company: Autodesk"
 90
        0
280
     0
281
     0
  0
CLASS
  1
ACMSURFSTANDARDISO
  2
AcmSurfTextStdISO
  3
"Amdt_StdImp|Product Description: AutoCAD Mechanical 2004 DX|Company: Autodesk"
 90
        0
280
     0
281
     0
  0
CLASS
  1
ACMFCFSTANDARDISO
  2
AcmFCFStdISO
  3
"Amdt_StdImp|Product Description: AutoCAD Mechanical 2004 DX|Company: Autodesk"
 90
        0
280
     0
281
     0
  0
CLASS
  1
ACMWELDSTANDARDISO
  2
AcmWeldingStdISO
  3
"Amdt_StdImp|Product Description: AutoCAD Mechanical 2004 DX|Company: Autodesk"
 90
        0
280
     0
281
     0
  0
CLASS
  1
ACMIDSTANDARDISO
  2
AcmIdStdISO
  3
"Amdt_StdImp|Product Description: AutoCAD Mechanical 2004 DX|Company: Autodesk"
 90
        0
280
     0
281
     0
  0
CLASS
  1
ACMDATUMSTANDARDISO
  2
AcmDatumStdISO
  3
"Amdt_StdImp|Product Description: AutoCAD Mechanical 2004 DX|Company: Autodesk"
 90
        0
280
     0
281
     0
  0
CLASS
  1
ACMBOMSTANDARDISO
  2
AcmBOMStdISO
  3
"Amdt_StdImp|Product Description: AutoCAD Mechanical 2004 DX|Company: Autodesk"
 90
        0
280
     0
281
     0
  0
CLASS
  1
ACMDETAILSTANDARDISO
  2
AmdtDetailSymStdISO
  3
"Amdt_StdImp|Product Description: AutoCAD Mechanical 2004 DX|Company: Autodesk"
 90
        0
280
     0
281
     0
  0
CLASS
  1
ACMSECTIONSTANDARDISO
  2
AmdtSectionSymStdISO
  3
"Amdt_StdImp|Product Description: AutoCAD Mechanical 2004 DX|Company: Autodesk"
 90
        0
280
     0
281
     0
  0
CLASS
  1
ACMCENTERLINESTANDARDISO
  2
AmdtCenterLineStdISO
  3
"Amdt_StdImp|Product Description: AutoCAD Mechanical 2004 DX|Company: Autodesk"
 90
        0
280
     0
281
     0
  0
CLASS
  1
ACMNOTESTANDARDISO
  2
AmdtNoteStdISO
  3
"Amdt_StdImp|Product Description: AutoCAD Mechanical 2004 DX|Company: Autodesk"
 90
        0
280
     0
281
     0
  0
CLASS
  1
ACAMGHOLECHARTSTDISO
  2
AcAmgHoleChartStdISO
  3
ACMSYMBB_MODULE_NAME
 90
        0
280
     0
281
     0
  0
CLASS
  1
ACMTHREADLINESTANDARDISO
  2
AmdtThreadLineStdISO
  3
"Amdt_StdImp|Product Description: AutoCAD Mechanical 2004 DX|Company: Autodesk"
 90
        0
280
     0
281
     0
  0
CLASS
  1
ACMSTANDARDANSI
  2
AcmStandardANSI
  3
"Amdt_StdImp|Product Description: AutoCAD Mechanical 2004 DX|Company: Autodesk"
 90
        0
280
     0
281
     0
  0
CLASS
  1
ACMSURFSTANDARDANSI
  2
AcmSurfTextStdANSI
  3
"Amdt_StdImp|Product Description: AutoCAD Mechanical 2004 DX|Company: Autodesk"
 90
        0
280
     0
281
     0
  0
CLASS
  1
ACMFCFSTANDARDANSI
  2
AcmFCFStdANSI
  3
"Amdt_StdImp|Product Description: AutoCAD Mechanical 2004 DX|Company: Autodesk"
 90
        0
280
     0
281
     0
  0
CLASS
  1
ACMWELDSTANDARDANSI
  2
AcmWeldingStdANSI
  3
"Amdt_StdImp|Product Description: AutoCAD Mechanical 2004 DX|Company: Autodesk"
 90
        0
280
     0
281
     0
  0
CLASS
  1
ACMIDSTANDARDANSI
  2
AcmIdStdANSI
  3
"Amdt_StdImp|Product Description: AutoCAD Mechanical 2004 DX|Company: Autodesk"
 90
        0
280
     0
281
     0
  0
CLASS
  1
ACMDATUMSTANDARDANSI
  2
AcmDatumStdANSI
  3
"Amdt_StdImp|Product Description: AutoCAD Mechanical 2004 DX|Company: Autodesk"
 90
        0
280
     0
281
     0
  0
CLASS
  1
ACMBOMSTANDARDANSI
  2
AcmBOMStdANSI
  3
"Amdt_StdImp|Product Description: AutoCAD Mechanical 2004 DX|Company: Autodesk"
 90
        0
280
     0
281
     0
  0
CLASS
  1
ACMDETAILSTANDARDANSI
  2
AmdtDetailSymStdANSI
  3
"Amdt_StdImp|Product Description: AutoCAD Mechanical 2004 DX|Company: Autodesk"
 90
        0
280
     0
281
     0
  0
CLASS
  1
ACMSECTIONSTANDARDANSI
  2
AmdtSectionSymStdANSI
  3
"Amdt_StdImp|Product Description: AutoCAD Mechanical 2004 DX|Company: Autodesk"
 90
        0
280
     0
281
     0
  0
CLASS
  1
ACMCENTERLINESTANDARDANSI
  2
AmdtCenterLineStdANSI
  3
"Amdt_StdImp|Product Description: AutoCAD Mechanical 2004 DX|Company: Autodesk"
 90
        0
280
     0
281
     0
  0
CLASS
  1
ACMTHREADLINESTANDARDANSI
  2
AmdtThreadLineStdANSI
  3
"Amdt_StdImp|Product Description: AutoCAD Mechanical 2004 DX|Company: Autodesk"
 90
        0
280
     0
281
     0
  0
CLASS
  1
ACMNOTESTANDARDANSI
  2
AmdtNoteStdANSI
  3
"Amdt_StdImp|Product Description: AutoCAD Mechanical 2004 DX|Company: Autodesk"
 90
        0
280
     0
281
     0
  0
CLASS
  1
DIMASSOC
  2
AcDbDimAssoc
  3
"AcDbDimAssoc|Product Desc:     AcDim ARX App For Dimension|Company:          Autodesk, Inc.|WEB Address:      www.autodesk.com"
 90
    32768
280
     0
281
     0
  0
ENDSEC
  0
SECTION
  2
TABLES
  0
TABLE
  2
VPORT
  5
8
330
0
100
AcDbSymbolTable
 70
    16
  0
VPORT
  5
13B0
330
8
100
AcDbSymbolTableRecord
100
AcDbViewportTableRecord
  2
*Active
 70
     0
 10
0.0
 20
0.0
 11
1.0
 21
1.0
 12
261.8724810836518
 22
447.7434082423847
 13
0.0
 23
0.0
 14
10.0
 24
10.0
 15
10.0
 25
10.0
 16
0.0
 26
0.0
 36
1.0
 17
0.0
 27
0.0
 37
0.0
 40
317.1929678757272
 41
1.494545454545454
 42
50.0
 43
0.0
 44
0.0
 50
0.0
 51
0.0
 71
     0
 72
   100
 73
     1
 74
     3
 75
     0
 76
     0
 77
     0
 78
     0
281
     0
 65
     1
110
0.0
120
0.0
130
0.0
111
1.0
121
0.0
131
0.0
112
0.0
122
1.0
132
0.0
 79
     0
146
0.0
  0
ENDTAB
  0
TABLE
  2
LTYPE
  5
5
330
0
100
AcDbSymbolTable
 70
    35
  0
LTYPE
  5
14
330
5
100
AcDbSymbolTableRecord
100
AcDbLinetypeTableRecord
  2
ByBlock
 70
     0
  3

 72
    65
 73
     0
 40
0.0
  0
LTYPE
  5
15
330
5
100
AcDbSymbolTableRecord
100
AcDbLinetypeTableRecord
  2
ByLayer
 70
     0
  3

 72
    65
 73
     0
 40
0.0
  0
LTYPE
  5
16
330
5
100
AcDbSymbolTableRecord
100
AcDbLinetypeTableRecord
  2
Continuous
 70
     0
  3
Solid line
 72
    65
 73
     0
 40
0.0
  0
LTYPE
  5
B0
330
5
100
AcDbSymbolTableRecord
100
AcDbLinetypeTableRecord
  2
HIDDEN
 70
     0
  3
Verdeckt
 72
    65
 73
     2
 40
9.525
 49
6.349999999999999
 74
     0
 49
-3.174999999999999
 74
     0
  0
LTYPE
  5
B1
330
5
100
AcDbSymbolTableRecord
100
AcDbLinetypeTableRecord
  2
PHANTOM2
 70
     0
  3
Phantom (.5x) ___ _ _ ___ _ _ ___ _ _ ___ _ _
 72
    65
 73
     6
 40
31.75
 49
15.875
 74
     0
 49
-3.174999999999999
 74
     0
 49
3.174999999999999
 74
     0
 49
-3.174999999999999
 74
     0
 49
3.174999999999999
 74
     0
 49
-3.174999999999999
 74
     0
  0
LTYPE
  5
B2
330
5
100
AcDbSymbolTableRecord
100
AcDbLinetypeTableRecord
  2
CENTER
 70
     0
  3
Mitte ____ _ ____ _ ____ _ ____ _ ____ _ ____
 72
    65
 73
     4
 40
50.8
 49
31.75
 74
     0
 49
-6.349999999999999
 74
     0
 49
6.349999999999999
 74
     0
 49
-6.349999999999999
 74
     0
  0
LTYPE
  5
E9
330
5
100
AcDbSymbolTableRecord
100
AcDbLinetypeTableRecord
  2
Amconstr
 70
     0
  3
_______________________
 72
    65
 73
     2
 40
9999.0
 49
9999.0
 74
     0
 49
0.0
 74
     0
  0
LTYPE
  5
EE
330
5
100
AcDbSymbolTableRecord
100
AcDbLinetypeTableRecord
  2
Amzigzag
 70
     0
  3
/\/-/\/-/\/-/\/-/\/-/\/
 72
    65
 73
     2
 40
11.0001
 49
0.0001
 74
     4
 75
   136
340
ED
 46
0.04
 50
0.0
 44
0.0
 45
0.0
 49
-11.0
 74
     0
  0
LTYPE
  5
EF
330
5
100
AcDbSymbolTableRecord
100
AcDbLinetypeTableRecord
  2
AM_DIN_F_W050
 70
     0
  3
__ __ __ __ __ __ __ __ __ __ __ __ __ __ __
 72
    65
 73
     2
 40
6.25
 49
4.75
 74
     0
 49
-1.5
 74
     0
  0
LTYPE
  5
F0
330
5
100
AcDbSymbolTableRecord
100
AcDbLinetypeTableRecord
  2
AM_DIN_G_W050
 70
     0
  3
____ . ____ . ____ . ____ . ____ . ____ . ____
 72
    65
 73
     4
 40
13.75
 49
9.75
 74
     0
 49
-1.5
 74
     0
 49
1.0
 74
     0
 49
-1.5
 74
     0
  0
LTYPE
  5
F1
330
5
100
AcDbSymbolTableRecord
100
AcDbLinetypeTableRecord
  2
AM_DIN_K_W050
 70
     0
  3
_____ . . _____ . . _____ . . ____ .. ____
 72
    65
 73
     6
 40
16.25
 49
9.75
 74
     0
 49
-1.5
 74
     0
 49
1.0
 74
     0
 49
-1.5
 74
     0
 49
1.0
 74
     0
 49
-1.5
 74
     0
  0
LTYPE
  5
F2
330
5
100
AcDbSymbolTableRecord
100
AcDbLinetypeTableRecord
  2
AM_DIN_G_W050x2
 70
     0
  3
__ . __ . __ . __ . __ . __
 72
    65
 73
     4
 40
6.875
 49
4.75
 74
     0
 49
-0.875
 74
     0
 49
0.375
 74
     0
 49
-0.875
 74
     0
  0
LTYPE
  5
F3
330
5
100
AcDbSymbolTableRecord
100
AcDbLinetypeTableRecord
  2
AM_DIN_F_W050x2
 70
     0
  3
 _ _ _ _ _ _ _ _ _ _ _ _
 72
    65
 73
     2
 40
3.125
 49
2.25
 74
     0
 49
-0.875
 74
     0
  0
LTYPE
  5
102
330
5
100
AcDbSymbolTableRecord
100
AcDbLinetypeTableRecord
  2
ACDINWELD
 70
     0
  3
_ _ _ _ _
 72
    65
 73
     2
 40
2.0
 49
2.0
 74
     0
 49
-1.0
 74
     0
  0
LTYPE
  5
103
330
5
100
AcDbSymbolTableRecord
100
AcDbLinetypeTableRecord
  2
ACDINTGB
 70
     0
  3
__ . . __ . .
 72
    65
 73
     6
 40
9.0
 49
4.0
 74
     0
 49
-1.0
 74
     0
 49
1.0
 74
     0
 49
-1.0
 74
     0
 49
1.0
 74
     0
 49
-1.0
 74
     0
  0
LTYPE
  5
104
330
5
100
AcDbSymbolTableRecord
100
AcDbLinetypeTableRecord
  2
ACDINTGL
 70
     0
  3
_ _ _ _ _
 72
    65
 73
     2
 40
3.0
 49
2.0
 74
     0
 49
-1.0
 74
     0
  0
LTYPE
  5
372
330
5
100
AcDbSymbolTableRecord
100
AcDbLinetypeTableRecord
  2
GEN7A
 70
     0
  3
__ . __ . __
 72
    65
 73
     4
 40
6.875
 49
4.75
 74
     0
 49
-0.875
 74
     0
 49
0.375
 74
     0
 49
-0.875
 74
     0
  0
LTYPE
  5
373
330
5
100
AcDbSymbolTableRecord
100
AcDbLinetypeTableRecord
  2
GEN7
 70
     0
  3
____ . ____ . ____ . ____ . ____ . ____ . ____
 72
    65
 73
     4
 40
13.75
 49
9.75
 74
     0
 49
-1.5
 74
     0
 49
1.0
 74
     0
 49
-1.5
 74
     0
  0
LTYPE
  5
812
330
5
100
AcDbSymbolTableRecord
100
AcDbLinetypeTableRecord
  2
ACISOWELD
 70
     0
  3
_ _ _ _ _
 72
    65
 73
     2
 40
2.0
 49
2.0
 74
     0
 49
-1.0
 74
     0
  0
LTYPE
  5
813
330
5
100
AcDbSymbolTableRecord
100
AcDbLinetypeTableRecord
  2
ACISOTGB
 70
     0
  3
__ . . __ . .
 72
    65
 73
     6
 40
9.0
 49
4.0
 74
     0
 49
-1.0
 74
     0
 49
1.0
 74
     0
 49
-1.0
 74
     0
 49
1.0
 74
     0
 49
-1.0
 74
     0
  0
LTYPE
  5
814
330
5
100
AcDbSymbolTableRecord
100
AcDbLinetypeTableRecord
  2
ACISOTGL
 70
     0
  3
_ _ _ _ _
 72
    65
 73
     2
 40
3.0
 49
2.0
 74
     0
 49
-1.0
 74
     0
  0
LTYPE
  5
B2F
330
5
100
AcDbSymbolTableRecord
100
AcDbLinetypeTableRecord
  2
ACANSTGB
 70
     0
  3
__ . . __ . .
 72
    65
 73
     6
 40
0.35433070866
 49
0.15748031496
 74
     0
 49
-0.03937007874
 74
     0
 49
0.03937007874
 74
     0
 49
-0.03937007874
 74
     0
 49
0.03937007874
 74
     0
 49
-0.03937007874
 74
     0
  0
LTYPE
  5
B30
330
5
100
AcDbSymbolTableRecord
100
AcDbLinetypeTableRecord
  2
ACANSTGL
 70
     0
  3
_ _ _ _ _
 72
    65
 73
     2
 40
0.11811023622
 49
0.07874015748
 74
     0
 49
-0.03937007874
 74
     0
  0
ENDTAB
  0
TABLE
  2
LAYER
  5
2
102
{ACAD_XDICTIONARY
360
383
102
}
330
0
100
AcDbSymbolTable
 70
    30
  0
LAYER
  5
10
330
2
100
AcDbSymbolTableRecord
100
AcDbLayerTableRecord
  2
0
 70
     0
 62
     7
  6
Continuous
370
    -3
390
F
  0
LAYER
  5
374
330
2
100
AcDbSymbolTableRecord
100
AcDbLayerTableRecord
  2
5
 70
     0
 62
     3
  6
Continuous
370
    -3
390
F
  0
LAYER
  5
375
330
2
100
AcDbSymbolTableRecord
100
AcDbLayerTableRecord
  2
DEFPOINTS
 70
     0
 62
     7
  6
Continuous
290
     0
370
    -3
390
F
  0
LAYER
  5
376
330
2
100
AcDbSymbolTableRecord
100
AcDbLayerTableRecord
  2
4
 70
     0
 62
     3
  6
Continuous
370
    -3
390
F
  0
LAYER
  5
377
330
2
100
AcDbSymbolTableRecord
100
AcDbLayerTableRecord
  2
7A
 70
     0
 62
     4
  6
GEN7A
370
    -3
390
F
  0
LAYER
  5
378
330
2
100
AcDbSymbolTableRecord
100
AcDbLayerTableRecord
  2
8
 70
     0
 62
     1
  6
Continuous
370
    -3
390
F
  0
LAYER
  5
379
330
2
100
AcDbSymbolTableRecord
100
AcDbLayerTableRecord
  2
BEMASS
 70
     0
 62
     3
  6
Continuous
370
    -3
390
F
  0
LAYER
  5
37B
330
2
100
AcDbSymbolTableRecord
100
AcDbLayerTableRecord
  2
7
 70
     0
 62
     4
  6
GEN7
370
    -3
390
F
  0
LAYER
  5
815
330
2
100
AcDbSymbolTableRecord
100
AcDbLayerTableRecord
  2
AM_7
 70
     0
 62
     4
  6
AM_DIN_G_W050
370
    25
390
F
  0
LAYER
  5
818
330
2
100
AcDbSymbolTableRecord
100
AcDbLayerTableRecord
  2
AM_0N
 70
     0
 62
     7
  6
Continuous
370
    50
390
F
  0
LAYER
  5
819
330
2
100
AcDbSymbolTableRecord
100
AcDbLayerTableRecord
  2
AM_INV
 70
     0
 62
   253
  6
Continuous
370
     0
390
F
  0
LAYER
  5
81A
330
2
100
AcDbSymbolTableRecord
100
AcDbLayerTableRecord
  2
AM_3N
 70
     0
 62
     6
  6
AM_DIN_F_W050
370
    25
390
F
  0
LAYER
  5
81B
330
2
100
AcDbSymbolTableRecord
100
AcDbLayerTableRecord
  2
AM_4N
 70
     0
 62
     3
  6
Continuous
370
    25
390
F
  0
LAYER
  5
81C
330
2
100
AcDbSymbolTableRecord
100
AcDbLayerTableRecord
  2
AM_7N
 70
     0
 62
     4
  6
AM_DIN_G_W050
370
    25
390
F
  0
LAYER
  5
81D
330
2
100
AcDbSymbolTableRecord
100
AcDbLayerTableRecord
  2
AM_9
 70
     0
 62
   253
  6
Continuous
370
     0
390
F
  0
LAYER
  5
81E
330
2
100
AcDbSymbolTableRecord
100
AcDbLayerTableRecord
  2
AM_9N
 70
     0
 62
   253
  6
Continuous
370
     0
390
F
  0
ENDTAB
  0
TABLE
  2
STYLE
  5
3
330
0
100
AcDbSymbolTable
 70
    14
  0
STYLE
  5
11
330
3
100
AcDbSymbolTableRecord
100
AcDbTextStyleTableRecord
  2
Standard
 70
     0
 40
0.0
 41
1.0
 50
0.0
 71
     0
 42
2.5
  3
isocp.shx
  4

  0
STYLE
  5
ED
330
3
100
AcDbSymbolTableRecord
100
AcDbTextStyleTableRecord
  2

 70
     1
 40
0.0
 41
1.0
 50
0.0
 71
     0
 42
2.5
  3
genltshp.shx
  4

  0
STYLE
  5
F4
330
3
100
AcDbSymbolTableRecord
100
AcDbTextStyleTableRecord
  2
ACDINTS
 70
     0
 40
1.0
 41
1.0
 50
0.0
 71
     0
 42
2.5
  3
isocp.shx
  4

  0
STYLE
  5
101
330
3
100
AcDbSymbolTableRecord
100
AcDbTextStyleTableRecord
  2
ACDINGDT
 70
     0
 40
0.0
 41
1.0
 50
0.0
 71
     0
 42
2.5
  3
AMGDT
  4

  0
STYLE
  5
81F
330
3
100
AcDbSymbolTableRecord
100
AcDbTextStyleTableRecord
  2
ACISOTS
 70
     0
 40
1.0
 41
1.0
 50
0.0
 71
     0
 42
2.5
  3
isocp.shx
  4
bigfont.shx
  0
STYLE
  5
820
330
3
100
AcDbSymbolTableRecord
100
AcDbTextStyleTableRecord
  2
ACISOGDT
 70
     0
 40
0.0
 41
1.0
 50
0.0
 71
     0
 42
2.5
  3
AMGDT
  4
bigfont.shx
  0
STYLE
  5
B43
330
3
100
AcDbSymbolTableRecord
100
AcDbTextStyleTableRecord
  2
ACANSTS
 70
     0
 40
1.0
 41
1.0
 50
0.0
 71
     0
 42
2.0
  3
romans.shx
  4

  0
STYLE
  5
B44
330
3
100
AcDbSymbolTableRecord
100
AcDbTextStyleTableRecord
  2
ACANSGDT
 70
     0
 40
0.0
 41
1.0
 50
0.0
 71
     0
 42
2.0
  3
amgdtans.shx
  4

  0
ENDTAB
  0
TABLE
  2
VIEW
  5
6
330
0
100
AcDbSymbolTable
 70
     0
  0
ENDTAB
  0
TABLE
  2
UCS
  5
7
330
0
100
AcDbSymbolTable
 70
     0
  0
ENDTAB
  0
TABLE
  2
APPID
  5
9
330
0
100
AcDbSymbolTable
 70
    38
  0
APPID
  5
12
330
9
100
AcDbSymbolTableRecord
100
AcDbRegAppTableRecord
  2
ACAD
 70
     0
  0
APPID
  5
81
330
9
100
AcDbSymbolTableRecord
100
AcDbRegAppTableRecord
  2
MCAD_NO_VIS
 70
     0
  0
APPID
  5
82
330
9
100
AcDbSymbolTableRecord
100
AcDbRegAppTableRecord
  2
ACAD_TEMP_GRAPHIC
 70
     0
  0
APPID
  5
B4
330
9
100
AcDbSymbolTableRecord
100
AcDbRegAppTableRecord
  2
AD_DRAW
 70
     0
  0
APPID
  5
B7
330
9
100
AcDbSymbolTableRecord
100
AcDbRegAppTableRecord
  2
ACATTRIBSERVICES
 70
     0
  0
APPID
  5
D7
330
9
100
AcDbSymbolTableRecord
100
AcDbRegAppTableRecord
  2
DESIGNERASSEMBLIES
 70
     0
  0
APPID
  5
DD
330
9
100
AcDbSymbolTableRecord
100
AcDbRegAppTableRecord
  2
ACADM_DIM_EDIT
 70
     0
  0
APPID
  5
DE
330
9
100
AcDbSymbolTableRecord
100
AcDbRegAppTableRecord
  2
AMDT_DM_ADJ
 70
     0
  0
APPID
  5
10F
330
9
100
AcDbSymbolTableRecord
100
AcDbRegAppTableRecord
  2
ACAD_DSTYLE_DIMARC_LENGTH_SYMBOL
 70
     0
  0
APPID
  5
110
330
9
100
AcDbSymbolTableRecord
100
AcDbRegAppTableRecord
  2
ACAD_DSTYLE_DIMJOGGED_JOGANGLE_SYMBOL
 70
     0
  0
APPID
  5
16A
330
9
100
AcDbSymbolTableRecord
100
AcDbRegAppTableRecord
  2
GENIUS_GENBLLY_14
 70
     0
  0
APPID
  5
16B
330
9
100
AcDbSymbolTableRecord
100
AcDbRegAppTableRecord
  2
GENIUS_GENCFG_13
 70
     0
  0
APPID
  5
16C
330
9
100
AcDbSymbolTableRecord
100
AcDbRegAppTableRecord
  2
GENIUS_GENCFG0_13
 70
     0
  0
APPID
  5
16D
330
9
100
AcDbSymbolTableRecord
100
AcDbRegAppTableRecord
  2
GENIUS_GENCFG1_13
 70
     0
  0
APPID
  5
16E
330
9
100
AcDbSymbolTableRecord
100
AcDbRegAppTableRecord
  2
GENIUS_GENCFG2_13
 70
     0
  0
APPID
  5
16F
330
9
100
AcDbSymbolTableRecord
100
AcDbRegAppTableRecord
  2
GENIUS_GENCFG3_13
 70
     0
  0
APPID
  5
170
330
9
100
AcDbSymbolTableRecord
100
AcDbRegAppTableRecord
  2
GENIUS_GENCFG4_13
 70
     0
  0
APPID
  5
171
330
9
100
AcDbSymbolTableRecord
100
AcDbRegAppTableRecord
  2
GENIUS_VERSION2
 70
     0
  0
APPID
  5
172
330
9
100
AcDbSymbolTableRecord
100
AcDbRegAppTableRecord
  2
GENIUS_GENOENT_13
 70
     0
  0
APPID
  5
173
330
9
100
AcDbSymbolTableRecord
100
AcDbRegAppTableRecord
  2
GENIUS_GENCFG5_13
 70
     0
  0
APPID
  5
174
330
9
100
AcDbSymbolTableRecord
100
AcDbRegAppTableRecord
  2
GENIUS_GEVCFG0_13
 70
     0
  0
APPID
  5
175
330
9
100
AcDbSymbolTableRecord
100
AcDbRegAppTableRecord
  2
GENIUS_GENREC_14
 70
     0
  0
APPID
  5
176
330
9
100
AcDbSymbolTableRecord
100
AcDbRegAppTableRecord
  2
GENIUS_GENODEF_13
 70
     0
  0
APPID
  5
177
330
9
100
AcDbSymbolTableRecord
100
AcDbRegAppTableRecord
  2
GENIUS_GENOBJ-N-REC_13
 70
     0
  0
APPID
  5
380
330
9
100
AcDbSymbolTableRecord
100
AcDbRegAppTableRecord
  2
GENIUS_GENDTOL_13
 70
     0
  0
APPID
  5
381
330
9
100
AcDbSymbolTableRecord
100
AcDbRegAppTableRecord
  2
GENIUS_GENOBJ-N-FIL_13
 70
     0
  0
APPID
  5
382
330
9
100
AcDbSymbolTableRecord
100
AcDbRegAppTableRecord
  2
AcAecLayerStandard
 70
     0
  0
APPID
  5
829
330
9
100
AcDbSymbolTableRecord
100
AcDbRegAppTableRecord
  2
GENIUS_GENOBJ-N-HTC_13
 70
     0
  0
APPID
  5
82A
330
9
100
AcDbSymbolTableRecord
100
AcDbRegAppTableRecord
  2
GENIUS_GENHATCH_13
 70
     0
  0
APPID
  5
82B
330
9
100
AcDbSymbolTableRecord
100
AcDbRegAppTableRecord
  2
GENIUS_GENOBJ-N-CEN_13
 70
     0
  0
APPID
  5
82C
330
9
100
AcDbSymbolTableRecord
100
AcDbRegAppTableRecord
  2
GENIUS_GENBH_13
 70
     0
  0
APPID
  5
82D
330
9
100
AcDbSymbolTableRecord
100
AcDbRegAppTableRecord
  2
GENIUS_GENBHRL_14
 70
     0
  0
APPID
  5
82E
330
9
100
AcDbSymbolTableRecord
100
AcDbRegAppTableRecord
  2
GENIUS_GENOLIS_13
 70
     0
  0
APPID
  5
82F
330
9
100
AcDbSymbolTableRecord
100
AcDbRegAppTableRecord
  2
GENIUS_GENOBJ-NBEHI-BHF_13
 70
     0
  0
APPID
  5
830
330
9
100
AcDbSymbolTableRecord
100
AcDbRegAppTableRecord
  2
GENIUS_GENOREF_13
 70
     0
  0
APPID
  5
831
330
9
100
AcDbSymbolTableRecord
100
AcDbRegAppTableRecord
  2
GENIUS_GENOBJ-NBEHI-BHB_13
 70
     0
  0
APPID
  5
11DF
330
9
100
AcDbSymbolTableRecord
100
AcDbRegAppTableRecord
  2
ACAD_EXEMPT_FROM_CAD_STANDARDS
 70
     0
  0
APPID
  5
1307
330
9
100
AcDbSymbolTableRecord
100
AcDbRegAppTableRecord
  2
GENIUS_GENDIMSH_14
 70
     0
  0
ENDTAB
  0
TABLE
  2
DIMSTYLE
  5
A
330
0
100
AcDbSymbolTable
 70
    29
100
AcDbDimStyleTable
 71
     2
340
169
340
27
  0
DIMSTYLE
105
27
330
A
100
AcDbSymbolTableRecord
100
AcDbDimStyleTableRecord
  2
ISO-25
 70
     0
 41
2.5
 42
0.625
 43
3.75
 44
1.25
 73
     0
 74
     0
 77
     1
 78
     8
140
2.5
141
2.5
143
0.03937007874016
147
0.625
171
     3
172
     1
271
     2
272
     2
274
     3
278
    44
283
     0
284
     8
340
11
  0
DIMSTYLE
105
10E
330
A
100
AcDbSymbolTableRecord
100
AcDbDimStyleTableRecord
  2
AM_DIN
 70
     0
  4
"
 41
2.5
 42
1.0
 43
10.0
 44
1.0
 47
0.1
 48
0.1
 73
     0
 74
     0
 77
     1
 78
     8
 79
     2
140
3.5
141
0.0
143
0.0393701
146
0.71
147
1.5
172
     1
176
   256
177
   256
178
     2
271
     2
272
     3
274
     4
283
     0
284
     8
340
11
371
    -1
372
    -1
1001
ACAD_DSTYLE_DIMARC_LENGTH_SYMBOL
1070
   379
1070
     0
1001
ACAD_DSTYLE_DIMJOGGED_JOGANGLE_SYMBOL
1070
   384
1040
1.570796326794896
  0
DIMSTYLE
105
11F
330
A
100
AcDbSymbolTableRecord
100
AcDbDimStyleTableRecord
  2
AM_DIN$3
 70
     0
  4
"
 41
2.5
 42
1.0
 43
10.0
 44
1.0
 47
0.1
 48
0.1
 73
     0
 77
     1
 78
     8
 79
     2
140
3.5
141
0.0
143
0.0393701
146
0.71
147
1.5
176
   256
177
   256
178
     2
271
     2
272
     3
274
     4
283
     0
284
     8
288
     1
289
     0
340
11
371
    -1
372
    -1
1001
ACAD_DSTYLE_DIMARC_LENGTH_SYMBOL
1070
   379
1070
     0
1001
ACAD_DSTYLE_DIMJOGGED_JOGANGLE_SYMBOL
1070
   384
1040
1.570796326794896
  0
DIMSTYLE
105
124
330
A
100
AcDbSymbolTableRecord
100
AcDbDimStyleTableRecord
  2
AM_DIN$4
 70
     0
  4
"
 41
2.5
 42
1.0
 43
10.0
 44
1.0
 47
0.1
 48
0.1
 73
     0
 77
     1
 78
     8
 79
     2
140
3.5
141
0.0
143
0.0393701
146
0.71
147
1.5
176
   256
177
   256
178
     2
271
     2
272
     3
274
     4
283
     0
284
     8
288
     1
289
     0
340
11
371
    -1
372
    -1
1001
ACAD_DSTYLE_DIMARC_LENGTH_SYMBOL
1070
   379
1070
     0
1001
ACAD_DSTYLE_DIMJOGGED_JOGANGLE_SYMBOL
1070
   384
1040
1.570796326794896
  0
DIMSTYLE
105
129
330
A
100
AcDbSymbolTableRecord
100
AcDbDimStyleTableRecord
  2
AM_DIN$6
 70
     0
  4
"
 41
2.5
 42
1.0
 43
10.0
 44
1.0
 47
0.1
 48
0.1
 73
     0
 74
     0
 78
     8
 79
     2
140
3.5
141
0.0
143
0.0393701
146
0.71
147
1.5
172
     1
176
   256
177
   256
178
     2
271
     2
272
     3
274
     4
283
     0
284
     8
340
11
371
    -1
372
    -1
1001
ACAD_DSTYLE_DIMARC_LENGTH_SYMBOL
1070
   379
1070
     0
1001
ACAD_DSTYLE_DIMJOGGED_JOGANGLE_SYMBOL
1070
   384
1040
1.570796326794896
  0
DIMSTYLE
105
12E
330
A
100
AcDbSymbolTableRecord
100
AcDbDimStyleTableRecord
  2
AM_DIN$7
 70
     0
  4
"
 41
2.5
 42
1.0
 43
10.0
 44
1.0
 47
0.1
 48
0.1
 73
     0
 74
     0
 77
     1
 78
     8
 79
     2
140
5.0
141
0.0
143
0.0393701
146
0.71
147
1.5
172
     1
176
   256
177
   256
178
     2
271
     2
272
     3
274
     4
283
     0
284
     8
340
11
371
    -1
372
    -1
1001
ACAD_DSTYLE_DIMARC_LENGTH_SYMBOL
1070
   379
1070
     0
1001
ACAD_DSTYLE_DIMJOGGED_JOGANGLE_SYMBOL
1070
   384
1040
1.570796326794896
  0
DIMSTYLE
105
133
330
A
100
AcDbSymbolTableRecord
100
AcDbDimStyleTableRecord
  2
AM_DIN$SF
 70
     0
  4
"
 41
2.5
 42
1.0
 43
10.0
 44
1.0
 47
0.1
 48
0.1
 73
     0
 74
     0
 75
     1
 76
     1
 77
     1
 78
     8
 79
     2
140
3.5
141
0.0
143
0.0393701
146
0.71
147
1.5
172
     1
176
   256
177
   256
178
     2
271
     2
272
     3
274
     4
283
     0
284
     8
340
11
371
    -1
372
    -1
1001
ACAD_DSTYLE_DIMARC_LENGTH_SYMBOL
1070
   379
1070
     0
1001
ACAD_DSTYLE_DIMJOGGED_JOGANGLE_SYMBOL
1070
   384
1040
1.570796326794896
  0
DIMSTYLE
105
13C
330
A
100
AcDbSymbolTableRecord
100
AcDbDimStyleTableRecord
  2
AM_DIN$SH
 70
     0
  4
"
 41
2.5
 42
1.0
 43
10.0
 44
1.0
 47
0.1
 48
0.1
 73
     0
 74
     0
 75
     1
 76
     1
 77
     1
 78
     8
 79
     2
140
3.5
141
0.0
143
0.0393701
144
2.0
146
0.71
147
1.5
172
     1
173
     1
176
   256
177
   256
178
     2
271
     2
272
     3
274
     4
283
     0
284
     8
340
11
343
134
371
    -1
372
    -1
1001
ACAD_DSTYLE_DIMARC_LENGTH_SYMBOL
1070
   379
1070
     0
1001
ACAD_DSTYLE_DIMJOGGED_JOGANGLE_SYMBOL
1070
   384
1040
1.570796326794896
  0
DIMSTYLE
105
169
330
A
100
AcDbSymbolTableRecord
100
AcDbDimStyleTableRecord
  2
GEN-ISO
 70
     0
 41
2.5
 42
1.0
 43
7.0
 44
1.0
 47
0.1
 48
0.1
 73
     0
 74
     0
 77
     1
 78
     8
140
3.5
141
0.0
143
0.0393701
146
0.71
147
0.6
172
     1
176
   256
177
   256
178
     2
271
     2
272
     3
274
     4
283
     0
340
11
  0
DIMSTYLE
105
37D
102
{ACAD_REACTORS
330
4CB
330
4CC
330
4DB
330
4D6
330
4DD
330
4D4
102
}
330
A
100
AcDbSymbolTableRecord
100
AcDbDimStyleTableRecord
  2
GEN-ISO$0
 70
     0
  3
<>
  4
"
 41
2.5
 42
1.0
 43
7.0
 44
1.0
 47
0.1
 48
0.1
 73
     0
 74
     0
 77
     1
 78
     8
140
4.0
141
0.0
143
0.0393701
146
0.71
147
0.6
172
     1
176
   256
177
   256
178
     2
271
     2
272
     3
274
     4
283
     0
340
11
  0
DIMSTYLE
105
821
330
A
100
AcDbSymbolTableRecord
100
AcDbDimStyleTableRecord
  2
AM_ISO
 70
     0
  4
"
 41
2.5
 42
1.0
 43
10.0
 44
1.0
 47
0.1
 48
0.1
 73
     0
 74
     0
 77
     1
 78
     8
 79
     2
140
3.5
141
0.0
143
0.0393701
146
0.71
147
1.5
172
     1
176
   256
177
   256
178
     2
271
     2
272
     3
274
     4
283
     0
284
     8
340
11
371
    -1
372
    -1
1001
ACAD_DSTYLE_DIMARC_LENGTH_SYMBOL
1070
   379
1070
     1
1001
ACAD_DSTYLE_DIMJOGGED_JOGANGLE_SYMBOL
1070
   384
1040
0.7853981633974483
  0
DIMSTYLE
105
822
330
A
100
AcDbSymbolTableRecord
100
AcDbDimStyleTableRecord
  2
AM_ISO$3
 70
     0
  4
"
 41
2.5
 42
1.0
 43
10.0
 44
1.0
 47
0.1
 48
0.1
 73
     0
 77
     1
 78
     8
 79
     2
140
3.5
141
0.0
143
0.0393701
146
0.71
147
1.5
176
   256
177
   256
178
     2
271
     2
272
     3
274
     4
283
     0
284
     8
288
     1
289
     0
340
11
371
    -1
372
    -1
1001
ACAD_DSTYLE_DIMARC_LENGTH_SYMBOL
1070
   379
1070
     1
1001
ACAD_DSTYLE_DIMJOGGED_JOGANGLE_SYMBOL
1070
   384
1040
0.7853981633974483
  0
DIMSTYLE
105
823
330
A
100
AcDbSymbolTableRecord
100
AcDbDimStyleTableRecord
  2
AM_ISO$4
 70
     0
  4
"
 41
2.5
 42
1.0
 43
10.0
 44
1.0
 47
0.1
 48
0.1
 73
     0
 77
     1
 78
     8
 79
     2
140
3.5
141
0.0
143
0.0393701
146
0.71
147
1.5
176
   256
177
   256
178
     2
271
     2
272
     3
274
     4
283
     0
284
     8
288
     1
289
     0
340
11
371
    -1
372
    -1
1001
ACAD_DSTYLE_DIMARC_LENGTH_SYMBOL
1070
   379
1070
     1
1001
ACAD_DSTYLE_DIMJOGGED_JOGANGLE_SYMBOL
1070
   384
1040
0.7853981633974483
  0
DIMSTYLE
105
824
330
A
100
AcDbSymbolTableRecord
100
AcDbDimStyleTableRecord
  2
AM_ISO$6
 70
     0
  4
"
 41
2.5
 42
1.0
 43
10.0
 44
1.0
 47
0.1
 48
0.1
 73
     0
 74
     0
 78
     8
 79
     2
140
3.5
141
0.0
143
0.0393701
146
0.71
147
1.5
172
     1
176
   256
177
   256
178
     2
271
     2
272
     3
274
     4
283
     0
284
     8
340
11
371
    -1
372
    -1
1001
ACAD_DSTYLE_DIMARC_LENGTH_SYMBOL
1070
   379
1070
     1
1001
ACAD_DSTYLE_DIMJOGGED_JOGANGLE_SYMBOL
1070
   384
1040
0.7853981633974483
  0
DIMSTYLE
105
825
330
A
100
AcDbSymbolTableRecord
100
AcDbDimStyleTableRecord
  2
AM_ISO$7
 70
     0
  4
"
 41
2.5
 42
1.0
 43
10.0
 44
1.0
 47
0.1
 48
0.1
 73
     0
 74
     0
 77
     1
 78
     8
 79
     2
140
5.0
141
0.0
143
0.0393701
146
0.71
147
1.5
172
     1
176
   256
177
   256
178
     2
271
     2
272
     3
274
     4
283
     0
284
     8
340
11
371
    -1
372
    -1
1001
ACAD_DSTYLE_DIMARC_LENGTH_SYMBOL
1070
   379
1070
     1
1001
ACAD_DSTYLE_DIMJOGGED_JOGANGLE_SYMBOL
1070
   384
1040
0.7853981633974483
  0
DIMSTYLE
105
826
330
A
100
AcDbSymbolTableRecord
100
AcDbDimStyleTableRecord
  2
AM_ISO$SF
 70
     0
  4
"
 41
2.5
 42
1.0
 43
10.0
 44
1.0
 47
0.1
 48
0.1
 73
     0
 74
     0
 75
     1
 76
     1
 77
     1
 78
     8
 79
     2
140
3.5
141
0.0
143
0.0393701
146
0.71
147
1.5
172
     1
176
   256
177
   256
178
     2
271
     2
272
     3
274
     4
283
     0
284
     8
340
11
371
    -1
372
    -1
1001
ACAD_DSTYLE_DIMARC_LENGTH_SYMBOL
1070
   379
1070
     1
1001
ACAD_DSTYLE_DIMJOGGED_JOGANGLE_SYMBOL
1070
   384
1040
0.7853981633974483
  0
DIMSTYLE
105
827
330
A
100
AcDbSymbolTableRecord
100
AcDbDimStyleTableRecord
  2
AM_ISO$SH
 70
     0
  4
"
 41
2.5
 42
1.0
 43
10.0
 44
1.0
 47
0.1
 48
0.1
 73
     0
 74
     0
 75
     1
 76
     1
 77
     1
 78
     8
 79
     2
140
3.5
141
0.0
143
0.0393701
144
2.0
146
0.71
147
1.5
172
     1
173
     1
176
   256
177
   256
178
     2
271
     2
272
     3
274
     4
283
     0
284
     8
340
11
343
134
371
    -1
372
    -1
1001
ACAD_DSTYLE_DIMARC_LENGTH_SYMBOL
1070
   379
1070
     1
1001
ACAD_DSTYLE_DIMJOGGED_JOGANGLE_SYMBOL
1070
   384
1040
0.7853981633974483
  0
DIMSTYLE
105
828
330
A
100
AcDbSymbolTableRecord
100
AcDbDimStyleTableRecord
  2
AM_ISO$0
 70
     0
  4
"
 41
2.5
 42
1.0
 43
10.0
 44
1.0
 47
0.1
 48
0.1
 73
     0
 74
     0
 77
     1
 78
     8
 79
     2
140
3.5
141
0.0
143
0.0393701
146
0.71
147
1.5
172
     1
176
   256
177
   256
178
     2
271
     2
272
     3
274
     4
283
     0
284
     8
340
11
371
    -1
372
    -1
1001
ACAD_DSTYLE_DIMARC_LENGTH_SYMBOL
1070
   379
1070
     1
1001
ACAD_DSTYLE_DIMJOGGED_JOGANGLE_SYMBOL
1070
   384
1040
0.7853981633974483
  0
DIMSTYLE
105
B46
330
A
100
AcDbSymbolTableRecord
100
AcDbDimStyleTableRecord
  2
STANDARD
 70
     0
340
11
  0
DIMSTYLE
105
B47
330
A
100
AcDbSymbolTableRecord
100
AcDbDimStyleTableRecord
  2
AM_ANSI
 70
     0
  4
mm
 41
0.1
 42
0.05
 43
0.5
 44
0.1
 47
0.1
 48
0.1
 78
     7
 79
     2
140
0.12
141
0.0
146
0.71
147
0.06
176
   256
177
   256
178
     2
274
     4
284
     7
340
11
371
    -1
372
    -1
1001
ACAD_DSTYLE_DIMARC_LENGTH_SYMBOL
1070
   379
1070
     1
1001
ACAD_DSTYLE_DIMJOGGED_JOGANGLE_SYMBOL
1070
   384
1040
0.7853981633974483
  0
DIMSTYLE
105
B48
330
A
100
AcDbSymbolTableRecord
100
AcDbDimStyleTableRecord
  2
AM_ANSI$3
 70
     0
  4
mm
 41
0.1
 42
0.05
 43
0.5
 44
0.1
 47
0.1
 48
0.1
 78
     7
 79
     2
140
0.12
141
0.0
146
0.71
147
0.06
176
   256
177
   256
178
     2
274
     4
284
     7
288
     1
289
     0
340
11
371
    -1
372
    -1
1001
ACAD_DSTYLE_DIMARC_LENGTH_SYMBOL
1070
   379
1070
     1
1001
ACAD_DSTYLE_DIMJOGGED_JOGANGLE_SYMBOL
1070
   384
1040
0.7853981633974483
  0
DIMSTYLE
105
B49
330
A
100
AcDbSymbolTableRecord
100
AcDbDimStyleTableRecord
  2
AM_ANSI$4
 70
     0
  4
mm
 41
0.1
 42
0.05
 43
0.5
 44
0.1
 47
0.1
 48
0.1
 78
     7
 79
     2
140
0.12
141
0.0
146
0.71
147
0.06
176
   256
177
   256
178
     2
274
     4
284
     7
288
     1
289
     0
340
11
371
    -1
372
    -1
1001
ACAD_DSTYLE_DIMARC_LENGTH_SYMBOL
1070
   379
1070
     1
1001
ACAD_DSTYLE_DIMJOGGED_JOGANGLE_SYMBOL
1070
   384
1040
0.7853981633974483
  0
DIMSTYLE
105
B4A
330
A
100
AcDbSymbolTableRecord
100
AcDbDimStyleTableRecord
  2
AM_ANSI$7
 70
     0
  4
mm
 41
0.1
 42
0.05
 43
0.5
 44
0.1
 47
0.1
 48
0.1
 78
     7
 79
     2
140
0.24
141
0.0
146
0.71
147
0.06
176
   256
177
   256
178
     2
274
     4
284
     7
340
11
371
    -1
372
    -1
1001
ACAD_DSTYLE_DIMARC_LENGTH_SYMBOL
1070
   379
1070
     1
1001
ACAD_DSTYLE_DIMJOGGED_JOGANGLE_SYMBOL
1070
   384
1040
0.7853981633974483
  0
DIMSTYLE
105
B4B
330
A
100
AcDbSymbolTableRecord
100
AcDbDimStyleTableRecord
  2
AM_ANSI$SF
 70
     0
  4
mm
 41
0.1
 42
0.05
 43
0.5
 44
0.1
 47
0.1
 48
0.1
 75
     1
 76
     1
 78
     7
 79
     2
140
0.12
141
0.0
146
0.71
147
0.06
176
   256
177
   256
178
     2
274
     4
284
     7
340
11
371
    -1
372
    -1
1001
ACAD_DSTYLE_DIMARC_LENGTH_SYMBOL
1070
   379
1070
     1
1001
ACAD_DSTYLE_DIMJOGGED_JOGANGLE_SYMBOL
1070
   384
1040
0.7853981633974483
  0
DIMSTYLE
105
B4C
330
A
100
AcDbSymbolTableRecord
100
AcDbDimStyleTableRecord
  2
AM_ANSI$SH
 70
     0
  4
mm
 41
0.1
 42
0.05
 43
0.5
 44
0.1
 47
0.1
 48
0.1
 75
     1
 76
     1
 78
     7
 79
     2
140
0.12
141
0.0
146
0.71
147
0.06
173
     1
176
   256
177
   256
178
     2
274
     4
284
     7
340
11
343
134
371
    -1
372
    -1
1001
ACAD_DSTYLE_DIMARC_LENGTH_SYMBOL
1070
   379
1070
     1
1001
ACAD_DSTYLE_DIMJOGGED_JOGANGLE_SYMBOL
1070
   384
1040
0.7853981633974483
  0
DIMSTYLE
105
E8B
330
A
100
AcDbSymbolTableRecord
100
AcDbDimStyleTableRecord
  2
ISO-25$0
 70
     0
 41
2.5
 42
0.625
 43
3.75
 44
1.25
 73
     0
 74
     0
 77
     1
 78
     8
140
2.5
141
2.5
143
0.03937007874016
147
0.625
171
     3
172
     1
271
     2
272
     2
274
     3
278
    44
283
     0
284
     8
340
11
  0
ENDTAB
  0
TABLE
  2
BLOCK_RECORD
  5
1
330
0
100
AcDbSymbolTable
 70
    20
  0
BLOCK_RECORD
  5
1F
330
1
100
AcDbSymbolTableRecord
100
AcDbBlockTableRecord
  2
*Model_Space
340
22
  0
BLOCK_RECORD
  5
50
330
1
100
AcDbSymbolTableRecord
100
AcDbBlockTableRecord
  2
*Paper_Space
340
51
  0
BLOCK_RECORD
  5
55
330
1
100
AcDbSymbolTableRecord
100
AcDbBlockTableRecord
  2
*Paper_Space0
340
56
  0
BLOCK_RECORD
  5
134
330
1
100
AcDbSymbolTableRecord
100
AcDbBlockTableRecord
  2
GENAXEH
340
0
  0
BLOCK_RECORD
  5
530
330
1
100
AcDbSymbolTableRecord
100
AcDbBlockTableRecord
  2
*D7
340
0
  0
BLOCK_RECORD
  5
53C
330
1
100
AcDbSymbolTableRecord
100
AcDbBlockTableRecord
  2
*D8
340
0
  0
BLOCK_RECORD
  5
5A1
330
1
100
AcDbSymbolTableRecord
100
AcDbBlockTableRecord
  2
*D10
340
0
  0
BLOCK_RECORD
  5
5BD
330
1
100
AcDbSymbolTableRecord
100
AcDbBlockTableRecord
  2
*D11
340
0
  0
BLOCK_RECORD
  5
5F9
330
1
100
AcDbSymbolTableRecord
100
AcDbBlockTableRecord
  2
*D12
340
0
  0
BLOCK_RECORD
  5
605
330
1
100
AcDbSymbolTableRecord
100
AcDbBlockTableRecord
  2
*D13
340
0
  0
BLOCK_RECORD
  5
7EF
330
1
100
AcDbSymbolTableRecord
100
AcDbBlockTableRecord
  2
*X15
340
0
102
{BLKREFS
331
10A2
102
}
  0
BLOCK_RECORD
  5
7F6
330
1
100
AcDbSymbolTableRecord
100
AcDbBlockTableRecord
  2
*X16
340
0
102
{BLKREFS
331
10A9
102
}
  0
BLOCK_RECORD
  5
1378
330
1
100
AcDbSymbolTableRecord
100
AcDbBlockTableRecord
  2
*U18
340
0
  0
BLOCK_RECORD
  5
138D
330
1
100
AcDbSymbolTableRecord
100
AcDbBlockTableRecord
  2
*U19
340
0
  0
ENDTAB
  0
ENDSEC
  0
SECTION
  2
BLOCKS
  0
BLOCK
  5
20
330
1F
100
AcDbEntity
  8
0
100
AcDbBlockBegin
  2
*Model_Space
 70
     0
 10
0.0
 20
0.0
 30
0.0
  3
*Model_Space
  1

  0
ENDBLK
  5
21
330
1F
100
AcDbEntity
  8
0
100
AcDbBlockEnd
  0
BLOCK
  5
52
330
50
100
AcDbEntity
 67
     1
  8
0
100
AcDbBlockBegin
  2
*Paper_Space
 70
     0
 10
0.0
 20
0.0
 30
0.0
  3
*Paper_Space
  1

  0
ENDBLK
  5
53
330
50
100
AcDbEntity
 67
     1
  8
0
100
AcDbBlockEnd
  0
BLOCK
  5
57
330
55
100
AcDbEntity
 67
     1
  8
0
100
AcDbBlockBegin
  2
*Paper_Space0
 70
     0
 10
0.0
 20
0.0
 30
0.0
  3
*Paper_Space0
  1

  0
ENDBLK
  5
58
330
55
100
AcDbEntity
 67
     1
  8
0
100
AcDbBlockEnd
  0
BLOCK
  5
136
330
134
100
AcDbEntity
  8
0
100
AcDbBlockBegin
  2
GENAXEH
 70
     0
 10
0.0
 20
0.0
 30
0.0
  3
GENAXEH
  1

  0
LINE
  5
135
330
134
100
AcDbEntity
  8
0
100
AcDbLine
 10
-1.0
 20
0.0
 30
0.0
 11
1.0
 21
0.0
 31
0.0
  0
ENDBLK
  5
137
330
134
100
AcDbEntity
  8
0
100
AcDbBlockEnd
  0
BLOCK
  5
53A
330
530
100
AcDbEntity
  8
0
100
AcDbBlockBegin
  2
*D7
 70
     1
 10
0.0
 20
0.0
 30
0.0
  3
*D7
  1

  0
LINE
  5
1311
330
530
100
AcDbEntity
  8
5
370
    -2
100
AcDbLine
 10
359.8751175951472
 20
466.5936989638022
 30
0.0
 11
359.8751175951472
 21
545.2566490076693
 31
0.0
  0
LINE
  5
1312
330
530
100
AcDbEntity
  8
5
370
    -2
100
AcDbLine
 10
69.87511759514723
 20
466.5936989638022
 30
0.0
 11
69.87511759514723
 21
545.2566490076693
 31
0.0
  0
LINE
  5
1313
330
530
100
AcDbEntity
  8
5
370
    -2
100
AcDbLine
 10
352.8751175951472
 20
544.2566490076693
 30
0.0
 11
76.87511759514723
 21
544.2566490076693
 31
0.0
  0
SOLID
  5
1314
330
530
100
AcDbEntity
  8
5
100
AcDbTrace
 10
352.8751175951472
 20
545.4233156743359
 30
0.0
 11
352.8751175951472
 21
543.0899823410027
 31
0.0
 12
359.8751175951472
 22
544.2566490076693
 32
0.0
 13
359.8751175951472
 23
544.2566490076693
 33
0.0
  0
SOLID
  5
1315
330
530
100
AcDbEntity
  8
5
100
AcDbTrace
 10
76.87511759514723
 20
545.4233156743359
 30
0.0
 11
76.87511759514723
 21
543.0899823410027
 31
0.0
 12
69.87511759514723
 22
544.2566490076693
 32
0.0
 13
69.87511759514723
 23
544.2566490076693
 33
0.0
  0
MTEXT
  5
1316
330
530
100
AcDbEntity
  8
5
 62
     2
100
AcDbMText
 10
214.8751175951472
 20
549.8576332596378
 30
0.0
 40
10.0
 41
0.0
 71
     5
 72
     1
  1
%%c290
 73
     1
 44
1.0
1001
ACAD
1000
MTEXTBEGIN
1070
    73
1070
     1
1070
    44
1040
1.0
1070
    74
1070
     0
1000
MTEXTEND
  0
POINT
  5
1317
330
530
100
AcDbEntity
  8
DEFPOINTS
 62
     0
100
AcDbPoint
 10
359.8751175951472
 20
465.5936989638022
 30
0.0
  0
POINT
  5
1318
330
530
100
AcDbEntity
  8
DEFPOINTS
 62
     0
100
AcDbPoint
 10
69.87511759514723
 20
465.5936989638022
 30
0.0
  0
POINT
  5
1319
330
530
100
AcDbEntity
  8
DEFPOINTS
 62
     0
100
AcDbPoint
 10
69.87511759514723
 20
544.2566490076693
 30
0.0
  0
ENDBLK
  5
53B
330
530
100
AcDbEntity
  8
0
100
AcDbBlockEnd
  0
BLOCK
  5
546
330
53C
100
AcDbEntity
  8
0
100
AcDbBlockBegin
  2
*D8
 70
     1
 10
0.0
 20
0.0
 30
0.0
  3
*D8
  1

  0
LINE
  5
131A
330
53C
100
AcDbEntity
  8
5
370
    -2
100
AcDbLine
 10
289.8751175951472
 20
478.5936989638022
 30
0.0
 11
289.8751175951472
 21
526.6134505192336
 31
0.0
  0
LINE
  5
131B
330
53C
100
AcDbEntity
  8
5
370
    -2
100
AcDbLine
 10
139.8751175951472
 20
478.5936989638022
 30
0.0
 11
139.8751175951472
 21
526.6134505192336
 31
0.0
  0
LINE
  5
131C
330
53C
100
AcDbEntity
  8
5
370
    -2
100
AcDbLine
 10
282.8751175951472
 20
525.6134505192336
 30
0.0
 11
146.8751175951472
 21
525.6134505192336
 31
0.0
  0
SOLID
  5
131D
330
53C
100
AcDbEntity
  8
5
100
AcDbTrace
 10
282.8751175951472
 20
526.7801171859002
 30
0.0
 11
282.8751175951472
 21
524.446783852567
 31
0.0
 12
289.8751175951472
 22
525.6134505192336
 32
0.0
 13
289.8751175951472
 23
525.6134505192336
 33
0.0
  0
SOLID
  5
131E
330
53C
100
AcDbEntity
  8
5
100
AcDbTrace
 10
146.8751175951472
 20
526.7801171859002
 30
0.0
 11
146.8751175951472
 21
524.446783852567
 31
0.0
 12
139.8751175951472
 22
525.6134505192336
 32
0.0
 13
139.8751175951472
 23
525.6134505192336
 33
0.0
  0
MTEXT
  5
131F
330
53C
100
AcDbEntity
  8
5
 62
     2
100
AcDbMText
 10
214.8751175951472
 20
531.2134505192337
 30
0.0
 40
10.0
 41
0.0
 71
     5
 72
     1
  1
%%c150
 73
     1
 44
1.0
1001
ACAD
1000
MTEXTBEGIN
1070
    73
1070
     1
1070
    44
1040
1.0
1070
    74
1070
     0
1000
MTEXTEND
  0
POINT
  5
1320
330
53C
100
AcDbEntity
  8
DEFPOINTS
 62
     0
100
AcDbPoint
 10
289.8751175951472
 20
477.5936989638022
 30
0.0
  0
POINT
  5
1321
330
53C
100
AcDbEntity
  8
DEFPOINTS
 62
     0
100
AcDbPoint
 10
139.8751175951472
 20
477.5936989638022
 30
0.0
  0
POINT
  5
1322
330
53C
100
AcDbEntity
  8
DEFPOINTS
 62
     0
100
AcDbPoint
 10
139.8751175951472
 20
525.6134505192336
 30
0.0
  0
ENDBLK
  5
547
330
53C
100
AcDbEntity
  8
0
100
AcDbBlockEnd
  0
BLOCK
  5
5AB
330
5A1
100
AcDbEntity
  8
0
100
AcDbBlockBegin
  2
*D10
 70
     1
 10
0.0
 20
0.0
 30
0.0
  3
*D10
  1

  0
LINE
  5
136E
330
5A1
100
AcDbEntity
  8
5
370
    -2
100
AcDbLine
 10
72.03082855734123
 20
471.5936989638022
 30
0.0
 11
35.10059740449585
 21
471.5936989638022
 31
0.0
  0
LINE
  5
136F
330
5A1
100
AcDbEntity
  8
5
370
    -2
100
AcDbLine
 10
213.8751175951473
 20
383.6220767116028
 30
0.0
 11
35.10059740449583
 21
383.6220767116028
 31
0.0
  0
LINE
  5
1370
330
5A1
100
AcDbEntity
  8
5
370
    -2
100
AcDbLine
 10
36.10059740449585
 20
464.5936989638022
 30
0.0
 11
36.10059740449583
 21
390.6220767116028
 31
0.0
  0
SOLID
  5
1371
330
5A1
100
AcDbEntity
  8
5
100
AcDbTrace
 10
34.93393073782919
 20
464.5936989638022
 30
0.0
 11
37.26726407116252
 21
464.5936989638022
 31
0.0
 12
36.10059740449585
 22
471.5936989638022
 32
0.0
 13
36.10059740449585
 23
471.5936989638022
 33
0.0
  0
SOLID
  5
1372
330
5A1
100
AcDbEntity
  8
5
100
AcDbTrace
 10
34.93393073782917
 20
390.6220767116028
 30
0.0
 11
37.26726407116249
 21
390.6220767116028
 31
0.0
 12
36.10059740449583
 22
383.6220767116028
 32
0.0
 13
36.10059740449583
 23
383.6220767116028
 33
0.0
  0
MTEXT
  5
1373
330
5A1
100
AcDbEntity
  8
5
 62
     2
100
AcDbMText
 10
30.50059740449577
 20
427.6078878377025
 30
0.0
 40
10.0
 41
0.0
 71
     5
 72
     1
  1
87
 11
0.0000000000000001
 21
1.0
 31
0.0
 73
     1
 44
1.0
1001
ACAD
1000
MTEXTBEGIN
1070
    73
1070
     1
1070
    44
1040
1.0
1070
    74
1070
     0
1000
MTEXTEND
  0
POINT
  5
1374
330
5A1
100
AcDbEntity
  8
DEFPOINTS
 62
     0
100
AcDbPoint
 10
73.03082855734124
 20
471.5936989638022
 30
0.0
  0
POINT
  5
1375
330
5A1
100
AcDbEntity
  8
DEFPOINTS
 62
     0
100
AcDbPoint
 10
214.8751175951472
 20
383.6220767116028
 30
0.0
  0
POINT
  5
1376
330
5A1
100
AcDbEntity
  8
DEFPOINTS
 62
     0
100
AcDbPoint
 10
36.10059740449583
 20
383.6220767116028
 30
0.0
  0
ENDBLK
  5
5AC
330
5A1
100
AcDbEntity
  8
0
100
AcDbBlockEnd
  0
BLOCK
  5
5C7
330
5BD
100
AcDbEntity
  8
0
100
AcDbBlockBegin
  2
*D11
 70
     1
 10
0.0
 20
0.0
 30
0.0
  3
*D11
  1

  0
LINE
  5
135A
330
5BD
100
AcDbEntity
  8
5
370
    -2
100
AcDbLine
 10
441.9022866406431
 20
456.8067484392454
 30
0.0
 11
497.7515193705475
 21
455.4938993016387
 31
0.0
  0
LINE
  5
135B
330
5BD
100
AcDbEntity
  8
5
370
    -2
100
AcDbLine
 10
439.8473961984753
 20
378.3336484286644
 30
0.0
 11
495.9067343889248
 21
377.0158603373927
 31
0.0
  0
LINE
  5
135C
330
5BD
100
AcDbEntity
  8
5
370
    -2
100
AcDbLine
 10
496.5872918372037
 20
448.5193330606023
 30
0.0
 11
495.0715142734448
 21
384.0374276381238
 31
0.0
  0
SOLID
  5
135D
330
5BD
100
AcDbEntity
  8
5
100
AcDbTrace
 10
495.4209473753897
 20
448.5467503454243
 30
0.0
 11
497.7536362990177
 21
448.4919157757803
 31
0.0
 12
496.7517955461355
 22
455.517399831486
 32
0.0
 13
496.7517955461355
 23
455.517399831486
 33
0.0
  0
SOLID
  5
135E
330
5BD
100
AcDbEntity
  8
5
100
AcDbTrace
 10
493.9051698116307
 20
384.0648449229458
 30
0.0
 11
496.2378587352588
 21
384.0100103533019
 31
0.0
 12
494.9070105645128
 22
377.0393608672401
 32
0.0
 13
494.9070105645128
 23
377.0393608672401
 33
0.0
  0
MTEXT
  5
135F
330
5BD
100
AcDbEntity
  8
5
 62
     2
100
AcDbMText
 10
490.1938857326781
 20
414.8332669601688
 30
0.0
 40
10.0
 41
0.0
 71
     5
 72
     1
  1
78
 11
0.0235005298474107
 21
0.9997238244119678
 31
0.0
 73
     1
 44
1.0
1001
ACAD
1000
MTEXTBEGIN
1070
    73
1070
     1
1070
    44
1040
1.0
1070
    74
1070
     0
1000
MTEXTEND
  0
POINT
  5
1360
330
5BD
100
AcDbEntity
  8
DEFPOINTS
 62
     0
100
AcDbPoint
 10
440.9025628162311
 20
456.8302489690927
 30
0.0
  0
POINT
  5
1361
330
5BD
100
AcDbEntity
  8
DEFPOINTS
 62
     0
100
AcDbPoint
 10
438.8476723740633
 20
378.3571489585118
 30
0.0
  0
POINT
  5
1362
330
5BD
100
AcDbEntity
  8
DEFPOINTS
 62
     0
100
AcDbPoint
 10
494.9070105645128
 20
377.0393608672401
 30
0.0
  0
ENDBLK
  5
5C8
330
5BD
100
AcDbEntity
  8
0
100
AcDbBlockEnd
  0
BLOCK
  5
603
330
5F9
100
AcDbEntity
  8
0
100
AcDbBlockBegin
  2
*D12
 70
     1
 10
0.0
 20
0.0
 30
0.0
  3
*D12
  1

  0
LINE
  5
1350
330
5F9
100
AcDbEntity
  8
5
370
    -2
100
AcDbLine
 10
357.7194066329532
 20
471.5936989638022
 30
0.0
 11
468.3227567237626
 21
471.5936989638022
 31
0.0
  0
LINE
  5
1351
330
5F9
100
AcDbEntity
  8
5
370
    -2
100
AcDbLine
 10
440.8751178296817
 20
417.5937079203114
 30
0.0
 11
468.3227567237626
 21
417.5937079203114
 31
0.0
  0
LINE
  5
1352
330
5F9
100
AcDbEntity
  8
5
370
    -2
100
AcDbLine
 10
467.3227567237626
 20
464.5936989638022
 30
0.0
 11
467.3227567237626
 21
424.5937079203114
 31
0.0
  0
SOLID
  5
1353
330
5F9
100
AcDbEntity
  8
5
100
AcDbTrace
 10
466.1560900570959
 20
464.5936989638022
 30
0.0
 11
468.4894233904293
 21
464.5936989638022
 31
0.0
 12
467.3227567237626
 22
471.5936989638022
 32
0.0
 13
467.3227567237626
 23
471.5936989638022
 33
0.0
  0
SOLID
  5
1354
330
5F9
100
AcDbEntity
  8
5
100
AcDbTrace
 10
466.1560900570959
 20
424.5937079203114
 30
0.0
 11
468.4894233904293
 21
424.5937079203114
 31
0.0
 12
467.3227567237626
 22
417.5937079203114
 32
0.0
 13
467.3227567237626
 23
417.5937079203114
 33
0.0
  0
MTEXT
  5
1355
330
5F9
100
AcDbEntity
  8
5
 62
     2
100
AcDbMText
 10
461.7227567237624
 20
436.592569884383
 30
0.0
 40
10.0
 41
0.0
 71
     5
 72
     1
  1
54
 11
0.0000000000000001
 21
1.0
 31
0.0
 73
     1
 44
1.0
1001
ACAD
1000
MTEXTBEGIN
1070
    73
1070
     1
1070
    44
1040
1.0
1070
    74
1070
     0
1000
MTEXTEND
  0
POINT
  5
1356
330
5F9
100
AcDbEntity
  8
DEFPOINTS
 62
     0
100
AcDbPoint
 10
356.7194066329532
 20
471.5936989638022
 30
0.0
  0
POINT
  5
1357
330
5F9
100
AcDbEntity
  8
DEFPOINTS
 62
     0
100
AcDbPoint
 10
439.8751178296818
 20
417.5937079203114
 30
0.0
  0
POINT
  5
1358
330
5F9
100
AcDbEntity
  8
DEFPOINTS
 62
     0
100
AcDbPoint
 10
467.3227567237626
 20
417.5937079203114
 30
0.0
  0
ENDBLK
  5
604
330
5F9
100
AcDbEntity
  8
0
100
AcDbBlockEnd
  0
BLOCK
  5
60F
330
605
100
AcDbEntity
  8
0
100
AcDbBlockBegin
  2
*D13
 70
     1
 10
0.0
 20
0.0
 30
0.0
  3
*D13
  1

  0
LINE
  5
1335
330
605
100
AcDbEntity
  8
5
370
    -2
100
AcDbLine
 10
439.8751178296818
 20
416.5937079203114
 30
0.0
 11
439.8751178296818
 21
340.7590393312499
 31
0.0
  0
LINE
  5
1336
330
605
100
AcDbEntity
  8
5
370
    -2
100
AcDbLine
 10
214.8751175951472
 20
382.6220767116027
 30
0.0
 11
214.8751175951472
 21
340.7590393312499
 31
0.0
  0
LINE
  5
1337
330
605
100
AcDbEntity
  8
5
370
    -2
100
AcDbLine
 10
432.8751178296817
 20
341.75903933125
 30
0.0
 11
221.8751175951472
 21
341.75903933125
 31
0.0
  0
SOLID
  5
1338
330
605
100
AcDbEntity
  8
5
100
AcDbTrace
 10
432.8751178296817
 20
342.9257059979166
 30
0.0
 11
432.8751178296817
 21
340.5923726645832
 31
0.0
 12
439.8751178296818
 22
341.75903933125
 32
0.0
 13
439.8751178296818
 23
341.75903933125
 33
0.0
  0
SOLID
  5
1339
330
605
100
AcDbEntity
  8
5
100
AcDbTrace
 10
221.8751175951472
 20
342.9257059979166
 30
0.0
 11
221.8751175951472
 21
340.5923726645832
 31
0.0
 12
214.8751175951472
 22
341.75903933125
 32
0.0
 13
214.8751175951472
 23
341.75903933125
 33
0.0
  0
MTEXT
  5
133A
330
605
100
AcDbEntity
  8
5
 62
     2
100
AcDbMText
 10
327.3751177124145
 20
347.3600235832184
 30
0.0
 40
10.0
 41
0.0
 71
     5
 72
     1
  1
225
 73
     1
 44
1.0
1001
ACAD
1000
MTEXTBEGIN
1070
    73
1070
     1
1070
    44
1040
1.0
1070
    74
1070
     0
1000
MTEXTEND
  0
POINT
  5
133B
330
605
100
AcDbEntity
  8
DEFPOINTS
 62
     0
100
AcDbPoint
 10
439.8751178296818
 20
417.5937079203114
 30
0.0
  0
POINT
  5
133C
330
605
100
AcDbEntity
  8
DEFPOINTS
 62
     0
100
AcDbPoint
 10
214.8751175951472
 20
383.6220767116028
 30
0.0
  0
POINT
  5
133D
330
605
100
AcDbEntity
  8
DEFPOINTS
 62
     0
100
AcDbPoint
 10
214.8751175951472
 20
341.75903933125
 30
0.0
  0
ENDBLK
  5
610
330
605
100
AcDbEntity
  8
0
100
AcDbBlockEnd
  0
BLOCK
  5
7F0
330
7EF
100
AcDbEntity
  8
0
100
AcDbBlockBegin
  2
*X15
 70
     1
 10
0.0
 20
0.0
 30
0.0
  3
*X15
  1

  0
LINE
  5
7F1
330
7EF
100
AcDbEntity
  8
8
100
AcDbLine
 10
305.438
 20
364.986
 30
0.0
 11
311.866
 21
371.414
 31
0.0
  0
LINE
  5
7F2
330
7EF
100
AcDbEntity
  8
8
100
AcDbLine
 10
300.953
 20
364.991
 30
0.0
 11
306.992
 21
371.031
 31
0.0
  0
LINE
  5
7F3
330
7EF
100
AcDbEntity
  8
8
100
AcDbLine
 10
296.584
 20
365.112
 30
0.0
 11
302.502
 21
371.031
 31
0.0
  0
LINE
  5
7F4
330
7EF
100
AcDbEntity
  8
8
100
AcDbLine
 10
295.392
 20
368.41
 30
0.0
 11
298.012
 21
371.031
 31
0.0
  0
ENDBLK
  5
7F5
330
7EF
100
AcDbEntity
  8
0
100
AcDbBlockEnd
  0
BLOCK
  5
7F7
330
7F6
100
AcDbEntity
  8
0
100
AcDbBlockBegin
  2
*X16
 70
     1
 10
0.0
 20
0.0
 30
0.0
  3
*X16
  1

  0
LINE
  5
7F8
330
7F6
100
AcDbEntity
  8
8
100
AcDbLine
 10
349.919
 20
364.566
 30
0.0
 11
356.195
 21
370.842
 31
0.0
  0
LINE
  5
7F9
330
7F6
100
AcDbEntity
  8
8
100
AcDbLine
 10
345.72
 20
364.857
 30
0.0
 11
351.8930000000001
 21
371.03
 31
0.0
  0
LINE
  5
7FA
330
7F6
100
AcDbEntity
  8
8
100
AcDbLine
 10
341.694
 20
365.321
 30
0.0
 11
347.403
 21
371.03
 31
0.0
  0
LINE
  5
7FB
330
7F6
100
AcDbEntity
  8
8
100
AcDbLine
 10
337.033
 20
365.15
 30
0.0
 11
342.913
 21
371.03
 31
0.0
  0
LINE
  5
7FC
330
7F6
100
AcDbEntity
  8
8
100
AcDbLine
 10
332.159
 20
364.767
 30
0.0
 11
338.423
 21
371.03
 31
0.0
  0
LINE
  5
7FD
330
7F6
100
AcDbEntity
  8
8
100
AcDbLine
 10
327.946
 20
365.043
 30
0.0
 11
333.933
 21
371.03
 31
0.0
  0
LINE
  5
7FE
330
7F6
100
AcDbEntity
  8
8
100
AcDbLine
 10
325.3
 20
366.887
 30
0.0
 11
329.4430000000001
 21
371.031
 31
0.0
  0
LINE
  5
7FF
330
7F6
100
AcDbEntity
  8
8
100
AcDbLine
 10
324.6090000000001
 20
370.6869999999999
 30
0.0
 11
326.851
 21
372.929
 31
0.0
  0
ENDBLK
  5
800
330
7F6
100
AcDbEntity
  8
0
100
AcDbBlockEnd
  0
BLOCK
  5
138A
330
1378
100
AcDbEntity
  8
0
100
AcDbBlockBegin
  2
*U18
 70
     1
 10
0.0
 20
0.0
 30
0.0
  3
*U18
  1

  0
ARC
  5
1379
330
1378
100
AcDbEntity
  8
AM_0N
100
AcDbCircle
 10
-320.5057425951475
 20
483.2574013491145
 30
0.0
 40
3.318843022839333
210
0.0
220
0.0
230
-1.0
100
AcDbArc
 50
55.56153059526803
 51
115.5615305952687
  0
ARC
  5
137A
330
1378
100
AcDbEntity
  8
AM_0N
100
AcDbCircle
 10
-320.5057425951475
 20
484.2611127985776
 30
0.0
 40
3.318843022839333
210
0.0
220
0.0
230
-1.0
100
AcDbArc
 50
244.4384694047314
 51
304.438469404732
  0
LINE
  5
137B
330
1378
100
AcDbEntity
  8
AM_0N
100
AcDbLine
 10
320.6251175951475
 20
487.0092570738461
 30
0.0
 11
309.1251175951474
 21
487.0092570738461
 31
0.0
  0
LINE
  5
137C
330
1378
100
AcDbEntity
  8
AM_0N
100
AcDbLine
 10
320.6251175951475
 20
480.5092570738461
 30
0.0
 11
309.1251175951474
 21
480.5092570738461
 31
0.0
  0
ARC
  5
137D
330
1378
100
AcDbEntity
  8
AM_0N
100
AcDbCircle
 10
-309.2444925951475
 20
483.2574013491145
 30
0.0
 40
3.318843022839363
210
0.0
220
0.0
230
-1.0
100
AcDbArc
 50
64.43846940473168
 51
124.4384694047317
  0
ARC
  5
137E
330
1378
100
AcDbEntity
  8
AM_0N
100
AcDbCircle
 10
-314.8751175951475
 20
474.1733928749093
 30
0.0
 40
12.4028514970445
210
0.0
220
0.0
230
-1.0
100
AcDbArc
 50
72.38303115961318
 51
107.6169688403868
  0
ARC
  5
137F
330
1378
100
AcDbEntity
  8
AM_0N
100
AcDbCircle
 10
-314.8751175951475
 20
493.3451212727828
 30
0.0
 40
12.40285149704452
210
0.0
220
0.0
230
-1.0
100
AcDbArc
 50
252.3830311596132
 51
287.6169688403867
  0
ARC
  5
1380
330
1378
100
AcDbEntity
  8
AM_0N
100
AcDbCircle
 10
-309.2444925951475
 20
484.2611127985776
 30
0.0
 40
3.318843022839333
210
0.0
220
0.0
230
-1.0
100
AcDbArc
 50
235.5615305952681
 51
295.5615305952702
  0
LINE
  5
1381
330
1378
100
AcDbEntity
  8
AM_0N
100
AcDbLine
 10
307.3676175951473
 20
485.9945639757452
 30
0.0
 11
309.1251175951474
 21
487.0092570738461
 31
0.0
  0
LINE
  5
1382
330
1378
100
AcDbEntity
  8
AM_7N
  6
AM_DIN_G_W050x2
100
AcDbLine
 10
314.8751175951475
 20
477.5092570738461
 30
0.0
 11
314.8751175951475
 21
490.0092570738461
 31
0.0
  0
LINE
  5
1383
330
1378
100
AcDbEntity
  8
AM_0N
100
AcDbLine
 10
318.6288675951473
 20
481.5239501719467
 30
0.0
 11
318.6288675951473
 21
485.9945639757452
 31
0.0
  0
LINE
  5
1384
330
1378
100
AcDbEntity
  8
AM_0N
100
AcDbLine
 10
307.3676175951473
 20
481.5239501719467
 30
0.0
 11
309.1251175951474
 21
480.5092570738461
 31
0.0
  0
LINE
  5
1385
330
1378
100
AcDbEntity
  8
AM_0N
100
AcDbLine
 10
307.3676175951473
 20
481.5239501719467
 30
0.0
 11
307.3676175951473
 21
485.9945639757452
 31
0.0
  0
LINE
  5
1386
330
1378
100
AcDbEntity
  8
AM_0N
100
AcDbLine
 10
311.1213675951474
 20
481.5239501719467
 30
0.0
 11
311.1213675951474
 21
485.9945639757452
 31
0.0
  0
LINE
  5
1387
330
1378
100
AcDbEntity
  8
AM_0N
100
AcDbLine
 10
322.3826175951474
 20
485.9945639757452
 30
0.0
 11
320.6251175951475
 21
487.0092570738461
 31
0.0
  0
LINE
  5
1388
330
1378
100
AcDbEntity
  8
AM_0N
100
AcDbLine
 10
322.3826175951474
 20
481.5239501719467
 30
0.0
 11
320.6251175951475
 21
480.5092570738461
 31
0.0
  0
LINE
  5
1389
330
1378
100
AcDbEntity
  8
AM_0N
100
AcDbLine
 10
322.3826175951474
 20
481.5239501719467
 30
0.0
 11
322.3826175951474
 21
485.9945639757452
 31
0.0
  0
ENDBLK
  5
138B
330
1378
100
AcDbEntity
  8
0
100
AcDbBlockEnd
  0
BLOCK
  5
13AC
330
138D
100
AcDbEntity
  8
0
100
AcDbBlockBegin
  2
*U19
 70
     1
 10
0.0
 20
0.0
 30
0.0
  3
*U19
  1

  0
ARC
  5
138E
330
138D
100
AcDbEntity
  8
AM_3N
  6
AM_DIN_F_W050x2
100
AcDbCircle
 10
-314.8793237962896
 20
492.3185906110509
 30
0.0
 40
3.464999999999999
210
0.0
220
0.0
230
-1.0
100
AcDbArc
 50
250.5287793655092
 51
289.4712206344904
  0
ARC
  5
138F
330
138D
100
AcDbEntity
  8
AM_3N
  6
AM_DIN_F_W050x2
100
AcDbCircle
 10
-313.1468237962897
 20
489.7941531126451
 30
0.0
 40
0.9405625015943439
210
0.0
220
0.0
230
-1.0
100
AcDbArc
 50
232.1211205082829
 51
292.1211205082801
  0
ARC
  5
1390
330
138D
100
AcDbEntity
  8
AM_3N
  6
AM_DIN_F_W050x2
100
AcDbCircle
 10
-316.6118237962896
 20
489.7941531126451
 30
0.0
 40
0.9405625015943439
210
0.0
220
0.0
230
-1.0
100
AcDbArc
 50
247.8788794917199
 51
307.8788794917171
  0
LINE
  5
1391
330
138D
100
AcDbEntity
  8
AM_0N
100
AcDbLine
 10
318.8793237962898
 20
493.2849447819689
 30
0.0
 11
318.8793237962898
 21
487.009257073846
 31
0.0
  0
LINE
  5
1392
330
138D
100
AcDbEntity
  8
AM_9N
100
AcDbLine
 10
318.8793237962898
 20
487.009257073846
 30
0.0
 11
318.8793237962898
 21
480.5092570738461
 31
0.0
  0
LINE
  5
1393
330
138D
100
AcDbEntity
  8
AM_0N
100
AcDbLine
 10
318.8793237962898
 20
480.5092570738461
 30
0.0
 11
318.8793237962898
 21
460.3017572819689
 31
0.0
  0
LINE
  5
1394
330
138D
100
AcDbEntity
  8
AM_0N
100
AcDbLine
 10
310.8793237962895
 20
460.3017572819689
 30
0.0
 11
310.8793237962895
 21
480.5092570738461
 31
0.0
  0
LINE
  5
1395
330
138D
100
AcDbEntity
  8
AM_9N
100
AcDbLine
 10
310.8793237962895
 20
480.5092570738461
 30
0.0
 11
310.8793237962895
 21
487.009257073846
 31
0.0
  0
LINE
  5
1396
330
138D
100
AcDbEntity
  8
AM_0N
100
AcDbLine
 10
310.8793237962895
 20
487.009257073846
 30
0.0
 11
310.8793237962895
 21
493.2849447819689
 31
0.0
  0
LINE
  5
1397
330
138D
100
AcDbEntity
  8
AM_4N
100
AcDbLine
 10
318.1125112962898
 20
459.534944781969
 30
0.0
 11
318.1125112962898
 21
480.5092570738461
 31
0.0
  0
LINE
  5
1398
330
138D
100
AcDbEntity
  8
AM_9N
100
AcDbLine
 10
318.1125112962898
 20
480.5092570738461
 30
0.0
 11
318.1125112962898
 21
487.009257073846
 31
0.0
  0
LINE
  5
1399
330
138D
100
AcDbEntity
  8
AM_4N
100
AcDbLine
 10
318.1125112962898
 20
487.009257073846
 30
0.0
 11
318.1125112962898
 21
494.051757281969
 31
0.0
  0
LINE
  5
139A
330
138D
100
AcDbEntity
  8
AM_4N
100
AcDbLine
 10
311.6461362962896
 20
459.534944781969
 30
0.0
 11
311.6461362962896
 21
480.5092570738461
 31
0.0
  0
LINE
  5
139B
330
138D
100
AcDbEntity
  8
AM_9N
100
AcDbLine
 10
311.6461362962896
 20
480.5092570738461
 30
0.0
 11
311.6461362962896
 21
487.009257073846
 31
0.0
  0
LINE
  5
139C
330
138D
100
AcDbEntity
  8
AM_4N
100
AcDbLine
 10
311.6461362962896
 20
487.009257073846
 30
0.0
 11
311.6461362962896
 21
494.051757281969
 31
0.0
  0
LINE
  5
139D
330
138D
100
AcDbEntity
  8
AM_7N
  6
AM_DIN_G_W050x2
100
AcDbLine
 10
314.8793237962896
 20
497.051757281969
 30
0.0
 11
314.8793237962896
 21
456.051757281969
 31
0.0
  0
LINE
  5
139E
330
138D
100
AcDbEntity
  8
AM_0N
100
AcDbLine
 10
317.6293237962898
 20
459.051757281969
 30
0.0
 11
318.8793237962898
 21
460.3017572819689
 31
0.0
  0
LINE
  5
139F
330
138D
100
AcDbEntity
  8
AM_0N
100
AcDbLine
 10
318.8793237962898
 20
460.3017572819689
 30
0.0
 11
310.8793237962895
 21
460.3017572819689
 31
0.0
  0
LINE
  5
13A0
330
138D
100
AcDbEntity
  8
AM_0N
100
AcDbLine
 10
312.1293237962896
 20
459.051757281969
 30
0.0
 11
310.8793237962895
 21
460.3017572819689
 31
0.0
  0
LINE
  5
13A1
330
138D
100
AcDbEntity
  8
AM_0N
100
AcDbLine
 10
317.6293237962898
 20
459.051757281969
 30
0.0
 11
312.1293237962896
 21
459.051757281969
 31
0.0
  0
LINE
  5
13A2
330
138D
100
AcDbEntity
  8
AM_0N
100
AcDbLine
 10
318.8793237962898
 20
493.2849447819689
 30
0.0
 11
310.8793237962895
 21
493.2849447819689
 31
0.0
  0
LINE
  5
13A3
330
138D
100
AcDbEntity
  8
AM_0N
100
AcDbLine
 10
318.8793237962898
 20
493.2849447819689
 30
0.0
 11
318.1125112962898
 21
494.051757281969
 31
0.0
  0
LINE
  5
13A4
330
138D
100
AcDbEntity
  8
AM_3N
  6
AM_DIN_F_W050x2
100
AcDbLine
 10
317.1893237962897
 20
494.051757281969
 30
0.0
 11
317.1893237962897
 21
489.051757281969
 31
0.0
  0
LINE
  5
13A5
330
138D
100
AcDbEntity
  8
AM_3N
  6
AM_DIN_F_W050x2
100
AcDbLine
 10
312.5693237962896
 20
494.051757281969
 30
0.0
 11
312.5693237962896
 21
489.051757281969
 31
0.0
  0
LINE
  5
13A6
330
138D
100
AcDbEntity
  8
AM_3N
  6
AM_DIN_F_W050x2
100
AcDbLine
 10
316.0343237962897
 20
494.051757281969
 30
0.0
 11
316.0343237962897
 21
489.051757281969
 31
0.0
  0
LINE
  5
13A7
330
138D
100
AcDbEntity
  8
AM_3N
  6
AM_DIN_F_W050x2
100
AcDbLine
 10
313.7243237962896
 20
494.051757281969
 30
0.0
 11
313.7243237962896
 21
489.051757281969
 31
0.0
  0
LINE
  5
13A8
330
138D
100
AcDbEntity
  8
AM_0N
100
AcDbLine
 10
311.6461362962896
 20
494.051757281969
 30
0.0
 11
310.8793237962895
 21
493.2849447819689
 31
0.0
  0
LINE
  5
13A9
330
138D
100
AcDbEntity
  8
AM_3N
  6
AM_DIN_F_W050x2
100
AcDbLine
 10
317.1893237962897
 20
489.051757281969
 30
0.0
 11
314.8793237962896
 21
487.7180781601409
 31
0.0
  0
LINE
  5
13AA
330
138D
100
AcDbEntity
  8
AM_3N
  6
AM_DIN_F_W050x2
100
AcDbLine
 10
312.5693237962896
 20
489.051757281969
 30
0.0
 11
314.8793237962896
 21
487.7180781601409
 31
0.0
  0
LINE
  5
13AB
330
138D
100
AcDbEntity
  8
AM_0N
100
AcDbLine
 10
311.6461362962896
 20
494.051757281969
 30
0.0
 11
318.1125112962898
 21
494.051757281969
 31
0.0
  0
ENDBLK
  5
13AD
330
138D
100
AcDbEntity
  8
0
100
AcDbBlockEnd
  0
ENDSEC
  0
SECTION
  2
ENTITIES
  0
HATCH
  5
448
330
1F
100
AcDbEntity
  8
0
 62
     1
100
AcDbHatch
 10
0.0
 20
0.0
 30
0.0
210
0.0
220
0.0
230
1.0
  2
_USER
 70
     0
 71
     0
 91
        1
 92
        7
 72
     1
 73
     1
 93
       35
 10
146.8751175951472
 20
466.5222571420182
 42
0.0
 10
144.1371564915623
 20
466.5936989638022
 42
0.0
 10
143.8751175951472
 20
471.5936989638024
 42
0.0
 10
118.0751175951473
 20
471.5936989638022
 42
0.0
 10
111.6751175951472
 20
471.5936989638022
 42
0.0
 10
73.03082855734124
 20
471.5936989638022
 42
0.3639702342662018
 10
70.56880917481066
 20
469.5278194079695
 42
0.0
 10
69.87511759514723
 20
465.5936989638022
 42
0.0
 10
101.8489316735783
 20
465.5936989638024
 42
0.0
 10
101.8751175951472
 20
466.5936989638019
 42
0.0
 10
138.1223408454145
 20
466.5936989638022
 42
-0.2679491924311222
 10
140.2874043548754
 20
465.3436989638022
 42
0.0
 10
141.8751175951472
 20
462.5936989638025
 42
0.0
 10
142.5988230592024
 20
450.1517599606199
 42
0.284834077326731
 10
145.7550093256147
 20
445.9324176676647
 42
-0.3014181305336363
 10
148.9285087264463
 20
441.4081814025109
 42
0.0
 10
149.9199159293241
 20
403.5478677886336
 42
0.3813629927122561
 10
164.5199412449708
 20
388.0275837920919
 42
0.0
 10
214.8751175951422
 20
383.6220767116032
 42
0.0
 10
438.8476723740629
 20
378.3571489585116
 42
0.0
 10
438.9785575846712
 20
383.3554534964081
 42
0.0
 10
428.9812835121312
 20
383.5904596371012
 42
0.0
 10
420.9572872119783
 20
382.7788036420765
 42
0.0
 10
215.0966552470109
 20
387.617974028694
 42
0.0
 10
164.8685642159614
 20
392.0123625844589
 42
-0.3813629927122592
 10
153.9185452292265
 20
403.6525755818653
 42
0.0
 10
152.8771912765296
 20
443.4202786182415
 42
-0.4065662586440638
 10
154.2981733296285
 20
444.9574883428351
 42
0.0
 10
154.7297895076333
 20
444.9801083882269
 42
0.3989595459737203
 10
156.6251175951472
 20
446.9773674577362
 42
0.0
 10
156.6251175951472
 20
448.0325142867576
 42
0.429633905966768
 10
154.5204456826616
 20
450.0297733562669
 42
0.0
 10
154.7297895076351
 20
450.0297733562667
 42
0.0
 10
148.7704456826611
 20
450.3420893321179
 42
-0.3989595459737134
 10
146.875117595147
 20
452.3393484016272
 42
0.0
 97
        0
 75
     0
 76
     0
 52
45.0
 41
2.5
 77
     0
 78
     1
 53
45.0
 43
-829.3855561580155
 44
-918.0698875918901
 45
-1.767766952966368
 46
1.767766952966368
 79
     0
 47
0.4662688730296486
 98
        1
 10
144.3736300550001
 20
464.8556073311989
1001
ACAD
1010
0.0
1020
0.0
1030
0.0
  0
ARC
  5
449
330
1F
100
AcDbEntity
  8
0
100
AcDbCircle
 10
165.9144331289333
 20
403.9666989615597
 30
0.0
 40
16.0
100
AcDbArc
 50
181.5000000000027
 51
265.0000000000002
  0
LINE
  5
44A
330
1F
100
AcDbEntity
  8
0
100
AcDbLine
 10
139.8751175951472
 20
477.5936989638022
 30
0.0
 11
168.3059528607925
 21
477.5936989638022
 31
0.0
  0
LINE
  5
44B
330
1F
100
AcDbEntity
  8
0
100
AcDbLine
 10
69.87511759514723
 20
465.5936989638022
 30
0.0
 11
101.8489316735779
 21
465.5936989638024
 31
0.0
  0
LINE
  5
44C
330
1F
100
AcDbEntity
  8
0
100
AcDbLine
 10
73.03082855734124
 20
471.5936989638022
 30
0.0
 11
111.6751175951472
 21
471.5936989638022
 31
0.0
  0
ARC
  5
44D
330
1F
100
AcDbEntity
  8
0
100
AcDbCircle
 10
73.03082855734124
 20
469.0936989638022
 30
0.0
 40
2.5
100
AcDbArc
 50
90.0
 51
170.0000000000014
  0
LINE
  5
44E
330
1F
100
AcDbEntity
  8
0
100
AcDbLine
 10
69.87511759514723
 20
465.5936989638022
 30
0.0
 11
70.56880917481066
 21
469.5278194079695
 31
0.0
  0
LINE
  5
44F
330
1F
100
AcDbEntity
  8
0
100
AcDbLine
 10
101.8489316735779
 20
465.5936989638024
 30
0.0
 11
121.1132009731771
 21
465.5936989638027
 31
0.0
  0
LINE
  5
451
330
1F
100
AcDbEntity
  8
0
100
AcDbLine
 10
101.8751175951472
 20
466.5936989638019
 30
0.0
 11
138.1223408454145
 21
466.5936989638022
 31
0.0
  0
LINE
  5
452
330
1F
100
AcDbEntity
  8
0
100
AcDbLine
 10
101.8751175951472
 20
466.5936989638022
 30
0.0
 11
101.8489316735779
 21
465.5936989638022
 31
0.0
  0
LINE
  5
453
330
1F
100
AcDbEntity
  8
7A
100
AcDbLine
 10
133.9734181576525
 20
452.5936989638022
 30
0.0
 11
133.9734181576525
 21
473.1131277135565
 31
0.0
  0
ARC
  5
454
330
1F
100
AcDbEntity
  8
0
100
AcDbCircle
 10
135.6848609179219
 20
475.5936989638022
 30
0.0
 40
4.0
100
AcDbArc
 50
270.0
 51
355.0000000000002
  0
LINE
  5
455
330
1F
100
AcDbEntity
  8
0
100
AcDbLine
 10
143.5606709194489
 20
477.5936989638022
 30
0.0
 11
143.8751175951472
 21
471.5936989638022
 31
0.0
  0
LINE
  5
456
330
1F
100
AcDbEntity
  8
0
100
AcDbLine
 10
118.0751175951473
 20
471.5936989638022
 30
0.0
 11
143.8751175951472
 21
471.5936989638022
 31
0.0
  0
ARC
  5
457
330
1F
100
AcDbEntity
  8
0
100
AcDbCircle
 10
133.9734181576525
 20
461.5936989638022
 30
0.0
 40
9.0
100
AcDbArc
 50
193.6089606307836
 51
335.1308332784741
  0
ARC
  5
458
330
1F
100
AcDbEntity
  8
0
100
AcDbCircle
 10
138.1223408454145
 20
464.0936989638022
 30
0.0
 40
2.5
100
AcDbArc
 50
30.00000000000014
 51
90.0
  0
LINE
  5
459
330
1F
100
AcDbEntity
  8
0
100
AcDbLine
 10
143.8751175951472
 20
471.5936989638022
 30
0.0
 11
144.1371564915623
 21
466.5936989638022
 31
0.0
  0
LINE
  5
45A
330
1F
100
AcDbEntity
  8
0
100
AcDbLine
 10
141.8751175951472
 20
462.5936989638022
 30
0.0
 11
140.2874043548754
 21
465.3436989638022
 31
0.0
  0
LINE
  5
45B
330
1F
100
AcDbEntity
  8
0
100
AcDbLine
 10
139.8751175951472
 20
477.5936989638022
 30
0.0
 11
139.6696397102889
 21
475.2450759928116
 31
0.0
  0
HATCH
  5
45C
330
1F
100
AcDbEntity
  8
0
 62
     1
100
AcDbHatch
 10
0.0
 20
0.0
 30
0.0
210
0.0
220
0.0
230
1.0
  2
_USER
 70
     0
 71
     0
 91
        1
 92
        7
 72
     1
 73
     1
 93
       47
 10
310.8751175951472
 20
471.593698963802
 42
0.0
 10
297.1154868911723
 20
471.5936989638022
 42
0.0
 10
285.875117595147
 20
471.593698963802
 42
0.0
 10
285.6130786987318
 20
466.5936989638019
 42
0.0
 10
274.5859913013657
 20
466.305968355938
 42
0.4065932891474065
 10
273.1251175951472
 20
464.8064787317208
 42
0.0
 10
273.1251175951472
 20
462.8028851743787
 42
0.4296339059670802
 10
274.7036215295131
 20
461.3049408722471
 42
0.0
 10
274.5466136607869
 20
461.3049408722466
 42
0.0
 10
280.8751175951472
 20
460.9732780348637
 42
-0.4142135623731283
 10
282.8751175951474
 20
458.9732780348636
 42
0.0
 10
282.8751175951474
 20
452.3393484016272
 42
-0.3989595459737552
 10
280.9797895076333
 20
450.3420893321179
 42
0.0
 10
275.0204456826615
 20
450.0297733562669
 42
0.3989595459737863
 10
273.1251175951472
 20
448.0325142867576
 42
0.0
 10
273.1251175951472
 20
446.9773674577362
 42
0.4296339059664041
 10
275.2297895076298
 20
444.9801083882268
 42
0.0
 10
275.0204456826645
 20
444.9801083882269
 42
0.0
 10
276.9112945948502
 20
444.8810131957797
 42
0.0
 10
282.2661537781577
 20
445.0212351183682
 42
0.3897381926789365
 10
287.1268320521014
 20
449.7291794238086
 42
0.0
 10
287.7276389204118
 20
460.0582466749018
 42
-0.3972967219002712
 10
295.7141397451855
 20
467.5936989638022
 42
0.0
 10
297.9931745790131
 20
467.5936989638022
 42
-0.3800824376758766
 10
305.9376183513113
 20
460.5348754343905
 42
0.8885233166387365
 10
323.8126168389828
 20
460.53487543439
 42
-0.380082437675905
 10
331.7570606112815
 20
467.5936989638022
 42
0.0
 10
353.3630081082439
 20
467.5936989638022
 42
-0.3639702342661617
 10
355.8250274907743
 20
465.5278194079698
 42
0.0
 10
356.2611658351968
 20
463.0543559444096
 42
0.3565757165826147
 10
365.8474738822401
 20
454.7942644713231
 42
0.0
 10
422.8040231734405
 20
453.3028047387321
 42
0.0
 10
430.7751048249349
 20
452.0937318272939
 42
0.0
 10
440.7716780746918
 20
451.8319623442149
 42
0.0
 10
440.9025628162312
 20
456.8302489690928
 42
0.0
 10
365.9521816754715
 20
458.7928937712255
 42
0.0
 10
361.051655919588
 20
458.9212185543166
 42
0.0
 10
359.1814260154837
 20
469.5278194079695
 42
0.363970234266209
 10
356.7194066329532
 20
471.5936989638022
 42
0.0
 10
318.875117595147
 20
471.5936989638024
 42
0.0
 10
318.8751175951474
 20
461.5936989638022
 42
0.0
 10
318.0751175951472
 20
461.593698963802
 42
0.0
 10
318.0751175951472
 20
458.5936989638022
 42
0.0
 10
314.8800578707839
 20
456.9196824558424
 42
0.0
 10
311.6751175951471
 20
458.5936989638022
 42
0.0
 10
311.6751175951471
 20
461.5936989638022
 42
0.0
 10
310.8751175951472
 20
461.5936989638022
 42
0.0
 97
        0
 75
     0
 76
     0
 52
45.0
 41
2.5
 77
     0
 78
     1
 53
45.0
 43
-829.3855561580155
 44
-918.0698875918901
 45
-1.767766952966368
 46
1.767766952966368
 79
     0
 47
0.4662688730296486
 98
        1
 10
307.6712326716926
 20
467.6532194097659
1001
ACAD
1010
0.0
1020
0.0
1030
0.0
  0
LINE
  5
45D
330
1F
100
AcDbEntity
  8
0
100
AcDbLine
 10
422.8040231734391
 20
453.3028047387323
 30
0.0
 11
365.8474738822401
 21
454.7942644713231
 31
0.0
  0
LINE
  5
45E
330
1F
100
AcDbEntity
  8
0
100
AcDbLine
 10
420.9572872119771
 20
382.7788036420765
 30
0.0
 11
214.9691197145369
 21
387.6209720092505
 31
0.0
  0
LINE
  5
45F
330
1F
100
AcDbEntity
  8
0
100
AcDbLine
 10
438.8476723740634
 20
378.3571489585116
 30
0.0
 11
214.8751175951472
 21
383.6220767116028
 31
0.0
  0
LINE
  5
460
330
1F
100
AcDbEntity
  8
0
100
AcDbLine
 10
440.9025628162312
 20
456.8302489690928
 30
0.0
 11
365.9521816754715
 21
458.7928937712255
 31
0.0
  0
LINE
  5
461
330
1F
100
AcDbEntity
  8
7
100
AcDbLine
 10
214.8751175951472
 20
383.6220767116028
 30
0.0
 11
214.8751175951472
 21
481.4163737784276
 31
0.0
  0
ARC
  5
462
330
1F
100
AcDbEntity
  8
0
100
AcDbCircle
 10
623.9328792145256
 20
467.1839310148929
 30
0.0
 40
273.6154297287906
100
AcDbArc
 50
179.9141934983277
 51
189.9305619777764
  0
ARC
  5
463
330
1F
100
AcDbEntity
  8
0
100
AcDbCircle
 10
626.9324446268004
 20
467.1839310148929
 30
0.0
 40
273.6154297287906
100
AcDbArc
 50
179.9141934983277
 51
189.9828379455321
  0
LINE
  5
464
330
1F
100
AcDbEntity
  8
0
100
AcDbLine
 10
358.4700361228962
 20
458.3377367062704
 30
0.0
 11
357.4596284521505
 21
419.7518244985868
 31
0.0
  0
LINE
  5
465
330
1F
100
AcDbEntity
  8
0
100
AcDbLine
 10
217.3751175951472
 20
417.5936989638022
 30
0.0
 11
212.3751175951472
 21
417.5936989638022
 31
0.0
  0
LINE
  5
466
330
1F
100
AcDbEntity
  8
0
100
AcDbLine
 10
215.2237405661379
 20
387.6068555039698
 30
0.0
 11
164.8685642159614
 21
392.0123625844589
 31
0.0
  0
LINE
  5
467
330
1F
100
AcDbEntity
  8
0
100
AcDbLine
 10
214.8751175951472
 20
383.6220767116028
 30
0.0
 11
164.5199412449708
 21
388.0275837920919
 31
0.0
  0
LINE
  5
468
330
1F
100
AcDbEntity
  8
0
100
AcDbLine
 10
212.3751175951472
 20
417.5936989638022
 30
0.0
 11
211.6677577842377
 21
390.5807176165332
 31
0.0
  0
ARC
  5
469
330
1F
100
AcDbEntity
  8
0
100
AcDbCircle
 10
165.9144331289333
 20
403.9666989615597
 30
0.0
 40
12.0
100
AcDbArc
 50
181.5000000000027
 51
265.0000000000002
  0
ARC
  5
46A
330
1F
100
AcDbEntity
  8
0
100
AcDbCircle
 10
209.1686144717989
 20
390.6461599873029
 30
0.0
 40
2.5
100
AcDbArc
 50
265.0000000000002
 51
358.4999999999973
  0
LINE
  5
46B
330
1F
100
AcDbEntity
  8
0
100
AcDbLine
 10
152.8771912765296
 20
443.4202786182415
 30
0.0
 11
153.9185452292265
 21
403.6525755818653
 31
0.0
  0
ARC
  5
46C
330
1F
100
AcDbEntity
  8
0
100
AcDbCircle
 10
154.3766772639931
 20
443.4595440407032
 30
0.0
 40
1.5
100
AcDbArc
 50
92.99999999999908
 51
181.5000000000027
  0
LINE
  5
46D
330
1F
100
AcDbEntity
  8
0
100
AcDbLine
 10
148.9285087264463
 20
441.408181402511
 30
0.0
 11
149.9199159293241
 21
403.5478677886336
 31
0.0
  0
LINE
  5
46E
330
1F
100
AcDbEntity
  8
0
100
AcDbLine
 10
217.3751175951472
 20
417.5936989638022
 30
0.0
 11
218.0996772318997
 21
389.9238827674166
 31
0.0
  0
ARC
  5
46F
330
1F
100
AcDbEntity
  8
0
100
AcDbCircle
 10
220.5988205443384
 20
389.9893251381863
 30
0.0
 40
2.5
100
AcDbArc
 50
181.5000000000027
 51
268.6533948546503
  0
LINE
  5
470
330
1F
100
AcDbEntity
  8
0
100
AcDbLine
 10
261.4442823295018
 20
477.5936989638022
 30
0.0
 11
289.8751175951472
 21
477.5936989638022
 31
0.0
  0
LINE
  5
471
330
1F
100
AcDbEntity
  8
0
100
AcDbLine
 10
188.6914626347227
 20
477.5936989638022
 30
0.0
 11
241.0587725555717
 21
477.5936989638022
 31
0.0
  0
ARC
  5
472
330
1F
100
AcDbEntity
  8
0
100
AcDbCircle
 10
180.5674242300868
 20
474.0936989638022
 30
0.0
 40
2.5
100
AcDbArc
 50
270.0
 51
342.8953648233586
  0
LINE
  5
473
330
1F
100
AcDbEntity
  8
0
100
AcDbLine
 10
176.4299912654285
 20
471.5936989638022
 30
0.0
 11
182.5742193015696
 21
471.5936989638022
 31
0.0
  0
ARC
  5
474
330
1F
100
AcDbEntity
  8
0
100
AcDbCircle
 10
176.4299912654285
 20
474.0936989638022
 30
0.0
 40
2.5
100
AcDbArc
 50
197.1046351766414
 51
270.0
  0
ARC
  5
475
330
1F
100
AcDbEntity
  8
0
100
AcDbCircle
 10
168.3059528607925
 20
471.5936989638022
 30
0.0
 40
6.0
100
AcDbArc
 50
17.10463517664145
 51
90.0
  0
ARC
  5
476
330
1F
100
AcDbEntity
  8
0
100
AcDbCircle
 10
182.5742193015696
 20
474.0936989638022
 30
0.0
 40
2.5
100
AcDbArc
 50
270.0
 51
342.8953648233586
  0
ARC
  5
477
330
1F
100
AcDbEntity
  8
0
100
AcDbCircle
 10
188.6914626347227
 20
471.5936989638022
 30
0.0
 40
6.0
100
AcDbArc
 50
179.9737323409979
 51
180.0
  0
ARC
  5
478
330
1F
100
AcDbEntity
  8
0
100
AcDbCircle
 10
190.6982577062056
 20
471.5936989638022
 30
0.0
 40
6.0
100
AcDbArc
 50
90.0
 51
162.8953648233585
  0
ARC
  5
479
330
1F
100
AcDbEntity
  8
0
100
AcDbCircle
 10
188.6914626347227
 20
471.5936989638022
 30
0.0
 40
6.0
100
AcDbArc
 50
90.0
 51
162.8953648233585
  0
ARC
  5
47A
330
1F
100
AcDbEntity
  8
0
100
AcDbCircle
 10
247.1760158887247
 20
474.0936989638022
 30
0.0
 40
2.5
100
AcDbArc
 50
197.1046351766414
 51
270.0
  0
ARC
  5
47B
330
1F
100
AcDbEntity
  8
0
100
AcDbCircle
 10
241.0587725555717
 20
471.5936989638022
 30
0.0
 40
6.0
100
AcDbArc
 50
17.10463517664145
 51
90.0
  0
ARC
  5
47C
330
1F
100
AcDbEntity
  8
0
100
AcDbCircle
 10
249.1828109602078
 20
474.0936989638022
 30
0.0
 40
2.5
100
AcDbArc
 50
197.1046351766414
 51
270.0
  0
ARC
  5
47D
330
1F
100
AcDbEntity
  8
0
100
AcDbCircle
 10
239.0519774840888
 20
471.5936989638022
 30
0.0
 40
6.0
100
AcDbArc
 50
17.10463517664145
 51
90.0
  0
ARC
  5
47E
330
1F
100
AcDbEntity
  8
0
100
AcDbCircle
 10
253.3202439248659
 20
474.0936989638022
 30
0.0
 40
2.5
100
AcDbArc
 50
270.0
 51
342.8953648233586
  0
ARC
  5
47F
330
1F
100
AcDbEntity
  8
0
100
AcDbCircle
 10
241.0587725555717
 20
471.5936989638022
 30
0.0
 40
6.0
100
AcDbArc
 50
0.0
 51
0.0262676590020419
  0
LINE
  5
480
330
1F
100
AcDbEntity
  8
0
100
AcDbLine
 10
253.3202439248659
 20
471.5936989638022
 30
0.0
 11
247.1760158887247
 21
471.5936989638022
 31
0.0
  0
ARC
  5
481
330
1F
100
AcDbEntity
  8
0
100
AcDbCircle
 10
261.4442823295018
 20
471.5936989638022
 30
0.0
 40
6.0
100
AcDbArc
 50
90.0
 51
162.8953648233585
  0
LINE
  5
482
330
1F
100
AcDbEntity
  8
0
100
AcDbLine
 10
353.3630081082439
 20
467.5936989638022
 30
0.0
 11
331.7570606112815
 21
467.5936989638022
 31
0.0
  0
LINE
  5
483
330
1F
100
AcDbEntity
  8
0
100
AcDbLine
 10
356.7194066329532
 20
471.5936989638022
 30
0.0
 11
318.0751175951472
 21
471.5936989638022
 31
0.0
  0
LINE
  5
484
330
1F
100
AcDbEntity
  8
0
100
AcDbLine
 10
318.0751175951472
 20
471.5936989638022
 30
0.0
 11
311.6751175951471
 21
471.5936989638022
 31
0.0
  0
LINE
  5
485
330
1F
100
AcDbEntity
  8
0
100
AcDbLine
 10
318.0751175951472
 20
471.5936989638022
 30
0.0
 11
311.6751175951471
 21
471.5936989638022
 31
0.0
  0
LINE
  5
486
330
1F
100
AcDbEntity
  8
0
100
AcDbLine
 10
318.0751175951472
 20
458.5936989638022
 30
0.0
 11
311.6751175951471
 21
458.5936989638022
 31
0.0
  0
LINE
  5
487
330
1F
100
AcDbEntity
  8
4
100
AcDbLine
 10
318.8751175951472
 20
461.5936989638022
 30
0.0
 11
310.8751175951472
 21
461.5936989638022
 31
0.0
  0
LINE
  5
488
330
1F
100
AcDbEntity
  8
0
100
AcDbLine
 10
311.6751175951471
 20
458.5936989638022
 30
0.0
 11
314.8800578707835
 21
456.9196824558422
 31
0.0
  0
ARC
  5
489
330
1F
100
AcDbEntity
  8
0
100
AcDbCircle
 10
314.8751175951472
 20
461.5936989638022
 30
0.0
 40
9.0
100
AcDbArc
 50
186.7563270305882
 51
353.2436729694118
  0
ARC
  5
48A
330
1F
100
AcDbEntity
  8
0
100
AcDbCircle
 10
294.0653742723725
 20
475.5936989638022
 30
0.0
 40
4.0
100
AcDbArc
 50
184.9999999999998
 51
270.0
  0
LINE
  5
48B
330
1F
100
AcDbEntity
  8
0
100
AcDbLine
 10
286.1895642708454
 20
477.5936989638022
 30
0.0
 11
285.8751175951472
 21
471.5936989638022
 31
0.0
  0
LINE
  5
48C
330
1F
100
AcDbEntity
  8
0
100
AcDbLine
 10
311.6751175951471
 20
471.5936989638022
 30
0.0
 11
285.8751175951472
 21
471.5936989638022
 31
0.0
  0
LINE
  5
48D
330
1F
100
AcDbEntity
  8
0
100
AcDbLine
 10
285.8751175951472
 20
471.5936989638022
 30
0.0
 11
285.6130786987321
 21
466.5936989638022
 31
0.0
  0
LINE
  5
48E
330
1F
100
AcDbEntity
  8
0
100
AcDbLine
 10
311.6751175951471
 20
471.5936989638022
 30
0.0
 11
311.6751175951471
 21
458.5936989638022
 31
0.0
  0
LINE
  5
48F
330
1F
100
AcDbEntity
  8
0
100
AcDbLine
 10
311.6751175951471
 20
471.5936989638022
 30
0.0
 11
297.1154868911723
 21
471.5936989638022
 31
0.0
  0
LINE
  5
490
330
1F
100
AcDbEntity
  8
4
100
AcDbLine
 10
310.8751175951472
 20
471.5936989638022
 30
0.0
 11
310.8751175951472
 21
461.5936989638022
 31
0.0
  0
LINE
  5
491
330
1F
100
AcDbEntity
  8
0
100
AcDbLine
 10
289.8751175951472
 20
477.5936989638022
 30
0.0
 11
290.0805954800055
 21
475.2450759928116
 31
0.0
  0
ARC
  5
492
330
1F
100
AcDbEntity
  8
0
100
AcDbCircle
 10
331.7570606112815
 20
459.5936989638022
 30
0.0
 40
8.0
100
AcDbArc
 50
90.0
 51
173.2436729694118
  0
LINE
  5
493
330
1F
100
AcDbEntity
  8
0
100
AcDbLine
 10
318.0751175951472
 20
471.5936989638022
 30
0.0
 11
318.0751175951472
 21
458.5936989638022
 31
0.0
  0
LINE
  5
494
330
1F
100
AcDbEntity
  8
7A
100
AcDbLine
 10
314.8751175951472
 20
474.249766523004
 30
0.0
 11
314.8751175951472
 21
452.5936989638022
 31
0.0
  0
LINE
  5
495
330
1F
100
AcDbEntity
  8
0
100
AcDbLine
 10
314.8800578707835
 20
456.9196824558422
 30
0.0
 11
318.0751175951472
 21
458.5936989638022
 31
0.0
  0
LINE
  5
496
330
1F
100
AcDbEntity
  8
4
100
AcDbLine
 10
318.8751175951472
 20
471.5936989638022
 30
0.0
 11
318.8751175951472
 21
461.5936989638022
 31
0.0
  0
LINE
  5
497
330
1F
100
AcDbEntity
  8
4
100
AcDbLine
 10
365.9521816754715
 20
458.7928937712255
 30
0.0
 11
361.0516559195878
 21
458.9212185543166
 31
0.0
  0
ARC
  5
498
330
1F
100
AcDbEntity
  8
0
100
AcDbCircle
 10
366.1092433653188
 20
464.7908377210788
 30
0.0
 40
10.0
100
AcDbArc
 50
189.9999999999986
 51
268.4999999999973
  0
ARC
  5
499
330
1F
100
AcDbEntity
  8
0
100
AcDbCircle
 10
366.1092433653188
 20
464.7908377210788
 30
0.0
 40
6.0
100
AcDbArc
 50
189.9999999999986
 51
268.4999999999973
  0
LINE
  5
49A
330
1F
100
AcDbEntity
  8
4
100
AcDbLine
 10
358.8171557108964
 20
471.5936989638022
 30
0.0
 11
361.0516559195878
 21
458.9212185543166
 31
0.0
  0
ARC
  5
49B
330
1F
100
AcDbEntity
  8
0
100
AcDbCircle
 10
353.3630081082439
 20
465.0936989638022
 30
0.0
 40
2.5
100
AcDbArc
 50
9.999999999998609
 51
90.0
  0
LINE
  5
49C
330
1F
100
AcDbEntity
  8
BEMASS
100
AcDbLine
 10
356.7194066329532
 20
471.5936989638022
 30
0.0
 11
359.3579990942162
 21
471.5936989638022
 31
0.0
  0
ARC
  5
49D
330
1F
100
AcDbEntity
  8
0
100
AcDbCircle
 10
356.7194066329532
 20
469.0936989638022
 30
0.0
 40
2.5
100
AcDbArc
 50
9.999999999998609
 51
90.0
  0
LINE
  5
49E
330
1F
100
AcDbEntity
  8
0
100
AcDbLine
 10
355.8250274907743
 20
465.5278194079695
 30
0.0
 11
356.2611658351968
 21
463.0543559444096
 31
0.0
  0
LINE
  5
49F
330
1F
100
AcDbEntity
  8
0
100
AcDbLine
 10
359.1814260154837
 20
469.5278194079695
 30
0.0
 11
360.2003968472454
 21
463.7489486550776
 31
0.0
  0
LINE
  5
4A0
330
1F
100
AcDbEntity
  8
0
100
AcDbLine
 10
440.771678074692
 20
451.8319623442149
 30
0.0
 11
438.9785575846715
 21
383.3554534964079
 31
0.0
  0
LINE
  5
4A3
330
1F
100
AcDbEntity
  8
0
100
AcDbLine
 10
438.9785575846715
 20
383.3554534964079
 30
0.0
 11
438.8476723740631
 21
378.3571489585116
 31
0.0
  0
LINE
  5
4A4
330
1F
100
AcDbEntity
  8
0
100
AcDbLine
 10
420.9572872119774
 20
382.7788036420765
 30
0.0
 11
428.9812835121312
 21
383.5904596371012
 31
0.0
  0
LINE
  5
4A5
330
1F
100
AcDbEntity
  8
0
100
AcDbLine
 10
438.9785575846715
 20
383.3554534964081
 30
0.0
 11
428.9812835121312
 21
383.5904596371012
 31
0.0
  0
LINE
  5
4A6
330
1F
100
AcDbEntity
  8
0
100
AcDbLine
 10
422.8040231734396
 20
453.3028047387323
 30
0.0
 11
430.7751048249362
 21
452.0937318272936
 31
0.0
  0
LINE
  5
4A7
330
1F
100
AcDbEntity
  8
0
100
AcDbLine
 10
440.7716780746918
 20
451.8319623442149
 30
0.0
 11
430.7751048249369
 21
452.0937318272936
 31
0.0
  0
LINE
  5
4A8
330
1F
100
AcDbEntity
  8
0
100
AcDbLine
 10
440.9025628162312
 20
456.8302489690928
 30
0.0
 11
440.771678074692
 21
451.8319623442149
 31
0.0
  0
LINE
  5
4A9
330
1F
100
AcDbEntity
  8
4
100
AcDbLine
 10
166.5556276867708
 20
391.8647636561142
 30
0.0
 11
211.7013817131212
 21
391.8647636561142
 31
0.0
  0
LINE
  5
4AA
330
1F
100
AcDbEntity
  8
4
100
AcDbLine
 10
354.4534983520338
 20
419.5011291841391
 30
0.0
 11
353.5333933978267
 21
384.3637385914229
 31
0.0
  0
ARC
  5
4AB
330
1F
100
AcDbEntity
  8
4
100
AcDbCircle
 10
351.1788894192704
 20
389.9527342769126
 30
0.0
 40
2.5
100
AcDbArc
 50
268.4999999999973
 51
358.4999999999973
  0
ARC
  5
4AC
330
1F
100
AcDbEntity
  8
8
100
AcDbCircle
 10
336.623804025937
 20
387.8330156202279
 30
0.0
 40
0.000001
100
AcDbArc
 50
270.0150585190689
 51
358.4999999999973
  0
LINE
  5
4AD
330
1F
100
AcDbEntity
  8
4
100
AcDbLine
 10
351.1134470485008
 20
387.4535909644736
 30
0.0
 11
218.073138028348
 21
390.9373740620159
 31
0.0
  0
ARC
  5
4AE
330
1F
100
AcDbEntity
  8
5
100
AcDbCircle
 10
351.9543550395951
 20
419.5665715549074
 30
0.0
 40
2.5
100
AcDbArc
 50
358.4999999999973
 51
9.930561977776447
  0
LINE
  5
4AF
330
1F
100
AcDbEntity
  8
0
100
AcDbLine
 10
146.875117595147
 20
466.5936989638022
 30
0.0
 11
146.875117595147
 21
452.3393484016272
 31
0.0
  0
ARC
  5
4B0
330
1F
100
AcDbEntity
  8
0
100
AcDbCircle
 10
148.875117595147
 20
452.3393484016272
 30
0.0
 40
2.0
100
AcDbArc
 50
180.0
 51
267.0000000000009
  0
LINE
  5
4B1
330
1F
100
AcDbEntity
  8
0
100
AcDbLine
 10
148.7704456826611
 20
450.3420893321179
 30
0.0
 11
154.7297895076328
 21
450.0297733562669
 31
0.0
  0
ARC
  5
4B2
330
1F
100
AcDbEntity
  8
0
100
AcDbCircle
 10
154.6251175951472
 20
448.0325142867576
 30
0.0
 40
2.0
100
AcDbArc
 50
0.0
 51
87.00000000000093
  0
LINE
  5
4B3
330
1F
100
AcDbEntity
  8
0
100
AcDbLine
 10
156.625117595147
 20
463.593698963802
 30
0.0
 11
156.6251175951472
 21
464.8054548874013
 31
0.0
  0
LINE
  5
4B4
330
1F
100
AcDbEntity
  8
0
100
AcDbLine
 10
141.8751175951472
 20
462.5936989638022
 30
0.0
 11
142.5988230592024
 21
450.1517599606199
 31
0.0
  0
LINE
  5
4B5
330
1F
100
AcDbEntity
  8
0
100
AcDbLine
 10
148.8751175951472
 20
460.9732780348637
 30
0.0
 11
155.2036215295113
 21
461.3049408722469
 31
0.0
  0
ARC
  5
4B6
330
1F
100
AcDbEntity
  8
0
100
AcDbCircle
 10
155.1251175951472
 20
462.8028851743787
 30
0.0
 40
1.5
100
AcDbArc
 50
272.9999999999926
 51
359.9999999999935
  0
LINE
  5
4B7
330
1F
100
AcDbEntity
  8
0
100
AcDbLine
 10
156.6251175951472
 20
463.4233061033183
 30
0.0
 11
156.6251175951472
 21
464.8054548874013
 31
0.0
  0
LINE
  5
4B8
330
1F
100
AcDbEntity
  8
0
100
AcDbLine
 10
156.6251175951472
 20
462.8028851743787
 30
0.0
 11
156.6251175951472
 21
464.8064787317208
 31
0.0
  0
ARC
  5
4B9
330
1F
100
AcDbEntity
  8
0
100
AcDbCircle
 10
148.8751175951472
 20
458.9732780348639
 30
0.0
 40
2.0
100
AcDbArc
 50
90.0
 51
180.0
1001
GENIUS_GENOBJ-N-FIL_13
1002
{
1000
OWNER
1000
GEN
1002
}
1001
GENIUS_GENODEF_13
1002
{
1000
HIER
1070
     0
1002
}
1002
{
1000
MANEDIT
1070
     0
1002
}
1002
{
1000
NOSEL
1070
     0
1002
}
1002
{
1000
BEHIND
1070
     0
1002
}
1002
{
1000
OTHER
1070
     0
1002
}
1002
{
1000
REACTOR
1002
}
  0
ARC
  5
4BA
330
1F
100
AcDbEntity
  8
0
100
AcDbCircle
 10
147.579796549661
 20
450.5875386743581
 30
0.0
 40
5.0
100
AcDbArc
 50
184.9999999999998
 51
248.5950361911888
  0
ARC
  5
4BB
330
1F
100
AcDbEntity
  8
0
100
AcDbCircle
 10
143.9302221015684
 20
441.2772966609715
 30
0.0
 40
5.0
100
AcDbArc
 50
1.500000000002716
 51
68.59503619118877
  0
LINE
  5
4BC
330
1F
100
AcDbEntity
  8
0
100
AcDbLine
 10
156.6251175951472
 20
447.3375386743583
 30
0.0
 11
156.6251175951472
 21
448.0325142867576
 31
0.0
  0
LINE
  5
4BD
330
1F
100
AcDbEntity
  8
0
100
AcDbLine
 10
156.6251175951472
 20
446.9773674577362
 30
0.0
 11
156.6251175951472
 21
448.0325142867576
 31
0.0
  0
ARC
  5
4BE
330
1F
100
AcDbEntity
  8
0
100
AcDbCircle
 10
154.6251175951472
 20
446.977367457736
 30
0.0
 40
2.0
100
AcDbArc
 50
273.0000000000056
 51
0.0000000000065138
  0
LINE
  5
4BF
330
1F
100
AcDbEntity
  8
4
100
AcDbLine
 10
263.0021627314629
 20
441.4081814025109
 30
0.0
 11
263.0021627314629
 21
398.7772575000448
 31
0.0
  0
ARC
  5
4C0
330
1F
100
AcDbEntity
  8
0
100
AcDbCircle
 10
297.9931745790129
 20
459.593698963802
 30
0.0
 40
8.0
100
AcDbArc
 50
6.756327030588198
 51
90.0
  0
LINE
  5
4C1
330
1F
100
AcDbEntity
  8
0
100
AcDbLine
 10
287.7276389204118
 20
460.0582466749018
 30
0.0
 11
287.1268320521014
 21
449.7291794238086
 31
0.0
  0
ARC
  5
4C2
330
1F
100
AcDbEntity
  8
0
100
AcDbCircle
 10
117.2402176269709
 20
458.593698963802
 30
0.0
 40
8.0
100
AcDbArc
 50
6.304985066943435
 51
90.0
  0
ARC
  5
4C3
330
1F
100
AcDbEntity
  8
0
100
AcDbCircle
 10
295.7141397451853
 20
459.5936989638022
 30
0.0
 40
8.0
100
AcDbArc
 50
90.0
 51
176.6710494654461
  0
LINE
  5
4C4
330
1F
100
AcDbEntity
  8
0
100
AcDbLine
 10
295.7141397451855
 20
467.5936989638022
 30
0.0
 11
297.9931745790131
 21
467.5936989638022
 31
0.0
  0
ARC
  5
4C5
330
1F
100
AcDbEntity
  8
4
100
AcDbCircle
 10
251.0021627314629
 20
398.7772575000448
 30
0.0
 40
12.0
100
AcDbArc
 50
312.0368482974746
 51
0.0
  0
DIMENSION
  5
4CB
330
1F
100
AcDbEntity
  8
5
100
AcDbDimension
  2
*D7
 10
69.87511759514723
 20
544.2566490076693
 30
0.0
 11
214.8751175951472
 21
544.2566490076693
 31
0.0
 70
   160
  1
%%c<>
 71
     5
 42
290.0
  3
GEN-ISO$0
100
AcDbAlignedDimension
 13
359.8751175951472
 23
465.5936989638022
 33
0.0
 14
69.87511759514723
 24
465.5936989638022
 34
0.0
100
AcDbRotatedDimension
1001
ACAD
1000
DSTYLE
1002
{
1070
   140
1040
10.0
1070
    41
1040
7.0
1002
}
  0
DIMENSION
  5
4CC
330
1F
100
AcDbEntity
  8
5
100
AcDbDimension
  2
*D8
 10
139.8751175951472
 20
525.6134505192336
 30
0.0
 11
214.8751175951472
 21
531.2134505192337
 31
0.0
 70
    32
  1
%%c<>
 71
     5
 42
149.9999999999999
  3
GEN-ISO$0
100
AcDbAlignedDimension
 13
289.8751175951472
 23
477.5936989638022
 33
0.0
 14
139.8751175951472
 24
477.5936989638022
 34
0.0
100
AcDbRotatedDimension
1001
ACAD
1000
DSTYLE
1002
{
1070
    41
1040
7.0
1070
   140
1040
10.0
1002
}
  0
DIMENSION
  5
4D4
330
1F
100
AcDbEntity
  8
5
100
AcDbDimension
  2
*D10
 10
36.10059740449583
 20
383.6220767116028
 30
0.0
 11
30.50059740449577
 21
427.6078878377025
 31
0.0
 70
    32
  1
87
 71
     5
 42
87.97162225219944
  3
GEN-ISO$0
100
AcDbAlignedDimension
 13
73.03082855734124
 23
471.5936989638022
 33
0.0
 14
214.8751175951472
 24
383.6220767116028
 34
0.0
 50
90.0
100
AcDbRotatedDimension
1001
ACAD
1000
DSTYLE
1002
{
1070
    41
1040
7.0
1070
   140
1040
10.0
1002
}
  0
DIMENSION
  5
4D6
330
1F
100
AcDbEntity
  8
5
100
AcDbDimension
  2
*D11
 10
494.9070105645128
 20
377.0393608672401
 30
0.0
 11
495.7923391493851
 21
414.7016639930233
 31
0.0
 70
   160
  1
78
 71
     5
 42
78.49971867021015
  3
GEN-ISO$0
100
AcDbAlignedDimension
 13
440.9025628162312
 23
456.8302489690928
 33
0.0
 14
438.8476723740634
 24
378.3571489585118
 34
0.0
 50
88.65339485465026
100
AcDbRotatedDimension
1001
ACAD
1000
DSTYLE
1002
{
1070
    41
1040
7.0
1070
   140
1040
10.0
1002
}
  0
DIMENSION
  5
4DB
330
1F
100
AcDbEntity
  8
5
100
AcDbDimension
  2
*D12
 10
467.3227567237626
 20
417.5937079203114
 30
0.0
 11
467.3227567237624
 21
436.592569884383
 31
0.0
 70
   160
 71
     5
 42
53.99999104349075
  3
GEN-ISO$0
100
AcDbAlignedDimension
 13
356.7194066329532
 23
471.5936989638022
 33
0.0
 14
439.8751178296818
 24
417.5937079203114
 34
0.0
 50
90.0
100
AcDbRotatedDimension
1001
ACAD
1000
DSTYLE
1002
{
1070
    41
1040
7.0
1070
   140
1040
10.0
1002
}
  0
LINE
  5
4DC
330
1F
100
AcDbEntity
  8
7
100
AcDbLine
 10
354.4621186744848
 20
419.8303260171827
 30
0.0
 11
443.8218990132656
 21
417.4903578177872
 31
0.0
  0
DIMENSION
  5
4DD
330
1F
100
AcDbEntity
  8
5
100
AcDbDimension
  2
*D13
 10
214.8751175951472
 20
341.75903933125
 30
0.0
 11
327.3751177124145
 21
347.3600235832184
 31
0.0
 70
    32
 71
     5
 42
225.0000002345345
  3
GEN-ISO$0
100
AcDbAlignedDimension
 13
439.8751178296818
 23
417.5937079203114
 33
0.0
 14
214.8751175951472
 24
383.6220767116028
 34
0.0
100
AcDbRotatedDimension
1001
ACAD
1000
DSTYLE
1002
{
1070
    41
1040
7.0
1070
   140
1040
10.0
1002
}
  0
LINE
  5
4E0
330
1F
100
AcDbEntity
  8
0
100
AcDbLine
 10
154.7297895076333
 20
444.9801083882269
 30
0.0
 11
154.2981733296285
 21
444.9574883428351
 31
0.0
  0
LINE
  5
4E1
330
1F
100
AcDbEntity
  8
0
100
AcDbLine
 10
282.8751175951474
 20
458.9732780348639
 30
0.0
 11
282.8751175951474
 21
452.3393484016272
 31
0.0
  0
ARC
  5
4E2
330
1F
100
AcDbEntity
  8
0
100
AcDbCircle
 10
280.8751175951474
 20
452.3393484016272
 30
0.0
 40
2.0
100
AcDbArc
 50
273.0000000000056
 51
0.0
  0
LINE
  5
4E3
330
1F
100
AcDbEntity
  8
0
100
AcDbLine
 10
280.9797895076333
 20
450.3420893321179
 30
0.0
 11
275.0204456826615
 21
450.0297733562669
 31
0.0
  0
ARC
  5
4E4
330
1F
100
AcDbEntity
  8
0
100
AcDbCircle
 10
275.1251175951472
 20
448.0325142867576
 30
0.0
 40
2.0
100
AcDbArc
 50
93.00000000000558
 51
180.0
  0
LINE
  5
4E5
330
1F
100
AcDbEntity
  8
0
100
AcDbLine
 10
280.8751175951472
 20
460.9732780348637
 30
0.0
 11
274.5466136607829
 21
461.3049408722471
 31
0.0
  0
LINE
  5
4E6
330
1F
100
AcDbEntity
  8
0
100
AcDbLine
 10
273.1251175951472
 20
462.8028851743787
 30
0.0
 11
273.1251175951472
 21
464.8054548874016
 31
0.0
  0
ARC
  5
4E7
330
1F
100
AcDbEntity
  8
0
100
AcDbCircle
 10
280.8751175951472
 20
458.9732780348639
 30
0.0
 40
2.0
100
AcDbArc
 50
0.0
 51
90.0
1001
GENIUS_GENOBJ-N-FIL_13
1002
{
1000
OWNER
1000
GEN
1002
}
1001
GENIUS_GENODEF_13
1002
{
1000
HIER
1070
     0
1002
}
1002
{
1000
MANEDIT
1070
     0
1002
}
1002
{
1000
NOSEL
1070
     0
1002
}
1002
{
1000
BEHIND
1070
     0
1002
}
1002
{
1000
OTHER
1070
     0
1002
}
1002
{
1000
REACTOR
1002
}
  0
LINE
  5
4E8
330
1F
100
AcDbEntity
  8
0
100
AcDbLine
 10
273.1251175951472
 20
446.9773674577362
 30
0.0
 11
273.1251175951472
 21
448.0325142867576
 31
0.0
  0
ARC
  5
4E9
330
1F
100
AcDbEntity
  8
0
100
AcDbCircle
 10
275.1251175951472
 20
446.977367457736
 30
0.0
 40
2.0
100
AcDbArc
 50
179.9999999999935
 51
266.9999999999944
  0
LINE
  5
4EA
330
1F
100
AcDbEntity
  8
0
100
AcDbLine
 10
280.9797895076337
 20
450.3420893321179
 30
0.0
 11
275.0204456826615
 21
450.0297733562669
 31
0.0
  0
LINE
  5
4EB
330
1F
100
AcDbEntity
  8
0
100
AcDbLine
 10
144.1371564915623
 20
466.5936989638022
 30
0.0
 11
155.1642438889287
 21
466.305968355938
 31
0.0
  0
ARC
  5
4EC
330
1F
100
AcDbEntity
  8
0
100
AcDbCircle
 10
155.1251175951472
 20
464.8064787317208
 30
0.0
 40
1.5
100
AcDbArc
 50
0.0
 51
88.50531613939507
  0
ARC
  5
4ED
330
1F
100
AcDbEntity
  8
0
100
AcDbCircle
 10
274.6251175951472
 20
462.8028851743787
 30
0.0
 40
1.5
100
AcDbArc
 50
180.0000000000065
 51
266.9999999999944
  0
LINE
  5
4EE
330
1F
100
AcDbEntity
  8
0
100
AcDbLine
 10
275.0204456826611
 20
444.9801083882269
 30
0.0
 11
276.9112945948461
 21
444.8810131957797
 31
0.0
  0
LINE
  5
4EF
330
1F
100
AcDbEntity
  8
0
100
AcDbLine
 10
285.6130786987321
 20
466.5936989638022
 30
0.0
 11
274.5859913013657
 21
466.305968355938
 31
0.0
  0
ARC
  5
4F0
330
1F
100
AcDbEntity
  8
0
100
AcDbCircle
 10
274.6251175951472
 20
464.8064787317208
 30
0.0
 40
1.5
100
AcDbArc
 50
91.49468386061146
 51
180.0
  0
LINE
  5
4F1
330
1F
100
AcDbEntity
  8
0
100
AcDbLine
 10
144.1371564915623
 20
466.5936989638022
 30
0.0
 11
285.6130786976261
 21
466.5936989637733
 31
0.0
  0
ARC
  5
4F2
330
1F
100
AcDbEntity
  8
0
100
AcDbCircle
 10
282.1352690366179
 20
450.0195217432461
 30
0.0
 40
5.0
100
AcDbArc
 50
271.5000000000027
 51
356.6710494654461
  0
LINE
  5
4F3
330
1F
100
AcDbEntity
  8
0
100
AcDbLine
 10
276.911294594845
 20
444.8810131957797
 30
0.0
 11
283.9944638415313
 21
445.0664925101351
 31
0.0
  0
LINE
  5
4F4
330
1F
100
AcDbEntity
  8
0
100
AcDbLine
 10
288.8635790999917
 20
450.0647791350128
 30
0.0
 11
288.8635790999917
 21
458.8855613449974
 31
0.0
  0
ARC
  5
4F5
330
1F
100
AcDbEntity
  8
0
100
AcDbCircle
 10
283.8635790999917
 20
450.0647791350125
 30
0.0
 40
5.0
100
AcDbArc
 50
271.5000000000027
 51
0.0
  0
ARC
  5
4F6
330
1F
100
AcDbEntity
  8
0
100
AcDbCircle
 10
296.8635790999917
 20
458.8855613449976
 30
0.0
 40
8.0
100
AcDbArc
 50
91.50000000000272
 51
180.0
  0
LINE
  5
4F7
330
1F
100
AcDbEntity
  8
0
100
AcDbLine
 10
155.2036215295113
 20
461.3049408722469
 30
0.0
 11
274.5466136607829
 21
461.3049408722471
 31
0.0
  0
LINE
  5
4F8
330
1F
100
AcDbEntity
  8
0
100
AcDbLine
 10
154.7297895076333
 20
444.9801083882268
 30
0.0
 11
275.0204456826613
 21
444.9801083882268
 31
0.0
  0
LINE
  5
4F9
330
1F
100
AcDbEntity
  8
0
100
AcDbLine
 10
155.2036215295115
 20
466.3044230338527
 30
0.0
 11
274.5859913013657
 21
466.305968355938
 31
0.0
  0
LINE
  5
4FD
330
1F
100
AcDbEntity
  8
0
100
AcDbLine
 10
154.7297895076331
 20
450.0297733562669
 30
0.0
 11
275.0204456826611
 21
450.0297733562669
 31
0.0
  0
LINE
  5
10A0
330
1F
100
AcDbEntity
  8
0
100
AcDbLine
 10
309.0745201681709
 20
480.5096019984715
 30
0.0
 11
306.4631175951472
 21
480.5097572819688
 31
0.0
1001
GENIUS_GENOREF_13
1005
1118
1005
1117
  0
LINE
  5
10A1
330
1F
100
AcDbEntity
  8
0
100
AcDbLine
 10
307.374117595147
 20
472.8797572819687
 30
0.0
 11
301.6561175951472
 21
472.4297572819688
 31
0.0
  0
INSERT
  5
10A2
330
1F
100
AcDbEntity
  8
8
100
AcDbBlockReference
  2
*X15
 10
-3.311882404852894
 20
107.4797572819688
 30
0.0
1001
ACAD
1000
HATCH
1002
{
1070
    19
1000
ANSI31,_I
1040
3.174999999999999
1040
0.7850000000000001
1002
}
  0
LINE
  5
10A3
330
1F
100
AcDbEntity
  8
0
100
AcDbLine
 10
323.1053439372983
 20
481.5017476442969
 30
0.0
 11
323.1053439372983
 21
487.8866529797867
 31
0.0
  0
LINE
  5
10A4
330
1F
100
AcDbEntity
  8
0
100
AcDbLine
 10
306.6239167492929
 20
487.8998269494063
 30
0.0
 11
306.6239167492929
 21
481.5362680278774
 31
0.0
  0
INSERT
  5
10A5
330
1F
100
AcDbEntity
  8
AM_0N
100
AcDbBlockReference
  2
*U18
 10
0.0
 20
0.0
 30
0.0
1001
GENIUS_GENOREF_13
1005
1116
  0
INSERT
  5
10A6
330
1F
100
AcDbEntity
  8
AM_0N
100
AcDbBlockReference
  2
*U19
 10
0.0
 20
0.0
 30
0.0
1001
GENIUS_GENOREF_13
1005
1115
1005
1117
  0
LINE
  5
10A7
330
1F
100
AcDbEntity
  8
0
100
AcDbLine
 10
346.5111175951472
 20
472.0377572819688
 30
0.0
 11
349.8483996647367
 21
472.3067499022812
 31
0.0
  0
LINE
  5
10A8
330
1F
100
AcDbEntity
  8
0
100
AcDbLine
 10
325.2881175951472
 20
478.5107572819688
 30
0.0
 11
352.9001175951471
 21
478.5107572819688
 31
0.0
  0
INSERT
  5
10A9
330
1F
100
AcDbEntity
  8
8
100
AcDbBlockReference
  2
*X16
 10
-3.311882404852894
 20
107.4797572819688
 30
0.0
1001
ACAD
1000
HATCH
1002
{
1070
    19
1000
ANSI31,_I
1040
3.174999999999999
1040
0.7850000000000001
1002
}
  0
LINE
  5
10AA
330
1F
100
AcDbEntity
  8
0
100
AcDbLine
 10
352.5959429533309
 20
475.0354069287777
 30
0.0
 11
352.9001175951471
 21
478.5097572819688
 31
0.0
  0
ARC
  5
10AB
330
1F
100
AcDbEntity
  8
0
100
AcDbCircle
 10
349.6073744265443
 20
475.297052033263
 30
0.0
 40
2.999999999999999
100
AcDbArc
 50
274.6082095738685
 51
354.9965898284339
1001
GENIUS_GENODEF_13
1002
{
1000
HIER
1070
     0
1002
}
1002
{
1000
MANEDIT
1070
     0
1002
}
1002
{
1000
NOSEL
1070
     0
1002
}
1002
{
1000
BEHIND
1070
     0
1002
}
1002
{
1000
REACTOR
1002
}
1001
GENIUS_GENOBJ-N-FIL_13
1002
{
1000
OWNER
1000
GEN
1002
}
  0
LINE
  5
10AC
330
1F
100
AcDbEntity
  8
7A
100
AcDbLine
 10
314.8793237962893
 20
459.051757281969
 30
0.0
 11
314.8793237962893
 21
453.051757281969
 31
0.0
1001
GENIUS_GENOREF_13
1005
1118
  0
LINE
  5
10AD
330
1F
100
AcDbEntity
  8
0
100
AcDbLine
 10
327.9921175951472
 20
472.1997572819689
 30
0.0
 11
322.2821175951472
 21
472.7497572819689
 31
0.0
  0
LINE
  5
10AE
330
1F
100
AcDbEntity
  8
0
100
AcDbLine
 10
346.5111175951472
 20
472.0377572819688
 30
0.0
 11
337.3751175951472
 21
472.9177572819688
 31
0.0
  0
LINE
  5
10AF
330
1F
100
AcDbEntity
  8
0
100
AcDbLine
 10
337.3751175951472
 20
472.9177572819688
 30
0.0
 11
328.2251175951472
 21
472.1977572819688
 31
0.0
  0
LINE
  5
10B0
330
1F
100
AcDbEntity
  8
0
100
AcDbLine
 10
328.2251175951472
 20
472.1977572819688
 30
0.0
 11
327.9921175951472
 21
472.1997572819689
 31
0.0
  0
LINE
  5
10B1
330
1F
100
AcDbEntity
  8
AM_INV
 48
0.256
100
AcDbLine
 10
314.8751175951472
 20
482.4117572819687
 30
0.0
 11
314.8751175951472
 21
471.1597572819688
 31
0.0
1001
GENIUS_GENBH_13
1002
{
1000
OA
1000
7
1070
   256
1000
ByLayer
1005
37B
1005
15
1071
       -1
1002
}
1001
GENIUS_GENOREF_13
1005
1118
1005
1117
  0
LINE
  5
10B2
330
1F
100
AcDbEntity
  8
AM_INV
100
AcDbLine
 10
314.8793237962893
 20
472.051757281969
 30
0.0
 11
314.8793237962893
 21
459.051757281969
 31
0.0
1001
GENIUS_GENBH_13
1002
{
1000
OA
1000
7A
1070
   256
1000
ByLayer
1005
377
1005
15
1071
       -1
1002
}
1001
GENIUS_GENOREF_13
1005
1118
  0
LINE
  5
10B3
330
1F
100
AcDbEntity
  8
AM_INV
100
AcDbLine
 10
311.6793237962893
 20
472.051757281969
 30
0.0
 11
311.6793237962895
 21
459.501757281969
 31
0.0
1001
GENIUS_GENBH_13
1002
{
1000
OA
1000
0
1070
   256
1000
ByLayer
1005
10
1005
15
1071
       -1
1002
}
1001
GENIUS_GENOREF_13
1005
1118
  0
LINE
  5
10B4
330
1F
100
AcDbEntity
  8
AM_INV
100
AcDbLine
 10
318.0793237962896
 20
472.051757281969
 30
0.0
 11
318.0793237962896
 21
459.501757281969
 31
0.0
1001
GENIUS_GENBH_13
1002
{
1000
OA
1000
0
1070
   256
1000
ByLayer
1005
10
1005
15
1071
       -1
1002
}
1001
GENIUS_GENOREF_13
1005
1118
  0
LINE
  5
10B5
330
1F
100
AcDbEntity
  8
AM_INV
100
AcDbLine
 10
310.8793237962893
 20
472.051757281969
 30
0.0
 11
310.8793237962893
 21
462.0517572819689
 31
0.0
1001
GENIUS_GENBH_13
1002
{
1000
OA
1000
4
1070
   256
1000
ByLayer
1005
376
1005
15
1071
       -1
1002
}
1001
GENIUS_GENOREF_13
1005
1118
  0
LINE
  5
10B6
330
1F
100
AcDbEntity
  8
AM_INV
100
AcDbLine
 10
318.8793237962893
 20
472.051757281969
 30
0.0
 11
318.8793237962893
 21
462.0517572819689
 31
0.0
1001
GENIUS_GENBH_13
1002
{
1000
OA
1000
4
1070
   256
1000
ByLayer
1005
376
1005
15
1071
       -1
1002
}
1001
GENIUS_GENOREF_13
1005
1118
  0
LINE
  5
10B7
330
1F
100
AcDbEntity
  8
AM_INV
100
AcDbLine
 10
317.6293237962895
 20
459.051757281969
 30
0.0
 11
312.1293237962893
 21
459.051757281969
 31
0.0
1001
GENIUS_GENBH_13
1002
{
1000
OA
1000
0
1070
   256
1000
ByLayer
1005
10
1005
15
1071
       -1
1002
}
1001
GENIUS_GENOREF_13
1005
1118
  0
LINE
  5
10B8
330
1F
100
AcDbEntity
  8
AM_INV
100
AcDbLine
 10
318.8793237962893
 20
462.0517572819689
 30
0.0
 11
310.8793237962893
 21
462.0517572819689
 31
0.0
1001
GENIUS_GENBH_13
1002
{
1000
OA
1000
4
1070
   256
1000
ByLayer
1005
376
1005
15
1071
       -1
1002
}
1001
GENIUS_GENOREF_13
1005
1118
  0
LINE
  5
10B9
330
1F
100
AcDbEntity
  8
0
100
AcDbLine
 10
314.8842640719256
 20
457.377740774009
 30
0.0
 11
318.0793237962896
 21
459.051757281969
 31
0.0
1001
GENIUS_GENOREF_13
1005
1118
  0
LINE
  5
10BA
330
1F
100
AcDbEntity
  8
0
100
AcDbLine
 10
318.0793237962896
 20
459.501757281969
 30
0.0
 11
318.0793237962896
 21
459.051757281969
 31
0.0
1001
GENIUS_GENOREF_13
1005
1118
  0
LINE
  5
10BB
330
1F
100
AcDbEntity
  8
0
100
AcDbLine
 10
318.0793237962896
 20
459.051757281969
 30
0.0
 11
317.6293237962895
 21
459.051757281969
 31
0.0
1001
GENIUS_GENOREF_13
1005
1118
  0
LINE
  5
10BC
330
1F
100
AcDbEntity
  8
0
100
AcDbLine
 10
312.1293237962893
 20
459.051757281969
 30
0.0
 11
311.6793237962895
 21
459.051757281969
 31
0.0
1001
GENIUS_GENOREF_13
1005
1118
  0
LINE
  5
10BD
330
1F
100
AcDbEntity
  8
0
100
AcDbLine
 10
311.6793237962895
 20
459.051757281969
 30
0.0
 11
314.8842640719256
 21
457.377740774009
 31
0.0
1001
GENIUS_GENOREF_13
1005
1118
  0
LINE
  5
10BE
330
1F
100
AcDbEntity
  8
0
100
AcDbLine
 10
311.6793237962895
 20
459.501757281969
 30
0.0
 11
311.6793237962895
 21
459.051757281969
 31
0.0
1001
GENIUS_GENOREF_13
1005
1118
  0
LINE
  5
10BF
330
1F
100
AcDbEntity
  8
AM_INV
100
AcDbLine
 10
318.8793237962896
 20
472.4820081633317
 30
0.0
 11
316.5631175951471
 21
472.2997572819688
 31
0.0
1001
GENIUS_GENBH_13
1002
{
1000
OA
1000
0
1070
   256
1000
ByLayer
1005
10
1005
15
1071
       -1
1002
}
1001
GENIUS_GENOREF_13
1005
1118
  0
LINE
  5
10C0
330
1F
100
AcDbEntity
  8
AM_INV
100
AcDbLine
 10
318.8793237962896
 20
480.5090189691781
 30
0.0
 11
310.8793237962893
 21
480.5094946782819
 31
0.0
1001
GENIUS_GENBH_13
1002
{
1000
OA
1000
0
1070
   256
1000
ByLayer
1005
10
1005
15
1071
       -1
1002
}
1001
GENIUS_GENOREF_13
1005
1118
1005
1117
  0
LINE
  5
10C1
330
1F
100
AcDbEntity
  8
AM_INV
100
AcDbLine
 10
318.0793237962896
 20
472.051757281969
 30
0.0
 11
311.6793237962893
 21
472.051757281969
 31
0.0
1001
GENIUS_GENBH_13
1002
{
1000
OA
1000
0
1070
   256
1000
ByLayer
1005
10
1005
15
1071
       -1
1002
}
1001
GENIUS_GENOREF_13
1005
1118
  0
LINE
  5
10C2
330
1F
100
AcDbEntity
  8
AM_INV
100
AcDbLine
 10
318.0793237962896
 20
472.051757281969
 30
0.0
 11
311.6793237962893
 21
472.051757281969
 31
0.0
1001
GENIUS_GENBH_13
1002
{
1000
OA
1000
0
1070
   256
1000
ByLayer
1005
10
1005
15
1071
       -1
1002
}
1001
GENIUS_GENOREF_13
1005
1118
  0
ARC
  5
10C3
330
1F
100
AcDbEntity
  8
0
100
AcDbCircle
 10
325.2881175951472
 20
479.5107572819688
 30
0.0
 40
0.9999999999999998
100
AcDbArc
 50
184.9999999999994
 51
270.004000000015
  0
LINE
  5
10C4
330
1F
100
AcDbEntity
  8
0
100
AcDbLine
 10
322.2401175951473
 20
472.7457572819687
 30
0.0
 11
320.8711175951471
 21
480.5107572819688
 31
0.0
1001
GENIUS_GENOREF_13
1005
1117
  0
LINE
  5
10C5
330
1F
100
AcDbEntity
  8
0
100
AcDbLine
 10
322.2821175951472
 20
472.7497572819689
 30
0.0
 11
318.8793237962896
 21
472.4820081633317
 31
0.0
1001
GENIUS_GENOREF_13
1005
1118
  0
LINE
  5
10C6
330
1F
100
AcDbEntity
  8
AM_INV
100
AcDbLine
 10
318.8793237962896
 20
472.051757281969
 30
0.0
 11
318.0793237962896
 21
472.051757281969
 31
0.0
1001
GENIUS_GENBH_13
1002
{
1000
OA
1000
0
1070
   256
1000
ByLayer
1005
10
1005
15
1071
       -1
1002
}
1001
GENIUS_GENOREF_13
1005
1118
  0
LINE
  5
10C7
330
1F
100
AcDbEntity
  8
0
100
AcDbLine
 10
323.2801175951472
 20
480.5087572819688
 30
0.0
 11
318.8793237962896
 21
480.5090189691781
 31
0.0
1001
GENIUS_GENOREF_13
1005
1118
1005
1117
  0
ARC
  5
10C8
330
1F
100
AcDbEntity
  8
0
100
AcDbCircle
 10
323.2801175951472
 20
479.5107572819688
 30
0.0
 40
0.9999999999999998
100
AcDbArc
 50
5.001000000001259
 51
89.99700000000936
  0
LINE
  5
10C9
330
1F
100
AcDbEntity
  8
0
100
AcDbLine
 10
324.2921175951472
 20
479.4227572819688
 30
0.0
 11
324.2761175951471
 21
479.5977572819688
 31
0.0
  0
LINE
  5
10CA
330
1F
100
AcDbEntity
  8
0
100
AcDbLine
 10
307.5231175951472
 20
472.8657572819688
 30
0.0
 11
308.8711175951471
 21
480.5107572819688
 31
0.0
1001
GENIUS_GENOREF_13
1005
1117
  0
LINE
  5
10CB
330
1F
100
AcDbEntity
  8
AM_INV
100
AcDbLine
 10
313.084117595147
 20
472.3297572819688
 30
0.0
 11
310.8793237962893
 21
472.5421279631198
 31
0.0
1001
GENIUS_GENBH_13
1002
{
1000
OA
1000
0
1070
   256
1000
ByLayer
1005
10
1005
15
1071
       -1
1002
}
1001
GENIUS_GENOREF_13
1005
1118
  0
LINE
  5
10CC
330
1F
100
AcDbEntity
  8
AM_INV
100
AcDbLine
 10
316.5631175951471
 20
472.2997572819688
 30
0.0
 11
313.084117595147
 21
472.3297572819688
 31
0.0
1001
GENIUS_GENBH_13
1002
{
1000
OA
1000
0
1070
   256
1000
ByLayer
1005
10
1005
15
1071
       -1
1002
}
1001
GENIUS_GENOREF_13
1005
1118
  0
LINE
  5
10CD
330
1F
100
AcDbEntity
  8
0
100
AcDbLine
 10
310.8793237962893
 20
472.5421279631198
 30
0.0
 11
307.374117595147
 21
472.8797572819687
 31
0.0
1001
GENIUS_GENOREF_13
1005
1118
  0
LINE
  5
10CE
330
1F
100
AcDbEntity
  8
AM_INV
100
AcDbLine
 10
311.6793237962893
 20
472.051757281969
 30
0.0
 11
310.8793237962893
 21
472.051757281969
 31
0.0
1001
GENIUS_GENBH_13
1002
{
1000
OA
1000
0
1070
   256
1000
ByLayer
1005
10
1005
15
1071
       -1
1002
}
1001
GENIUS_GENOREF_13
1005
1118
  0
LINE
  5
10CF
330
1F
100
AcDbEntity
  8
AM_INV
100
AcDbLine
 10
311.6793237962893
 20
472.051757281969
 30
0.0
 11
310.8793237962893
 21
472.051757281969
 31
0.0
1001
GENIUS_GENBH_13
1002
{
1000
OA
1000
0
1070
   256
1000
ByLayer
1005
10
1005
15
1071
       -1
1002
}
1001
GENIUS_GENOREF_13
1005
1118
  0
LINE
  5
10D0
330
1F
100
AcDbEntity
  8
0
100
AcDbLine
 10
309.1245253184036
 20
480.5095990249833
 30
0.0
 11
309.0745201681709
 21
480.5096019984715
 31
0.0
1001
GENIUS_GENOREF_13
1005
1118
1005
1117
  0
LINE
  5
10D1
330
1F
100
AcDbEntity
  8
AM_INV
100
AcDbLine
 10
310.8793237962893
 20
480.5094946782819
 30
0.0
 11
309.1245253184036
 21
480.5095990249833
 31
0.0
1001
GENIUS_GENBH_13
1002
{
1000
OA
1000
0
1070
   256
1000
ByLayer
1005
10
1005
15
1071
       -1
1002
}
1001
GENIUS_GENOREF_13
1005
1118
1005
1117
  0
LINE
  5
10D2
330
1F
100
AcDbEntity
  8
0
100
AcDbLine
 10
319.6650065153369
 20
494.9723380897883
 30
0.0
 11
309.998724817731
 21
494.9723380897883
 31
0.0
  0
LINE
  5
10D3
330
1F
100
AcDbEntity
  8
0
100
AcDbLine
 10
319.6650065153369
 20
487.8866529797867
 30
0.0
 11
319.6650065153369
 21
494.9723380897883
 31
0.0
  0
LINE
  5
10D4
330
1F
100
AcDbEntity
  8
0
100
AcDbLine
 10
323.1053439372983
 20
487.8866529797867
 30
0.0
 11
319.6650065153369
 21
487.8866529797867
 31
0.0
  0
LINE
  5
10D5
330
1F
100
AcDbEntity
  8
0
100
AcDbLine
 10
309.998724817731
 20
494.9723380897883
 30
0.0
 11
309.998724817731
 21
487.8998269494063
 31
0.0
  0
LINE
  5
10D6
330
1F
100
AcDbEntity
  8
0
100
AcDbLine
 10
309.998724817731
 20
487.8998269494063
 30
0.0
 11
306.6239167492929
 21
487.8998269494063
 31
0.0
  0
LINE
  5
10D7
330
1F
100
AcDbEntity
  8
0
100
AcDbLine
 10
254.0073439372984
 20
481.5017476442969
 30
0.0
 11
254.0073439372984
 21
487.8866529797867
 31
0.0
  0
LINE
  5
10D8
330
1F
100
AcDbEntity
  8
0
100
AcDbLine
 10
237.5259167492929
 20
487.8998269494063
 30
0.0
 11
237.5259167492929
 21
481.5362680278774
 31
0.0
  0
LINE
  5
10D9
330
1F
100
AcDbEntity
  8
AM_9N
100
AcDbLine
 10
241.7813237962894
 20
480.5092570738461
 30
0.0
 11
241.7813237962894
 21
487.0092570738461
 31
0.0
  0
LINE
  5
10DA
330
1F
100
AcDbEntity
  8
AM_9N
100
AcDbLine
 10
242.5481362962894
 20
480.5092570738461
 30
0.0
 11
242.5481362962894
 21
487.0092570738461
 31
0.0
  0
LINE
  5
10DB
330
1F
100
AcDbEntity
  8
AM_0N
100
AcDbLine
 10
238.2696175951471
 20
481.5239501719467
 30
0.0
 11
238.2696175951471
 21
485.9945639757452
 31
0.0
  0
LINE
  5
10DC
330
1F
100
AcDbEntity
  8
AM_0N
100
AcDbLine
 10
242.0233675951472
 20
481.5239501719467
 30
0.0
 11
242.0233675951472
 21
485.9945639757452
 31
0.0
  0
LINE
  5
10DD
330
1F
100
AcDbEntity
  8
AM_9N
100
AcDbLine
 10
249.7813237962894
 20
487.0092570738461
 30
0.0
 11
249.7813237962894
 21
480.5092570738461
 31
0.0
  0
LINE
  5
10DE
330
1F
100
AcDbEntity
  8
AM_9N
100
AcDbLine
 10
249.0145112962894
 20
480.5092570738461
 30
0.0
 11
249.0145112962894
 21
487.0092570738461
 31
0.0
  0
LINE
  5
10DF
330
1F
100
AcDbEntity
  8
AM_7N
  6
AM_DIN_G_W050x2
100
AcDbLine
 10
245.7771175951473
 20
477.5092570738461
 30
0.0
 11
245.7771175951473
 21
490.0092570738461
 31
0.0
  0
LINE
  5
10E0
330
1F
100
AcDbEntity
  8
AM_0N
100
AcDbLine
 10
249.5308675951471
 20
481.5239501719467
 30
0.0
 11
249.5308675951471
 21
485.9945639757452
 31
0.0
  0
LINE
  5
10E1
330
1F
100
AcDbEntity
  8
AM_0N
100
AcDbLine
 10
253.2846175951472
 20
481.5239501719467
 30
0.0
 11
253.2846175951472
 21
485.9945639757452
 31
0.0
  0
LINE
  5
10E2
330
1F
100
AcDbEntity
  8
0
100
AcDbLine
 10
214.8751175951472
 20
478.5107572819688
 30
0.0
 11
304.4551175951472
 21
478.5107572819688
 31
0.0
  0
LINE
  5
10E4
330
1F
100
AcDbEntity
  8
0
100
AcDbLine
 10
301.6561175951472
 20
472.4297572819688
 30
0.0
 11
293.8261175951473
 21
472.5087572819688
 31
0.0
  0
ARC
  5
10E5
330
1F
100
AcDbEntity
  8
0
100
AcDbCircle
 10
304.4551175951472
 20
479.5107572819688
 30
0.0
 40
0.9999999999999998
100
AcDbArc
 50
269.9949999999855
 51
355.0000000000006
  0
LINE
  5
10E6
330
1F
100
AcDbEntity
  8
0
100
AcDbLine
 10
305.4511175951473
 20
479.4237572819688
 30
0.0
 11
305.4661175951471
 21
479.5977572819688
 31
0.0
  0
ARC
  5
10E7
330
1F
100
AcDbEntity
  8
0
100
AcDbCircle
 10
306.4631175951472
 20
479.5107572819688
 30
0.0
 40
0.9999999999999998
100
AcDbArc
 50
89.99500000001154
 51
175.0000000000005
  0
LINE
  5
10E9
330
1F
100
AcDbEntity
  8
0
100
AcDbLine
 10
292.2481175951473
 20
473.9577572819688
 30
0.0
 11
291.8501175951472
 21
478.5107572819688
 31
0.0
  0
ARC
  5
10EA
330
1F
100
AcDbEntity
  8
0
100
AcDbCircle
 10
293.8421175951471
 20
474.0977572819688
 30
0.0
 40
1.599999999999999
100
AcDbArc
 50
184.9999999999994
 51
269.4980000000024
  0
LINE
  5
10EB
330
1F
100
AcDbEntity
  8
AM_0N
100
AcDbLine
 10
251.5271175951473
 20
480.5092570738461
 30
0.0
 11
240.0271175951473
 21
480.5092570738461
 31
0.0
  0
ARC
  5
10EC
330
1F
100
AcDbEntity
  8
AM_0N
100
AcDbCircle
 10
245.7771175951473
 20
493.3451212727828
 30
0.0
 40
12.40285149704452
100
AcDbArc
 50
252.3830311595954
 51
287.6169688404046
  0
LINE
  5
10ED
330
1F
100
AcDbEntity
  8
0
100
AcDbLine
 10
254.1821175951473
 20
480.5087572819688
 30
0.0
 11
237.3651175951472
 21
480.5097572819688
 31
0.0
  0
LINE
  5
10EE
330
1F
100
AcDbEntity
  8
7
 48
0.256
100
AcDbLine
 10
245.7771175951473
 20
482.4117572819687
 30
0.0
 11
245.7771175951473
 21
471.1597572819688
 31
0.0
  0
ARC
  5
10EF
330
1F
100
AcDbEntity
  8
0
100
AcDbCircle
 10
254.1821175951473
 20
479.5107572819688
 30
0.0
 40
0.9999999999999998
100
AcDbArc
 50
5.001000000001259
 51
89.99700000000936
  0
ARC
  5
10F0
330
1F
100
AcDbEntity
  8
0
100
AcDbCircle
 10
256.1901175951473
 20
479.5107572819688
 30
0.0
 40
0.9999999999999998
100
AcDbArc
 50
184.9999999999994
 51
270.004000000015
  0
ARC
  5
10F1
330
1F
100
AcDbEntity
  8
AM_0N
100
AcDbCircle
 10
251.407742595147
 20
484.2611127985776
 30
0.0
 40
3.318843022839332
100
AcDbArc
 50
235.5615305952538
 51
295.5615305952742
  0
LINE
  5
10F2
330
1F
100
AcDbEntity
  8
AM_0N
100
AcDbLine
 10
253.2846175951472
 20
481.5239501719467
 30
0.0
 11
251.5271175951473
 21
480.5092570738461
 31
0.0
  0
LINE
  5
10F3
330
1F
100
AcDbEntity
  8
0
100
AcDbLine
 10
255.1941175951472
 20
479.4227572819688
 30
0.0
 11
255.1781175951471
 21
479.5967572819688
 31
0.0
  0
ARC
  5
10F4
330
1F
100
AcDbEntity
  8
0
100
AcDbCircle
 10
235.3571175951472
 20
479.5107572819688
 30
0.0
 40
0.9999999999999998
100
AcDbArc
 50
269.9949999999855
 51
355.0000000000006
  0
ARC
  5
10F5
330
1F
100
AcDbEntity
  8
AM_0N
100
AcDbCircle
 10
240.1464925951473
 20
484.2611127985776
 30
0.0
 40
3.318843022839332
100
AcDbArc
 50
244.4384694047258
 51
304.4384694047462
  0
LINE
  5
10F6
330
1F
100
AcDbEntity
  8
AM_0N
100
AcDbLine
 10
238.2696175951471
 20
481.5239501719467
 30
0.0
 11
240.0271175951473
 21
480.5092570738461
 31
0.0
  0
ARC
  5
10F7
330
1F
100
AcDbEntity
  8
0
100
AcDbCircle
 10
237.3651175951472
 20
479.5107572819688
 30
0.0
 40
0.9999999999999998
100
AcDbArc
 50
89.99500000001154
 51
175.0000000000005
  0
LINE
  5
10F8
330
1F
100
AcDbEntity
  8
0
100
AcDbLine
 10
236.3531175951471
 20
479.4237572819688
 30
0.0
 11
236.3681175951472
 21
479.5977572819688
 31
0.0
  0
LINE
  5
10F9
330
1F
100
AcDbEntity
  8
0
100
AcDbLine
 10
250.567006515337
 20
494.9723380897883
 30
0.0
 11
240.9007248177311
 21
494.9723380897883
 31
0.0
  0
ARC
  5
10FA
330
1F
100
AcDbEntity
  8
AM_3N
  6
AM_DIN_F_W050x2
100
AcDbCircle
 10
245.7813237962894
 20
492.3185906110509
 30
0.0
 40
3.464999999999998
100
AcDbArc
 50
250.5287793655277
 51
289.4712206344724
  0
LINE
  5
10FB
330
1F
100
AcDbEntity
  8
AM_0N
100
AcDbLine
 10
249.7813237962894
 20
493.2849447819689
 30
0.0
 11
241.7813237962894
 21
493.2849447819689
 31
0.0
  0
LINE
  5
10FC
330
1F
100
AcDbEntity
  8
AM_3N
  6
AM_DIN_F_W050x2
100
AcDbLine
 10
243.4713237962894
 20
489.051757281969
 30
0.0
 11
245.7813237962894
 21
487.7180781601409
 31
0.0
  0
LINE
  5
10FD
330
1F
100
AcDbEntity
  8
AM_0N
100
AcDbLine
 10
242.5481362962894
 20
494.051757281969
 30
0.0
 11
249.0145112962894
 21
494.051757281969
 31
0.0
  0
LINE
  5
10FE
330
1F
100
AcDbEntity
  8
AM_0N
100
AcDbLine
 10
251.5271175951473
 20
487.0092570738461
 30
0.0
 11
240.0271175951473
 21
487.0092570738461
 31
0.0
  0
ARC
  5
10FF
330
1F
100
AcDbEntity
  8
AM_0N
100
AcDbCircle
 10
245.7771175951473
 20
474.1733928749093
 30
0.0
 40
12.40285149704449
100
AcDbArc
 50
72.38303115959543
 51
107.6169688404045
  0
LINE
  5
1100
330
1F
100
AcDbEntity
  8
0
100
AcDbLine
 10
250.567006515337
 20
487.8866529797867
 30
0.0
 11
250.567006515337
 21
494.9723380897883
 31
0.0
  0
LINE
  5
1101
330
1F
100
AcDbEntity
  8
AM_0N
100
AcDbLine
 10
249.7813237962894
 20
493.2849447819689
 30
0.0
 11
249.7813237962894
 21
487.0092570738461
 31
0.0
  0
LINE
  5
1102
330
1F
100
AcDbEntity
  8
AM_4N
100
AcDbLine
 10
249.0145112962894
 20
487.0092570738461
 30
0.0
 11
249.0145112962894
 21
494.051757281969
 31
0.0
  0
LINE
  5
1103
330
1F
100
AcDbEntity
  8
AM_3N
  6
AM_DIN_F_W050x2
100
AcDbLine
 10
248.0913237962895
 20
494.051757281969
 30
0.0
 11
248.0913237962895
 21
489.051757281969
 31
0.0
  0
LINE
  5
1104
330
1F
100
AcDbEntity
  8
AM_3N
  6
AM_DIN_F_W050x2
100
AcDbLine
 10
246.9363237962896
 20
494.051757281969
 30
0.0
 11
246.9363237962896
 21
489.051757281969
 31
0.0
  0
ARC
  5
1105
330
1F
100
AcDbEntity
  8
AM_0N
100
AcDbCircle
 10
251.407742595147
 20
483.2574013491145
 30
0.0
 40
3.318843022839332
100
AcDbArc
 50
64.43846940472582
 51
124.4384694047462
  0
LINE
  5
1106
330
1F
100
AcDbEntity
  8
0
100
AcDbLine
 10
254.0073439372984
 20
487.8866529797867
 30
0.0
 11
250.567006515337
 21
487.8866529797867
 31
0.0
  0
LINE
  5
1107
330
1F
100
AcDbEntity
  8
AM_0N
100
AcDbLine
 10
253.2846175951472
 20
485.9945639757452
 30
0.0
 11
251.5271175951473
 21
487.0092570738461
 31
0.0
  0
ARC
  5
1108
330
1F
100
AcDbEntity
  8
AM_3N
  6
AM_DIN_F_W050x2
100
AcDbCircle
 10
247.5138237962895
 20
489.7941531126451
 30
0.0
 40
0.9405625015943437
100
AcDbArc
 50
232.1211205082856
 51
292.1211205082891
  0
LINE
  5
1109
330
1F
100
AcDbEntity
  8
AM_3N
  6
AM_DIN_F_W050x2
100
AcDbLine
 10
248.0913237962895
 20
489.051757281969
 30
0.0
 11
245.7813237962894
 21
487.7180781601409
 31
0.0
  0
LINE
  5
110A
330
1F
100
AcDbEntity
  8
AM_0N
100
AcDbLine
 10
249.7813237962894
 20
493.2849447819689
 30
0.0
 11
249.0145112962894
 21
494.051757281969
 31
0.0
  0
LINE
  5
110B
330
1F
100
AcDbEntity
  8
0
100
AcDbLine
 10
240.9007248177311
 20
494.9723380897883
 30
0.0
 11
240.9007248177311
 21
487.8998269494063
 31
0.0
  0
LINE
  5
110C
330
1F
100
AcDbEntity
  8
AM_0N
100
AcDbLine
 10
241.7813237962894
 20
487.0092570738461
 30
0.0
 11
241.7813237962894
 21
493.2849447819689
 31
0.0
  0
LINE
  5
110D
330
1F
100
AcDbEntity
  8
AM_4N
100
AcDbLine
 10
242.5481362962894
 20
487.0092570738461
 30
0.0
 11
242.5481362962894
 21
494.051757281969
 31
0.0
  0
LINE
  5
110E
330
1F
100
AcDbEntity
  8
AM_3N
  6
AM_DIN_F_W050x2
100
AcDbLine
 10
243.4713237962894
 20
494.051757281969
 30
0.0
 11
243.4713237962894
 21
489.051757281969
 31
0.0
  0
LINE
  5
110F
330
1F
100
AcDbEntity
  8
AM_3N
  6
AM_DIN_F_W050x2
100
AcDbLine
 10
244.6263237962894
 20
494.051757281969
 30
0.0
 11
244.6263237962894
 21
489.051757281969
 31
0.0
  0
LINE
  5
1110
330
1F
100
AcDbEntity
  8
0
100
AcDbLine
 10
240.9007248177311
 20
487.8998269494063
 30
0.0
 11
237.5259167492929
 21
487.8998269494063
 31
0.0
  0
ARC
  5
1111
330
1F
100
AcDbEntity
  8
AM_0N
100
AcDbCircle
 10
240.1464925951473
 20
483.2574013491145
 30
0.0
 40
3.318843022839362
100
AcDbArc
 50
55.56153059525376
 51
115.5615305952742
  0
LINE
  5
1112
330
1F
100
AcDbEntity
  8
AM_0N
100
AcDbLine
 10
238.2696175951471
 20
485.9945639757452
 30
0.0
 11
240.0271175951473
 21
487.0092570738461
 31
0.0
  0
ARC
  5
1113
330
1F
100
AcDbEntity
  8
AM_3N
  6
AM_DIN_F_W050x2
100
AcDbCircle
 10
244.0488237962895
 20
489.7941531126451
 30
0.0
 40
0.9405625015943437
100
AcDbArc
 50
247.8788794917109
 51
307.8788794917144
  0
LINE
  5
1114
330
1F
100
AcDbEntity
  8
AM_0N
100
AcDbLine
 10
242.5481362962894
 20
494.051757281969
 30
0.0
 11
241.7813237962894
 21
493.2849447819689
 31
0.0
  0
POINT
  5
1115
330
1F
100
AcDbEntity
  8
0
 60
     1
100
AcDbPoint
 10
405.2120875462087
 20
193.8553825162817
 30
0.0
 50
180.0
1001
GENIUS_GENOENT_13
1002
{
1000
MYREF
1005
1115
1002
}
1002
{
1000
GRP
1005
0
1002
}
1001
GENIUS_GENOLIS_13
1002
{
1000
ENT
1005
10A6
1002
}
1001
GENIUS_GENOBJ-NBEHI-BHF_13
1002
{
1000
OWNER
1000
genbehi
1002
}
1001
GENIUS_GENODEF_13
1002
{
1000
HIER
1070
     1
1002
}
1002
{
1000
MANEDIT
1070
     0
1002
}
1002
{
1000
NOSEL
1070
     1
1002
}
1002
{
1000
BEHIND
1070
     0
1002
}
1002
{
1000
OTHER
1070
     0
1002
}
1002
{
1000
REACTOR
1002
}
1001
GENIUS_GENBH_13
1002
{
1000
OIUMAP
1000
OIU
1002
}
1002
{
1000
FLAGS
1070
    32
1002
}
1002
{
1000
BGO
1005
1118
1002
}
  0
POINT
  5
1116
330
1F
100
AcDbEntity
  8
0
 60
     1
100
AcDbPoint
 10
405.2120875462087
 20
193.8553825162817
 30
0.0
 50
180.0
1001
GENIUS_GENOENT_13
1002
{
1000
MYREF
1005
1116
1002
}
1002
{
1000
GRP
1005
0
1002
}
1001
GENIUS_GENOBJ-NBEHI-BHF_13
1002
{
1000
OWNER
1000
genbehi
1002
}
1001
GENIUS_GENODEF_13
1002
{
1000
HIER
1070
     1
1002
}
1002
{
1000
MANEDIT
1070
     0
1002
}
1002
{
1000
NOSEL
1070
     1
1002
}
1002
{
1000
BEHIND
1070
     0
1002
}
1002
{
1000
OTHER
1070
     0
1002
}
1002
{
1000
REACTOR
1002
}
1001
GENIUS_GENOLIS_13
1002
{
1000
ENT
1005
10A5
1002
}
1001
GENIUS_GENBH_13
1002
{
1000
OIUMAP
1000
OIU
1002
}
1002
{
1000
FLAGS
1070
    32
1002
}
1002
{
1000
BGO
1005
1117
1002
}
  0
POINT
  5
1117
330
1F
100
AcDbEntity
  8
0
 60
     1
100
AcDbPoint
 10
405.2120875462087
 20
193.8553825162817
 30
0.0
 50
180.0
1001
GENIUS_GENOBJ-NBEHI-BHB_13
1002
{
1000
OWNER
1000
genbehi
1002
}
1001
GENIUS_GENOLIS_13
1002
{
1000
ENT
1005
10D0
1005
10D1
1005
10A0
1005
10C0
1005
10B1
1005
10CA
1005
10C4
1005
10C7
1005
10A6
1002
}
1001
GENIUS_GENOENT_13
1002
{
1000
MYREF
1005
1117
1002
}
1002
{
1000
GRP
1005
0
1002
}
1001
GENIUS_GENODEF_13
1002
{
1000
HIER
1070
     1
1002
}
1002
{
1000
MANEDIT
1070
     0
1002
}
1002
{
1000
NOSEL
1070
     1
1002
}
1002
{
1000
BEHIND
1070
     0
1002
}
1002
{
1000
OTHER
1070
     1
1002
}
1002
{
1000
REACTOR
1002
}
1001
GENIUS_GENBH_13
1002
{
1000
FGO
1005
1116
1002
}
  0
POINT
  5
1118
330
1F
100
AcDbEntity
  8
0
 60
     1
100
AcDbPoint
 10
405.2120875462087
 20
193.8553825162817
 30
0.0
 50
180.0
1001
GENIUS_GENOENT_13
1002
{
1000
MYREF
1005
1118
1002
}
1002
{
1000
GRP
1005
0
1002
}
1001
GENIUS_GENOLIS_13
1002
{
1000
ENT
1005
10D0
1005
10A0
1005
10CD
1005
F9B
1005
9C2
1005
10C6
1005
10BF
1005
10D1
1005
10C0
1005
10BC
1005
10B7
1005
10AC
1005
10BA
1005
10BE
1005
10C2
1005
10C1
1005
10CC
1005
10CB
1005
10B1
1005
10CF
1005
10CE
1005
9D1
1005
10C5
1005
10C7
1005
10B9
1005
10BD
1005
10BB
1005
10B8
1005
0
1005
9D0
1005
10B5
1005
10B6
1005
10B2
1005
10B4
1005
10B3
1002
}
1001
GENIUS_GENOBJ-NBEHI-BHB_13
1002
{
1000
OWNER
1000
genbehi
1002
}
1001
GENIUS_GENBH_13
1002
{
1000
FGO
1005
1115
1002
}
1001
GENIUS_GENODEF_13
1002
{
1000
HIER
1070
     1
1002
}
1002
{
1000
MANEDIT
1070
     1
1002
}
1002
{
1000
NOSEL
1070
     1
1002
}
1002
{
1000
BEHIND
1070
     1
1002
}
1002
{
1000
OTHER
1070
     1
1002
}
1002
{
1000
REACTOR
1002
}
  0
LINE
  5
1165
330
1F
100
AcDbEntity
  8
AM_INV
 48
0.256
100
AcDbLine
 10
115.2738707030737
 20
482.4117572819687
 30
0.0
 11
115.2738707030737
 21
471.1597572819688
 31
0.0
1001
GENIUS_GENBH_13
1002
{
1000
OA
1000
7
1070
   256
1000
ByLayer
1005
37B
1005
15
1071
       -1
1002
}
1001
GENIUS_GENOREF_13
1005
11CC
1005
11CB
  0
LINE
  5
1166
330
1F
100
AcDbEntity
  8
AM_INV
100
AcDbLine
 10
115.2696645019316
 20
472.051757281969
 30
0.0
 11
115.2696645019316
 21
459.051757281969
 31
0.0
1001
GENIUS_GENBH_13
1002
{
1000
OA
1000
7A
1070
   256
1000
ByLayer
1005
377
1005
15
1071
       -1
1002
}
1001
GENIUS_GENOREF_13
1005
11CC
  0
LINE
  5
1167
330
1F
100
AcDbEntity
  8
AM_INV
100
AcDbLine
 10
118.4696645019317
 20
472.051757281969
 30
0.0
 11
118.4696645019314
 21
459.501757281969
 31
0.0
1001
GENIUS_GENBH_13
1002
{
1000
OA
1000
0
1070
   256
1000
ByLayer
1005
10
1005
15
1071
       -1
1002
}
1001
GENIUS_GENOREF_13
1005
11CC
  0
LINE
  5
1168
330
1F
100
AcDbEntity
  8
AM_INV
100
AcDbLine
 10
112.0696645019313
 20
472.051757281969
 30
0.0
 11
112.0696645019313
 21
459.501757281969
 31
0.0
1001
GENIUS_GENBH_13
1002
{
1000
OA
1000
0
1070
   256
1000
ByLayer
1005
10
1005
15
1071
       -1
1002
}
1001
GENIUS_GENOREF_13
1005
11CC
  0
LINE
  5
1169
330
1F
100
AcDbEntity
  8
AM_INV
100
AcDbLine
 10
119.2696645019316
 20
472.051757281969
 30
0.0
 11
119.2696645019316
 21
462.0517572819689
 31
0.0
1001
GENIUS_GENBH_13
1002
{
1000
OA
1000
4
1070
   256
1000
ByLayer
1005
376
1005
15
1071
       -1
1002
}
1001
GENIUS_GENOREF_13
1005
11CC
  0
LINE
  5
116A
330
1F
100
AcDbEntity
  8
AM_INV
100
AcDbLine
 10
111.2696645019316
 20
472.051757281969
 30
0.0
 11
111.2696645019316
 21
462.0517572819689
 31
0.0
1001
GENIUS_GENBH_13
1002
{
1000
OA
1000
4
1070
   256
1000
ByLayer
1005
376
1005
15
1071
       -1
1002
}
1001
GENIUS_GENOREF_13
1005
11CC
  0
LINE
  5
116B
330
1F
100
AcDbEntity
  8
AM_INV
100
AcDbLine
 10
112.5196645019314
 20
459.051757281969
 30
0.0
 11
118.0196645019316
 21
459.051757281969
 31
0.0
1001
GENIUS_GENBH_13
1002
{
1000
OA
1000
0
1070
   256
1000
ByLayer
1005
10
1005
15
1071
       -1
1002
}
1001
GENIUS_GENOREF_13
1005
11CC
  0
LINE
  5
116C
330
1F
100
AcDbEntity
  8
AM_INV
100
AcDbLine
 10
111.2696645019316
 20
462.0517572819689
 30
0.0
 11
119.2696645019316
 21
462.0517572819689
 31
0.0
1001
GENIUS_GENBH_13
1002
{
1000
OA
1000
4
1070
   256
1000
ByLayer
1005
376
1005
15
1071
       -1
1002
}
1001
GENIUS_GENOREF_13
1005
11CC
  0
LINE
  5
116D
330
1F
100
AcDbEntity
  8
AM_INV
100
AcDbLine
 10
111.2696645019314
 20
472.4820081633317
 30
0.0
 11
113.5858707030738
 21
472.2997572819688
 31
0.0
1001
GENIUS_GENBH_13
1002
{
1000
OA
1000
0
1070
   256
1000
ByLayer
1005
10
1005
15
1071
       -1
1002
}
1001
GENIUS_GENOREF_13
1005
11CC
  0
LINE
  5
116E
330
1F
100
AcDbEntity
  8
AM_INV
100
AcDbLine
 10
111.2696645019314
 20
480.5090189691781
 30
0.0
 11
119.2696645019316
 21
480.5094946782819
 31
0.0
1001
GENIUS_GENBH_13
1002
{
1000
OA
1000
0
1070
   256
1000
ByLayer
1005
10
1005
15
1071
       -1
1002
}
1001
GENIUS_GENOREF_13
1005
11CC
1005
11CB
  0
LINE
  5
116F
330
1F
100
AcDbEntity
  8
AM_INV
100
AcDbLine
 10
112.0696645019313
 20
472.051757281969
 30
0.0
 11
118.4696645019317
 21
472.051757281969
 31
0.0
1001
GENIUS_GENBH_13
1002
{
1000
OA
1000
0
1070
   256
1000
ByLayer
1005
10
1005
15
1071
       -1
1002
}
1001
GENIUS_GENOREF_13
1005
11CC
  0
LINE
  5
1170
330
1F
100
AcDbEntity
  8
AM_INV
100
AcDbLine
 10
112.0696645019313
 20
472.051757281969
 30
0.0
 11
118.4696645019317
 21
472.051757281969
 31
0.0
1001
GENIUS_GENBH_13
1002
{
1000
OA
1000
0
1070
   256
1000
ByLayer
1005
10
1005
15
1071
       -1
1002
}
1001
GENIUS_GENOREF_13
1005
11CC
  0
LINE
  5
1171
330
1F
100
AcDbEntity
  8
AM_INV
100
AcDbLine
 10
111.2696645019314
 20
472.051757281969
 30
0.0
 11
112.0696645019313
 21
472.051757281969
 31
0.0
1001
GENIUS_GENBH_13
1002
{
1000
OA
1000
0
1070
   256
1000
ByLayer
1005
10
1005
15
1071
       -1
1002
}
1001
GENIUS_GENOREF_13
1005
11CC
  0
LINE
  5
1172
330
1F
100
AcDbEntity
  8
AM_INV
100
AcDbLine
 10
117.0648707030739
 20
472.3297572819688
 30
0.0
 11
119.2696645019316
 21
472.5421279631198
 31
0.0
1001
GENIUS_GENBH_13
1002
{
1000
OA
1000
0
1070
   256
1000
ByLayer
1005
10
1005
15
1071
       -1
1002
}
1001
GENIUS_GENOREF_13
1005
11CC
  0
LINE
  5
1173
330
1F
100
AcDbEntity
  8
AM_INV
100
AcDbLine
 10
113.5858707030738
 20
472.2997572819688
 30
0.0
 11
117.0648707030739
 21
472.3297572819688
 31
0.0
1001
GENIUS_GENBH_13
1002
{
1000
OA
1000
0
1070
   256
1000
ByLayer
1005
10
1005
15
1071
       -1
1002
}
1001
GENIUS_GENOREF_13
1005
11CC
  0
LINE
  5
1174
330
1F
100
AcDbEntity
  8
AM_INV
100
AcDbLine
 10
118.4696645019317
 20
472.051757281969
 30
0.0
 11
119.2696645019316
 21
472.051757281969
 31
0.0
1001
GENIUS_GENBH_13
1002
{
1000
OA
1000
0
1070
   256
1000
ByLayer
1005
10
1005
15
1071
       -1
1002
}
1001
GENIUS_GENOREF_13
1005
11CC
  0
LINE
  5
1175
330
1F
100
AcDbEntity
  8
AM_INV
100
AcDbLine
 10
118.4696645019317
 20
472.051757281969
 30
0.0
 11
119.2696645019316
 21
472.051757281969
 31
0.0
1001
GENIUS_GENBH_13
1002
{
1000
OA
1000
0
1070
   256
1000
ByLayer
1005
10
1005
15
1071
       -1
1002
}
1001
GENIUS_GENOREF_13
1005
11CC
  0
LINE
  5
1176
330
1F
100
AcDbEntity
  8
AM_INV
100
AcDbLine
 10
119.2696645019316
 20
480.5094946782819
 30
0.0
 11
121.0244629798173
 21
480.5095990249833
 31
0.0
1001
GENIUS_GENBH_13
1002
{
1000
OA
1000
0
1070
   256
1000
ByLayer
1005
10
1005
15
1071
       -1
1002
}
1001
GENIUS_GENOREF_13
1005
11CC
1005
11CB
  0
LINE
  5
1181
330
1F
100
AcDbEntity
  8
0
100
AcDbLine
 10
142.7768707030741
 20
480.509757281967
 30
0.0
 11
125.9598707030741
 21
480.5097572819667
 31
0.0
  0
LINE
  5
1182
330
1F
100
AcDbEntity
  8
0
100
AcDbLine
 10
215.2738707030744
 20
478.5107572819688
 30
0.0
 11
77.24887070307431
 21
478.5107572819653
 31
0.0
  0
ARC
  5
1183
330
1F
100
AcDbEntity
  8
0
100
AcDbCircle
 10
144.7848707030743
 20
479.5107572819671
 30
0.0
 40
1.0
100
AcDbArc
 50
185.0000000000011
 51
270.004000000015
  0
LINE
  5
1184
330
1F
100
AcDbEntity
  8
0
100
AcDbLine
 10
143.7888707030743
 20
479.4227572819671
 30
0.0
 11
143.7738707030744
 21
479.596757281967
 31
0.0
  0
ARC
  5
1185
330
1F
100
AcDbEntity
  8
0
100
AcDbCircle
 10
142.7768707030743
 20
479.510757281967
 30
0.0
 40
1.0
100
AcDbArc
 50
5.001000000002882
 51
89.99700000000936
  0
LINE
  5
1186
330
1F
100
AcDbEntity
  8
AM_7
  6
AM_DIN_G_W050x2
100
AcDbLine
 10
129.4308259326326
 20
478.5107572819665
 30
0.0
 11
129.4308259326321
 21
497.5454001418727
 31
0.0
1001
GENIUS_GENOBJ-N-CEN_13
1002
{
1000
OWNER
1000
GEN
1002
}
1001
GENIUS_GENODEF_13
1002
{
1000
HIER
1070
     0
1002
}
1002
{
1000
MANEDIT
1070
     0
1002
}
1002
{
1000
NOSEL
1070
     0
1002
}
1002
{
1000
BEHIND
1070
     0
1002
}
1002
{
1000
OTHER
1070
     0
1002
}
1002
{
1000
REACTOR
1002
}
  0
LINE
  5
1187
330
1F
100
AcDbEntity
  8
0
100
AcDbLine
 10
126.1171698572198
 20
487.9003271575269
 30
0.0
 11
126.1171698572198
 21
481.536768235998
 31
0.0
  0
LINE
  5
1188
330
1F
100
AcDbEntity
  8
0
100
AcDbLine
 10
142.5985970452252
 20
481.5022478524179
 30
0.0
 11
142.5985970452252
 21
487.8871531879076
 31
0.0
  0
LINE
  5
1189
330
1F
100
AcDbEntity
  8
AM_9N
100
AcDbLine
 10
130.3725769042164
 20
480.5097572819667
 30
0.0
 11
130.3725769042164
 21
487.0097572819666
 31
0.0
  0
LINE
  5
118A
330
1F
100
AcDbEntity
  8
AM_9N
100
AcDbLine
 10
131.1393894042164
 20
480.5097572819668
 30
0.0
 11
131.1393894042164
 21
487.0097572819668
 31
0.0
  0
LINE
  5
118B
330
1F
100
AcDbEntity
  8
AM_0N
100
AcDbLine
 10
126.8608707030741
 20
481.5244503800673
 30
0.0
 11
126.8608707030741
 21
485.9950641838658
 31
0.0
  0
LINE
  5
118C
330
1F
100
AcDbEntity
  8
AM_0N
100
AcDbLine
 10
130.614620703074
 20
481.5244503800674
 30
0.0
 11
130.614620703074
 21
485.9950641838659
 31
0.0
  0
LINE
  5
118D
330
1F
100
AcDbEntity
  8
AM_9N
100
AcDbLine
 10
138.3725769042164
 20
487.0097572819669
 30
0.0
 11
138.3725769042164
 21
480.5097572819668
 31
0.0
  0
LINE
  5
118E
330
1F
100
AcDbEntity
  8
AM_9N
100
AcDbLine
 10
137.6057644042164
 20
480.5097572819668
 30
0.0
 11
137.6057644042164
 21
487.0097572819669
 31
0.0
  0
LINE
  5
118F
330
1F
100
AcDbEntity
  8
AM_0N
100
AcDbLine
 10
138.1221207030742
 20
481.5244503800676
 30
0.0
 11
138.1221207030742
 21
485.9950641838659
 31
0.0
  0
LINE
  5
1190
330
1F
100
AcDbEntity
  8
AM_0N
100
AcDbLine
 10
141.875870703074
 20
481.5244503800677
 30
0.0
 11
141.875870703074
 21
485.9950641838661
 31
0.0
  0
LINE
  5
1191
330
1F
100
AcDbEntity
  8
0
100
AcDbLine
 10
92.7738707030744
 20
472.9177572819658
 30
0.0
 11
101.9248707030742
 21
472.197757281966
 31
0.0
  0
HATCH
  5
1192
330
1F
100
AcDbEntity
  8
8
100
AcDbHatch
 10
0.0
 20
0.0
 30
0.0
210
0.0
220
0.0
230
1.0
  2
_U
 70
     0
 71
     0
 91
        1
 92
        1
 93
       17
 72
     1
 10
122.7744210928415
 20
472.8797139745011
 11
128.4928707030744
 21
472.4297572819668
 72
     1
 10
128.4928707030744
 20
472.4297572819666
 11
133.1308707030744
 21
472.476551917982
 72
     1
 10
133.1308707030744
 20
472.476551917982
 11
133.1308707030741
 21
478.5107572819668
 72
     1
 10
133.1308707030744
 20
478.5107572819668
 11
77.24887070307431
 21
478.5107572819653
 72
     1
 10
77.24887070307431
 20
478.5107572819653
 11
77.24878315443629
 21
478.5107572819653
 72
     1
 10
77.24878315443629
 20
478.5107572819653
 11
77.24887070307431
 21
478.5097572819654
 72
     1
 10
77.24887070307431
 20
478.5097572819654
 11
77.5530453448905
 21
475.0354069287745
 72
     2
 10
80.5416138716771
 20
475.2970520332596
 40
2.999999999999948
 50
-174.9965898284344
 51
-94.60820957388479
 73
     1
 72
     1
 10
80.30058863348472
 20
472.3067499022778
 11
83.63787070307443
 21
472.0377572819655
 72
     1
 10
83.63787070307443
 20
472.0377572819655
 11
92.7738707030744
 21
472.9177572819658
 72
     1
 10
92.7738707030744
 20
472.9177572819658
 11
101.9247723380131
 21
472.1977650213217
 72
     1
 10
101.9247723380131
 20
472.1977650213217
 11
102.1568707030742
 21
472.1997572819661
 72
     1
 10
102.1568707030742
 20
472.1997572819661
 11
102.1579685168699
 21
472.1997667052604
 72
     1
 10
102.1579685168701
 20
472.1997667052604
 11
107.8668707030745
 21
472.7497572819661
 72
     1
 10
107.8668707030742
 20
472.7497572819661
 11
113.5858707030736
 21
472.2997572819663
 72
     1
 10
113.5858707030738
 20
472.2997572819663
 11
117.0648707030743
 21
472.3297572819664
 72
     1
 10
117.0648707030743
 20
472.3297572819664
 11
122.7744210928415
 21
472.879713974501
 97
        0
 75
     0
 76
     0
 52
45.0
 41
2.5
 77
     0
 78
     1
 53
45.00000000000144
 43
-2.913129296916395
 44
107.4797572819633
 45
-1.767766952966413
 46
1.767766952966324
 79
     0
 98
        1
 10
-2.913129296916395
 20
107.4797572819633
1001
GENIUS_GENODEF_13
1002
{
1000
HIER
1070
     0
1002
}
1002
{
1000
MANEDIT
1070
     0
1002
}
1002
{
1000
NOSEL
1070
     0
1002
}
1002
{
1000
BEHIND
1070
     0
1002
}
1002
{
1000
REACTOR
1002
}
1001
GENIUS_GENOBJ-N-HTC_13
1002
{
1000
OWNER
1000
GEN
1002
}
1001
GENIUS_GENHATCH_13
1002
{
1000
DATA
1040
45.0
1042
-2.5
1000
_U
1070
     0
1011
125.6667855602813
1021
475.0879930876965
1031
0.0
1002
}
1002
{
1000
UCS
1010
0.0
1020
0.0
1030
0.0
1010
1.0
1020
0.0
1030
0.0
1010
0.0
1020
1.0
1030
0.0
1002
}
  0
LINE
  5
1193
330
1F
100
AcDbEntity
  8
0
100
AcDbLine
 10
117.0648707030743
 20
472.3297572819664
 30
0.0
 11
122.7748707030744
 21
472.8797572819664
 31
0.0
  0
LINE
  5
1194
330
1F
100
AcDbEntity
  8
AM_0N
100
AcDbLine
 10
140.1183707030741
 20
480.509757281967
 30
0.0
 11
128.6183707030741
 21
480.5097572819667
 31
0.0
  0
ARC
  5
1195
330
1F
100
AcDbEntity
  8
AM_0N
100
AcDbCircle
 10
134.3683707030739
 20
493.3456214809034
 30
0.0
 40
12.40285149704452
100
AcDbArc
 50
252.3830311596228
 51
287.6169688404046
  0
LINE
  5
1196
330
1F
100
AcDbEntity
  8
0
100
AcDbLine
 10
128.4928707030744
 20
472.4297572819666
 30
0.0
 11
136.3228707030744
 21
472.5087572819669
 31
0.0
  0
LINE
  5
1197
330
1F
100
AcDbEntity
  8
0
100
AcDbLine
 10
137.9008707030743
 20
473.9577572819668
 30
0.0
 11
138.2988707030742
 21
478.5107572819669
 31
0.0
  0
HATCH
  5
1198
330
1F
100
AcDbEntity
  8
8
100
AcDbHatch
 10
0.0
 20
0.0
 30
0.0
210
0.0
220
0.0
230
1.0
  2
_U
 70
     0
 71
     0
 91
        1
 92
        1
 93
        8
 72
     1
 10
137.9006457759456
 20
473.9567572213478
 11
137.9008707030743
 21
473.957757281967
 72
     1
 10
137.9008707030743
 20
473.9577572819668
 11
138.2987832881829
 21
478.5097572819669
 72
     1
 10
138.2987832881831
 20
478.5097572819669
 11
133.1308707030744
 21
478.5097572819668
 72
     1
 10
133.1308707030744
 20
478.5097572819668
 11
133.1308707030746
 21
472.4777572819668
 72
     1
 10
133.1308707030744
 20
472.4777572819668
 11
136.3068707030743
 21
472.5107572819669
 72
     1
 10
136.3068707030743
 20
472.5107572819669
 11
136.7657243137635
 21
472.5649646136788
 72
     2
 10
136.3068707030743
 20
474.0977572819669
 40
1.599999999999994
 50
-73.33451311118003
 51
-20.29558065387987
 73
     1
 72
     1
 10
137.8075358098126
 20
473.5427759873106
 11
137.9006457759456
 21
473.9567572213477
 97
        0
 75
     0
 76
     0
 52
45.0
 41
2.5
 77
     0
 78
     1
 53
45.00000000000144
 43
-2.913129296916395
 44
107.4797572819633
 45
-1.767766952966413
 46
1.767766952966324
 79
     0
 98
        1
 10
-2.913129296916395
 20
107.4797572819633
1001
GENIUS_GENODEF_13
1002
{
1000
HIER
1070
     0
1002
}
1002
{
1000
MANEDIT
1070
     0
1002
}
1002
{
1000
NOSEL
1070
     0
1002
}
1002
{
1000
BEHIND
1070
     0
1002
}
1002
{
1000
REACTOR
1002
}
1001
GENIUS_GENOBJ-N-HTC_13
1002
{
1000
OWNER
1000
GEN
1002
}
1001
GENIUS_GENHATCH_13
1002
{
1000
DATA
1040
45.0
1042
-2.5
1000
_U
1070
     0
1011
136.8574448307424
1021
475.5888302534396
1031
0.0
1002
}
1002
{
1000
UCS
1010
0.0
1020
0.0
1030
0.0
1010
1.0
1020
0.0
1030
0.0
1010
0.0
1020
1.0
1030
0.0
1002
}
  0
ARC
  5
1199
330
1F
100
AcDbEntity
  8
0
100
AcDbCircle
 10
136.3068707030743
 20
474.0977572819669
 30
0.0
 40
1.6
100
AcDbArc
 50
270.5019999999976
 51
355.0000000000022
  0
ARC
  5
119A
330
1F
100
AcDbEntity
  8
AM_0N
100
AcDbCircle
 10
139.9989957030741
 20
484.2616130066985
 30
0.0
 40
3.318843022839333
100
AcDbArc
 50
235.5615305952817
 51
295.5615305952742
  0
LINE
  5
119B
330
1F
100
AcDbEntity
  8
AM_0N
100
AcDbLine
 10
141.875870703074
 20
481.5244503800677
 30
0.0
 11
140.1183707030741
 21
480.509757281967
 31
0.0
  0
LINE
  5
119C
330
1F
100
AcDbEntity
  8
AM_7N
  6
AM_DIN_G_W050x2
100
AcDbLine
 10
134.0046169786371
 20
479.3297022056495
 30
0.0
 11
134.0046169786369
 21
481.5787022056493
 31
0.0
  0
ARC
  5
119E
330
1F
100
AcDbEntity
  8
0
100
AcDbCircle
 10
123.9518707030743
 20
479.5107572819666
 30
0.0
 40
1.0
100
AcDbArc
 50
269.9950000000115
 51
355.0000000000022
  0
LINE
  5
119F
330
1F
100
AcDbEntity
  8
0
100
AcDbLine
 10
122.7738707030744
 20
472.8797572819664
 30
0.0
 11
128.4928707030744
 21
472.4297572819666
 31
0.0
  0
LINE
  5
11A0
330
1F
100
AcDbEntity
  8
AM_0N
100
AcDbLine
 10
126.8608707030741
 20
481.5244503800673
 30
0.0
 11
128.6183707030741
 21
480.5097572819667
 31
0.0
  0
ARC
  5
11A1
330
1F
100
AcDbEntity
  8
AM_0N
100
AcDbCircle
 10
128.7377457030741
 20
484.2616130066982
 30
0.0
 40
3.318843022839333
100
AcDbArc
 50
244.4384694047265
 51
304.4384694047471
  0
LINE
  5
11A2
330
1F
100
AcDbEntity
  8
0
100
AcDbLine
 10
124.9488707030743
 20
479.4237572819666
 30
0.0
 11
124.9638707030744
 21
479.5977572819665
 31
0.0
  0
ARC
  5
11A3
330
1F
100
AcDbEntity
  8
0
100
AcDbCircle
 10
125.9598707030743
 20
479.5107572819667
 30
0.0
 40
1.0
100
AcDbArc
 50
89.99500000001154
 51
175.0000000000021
  0
LINE
  5
11A4
330
1F
100
AcDbEntity
  8
0
100
AcDbLine
 10
107.8668707030742
 20
472.7497572819661
 30
0.0
 11
113.5858707030743
 21
472.2997572819663
 31
0.0
  0
LINE
  5
11A5
330
1F
100
AcDbEntity
  8
0
100
AcDbLine
 10
113.5858707030743
 20
472.2997572819663
 30
0.0
 11
117.0648707030743
 21
472.3297572819664
 31
0.0
  0
LINE
  5
11A6
330
1F
100
AcDbEntity
  8
0
100
AcDbLine
 10
102.1578707030744
 20
472.1997572819661
 30
0.0
 11
107.8668707030742
 21
472.7497572819661
 31
0.0
  0
LINE
  5
11A7
330
1F
100
AcDbEntity
  8
0
100
AcDbLine
 10
101.9238707030742
 20
472.197757281966
 30
0.0
 11
102.1568707030742
 21
472.1997572819661
 31
0.0
  0
LINE
  5
11A8
330
1F
100
AcDbEntity
  8
0
100
AcDbLine
 10
83.63787070307443
 20
472.0377572819655
 30
0.0
 11
80.30058863348472
 21
472.3067499022778
 31
0.0
  0
LINE
  5
11A9
330
1F
100
AcDbEntity
  8
0
100
AcDbLine
 10
83.63787070307443
 20
472.0377572819655
 30
0.0
 11
92.7738707030744
 21
472.9177572819658
 31
0.0
  0
LINE
  5
11AA
330
1F
100
AcDbEntity
  8
0
100
AcDbLine
 10
77.55304534489074
 20
475.0354069287744
 30
0.0
 11
77.24887070307431
 21
478.5097572819654
 31
0.0
  0
LINE
  5
11AB
330
1F
100
AcDbEntity
  8
4
100
AcDbLine
 10
77.65387070307429
 20
473.8837572819655
 30
0.0
 11
77.64587070307425
 21
473.9707572819654
 31
0.0
  0
LINE
  5
11AC
330
1F
100
AcDbEntity
  8
4
100
AcDbLine
 10
77.7738707030744
 20
472.5097572819654
 30
0.0
 11
77.65587070307446
 21
473.8567572819654
 31
0.0
  0
ARC
  5
11AD
330
1F
100
AcDbEntity
  8
0
100
AcDbCircle
 10
80.5416138716771
 20
475.2970520332596
 30
0.0
 40
3.0
100
AcDbArc
 50
185.0034101715677
 51
265.3917904261316
1001
GENIUS_GENODEF_13
1002
{
1000
HIER
1070
     0
1002
}
1002
{
1000
MANEDIT
1070
     0
1002
}
1002
{
1000
NOSEL
1070
     0
1002
}
1002
{
1000
BEHIND
1070
     0
1002
}
1002
{
1000
REACTOR
1002
}
1001
GENIUS_GENOBJ-N-FIL_13
1002
{
1000
OWNER
1000
GEN
1002
}
  0
LINE
  5
11AE
330
1F
100
AcDbEntity
  8
0
100
AcDbLine
 10
139.1582596232636
 20
494.9728382979091
 30
0.0
 11
129.4919779256577
 21
494.9728382979088
 31
0.0
  0
ARC
  5
11AF
330
1F
100
AcDbEntity
  8
AM_3N
  6
AM_DIN_F_W050x2
100
AcDbCircle
 10
132.6400769042161
 20
489.7946533207658
 30
0.0
 40
0.9405625015943439
100
AcDbArc
 50
247.8788794917387
 51
307.8788794917155
  0
LINE
  5
11B0
330
1F
100
AcDbEntity
  8
AM_0N
100
AcDbLine
 10
138.3725769042162
 20
493.2854449900897
 30
0.0
 11
130.3725769042162
 21
493.2854449900895
 31
0.0
  0
LINE
  5
11B1
330
1F
100
AcDbEntity
  8
AM_3N
  6
AM_DIN_F_W050x2
100
AcDbLine
 10
132.0625769042162
 20
489.0522574900897
 30
0.0
 11
134.3725769042164
 21
487.7185783682616
 31
0.0
  0
LINE
  5
11B2
330
1F
100
AcDbEntity
  8
AM_0N
100
AcDbLine
 10
131.1393894042162
 20
494.0522574900897
 30
0.0
 11
137.6057644042162
 21
494.0522574900898
 31
0.0
  0
LINE
  5
11B3
330
1F
100
AcDbEntity
  8
AM_0N
100
AcDbLine
 10
140.1183707030741
 20
487.009757281967
 30
0.0
 11
128.6183707030741
 21
487.0097572819666
 31
0.0
  0
ARC
  5
11B4
330
1F
100
AcDbEntity
  8
AM_0N
100
AcDbCircle
 10
134.3683707030743
 20
474.17389308303
 30
0.0
 40
12.4028514970445
100
AcDbArc
 50
72.38303115962274
 51
107.6169688404045
  0
LINE
  5
11B5
330
1F
100
AcDbEntity
  8
0
100
AcDbLine
 10
139.1582596232638
 20
487.8871531879075
 30
0.0
 11
139.1582596232636
 21
494.9728382979091
 31
0.0
  0
LINE
  5
11B6
330
1F
100
AcDbEntity
  8
AM_0N
100
AcDbLine
 10
138.3725769042162
 20
493.2854449900897
 30
0.0
 11
138.3725769042164
 21
487.0097572819669
 31
0.0
  0
LINE
  5
11B7
330
1F
100
AcDbEntity
  8
AM_4N
100
AcDbLine
 10
137.6057644042164
 20
487.0097572819669
 30
0.0
 11
137.6057644042162
 21
494.0522574900898
 31
0.0
  0
LINE
  5
11B8
330
1F
100
AcDbEntity
  8
AM_3N
  6
AM_DIN_F_W050x2
100
AcDbLine
 10
136.6825769042161
 20
494.0522574900898
 30
0.0
 11
136.6825769042161
 21
489.0522574900898
 31
0.0
  0
LINE
  5
11B9
330
1F
100
AcDbEntity
  8
AM_3N
  6
AM_DIN_F_W050x2
100
AcDbLine
 10
135.5275769042161
 20
494.0522574900898
 30
0.0
 11
135.5275769042161
 21
489.0522574900898
 31
0.0
  0
LINE
  5
11BA
330
1F
100
AcDbEntity
  8
AM_3N
  6
AM_DIN_F_W050x2
100
AcDbLine
 10
133.2175769042162
 20
494.0522574900897
 30
0.0
 11
133.2175769042162
 21
489.0522574900897
 31
0.0
  0
LINE
  5
11BB
330
1F
100
AcDbEntity
  8
0
100
AcDbLine
 10
142.5985970452252
 20
487.8871531879076
 30
0.0
 11
139.1582596232638
 21
487.8871531879075
 31
0.0
  0
ARC
  5
11BC
330
1F
100
AcDbEntity
  8
AM_0N
100
AcDbCircle
 10
139.9989957030741
 20
483.2579015572354
 30
0.0
 40
3.318843022839333
100
AcDbArc
 50
64.43846940472653
 51
124.4384694047471
  0
LINE
  5
11BD
330
1F
100
AcDbEntity
  8
AM_0N
100
AcDbLine
 10
141.875870703074
 20
485.9950641838661
 30
0.0
 11
140.1183707030741
 21
487.009757281967
 31
0.0
  0
ARC
  5
11BE
330
1F
100
AcDbEntity
  8
AM_3N
  6
AM_DIN_F_W050x2
100
AcDbCircle
 10
134.3725769042162
 20
492.3190908191716
 30
0.0
 40
3.464999999999999
100
AcDbArc
 50
250.5287793655277
 51
289.4712206344996
  0
ARC
  5
11BF
330
1F
100
AcDbEntity
  8
AM_3N
  6
AM_DIN_F_W050x2
100
AcDbCircle
 10
136.1050769042162
 20
489.7946533207659
 30
0.0
 40
0.9405625015943439
100
AcDbArc
 50
232.1211205082856
 51
292.1211205082885
  0
LINE
  5
11C0
330
1F
100
AcDbEntity
  8
AM_3N
  6
AM_DIN_F_W050x2
100
AcDbLine
 10
136.6825769042161
 20
489.0522574900898
 30
0.0
 11
134.3725769042164
 21
487.7185783682616
 31
0.0
  0
LINE
  5
11C1
330
1F
100
AcDbEntity
  8
AM_0N
100
AcDbLine
 10
138.3725769042162
 20
493.2854449900897
 30
0.0
 11
137.6057644042162
 21
494.0522574900898
 31
0.0
  0
LINE
  5
11C2
330
1F
100
AcDbEntity
  8
0
100
AcDbLine
 10
129.4919779256577
 20
494.9728382979088
 30
0.0
 11
129.4919779256579
 21
487.9003271575269
 31
0.0
  0
LINE
  5
11C3
330
1F
100
AcDbEntity
  8
AM_0N
100
AcDbLine
 10
130.3725769042164
 20
487.0097572819666
 30
0.0
 11
130.3725769042162
 21
493.2854449900895
 31
0.0
  0
LINE
  5
11C4
330
1F
100
AcDbEntity
  8
AM_4N
100
AcDbLine
 10
131.1393894042164
 20
487.0097572819668
 30
0.0
 11
131.1393894042162
 21
494.0522574900897
 31
0.0
  0
LINE
  5
11C5
330
1F
100
AcDbEntity
  8
AM_3N
  6
AM_DIN_F_W050x2
100
AcDbLine
 10
132.0625769042162
 20
494.0522574900897
 30
0.0
 11
132.0625769042162
 21
489.0522574900897
 31
0.0
  0
LINE
  5
11C6
330
1F
100
AcDbEntity
  8
0
100
AcDbLine
 10
129.4919779256579
 20
487.9003271575269
 30
0.0
 11
126.1171698572198
 21
487.9003271575269
 31
0.0
  0
LINE
  5
11C7
330
1F
100
AcDbEntity
  8
AM_0N
100
AcDbLine
 10
126.8608707030741
 20
485.9950641838658
 30
0.0
 11
128.6183707030741
 21
487.0097572819666
 31
0.0
  0
ARC
  5
11C8
330
1F
100
AcDbEntity
  8
AM_0N
100
AcDbCircle
 10
128.7377457030741
 20
483.257901557235
 30
0.0
 40
3.318843022839363
100
AcDbArc
 50
55.5615305952817
 51
115.5615305952742
  0
LINE
  5
11C9
330
1F
100
AcDbEntity
  8
AM_0N
100
AcDbLine
 10
131.1393894042162
 20
494.0522574900897
 30
0.0
 11
130.3725769042162
 21
493.2854449900895
 31
0.0
  0
POINT
  5
11CB
330
1F
100
AcDbEntity
  8
0
 60
     1
100
AcDbPoint
 10
24.93690075201221
 20
193.8553825162817
 30
0.0
1001
GENIUS_GENOBJ-NBEHI-BHB_13
1002
{
1000
OWNER
1000
genbehi
1002
}
1001
GENIUS_GENOLIS_13
1002
{
1000
ENT
1005
A00
1005
1176
1005
9C0
1005
116E
1005
1165
1005
9FA
1005
9F4
1005
9F7
1005
9CB
1002
}
1001
GENIUS_GENOENT_13
1002
{
1000
MYREF
1005
11CB
1002
}
1002
{
1000
GRP
1005
0
1002
}
1001
GENIUS_GENBH_13
1002
{
1000
FGO
1005
B10
1002
}
1001
GENIUS_GENODEF_13
1002
{
1000
HIER
1070
     1
1002
}
1002
{
1000
MANEDIT
1070
     1
1002
}
1002
{
1000
NOSEL
1070
     1
1002
}
1002
{
1000
BEHIND
1070
     0
1002
}
1002
{
1000
OTHER
1070
     1
1002
}
1002
{
1000
REACTOR
1002
}
  0
POINT
  5
11CC
330
1F
100
AcDbEntity
  8
0
 60
     1
100
AcDbPoint
 10
24.93690075201221
 20
193.8553825162817
 30
0.0
1001
GENIUS_GENOENT_13
1002
{
1000
MYREF
1005
11CC
1002
}
1002
{
1000
GRP
1005
0
1002
}
1001
GENIUS_GENOLIS_13
1002
{
1000
ENT
1005
A00
1005
9C0
1005
9FD
1005
9C1
1005
9C2
1005
1171
1005
116D
1005
1176
1005
116E
1005
9EC
1005
116B
1005
9D6
1005
9EA
1005
9EE
1005
1170
1005
116F
1005
1173
1005
1172
1005
1165
1005
1175
1005
1174
1005
9D1
1005
9F5
1005
9F7
1005
9E8
1005
9ED
1005
9EB
1005
116C
1005
0
1005
9D0
1005
1169
1005
116A
1005
1166
1005
1168
1005
1167
1002
}
1001
GENIUS_GENOBJ-NBEHI-BHB_13
1002
{
1000
OWNER
1000
genbehi
1002
}
1001
GENIUS_GENBH_13
1002
{
1000
FGO
1005
B0F
1002
}
1001
GENIUS_GENODEF_13
1002
{
1000
HIER
1070
     1
1002
}
1002
{
1000
MANEDIT
1070
     1
1002
}
1002
{
1000
NOSEL
1070
     1
1002
}
1002
{
1000
BEHIND
1070
     1
1002
}
1002
{
1000
OTHER
1070
     1
1002
}
1002
{
1000
REACTOR
1002
}
  0
ENDSEC
  0
SECTION
  2
OBJECTS
  0
DICTIONARY
  5
C
330
0
100
AcDbDictionary
281
     1
  3
ACAD_COLOR
350
76
  3
ACAD_GROUP
350
D
  3
ACAD_LAYOUT
350
1A
  3
ACAD_MATERIAL
350
75
  3
ACAD_MLINESTYLE
350
17
  3
ACAD_PLOTSETTINGS
350
19
  3
ACAD_PLOTSTYLENAME
350
E
  3
ACAD_TABLESTYLE
350
77
  3
ACDBHEADERROUNDTRIPXREC
350
13B1
  3
AcDbVariableDictionary
350
5E
  3
AcmDictionary
350
D8
  3
AMG
350
7C
  3
AMGSNAPSETTINGS
350
1BB
  0
DICTIONARY
  5
383
330
2
100
AcDbDictionary
280
     1
281
     1
  3
ACAD_LAYERSTATES
360
384
  0
DICTIONARY
  5
76
102
{ACAD_REACTORS
330
C
102
}
330
C
100
AcDbDictionary
281
     1
  0
DICTIONARY
  5
D
102
{ACAD_REACTORS
330
C
102
}
330
C
100
AcDbDictionary
281
     1
  0
DICTIONARY
  5
1A
102
{ACAD_REACTORS
330
C
102
}
330
C
100
AcDbDictionary
281
     1
  3
Layout1
350
51
  3
Layout2
350
56
  3
Model
350
22
  0
DICTIONARY
  5
75
102
{ACAD_REACTORS
330
C
102
}
330
C
100
AcDbDictionary
281
     1
  0
DICTIONARY
  5
17
102
{ACAD_REACTORS
330
C
102
}
330
C
100
AcDbDictionary
281
     1
  3
Standard
350
18
  0
DICTIONARY
  5
19
102
{ACAD_REACTORS
330
C
102
}
330
C
100
AcDbDictionary
281
     1
  0
ACDBDICTIONARYWDFLT
  5
E
102
{ACAD_REACTORS
330
C
102
}
330
C
100
AcDbDictionary
281
     1
  3
Normal
350
F
100
AcDbDictionaryWithDefault
340
F
  0
DICTIONARY
  5
77
102
{ACAD_REACTORS
330
C
102
}
330
C
100
AcDbDictionary
281
     1
  3
Standard
350
78
  0
DICTIONARY
  5
13B1
102
{ACAD_REACTORS
330
C
102
}
330
C
100
AcDbDictionary
281
     1
  0
DICTIONARY
  5
5E
102
{ACAD_REACTORS
330
C
102
}
330
C
100
AcDbDictionary
281
     1
  3
CTABLESTYLE
350
145
  3
DIMASSOC
350
5F
  3
HIDETEXT
350
63
  3
PROJECTNAME
350
13AF
  0
DICTIONARY
  5
D8
102
{ACAD_REACTORS
330
C
102
}
330
C
100
AcDbDictionary
281
     1
  3
AcmStdDictionary
350
E3
  3
AMDTSECTSYM_ARROWCOLOR
350
105
  0
DICTIONARY
  5
7C
102
{ACAD_REACTORS
330
C
102
}
330
C
100
AcDbDictionary
281
     1
  0
DICTIONARY
  5
1BB
102
{ACAD_REACTORS
330
C
102
}
330
C
100
AcDbDictionary
281
     1
  0
DICTIONARY
  5
384
102
{ACAD_REACTORS
330
383
102
}
330
383
100
AcDbDictionary
281
     1
  0
LAYOUT
  5
51
102
{ACAD_XDICTIONARY
360
13B4
102
}
102
{ACAD_REACTORS
330
1A
102
}
330
1A
100
AcDbPlotSettings
  1

  2
None
  4

  6

 40
0.0
 41
0.0
 42
0.0
 43
0.0
 44
0.0
 45
0.0
 46
0.0
 47
0.0
 48
0.0
 49
0.0
140
0.0
141
0.0
142
1.0
143
1.0
 70
   688
 72
     0
 73
     0
 74
     5
  7
monochrome.ctb
 75
    16
147
1.0
148
0.0
149
0.0
100
AcDbLayout
  1
Layout1
 70
     1
 71
     1
 10
0.0
 20
0.0
 11
12.0
 21
9.0
 12
0.0
 22
0.0
 32
0.0
 14
0.0
 24
0.0
 34
0.0
 15
0.0
 25
0.0
 35
0.0
146
0.0
 13
0.0
 23
0.0
 33
0.0
 16
1.0
 26
0.0
 36
0.0
 17
0.0
 27
1.0
 37
0.0
 76
     0
330
50
  0
LAYOUT
  5
56
102
{ACAD_XDICTIONARY
360
13B6
102
}
102
{ACAD_REACTORS
330
1A
102
}
330
1A
100
AcDbPlotSettings
  1

  2
None
  4

  6

 40
0.0
 41
0.0
 42
0.0
 43
0.0
 44
0.0
 45
0.0
 46
0.0
 47
0.0
 48
0.0
 49
0.0
140
0.0
141
0.0
142
1.0
143
1.0
 70
   688
 72
     0
 73
     0
 74
     5
  7
monochrome.ctb
 75
    16
147
1.0
148
0.0
149
0.0
100
AcDbLayout
  1
Layout2
 70
     1
 71
     2
 10
0.0
 20
0.0
 11
12.0
 21
9.0
 12
0.0
 22
0.0
 32
0.0
 14
0.0
 24
0.0
 34
0.0
 15
0.0
 25
0.0
 35
0.0
146
0.0
 13
0.0
 23
0.0
 33
0.0
 16
1.0
 26
0.0
 36
0.0
 17
0.0
 27
1.0
 37
0.0
 76
     0
330
55
  0
LAYOUT
  5
22
102
{ACAD_XDICTIONARY
360
13B2
102
}
102
{ACAD_REACTORS
330
1A
102
}
330
1A
100
AcDbPlotSettings
  1

  2
none_device
  4
ANSI_A_(8.50_x_11.00_Inches)
  6

 40
6.349999904632568
 41
19.04999923706055
 42
6.350006103515625
 43
19.04998779296875
 44
215.8999938964844
 45
279.3999938964844
 46
0.0
 47
0.0
 48
0.0
 49
0.0
140
0.0
141
0.0
142
1.0
143
78.436453180766
 70
 11952
 72
     0
 73
     1
 74
     0
  7
monochrome.ctb
 75
     0
147
0.0127491741332998
148
0.0
149
0.0
100
AcDbLayout
  1
Model
 70
     1
 71
     0
 10
0.0
 20
0.0
 11
12.0
 21
9.0
 12
0.0
 22
0.0
 32
0.0
 14
0.0
 24
0.0
 34
0.0
 15
0.0
 25
0.0
 35
0.0
146
0.0
 13
0.0
 23
0.0
 33
0.0
 16
1.0
 26
0.0
 36
0.0
 17
0.0
 27
1.0
 37
0.0
 76
     0
330
1F
  0
MLINESTYLE
  5
18
102
{ACAD_REACTORS
330
17
102
}
330
17
100
AcDbMlineStyle
  2
STANDARD
 70
     0
  3

 62
   256
 51
90.0
 52
90.0
 71
     2
 49
0.5
 62
   256
  6
BYLAYER
 49
-0.5
 62
   256
  6
BYLAYER
  0
ACDBPLACEHOLDER
  5
F
102
{ACAD_REACTORS
330
E
102
}
330
E
  0
TABLESTYLE
  5
78
102
{ACAD_REACTORS
330
77
102
}
330
77
100
AcDbTableStyle
  3
Standard
 70
     0
 71
     0
 40
1.5
 41
1.5
280
     0
281
     0
  7
Standard
140
4.5
170
     2
 62
     0
 63
     7
283
     0
274
    -2
284
     1
 64
     0
275
    -2
285
     1
 65
     0
276
    -2
286
     1
 66
     0
277
    -2
287
     1
 67
     0
278
    -2
288
     1
 68
     0
279
    -2
289
     1
 69
     0
  7
Standard
140
6.0
170
     5
 62
     0
 63
     7
283
     0
274
    -2
284
     1
 64
     0
275
    -2
285
     1
 65
     0
276
    -2
286
     1
 66
     0
277
    -2
287
     1
 67
     0
278
    -2
288
     1
 68
     0
279
    -2
289
     1
 69
     0
  7
Standard
140
4.5
170
     5
 62
     0
 63
     7
283
     0
274
    -2
284
     1
 64
     0
275
    -2
285
     1
 65
     0
276
    -2
286
     1
 66
     0
277
    -2
287
     1
 67
     0
278
    -2
288
     1
 68
     0
279
    -2
289
     1
 69
     0
  0
DICTIONARYVAR
  5
145
102
{ACAD_REACTORS
330
5E
102
}
330
5E
100
DictionaryVariables
280
     0
  1
STANDARD
  0
DICTIONARYVAR
  5
5F
102
{ACAD_REACTORS
330
5E
102
}
330
5E
100
DictionaryVariables
280
     0
  1
2
  0
DICTIONARYVAR
  5
63
102
{ACAD_REACTORS
330
5E
102
}
330
5E
100
DictionaryVariables
280
     0
  1
1
  0
DICTIONARYVAR
  5
13AF
102
{ACAD_REACTORS
330
5E
102
}
330
5E
100
DictionaryVariables
280
     0
  1

  0
DICTIONARY
  5
E3
102
{ACAD_REACTORS
330
D8
102
}
330
D8
100
AcDbDictionary
281
     1
  0
XRECORD
  5
105
102
{ACAD_REACTORS
330
D8
102
}
330
D8
100
AcDbXrecord
280
     1
 90
-1023410169
  0
DICTIONARY
  5
13B4
330
51
100
AcDbDictionary
280
     1
281
     1
  3
ACAD_XREC_ROUNDTRIP
360
13B5
  0
DICTIONARY
  5
13B6
330
56
100
AcDbDictionary
280
     1
281
     1
  3
ACAD_XREC_ROUNDTRIP
360
13B7
  0
DICTIONARY
  5
13B2
330
22
100
AcDbDictionary
280
     1
281
     1
  3
ACAD_XREC_ROUNDTRIP
360
13B3
  0
XRECORD
  5
13B5
102
{ACAD_REACTORS
330
13B4
102
}
330
13B4
100
AcDbXrecord
280
     1
102
SHADEPLOT
 70
     0
102
SHADEPLOTRESLEVEL
 70
     2
102
SHADEPLOTCUSTOMDPI
 70
   300
  0
XRECORD
  5
13B7
102
{ACAD_REACTORS
330
13B6
102
}
330
13B6
100
AcDbXrecord
280
     1
102
SHADEPLOT
 70
     0
102
SHADEPLOTRESLEVEL
 70
     2
102
SHADEPLOTCUSTOMDPI
 70
   300
  0
XRECORD
  5
13B3
102
{ACAD_REACTORS
330
13B2
102
}
330
13B2
100
AcDbXrecord
280
     1
102
SHADEPLOT
 70
     0
102
SHADEPLOTRESLEVEL
 70
     2
102
SHADEPLOTCUSTOMDPI
 70
   300
  0
ENDSEC
  0
EOF
