  0
SECTION
  2
HEADER
  9
$ACADVER
  1
AC1015
  9
$ACADMAINTVER
 70
    20
  9
$DWGCODEPAGE
  3
ANSI_1252
  9
$INSBASE
 10
0.0
 20
0.0
 30
0.0
  9
$EXTMIN
 10
376.2433198567519
 20
216.2685111210083
 30
-0.0015258207003583
  9
$EXTMAX
 10
708.7990134397974
 20
438.2732101074338
 30
0.0000000349246037
  9
$LIMMIN
 10
0.0
 20
0.0
  9
$LIMMAX
 10
1189.0
 20
841.0
  9
$ORTHOMODE
 70
     0
  9
$REGENMODE
 70
     1
  9
$FILLMODE
 70
     1
  9
$QTEXTMODE
 70
     0
  9
$MIRRTEXT
 70
     0
  9
$LTSCALE
 40
65.395
  9
$ATTMODE
 70
     1
  9
$TEXTSIZE
 40
0.2
  9
$TRACEWID
 40
0.05
  9
$TEXTSTYLE
  7
STANDARD
  9
$CLAYER
  8
0
  9
$CELTYPE
  6
BYLAYER
  9
$CECOLOR
 62
   256
  9
$CELTSCALE
 40
1.0
  9
$DISPSILH
 70
     0
  9
$DIMSCALE
 40
1.0
  9
$DIMASZ
 40
3.5
  9
$DIMEXO
 40
7.43125
  9
$DIMDLI
 40
45.18199999999999
  9
$DIMRND
 40
0.0
  9
$DIMDLE
 40
0.0
  9
$DIMEXE
 40
21.402
  9
$DIMTP
 40
0.005
  9
$DIMTM
 40
0.005
  9
$DIMTXT
 40
3.5
  9
$DIMCEN
 40
10.701
  9
$DIMTSZ
 40
0.0
  9
$DIMTOL
 70
     1
  9
$DIMLIM
 70
     0
  9
$DIMTIH
 70
     1
  9
$DIMTOH
 70
     1
  9
$DIMSE1
 70
     0
  9
$DIMSE2
 70
     0
  9
$DIMTAD
 70
     0
  9
$DIMZIN
 70
     0
  9
$DIMBLK
  1
_FILLED
  9
$DIMASO
 70
     1
  9
$DIMSHO
 70
     1
  9
$DIMPOST
  1

  9
$DIMAPOST
  1

  9
$DIMALT
 70
     0
  9
$DIMALTD
 70
     2
  9
$DIMALTF
 40
25.4
  9
$DIMLFAC
 40
1.0
  9
$DIMTOFL
 70
     0
  9
$DIMTVP
 40
0.0
  9
$DIMTIX
 70
     0
  9
$DIMSOXD
 70
     0
  9
$DIMSAH
 70
     0
  9
$DIMBLK1
  1

  9
$DIMBLK2
  1

  9
$DIMSTYLE
  2
STANDARD
  9
$DIMCLRD
 70
     0
  9
$DIMCLRE
 70
     0
  9
$DIMCLRT
 70
     0
  9
$DIMTFAC
 40
1.0
  9
$DIMGAP
 40
0.09
  9
$DIMJUST
 70
     0
  9
$DIMSD1
 70
     0
  9
$DIMSD2
 70
     0
  9
$DIMTOLJ
 70
     1
  9
$DIMTZIN
 70
     0
  9
$DIMALTZ
 70
     0
  9
$DIMALTTZ
 70
     0
  9
$DIMUPT
 70
     0
  9
$DIMDEC
 70
     4
  9
$DIMTDEC
 70
     4
  9
$DIMALTU
 70
     2
  9
$DIMALTTD
 70
     2
  9
$DIMTXSTY
  7
STANDARD
  9
$DIMAUNIT
 70
     0
  9
$DIMADEC
 70
     0
  9
$DIMALTRND
 40
0.0
  9
$DIMAZIN
 70
     0
  9
$DIMDSEP
 70
    46
  9
$DIMATFIT
 70
     3
  9
$DIMFRAC
 70
     0
  9
$DIMLDRBLK
  1

  9
$DIMLUNIT
 70
     2
  9
$DIMLWD
 70
    -2
  9
$DIMLWE
 70
    -2
  9
$DIMTMOVE
 70
     0
  9
$LUNITS
 70
     2
  9
$LUPREC
 70
     2
  9
$SKETCHINC
 40
0.1
  9
$FILLETRAD
 40
0.0
  9
$AUNITS
 70
     0
  9
$AUPREC
 70
     0
  9
$MENU
  1
.
  9
$ELEVATION
 40
0.0
  9
$PELEVATION
 40
0.0
  9
$THICKNESS
 40
0.0
  9
$LIMCHECK
 70
     0
  9
$CHAMFERA
 40
0.0
  9
$CHAMFERB
 40
0.0
  9
$CHAMFERC
 40
0.0
  9
$CHAMFERD
 40
0.0
  9
$SKPOLY
 70
     0
  9
$TDCREATE
 40
2456325.346429225
  9
$TDUCREATE
 40
2456325.304762558
  9
$TDUPDATE
 40
2456325.348913646
  9
$TDUUPDATE
 40
2456325.307246979
  9
$TDINDWG
 40
0.0024847801
  9
$TDUSRTIMER
 40
0.0024847801
  9
$USRTIMER
 70
     1
  9
$ANGBASE
 50
0.0
  9
$ANGDIR
 70
     0
  9
$PDMODE
 70
     3
  9
$PDSIZE
 40
0.3125
  9
$PLINEWID
 40
0.0
  9
$SPLFRAME
 70
     0
  9
$SPLINETYPE
 70
     6
  9
$SPLINESEGS
 70
     8
  9
$HANDSEED
  5
6B6
  9
$SURFTAB1
 70
     6
  9
$SURFTAB2
 70
     6
  9
$SURFTYPE
 70
     6
  9
$SURFU
 70
     6
  9
$SURFV
 70
     6
  9
$UCSBASE
  2

  9
$UCSNAME
  2

  9
$UCSORG
 10
0.0
 20
0.0
 30
0.0
  9
$UCSXDIR
 10
1.0
 20
0.0
 30
0.0
  9
$UCSYDIR
 10
0.0
 20
1.0
 30
0.0
  9
$UCSORTHOREF
  2

  9
$UCSORTHOVIEW
 70
     0
  9
$UCSORGTOP
 10
0.0
 20
0.0
 30
0.0
  9
$UCSORGBOTTOM
 10
0.0
 20
0.0
 30
0.0
  9
$UCSORGLEFT
 10
0.0
 20
0.0
 30
0.0
  9
$UCSORGRIGHT
 10
0.0
 20
0.0
 30
0.0
  9
$UCSORGFRONT
 10
0.0
 20
0.0
 30
0.0
  9
$UCSORGBACK
 10
0.0
 20
0.0
 30
0.0
  9
$PUCSBASE
  2

  9
$PUCSNAME
  2

  9
$PUCSORG
 10
0.0
 20
0.0
 30
0.0
  9
$PUCSXDIR
 10
1.0
 20
0.0
 30
0.0
  9
$PUCSYDIR
 10
0.0
 20
1.0
 30
0.0
  9
$PUCSORTHOREF
  2

  9
$PUCSORTHOVIEW
 70
     0
  9
$PUCSORGTOP
 10
0.0
 20
0.0
 30
0.0
  9
$PUCSORGBOTTOM
 10
0.0
 20
0.0
 30
0.0
  9
$PUCSORGLEFT
 10
0.0
 20
0.0
 30
0.0
  9
$PUCSORGRIGHT
 10
0.0
 20
0.0
 30
0.0
  9
$PUCSORGFRONT
 10
0.0
 20
0.0
 30
0.0
  9
$PUCSORGBACK
 10
0.0
 20
0.0
 30
0.0
  9
$USERI1
 70
     0
  9
$USERI2
 70
     0
  9
$USERI3
 70
     0
  9
$USERI4
 70
     0
  9
$USERI5
 70
     0
  9
$USERR1
 40
0.0
  9
$USERR2
 40
0.0
  9
$USERR3
 40
0.0
  9
$USERR4
 40
0.0
  9
$USERR5
 40
0.0
  9
$WORLDVIEW
 70
     1
  9
$SHADEDGE
 70
     3
  9
$SHADEDIF
 70
    70
  9
$TILEMODE
 70
     1
  9
$MAXACTVP
 70
    64
  9
$PINSBASE
 10
0.0
 20
0.0
 30
0.0
  9
$PLIMCHECK
 70
     0
  9
$PEXTMIN
 10
1.000000000000000E+20
 20
1.000000000000000E+20
 30
1.000000000000000E+20
  9
$PEXTMAX
 10
-1.000000000000000E+20
 20
-1.000000000000000E+20
 30
-1.000000000000000E+20
  9
$PLIMMIN
 10
0.0
 20
0.0
  9
$PLIMMAX
 10
12.0
 20
9.0
  9
$UNITMODE
 70
     0
  9
$VISRETAIN
 70
     1
  9
$PLINEGEN
 70
     0
  9
$PSLTSCALE
 70
     1
  9
$TREEDEPTH
 70
  3020
  9
$CMLSTYLE
  2
Standard
  9
$CMLJUST
 70
     0
  9
$CMLSCALE
 40
1.0
  9
$PROXYGRAPHICS
 70
     1
  9
$MEASUREMENT
 70
     1
  9
$CELWEIGHT
370
    -1
  9
$ENDCAPS
280
     0
  9
$JOINSTYLE
280
     0
  9
$LWDISPLAY
290
     0
  9
$INSUNITS
 70
     4
  9
$HYPERLINKBASE
  1

  9
$STYLESHEET
  1

  9
$XEDIT
290
     1
  9
$CEPSNTYPE
380
     0
  9
$PSTYLEMODE
290
     1
  9
$FINGERPRINTGUID
  2
{D4651112-1713-4B09-9DD7-1C5EE9A6D704}
  9
$VERSIONGUID
  2
{F4490E45-4784-4574-A296-DE6FB4A535DE}
  9
$EXTNAMES
290
     1
  9
$PSVPSCALE
 40
0.0
  9
$OLESTARTUP
290
     0
  0
ENDSEC
  0
SECTION
  2
CLASSES
  0
CLASS
  1
ACDBDICTIONARYWDFLT
  2
AcDbDictionaryWithDefault
  3
ObjectDBX Classes
 90
        0
280
     0
281
     0
  0
CLASS
  1
ACDBPLACEHOLDER
  2
AcDbPlaceHolder
  3
ObjectDBX Classes
 90
        0
280
     0
281
     0
  0
CLASS
  1
LAYOUT
  2
AcDbLayout
  3
ObjectDBX Classes
 90
        0
280
     0
281
     0
  0
CLASS
  1
MATERIAL
  2
AcDbMaterial
  3
ObjectDBX Classes
 90
     1153
280
     0
281
     0
  0
CLASS
  1
VISUALSTYLE
  2
AcDbVisualStyle
  3
ObjectDBX Classes
 90
     4095
280
     0
281
     0
  0
CLASS
  1
TABLESTYLE
  2
AcDbTableStyle
  3
ObjectDBX Classes
 90
     4095
280
     0
281
     0
  0
CLASS
  1
SCALE
  2
AcDbScale
  3
ObjectDBX Classes
 90
     1153
280
     0
281
     0
  0
CLASS
  1
MLEADERSTYLE
  2
AcDbMLeaderStyle
  3
ACDB_MLEADERSTYLE_CLASS
 90
     4095
280
     0
281
     0
  0
CLASS
  1
AMGSETTINGSOBJ
  2
AmgSettingsObj
  3
"AcadM|Product Description: AutoCAD Mechanical|Company: Autodesk, Inc."
 90
     1024
280
     0
281
     0
  0
CLASS
  1
ACME_DOCUMENT
  2
AcMeDbDoc
  3
AcMeServices
 90
     1024
280
     0
281
     0
  0
CLASS
  1
ACMESCOPE
  2
AcMeScope
  3
AcMeServices
 90
     1024
280
     0
281
     0
  0
CLASS
  1
ACMECOMMANDHISTORY
  2
AcMeCommandHistory
  3
AcMeServices
 90
     1024
280
     0
281
     0
  0
CLASS
  1
ACIMSYSVARMAN
  2
AcImSysVarManager
  3
AcMeServices
 90
     1024
280
     0
281
     0
  0
CLASS
  1
ACIMINTSYSVAR
  2
AcImIntSysVar
  3
AcMeServices
 90
     1024
280
     0
281
     0
  0
CLASS
  1
ACMEDRAWINGMAN
  2
AcMeDrawingMan
  3
AcMeServices
 90
     1024
280
     0
281
     0
  0
CLASS
  1
ACMEVIEW
  2
AcMeView
  3
AcMeServices
 90
     1024
280
     0
281
     0
  0
CLASS
  1
ACDBENTITYCACHE
  2
AcMeEntityCache
  3
AcMeServices
 90
     1024
280
     0
281
     0
  0
CLASS
  1
ACMESTATEMGR
  2
AcMeStateMgr
  3
AcMeServices
 90
     1024
280
     0
281
     0
  0
CLASS
  1
ACGREFMASTER
  2
AcGrefMaster
  3
AcAttribServices
 90
     1024
280
     0
281
     0
  0
CLASS
  1
AM_DRAWING_MGR
  2
AcDmDwgMgr
  3
AcMechDwgViewMgmt
 90
     1024
280
     0
281
     0
  0
CLASS
  1
AM_DWG_DOCUMENT
  2
AcDmDwgDocument
  3
AcMechDwgViewMgmt
 90
     1024
280
     0
281
     0
  0
CLASS
  1
AM_DWG_SHEET
  2
AcDmSheet
  3
AcMechDwgViewMgmt
 90
     1024
280
     0
281
     0
  0
CLASS
  1
AM_VIEWDIMPARMAP
  2
AcDmViewDimParMap
  3
AcMechDwgViewMgmt
 90
     1024
280
     0
281
     0
  0
CLASS
  1
AMDTINTERNALREACTOR
  2
AmdtInternalReactor
  3
AcMeServices
 90
     1024
280
     0
281
     0
  0
CLASS
  1
ACIMREALSYSVAR
  2
AcImRealSysVar
  3
AcMeServices
 90
     1024
280
     0
281
     0
  0
CLASS
  1
AM_DWGMGR_NAME
  2
AcDmDwgMgrName
  3
AcMechDwgViewMgmt
 90
     1024
280
     0
281
     0
  0
CLASS
  1
ACME_DATABASE
  2
AcMeDbDatabase
  3
AcMeServices
 90
     1024
280
     0
281
     0
  0
CLASS
  1
ACRFINSADJUSTERMGR
  2
AcRfInsAdjusterMgr
  3
AcMeServices
 90
     1024
280
     0
281
     0
  0
CLASS
  1
ACGREFACADMASTER
  2
AcGrefacadMaster
  3
AcGrefServices
 90
     1024
280
     0
281
     0
  0
CLASS
  1
AMDTMENUSTATEMGR
  2
AmdtMenuStateMgr
  3
McadcomServices
 90
     1024
280
     0
281
     0
  0
CLASS
  1
AMDTMCOMMENUSTATE
  2
AmdtMcomMenuState
  3
McadcomServices
 90
     1024
280
     0
281
     0
  0
CLASS
  1
AMIMASTER
  2
AmiMaster
  3
AmiServices
 90
     1024
280
     0
281
     0
  0
CLASS
  1
MAPIAMMOUDLE
  2
MApiAmModule
  3
MApiAmServices
 90
     1024
280
     0
281
     0
  0
CLASS
  1
ACIMSTRSYSVAR
  2
AcImStrSysVar
  3
AcMeServices
 90
     1024
280
     0
281
     0
  0
CLASS
  1
AMDTADMENUSTATE
  2
AmdtAdMenuState
  3
DesignerServices
 90
     1024
280
     0
281
     0
  0
CLASS
  1
ADAPPL
  2
AcAdAppl
  3
DesignerServices
 90
     1024
280
     0
281
     0
  0
CLASS
  1
DEPMGR
  2
AcAdDepMgr
  3
DesignerServices
 90
     1024
280
     0
281
     0
  0
CLASS
  1
PARAMMGR
  2
AcAdParamMgr
  3
DesignerServices
 90
     1024
280
     0
281
     0
  0
CLASS
  1
PARAMSCOPE
  2
AcAdParamScope
  3
DesignerServices
 90
     1024
280
     0
281
     0
  0
CLASS
  1
NAMEDAPPL
  2
AcAdNamedAppl
  3
DesignerServices
 90
     1024
280
     0
281
     0
  0
CLASS
  1
AMDTDMMENUSTATE
  2
AmdtDmMenuState
  3
AcMechDwgViewMgmt
 90
     1024
280
     0
281
     0
  0
CLASS
  1
AMDTAMMENUSTATE
  2
AmdtAmMenuState
  3
DesignerAssemblies
 90
     1024
280
     0
281
     0
  0
CLASS
  1
ACAMPROJECT
  2
AcAmProject
  3
DesignerAssemblies
 90
     1024
280
     0
281
     0
  0
CLASS
  1
ACAMGRCOMPDEF
  2
AcAmGrCompDef
  3
DesignerAssemblies
 90
     1024
280
     0
281
     0
  0
CLASS
  1
ACAMCOMPDEF
  2
AcAmCompDef
  3
DesignerAssemblies
 90
     1024
280
     0
281
     0
  0
CLASS
  1
ACAMCOMPDEFMGR
  2
AcAmCompDefMgr
  3
DesignerAssemblies
 90
     1024
280
     0
281
     0
  0
CLASS
  1
AMCONTEXTMGR
  2
AcAmContextMgr
  3
DesignerAssemblies
 90
     1024
280
     0
281
     0
  0
CLASS
  1
ACAMCONTEXTMODELER
  2
AcAmContextModeler
  3
DesignerAssemblies
 90
     1024
280
     0
281
     0
  0
CLASS
  1
ACMDATADICTIONARY
  2
AcmDataDictionary
  3
"AcmSymBB|Product Description: AutoCAD Mechanical|Company: Autodesk, Inc."
 90
     1024
280
     0
281
     0
  0
CLASS
  1
CATALOGSTATE
  2
AcAmCatalogState
  3
DesignerAssemblies
 90
     1024
280
     0
281
     0
  0
CLASS
  1
ACAMGRCOMPDEFSET
  2
AcAmGrCompDefSet
  3
DesignerAssemblies
 90
     1024
280
     0
281
     0
  0
CLASS
  1
AMDTBROWSERDBTAB
  2
AmdtBrowserDbTab
  3
McadcomServices
 90
     1024
280
     0
281
     0
  0
CLASS
  1
CBROWSERAPPOBJECT
  2
CBrowserAppObject
  3
McadcomServices
 90
     1024
280
     0
281
     0
  0
CLASS
  1
DM_PLACEHOLDER
  2
AcDmSelsetPlaceholder
  3
AcMechDwgViewMgmt
 90
     1024
280
     0
281
     0
  0
CLASS
  1
ACMSTANDARDDIN
  2
AcmStandardDIN
  3
"Amdt_StdImp|Product Description: AutoCAD Mechanical|Company: Autodesk, Inc."
 90
     1024
280
     0
281
     0
  0
CLASS
  1
AMDTEDGESTANDARDDIN13715
  2
AmdtEdgeStdDIN13715
  3
"Amdt_StdImp|Product Description: AutoCAD Mechanical|Company: Autodesk, Inc."
 90
     1024
280
     0
281
     0
  0
CLASS
  1
ACMSURFSTANDARDDIN2002
  2
AcmSurfTextStdDIN2002
  3
"Amdt_StdImp|Product Description: AutoCAD Mechanical|Company: Autodesk, Inc."
 90
     1024
280
     0
281
     0
  0
CLASS
  1
ACMFCFSTANDARDDIN
  2
AcmFCFStdDIN
  3
"Amdt_StdImp|Product Description: AutoCAD Mechanical|Company: Autodesk, Inc."
 90
     1024
280
     0
281
     0
  0
CLASS
  1
ACMWELDSTANDARDDIN
  2
AcmWeldingStdDIN
  3
"Amdt_StdImp|Product Description: AutoCAD Mechanical|Company: Autodesk, Inc."
 90
     1024
280
     0
281
     0
  0
CLASS
  1
ACMIDSTANDARDDIN
  2
AcmIdStdDIN
  3
"Amdt_StdImp|Product Description: AutoCAD Mechanical|Company: Autodesk, Inc."
 90
     1024
280
     0
281
     0
  0
CLASS
  1
ACMDATUMSTANDARDDIN
  2
AcmDatumStdDIN
  3
"Amdt_StdImp|Product Description: AutoCAD Mechanical|Company: Autodesk, Inc."
 90
     1024
280
     0
281
     0
  0
CLASS
  1
ACMBOMSTANDARDDIN
  2
AcmBOMStdDIN
  3
"Amdt_StdImp|Product Description: AutoCAD Mechanical|Company: Autodesk, Inc."
 90
     1024
280
     0
281
     0
  0
CLASS
  1
ACMDETAILSTANDARDDIN
  2
AmdtDetailSymStdDIN
  3
"Amdt_StdImp|Product Description: AutoCAD Mechanical|Company: Autodesk, Inc."
 90
     1024
280
     0
281
     0
  0
CLASS
  1
ACMSECTIONSTANDARDDIN
  2
AmdtSectionSymStdDIN
  3
"Amdt_StdImp|Product Description: AutoCAD Mechanical|Company: Autodesk, Inc."
 90
     1024
280
     0
281
     0
  0
CLASS
  1
ACMCENTERLINESTANDARDDIN
  2
AmdtCenterLineStdDIN
  3
"Amdt_StdImp|Product Description: AutoCAD Mechanical|Company: Autodesk, Inc."
 90
     1024
280
     0
281
     0
  0
CLASS
  1
ACMTHREADLINESTANDARDDIN
  2
AmdtThreadLineStdDIN
  3
"Amdt_StdImp|Product Description: AutoCAD Mechanical|Company: Autodesk, Inc."
 90
     1024
280
     0
281
     0
  0
CLASS
  1
ACMNOTESTANDARDDIN
  2
AmdtNoteStdDIN
  3
"Amdt_StdImp|Product Description: AutoCAD Mechanical|Company: Autodesk, Inc."
 90
     1024
280
     0
281
     0
  0
CLASS
  1
ACMTAPERSTANDARDDIN
  2
AcmTaperStdDIN
  3
"Amdt_StdImp|Product Description: AutoCAD Mechanical|Company: Autodesk, Inc."
 90
     1024
280
     0
281
     0
  0
CLASS
  1
ACMANOOTATIONVIEWSTANDARDDIN
  2
AmdtAnViewStdDIN
  3
"Amdt_StdImp|Product Description: AutoCAD Mechanical|Company: Autodesk, Inc."
 90
     1024
280
     0
281
     0
  0
CLASS
  1
ACAMGLAYSTD
  2
AcAmgLayStd
  3
"AmgLay|Product Description: AutoCAD Mechanical|Company: Autodesk, Inc."
 90
     1024
280
     0
281
     0
  0
CLASS
  1
ACAMGDIMSTD
  2
AcAmgDimStd
  3
"AmgDim|Product Description: AutoCAD Mechanical|Company: Autodesk, Inc."
 90
     1024
280
     0
281
     0
  0
CLASS
  1
AMGOBJPROPCFG
  2
AmgObjPropCfg
  3
"AmgLay|Product Description: AutoCAD Mechanical|Company: Autodesk, Inc."
 90
     1025
280
     0
281
     0
  0
CLASS
  1
ACAMGHOLECHARTSTDDIN
  2
AcAmgHoleChartStdDIN
  3
AmgDim|Product Description: AutoCAD Mechanical|Company: Autodesk, Inc.
 90
     1024
280
     0
281
     0
  0
CLASS
  1
ACAMGTITLESTD
  2
AcAmgTitleStd
  3
"AmgTitle|Product Description: AutoCAD Mechanical|Company: Autodesk, Inc."
 90
     4095
280
     0
281
     0
  0
CLASS
  1
AMDTNOTETEMPLATEDB
  2
AmdtNoteTemplateDB
  3
AcmSymBB|Product Description: AutoCAD Mechanical|Company: Autodesk, Inc.
 90
     1024
280
     0
281
     0
  0
CLASS
  1
ACAMGFILTERDAT
  2
AcAmgFilterDat
  3
"AcadM|Product Description: AutoCAD Mechanical|Company: Autodesk, Inc."
 90
     1024
280
     0
281
     0
  0
CLASS
  1
DICTIONARYVAR
  2
AcDbDictionaryVar
  3
ObjectDBX Classes
 90
        0
280
     0
281
     0
  0
CLASS
  1
CELLSTYLEMAP
  2
AcDbCellStyleMap
  3
ObjectDBX Classes
 90
     1152
280
     0
281
     0
  0
ENDSEC
  0
SECTION
  2
TABLES
  0
TABLE
  2
VPORT
  5
8
330
0
100
AcDbSymbolTable
 70
     1
  0
VPORT
  5
1F4
330
8
100
AcDbSymbolTableRecord
100
AcDbViewportTableRecord
  2
*ACTIVE
 70
     0
 10
0.0
 20
0.0
 11
1.0
 21
1.0
 12
542.5211666482745
 22
327.2708606142211
 13
0.0
 23
0.0
 14
1.0
 24
1.0
 15
0.0
 25
0.0
 16
0.0
 26
0.0
 36
1.0
 17
0.0
 27
0.0
 37
0.0
 40
223.5736367884499
 41
1.850235849056603
 42
50.0
 43
0.0
 44
0.0
 50
0.0
 51
0.0
 71
     0
 72
   100
 73
     1
 74
     1
 75
     0
 76
     0
 77
     0
 78
     0
281
     0
 65
     0
110
0.0
120
0.0
130
0.0
111
1.0
121
0.0
131
0.0
112
0.0
122
1.0
132
0.0
 79
     0
146
0.0
  0
ENDTAB
  0
TABLE
  2
LTYPE
  5
5
330
0
100
AcDbSymbolTable
 70
    22
  0
LTYPE
  5
14
330
5
100
AcDbSymbolTableRecord
100
AcDbLinetypeTableRecord
  2
BYBLOCK
 70
     0
  3

 72
    65
 73
     0
 40
0.0
  0
LTYPE
  5
15
330
5
100
AcDbSymbolTableRecord
100
AcDbLinetypeTableRecord
  2
BYLAYER
 70
     0
  3

 72
    65
 73
     0
 40
0.0
  0
LTYPE
  5
16
330
5
100
AcDbSymbolTableRecord
100
AcDbLinetypeTableRecord
  2
CONTINUOUS
 70
     0
  3
Solid line
 72
    65
 73
     0
 40
0.0
  0
LTYPE
  5
1F5
330
5
100
AcDbSymbolTableRecord
100
AcDbLinetypeTableRecord
  2
CENTER
 70
     0
  3
____ _ ____ _ ____ _ ____ _ ____ _ ____ _ ____
 72
    65
 73
     4
 40
0.6
 49
0.375
 74
     0
 49
-0.075
 74
     0
 49
0.075
 74
     0
 49
-0.075
 74
     0
  0
LTYPE
  5
1F6
330
5
100
AcDbSymbolTableRecord
100
AcDbLinetypeTableRecord
  2
HIDDEN
 70
     0
  3
- - - - - - - - - - - - - - - - - - - -
 72
    65
 73
     2
 40
0.2
 49
0.1
 74
     0
 49
-0.1
 74
     0
  0
LTYPE
  5
1F7
330
5
100
AcDbSymbolTableRecord
100
AcDbLinetypeTableRecord
  2
PHANTOM
 70
     0
  3
_____ _ _ _____ _ _ _____ _ _ _____
 72
    65
 73
     6
 40
0.8
 49
0.45
 74
     0
 49
-0.05
 74
     0
 49
0.1
 74
     0
 49
-0.05
 74
     0
 49
0.1
 74
     0
 49
-0.05
 74
     0
  0
LTYPE
  5
1F8
330
5
100
AcDbSymbolTableRecord
100
AcDbLinetypeTableRecord
  2
DOT
 70
     0
  3
. . . . . . . . . . . . . . . . . . . .
 72
    65
 73
     2
 40
0.2
 49
0.1
 74
     0
 49
-0.1
 74
     0
  0
LTYPE
  5
1F9
330
5
100
AcDbSymbolTableRecord
100
AcDbLinetypeTableRecord
  2
DASHED
 70
     0
  3
- - - - - - - - - - - - - - - - - - - -
 72
    65
 73
     2
 40
0.2
 49
0.1
 74
     0
 49
-0.1
 74
     0
  0
LTYPE
  5
556
330
5
100
AcDbSymbolTableRecord
100
AcDbLinetypeTableRecord
  2
PHANTOM2
 70
     0
  3
Phantom (.5x) ___ _ _ ___ _ _ ___ _ _ ___ _ _
 72
    65
 73
     6
 40
31.75
 49
15.875
 74
     0
 49
-3.174999999999999
 74
     0
 49
3.174999999999999
 74
     0
 49
-3.174999999999999
 74
     0
 49
3.174999999999999
 74
     0
 49
-3.174999999999999
 74
     0
  0
LTYPE
  5
59C
330
5
100
AcDbSymbolTableRecord
100
AcDbLinetypeTableRecord
  2
AM_ISO02W050
 70
     0
  3
__ __ __ __ __ __ __ __ __ __ __ __ __ __ __
 72
    65
 73
     2
 40
7.5
 49
6.0
 74
     0
 49
-1.5
 74
     0
  0
LTYPE
  5
59D
330
5
100
AcDbSymbolTableRecord
100
AcDbLinetypeTableRecord
  2
AM_ISO08W050
 70
     0
  3
____ . ____ . ____ . ____ . ____ . ____ . ____
 72
    65
 73
     4
 40
18.0
 49
12.0
 74
     0
 49
-1.5
 74
     0
 49
3.0
 74
     0
 49
-1.5
 74
     0
  0
LTYPE
  5
59E
330
5
100
AcDbSymbolTableRecord
100
AcDbLinetypeTableRecord
  2
AM_ISO09W050
 70
     0
  3
_____ . . _____ . . _____ . . ____ .. ____
 72
    65
 73
     6
 40
22.5
 49
12.0
 74
     0
 49
-1.5
 74
     0
 49
3.0
 74
     0
 49
-1.5
 74
     0
 49
3.0
 74
     0
 49
-1.5
 74
     0
  0
LTYPE
  5
59F
330
5
100
AcDbSymbolTableRecord
100
AcDbLinetypeTableRecord
  2
Amconstr
 70
     0
  3
_______________________
 72
    65
 73
     2
 40
9999.0
 49
9999.0
 74
     0
 49
0.0
 74
     0
  0
LTYPE
  5
5A0
330
5
100
AcDbSymbolTableRecord
100
AcDbLinetypeTableRecord
  2
AM_ISO08W050x2
 70
     0
  3
__ . __ . __ . __ . __ . __
 72
    65
 73
     4
 40
9.0
 49
6.0
 74
     0
 49
-0.75
 74
     0
 49
1.5
 74
     0
 49
-0.75
 74
     0
  0
LTYPE
  5
5A1
330
5
100
AcDbSymbolTableRecord
100
AcDbLinetypeTableRecord
  2
AM_ISO02W050x2
 70
     0
  3
 _ _ _ _ _ _ _ _ _ _ _ _
 72
    65
 73
     2
 40
3.75
 49
3.0
 74
     0
 49
-0.75
 74
     0
  0
LTYPE
  5
5A4
330
5
100
AcDbSymbolTableRecord
100
AcDbLinetypeTableRecord
  2
Amzigzag
 70
     0
  3
/\/-/\/-/\/-/\/-/\/-/\/
 72
    65
 73
     2
 40
11.0001
 49
0.0001
 74
     4
 75
   136
340
5A3
 46
0.04
 50
0.0
 44
0.0
 45
0.0
 49
-11.0
 74
     0
  0
LTYPE
  5
5A5
330
5
100
AcDbSymbolTableRecord
100
AcDbLinetypeTableRecord
  2
AM_DIN_F_W050
 70
     0
  3
__ __ __ __ __ __ __ __ __ __ __ __ __ __ __
 72
    65
 73
     2
 40
6.25
 49
4.75
 74
     0
 49
-1.5
 74
     0
  0
LTYPE
  5
5A6
330
5
100
AcDbSymbolTableRecord
100
AcDbLinetypeTableRecord
  2
AM_DIN_G_W050
 70
     0
  3
____ . ____ . ____ . ____ . ____ . ____ . ____
 72
    65
 73
     4
 40
13.75
 49
9.75
 74
     0
 49
-1.5
 74
     0
 49
1.0
 74
     0
 49
-1.5
 74
     0
  0
LTYPE
  5
5A7
330
5
100
AcDbSymbolTableRecord
100
AcDbLinetypeTableRecord
  2
AM_DIN_K_W050
 70
     0
  3
_____ . . _____ . . _____ . . ____ .. ____
 72
    65
 73
     6
 40
16.25
 49
9.75
 74
     0
 49
-1.5
 74
     0
 49
1.0
 74
     0
 49
-1.5
 74
     0
 49
1.0
 74
     0
 49
-1.5
 74
     0
  0
LTYPE
  5
5A8
330
5
100
AcDbSymbolTableRecord
100
AcDbLinetypeTableRecord
  2
AM_DIN_G_W050x2
 70
     0
  3
__ . __ . __ . __ . __ . __
 72
    65
 73
     4
 40
6.875
 49
4.75
 74
     0
 49
-0.875
 74
     0
 49
0.375
 74
     0
 49
-0.875
 74
     0
  0
LTYPE
  5
5A9
330
5
100
AcDbSymbolTableRecord
100
AcDbLinetypeTableRecord
  2
AM_DIN_F_W050x2
 70
     0
  3
 _ _ _ _ _ _ _ _ _ _ _ _
 72
    65
 73
     2
 40
3.125
 49
2.25
 74
     0
 49
-0.875
 74
     0
  0
LTYPE
  5
5B8
330
5
100
AcDbSymbolTableRecord
100
AcDbLinetypeTableRecord
  2
ACDINWELD
 70
     0
  3
_ _ _ _ _
 72
    65
 73
     2
 40
2.0
 49
2.0
 74
     0
 49
-1.0
 74
     0
  0
LTYPE
  5
5B9
330
5
100
AcDbSymbolTableRecord
100
AcDbLinetypeTableRecord
  2
ACDINTGB
 70
     0
  3
__ . . __ . .
 72
    65
 73
     6
 40
9.0
 49
4.0
 74
     0
 49
-1.0
 74
     0
 49
1.0
 74
     0
 49
-1.0
 74
     0
 49
1.0
 74
     0
 49
-1.0
 74
     0
  0
LTYPE
  5
5BA
330
5
100
AcDbSymbolTableRecord
100
AcDbLinetypeTableRecord
  2
ACDINTGL
 70
     0
  3
_ _ _ _ _
 72
    65
 73
     2
 40
3.0
 49
2.0
 74
     0
 49
-1.0
 74
     0
  0
ENDTAB
  0
TABLE
  2
LAYER
  5
2
330
0
100
AcDbSymbolTable
 70
    32
  0
LAYER
  5
10
330
2
100
AcDbSymbolTableRecord
100
AcDbLayerTableRecord
  2
0
 70
     0
 62
     7
  6
CONTINUOUS
370
    -3
390
F
  0
LAYER
  5
1FA
330
2
100
AcDbSymbolTableRecord
100
AcDbLayerTableRecord
  2
DEFAULT_1
 70
     0
 62
     7
  6
CENTER
370
    -3
390
F
  0
LAYER
  5
1FB
330
2
100
AcDbSymbolTableRecord
100
AcDbLayerTableRecord
  2
DEFAULT_2
 70
     0
 62
     8
  6
HIDDEN
370
    -3
390
F
  0
LAYER
  5
1FC
330
2
100
AcDbSymbolTableRecord
100
AcDbLayerTableRecord
  2
DEFAULT_3
 70
     0
 62
     7
  6
PHANTOM
370
    -3
390
F
  0
LAYER
  5
1FD
330
2
100
AcDbSymbolTableRecord
100
AcDbLayerTableRecord
  2
01___PRT_ALL_DTM_PLN
 70
     0
 62
     7
  6
CONTINUOUS
370
    -3
390
F
  0
LAYER
  5
1FE
330
2
100
AcDbSymbolTableRecord
100
AcDbLayerTableRecord
  2
01___PRT_DEF_DTM_PLN
 70
     0
 62
     7
  6
CONTINUOUS
370
    -3
390
F
  0
LAYER
  5
1FF
330
2
100
AcDbSymbolTableRecord
100
AcDbLayerTableRecord
  2
02___PRT_ALL_AXES
 70
     0
 62
     7
  6
CONTINUOUS
370
    -3
390
F
  0
LAYER
  5
200
330
2
100
AcDbSymbolTableRecord
100
AcDbLayerTableRecord
  2
03___PRT_ALL_CURVES
 70
     0
 62
     7
  6
CONTINUOUS
370
    -3
390
F
  0
LAYER
  5
201
330
2
100
AcDbSymbolTableRecord
100
AcDbLayerTableRecord
  2
04___PRT_ALL_DTM_PNT
 70
     0
 62
     7
  6
CONTINUOUS
370
    -3
390
F
  0
LAYER
  5
202
330
2
100
AcDbSymbolTableRecord
100
AcDbLayerTableRecord
  2
05___PRT_ALL_DTM_CSYS
 70
     0
 62
     7
  6
CONTINUOUS
370
    -3
390
F
  0
LAYER
  5
203
330
2
100
AcDbSymbolTableRecord
100
AcDbLayerTableRecord
  2
05___PRT_DEF_DTM_CSYS
 70
     0
 62
     7
  6
CONTINUOUS
370
    -3
390
F
  0
LAYER
  5
204
330
2
100
AcDbSymbolTableRecord
100
AcDbLayerTableRecord
  2
06___PRT_ALL_SURFS
 70
     0
 62
     7
  6
CONTINUOUS
370
    -3
390
F
  0
LAYER
  5
205
330
2
100
AcDbSymbolTableRecord
100
AcDbLayerTableRecord
  2
3D_TEIL_NOTIZ
 70
     0
 62
     7
  6
CONTINUOUS
370
    -3
390
F
  0
LAYER
  5
206
330
2
100
AcDbSymbolTableRecord
100
AcDbLayerTableRecord
  2
ACHSEN
 70
     0
 62
     7
  6
CONTINUOUS
370
    -3
390
F
  0
LAYER
  5
207
330
2
100
AcDbSymbolTableRecord
100
AcDbLayerTableRecord
  2
AUSFORMSCHRAEGEN
 70
     0
 62
     7
  6
CONTINUOUS
370
    -3
390
F
  0
LAYER
  5
208
330
2
100
AcDbSymbolTableRecord
100
AcDbLayerTableRecord
  2
BEZUG
 70
     0
 62
     7
  6
CONTINUOUS
370
    -3
390
F
  0
LAYER
  5
209
330
2
100
AcDbSymbolTableRecord
100
AcDbLayerTableRecord
  2
BEZUGSACHSEN
 70
     0
 62
     7
  6
CONTINUOUS
370
    -3
390
F
  0
LAYER
  5
20A
330
2
100
AcDbSymbolTableRecord
100
AcDbLayerTableRecord
  2
BEZUGSEBENEN
 70
     0
 62
     7
  6
CONTINUOUS
370
    -3
390
F
  0
LAYER
  5
20B
330
2
100
AcDbSymbolTableRecord
100
AcDbLayerTableRecord
  2
BG_STARTBEZUEGE
 70
     0
 62
     7
  6
CONTINUOUS
370
    -3
390
F
  0
LAYER
  5
20C
330
2
100
AcDbSymbolTableRecord
100
AcDbLayerTableRecord
  2
BOHRUNGEN
 70
     0
 62
     7
  6
CONTINUOUS
370
    -3
390
F
  0
LAYER
  5
20D
330
2
100
AcDbSymbolTableRecord
100
AcDbLayerTableRecord
  2
DATUMS
 70
     0
 62
     7
  6
CONTINUOUS
370
    -3
390
F
  0
LAYER
  5
20E
330
2
100
AcDbSymbolTableRecord
100
AcDbLayerTableRecord
  2
DETAILS
 70
     0
 62
     7
  6
CONTINUOUS
370
    -3
390
F
  0
LAYER
  5
20F
330
2
100
AcDbSymbolTableRecord
100
AcDbLayerTableRecord
  2
FASEN
 70
     0
 62
     7
  6
CONTINUOUS
370
    -3
390
F
  0
LAYER
  5
210
330
2
100
AcDbSymbolTableRecord
100
AcDbLayerTableRecord
  2
GEWINDE
 70
     0
 62
     7
  6
CONTINUOUS
370
    -3
390
F
  0
LAYER
  5
211
330
2
100
AcDbSymbolTableRecord
100
AcDbLayerTableRecord
  2
HILFEN
 70
     0
 62
     7
  6
CONTINUOUS
370
    -3
390
F
  0
LAYER
  5
212
330
2
100
AcDbSymbolTableRecord
100
AcDbLayerTableRecord
  2
KURVEN
 70
     0
 62
     7
  6
CONTINUOUS
370
    -3
390
F
  0
LAYER
  5
213
330
2
100
AcDbSymbolTableRecord
100
AcDbLayerTableRecord
  2
PLATZIERUNG
 70
     0
 62
     7
  6
CONTINUOUS
370
    -3
390
F
  0
LAYER
  5
214
330
2
100
AcDbSymbolTableRecord
100
AcDbLayerTableRecord
  2
PLAZIERUNG
 70
     0
 62
     7
  6
CONTINUOUS
370
    -3
390
F
  0
LAYER
  5
215
330
2
100
AcDbSymbolTableRecord
100
AcDbLayerTableRecord
  2
RUNDUNGEN
 70
     0
 62
     7
  6
CONTINUOUS
370
    -3
390
F
  0
LAYER
  5
216
330
2
100
AcDbSymbolTableRecord
100
AcDbLayerTableRecord
  2
TEIL_STARTBEZUEGE
 70
     0
 62
     7
  6
CONTINUOUS
370
    -3
390
F
  0
LAYER
  5
217
330
2
100
AcDbSymbolTableRecord
100
AcDbLayerTableRecord
  2
ZEICHNUNGSBEMASSUNGEN
 70
     0
 62
     7
  6
CONTINUOUS
370
    -3
390
F
  0
LAYER
  5
5C8
330
2
100
AcDbSymbolTableRecord
100
AcDbLayerTableRecord
  2
Defpoints
 70
     0
 62
     7
  6
CONTINUOUS
290
     0
370
    -3
390
F
  0
ENDTAB
  0
TABLE
  2
STYLE
  5
3
330
0
100
AcDbSymbolTable
 70
     6
  0
STYLE
  5
11
330
3
100
AcDbSymbolTableRecord
100
AcDbTextStyleTableRecord
  2
STANDARD
 70
     0
 40
0.0
 41
0.7
 50
0.0
 71
     0
 42
0.2
  3
txt
  4

  0
STYLE
  5
218
330
3
100
AcDbSymbolTableRecord
100
AcDbTextStyleTableRecord
  2
TEXTSTYLE_1
 70
     0
 40
0.0
 41
0.8
 50
0.0
 71
     0
 42
0.2
  3
gdt
  4

  0
STYLE
  5
219
330
3
100
AcDbSymbolTableRecord
100
AcDbTextStyleTableRecord
  2
TEXTSTYLE_2
 70
     0
 40
0.0
 41
0.7
 50
0.0
 71
     0
 42
0.2
  3
gdt
  4

  0
STYLE
  5
5A3
330
3
100
AcDbSymbolTableRecord
100
AcDbTextStyleTableRecord
  2

 70
     1
 40
0.0
 41
1.0
 50
0.0
 71
     0
 42
0.2
  3
genltshp.shx
  4

  0
STYLE
  5
5B6
330
3
100
AcDbSymbolTableRecord
100
AcDbTextStyleTableRecord
  2
ACDINTS
 70
     0
 40
1.0
 41
1.0
 50
0.0
 71
     0
 42
0.2
  3
isocp.shx
  4

  0
STYLE
  5
5B7
330
3
100
AcDbSymbolTableRecord
100
AcDbTextStyleTableRecord
  2
ACDINGDT
 70
     0
 40
0.0
 41
1.0
 50
0.0
 71
     0
 42
0.2
  3
amgdt.shx
  4

  0
ENDTAB
  0
TABLE
  2
VIEW
  5
6
330
0
100
AcDbSymbolTable
 70
     0
  0
ENDTAB
  0
TABLE
  2
UCS
  5
7
330
0
100
AcDbSymbolTable
 70
     0
  0
ENDTAB
  0
TABLE
  2
APPID
  5
9
330
0
100
AcDbSymbolTable
 70
    21
  0
APPID
  5
21A
330
9
100
AcDbSymbolTableRecord
100
AcDbRegAppTableRecord
  2
ACAD
 70
     0
  0
APPID
  5
52B
330
9
100
AcDbSymbolTableRecord
100
AcDbRegAppTableRecord
  2
MCAD_NO_VIS
 70
     0
  0
APPID
  5
52C
330
9
100
AcDbSymbolTableRecord
100
AcDbRegAppTableRecord
  2
ACAD_TEMP_GRAPHIC
 70
     0
  0
APPID
  5
558
330
9
100
AcDbSymbolTableRecord
100
AcDbRegAppTableRecord
  2
AD_DRAW
 70
     0
  0
APPID
  5
55B
330
9
100
AcDbSymbolTableRecord
100
AcDbRegAppTableRecord
  2
ACATTRIBSERVICES
 70
     0
  0
APPID
  5
57B
330
9
100
AcDbSymbolTableRecord
100
AcDbRegAppTableRecord
  2
DESIGNERASSEMBLIES
 70
     0
  0
APPID
  5
581
330
9
100
AcDbSymbolTableRecord
100
AcDbRegAppTableRecord
  2
ACADM_DIM_EDIT
 70
     0
  0
APPID
  5
582
330
9
100
AcDbSymbolTableRecord
100
AcDbRegAppTableRecord
  2
AMDT_DM_ADJ
 70
     0
  0
APPID
  5
599
330
9
100
AcDbSymbolTableRecord
100
AcDbRegAppTableRecord
  2
ACAD_DSTYLE_DIMJAG
 70
     0
  0
APPID
  5
59A
330
9
100
AcDbSymbolTableRecord
100
AcDbRegAppTableRecord
  2
ACAD_DSTYLE_DIMBREAK
 70
     0
  0
APPID
  5
5C9
330
9
100
AcDbSymbolTableRecord
100
AcDbRegAppTableRecord
  2
AcAecLayerStandard
 70
     0
  0
APPID
  5
5CA
330
9
100
AcDbSymbolTableRecord
100
AcDbRegAppTableRecord
  2
GENIUS_GENODEF_13
 70
     0
  0
APPID
  5
5CB
330
9
100
AcDbSymbolTableRecord
100
AcDbRegAppTableRecord
  2
GENIUS_GENOBJ-N-HTC_13
 70
     0
  0
APPID
  5
5CC
330
9
100
AcDbSymbolTableRecord
100
AcDbRegAppTableRecord
  2
GENIUS_GENHATCH_13
 70
     0
  0
APPID
  5
5CD
330
9
100
AcDbSymbolTableRecord
100
AcDbRegAppTableRecord
  2
ACAD_EXEMPT_FROM_CAD_STANDARDS
 70
     0
  0
APPID
  5
5CE
330
9
100
AcDbSymbolTableRecord
100
AcDbRegAppTableRecord
  2
ACAD_MLEADERVER
 70
     0
  0
APPID
  5
5CF
330
9
100
AcDbSymbolTableRecord
100
AcDbRegAppTableRecord
  2
ACAD_DSTYLE_DIMJOGGED_JOGANGLE_SYMBOL
 70
     0
  0
APPID
  5
5D0
330
9
100
AcDbSymbolTableRecord
100
AcDbRegAppTableRecord
  2
ACAD_DSTYLE_DIM_LINETYPE
 70
     0
  0
APPID
  5
5D1
330
9
100
AcDbSymbolTableRecord
100
AcDbRegAppTableRecord
  2
ACAD_DSTYLE_DIM_EXT1_LINETYPE
 70
     0
  0
APPID
  5
5D2
330
9
100
AcDbSymbolTableRecord
100
AcDbRegAppTableRecord
  2
ACAD_DSTYLE_DIM_EXT2_LINETYPE
 70
     0
  0
APPID
  5
5D3
330
9
100
AcDbSymbolTableRecord
100
AcDbRegAppTableRecord
  2
ACAD_DSTYLE_DIMINSPECT
 70
     0
  0
ENDTAB
  0
TABLE
  2
DIMSTYLE
  5
A
330
0
100
AcDbSymbolTable
 70
    11
100
AcDbDimStyleTable
 71
     1
340
225
  0
DIMSTYLE
105
223
330
A
100
AcDbSymbolTableRecord
100
AcDbDimStyleTableRecord
  2
STANDARD
 70
     0
 41
3.5
 47
0.005
 48
0.005
 71
     1
 73
     0
 74
     0
 77
     1
 78
     8
140
3.5
178
     5
271
     3
272
     3
284
     8
340
11
341
21D
342
21D
343
21D
344
21D
  0
DIMSTYLE
105
224
330
A
100
AcDbSymbolTableRecord
100
AcDbDimStyleTableRecord
  2
DIMSTYLE_1
 70
     0
 41
3.5
 47
0.5
 48
0.5
 73
     0
 74
     0
 77
     1
 78
     8
140
3.5
178
     5
271
     0
272
     0
284
     8
340
11
341
21D
342
21D
343
21D
344
21D
  0
DIMSTYLE
105
225
102
{ACAD_REACTORS
330
25F
330
25D
330
25C
330
25B
330
25E
102
}
330
A
100
AcDbSymbolTableRecord
100
AcDbDimStyleTableRecord
  2
DIMSTYLE_2
 70
     0
 41
3.5
 47
0.3
 48
0.3
 73
     0
 74
     0
 77
     1
 78
     8
140
3.5
178
     5
271
     0
272
     0
284
     8
340
11
341
21D
342
21D
343
21D
344
21D
  0
DIMSTYLE
105
226
330
A
100
AcDbSymbolTableRecord
100
AcDbDimStyleTableRecord
  2
DIMSTYLE_3
 70
     0
 41
3.5
 47
0.5
 48
0.5
 73
     0
 74
     0
 77
     1
 78
     8
140
3.5
178
     5
271
     3
272
     3
284
     8
340
11
341
21D
342
21D
343
21D
344
21D
  0
DIMSTYLE
105
598
102
{ACAD_REACTORS
330
587
102
}
330
A
100
AcDbSymbolTableRecord
100
AcDbDimStyleTableRecord
  2
AM_DIN
 70
     0
  4
"
 41
3.5
 42
1.0
 43
10.0
 44
1.0
 47
0.1
 48
0.1
 73
     0
 74
     0
 77
     1
 78
     8
 79
     2
140
3.5
141
0.0
143
0.0393701
146
0.71
147
1.5
172
     1
176
   256
177
   256
178
     2
271
     2
272
     3
274
     4
283
     0
284
     8
340
11
371
    -1
372
    -1
1001
ACAD_DSTYLE_DIMJAG
1070
   388
1040
1.5
1001
ACAD_DSTYLE_DIMBREAK
1070
   391
1040
3.75
1001
ACAD_DSTYLE_DIMJOGGED_JOGANGLE_SYMBOL
1070
   384
1040
1.570796326794896
1001
ACAD_DSTYLE_DIM_LINETYPE
1070
   380
1005
14
1001
ACAD_DSTYLE_DIM_EXT1_LINETYPE
1070
   381
1005
14
1001
ACAD_DSTYLE_DIM_EXT2_LINETYPE
1070
   382
1005
14
  0
DIMSTYLE
105
5AA
330
A
100
AcDbSymbolTableRecord
100
AcDbDimStyleTableRecord
  2
AM_DIN$3
 70
     0
  4
"
 41
3.5
 42
1.0
 43
10.0
 44
1.0
 47
0.1
 48
0.1
 73
     0
 77
     1
 78
     8
 79
     2
140
3.5
141
0.0
143
0.0393701
146
0.71
147
1.5
176
   256
177
   256
178
     2
271
     2
272
     3
274
     4
283
     0
284
     8
288
     1
289
     0
340
11
371
    -1
372
    -1
1001
ACAD_DSTYLE_DIMBREAK
1070
   391
1040
3.75
1001
ACAD_DSTYLE_DIMJAG
1070
   388
1040
1.5
1001
ACAD_DSTYLE_DIMJOGGED_JOGANGLE_SYMBOL
1070
   384
1040
1.570796326794896
1001
ACAD_DSTYLE_DIM_LINETYPE
1070
   380
1005
14
1001
ACAD_DSTYLE_DIM_EXT1_LINETYPE
1070
   381
1005
14
1001
ACAD_DSTYLE_DIM_EXT2_LINETYPE
1070
   382
1005
14
  0
DIMSTYLE
105
5AB
330
A
100
AcDbSymbolTableRecord
100
AcDbDimStyleTableRecord
  2
AM_DIN$4
 70
     0
  4
"
 41
3.5
 42
1.0
 43
10.0
 44
1.0
 47
0.1
 48
0.1
 73
     0
 77
     1
 78
     8
 79
     2
140
3.5
141
0.0
143
0.0393701
146
0.71
147
1.5
176
   256
177
   256
178
     2
271
     2
272
     3
274
     4
283
     0
284
     8
288
     1
289
     0
340
11
371
    -1
372
    -1
1001
ACAD_DSTYLE_DIMBREAK
1070
   391
1040
3.75
1001
ACAD_DSTYLE_DIMJAG
1070
   388
1040
1.5
1001
ACAD_DSTYLE_DIMJOGGED_JOGANGLE_SYMBOL
1070
   384
1040
1.570796326794896
1001
ACAD_DSTYLE_DIM_LINETYPE
1070
   380
1005
14
1001
ACAD_DSTYLE_DIM_EXT1_LINETYPE
1070
   381
1005
14
1001
ACAD_DSTYLE_DIM_EXT2_LINETYPE
1070
   382
1005
14
  0
DIMSTYLE
105
5AC
330
A
100
AcDbSymbolTableRecord
100
AcDbDimStyleTableRecord
  2
AM_DIN$6
 70
     0
  4
"
 41
3.5
 42
1.0
 43
10.0
 44
1.0
 47
0.1
 48
0.1
 73
     0
 74
     0
 78
     8
 79
     2
140
3.5
141
0.0
143
0.0393701
146
0.71
147
1.5
172
     1
176
   256
177
   256
178
     2
271
     2
272
     3
274
     4
283
     0
284
     8
340
11
371
    -1
372
    -1
1001
ACAD_DSTYLE_DIMBREAK
1070
   391
1040
3.75
1001
ACAD_DSTYLE_DIMJAG
1070
   388
1040
1.5
1001
ACAD_DSTYLE_DIMJOGGED_JOGANGLE_SYMBOL
1070
   384
1040
1.570796326794896
1001
ACAD_DSTYLE_DIM_LINETYPE
1070
   380
1005
14
1001
ACAD_DSTYLE_DIM_EXT1_LINETYPE
1070
   381
1005
14
1001
ACAD_DSTYLE_DIM_EXT2_LINETYPE
1070
   382
1005
14
  0
DIMSTYLE
105
5AD
330
A
100
AcDbSymbolTableRecord
100
AcDbDimStyleTableRecord
  2
AM_DIN$7
 70
     0
  4
"
 41
3.5
 42
1.0
 43
10.0
 44
1.0
 47
0.1
 48
0.1
 73
     0
 74
     0
 77
     1
 78
     8
 79
     2
140
3.5
141
0.0
143
0.0393701
146
0.71
147
1.5
172
     1
176
   256
177
   256
178
     2
271
     2
272
     3
274
     4
283
     0
284
     8
340
11
371
    -1
372
    -1
1001
ACAD_DSTYLE_DIMBREAK
1070
   391
1040
3.75
1001
ACAD_DSTYLE_DIMJAG
1070
   388
1040
1.5
1001
ACAD_DSTYLE_DIMJOGGED_JOGANGLE_SYMBOL
1070
   384
1040
1.570796326794896
1001
ACAD_DSTYLE_DIM_LINETYPE
1070
   380
1005
14
1001
ACAD_DSTYLE_DIM_EXT1_LINETYPE
1070
   381
1005
14
1001
ACAD_DSTYLE_DIM_EXT2_LINETYPE
1070
   382
1005
14
  0
DIMSTYLE
105
5AE
330
A
100
AcDbSymbolTableRecord
100
AcDbDimStyleTableRecord
  2
AM_DIN$SF
 70
     0
  4
"
 41
3.5
 42
1.0
 43
10.0
 44
1.0
 47
0.1
 48
0.1
 73
     0
 74
     0
 75
     1
 76
     1
 77
     1
 78
     8
 79
     2
140
3.5
141
0.0
143
0.0393701
146
0.71
147
1.5
172
     1
176
   256
177
   256
178
     2
271
     2
272
     3
274
     4
283
     0
284
     8
340
11
371
    -1
372
    -1
1001
ACAD_DSTYLE_DIMBREAK
1070
   391
1040
3.75
1001
ACAD_DSTYLE_DIMJAG
1070
   388
1040
1.5
1001
ACAD_DSTYLE_DIMJOGGED_JOGANGLE_SYMBOL
1070
   384
1040
1.570796326794896
1001
ACAD_DSTYLE_DIM_LINETYPE
1070
   380
1005
14
1001
ACAD_DSTYLE_DIM_EXT1_LINETYPE
1070
   381
1005
14
1001
ACAD_DSTYLE_DIM_EXT2_LINETYPE
1070
   382
1005
14
  0
DIMSTYLE
105
5B3
330
A
100
AcDbSymbolTableRecord
100
AcDbDimStyleTableRecord
  2
AM_DIN$SH
 70
     0
  4
"
 41
3.5
 42
1.0
 43
10.0
 44
1.0
 47
0.1
 48
0.1
 73
     0
 74
     0
 75
     1
 76
     1
 77
     1
 78
     8
 79
     2
140
3.5
141
0.0
143
0.0393701
144
2.0
146
0.71
147
1.5
172
     1
173
     1
176
   256
177
   256
178
     2
271
     2
272
     3
274
     4
283
     0
284
     8
340
11
343
5AF
371
    -1
372
    -1
1001
ACAD_DSTYLE_DIMBREAK
1070
   391
1040
3.75
1001
ACAD_DSTYLE_DIMJAG
1070
   388
1040
1.5
1001
ACAD_DSTYLE_DIMJOGGED_JOGANGLE_SYMBOL
1070
   384
1040
1.570796326794896
1001
ACAD_DSTYLE_DIM_LINETYPE
1070
   380
1005
14
1001
ACAD_DSTYLE_DIM_EXT1_LINETYPE
1070
   381
1005
14
1001
ACAD_DSTYLE_DIM_EXT2_LINETYPE
1070
   382
1005
14
  0
ENDTAB
  0
TABLE
  2
BLOCK_RECORD
  5
1
330
0
100
AcDbSymbolTable
 70
    14
  0
BLOCK_RECORD
  5
21B
330
1
100
AcDbSymbolTableRecord
100
AcDbBlockTableRecord
  2
*Model_Space
340
4DB
  0
BLOCK_RECORD
  5
21C
330
1
100
AcDbSymbolTableRecord
100
AcDbBlockTableRecord
  2
*Paper_Space
340
4DC
  0
BLOCK_RECORD
  5
21D
330
1
100
AcDbSymbolTableRecord
100
AcDbBlockTableRecord
  2
_FILLED
340
0
102
{BLKREFS
331
5DA
331
5DB
331
5F0
331
5F1
331
5FA
331
5FB
331
606
331
607
331
61C
331
61D
331
626
331
627
331
632
331
633
331
656
331
657
331
668
331
669
331
671
331
672
102
}
  0
BLOCK_RECORD
  5
21E
330
1
100
AcDbSymbolTableRecord
100
AcDbBlockTableRecord
  2
*D1
340
0
  0
BLOCK_RECORD
  5
21F
330
1
100
AcDbSymbolTableRecord
100
AcDbBlockTableRecord
  2
*D2
340
0
  0
BLOCK_RECORD
  5
220
330
1
100
AcDbSymbolTableRecord
100
AcDbBlockTableRecord
  2
*D3
340
0
  0
BLOCK_RECORD
  5
221
330
1
100
AcDbSymbolTableRecord
100
AcDbBlockTableRecord
  2
*D4
340
0
  0
BLOCK_RECORD
  5
222
330
1
100
AcDbSymbolTableRecord
100
AcDbBlockTableRecord
  2
*D5
340
0
  0
BLOCK_RECORD
  5
5AF
330
1
100
AcDbSymbolTableRecord
100
AcDbBlockTableRecord
  2
GENAXEH
340
0
  0
ENDTAB
  0
ENDSEC
  0
SECTION
  2
BLOCKS
  0
BLOCK
  5
20
330
21B
100
AcDbEntity
  8
0
100
AcDbBlockBegin
  2
*Model_Space
 70
     0
 10
0.0
 20
0.0
 30
0.0
  3
*Model_Space
  1

  0
ENDBLK
  5
21
330
21B
100
AcDbEntity
  8
0
100
AcDbBlockEnd
  0
BLOCK
  5
1C
330
21C
100
AcDbEntity
 67
     1
  8
0
100
AcDbBlockBegin
  2
*Paper_Space
 70
     0
 10
0.0
 20
0.0
 30
0.0
  3
*Paper_Space
  1

  0
ENDBLK
  5
1D
330
21C
100
AcDbEntity
 67
     1
  8
0
100
AcDbBlockEnd
  0
BLOCK
  5
227
330
21D
100
AcDbEntity
  8
0
100
AcDbBlockBegin
  2
_FILLED
 70
     0
 10
0.0
 20
0.0
 30
0.0
  3
_FILLED
  1

  0
SOLID
  5
228
330
21D
100
AcDbEntity
  8
0
  6
ByBlock
 62
     0
100
AcDbTrace
 10
0.0
 20
0.0
 30
0.0
 11
-1.0
 21
0.125
 31
0.0
 12
-1.0
 22
-0.125
 32
0.0
 13
-1.0
 23
-0.125
 33
0.0
  0
ENDBLK
  5
229
330
21D
100
AcDbEntity
  8
0
  6
ByBlock
 62
     0
100
AcDbBlockEnd
  0
BLOCK
  5
22A
330
21E
100
AcDbEntity
  8
ZEICHNUNGSBEMASSUNGEN
  6
Continuous
 62
     2
100
AcDbBlockBegin
  2
*D1
 70
     1
 10
0.0
 20
0.0
 30
0.0
  3
*D1
  1

  0
LINE
  5
623
330
21E
100
AcDbEntity
  8
ZEICHNUNGSBEMASSUNGEN
  6
Continuous
 62
     0
370
    -2
100
AcDbLine
 10
623.0083988596
 20
370.3539227445
 30
0.0
 11
623.0083988596
 21
419.5012160259
 31
0.0
  0
LINE
  5
624
330
21E
100
AcDbEntity
  8
ZEICHNUNGSBEMASSUNGEN
  6
Continuous
 62
     0
370
    -2
100
AcDbLine
 10
468.4906402486999
 20
370.3539227445
 30
0.0
 11
468.4906402486999
 21
419.5012160259
 31
0.0
  0
LINE
  5
625
330
21E
100
AcDbEntity
  8
ZEICHNUNGSBEMASSUNGEN
  6
Continuous
 62
     0
370
    -2
100
AcDbLine
 10
618.0083988596
 20
419.3212160258999
 30
0.0
 11
473.4906402486999
 21
419.3212160258999
 31
0.0
  0
INSERT
  5
626
330
21E
100
AcDbEntity
  8
ZEICHNUNGSBEMASSUNGEN
  6
Continuous
 62
     0
370
    -2
100
AcDbBlockReference
  2
_FILLED
 10
623.0083988596
 20
419.3212160258999
 30
0.0
 41
5.0
 42
5.0
 43
5.0
  0
INSERT
  5
627
330
21E
100
AcDbEntity
  8
ZEICHNUNGSBEMASSUNGEN
  6
Continuous
 62
     0
370
    -2
100
AcDbBlockReference
  2
_FILLED
 10
468.4906402486999
 20
419.3212160258999
 30
0.0
 41
5.0
 42
5.0
 43
5.0
 50
180.0
  0
MTEXT
  5
628
330
21E
100
AcDbEntity
  8
ZEICHNUNGSBEMASSUNGEN
  6
Continuous
100
AcDbMText
 10
542.8328528875
 20
427.8212160258999
 30
0.0
 40
7.0
 41
0.0
 71
     2
 72
     1
  1
\A1;%%c155
 73
     1
 44
1.0
1001
ACAD
1000
MTEXTBEGIN
1070
    73
1070
     1
1070
    44
1040
1.0
1070
    74
1070
     0
1000
MTEXTEND
  0
POINT
  5
629
330
21E
100
AcDbEntity
  8
Defpoints
  6
Continuous
 62
     0
100
AcDbPoint
 10
623.0083988596
 20
370.2914227445
 30
0.0
  0
POINT
  5
62A
330
21E
100
AcDbEntity
  8
Defpoints
  6
Continuous
 62
     0
100
AcDbPoint
 10
468.4906402486999
 20
370.2914227445
 30
0.0
  0
POINT
  5
62B
330
21E
100
AcDbEntity
  8
Defpoints
  6
Continuous
 62
     0
100
AcDbPoint
 10
468.4906402486999
 20
419.3212160258999
 30
0.0
  0
ENDBLK
  5
234
330
21E
100
AcDbEntity
  8
0
  6
ByBlock
 62
     0
100
AcDbBlockEnd
  0
BLOCK
  5
235
330
21F
100
AcDbEntity
  8
ZEICHNUNGSBEMASSUNGEN
  6
Continuous
 62
     2
100
AcDbBlockBegin
  2
*D2
 70
     1
 10
0.0
 20
0.0
 30
0.0
  3
*D2
  1

  0
LINE
  5
653
330
21F
100
AcDbEntity
  8
ZEICHNUNGSBEMASSUNGEN
  6
Continuous
 62
     0
370
    -2
100
AcDbLine
 10
395.7495195541
 20
375.2933214996
 30
0.0
 11
395.7495195541
 21
429.8913551712503
 31
0.0
  0
LINE
  5
654
330
21F
100
AcDbEntity
  8
ZEICHNUNGSBEMASSUNGEN
  6
Continuous
 62
     0
370
    -2
100
AcDbLine
 10
695.7495195541
 20
375.2933214996
 30
0.0
 11
695.7495195541
 21
429.8913551712503
 31
0.0
  0
LINE
  5
655
330
21F
100
AcDbEntity
  8
ZEICHNUNGSBEMASSUNGEN
  6
Continuous
 62
     0
370
    -2
100
AcDbLine
 10
400.7495195541
 20
429.7113551712502
 30
0.0
 11
690.7495195541001
 21
429.7113551712502
 31
0.0
  0
INSERT
  5
656
330
21F
100
AcDbEntity
  8
ZEICHNUNGSBEMASSUNGEN
  6
Continuous
 62
     0
370
    -2
100
AcDbBlockReference
  2
_FILLED
 10
395.7495195541
 20
429.7113551712502
 30
0.0
 41
5.0
 42
5.0
 43
5.0
 50
180.0
  0
INSERT
  5
657
330
21F
100
AcDbEntity
  8
ZEICHNUNGSBEMASSUNGEN
  6
Continuous
 62
     0
370
    -2
100
AcDbBlockReference
  2
_FILLED
 10
695.7495195541
 20
429.7113551712502
 30
0.0
 41
5.0
 42
5.0
 43
5.0
  0
MTEXT
  5
658
330
21F
100
AcDbEntity
  8
ZEICHNUNGSBEMASSUNGEN
  6
Continuous
100
AcDbMText
 10
543.9513192563672
 20
438.2113551712502
 30
0.0
 40
7.0
 41
0.0
 71
     2
 72
     1
  1
\A1;%%c300
 73
     1
 44
1.0
1001
ACAD
1000
MTEXTBEGIN
1070
    73
1070
     1
1070
    44
1040
1.0
1070
    74
1070
     0
1000
MTEXTEND
  0
POINT
  5
659
330
21F
100
AcDbEntity
  8
Defpoints
  6
Continuous
 62
     0
100
AcDbPoint
 10
395.7495195541
 20
375.2308214996
 30
0.0
  0
POINT
  5
65A
330
21F
100
AcDbEntity
  8
Defpoints
  6
Continuous
 62
     0
100
AcDbPoint
 10
695.7495195541
 20
375.2308214996
 30
0.0
  0
POINT
  5
65B
330
21F
100
AcDbEntity
  8
Defpoints
  6
Continuous
 62
     0
100
AcDbPoint
 10
695.7495195541
 20
429.7113551712502
 30
0.0
  0
ENDBLK
  5
23D
330
21F
100
AcDbEntity
  8
0
  6
ByBlock
 62
     0
100
AcDbBlockEnd
  0
BLOCK
  5
23E
330
220
100
AcDbEntity
  8
ZEICHNUNGSBEMASSUNGEN
  6
Continuous
 62
     2
100
AcDbBlockBegin
  2
*D3
 70
     1
 10
0.0
 20
0.0
 30
0.0
  3
*D3
  1

  0
LINE
  5
5F7
330
220
100
AcDbEntity
  8
ZEICHNUNGSBEMASSUNGEN
  6
Continuous
 62
     0
370
    -2
100
AcDbLine
 10
508.6870195558
 20
230.1962160259
 30
0.0
 11
384.6247956146001
 21
230.1962160259
 31
0.0
  0
LINE
  5
5F8
330
220
100
AcDbEntity
  8
ZEICHNUNGSBEMASSUNGEN
  6
Continuous
 62
     0
370
    -2
100
AcDbLine
 10
421.6870195541
 20
377.0971871656
 30
0.0
 11
384.6247956146001
 21
377.0971871656
 31
0.0
  0
LINE
  5
5F9
330
220
100
AcDbEntity
  8
ZEICHNUNGSBEMASSUNGEN
  6
Continuous
 62
     0
370
    -2
100
AcDbLine
 10
384.8047956146
 20
235.1962160259001
 30
0.0
 11
384.8047956146
 21
372.0971871656
 31
0.0
  0
INSERT
  5
5FA
330
220
100
AcDbEntity
  8
ZEICHNUNGSBEMASSUNGEN
  6
Continuous
 62
     0
370
    -2
100
AcDbBlockReference
  2
_FILLED
 10
384.8047956146
 20
230.1962160259
 30
0.0
 41
5.0
 42
5.0
 43
5.0
 50
270.0
  0
INSERT
  5
5FB
330
220
100
AcDbEntity
  8
ZEICHNUNGSBEMASSUNGEN
  6
Continuous
 62
     0
370
    -2
100
AcDbBlockReference
  2
_FILLED
 10
384.8047956146
 20
377.0971871656
 30
0.0
 41
5.0
 42
5.0
 43
5.0
 50
90.0
  0
MTEXT
  5
5FC
330
220
100
AcDbEntity
  8
ZEICHNUNGSBEMASSUNGEN
  6
Continuous
100
AcDbMText
 10
376.3047956146
 20
300.2942141072
 30
0.0
 40
7.0
 41
0.0
 71
     2
 72
     1
  1
\A1;147
 11
0.0000000000000001
 21
1.0
 31
0.0
 73
     1
 44
1.0
1001
ACAD
1000
MTEXTBEGIN
1070
    73
1070
     1
1070
    44
1040
1.0
1070
    74
1070
     0
1000
MTEXTEND
  0
POINT
  5
5FD
330
220
100
AcDbEntity
  8
Defpoints
  6
Continuous
 62
     0
100
AcDbPoint
 10
508.7495195558
 20
230.1962160259
 30
0.0
  0
POINT
  5
5FE
330
220
100
AcDbEntity
  8
Defpoints
  6
Continuous
 62
     0
100
AcDbPoint
 10
421.7495195541
 20
377.0971871656
 30
0.0
  0
POINT
  5
5FF
330
220
100
AcDbEntity
  8
Defpoints
  6
Continuous
 62
     0
100
AcDbPoint
 10
384.8047956146
 20
377.0971871656
 30
0.0
  0
ENDBLK
  5
246
330
220
100
AcDbEntity
  8
0
  6
ByBlock
 62
     0
100
AcDbBlockEnd
  0
BLOCK
  5
247
330
221
100
AcDbEntity
  8
ZEICHNUNGSBEMASSUNGEN
  6
Continuous
 62
     2
100
AcDbBlockBegin
  2
*D4
 70
     1
 10
0.0
 20
0.0
 30
0.0
  3
*D4
  1

  0
LINE
  5
66E
330
221
100
AcDbEntity
  8
ZEICHNUNGSBEMASSUNGEN
  6
Continuous
 62
     0
370
    -2
100
AcDbLine
 10
685.3120195541
 20
285.1962160259
 30
0.0
 11
708.2931486773706
 21
285.1962160259
 31
0.0
  0
LINE
  5
66F
330
221
100
AcDbEntity
  8
ZEICHNUNGSBEMASSUNGEN
  6
Continuous
 62
     0
370
    -2
100
AcDbLine
 10
612.3310339458001
 20
377.1795646473
 30
0.0
 11
708.2931486773708
 21
377.1795646473
 31
0.0
  0
LINE
  5
670
330
221
100
AcDbEntity
  8
ZEICHNUNGSBEMASSUNGEN
  6
Continuous
 62
     0
370
    -2
100
AcDbLine
 10
708.1131486773707
 20
290.1962160259
 30
0.0
 11
708.1131486773707
 21
372.1795646473
 31
0.0
  0
INSERT
  5
671
330
221
100
AcDbEntity
  8
ZEICHNUNGSBEMASSUNGEN
  6
Continuous
 62
     0
370
    -2
100
AcDbBlockReference
  2
_FILLED
 10
708.1131486773707
 20
285.1962160259
 30
0.0
 41
5.0
 42
5.0
 43
5.0
 50
270.0
  0
INSERT
  5
672
330
221
100
AcDbEntity
  8
ZEICHNUNGSBEMASSUNGEN
  6
Continuous
 62
     0
370
    -2
100
AcDbBlockReference
  2
_FILLED
 10
708.1131486773707
 20
377.1795646473
 30
0.0
 41
5.0
 42
5.0
 43
5.0
 50
90.0
  0
MTEXT
  5
673
330
221
100
AcDbEntity
  8
ZEICHNUNGSBEMASSUNGEN
  6
Continuous
100
AcDbMText
 10
699.6131486773706
 20
328.7067581575088
 30
0.0
 40
7.0
 41
0.0
 71
     2
 72
     1
  1
\A1;92
 11
0.0000000000000001
 21
1.0
 31
0.0
 73
     1
 44
1.0
1001
ACAD
1000
MTEXTBEGIN
1070
    73
1070
     1
1070
    44
1040
1.0
1070
    74
1070
     0
1000
MTEXTEND
  0
POINT
  5
674
330
221
100
AcDbEntity
  8
Defpoints
  6
Continuous
 62
     0
100
AcDbPoint
 10
685.2495195541
 20
285.1962160259
 30
0.0
  0
POINT
  5
675
330
221
100
AcDbEntity
  8
Defpoints
  6
Continuous
 62
     0
100
AcDbPoint
 10
612.2685339458
 20
377.1795646473
 30
0.0
  0
POINT
  5
676
330
221
100
AcDbEntity
  8
Defpoints
  6
Continuous
 62
     0
100
AcDbPoint
 10
708.1131486773707
 20
377.1795646473
 30
0.0
  0
ENDBLK
  5
24F
330
221
100
AcDbEntity
  8
0
  6
ByBlock
 62
     0
100
AcDbBlockEnd
  0
BLOCK
  5
250
330
222
100
AcDbEntity
  8
ZEICHNUNGSBEMASSUNGEN
  6
Continuous
 62
     2
100
AcDbBlockBegin
  2
*D5
 70
     1
 10
0.0
 20
0.0
 30
0.0
  3
*D5
  1

  0
LINE
  5
665
330
222
100
AcDbEntity
  8
ZEICHNUNGSBEMASSUNGEN
  6
Continuous
 62
     0
370
    -2
100
AcDbLine
 10
545.7495195541
 20
225.5119056079
 30
0.0
 11
545.7495195541
 21
216.7535568061388
 31
0.0
  0
LINE
  5
666
330
222
100
AcDbEntity
  8
ZEICHNUNGSBEMASSUNGEN
  6
Continuous
 62
     0
370
    -2
100
AcDbLine
 10
680.7495195541
 20
228.6337160259
 30
0.0
 11
680.7495195541
 21
216.7535568061388
 31
0.0
  0
LINE
  5
667
330
222
100
AcDbEntity
  8
ZEICHNUNGSBEMASSUNGEN
  6
Continuous
 62
     0
370
    -2
100
AcDbLine
 10
550.7495195541
 20
216.9335568061388
 30
0.0
 11
675.7495195541
 21
216.9335568061388
 31
0.0
  0
INSERT
  5
668
330
222
100
AcDbEntity
  8
ZEICHNUNGSBEMASSUNGEN
  6
Continuous
 62
     0
370
    -2
100
AcDbBlockReference
  2
_FILLED
 10
545.7495195541
 20
216.9335568061388
 30
0.0
 41
5.0
 42
5.0
 43
5.0
 50
180.0
  0
INSERT
  5
669
330
222
100
AcDbEntity
  8
ZEICHNUNGSBEMASSUNGEN
  6
Continuous
 62
     0
370
    -2
100
AcDbBlockReference
  2
_FILLED
 10
680.7495195541
 20
216.9335568061388
 30
0.0
 41
5.0
 42
5.0
 43
5.0
  0
MTEXT
  5
66A
330
222
100
AcDbEntity
  8
ZEICHNUNGSBEMASSUNGEN
  6
Continuous
100
AcDbMText
 10
613.4127161790725
 20
225.4335568061388
 30
0.0
 40
7.0
 41
0.0
 71
     2
 72
     1
  1
\A1;135
 73
     1
 44
1.0
1001
ACAD
1000
MTEXTBEGIN
1070
    73
1070
     1
1070
    44
1040
1.0
1070
    74
1070
     0
1000
MTEXTEND
  0
POINT
  5
66B
330
222
100
AcDbEntity
  8
Defpoints
  6
Continuous
 62
     0
100
AcDbPoint
 10
545.7495195541
 20
225.5744056079
 30
0.0
  0
POINT
  5
66C
330
222
100
AcDbEntity
  8
Defpoints
  6
Continuous
 62
     0
100
AcDbPoint
 10
680.7495195541
 20
228.6962160259
 30
0.0
  0
POINT
  5
66D
330
222
100
AcDbEntity
  8
Defpoints
  6
Continuous
 62
     0
100
AcDbPoint
 10
680.7495195541
 20
216.9335568061388
 30
0.0
  0
ENDBLK
  5
258
330
222
100
AcDbEntity
  8
0
  6
ByBlock
 62
     0
100
AcDbBlockEnd
  0
BLOCK
  5
5B1
330
5AF
100
AcDbEntity
  8
0
100
AcDbBlockBegin
  2
GENAXEH
 70
     0
 10
0.0
 20
0.0
 30
0.0
  3
GENAXEH
  1

  0
LINE
  5
5B0
330
5AF
100
AcDbEntity
  8
0
100
AcDbLine
 10
-1.0
 20
0.0
 30
0.0
 11
1.0
 21
0.0
 31
0.0
  0
ENDBLK
  5
5B2
330
5AF
100
AcDbEntity
  8
0
100
AcDbBlockEnd
  0
ENDSEC
  0
SECTION
  2
ENTITIES
  0
HATCH
  5
259
330
21B
100
AcDbEntity
  8
0
  6
Continuous
 62
     1
100
AcDbHatch
 10
0.0
 20
0.0
 30
0.0
210
0.0
220
0.0
230
1.0
  2
DEFAULT__1
 70
     0
 71
     0
 91
        2
 92
        1
 93
       14
 72
     1
 10
683.7744515352999
 20
383.4962160259
 11
622.7495195541
 21
383.4962160259
 72
     1
 10
683.7744515352999
 20
383.4962160259
 11
683.3863159412999
 21
379.0598058858
 72
     4
 94
        3
 73
     1
 74
     0
 95
        8
 96
        4
 40
0.0
 40
0.0
 40
0.0
 40
0.0
 40
1.0
 40
1.0
 40
1.0
 40
1.0
 10
683.3863159412999
 20
379.0598058858
 42
1.0
 10
683.2425251992999
 20
377.4162701845
 42
0.8228816729999998
 10
682.0213031613999
 20
376.3069901867
 42
0.8228816729999998
 10
680.3715522405
 20
376.3213873449
 42
1.0
 72
     1
 10
676.7563398699
 20
376.3529368253
 11
680.3715522405
 21
376.3213873449
 72
     1
 10
676.7563398699
 20
376.3529368253
 11
668.2495195541
 21
377.0971871656
 72
     1
 10
661.2858575039
 20
376.4879456795
 11
668.2495195541
 21
377.0971871656
 72
     1
 10
656.2853750089
 20
376.5315842292
 11
661.2858575039
 21
376.4879456795
 72
     1
 10
656.2853750089
 20
376.5315842292
 11
653.2495195541001
 21
376.7971871656
 72
     1
 10
650.7643757947
 20
376.5797652594
 11
653.2495195541001
 21
376.7971871656
 72
     1
 10
639.6233634251999
 20
376.6769914014
 11
650.7643757947
 21
376.5797652594
 72
     1
 10
639.6233634251999
 20
376.6769914014
 11
638.2495195541
 21
376.7971871656
 72
     1
 10
637.1248943624999
 20
376.6987952106
 11
638.2495195541
 21
376.7971871656
 72
     1
 10
623.2131942648
 20
376.8202007781
 11
637.1248943624999
 21
376.6987952106
 72
     1
 10
622.7495195541
 20
383.4962160259
 11
623.2131942648
 21
376.8202007781
 97
        0
 92
        1
 93
       14
 72
     1
 10
468.7495195541
 20
383.4962160259
 11
407.724587573
 21
383.4962160259
 72
     1
 10
468.7495195541
 20
383.4962160259
 11
468.2858448433999
 21
376.8202007781
 72
     1
 10
468.2858448433999
 20
376.8202007781
 11
454.3741447458
 21
376.6987952106
 72
     1
 10
454.3741447458
 20
376.6987952106
 11
453.2495195541001
 21
376.7971871656
 72
     1
 10
451.875675683
 20
376.6769914014
 11
453.2495195541001
 21
376.7971871656
 72
     1
 10
451.875675683
 20
376.6769914014
 11
440.7346633134999
 21
376.5797652594
 72
     1
 10
440.7346633134999
 20
376.5797652594
 11
438.2495195541
 21
376.7971871656
 72
     1
 10
435.2136640994
 20
376.5315842292
 11
438.2495195541
 21
376.7971871656
 72
     1
 10
435.2136640994
 20
376.5315842292
 11
430.2131816043
 21
376.4879456795
 72
     1
 10
430.2131816043
 20
376.4879456795
 11
423.2495195541
 21
377.0971871656
 72
     1
 10
414.7426992383
 20
376.3529368253
 11
423.2495195541
 21
377.0971871656
 72
     1
 10
414.7426992383
 20
376.3529368253
 11
411.1274868676999
 21
376.3213873449
 72
     4
 94
        3
 73
     1
 74
     0
 95
        8
 96
        4
 40
0.0
 40
0.0
 40
0.0
 40
0.0
 40
1.0
 40
1.0
 40
1.0
 40
1.0
 10
408.112723167
 20
379.0598058858
 42
1.0
 10
408.2565139089
 20
377.4162701845
 42
0.8228816729999998
 10
409.4777359467999
 20
376.3069901867
 42
0.8228816729999998
 10
411.1274868676999
 20
376.3213873449
 42
1.0
 72
     1
 10
407.724587573
 20
383.4962160259
 11
408.112723167
 21
379.0598058858
 97
        0
 75
     0
 76
     0
 52
135.0
 41
2.984846368799999
 77
     0
 78
     1
 53
135.0
 43
0.0
 44
0.0
 45
-2.1106051082
 46
-2.1106051082
 79
     0
 98
        1
 10
0.0
 20
0.0
  0
HATCH
  5
25A
330
21B
100
AcDbEntity
  8
0
  6
Continuous
 62
     1
100
AcDbHatch
 10
0.0
 20
0.0
 30
0.0
210
0.0
220
0.0
230
1.0
  2
DEFAULT__2
 70
     0
 71
     0
 91
        2
 92
        1
 93
       54
 72
     1
 10
510.2495195541
 20
230.1962160259
 11
565.7495195541001
 21
230.1962160259
 72
     4
 94
        3
 73
     1
 74
     0
 95
        8
 96
        4
 40
0.0
 40
0.0
 40
0.0
 40
0.0
 40
1.0
 40
1.0
 40
1.0
 40
1.0
 10
510.2495195541
 20
230.1962160259
 42
1.0
 10
504.3916551777999
 20
230.1962160259
 42
0.8047378541
 10
500.2495195541
 20
234.3383516496
 42
0.8047378541
 10
500.2495195541
 20
240.1962160259
 42
1.0
 72
     1
 10
500.2495195541
 20
240.1962160259
 11
500.2495195541
 21
263.7338762831
 72
     4
 94
        3
 73
     1
 74
     0
 95
        8
 96
        4
 40
0.0
 40
0.0
 40
0.0
 40
0.0
 40
1.0
 40
1.0
 40
1.0
 40
1.0
 10
497.4065274227999
 20
266.7297648874
 42
1.0
 10
499.0894691244
 20
266.6415656501
 42
0.8169162473
 10
500.2495195541
 20
265.419127563
 42
0.8169162473
 10
500.2495195541
 20
263.7338762831
 42
1.0
 72
     1
 10
492.5318859753
 20
266.9852340204
 11
497.4065274227999
 21
266.7297648874
 72
     4
 94
        3
 73
     1
 74
     0
 95
        8
 96
        4
 40
0.0
 40
0.0
 40
0.0
 40
0.0
 40
1.0
 40
1.0
 40
1.0
 40
1.0
 10
489.981137991
 20
268.6895893343
 42
1.0
 10
490.4669029808999
 20
267.6711618539
 42
0.906270941
 10
491.4050874572
 20
267.0442870285
 42
0.906270941
 10
492.5318859753
 20
266.9852340204
 42
1.0
 72
     1
 10
476.6772060569
 20
296.5818626734
 11
489.981137991
 21
268.6895893343
 72
     4
 94
        3
 73
     1
 74
     0
 95
        8
 96
        4
 40
0.0
 40
0.0
 40
0.0
 40
0.0
 40
1.0
 40
1.0
 40
1.0
 40
1.0
 10
476.6772060569
 20
296.5818626734
 42
1.0
 10
476.3808323642999
 20
297.2032230415
 42
0.986030315
 10
476.2172039558999
 20
297.8719171545
 42
0.986030315
 10
476.1931783435
 20
298.5599206739
 42
1.0
 72
     1
 10
474.806733948
 20
338.262493548
 11
476.1931783435
 21
298.5599206739
 72
     4
 94
        3
 73
     1
 74
     0
 95
        8
 96
        4
 40
0.0
 40
0.0
 40
0.0
 40
0.0
 40
1.0
 40
1.0
 40
1.0
 40
1.0
 10
474.8067339230999
 20
338.2624966084
 42
1.0
 10
474.7820912273
 20
338.968171477
 42
0.9853167981999998
 10
474.6107020201
 20
339.6531605444
 42
0.9853167981999998
 10
474.3001159283999
 20
340.2872903124
 42
1.0
 72
     1
 10
474.3001157392
 20
340.2872904434
 11
474.161441645
 21
340.5704238837
 72
     4
 94
        3
 73
     1
 74
     0
 95
        8
 96
        4
 40
0.0
 40
0.0
 40
0.0
 40
0.0
 40
1.0
 40
1.0
 40
1.0
 40
1.0
 10
474.1614418047999
 20
340.5704239608001
 42
1.0
 10
473.8508550880999
 20
341.2045539559
 42
0.9853167785
 10
473.6794654137999
 20
341.8895434002
 42
0.9853167785
 10
473.6548224394
 20
342.5952187385
 42
1.0
 72
     1
 10
473.3678050938999
 20
350.8143163216
 11
473.6548222441999
 21
342.5952205081
 72
     4
 94
        3
 73
     1
 74
     0
 95
        8
 96
        4
 40
0.0
 40
0.0
 40
0.0
 40
0.0
 40
1.0
 40
1.0
 40
1.0
 40
1.0
 10
473.3678050938999
 20
350.8143163216
 42
1.0
 10
473.3200336138
 20
352.1823125253
 42
0.8692022420999998
 10
472.4678205294999
 20
353.2534934562
 42
0.8692022420999998
 10
471.1455685231999
 20
353.6075349219
 42
1.0
 72
     4
 94
        3
 73
     1
 74
     0
 95
        8
 96
        4
 40
0.0
 40
0.0
 40
0.0
 40
0.0
 40
1.0
 40
1.0
 40
1.0
 40
1.0
 10
468.9233319523999
 20
356.4007535222
 42
1.0
 10
468.9711034324999
 20
355.0327573185
 42
0.8692022420999998
 10
469.8233165168
 20
353.9615763876
 42
0.8692022420999998
 10
471.1455685231999
 20
353.6075349219
 42
1.0
 72
     1
 10
468.9233319523999
 20
356.4007535222
 11
468.5891307534999
 21
365.9710237019
 72
     4
 94
        3
 73
     1
 74
     0
 95
        8
 96
        4
 40
0.0
 40
0.0
 40
0.0
 40
0.0
 40
1.0
 40
1.0
 40
1.0
 40
1.0
 10
465.6694891173999
 20
368.8652971868
 42
1.0
 10
467.3423099802
 20
368.8214928308
 42
0.8189139798999999
 10
468.5307301348999
 20
367.6433986086001
 42
0.8189139798999999
 10
468.5891307534999
 20
365.9710237019
 42
1.0
 72
     1
 10
465.6694891173999
 20
368.8652971868
 11
397.6971656575
 21
370.6452151178
 72
     4
 94
        3
 73
     1
 74
     0
 95
        8
 96
        4
 40
0.0
 40
0.0
 40
0.0
 40
0.0
 40
1.0
 40
1.0
 40
1.0
 40
1.0
 10
397.6971656575
 20
370.6452151178
 42
1.0
 10
396.5501620730001
 20
370.6752504637
 42
0.8108679623
 10
395.7495195541
 20
371.497132999
 42
0.8108679623
 10
395.7495195541
 20
372.6445297676999
 42
1.0
 72
     1
 10
395.7495195541
 20
372.6445297676999
 11
395.7495195541
 21
373.7308214996
 72
     4
 94
        3
 73
     1
 74
     0
 95
        8
 96
        4
 40
0.0
 40
0.0
 40
0.0
 40
0.0
 40
1.0
 40
1.0
 40
1.0
 40
1.0
 10
395.7495195541
 20
373.7308214996
 42
1.0
 10
395.7495195541
 20
374.8862453691001
 42
0.8088336328
 10
396.5593668484
 20
375.7103519630001
 42
0.8088336328
 10
397.7146147412
 20
375.7305168899
 42
1.0
 72
     1
 10
397.7146147412
 20
375.7305168899
 11
480.7305022098999
 21
377.1795645958
 72
     4
 94
        3
 73
     1
 74
     0
 95
        8
 96
        4
 40
0.0
 40
0.0
 40
0.0
 40
0.0
 40
1.0
 40
1.0
 40
1.0
 40
1.0
 10
480.7305022098999
 20
377.1795645958
 42
1.0
 10
481.3228280870999
 20
377.1899036824
 42
0.8013725279999999
 10
481.7460383368
 20
376.7753558251
 42
0.8013725279999999
 10
481.7479494130999
 20
376.1829428026
 42
1.0
 72
     1
 10
481.7495195541
 20
375.6962160258999
 11
481.7479494130999
 21
376.1829428026
 72
     1
 10
481.7495195541
 20
370.678913289
 11
481.7495195541
 21
375.6962160258999
 72
     4
 94
        3
 73
     1
 74
     0
 95
        8
 96
        4
 40
0.0
 40
0.0
 40
0.0
 40
0.0
 40
1.0
 40
1.0
 40
1.0
 40
1.0
 10
481.7495195541
 20
370.678913289
 42
1.0
 10
481.7495195541
 20
370.1012013542
 42
0.8088336328
 10
481.344595907
 20
369.6891480573
 42
0.8088336328
 10
480.7669719605999
 20
369.6790655938
 42
1.0
 72
     1
 10
475.7320671477
 20
369.5911810034
 11
480.7669719605999
 21
369.6790655938
 72
     4
 94
        3
 73
     1
 74
     0
 95
        8
 96
        4
 40
0.0
 40
0.0
 40
0.0
 40
0.0
 40
1.0
 40
1.0
 40
1.0
 40
1.0
 10
474.7495195541
 20
368.5913333083
 42
1.0
 10
474.7495195541
 20
369.169045243
 42
0.8088336328
 10
475.1544432012999
 20
369.5810985399
 42
0.8088336328
 10
475.7320671477
 20
369.5911810034
 42
1.0
 72
     1
 10
474.7495195541
 20
359.5567278344999
 11
474.7495195541
 21
368.5913333083
 72
     4
 94
        3
 73
     1
 74
     0
 95
        8
 96
        4
 40
0.0
 40
0.0
 40
0.0
 40
0.0
 40
1.0
 40
1.0
 40
1.0
 40
1.0
 10
475.7320671477
 20
358.5568801393
 42
1.0
 10
475.1544432012999
 20
358.5669626028
 42
0.8088336328
 10
474.7495195541
 20
358.9790158997
 42
0.8088336328
 10
474.7495195541
 20
359.5567278344999
 42
1.0
 72
     1
 10
480.8257691085
 20
358.4679692408999
 11
475.7320671477
 21
358.5568801393
 72
     4
 94
        3
 73
     1
 74
     0
 95
        8
 96
        4
 40
0.0
 40
0.0
 40
0.0
 40
0.0
 40
1.0
 40
1.0
 40
1.0
 40
1.0
 10
480.8257691085
 20
358.4679692408999
 42
1.0
 10
481.4019078005
 20
358.4579127026
 42
0.8095867034000001
 10
481.8064526487999
 20
358.0475709035
 42
0.8095867034000001
 10
481.8083114988
 20
357.4713474476999
 42
1.0
 72
     1
 10
481.9973461158
 20
298.8726555374
 11
481.8083114988
 21
357.4713474476999
 72
     4
 94
        3
 73
     1
 74
     0
 95
        8
 96
        4
 40
0.0
 40
0.0
 40
0.0
 40
0.0
 40
1.0
 40
1.0
 40
1.0
 40
1.0
 10
482.2895746530999
 20
297.5907999528
 42
1.0
 10
482.0977968744999
 20
297.9928704268
 42
0.9837980176
 10
481.9987831434
 20
298.4271925003
 42
0.9837980176
 10
481.9973461158
 20
298.8726555374
 42
1.0
 72
     1
 10
491.4848221403
 20
278.3125626913
 11
482.2895746530999
 21
297.5907999528
 72
     4
 94
        3
 73
     1
 74
     0
 95
        8
 96
        4
 40
0.0
 40
0.0
 40
0.0
 40
0.0
 40
1.0
 40
1.0
 40
1.0
 40
1.0
 10
492.3350714684
 20
277.7444442533
 42
1.0
 10
491.9594719623999
 20
277.7641285894
 42
0.906270941
 10
491.6467438037
 20
277.9730868645
 42
0.906270941
 10
491.4848221403
 20
278.3125626913
 42
1.0
 72
     1
 10
507.3018555104
 20
276.9600683387
 11
492.3350714684
 21
277.7444442533
 72
     4
 94
        3
 73
     1
 74
     0
 95
        8
 96
        4
 40
0.0
 40
0.0
 40
0.0
 40
0.0
 40
1.0
 40
1.0
 40
1.0
 40
1.0
 10
507.3018555104
 20
276.9600683387
 42
1.0
 10
507.8628360776
 20
276.930668593
 42
0.8169162473
 10
508.2495195541
 20
276.5231892306
 42
0.8169162473
 10
508.2495195541
 20
275.9614388039
 42
1.0
 72
     1
 10
508.2495195541
 20
265.8931006338
 11
508.2495195541
 21
275.9614388039
 72
     4
 94
        3
 73
     1
 74
     0
 95
        8
 96
        4
 40
0.0
 40
0.0
 40
0.0
 40
0.0
 40
1.0
 40
1.0
 40
1.0
 40
1.0
 10
509.2320671477
 20
264.8932529386
 42
1.0
 10
508.6544432013
 20
264.9033354021
 42
0.8088336328
 10
508.2495195541
 20
265.3153886990001
 42
0.8088336328
 10
508.2495195541
 20
265.8931006338
 42
1.0
 72
     1
 10
514.7669719606
 20
264.7966408157
 11
509.2320671477
 21
264.8932529386
 72
     4
 94
        3
 73
     1
 74
     0
 95
        8
 96
        4
 40
0.0
 40
0.0
 40
0.0
 40
0.0
 40
1.0
 40
1.0
 40
1.0
 40
1.0
 10
514.7669719606
 20
264.7966408157
 42
1.0
 10
515.3445959069999
 20
264.7865583523
 42
0.8088336328
 10
515.7495195541001
 20
264.3745050553
 42
0.8088336328
 10
515.7495195541001
 20
263.7967931206
 42
1.0
 72
     1
 10
515.7495195541001
 20
259.6796426693
 11
515.7495195541001
 21
263.7967931206
 72
     2
 10
514.749439487
 20
259.6795530878
 40
1.0000717156
 50
270.0048755262
 51
360.0051308884
 73
     1
 72
     1
 10
514.7495244801
 20
258.6794903837
 11
506.7495234591
 21
258.6794903837
 72
     2
 10
506.7496080623
 20
257.6794195469
 40
1.000079332499999
 50
90.0048538987
 51
180.0046649309999
 73
     1
 72
     1
 10
505.7495195541
 20
240.1962160259
 11
505.7495195541
 21
257.6793381218
 72
     4
 94
        3
 73
     1
 74
     0
 95
        8
 96
        4
 40
0.0
 40
0.0
 40
0.0
 40
0.0
 40
1.0
 40
1.0
 40
1.0
 40
1.0
 10
510.2495195541
 20
235.6962160259
 42
1.0
 10
507.6134805848
 20
235.6962160259
 42
0.8047378541
 10
505.7495195541
 20
237.5601770565
 42
0.8047378541
 10
505.7495195541
 20
240.1962160259
 42
1.0
 72
     1
 10
510.2495195541
 20
235.6962160259
 11
606.7495195541
 21
235.6962160259
 72
     1
 10
606.7495195541
 20
235.6962160259
 11
615.7495195541001
 21
235.6962160259
 72
     1
 10
615.7495195541001
 20
235.6962160259
 11
680.7495195541
 21
235.6962160259
 72
     1
 10
680.7495195541
 20
235.6962160259
 11
680.7495195541
 21
230.1962160259
 72
     1
 10
615.7495195541001
 20
230.1962160259
 11
680.7495195541
 21
230.1962160259
 72
     1
 10
615.7495195541001
 20
230.1962160259
 11
565.7495195541001
 21
230.1962160259
 97
        0
 92
        1
 93
       48
 72
     1
 10
695.7495195541
 20
372.6445297676999
 11
695.7495195541
 21
373.7308214996
 72
     4
 94
        3
 73
     1
 74
     0
 95
        8
 96
        4
 40
0.0
 40
0.0
 40
0.0
 40
0.0
 40
1.0
 40
1.0
 40
1.0
 40
1.0
 10
693.8018734507001
 20
370.6452151178
 42
1.0
 10
694.9488770352001
 20
370.6752504637
 42
0.8108679623
 10
695.7495195541
 20
371.497132999
 42
0.8108679623
 10
695.7495195541
 20
372.6445297676999
 42
1.0
 72
     1
 10
625.8295499908
 20
368.8652971868
 11
693.8018734507001
 21
370.6452151178
 72
     4
 94
        3
 73
     1
 74
     0
 95
        8
 96
        4
 40
0.0
 40
0.0
 40
0.0
 40
0.0
 40
1.0
 40
1.0
 40
1.0
 40
1.0
 10
625.8295499908
 20
368.8652971868
 42
1.0
 10
624.156729128
 20
368.8214928308
 42
0.8189139798999999
 10
622.9683089733001
 20
367.6433986086001
 42
0.8189139798999999
 10
622.9099083547001
 20
365.9710237019
 42
1.0
 72
     1
 10
622.5757071558
 20
356.4007535222
 11
622.9099083547001
 21
365.9710237019
 72
     4
 94
        3
 73
     1
 74
     0
 95
        8
 96
        4
 40
0.0
 40
0.0
 40
0.0
 40
0.0
 40
1.0
 40
1.0
 40
1.0
 40
1.0
 10
622.5757071558
 20
356.4007535222
 42
1.0
 10
622.5279356756999
 20
355.0327573185
 42
0.8692022420999998
 10
621.6757225914
 20
353.9615763876
 42
0.8692022420999998
 10
620.3534705851
 20
353.6075349219
 42
1.0
 72
     4
 94
        3
 73
     1
 74
     0
 95
        8
 96
        4
 40
0.0
 40
0.0
 40
0.0
 40
0.0
 40
1.0
 40
1.0
 40
1.0
 40
1.0
 10
618.1312340143001
 20
350.8143163216
 42
1.0
 10
618.1790054944
 20
352.1823125253
 42
0.8692022420999998
 10
619.0312185787
 20
353.2534934562
 42
0.8692022420999998
 10
620.3534705851
 20
353.6075349219
 42
1.0
 72
     1
 10
618.1312340143001
 20
350.8143163216
 11
617.9148358463
 21
344.6174835716
 72
     4
 94
        3
 73
     1
 74
     0
 95
        8
 96
        4
 40
0.0
 40
0.0
 40
0.0
 40
0.0
 40
1.0
 40
1.0
 40
1.0
 40
1.0
 10
617.9148369541
 20
344.617526751
 42
1.0
 10
617.9051751538
 20
344.3408495941
 42
0.9977072807999999
 10
617.8726201922
 20
344.0659245606
 42
0.9977072807999999
 10
617.8173959875
 20
343.7946426284
 42
1.0
 72
     4
 94
        3
 73
     1
 74
     0
 95
        8
 96
        4
 40
0.0
 40
0.0
 40
0.0
 40
0.0
 40
1.0
 40
1.0
 40
1.0
 40
1.0
 10
617.8173936035
 20
343.7946311991
 42
1.0
 10
617.4082437531
 20
341.784685834
 42
0.7551088608
 10
618.7059455976
 20
340.1962104978999
 42
0.7551088608
 10
620.7571120879
 20
340.1962157946
 42
1.0
 72
     1
 10
620.7571044111
 20
340.1962160259
 11
680.7495195541
 21
340.1962160259
 72
     1
 10
680.7495195541
 20
340.1962160259
 11
680.7495195541
 21
334.6962160259
 72
     1
 10
617.5337616216
 20
334.6962160259
 11
680.7495195541
 21
334.6962160259
 72
     4
 94
        3
 73
     1
 74
     0
 95
        8
 96
        4
 40
0.0
 40
0.0
 40
0.0
 40
0.0
 40
1.0
 40
1.0
 40
1.0
 40
1.0
 10
617.5337615751
 20
334.6962160237
 42
1.0
 10
616.9640611751999
 20
334.6962160237
 42
0.8128931996999998
 10
616.5542530039
 20
334.3004688717
 42
0.8128931996999998
 10
616.5343707479999
 20
333.7311155179
 42
1.0
 72
     1
 10
616.5343707943
 20
333.7311155163
 11
615.3061652352
 21
298.5599100416
 72
     4
 94
        3
 73
     1
 74
     0
 95
        8
 96
        4
 40
0.0
 40
0.0
 40
0.0
 40
0.0
 40
1.0
 40
1.0
 40
1.0
 40
1.0
 10
614.8221080294
 20
296.5817315156
 42
1.0
 10
615.1184997804
 20
297.203129744
 42
0.986030315
 10
615.282138159
 20
297.8718646013
 42
0.986030315
 10
615.3061652352
 20
298.5599100416
 42
1.0
 72
     1
 10
614.8221080294
 20
296.5817315156
 11
601.0057266590999
 21
267.6150855911
 72
     2
 10
600.1036309587
 20
268.0452852627
 40
0.9994136406
 50
272.9959258095
 51
334.5040312252
 73
     1
 72
     1
 10
600.1558658241999
 20
267.0472267386
 11
592.1976325837
 21
266.6301534075
 72
     2
 10
592.2500125233
 20
265.6313389827
 40
1.000177630699999
 50
93.00196183030001
 51
179.9981212672
 73
     1
 72
     1
 10
591.2498242102
 20
265.6313717768
 11
591.2498242102
 21
259.6787288107
 72
     2
 10
590.2504694419
 20
259.6785394188
 40
0.9993407270999998
 50
269.9892032851
 51
360.0108584597
 73
     1
 72
     1
 10
590.2502811269999
 20
258.6791857276
 11
576.7495195545999
 21
258.6791857276
 72
     4
 94
        3
 73
     1
 74
     0
 95
        8
 96
        4
 40
0.0
 40
0.0
 40
0.0
 40
0.0
 40
1.0
 40
1.0
 40
1.0
 40
1.0
 10
576.7495194342
 20
258.6791856881
 42
1.0
 10
576.1637330626
 20
258.6791857533
 42
0.8047378818
 10
575.7495195688
 20
259.0933992908
 42
0.8047378818
 10
575.7495195651999
 20
259.6791856623
 42
1.0
 72
     1
 10
575.7495195541
 20
259.6791857276
 11
575.7495195541
 21
263.7967931206
 72
     4
 94
        3
 73
     1
 74
     0
 95
        8
 96
        4
 40
0.0
 40
0.0
 40
0.0
 40
0.0
 40
1.0
 40
1.0
 40
1.0
 40
1.0
 10
576.7320671476999
 20
264.7966408157
 42
1.0
 10
576.1544432012999
 20
264.7865583523
 42
0.8088336328
 10
575.7495195541
 20
264.3745050553
 42
0.8088336328
 10
575.7495195541
 20
263.7967931206
 42
1.0
 72
     1
 10
576.7320671476999
 20
264.7966408157
 11
582.2669719605999
 21
264.8932529386
 72
     4
 94
        3
 73
     1
 74
     0
 95
        8
 96
        4
 40
0.0
 40
0.0
 40
0.0
 40
0.0
 40
1.0
 40
1.0
 40
1.0
 40
1.0
 10
582.2669719605
 20
264.8932529386
 42
1.0
 10
582.8445959069999
 20
264.9033354021
 42
0.8088336328
 10
583.2495195541
 20
265.3153886990001
 42
0.8088336328
 10
583.2495195541
 20
265.8931006338
 42
1.0
 72
     1
 10
583.2495195541
 20
265.8931006338
 11
583.2495195541
 21
275.9614388039
 72
     4
 94
        3
 73
     1
 74
     0
 95
        8
 96
        4
 40
0.0
 40
0.0
 40
0.0
 40
0.0
 40
1.0
 40
1.0
 40
1.0
 40
1.0
 10
584.1971835978999
 20
276.9600683387
 42
1.0
 10
583.6362030306999
 20
276.930668593
 42
0.8169162473
 10
583.2495195541
 20
276.5231892306
 42
0.8169162473
 10
583.2495195541
 20
275.9614388039
 42
1.0
 72
     1
 10
584.1971835978999
 20
276.9600683387
 11
599.1639676398
 21
277.7444442533
 72
     4
 94
        3
 73
     1
 74
     0
 95
        8
 96
        4
 40
0.0
 40
0.0
 40
0.0
 40
0.0
 40
1.0
 40
1.0
 40
1.0
 40
1.0
 10
599.1639676398
 20
277.7444442533
 42
1.0
 10
599.5395671457999
 20
277.7641285894
 42
0.906270941
 10
599.8522953046
 20
277.9730868645
 42
0.906270941
 10
600.0142169679
 20
278.3125626913
 42
1.0
 72
     1
 10
600.0142169679
 20
278.3125626913
 11
609.2094644551999
 21
297.5907999528
 72
     4
 94
        3
 73
     1
 74
     0
 95
        8
 96
        4
 40
0.0
 40
0.0
 40
0.0
 40
0.0
 40
1.0
 40
1.0
 40
1.0
 40
1.0
 10
609.2094644551999
 20
297.5907999528
 42
1.0
 10
609.4012422337
 20
297.9928704268
 42
0.9837980176
 10
609.5002559649
 20
298.4271925003
 42
0.9837980176
 10
609.5016929924
 20
298.8726555374
 42
1.0
 72
     1
 10
609.5016929924
 20
298.8726555374
 11
609.6172568867
 21
334.6962160258
 72
     1
 10
609.6172568867
 20
334.6962160258
 11
609.6907276095
 21
357.4713474476999
 72
     4
 94
        3
 73
     1
 74
     0
 95
        8
 96
        4
 40
0.0
 40
0.0
 40
0.0
 40
0.0
 40
1.0
 40
1.0
 40
1.0
 40
1.0
 10
610.6732699998
 20
358.4679692408999
 42
1.0
 10
610.0971313077999
 20
358.4579127026
 42
0.8095867034000001
 10
609.6925864594999
 20
358.0475709035
 42
0.8095867034000001
 10
609.6907276095
 20
357.4713474476999
 42
1.0
 72
     1
 10
610.6732699998
 20
358.4679692408999
 11
615.7669719605999
 21
358.5568801393
 72
     4
 94
        3
 73
     1
 74
     0
 95
        8
 96
        4
 40
0.0
 40
0.0
 40
0.0
 40
0.0
 40
1.0
 40
1.0
 40
1.0
 40
1.0
 10
615.7669719605999
 20
358.5568801393
 42
1.0
 10
616.3445959069999
 20
358.5669626028
 42
0.8088336328
 10
616.7495195541
 20
358.9790158997
 42
0.8088336328
 10
616.7495195541
 20
359.5567278344999
 42
1.0
 72
     1
 10
616.7495195541
 20
359.5567278344999
 11
616.7495195541
 21
368.5913333083
 72
     4
 94
        3
 73
     1
 74
     0
 95
        8
 96
        4
 40
0.0
 40
0.0
 40
0.0
 40
0.0
 40
1.0
 40
1.0
 40
1.0
 40
1.0
 10
616.7495195541
 20
368.5913333083
 42
1.0
 10
616.7495195541
 20
369.169045243
 42
0.8088336328
 10
616.3445959069999
 20
369.5810985399
 42
0.8088336328
 10
615.7669719605999
 20
369.5911810034
 42
1.0
 72
     1
 10
615.7669719605999
 20
369.5911810034
 11
610.7320671476998
 21
369.6790655938
 72
     4
 94
        3
 73
     1
 74
     0
 95
        8
 96
        4
 40
0.0
 40
0.0
 40
0.0
 40
0.0
 40
1.0
 40
1.0
 40
1.0
 40
1.0
 10
609.7495195541
 20
370.678913289
 42
1.0
 10
609.7495195541
 20
370.1012013542
 42
0.8088336328
 10
610.1544432013
 20
369.6891480573
 42
0.8088336328
 10
610.7320671476998
 20
369.6790655938
 42
1.0
 72
     1
 10
609.7495195541
 20
370.678913289
 11
609.7495195541
 21
375.6962160258999
 72
     1
 10
609.7495195541
 20
375.6962160258999
 11
609.7510896951
 21
376.1829428026
 72
     4
 94
        3
 73
     1
 74
     0
 95
        8
 96
        4
 40
0.0
 40
0.0
 40
0.0
 40
0.0
 40
1.0
 40
1.0
 40
1.0
 40
1.0
 10
610.7685368982999
 20
377.1795645958
 42
1.0
 10
610.1762110211
 20
377.1899036824
 42
0.8013725279999999
 10
609.7530007713999
 20
376.7753558251
 42
0.8013725279999999
 10
609.7510896951
 20
376.1829428026
 42
1.0
 72
     1
 10
693.7844243669999
 20
375.7305168899
 11
610.7685368982999
 21
377.1795645958
 72
     4
 94
        3
 73
     1
 74
     0
 95
        8
 96
        4
 40
0.0
 40
0.0
 40
0.0
 40
0.0
 40
1.0
 40
1.0
 40
1.0
 40
1.0
 10
695.7495195541
 20
373.7308214996
 42
1.0
 10
695.7495195541
 20
374.8862453691001
 42
0.8088336328
 10
694.9396722598
 20
375.7103519630001
 42
0.8088336328
 10
693.7844243669999
 20
375.7305168899
 42
1.0
 97
        0
 75
     0
 76
     0
 52
45.0
 41
5.945
 77
     0
 78
     1
 53
45.0
 43
0.0
 44
0.0
 45
-4.2037498142
 46
4.2037498142
 79
     0
 98
        1
 10
0.0
 20
0.0
  0
DIMENSION
  5
25B
330
21B
100
AcDbEntity
  8
ZEICHNUNGSBEMASSUNGEN
  6
Continuous
 62
     7
100
AcDbDimension
  2
*D1
 10
468.4906402486999
 20
419.3212160258999
 30
0.0
 11
542.8328528875
 21
419.3212160258999
 31
0.0
 70
   160
  1
%%c155
 71
     2
 42
154.5177586109
  3
DIMSTYLE_2
100
AcDbAlignedDimension
 13
623.0083988596
 23
370.2914227445
 33
0.0
 14
468.4906402486999
 24
370.2914227445
 34
0.0
 50
180.0
100
AcDbRotatedDimension
1001
ACAD
1000
DSTYLE
1002
{
1070
    41
1040
5.0
1070
   140
1040
7.0
1070
   147
1040
1.5
1070
   178
1070
   256
1002
}
  0
DIMENSION
  5
25C
330
21B
100
AcDbEntity
  8
ZEICHNUNGSBEMASSUNGEN
  6
Continuous
 62
     7
100
AcDbDimension
  2
*D2
 10
695.7495195541
 20
429.7113551712502
 30
0.0
 11
543.9513192563672
 21
429.7113551712502
 31
0.0
 70
   160
  1
%%c<>
 71
     2
 42
300.0
  3
DIMSTYLE_2
100
AcDbAlignedDimension
 13
395.7495195541
 23
375.2308214996
 33
0.0
 14
695.7495195541
 24
375.2308214996
 34
0.0
100
AcDbRotatedDimension
1001
ACAD
1000
DSTYLE
1002
{
1070
    41
1040
5.0
1070
   140
1040
7.0
1070
   147
1040
1.5
1070
   178
1070
   256
1002
}
  0
DIMENSION
  5
25D
330
21B
100
AcDbEntity
  8
ZEICHNUNGSBEMASSUNGEN
  6
Continuous
 62
     7
100
AcDbDimension
  2
*D3
 10
384.8047956146
 20
377.0971871656
 30
0.0
 11
384.8047956146
 21
300.2942141072
 31
0.0
 70
   160
 71
     2
 42
146.9009711396999
  3
DIMSTYLE_2
100
AcDbAlignedDimension
 13
508.7495195558
 23
230.1962160259
 33
0.0
 14
421.7495195541
 24
377.0971871656
 34
0.0
 50
90.0
100
AcDbRotatedDimension
1001
ACAD
1000
DSTYLE
1002
{
1070
    41
1040
5.0
1070
   140
1040
7.0
1070
   147
1040
1.5
1070
   178
1070
   256
1002
}
  0
DIMENSION
  5
25E
330
21B
100
AcDbEntity
  8
ZEICHNUNGSBEMASSUNGEN
  6
Continuous
 62
     7
100
AcDbDimension
  2
*D4
 10
708.1131486773707
 20
377.1795646473
 30
0.0
 11
708.1131486773706
 21
328.7067581575088
 31
0.0
 70
   160
 71
     2
 42
91.98334862139995
  3
DIMSTYLE_2
100
AcDbAlignedDimension
 13
685.2495195541
 23
285.1962160259
 33
0.0
 14
612.2685339458
 24
377.1795646473
 34
0.0
 50
90.0
100
AcDbRotatedDimension
1001
ACAD
1000
DSTYLE
1002
{
1070
    41
1040
5.0
1070
   140
1040
7.0
1070
   147
1040
1.5
1070
   178
1070
   256
1002
}
  0
DIMENSION
  5
25F
330
21B
100
AcDbEntity
  8
ZEICHNUNGSBEMASSUNGEN
  6
Continuous
 62
     7
100
AcDbDimension
  2
*D5
 10
680.7495195541
 20
216.9335568061388
 30
0.0
 11
613.4127161790725
 21
216.9335568061388
 31
0.0
 70
   160
 71
     2
 42
135.0
  3
DIMSTYLE_2
100
AcDbAlignedDimension
 13
545.7495195541
 23
225.5744056079
 33
0.0
 14
680.7495195541
 24
228.6962160259
 34
0.0
100
AcDbRotatedDimension
1001
ACAD
1000
DSTYLE
1002
{
1070
    41
1040
5.0
1070
   140
1040
7.0
1070
   147
1040
1.5
1070
   178
1070
   256
1002
}
  0
LINE
  5
260
330
21B
100
AcDbEntity
  8
0
  6
Continuous
 62
     7
100
AcDbLine
 10
395.7495195541
 20
372.6445297676999
 30
0.0
 11
395.7495195541
 21
373.7308214996
 31
0.0
  0
LINE
  5
261
330
21B
100
AcDbEntity
  8
0
  6
Continuous
 62
     7
100
AcDbLine
 10
407.724587573
 20
383.4962160259
 30
0.0
 11
408.112723167
 21
379.0598058858
 31
0.0
  0
LINE
  5
262
330
21B
100
AcDbEntity
  8
0
  6
Continuous
 62
     7
100
AcDbLine
 10
441.1928114083
 20
384.4962160258999
 30
0.0
 11
441.1928114083
 21
385.4962160259
 31
0.0
  0
LINE
  5
263
330
21B
100
AcDbEntity
  8
0
  6
Continuous
 62
     7
100
AcDbLine
 10
442.6438679245999
 20
385.4962160259
 30
0.0
 11
442.6438679245999
 21
387.0962160259
 31
0.0
  0
LINE
  5
264
330
21B
100
AcDbEntity
  8
0
  6
Continuous
 62
     7
100
AcDbLine
 10
442.6438679245999
 20
388.6962160259
 30
0.0
 11
442.6438679245999
 21
398.6962160258999
 31
0.0
  0
LINE
  5
265
330
21B
100
AcDbEntity
  8
0
  6
Continuous
 62
     7
100
AcDbLine
 10
443.5056623604999
 20
388.1017695253
 30
0.0
 11
443.5056623604999
 21
388.6962160259
 31
0.0
  0
LINE
  5
266
330
21B
100
AcDbEntity
  8
0
  6
Continuous
 62
     7
100
AcDbLine
 10
443.6438679245999
 20
398.6962160258999
 30
0.0
 11
443.6438679245999
 21
406.6962160259
 31
0.0
  0
LINE
  5
267
330
21B
100
AcDbEntity
  8
0
  6
Continuous
 62
     7
100
AcDbLine
 10
444.8438679246
 20
387.2462160259
 30
0.0
 11
444.8438679246
 21
387.0962160259
 31
0.0
  0
LINE
  5
268
330
21B
100
AcDbEntity
  8
0
  6
Continuous
 62
     7
100
AcDbLine
 10
445.0661546791
 20
388.1017695253
 30
0.0
 11
445.0661546791
 21
388.6962160259
 31
0.0
  0
LINE
  5
269
330
21B
100
AcDbEntity
  8
0
  6
Continuous
 62
     9
100
AcDbLine
 10
447.0661669561
 20
384.4962160258999
 30
0.0
 11
447.0661669561
 21
385.4962160259
 31
0.0
  0
LINE
  5
26A
330
21B
100
AcDbEntity
  8
0
  6
Continuous
 62
     9
100
AcDbLine
 10
448.9682799887
 20
384.4962160258999
 30
0.0
 11
448.9682799887
 21
385.4962160259
 31
0.0
  0
LINE
  5
26B
330
21B
100
AcDbEntity
  8
0
  6
Continuous
 62
     7
100
AcDbLine
 10
452.2043602431999
 20
388.1017695253
 30
0.0
 11
452.2043602431999
 21
388.6962160259
 31
0.0
  0
LINE
  5
26C
330
21B
100
AcDbEntity
  8
0
  6
Continuous
 62
     7
100
AcDbLine
 10
456.4438679245999
 20
387.2462160259
 30
0.0
 11
456.4438679245999
 21
387.0962160259
 31
0.0
  0
LINE
  5
26D
330
21B
100
AcDbEntity
  8
0
  6
Continuous
 62
     7
100
AcDbLine
 10
457.6438679246
 20
398.6962160258999
 30
0.0
 11
457.6438679246
 21
406.6962160259
 31
0.0
  0
LINE
  5
26E
330
21B
100
AcDbEntity
  8
0
  6
Continuous
 62
     7
100
AcDbLine
 10
457.7820734887
 20
388.1017695253
 30
0.0
 11
457.7820734887
 21
388.6962160259
 31
0.0
  0
LINE
  5
26F
330
21B
100
AcDbEntity
  8
0
  6
Continuous
 62
     7
100
AcDbLine
 10
458.6438679246
 20
385.4962160259
 30
0.0
 11
458.6438679246
 21
387.0962160259
 31
0.0
  0
LINE
  5
270
330
21B
100
AcDbEntity
  8
0
  6
Continuous
 62
     7
100
AcDbLine
 10
458.6438679246
 20
388.6962160259
 30
0.0
 11
458.6438679246
 21
398.6962160258999
 31
0.0
  0
LINE
  5
271
330
21B
100
AcDbEntity
  8
0
  6
Continuous
 62
     7
100
AcDbLine
 10
460.0949244408999
 20
384.4962160258999
 30
0.0
 11
460.0949244408999
 21
385.4962160259
 31
0.0
  0
LINE
  5
272
330
21B
100
AcDbEntity
  8
0
  6
Continuous
 62
     7
100
AcDbLine
 10
468.7495195541
 20
383.4962160259
 30
0.0
 11
468.2858448433999
 21
376.8202007781
 31
0.0
  0
LINE
  5
273
330
21B
100
AcDbEntity
  8
0
  6
Continuous
 62
     7
100
AcDbLine
 10
510.2495195541
 20
230.1962160259
 30
0.0
 11
680.7495195541
 21
230.1962160259
 31
0.0
  0
LINE
  5
274
330
21B
100
AcDbEntity
  8
0
  6
Continuous
 62
     7
100
AcDbLine
 10
510.2495195541
 20
235.6962160259
 30
0.0
 11
680.7495195541
 21
235.6962160259
 31
0.0
  0
LINE
  5
276
330
21B
100
AcDbEntity
  8
0
  6
Continuous
 62
     7
100
AcDbLine
 10
468.9233319523999
 20
356.4007535222
 30
0.0
 11
468.5891307534999
 21
365.9710237019
 31
0.0
  0
LINE
  5
277
330
21B
100
AcDbEntity
  8
0
  6
Continuous
 62
     7
100
AcDbLine
 10
473.3678050938999
 20
350.8143163216
 30
0.0
 11
473.6548222441999
 21
342.5952205081
 31
0.0
  0
LINE
  5
278
330
21B
100
AcDbEntity
  8
0
  6
Continuous
 62
     7
100
AcDbLine
 10
474.806733948
 20
338.262493548
 30
0.0
 11
476.1931783435
 21
298.5599206739
 31
0.0
  0
LINE
  5
279
330
21B
100
AcDbEntity
  8
0
  6
Continuous
 62
     7
100
AcDbLine
 10
474.7495195541
 20
359.5567278344999
 30
0.0
 11
474.7495195541
 21
368.5913333083
 31
0.0
  0
LINE
  5
27C
330
21B
100
AcDbEntity
  8
0
  6
Continuous
 62
     7
100
AcDbLine
 10
476.6772060569
 20
296.5818626734
 30
0.0
 11
489.981137991
 21
268.6895893343
 31
0.0
  0
LINE
  5
27D
330
21B
100
AcDbEntity
  8
0
  6
Continuous
 62
     7
100
AcDbLine
 10
481.9973461158
 20
298.8726555374
 30
0.0
 11
481.8083114988
 21
357.4713474476999
 31
0.0
  0
LINE
  5
27E
330
21B
100
AcDbEntity
  8
0
  6
Continuous
 62
     7
100
AcDbLine
 10
481.7495195541
 20
375.6962160258999
 30
0.0
 11
481.7479494130999
 21
376.1829428026
 31
0.0
  0
LINE
  5
27F
330
21B
100
AcDbEntity
  8
0
  6
Continuous
 62
     7
100
AcDbLine
 10
480.3213163237999
 20
383.4962160259
 30
0.0
 11
480.3213163237999
 21
384.4962160258999
 31
0.0
  0
LINE
  5
280
330
21B
100
AcDbEntity
  8
0
  6
Continuous
 62
     7
100
AcDbLine
 10
481.7495195541
 20
370.678913289
 30
0.0
 11
481.7495195541
 21
375.6962160258999
 31
0.0
  0
LINE
  5
281
330
21B
100
AcDbEntity
  8
0
  6
Continuous
 62
     7
100
AcDbLine
 10
483.3213163237999
 20
383.4962160259
 30
0.0
 11
483.3213163237999
 21
384.4962160258999
 31
0.0
  0
LINE
  5
282
330
21B
100
AcDbEntity
  8
0
  6
Continuous
 62
     7
100
AcDbLine
 10
483.9879833083999
 20
383.4962160259
 30
0.0
 11
483.9879833083999
 21
384.4962160258999
 31
0.0
  0
LINE
  5
283
330
21B
100
AcDbEntity
  8
0
  6
Continuous
 62
     7
100
AcDbLine
 10
484.4879833083999
 20
383.4962160259
 30
0.0
 11
484.4879833083999
 21
384.4962160258999
 31
0.0
  0
LINE
  5
284
330
21B
100
AcDbEntity
  8
0
  6
Continuous
 62
     7
100
AcDbLine
 10
486.0198432409999
 20
383.4962160259
 30
0.0
 11
486.0198432409999
 21
384.4962160258999
 31
0.0
  0
LINE
  5
285
330
21B
100
AcDbEntity
  8
0
  6
Continuous
 62
     7
100
AcDbLine
 10
486.5135420091999
 20
383.4962160259
 30
0.0
 11
486.5135420091999
 21
384.4962160258999
 31
0.0
  0
LINE
  5
286
330
21B
100
AcDbEntity
  8
0
  6
Continuous
 62
     7
100
AcDbLine
 10
486.5520579011
 20
383.4962160259
 30
0.0
 11
486.5520579011
 21
384.4962160258999
 31
0.0
  0
LINE
  5
287
330
21B
100
AcDbEntity
  8
0
  6
Continuous
 62
     7
100
AcDbLine
 10
486.9046493393
 20
383.4962160259
 30
0.0
 11
486.9046493393
 21
384.4962160258999
 31
0.0
  0
LINE
  5
288
330
21B
100
AcDbEntity
  8
0
  6
Continuous
 62
     7
100
AcDbLine
 10
487.2379833083999
 20
383.4962160259
 30
0.0
 11
487.2379833083999
 21
384.4962160258999
 31
0.0
  0
LINE
  5
289
330
21B
100
AcDbEntity
  8
0
  6
Continuous
 62
     7
100
AcDbLine
 10
487.9687248855999
 20
383.4962160259
 30
0.0
 11
487.9687248855999
 21
384.4962160258999
 31
0.0
  0
LINE
  5
28A
330
21B
100
AcDbEntity
  8
0
  6
Continuous
 62
     7
100
AcDbLine
 10
488.5968755014999
 20
383.4962160259
 30
0.0
 11
488.5968755014999
 21
384.4962160258999
 31
0.0
  0
LINE
  5
28B
330
21B
100
AcDbEntity
  8
RUNDUNGEN
  6
Continuous
 62
     9
100
AcDbLine
 10
545.7495195541
 20
256.9985905235
 30
0.0
 11
565.7495195541001
 21
256.9985905235
 31
0.0
  0
LINE
  5
28C
330
21B
100
AcDbEntity
  8
RUNDUNGEN
  6
Continuous
 62
     9
100
AcDbLine
 10
545.7495195541
 20
257.9984382186
 30
0.0
 11
565.7495195541001
 21
257.9984382186
 31
0.0
  0
LINE
  5
28D
330
21B
100
AcDbEntity
  8
0
  6
Continuous
 62
     7
100
AcDbLine
 10
590.2502811269999
 20
258.6791857276
 30
0.0
 11
576.7495195545999
 21
258.6791857276
 31
0.0
  0
LINE
  5
28E
330
21B
100
AcDbEntity
  8
0
  6
Continuous
 62
     7
100
AcDbLine
 10
514.7495244801
 20
258.6794903837
 30
0.0
 11
506.7495234591
 21
258.6794903837
 31
0.0
  0
LINE
  5
28F
330
21B
100
AcDbEntity
  8
0
  6
Continuous
 62
     9
100
AcDbLine
 10
591.2498242102
 20
259.6787288107
 30
0.0
 11
591.2501288198999
 21
259.6787288131
 31
0.0
  0
LINE
  5
290
330
21B
100
AcDbEntity
  8
0
  6
Continuous
 62
     7
100
AcDbLine
 10
491.4848221403
 20
278.3125626913
 30
0.0
 11
482.2895746530999
 21
297.5907999528
 31
0.0
  0
LINE
  5
291
330
21B
100
AcDbEntity
  8
0
  6
Continuous
 62
     7
100
AcDbLine
 10
489.5198427641
 20
383.4962160259
 30
0.0
 11
489.5198427641
 21
384.4962160258999
 31
0.0
  0
LINE
  5
292
330
21B
100
AcDbEntity
  8
0
  6
Continuous
 62
     7
100
AcDbLine
 10
490.1928105036
 20
383.4962160259
 30
0.0
 11
490.1928105036
 21
384.4962160258999
 31
0.0
  0
LINE
  5
293
330
21B
100
AcDbEntity
  8
0
  6
Continuous
 62
     7
100
AcDbLine
 10
490.3853913933999
 20
383.4962160259
 30
0.0
 11
490.3853913933999
 21
384.4962160258999
 31
0.0
  0
LINE
  5
294
330
21B
100
AcDbEntity
  8
0
  6
Continuous
 62
     7
100
AcDbLine
 10
490.6546498161
 20
383.4962160259
 30
0.0
 11
490.6546498161
 21
384.4962160258999
 31
0.0
  0
LINE
  5
295
330
21B
100
AcDbEntity
  8
0
  6
Continuous
 62
     7
100
AcDbLine
 10
491.0713163237999
 20
383.4962160259
 30
0.0
 11
491.0713163237999
 21
384.4962160258999
 31
0.0
  0
LINE
  5
296
330
21B
100
AcDbEntity
  8
0
  6
Continuous
 62
     7
100
AcDbLine
 10
491.6353913933999
 20
383.4962160259
 30
0.0
 11
491.6353913933999
 21
384.4962160258999
 31
0.0
  0
LINE
  5
297
330
21B
100
AcDbEntity
  8
0
  6
Continuous
 62
     7
100
AcDbLine
 10
492.4942838248999
 20
383.4962160259
 30
0.0
 11
492.4942838248999
 21
384.4962160258999
 31
0.0
  0
LINE
  5
298
330
21B
100
AcDbEntity
  8
0
  6
Continuous
 62
     7
100
AcDbLine
 10
493.3339180721
 20
383.4962160259
 30
0.0
 11
493.3339180721
 21
384.4962160258999
 31
0.0
  0
LINE
  5
299
330
21B
100
AcDbEntity
  8
0
  6
Continuous
 62
     7
100
AcDbLine
 10
494.2376280401
 20
383.4962160259
 30
0.0
 11
494.2376280401
 21
384.4962160258999
 31
0.0
  0
LINE
  5
29A
330
21B
100
AcDbEntity
  8
0
  6
Continuous
 62
     7
100
AcDbLine
 10
494.8213163237999
 20
383.4962160259
 30
0.0
 11
494.8213163237999
 21
384.4962160258999
 31
0.0
  0
LINE
  5
29B
330
21B
100
AcDbEntity
  8
0
  6
Continuous
 62
     7
100
AcDbLine
 10
495.3213163237999
 20
383.4962160259
 30
0.0
 11
495.3213163237999
 21
384.4962160258999
 31
0.0
  0
LINE
  5
29C
330
21B
100
AcDbEntity
  8
0
  6
Continuous
 62
     7
100
AcDbLine
 10
496.8531762563999
 20
383.4962160259
 30
0.0
 11
496.8531762563999
 21
384.4962160258999
 31
0.0
  0
LINE
  5
29D
330
21B
100
AcDbEntity
  8
0
  6
Continuous
 62
     7
100
AcDbLine
 10
498.0324451637
 20
383.4962160259
 30
0.0
 11
498.0324451637
 21
384.4962160258999
 31
0.0
  0
LINE
  5
29E
330
21B
100
AcDbEntity
  8
0
  6
Continuous
 62
     7
100
AcDbLine
 10
500.2495195541
 20
240.1962160259
 30
0.0
 11
500.2495195541
 21
263.7338762831
 31
0.0
  0
LINE
  5
29F
330
21B
100
AcDbEntity
  8
0
  6
Continuous
 62
     7
100
AcDbLine
 10
600.1558658241999
 20
267.0472267386
 30
0.0
 11
592.1976325837
 21
266.6301534075
 31
0.0
  0
LINE
  5
2A0
330
21B
100
AcDbEntity
  8
0
  6
Continuous
 62
     7
100
AcDbLine
 10
576.7320671476999
 20
264.7966408157
 30
0.0
 11
582.2669719605999
 21
264.8932529386
 31
0.0
  0
LINE
  5
2A1
330
21B
100
AcDbEntity
  8
0
  6
Continuous
 62
     9
100
AcDbLine
 10
515.7495195541001
 20
263.7967931206
 30
0.0
 11
575.7495195541
 21
263.7967931206
 31
0.0
  0
LINE
  5
2A3
330
21B
100
AcDbEntity
  8
0
  6
Continuous
 62
     9
100
AcDbLine
 10
514.7669719606
 20
264.7966408157
 30
0.0
 11
576.7320671476999
 21
264.7966408157
 31
0.0
  0
LINE
  5
2A4
330
21B
100
AcDbEntity
  8
0
  6
Continuous
 62
     9
100
AcDbLine
 10
509.2320671477
 20
264.8932529386
 30
0.0
 11
582.2669719605999
 21
264.8932529386
 31
0.0
  0
LINE
  5
2A5
330
21B
100
AcDbEntity
  8
0
  6
Continuous
 62
     9
100
AcDbLine
 10
591.2498242102
 20
265.6313717777
 30
0.0
 11
591.2501288198999
 21
265.6313717768
 31
0.0
  0
LINE
  5
2A6
330
21B
100
AcDbEntity
  8
0
  6
Continuous
 62
     9
100
AcDbLine
 10
508.2495195541
 20
265.8931006338
 30
0.0
 11
583.2495195541
 21
265.8931006338
 31
0.0
  0
LINE
  5
2A7
330
21B
100
AcDbEntity
  8
0
  6
Continuous
 62
     7
100
AcDbLine
 10
514.7669719606
 20
264.7966408157
 30
0.0
 11
509.2320671477
 21
264.8932529386
 31
0.0
  0
LINE
  5
2A8
330
21B
100
AcDbEntity
  8
0
  6
Continuous
 62
     7
100
AcDbLine
 10
492.5318859753
 20
266.9852340204
 30
0.0
 11
497.4065274227999
 21
266.7297648874
 31
0.0
  0
LINE
  5
2A9
330
21B
100
AcDbEntity
  8
0
  6
Continuous
 62
     7
100
AcDbLine
 10
474.3001157392
 20
340.2872904434
 30
0.0
 11
474.161441645
 21
340.5704238837
 31
0.0
  0
LINE
  5
2AA
330
21B
100
AcDbEntity
  8
0
  6
Continuous
 62
     7
100
AcDbLine
 10
502.2495195541
 20
383.4962160259
 30
0.0
 11
502.2495195541
 21
384.4962160258999
 31
0.0
  0
LINE
  5
2AB
330
21B
100
AcDbEntity
  8
0
  6
Continuous
 62
     7
100
AcDbLine
 10
505.7495195541
 20
240.1962160259
 30
0.0
 11
505.7495195541
 21
257.6793381218
 31
0.0
  0
LINE
  5
2AC
330
21B
100
AcDbEntity
  8
0
  6
Continuous
 62
     7
100
AcDbLine
 10
508.2495195541
 20
265.8931006338
 30
0.0
 11
508.2495195541
 21
275.9614388039
 31
0.0
  0
LINE
  5
2AD
330
21B
100
AcDbEntity
  8
0
  6
Continuous
 62
     7
100
AcDbLine
 10
584.1971835978999
 20
276.9600683387
 30
0.0
 11
599.1639676398
 21
277.7444442533
 31
0.0
  0
LINE
  5
2AE
330
21B
100
AcDbEntity
  8
0
  6
Continuous
 62
     9
100
AcDbLine
 10
508.2495195541
 20
275.9614388039
 30
0.0
 11
565.1424406316
 21
275.9614388039
 31
0.0
  0
LINE
  5
2AF
330
21B
100
AcDbEntity
  8
RUNDUNGEN
  6
Continuous
 62
     9
100
AcDbLine
 10
565.1424406316
 20
275.9614388039
 30
0.0
 11
572.3580455929
 21
275.9614388039
 31
0.0
  0
LINE
  5
2B0
330
21B
100
AcDbEntity
  8
0
  6
Continuous
 62
     9
100
AcDbLine
 10
572.3580455929
 20
275.9614388039
 30
0.0
 11
583.2495195541
 21
275.9614388039
 31
0.0
  0
LINE
  5
2B1
330
21B
100
AcDbEntity
  8
0
  6
Continuous
 62
     9
100
AcDbLine
 10
507.3018555104
 20
276.9600683387
 30
0.0
 11
565.6325199778999
 21
276.9600683387
 31
0.0
  0
LINE
  5
2B2
330
21B
100
AcDbEntity
  8
RUNDUNGEN
  6
Continuous
 62
     9
100
AcDbLine
 10
565.6325199778999
 20
276.9600683387
 30
0.0
 11
573.0304707498
 21
276.9600683387
 31
0.0
  0
LINE
  5
2B3
330
21B
100
AcDbEntity
  8
0
  6
Continuous
 62
     9
100
AcDbLine
 10
573.0304707498
 20
276.9600683387
 30
0.0
 11
584.1971835978999
 21
276.9600683387
 31
0.0
  0
LINE
  5
2B4
330
21B
100
AcDbEntity
  8
RUNDUNGEN
  6
Continuous
 62
     9
100
AcDbLine
 10
534.6421470358999
 20
277.382612073
 30
0.0
 11
556.8568920724
 21
277.382612073
 31
0.0
  0
LINE
  5
2B5
330
21B
100
AcDbEntity
  8
0
  6
Continuous
 62
     9
100
AcDbLine
 10
492.3350714684
 20
277.7444442533
 30
0.0
 11
530.9603976395
 21
277.7444442535
 31
0.0
  0
LINE
  5
2B6
330
21B
100
AcDbEntity
  8
RUNDUNGEN
  6
Continuous
 62
     9
100
AcDbLine
 10
560.5386414687
 20
277.7444442535
 30
0.0
 11
573.3969367344
 21
277.7444442533
 31
0.0
  0
LINE
  5
2B7
330
21B
100
AcDbEntity
  8
0
  6
Continuous
 62
     9
100
AcDbLine
 10
573.3969367344
 20
277.7444442533
 30
0.0
 11
599.1639676398
 21
277.7444442533
 31
0.0
  0
LINE
  5
2B8
330
21B
100
AcDbEntity
  8
RUNDUNGEN
  6
Continuous
 62
     9
100
AcDbLine
 10
534.420233883
 20
278.1904326123
 30
0.0
 11
557.078805361
 21
278.1904326123
 31
0.0
  0
LINE
  5
2B9
330
21B
100
AcDbEntity
  8
0
  6
Continuous
 62
     9
100
AcDbLine
 10
491.4848221403
 20
278.3125626913
 30
0.0
 11
530.7249849109999
 21
278.3125626911
 31
0.0
  0
LINE
  5
2BA
330
21B
100
AcDbEntity
  8
0
  6
Continuous
 62
     9
100
AcDbLine
 10
560.7740561847
 20
278.3125626911
 30
0.0
 11
600.0142169679
 21
278.3125626913
 31
0.0
  0
LINE
  5
2BB
330
21B
100
AcDbEntity
  8
0
  6
CENTER
100
AcDbLine
 10
683.7495195541
 20
285.1962160259
 30
0.0
 11
545.2090876755001
 21
285.1962160259
 31
0.0
  0
LINE
  5
2BC
330
21B
100
AcDbEntity
  8
0
  6
Continuous
 62
     7
100
AcDbLine
 10
507.3018555104
 20
276.9600683387
 30
0.0
 11
492.3350714684
 21
277.7444442533
 31
0.0
  0
LINE
  5
2BD
330
21B
100
AcDbEntity
  8
0
  6
Continuous
 62
     7
100
AcDbLine
 10
515.7495195541001
 20
259.6796426693
 30
0.0
 11
515.7495195541001
 21
263.7967931206
 31
0.0
  0
LINE
  5
2BE
330
21B
100
AcDbEntity
  8
0
  6
Continuous
 62
     9
100
AcDbLine
 10
601.0057266592
 20
267.6150855912
 30
0.0
 11
601.0060015971999
 21
267.6149544571
 31
0.0
  0
LINE
  5
2BF
330
21B
100
AcDbEntity
  8
RUNDUNGEN
  6
Continuous
 62
     9
100
AcDbLine
 10
528.2700196770999
 20
298.8726555374
 30
0.0
 11
528.2631123880999
 21
307.1523184062
 31
0.0
  0
LINE
  5
2C0
330
21B
100
AcDbEntity
  8
RUNDUNGEN
  6
Continuous
 62
     9
100
AcDbLine
 10
529.5048817977
 20
305.1524609684
 30
0.0
 11
529.5101229624999
 21
298.8758814393
 31
0.0
  0
LINE
  5
2C1
330
21B
100
AcDbEntity
  8
RUNDUNGEN
  6
Continuous
 62
     9
100
AcDbLine
 10
533.2547886216
 20
370.576763182
 30
0.0
 11
533.2548013772
 21
376.077594227
 31
0.0
  0
LINE
  5
2C2
330
21B
100
AcDbEntity
  8
RUNDUNGEN
  6
Continuous
 62
     9
100
AcDbLine
 10
533.9760975108
 20
300.178913289
 30
0.0
 11
533.9760975108
 21
304.2472514592
 31
0.0
  0
LINE
  5
2C3
330
21B
100
AcDbEntity
  8
RUNDUNGEN
  6
Continuous
 62
     9
100
AcDbLine
 10
534.0560172321
 20
370.5767640826
 30
0.0
 11
534.055971921
 21
376.0575587622
 31
0.0
  0
LINE
  5
2C4
330
21B
100
AcDbEntity
  8
RUNDUNGEN
  6
Continuous
 62
     9
100
AcDbLine
 10
535.1795507264999
 20
300.178913289
 30
0.0
 11
535.1795507264999
 21
304.2472514592
 31
0.0
  0
LINE
  5
2C5
330
21B
100
AcDbEntity
  8
RUNDUNGEN
  6
Continuous
 62
     9
100
AcDbLine
 10
530.7992412457999
 20
354.0082137517
 30
0.0
 11
530.8024411804
 21
357.4713474476999
 31
0.0
  0
LINE
  5
2C6
330
21B
100
AcDbEntity
  8
RUNDUNGEN
  6
Continuous
 62
     9
100
AcDbLine
 10
530.8192815351999
 20
370.678913289
 30
0.0
 11
530.8197284597
 21
376.1829428026
 31
0.0
  0
LINE
  5
2C7
330
21B
100
AcDbEntity
  8
RUNDUNGEN
  6
Continuous
 62
     9
100
AcDbLine
 10
531.5519223925
 20
370.6789141869001
 30
0.0
 11
531.5523832369
 21
376.1797169006
 31
0.0
  0
LINE
  5
2C8
330
21B
100
AcDbEntity
  8
0
  6
Continuous
 62
     9
100
AcDbLine
 10
609.2094644551999
 20
297.5907999528
 30
0.0
 11
563.1519255841999
 21
297.5907999544
 31
0.0
  0
LINE
  5
2C9
330
21B
100
AcDbEntity
  8
0
  6
Continuous
 62
     9
100
AcDbLine
 10
528.3471135241
 20
297.5907999544
 30
0.0
 11
482.2895746530999
 21
297.5907999528
 31
0.0
  0
LINE
  5
2CA
330
21B
100
AcDbEntity
  8
RUNDUNGEN
  6
Continuous
 62
     9
100
AcDbLine
 10
558.0328525156
 20
297.9041914587
 30
0.0
 11
533.4661865926
 21
297.9041914587
 31
0.0
  0
LINE
  5
2CB
330
21B
100
AcDbEntity
  8
0
  6
Continuous
 62
     9
100
AcDbLine
 10
481.9973461158
 20
298.8726555374
 30
0.0
 11
528.2700196770999
 21
298.8726555374
 31
0.0
  0
LINE
  5
2CC
330
21B
100
AcDbEntity
  8
RUNDUNGEN
  6
Continuous
 62
     9
100
AcDbLine
 10
563.2290194311
 20
298.8726555374
 30
0.0
 11
583.1749884206999
 21
298.8726555374
 31
0.0
  0
LINE
  5
2CD
330
21B
100
AcDbEntity
  8
0
  6
Continuous
 62
     9
100
AcDbLine
 10
583.1749884206999
 20
298.8726555373
 30
0.0
 11
609.5016929924
 21
298.8726555374
 31
0.0
  0
LINE
  5
2CE
330
21B
100
AcDbEntity
  8
RUNDUNGEN
  6
Continuous
 62
     9
100
AcDbLine
 10
557.8018611974999
 20
299.0948481489
 30
0.0
 11
533.6971779107
 21
299.0948481489
 31
0.0
  0
LINE
  5
2CF
330
21B
100
AcDbEntity
  8
RUNDUNGEN
  6
Continuous
 62
     9
100
AcDbLine
 10
556.5528703465999
 20
299.1790655938
 30
0.0
 11
534.9461687616999
 21
299.1790655938
 31
0.0
  0
LINE
  5
2D0
330
21B
100
AcDbEntity
  8
RUNDUNGEN
  6
Continuous
 62
     9
100
AcDbLine
 10
557.5229415973999
 20
300.178913289
 30
0.0
 11
533.9760975108
 21
300.178913289
 31
0.0
  0
LINE
  5
2D1
330
21B
100
AcDbEntity
  8
RUNDUNGEN
  6
Continuous
 62
     9
100
AcDbLine
 10
557.5229415973999
 20
304.2472514592
 30
0.0
 11
533.9760975108
 21
304.2472514592
 31
0.0
  0
LINE
  5
2D2
330
21B
100
AcDbEntity
  8
RUNDUNGEN
  6
Continuous
 62
     9
100
AcDbLine
 10
556.5445845480999
 20
305.2458809939
 30
0.0
 11
534.9544545601999
 21
305.2458809939
 31
0.0
  0
LINE
  5
2D3
330
21B
100
AcDbEntity
  8
RUNDUNGEN
  6
Continuous
 62
     9
100
AcDbLine
 10
530.4517830431999
 20
306.1569147734
 30
0.0
 11
561.047256065
 21
306.1569147734
 31
0.0
  0
LINE
  5
2D4
330
21B
100
AcDbEntity
  8
RUNDUNGEN
  6
Continuous
 62
     9
100
AcDbLine
 10
528.2631123880999
 20
307.1523184062
 30
0.0
 11
563.2359267201
 21
307.1523184062
 31
0.0
  0
LINE
  5
2D5
330
21B
100
AcDbEntity
  8
0
  6
Continuous
 62
     9
100
AcDbLine
 10
615.3061652352
 20
298.5599100416
 30
0.0
 11
615.3064696592999
 21
298.5598994109
 31
0.0
  0
LINE
  5
2D6
330
21B
100
AcDbEntity
  8
RUNDUNGEN
  6
Continuous
 62
     9
100
AcDbLine
 10
615.3064696592999
 20
298.5598994109
 30
0.0
 11
616.1197847473
 21
298.5314978221
 31
0.0
  0
LINE
  5
2D7
330
21B
100
AcDbEntity
  8
RUNDUNGEN
  6
Continuous
 62
     9
100
AcDbLine
 10
590.9715026820999
 20
257.9576595605
 30
0.0
 11
590.2502811247
 21
258.6788811179
 31
0.0
  0
LINE
  5
2D8
330
21B
100
AcDbEntity
  8
0
  6
Continuous
 62
     7
100
AcDbLine
 10
537.2495195541
 20
384.4962160258999
 30
0.0
 11
537.2495195541
 21
385.4962160259
 31
0.0
  0
LINE
  5
2D9
330
21B
100
AcDbEntity
  8
0
  6
Continuous
 62
     7
100
AcDbLine
 10
537.7495195541
 20
385.4962160259
 30
0.0
 11
537.7495195541
 21
387.0962160259
 31
0.0
  0
LINE
  5
2DA
330
21B
100
AcDbEntity
  8
0
  6
Continuous
 62
     7
100
AcDbLine
 10
537.7495195541
 20
388.6962160259
 30
0.0
 11
537.7495195541
 21
398.6962160258999
 31
0.0
  0
LINE
  5
2DB
330
21B
100
AcDbEntity
  8
0
  6
Continuous
 62
     7
100
AcDbLine
 10
538.7495195541
 20
398.6962160258999
 30
0.0
 11
538.7495195541
 21
406.6962160259
 31
0.0
  0
LINE
  5
2DC
330
21B
100
AcDbEntity
  8
0
  6
Continuous
 62
     7
100
AcDbLine
 10
539.2495195541
 20
387.2462160259
 30
0.0
 11
539.2495195541
 21
388.6962160259
 31
0.0
  0
LINE
  5
2DD
330
21B
100
AcDbEntity
  8
0
  6
Continuous
 62
     7
100
AcDbLine
 10
539.9495195541
 20
387.2462160259
 30
0.0
 11
539.9495195541
 21
387.0962160259
 31
0.0
  0
LINE
  5
2DE
330
21B
100
AcDbEntity
  8
RUNDUNGEN
  6
Continuous
 62
     9
100
AcDbLine
 10
545.7495195541
 20
240.3252076755
 30
0.0
 11
545.7495195541
 21
257.9984382186
 31
0.0
  0
LINE
  5
2DF
330
21B
100
AcDbEntity
  8
0
  6
Continuous
 62
     7
100
AcDbLine
 10
545.7495195541
 20
388.1017695253
 30
0.0
 11
545.7495195541
 21
388.6962160259
 31
0.0
  0
LINE
  5
2E0
330
21B
100
AcDbEntity
  8
0
  6
CENTER
100
AcDbLine
 10
545.7495195541
 20
227.0744056079
 30
0.0
 11
545.7495195541
 21
407.0803506349999
 31
0.0
  0
LINE
  5
2E1
330
21B
100
AcDbEntity
  8
RUNDUNGEN
  6
Continuous
 62
     9
100
AcDbLine
 10
592.0033278455999
 20
264.9166125897
 30
0.0
 11
591.2501288198999
 21
265.6313717768
 31
0.0
  0
LINE
  5
2E2
330
21B
100
AcDbEntity
  8
RUNDUNGEN
  6
Continuous
 62
     9
100
AcDbLine
 10
592.9508475555
 20
265.9150900284
 30
0.0
 11
592.1976485298
 21
266.6298492154
 31
0.0
  0
LINE
  5
2E3
330
21B
100
AcDbEntity
  8
RUNDUNGEN
  6
Continuous
 62
     9
100
AcDbLine
 10
591.9815654780999
 20
258.9472921549
 30
0.0
 11
591.2501288198999
 21
259.6787288131
 31
0.0
  0
LINE
  5
2E4
330
21B
100
AcDbEntity
  8
0
  6
Continuous
 62
     7
100
AcDbLine
 10
551.5495195540999
 20
387.2462160259
 30
0.0
 11
551.5495195540999
 21
387.0962160259
 31
0.0
  0
LINE
  5
2E5
330
21B
100
AcDbEntity
  8
0
  6
Continuous
 62
     7
100
AcDbLine
 10
552.2495195541
 20
387.2462160259
 30
0.0
 11
552.2495195541
 21
388.6962160259
 31
0.0
  0
LINE
  5
2E6
330
21B
100
AcDbEntity
  8
0
  6
Continuous
 62
     7
100
AcDbLine
 10
552.7495195541
 20
398.6962160258999
 30
0.0
 11
552.7495195541
 21
406.6962160259
 31
0.0
  0
LINE
  5
2E7
330
21B
100
AcDbEntity
  8
0
  6
Continuous
 62
     7
100
AcDbLine
 10
553.7495195541001
 20
385.4962160259
 30
0.0
 11
553.7495195541001
 21
387.0962160259
 31
0.0
  0
LINE
  5
2E8
330
21B
100
AcDbEntity
  8
0
  6
Continuous
 62
     7
100
AcDbLine
 10
553.7495195541001
 20
388.6962160259
 30
0.0
 11
553.7495195541001
 21
398.6962160258999
 31
0.0
  0
LINE
  5
2E9
330
21B
100
AcDbEntity
  8
0
  6
Continuous
 62
     7
100
AcDbLine
 10
554.2495195541
 20
384.4962160258999
 30
0.0
 11
554.2495195541
 21
385.4962160259
 31
0.0
  0
LINE
  5
2EA
330
21B
100
AcDbEntity
  8
RUNDUNGEN
  6
Continuous
 62
     9
100
AcDbLine
 10
556.3194883817
 20
304.2472514592
 30
0.0
 11
556.3194883817
 21
300.178913289
 31
0.0
  0
LINE
  5
2EB
330
21B
100
AcDbEntity
  8
RUNDUNGEN
  6
Continuous
 62
     9
100
AcDbLine
 10
557.4430671528999
 20
376.0575587622
 30
0.0
 11
557.4430218761
 21
370.5767640709999
 31
0.0
  0
LINE
  5
2EC
330
21B
100
AcDbEntity
  8
RUNDUNGEN
  6
Continuous
 62
     9
100
AcDbLine
 10
557.5229415973999
 20
304.2472514592
 30
0.0
 11
557.5229415973999
 21
300.178913289
 31
0.0
  0
LINE
  5
2ED
330
21B
100
AcDbEntity
  8
RUNDUNGEN
  6
Continuous
 62
     9
100
AcDbLine
 10
558.2442377287
 20
376.0775942269
 30
0.0
 11
558.2442504866
 21
370.5767641147001
 31
0.0
  0
LINE
  5
2EE
330
21B
100
AcDbEntity
  8
0
  6
Continuous
 62
     9
100
AcDbLine
 10
614.8221080294
 20
296.5817315156
 30
0.0
 11
614.8223829656999
 21
296.5816003777
 31
0.0
  0
LINE
  5
2EF
330
21B
100
AcDbEntity
  8
RUNDUNGEN
  6
Continuous
 62
     9
100
AcDbLine
 10
614.8223829656999
 20
296.5816003777
 30
0.0
 11
615.5677395146
 21
296.2260835407
 31
0.0
  0
LINE
  5
2F0
330
21B
100
AcDbEntity
  8
RUNDUNGEN
  6
Continuous
 62
     9
100
AcDbLine
 10
560.6965979277999
 20
357.4713474476999
 30
0.0
 11
560.6997978624
 21
354.0082137514
 31
0.0
  0
LINE
  5
2F1
330
21B
100
AcDbEntity
  8
RUNDUNGEN
  6
Continuous
 62
     9
100
AcDbLine
 10
559.9466558712999
 20
376.1797169006
 30
0.0
 11
559.9471167157999
 21
370.678913354
 31
0.0
  0
LINE
  5
2F2
330
21B
100
AcDbEntity
  8
RUNDUNGEN
  6
Continuous
 62
     9
100
AcDbLine
 10
560.6793106484999
 20
376.1829428026
 30
0.0
 11
560.679757573
 21
370.678913289
 31
0.0
  0
LINE
  5
2F4
330
21B
100
AcDbEntity
  8
RUNDUNGEN
  6
Continuous
 62
     9
100
AcDbLine
 10
561.9889161457
 20
298.8758814393
 30
0.0
 11
561.9941573106
 21
305.1524609684
 31
0.0
  0
LINE
  5
2F5
330
21B
100
AcDbEntity
  8
RUNDUNGEN
  6
Continuous
 62
     9
100
AcDbLine
 10
563.2359267201
 20
307.1523184062
 30
0.0
 11
563.2290194311
 21
298.8726555374
 31
0.0
  0
LINE
  5
2F6
330
21B
100
AcDbEntity
  8
0
  6
Continuous
 62
     7
100
AcDbLine
 10
617.5337616216
 20
334.6962160259
 30
0.0
 11
680.7495195541
 21
334.6962160259
 31
0.0
  0
LINE
  5
2F7
330
21B
100
AcDbEntity
  8
0
  6
Continuous
 62
     7
100
AcDbLine
 10
620.7571044111
 20
340.1962160259
 30
0.0
 11
680.7495195541
 21
340.1962160259
 31
0.0
  0
LINE
  5
2F8
330
21B
100
AcDbEntity
  8
0
  6
Continuous
 62
     9
100
AcDbLine
 10
616.5346752946
 20
333.7311070671
 30
0.0
 11
616.5343707943
 21
333.7311155163
 31
0.0
  0
LINE
  5
2F9
330
21B
100
AcDbEntity
  8
RUNDUNGEN
  6
Continuous
 62
     9
100
AcDbLine
 10
600.1558817662001
 20
267.0469225464
 30
0.0
 11
600.6533592551999
 21
266.3023948695
 31
0.0
  0
LINE
  5
2FA
330
21B
100
AcDbEntity
  8
RUNDUNGEN
  6
Continuous
 62
     9
100
AcDbLine
 10
601.0060015971999
 20
267.6149544571
 30
0.0
 11
601.5083404669
 21
266.86315121
 31
0.0
  0
LINE
  5
2FB
330
21B
100
AcDbEntity
  8
0
  6
Continuous
 62
     7
100
AcDbLine
 10
575.7495195541
 20
259.6791857276
 30
0.0
 11
575.7495195541
 21
263.7967931206
 31
0.0
  0
LINE
  5
2FC
330
21B
100
AcDbEntity
  8
RUNDUNGEN
  6
Continuous
 62
     9
100
AcDbLine
 10
532.3325300300999
 20
352.1735743636
 30
0.0
 11
559.1665090789
 21
352.1735743636
 31
0.0
  0
LINE
  5
2FD
330
21B
100
AcDbEntity
  8
RUNDUNGEN
  6
Continuous
 62
     9
100
AcDbLine
 10
532.257748426
 20
352.9363929047
 30
0.0
 11
559.2412906828
 21
352.9363929047
 31
0.0
  0
LINE
  5
2FE
330
21B
100
AcDbEntity
  8
0
  6
Continuous
 62
     9
100
AcDbLine
 10
592.1976325839
 20
266.6301534075
 30
0.0
 11
592.1976485298
 21
266.6298492154
 31
0.0
  0
LINE
  5
2FF
330
21B
100
AcDbEntity
  8
0
  6
Continuous
 62
     7
100
AcDbLine
 10
583.2495195541
 20
265.8931006338
 30
0.0
 11
583.2495195541
 21
275.9614388039
 31
0.0
  0
LINE
  5
300
330
21B
100
AcDbEntity
  8
0
  6
Continuous
 62
     9
100
AcDbLine
 10
590.2502811269
 20
258.6791857276
 30
0.0
 11
590.2502811257
 21
258.6788811179
 31
0.0
  0
LINE
  5
301
330
21B
100
AcDbEntity
  8
0
  6
Continuous
 62
     7
100
AcDbLine
 10
591.2498242102
 20
265.6313717768
 30
0.0
 11
591.2498242102
 21
259.6787288107
 31
0.0
  0
LINE
  5
302
330
21B
100
AcDbEntity
  8
0
  6
Continuous
 62
     9
100
AcDbLine
 10
576.7494753398999
 20
258.6788811179
 30
0.0
 11
576.7495195541
 21
258.6791857276
 31
0.0
  0
LINE
  5
303
330
21B
100
AcDbEntity
  8
0
  6
Continuous
 62
     7
100
AcDbLine
 10
661.2858575039
 20
376.4879456795
 30
0.0
 11
668.2495195541
 21
377.0971871656
 31
0.0
  0
LINE
  5
304
330
21B
100
AcDbEntity
  8
0
  6
Continuous
 62
     7
100
AcDbLine
 10
610.6732699998
 20
358.4679692408999
 30
0.0
 11
615.7669719605999
 21
358.5568801393
 31
0.0
  0
LINE
  5
305
330
21B
100
AcDbEntity
  8
0
  6
Continuous
 62
     9
100
AcDbLine
 10
609.6907276095
 20
357.4713474476999
 30
0.0
 11
560.6965979277999
 21
357.4713474476999
 31
0.0
  0
LINE
  5
306
330
21B
100
AcDbEntity
  8
0
  6
Continuous
 62
     9
100
AcDbLine
 10
530.8024411804
 20
357.4713474476999
 30
0.0
 11
481.8083114988
 21
357.4713474476999
 31
0.0
  0
LINE
  5
307
330
21B
100
AcDbEntity
  8
RUNDUNGEN
  6
Continuous
 62
     9
100
AcDbLine
 10
558.0933973554
 20
358.2742937864
 30
0.0
 11
533.4056417534999
 21
358.2742937864
 31
0.0
  0
LINE
  5
308
330
21B
100
AcDbEntity
  8
0
  6
Continuous
 62
     9
100
AcDbLine
 10
480.8257691085
 20
358.4679692408999
 30
0.0
 11
530.5729933495999
 21
358.4679692408999
 31
0.0
  0
LINE
  5
309
330
21B
100
AcDbEntity
  8
0
  6
Continuous
 62
     9
100
AcDbLine
 10
560.9260457586
 20
358.4679692408999
 30
0.0
 11
610.6732699998
 21
358.4679692408999
 31
0.0
  0
LINE
  5
30A
330
21B
100
AcDbEntity
  8
0
  6
Continuous
 62
     9
100
AcDbLine
 10
615.7669719605999
 20
358.5568801393
 30
0.0
 11
559.4426245043
 21
358.5568801394
 31
0.0
  0
LINE
  5
30B
330
21B
100
AcDbEntity
  8
0
  6
Continuous
 62
     9
100
AcDbLine
 10
532.0564146233
 20
358.5568801394
 30
0.0
 11
475.7320671477
 21
358.5568801393
 31
0.0
  0
LINE
  5
30C
330
21B
100
AcDbEntity
  8
RUNDUNGEN
  6
Continuous
 62
     9
100
AcDbLine
 10
558.1561780512
 20
359.0403382295
 30
0.0
 11
533.3428815347
 21
359.0403382295
 31
0.0
  0
LINE
  5
30D
330
21B
100
AcDbEntity
  8
0
  6
Continuous
 62
     9
100
AcDbLine
 10
474.7495195541
 20
359.5567278344999
 30
0.0
 11
531.8645678208
 21
359.5567278344999
 31
0.0
  0
LINE
  5
30E
330
21B
100
AcDbEntity
  8
0
  6
Continuous
 62
     9
100
AcDbLine
 10
559.6344712873999
 20
359.5567278344999
 30
0.0
 11
616.7495195541
 21
359.5567278344999
 31
0.0
  0
LINE
  5
30F
330
21B
100
AcDbEntity
  8
0
  6
Continuous
 62
     7
100
AcDbLine
 10
480.8257691085
 20
358.4679692408999
 30
0.0
 11
475.7320671477
 21
358.5568801393
 31
0.0
  0
LINE
  5
310
330
21B
100
AcDbEntity
  8
0
  6
Continuous
 62
     7
100
AcDbLine
 10
430.2131816043
 20
376.4879456795
 30
0.0
 11
423.2495195541
 21
377.0971871656
 31
0.0
  0
LINE
  5
311
330
21B
100
AcDbEntity
  8
0
  6
Continuous
 62
     9
100
AcDbLine
 10
600.1558658251
 20
267.0472267386
 30
0.0
 11
600.1558817662001
 21
267.0469225464
 31
0.0
  0
LINE
  5
312
330
21B
100
AcDbEntity
  8
0
  6
Continuous
 62
     7
100
AcDbLine
 10
650.7643757947
 20
376.5797652594
 30
0.0
 11
653.2495195541001
 21
376.7971871656
 31
0.0
  0
LINE
  5
313
330
21B
100
AcDbEntity
  8
0
  6
Continuous
 62
     7
100
AcDbLine
 10
637.1248943624999
 20
376.6987952106
 30
0.0
 11
638.2495195541
 21
376.7971871656
 31
0.0
  0
LINE
  5
314
330
21B
100
AcDbEntity
  8
RUNDUNGEN
  6
Continuous
 62
     7
100
AcDbLine
 10
559.1496471744999
 20
377.0757569754
 30
0.0
 11
559.1498742520999
 21
377.0757707164
 31
0.0
  0
LWPOLYLINE
  5
315
330
21B
100
AcDbEntity
  8
0
  6
Continuous
 62
     7
100
AcDbPolyline
 90
        5
 70
     0
 43
0.0
 10
560.8534113245999
 20
377.1779647994
 10
559.1476299163999
 20
377.0756378065
 10
559.1349590611001
 20
377.0749496987999
 10
559.1179031580999
 20
377.0741337922
 10
559.0973245908998
 20
377.0732629638
  0
LINE
  5
316
330
21B
100
AcDbEntity
  8
RUNDUNGEN
  6
Continuous
 62
     7
100
AcDbLine
 10
560.8534304611
 20
377.1779658552
 30
0.0
 11
560.8535642716
 21
377.1779737604
 31
0.0
  0
LINE
  5
317
330
21B
100
AcDbEntity
  8
0
  6
Continuous
 62
     7
100
AcDbLine
 10
559.0973245908998
 20
377.0732629638
 30
0.0
 11
559.0451483812
 21
377.0714088519
 31
0.0
  0
LINE
  5
318
330
21B
100
AcDbEntity
  8
0
  6
Continuous
 62
     7
100
AcDbLine
 10
560.9126298508999
 20
377.1797168793
 30
0.0
 11
560.8535642716
 21
377.1779737604
 31
0.0
  0
LINE
  5
319
330
21B
100
AcDbEntity
  8
0
  6
Continuous
 62
     7
100
AcDbLine
 10
559.0451483812
 20
377.0714088519
 30
0.0
 11
558.9791088836
 21
377.0694990036
 31
0.0
  0
LINE
  5
31A
330
21B
100
AcDbEntity
  8
0
  6
Continuous
 62
     7
100
AcDbLine
 10
625.8295499908
 20
368.8652971868
 30
0.0
 11
693.8018734507001
 21
370.6452151178
 31
0.0
  0
LINE
  5
31B
330
21B
100
AcDbEntity
  8
0
  6
Continuous
 62
     7
100
AcDbLine
 10
558.9791088836
 20
377.0694990036
 30
0.0
 11
558.8997569961
 21
377.0676232027
 31
0.0
  0
LINE
  5
31C
330
21B
100
AcDbEntity
  8
0
  6
Continuous
 62
     7
100
AcDbLine
 10
475.7320671477
 20
369.5911810034
 30
0.0
 11
480.7669719605999
 21
369.6790655938
 31
0.0
  0
LINE
  5
31D
330
21B
100
AcDbEntity
  8
0
  6
Continuous
 62
     7
100
AcDbLine
 10
558.8997569961
 20
377.0676232027
 30
0.0
 11
558.7559361413999
 21
377.0649508059
 31
0.0
  0
LINE
  5
31E
330
21B
100
AcDbEntity
  8
0
  6
Continuous
 62
     7
100
AcDbLine
 10
558.7559361413999
 20
377.0649508059
 30
0.0
 11
558.5199146357
 21
377.061843369
 31
0.0
  0
LINE
  5
31F
330
21B
100
AcDbEntity
  8
0
  6
Continuous
 62
     7
100
AcDbLine
 10
468.2858448433999
 20
376.8202007781
 30
0.0
 11
454.3741447458
 21
376.6987952106
 31
0.0
  0
LINE
  5
320
330
21B
100
AcDbEntity
  8
0
  6
Continuous
 62
     7
100
AcDbLine
 10
451.875675683
 20
376.6769914014
 30
0.0
 11
440.7346633134999
 21
376.5797652594
 31
0.0
  0
LINE
  5
321
330
21B
100
AcDbEntity
  8
0
  6
Continuous
 62
     7
100
AcDbLine
 10
435.2136640994
 20
376.5315842292
 30
0.0
 11
430.2131816043
 21
376.4879456795
 31
0.0
  0
LINE
  5
322
330
21B
100
AcDbEntity
  8
0
  6
Continuous
 62
     7
100
AcDbLine
 10
414.7426992383
 20
376.3529368253
 30
0.0
 11
411.1274868676999
 21
376.3213873449
 31
0.0
  0
LINE
  5
323
330
21B
100
AcDbEntity
  8
0
  6
Continuous
 62
     7
100
AcDbLine
 10
480.7305022098999
 20
377.1795645958
 30
0.0
 11
480.7479546162999
 21
377.1797169006
 31
0.0
  0
LINE
  5
324
330
21B
100
AcDbEntity
  8
0
  6
Continuous
 62
     7
100
AcDbLine
 10
558.5199146357
 20
377.061843369
 30
0.0
 11
558.1603511621999
 21
377.0589967102
 31
0.0
  0
LINE
  5
325
330
21B
100
AcDbEntity
  8
0
  6
Continuous
 62
     7
100
AcDbLine
 10
680.3984535565
 20
376.3214323888
 30
0.0
 11
680.3715522405
 21
376.3213873449
 31
0.0
  0
LINE
  5
326
330
21B
100
AcDbEntity
  8
0
  6
Continuous
 62
     7
100
AcDbLine
 10
558.1603511621999
 20
377.0589967102
 30
0.0
 11
557.6544659878
 21
377.0575689067
 31
0.0
  0
LINE
  5
327
330
21B
100
AcDbEntity
  8
0
  6
Continuous
 62
     9
100
AcDbLine
 10
474.7495195541
 20
368.5913333083
 30
0.0
 11
531.8645678251999
 21
368.5913333083
 31
0.0
  0
LINE
  5
328
330
21B
100
AcDbEntity
  8
0
  6
Continuous
 62
     9
100
AcDbLine
 10
559.6344711687
 20
368.5913333083
 30
0.0
 11
616.7495195541
 21
368.5913333083
 31
0.0
  0
LINE
  5
329
330
21B
100
AcDbEntity
  8
0
  6
Continuous
 62
     9
100
AcDbLine
 10
480.7669719605999
 20
369.5911810034
 30
0.0
 11
532.0563787208
 21
369.5911810034
 31
0.0
  0
LINE
  5
32A
330
21B
100
AcDbEntity
  8
0
  6
Continuous
 62
     9
100
AcDbLine
 10
559.4423115308
 20
369.5911810034
 30
0.0
 11
615.7669719605999
 21
369.5911810034
 31
0.0
  0
LINE
  5
32B
330
21B
100
AcDbEntity
  8
0
  6
Continuous
 62
     9
100
AcDbLine
 10
480.7669719605999
 20
369.6790655938
 30
0.0
 11
530.5902932978
 21
369.6790655938
 31
0.0
  0
LINE
  5
32C
330
21B
100
AcDbEntity
  8
0
  6
Continuous
 62
     9
100
AcDbLine
 10
560.908960287
 20
369.6790655938
 30
0.0
 11
610.7320671476998
 21
369.6790655938
 31
0.0
  0
LINE
  5
32D
330
21B
100
AcDbEntity
  8
RUNDUNGEN
  6
Continuous
 62
     9
100
AcDbLine
 10
534.0560172321
 20
370.5767640818
 30
0.0
 11
533.2547886216
 21
370.5767640823
 31
0.0
  0
LINE
  5
32E
330
21B
100
AcDbEntity
  8
RUNDUNGEN
  6
Continuous
 62
     9
100
AcDbLine
 10
557.4430218761
 20
370.5767640701
 30
0.0
 11
558.2442504866
 21
370.5767640706
 31
0.0
  0
LINE
  5
32F
330
21B
100
AcDbEntity
  8
0
  6
Continuous
 62
     9
100
AcDbLine
 10
481.7495195541
 20
370.678913289
 30
0.0
 11
530.8192815351999
 21
370.678913289
 31
0.0
  0
LINE
  5
330
330
21B
100
AcDbEntity
  8
RUNDUNGEN
  6
Continuous
 62
     9
100
AcDbLine
 10
530.8192815351999
 20
370.678913289
 30
0.0
 11
531.5519223925
 21
370.678913289
 31
0.0
  0
LINE
  5
331
330
21B
100
AcDbEntity
  8
RUNDUNGEN
  6
Continuous
 62
     9
100
AcDbLine
 10
559.9471167157999
 20
370.678913289
 30
0.0
 11
560.679757573
 21
370.678913289
 31
0.0
  0
LINE
  5
332
330
21B
100
AcDbEntity
  8
0
  6
Continuous
 62
     9
100
AcDbLine
 10
560.679757573
 20
370.678913289
 30
0.0
 11
609.7495195541
 21
370.678913289
 31
0.0
  0
LINE
  5
333
330
21B
100
AcDbEntity
  8
0
  6
Continuous
 62
     7
100
AcDbLine
 10
609.7495195541
 20
375.6962160258999
 30
0.0
 11
560.679757573
 21
375.6962160258999
 31
0.0
  0
LINE
  5
334
330
21B
100
AcDbEntity
  8
RUNDUNGEN
  6
Continuous
 62
     9
100
AcDbLine
 10
560.679757573
 20
375.6962160258999
 30
0.0
 11
559.9471167157999
 21
375.6962160258999
 31
0.0
  0
LINE
  5
335
330
21B
100
AcDbEntity
  8
0
  6
Continuous
 62
     7
100
AcDbLine
 10
530.8192815351999
 20
375.6962160258999
 30
0.0
 11
481.7495195541
 21
375.6962160258999
 31
0.0
  0
LINE
  5
336
330
21B
100
AcDbEntity
  8
RUNDUNGEN
  6
Continuous
 62
     9
100
AcDbLine
 10
557.4430671528999
 20
376.0575587622
 30
0.0
 11
534.055971921
 21
376.0575587622
 31
0.0
  0
LINE
  5
337
330
21B
100
AcDbEntity
  8
0
  6
Continuous
 62
     9
100
AcDbLine
 10
609.7510896951
 20
376.1829428026
 30
0.0
 11
560.6793106484999
 21
376.1829428026
 31
0.0
  0
LINE
  5
338
330
21B
100
AcDbEntity
  8
0
  6
Continuous
 62
     9
100
AcDbLine
 10
530.8197284597
 20
376.1829428026
 30
0.0
 11
481.7479494130999
 21
376.1829428026
 31
0.0
  0
LINE
  5
339
330
21B
100
AcDbEntity
  8
0
  6
Continuous
 62
     7
100
AcDbLine
 10
414.7426992383
 20
376.3212731141
 30
0.0
 11
431.559016155
 21
376.3212731141
 31
0.0
  0
LINE
  5
33A
330
21B
100
AcDbEntity
  8
0
  6
Continuous
 62
     7
100
AcDbLine
 10
659.9400229532
 20
376.3212731141
 30
0.0
 11
676.7563398699
 21
376.3212731141
 31
0.0
  0
LINE
  5
33B
330
21B
100
AcDbEntity
  8
0
  6
Continuous
 62
     9
100
AcDbLine
 10
659.9400229532
 20
376.3212731141
 30
0.0
 11
659.9334786747
 21
376.3213873449
 31
0.0
  0
LINE
  5
33C
330
21B
100
AcDbEntity
  8
0
  6
Continuous
 62
     9
100
AcDbLine
 10
431.5655604336
 20
376.3213873449
 30
0.0
 11
431.559016155
 21
376.3212731141
 31
0.0
  0
LINE
  5
33D
330
21B
100
AcDbEntity
  8
0
  6
Continuous
 62
     7
100
AcDbLine
 10
414.7426992383
 20
376.3529368253
 30
0.0
 11
433.3730289547999
 21
376.3529368253
 31
0.0
  0
LINE
  5
33E
330
21B
100
AcDbEntity
  8
0
  6
Continuous
 62
     7
100
AcDbLine
 10
658.1260101534
 20
376.3529368253
 30
0.0
 11
676.7563398699
 21
376.3529368253
 31
0.0
  0
LINE
  5
33F
330
21B
100
AcDbEntity
  8
0
  6
Continuous
 62
     7
100
AcDbLine
 10
434.8932150941
 20
376.4879456795
 30
0.0
 11
441.1076810355999
 21
376.4879456795
 31
0.0
  0
LINE
  5
340
330
21B
100
AcDbEntity
  8
0
  6
Continuous
 62
     7
100
AcDbLine
 10
650.3913580726
 20
376.4879456795
 30
0.0
 11
656.6058240141
 21
376.4879456795
 31
0.0
  0
LINE
  5
341
330
21B
100
AcDbEntity
  8
0
  6
Continuous
 62
     7
100
AcDbLine
 10
438.2495195541
 20
376.5315842292
 30
0.0
 11
443.6077318691999
 21
376.5315842292
 31
0.0
  0
LINE
  5
342
330
21B
100
AcDbEntity
  8
0
  6
Continuous
 62
     7
100
AcDbLine
 10
647.8913072391
 20
376.5315842292
 30
0.0
 11
656.2853750089
 21
376.5315842292
 31
0.0
  0
LINE
  5
343
330
21B
100
AcDbEntity
  8
0
  6
Continuous
 62
     7
100
AcDbLine
 10
557.6544659878
 20
377.0575689067
 30
0.0
 11
533.8913200161
 21
377.0575587622
 31
0.0
  0
LINE
  5
344
330
21B
100
AcDbEntity
  8
0
  6
Continuous
 62
     7
100
AcDbLine
 10
610.7009572787999
 20
377.1797169006
 30
0.0
 11
560.9125816976
 21
377.1797169006
 31
0.0
  0
LINE
  5
345
330
21B
100
AcDbEntity
  8
0
  6
Continuous
 62
     7
100
AcDbLine
 10
530.5864574106
 20
377.1797169006
 30
0.0
 11
480.7980818294999
 21
377.1797169006
 31
0.0
  0
LINE
  5
346
330
21B
100
AcDbEntity
  8
0
  6
Continuous
 62
     7
100
AcDbLine
 10
411.1005855533999
 20
376.3214323878
 30
0.0
 11
411.1274868676999
 21
376.3213873449
 31
0.0
  0
LINE
  5
347
330
21B
100
AcDbEntity
  8
0
  6
Continuous
 62
     7
100
AcDbLine
 10
533.8913226675999
 20
377.0575564943
 30
0.0
 11
533.4284753380999
 21
377.0585518494
 31
0.0
  0
LINE
  5
348
330
21B
100
AcDbEntity
  8
0
  6
Continuous
 62
     7
100
AcDbLine
 10
610.7685368982999
 20
377.1795645958
 30
0.0
 11
610.7508239347001
 21
377.1796757343
 31
0.0
  0
LINE
  5
349
330
21B
100
AcDbEntity
  8
0
  6
Continuous
 62
     7
100
AcDbLine
 10
623.2131942648
 20
376.8202007781
 30
0.0
 11
637.1248943624999
 21
376.6987952106
 31
0.0
  0
LINE
  5
34A
330
21B
100
AcDbEntity
  8
0
  6
Continuous
 62
     7
100
AcDbLine
 10
639.6233634251999
 20
376.6769914014
 30
0.0
 11
650.7643757947
 21
376.5797652594
 31
0.0
  0
LINE
  5
34B
330
21B
100
AcDbEntity
  8
0
  6
Continuous
 62
     7
100
AcDbLine
 10
656.2853750089
 20
376.5315842292
 30
0.0
 11
661.2858575039
 21
376.4879456795
 31
0.0
  0
LINE
  5
34C
330
21B
100
AcDbEntity
  8
0
  6
Continuous
 62
     7
100
AcDbLine
 10
676.7563398699
 20
376.3529368253
 30
0.0
 11
680.3715522405
 21
376.3213873449
 31
0.0
  0
LINE
  5
34D
330
21B
100
AcDbEntity
  8
0
  6
Continuous
 62
     7
100
AcDbLine
 10
533.4284753380999
 20
377.0585518494
 30
0.0
 11
533.0355463829
 21
377.0612669387
 31
0.0
  0
LINE
  5
34E
330
21B
100
AcDbEntity
  8
0
  6
Continuous
 62
     7
100
AcDbLine
 10
533.0355463829
 20
377.0612669387
 30
0.0
 11
532.7942250744
 21
377.0641644764
 31
0.0
  0
LINE
  5
34F
330
21B
100
AcDbEntity
  8
0
  6
Continuous
 62
     7
100
AcDbLine
 10
615.7669719605999
 20
369.5911810034
 30
0.0
 11
610.7320671476998
 21
369.6790655938
 31
0.0
  0
LINE
  5
350
330
21B
100
AcDbEntity
  8
0
  6
Continuous
 62
     7
100
AcDbLine
 10
532.7942250744
 20
377.0641644764
 30
0.0
 11
532.6020027675999
 21
377.0675651913
 31
0.0
  0
LINE
  5
351
330
21B
100
AcDbEntity
  8
0
  6
Continuous
 62
     7
100
AcDbLine
 10
532.6020027675999
 20
377.0675651913
 30
0.0
 11
532.5019643764
 21
377.0699821719
 31
0.0
  0
LINE
  5
352
330
21B
100
AcDbEntity
  8
0
  6
Continuous
 62
     7
100
AcDbLine
 10
465.6694891173999
 20
368.8652971868
 30
0.0
 11
397.6971656575
 21
370.6452151178
 31
0.0
  0
LINE
  5
353
330
21B
100
AcDbEntity
  8
0
  6
Continuous
 62
     7
100
AcDbLine
 10
530.5864092573
 20
377.1797168793
 30
0.0
 11
530.6454748045999
 21
377.1779737623
 31
0.0
  0
LWPOLYLINE
  5
354
330
21B
100
AcDbEntity
  8
0
  6
Continuous
 62
     7
100
AcDbPolyline
 90
        5
 70
     0
 43
0.0
 10
532.5019643764
 20
377.0699821719
 10
532.4242238546999
 20
377.0724121939
 10
532.3941545077
 20
377.073570931
 10
532.3703948067
 20
377.0746354328
 10
532.3647789558
 20
377.0749141237
  0
LINE
  5
355
330
21B
100
AcDbEntity
  8
0
  6
Continuous
 62
     7
100
AcDbLine
 10
532.3647789558
 20
377.0749141237
 30
0.0
 11
532.3487468478
 21
377.0757958745
 31
0.0
  0
LINE
  5
356
330
21B
100
AcDbEntity
  8
RUNDUNGEN
  6
Continuous
 62
     7
100
AcDbLine
 10
530.6456086445999
 20
377.1779658553
 30
0.0
 11
530.6454748045999
 21
377.1779737623
 31
0.0
  0
LINE
  5
357
330
21B
100
AcDbEntity
  8
RUNDUNGEN
  6
Continuous
 62
     7
100
AcDbLine
 10
532.3493922051
 20
377.0757614131
 30
0.0
 11
532.3487471182
 21
377.0758003073
 31
0.0
  0
LINE
  5
358
330
21B
100
AcDbEntity
  8
0
  6
Continuous
 62
     7
100
AcDbLine
 10
532.3493922051
 20
377.0757614131
 30
0.0
 11
530.6456277808999
 21
377.1779647995
 31
0.0
  0
LINE
  5
359
330
21B
100
AcDbEntity
  8
0
  6
Continuous
 62
     7
100
AcDbLine
 10
440.7346633134999
 20
376.5797652594
 30
0.0
 11
438.2495195541
 21
376.7971871656
 31
0.0
  0
LINE
  5
35A
330
21B
100
AcDbEntity
  8
0
  6
Continuous
 62
     7
100
AcDbLine
 10
454.3741447458
 20
376.6987952106
 30
0.0
 11
453.2495195541001
 21
376.7971871656
 31
0.0
  0
LINE
  5
35B
330
21B
100
AcDbEntity
  8
0
  6
Continuous
 62
     7
100
AcDbLine
 10
609.7495195541
 20
370.678913289
 30
0.0
 11
609.7495195541
 21
375.6962160258999
 31
0.0
  0
LINE
  5
35C
330
21B
100
AcDbEntity
  8
0
  6
Continuous
 62
     7
100
AcDbLine
 10
613.8353994342
 20
383.4962160259
 30
0.0
 11
613.8353994342
 21
384.4962160258999
 31
0.0
  0
LINE
  5
35D
330
21B
100
AcDbEntity
  8
0
  6
Continuous
 62
     7
100
AcDbLine
 10
614.2609312982999
 20
383.4962160259
 30
0.0
 11
614.2609312982999
 21
384.4962160258999
 31
0.0
  0
LINE
  5
360
330
21B
100
AcDbEntity
  8
0
  6
Continuous
 62
     7
100
AcDbLine
 10
616.5703324439
 20
383.4962160259
 30
0.0
 11
616.5703324439
 21
384.4962160258999
 31
0.0
  0
LINE
  5
361
330
21B
100
AcDbEntity
  8
0
  6
Continuous
 62
     7
100
AcDbLine
 10
616.7495195541
 20
359.5567278344999
 30
0.0
 11
616.7495195541
 21
368.5913333083
 31
0.0
  0
LINE
  5
362
330
21B
100
AcDbEntity
  8
0
  6
Continuous
 62
     7
100
AcDbLine
 10
609.5016929924
 20
298.8726555374
 30
0.0
 11
609.6907276095
 21
357.4713474476999
 31
0.0
  0
LINE
  5
363
330
21B
100
AcDbEntity
  8
0
  6
Continuous
 62
     7
100
AcDbLine
 10
609.7495195541
 20
375.6962160258999
 30
0.0
 11
609.7510896951
 21
376.1829428026
 31
0.0
  0
LINE
  5
364
330
21B
100
AcDbEntity
  8
0
  6
Continuous
 62
     7
100
AcDbLine
 10
616.5343707943
 20
333.7311155163
 30
0.0
 11
615.3061652352
 21
298.5599100416
 31
0.0
  0
LINE
  5
365
330
21B
100
AcDbEntity
  8
0
  6
Continuous
 62
     7
100
AcDbLine
 10
600.0142169679
 20
278.3125626913
 30
0.0
 11
609.2094644551999
 21
297.5907999528
 31
0.0
  0
LINE
  5
366
330
21B
100
AcDbEntity
  8
0
  6
Continuous
 62
     7
100
AcDbLine
 10
451.875675683
 20
376.6769914014
 30
0.0
 11
453.2495195541001
 21
376.7971871656
 31
0.0
  0
LINE
  5
367
330
21B
100
AcDbEntity
  8
0
  6
Continuous
 62
     7
100
AcDbLine
 10
435.2136640994
 20
376.5315842292
 30
0.0
 11
438.2495195541
 21
376.7971871656
 31
0.0
  0
LINE
  5
368
330
21B
100
AcDbEntity
  8
0
  6
Continuous
 62
     7
100
AcDbLine
 10
414.7426992383
 20
376.3529368253
 30
0.0
 11
423.2495195541
 21
377.0971871656
 31
0.0
  0
LINE
  5
369
330
21B
100
AcDbEntity
  8
0
  6
Continuous
 62
     7
100
AcDbLine
 10
397.7146147412
 20
375.7305168899
 30
0.0
 11
480.7305022098999
 21
377.1795645958
 31
0.0
  0
LINE
  5
36A
330
21B
100
AcDbEntity
  8
0
  6
Continuous
 62
     7
100
AcDbLine
 10
683.7744515352999
 20
383.4962160259
 30
0.0
 11
622.7495195541
 21
383.4962160259
 31
0.0
  0
LINE
  5
36B
330
21B
100
AcDbEntity
  8
0
  6
Continuous
 62
     7
100
AcDbLine
 10
407.724587573
 20
383.4962160259
 30
0.0
 11
622.6359431051999
 21
383.4962160259
 31
0.0
  0
LINE
  5
36C
330
21B
100
AcDbEntity
  8
0
  6
Continuous
 62
     9
100
AcDbLine
 10
441.1928114083
 20
384.4962160258999
 30
0.0
 11
460.0949244408999
 21
384.4962160258999
 31
0.0
  0
LINE
  5
36D
330
21B
100
AcDbEntity
  8
0
  6
Continuous
 62
     7
100
AcDbLine
 10
480.3213163237999
 20
384.4962160258999
 30
0.0
 11
502.2495195541
 21
384.4962160258999
 31
0.0
  0
LINE
  5
36E
330
21B
100
AcDbEntity
  8
0
  6
Continuous
 62
     9
100
AcDbLine
 10
537.2495195541
 20
384.4962160258999
 30
0.0
 11
554.2495195541
 21
384.4962160258999
 31
0.0
  0
LINE
  5
36F
330
21B
100
AcDbEntity
  8
0
  6
Continuous
 62
     7
100
AcDbLine
 10
613.8353994342
 20
384.4962160258999
 30
0.0
 11
621.0108259835
 21
384.4962160258999
 31
0.0
  0
LINE
  5
370
330
21B
100
AcDbEntity
  8
0
  6
Continuous
 62
     7
100
AcDbLine
 10
622.6359431051999
 20
384.4962160258999
 30
0.0
 11
631.4041146673
 21
384.4962160258999
 31
0.0
  0
LINE
  5
371
330
21B
100
AcDbEntity
  8
0
  6
Continuous
 62
     9
100
AcDbLine
 10
631.4041146674
 20
384.4962160258999
 30
0.0
 11
650.3062276998999
 21
384.4962160258999
 31
0.0
  0
LINE
  5
372
330
21B
100
AcDbEntity
  8
0
  6
Continuous
 62
     7
100
AcDbLine
 10
650.3062276998999
 20
384.4962160258999
 30
0.0
 11
660.3373572933999
 21
384.4962160258999
 31
0.0
  0
LINE
  5
373
330
21B
100
AcDbEntity
  8
02___PRT_ALL_AXES
  6
Continuous
 62
     7
100
AcDbLine
 10
441.1926282824
 20
385.4962160259
 30
0.0
 11
460.0951075668
 21
385.4962160259
 31
0.0
  0
LINE
  5
374
330
21B
100
AcDbEntity
  8
0
  6
Continuous
 62
     7
100
AcDbLine
 10
537.2495195541
 20
385.4962160259
 30
0.0
 11
554.2495195541
 21
385.4962160259
 31
0.0
  0
LINE
  5
375
330
21B
100
AcDbEntity
  8
02___PRT_ALL_AXES
  6
Continuous
 62
     7
100
AcDbLine
 10
631.4039315415
 20
385.4962160259
 30
0.0
 11
650.3064108258
 21
385.4962160259
 31
0.0
  0
LINE
  5
376
330
21B
100
AcDbEntity
  8
0
  6
Continuous
 62
     7
100
AcDbLine
 10
442.6438679245999
 20
387.0962160259
 30
0.0
 11
458.6438679246
 21
387.0962160259
 31
0.0
  0
LINE
  5
377
330
21B
100
AcDbEntity
  8
0
  6
Continuous
 62
     7
100
AcDbLine
 10
537.7495195541
 20
387.0962160259
 30
0.0
 11
553.7495195541001
 21
387.0962160259
 31
0.0
  0
LINE
  5
378
330
21B
100
AcDbEntity
  8
0
  6
Continuous
 62
     7
100
AcDbLine
 10
632.8551711835999
 20
387.0962160259
 30
0.0
 11
648.8551711836
 21
387.0962160259
 31
0.0
  0
LINE
  5
379
330
21B
100
AcDbEntity
  8
0
  6
Continuous
 62
     7
100
AcDbLine
 10
443.9939054506999
 20
387.2462160259
 30
0.0
 11
457.2938303985
 21
387.2462160259
 31
0.0
  0
LINE
  5
37A
330
21B
100
AcDbEntity
  8
0
  6
Continuous
 62
     7
100
AcDbLine
 10
539.2495195541
 20
387.2462160259
 30
0.0
 11
552.2495195541
 21
387.2462160259
 31
0.0
  0
LINE
  5
37B
330
21B
100
AcDbEntity
  8
0
  6
Continuous
 62
     7
100
AcDbLine
 10
634.2052087097
 20
387.2462160259
 30
0.0
 11
647.5051336576
 21
387.2462160259
 31
0.0
  0
LINE
  5
37C
330
21B
100
AcDbEntity
  8
0
  6
Continuous
 62
     7
100
AcDbLine
 10
442.6438679245999
 20
388.6962160259
 30
0.0
 11
458.6438679246
 21
388.6962160259
 31
0.0
  0
LINE
  5
37D
330
21B
100
AcDbEntity
  8
0
  6
Continuous
 62
     7
100
AcDbLine
 10
537.7495195541
 20
388.6962160259
 30
0.0
 11
553.7495195541001
 21
388.6962160259
 31
0.0
  0
LINE
  5
37E
330
21B
100
AcDbEntity
  8
0
  6
Continuous
 62
     7
100
AcDbLine
 10
632.8551711835999
 20
388.6962160259
 30
0.0
 11
648.8551711836
 21
388.6962160259
 31
0.0
  0
LINE
  5
37F
330
21B
100
AcDbEntity
  8
0
  6
Continuous
 62
     7
100
AcDbLine
 10
693.7844243669999
 20
375.7305168899
 30
0.0
 11
610.7685368982999
 21
377.1795645958
 31
0.0
  0
LINE
  5
380
330
21B
100
AcDbEntity
  8
0
  6
Continuous
 62
     7
100
AcDbLine
 10
639.6233634251999
 20
376.6769914014
 30
0.0
 11
638.2495195541
 21
376.7971871656
 31
0.0
  0
LINE
  5
381
330
21B
100
AcDbEntity
  8
0
  6
Continuous
 62
     7
100
AcDbLine
 10
656.2853750089
 20
376.5315842292
 30
0.0
 11
653.2495195541001
 21
376.7971871656
 31
0.0
  0
LINE
  5
382
330
21B
100
AcDbEntity
  8
0
  6
Continuous
 62
     7
100
AcDbLine
 10
676.7563398699
 20
376.3529368253
 30
0.0
 11
668.2495195541
 21
377.0971871656
 31
0.0
  0
LINE
  5
383
330
21B
100
AcDbEntity
  8
0
  6
Continuous
 62
     7
100
AcDbLine
 10
622.7495195541
 20
383.4962160259
 30
0.0
 11
623.2131942648
 21
376.8202007781
 31
0.0
  0
LINE
  5
384
330
21B
100
AcDbEntity
  8
0
  6
Continuous
 62
     7
100
AcDbLine
 10
620.1448005797
 20
383.4962160259
 30
0.0
 11
620.1448005797
 21
384.4962160258999
 31
0.0
  0
LINE
  5
385
330
21B
100
AcDbEntity
  8
0
  6
Continuous
 62
     7
100
AcDbLine
 10
621.0108259835
 20
383.4962160259
 30
0.0
 11
621.0108259835
 21
384.4962160258999
 31
0.0
  0
LINE
  5
386
330
21B
100
AcDbEntity
  8
0
  6
Continuous
 62
     7
100
AcDbLine
 10
622.6359431051999
 20
383.4962160259
 30
0.0
 11
622.6359431051999
 21
384.4962160258999
 31
0.0
  0
LINE
  5
387
330
21B
100
AcDbEntity
  8
0
  6
Continuous
 62
     7
100
AcDbLine
 10
622.746924794
 20
383.4962160259
 30
0.0
 11
622.746924794
 21
384.4962160258999
 31
0.0
  0
LINE
  5
388
330
21B
100
AcDbEntity
  8
0
  6
Continuous
 62
     7
100
AcDbLine
 10
622.9430124427999
 20
383.4962160259
 30
0.0
 11
622.9430124427999
 21
384.4962160258999
 31
0.0
  0
LINE
  5
389
330
21B
100
AcDbEntity
  8
0
  6
Continuous
 62
     7
100
AcDbLine
 10
623.2834380533001
 20
383.4962160259
 30
0.0
 11
623.2834380533001
 21
384.4962160258999
 31
0.0
  0
LINE
  5
38A
330
21B
100
AcDbEntity
  8
0
  6
Continuous
 62
     7
100
AcDbLine
 10
624.1678579949999
 20
383.4962160259
 30
0.0
 11
624.1678579949999
 21
384.4962160258999
 31
0.0
  0
LINE
  5
38B
330
21B
100
AcDbEntity
  8
0
  6
Continuous
 62
     7
100
AcDbLine
 10
624.7118520026
 20
383.4962160259
 30
0.0
 11
624.7118520026
 21
384.4962160258999
 31
0.0
  0
LINE
  5
38C
330
21B
100
AcDbEntity
  8
0
  6
Continuous
 62
     7
100
AcDbLine
 10
625.1707404484
 20
383.4962160259
 30
0.0
 11
625.1707404484
 21
384.4962160258999
 31
0.0
  0
LINE
  5
38D
330
21B
100
AcDbEntity
  8
0
  6
Continuous
 62
     7
100
AcDbLine
 10
625.5445216879
 20
383.4962160259
 30
0.0
 11
625.5445216879
 21
384.4962160258999
 31
0.0
  0
LINE
  5
38E
330
21B
100
AcDbEntity
  8
0
  6
Continuous
 62
     7
100
AcDbLine
 10
626.2069786126999
 20
383.4962160259
 30
0.0
 11
626.2069786126999
 21
384.4962160258999
 31
0.0
  0
LINE
  5
38F
330
21B
100
AcDbEntity
  8
0
  6
Continuous
 62
     7
100
AcDbLine
 10
627.3616788758
 20
383.4962160259
 30
0.0
 11
627.3616788758
 21
384.4962160258999
 31
0.0
  0
LINE
  5
390
330
21B
100
AcDbEntity
  8
0
  6
Continuous
 62
     7
100
AcDbLine
 10
627.85392304
 20
383.4962160259
 30
0.0
 11
627.85392304
 21
384.4962160258999
 31
0.0
  0
LINE
  5
391
330
21B
100
AcDbEntity
  8
0
  6
Continuous
 62
     7
100
AcDbLine
 10
628.0574915189999
 20
383.4962160259
 30
0.0
 11
628.0574915189999
 21
384.4962160258999
 31
0.0
  0
LINE
  5
392
330
21B
100
AcDbEntity
  8
0
  6
Continuous
 62
     7
100
AcDbLine
 10
628.1759536176999
 20
383.4962160259
 30
0.0
 11
628.1759536176999
 21
384.4962160258999
 31
0.0
  0
LINE
  5
393
330
21B
100
AcDbEntity
  8
0
  6
Continuous
 62
     7
100
AcDbLine
 10
628.2093101545999
 20
383.4962160259
 30
0.0
 11
628.2093101545999
 21
384.4962160258999
 31
0.0
  0
LINE
  5
394
330
21B
100
AcDbEntity
  8
0
  6
Continuous
 62
     7
100
AcDbLine
 10
618.1312340143001
 20
350.8143163216
 30
0.0
 11
617.9148358463
 21
344.6174835716
 31
0.0
  0
LINE
  5
395
330
21B
100
AcDbEntity
  8
0
  6
Continuous
 62
     7
100
AcDbLine
 10
622.5757071558
 20
356.4007535222
 30
0.0
 11
622.9099083547001
 21
365.9710237019
 31
0.0
  0
LINE
  5
396
330
21B
100
AcDbEntity
  8
0
  6
Continuous
 62
     7
100
AcDbLine
 10
614.8221080294
 20
296.5817315156
 30
0.0
 11
601.0057266590999
 21
267.6150855911
 31
0.0
  0
LINE
  5
397
330
21B
100
AcDbEntity
  8
0
  6
Continuous
 62
     7
100
AcDbLine
 10
442.6438679245999
 20
398.6962160258999
 30
0.0
 11
458.6438679246
 21
398.6962160258999
 31
0.0
  0
LINE
  5
398
330
21B
100
AcDbEntity
  8
0
  6
Continuous
 62
     7
100
AcDbLine
 10
537.7495195541
 20
398.6962160258999
 30
0.0
 11
553.7495195541001
 21
398.6962160258999
 31
0.0
  0
LINE
  5
399
330
21B
100
AcDbEntity
  8
0
  6
Continuous
 62
     7
100
AcDbLine
 10
632.8551711835999
 20
398.6962160258999
 30
0.0
 11
648.8551711836
 21
398.6962160258999
 31
0.0
  0
LINE
  5
39A
330
21B
100
AcDbEntity
  8
0
  6
Continuous
 62
     7
100
AcDbLine
 10
631.4041146673
 20
384.4962160258999
 30
0.0
 11
631.4041146673
 21
385.4962160259
 31
0.0
  0
LINE
  5
39B
330
21B
100
AcDbEntity
  8
0
  6
Continuous
 62
     7
100
AcDbLine
 10
632.8551711835999
 20
385.4962160259
 30
0.0
 11
632.8551711835999
 21
387.0962160259
 31
0.0
  0
LINE
  5
39C
330
21B
100
AcDbEntity
  8
0
  6
Continuous
 62
     7
100
AcDbLine
 10
632.8551711835999
 20
388.6962160259
 30
0.0
 11
632.8551711835999
 21
398.6962160258999
 31
0.0
  0
LINE
  5
39D
330
21B
100
AcDbEntity
  8
0
  6
Continuous
 62
     7
100
AcDbLine
 10
633.7169656196
 20
388.1017695253
 30
0.0
 11
633.7169656196
 21
388.6962160259
 31
0.0
  0
LINE
  5
39E
330
21B
100
AcDbEntity
  8
0
  6
Continuous
 62
     7
100
AcDbLine
 10
633.8551711835999
 20
398.6962160258999
 30
0.0
 11
633.8551711835999
 21
406.6962160259
 31
0.0
  0
LINE
  5
39F
330
21B
100
AcDbEntity
  8
0
  6
Continuous
 62
     7
100
AcDbLine
 10
635.0551711836
 20
387.2462160259
 30
0.0
 11
635.0551711836
 21
387.0962160259
 31
0.0
  0
LINE
  5
3A0
330
21B
100
AcDbEntity
  8
0
  6
Continuous
 62
     7
100
AcDbLine
 10
639.294678865
 20
388.1017695253
 30
0.0
 11
639.294678865
 21
388.6962160259
 31
0.0
  0
LINE
  5
3A1
330
21B
100
AcDbEntity
  8
0
  6
Continuous
 62
     7
100
AcDbLine
 10
443.6438679245999
 20
406.6962160259
 30
0.0
 11
457.6438679246
 21
406.6962160259
 31
0.0
  0
LINE
  5
3A2
330
21B
100
AcDbEntity
  8
0
  6
Continuous
 62
     7
100
AcDbLine
 10
538.7495195541
 20
406.6962160259
 30
0.0
 11
552.7495195541
 21
406.6962160259
 31
0.0
  0
LINE
  5
3A3
330
21B
100
AcDbEntity
  8
0
  6
Continuous
 62
     7
100
AcDbLine
 10
633.8551711835999
 20
406.6962160259
 30
0.0
 11
647.8551711835999
 21
406.6962160259
 31
0.0
  0
LINE
  5
3A4
330
21B
100
AcDbEntity
  8
0
  6
Continuous
 62
     9
100
AcDbLine
 10
642.5307591194999
 20
384.4962160258999
 30
0.0
 11
642.5307591194999
 21
385.4962160259
 31
0.0
  0
LINE
  5
3A5
330
21B
100
AcDbEntity
  8
0
  6
Continuous
 62
     9
100
AcDbLine
 10
644.4328721520999
 20
384.4962160258999
 30
0.0
 11
644.4328721520999
 21
385.4962160259
 31
0.0
  0
LINE
  5
3A6
330
21B
100
AcDbEntity
  8
0
  6
Continuous
 62
     7
100
AcDbLine
 10
646.4328844290999
 20
388.1017695253
 30
0.0
 11
646.4328844290999
 21
388.6962160259
 31
0.0
  0
LINE
  5
3A7
330
21B
100
AcDbEntity
  8
0
  6
Continuous
 62
     7
100
AcDbLine
 10
646.6551711836
 20
387.2462160259
 30
0.0
 11
646.6551711836
 21
387.0962160259
 31
0.0
  0
LINE
  5
3A8
330
21B
100
AcDbEntity
  8
0
  6
Continuous
 62
     7
100
AcDbLine
 10
647.8551711835999
 20
398.6962160258999
 30
0.0
 11
647.8551711835999
 21
406.6962160259
 31
0.0
  0
LINE
  5
3A9
330
21B
100
AcDbEntity
  8
0
  6
Continuous
 62
     7
100
AcDbLine
 10
647.9933767476999
 20
388.1017695253
 30
0.0
 11
647.9933767476999
 21
388.6962160259
 31
0.0
  0
LINE
  5
3AA
330
21B
100
AcDbEntity
  8
0
  6
Continuous
 62
     7
100
AcDbLine
 10
648.8551711836
 20
385.4962160259
 30
0.0
 11
648.8551711836
 21
387.0962160259
 31
0.0
  0
LINE
  5
3AB
330
21B
100
AcDbEntity
  8
0
  6
Continuous
 62
     7
100
AcDbLine
 10
648.8551711836
 20
388.6962160259
 30
0.0
 11
648.8551711836
 21
398.6962160258999
 31
0.0
  0
LINE
  5
3AC
330
21B
100
AcDbEntity
  8
0
  6
Continuous
 62
     7
100
AcDbLine
 10
650.3062276998999
 20
384.4962160258999
 30
0.0
 11
650.3062276998999
 21
385.4962160259
 31
0.0
  0
LINE
  5
3AD
330
21B
100
AcDbEntity
  8
0
  6
Continuous
 62
     7
100
AcDbLine
 10
650.3780651498999
 20
384.1276531782
 30
0.0
 11
650.3780651498999
 21
384.4962160258999
 31
0.0
  0
LINE
  5
3AE
330
21B
100
AcDbEntity
  8
0
  6
Continuous
 62
     7
100
AcDbLine
 10
651.0663970000999
 20
383.4962160259
 30
0.0
 11
651.0663970000999
 21
384.4962160258999
 31
0.0
  0
LINE
  5
3AF
330
21B
100
AcDbEntity
  8
0
  6
Continuous
 62
     7
100
AcDbLine
 10
651.66962247
 20
383.4962160259
 30
0.0
 11
651.66962247
 21
384.4962160258999
 31
0.0
  0
LINE
  5
3B0
330
21B
100
AcDbEntity
  8
0
  6
Continuous
 62
     7
100
AcDbLine
 10
652.3320769169999
 20
383.4962160259
 30
0.0
 11
652.3320769169999
 21
384.4962160258999
 31
0.0
  0
LINE
  5
3B1
330
21B
100
AcDbEntity
  8
0
  6
Continuous
 62
     7
100
AcDbLine
 10
653.1981023208
 20
383.4962160259
 30
0.0
 11
653.1981023208
 21
384.4962160258999
 31
0.0
  0
LINE
  5
3B2
330
21B
100
AcDbEntity
  8
0
  6
Continuous
 62
     7
100
AcDbLine
 10
653.6903473108999
 20
383.4962160259
 30
0.0
 11
653.6903473108999
 21
384.4962160258999
 31
0.0
  0
LINE
  5
3B3
330
21B
100
AcDbEntity
  8
0
  6
Continuous
 62
     7
100
AcDbLine
 10
653.893914964
 20
383.4962160259
 30
0.0
 11
653.893914964
 21
384.4962160258999
 31
0.0
  0
LINE
  5
3B4
330
21B
100
AcDbEntity
  8
0
  6
Continuous
 62
     7
100
AcDbLine
 10
654.0123795404999
 20
383.4962160259
 30
0.0
 11
654.0123795404999
 21
384.4962160258999
 31
0.0
  0
LINE
  5
3B5
330
21B
100
AcDbEntity
  8
0
  6
Continuous
 62
     7
100
AcDbLine
 10
654.4971404264999
 20
383.4962160259
 30
0.0
 11
654.4971404264999
 21
384.4962160258999
 31
0.0
  0
LINE
  5
3B6
330
21B
100
AcDbEntity
  8
0
  6
Continuous
 62
     7
100
AcDbLine
 10
655.2188304654
 20
383.4962160259
 30
0.0
 11
655.2188304654
 21
384.4962160258999
 31
0.0
  0
LINE
  5
3B7
330
21B
100
AcDbEntity
  8
0
  6
Continuous
 62
     7
100
AcDbLine
 10
655.6668047235
 20
383.4962160259
 30
0.0
 11
655.6668047235
 21
384.4962160258999
 31
0.0
  0
LINE
  5
3B8
330
21B
100
AcDbEntity
  8
0
  6
Continuous
 62
     7
100
AcDbLine
 10
656.2959043079001
 20
383.4962160259
 30
0.0
 11
656.2959043079001
 21
384.4962160258999
 31
0.0
  0
LINE
  5
3B9
330
21B
100
AcDbEntity
  8
0
  6
Continuous
 62
     7
100
AcDbLine
 10
656.7547911166999
 20
383.4962160259
 30
0.0
 11
656.7547911166999
 21
384.4962160258999
 31
0.0
  0
LINE
  5
3BA
330
21B
100
AcDbEntity
  8
0
  6
Continuous
 62
     7
100
AcDbLine
 10
657.3580165792
 20
383.4962160259
 30
0.0
 11
657.3580165792
 21
384.4962160258999
 31
0.0
  0
LINE
  5
3BB
330
21B
100
AcDbEntity
  8
0
  6
Continuous
 62
     7
100
AcDbLine
 10
657.8761356613999
 20
383.4962160259
 30
0.0
 11
657.8761356613999
 21
384.4962160258999
 31
0.0
  0
LINE
  5
3BC
330
21B
100
AcDbEntity
  8
0
  6
Continuous
 62
     7
100
AcDbLine
 10
658.8272674454
 20
383.4962160259
 30
0.0
 11
658.8272674454
 21
384.4962160258999
 31
0.0
  0
LINE
  5
3BD
330
21B
100
AcDbEntity
  8
0
  6
Continuous
 62
     7
100
AcDbLine
 10
659.7525251373999
 20
383.4962160259
 30
0.0
 11
659.7525251373999
 21
384.4962160258999
 31
0.0
  0
LINE
  5
3BE
330
21B
100
AcDbEntity
  8
0
  6
Continuous
 62
     7
100
AcDbLine
 10
660.1596637398
 20
383.4962160259
 30
0.0
 11
660.1596637398
 21
384.4962160258999
 31
0.0
  0
LINE
  5
3BF
330
21B
100
AcDbEntity
  8
0
  6
Continuous
 62
     7
100
AcDbLine
 10
660.3373572933999
 20
383.4962160259
 30
0.0
 11
660.3373572933999
 21
384.4962160258999
 31
0.0
  0
LINE
  5
3C0
330
21B
100
AcDbEntity
  8
0
  6
Continuous
 62
     7
100
AcDbLine
 10
680.7495195541
 20
230.1962160259
 30
0.0
 11
680.7495195541
 21
340.1962160259
 31
0.0
  0
LINE
  5
3C1
330
21B
100
AcDbEntity
  8
0
  6
Continuous
 62
     7
100
AcDbLine
 10
683.7744515352999
 20
383.4962160259
 30
0.0
 11
683.3863159412999
 21
379.0598058858
 31
0.0
  0
LINE
  5
3C2
330
21B
100
AcDbEntity
  8
0
  6
Continuous
 62
     7
100
AcDbLine
 10
695.7495195541
 20
372.6445297676999
 30
0.0
 11
695.7495195541
 21
373.7308214996
 31
0.0
  0
ARC
  5
3C3
330
21B
100
AcDbEntity
  8
RUNDUNGEN
  6
Continuous
 62
     9
100
AcDbCircle
 10
-3208.8065732029
 20
2109.6314788958
 30
0.0
 40
4232.5281866582
100
AcDbArc
 50
334.1903702047
 51
334.6082558449
  0
ARC
  5
3C4
330
21B
100
AcDbEntity
  8
RUNDUNGEN
  6
Continuous
 62
     9
100
AcDbCircle
 10
-239.5808163336
 20
620.7082565277
 30
0.0
 40
815.9317157771999
100
AcDbArc
 50
340.9211158772
 51
341.1836077215
  0
ARC
  5
3C5
330
21B
100
AcDbEntity
  8
RUNDUNGEN
  6
Continuous
 62
     9
100
AcDbCircle
 10
-141.9315168511
 20
590.4312245866
 30
0.0
 40
714.7971463922
100
AcDbArc
 50
340.5943059142
 51
340.9201572669
  0
ARC
  5
3C6
330
21B
100
AcDbEntity
  8
0
  6
Continuous
 62
     7
100
AcDbCircle
 10
510.2495195541
 20
240.1962160259
 30
0.0
 40
10.0
100
AcDbArc
 50
180.0
 51
270.0
  0
ARC
  5
3C7
330
21B
100
AcDbEntity
  8
RUNDUNGEN
  6
Continuous
 62
     9
100
AcDbCircle
 10
610.0679690104
 20
298.9757638746
 30
0.0
 40
7.054031606599999
100
AcDbArc
 50
335.1753663586
 51
358.3352761234
  0
ARC
  5
3C8
330
21B
100
AcDbEntity
  8
RUNDUNGEN
  6
Continuous
 62
     9
100
AcDbCircle
 10
610.3254622171999
 20
298.7001805870999
 30
0.0
 40
5.796777333799999
100
AcDbArc
 50
334.7349941659
 51
358.3324915794
  0
ARC
  5
3C9
330
21B
100
AcDbEntity
  8
0
  6
Continuous
 62
     7
100
AcDbCircle
 10
610.3089066295999
 20
298.7344181574
 30
0.0
 40
5.000304656099999
100
AcDbArc
 50
334.5
 51
358.0
  0
ARC
  5
3CA
330
21B
100
AcDbEntity
  8
0
  6
Continuous
 62
     7
100
AcDbCircle
 10
481.1901324785999
 20
298.7344181574
 30
0.0
 40
5.0
100
AcDbArc
 50
182.0
 51
205.5
  0
ARC
  5
3CB
330
21B
100
AcDbEntity
  8
0
  6
Continuous
 62
     7
100
AcDbCircle
 10
510.2495195541
 20
240.1962160259
 30
0.0
 40
4.5
100
AcDbArc
 50
180.0
 51
270.0
  0
ARC
  5
3CC
330
21B
100
AcDbEntity
  8
0
  6
Continuous
 62
     7
100
AcDbCircle
 10
492.688893844
 20
269.9811226247
 30
0.0
 40
3.0
100
AcDbArc
 50
205.5
 51
267.0
  0
ARC
  5
3CD
330
21B
100
AcDbEntity
  8
0
  6
Continuous
 62
     7
100
AcDbCircle
 10
497.2495195541
 20
263.7338762831
 30
0.0
 40
3.0
100
AcDbArc
 50
0.0
 51
87.0
  0
ARC
  5
3CE
330
21B
100
AcDbEntity
  8
0
  6
Continuous
 62
     7
100
AcDbCircle
 10
484.9973305060999
 20
298.8823332432
 30
0.0
 40
3.0
100
AcDbArc
 50
180.1848308864
 51
205.5
  0
ARC
  5
3CF
330
21B
100
AcDbEntity
  8
0
  6
Continuous
 62
     7
100
AcDbCircle
 10
606.5017086020999
 20
298.8823332432
 30
0.0
 40
3.0
100
AcDbArc
 50
334.5
 51
359.8151691136
  0
ARC
  5
3D0
330
21B
100
AcDbEntity
  8
RUNDUNGEN
  6
Continuous
 62
     9
100
AcDbCircle
 10
533.4661911568999
 20
299.8714106642
 30
0.0
 40
1.9672192055
100
AcDbArc
 50
268.9360355303
 51
269.9998670634
  0
ARC
  5
3D1
330
21B
100
AcDbEntity
  8
RUNDUNGEN
  6
Continuous
 62
     9
100
AcDbCircle
 10
558.0328507201999
 20
299.8711124893
 30
0.0
 40
1.9669210306
100
AcDbArc
 50
270.0000522993
 51
271.0640451089
  0
ARC
  5
3D2
330
21B
100
AcDbEntity
  8
RUNDUNGEN
  6
Continuous
 62
     9
100
AcDbCircle
 10
593.0035458475999
 20
264.9162611816
 30
0.0
 40
1.0002207534
100
AcDbArc
 50
93.02012981409999
 51
179.9798701859
  0
ARC
  5
3D3
330
21B
100
AcDbEntity
  8
0
  6
Continuous
 62
     7
100
AcDbCircle
 10
592.2500237656
 20
265.631328315
 30
0.0
 40
1.000188570099999
100
AcDbArc
 50
93.00257296379999
 51
179.9975101828
  0
ARC
  5
3D4
330
21B
100
AcDbEntity
  8
0
  6
Continuous
 62
     7
100
AcDbCircle
 10
506.7496047315
 20
257.6794161541
 30
0.0
 40
1.0000793634
100
AcDbArc
 50
90.0046630543
 51
180.0044705671
  0
ARC
  5
3D5
330
21B
100
AcDbEntity
  8
0
  6
Continuous
 62
     7
100
AcDbCircle
 10
514.7494430317
 20
259.6795566997
 30
0.0
 40
1.000071749099999
100
AcDbArc
 50
270.0046724252
 51
0.0049239787
  0
ARC
  5
3D6
330
21B
100
AcDbEntity
  8
0
  6
Continuous
 62
     7
100
AcDbCircle
 10
599.1116316835999
 20
278.7430737881
 30
0.0
 40
1.0
100
AcDbArc
 50
273.0
 51
334.5
  0
ARC
  5
3D7
330
21B
100
AcDbEntity
  8
0
  6
Continuous
 62
     7
100
AcDbCircle
 10
492.3874074247
 20
278.7430737881
 30
0.0
 40
1.0
100
AcDbArc
 50
205.5
 51
267.0
  0
ARC
  5
3D8
330
21B
100
AcDbEntity
  8
0
  6
Continuous
 62
     7
100
AcDbCircle
 10
582.2495195541001
 20
265.8931006338
 30
0.0
 40
1.0
100
AcDbArc
 50
270.9999999994
 51
360.0
  0
ARC
  5
3D9
330
21B
100
AcDbEntity
  8
0
  6
Continuous
 62
     7
100
AcDbCircle
 10
509.2495195541
 20
265.8931006338
 30
0.0
 40
1.0
100
AcDbArc
 50
180.0
 51
269.0
  0
ARC
  5
3DA
330
21B
100
AcDbEntity
  8
0
  6
Continuous
 62
     7
100
AcDbCircle
 10
576.7495195541
 20
263.7967931206
 30
0.0
 40
1.0
100
AcDbArc
 50
91.0
 51
180.0
  0
ARC
  5
3DB
330
21B
100
AcDbEntity
  8
0
  6
Continuous
 62
     7
100
AcDbCircle
 10
514.7495195541
 20
263.7967931206
 30
0.0
 40
1.0
100
AcDbArc
 50
0.0
 51
89.0
  0
ARC
  5
3DC
330
21B
100
AcDbEntity
  8
0
  6
Continuous
 62
     7
100
AcDbCircle
 10
507.2495195541001
 20
275.9614388039
 30
0.0
 40
1.0
100
AcDbArc
 50
0.0
 51
87.0
  0
ARC
  5
3DD
330
21B
100
AcDbEntity
  8
0
  6
Continuous
 62
     7
100
AcDbCircle
 10
584.2495195541
 20
275.9614388039
 30
0.0
 40
1.0
100
AcDbArc
 50
93.0
 51
180.0
  0
ARC
  5
3DE
330
21B
100
AcDbEntity
  8
0
  6
Continuous
 62
     7
100
AcDbCircle
 10
576.7495195455
 20
259.6791856683
 30
0.0
 40
0.9999999801999999
100
AcDbArc
 50
180.0000003453
 51
269.9999936238
  0
ARC
  5
3DF
330
21B
100
AcDbEntity
  8
0
  6
Continuous
 62
     7
100
AcDbCircle
 10
600.1036217769999
 20
268.0453002599
 30
0.0
 40
0.9994255498000001
100
AcDbArc
 50
272.9964065327
 51
334.5034817623
  0
ARC
  5
3E0
330
21B
100
AcDbEntity
  8
0
  6
Continuous
 62
     7
100
AcDbCircle
 10
590.2504545312999
 20
259.6785543295
 30
0.0
 40
0.9993594437
100
AcDbArc
 50
269.9900583079
 51
0.010003432
  0
ARC
  5
3E1
330
21B
100
AcDbEntity
  8
RUNDUNGEN
  6
Continuous
 62
     9
100
AcDbCircle
 10
533.6968426956999
 20
300.0544805884
 30
0.0
 40
0.9596324973999998
100
AcDbArc
 50
268.9444510253
 51
270.0200143308
  0
ARC
  5
3E2
330
21B
100
AcDbEntity
  8
RUNDUNGEN
  6
Continuous
 62
     9
100
AcDbCircle
 10
557.8021975601
 20
300.0543535988
 30
0.0
 40
0.9595055081999998
100
AcDbArc
 50
269.9799144927
 51
271.0556201516
  0
ARC
  5
3E3
330
21B
100
AcDbEntity
  8
RUNDUNGEN
  6
Continuous
 62
     9
100
AcDbCircle
 10
543.6589599524999
 20
336.7478654203
 30
0.0
 40
33.3605834075
100
AcDbArc
 50
242.5161772152
 51
244.3438568492
  0
ARC
  5
3E4
330
21B
100
AcDbEntity
  8
RUNDUNGEN
  6
Continuous
 62
     9
100
AcDbCircle
 10
544.8243383548999
 20
315.2293514009
 30
0.0
 40
18.4258695187
100
AcDbArc
 50
205.9988356308
 51
209.3430025688
  0
ARC
  5
3E5
330
21B
100
AcDbEntity
  8
0
  6
Continuous
 62
     7
100
AcDbCircle
 10
469.8097797903
 20
338.0879992218
 30
0.0
 40
4.9999999942
100
AcDbArc
 50
1.9999988676
 51
26.0948353045
  0
ARC
  5
3E6
330
21B
100
AcDbEntity
  8
0
  6
Continuous
 62
     7
100
AcDbCircle
 10
478.6517764953
 20
342.7697179841
 30
0.0
 40
4.999999984399999
100
AcDbArc
 50
182.0000201824
 51
206.094872787
  0
ARC
  5
3E7
330
21B
100
AcDbEntity
  8
0
  6
Continuous
 62
     7
100
AcDbCircle
 10
411.1013072612
 20
379.3212731141001
 30
0.0
 40
3.0
100
AcDbArc
 50
185.0
 51
269.9862156634
  0
ARC
  5
3E8
330
21B
100
AcDbEntity
  8
0
  6
Continuous
 62
     7
100
AcDbCircle
 10
465.5909582725
 20
365.8663252118
 30
0.0
 40
3.0
100
AcDbArc
 50
2.0
 51
88.49999999999999
  0
ARC
  5
3E9
330
21B
100
AcDbEntity
  8
0
  6
Continuous
 62
     7
100
AcDbCircle
 10
471.9215044334999
 20
356.5054520123001
 30
0.0
 40
3.0
100
AcDbArc
 50
182.0
 51
255.0103055781
  0
ARC
  5
3EA
330
21B
100
AcDbEntity
  8
0
  6
Continuous
 62
     7
100
AcDbCircle
 10
470.3696326129
 20
350.7096178314
 30
0.0
 40
3.0
100
AcDbArc
 50
2.0
 51
75.0103055781
  0
ARC
  5
3EB
330
21B
100
AcDbEntity
  8
0
  6
Continuous
 62
     7
100
AcDbCircle
 10
397.7495195541001
 20
373.7308214996
 30
0.0
 40
2.0
100
AcDbArc
 50
91.0
 51
180.0
  0
ARC
  5
3EC
330
21B
100
AcDbEntity
  8
0
  6
Continuous
 62
     7
100
AcDbCircle
 10
397.7495195541001
 20
372.6445297676999
 30
0.0
 40
2.0
100
AcDbArc
 50
180.0
 51
268.5
  0
ARC
  5
3ED
330
21B
100
AcDbEntity
  8
0
  6
Continuous
 62
     7
100
AcDbCircle
 10
461.0949244408999
 20
384.4962160258999
 30
0.0
 40
1.0
100
AcDbArc
 50
180.0
 51
269.9988810851
  0
ARC
  5
3EE
330
21B
100
AcDbEntity
  8
0
  6
Continuous
 62
     7
100
AcDbCircle
 10
440.1928114083
 20
384.4962160258999
 30
0.0
 40
1.0
100
AcDbArc
 50
270.0011189149
 51
360.0
  0
ARC
  5
3EF
330
21B
100
AcDbEntity
  8
0
  6
Continuous
 62
     7
100
AcDbCircle
 10
536.2495195541
 20
384.4962160258999
 30
0.0
 40
1.0
100
AcDbArc
 50
281.2495332682
 51
360.0
  0
ARC
  5
3F0
330
21B
100
AcDbEntity
  8
0
  6
Continuous
 62
     7
100
AcDbCircle
 10
480.7479546162999
 20
376.1797169006
 30
0.0
 40
1.0
100
AcDbArc
 50
0.1848308864
 51
89.98507056059999
  0
ARC
  5
3F1
330
21B
100
AcDbEntity
  8
0
  6
Continuous
 62
     7
100
AcDbCircle
 10
475.7495195541
 20
368.5913333083
 30
0.0
 40
1.0
100
AcDbArc
 50
91.0
 51
180.0
  0
ARC
  5
3F2
330
21B
100
AcDbEntity
  8
0
  6
Continuous
 62
     7
100
AcDbCircle
 10
480.7495195541
 20
370.678913289
 30
0.0
 40
1.0
100
AcDbArc
 50
271.0
 51
360.0
  0
ARC
  5
3F3
330
21B
100
AcDbEntity
  8
0
  6
Continuous
 62
     7
100
AcDbCircle
 10
480.8083167019999
 20
357.4681215457
 30
0.0
 40
1.0
100
AcDbArc
 50
0.1848308864
 51
89.0
  0
ARC
  5
3F4
330
21B
100
AcDbEntity
  8
0
  6
Continuous
 62
     7
100
AcDbCircle
 10
475.7495195541
 20
359.5567278344999
 30
0.0
 40
1.0
100
AcDbArc
 50
180.0
 51
269.0
  0
ARC
  5
3F5
330
21B
100
AcDbEntity
  8
RUNDUNGEN
  6
Continuous
 62
     9
100
AcDbCircle
 10
532.2924492330001
 20
376.1407079277
 30
0.0
 40
0.9367766787
100
AcDbArc
 50
77.0991815846
 51
85.57300365319999
  0
ARC
  5
3F6
330
21B
100
AcDbEntity
  8
RUNDUNGEN
  6
Continuous
 62
     9
100
AcDbCircle
 10
530.5901713871
 20
376.244007492
 30
0.0
 40
0.9355925034
100
AcDbArc
 50
83.8074529926
 51
86.60352783459998
  0
ARC
  5
3F7
330
21B
100
AcDbEntity
  8
RUNDUNGEN
  6
Continuous
 62
     9
100
AcDbCircle
 10
532.2926161845999
 20
376.1424670344
 30
0.0
 40
0.9350099340000001
100
AcDbArc
 50
85.57488306239999
 51
86.51875933600001
  0
ARC
  5
3F8
330
21B
100
AcDbEntity
  8
RUNDUNGEN
  6
Continuous
 62
     9
100
AcDbCircle
 10
547.4212000515
 20
337.5854433164
 30
0.0
 40
34.296948427
100
AcDbArc
 50
295.68109475
 51
297.4588714232
  0
ARC
  5
3F9
330
21B
100
AcDbEntity
  8
RUNDUNGEN
  6
Continuous
 62
     9
100
AcDbCircle
 10
546.6387756585
 20
315.2481560081
 30
0.0
 40
18.4664021899
100
AcDbArc
 50
330.6607566739
 51
333.9975845694
  0
ARC
  5
3FA
330
21B
100
AcDbEntity
  8
0
  6
Continuous
 62
     7
100
AcDbCircle
 10
612.917882913
 20
344.792024611
 30
0.0
 40
4.9999999191
100
AcDbArc
 50
348.4936579722
 51
357.9999956852
  0
ARC
  5
3FB
330
21B
100
AcDbEntity
  8
0
  6
Continuous
 62
     7
100
AcDbCircle
 10
620.7571043409
 20
343.1962158245
 30
0.0
 40
3.000000030099999
100
AcDbArc
 50
168.4939275702
 51
270.0001479604
  0
ARC
  5
3FC
330
21B
100
AcDbEntity
  8
RUNDUNGEN
  6
Continuous
 62
     9
100
AcDbCircle
 10
617.5341750589
 20
333.6941525087
 30
0.0
 40
1.0020603425
100
AcDbArc
 50
90.01493198989999
 51
98.8028980356
  0
ARC
  5
3FD
330
21B
100
AcDbEntity
  8
0
  6
Continuous
 62
     7
100
AcDbCircle
 10
617.5337615751
 20
333.6962160237
 30
0.0
 40
1.0
100
AcDbArc
 50
90.0
 51
178.0000001403
  0
ARC
  5
3FE
330
21B
100
AcDbEntity
  8
0
  6
Continuous
 62
     7
100
AcDbCircle
 10
680.3977318469999
 20
379.3212731141001
 30
0.0
 40
3.0
100
AcDbArc
 50
270.0137843687
 51
355.0
  0
ARC
  5
3FF
330
21B
100
AcDbEntity
  8
0
  6
Continuous
 62
     7
100
AcDbCircle
 10
625.9080808358
 20
365.8663252118
 30
0.0
 40
3.0
100
AcDbArc
 50
91.5
 51
178.0
  0
ARC
  5
400
330
21B
100
AcDbEntity
  8
0
  6
Continuous
 62
     7
100
AcDbCircle
 10
619.5775346747
 20
356.5054520123001
 30
0.0
 40
3.0
100
AcDbArc
 50
284.9896944219
 51
358.0
  0
ARC
  5
401
330
21B
100
AcDbEntity
  8
0
  6
Continuous
 62
     7
100
AcDbCircle
 10
621.1294064954
 20
350.7096178314
 30
0.0
 40
3.0
100
AcDbArc
 50
104.9896944219
 51
178.0
  0
ARC
  5
402
330
21B
100
AcDbEntity
  8
0
  6
Continuous
 62
     7
100
AcDbCircle
 10
693.7495195541
 20
373.7308214996
 30
0.0
 40
2.0
100
AcDbArc
 50
0.0
 51
89.0
  0
ARC
  5
403
330
21B
100
AcDbEntity
  8
0
  6
Continuous
 62
     7
100
AcDbCircle
 10
693.7495195541
 20
372.6445297676999
 30
0.0
 40
2.0
100
AcDbArc
 50
271.5
 51
360.0
  0
ARC
  5
404
330
21B
100
AcDbEntity
  8
0
  6
Continuous
 62
     7
100
AcDbCircle
 10
651.3062276999
 20
384.4962160258999
 30
0.0
 40
1.0
100
AcDbArc
 50
180.0
 51
269.9999586921
  0
ARC
  5
405
330
21B
100
AcDbEntity
  8
0
  6
Continuous
 62
     7
100
AcDbCircle
 10
630.4041146673
 20
384.4962160258999
 30
0.0
 40
1.0
100
AcDbArc
 50
270.0000413079
 51
360.0
  0
ARC
  5
406
330
21B
100
AcDbEntity
  8
0
  6
Continuous
 62
     7
100
AcDbCircle
 10
555.2495195541
 20
384.4962160258999
 30
0.0
 40
1.0
100
AcDbArc
 50
180.0
 51
258.7504606805
  0
ARC
  5
407
330
21B
100
AcDbEntity
  8
0
  6
Continuous
 62
     7
100
AcDbCircle
 10
610.7510844919
 20
376.1797169006
 30
0.0
 40
1.0
100
AcDbArc
 50
90.01492944129999
 51
179.8151691136
  0
ARC
  5
408
330
21B
100
AcDbEntity
  8
0
  6
Continuous
 62
     7
100
AcDbCircle
 10
615.7495195541001
 20
368.5913333083
 30
0.0
 40
1.0
100
AcDbArc
 50
0.0
 51
89.0
  0
ARC
  5
409
330
21B
100
AcDbEntity
  8
0
  6
Continuous
 62
     7
100
AcDbCircle
 10
610.7495195541
 20
370.678913289
 30
0.0
 40
1.0
100
AcDbArc
 50
180.0
 51
269.0
  0
ARC
  5
40A
330
21B
100
AcDbEntity
  8
0
  6
Continuous
 62
     7
100
AcDbCircle
 10
610.6907224062
 20
357.4681215457
 30
0.0
 40
1.0
100
AcDbArc
 50
91.0
 51
179.8151691136
  0
ARC
  5
40B
330
21B
100
AcDbEntity
  8
0
  6
Continuous
 62
     7
100
AcDbCircle
 10
615.7495195541001
 20
359.5567278344999
 30
0.0
 40
1.0
100
AcDbArc
 50
271.0
 51
360.0
  0
ARC
  5
40C
330
21B
100
AcDbEntity
  8
RUNDUNGEN
  6
Continuous
 62
     9
100
AcDbCircle
 10
560.9088677313
 20
376.2440074286
 30
0.0
 40
0.9355925670000001
100
AcDbArc
 50
93.39647271149999
 51
96.1926297876
  0
ARC
  5
40D
330
21B
100
AcDbEntity
  8
RUNDUNGEN
  6
Continuous
 62
     9
100
AcDbCircle
 10
2001.5973122259
 20
282.4361992741
 30
0.0
 40
1408.8608596552
100
AcDbArc
 50
180.718928695
 51
180.9654469923
  0
ARC
  5
40E
330
21B
100
AcDbEntity
  8
RUNDUNGEN
  6
Continuous
 62
     9
100
AcDbCircle
 10
3795.9708000485
 20
-1227.6773592546
 30
0.0
 40
3525.7207461409
100
AcDbArc
 50
154.423013225
 51
154.9319425745
  0
ARC
  5
40F
330
21B
100
AcDbEntity
  8
RUNDUNGEN
  6
Continuous
 62
     9
100
AcDbCircle
 10
1302.9281975548
 20
611.0436320185999
 30
0.0
 40
786.1673749627999
100
AcDbArc
 50
198.8114232936
 51
199.0838531117
  0
ARC
  5
410
330
21B
100
AcDbEntity
  8
RUNDUNGEN
  6
Continuous
 62
     9
100
AcDbCircle
 10
1224.7194628383
 20
587.3904082926999
 30
0.0
 40
705.5706080521
100
AcDbArc
 50
199.0777122047
 51
199.4078246309
  0
SPLINE
  5
411
330
21B
100
AcDbEntity
  8
0
  6
Continuous
 62
     7
100
AcDbSpline
210
0.0
220
0.0
230
1.0
 70
     8
 71
     3
 72
     9
 73
     5
 74
     0
 42
0.0000000001
 43
0.0000000001
 40
0.0
 40
0.0
 40
0.0
 40
0.0
 40
0.2527133142
 40
1.0
 40
1.0
 40
1.0
 40
1.0
 10
552.2495195541
 20
388.1017695253
 30
0.0
 10
552.0882922661
 20
388.0086849072
 30
0.0
 10
551.442146149
 20
387.6558247576
 30
0.0
 10
550.7506532126
 20
387.3766463363
 30
0.0
 10
550.2158151595999
 20
387.2462160259
 30
0.0
  0
SPLINE
  5
412
330
21B
100
AcDbEntity
  8
0
  6
Continuous
 62
     7
100
AcDbSpline
210
0.0
220
0.0
230
1.0
 70
     8
 71
     3
 72
     9
 73
     5
 74
     0
 42
0.0000000001
 43
0.0000000001
 40
0.0
 40
0.0
 40
0.0
 40
0.0
 40
0.2527133142
 40
1.0
 40
1.0
 40
1.0
 40
1.0
 10
545.7495195541
 20
388.1017695253
 30
0.0
 10
545.5882922660999
 20
388.0086849072
 30
0.0
 10
544.942146149
 20
387.6558247576
 30
0.0
 10
544.2506532125999
 20
387.3766463363
 30
0.0
 10
543.7158151595999
 20
387.2462160259
 30
0.0
  0
SPLINE
  5
413
330
21B
100
AcDbEntity
  8
0
  6
Continuous
 62
     7
100
AcDbSpline
210
0.0
220
0.0
230
1.0
 70
     8
 71
     3
 72
     9
 73
     5
 74
     0
 42
0.0000000001
 43
0.0000000001
 40
0.0
 40
0.0
 40
0.0
 40
0.0
 40
0.2477691676
 40
1.0
 40
1.0
 40
1.0
 40
1.0
 10
541.2832239486
 20
387.2462160259
 30
0.0
 10
541.1058193951
 20
387.2894794602
 30
0.0
 10
540.3981719485999
 20
387.4988784104
 30
0.0
 10
539.7296331476999
 20
387.8245758128
 30
0.0
 10
539.2495195541
 20
388.1017695253
 30
0.0
  0
SPLINE
  5
414
330
21B
100
AcDbEntity
  8
0
  6
Continuous
 62
     7
100
AcDbSpline
210
0.0
220
0.0
230
1.0
 70
     8
 71
     3
 72
     9
 73
     5
 74
     0
 42
0.0000000001
 43
0.0000000001
 40
0.0
 40
0.0
 40
0.0
 40
0.0
 40
0.2477691676
 40
1.0
 40
1.0
 40
1.0
 40
1.0
 10
547.7832239486
 20
387.2462160259
 30
0.0
 10
547.6058193951001
 20
387.2894794602
 30
0.0
 10
546.8981719485999
 20
387.4988784104
 30
0.0
 10
546.2296331476999
 20
387.8245758128
 30
0.0
 10
545.7495195541
 20
388.1017695253
 30
0.0
  0
SPLINE
  5
415
330
21B
100
AcDbEntity
  8
0
  6
Continuous
 62
     7
100
AcDbSpline
210
0.0
220
0.0
230
1.0
 70
     8
 71
     3
 72
     9
 73
     5
 74
     0
 42
0.0000000001
 43
0.0000000001
 40
0.0
 40
0.0
 40
0.0
 40
0.0
 40
0.5627263225
 40
1.0
 40
1.0
 40
1.0
 40
1.0
 10
633.7169656196
 20
388.1017695253
 30
0.0
 10
633.7881720533999
 20
387.9305275101001
 30
0.0
 10
633.9247404187999
 20
387.631296743
 30
0.0
 10
634.1041082901999
 20
387.3489137709
 30
0.0
 10
634.2052087097
 20
387.2462160259
 30
0.0
  0
SPLINE
  5
416
330
21B
100
AcDbEntity
  8
0
  6
Continuous
 62
     7
100
AcDbSpline
210
0.0
220
0.0
230
1.0
 70
     8
 71
     3
 72
     9
 73
     5
 74
     0
 42
0.0000000001
 43
0.0000000001
 40
0.0
 40
0.0
 40
0.0
 40
0.0
 40
0.5627263225
 40
1.0
 40
1.0
 40
1.0
 40
1.0
 10
647.9933767476999
 20
388.1017695253
 30
0.0
 10
647.9221703137999
 20
387.9305275101001
 30
0.0
 10
647.7856019485
 20
387.631296743
 30
0.0
 10
647.6062340769999
 20
387.3489137709
 30
0.0
 10
647.5051336576
 20
387.2462160259
 30
0.0
  0
SPLINE
  5
417
330
21B
100
AcDbEntity
  8
0
  6
Continuous
 62
     7
100
AcDbSpline
210
0.0
220
0.0
230
1.0
 70
     8
 71
     3
 72
     9
 73
     5
 74
     0
 42
0.0000000001
 43
0.0000000001
 40
0.0
 40
0.0
 40
0.0
 40
0.0
 40
0.4372730511
 40
1.0
 40
1.0
 40
1.0
 40
1.0
 10
646.9211275192
 20
387.2462160259
 30
0.0
 10
646.8200272426001
 20
387.3489136258001
 30
0.0
 10
646.6406591385999
 20
387.6312964418
 30
0.0
 10
646.5040909435999
 20
387.9305273161
 30
0.0
 10
646.4328844290999
 20
388.1017695253
 30
0.0
  0
SPLINE
  5
418
330
21B
100
AcDbEntity
  8
0
  6
Continuous
 62
     7
100
AcDbSpline
210
0.0
220
0.0
230
1.0
 70
     8
 71
     3
 72
     9
 73
     5
 74
     0
 42
0.0000000001
 43
0.0000000001
 40
0.0
 40
0.0
 40
0.0
 40
0.0
 40
0.2559360586
 40
1.0
 40
1.0
 40
1.0
 40
1.0
 10
639.294678865
 20
388.1017695253
 30
0.0
 10
639.1568276287
 20
388.0090209576
 30
0.0
 10
638.60971145
 20
387.6607129669
 30
0.0
 10
638.0141691386
 20
387.3782611396
 30
0.0
 10
637.5495373359999
 20
387.2462160259
 30
0.0
  0
SPLINE
  5
419
330
21B
100
AcDbEntity
  8
0
  6
Continuous
 62
     7
100
AcDbSpline
210
0.0
220
0.0
230
1.0
 70
     8
 71
     3
 72
     9
 73
     5
 74
     0
 42
0.0000000001
 43
0.0000000001
 40
0.0
 40
0.0
 40
0.0
 40
0.0
 40
0.2446356607
 40
1.0
 40
1.0
 40
1.0
 40
1.0
 10
635.4621071486
 20
387.2462160259
 30
0.0
 10
635.3092595594
 20
387.2896542434
 30
0.0
 10
634.6942236465
 20
387.5021095611
 30
0.0
 10
634.1240419212
 20
387.8278819279
 30
0.0
 10
633.7169656196
 20
388.1017695253
 30
0.0
  0
SPLINE
  5
41A
330
21B
100
AcDbEntity
  8
0
  6
Continuous
 62
     7
100
AcDbSpline
210
0.0
220
0.0
230
1.0
 70
     8
 71
     3
 72
     9
 73
     5
 74
     0
 42
0.0000000001
 43
0.0000000001
 40
0.0
 40
0.0
 40
0.0
 40
0.0
 40
0.7489619328
 40
1.0
 40
1.0
 40
1.0
 40
1.0
 10
641.5280634841999
 20
387.2462160259
 30
0.0
 10
640.9443188576999
 20
387.375845402
 30
0.0
 10
640.1866397191001
 20
387.6532508693
 30
0.0
 10
639.4720827029
 20
388.0085028084
 30
0.0
 10
639.294678865
 20
388.1017695253
 30
0.0
  0
SPLINE
  5
41B
330
21B
100
AcDbEntity
  8
0
  6
Continuous
 62
     7
100
AcDbSpline
210
0.0
220
0.0
230
1.0
 70
     8
 71
     3
 72
     9
 73
     5
 74
     0
 42
0.0000000001
 43
0.0000000001
 40
0.0
 40
0.0
 40
0.0
 40
0.0
 40
0.2510377027
 40
1.0
 40
1.0
 40
1.0
 40
1.0
 10
646.4328844290999
 20
388.1017695253
 30
0.0
 10
646.2554808496999
 20
388.0085029442
 30
0.0
 10
645.5409237803999
 20
387.653251126
 30
0.0
 10
644.7832447178
 20
387.3758454644999
 30
0.0
 10
644.19949981
 20
387.2462160259
 30
0.0
  0
SPLINE
  5
41C
330
21B
100
AcDbEntity
  8
0
  6
Continuous
 62
     7
100
AcDbSpline
210
0.0
220
0.0
230
1.0
 70
     8
 71
     3
 72
     9
 73
     5
 74
     0
 42
0.0000000001
 43
0.0000000001
 40
0.0
 40
0.0
 40
0.0
 40
0.0
 40
0.4372730511
 40
1.0
 40
1.0
 40
1.0
 40
1.0
 10
443.9939054506999
 20
387.2462160259
 30
0.0
 10
443.8928051739999
 20
387.3489136258001
 30
0.0
 10
443.7134370699999
 20
387.6312964418
 30
0.0
 10
443.5768688751
 20
387.9305273161
 30
0.0
 10
443.5056623604999
 20
388.1017695253
 30
0.0
  0
SPLINE
  5
41D
330
21B
100
AcDbEntity
  8
0
  6
Continuous
 62
     7
100
AcDbSpline
210
0.0
220
0.0
230
1.0
 70
     8
 71
     3
 72
     9
 73
     5
 74
     0
 42
0.0000000001
 43
0.0000000001
 40
0.0
 40
0.0
 40
0.0
 40
0.0
 40
0.4372730511
 40
1.0
 40
1.0
 40
1.0
 40
1.0
 10
457.2938303985
 20
387.2462160259
 30
0.0
 10
457.3949306751999
 20
387.3489136258001
 30
0.0
 10
457.5742987792
 20
387.6312964418
 30
0.0
 10
457.7108669741999
 20
387.9305273161
 30
0.0
 10
457.7820734887
 20
388.1017695253
 30
0.0
  0
SPLINE
  5
41E
330
21B
100
AcDbEntity
  8
0
  6
Continuous
 62
     7
100
AcDbSpline
210
0.0
220
0.0
230
1.0
 70
     8
 71
     3
 72
     9
 73
     5
 74
     0
 42
0.0000000001
 43
0.0000000001
 40
0.0
 40
0.0
 40
0.0
 40
0.0
 40
0.2559360586
 40
1.0
 40
1.0
 40
1.0
 40
1.0
 10
457.7820734887
 20
388.1017695253
 30
0.0
 10
457.6442222523
 20
388.0090209576
 30
0.0
 10
457.0971060737
 20
387.6607129669
 30
0.0
 10
456.5015637623
 20
387.3782611396
 30
0.0
 10
456.0369319597
 20
387.2462160259
 30
0.0
  0
SPLINE
  5
41F
330
21B
100
AcDbEntity
  8
0
  6
Continuous
 62
     7
100
AcDbSpline
210
0.0
220
0.0
230
1.0
 70
     8
 71
     3
 72
     9
 73
     5
 74
     0
 42
0.0000000001
 43
0.0000000001
 40
0.0
 40
0.0
 40
0.0
 40
0.0
 40
0.5627263225
 40
1.0
 40
1.0
 40
1.0
 40
1.0
 10
445.0661546791
 20
388.1017695253
 30
0.0
 10
444.9949482453
 20
387.9305275101001
 30
0.0
 10
444.8583798798999
 20
387.631296743
 30
0.0
 10
444.6790120084999
 20
387.3489137709
 30
0.0
 10
444.5779115889999
 20
387.2462160259
 30
0.0
  0
SPLINE
  5
420
330
21B
100
AcDbEntity
  8
0
  6
Continuous
 62
     7
100
AcDbSpline
210
0.0
220
0.0
230
1.0
 70
     8
 71
     3
 72
     9
 73
     5
 74
     0
 42
0.0000000001
 43
0.0000000001
 40
0.0
 40
0.0
 40
0.0
 40
0.0
 40
0.7489619328
 40
1.0
 40
1.0
 40
1.0
 40
1.0
 10
447.2995392983
 20
387.2462160259
 30
0.0
 10
446.7157946718
 20
387.375845402
 30
0.0
 10
445.9581155331999
 20
387.6532508693
 30
0.0
 10
445.2435585169999
 20
388.0085028084
 30
0.0
 10
445.0661546791
 20
388.1017695253
 30
0.0
  0
SPLINE
  5
421
330
21B
100
AcDbEntity
  8
0
  6
Continuous
 62
     7
100
AcDbSpline
210
0.0
220
0.0
230
1.0
 70
     8
 71
     3
 72
     9
 73
     5
 74
     0
 42
0.0000000001
 43
0.0000000001
 40
0.0
 40
0.0
 40
0.0
 40
0.0
 40
0.2510377027
 40
1.0
 40
1.0
 40
1.0
 40
1.0
 10
452.2043602431999
 20
388.1017695253
 30
0.0
 10
452.0269566637999
 20
388.0085029442
 30
0.0
 10
451.3123995945
 20
387.653251126
 30
0.0
 10
450.5547205319
 20
387.3758454644999
 30
0.0
 10
449.9709756241
 20
387.2462160259
 30
0.0
  0
SPLINE
  5
422
330
21B
100
AcDbEntity
  8
0
  6
Continuous
 62
     7
100
AcDbSpline
210
0.0
220
0.0
230
1.0
 70
     8
 71
     3
 72
     9
 73
     5
 74
     0
 42
0.0000000001
 43
0.0000000001
 40
0.0
 40
0.0
 40
0.0
 40
0.0
 40
0.2446356607
 40
1.0
 40
1.0
 40
1.0
 40
1.0
 10
453.9495017722
 20
387.2462160259
 30
0.0
 10
453.7966541830999
 20
387.2896542434
 30
0.0
 10
453.1816182701
 20
387.5021095611
 30
0.0
 10
452.6114365448
 20
387.8278819279
 30
0.0
 10
452.2043602431999
 20
388.1017695253
 30
0.0
  0
SPLINE
  5
423
330
21B
100
AcDbEntity
  8
0
  6
Continuous
 62
     9
100
AcDbSpline
210
0.0
220
0.0
230
1.0
 70
     8
 71
     3
 72
    10
 73
     6
 74
     0
 42
0.0000000001
 43
0.0000000001
 40
0.0
 40
0.0
 40
0.0
 40
0.0
 40
0.1287476602
 40
0.3473896203
 40
1.0
 40
1.0
 40
1.0
 40
1.0
 10
642.8397761139
 20
383.4962160259
 30
0.0
 10
642.7928971535
 20
383.4962160259
 30
0.0
 10
642.6840688111
 20
383.5954977814
 30
0.0
 10
642.5654891822
 20
383.9343123868
 30
0.0
 10
642.5307591194999
 20
384.2585907663
 30
0.0
 10
642.5307591194999
 20
384.4962160258999
 30
0.0
  0
SPLINE
  5
424
330
21B
100
AcDbEntity
  8
0
  6
Continuous
 62
     9
100
AcDbSpline
210
0.0
220
0.0
230
1.0
 70
     8
 71
     3
 72
    10
 73
     6
 74
     0
 42
0.0000000001
 43
0.0000000001
 40
0.0
 40
0.0
 40
0.0
 40
0.0
 40
0.1287476588
 40
0.3473896204
 40
1.0
 40
1.0
 40
1.0
 40
1.0
 10
644.7418891465
 20
383.4962160259
 30
0.0
 10
644.6950101866
 20
383.4962160259
 30
0.0
 10
644.5861818437
 20
383.5954977804
 30
0.0
 10
644.4676022151
 20
383.9343123867
 30
0.0
 10
644.4328721520999
 20
384.2585907663
 30
0.0
 10
644.4328721520999
 20
384.4962160258999
 30
0.0
  0
SPLINE
  5
425
330
21B
100
AcDbEntity
  8
0
  6
Continuous
 62
     9
100
AcDbSpline
210
0.0
220
0.0
230
1.0
 70
     8
 71
     3
 72
    10
 73
     6
 74
     0
 42
0.0000000001
 43
0.0000000001
 40
0.0
 40
0.0
 40
0.0
 40
0.0
 40
0.1287476602
 40
0.3473896203
 40
1.0
 40
1.0
 40
1.0
 40
1.0
 10
446.7571499617
 20
383.4962160259
 30
0.0
 10
446.8040289222
 20
383.4962160259
 30
0.0
 10
446.9128572644999
 20
383.5954977814
 30
0.0
 10
447.0314368933999
 20
383.9343123868
 30
0.0
 10
447.0661669561
 20
384.2585907663
 30
0.0
 10
447.0661669561
 20
384.4962160258999
 30
0.0
  0
SPLINE
  5
426
330
21B
100
AcDbEntity
  8
0
  6
Continuous
 62
     9
100
AcDbSpline
210
0.0
220
0.0
230
1.0
 70
     8
 71
     3
 72
    10
 73
     6
 74
     0
 42
0.0000000001
 43
0.0000000001
 40
0.0
 40
0.0
 40
0.0
 40
0.0
 40
0.1287476588
 40
0.3473896204
 40
1.0
 40
1.0
 40
1.0
 40
1.0
 10
448.6592629942999
 20
383.4962160259
 30
0.0
 10
448.7061419543
 20
383.4962160259
 30
0.0
 10
448.8149702970999
 20
383.5954977804
 30
0.0
 10
448.9335499258
 20
383.9343123867
 30
0.0
 10
448.9682799887
 20
384.2585907663
 30
0.0
 10
448.9682799887
 20
384.4962160258999
 30
0.0
  0
SPLINE
  5
428
330
21B
100
AcDbEntity
  8
RUNDUNGEN
  6
Continuous
 62
     9
100
AcDbSpline
210
0.0
220
0.0
230
1.0
 70
     8
 71
     3
 72
    10
 73
     6
 74
     0
 42
0.0000000001
 43
0.0000000001
 40
0.0
 40
0.0
 40
0.0
 40
0.0
 40
0.5004943800000001
 40
0.7496028813
 40
1.0
 40
1.0
 40
1.0
 40
1.0
 10
565.7495195541001
 20
256.9985905235
 30
0.0
 10
569.951954908
 20
256.9985904017
 30
0.0
 10
576.2461418897999
 20
256.9679389378
 30
0.0
 10
584.6419275561999
 20
256.8495794543
 30
0.0
 10
588.8351943295999
 20
256.763388152
 30
0.0
 10
590.9371861547
 20
256.7182431878
 30
0.0
  0
SPLINE
  5
429
330
21B
100
AcDbEntity
  8
RUNDUNGEN
  6
Continuous
 62
     9
100
AcDbSpline
210
0.0
220
0.0
230
1.0
 70
     8
 71
     3
 72
    13
 73
     9
 74
     0
 42
0.0000000001
 43
0.0000000001
 40
0.0
 40
0.0
 40
0.0
 40
0.0
 40
0.0466649092
 40
0.1175529182
 40
0.2171105534
 40
0.3432929797999999
 40
0.6549631781000001
 40
1.0
 40
1.0
 40
1.0
 40
1.0
 10
533.679164646
 20
299.0950162864
 30
0.0
 10
533.6597132787
 20
299.0935516847
 30
0.0
 10
533.6152160374999
 20
299.0631253509
 30
0.0
 10
533.569963562
 20
298.9843235286
 30
0.0
 10
533.5259387094001
 20
298.867790045
 30
0.0
 10
533.4725247341
 20
298.6493271705
 30
0.0
 10
533.4322349844999
 20
298.3235816758
 30
0.0
 10
533.4256057199
 20
298.0487072245
 30
0.0
 10
533.4296685046999
 20
297.9045353968
 30
0.0
  0
SPLINE
  5
42A
330
21B
100
AcDbEntity
  8
RUNDUNGEN
  6
Continuous
 62
     9
100
AcDbSpline
210
0.0
220
0.0
230
1.0
 70
     8
 71
     3
 72
    13
 73
     9
 74
     0
 42
0.0000000001
 43
0.0000000001
 40
0.0
 40
0.0
 40
0.0
 40
0.0
 40
0.0467998419
 40
0.1174531456
 40
0.2167247817
 40
0.3426925786
 40
0.6543374938000001
 40
1.0
 40
1.0
 40
1.0
 40
1.0
 10
533.6971779108
 20
299.0948481489
 30
0.0
 10
533.6776997633998
 20
299.0934289958
 30
0.0
 10
533.6331322759999
 20
299.0632508235
 30
0.0
 10
533.5886464356999
 20
298.9842136117
 30
0.0
 10
533.5462006482999
 20
298.8676837349
 30
0.0
 10
533.4960633412999
 20
298.6490211463
 30
0.0
 10
533.4611962372
 20
298.3230311755
 30
0.0
 10
533.4594765237
 20
298.048281773
 30
0.0
 10
533.4661865926
 20
297.9041914587
 30
0.0
  0
SPLINE
  5
42B
330
21B
100
AcDbEntity
  8
RUNDUNGEN
  6
Continuous
 62
     9
100
AcDbSpline
210
0.0
220
0.0
230
1.0
 70
     8
 71
     3
 72
    13
 73
     9
 74
     0
 42
0.0000000001
 43
0.0000000001
 40
0.0
 40
0.0
 40
0.0
 40
0.0
 40
0.0467998413
 40
0.1174531445
 40
0.2167247804
 40
0.3426925772
 40
0.6543374929
 40
1.0
 40
1.0
 40
1.0
 40
1.0
 10
557.8018611974999
 20
299.0948481489
 30
0.0
 10
557.8213393445
 20
299.0934289958
 30
0.0
 10
557.8659068312999
 20
299.0632508234
 30
0.0
 10
557.9103926708999
 20
298.984213612
 30
0.0
 10
557.9528384579999
 20
298.8676837355
 30
0.0
 10
558.0029757648999
 20
298.6490211471
 30
0.0
 10
558.0378428696
 20
298.3230311761
 30
0.0
 10
558.039562584
 20
298.0482817733
 30
0.0
 10
558.0328525156
 20
297.9041914587
 30
0.0
  0
SPLINE
  5
42C
330
21B
100
AcDbEntity
  8
RUNDUNGEN
  6
Continuous
 62
     9
100
AcDbSpline
210
0.0
220
0.0
230
1.0
 70
     8
 71
     3
 72
    13
 73
     9
 74
     0
 42
0.0000000001
 43
0.0000000001
 40
0.0
 40
0.0
 40
0.0
 40
0.0
 40
0.0466657558
 40
0.1175535815
 40
0.2171100434
 40
0.3432911321
 40
0.6549607732000001
 40
1.0
 40
1.0
 40
1.0
 40
1.0
 10
557.819874534
 20
299.0950110029
 30
0.0
 10
557.8393261819999
 20
299.0935453354
 30
0.0
 10
557.8838227933999
 20
299.0631187206
 30
0.0
 10
557.9290765526999
 20
298.9843177497001
 30
0.0
 10
557.9731021605
 20
298.8677857186999
 30
0.0
 10
558.0265179835
 20
298.6493245361
 30
0.0
 10
558.0668094877999
 20
298.3235788607
 30
0.0
 10
558.0734392780999
 20
298.048703533
 30
0.0
 10
558.0693764574999
 20
297.9045306556
 30
0.0
  0
SPLINE
  5
42D
330
21B
100
AcDbEntity
  8
RUNDUNGEN
  6
Continuous
 62
     9
100
AcDbSpline
210
0.0
220
0.0
230
1.0
 70
     8
 71
     3
 72
    11
 73
     7
 74
     0
 42
0.0000000001
 43
0.0000000001
 40
0.0
 40
0.0
 40
0.0
 40
0.0
 40
0.2542677448
 40
0.5056063876
 40
0.7534459928000001
 40
1.0
 40
1.0
 40
1.0
 40
1.0
 10
590.9371861547
 20
256.7182431878
 30
0.0
 10
591.202119231
 20
256.7125332521
 30
0.0
 10
591.7376508260999
 20
256.8058516995
 30
0.0
 10
592.412120275
 20
257.2492439342
 30
0.0
 10
592.8486290362999
 20
257.9178718224
 30
0.0
 10
592.9407896563999
 20
258.4407759581
 30
0.0
 10
592.9364569179
 20
258.6976948681
 30
0.0
  0
SPLINE
  5
42E
330
21B
100
AcDbEntity
  8
RUNDUNGEN
  6
Continuous
 62
     9
100
AcDbSpline
210
0.0
220
0.0
230
1.0
 70
     8
 71
     3
 72
     9
 73
     5
 74
     0
 42
0.0000000001
 43
0.0000000001
 40
0.0
 40
0.0
 40
0.0
 40
0.0
 40
0.2488849052
 40
1.0
 40
1.0
 40
1.0
 40
1.0
 10
592.8473595255999
 20
264.7587380418
 30
0.0
 10
593.4945008982
 20
264.7808859468
 30
0.0
 10
596.0946953645
 20
264.8689435857
 30
0.0
 10
598.6949195573999
 20
264.9562411089
 30
0.0
 10
600.6478277231
 20
265.0263242023
 30
0.0
  0
SPLINE
  5
42F
330
21B
100
AcDbEntity
  8
RUNDUNGEN
  6
Continuous
 62
     9
100
AcDbSpline
210
0.0
220
0.0
230
1.0
 70
     8
 71
     3
 72
     9
 73
     5
 74
     0
 42
0.0000000001
 43
0.0000000001
 40
0.0
 40
0.0
 40
0.0
 40
0.0
 40
0.5676727952000001
 40
1.0
 40
1.0
 40
1.0
 40
1.0
 10
560.6793106471
 20
376.1829428026
 30
0.0
 10
560.6794330952999
 20
376.3456609226
 30
0.0
 10
560.6960923697999
 20
376.6316368415
 30
0.0
 10
560.7467245871999
 20
376.9170949436
 30
0.0
 10
560.7908997811001
 20
377.0328764774
 30
0.0
  0
SPLINE
  5
430
330
21B
100
AcDbEntity
  8
RUNDUNGEN
  6
Continuous
 62
     9
100
AcDbSpline
210
0.0
220
0.0
230
1.0
 70
     8
 71
     3
 72
     9
 73
     5
 74
     0
 42
0.0000000001
 43
0.0000000001
 40
0.0
 40
0.0
 40
0.0
 40
0.0
 40
0.6047111707
 40
1.0
 40
1.0
 40
1.0
 40
1.0
 10
560.7908997811001
 20
377.0328764774
 30
0.0
 10
560.8035747029999
 20
377.0660969743
 30
0.0
 10
560.8271499347
 20
377.1194409512
 30
0.0
 10
560.8688086585
 20
377.1662865574
 30
0.0
 10
560.890302991
 20
377.1751302056
 30
0.0
  0
SPLINE
  5
431
330
21B
100
AcDbEntity
  8
RUNDUNGEN
  6
Continuous
 62
     9
100
AcDbSpline
210
0.0
220
0.0
230
1.0
 70
     8
 71
     3
 72
     8
 73
     4
 74
     0
 42
0.0000000001
 43
0.0000000001
 40
0.0
 40
0.0
 40
0.0
 40
0.0
 40
1.0
 40
1.0
 40
1.0
 40
1.0
 10
560.890302991
 20
377.1751302056
 30
0.0
 10
560.8973180222
 20
377.1780164765
 30
0.0
 10
560.9050073853
 20
377.179713486
 30
0.0
 10
560.912592978
 20
377.1797157783999
 30
0.0
  0
SPLINE
  5
432
330
21B
100
AcDbEntity
  8
RUNDUNGEN
  6
Continuous
 62
     9
100
AcDbSpline
210
0.0
220
0.0
230
1.0
 70
     8
 71
     3
 72
    11
 73
     7
 74
     0
 42
0.0000000001
 43
0.0000000001
 40
0.0
 40
0.0
 40
0.0
 40
0.0
 40
0.2538846075
 40
0.5054395586
 40
0.7538850889000001
 40
1.0
 40
1.0
 40
1.0
 40
1.0
 10
559.9466558716
 20
376.1797169006
 30
0.0
 10
559.9462692982
 20
376.3010041181
 30
0.0
 10
559.9883649921999
 20
376.544849804
 30
0.0
 10
560.1744428370999
 20
376.8621712058
 30
0.0
 10
560.4587731142999
 20
377.0901472573001
 30
0.0
 10
560.6910540515
 20
377.1614573429
 30
0.0
 10
560.8079439831999
 20
377.1741406709
 30
0.0
  0
SPLINE
  5
433
330
21B
100
AcDbEntity
  8
RUNDUNGEN
  6
Continuous
 62
     9
100
AcDbSpline
210
0.0
220
0.0
230
1.0
 70
     8
 71
     3
 72
    11
 73
     7
 74
     0
 42
0.0000000001
 43
0.0000000001
 40
0.0
 40
0.0
 40
0.0
 40
0.0
 40
0.2539860284
 40
0.5055177985000001
 40
0.7538488734000001
 40
1.0
 40
1.0
 40
1.0
 40
1.0
 10
558.2442479203999
 20
376.0775949987
 30
0.0
 10
558.2437400673999
 20
376.2026144146
 30
0.0
 10
558.2886732862
 20
376.454060415
 30
0.0
 10
558.486067663
 20
376.778186647
 30
0.0
 10
558.7861110915
 20
377.0048769451999
 30
0.0
 10
559.0287074466999
 20
377.0683908439
 30
0.0
 10
559.1496477696999
 20
377.0757471878
 30
0.0
  0
SPLINE
  5
434
330
21B
100
AcDbEntity
  8
RUNDUNGEN
  6
Continuous
 62
     9
100
AcDbSpline
210
0.0
220
0.0
230
1.0
 70
     8
 71
     3
 72
    12
 73
     8
 74
     0
 42
0.0000000001
 43
0.0000000001
 40
0.0
 40
0.0
 40
0.0
 40
0.0
 40
0.3700419399
 40
0.6854537411
 40
0.9012261393999999
 40
0.9638122716999999
 40
1.0
 40
1.0
 40
1.0
 40
1.0
 10
557.4430218761
 20
376.0575587622
 30
0.0
 10
557.4430218762
 20
376.1851884349
 30
0.0
 10
557.4503749066
 20
376.421994949
 30
0.0
 10
557.4807847324
 20
376.7305221673
 30
0.0
 10
557.5233667295999
 20
376.9338369646
 30
0.0
 10
557.5653573304999
 20
377.0323889177
 30
0.0
 10
557.5952357333999
 20
377.0575476412
 30
0.0
 10
557.6077170928
 20
377.0575576293
 30
0.0
  0
SPLINE
  5
435
330
21B
100
AcDbEntity
  8
RUNDUNGEN
  6
Continuous
 62
     9
100
AcDbSpline
210
0.0
220
0.0
230
1.0
 70
     8
 71
     3
 72
    12
 73
     8
 74
     0
 42
0.0000000001
 43
0.0000000001
 40
0.0
 40
0.0
 40
0.0
 40
0.0
 40
0.3700412638
 40
0.6854527607
 40
0.9012254801999999
 40
0.9638119908
 40
1.0
 40
1.0
 40
1.0
 40
1.0
 10
534.0560172321
 20
376.0575587622
 30
0.0
 10
534.0560172317999
 20
376.1851881284
 30
0.0
 10
534.0486642516999
 20
376.4219941817
 30
0.0
 10
534.0182544763999
 20
376.7305209519
 30
0.0
 10
533.9756727609
 20
376.9338358956
 30
0.0
 10
533.9336821764
 20
377.0323880649
 30
0.0
 10
533.9038041165999
 20
377.0575473388
 30
0.0
 10
533.8913226676999
 20
377.0575576288
 30
0.0
  0
SPLINE
  5
436
330
21B
100
AcDbEntity
  8
RUNDUNGEN
  6
Continuous
 62
     9
100
AcDbSpline
210
0.0
220
0.0
230
1.0
 70
     8
 71
     3
 72
     9
 73
     5
 74
     0
 42
0.0000000001
 43
0.0000000001
 40
0.0
 40
0.0
 40
0.0
 40
0.0
 40
0.5054012783000001
 40
1.0
 40
1.0
 40
1.0
 40
1.0
 10
533.2547886216
 20
376.0775949987
 30
0.0
 10
533.2556827047
 20
376.2976958728
 30
0.0
 10
533.1115191569999
 20
376.7477855596
 30
0.0
 10
532.7115507727
 20
377.0057125064
 30
0.0
 10
532.5015977784
 20
377.0538384943
 30
0.0
  0
SPLINE
  5
437
330
21B
100
AcDbEntity
  8
RUNDUNGEN
  6
Continuous
 62
     9
100
AcDbSpline
210
0.0
220
0.0
230
1.0
 70
     8
 71
     3
 72
    11
 73
     7
 74
     0
 42
0.0000000001
 43
0.0000000001
 40
0.0
 40
0.0
 40
0.0
 40
0.0
 40
0.2538846223
 40
0.5054395778
 40
0.753885101
 40
1.0
 40
1.0
 40
1.0
 40
1.0
 10
531.5523832365999
 20
376.1797169006
 30
0.0
 10
531.5527697983999
 20
376.3010042374
 30
0.0
 10
531.5106740387
 20
376.544850163
 30
0.0
 10
531.3245958339
 20
376.8621717776
 30
0.0
 10
531.0402650828999
 20
377.0901477888
 30
0.0
 10
530.8079838369
 20
377.1614576467
 30
0.0
 10
530.6910937845
 20
377.1741408169
 30
0.0
  0
SPLINE
  5
438
330
21B
100
AcDbEntity
  8
RUNDUNGEN
  6
Continuous
 62
     9
100
AcDbSpline
210
0.0
220
0.0
230
1.0
 70
     8
 71
     3
 72
     9
 73
     5
 74
     0
 42
0.0000000001
 43
0.0000000001
 40
0.0
 40
0.0
 40
0.0
 40
0.0
 40
0.567677432
 40
1.0
 40
1.0
 40
1.0
 40
1.0
 10
530.8197284597
 20
376.1829428026
 30
0.0
 10
530.819606008
 20
376.3456656121
 30
0.0
 10
530.8029457632
 20
376.6316472132
 30
0.0
 10
530.7523113455999
 20
376.9171115927
 30
0.0
 10
530.7081329398
 20
377.0328932175
 30
0.0
  0
SPLINE
  5
439
330
21B
100
AcDbEntity
  8
RUNDUNGEN
  6
Continuous
 62
     9
100
AcDbSpline
210
0.0
220
0.0
230
1.0
 70
     8
 71
     3
 72
     9
 73
     5
 74
     0
 42
0.0000000001
 43
0.0000000001
 40
0.0
 40
0.0
 40
0.0
 40
0.0
 40
0.6046709534
 40
1.0
 40
1.0
 40
1.0
 40
1.0
 10
530.7081329398
 20
377.0328932175
 30
0.0
 10
530.6954615962
 20
377.0661019474
 30
0.0
 10
530.6718901033
 20
377.1194311171
 30
0.0
 10
530.6302528869
 20
377.1662651504
 30
0.0
 10
530.6087666398
 20
377.1751176387001
 30
0.0
  0
SPLINE
  5
43A
330
21B
100
AcDbEntity
  8
RUNDUNGEN
  6
Continuous
 62
     9
100
AcDbSpline
210
0.0
220
0.0
230
1.0
 70
     8
 71
     3
 72
     8
 73
     4
 74
     0
 42
0.0000000001
 43
0.0000000001
 40
0.0
 40
0.0
 40
0.0
 40
0.0
 40
1.0
 40
1.0
 40
1.0
 40
1.0
 10
530.6087666398
 20
377.1751176387001
 30
0.0
 10
530.6017464174999
 20
377.1780100208
 30
0.0
 10
530.5940501294998
 20
377.1797118972
 30
0.0
 10
530.5864574106
 20
377.1797157738
 30
0.0
  0
SPLINE
  5
43B
330
21B
100
AcDbEntity
  8
RUNDUNGEN
  6
Continuous
 62
     9
100
AcDbSpline
210
0.0
220
0.0
230
1.0
 70
     8
 71
     3
 72
    11
 73
     7
 74
     0
 42
0.0000000001
 43
0.0000000001
 40
0.0
 40
0.0
 40
0.0
 40
0.0
 40
0.236917456
 40
0.4801293608
 40
0.7343045534
 40
1.0
 40
1.0
 40
1.0
 40
1.0
 10
532.0567175925
 20
369.5911830182
 30
0.0
 10
532.1919038539
 20
369.590327682
 30
0.0
 10
532.4677585555999
 20
369.6259407628
 30
0.0
 10
532.8554881239
 20
369.8027853607
 30
0.0
 10
533.1692484885
 20
370.1230288819
 30
0.0
 10
533.2554056329
 20
370.4251551908
 30
0.0
 10
533.2547858241
 20
370.5767640823
 30
0.0
  0
SPLINE
  5
43C
330
21B
100
AcDbEntity
  8
RUNDUNGEN
  6
Continuous
 62
     9
100
AcDbSpline
210
0.0
220
0.0
230
1.0
 70
     8
 71
     3
 72
     9
 73
     5
 74
     0
 42
0.0000000001
 43
0.0000000001
 40
0.0
 40
0.0
 40
0.0
 40
0.0
 40
0.5054816678
 40
1.0
 40
1.0
 40
1.0
 40
1.0
 10
600.6478277231
 20
265.0263242023
 30
0.0
 10
601.0055477288
 20
265.0391564698
 30
0.0
 10
601.7216893605999
 20
265.2628273399
 30
0.0
 10
602.2065775951
 20
265.8338510891
 30
0.0
 10
602.3547880485
 20
266.151127442
 30
0.0
  0
SPLINE
  5
43D
330
21B
100
AcDbEntity
  8
RUNDUNGEN
  6
Continuous
 62
     9
100
AcDbSpline
210
0.0
220
0.0
230
1.0
 70
     8
 71
     3
 72
    12
 73
     8
 74
     0
 42
0.0000000001
 43
0.0000000001
 40
0.0
 40
0.0
 40
0.0
 40
0.0
 40
0.3632273844
 40
0.6746683640000001
 40
0.8918827947
 40
0.958116638
 40
1.0
 40
1.0
 40
1.0
 40
1.0
 10
531.8645679411999
 20
368.5913333083
 30
0.0
 10
531.8645679454
 20
368.7176459123
 30
0.0
 10
531.8729597486
 20
368.9526491643
 30
0.0
 10
531.9092573406
 20
369.2601372774
 30
0.0
 10
531.9579603188
 20
369.4639891069
 30
0.0
 10
532.0092417845
 20
369.5645165637
 30
0.0
 10
532.042210299
 20
369.589886146
 30
0.0
 10
532.0567175986
 20
369.5911810034
 30
0.0
  0
SPLINE
  5
43F
330
21B
100
AcDbEntity
  8
RUNDUNGEN
  6
Continuous
 62
     9
100
AcDbSpline
210
0.0
220
0.0
230
1.0
 70
     8
 71
     3
 72
    12
 73
     8
 74
     0
 42
0.0000000001
 43
0.0000000001
 40
0.0
 40
0.0
 40
0.0
 40
0.0
 40
0.041883362
 40
0.1081172053
 40
0.3253316361
 40
0.6367726157
 40
1.0
 40
1.0
 40
1.0
 40
1.0
 10
559.4423215082001
 20
369.5911810034
 30
0.0
 10
559.4568288076999
 20
369.589886146
 30
0.0
 10
559.4897973222999
 20
369.5645165637
 30
0.0
 10
559.541078788
 20
369.4639891069
 30
0.0
 10
559.5897817666
 20
369.2601372774
 30
0.0
 10
559.6260793591
 20
368.9526491643
 30
0.0
 10
559.6344711627999
 20
368.7176459123
 30
0.0
 10
559.6344711670999
 20
368.5913333083
 30
0.0
  0
SPLINE
  5
440
330
21B
100
AcDbEntity
  8
RUNDUNGEN
  6
Continuous
 62
     9
100
AcDbSpline
210
0.0
220
0.0
230
1.0
 70
     8
 71
     3
 72
    11
 73
     7
 74
     0
 42
0.0000000001
 43
0.0000000001
 40
0.0
 40
0.0
 40
0.0
 40
0.0
 40
0.2656954452
 40
0.5198706377000001
 40
0.763082543
 40
1.0
 40
1.0
 40
1.0
 40
1.0
 10
558.2442532834
 20
370.5767640706
 30
0.0
 10
558.2436334776
 20
370.4251551796
 30
0.0
 10
558.3297906210999
 20
370.1230288725
 30
0.0
 10
558.6435509825999
 20
369.8027853482
 30
0.0
 10
559.0312805495999
 20
369.625940744
 30
0.0
 10
559.3071352526
 20
369.5903276608
 30
0.0
 10
559.4423215148999
 20
369.591182997
 30
0.0
  0
SPLINE
  5
441
330
21B
100
AcDbEntity
  8
RUNDUNGEN
  6
Continuous
 62
     9
100
AcDbSpline
210
0.0
220
0.0
230
1.0
 70
     8
 71
     3
 72
    12
 73
     8
 74
     0
 42
0.0000000001
 43
0.0000000001
 40
0.0
 40
0.0
 40
0.0
 40
0.0
 40
0.113374482
 40
0.2095325151
 40
0.331938371
 40
0.6408497151
 40
1.0
 40
1.0
 40
1.0
 40
1.0
 10
530.5900679502999
 20
369.6790655938
 30
0.0
 10
530.6298427569999
 20
369.6820416614
 30
0.0
 10
530.6814122446
 20
369.7566733508001
 30
0.0
 10
530.7221848808
 20
369.8604034467
 30
0.0
 10
530.7713715335999
 20
370.0421664314
 30
0.0
 10
530.8088216180999
 20
370.3170384873
 30
0.0
 10
530.8192815351999
 20
370.5525615336
 30
0.0
 10
530.8192815351999
 20
370.678913289
 30
0.0
  0
SPLINE
  5
442
330
21B
100
AcDbEntity
  8
RUNDUNGEN
  6
Continuous
 62
     9
100
AcDbSpline
210
0.0
220
0.0
230
1.0
 70
     8
 71
     3
 72
    11
 73
     7
 74
     0
 42
0.0000000001
 43
0.0000000001
 40
0.0
 40
0.0
 40
0.0
 40
0.0
 40
0.253817659
 40
0.5056045587
 40
0.7541220335
 40
1.0
 40
1.0
 40
1.0
 40
1.0
 10
531.5519223925
 20
370.678913289
 30
0.0
 10
531.5512942666
 20
370.5496145306
 30
0.0
 10
531.5011921005
 20
370.2896123536
 30
0.0
 10
531.2883494901
 20
369.9587505738
 30
0.0
 10
530.9695335645999
 20
369.7345748112001
 30
0.0
 10
530.7153191107
 20
369.6801237953
 30
0.0
 10
530.5900679502999
 20
369.6790655938
 30
0.0
  0
SPLINE
  5
443
330
21B
100
AcDbEntity
  8
RUNDUNGEN
  6
Continuous
 62
     9
100
AcDbSpline
210
0.0
220
0.0
230
1.0
 70
     8
 71
     3
 72
    12
 73
     8
 74
     0
 42
0.0000000001
 43
0.0000000001
 40
0.0
 40
0.0
 40
0.0
 40
0.0
 40
0.3591516107999999
 40
0.6680627852000001
 40
0.7904684579000002
 40
0.8866262706999998
 40
1.0
 40
1.0
 40
1.0
 40
1.0
 10
560.679757573
 20
370.678913289
 30
0.0
 10
560.679757573
 20
370.552561063
 30
0.0
 10
560.6902175153
 20
370.3170375952
 30
0.0
 10
560.7276678399999
 20
370.042165216
 30
0.0
 10
560.7768545037999
 20
369.8604024458
 30
0.0
 10
560.8176272217
 20
369.7566727607
 30
0.0
 10
560.8691966139999
 20
369.6820416417
 30
0.0
 10
560.908971158
 20
369.6790655938
 30
0.0
  0
SPLINE
  5
444
330
21B
100
AcDbEntity
  8
RUNDUNGEN
  6
Continuous
 62
     9
100
AcDbSpline
210
0.0
220
0.0
230
1.0
 70
     8
 71
     3
 72
    11
 73
     7
 74
     0
 42
0.0000000001
 43
0.0000000001
 40
0.0
 40
0.0
 40
0.0
 40
0.0
 40
0.2458842436
 40
0.4943959252
 40
0.7461815663
 40
1.0
 40
1.0
 40
1.0
 40
1.0
 10
560.908971158
 20
369.6790655938
 30
0.0
 10
560.7837170852999
 20
369.6801449945
 30
0.0
 10
560.5295041081999
 20
369.7345585261
 30
0.0
 10
560.2106758966999
 20
369.958756767
 30
0.0
 10
559.9979101121999
 20
370.2896139937
 30
0.0
 10
559.9476300843
 20
370.5496137374
 30
0.0
 10
559.9471167157999
 20
370.678913289
 30
0.0
  0
SPLINE
  5
447
330
21B
100
AcDbEntity
  8
RUNDUNGEN
  6
Continuous
 62
     9
100
AcDbSpline
210
0.0
220
0.0
230
1.0
 70
     8
 71
     3
 72
     9
 73
     5
 74
     0
 42
0.0000000001
 43
0.0000000001
 40
0.0
 40
0.0
 40
0.0
 40
0.0
 40
0.3405749487
 40
1.0
 40
1.0
 40
1.0
 40
1.0
 10
530.8192815351999
 20
375.6962160258999
 30
0.0
 10
530.9024551610999
 20
375.6960633272
 30
0.0
 10
531.1466674244999
 20
375.6953080914
 30
0.0
 10
531.3908955615
 20
375.6953081696
 30
0.0
 10
531.5519208601999
 20
375.6929901239
 30
0.0
  0
SPLINE
  5
448
330
21B
100
AcDbEntity
  8
RUNDUNGEN
  6
Continuous
 62
     9
100
AcDbSpline
210
0.0
220
0.0
230
1.0
 70
     8
 71
     3
 72
     9
 73
     5
 74
     0
 42
0.0000000001
 43
0.0000000001
 40
0.0
 40
0.0
 40
0.0
 40
0.0
 40
0.1408897218
 40
1.0
 40
1.0
 40
1.0
 40
1.0
 10
531.5523832365999
 20
376.1797169006
 30
0.0
 10
531.5179784486999
 20
376.180204806
 30
0.0
 10
531.2737615908
 20
376.1820168227
 30
0.0
 10
531.0295410055999
 20
376.182565048
 30
0.0
 10
530.8197284611
 20
376.1829428026
 30
0.0
  0
SPLINE
  5
449
330
21B
100
AcDbEntity
  8
RUNDUNGEN
  6
Continuous
 62
     9
100
AcDbSpline
210
0.0
220
0.0
230
1.0
 70
     8
 71
     3
 72
     9
 73
     5
 74
     0
 42
0.0000000001
 43
0.0000000001
 40
0.0
 40
0.0
 40
0.0
 40
0.0
 40
0.3405753991
 40
1.0
 40
1.0
 40
1.0
 40
1.0
 10
560.6793106471
 20
376.1829428026
 30
0.0
 10
560.596135152
 20
376.1827930502
 30
0.0
 10
560.3519176253
 20
376.1820398587
 30
0.0
 10
560.1076849485
 20
376.1820005058
 30
0.0
 10
559.9466558716
 20
376.1797169006
 30
0.0
  0
SPLINE
  5
44A
330
21B
100
AcDbEntity
  8
RUNDUNGEN
  6
Continuous
 62
     9
100
AcDbSpline
210
0.0
220
0.0
230
1.0
 70
     8
 71
     3
 72
    10
 73
     6
 74
     0
 42
0.0000000001
 43
0.0000000001
 40
0.0
 40
0.0
 40
0.0
 40
0.0
 40
0.1402972411
 40
0.3668050458
 40
1.0
 40
1.0
 40
1.0
 40
1.0
 10
558.2442377275
 20
376.0775935178
 30
0.0
 10
558.2070224658
 20
376.0730790594999
 30
0.0
 10
558.1090390537
 20
376.0678273304
 30
0.0
 10
557.8420569308999
 20
376.0589005247
 30
0.0
 10
557.612259804
 20
376.0575583091001
 30
0.0
 10
557.4430671526999
 20
376.0575588879
 30
0.0
  0
SPLINE
  5
44B
330
21B
100
AcDbEntity
  8
RUNDUNGEN
  6
Continuous
 62
     9
100
AcDbSpline
210
0.0
220
0.0
230
1.0
 70
     8
 71
     3
 72
    10
 73
     6
 74
     0
 42
0.0000000001
 43
0.0000000001
 40
0.0
 40
0.0
 40
0.0
 40
0.0
 40
0.6331949568999999
 40
0.8597027604999999
 40
1.0
 40
1.0
 40
1.0
 40
1.0
 10
534.0559719210999
 20
376.057558888
 30
0.0
 10
533.8867792758
 20
376.0575583087
 30
0.0
 10
533.6569821583999
 20
376.0589005301
 30
0.0
 10
533.3900000449999
 20
376.0678273254
 30
0.0
 10
533.292016639
 20
376.0730790667
 30
0.0
 10
533.2548013783999
 20
376.0775935181
 30
0.0
  0
SPLINE
  5
44C
330
21B
100
AcDbEntity
  8
RUNDUNGEN
  6
Continuous
 62
     9
100
AcDbSpline
210
0.0
220
0.0
230
1.0
 70
     8
 71
     3
 72
     9
 73
     5
 74
     0
 42
0.0000000001
 43
0.0000000001
 40
0.0
 40
0.0
 40
0.0
 40
0.0
 40
0.5488035218000001
 40
1.0
 40
1.0
 40
1.0
 40
1.0
 10
559.1665071351999
 20
352.1735743636
 30
0.0
 10
559.1666025883
 20
352.3140141696
 30
0.0
 10
559.1779072358999
 20
352.5698487581
 30
0.0
 10
559.2134633092999
 20
352.8243817943
 30
0.0
 10
559.2414809475
 20
352.9363929047
 30
0.0
  0
SPLINE
  5
44D
330
21B
100
AcDbEntity
  8
RUNDUNGEN
  6
Continuous
 62
     9
100
AcDbSpline
210
0.0
220
0.0
230
1.0
 70
     8
 71
     3
 72
    13
 73
     9
 74
     0
 42
0.0000000001
 43
0.0000000001
 40
0.0
 40
0.0
 40
0.0
 40
0.0
 40
0.2392594369
 40
0.366942807
 40
0.4965419321000001
 40
0.6250813017
 40
0.7517523104000001
 40
1.0
 40
1.0
 40
1.0
 40
1.0
 10
559.2414809519
 20
352.9363933024
 30
0.0
 10
559.3609070646
 20
352.9116838917
 30
0.0
 10
559.5656108335999
 20
352.9197704792
 30
0.0
 10
559.7729637620999
 20
353.0766686814
 30
0.0
 10
559.8802398873999
 20
353.24499577
 30
0.0
 10
559.9428765549999
 20
353.4321989556
 30
0.0
 10
559.9831283066
 20
353.6863846272
 30
0.0
 10
559.9793725247
 20
353.8789883099
 30
0.0
 10
559.9677248270999
 20
354.0049881161
 30
0.0
  0
SPLINE
  5
44E
330
21B
100
AcDbEntity
  8
RUNDUNGEN
  6
Continuous
 62
     9
100
AcDbSpline
210
0.0
220
0.0
230
1.0
 70
     8
 71
     3
 72
    13
 73
     9
 74
     0
 42
0.0000000001
 43
0.0000000001
 40
0.0
 40
0.0
 40
0.0
 40
0.0
 40
0.2482478115
 40
0.3749189011
 40
0.5034584042
 40
0.6330576719
 40
0.7607411520000001
 40
1.0
 40
1.0
 40
1.0
 40
1.0
 10
531.5313142746999
 20
354.0049881164
 30
0.0
 10
531.5196666191999
 20
353.8789882436
 30
0.0
 10
531.5159107428
 20
353.6863844557
 30
0.0
 10
531.5561626481
 20
353.4321986298
 30
0.0
 10
531.6187994322
 20
353.2449952871
 30
0.0
 10
531.7260758716001
 20
353.0766681373
 30
0.0
 10
531.9334289322
 20
352.9197704
 30
0.0
 10
532.1381323466
 20
352.9116839144001
 30
0.0
 10
532.2575581569
 20
352.9363933061
 30
0.0
  0
SPLINE
  5
44F
330
21B
100
AcDbEntity
  8
RUNDUNGEN
  6
Continuous
 62
     9
100
AcDbSpline
210
0.0
220
0.0
230
1.0
 70
     8
 71
     3
 72
     9
 73
     5
 74
     0
 42
0.0000000001
 43
0.0000000001
 40
0.0
 40
0.0
 40
0.0
 40
0.0
 40
0.3405880483
 40
1.0
 40
1.0
 40
1.0
 40
1.0
 10
530.7992414644998
 20
354.0082140215
 30
0.0
 10
530.8823539791999
 20
354.0080641941
 30
0.0
 10
531.1263775205
 20
354.0073114546
 30
0.0
 10
531.3704162042999
 20
354.0072708255999
 30
0.0
 10
531.5313142746999
 20
354.0049881164
 30
0.0
  0
SPLINE
  5
450
330
21B
100
AcDbEntity
  8
RUNDUNGEN
  6
Continuous
 62
     9
100
AcDbSpline
210
0.0
220
0.0
230
1.0
 70
     8
 71
     3
 72
    12
 73
     8
 74
     0
 42
0.0000000001
 43
0.0000000001
 40
0.0
 40
0.0
 40
0.0
 40
0.0
 40
0.3592502275
 40
0.6680428757
 40
0.7903807432
 40
0.8865022093
 40
1.0
 40
1.0
 40
1.0
 40
1.0
 10
530.8024411751
 20
357.4713474476999
 30
0.0
 10
530.8023461381
 20
357.5973745604
 30
0.0
 10
530.7917430484
 20
357.8322089617
 30
0.0
 10
530.7541550189999
 20
358.1062515715
 30
0.0
 10
530.704902232
 20
358.2873413536
 30
0.0
 10
530.6640810288
 20
358.3907627762
 30
0.0
 10
530.6124644494999
 20
358.4650044566
 30
0.0
 10
530.5727592757
 20
358.4679692408999
 30
0.0
  0
SPLINE
  5
451
330
21B
100
AcDbEntity
  8
RUNDUNGEN
  6
Continuous
 62
     9
100
AcDbSpline
210
0.0
220
0.0
230
1.0
 70
     8
 71
     3
 72
    11
 73
     7
 74
     0
 42
0.0000000001
 43
0.0000000001
 40
0.0
 40
0.0
 40
0.0
 40
0.0
 40
0.1408961
 40
0.3660783299
 40
0.659413397
 40
1.0
 40
1.0
 40
1.0
 40
1.0
 10
531.5346053778999
 20
357.4681215457
 30
0.0
 10
531.5002577681999
 20
357.4697625380001
 30
0.0
 10
531.4108514337
 20
357.4682983384
 30
0.0
 10
531.2499572487
 20
357.4703799246
 30
0.0
 10
531.0402784479999
 20
357.4714813858999
 30
0.0
 10
530.8855508084999
 20
357.4698677118
 30
0.0
 10
530.8024411751
 20
357.4713474476999
 30
0.0
  0
SPLINE
  5
452
330
21B
100
AcDbEntity
  8
RUNDUNGEN
  6
Continuous
 62
     9
100
AcDbSpline
210
0.0
220
0.0
230
1.0
 70
     8
 71
     3
 72
    11
 73
     7
 74
     0
 42
0.0000000001
 43
0.0000000001
 40
0.0
 40
0.0
 40
0.0
 40
0.0
 40
0.245885411
 40
0.494397135
 40
0.7461821147
 40
1.0
 40
1.0
 40
1.0
 40
1.0
 10
530.5727592757
 20
358.4679692408999
 30
0.0
 10
530.6980134913
 20
358.4668889236
 30
0.0
 10
530.9522258273999
 20
358.4124744099
 30
0.0
 10
531.2710525115
 20
358.1882758459
 30
0.0
 10
531.4838156302999
 20
357.8574190736
 30
0.0
 10
531.534093061
 20
357.5974203639
 30
0.0
 10
531.5346053778999
 20
357.4681215457
 30
0.0
  0
SPLINE
  5
453
330
21B
100
AcDbEntity
  8
RUNDUNGEN
  6
Continuous
 62
     9
100
AcDbSpline
210
0.0
220
0.0
230
1.0
 70
     8
 71
     3
 72
     9
 73
     5
 74
     0
 42
0.0000000001
 43
0.0000000001
 40
0.0
 40
0.0
 40
0.0
 40
0.0
 40
0.3405859415999999
 40
1.0
 40
1.0
 40
1.0
 40
1.0
 10
560.6965979331
 20
357.4713474476999
 30
0.0
 10
560.613475557
 20
357.4711975930001
 30
0.0
 10
560.3694215515
 20
357.470444785
 30
0.0
 10
560.1253524057
 20
357.4704042133999
 30
0.0
 10
559.9644337303
 20
357.4681215457
 30
0.0
  0
SPLINE
  5
454
330
21B
100
AcDbEntity
  8
RUNDUNGEN
  6
Continuous
 62
     9
100
AcDbSpline
210
0.0
220
0.0
230
1.0
 70
     8
 71
     3
 72
    12
 73
     8
 74
     0
 42
0.0000000001
 43
0.0000000001
 40
0.0
 40
0.0
 40
0.0
 40
0.0
 40
0.1134985339
 40
0.2096202163
 40
0.3319582633
 40
0.6407510772000001
 40
1.0
 40
1.0
 40
1.0
 40
1.0
 10
560.9262798325
 20
358.4679692408999
 30
0.0
 10
560.8865744
 20
358.4650044373
 30
0.0
 10
560.8349577255999
 20
358.3907621967
 30
0.0
 10
560.7941366033998
 20
358.2873403696
 30
0.0
 10
560.7448838269999
 20
358.106250378
 30
0.0
 10
560.7072960346999
 20
357.8322080857
 30
0.0
 10
560.6966929698
 20
357.5973740986
 30
0.0
 10
560.6965979331
 20
357.4713474476999
 30
0.0
  0
SPLINE
  5
455
330
21B
100
AcDbEntity
  8
RUNDUNGEN
  6
Continuous
 62
     9
100
AcDbSpline
210
0.0
220
0.0
230
1.0
 70
     8
 71
     3
 72
    11
 73
     7
 74
     0
 42
0.0000000001
 43
0.0000000001
 40
0.0
 40
0.0
 40
0.0
 40
0.0
 40
0.2538176474
 40
0.5056045077000001
 40
0.7541219586
 40
1.0
 40
1.0
 40
1.0
 40
1.0
 10
559.9644337303
 20
357.4681215457
 30
0.0
 10
559.9650639464999
 20
357.5974196536
 30
0.0
 10
560.0151618055999
 20
357.857420637
 30
0.0
 10
560.2280035827999
 20
358.1882813996
 30
0.0
 10
560.546816378
 20
358.4124576401
 30
0.0
 10
560.8010292569
 20
358.4669100547
 30
0.0
 10
560.9262798325
 20
358.4679692408999
 30
0.0
  0
SPLINE
  5
456
330
21B
100
AcDbEntity
  8
RUNDUNGEN
  6
Continuous
 62
     9
100
AcDbSpline
210
0.0
220
0.0
230
1.0
 70
     8
 71
     3
 72
    11
 73
     7
 74
     0
 42
0.0000000001
 43
0.0000000001
 40
0.0
 40
0.0
 40
0.0
 40
0.0
 40
0.345732309
 40
0.6451108824000001
 40
0.8695771162999999
 40
1.0
 40
1.0
 40
1.0
 40
1.0
 10
558.1560784587
 20
359.0403382294001
 30
0.0
 10
558.2216843503999
 20
358.9627972484
 30
0.0
 10
558.3357194901
 20
358.8113030804
 30
0.0
 10
558.4838019646999
 20
358.60264436
 30
0.0
 10
558.5835646683
 20
358.4390638296
 30
0.0
 10
558.6258100454999
 20
358.3415536502
 30
0.0
 10
558.6314477882
 20
358.3036542511
 30
0.0
  0
SPLINE
  5
457
330
21B
100
AcDbEntity
  8
RUNDUNGEN
  6
Continuous
 62
     9
100
AcDbSpline
210
0.0
220
0.0
230
1.0
 70
     8
 71
     3
 72
     9
 73
     5
 74
     0
 42
0.0000000001
 43
0.0000000001
 40
0.0
 40
0.0
 40
0.0
 40
0.0
 40
0.5496699659000001
 40
1.0
 40
1.0
 40
1.0
 40
1.0
 10
558.1560784587
 20
359.0403382294001
 30
0.0
 10
558.1560784587
 20
358.8993598323
 30
0.0
 10
558.1467319856999
 20
358.6429332338
 30
0.0
 10
558.1172064398
 20
358.3873678326999
 30
0.0
 10
558.0936590703999
 20
358.2742937861
 30
0.0
  0
SPLINE
  5
458
330
21B
100
AcDbEntity
  8
RUNDUNGEN
  6
Continuous
 62
     9
100
AcDbSpline
210
0.0
220
0.0
230
1.0
 70
     8
 71
     3
 72
     9
 73
     5
 74
     0
 42
0.0000000001
 43
0.0000000001
 40
0.0
 40
0.0
 40
0.0
 40
0.0
 40
0.2225741652
 40
1.0
 40
1.0
 40
1.0
 40
1.0
 10
558.6314477882
 20
358.3036542511
 30
0.0
 10
558.5959636799999
 20
358.2839979285
 30
0.0
 10
558.4242947679999
 20
358.2172567813
 30
0.0
 10
558.2301027464
 20
358.2361030168
 30
0.0
 10
558.0936590703999
 20
358.2742937861
 30
0.0
  0
SPLINE
  5
459
330
21B
100
AcDbEntity
  8
RUNDUNGEN
  6
Continuous
 62
     9
100
AcDbSpline
210
0.0
220
0.0
230
1.0
 70
     8
 71
     3
 72
    11
 73
     7
 74
     0
 42
0.0000000001
 43
0.0000000001
 40
0.0
 40
0.0
 40
0.0
 40
0.0
 40
0.2478781778
 40
0.4888318832
 40
0.73036601
 40
1.0
 40
1.0
 40
1.0
 40
1.0
 10
558.753961095
 20
357.5404817349
 30
0.0
 10
558.7165522988999
 20
357.5961717932
 30
0.0
 10
558.6495764923999
 20
357.7108891456
 30
0.0
 10
558.5796708655
 20
357.8971010699
 30
0.0
 10
558.5542708423
 20
358.1016919645
 30
0.0
 10
558.5935971184999
 20
358.2412598299
 30
0.0
 10
558.6314446998999
 20
358.3036544289
 30
0.0
  0
SPLINE
  5
45A
330
21B
100
AcDbEntity
  8
RUNDUNGEN
  6
Continuous
 62
     9
100
AcDbSpline
210
0.0
220
0.0
230
1.0
 70
     8
 71
     3
 72
     9
 73
     5
 74
     0
 42
0.0000000001
 43
0.0000000001
 40
0.0
 40
0.0
 40
0.0
 40
0.0
 40
0.5297062909
 40
1.0
 40
1.0
 40
1.0
 40
1.0
 10
557.9014777848
 20
356.774437536
 30
0.0
 10
558.1068632779
 20
356.8204355586
 30
0.0
 10
558.4803534637
 20
356.9999247695
 30
0.0
 10
558.7179198999999
 20
357.357123988
 30
0.0
 10
558.753961095
 20
357.5404817349
 30
0.0
  0
SPLINE
  5
45B
330
21B
100
AcDbEntity
  8
RUNDUNGEN
  6
Continuous
 62
     9
100
AcDbSpline
210
0.0
220
0.0
230
1.0
 70
     8
 71
     3
 72
    12
 73
     8
 74
     0
 42
0.0000000001
 43
0.0000000001
 40
0.0
 40
0.0
 40
0.0
 40
0.0
 40
0.0418833576
 40
0.1081172007
 40
0.3253316337
 40
0.6367726148
 40
1.0
 40
1.0
 40
1.0
 40
1.0
 10
559.4423215074999
 20
358.5568801394
 30
0.0
 10
559.4568288054
 20
358.558174997
 30
0.0
 10
559.4897973159
 20
358.5835445819
 30
0.0
 10
559.5410787808
 20
358.6840720357
 30
0.0
 10
559.5897817676
 20
358.887923865
 30
0.0
 10
559.6260793663999
 20
359.1954119778
 30
0.0
 10
559.634471167
 20
359.4304152305
 30
0.0
 10
559.634471167
 20
359.5567278344999
 30
0.0
  0
SPLINE
  5
45C
330
21B
100
AcDbEntity
  8
RUNDUNGEN
  6
Continuous
 62
     9
100
AcDbSpline
210
0.0
220
0.0
230
1.0
 70
     8
 71
     3
 72
     9
 73
     5
 74
     0
 42
0.0000000001
 43
0.0000000001
 40
0.0
 40
0.0
 40
0.0
 40
0.0
 40
0.2576989501
 40
1.0
 40
1.0
 40
1.0
 40
1.0
 10
558.6314485107
 20
358.3036532654
 30
0.0
 10
558.6904345844
 20
358.3479008695
 30
0.0
 10
558.9360292213999
 20
358.4971759539
 30
0.0
 10
559.2299253424999
 20
358.5582223676
 30
0.0
 10
559.4423215129999
 20
358.5568785891001
 30
0.0
  0
SPLINE
  5
45D
330
21B
100
AcDbEntity
  8
RUNDUNGEN
  6
Continuous
 62
     9
100
AcDbSpline
210
0.0
220
0.0
230
1.0
 70
     8
 71
     3
 72
     9
 73
     5
 74
     0
 42
0.0000000001
 43
0.0000000001
 40
0.0
 40
0.0
 40
0.0
 40
0.0
 40
0.4503299493
 40
1.0
 40
1.0
 40
1.0
 40
1.0
 10
533.4053800378
 20
358.2742937861
 30
0.0
 10
533.3818326728
 20
358.3873678114
 30
0.0
 10
533.3523071235999
 20
358.6429332118
 30
0.0
 10
533.3429606495999
 20
358.8993598105
 30
0.0
 10
533.3429606495999
 20
359.0403382293
 30
0.0
  0
SPLINE
  5
45E
330
21B
100
AcDbEntity
  8
RUNDUNGEN
  6
Continuous
 62
     9
100
AcDbSpline
210
0.0
220
0.0
230
1.0
 70
     8
 71
     3
 72
    13
 73
     9
 74
     0
 42
0.0000000001
 43
0.0000000001
 40
0.0
 40
0.0
 40
0.0
 40
0.0
 40
0.0534485502
 40
0.1307856572
 40
0.2321956241
 40
0.3552781786
 40
0.6545055018000001
 40
1.0
 40
1.0
 40
1.0
 40
1.0
 10
532.8675913198999
 20
358.3036542512
 30
0.0
 10
532.8676297294
 20
358.3193666829
 30
0.0
 10
532.8796607568
 20
358.3569619834
 30
0.0
 10
532.9087145324999
 20
358.4182905453
 30
0.0
 10
532.9509792226999
 20
358.4965650771
 30
0.0
 10
533.032499683
 20
358.6271429085
 30
0.0
 10
533.1614831220999
 20
358.8126782846
 30
0.0
 10
533.2805157952999
 20
358.9602360039
 30
0.0
 10
533.3429606495999
 20
359.0403382293
 30
0.0
  0
SPLINE
  5
45F
330
21B
100
AcDbEntity
  8
RUNDUNGEN
  6
Continuous
 62
     9
100
AcDbSpline
210
0.0
220
0.0
230
1.0
 70
     8
 71
     3
 72
     9
 73
     5
 74
     0
 42
0.0000000001
 43
0.0000000001
 40
0.0
 40
0.0
 40
0.0
 40
0.0
 40
0.2831968527
 40
1.0
 40
1.0
 40
1.0
 40
1.0
 10
533.4053800378
 20
358.2742937861
 30
0.0
 10
533.3558677825
 20
358.2601318575
 30
0.0
 10
533.1788211972
 20
358.2230737183
 30
0.0
 10
532.9817185862
 20
358.2406840993
 30
0.0
 10
532.8675913198999
 20
358.3036542512
 30
0.0
  0
SPLINE
  5
460
330
21B
100
AcDbEntity
  8
RUNDUNGEN
  6
Continuous
 62
     9
100
AcDbSpline
210
0.0
220
0.0
230
1.0
 70
     8
 71
     3
 72
    11
 73
     7
 74
     0
 42
0.0000000001
 43
0.0000000001
 40
0.0
 40
0.0
 40
0.0
 40
0.0
 40
0.2696339915
 40
0.5111681166
 40
0.7521218165000001
 40
1.0
 40
1.0
 40
1.0
 40
1.0
 10
532.8675944062
 20
358.3036544287001
 30
0.0
 10
532.9054418723999
 20
358.2412597595
 30
0.0
 10
532.9447683076
 20
358.1016919928
 30
0.0
 10
532.9193682326
 20
357.8971010626
 30
0.0
 10
532.8494626154
 20
357.7108891511
 30
0.0
 10
532.7824868126
 20
357.5961717922
 30
0.0
 10
532.7450780126
 20
357.5404817349
 30
0.0
  0
SPLINE
  5
461
330
21B
100
AcDbEntity
  8
RUNDUNGEN
  6
Continuous
 62
     9
100
AcDbSpline
210
0.0
220
0.0
230
1.0
 70
     8
 71
     3
 72
     9
 73
     5
 74
     0
 42
0.0000000001
 43
0.0000000001
 40
0.0
 40
0.0
 40
0.0
 40
0.0
 40
0.4702937091
 40
1.0
 40
1.0
 40
1.0
 40
1.0
 10
532.7450780126
 20
357.5404817349
 30
0.0
 10
532.7811192076
 20
357.357123988
 30
0.0
 10
533.0186856445999
 20
356.99992477
 30
0.0
 10
533.3921758305999
 20
356.8204355598
 30
0.0
 10
533.5975613237
 20
356.7744375376
 30
0.0
  0
SPLINE
  5
462
330
21B
100
AcDbEntity
  8
RUNDUNGEN
  6
Continuous
 62
     9
100
AcDbSpline
210
0.0
220
0.0
230
1.0
 70
     8
 71
     3
 72
    12
 73
     8
 74
     0
 42
0.0000000001
 43
0.0000000001
 40
0.0
 40
0.0
 40
0.0
 40
0.0
 40
0.3632273848
 40
0.6746683658000001
 40
0.8918827991
 40
0.9581166423
 40
1.0
 40
1.0
 40
1.0
 40
1.0
 10
531.8645679411999
 20
359.5567278344999
 30
0.0
 10
531.8645679412999
 20
359.4304152306
 30
0.0
 10
531.8729597418
 20
359.1954119782
 30
0.0
 10
531.9092573406
 20
358.8879238654
 30
0.0
 10
531.9579603273
 20
358.6840720359
 30
0.0
 10
532.0092417923
 20
358.5835445821
 30
0.0
 10
532.0422103028
 20
358.558174997
 30
0.0
 10
532.0567176007999
 20
358.5568801394
 30
0.0
  0
SPLINE
  5
463
330
21B
100
AcDbEntity
  8
RUNDUNGEN
  6
Continuous
 62
     9
100
AcDbSpline
210
0.0
220
0.0
230
1.0
 70
     8
 71
     3
 72
     9
 73
     5
 74
     0
 42
0.0000000001
 43
0.0000000001
 40
0.0
 40
0.0
 40
0.0
 40
0.0
 40
0.2469335812
 40
1.0
 40
1.0
 40
1.0
 40
1.0
 10
532.0567175939999
 20
358.5568782040001
 30
0.0
 10
532.1272856342
 20
358.5573247019
 30
0.0
 10
532.4124187854001
 20
358.5393700222
 30
0.0
 10
532.6954292589999
 20
358.432794276
 30
0.0
 10
532.8675903209999
 20
358.3036528907
 30
0.0
  0
SPLINE
  5
466
330
21B
100
AcDbEntity
  8
RUNDUNGEN
  6
Continuous
 62
     9
100
AcDbSpline
210
0.0
220
0.0
230
1.0
 70
     8
 71
     3
 72
     9
 73
     5
 74
     0
 42
0.0000000001
 43
0.0000000001
 40
0.0
 40
0.0
 40
0.0
 40
0.0
 40
0.4511964778000001
 40
1.0
 40
1.0
 40
1.0
 40
1.0
 10
532.2575581607
 20
352.9363929047
 30
0.0
 10
532.2855757973999
 20
352.824381794
 30
0.0
 10
532.3211318693999
 20
352.5698487579
 30
0.0
 10
532.3324365183
 20
352.3140141696
 30
0.0
 10
532.3325319730001
 20
352.1735743636
 30
0.0
  0
SPLINE
  5
467
330
21B
100
AcDbEntity
  8
RUNDUNGEN
  6
Continuous
 62
     9
100
AcDbSpline
210
0.0
220
0.0
230
1.0
 70
     8
 71
     3
 72
     9
 73
     5
 74
     0
 42
0.0000000001
 43
0.0000000001
 40
0.0
 40
0.0
 40
0.0
 40
0.0
 40
0.1408982706
 40
1.0
 40
1.0
 40
1.0
 40
1.0
 10
559.9677245829
 20
354.0049881161
 30
0.0
 10
560.0021041487999
 20
354.0054758716999
 30
0.0
 10
560.2461271784999
 20
354.0072876621
 30
0.0
 10
560.4901539402
 20
354.0078360907
 30
0.0
 10
560.6997978821
 20
354.008214018
 30
0.0
  0
SPLINE
  5
468
330
21B
100
AcDbEntity
  8
RUNDUNGEN
  6
Continuous
 62
     9
100
AcDbSpline
210
0.0
220
0.0
230
1.0
 70
     8
 71
     3
 72
    12
 73
     8
 74
     0
 42
0.0000000001
 43
0.0000000001
 40
0.0
 40
0.0
 40
0.0
 40
0.0
 40
0.2816512466
 40
0.5580684940000001
 40
0.8152597644
 40
0.9235336848999999
 40
1.0
 40
1.0
 40
1.0
 40
1.0
 10
562.2841853890999
 20
306.6763453312
 30
0.0
 10
562.1704673186
 20
306.6217946277
 30
0.0
 10
561.9444532533999
 20
306.5150691376
 30
0.0
 10
561.6116238037
 20
306.3652755024
 30
0.0
 10
561.3466088187999
 20
306.2530488494
 30
0.0
 10
561.1607244098
 20
306.1860492381
 30
0.0
 10
561.0811109709
 20
306.1615558187
 30
0.0
 10
561.0471858257
 20
306.156907522
 30
0.0
  0
SPLINE
  5
469
330
21B
100
AcDbEntity
  8
RUNDUNGEN
  6
Continuous
 62
     9
100
AcDbSpline
210
0.0
220
0.0
230
1.0
 70
     8
 71
     3
 72
    11
 73
     7
 74
     0
 42
0.0000000001
 43
0.0000000001
 40
0.0
 40
0.0
 40
0.0
 40
0.0
 40
0.2437197161
 40
0.491937553
 40
0.7448586011
 40
1.0
 40
1.0
 40
1.0
 40
1.0
 10
561.0472560317999
 20
306.1569173689
 30
0.0
 10
561.1711810164999
 20
306.1564312766
 30
0.0
 10
561.4238690487999
 20
306.1023774405
 30
0.0
 10
561.7410772091
 20
305.8784966592
 30
0.0
 10
561.9548604443
 20
305.5481951797
 30
0.0
 10
562.0078944373999
 20
305.2881795867
 30
0.0
 10
562.0100321012
 20
305.1584635953
 30
0.0
  0
SPLINE
  5
46A
330
21B
100
AcDbEntity
  8
RUNDUNGEN
  6
Continuous
 62
     9
100
AcDbSpline
210
0.0
220
0.0
230
1.0
 70
     8
 71
     3
 72
    11
 73
     7
 74
     0
 42
0.0000000001
 43
0.0000000001
 40
0.0
 40
0.0
 40
0.0
 40
0.0
 40
0.2551414055
 40
0.5080624659000001
 40
0.7562803049
 40
1.0
 40
1.0
 40
1.0
 40
1.0
 10
529.4890080375999
 20
305.1584636123
 30
0.0
 10
529.49114561
 20
305.2881795849
 30
0.0
 10
529.5441793626
 20
305.548195173
 30
0.0
 10
529.7579621805
 20
305.8784968474
 30
0.0
 10
530.0751701038999
 20
306.1023778871
 30
0.0
 10
530.3278581292
 20
306.1564317085
 30
0.0
 10
530.4517830808
 20
306.1569177143
 30
0.0
  0
SPLINE
  5
46B
330
21B
100
AcDbEntity
  8
RUNDUNGEN
  6
Continuous
 62
     9
100
AcDbSpline
210
0.0
220
0.0
230
1.0
 70
     8
 71
     3
 72
    12
 73
     8
 74
     0
 42
0.0000000001
 43
0.0000000001
 40
0.0
 40
0.0
 40
0.0
 40
0.0
 40
0.0764402058
 40
0.1846890911
 40
0.4418514777000001
 40
0.7183013839
 40
1.0
 40
1.0
 40
1.0
 40
1.0
 10
530.4518418039
 20
306.1569085095
 30
0.0
 10
530.4179284462999
 20
306.1615544
 30
0.0
 10
530.3383384061
 20
306.1860434689
 30
0.0
 10
530.1524865764999
 20
306.2530221019
 30
0.0
 10
529.8874922131999
 20
306.3652682038
 30
0.0
 10
529.5546474545999
 20
306.5150734152
 30
0.0
 10
529.3285841230999
 20
306.6217737721
 30
0.0
 10
529.2148537944
 20
306.6763452961
 30
0.0
  0
SPLINE
  5
46C
330
21B
100
AcDbEntity
  8
RUNDUNGEN
  6
Continuous
 62
     9
100
AcDbSpline
210
0.0
220
0.0
230
1.0
 70
     8
 71
     3
 72
    11
 73
     7
 74
     0
 42
0.0000000001
 43
0.0000000001
 40
0.0
 40
0.0
 40
0.0
 40
0.0
 40
0.2533656674
 40
0.5054044150000001
 40
0.7542865335000001
 40
1.0
 40
1.0
 40
1.0
 40
1.0
 10
529.5048787715
 20
305.1524609684
 30
0.0
 10
529.5066416611
 20
305.2824443304
 30
0.0
 10
529.5601503567
 20
305.5436663426
 30
0.0
 10
529.7779143019
 20
305.874643414
 30
0.0
 10
530.1009738619999
 20
306.0978826245
 30
0.0
 10
530.3574769179999
 20
306.150977023
 30
0.0
 10
530.4835460430999
 20
306.1510848724
 30
0.0
  0
SPLINE
  5
46D
330
21B
100
AcDbEntity
  8
RUNDUNGEN
  6
Continuous
 62
     9
100
AcDbSpline
210
0.0
220
0.0
230
1.0
 70
     8
 71
     3
 72
    11
 73
     7
 74
     0
 42
0.0000000001
 43
0.0000000001
 40
0.0
 40
0.0
 40
0.0
 40
0.0
 40
0.2533645866
 40
0.5054060348000001
 40
0.7542959162000001
 40
1.0
 40
1.0
 40
1.0
 40
1.0
 10
533.976097511
 20
304.2472514591
 30
0.0
 10
533.9782065702999
 20
304.3772039252
 30
0.0
 10
534.0311639681999
 20
304.638385205
 30
0.0
 10
534.2490732251
 20
304.9693277242
 30
0.0
 10
534.5719726457999
 20
305.1925187348
 30
0.0
 10
534.8284146387999
 20
305.2458189561999
 30
0.0
 10
534.9544545601999
 20
305.2458809939
 30
0.0
  0
SPLINE
  5
46E
330
21B
100
AcDbEntity
  8
RUNDUNGEN
  6
Continuous
 62
     9
100
AcDbSpline
210
0.0
220
0.0
230
1.0
 70
     8
 71
     3
 72
    11
 73
     7
 74
     0
 42
0.0000000001
 43
0.0000000001
 40
0.0
 40
0.0
 40
0.0
 40
0.0
 40
0.3534608842
 40
0.6597472782000001
 40
0.8803793973000001
 40
1.0
 40
1.0
 40
1.0
 40
1.0
 10
535.1795507258
 20
304.2472514592
 30
0.0
 10
535.1795507258
 20
304.3709009307
 30
0.0
 10
535.1704088814
 20
304.6007193797
 30
0.0
 10
535.1251336666
 20
304.9104709552
 30
0.0
 10
535.068608506
 20
305.1197692523
 30
0.0
 10
534.9953180151999
 20
305.2368649266
 30
0.0
 10
534.9544545601999
 20
305.2458809939
 30
0.0
  0
SPLINE
  5
46F
330
21B
100
AcDbEntity
  8
RUNDUNGEN
  6
Continuous
 62
     9
100
AcDbSpline
210
0.0
220
0.0
230
1.0
 70
     8
 71
     3
 72
    11
 73
     7
 74
     0
 42
0.0000000001
 43
0.0000000001
 40
0.0
 40
0.0
 40
0.0
 40
0.0
 40
0.353460885
 40
0.6597472796
 40
0.880379398
 40
1.0
 40
1.0
 40
1.0
 40
1.0
 10
556.3194883817
 20
304.2472514592
 30
0.0
 10
556.3194883817
 20
304.370900931
 30
0.0
 10
556.3286302272
 20
304.6007193805
 30
0.0
 10
556.3739054418
 20
304.9104709562
 30
0.0
 10
556.4304306024999
 20
305.1197692531
 30
0.0
 10
556.5037210931999
 20
305.2368649266
 30
0.0
 10
556.5445845480999
 20
305.2458809939
 30
0.0
  0
SPLINE
  5
470
330
21B
100
AcDbEntity
  8
RUNDUNGEN
  6
Continuous
 62
     9
100
AcDbSpline
210
0.0
220
0.0
230
1.0
 70
     8
 71
     3
 72
    11
 73
     7
 74
     0
 42
0.0000000001
 43
0.0000000001
 40
0.0
 40
0.0
 40
0.0
 40
0.0
 40
0.2533645915
 40
0.5054060414000001
 40
0.7542959206999999
 40
1.0
 40
1.0
 40
1.0
 40
1.0
 10
557.5229415973
 20
304.2472514591
 30
0.0
 10
557.5208325276
 20
304.3772039276
 30
0.0
 10
557.4678751444
 20
304.6383852118
 30
0.0
 10
557.2499658754
 20
304.96932773
 30
0.0
 10
556.9270664573
 20
305.1925187377
 30
0.0
 10
556.6706244670999
 20
305.2458189555
 30
0.0
 10
556.5445845480999
 20
305.2458809939
 30
0.0
  0
SPLINE
  5
471
330
21B
100
AcDbEntity
  8
RUNDUNGEN
  6
Continuous
 62
     9
100
AcDbSpline
210
0.0
220
0.0
230
1.0
 70
     8
 71
     3
 72
    11
 73
     7
 74
     0
 42
0.0000000001
 43
0.0000000001
 40
0.0
 40
0.0
 40
0.0
 40
0.0
 40
0.2533656429
 40
0.5054043891
 40
0.7542865266
 40
1.0
 40
1.0
 40
1.0
 40
1.0
 10
561.9941573106
 20
305.1524609684
 30
0.0
 10
561.9923944221
 20
305.2824443914
 30
0.0
 10
561.9388861122001
 20
305.543666508
 30
0.0
 10
561.721123466
 20
305.8746445708
 30
0.0
 10
561.3980650524999
 20
306.0978857508
 30
0.0
 10
561.1415621924
 20
306.1509818365
 30
0.0
 10
561.0154929931
 20
306.1510905031
 30
0.0
  0
SPLINE
  5
472
330
21B
100
AcDbEntity
  8
RUNDUNGEN
  6
Continuous
 62
     9
100
AcDbSpline
210
0.0
220
0.0
230
1.0
 70
     8
 71
     3
 72
    10
 73
     6
 74
     0
 42
0.0000000001
 43
0.0000000001
 40
0.0
 40
0.0
 40
0.0
 40
0.0
 40
0.3947102478
 40
0.6535428115
 40
1.0
 40
1.0
 40
1.0
 40
1.0
 10
559.3888875663
 20
300.0530979085
 30
0.0
 10
559.2534564030001
 20
299.8444153774
 30
0.0
 10
558.9534979636
 20
299.5454795231
 30
0.0
 10
558.4160241491
 20
299.2181182518
 30
0.0
 10
558.0382018312999
 20
299.0990246037
 30
0.0
 10
557.8198745348999
 20
299.0950109359
 30
0.0
  0
SPLINE
  5
473
330
21B
100
AcDbEntity
  8
RUNDUNGEN
  6
Continuous
 62
     9
100
AcDbSpline
210
0.0
220
0.0
230
1.0
 70
     8
 71
     3
 72
    11
 73
     7
 74
     0
 42
0.0000000001
 43
0.0000000001
 40
0.0
 40
0.0
 40
0.0
 40
0.0
 40
0.245853807
 40
0.4943762024
 40
0.7461835523999999
 40
1.0
 40
1.0
 40
1.0
 40
1.0
 10
556.5528703465999
 20
299.1790655938
 30
0.0
 10
556.6787502023999
 20
299.179085989
 30
0.0
 10
556.9347219017999
 20
299.232007539
 30
0.0
 10
557.2563611657
 20
299.4557176898
 30
0.0
 10
557.4715771776999
 20
299.7876268768
 30
0.0
 10
557.5220363894
 20
300.0489596244
 30
0.0
 10
557.5229415972
 20
300.178913289
 30
0.0
  0
SPLINE
  5
474
330
21B
100
AcDbEntity
  8
RUNDUNGEN
  6
Continuous
 62
     9
100
AcDbSpline
210
0.0
220
0.0
230
1.0
 70
     8
 71
     3
 72
    12
 73
     8
 74
     0
 42
0.0000000001
 43
0.0000000001
 40
0.0
 40
0.0
 40
0.0
 40
0.0
 40
0.1143014288
 40
0.2105653066
 40
0.3329260947
 40
0.6414464911
 40
1.0
 40
1.0
 40
1.0
 40
1.0
 10
556.5528703465999
 20
299.1790655938
 30
0.0
 10
556.5126984086
 20
299.1820176904
 30
0.0
 10
556.4599906908999
 20
299.2562252977
 30
0.0
 10
556.4183738515001
 20
299.3603777909
 30
0.0
 10
556.3682908501999
 20
299.5420298809
 30
0.0
 10
556.3301395266001
 20
299.8170006206
 30
0.0
 10
556.3194883817
 20
300.0525576583001
 30
0.0
 10
556.3194883817
 20
300.178913289
 30
0.0
  0
SPLINE
  5
475
330
21B
100
AcDbEntity
  8
RUNDUNGEN
  6
Continuous
 62
     9
100
AcDbSpline
210
0.0
220
0.0
230
1.0
 70
     8
 71
     3
 72
    12
 73
     8
 74
     0
 42
0.0000000001
 43
0.0000000001
 40
0.0
 40
0.0
 40
0.0
 40
0.0
 40
0.1143014288
 40
0.2105653066
 40
0.3329260947
 40
0.6414464911
 40
1.0
 40
1.0
 40
1.0
 40
1.0
 10
534.9461687616999
 20
299.1790655938
 30
0.0
 10
534.9863406995999
 20
299.1820176904
 30
0.0
 10
535.0390484173
 20
299.2562252976
 30
0.0
 10
535.0806652566999
 20
299.3603777908001
 30
0.0
 10
535.130748258
 20
299.5420298808
 30
0.0
 10
535.1688995816
 20
299.8170006206
 30
0.0
 10
535.1795507264999
 20
300.0525576582
 30
0.0
 10
535.1795507264999
 20
300.178913289
 30
0.0
  0
SPLINE
  5
476
330
21B
100
AcDbEntity
  8
RUNDUNGEN
  6
Continuous
 62
     9
100
AcDbSpline
210
0.0
220
0.0
230
1.0
 70
     8
 71
     3
 72
    11
 73
     7
 74
     0
 42
0.0000000001
 43
0.0000000001
 40
0.0
 40
0.0
 40
0.0
 40
0.0
 40
0.2458538137
 40
0.4943762122
 40
0.7461835596
 40
1.0
 40
1.0
 40
1.0
 40
1.0
 10
534.9461687616999
 20
299.1790655938
 30
0.0
 10
534.8202889023999
 20
299.1790859887
 30
0.0
 10
534.5643171987999
 20
299.2320075426
 30
0.0
 10
534.2426779313999
 20
299.4557176985
 30
0.0
 10
534.0274619368
 20
299.7876268865
 30
0.0
 10
533.9770027039
 20
300.0489596281
 30
0.0
 10
533.976097511
 20
300.178913289
 30
0.0
  0
SPLINE
  5
477
330
21B
100
AcDbEntity
  8
RUNDUNGEN
  6
Continuous
 62
     9
100
AcDbSpline
210
0.0
220
0.0
230
1.0
 70
     8
 71
     3
 72
    10
 73
     6
 74
     0
 42
0.0000000001
 43
0.0000000001
 40
0.0
 40
0.0
 40
0.0
 40
0.0
 40
0.3464640018
 40
0.6052951899
 40
1.0
 40
1.0
 40
1.0
 40
1.0
 10
533.6791645733
 20
299.0950109359
 30
0.0
 10
533.4608329611
 20
299.0990253689
 30
0.0
 10
533.0830066418
 20
299.2181198087
 30
0.0
 10
532.5455360849999
 20
299.5454854298
 30
0.0
 10
532.2455768014999
 20
299.8444155844
 30
0.0
 10
532.1101515419
 20
300.0530979085
 30
0.0
  0
SPLINE
  5
478
330
21B
100
AcDbEntity
  8
RUNDUNGEN
  6
Continuous
 62
     9
100
AcDbSpline
210
0.0
220
0.0
230
1.0
 70
     8
 71
     3
 72
    10
 73
     6
 74
     0
 42
0.0000000001
 43
0.0000000001
 40
0.0
 40
0.0
 40
0.0
 40
0.0
 40
0.1386339828
 40
0.3511942047
 40
1.0
 40
1.0
 40
1.0
 40
1.0
 10
560.5386414687
 20
277.7444442535
 30
0.0
 10
560.5674951621999
 20
277.7499057736
 30
0.0
 10
560.6289174403999
 20
277.8031522204
 30
0.0
 10
560.7206441135999
 20
277.9935131983001
 30
0.0
 10
560.7560607022
 20
278.1763129229
 30
0.0
 10
560.7740541965
 20
278.3125626911
 30
0.0
  0
SPLINE
  5
479
330
21B
100
AcDbEntity
  8
RUNDUNGEN
  6
Continuous
 62
     9
100
AcDbSpline
210
0.0
220
0.0
230
1.0
 70
     8
 71
     3
 72
    11
 73
     7
 74
     0
 42
0.0000000001
 43
0.0000000001
 40
0.0
 40
0.0
 40
0.0
 40
0.0
 40
0.2456969364
 40
0.4945826668000001
 40
0.7466286454000001
 40
1.0
 40
1.0
 40
1.0
 40
1.0
 10
560.5386414692
 20
277.7444442536
 30
0.0
 10
560.4124394749
 20
277.7442184884
 30
0.0
 10
560.1555221016999
 20
277.7971152027
 30
0.0
 10
559.8319665387999
 20
278.020183357
 30
0.0
 10
559.6131735965
 20
278.3513968604
 30
0.0
 10
559.5608316744999
 20
278.612955733
 30
0.0
 10
559.5582251285
 20
278.7430737884
 30
0.0
  0
SPLINE
  5
47A
330
21B
100
AcDbEntity
  8
RUNDUNGEN
  6
Continuous
 62
     9
100
AcDbSpline
210
0.0
220
0.0
230
1.0
 70
     8
 71
     3
 72
    11
 73
     7
 74
     0
 42
0.0000000001
 43
0.0000000001
 40
0.0
 40
0.0
 40
0.0
 40
0.0
 40
0.2457091995
 40
0.4945870052
 40
0.7466277202000001
 40
1.0
 40
1.0
 40
1.0
 40
1.0
 10
559.2843165458
 20
277.4904883726
 30
0.0
 10
559.1581012874
 20
277.4903476086
 30
0.0
 10
558.9011889006
 20
277.5430674983
 30
0.0
 10
558.5774679772
 20
277.7662012251
 30
0.0
 10
558.3592054612999
 20
278.0974387788
 30
0.0
 10
558.3055709407
 20
278.3589781833
 30
0.0
 10
558.3038060834
 20
278.4891179074
 30
0.0
  0
SPLINE
  5
47B
330
21B
100
AcDbEntity
  8
RUNDUNGEN
  6
Continuous
 62
     9
100
AcDbSpline
210
0.0
220
0.0
230
1.0
 70
     8
 71
     3
 72
    11
 73
     7
 74
     0
 42
0.0000000001
 43
0.0000000001
 40
0.0
 40
0.0
 40
0.0
 40
0.0
 40
0.1220976344
 40
0.3372955676
 40
0.6390863566000001
 40
1.0
 40
1.0
 40
1.0
 40
1.0
 10
556.8568920724
 20
277.382612073
 30
0.0
 10
556.8910854852999
 20
277.3901157814
 30
0.0
 10
556.9568887166
 20
277.4781941206
 30
0.0
 10
557.0112013161
 20
277.6477138405
 30
0.0
 10
557.0586443633
 20
277.8980960702
 30
0.0
 10
557.0740227251999
 20
278.0870650169
 30
0.0
 10
557.0788211621
 20
278.1904326123
 30
0.0
  0
SPLINE
  5
47C
330
21B
100
AcDbEntity
  8
RUNDUNGEN
  6
Continuous
 62
     9
100
AcDbSpline
210
0.0
220
0.0
230
1.0
 70
     8
 71
     3
 72
    11
 73
     7
 74
     0
 42
0.0000000001
 43
0.0000000001
 40
0.0
 40
0.0
 40
0.0
 40
0.0
 40
0.1220976474
 40
0.337295579
 40
0.6390863620000001
 40
1.0
 40
1.0
 40
1.0
 40
1.0
 10
534.6421470358999
 20
277.382612073
 30
0.0
 10
534.6079536183
 20
277.3901157801
 30
0.0
 10
534.5421503690999
 20
277.4781941107
 30
0.0
 10
534.4878377664
 20
277.6477138392
 30
0.0
 10
534.4403947252999
 20
277.8980960683
 30
0.0
 10
534.4250163752
 20
278.0870650165
 30
0.0
 10
534.4202179460999
 20
278.1904326123
 30
0.0
  0
SPLINE
  5
47D
330
21B
100
AcDbEntity
  8
RUNDUNGEN
  6
Continuous
 62
     9
100
AcDbSpline
210
0.0
220
0.0
230
1.0
 70
     8
 71
     3
 72
    11
 73
     7
 74
     0
 42
0.0000000001
 43
0.0000000001
 40
0.0
 40
0.0
 40
0.0
 40
0.0
 40
0.2457091974
 40
0.4945869966
 40
0.7466277122000001
 40
1.0
 40
1.0
 40
1.0
 40
1.0
 10
532.2147225908
 20
277.4904903123
 30
0.0
 10
532.3409378354
 20
277.4903492334
 30
0.0
 10
532.5978503293
 20
277.5430684996
 30
0.0
 10
532.9215716958999
 20
277.766201552
 30
0.0
 10
533.1398346800999
 20
278.0974387977
 30
0.0
 10
533.1934693348
 20
278.358978192
 30
0.0
 10
533.1952341912
 20
278.4891179074
 30
0.0
  0
SPLINE
  5
47E
330
21B
100
AcDbEntity
  8
RUNDUNGEN
  6
Continuous
 62
     9
100
AcDbSpline
210
0.0
220
0.0
230
1.0
 70
     8
 71
     3
 72
    11
 73
     7
 74
     0
 42
0.0000000001
 43
0.0000000001
 40
0.0
 40
0.0
 40
0.0
 40
0.0
 40
0.2456969363
 40
0.4945826667000001
 40
0.7466286453000001
 40
1.0
 40
1.0
 40
1.0
 40
1.0
 10
530.960397639
 20
277.7444442536
 30
0.0
 10
531.0865996332999
 20
277.7442184884
 30
0.0
 10
531.3435170065
 20
277.7971152027
 30
0.0
 10
531.6670725694
 20
278.020183357
 30
0.0
 10
531.8858655118
 20
278.3513968603
 30
0.0
 10
531.9382074336
 20
278.612955733
 30
0.0
 10
531.9408139796999
 20
278.7430737884
 30
0.0
  0
SPLINE
  5
47F
330
21B
100
AcDbEntity
  8
RUNDUNGEN
  6
Continuous
 62
     9
100
AcDbSpline
210
0.0
220
0.0
230
1.0
 70
     8
 71
     3
 72
    10
 73
     6
 74
     0
 42
0.0000000001
 43
0.0000000001
 40
0.0
 40
0.0
 40
0.0
 40
0.0
 40
0.1386339833
 40
0.3511942051
 40
1.0
 40
1.0
 40
1.0
 40
1.0
 10
530.960397639
 20
277.7444442536
 30
0.0
 10
530.9315439455
 20
277.7499057737
 30
0.0
 10
530.8701216672
 20
277.8031522194
 30
0.0
 10
530.7783949936
 20
277.9935131961
 30
0.0
 10
530.7429784106999
 20
278.1763129204
 30
0.0
 10
530.7249849165
 20
278.3125626876
 30
0.0
  0
LINE
  5
480
330
21B
100
AcDbEntity
  8
RUNDUNGEN
  6
Continuous
 62
     9
100
AcDbLine
 10
533.1952427393
 20
278.4891159407
 30
0.0
 11
532.1101515419
 21
300.0530979085
 31
0.0
  0
SPLINE
  5
481
330
21B
100
AcDbEntity
  8
RUNDUNGEN
  6
Continuous
 62
     9
100
AcDbSpline
210
0.0
220
0.0
230
1.0
 70
     8
 71
     3
 72
    11
 73
     7
 74
     0
 42
0.0000000001
 43
0.0000000001
 40
0.0
 40
0.0
 40
0.0
 40
0.0
 40
0.1545618609
 40
0.3869853067
 40
0.6815849918000002
 40
1.0
 40
1.0
 40
1.0
 40
1.0
 10
533.1952431848999
 20
278.489107098
 30
0.0
 10
533.2402391929999
 20
278.4408958271
 30
0.0
 10
533.3900399404
 20
278.3598546295
 30
0.0
 10
533.6662050746
 20
278.2719449077
 30
0.0
 10
534.0229153202
 20
278.2084665968
 30
0.0
 10
534.2843773055
 20
278.1909755214
 30
0.0
 10
534.4202339206
 20
278.1904318645
 30
0.0
  0
SPLINE
  5
482
330
21B
100
AcDbEntity
  8
RUNDUNGEN
  6
Continuous
 62
     9
100
AcDbSpline
210
0.0
220
0.0
230
1.0
 70
     8
 71
     3
 72
    12
 73
     8
 74
     0
 42
0.0000000001
 43
0.0000000001
 40
0.0
 40
0.0
 40
0.0
 40
0.0
 40
0.1359961166
 40
0.26895334
 40
0.3970998013
 40
0.5219254392
 40
1.0
 40
1.0
 40
1.0
 40
1.0
 10
533.4296626192999
 20
297.90453063
 30
0.0
 10
533.3097755085999
 20
297.9094494365
 30
0.0
 10
533.0805615673999
 20
298.0176737465
 30
0.0
 10
532.8346379934999
 20
298.2677046644
 30
0.0
 10
532.6389512119
 20
298.5483562357
 30
0.0
 10
532.3355543016999
 20
299.1180574693
 30
0.0
 10
532.1820349376
 20
299.637467975
 30
0.0
 10
532.1101515419
 20
300.0530979085
 30
0.0
  0
SPLINE
  5
483
330
21B
100
AcDbEntity
  8
RUNDUNGEN
  6
Continuous
 62
     9
100
AcDbSpline
210
0.0
220
0.0
230
1.0
 70
     8
 71
     3
 72
    11
 73
     7
 74
     0
 42
0.0000000001
 43
0.0000000001
 40
0.0
 40
0.0
 40
0.0
 40
0.0
 40
0.3184151142
 40
0.6130147322
 40
0.8454381512999999
 40
1.0
 40
1.0
 40
1.0
 40
1.0
 10
557.0788053238
 20
278.190431871
 30
0.0
 10
557.2146619709999
 20
278.1909755003
 30
0.0
 10
557.4761239555
 20
278.2084666211
 30
0.0
 10
557.8328341339999
 20
278.2719449687
 30
0.0
 10
558.1089992738999
 20
278.3598546224
 30
0.0
 10
558.2587998441
 20
278.4408959345
 30
0.0
 10
558.3037959359
 20
278.4891071114
 30
0.0
  0
LINE
  5
484
330
21B
100
AcDbEntity
  8
RUNDUNGEN
  6
Continuous
 62
     9
100
AcDbLine
 10
559.3888875663
 20
300.0530979085
 30
0.0
 11
558.3037963808999
 21
278.4891159432
 31
0.0
  0
SPLINE
  5
485
330
21B
100
AcDbEntity
  8
RUNDUNGEN
  6
Continuous
 62
     9
100
AcDbSpline
210
0.0
220
0.0
230
1.0
 70
     8
 71
     3
 72
    12
 73
     8
 74
     0
 42
0.0000000001
 43
0.0000000001
 40
0.0
 40
0.0
 40
0.0
 40
0.0
 40
0.4780804478000001
 40
0.6029067968000001
 40
0.7310531451000001
 40
0.8640089475999999
 40
1.0
 40
1.0
 40
1.0
 40
1.0
 10
559.3888875663
 20
300.0530979085
 30
0.0
 10
559.3170042610999
 20
299.6374630219
 30
0.0
 10
559.1634797248999
 20
299.1180483439
 30
0.0
 10
558.8600800391
 20
298.5483423545
 30
0.0
 10
558.6643888106
 20
298.2676953205
 30
0.0
 10
558.4184660268999
 20
298.0176707074
 30
0.0
 10
558.1892588537999
 20
297.9094538317
 30
0.0
 10
558.0693764889
 20
297.90453063
 30
0.0
  0
SPLINE
  5
486
330
21B
100
AcDbEntity
  8
RUNDUNGEN
  6
Continuous
 62
     9
100
AcDbSpline
210
0.0
220
0.0
230
1.0
 70
     8
 71
     3
 72
    10
 73
     6
 74
     0
 42
0.0000000001
 43
0.0000000001
 40
0.0
 40
0.0
 40
0.0
 40
0.0
 40
0.1768007876
 40
0.4195094124
 40
1.0
 40
1.0
 40
1.0
 40
1.0
 10
559.5582251285
 20
278.7430737884
 30
0.0
 10
559.5955280607999
 20
278.6743164401
 30
0.0
 10
559.7428669503
 20
278.5476645382
 30
0.0
 10
560.1465158543
 20
278.3670161188
 30
0.0
 10
560.5172266104
 20
278.3106179154
 30
0.0
 10
560.7740541917999
 20
278.3125626876
 30
0.0
  0
SPLINE
  5
487
330
21B
100
AcDbEntity
  8
RUNDUNGEN
  6
Continuous
 62
     9
100
AcDbSpline
210
0.0
220
0.0
230
1.0
 70
     8
 71
     3
 72
    10
 73
     6
 74
     0
 42
0.0000000001
 43
0.0000000001
 40
0.0
 40
0.0
 40
0.0
 40
0.0
 40
0.5805840020000001
 40
0.823216912
 40
1.0
 40
1.0
 40
1.0
 40
1.0
 10
563.1519255189
 20
297.590800066
 30
0.0
 10
562.8955144069
 20
297.5891450746
 30
0.0
 10
562.5255006198
 20
297.6456149359
 30
0.0
 10
562.1227105309999
 20
297.8262553458
 30
0.0
 10
561.9757206773
 20
297.9526844104
 30
0.0
 10
561.9384868482
 20
298.0213110496
 30
0.0
  0
SPLINE
  5
488
330
21B
100
AcDbEntity
  8
RUNDUNGEN
  6
Continuous
 62
     9
100
AcDbSpline
210
0.0
220
0.0
230
1.0
 70
     8
 71
     3
 72
     8
 73
     4
 74
     0
 42
0.0000000001
 43
0.0000000001
 40
0.0
 40
0.0
 40
0.0
 40
0.0
 40
1.0
 40
1.0
 40
1.0
 40
1.0
 10
562.0100427981999
 20
305.1584598271
 30
0.0
 10
562.0046919897
 20
305.1566142721
 30
0.0
 10
561.9993805356999
 20
305.1546415977
 30
0.0
 10
561.9941573106
 20
305.1524609684
 30
0.0
  0
SPLINE
  5
489
330
21B
100
AcDbEntity
  8
RUNDUNGEN
  6
Continuous
 62
     9
100
AcDbSpline
210
0.0
220
0.0
230
1.0
 70
     8
 71
     3
 72
     9
 73
     5
 74
     0
 42
0.0000000001
 43
0.0000000001
 40
0.0
 40
0.0
 40
0.0
 40
0.0
 40
0.3167919623
 40
1.0
 40
1.0
 40
1.0
 40
1.0
 10
563.2290194311
 20
298.8726555374
 30
0.0
 10
563.0980672806999
 20
298.8726485364
 30
0.0
 10
562.6847017309
 20
298.8732641535
 30
0.0
 10
562.2713116043
 20
298.8723612173
 30
0.0
 10
561.9889161457
 20
298.8758814393
 30
0.0
  0
SPLINE
  5
48A
330
21B
100
AcDbEntity
  8
RUNDUNGEN
  6
Continuous
 62
     9
100
AcDbSpline
210
0.0
220
0.0
230
1.0
 70
     8
 71
     3
 72
    13
 73
     9
 74
     0
 42
0.0000000001
 43
0.0000000001
 40
0.0
 40
0.0
 40
0.0
 40
0.0
 40
0.0692246867
 40
0.1724907321
 40
0.2949378756
 40
0.4277959474000001
 40
0.7090843751000002
 40
1.0
 40
1.0
 40
1.0
 40
1.0
 10
562.0100427981999
 20
305.1584598271
 30
0.0
 10
562.0379081809
 20
305.1680827871
 30
0.0
 10
562.094220166
 20
305.2200939096
 30
0.0
 10
562.1758761543
 20
305.3135557777
 30
0.0
 10
562.2668905205999
 20
305.4370313339
 30
0.0
 10
562.3952332988999
 20
305.6258498283
 30
0.0
 10
562.5536917758999
 20
305.881169607
 30
0.0
 10
562.6757600732999
 20
306.0920532907
 30
0.0
 10
562.7365639758998
 20
306.1999959167
 30
0.0
  0
SPLINE
  5
48B
330
21B
100
AcDbEntity
  8
RUNDUNGEN
  6
Continuous
 62
     9
100
AcDbSpline
210
0.0
220
0.0
230
1.0
 70
     8
 71
     3
 72
     8
 73
     4
 74
     0
 42
0.0000000001
 43
0.0000000001
 40
0.0
 40
0.0
 40
0.0
 40
0.0
 40
1.0
 40
1.0
 40
1.0
 40
1.0
 10
529.5048817977
 20
305.1524609684
 30
0.0
 10
529.4996585492
 20
305.1546414798
 30
0.0
 10
529.4943470870999
 20
305.1566140436
 30
0.0
 10
529.4889963425999
 20
305.1584597111
 30
0.0
  0
SPLINE
  5
48C
330
21B
100
AcDbEntity
  8
RUNDUNGEN
  6
Continuous
 62
     9
100
AcDbSpline
210
0.0
220
0.0
230
1.0
 70
     8
 71
     3
 72
    13
 73
     9
 74
     0
 42
0.0000000001
 43
0.0000000001
 40
0.0
 40
0.0
 40
0.0
 40
0.0
 40
0.2909636756
 40
0.5722717542
 40
0.7051157207
 40
0.8275562625
 40
0.9308159937999999
 40
1.0
 40
1.0
 40
1.0
 40
1.0
 10
528.762475172
 20
306.1999958444
 30
0.0
 10
528.8232805308
 20
306.0920311804
 30
0.0
 10
528.9453750370999
 20
305.8811303465
 30
0.0
 10
529.1038905676
 20
305.6258191315
 30
0.0
 10
529.2322793608
 20
305.4370354426
 30
0.0
 10
529.3232305275999
 20
305.3135283996
 30
0.0
 10
529.4048266276
 20
305.2200491993
 30
0.0
 10
529.4611402814999
 20
305.1680561667
 30
0.0
 10
529.4889963425999
 20
305.1584597111
 30
0.0
  0
SPLINE
  5
48D
330
21B
100
AcDbEntity
  8
RUNDUNGEN
  6
Continuous
 62
     9
100
AcDbSpline
210
0.0
220
0.0
230
1.0
 70
     8
 71
     3
 72
     9
 73
     5
 74
     0
 42
0.0000000001
 43
0.0000000001
 40
0.0
 40
0.0
 40
0.0
 40
0.0
 40
0.3167919334
 40
1.0
 40
1.0
 40
1.0
 40
1.0
 10
528.2700197425
 20
298.8726555382
 30
0.0
 10
528.4009718741
 20
298.8726485372
 30
0.0
 10
528.8143374021
 20
298.8732641539
 30
0.0
 10
529.2277275067999
 20
298.8723612199
 30
0.0
 10
529.5101229624999
 20
298.8758814393
 30
0.0
  0
SPLINE
  5
48E
330
21B
100
AcDbEntity
  8
RUNDUNGEN
  6
Continuous
 62
     9
100
AcDbSpline
210
0.0
220
0.0
230
1.0
 70
     8
 71
     3
 72
    10
 73
     6
 74
     0
 42
0.0000000001
 43
0.0000000001
 40
0.0
 40
0.0
 40
0.0
 40
0.0
 40
0.5805840316
 40
0.8232169325
 40
1.0
 40
1.0
 40
1.0
 40
1.0
 10
528.3471135229
 20
297.5907999503
 30
0.0
 10
528.6035246721
 20
297.5891449582
 30
0.0
 10
528.9735385062
 20
297.6456148383
 30
0.0
 10
529.3763286166999
 20
297.8262552999
 30
0.0
 10
529.5233184546999
 20
297.9526843996
 30
0.0
 10
529.5605522599999
 20
298.0213110496
 30
0.0
  0
SPLINE
  5
48F
330
21B
100
AcDbEntity
  8
RUNDUNGEN
  6
Continuous
 62
     9
100
AcDbSpline
210
0.0
220
0.0
230
1.0
 70
     8
 71
     3
 72
    10
 73
     6
 74
     0
 42
0.0000000001
 43
0.0000000001
 40
0.0
 40
0.0
 40
0.0
 40
0.0
 40
0.5804905878
 40
0.8231992125000001
 40
1.0
 40
1.0
 40
1.0
 40
1.0
 10
530.7249849165
 20
278.3125626876
 30
0.0
 10
530.9818124987
 20
278.3106180348
 30
0.0
 10
531.3525232552999
 20
278.3670160931
 30
0.0
 10
531.7561721557
 20
278.5476645440001
 30
0.0
 10
531.9035110475
 20
278.6743164402
 30
0.0
 10
531.9408139796999
 20
278.7430737884
 30
0.0
  0
LINE
  5
490
330
21B
100
AcDbEntity
  8
RUNDUNGEN
  6
Continuous
 62
     9
100
AcDbLine
 10
534.420233883
 20
278.1904326123
 30
0.0
 11
533.4296626190999
 21
297.9045306301
 31
0.0
  0
LINE
  5
491
330
21B
100
AcDbEntity
  8
RUNDUNGEN
  6
Continuous
 62
     9
100
AcDbLine
 10
558.0693764891
 20
297.9045306301
 30
0.0
 11
557.078805361
 21
278.1904326123
 31
0.0
  0
LINE
  5
492
330
21B
100
AcDbEntity
  8
RUNDUNGEN
  6
Continuous
 62
     9
100
AcDbLine
 10
557.8018611974999
 20
299.0948481489
 30
0.0
 11
556.5528703465999
 21
299.1790655938
 31
0.0
  0
LINE
  5
493
330
21B
100
AcDbEntity
  8
RUNDUNGEN
  6
Continuous
 62
     9
100
AcDbLine
 10
534.9461687616999
 20
299.1790655938
 30
0.0
 11
533.6971779107
 21
299.0948481489
 31
0.0
  0
SPLINE
  5
494
330
21B
100
AcDbEntity
  8
RUNDUNGEN
  6
Continuous
 62
     9
100
AcDbSpline
210
0.0
220
0.0
230
1.0
 70
     8
 71
     3
 72
     8
 73
     4
 74
     0
 42
0.0000000001
 43
0.0000000001
 40
0.0
 40
0.0
 40
0.0
 40
0.0
 40
1.0
 40
1.0
 40
1.0
 40
1.0
 10
530.4835461150999
 20
306.1510905031
 30
0.0
 10
530.4729964829
 20
306.1532290958
 30
0.0
 10
530.4623993292
 20
306.1551363504
 30
0.0
 10
530.4517830431999
 20
306.1569147734
 30
0.0
  0
LINE
  5
495
330
21B
100
AcDbEntity
  8
RUNDUNGEN
  6
Continuous
 62
     9
100
AcDbLine
 10
534.9544545601999
 20
305.2458809939
 30
0.0
 11
530.4835461150999
 21
306.1510905031
 31
0.0
  0
LINE
  5
496
330
21B
100
AcDbEntity
  8
RUNDUNGEN
  6
Continuous
 62
     9
100
AcDbLine
 10
561.0154929931
 20
306.1510905031
 30
0.0
 11
556.5445845480999
 21
305.2458809939
 31
0.0
  0
SPLINE
  5
497
330
21B
100
AcDbEntity
  8
RUNDUNGEN
  6
Continuous
 62
     9
100
AcDbSpline
210
0.0
220
0.0
230
1.0
 70
     8
 71
     3
 72
     8
 73
     4
 74
     0
 42
0.0000000001
 43
0.0000000001
 40
0.0
 40
0.0
 40
0.0
 40
0.0
 40
1.0
 40
1.0
 40
1.0
 40
1.0
 10
561.047256065
 20
306.1569147734
 30
0.0
 10
561.0366397887999
 20
306.1551362921
 30
0.0
 10
561.0260426155999
 20
306.1532291438
 30
0.0
 10
561.0154929931
 20
306.1510905031
 30
0.0
  0
LINE
  5
498
330
21B
100
AcDbEntity
  8
RUNDUNGEN
  6
Continuous
 62
     9
100
AcDbLine
 10
558.3037963808999
 20
278.4891159432
 30
0.0
 11
559.5582251285
 21
278.7430737884
 31
0.0
  0
LINE
  5
499
330
21B
100
AcDbEntity
  8
RUNDUNGEN
  6
Continuous
 62
     9
100
AcDbLine
 10
559.5582251285
 20
278.7430737884
 30
0.0
 11
561.9384868482
 21
298.0213110496
 31
0.0
  0
SPLINE
  5
49A
330
21B
100
AcDbEntity
  8
RUNDUNGEN
  6
Continuous
 62
     9
100
AcDbSpline
210
0.0
220
0.0
230
1.0
 70
     8
 71
     3
 72
     9
 73
     5
 74
     0
 42
0.0000000001
 43
0.0000000001
 40
0.0
 40
0.0
 40
0.0
 40
0.0
 40
0.2398401366
 40
1.0
 40
1.0
 40
1.0
 40
1.0
 10
561.9384868482
 20
298.0213110496
 30
0.0
 10
561.9468760909
 20
298.0892579152
 30
0.0
 10
561.9768339098999
 20
298.3731662314
 30
0.0
 10
561.988735249
 20
298.658892487
 30
0.0
 10
561.9889161457
 20
298.8758814393
 30
0.0
  0
LINE
  5
49B
330
21B
100
AcDbEntity
  8
RUNDUNGEN
  6
Continuous
 62
     9
100
AcDbLine
 10
561.9941573106
 20
305.1524609684
 30
0.0
 11
557.5229415973999
 21
304.2472514592
 31
0.0
  0
LINE
  5
49C
330
21B
100
AcDbEntity
  8
RUNDUNGEN
  6
Continuous
 62
     9
100
AcDbLine
 10
559.3888875663
 20
300.0530979085
 30
0.0
 11
557.5229415973999
 21
300.178913289
 31
0.0
  0
LINE
  5
49D
330
21B
100
AcDbEntity
  8
RUNDUNGEN
  6
Continuous
 62
     9
100
AcDbLine
 10
533.9760975108
 20
304.2472514592
 30
0.0
 11
529.5048817977
 21
305.1524609684
 31
0.0
  0
SPLINE
  5
49E
330
21B
100
AcDbEntity
  8
RUNDUNGEN
  6
Continuous
 62
     9
100
AcDbSpline
210
0.0
220
0.0
230
1.0
 70
     8
 71
     3
 72
     9
 73
     5
 74
     0
 42
0.0000000001
 43
0.0000000001
 40
0.0
 40
0.0
 40
0.0
 40
0.0
 40
0.2574377726
 40
1.0
 40
1.0
 40
1.0
 40
1.0
 10
529.5101229624999
 20
298.8758814393
 30
0.0
 10
529.5101842244
 20
298.8023965662
 30
0.0
 10
529.5145292559999
 20
298.5169852759999
 30
0.0
 10
529.5345789836
 20
298.2316760137
 30
0.0
 10
529.5605522599999
 20
298.0213110496
 30
0.0
  0
LINE
  5
49F
330
21B
100
AcDbEntity
  8
RUNDUNGEN
  6
Continuous
 62
     9
100
AcDbLine
 10
529.5605522599999
 20
298.0213110496
 30
0.0
 11
531.9408139796999
 21
278.7430737884
 31
0.0
  0
LINE
  5
4A0
330
21B
100
AcDbEntity
  8
RUNDUNGEN
  6
Continuous
 62
     9
100
AcDbLine
 10
531.9408139796999
 20
278.7430737884
 30
0.0
 11
533.1952427393
 21
278.4891159407
 31
0.0
  0
LINE
  5
4A1
330
21B
100
AcDbEntity
  8
RUNDUNGEN
  6
Continuous
 62
     9
100
AcDbLine
 10
533.9760975108
 20
300.178913289
 30
0.0
 11
532.1101515419
 21
300.0530979085
 31
0.0
  0
SPLINE
  5
4A2
330
21B
100
AcDbEntity
  8
RUNDUNGEN
  6
Continuous
 62
     9
100
AcDbSpline
210
0.0
220
0.0
230
1.0
 70
     8
 71
     3
 72
    10
 73
     6
 74
     0
 42
0.0000000001
 43
0.0000000001
 40
0.0
 40
0.0
 40
0.0
 40
0.0
 40
0.2727024195
 40
0.5216077603000001
 40
1.0
 40
1.0
 40
1.0
 40
1.0
 10
533.4056417534999
 20
358.2742937864
 30
0.0
 10
533.4972945355999
 20
358.1644441226
 30
0.0
 10
533.6368157383999
 20
357.9214319655
 30
0.0
 10
533.7451490808
 20
357.4022715454
 30
0.0
 10
533.6795719155999
 20
357.0116253365
 30
0.0
 10
533.5975137977999
 20
356.7744480081
 30
0.0
  0
SPLINE
  5
4A3
330
21B
100
AcDbEntity
  8
RUNDUNGEN
  6
Continuous
 62
     9
100
AcDbSpline
210
0.0
220
0.0
230
1.0
 70
     8
 71
     3
 72
    10
 73
     6
 74
     0
 42
0.0000000001
 43
0.0000000001
 40
0.0
 40
0.0
 40
0.0
 40
0.0
 40
0.4783922396
 40
0.7272975800000001
 40
1.0
 40
1.0
 40
1.0
 40
1.0
 10
557.9015253104
 20
356.7744480081
 30
0.0
 10
557.8194672394999
 20
357.0116253527
 30
0.0
 10
557.7538900199999
 20
357.4022715407
 30
0.0
 10
557.8622233692
 20
357.9214319680001
 30
0.0
 10
558.001744575
 20
358.1644441208
 30
0.0
 10
558.0933973554
 20
358.2742937864
 30
0.0
  0
SPLINE
  5
4A4
330
21B
100
AcDbEntity
  8
RUNDUNGEN
  6
Continuous
 62
     9
100
AcDbSpline
210
0.0
220
0.0
230
1.0
 70
     8
 71
     3
 72
     8
 73
     4
 74
     0
 42
0.0000000001
 43
0.0000000001
 40
0.0
 40
0.0
 40
0.0
 40
0.0
 40
1.0
 40
1.0
 40
1.0
 40
1.0
 10
559.9471167157999
 20
370.678913354
 30
0.0
 10
559.3794705954
 20
370.6452668251
 30
0.0
 10
558.8118502559999
 20
370.6111837104
 30
0.0
 10
558.2442504866
 20
370.5767641147001
 30
0.0
  0
SPLINE
  5
4A5
330
21B
100
AcDbEntity
  8
RUNDUNGEN
  6
Continuous
 62
     9
100
AcDbSpline
210
0.0
220
0.0
230
1.0
 70
     8
 71
     3
 72
     8
 73
     4
 74
     0
 42
0.0000000001
 43
0.0000000001
 40
0.0
 40
0.0
 40
0.0
 40
0.0
 40
1.0
 40
1.0
 40
1.0
 40
1.0
 10
559.9466558712999
 20
376.1797169006
 30
0.0
 10
559.3791591272999
 20
376.146078987
 30
0.0
 10
558.8116881476
 20
376.1120047738
 30
0.0
 10
558.2442377287
 20
376.0775942269
 30
0.0
  0
SPLINE
  5
4A6
330
21B
100
AcDbEntity
  8
RUNDUNGEN
  6
Continuous
 62
     9
100
AcDbSpline
210
0.0
220
0.0
230
1.0
 70
     8
 71
     3
 72
     8
 73
     4
 74
     0
 42
0.0000000001
 43
0.0000000001
 40
0.0
 40
0.0
 40
0.0
 40
0.0
 40
1.0
 40
1.0
 40
1.0
 40
1.0
 10
558.7539608869999
 20
357.5404822633999
 30
0.0
 10
559.1574400503
 20
357.5161655186
 30
0.0
 10
559.5609303065
 20
357.4920318199
 30
0.0
 10
559.9644337307999
 20
357.46812103
 30
0.0
  0
SPLINE
  5
4A7
330
21B
100
AcDbEntity
  8
RUNDUNGEN
  6
Continuous
 62
     9
100
AcDbSpline
210
0.0
220
0.0
230
1.0
 70
     8
 71
     3
 72
     8
 73
     4
 74
     0
 42
0.0000000001
 43
0.0000000001
 40
0.0
 40
0.0
 40
0.0
 40
0.0
 40
1.0
 40
1.0
 40
1.0
 40
1.0
 10
615.7495195697
 20
294.4590833919
 30
0.0
 10
615.9898734958
 20
294.9773889743
 30
0.0
 10
616.2301039986999
 20
295.4957518169
 30
0.0
 10
616.4701873308001
 20
296.0141827961
 30
0.0
  0
LINE
  5
4A8
330
21B
100
AcDbEntity
  8
RUNDUNGEN
  6
Continuous
 62
     9
100
AcDbLine
 10
528.3471135241
 20
297.5907999544
 30
0.0
 11
530.7249849109999
 21
278.3125626911
 31
0.0
  0
LINE
  5
4A9
330
21B
100
AcDbEntity
  8
RUNDUNGEN
  6
Continuous
 62
     9
100
AcDbLine
 10
560.7740561847
 20
278.3125626911
 30
0.0
 11
563.1519255841999
 21
297.5907999544
 31
0.0
  0
SPLINE
  5
4AA
330
21B
100
AcDbEntity
  8
RUNDUNGEN
  6
Continuous
 62
     9
100
AcDbSpline
210
0.0
220
0.0
230
1.0
 70
     8
 71
     3
 72
    11
 73
     7
 74
     0
 42
0.0000000001
 43
0.0000000001
 40
0.0
 40
0.0
 40
0.0
 40
0.0
 40
0.253415669
 40
0.5049860929
 40
0.7532284433
 40
1.0
 40
1.0
 40
1.0
 40
1.0
 10
530.7992412457999
 20
354.0082137517
 30
0.0
 10
530.7990508748
 20
353.7830421353
 30
0.0
 10
530.8508172019998
 20
353.3314453773
 30
0.0
 10
531.1360670673
 20
352.7082845248
 30
0.0
 10
531.6640962973
 20
352.264448594
 30
0.0
 10
532.1132619384
 20
352.173584464
 30
0.0
 10
532.3325300300999
 20
352.1735743636
 30
0.0
  0
SPLINE
  5
4AB
330
21B
100
AcDbEntity
  8
RUNDUNGEN
  6
Continuous
 62
     9
100
AcDbSpline
210
0.0
220
0.0
230
1.0
 70
     8
 71
     3
 72
    11
 73
     7
 74
     0
 42
0.0000000001
 43
0.0000000001
 40
0.0
 40
0.0
 40
0.0
 40
0.0
 40
0.2467719963
 40
0.4950141984
 40
0.7465844745
 40
1.0
 40
1.0
 40
1.0
 40
1.0
 10
559.1665090789
 20
352.1735743636
 30
0.0
 10
559.385777566
 20
352.1735843961
 30
0.0
 10
559.8349435873
 20
352.2644486316
 30
0.0
 10
560.3629724646999
 20
352.7082852166
 30
0.0
 10
560.6482218138999
 20
353.3314457558
 30
0.0
 10
560.6999884100999
 20
353.7830422576
 30
0.0
 10
560.6997978624
 20
354.0082137514
 30
0.0
  0
SPLINE
  5
4AC
330
21B
100
AcDbEntity
  8
RUNDUNGEN
  6
Continuous
 62
     9
100
AcDbSpline
210
0.0
220
0.0
230
1.0
 70
     8
 71
     3
 72
    16
 73
    12
 74
     0
 42
0.0000000001
 43
0.0000000001
 40
0.0
 40
0.0
 40
0.0
 40
0.0
 40
0.3584663818
 40
0.5297676992
 40
0.6842047512000001
 40
0.8140511287
 40
0.9128271304
 40
0.9489648843999999
 40
0.9756663833999999
 40
0.9926387991
 40
1.0
 40
1.0
 40
1.0
 40
1.0
 10
590.9371863036
 20
256.7182442237
 30
0.0
 10
590.9359890631999
 20
256.8665702963
 30
0.0
 10
590.9359860927
 20
257.0858059587
 30
0.0
 10
590.939366559
 20
257.3688845666
 30
0.0
 10
590.9433261718
 20
257.5574209588999
 30
0.0
 10
590.9486703722
 20
257.7156816801
 30
0.0
 10
590.9539833814
 20
257.8254756684
 30
0.0
 10
590.9594364526999
 20
257.8916416892
 30
0.0
 10
590.96259332
 20
257.9253774608
 30
0.0
 10
590.9667734129
 20
257.9445113508
 30
0.0
 10
590.9687733288
 20
257.9563093651
 30
0.0
 10
590.9715026824
 20
257.9576617075
 30
0.0
  0
SPLINE
  5
4AD
330
21B
100
AcDbEntity
  8
RUNDUNGEN
  6
Continuous
 62
     9
100
AcDbSpline
210
0.0
220
0.0
230
1.0
 70
     8
 71
     3
 72
     9
 73
     5
 74
     0
 42
0.0000000001
 43
0.0000000001
 40
0.0
 40
0.0
 40
0.0
 40
0.0
 40
0.2574172974
 40
1.0
 40
1.0
 40
1.0
 40
1.0
 10
528.2700196770999
 20
298.8726555374
 30
0.0
 10
528.2701134143
 20
298.7624281836
 30
0.0
 10
528.2767551719
 20
298.3342790189
 30
0.0
 10
528.3074121601
 20
297.9062894291
 30
0.0
 10
528.3471135241
 20
297.5907999544
 30
0.0
  0
SPLINE
  5
4AE
330
21B
100
AcDbEntity
  8
RUNDUNGEN
  6
Continuous
 62
     9
100
AcDbSpline
210
0.0
220
0.0
230
1.0
 70
     8
 71
     3
 72
    12
 73
     8
 74
     0
 42
0.0000000001
 43
0.0000000001
 40
0.0
 40
0.0
 40
0.0
 40
0.0
 40
0.3587646490999999
 40
0.6650391063000001
 40
0.7864556596
 40
0.8824670851999998
 40
1.0
 40
1.0
 40
1.0
 40
1.0
 10
592.9364569085
 20
258.697694816
 30
0.0
 10
592.8146183705
 20
258.699580668
 30
0.0
 10
592.5885350212
 20
258.7135058242
 30
0.0
 10
592.3250222832999
 20
258.7557200018
 30
0.0
 10
592.1528379026999
 20
258.8086013613
 30
0.0
 10
592.0525194299
 20
258.8525698704
 30
0.0
 10
591.9842567223001
 20
258.9074633406
 30
0.0
 10
591.9815654780999
 20
258.9472921549
 30
0.0
  0
LINE
  5
4AF
330
21B
100
AcDbEntity
  8
RUNDUNGEN
  6
Continuous
 62
     9
100
AcDbLine
 10
559.9644337307999
 20
357.46812103
 30
0.0
 11
559.9677246047
 21
354.004963547
 31
0.0
  0
SPLINE
  5
4B0
330
21B
100
AcDbEntity
  8
RUNDUNGEN
  6
Continuous
 62
     9
100
AcDbSpline
210
0.0
220
0.0
230
1.0
 70
     8
 71
     3
 72
     9
 73
     5
 74
     0
 42
0.0000000001
 43
0.0000000001
 40
0.0
 40
0.0
 40
0.0
 40
0.0
 40
0.2398741485
 40
1.0
 40
1.0
 40
1.0
 40
1.0
 10
563.1519255841999
 20
297.5907999544
 30
0.0
 10
563.1647504054
 20
297.6927132315
 30
0.0
 10
563.2105454170999
 20
298.1185208302
 30
0.0
 10
563.2287426303999
 20
298.5471604546
 30
0.0
 10
563.2290194311
 20
298.8726555374
 30
0.0
  0
SPLINE
  5
4B1
330
21B
100
AcDbEntity
  8
RUNDUNGEN
  6
Continuous
 62
     9
100
AcDbSpline
210
0.0
220
0.0
230
1.0
 70
     8
 71
     3
 72
    12
 73
     8
 74
     0
 42
0.0000000001
 43
0.0000000001
 40
0.0
 40
0.0
 40
0.0
 40
0.0
 40
0.3760593029
 40
0.6872796828
 40
0.8990244457999999
 40
0.9621094327999999
 40
1.0
 40
1.0
 40
1.0
 40
1.0
 10
592.8473595255999
 20
264.7587380418
 30
0.0
 10
592.7376303794999
 20
264.7599862994
 30
0.0
 10
592.5370095802
 20
264.7737049842
 30
0.0
 10
592.2773190362001
 20
264.8043894898
 30
0.0
 10
592.108082443
 20
264.842573068
 30
0.0
 10
592.0263045327
 20
264.8810371357
 30
0.0
 10
592.0045547044999
 20
264.9056241839
 30
0.0
 10
592.0033278455999
 20
264.9166125897
 30
0.0
  0
SPLINE
  5
4B2
330
21B
100
AcDbEntity
  8
RUNDUNGEN
  6
Continuous
 62
     9
100
AcDbSpline
210
0.0
220
0.0
230
1.0
 70
     8
 71
     3
 72
     8
 73
     4
 74
     0
 42
0.0000000001
 43
0.0000000001
 40
0.0
 40
0.0
 40
0.0
 40
0.0
 40
1.0
 40
1.0
 40
1.0
 40
1.0
 10
533.2547886216
 20
370.576763182
 30
0.0
 10
532.6871888197
 20
370.6111828238
 30
0.0
 10
532.1195685481
 20
370.6452676584
 30
0.0
 10
531.5519223925
 20
370.6789141869001
 30
0.0
  0
SPLINE
  5
4B3
330
21B
100
AcDbEntity
  8
RUNDUNGEN
  6
Continuous
 62
     9
100
AcDbSpline
210
0.0
220
0.0
230
1.0
 70
     8
 71
     3
 72
     8
 73
     4
 74
     0
 42
0.0000000001
 43
0.0000000001
 40
0.0
 40
0.0
 40
0.0
 40
0.0
 40
1.0
 40
1.0
 40
1.0
 40
1.0
 10
533.2548013772
 20
376.077594227
 30
0.0
 10
532.6873509591
 20
376.1120047739
 30
0.0
 10
532.1198799801
 20
376.1460789869
 30
0.0
 10
531.5523832369
 20
376.1797169006
 30
0.0
  0
SPLINE
  5
4B4
330
21B
100
AcDbEntity
  8
RUNDUNGEN
  6
Continuous
 62
     9
100
AcDbSpline
210
0.0
220
0.0
230
1.0
 70
     8
 71
     3
 72
    12
 73
     8
 74
     0
 42
0.0000000001
 43
0.0000000001
 40
0.0
 40
0.0
 40
0.0
 40
0.0
 40
0.3569538683
 40
0.6739834161
 40
0.8972537522999999
 40
0.9629416843999999
 40
1.0
 40
1.0
 40
1.0
 40
1.0
 10
592.8473595255999
 20
264.7587380418
 30
0.0
 10
592.8389766294999
 20
264.8991255184
 30
0.0
 10
592.8254591337999
 20
265.1649522056
 30
0.0
 10
592.8365446389
 20
265.5170650532
 30
0.0
 10
592.8683263417
 20
265.7578482681
 30
0.0
 10
592.9065479186
 20
265.877464227
 30
0.0
 10
592.9364043334
 20
265.9129511202
 30
0.0
 10
592.9508475548
 20
265.9150900283
 30
0.0
  0
SPLINE
  5
4B5
330
21B
100
AcDbEntity
  8
RUNDUNGEN
  6
Continuous
 62
     9
100
AcDbSpline
210
0.0
220
0.0
230
1.0
 70
     8
 71
     3
 72
    15
 73
    11
 74
     0
 42
0.0000000001
 43
0.0000000001
 40
0.0
 40
0.0
 40
0.0
 40
0.0
 40
0.3534842975
 40
0.5239835033000001
 40
0.6784102336000001
 40
0.8087914468999999
 40
0.9084669449999999
 40
0.9725774627999999
 40
0.9905847981
 40
1.0
 40
1.0
 40
1.0
 40
1.0
 10
600.6478277016
 20
265.0263240987
 30
0.0
 10
600.6369006983
 20
265.1770138092
 30
0.0
 10
600.6247138737998
 20
265.4006837384
 30
0.0
 10
600.6162808894999
 20
265.6905811316999
 30
0.0
 10
600.6144764091
 20
265.885080047
 30
0.0
 10
600.6170430699
 20
266.0497511696
 30
0.0
 10
600.6236786123
 20
266.1745247087
 30
0.0
 10
600.6327014486999
 20
266.2533234398
 30
0.0
 10
600.6427043308
 20
266.2897319079
 30
0.0
 10
600.6494927438
 20
266.3012789741
 30
0.0
 10
600.6533592773999
 20
266.3023944467
 30
0.0
  0
SPLINE
  5
4B6
330
21B
100
AcDbEntity
  8
0
  6
Continuous
 62
     9
100
AcDbSpline
210
0.0
220
0.0
230
1.0
 70
     8
 71
     3
 72
    26
 73
    22
 74
     0
 42
0.0000000001
 43
0.0000000001
 40
0.0
 40
0.0
 40
0.0
 40
0.0
 40
0.000534928
 40
0.001539924
 40
0.0052533807
 40
0.0113199918
 40
0.019748477
 40
0.0305272789
 40
0.0436338554
 40
0.0590390347
 40
0.076706864
 40
0.1186582127
 40
0.1690887215
 40
0.2275155156
 40
0.2933778155
 40
0.3660427031
 40
0.4448114007
 40
0.5289261311
 40
0.6175774593
 40
0.8050399528999999
 40
1.0
 40
1.0
 40
1.0
 40
1.0
 10
515.7495195541001
 20
259.6796427116999
 30
0.0
 10
515.7495202367999
 20
259.6742893209
 30
0.0
 10
515.7623180516
 20
259.661608124
 30
0.0
 10
515.8101135668999
 20
259.643453851
 30
0.0
 10
515.9175106718
 20
259.6204540389
 30
0.0
 10
516.0972162919001
 20
259.5963057518
 30
0.0
 10
516.3493179766
 20
259.5708882877
 30
0.0
 10
516.6715763922
 20
259.5456848194
 30
0.0
 10
517.0640420427999
 20
259.5204900725999
 30
0.0
 10
517.5255084138999
 20
259.4955976603
 30
0.0
 10
518.2755381247
 20
259.4608619115
 30
0.0
 10
519.3761375018
 20
259.4200001838
 30
0.0
 10
520.8847325717999
 20
259.3753648828
 30
0.0
 10
522.6327749934999
 20
259.3334196331
 30
0.0
 10
524.603450844
 20
259.2946056468
 30
0.0
 10
526.7777975920999
 20
259.2593647346
 30
0.0
 10
529.1348858415
 20
259.2280636431
 30
0.0
 10
531.652023499
 20
259.2010230664
 30
0.0
 10
535.2569501419999
 20
259.1704579965
 30
0.0
 10
539.9712536841999
 20
259.145213057
 30
0.0
 10
543.7984209269
 20
259.1385361006
 30
0.0
 10
545.7495195541
 20
259.138535699
 30
0.0
  0
SPLINE
  5
4B7
330
21B
100
AcDbEntity
  8
RUNDUNGEN
  6
Continuous
 62
     9
100
AcDbSpline
210
0.0
220
0.0
230
1.0
 70
     8
 71
     3
 72
    12
 73
     8
 74
     0
 42
0.0000000001
 43
0.0000000001
 40
0.0
 40
0.0
 40
0.0
 40
0.0
 40
0.3489790268
 40
0.655310536
 40
0.7786673134000001
 40
0.8771075356999999
 40
1.0
 40
1.0
 40
1.0
 40
1.0
 10
602.354788004
 20
266.1511272181
 30
0.0
 10
602.2335214171
 20
266.2067408714
 30
0.0
 10
602.0112981656
 20
266.3241262686
 30
0.0
 10
601.7648957283999
 20
266.4912244246
 30
0.0
 10
601.6147399677
 20
266.6298049066
 30
0.0
 10
601.5322332143999
 20
266.7266925123
 30
0.0
 10
601.4906971484999
 20
266.8196095506
 30
0.0
 10
601.5083404669
 20
266.86315121
 30
0.0
  0
LINE
  5
4B8
330
21B
100
AcDbEntity
  8
RUNDUNGEN
  6
Continuous
 62
     9
100
AcDbLine
 10
530.9603976395
 20
277.7444442535
 30
0.0
 11
532.2147225623999
 21
277.4904883726
 31
0.0
  0
SPLINE
  5
4B9
330
21B
100
AcDbEntity
  8
RUNDUNGEN
  6
Continuous
 62
     9
100
AcDbSpline
210
0.0
220
0.0
230
1.0
 70
     8
 71
     3
 72
    12
 73
     8
 74
     0
 42
0.0000000001
 43
0.0000000001
 40
0.0
 40
0.0
 40
0.0
 40
0.0
 40
0.0567449605
 40
0.140379884
 40
0.3770454027
 40
0.6784406833
 40
1.0
 40
1.0
 40
1.0
 40
1.0
 10
532.2147225623999
 20
277.4904883726
 30
0.0
 10
532.2597972772
 20
277.4813557296
 30
0.0
 10
532.3727421207999
 20
277.4663876081
 30
0.0
 10
532.6769376438
 20
277.4377451745
 30
0.0
 10
533.1802704605
 20
277.4103392916
 30
0.0
 10
533.8766066416999
 20
277.3881861923
 30
0.0
 10
534.3815299684999
 20
277.3826189363
 30
0.0
 10
534.6421470358999
 20
277.382612073
 30
0.0
  0
SPLINE
  5
4BA
330
21B
100
AcDbEntity
  8
RUNDUNGEN
  6
Continuous
 62
     9
100
AcDbSpline
210
0.0
220
0.0
230
1.0
 70
     8
 71
     3
 72
    12
 73
     8
 74
     0
 42
0.0000000001
 43
0.0000000001
 40
0.0
 40
0.0
 40
0.0
 40
0.0
 40
0.3215594065
 40
0.6229546221
 40
0.8596201184999999
 40
0.9432550387
 40
1.0
 40
1.0
 40
1.0
 40
1.0
 10
556.8568920724
 20
277.382612073
 30
0.0
 10
557.1175092124999
 20
277.3826188931
 30
0.0
 10
557.6224325591
 20
277.3881862093
 30
0.0
 10
558.3187687437999
 20
277.4103392871
 30
0.0
 10
558.8221014831999
 20
277.4377451891
 30
0.0
 10
559.1262969915
 20
277.4663875947
 30
0.0
 10
559.2392418262999
 20
277.4813557494
 30
0.0
 10
559.2843165458
 20
277.4904883726
 30
0.0
  0
LINE
  5
4BB
330
21B
100
AcDbEntity
  8
RUNDUNGEN
  6
Continuous
 62
     9
100
AcDbLine
 10
559.2843165458
 20
277.4904883726
 30
0.0
 11
560.5386414687
 21
277.7444442535
 31
0.0
  0
SPLINE
  5
4BC
330
21B
100
AcDbEntity
  8
RUNDUNGEN
  6
Continuous
 62
     9
100
AcDbSpline
210
0.0
220
0.0
230
1.0
 70
     8
 71
     3
 72
    25
 73
    21
 74
     0
 42
0.0000000001
 43
0.0000000001
 40
0.0
 40
0.0
 40
0.0
 40
0.0
 40
0.2081248249
 40
0.4009979783000001
 40
0.4901248099
 40
0.5735911738000001
 40
0.6508515990000001
 40
0.7214014356999999
 40
0.7847800648000001
 40
0.8405741945999999
 40
0.8884208431000001
 40
0.9280102713999999
 40
0.9446271442
 40
0.9590895184999999
 40
0.9713752034
 40
0.9814672968000001
 40
0.9893537695999999
 40
0.9950329145999999
 40
0.9985254809
 40
1.0
 40
1.0
 40
1.0
 40
1.0
 10
616.1197847473
 20
298.5314978221
 30
0.0
 10
616.1929203483
 20
300.9742373507
 30
0.0
 10
616.3269153586
 20
305.6809196905
 30
0.0
 10
616.4712831875999
 20
311.4342452493
 30
0.0
 10
616.5654608049
 20
315.7245776892
 30
0.0
 10
616.6230263079
 20
318.6578361312
 30
0.0
 10
616.6690633458999
 20
321.3731355987
 30
0.0
 10
616.7032938935
 20
323.8527177724
 30
0.0
 10
616.7255286656
 20
326.0803635931
 30
0.0
 10
616.7357055905
 20
328.0415212265
 30
0.0
 10
616.7338130217999
 20
329.7233470015001
 30
0.0
 10
616.7218950622
 20
330.9451632294
 30
0.0
 10
616.7050350633999
 20
331.7747381408
 30
0.0
 10
616.69011842
 20
332.2838778474
 30
0.0
 10
616.6725218955
 20
332.7156677914
 30
0.0
 10
616.6516733964999
 20
333.0717000931
 30
0.0
 10
616.6296822094999
 20
333.3454049255
 30
0.0
 10
616.6024835667999
 20
333.5515284822
 30
0.0
 10
616.580858869
 20
333.6606730525
 30
0.0
 10
616.5519855185
 20
333.7307438828
 30
0.0
 10
616.5346752946
 20
333.7311070671
 30
0.0
  0
SPLINE
  5
4BD
330
21B
100
AcDbEntity
  8
RUNDUNGEN
  6
Continuous
 62
     9
100
AcDbSpline
210
0.0
220
0.0
230
1.0
 70
     8
 71
     3
 72
     9
 73
     5
 74
     0
 42
0.0000000001
 43
0.0000000001
 40
0.0
 40
0.0
 40
0.0
 40
0.0
 40
0.2481165186
 40
1.0
 40
1.0
 40
1.0
 40
1.0
 10
591.9815654780999
 20
258.9472921549
 30
0.0
 10
591.9837908898
 20
259.4409861215
 30
0.0
 10
591.9923048738
 20
261.4307547795
 30
0.0
 10
591.9990879669
 20
263.420530745
 30
0.0
 10
592.0033278455999
 20
264.9166125897
 30
0.0
  0
SPLINE
  5
4BE
330
21B
100
AcDbEntity
  8
RUNDUNGEN
  6
Continuous
 62
     9
100
AcDbSpline
210
0.0
220
0.0
230
1.0
 70
     8
 71
     3
 72
     9
 73
     5
 74
     0
 42
0.0000000001
 43
0.0000000001
 40
0.0
 40
0.0
 40
0.0
 40
0.0
 40
0.2488830613
 40
1.0
 40
1.0
 40
1.0
 40
1.0
 10
592.9508475555
 20
265.9150900284
 30
0.0
 10
593.5898815005999
 20
265.9467065067
 30
0.0
 10
596.1574660623999
 20
266.0741976459
 30
0.0
 10
598.7249425737999
 20
266.2038637627
 30
0.0
 10
600.6533592551999
 20
266.3023948695
 30
0.0
  0
SPLINE
  5
4BF
330
21B
100
AcDbEntity
  8
RUNDUNGEN
  6
Continuous
 62
     9
100
AcDbSpline
210
0.0
220
0.0
230
1.0
 70
     8
 71
     3
 72
     8
 73
     4
 74
     0
 42
0.0000000001
 43
0.0000000001
 40
0.0
 40
0.0
 40
0.0
 40
0.0
 40
1.0
 40
1.0
 40
1.0
 40
1.0
 10
614.8470717144999
 20
294.7023743394
 30
0.0
 10
615.0874280248
 20
295.2102141441
 30
0.0
 10
615.3276518228
 20
295.7181166881
 30
0.0
 10
615.5677395146
 20
296.2260835407
 30
0.0
  0
SPLINE
  5
4C0
330
21B
100
AcDbEntity
  8
RUNDUNGEN
  6
Continuous
 62
     9
100
AcDbSpline
210
0.0
220
0.0
230
1.0
 70
     8
 71
     3
 72
    12
 73
     8
 74
     0
 42
0.0000000001
 43
0.0000000001
 40
0.0
 40
0.0
 40
0.0
 40
0.0
 40
0.37095694
 40
0.6829291637
 40
0.8972180662999999
 40
0.9612396588999999
 40
1.0
 40
1.0
 40
1.0
 40
1.0
 10
615.749519546
 20
294.4590833389
 30
0.0
 10
615.6422304548999
 20
294.5080822114
 30
0.0
 10
615.4417258525
 20
294.592638691
 30
0.0
 10
615.1723866437
 20
294.6844930278
 30
0.0
 10
614.9868311011
 20
294.7265922027
 30
0.0
 10
614.8869078724
 20
294.727474132
 30
0.0
 10
614.8534703694
 20
294.7129072144
 30
0.0
 10
614.8470717148
 20
294.7023743392
 30
0.0
  0
SPLINE
  5
4C1
330
21B
100
AcDbEntity
  8
RUNDUNGEN
  6
Continuous
 62
     9
100
AcDbSpline
210
0.0
220
0.0
230
1.0
 70
     8
 71
     3
 72
     8
 73
     4
 74
     0
 42
0.0000000001
 43
0.0000000001
 40
0.0
 40
0.0
 40
0.0
 40
0.0
 40
1.0
 40
1.0
 40
1.0
 40
1.0
 10
531.5346053774
 20
357.46812103
 30
0.0
 10
531.9381088024999
 20
357.49203182
 30
0.0
 10
532.3415990591001
 20
357.5161655244
 30
0.0
 10
532.7450782232
 20
357.5404822693
 30
0.0
  0
LINE
  5
4C2
330
21B
100
AcDbEntity
  8
RUNDUNGEN
  6
Continuous
 62
     9
100
AcDbLine
 10
531.5313145034999
 20
354.0049635466
 30
0.0
 11
531.5346053774
 21
357.46812103
 31
0.0
  0
SPLINE
  5
4C3
330
21B
100
AcDbEntity
  8
RUNDUNGEN
  6
Continuous
 62
     9
100
AcDbSpline
210
0.0
220
0.0
230
1.0
 70
     8
 71
     3
 72
    11
 73
     7
 74
     0
 42
0.0000000001
 43
0.0000000001
 40
0.0
 40
0.0
 40
0.0
 40
0.0
 40
0.3687787025
 40
0.6788348501000002
 40
0.8935393066999999
 40
1.0
 40
1.0
 40
1.0
 40
1.0
 10
616.4701873308001
 20
296.0141822618
 30
0.0
 10
616.3638935284999
 20
296.0620220695
 30
0.0
 10
616.1670663601999
 20
296.1436712509
 30
0.0
 10
615.8906164265
 20
296.2284046558
 30
0.0
 10
615.708027989
 20
296.2660382422
 30
0.0
 10
615.584776982
 20
296.2551012192
 30
0.0
 10
615.5677357495
 20
296.2260853365
 30
0.0
  0
SPLINE
  5
4C4
330
21B
100
AcDbEntity
  8
RUNDUNGEN
  6
Continuous
 62
     9
100
AcDbSpline
210
0.0
220
0.0
230
1.0
 70
     8
 71
     3
 72
    12
 73
     8
 74
     0
 42
0.0000000001
 43
0.0000000001
 40
0.0
 40
0.0
 40
0.0
 40
0.0
 40
0.3535520186
 40
0.658377218
 40
0.7802303869000001
 40
0.8774069020999998
 40
1.0
 40
1.0
 40
1.0
 40
1.0
 10
617.1190233622
 20
298.7708381917
 30
0.0
 10
616.9935489708999
 20
298.774312388
 30
0.0
 10
616.7591999953
 20
298.7686890931
 30
0.0
 10
616.4844646135
 20
298.7324305615
 30
0.0
 10
616.3037373646
 20
298.6802728181
 30
0.0
 10
616.1956527357999
 20
298.6343339415
 30
0.0
 10
616.1239589174999
 20
298.5748217422
 30
0.0
 10
616.1197847473
 20
298.5314978221
 30
0.0
  0
SPLINE
  5
4C5
330
21B
100
AcDbEntity
  8
RUNDUNGEN
  6
Continuous
 62
     9
100
AcDbSpline
210
0.0
220
0.0
230
1.0
 70
     8
 71
     3
 72
     8
 73
     4
 74
     0
 42
0.0000000001
 43
0.0000000001
 40
0.0
 40
0.0
 40
0.0
 40
0.0
 40
1.0
 40
1.0
 40
1.0
 40
1.0
 10
617.3808239318
 20
334.6844092238
 30
0.0
 10
617.2516604372
 20
334.664410698
 30
0.0
 10
617.1241699806
 20
334.6176903758
 30
0.0
 10
617.0126408630999
 20
334.549540502
 30
0.0
  0
SPLINE
  5
4C6
330
21B
100
AcDbEntity
  8
RUNDUNGEN
  6
Continuous
 62
     9
100
AcDbSpline
210
0.0
220
0.0
230
1.0
 70
     8
 71
     3
 72
    26
 73
    22
 74
     0
 42
0.0000000001
 43
0.0000000001
 40
0.0
 40
0.0
 40
0.0
 40
0.0
 40
0.2081192802
 40
0.4009869178
 40
0.490111111
 40
0.5735749804000001
 40
0.6508331071
 40
0.7213808824
 40
0.7847577165000001
 40
0.8405503224
 40
0.8883956909
 40
0.9279839910999999
 40
0.9446002974999998
 40
0.9590620649999999
 40
0.9713470330999999
 40
0.9814381662
 40
0.9893232428000001
 40
0.9950001989
 40
0.9984886093
 40
0.9994508259999999
 40
1.0
 40
1.0
 40
1.0
 40
1.0
 10
617.1190233622
 20
298.770838437
 30
0.0
 10
617.1921596763
 20
301.2639712627
 30
0.0
 10
617.3261558371999
 20
306.0677385371
 30
0.0
 10
617.4705239764
 20
311.9397146448
 30
0.0
 10
617.5647013300999
 20
316.3185086153
 30
0.0
 10
617.6222664956
 20
319.3122396394
 30
0.0
 10
617.6683030486
 20
322.0835132931
 30
0.0
 10
617.7025333627999
 20
324.6142059924
 30
0.0
 10
617.7247671479
 20
326.8877693404
 30
0.0
 10
617.7349456764
 20
328.8893423771
 30
0.0
 10
617.7330473601
 20
330.6058489684
 30
0.0
 10
617.7211431626
 20
331.85280408
 30
0.0
 10
617.7042605058
 20
332.6995509756
 30
0.0
 10
617.6893972599999
 20
333.2190164945
 30
0.0
 10
617.6716441475
 20
333.6601993979
 30
0.0
 10
617.6512323751
 20
334.0221907074
 30
0.0
 10
617.6281159402
 20
334.3050788983
 30
0.0
 10
617.6035028922
 20
334.5072865692
 30
0.0
 10
617.5783887609999
 20
334.6276305296
 30
0.0
 10
617.5560921935999
 20
334.6823929407
 30
0.0
 10
617.5404940026999
 20
334.6960731562
 30
0.0
 10
617.5339139095999
 20
334.6962128211
 30
0.0
  0
SPLINE
  5
4C7
330
21B
100
AcDbEntity
  8
RUNDUNGEN
  6
Continuous
 62
     9
100
AcDbSpline
210
0.0
220
0.0
230
1.0
 70
     8
 71
     3
 72
    26
 73
    22
 74
     0
 42
0.0000000001
 43
0.0000000001
 40
0.0
 40
0.0
 40
0.0
 40
0.0
 40
0.1947543448
 40
0.3820399645000001
 40
0.4706187426
 40
0.5546750889000001
 40
0.6334017995000001
 40
0.7060430672
 40
0.7719018576000001
 40
0.8303466368
 40
0.8808176489
 40
0.9228326816999999
 40
0.9405411155999999
 40
0.9559927440999999
 40
0.9691515185
 40
0.9799881953999999
 40
0.9884800667
 40
0.9946152065999999
 40
0.9984011513999998
 40
0.9994414901
 40
1.0
 40
1.0
 40
1.0
 40
1.0
 10
545.7495195541
 20
259.138535699
 30
0.0
 10
547.6985058952999
 20
259.138535699
 30
0.0
 10
551.5217391194
 20
259.1451994455
 30
0.0
 10
556.2313583504
 20
259.1703912108
 30
0.0
 10
559.8331057589
 20
259.2008920395
 30
0.0
 10
562.3484440624999
 20
259.2278780013
 30
0.0
 10
564.7042272492
 20
259.2591174403
 30
0.0
 10
566.8778233908999
 20
259.294291094
 30
0.0
 10
568.8483548100999
 20
259.3330336953
 30
0.0
 10
570.5969010552999
 20
259.374905969
 30
0.0
 10
572.1066799681
 20
259.4194676329
 30
0.0
 10
573.2087008856
 20
259.4602630097
 30
0.0
 10
573.9602233959
 20
259.4949352429
 30
0.0
 10
574.4230728861
 20
259.5197974588
 30
0.0
 10
574.8171036438
 20
259.5449465918
 30
0.0
 10
575.1410832507999
 20
259.5701611814
 30
0.0
 10
575.3951222601999
 20
259.5954630244
 30
0.0
 10
575.5768000607999
 20
259.6198391972
 30
0.0
 10
575.6861512141999
 20
259.6424619217
 30
0.0
 10
575.7351424080999
 20
259.6609804474
 30
0.0
 10
575.7489541016999
 20
259.6731640673
 30
0.0
 10
575.7494767662
 20
259.6787288131
 30
0.0
  0
SPLINE
  5
4C8
330
21B
100
AcDbEntity
  8
0
  6
Continuous
 62
     9
100
AcDbSpline
210
0.0
220
0.0
230
1.0
 70
     8
 71
     3
 72
    26
 73
    22
 74
     0
 42
0.0000000001
 43
0.0000000001
 40
0.0
 40
0.0
 40
0.0
 40
0.0
 40
0.0005310574
 40
0.0015417599
 40
0.0052729754
 40
0.0113587599
 40
0.0198059967
 40
0.0306024927
 40
0.0437254167
 40
0.0591454365
 40
0.0768265005
 40
0.1187992887
 40
0.1692443644
 40
0.227678877
 40
0.2935422506
 40
0.3662019197999999
 40
0.4449595911000001
 40
0.5290580873
 40
0.6176886771
 40
0.8050994217999999
 40
1.0
 40
1.0
 40
1.0
 40
1.0
 10
514.7495244801
 20
258.6794903787
 30
0.0
 10
514.7497030073999
 20
258.6740017682
 30
0.0
 10
514.7634919499999
 20
258.6614598741
 30
0.0
 10
514.8130857945999
 20
258.6432985732
 30
0.0
 10
514.9248626976
 20
258.6203625652
 30
0.0
 10
515.1111134086
 20
258.5961867405
 30
0.0
 10
515.3723160228
 20
258.5707909506
 30
0.0
 10
515.7058902438
 20
258.5455915365
 30
0.0
 10
516.1119827201
 20
258.5204096854
 30
0.0
 10
516.5893073122
 20
258.4955283075
 30
0.0
 10
517.3648629231999
 20
258.4608131764
 30
0.0
 10
518.5026455476999
 20
258.4199738291
 30
0.0
 10
520.0619389496999
 20
258.3753631222
 30
0.0
 10
521.8684264720999
 20
258.3334423563
 30
0.0
 10
523.9047437499
 20
258.2946522912
 30
0.0
 10
526.1513093212
 20
258.2594339572001
 30
0.0
 10
528.5865134913
 20
258.2281535838
 30
0.0
 10
531.1869284833999
 20
258.2011313654
 30
0.0
 10
534.9109092601
 20
258.1705879519
 30
0.0
 10
539.7807324020999
 20
258.1453604701
 30
0.0
 10
543.7341081019
 20
258.1386889156
 30
0.0
 10
545.7495195541
 20
258.1386880038
 30
0.0
  0
SPLINE
  5
4C9
330
21B
100
AcDbEntity
  8
0
  6
Continuous
 62
     9
100
AcDbSpline
210
0.0
220
0.0
230
1.0
 70
     8
 71
     3
 72
    27
 73
    23
 74
     0
 42
0.0000000001
 43
0.0000000001
 40
0.0
 40
0.0
 40
0.0
 40
0.0
 40
0.0005145313
 40
0.001508885
 40
0.0052112543
 40
0.0112714113
 40
0.0196958746
 40
0.0304717772
 40
0.0435767067
 40
0.0589806718
 40
0.076648187
 40
0.0965369682
 40
0.1186001582
 40
0.1690326776
 40
0.2274626618
 40
0.2933291325
 40
0.3659990124000001
 40
0.4447733382
 40
0.5288941178000001
 40
0.6175517247000001
 40
0.8050274908
 40
1.0
 40
1.0
 40
1.0
 40
1.0
 10
505.7495195541
 20
257.6793381218
 30
0.0
 10
505.749520319
 20
257.6724729698
 30
0.0
 10
505.76705402
 20
257.6564258349
 30
0.0
 10
505.8303306583
 20
257.6338886887
 30
0.0
 10
505.9737986914
 20
257.6047687073
 30
0.0
 10
506.2131332716
 20
257.5745251431
 30
0.0
 10
506.5493325908999
 20
257.5424984294
 30
0.0
 10
506.978970365
 20
257.5108119577
 30
0.0
 10
507.5022690714
 20
257.4791088724
 30
0.0
 10
508.1175600619999
 20
257.4477986743
 30
0.0
 10
508.8235241469999
 20
257.4169292253
 30
0.0
 10
509.6184220612
 20
257.3866260076
 30
0.0
 10
510.8503747135999
 20
257.3452308267
 30
0.0
 10
512.5965898473
 20
257.2965549877
 30
0.0
 10
514.9273267101
 20
257.2437572995
 30
0.0
 10
517.5549096552999
 20
257.1949360441
 30
0.0
 10
520.4540504008
 20
257.1505982644
 30
0.0
 10
523.5968414754999
 20
257.1112207346
 30
0.0
 10
526.9530230875
 20
257.0772021585
 30
0.0
 10
531.7595763348999
 20
257.0387500157
 30
0.0
 10
538.0452581805
 20
257.0069909652
 30
0.0
 10
543.1480918158
 20
256.9985909044
 30
0.0
 10
545.7495195541
 20
256.9985905235
 30
0.0
  0
LINE
  5
4CA
330
21B
100
AcDbEntity
  8
0
  6
Continuous
 62
     9
100
AcDbLine
 10
606.7495195541
 20
235.6962160259
 30
0.0
 11
606.7495195541
 21
235.7307247674
 31
0.0
  0
SPLINE
  5
4CC
330
21B
100
AcDbEntity
  8
RUNDUNGEN
  6
Continuous
 62
     9
100
AcDbSpline
210
0.0
220
0.0
230
1.0
 70
     8
 71
     3
 72
     9
 73
     5
 74
     0
 42
0.0000000001
 43
0.0000000001
 40
0.0
 40
0.0
 40
0.0
 40
0.0
 40
0.5011145371
 40
1.0
 40
1.0
 40
1.0
 40
1.0
 10
533.3428815347
 20
359.0403382295
 30
0.0
 10
533.1381794627
 20
359.2093754459
 30
0.0
 10
532.6623773128
 20
359.4709057698
 30
0.0
 10
532.1288610694999
 20
359.556738579
 30
0.0
 10
531.8645678208
 20
359.5567278344999
 30
0.0
  0
SPLINE
  5
4CD
330
21B
100
AcDbEntity
  8
RUNDUNGEN
  6
Continuous
 62
     9
100
AcDbSpline
210
0.0
220
0.0
230
1.0
 70
     8
 71
     3
 72
     9
 73
     5
 74
     0
 42
0.0000000001
 43
0.0000000001
 40
0.0
 40
0.0
 40
0.0
 40
0.0
 40
0.5011140272
 40
1.0
 40
1.0
 40
1.0
 40
1.0
 10
558.1561780512
 20
359.0403382295
 30
0.0
 10
558.3608773757999
 20
359.2093736421
 30
0.0
 10
558.8366682821999
 20
359.4709119696
 30
0.0
 10
559.3701807523
 20
359.5567390408
 30
0.0
 10
559.6344712873999
 20
359.5567278344999
 30
0.0
  0
SPLINE
  5
4CF
330
21B
100
AcDbEntity
  8
RUNDUNGEN
  6
Continuous
 62
     9
100
AcDbSpline
210
0.0
220
0.0
230
1.0
 70
     8
 71
     3
 72
    11
 73
     7
 74
     0
 42
0.0000000001
 43
0.0000000001
 40
0.0
 40
0.0
 40
0.0
 40
0.0
 40
0.2482713734
 40
0.4976867714
 40
0.7484018831000001
 40
1.0
 40
1.0
 40
1.0
 40
1.0
 10
559.6344711687
 20
368.5913333083
 30
0.0
 10
559.3644079921999
 20
368.5913212921
 30
0.0
 10
558.8184553129
 20
368.6815048677
 30
0.0
 10
558.0936590805
 20
369.089961128
 30
0.0
 10
557.5718889283999
 20
369.7491713656
 30
0.0
 10
557.4429712799
 20
370.3030821535
 30
0.0
 10
557.4430218761
 20
370.5767640709999
 30
0.0
  0
SPLINE
  5
4D0
330
21B
100
AcDbEntity
  8
RUNDUNGEN
  6
Continuous
 62
     9
100
AcDbSpline
210
0.0
220
0.0
230
1.0
 70
     8
 71
     3
 72
    11
 73
     7
 74
     0
 42
0.0000000001
 43
0.0000000001
 40
0.0
 40
0.0
 40
0.0
 40
0.0
 40
0.2515981165999999
 40
0.5023132279000001
 40
0.7517286259000001
 40
1.0
 40
1.0
 40
1.0
 40
1.0
 10
534.0560172321
 20
370.5767640826
 30
0.0
 10
534.0560678474999
 20
370.3030821563999
 30
0.0
 10
533.9271501529
 20
369.7491713542
 30
0.0
 10
533.4053799882
 20
369.0899610981
 30
0.0
 10
532.6805837066
 20
368.6815048653
 30
0.0
 10
532.1346310112999
 20
368.5913212839
 30
0.0
 10
531.8645678251999
 20
368.5913333083
 30
0.0
  0
SPLINE
  5
4D2
330
21B
100
AcDbEntity
  8
RUNDUNGEN
  6
Continuous
 62
     9
100
AcDbSpline
210
0.0
220
0.0
230
1.0
 70
     8
 71
     3
 72
     8
 73
     4
 74
     0
 42
0.0000000001
 43
0.0000000001
 40
0.0
 40
0.0
 40
0.0
 40
0.0
 40
1.0
 40
1.0
 40
1.0
 40
1.0
 10
560.908960287
 20
369.6790655938
 30
0.0
 10
560.4200593709999
 20
369.6500726365
 30
0.0
 10
559.9311775820999
 20
369.6207560126
 30
0.0
 10
559.4423115308
 20
369.5911810034
 30
0.0
  0
SPLINE
  5
4D3
330
21B
100
AcDbEntity
  8
RUNDUNGEN
  6
Continuous
 62
     9
100
AcDbSpline
210
0.0
220
0.0
230
1.0
 70
     8
 71
     3
 72
    11
 73
     7
 74
     0
 42
0.0000000001
 43
0.0000000001
 40
0.0
 40
0.0
 40
0.0
 40
0.0
 40
0.2644602862
 40
0.51820273
 40
0.7610206978000001
 40
1.0
 40
1.0
 40
1.0
 40
1.0
 10
590.9715026820999
 20
257.9576595605
 30
0.0
 10
591.1088852520999
 20
257.9574419967
 30
0.0
 10
591.3813817192
 20
258.0134651514
 30
0.0
 10
591.7146685968999
 20
258.2439964725
 30
0.0
 10
591.929526934
 20
258.5707896014
 30
0.0
 10
591.9804804665
 20
258.8231511036
 30
0.0
 10
591.9815654780999
 20
258.9472921549
 30
0.0
  0
SPLINE
  5
4D4
330
21B
100
AcDbEntity
  8
RUNDUNGEN
  6
Continuous
 62
     9
100
AcDbSpline
210
0.0
220
0.0
230
1.0
 70
     8
 71
     3
 72
     9
 73
     5
 74
     0
 42
0.0000000001
 43
0.0000000001
 40
0.0
 40
0.0
 40
0.0
 40
0.0
 40
0.517833841
 40
1.0
 40
1.0
 40
1.0
 40
1.0
 10
600.6533592551999
 20
266.3023948695
 30
0.0
 10
600.8360611811
 20
266.3114599998
 30
0.0
 10
601.1911726258
 20
266.4290448162
 30
0.0
 10
601.4334862549
 20
266.7101541047
 30
0.0
 10
601.5083404669
 20
266.86315121
 30
0.0
  0
SPLINE
  5
4D5
330
21B
100
AcDbEntity
  8
0
  6
Continuous
 62
     9
100
AcDbSpline
210
0.0
220
0.0
230
1.0
 70
     8
 71
     3
 72
    27
 73
    23
 74
     0
 42
0.0000000001
 43
0.0000000001
 40
0.0
 40
0.0
 40
0.0
 40
0.0
 40
0.0005171993
 40
0.0015066589
 40
0.0051944499
 40
0.011239104
 40
0.0196484952
 40
0.0304102097
 40
0.0435020572
 40
0.058894168
 40
0.0765511288
 40
0.0964306996
 40
0.1184860503
 40
0.1689070363
 40
0.2273309778
 40
0.2931967257
 40
0.3658709147999999
 40
0.4446541914
 40
0.5287880804000001
 40
0.6174623925000001
 40
0.8049797648999998
 40
1.0
 40
1.0
 40
1.0
 40
1.0
 10
506.7495234591
 20
258.6794903837
 30
0.0
 10
506.7493524216
 20
258.6727640562
 30
0.0
 10
506.7658756821
 20
258.6565682113
 30
0.0
 10
506.8273894385
 20
258.6340458822
 30
0.0
 10
506.966444705
 20
258.6048560689
 30
0.0
 10
507.1992512119999
 20
258.5746452172
 30
0.0
 10
507.52634054
 20
258.5425949828
 30
0.0
 10
507.9446650524999
 20
258.5109053355
 30
0.0
 10
508.4543351974
 20
258.479189076
 30
0.0
 10
509.0537677998
 20
258.4478679801
 30
0.0
 10
509.7416632946
 20
258.4169860372
 30
0.0
 10
510.5163311982
 20
258.3866703073
 30
0.0
 10
511.7171253253999
 20
258.345255342
 30
0.0
 10
513.4193883662
 20
258.2965567508
 30
0.0
 10
515.6916792948
 20
258.2437344615
 30
0.0
 10
518.2536203342
 20
258.1948893359999
 30
0.0
 10
521.0805417028
 20
258.1505289743
 30
0.0
 10
524.1452163445
 20
258.1111307438
 30
0.0
 10
527.4181201623
 20
258.0770938135
 30
0.0
 10
532.1056188051
 20
258.038620063
 30
0.0
 10
538.2357803812999
 20
258.0068433198
 30
0.0
 10
543.2124049551999
 20
257.998438598
 30
0.0
 10
545.7495195541
 20
257.9984382186
 30
0.0
  0
SPLINE
  5
4D6
330
21B
100
AcDbEntity
  8
RUNDUNGEN
  6
Continuous
 62
     9
100
AcDbSpline
210
0.0
220
0.0
230
1.0
 70
     8
 71
     3
 72
     9
 73
     5
 74
     0
 42
0.0000000001
 43
0.0000000001
 40
0.0
 40
0.0
 40
0.0
 40
0.0
 40
0.2509289389
 40
1.0
 40
1.0
 40
1.0
 40
1.0
 10
565.7495195541001
 20
257.9984382186
 30
0.0
 10
567.8591643836999
 20
257.9984379673
 30
0.0
 10
576.2665048812
 20
257.9916080453
 30
0.0
 10
584.6738089965
 20
257.9615230839
 30
0.0
 10
590.9715026820999
 20
257.9576595605
 30
0.0
  0
SPLINE
  5
4D7
330
21B
100
AcDbEntity
  8
RUNDUNGEN
  6
Continuous
 62
     9
100
AcDbSpline
210
0.0
220
0.0
230
1.0
 70
     8
 71
     3
 72
     8
 73
     4
 74
     0
 42
0.0000000001
 43
0.0000000001
 40
0.0
 40
0.0
 40
0.0
 40
0.0
 40
1.0
 40
1.0
 40
1.0
 40
1.0
 10
532.0563787208
 20
369.5911810034
 30
0.0
 10
531.5676997662999
 20
369.6207446517
 30
0.0
 10
531.0790070997
 20
369.6500837073001
 30
0.0
 10
530.5902932978
 20
369.6790655938
 30
0.0
  0
SPLINE
  5
4D8
330
21B
100
AcDbEntity
  8
RUNDUNGEN
  6
Continuous
 62
     9
100
AcDbSpline
210
0.0
220
0.0
230
1.0
 70
     8
 71
     3
 72
     8
 73
     4
 74
     0
 42
0.0000000001
 43
0.0000000001
 40
0.0
 40
0.0
 40
0.0
 40
0.0
 40
1.0
 40
1.0
 40
1.0
 40
1.0
 10
530.5729933495999
 20
358.4679692408999
 30
0.0
 10
531.0674861932
 20
358.4972860396
 30
0.0
 10
531.5619575006
 20
358.5269669172
 30
0.0
 10
532.0564146233
 20
358.5568801394
 30
0.0
  0
SPLINE
  5
4D9
330
21B
100
AcDbEntity
  8
RUNDUNGEN
  6
Continuous
 62
     9
100
AcDbSpline
210
0.0
220
0.0
230
1.0
 70
     8
 71
     3
 72
     8
 73
     4
 74
     0
 42
0.0000000001
 43
0.0000000001
 40
0.0
 40
0.0
 40
0.0
 40
0.0
 40
1.0
 40
1.0
 40
1.0
 40
1.0
 10
559.4426245043
 20
358.5568801394
 30
0.0
 10
559.9370816203999
 20
358.5269669153
 30
0.0
 10
560.4315529215
 20
358.4972860392
 30
0.0
 10
560.9260457586
 20
358.4679692408999
 30
0.0
  0
SPLINE
  5
4DA
330
21B
100
AcDbEntity
  8
RUNDUNGEN
  6
Continuous
 62
     9
100
AcDbSpline
210
0.0
220
0.0
230
1.0
 70
     8
 71
     3
 72
    26
 73
    22
 74
     0
 42
0.0000000001
 43
0.0000000001
 40
0.0
 40
0.0
 40
0.0
 40
0.0
 40
0.194761928
 40
0.3820549095
 40
0.4706371852000001
 40
0.5546968418000001
 40
0.6334266109000001
 40
0.7060706088
 40
0.7719317084
 40
0.8303782676
 40
0.8808503854999999
 40
0.9228656748999998
 40
0.9405738235999999
 40
0.9560248216999999
 40
0.9691825450999999
 40
0.9800176345999998
 40
0.9885071622999999
 40
0.9946386504999999
 40
0.9984181979999998
 40
0.9994526193
 40
1.0
 40
1.0
 40
1.0
 40
1.0
 10
545.7495195541
 20
258.1386880038
 30
0.0
 10
547.7634615929
 20
258.1386880038
 30
0.0
 10
551.7141158133999
 20
258.1453516844
 30
0.0
 10
556.5807017686999
 20
258.1705432149
 30
0.0
 10
560.3024979069999
 20
258.2010438122
 30
0.0
 10
562.9016774056999
 20
258.2280296002
 30
0.0
 10
565.3359866911
 20
258.2592688766
 30
0.0
 10
567.5820390039
 20
258.2944423845
 30
0.0
 10
569.6182600916
 20
258.3331848779
 30
0.0
 10
571.4250974583999
 20
258.3750570227
 30
0.0
 10
572.9852086787999
 20
258.419618642
 30
0.0
 10
574.1239722568
 20
258.4604138665
 30
0.0
 10
574.9005570962
 20
258.4950865516
 30
0.0
 10
575.3788352308999
 20
258.5199481942
 30
0.0
 10
575.7860050964
 20
258.5450985623
 30
0.0
 10
576.1207681335999
 20
258.5703085534
 30
0.0
 10
576.3832984471999
 20
258.5956190948
 30
0.0
 10
576.5709238009
 20
258.6199654089
 30
0.0
 10
576.6840200728999
 20
258.6426176107
 30
0.0
 10
576.7344684142999
 20
258.6610595193
 30
0.0
 10
576.7489269044
 20
258.6732475421
 30
0.0
 10
576.7494753398999
 20
258.6788811179
 30
0.0
  0
LEADER
  5
64E
330
21B
100
AcDbEntity
  8
ZEICHNUNGSBEMASSUNGEN
  6
Continuous
 62
     7
100
AcDbLeader
  3
DIMSTYLE_2
 74
     0
 76
     3
 10
552.7495190811764
 20
402.6962163645809
 30
0.0
 10
568.8881059073763
 20
412.3404604482382
 30
0.0
 10
585.9807360100823
 20
412.3077648697963
 30
0.0
213
8.546107528269942
223
6.697880158863256
233
0.0
1001
ACAD
1000
DSTYLE
1002
{
1070
    41
1040
5.0
1070
   147
1040
1.5
1070
   178
1070
   256
1002
}
  0
LINE
  5
64F
330
21B
100
AcDbEntity
  8
0
100
AcDbLine
 10
588.3385063793597
 20
409.061863092158
 30
0.0
 11
596.9776696536942
 21
409.061863092158
 31
0.0
  0
LINE
  5
650
330
21B
100
AcDbEntity
  8
0
100
AcDbLine
 10
589.8337267539391
 20
407.9162361866484
 30
0.0
 11
595.4663605511225
 21
407.9162361866484
 31
0.0
  0
LINE
  5
651
330
21B
100
AcDbEntity
  8
0
100
AcDbLine
 10
591.2445382074531
 20
406.9837887578962
 30
0.0
 11
594.2486067209062
 21
406.9837887578962
 31
0.0
  0
LINE
  5
652
330
21B
100
AcDbEntity
  8
0
100
AcDbLine
 10
592.6107393594782
 20
410.6566687924854
 30
0.0
 11
592.6107393594782
 21
416.0977743924115
 31
0.0
  0
ENDSEC
  0
SECTION
  2
OBJECTS
  0
DICTIONARY
  5
C
330
0
100
AcDbDictionary
281
     1
  3
ACAD_COLOR
350
50C
  3
ACAD_GROUP
350
D
  3
ACAD_LAYOUT
350
1A
  3
ACAD_MATERIAL
350
4DF
  3
ACAD_MLEADERSTYLE
350
521
  3
ACAD_MLINESTYLE
350
17
  3
ACAD_PLOTSETTINGS
350
19
  3
ACAD_PLOTSTYLENAME
350
E
  3
ACAD_SCALELIST
350
50F
  3
ACAD_TABLESTYLE
350
50D
  3
ACAD_VISUALSTYLE
350
4F8
  3
ACDB_RECOMPOSE_DATA
350
686
  3
AcDbVariableDictionary
350
677
  3
AcmDictionary
350
57C
  3
AMG
350
526
  3
AMGSNAPSETTINGS
350
5C1
  3
DWGPROPS
350
687
  0
DICTIONARY
  5
50C
102
{ACAD_REACTORS
330
C
102
}
330
C
100
AcDbDictionary
281
     1
  0
DICTIONARY
  5
D
102
{ACAD_REACTORS
330
C
102
}
330
C
100
AcDbDictionary
281
     1
  0
DICTIONARY
  5
1A
102
{ACAD_REACTORS
330
C
102
}
330
C
100
AcDbDictionary
281
     1
  3
Layout1
350
4DC
  3
Model
350
4DB
  0
DICTIONARY
  5
4DF
102
{ACAD_REACTORS
330
C
102
}
330
C
100
AcDbDictionary
281
     1
  3
ByBlock
350
4E8
  3
ByLayer
350
4E0
  3
Global
350
4F0
  0
DICTIONARY
  5
521
102
{ACAD_REACTORS
330
C
102
}
330
C
100
AcDbDictionary
281
     1
  3
Standard
350
522
  0
DICTIONARY
  5
17
102
{ACAD_REACTORS
330
C
102
}
330
C
100
AcDbDictionary
281
     1
  3
Standard
350
18
  0
DICTIONARY
  5
19
102
{ACAD_REACTORS
330
C
102
}
330
C
100
AcDbDictionary
281
     1
  0
ACDBDICTIONARYWDFLT
  5
E
102
{ACAD_REACTORS
330
C
102
}
330
C
100
AcDbDictionary
281
     1
  3
Normal
350
F
100
AcDbDictionaryWithDefault
340
F
  0
DICTIONARY
  5
50F
102
{ACAD_REACTORS
330
C
102
}
330
C
100
AcDbDictionary
281
     1
  3
A0
350
510
  3
A1
350
511
  3
A2
350
512
  3
A3
350
513
  3
A4
350
514
  3
A5
350
515
  3
A6
350
516
  3
A7
350
517
  3
A8
350
518
  3
A9
350
519
  3
B0
350
51A
  3
B1
350
51B
  3
B2
350
51C
  3
B3
350
51D
  3
B4
350
51E
  3
B5
350
51F
  3
B6
350
520
  0
DICTIONARY
  5
50D
102
{ACAD_REACTORS
330
C
102
}
330
C
100
AcDbDictionary
281
     1
  3
Standard
350
50E
  0
DICTIONARY
  5
4F8
102
{ACAD_REACTORS
330
C
102
}
330
C
100
AcDbDictionary
281
     1
  3
2dWireframe
350
4FE
  3
3D Hidden
350
500
  3
3dWireframe
350
4FF
  3
Basic
350
4FD
  3
Brighten
350
504
  3
ColorChange
350
508
  3
Conceptual
350
501
  3
Dim
350
503
  3
EdgeColorOff
350
50B
  3
Facepattern
350
507
  3
Flat
350
4F9
  3
FlatWithEdges
350
4FA
  3
Gouraud
350
4FB
  3
GouraudWithEdges
350
4FC
  3
JitterOff
350
509
  3
Linepattern
350
506
  3
OverhangOff
350
50A
  3
Realistic
350
502
  3
Thicken
350
505
  0
XRECORD
  5
686
102
{ACAD_REACTORS
330
C
102
}
330
C
100
AcDbXrecord
280
     1
 90
        1
330
50E
  0
DICTIONARY
  5
677
102
{ACAD_REACTORS
330
C
102
}
330
C
100
AcDbDictionary
281
     1
  3
CANNOSCALE
350
67B
  3
CMLEADERSTYLE
350
679
  3
CTABLESTYLE
350
678
  3
DIMASSOC
350
682
  3
HIDETEXT
350
681
  3
INDEXCTL
350
680
  3
LAYEREVAL
350
67D
  3
LAYERNOTIFY
350
67E
  3
LIGHTINGUNITS
350
67C
  3
MSLTSCALE
350
67A
  3
SORTENTS
350
67F
  3
XCLIPFRAME
350
683
  0
DICTIONARY
  5
57C
102
{ACAD_REACTORS
330
C
102
}
330
C
100
AcDbDictionary
281
     1
  3
AcmStdDictionary
350
586
  0
DICTIONARY
  5
526
102
{ACAD_REACTORS
330
C
102
}
330
C
100
AcDbDictionary
281
     1
  0
DICTIONARY
  5
5C1
102
{ACAD_REACTORS
330
C
102
}
330
C
100
AcDbDictionary
281
     1
  0
XRECORD
  5
687
102
{ACAD_REACTORS
330
C
102
}
330
C
100
AcDbXrecord
280
     1
  1
DWGPROPS COOKIE
  2

  3

  4

  6

  7

  8
sheim
  9

300
=
301
=
302
=
303
=
304
=
305
=
306
=
307
=
308
=
309
=
 40
0.0024845949074074
 41
2456325.346429225
 42
2456325.348913646
  1

 90
        0
  0
LAYOUT
  5
4DC
102
{ACAD_XDICTIONARY
360
68A
102
}
102
{ACAD_REACTORS
330
1A
102
}
330
1A
100
AcDbPlotSettings
  1

  2
none_device
  4
ISO_A0_(1189.00_x_841.00_MM)
  6

 40
0.0
 41
0.0
 42
0.0
 43
0.0
 44
1189.0
 45
841.0
 46
0.0
 47
0.0
 48
0.0
 49
0.0
140
0.0
141
0.0
142
1.0
143
1.0
 70
     0
 72
     1
 73
     0
 74
     0
  7

 75
     0
147
1.0
148
0.0
149
0.0
100
AcDbLayout
  1
Layout1
 70
     1
 71
     1
 10
0.0
 20
0.0
 11
12.0
 21
9.0
 12
0.0
 22
0.0
 32
0.0
 14
1.000000000000000E+20
 24
1.000000000000000E+20
 34
1.000000000000000E+20
 15
-1.000000000000000E+20
 25
-1.000000000000000E+20
 35
-1.000000000000000E+20
146
0.0
 13
0.0
 23
0.0
 33
0.0
 16
1.0
 26
0.0
 36
0.0
 17
0.0
 27
1.0
 37
0.0
 76
     0
330
21C
  0
LAYOUT
  5
4DB
102
{ACAD_XDICTIONARY
360
688
102
}
102
{ACAD_REACTORS
330
1A
102
}
330
1A
100
AcDbPlotSettings
  1

  2
none_device
  4
ISO_A0_(1189.00_x_841.00_MM)
  6

 40
0.0
 41
0.0
 42
0.0
 43
0.0
 44
1189.0
 45
841.0
 46
0.0
 47
0.0
 48
0.0
 49
0.0
140
0.0
141
0.0
142
1.0
143
1.0
 70
  1024
 72
     1
 73
     0
 74
     0
  7

 75
     0
147
1.0
148
0.0
149
0.0
100
AcDbLayout
  1
Model
 70
     0
 71
     0
 10
0.0
 20
0.0
 11
1189.0
 21
841.0
 12
0.0
 22
0.0
 32
0.0
 14
0.0
 24
0.0
 34
0.0
 15
0.0
 25
0.0
 35
0.0
146
0.0
 13
0.0
 23
0.0
 33
0.0
 16
1.0
 26
0.0
 36
0.0
 17
0.0
 27
1.0
 37
0.0
 76
     0
330
21B
331
1F4
  0
MATERIAL
  5
4E8
102
{ACAD_XDICTIONARY
360
4E9
102
}
102
{ACAD_REACTORS
330
4DF
102
}
330
4DF
100
AcDbMaterial
  1
ByBlock
 72
     0
 43
0.0008202099737533
 43
0.0
 43
0.0
 43
0.0
 43
0.0
 43
0.0008202099737533
 43
0.0
 43
0.0
 43
0.0
 43
0.0
 43
1.0
 43
0.0
 43
0.0
 43
0.0
 43
0.0
 43
1.0
 77
     0
 47
0.0008202099737533
 47
0.0
 47
0.0
 47
0.0
 47
0.0
 47
0.0008202099737533
 47
0.0
 47
0.0
 47
0.0
 47
0.0
 47
1.0
 47
0.0
 47
0.0
 47
0.0
 47
0.0
 47
1.0
171
     0
 49
0.0008202099737533
 49
0.0
 49
0.0
 49
0.0
 49
0.0
 49
0.0008202099737533
 49
0.0
 49
0.0
 49
0.0
 49
0.0
 49
1.0
 49
0.0
 49
0.0
 49
0.0
 49
0.0
 49
1.0
175
     0
142
0.0008202099737533
142
0.0
142
0.0
142
0.0
142
0.0
142
0.0008202099737533
142
0.0
142
0.0
142
0.0
142
0.0
142
1.0
142
0.0
142
0.0
142
0.0
142
0.0
142
1.0
179
     0
144
0.0008202099737533
144
0.0
144
0.0
144
0.0
144
0.0
144
0.0008202099737533
144
0.0
144
0.0
144
0.0
144
0.0
144
1.0
144
0.0
144
0.0
144
0.0
144
0.0
144
1.0
147
0.0008202099737533
147
0.0
147
0.0
147
0.0
147
0.0
147
0.0008202099737533
147
0.0
147
0.0
147
0.0
147
0.0
147
1.0
147
0.0
147
0.0
147
0.0
147
0.0
147
1.0
  0
MATERIAL
  5
4E0
102
{ACAD_XDICTIONARY
360
4E1
102
}
102
{ACAD_REACTORS
330
4DF
102
}
330
4DF
100
AcDbMaterial
  1
ByLayer
 72
     0
 43
0.0008202099737533
 43
0.0
 43
0.0
 43
0.0
 43
0.0
 43
0.0008202099737533
 43
0.0
 43
0.0
 43
0.0
 43
0.0
 43
1.0
 43
0.0
 43
0.0
 43
0.0
 43
0.0
 43
1.0
 77
     0
 47
0.0008202099737533
 47
0.0
 47
0.0
 47
0.0
 47
0.0
 47
0.0008202099737533
 47
0.0
 47
0.0
 47
0.0
 47
0.0
 47
1.0
 47
0.0
 47
0.0
 47
0.0
 47
0.0
 47
1.0
171
     0
 49
0.0008202099737533
 49
0.0
 49
0.0
 49
0.0
 49
0.0
 49
0.0008202099737533
 49
0.0
 49
0.0
 49
0.0
 49
0.0
 49
1.0
 49
0.0
 49
0.0
 49
0.0
 49
0.0
 49
1.0
175
     0
142
0.0008202099737533
142
0.0
142
0.0
142
0.0
142
0.0
142
0.0008202099737533
142
0.0
142
0.0
142
0.0
142
0.0
142
1.0
142
0.0
142
0.0
142
0.0
142
0.0
142
1.0
179
     0
144
0.0008202099737533
144
0.0
144
0.0
144
0.0
144
0.0
144
0.0008202099737533
144
0.0
144
0.0
144
0.0
144
0.0
144
1.0
144
0.0
144
0.0
144
0.0
144
0.0
144
1.0
147
0.0008202099737533
147
0.0
147
0.0
147
0.0
147
0.0
147
0.0008202099737533
147
0.0
147
0.0
147
0.0
147
0.0
147
1.0
147
0.0
147
0.0
147
0.0
147
0.0
147
1.0
  0
MATERIAL
  5
4F0
102
{ACAD_XDICTIONARY
360
4F1
102
}
102
{ACAD_REACTORS
330
4DF
102
}
330
4DF
100
AcDbMaterial
  1
Global
 72
     0
 43
0.0008202099737533
 43
0.0
 43
0.0
 43
0.0
 43
0.0
 43
0.0008202099737533
 43
0.0
 43
0.0
 43
0.0
 43
0.0
 43
1.0
 43
0.0
 43
0.0
 43
0.0
 43
0.0
 43
1.0
 77
     0
 47
0.0008202099737533
 47
0.0
 47
0.0
 47
0.0
 47
0.0
 47
0.0008202099737533
 47
0.0
 47
0.0
 47
0.0
 47
0.0
 47
1.0
 47
0.0
 47
0.0
 47
0.0
 47
0.0
 47
1.0
171
     0
 49
0.0008202099737533
 49
0.0
 49
0.0
 49
0.0
 49
0.0
 49
0.0008202099737533
 49
0.0
 49
0.0
 49
0.0
 49
0.0
 49
1.0
 49
0.0
 49
0.0
 49
0.0
 49
0.0
 49
1.0
175
     0
142
0.0008202099737533
142
0.0
142
0.0
142
0.0
142
0.0
142
0.0008202099737533
142
0.0
142
0.0
142
0.0
142
0.0
142
1.0
142
0.0
142
0.0
142
0.0
142
0.0
142
1.0
179
     0
144
0.0008202099737533
144
0.0
144
0.0
144
0.0
144
0.0
144
0.0008202099737533
144
0.0
144
0.0
144
0.0
144
0.0
144
1.0
144
0.0
144
0.0
144
0.0
144
0.0
144
1.0
147
0.0008202099737533
147
0.0
147
0.0
147
0.0
147
0.0
147
0.0008202099737533
147
0.0
147
0.0
147
0.0
147
0.0
147
1.0
147
0.0
147
0.0
147
0.0
147
0.0
147
1.0
  0
MLEADERSTYLE
  5
522
102
{ACAD_REACTORS
330
521
102
}
330
521
100
AcDbMLeaderStyle
170
     2
171
     1
172
     0
 90
        2
 40
0.0
 41
0.0
173
     1
 91
-1056964608
340
14
 92
       -2
290
     1
 42
2.0
291
     1
 43
0.36
  3
Standard
 44
4.0
300

342
11
174
     1
178
     6
175
     1
176
     0
 93
-1056964608
 45
4.0
292
     0
297
     0
 46
4.0
 94
-1056964608
 47
1.0
 49
1.0
140
1.0
293
     1
141
0.0
294
     1
177
     0
142
1.0
295
     0
296
     0
143
0.125
1001
ACAD_MLEADERVER
1070
     2
  0
MLINESTYLE
  5
18
102
{ACAD_REACTORS
330
17
102
}
330
17
100
AcDbMlineStyle
  2
STANDARD
 70
     0
  3

 62
   256
 51
90.0
 52
90.0
 71
     2
 49
0.5
 62
   256
  6
BYLAYER
 49
-0.5
 62
   256
  6
BYLAYER
  0
ACDBPLACEHOLDER
  5
F
102
{ACAD_REACTORS
330
E
102
}
330
E
  0
SCALE
  5
510
102
{ACAD_REACTORS
330
50F
102
}
330
50F
100
AcDbScale
 70
     0
300
1:1
140
1.0
141
1.0
290
     1
  0
SCALE
  5
511
102
{ACAD_REACTORS
330
50F
102
}
330
50F
100
AcDbScale
 70
     0
300
1:2
140
1.0
141
2.0
290
     0
  0
SCALE
  5
512
102
{ACAD_REACTORS
330
50F
102
}
330
50F
100
AcDbScale
 70
     0
300
1:4
140
1.0
141
4.0
290
     0
  0
SCALE
  5
513
102
{ACAD_REACTORS
330
50F
102
}
330
50F
100
AcDbScale
 70
     0
300
1:5
140
1.0
141
5.0
290
     0
  0
SCALE
  5
514
102
{ACAD_REACTORS
330
50F
102
}
330
50F
100
AcDbScale
 70
     0
300
1:8
140
1.0
141
8.0
290
     0
  0
SCALE
  5
515
102
{ACAD_REACTORS
330
50F
102
}
330
50F
100
AcDbScale
 70
     0
300
1:10
140
1.0
141
10.0
290
     0
  0
SCALE
  5
516
102
{ACAD_REACTORS
330
50F
102
}
330
50F
100
AcDbScale
 70
     0
300
1:16
140
1.0
141
16.0
290
     0
  0
SCALE
  5
517
102
{ACAD_REACTORS
330
50F
102
}
330
50F
100
AcDbScale
 70
     0
300
1:20
140
1.0
141
20.0
290
     0
  0
SCALE
  5
518
102
{ACAD_REACTORS
330
50F
102
}
330
50F
100
AcDbScale
 70
     0
300
1:30
140
1.0
141
30.0
290
     0
  0
SCALE
  5
519
102
{ACAD_REACTORS
330
50F
102
}
330
50F
100
AcDbScale
 70
     0
300
1:40
140
1.0
141
40.0
290
     0
  0
SCALE
  5
51A
102
{ACAD_REACTORS
330
50F
102
}
330
50F
100
AcDbScale
 70
     0
300
1:50
140
1.0
141
50.0
290
     0
  0
SCALE
  5
51B
102
{ACAD_REACTORS
330
50F
102
}
330
50F
100
AcDbScale
 70
     0
300
1:100
140
1.0
141
100.0
290
     0
  0
SCALE
  5
51C
102
{ACAD_REACTORS
330
50F
102
}
330
50F
100
AcDbScale
 70
     0
300
2:1
140
2.0
141
1.0
290
     0
  0
SCALE
  5
51D
102
{ACAD_REACTORS
330
50F
102
}
330
50F
100
AcDbScale
 70
     0
300
4:1
140
4.0
141
1.0
290
     0
  0
SCALE
  5
51E
102
{ACAD_REACTORS
330
50F
102
}
330
50F
100
AcDbScale
 70
     0
300
8:1
140
8.0
141
1.0
290
     0
  0
SCALE
  5
51F
102
{ACAD_REACTORS
330
50F
102
}
330
50F
100
AcDbScale
 70
     0
300
10:1
140
10.0
141
1.0
290
     0
  0
SCALE
  5
520
102
{ACAD_REACTORS
330
50F
102
}
330
50F
100
AcDbScale
 70
     0
300
100:1
140
100.0
141
1.0
290
     0
  0
TABLESTYLE
  5
50E
102
{ACAD_XDICTIONARY
360
684
102
}
102
{ACAD_REACTORS
330
50D
102
}
330
50D
100
AcDbTableStyle
  3
Standard
 70
     0
 71
     0
 40
1.5
 41
1.5
280
     0
281
     0
  7
STANDARD
140
4.5
170
     2
 62
     0
 63
     7
283
     0
274
    -2
284
     1
 64
     0
275
    -2
285
     1
 65
     0
276
    -2
286
     1
 66
     0
277
    -2
287
     1
 67
     0
278
    -2
288
     1
 68
     0
279
    -2
289
     1
 69
     0
  7
STANDARD
140
6.0
170
     5
 62
     0
 63
     7
283
     0
274
    -2
284
     1
 64
     0
275
    -2
285
     1
 65
     0
276
    -2
286
     1
 66
     0
277
    -2
287
     1
 67
     0
278
    -2
288
     1
 68
     0
279
    -2
289
     1
 69
     0
  7
STANDARD
140
4.5
170
     5
 62
     0
 63
     7
283
     0
274
    -2
284
     1
 64
     0
275
    -2
285
     1
 65
     0
276
    -2
286
     1
 66
     0
277
    -2
287
     1
 67
     0
278
    -2
288
     1
 68
     0
279
    -2
289
     1
 69
     0
  0
VISUALSTYLE
  5
4FE
102
{ACAD_XDICTIONARY
360
699
102
}
102
{ACAD_REACTORS
330
4F8
102
}
330
4F8
100
AcDbVisualStyle
  2
2dWireframe
 70
     4
 71
     0
 72
     2
 73
     0
 90
        0
 40
-0.6
 41
-30.0
 62
     5
 63
     7
 74
     1
 91
        4
 64
     7
 65
   257
 75
     1
175
     1
 42
1.0
 92
        0
 66
   257
 43
1.0
 76
     1
 77
     6
 78
     2
 67
     7
 79
     5
170
     0
171
     0
290
     0
174
     0
 93
        1
 44
0.0
173
     0
291
     0
 45
0.0
1001
ACAD
1000
AcDbSavedByObjectVersion
1070
     0
  0
VISUALSTYLE
  5
500
102
{ACAD_XDICTIONARY
360
69D
102
}
102
{ACAD_REACTORS
330
4F8
102
}
330
4F8
100
AcDbVisualStyle
  2
3D Hidden
 70
     6
 71
     1
 72
     2
 73
     2
 90
        0
 40
-0.6
 41
-30.0
 62
     5
 63
     7
 74
     2
 91
        2
 64
     7
 65
   257
 75
     2
175
     1
 42
179.0
 92
        0
 66
   257
 43
1.0
 76
     1
 77
     6
 78
     2
 67
     7
 79
     3
170
     0
171
     0
290
     0
174
     0
 93
        1
 44
0.0
173
     0
291
     0
 45
0.0
1001
ACAD
1000
AcDbSavedByObjectVersion
1070
     0
  0
VISUALSTYLE
  5
4FF
102
{ACAD_XDICTIONARY
360
69B
102
}
102
{ACAD_REACTORS
330
4F8
102
}
330
4F8
100
AcDbVisualStyle
  2
3dWireframe
 70
     5
 71
     0
 72
     2
 73
     0
 90
        0
 40
-0.6
 41
-30.0
 62
     5
 63
     7
 74
     1
 91
        4
 64
     7
 65
   257
 75
     1
175
     1
 42
1.0
 92
        0
 66
   257
 43
1.0
 76
     1
 77
     6
 78
     2
 67
     7
 79
     5
170
     0
171
     0
290
     0
174
     0
 93
        1
 44
0.0
173
     0
291
     0
 45
0.0
1001
ACAD
1000
AcDbSavedByObjectVersion
1070
     0
  0
VISUALSTYLE
  5
4FD
102
{ACAD_XDICTIONARY
360
697
102
}
102
{ACAD_REACTORS
330
4F8
102
}
330
4F8
100
AcDbVisualStyle
  2
Basic
 70
     7
 71
     1
 72
     0
 73
     1
 90
        0
 40
-0.6
 41
-30.0
 62
     5
 63
     7
 74
     0
 91
        4
 64
     7
 65
   257
 75
     1
175
     1
 42
1.0
 92
        8
 66
     7
 43
1.0
 76
     1
 77
     6
 78
     2
 67
     7
 79
     5
170
     0
171
     0
290
     0
174
     0
 93
        1
 44
0.0
173
     0
291
     1
 45
0.0
1001
ACAD
1000
AcDbSavedByObjectVersion
1070
     0
  0
VISUALSTYLE
  5
504
102
{ACAD_XDICTIONARY
360
6A5
102
}
102
{ACAD_REACTORS
330
4F8
102
}
330
4F8
100
AcDbVisualStyle
  2
Brighten
 70
    12
 71
     2
 72
     2
 73
     0
 90
        0
 40
-0.6
 41
-30.0
 62
     5
 63
     7
 74
     1
 91
        4
 64
     7
 65
   257
 75
     1
175
     1
 42
1.0
 92
        8
 66
     7
 43
1.0
 76
     1
 77
     6
 78
     2
 67
     7
 79
     5
170
     0
171
     0
290
     0
174
     0
 93
        1
 44
50.0
173
     0
291
     1
 45
0.0
1001
ACAD
1000
AcDbSavedByObjectVersion
1070
     0
  0
VISUALSTYLE
  5
508
102
{ACAD_XDICTIONARY
360
6AD
102
}
102
{ACAD_REACTORS
330
4F8
102
}
330
4F8
100
AcDbVisualStyle
  2
ColorChange
 70
    16
 71
     2
 72
     2
 73
     3
 90
        0
 40
-0.6
 41
-30.0
 62
     5
 63
     8
 74
     1
 91
        4
 64
     7
 65
   257
 75
     1
175
     1
 42
1.0
 92
        8
 66
     8
 43
1.0
 76
     1
 77
     6
 78
     2
 67
     7
 79
     5
170
     0
171
     0
290
     0
174
     0
 93
        1
 44
0.0
173
     0
291
     1
 45
0.0
1001
ACAD
1000
AcDbSavedByObjectVersion
1070
     0
  0
VISUALSTYLE
  5
501
102
{ACAD_XDICTIONARY
360
69F
102
}
102
{ACAD_REACTORS
330
4F8
102
}
330
4F8
100
AcDbVisualStyle
  2
Conceptual
 70
     9
 71
     3
 72
     2
 73
     0
 90
        0
 40
-0.6
 41
-30.0
 62
     5
 63
     7
 74
     2
 91
        2
 64
     7
 65
   257
 75
     1
175
     1
 42
179.0
 92
        8
 66
     7
 43
1.0
 76
     1
 77
     6
 78
     2
 67
     7
 79
     3
170
     0
171
     0
290
     0
174
     0
 93
        1
 44
0.0
173
     0
291
     0
 45
0.0
1001
ACAD
1000
AcDbSavedByObjectVersion
1070
     0
  0
VISUALSTYLE
  5
503
102
{ACAD_XDICTIONARY
360
6A3
102
}
102
{ACAD_REACTORS
330
4F8
102
}
330
4F8
100
AcDbVisualStyle
  2
Dim
 70
    11
 71
     2
 72
     2
 73
     0
 90
        0
 40
-0.6
 41
-30.0
 62
     5
 63
     7
 74
     1
 91
        4
 64
     7
 65
   257
 75
     1
175
     1
 42
1.0
 92
        8
 66
     7
 43
1.0
 76
     1
 77
     6
 78
     2
 67
     7
 79
     5
170
     0
171
     0
290
     0
174
     0
 93
        1
 44
-50.0
173
     0
291
     1
 45
0.0
1001
ACAD
1000
AcDbSavedByObjectVersion
1070
     0
  0
VISUALSTYLE
  5
50B
102
{ACAD_XDICTIONARY
360
6B3
102
}
102
{ACAD_REACTORS
330
4F8
102
}
330
4F8
100
AcDbVisualStyle
  2
EdgeColorOff
 70
    22
 71
     2
 72
     2
 73
     0
 90
        0
 40
-0.6
 41
-30.0
 62
     5
 63
     7
 74
     1
 91
        4
 64
     7
 65
   257
 75
     1
175
     1
 42
1.0
 92
        8
 66
     7
 43
1.0
 76
     1
 77
     6
 78
     2
 67
     7
 79
     5
170
     0
171
     0
290
     0
174
     0
 93
        1
 44
0.0
173
     0
291
     1
 45
0.0
1001
ACAD
1000
AcDbSavedByObjectVersion
1070
     0
  0
VISUALSTYLE
  5
507
102
{ACAD_XDICTIONARY
360
6AB
102
}
102
{ACAD_REACTORS
330
4F8
102
}
330
4F8
100
AcDbVisualStyle
  2
Facepattern
 70
    15
 71
     2
 72
     2
 73
     0
 90
        0
 40
-0.6
 41
-30.0
 62
     5
 63
     7
 74
     1
 91
        4
 64
     7
 65
   257
 75
     1
175
     1
 42
1.0
 92
        8
 66
     7
 43
1.0
 76
     1
 77
     6
 78
     2
 67
     7
 79
     5
170
     0
171
     0
290
     0
174
     0
 93
        1
 44
0.0
173
     0
291
     1
 45
0.0
1001
ACAD
1000
AcDbSavedByObjectVersion
1070
     0
  0
VISUALSTYLE
  5
4F9
102
{ACAD_XDICTIONARY
360
68F
102
}
102
{ACAD_REACTORS
330
4F8
102
}
330
4F8
100
AcDbVisualStyle
  2
Flat
 70
     0
 71
     2
 72
     1
 73
     1
 90
        2
 40
-0.6
 41
30.0
 62
     5
 63
     7
 74
     0
 91
        4
 64
     7
 65
   257
 75
     1
175
     1
 42
1.0
 92
        8
 66
     7
 43
1.0
 76
     1
 77
     6
 78
     2
 67
     7
 79
     5
170
     0
171
     0
290
     0
174
     0
 93
       13
 44
0.0
173
     0
291
     1
 45
0.0
1001
ACAD
1000
AcDbSavedByObjectVersion
1070
     0
  0
VISUALSTYLE
  5
4FA
102
{ACAD_XDICTIONARY
360
691
102
}
102
{ACAD_REACTORS
330
4F8
102
}
330
4F8
100
AcDbVisualStyle
  2
FlatWithEdges
 70
     1
 71
     2
 72
     1
 73
     1
 90
        2
 40
-0.6
 41
30.0
 62
     5
 63
     7
 74
     1
 91
        4
 64
     7
 65
   257
 75
     1
175
     1
 42
1.0
 92
        0
 66
   257
 43
1.0
 76
     1
 77
     6
 78
     2
 67
     7
 79
     5
170
     0
171
     0
290
     0
174
     0
 93
       13
 44
0.0
173
     0
291
     1
 45
0.0
1001
ACAD
1000
AcDbSavedByObjectVersion
1070
     0
  0
VISUALSTYLE
  5
4FB
102
{ACAD_XDICTIONARY
360
693
102
}
102
{ACAD_REACTORS
330
4F8
102
}
330
4F8
100
AcDbVisualStyle
  2
Gouraud
 70
     2
 71
     2
 72
     2
 73
     1
 90
        2
 40
-0.6
 41
30.0
 62
     5
 63
     7
 74
     0
 91
        4
 64
     7
 65
   257
 75
     1
175
     1
 42
1.0
 92
        0
 66
     7
 43
1.0
 76
     1
 77
     6
 78
     2
 67
     7
 79
     5
170
     0
171
     0
290
     0
174
     0
 93
       13
 44
0.0
173
     0
291
     1
 45
0.0
1001
ACAD
1000
AcDbSavedByObjectVersion
1070
     0
  0
VISUALSTYLE
  5
4FC
102
{ACAD_XDICTIONARY
360
695
102
}
102
{ACAD_REACTORS
330
4F8
102
}
330
4F8
100
AcDbVisualStyle
  2
GouraudWithEdges
 70
     3
 71
     2
 72
     2
 73
     1
 90
        2
 40
-0.6
 41
30.0
 62
     5
 63
     7
 74
     1
 91
        4
 64
     7
 65
   257
 75
     1
175
     1
 42
1.0
 92
        0
 66
   257
 43
1.0
 76
     1
 77
     6
 78
     2
 67
     7
 79
     5
170
     0
171
     0
290
     0
174
     0
 93
       13
 44
0.0
173
     0
291
     1
 45
0.0
1001
ACAD
1000
AcDbSavedByObjectVersion
1070
     0
  0
VISUALSTYLE
  5
509
102
{ACAD_XDICTIONARY
360
6AF
102
}
102
{ACAD_REACTORS
330
4F8
102
}
330
4F8
100
AcDbVisualStyle
  2
JitterOff
 70
    20
 71
     2
 72
     2
 73
     0
 90
        0
 40
-0.6
 41
-30.0
 62
     5
 63
     7
 74
     1
 91
        4
 64
     7
 65
   257
 75
     1
175
     1
 42
1.0
 92
       10
 66
     7
 43
1.0
 76
     1
 77
     6
 78
     2
 67
     7
 79
     5
170
     0
171
     0
290
     0
174
     0
 93
        1
 44
0.0
173
     0
291
     1
 45
0.0
1001
ACAD
1000
AcDbSavedByObjectVersion
1070
     0
  0
VISUALSTYLE
  5
506
102
{ACAD_XDICTIONARY
360
6A9
102
}
102
{ACAD_REACTORS
330
4F8
102
}
330
4F8
100
AcDbVisualStyle
  2
Linepattern
 70
    14
 71
     2
 72
     2
 73
     0
 90
        0
 40
-0.6
 41
-30.0
 62
     5
 63
     7
 74
     1
 91
        4
 64
     7
 65
   257
 75
     7
175
     7
 42
1.0
 92
        8
 66
     7
 43
1.0
 76
     1
 77
     6
 78
     2
 67
     7
 79
     5
170
     0
171
     0
290
     0
174
     0
 93
        1
 44
0.0
173
     0
291
     1
 45
0.0
1001
ACAD
1000
AcDbSavedByObjectVersion
1070
     0
  0
VISUALSTYLE
  5
50A
102
{ACAD_XDICTIONARY
360
6B1
102
}
102
{ACAD_REACTORS
330
4F8
102
}
330
4F8
100
AcDbVisualStyle
  2
OverhangOff
 70
    21
 71
     2
 72
     2
 73
     0
 90
        0
 40
-0.6
 41
-30.0
 62
     5
 63
     7
 74
     1
 91
        4
 64
     7
 65
   257
 75
     1
175
     1
 42
1.0
 92
        9
 66
     7
 43
1.0
 76
     1
 77
     6
 78
     2
 67
     7
 79
     5
170
     0
171
     0
290
     0
174
     0
 93
        1
 44
0.0
173
     0
291
     1
 45
0.0
1001
ACAD
1000
AcDbSavedByObjectVersion
1070
     0
  0
VISUALSTYLE
  5
502
102
{ACAD_XDICTIONARY
360
6A1
102
}
102
{ACAD_REACTORS
330
4F8
102
}
330
4F8
100
AcDbVisualStyle
  2
Realistic
 70
     8
 71
     2
 72
     2
 73
     0
 90
        0
 40
-0.6
 41
-30.0
 62
     5
 63
     7
 74
     1
 91
        0
 64
     7
 65
   257
 75
     1
175
     1
 42
1.0
 92
        8
 66
     8
 43
1.0
 76
     1
 77
     6
 78
     2
 67
     7
 79
     5
170
     0
171
     0
290
     0
174
     0
 93
       13
 44
0.0
173
     0
291
     0
 45
0.0
1001
ACAD
1000
AcDbSavedByObjectVersion
1070
     0
  0
VISUALSTYLE
  5
505
102
{ACAD_XDICTIONARY
360
6A7
102
}
102
{ACAD_REACTORS
330
4F8
102
}
330
4F8
100
AcDbVisualStyle
  2
Thicken
 70
    13
 71
     2
 72
     2
 73
     0
 90
        0
 40
-0.6
 41
-30.0
 62
     5
 63
     7
 74
     1
 91
        4
 64
     7
 65
   257
 75
     1
175
     1
 42
1.0
 92
       12
 66
     7
 43
1.0
 76
     1
 77
     6
 78
     2
 67
     7
 79
     5
170
     0
171
     0
290
     0
174
     0
 93
        1
 44
0.0
173
     0
291
     1
 45
0.0
1001
ACAD
1000
AcDbSavedByObjectVersion
1070
     0
  0
DICTIONARYVAR
  5
67B
102
{ACAD_REACTORS
330
677
102
}
330
677
100
DictionaryVariables
280
     0
  1
1:1
  0
DICTIONARYVAR
  5
679
102
{ACAD_REACTORS
330
677
102
}
330
677
100
DictionaryVariables
280
     0
  1
STANDARD
  0
DICTIONARYVAR
  5
678
102
{ACAD_REACTORS
330
677
102
}
330
677
100
DictionaryVariables
280
     0
  1
STANDARD
  0
DICTIONARYVAR
  5
682
102
{ACAD_REACTORS
330
677
102
}
330
677
100
DictionaryVariables
280
     0
  1
2
  0
DICTIONARYVAR
  5
681
102
{ACAD_REACTORS
330
677
102
}
330
677
100
DictionaryVariables
280
     0
  1
1
  0
DICTIONARYVAR
  5
680
102
{ACAD_REACTORS
330
677
102
}
330
677
100
DictionaryVariables
280
     0
  1
0
  0
DICTIONARYVAR
  5
67D
102
{ACAD_REACTORS
330
677
102
}
330
677
100
DictionaryVariables
280
     0
  1
0
  0
DICTIONARYVAR
  5
67E
102
{ACAD_REACTORS
330
677
102
}
330
677
100
DictionaryVariables
280
     0
  1
0
  0
DICTIONARYVAR
  5
67C
102
{ACAD_REACTORS
330
677
102
}
330
677
100
DictionaryVariables
280
     0
  1
2
  0
DICTIONARYVAR
  5
67A
102
{ACAD_REACTORS
330
677
102
}
330
677
100
DictionaryVariables
280
     0
  1
1
  0
DICTIONARYVAR
  5
67F
102
{ACAD_REACTORS
330
677
102
}
330
677
100
DictionaryVariables
280
     0
  1
127
  0
DICTIONARYVAR
  5
683
102
{ACAD_REACTORS
330
677
102
}
330
677
100
DictionaryVariables
280
     0
  1
2
  0
DICTIONARY
  5
586
102
{ACAD_REACTORS
330
57C
102
}
330
57C
100
AcDbDictionary
281
     1
  0
DICTIONARY
  5
68A
330
4DC
100
AcDbDictionary
280
     1
281
     1
  3
ACAD_XREC_ROUNDTRIP
360
68B
  0
DICTIONARY
  5
688
330
4DB
100
AcDbDictionary
280
     1
281
     1
  3
ACAD_XREC_ROUNDTRIP
360
689
  0
DICTIONARY
  5
4E9
330
4E8
100
AcDbDictionary
280
     1
281
     1
  3
ACAD_XREC_ROUNDTRIP
360
68D
  3
BUMPTILE
360
4EB
  3
DIFFUSETILE
360
4EA
  3
OPACITYTILE
360
4EE
  3
REFLECTIONTILE
360
4ED
  3
REFRACTIONTILE
360
4EF
  3
SPECULARTILE
360
4EC
  0
DICTIONARY
  5
4E1
330
4E0
100
AcDbDictionary
280
     1
281
     1
  3
ACAD_XREC_ROUNDTRIP
360
68C
  3
BUMPTILE
360
4E3
  3
DIFFUSETILE
360
4E2
  3
OPACITYTILE
360
4E6
  3
REFLECTIONTILE
360
4E5
  3
REFRACTIONTILE
360
4E7
  3
SPECULARTILE
360
4E4
  0
DICTIONARY
  5
4F1
330
4F0
100
AcDbDictionary
280
     1
281
     1
  3
ACAD_XREC_ROUNDTRIP
360
68E
  3
BUMPTILE
360
4F3
  3
DIFFUSETILE
360
4F2
  3
OPACITYTILE
360
4F6
  3
REFLECTIONTILE
360
4F5
  3
REFRACTIONTILE
360
4F7
  3
SPECULARTILE
360
4F4
  0
DICTIONARY
  5
684
330
50E
100
AcDbDictionary
280
     1
281
     1
  3
ACAD_ROUNDTRIP_2008_TABLESTYLE_CELLSTYLEMAP
360
685
  3
ACAD_XREC_ROUNDTRIP
360
6B5
  0
DICTIONARY
  5
699
330
4FE
100
AcDbDictionary
280
     1
281
     1
  3
ACAD_XREC_ROUNDTRIP
360
69A
  0
DICTIONARY
  5
69D
330
500
100
AcDbDictionary
280
     1
281
     1
  3
ACAD_XREC_ROUNDTRIP
360
69E
  0
DICTIONARY
  5
69B
330
4FF
100
AcDbDictionary
280
     1
281
     1
  3
ACAD_XREC_ROUNDTRIP
360
69C
  0
DICTIONARY
  5
697
330
4FD
100
AcDbDictionary
280
     1
281
     1
  3
ACAD_XREC_ROUNDTRIP
360
698
  0
DICTIONARY
  5
6A5
330
504
100
AcDbDictionary
280
     1
281
     1
  3
ACAD_XREC_ROUNDTRIP
360
6A6
  0
DICTIONARY
  5
6AD
330
508
100
AcDbDictionary
280
     1
281
     1
  3
ACAD_XREC_ROUNDTRIP
360
6AE
  0
DICTIONARY
  5
69F
330
501
100
AcDbDictionary
280
     1
281
     1
  3
ACAD_XREC_ROUNDTRIP
360
6A0
  0
DICTIONARY
  5
6A3
330
503
100
AcDbDictionary
280
     1
281
     1
  3
ACAD_XREC_ROUNDTRIP
360
6A4
  0
DICTIONARY
  5
6B3
330
50B
100
AcDbDictionary
280
     1
281
     1
  3
ACAD_XREC_ROUNDTRIP
360
6B4
  0
DICTIONARY
  5
6AB
330
507
100
AcDbDictionary
280
     1
281
     1
  3
ACAD_XREC_ROUNDTRIP
360
6AC
  0
DICTIONARY
  5
68F
330
4F9
100
AcDbDictionary
280
     1
281
     1
  3
ACAD_XREC_ROUNDTRIP
360
690
  0
DICTIONARY
  5
691
330
4FA
100
AcDbDictionary
280
     1
281
     1
  3
ACAD_XREC_ROUNDTRIP
360
692
  0
DICTIONARY
  5
693
330
4FB
100
AcDbDictionary
280
     1
281
     1
  3
ACAD_XREC_ROUNDTRIP
360
694
  0
DICTIONARY
  5
695
330
4FC
100
AcDbDictionary
280
     1
281
     1
  3
ACAD_XREC_ROUNDTRIP
360
696
  0
DICTIONARY
  5
6AF
330
509
100
AcDbDictionary
280
     1
281
     1
  3
ACAD_XREC_ROUNDTRIP
360
6B0
  0
DICTIONARY
  5
6A9
330
506
100
AcDbDictionary
280
     1
281
     1
  3
ACAD_XREC_ROUNDTRIP
360
6AA
  0
DICTIONARY
  5
6B1
330
50A
100
AcDbDictionary
280
     1
281
     1
  3
ACAD_XREC_ROUNDTRIP
360
6B2
  0
DICTIONARY
  5
6A1
330
502
100
AcDbDictionary
280
     1
281
     1
  3
ACAD_XREC_ROUNDTRIP
360
6A2
  0
DICTIONARY
  5
6A7
330
505
100
AcDbDictionary
280
     1
281
     1
  3
ACAD_XREC_ROUNDTRIP
360
6A8
  0
XRECORD
  5
68B
102
{ACAD_REACTORS
330
68A
102
}
330
68A
100
AcDbXrecord
280
     1
102
SHADEPLOT
 70
     0
102
SHADEPLOTRESLEVEL
 70
     2
102
SHADEPLOTCUSTOMDPI
 70
   300
  0
XRECORD
  5
689
102
{ACAD_REACTORS
330
688
102
}
330
688
100
AcDbXrecord
280
     1
102
SHADEPLOT
 70
     0
102
SHADEPLOTRESLEVEL
 70
     2
102
SHADEPLOTCUSTOMDPI
 70
   300
  0
XRECORD
  5
68D
102
{ACAD_REACTORS
330
4E9
102
}
330
4E9
100
AcDbXrecord
280
     1
102
MATERIAL
148
0.0
149
0.0
149
0.0
 93
        0
 94
      127
282
     0
 72
     0
 77
     0
171
     0
175
     0
179
     0
273
     0
  0
XRECORD
  5
4EB
102
{ACAD_REACTORS
330
4E9
102
}
330
4E9
100
AcDbXrecord
280
     1
270
     1
271
     1
  0
XRECORD
  5
4EA
102
{ACAD_REACTORS
330
4E9
102
}
330
4E9
100
AcDbXrecord
280
     1
270
     1
271
     1
  0
XRECORD
  5
4EE
102
{ACAD_REACTORS
330
4E9
102
}
330
4E9
100
AcDbXrecord
280
     1
270
     1
271
     1
  0
XRECORD
  5
4ED
102
{ACAD_REACTORS
330
4E9
102
}
330
4E9
100
AcDbXrecord
280
     1
270
     1
271
     1
  0
XRECORD
  5
4EF
102
{ACAD_REACTORS
330
4E9
102
}
330
4E9
100
AcDbXrecord
280
     1
270
     1
271
     1
  0
XRECORD
  5
4EC
102
{ACAD_REACTORS
330
4E9
102
}
330
4E9
100
AcDbXrecord
280
     1
270
     1
271
     1
  0
XRECORD
  5
68C
102
{ACAD_REACTORS
330
4E1
102
}
330
4E1
100
AcDbXrecord
280
     1
102
MATERIAL
148
0.0
149
0.0
149
0.0
 93
        0
 94
      127
282
     0
 72
     0
 77
     0
171
     0
175
     0
179
     0
273
     0
  0
XRECORD
  5
4E3
102
{ACAD_REACTORS
330
4E1
102
}
330
4E1
100
AcDbXrecord
280
     1
270
     1
271
     1
  0
XRECORD
  5
4E2
102
{ACAD_REACTORS
330
4E1
102
}
330
4E1
100
AcDbXrecord
280
     1
270
     1
271
     1
  0
XRECORD
  5
4E6
102
{ACAD_REACTORS
330
4E1
102
}
330
4E1
100
AcDbXrecord
280
     1
270
     1
271
     1
  0
XRECORD
  5
4E5
102
{ACAD_REACTORS
330
4E1
102
}
330
4E1
100
AcDbXrecord
280
     1
270
     1
271
     1
  0
XRECORD
  5
4E7
102
{ACAD_REACTORS
330
4E1
102
}
330
4E1
100
AcDbXrecord
280
     1
270
     1
271
     1
  0
XRECORD
  5
4E4
102
{ACAD_REACTORS
330
4E1
102
}
330
4E1
100
AcDbXrecord
280
     1
270
     1
271
     1
  0
XRECORD
  5
68E
102
{ACAD_REACTORS
330
4F1
102
}
330
4F1
100
AcDbXrecord
280
     1
102
MATERIAL
148
0.0
149
0.0
149
0.0
 93
        0
 94
      127
282
     0
 72
     0
 77
     0
171
     0
175
     0
179
     0
273
     0
  0
XRECORD
  5
4F3
102
{ACAD_REACTORS
330
4F1
102
}
330
4F1
100
AcDbXrecord
280
     1
270
     1
271
     1
  0
XRECORD
  5
4F2
102
{ACAD_REACTORS
330
4F1
102
}
330
4F1
100
AcDbXrecord
280
     1
270
     1
271
     1
  0
XRECORD
  5
4F6
102
{ACAD_REACTORS
330
4F1
102
}
330
4F1
100
AcDbXrecord
280
     1
270
     1
271
     1
  0
XRECORD
  5
4F5
102
{ACAD_REACTORS
330
4F1
102
}
330
4F1
100
AcDbXrecord
280
     1
270
     1
271
     1
  0
XRECORD
  5
4F7
102
{ACAD_REACTORS
330
4F1
102
}
330
4F1
100
AcDbXrecord
280
     1
270
     1
271
     1
  0
XRECORD
  5
4F4
102
{ACAD_REACTORS
330
4F1
102
}
330
4F1
100
AcDbXrecord
280
     1
270
     1
271
     1
  0
CELLSTYLEMAP
  5
685
102
{ACAD_REACTORS
330
684
102
}
330
684
100
AcDbCellStyleMap
 90
        3
300
CELLSTYLE
  1
TABLEFORMAT_BEGIN
 90
        5
170
     1
 91
        0
 92
    32768
 62
   257
 93
        1
300
CONTENTFORMAT
  1
CONTENTFORMAT_BEGIN
 90
        0
 91
        0
 92
      512
 93
        0
300

 40
0.0
140
1.0
 94
        5
 62
     0
340
11
144
6.0
309
CONTENTFORMAT_END
171
     1
301
MARGIN
  1
CELLMARGIN_BEGIN
 40
1.5
 40
1.5
 40
1.5
 40
1.5
 40
4.5
 40
4.5
309
CELLMARGIN_END
 94
        6
 95
        1
302
GRIDFORMAT
  1
GRIDFORMAT_BEGIN
 90
        0
 91
        1
 62
     0
 92
       -2
340
0
 93
        0
 40
1.125
309
GRIDFORMAT_END
 95
        2
302
GRIDFORMAT
  1
GRIDFORMAT_BEGIN
 90
        0
 91
        1
 62
     0
 92
       -2
340
0
 93
        0
 40
1.125
309
GRIDFORMAT_END
 95
        4
302
GRIDFORMAT
  1
GRIDFORMAT_BEGIN
 90
        0
 91
        1
 62
     0
 92
       -2
340
0
 93
        0
 40
1.125
309
GRIDFORMAT_END
 95
        8
302
GRIDFORMAT
  1
GRIDFORMAT_BEGIN
 90
        0
 91
        1
 62
     0
 92
       -2
340
0
 93
        0
 40
1.125
309
GRIDFORMAT_END
 95
       16
302
GRIDFORMAT
  1
GRIDFORMAT_BEGIN
 90
        0
 91
        1
 62
     0
 92
       -2
340
0
 93
        0
 40
1.125
309
GRIDFORMAT_END
 95
       32
302
GRIDFORMAT
  1
GRIDFORMAT_BEGIN
 90
        0
 91
        1
 62
     0
 92
       -2
340
0
 93
        0
 40
1.125
309
GRIDFORMAT_END
309
TABLEFORMAT_END
  1
CELLSTYLE_BEGIN
 90
        1
 91
        1
300
_TITLE
309
CELLSTYLE_END
300
CELLSTYLE
  1
TABLEFORMAT_BEGIN
 90
        5
170
     1
 91
        0
 92
        0
 62
   257
 93
        1
300
CONTENTFORMAT
  1
CONTENTFORMAT_BEGIN
 90
        0
 91
        0
 92
      512
 93
        0
300

 40
0.0
140
1.0
 94
        5
 62
     0
340
11
144
4.5
309
CONTENTFORMAT_END
171
     1
301
MARGIN
  1
CELLMARGIN_BEGIN
 40
1.5
 40
1.5
 40
1.5
 40
1.5
 40
4.5
 40
4.5
309
CELLMARGIN_END
 94
        6
 95
        1
302
GRIDFORMAT
  1
GRIDFORMAT_BEGIN
 90
        0
 91
        1
 62
     0
 92
       -2
340
0
 93
        0
 40
1.125
309
GRIDFORMAT_END
 95
        2
302
GRIDFORMAT
  1
GRIDFORMAT_BEGIN
 90
        0
 91
        1
 62
     0
 92
       -2
340
0
 93
        0
 40
1.125
309
GRIDFORMAT_END
 95
        4
302
GRIDFORMAT
  1
GRIDFORMAT_BEGIN
 90
        0
 91
        1
 62
     0
 92
       -2
340
0
 93
        0
 40
1.125
309
GRIDFORMAT_END
 95
        8
302
GRIDFORMAT
  1
GRIDFORMAT_BEGIN
 90
        0
 91
        1
 62
     0
 92
       -2
340
0
 93
        0
 40
1.125
309
GRIDFORMAT_END
 95
       16
302
GRIDFORMAT
  1
GRIDFORMAT_BEGIN
 90
        0
 91
        1
 62
     0
 92
       -2
340
0
 93
        0
 40
1.125
309
GRIDFORMAT_END
 95
       32
302
GRIDFORMAT
  1
GRIDFORMAT_BEGIN
 90
        0
 91
        1
 62
     0
 92
       -2
340
0
 93
        0
 40
1.125
309
GRIDFORMAT_END
309
TABLEFORMAT_END
  1
CELLSTYLE_BEGIN
 90
        2
 91
        1
300
_HEADER
309
CELLSTYLE_END
300
CELLSTYLE
  1
TABLEFORMAT_BEGIN
 90
        5
170
     1
 91
        0
 92
        0
 62
   257
 93
        1
300
CONTENTFORMAT
  1
CONTENTFORMAT_BEGIN
 90
        0
 91
        0
 92
      512
 93
        0
300

 40
0.0
140
1.0
 94
        2
 62
     0
340
11
144
4.5
309
CONTENTFORMAT_END
171
     1
301
MARGIN
  1
CELLMARGIN_BEGIN
 40
1.5
 40
1.5
 40
1.5
 40
1.5
 40
4.5
 40
4.5
309
CELLMARGIN_END
 94
        6
 95
        1
302
GRIDFORMAT
  1
GRIDFORMAT_BEGIN
 90
        0
 91
        1
 62
     0
 92
       -2
340
0
 93
        0
 40
1.125
309
GRIDFORMAT_END
 95
        2
302
GRIDFORMAT
  1
GRIDFORMAT_BEGIN
 90
        0
 91
        1
 62
     0
 92
       -2
340
0
 93
        0
 40
1.125
309
GRIDFORMAT_END
 95
        4
302
GRIDFORMAT
  1
GRIDFORMAT_BEGIN
 90
        0
 91
        1
 62
     0
 92
       -2
340
0
 93
        0
 40
1.125
309
GRIDFORMAT_END
 95
        8
302
GRIDFORMAT
  1
GRIDFORMAT_BEGIN
 90
        0
 91
        1
 62
     0
 92
       -2
340
0
 93
        0
 40
1.125
309
GRIDFORMAT_END
 95
       16
302
GRIDFORMAT
  1
GRIDFORMAT_BEGIN
 90
        0
 91
        1
 62
     0
 92
       -2
340
0
 93
        0
 40
1.125
309
GRIDFORMAT_END
 95
       32
302
GRIDFORMAT
  1
GRIDFORMAT_BEGIN
 90
        0
 91
        1
 62
     0
 92
       -2
340
0
 93
        0
 40
1.125
309
GRIDFORMAT_END
309
TABLEFORMAT_END
  1
CELLSTYLE_BEGIN
 90
        3
 91
        2
300
_DATA
309
CELLSTYLE_END
  0
XRECORD
  5
6B5
102
{ACAD_REACTORS
330
684
102
}
330
684
100
AcDbXrecord
280
     1
102
ACAD_ROUNDTRIP_PRE2007_TABLESTYLE
 90
      512
 91
        0
  1

 92
      512
 93
        0
  2

 94
      512
 95
        0
  3

  0
XRECORD
  5
69A
102
{ACAD_REACTORS
330
699
102
}
330
699
100
AcDbXrecord
280
     1
102
RTVSPropertyOp0
 70
     1
102
RTVSPropertyOp1
 70
     1
102
RTVSPropertyOp2
 70
     1
102
RTVSPropertyOp3
 70
     1
102
RTVSPropertyOp4
 70
     1
102
RTVSPropertyOp5
 70
     1
102
RTVSPropertyOp6
 70
     1
102
RTVSPropertyOp7
 70
     1
102
RTVSPropertyOp8
 70
     1
102
RTVSPropertyOp9
 70
     1
102
RTVSPropertyOp10
 70
     1
102
RTVSPropertyOp11
 70
     1
102
RTVSPropertyOp12
 70
     1
102
RTVSPropertyOp13
 70
     1
102
RTVSPropertyOp14
 70
     1
102
RTVSPropertyOp15
 70
     1
102
RTVSPropertyOp16
 70
     1
102
RTVSPropertyOp17
 70
     1
102
RTVSPropertyOp18
 70
     1
102
RTVSPropertyOp19
 70
     1
102
RTVSPropertyOp20
 70
     1
102
RTVSPropertyOp21
 70
     1
102
RTVSPropertyOp22
 70
     1
102
RTVSPropertyOp23
 70
     1
102
RTVSPropertyOp24
 70
     1
102
RTVSPropertyOp25
 70
     1
102
RTVSPropertyOp26
 70
     1
102
RTVSPropertyOp27
 70
     1
  0
XRECORD
  5
69E
102
{ACAD_REACTORS
330
69D
102
}
330
69D
100
AcDbXrecord
280
     1
102
RTVSPropertyOp0
 70
     1
102
RTVSPropertyOp1
 70
     1
102
RTVSPropertyOp2
 70
     1
102
RTVSPropertyOp3
 70
     1
102
RTVSPropertyOp4
 70
     1
102
RTVSPropertyOp5
 70
     1
102
RTVSPropertyOp6
 70
     1
102
RTVSPropertyOp7
 70
     1
102
RTVSPropertyOp8
 70
     1
102
RTVSPropertyOp9
 70
     1
102
RTVSPropertyOp10
 70
     1
102
RTVSPropertyOp11
 70
     1
102
RTVSPropertyOp12
 70
     1
102
RTVSPropertyOp13
 70
     1
102
RTVSPropertyOp14
 70
     1
102
RTVSPropertyOp15
 70
     1
102
RTVSPropertyOp16
 70
     1
102
RTVSPropertyOp17
 70
     1
102
RTVSPropertyOp18
 70
     1
102
RTVSPropertyOp19
 70
     1
102
RTVSPropertyOp20
 70
     1
102
RTVSPropertyOp21
 70
     1
102
RTVSPropertyOp22
 70
     1
102
RTVSPropertyOp23
 70
     1
102
RTVSPropertyOp24
 70
     1
102
RTVSPropertyOp25
 70
     1
102
RTVSPropertyOp26
 70
     1
102
RTVSPropertyOp27
 70
     1
  0
XRECORD
  5
69C
102
{ACAD_REACTORS
330
69B
102
}
330
69B
100
AcDbXrecord
280
     1
102
RTVSPropertyOp0
 70
     1
102
RTVSPropertyOp1
 70
     1
102
RTVSPropertyOp2
 70
     1
102
RTVSPropertyOp3
 70
     1
102
RTVSPropertyOp4
 70
     1
102
RTVSPropertyOp5
 70
     1
102
RTVSPropertyOp6
 70
     1
102
RTVSPropertyOp7
 70
     1
102
RTVSPropertyOp8
 70
     1
102
RTVSPropertyOp9
 70
     1
102
RTVSPropertyOp10
 70
     1
102
RTVSPropertyOp11
 70
     1
102
RTVSPropertyOp12
 70
     1
102
RTVSPropertyOp13
 70
     1
102
RTVSPropertyOp14
 70
     1
102
RTVSPropertyOp15
 70
     1
102
RTVSPropertyOp16
 70
     1
102
RTVSPropertyOp17
 70
     1
102
RTVSPropertyOp18
 70
     1
102
RTVSPropertyOp19
 70
     1
102
RTVSPropertyOp20
 70
     1
102
RTVSPropertyOp21
 70
     1
102
RTVSPropertyOp22
 70
     1
102
RTVSPropertyOp23
 70
     1
102
RTVSPropertyOp24
 70
     1
102
RTVSPropertyOp25
 70
     1
102
RTVSPropertyOp26
 70
     1
102
RTVSPropertyOp27
 70
     1
  0
XRECORD
  5
698
102
{ACAD_REACTORS
330
697
102
}
330
697
100
AcDbXrecord
280
     1
102
RTVSPropertyOp0
 70
     1
102
RTVSPropertyOp1
 70
     1
102
RTVSPropertyOp2
 70
     1
102
RTVSPropertyOp3
 70
     1
102
RTVSPropertyOp4
 70
     1
102
RTVSPropertyOp5
 70
     1
102
RTVSPropertyOp6
 70
     1
102
RTVSPropertyOp7
 70
     1
102
RTVSPropertyOp8
 70
     1
102
RTVSPropertyOp9
 70
     1
102
RTVSPropertyOp10
 70
     1
102
RTVSPropertyOp11
 70
     1
102
RTVSPropertyOp12
 70
     1
102
RTVSPropertyOp13
 70
     1
102
RTVSPropertyOp14
 70
     1
102
RTVSPropertyOp15
 70
     1
102
RTVSPropertyOp16
 70
     1
102
RTVSPropertyOp17
 70
     1
102
RTVSPropertyOp18
 70
     1
102
RTVSPropertyOp19
 70
     1
102
RTVSPropertyOp20
 70
     1
102
RTVSPropertyOp21
 70
     1
102
RTVSPropertyOp22
 70
     1
102
RTVSPropertyOp23
 70
     1
102
RTVSPropertyOp24
 70
     1
102
RTVSPropertyOp25
 70
     1
102
RTVSPropertyOp26
 70
     1
102
RTVSPropertyOp27
 70
     1
  0
XRECORD
  5
6A6
102
{ACAD_REACTORS
330
6A5
102
}
330
6A5
100
AcDbXrecord
280
     1
102
RTVSPropertyOp0
 70
     1
102
RTVSPropertyOp1
 70
     1
102
RTVSPropertyOp2
 70
     1
102
RTVSPropertyOp3
 70
     1
102
RTVSPropertyOp4
 70
     1
102
RTVSPropertyOp5
 70
     1
102
RTVSPropertyOp6
 70
     1
102
RTVSPropertyOp7
 70
     1
102
RTVSPropertyOp8
 70
     1
102
RTVSPropertyOp9
 70
     1
102
RTVSPropertyOp10
 70
     1
102
RTVSPropertyOp11
 70
     1
102
RTVSPropertyOp12
 70
     1
102
RTVSPropertyOp13
 70
     1
102
RTVSPropertyOp14
 70
     1
102
RTVSPropertyOp15
 70
     1
102
RTVSPropertyOp16
 70
     1
102
RTVSPropertyOp17
 70
     1
102
RTVSPropertyOp18
 70
     1
102
RTVSPropertyOp19
 70
     1
102
RTVSPropertyOp20
 70
     1
102
RTVSPropertyOp21
 70
     1
102
RTVSPropertyOp22
 70
     1
102
RTVSPropertyOp23
 70
     1
102
RTVSPropertyOp24
 70
     1
102
RTVSPropertyOp25
 70
     1
102
RTVSPropertyOp26
 70
     1
102
RTVSPropertyOp27
 70
     1
  0
XRECORD
  5
6AE
102
{ACAD_REACTORS
330
6AD
102
}
330
6AD
100
AcDbXrecord
280
     1
102
RTVSPropertyOp0
 70
     1
102
RTVSPropertyOp1
 70
     1
102
RTVSPropertyOp2
 70
     1
102
RTVSPropertyOp3
 70
     1
102
RTVSPropertyOp4
 70
     1
102
RTVSPropertyOp5
 70
     1
102
RTVSPropertyOp6
 70
     1
102
RTVSPropertyOp7
 70
     1
102
RTVSPropertyOp8
 70
     1
102
RTVSPropertyOp9
 70
     1
102
RTVSPropertyOp10
 70
     1
102
RTVSPropertyOp11
 70
     1
102
RTVSPropertyOp12
 70
     1
102
RTVSPropertyOp13
 70
     1
102
RTVSPropertyOp14
 70
     1
102
RTVSPropertyOp15
 70
     1
102
RTVSPropertyOp16
 70
     1
102
RTVSPropertyOp17
 70
     1
102
RTVSPropertyOp18
 70
     1
102
RTVSPropertyOp19
 70
     1
102
RTVSPropertyOp20
 70
     1
102
RTVSPropertyOp21
 70
     1
102
RTVSPropertyOp22
 70
     1
102
RTVSPropertyOp23
 70
     1
102
RTVSPropertyOp24
 70
     1
102
RTVSPropertyOp25
 70
     1
102
RTVSPropertyOp26
 70
     1
102
RTVSPropertyOp27
 70
     1
  0
XRECORD
  5
6A0
102
{ACAD_REACTORS
330
69F
102
}
330
69F
100
AcDbXrecord
280
     1
102
RTVSPropertyOp0
 70
     1
102
RTVSPropertyOp1
 70
     1
102
RTVSPropertyOp2
 70
     1
102
RTVSPropertyOp3
 70
     1
102
RTVSPropertyOp4
 70
     1
102
RTVSPropertyOp5
 70
     1
102
RTVSPropertyOp6
 70
     1
102
RTVSPropertyOp7
 70
     1
102
RTVSPropertyOp8
 70
     1
102
RTVSPropertyOp9
 70
     1
102
RTVSPropertyOp10
 70
     1
102
RTVSPropertyOp11
 70
     1
102
RTVSPropertyOp12
 70
     1
102
RTVSPropertyOp13
 70
     1
102
RTVSPropertyOp14
 70
     1
102
RTVSPropertyOp15
 70
     1
102
RTVSPropertyOp16
 70
     1
102
RTVSPropertyOp17
 70
     1
102
RTVSPropertyOp18
 70
     1
102
RTVSPropertyOp19
 70
     1
102
RTVSPropertyOp20
 70
     1
102
RTVSPropertyOp21
 70
     1
102
RTVSPropertyOp22
 70
     1
102
RTVSPropertyOp23
 70
     1
102
RTVSPropertyOp24
 70
     1
102
RTVSPropertyOp25
 70
     1
102
RTVSPropertyOp26
 70
     1
102
RTVSPropertyOp27
 70
     1
  0
XRECORD
  5
6A4
102
{ACAD_REACTORS
330
6A3
102
}
330
6A3
100
AcDbXrecord
280
     1
102
RTVSPropertyOp0
 70
     1
102
RTVSPropertyOp1
 70
     1
102
RTVSPropertyOp2
 70
     1
102
RTVSPropertyOp3
 70
     1
102
RTVSPropertyOp4
 70
     1
102
RTVSPropertyOp5
 70
     1
102
RTVSPropertyOp6
 70
     1
102
RTVSPropertyOp7
 70
     1
102
RTVSPropertyOp8
 70
     1
102
RTVSPropertyOp9
 70
     1
102
RTVSPropertyOp10
 70
     1
102
RTVSPropertyOp11
 70
     1
102
RTVSPropertyOp12
 70
     1
102
RTVSPropertyOp13
 70
     1
102
RTVSPropertyOp14
 70
     1
102
RTVSPropertyOp15
 70
     1
102
RTVSPropertyOp16
 70
     1
102
RTVSPropertyOp17
 70
     1
102
RTVSPropertyOp18
 70
     1
102
RTVSPropertyOp19
 70
     1
102
RTVSPropertyOp20
 70
     1
102
RTVSPropertyOp21
 70
     1
102
RTVSPropertyOp22
 70
     1
102
RTVSPropertyOp23
 70
     1
102
RTVSPropertyOp24
 70
     1
102
RTVSPropertyOp25
 70
     1
102
RTVSPropertyOp26
 70
     1
102
RTVSPropertyOp27
 70
     1
  0
XRECORD
  5
6B4
102
{ACAD_REACTORS
330
6B3
102
}
330
6B3
100
AcDbXrecord
280
     1
102
RTVSPropertyOp0
 70
     0
102
RTVSPropertyOp1
 70
     0
102
RTVSPropertyOp2
 70
     0
102
RTVSPropertyOp3
 70
     0
102
RTVSPropertyOp4
 70
     0
102
RTVSPropertyOp5
 70
     0
102
RTVSPropertyOp6
 70
     0
102
RTVSPropertyOp7
 70
     0
102
RTVSPropertyOp8
 70
     0
102
RTVSPropertyOp9
 70
     0
102
RTVSPropertyOp10
 70
     0
102
RTVSPropertyOp11
 70
     0
102
RTVSPropertyOp12
 70
     0
102
RTVSPropertyOp13
 70
     0
102
RTVSPropertyOp14
 70
     2
102
RTVSPropertyOp15
 70
     0
102
RTVSPropertyOp16
 70
     0
102
RTVSPropertyOp17
 70
     0
102
RTVSPropertyOp18
 70
     0
102
RTVSPropertyOp19
 70
     0
102
RTVSPropertyOp20
 70
     0
102
RTVSPropertyOp21
 70
     0
102
RTVSPropertyOp22
 70
     0
102
RTVSPropertyOp23
 70
     0
102
RTVSPropertyOp24
 70
     0
102
RTVSPropertyOp25
 70
     0
102
RTVSPropertyOp26
 70
     0
102
RTVSPropertyOp27
 70
     0
  0
XRECORD
  5
6AC
102
{ACAD_REACTORS
330
6AB
102
}
330
6AB
100
AcDbXrecord
280
     1
102
RTVSPropertyOp0
 70
     1
102
RTVSPropertyOp1
 70
     1
102
RTVSPropertyOp2
 70
     1
102
RTVSPropertyOp3
 70
     1
102
RTVSPropertyOp4
 70
     1
102
RTVSPropertyOp5
 70
     1
102
RTVSPropertyOp6
 70
     1
102
RTVSPropertyOp7
 70
     1
102
RTVSPropertyOp8
 70
     1
102
RTVSPropertyOp9
 70
     1
102
RTVSPropertyOp10
 70
     1
102
RTVSPropertyOp11
 70
     1
102
RTVSPropertyOp12
 70
     1
102
RTVSPropertyOp13
 70
     1
102
RTVSPropertyOp14
 70
     1
102
RTVSPropertyOp15
 70
     1
102
RTVSPropertyOp16
 70
     1
102
RTVSPropertyOp17
 70
     1
102
RTVSPropertyOp18
 70
     1
102
RTVSPropertyOp19
 70
     1
102
RTVSPropertyOp20
 70
     1
102
RTVSPropertyOp21
 70
     1
102
RTVSPropertyOp22
 70
     1
102
RTVSPropertyOp23
 70
     1
102
RTVSPropertyOp24
 70
     1
102
RTVSPropertyOp25
 70
     1
102
RTVSPropertyOp26
 70
     1
102
RTVSPropertyOp27
 70
     1
  0
XRECORD
  5
690
102
{ACAD_REACTORS
330
68F
102
}
330
68F
100
AcDbXrecord
280
     1
102
RTVSPropertyOp0
 70
     1
102
RTVSPropertyOp1
 70
     1
102
RTVSPropertyOp2
 70
     1
102
RTVSPropertyOp3
 70
     1
102
RTVSPropertyOp4
 70
     1
102
RTVSPropertyOp5
 70
     1
102
RTVSPropertyOp6
 70
     1
102
RTVSPropertyOp7
 70
     1
102
RTVSPropertyOp8
 70
     1
102
RTVSPropertyOp9
 70
     1
102
RTVSPropertyOp10
 70
     1
102
RTVSPropertyOp11
 70
     1
102
RTVSPropertyOp12
 70
     1
102
RTVSPropertyOp13
 70
     1
102
RTVSPropertyOp14
 70
     1
102
RTVSPropertyOp15
 70
     1
102
RTVSPropertyOp16
 70
     1
102
RTVSPropertyOp17
 70
     1
102
RTVSPropertyOp18
 70
     1
102
RTVSPropertyOp19
 70
     1
102
RTVSPropertyOp20
 70
     1
102
RTVSPropertyOp21
 70
     1
102
RTVSPropertyOp22
 70
     1
102
RTVSPropertyOp23
 70
     1
102
RTVSPropertyOp24
 70
     1
102
RTVSPropertyOp25
 70
     1
102
RTVSPropertyOp26
 70
     1
102
RTVSPropertyOp27
 70
     1
  0
XRECORD
  5
692
102
{ACAD_REACTORS
330
691
102
}
330
691
100
AcDbXrecord
280
     1
102
RTVSPropertyOp0
 70
     1
102
RTVSPropertyOp1
 70
     1
102
RTVSPropertyOp2
 70
     1
102
RTVSPropertyOp3
 70
     1
102
RTVSPropertyOp4
 70
     1
102
RTVSPropertyOp5
 70
     1
102
RTVSPropertyOp6
 70
     1
102
RTVSPropertyOp7
 70
     1
102
RTVSPropertyOp8
 70
     1
102
RTVSPropertyOp9
 70
     1
102
RTVSPropertyOp10
 70
     1
102
RTVSPropertyOp11
 70
     1
102
RTVSPropertyOp12
 70
     1
102
RTVSPropertyOp13
 70
     1
102
RTVSPropertyOp14
 70
     1
102
RTVSPropertyOp15
 70
     1
102
RTVSPropertyOp16
 70
     1
102
RTVSPropertyOp17
 70
     1
102
RTVSPropertyOp18
 70
     1
102
RTVSPropertyOp19
 70
     1
102
RTVSPropertyOp20
 70
     1
102
RTVSPropertyOp21
 70
     1
102
RTVSPropertyOp22
 70
     1
102
RTVSPropertyOp23
 70
     1
102
RTVSPropertyOp24
 70
     1
102
RTVSPropertyOp25
 70
     1
102
RTVSPropertyOp26
 70
     1
102
RTVSPropertyOp27
 70
     1
  0
XRECORD
  5
694
102
{ACAD_REACTORS
330
693
102
}
330
693
100
AcDbXrecord
280
     1
102
RTVSPropertyOp0
 70
     1
102
RTVSPropertyOp1
 70
     1
102
RTVSPropertyOp2
 70
     1
102
RTVSPropertyOp3
 70
     1
102
RTVSPropertyOp4
 70
     1
102
RTVSPropertyOp5
 70
     1
102
RTVSPropertyOp6
 70
     1
102
RTVSPropertyOp7
 70
     1
102
RTVSPropertyOp8
 70
     1
102
RTVSPropertyOp9
 70
     1
102
RTVSPropertyOp10
 70
     1
102
RTVSPropertyOp11
 70
     1
102
RTVSPropertyOp12
 70
     1
102
RTVSPropertyOp13
 70
     1
102
RTVSPropertyOp14
 70
     1
102
RTVSPropertyOp15
 70
     1
102
RTVSPropertyOp16
 70
     1
102
RTVSPropertyOp17
 70
     1
102
RTVSPropertyOp18
 70
     1
102
RTVSPropertyOp19
 70
     1
102
RTVSPropertyOp20
 70
     1
102
RTVSPropertyOp21
 70
     1
102
RTVSPropertyOp22
 70
     1
102
RTVSPropertyOp23
 70
     1
102
RTVSPropertyOp24
 70
     1
102
RTVSPropertyOp25
 70
     1
102
RTVSPropertyOp26
 70
     1
102
RTVSPropertyOp27
 70
     1
  0
XRECORD
  5
696
102
{ACAD_REACTORS
330
695
102
}
330
695
100
AcDbXrecord
280
     1
102
RTVSPropertyOp0
 70
     1
102
RTVSPropertyOp1
 70
     1
102
RTVSPropertyOp2
 70
     1
102
RTVSPropertyOp3
 70
     1
102
RTVSPropertyOp4
 70
     1
102
RTVSPropertyOp5
 70
     1
102
RTVSPropertyOp6
 70
     1
102
RTVSPropertyOp7
 70
     1
102
RTVSPropertyOp8
 70
     1
102
RTVSPropertyOp9
 70
     1
102
RTVSPropertyOp10
 70
     1
102
RTVSPropertyOp11
 70
     1
102
RTVSPropertyOp12
 70
     1
102
RTVSPropertyOp13
 70
     1
102
RTVSPropertyOp14
 70
     1
102
RTVSPropertyOp15
 70
     1
102
RTVSPropertyOp16
 70
     1
102
RTVSPropertyOp17
 70
     1
102
RTVSPropertyOp18
 70
     1
102
RTVSPropertyOp19
 70
     1
102
RTVSPropertyOp20
 70
     1
102
RTVSPropertyOp21
 70
     1
102
RTVSPropertyOp22
 70
     1
102
RTVSPropertyOp23
 70
     1
102
RTVSPropertyOp24
 70
     1
102
RTVSPropertyOp25
 70
     1
102
RTVSPropertyOp26
 70
     1
102
RTVSPropertyOp27
 70
     1
  0
XRECORD
  5
6B0
102
{ACAD_REACTORS
330
6AF
102
}
330
6AF
100
AcDbXrecord
280
     1
102
RTVSPropertyOp0
 70
     0
102
RTVSPropertyOp1
 70
     0
102
RTVSPropertyOp2
 70
     0
102
RTVSPropertyOp3
 70
     0
102
RTVSPropertyOp4
 70
     0
102
RTVSPropertyOp5
 70
     0
102
RTVSPropertyOp6
 70
     0
102
RTVSPropertyOp7
 70
     0
102
RTVSPropertyOp8
 70
     0
102
RTVSPropertyOp9
 70
     0
102
RTVSPropertyOp10
 70
     0
102
RTVSPropertyOp11
 70
     0
102
RTVSPropertyOp12
 70
     0
102
RTVSPropertyOp13
 70
     0
102
RTVSPropertyOp14
 70
     2
102
RTVSPropertyOp15
 70
     0
102
RTVSPropertyOp16
 70
     0
102
RTVSPropertyOp17
 70
     0
102
RTVSPropertyOp18
 70
     0
102
RTVSPropertyOp19
 70
     0
102
RTVSPropertyOp20
 70
     0
102
RTVSPropertyOp21
 70
     0
102
RTVSPropertyOp22
 70
     0
102
RTVSPropertyOp23
 70
     0
102
RTVSPropertyOp24
 70
     0
102
RTVSPropertyOp25
 70
     0
102
RTVSPropertyOp26
 70
     0
102
RTVSPropertyOp27
 70
     0
  0
XRECORD
  5
6AA
102
{ACAD_REACTORS
330
6A9
102
}
330
6A9
100
AcDbXrecord
280
     1
102
RTVSPropertyOp0
 70
     1
102
RTVSPropertyOp1
 70
     1
102
RTVSPropertyOp2
 70
     1
102
RTVSPropertyOp3
 70
     1
102
RTVSPropertyOp4
 70
     1
102
RTVSPropertyOp5
 70
     1
102
RTVSPropertyOp6
 70
     1
102
RTVSPropertyOp7
 70
     1
102
RTVSPropertyOp8
 70
     1
102
RTVSPropertyOp9
 70
     1
102
RTVSPropertyOp10
 70
     1
102
RTVSPropertyOp11
 70
     1
102
RTVSPropertyOp12
 70
     1
102
RTVSPropertyOp13
 70
     1
102
RTVSPropertyOp14
 70
     1
102
RTVSPropertyOp15
 70
     1
102
RTVSPropertyOp16
 70
     1
102
RTVSPropertyOp17
 70
     1
102
RTVSPropertyOp18
 70
     1
102
RTVSPropertyOp19
 70
     1
102
RTVSPropertyOp20
 70
     1
102
RTVSPropertyOp21
 70
     1
102
RTVSPropertyOp22
 70
     1
102
RTVSPropertyOp23
 70
     1
102
RTVSPropertyOp24
 70
     1
102
RTVSPropertyOp25
 70
     1
102
RTVSPropertyOp26
 70
     1
102
RTVSPropertyOp27
 70
     1
  0
XRECORD
  5
6B2
102
{ACAD_REACTORS
330
6B1
102
}
330
6B1
100
AcDbXrecord
280
     1
102
RTVSPropertyOp0
 70
     0
102
RTVSPropertyOp1
 70
     0
102
RTVSPropertyOp2
 70
     0
102
RTVSPropertyOp3
 70
     0
102
RTVSPropertyOp4
 70
     0
102
RTVSPropertyOp5
 70
     0
102
RTVSPropertyOp6
 70
     0
102
RTVSPropertyOp7
 70
     0
102
RTVSPropertyOp8
 70
     0
102
RTVSPropertyOp9
 70
     0
102
RTVSPropertyOp10
 70
     0
102
RTVSPropertyOp11
 70
     0
102
RTVSPropertyOp12
 70
     0
102
RTVSPropertyOp13
 70
     0
102
RTVSPropertyOp14
 70
     2
102
RTVSPropertyOp15
 70
     0
102
RTVSPropertyOp16
 70
     0
102
RTVSPropertyOp17
 70
     0
102
RTVSPropertyOp18
 70
     0
102
RTVSPropertyOp19
 70
     0
102
RTVSPropertyOp20
 70
     0
102
RTVSPropertyOp21
 70
     0
102
RTVSPropertyOp22
 70
     0
102
RTVSPropertyOp23
 70
     0
102
RTVSPropertyOp24
 70
     0
102
RTVSPropertyOp25
 70
     0
102
RTVSPropertyOp26
 70
     0
102
RTVSPropertyOp27
 70
     0
  0
XRECORD
  5
6A2
102
{ACAD_REACTORS
330
6A1
102
}
330
6A1
100
AcDbXrecord
280
     1
102
RTVSPropertyOp0
 70
     1
102
RTVSPropertyOp1
 70
     1
102
RTVSPropertyOp2
 70
     1
102
RTVSPropertyOp3
 70
     1
102
RTVSPropertyOp4
 70
     1
102
RTVSPropertyOp5
 70
     1
102
RTVSPropertyOp6
 70
     1
102
RTVSPropertyOp7
 70
     1
102
RTVSPropertyOp8
 70
     1
102
RTVSPropertyOp9
 70
     1
102
RTVSPropertyOp10
 70
     1
102
RTVSPropertyOp11
 70
     1
102
RTVSPropertyOp12
 70
     1
102
RTVSPropertyOp13
 70
     1
102
RTVSPropertyOp14
 70
     1
102
RTVSPropertyOp15
 70
     1
102
RTVSPropertyOp16
 70
     1
102
RTVSPropertyOp17
 70
     1
102
RTVSPropertyOp18
 70
     1
102
RTVSPropertyOp19
 70
     1
102
RTVSPropertyOp20
 70
     1
102
RTVSPropertyOp21
 70
     1
102
RTVSPropertyOp22
 70
     1
102
RTVSPropertyOp23
 70
     1
102
RTVSPropertyOp24
 70
     1
102
RTVSPropertyOp25
 70
     1
102
RTVSPropertyOp26
 70
     1
102
RTVSPropertyOp27
 70
     1
  0
XRECORD
  5
6A8
102
{ACAD_REACTORS
330
6A7
102
}
330
6A7
100
AcDbXrecord
280
     1
102
RTVSPropertyOp0
 70
     1
102
RTVSPropertyOp1
 70
     1
102
RTVSPropertyOp2
 70
     1
102
RTVSPropertyOp3
 70
     1
102
RTVSPropertyOp4
 70
     1
102
RTVSPropertyOp5
 70
     1
102
RTVSPropertyOp6
 70
     1
102
RTVSPropertyOp7
 70
     1
102
RTVSPropertyOp8
 70
     1
102
RTVSPropertyOp9
 70
     1
102
RTVSPropertyOp10
 70
     1
102
RTVSPropertyOp11
 70
     1
102
RTVSPropertyOp12
 70
     1
102
RTVSPropertyOp13
 70
     1
102
RTVSPropertyOp14
 70
     1
102
RTVSPropertyOp15
 70
     1
102
RTVSPropertyOp16
 70
     1
102
RTVSPropertyOp17
 70
     1
102
RTVSPropertyOp18
 70
     1
102
RTVSPropertyOp19
 70
     1
102
RTVSPropertyOp20
 70
     1
102
RTVSPropertyOp21
 70
     1
102
RTVSPropertyOp22
 70
     1
102
RTVSPropertyOp23
 70
     1
102
RTVSPropertyOp24
 70
     1
102
RTVSPropertyOp25
 70
     1
102
RTVSPropertyOp26
 70
     1
102
RTVSPropertyOp27
 70
     1
  0
ENDSEC
  0
EOF
