  0
SECTION
  2
HEADER
  9
$ACADVER
  1
AC1015
  9
$ACADMAINTVER
 70
    20
  9
$DWGCODEPAGE
  3
ANSI_1252
  9
$INSBASE
 10
0.0
 20
0.0
 30
0.0
  9
$EXTMIN
 10
376.2433198567519
 20
217.3592856584107
 30
-0.0015258207003583
  9
$EXTMAX
 10
707.438310923565
 20
438.7223525640115
 30
0.0000000349246037
  9
$LIMMIN
 10
0.0
 20
0.0
  9
$LIMMAX
 10
1189.0
 20
841.0
  9
$ORTHOMODE
 70
     0
  9
$REGENMODE
 70
     1
  9
$FILLMODE
 70
     1
  9
$QTEXTMODE
 70
     0
  9
$MIRRTEXT
 70
     0
  9
$LTSCALE
 40
65.395
  9
$ATTMODE
 70
     1
  9
$TEXTSIZE
 40
0.2
  9
$TRACEWID
 40
0.05
  9
$TEXTSTYLE
  7
STANDARD
  9
$CLAYER
  8
0
  9
$CELTYPE
  6
BYLAYER
  9
$CECOLOR
 62
   256
  9
$CELTSCALE
 40
1.0
  9
$DISPSILH
 70
     0
  9
$DIMSCALE
 40
1.0
  9
$DIMASZ
 40
3.5
  9
$DIMEXO
 40
7.43125
  9
$DIMDLI
 40
45.18199999999999
  9
$DIMRND
 40
0.0
  9
$DIMDLE
 40
0.0
  9
$DIMEXE
 40
21.402
  9
$DIMTP
 40
0.005
  9
$DIMTM
 40
0.005
  9
$DIMTXT
 40
3.5
  9
$DIMCEN
 40
10.701
  9
$DIMTSZ
 40
0.0
  9
$DIMTOL
 70
     1
  9
$DIMLIM
 70
     0
  9
$DIMTIH
 70
     1
  9
$DIMTOH
 70
     1
  9
$DIMSE1
 70
     0
  9
$DIMSE2
 70
     0
  9
$DIMTAD
 70
     0
  9
$DIMZIN
 70
     0
  9
$DIMBLK
  1
_FILLED
  9
$DIMASO
 70
     1
  9
$DIMSHO
 70
     1
  9
$DIMPOST
  1

  9
$DIMAPOST
  1

  9
$DIMALT
 70
     0
  9
$DIMALTD
 70
     2
  9
$DIMALTF
 40
25.4
  9
$DIMLFAC
 40
1.0
  9
$DIMTOFL
 70
     0
  9
$DIMTVP
 40
0.0
  9
$DIMTIX
 70
     0
  9
$DIMSOXD
 70
     0
  9
$DIMSAH
 70
     0
  9
$DIMBLK1
  1

  9
$DIMBLK2
  1

  9
$DIMSTYLE
  2
STANDARD
  9
$DIMCLRD
 70
     0
  9
$DIMCLRE
 70
     0
  9
$DIMCLRT
 70
     0
  9
$DIMTFAC
 40
1.0
  9
$DIMGAP
 40
0.09
  9
$DIMJUST
 70
     0
  9
$DIMSD1
 70
     0
  9
$DIMSD2
 70
     0
  9
$DIMTOLJ
 70
     1
  9
$DIMTZIN
 70
     0
  9
$DIMALTZ
 70
     0
  9
$DIMALTTZ
 70
     0
  9
$DIMUPT
 70
     0
  9
$DIMDEC
 70
     4
  9
$DIMTDEC
 70
     4
  9
$DIMALTU
 70
     2
  9
$DIMALTTD
 70
     2
  9
$DIMTXSTY
  7
STANDARD
  9
$DIMAUNIT
 70
     0
  9
$DIMADEC
 70
     0
  9
$DIMALTRND
 40
0.0
  9
$DIMAZIN
 70
     0
  9
$DIMDSEP
 70
    46
  9
$DIMATFIT
 70
     3
  9
$DIMFRAC
 70
     0
  9
$DIMLDRBLK
  1

  9
$DIMLUNIT
 70
     2
  9
$DIMLWD
 70
    -2
  9
$DIMLWE
 70
    -2
  9
$DIMTMOVE
 70
     0
  9
$LUNITS
 70
     2
  9
$LUPREC
 70
     2
  9
$SKETCHINC
 40
0.1
  9
$FILLETRAD
 40
0.0
  9
$AUNITS
 70
     0
  9
$AUPREC
 70
     0
  9
$MENU
  1
.
  9
$ELEVATION
 40
0.0
  9
$PELEVATION
 40
0.0
  9
$THICKNESS
 40
0.0
  9
$LIMCHECK
 70
     0
  9
$CHAMFERA
 40
0.0
  9
$CHAMFERB
 40
0.0
  9
$CHAMFERC
 40
0.0
  9
$CHAMFERD
 40
0.0
  9
$SKPOLY
 70
     0
  9
$TDCREATE
 40
2456324.652827454
  9
$TDUCREATE
 40
2456324.611160787
  9
$TDUPDATE
 40
2456324.654767720
  9
$TDUUPDATE
 40
2456324.613101053
  9
$TDINDWG
 40
0.0019407986
  9
$TDUSRTIMER
 40
0.0019407986
  9
$USRTIMER
 70
     1
  9
$ANGBASE
 50
0.0
  9
$ANGDIR
 70
     0
  9
$PDMODE
 70
     3
  9
$PDSIZE
 40
0.3125
  9
$PLINEWID
 40
0.0
  9
$SPLFRAME
 70
     0
  9
$SPLINETYPE
 70
     6
  9
$SPLINESEGS
 70
     8
  9
$HANDSEED
  5
6A9
  9
$SURFTAB1
 70
     6
  9
$SURFTAB2
 70
     6
  9
$SURFTYPE
 70
     6
  9
$SURFU
 70
     6
  9
$SURFV
 70
     6
  9
$UCSBASE
  2

  9
$UCSNAME
  2

  9
$UCSORG
 10
0.0
 20
0.0
 30
0.0
  9
$UCSXDIR
 10
1.0
 20
0.0
 30
0.0
  9
$UCSYDIR
 10
0.0
 20
1.0
 30
0.0
  9
$UCSORTHOREF
  2

  9
$UCSORTHOVIEW
 70
     0
  9
$UCSORGTOP
 10
0.0
 20
0.0
 30
0.0
  9
$UCSORGBOTTOM
 10
0.0
 20
0.0
 30
0.0
  9
$UCSORGLEFT
 10
0.0
 20
0.0
 30
0.0
  9
$UCSORGRIGHT
 10
0.0
 20
0.0
 30
0.0
  9
$UCSORGFRONT
 10
0.0
 20
0.0
 30
0.0
  9
$UCSORGBACK
 10
0.0
 20
0.0
 30
0.0
  9
$PUCSBASE
  2

  9
$PUCSNAME
  2

  9
$PUCSORG
 10
0.0
 20
0.0
 30
0.0
  9
$PUCSXDIR
 10
1.0
 20
0.0
 30
0.0
  9
$PUCSYDIR
 10
0.0
 20
1.0
 30
0.0
  9
$PUCSORTHOREF
  2

  9
$PUCSORTHOVIEW
 70
     0
  9
$PUCSORGTOP
 10
0.0
 20
0.0
 30
0.0
  9
$PUCSORGBOTTOM
 10
0.0
 20
0.0
 30
0.0
  9
$PUCSORGLEFT
 10
0.0
 20
0.0
 30
0.0
  9
$PUCSORGRIGHT
 10
0.0
 20
0.0
 30
0.0
  9
$PUCSORGFRONT
 10
0.0
 20
0.0
 30
0.0
  9
$PUCSORGBACK
 10
0.0
 20
0.0
 30
0.0
  9
$USERI1
 70
     0
  9
$USERI2
 70
     0
  9
$USERI3
 70
     0
  9
$USERI4
 70
     0
  9
$USERI5
 70
     0
  9
$USERR1
 40
0.0
  9
$USERR2
 40
0.0
  9
$USERR3
 40
0.0
  9
$USERR4
 40
0.0
  9
$USERR5
 40
0.0
  9
$WORLDVIEW
 70
     1
  9
$SHADEDGE
 70
     3
  9
$SHADEDIF
 70
    70
  9
$TILEMODE
 70
     1
  9
$MAXACTVP
 70
    64
  9
$PINSBASE
 10
0.0
 20
0.0
 30
0.0
  9
$PLIMCHECK
 70
     0
  9
$PEXTMIN
 10
1.000000000000000E+20
 20
1.000000000000000E+20
 30
1.000000000000000E+20
  9
$PEXTMAX
 10
-1.000000000000000E+20
 20
-1.000000000000000E+20
 30
-1.000000000000000E+20
  9
$PLIMMIN
 10
0.0
 20
0.0
  9
$PLIMMAX
 10
12.0
 20
9.0
  9
$UNITMODE
 70
     0
  9
$VISRETAIN
 70
     1
  9
$PLINEGEN
 70
     0
  9
$PSLTSCALE
 70
     1
  9
$TREEDEPTH
 70
  3020
  9
$CMLSTYLE
  2
Standard
  9
$CMLJUST
 70
     0
  9
$CMLSCALE
 40
1.0
  9
$PROXYGRAPHICS
 70
     1
  9
$MEASUREMENT
 70
     1
  9
$CELWEIGHT
370
    -1
  9
$ENDCAPS
280
     0
  9
$JOINSTYLE
280
     0
  9
$LWDISPLAY
290
     0
  9
$INSUNITS
 70
     4
  9
$HYPERLINKBASE
  1

  9
$STYLESHEET
  1

  9
$XEDIT
290
     1
  9
$CEPSNTYPE
380
     0
  9
$PSTYLEMODE
290
     1
  9
$FINGERPRINTGUID
  2
{74F60A83-33A9-467F-8788-11C5661D7DB7}
  9
$VERSIONGUID
  2
{602CD7BF-FB25-4729-92F5-ED09DB53AE3D}
  9
$EXTNAMES
290
     1
  9
$PSVPSCALE
 40
0.0
  9
$OLESTARTUP
290
     0
  0
ENDSEC
  0
SECTION
  2
CLASSES
  0
CLASS
  1
ACDBDICTIONARYWDFLT
  2
AcDbDictionaryWithDefault
  3
ObjectDBX Classes
 90
        0
280
     0
281
     0
  0
CLASS
  1
ACDBPLACEHOLDER
  2
AcDbPlaceHolder
  3
ObjectDBX Classes
 90
        0
280
     0
281
     0
  0
CLASS
  1
LAYOUT
  2
AcDbLayout
  3
ObjectDBX Classes
 90
        0
280
     0
281
     0
  0
CLASS
  1
MATERIAL
  2
AcDbMaterial
  3
ObjectDBX Classes
 90
     1153
280
     0
281
     0
  0
CLASS
  1
VISUALSTYLE
  2
AcDbVisualStyle
  3
ObjectDBX Classes
 90
     4095
280
     0
281
     0
  0
CLASS
  1
TABLESTYLE
  2
AcDbTableStyle
  3
ObjectDBX Classes
 90
     4095
280
     0
281
     0
  0
CLASS
  1
SCALE
  2
AcDbScale
  3
ObjectDBX Classes
 90
     1153
280
     0
281
     0
  0
CLASS
  1
MLEADERSTYLE
  2
AcDbMLeaderStyle
  3
ACDB_MLEADERSTYLE_CLASS
 90
     4095
280
     0
281
     0
  0
CLASS
  1
AMGSETTINGSOBJ
  2
AmgSettingsObj
  3
"AcadM|Product Description: AutoCAD Mechanical|Company: Autodesk, Inc."
 90
     1024
280
     0
281
     0
  0
CLASS
  1
ACME_DOCUMENT
  2
AcMeDbDoc
  3
AcMeServices
 90
     1024
280
     0
281
     0
  0
CLASS
  1
ACMESCOPE
  2
AcMeScope
  3
AcMeServices
 90
     1024
280
     0
281
     0
  0
CLASS
  1
ACMECOMMANDHISTORY
  2
AcMeCommandHistory
  3
AcMeServices
 90
     1024
280
     0
281
     0
  0
CLASS
  1
ACIMSYSVARMAN
  2
AcImSysVarManager
  3
AcMeServices
 90
     1024
280
     0
281
     0
  0
CLASS
  1
ACIMINTSYSVAR
  2
AcImIntSysVar
  3
AcMeServices
 90
     1024
280
     0
281
     0
  0
CLASS
  1
ACMEDRAWINGMAN
  2
AcMeDrawingMan
  3
AcMeServices
 90
     1024
280
     0
281
     0
  0
CLASS
  1
ACMEVIEW
  2
AcMeView
  3
AcMeServices
 90
     1024
280
     0
281
     0
  0
CLASS
  1
ACDBENTITYCACHE
  2
AcMeEntityCache
  3
AcMeServices
 90
     1024
280
     0
281
     0
  0
CLASS
  1
ACMESTATEMGR
  2
AcMeStateMgr
  3
AcMeServices
 90
     1024
280
     0
281
     0
  0
CLASS
  1
ACGREFMASTER
  2
AcGrefMaster
  3
AcAttribServices
 90
     1024
280
     0
281
     0
  0
CLASS
  1
AM_DRAWING_MGR
  2
AcDmDwgMgr
  3
AcMechDwgViewMgmt
 90
     1024
280
     0
281
     0
  0
CLASS
  1
AM_DWG_DOCUMENT
  2
AcDmDwgDocument
  3
AcMechDwgViewMgmt
 90
     1024
280
     0
281
     0
  0
CLASS
  1
AM_DWG_SHEET
  2
AcDmSheet
  3
AcMechDwgViewMgmt
 90
     1024
280
     0
281
     0
  0
CLASS
  1
AM_VIEWDIMPARMAP
  2
AcDmViewDimParMap
  3
AcMechDwgViewMgmt
 90
     1024
280
     0
281
     0
  0
CLASS
  1
AMDTINTERNALREACTOR
  2
AmdtInternalReactor
  3
AcMeServices
 90
     1024
280
     0
281
     0
  0
CLASS
  1
ACIMREALSYSVAR
  2
AcImRealSysVar
  3
AcMeServices
 90
     1024
280
     0
281
     0
  0
CLASS
  1
AM_DWGMGR_NAME
  2
AcDmDwgMgrName
  3
AcMechDwgViewMgmt
 90
     1024
280
     0
281
     0
  0
CLASS
  1
ACME_DATABASE
  2
AcMeDbDatabase
  3
AcMeServices
 90
     1024
280
     0
281
     0
  0
CLASS
  1
ACRFINSADJUSTERMGR
  2
AcRfInsAdjusterMgr
  3
AcMeServices
 90
     1024
280
     0
281
     0
  0
CLASS
  1
ACGREFACADMASTER
  2
AcGrefacadMaster
  3
AcGrefServices
 90
     1024
280
     0
281
     0
  0
CLASS
  1
AMDTMENUSTATEMGR
  2
AmdtMenuStateMgr
  3
McadcomServices
 90
     1024
280
     0
281
     0
  0
CLASS
  1
AMDTMCOMMENUSTATE
  2
AmdtMcomMenuState
  3
McadcomServices
 90
     1024
280
     0
281
     0
  0
CLASS
  1
AMIMASTER
  2
AmiMaster
  3
AmiServices
 90
     1024
280
     0
281
     0
  0
CLASS
  1
MAPIAMMOUDLE
  2
MApiAmModule
  3
MApiAmServices
 90
     1024
280
     0
281
     0
  0
CLASS
  1
ACIMSTRSYSVAR
  2
AcImStrSysVar
  3
AcMeServices
 90
     1024
280
     0
281
     0
  0
CLASS
  1
AMDTADMENUSTATE
  2
AmdtAdMenuState
  3
DesignerServices
 90
     1024
280
     0
281
     0
  0
CLASS
  1
ADAPPL
  2
AcAdAppl
  3
DesignerServices
 90
     1024
280
     0
281
     0
  0
CLASS
  1
DEPMGR
  2
AcAdDepMgr
  3
DesignerServices
 90
     1024
280
     0
281
     0
  0
CLASS
  1
PARAMMGR
  2
AcAdParamMgr
  3
DesignerServices
 90
     1024
280
     0
281
     0
  0
CLASS
  1
PARAMSCOPE
  2
AcAdParamScope
  3
DesignerServices
 90
     1024
280
     0
281
     0
  0
CLASS
  1
NAMEDAPPL
  2
AcAdNamedAppl
  3
DesignerServices
 90
     1024
280
     0
281
     0
  0
CLASS
  1
AMDTDMMENUSTATE
  2
AmdtDmMenuState
  3
AcMechDwgViewMgmt
 90
     1024
280
     0
281
     0
  0
CLASS
  1
AMDTAMMENUSTATE
  2
AmdtAmMenuState
  3
DesignerAssemblies
 90
     1024
280
     0
281
     0
  0
CLASS
  1
ACAMPROJECT
  2
AcAmProject
  3
DesignerAssemblies
 90
     1024
280
     0
281
     0
  0
CLASS
  1
ACAMGRCOMPDEF
  2
AcAmGrCompDef
  3
DesignerAssemblies
 90
     1024
280
     0
281
     0
  0
CLASS
  1
ACAMCOMPDEF
  2
AcAmCompDef
  3
DesignerAssemblies
 90
     1024
280
     0
281
     0
  0
CLASS
  1
ACAMCOMPDEFMGR
  2
AcAmCompDefMgr
  3
DesignerAssemblies
 90
     1024
280
     0
281
     0
  0
CLASS
  1
AMCONTEXTMGR
  2
AcAmContextMgr
  3
DesignerAssemblies
 90
     1024
280
     0
281
     0
  0
CLASS
  1
ACAMCONTEXTMODELER
  2
AcAmContextModeler
  3
DesignerAssemblies
 90
     1024
280
     0
281
     0
  0
CLASS
  1
ACMDATADICTIONARY
  2
AcmDataDictionary
  3
"AcmSymBB|Product Description: AutoCAD Mechanical|Company: Autodesk, Inc."
 90
     1024
280
     0
281
     0
  0
CLASS
  1
CATALOGSTATE
  2
AcAmCatalogState
  3
DesignerAssemblies
 90
     1024
280
     0
281
     0
  0
CLASS
  1
ACAMGRCOMPDEFSET
  2
AcAmGrCompDefSet
  3
DesignerAssemblies
 90
     1024
280
     0
281
     0
  0
CLASS
  1
AMDTBROWSERDBTAB
  2
AmdtBrowserDbTab
  3
McadcomServices
 90
     1024
280
     0
281
     0
  0
CLASS
  1
CBROWSERAPPOBJECT
  2
CBrowserAppObject
  3
McadcomServices
 90
     1024
280
     0
281
     0
  0
CLASS
  1
DM_PLACEHOLDER
  2
AcDmSelsetPlaceholder
  3
AcMechDwgViewMgmt
 90
     1024
280
     0
281
     0
  0
CLASS
  1
ACMSTANDARDDIN
  2
AcmStandardDIN
  3
"Amdt_StdImp|Product Description: AutoCAD Mechanical|Company: Autodesk, Inc."
 90
     1024
280
     0
281
     0
  0
CLASS
  1
AMDTEDGESTANDARDDIN13715
  2
AmdtEdgeStdDIN13715
  3
"Amdt_StdImp|Product Description: AutoCAD Mechanical|Company: Autodesk, Inc."
 90
     1024
280
     0
281
     0
  0
CLASS
  1
ACMSURFSTANDARDDIN2002
  2
AcmSurfTextStdDIN2002
  3
"Amdt_StdImp|Product Description: AutoCAD Mechanical|Company: Autodesk, Inc."
 90
     1024
280
     0
281
     0
  0
CLASS
  1
ACMFCFSTANDARDDIN
  2
AcmFCFStdDIN
  3
"Amdt_StdImp|Product Description: AutoCAD Mechanical|Company: Autodesk, Inc."
 90
     1024
280
     0
281
     0
  0
CLASS
  1
ACMWELDSTANDARDDIN
  2
AcmWeldingStdDIN
  3
"Amdt_StdImp|Product Description: AutoCAD Mechanical|Company: Autodesk, Inc."
 90
     1024
280
     0
281
     0
  0
CLASS
  1
ACMIDSTANDARDDIN
  2
AcmIdStdDIN
  3
"Amdt_StdImp|Product Description: AutoCAD Mechanical|Company: Autodesk, Inc."
 90
     1024
280
     0
281
     0
  0
CLASS
  1
ACMDATUMSTANDARDDIN
  2
AcmDatumStdDIN
  3
"Amdt_StdImp|Product Description: AutoCAD Mechanical|Company: Autodesk, Inc."
 90
     1024
280
     0
281
     0
  0
CLASS
  1
ACMBOMSTANDARDDIN
  2
AcmBOMStdDIN
  3
"Amdt_StdImp|Product Description: AutoCAD Mechanical|Company: Autodesk, Inc."
 90
     1024
280
     0
281
     0
  0
CLASS
  1
ACMDETAILSTANDARDDIN
  2
AmdtDetailSymStdDIN
  3
"Amdt_StdImp|Product Description: AutoCAD Mechanical|Company: Autodesk, Inc."
 90
     1024
280
     0
281
     0
  0
CLASS
  1
ACMSECTIONSTANDARDDIN
  2
AmdtSectionSymStdDIN
  3
"Amdt_StdImp|Product Description: AutoCAD Mechanical|Company: Autodesk, Inc."
 90
     1024
280
     0
281
     0
  0
CLASS
  1
ACMCENTERLINESTANDARDDIN
  2
AmdtCenterLineStdDIN
  3
"Amdt_StdImp|Product Description: AutoCAD Mechanical|Company: Autodesk, Inc."
 90
     1024
280
     0
281
     0
  0
CLASS
  1
ACMTHREADLINESTANDARDDIN
  2
AmdtThreadLineStdDIN
  3
"Amdt_StdImp|Product Description: AutoCAD Mechanical|Company: Autodesk, Inc."
 90
     1024
280
     0
281
     0
  0
CLASS
  1
ACMNOTESTANDARDDIN
  2
AmdtNoteStdDIN
  3
"Amdt_StdImp|Product Description: AutoCAD Mechanical|Company: Autodesk, Inc."
 90
     1024
280
     0
281
     0
  0
CLASS
  1
ACMTAPERSTANDARDDIN
  2
AcmTaperStdDIN
  3
"Amdt_StdImp|Product Description: AutoCAD Mechanical|Company: Autodesk, Inc."
 90
     1024
280
     0
281
     0
  0
CLASS
  1
ACMANOOTATIONVIEWSTANDARDDIN
  2
AmdtAnViewStdDIN
  3
"Amdt_StdImp|Product Description: AutoCAD Mechanical|Company: Autodesk, Inc."
 90
     1024
280
     0
281
     0
  0
CLASS
  1
ACAMGLAYSTD
  2
AcAmgLayStd
  3
"AmgLay|Product Description: AutoCAD Mechanical|Company: Autodesk, Inc."
 90
     1024
280
     0
281
     0
  0
CLASS
  1
ACAMGDIMSTD
  2
AcAmgDimStd
  3
"AmgDim|Product Description: AutoCAD Mechanical|Company: Autodesk, Inc."
 90
     1024
280
     0
281
     0
  0
CLASS
  1
AMGOBJPROPCFG
  2
AmgObjPropCfg
  3
"AmgLay|Product Description: AutoCAD Mechanical|Company: Autodesk, Inc."
 90
     1025
280
     0
281
     0
  0
CLASS
  1
ACAMGHOLECHARTSTDDIN
  2
AcAmgHoleChartStdDIN
  3
AmgDim|Product Description: AutoCAD Mechanical|Company: Autodesk, Inc.
 90
     1024
280
     0
281
     0
  0
CLASS
  1
ACAMGTITLESTD
  2
AcAmgTitleStd
  3
"AmgTitle|Product Description: AutoCAD Mechanical|Company: Autodesk, Inc."
 90
     4095
280
     0
281
     0
  0
CLASS
  1
AMDTNOTETEMPLATEDB
  2
AmdtNoteTemplateDB
  3
AcmSymBB|Product Description: AutoCAD Mechanical|Company: Autodesk, Inc.
 90
     1024
280
     0
281
     0
  0
CLASS
  1
ACAMGFILTERDAT
  2
AcAmgFilterDat
  3
"AcadM|Product Description: AutoCAD Mechanical|Company: Autodesk, Inc."
 90
     1024
280
     0
281
     0
  0
CLASS
  1
DICTIONARYVAR
  2
AcDbDictionaryVar
  3
ObjectDBX Classes
 90
        0
280
     0
281
     0
  0
CLASS
  1
CELLSTYLEMAP
  2
AcDbCellStyleMap
  3
ObjectDBX Classes
 90
     1152
280
     0
281
     0
  0
ENDSEC
  0
SECTION
  2
TABLES
  0
TABLE
  2
VPORT
  5
8
330
0
100
AcDbSymbolTable
 70
     1
  0
VPORT
  5
1F4
330
8
100
AcDbSymbolTableRecord
100
AcDbViewportTableRecord
  2
*ACTIVE
 70
     0
 10
0.0
 20
0.0
 11
1.0
 21
1.0
 12
541.8408153901586
 22
328.0408191112111
 13
0.0
 23
0.0
 14
1.0
 24
1.0
 15
0.0
 25
0.0
 16
0.0
 26
0.0
 36
1.0
 17
0.0
 27
0.0
 37
0.0
 40
222.927470205287
 41
1.850235849056603
 42
50.0
 43
0.0
 44
0.0
 50
0.0
 51
0.0
 71
     0
 72
   100
 73
     1
 74
     1
 75
     0
 76
     0
 77
     0
 78
     0
281
     0
 65
     0
110
0.0
120
0.0
130
0.0
111
1.0
121
0.0
131
0.0
112
0.0
122
1.0
132
0.0
 79
     0
146
0.0
  0
ENDTAB
  0
TABLE
  2
LTYPE
  5
5
330
0
100
AcDbSymbolTable
 70
    23
  0
LTYPE
  5
14
330
5
100
AcDbSymbolTableRecord
100
AcDbLinetypeTableRecord
  2
BYBLOCK
 70
     0
  3

 72
    65
 73
     0
 40
0.0
  0
LTYPE
  5
15
330
5
100
AcDbSymbolTableRecord
100
AcDbLinetypeTableRecord
  2
BYLAYER
 70
     0
  3

 72
    65
 73
     0
 40
0.0
  0
LTYPE
  5
16
330
5
100
AcDbSymbolTableRecord
100
AcDbLinetypeTableRecord
  2
CONTINUOUS
 70
     0
  3
Solid line
 72
    65
 73
     0
 40
0.0
  0
LTYPE
  5
1F5
330
5
100
AcDbSymbolTableRecord
100
AcDbLinetypeTableRecord
  2
CENTER
 70
     0
  3
____ _ ____ _ ____ _ ____ _ ____ _ ____ _ ____
 72
    65
 73
     4
 40
0.6
 49
0.375
 74
     0
 49
-0.075
 74
     0
 49
0.075
 74
     0
 49
-0.075
 74
     0
  0
LTYPE
  5
1F6
330
5
100
AcDbSymbolTableRecord
100
AcDbLinetypeTableRecord
  2
HIDDEN
 70
     0
  3
- - - - - - - - - - - - - - - - - - - -
 72
    65
 73
     2
 40
0.2
 49
0.1
 74
     0
 49
-0.1
 74
     0
  0
LTYPE
  5
1F7
330
5
100
AcDbSymbolTableRecord
100
AcDbLinetypeTableRecord
  2
PHANTOM
 70
     0
  3
_____ _ _ _____ _ _ _____ _ _ _____
 72
    65
 73
     6
 40
0.8
 49
0.45
 74
     0
 49
-0.05
 74
     0
 49
0.1
 74
     0
 49
-0.05
 74
     0
 49
0.1
 74
     0
 49
-0.05
 74
     0
  0
LTYPE
  5
1F8
330
5
100
AcDbSymbolTableRecord
100
AcDbLinetypeTableRecord
  2
DOT
 70
     0
  3
. . . . . . . . . . . . . . . . . . . .
 72
    65
 73
     2
 40
0.2
 49
0.1
 74
     0
 49
-0.1
 74
     0
  0
LTYPE
  5
1F9
330
5
100
AcDbSymbolTableRecord
100
AcDbLinetypeTableRecord
  2
DASHED
 70
     0
  3
- - - - - - - - - - - - - - - - - - - -
 72
    65
 73
     2
 40
0.2
 49
0.1
 74
     0
 49
-0.1
 74
     0
  0
LTYPE
  5
54C
330
5
100
AcDbSymbolTableRecord
100
AcDbLinetypeTableRecord
  2
PHANTOM2
 70
     0
  3
Phantom (.5x) ___ _ _ ___ _ _ ___ _ _ ___ _ _
 72
    65
 73
     6
 40
31.75
 49
15.875
 74
     0
 49
-3.174999999999999
 74
     0
 49
3.174999999999999
 74
     0
 49
-3.174999999999999
 74
     0
 49
3.174999999999999
 74
     0
 49
-3.174999999999999
 74
     0
  0
LTYPE
  5
592
330
5
100
AcDbSymbolTableRecord
100
AcDbLinetypeTableRecord
  2
AM_ISO02W050
 70
     0
  3
__ __ __ __ __ __ __ __ __ __ __ __ __ __ __
 72
    65
 73
     2
 40
7.5
 49
6.0
 74
     0
 49
-1.5
 74
     0
  0
LTYPE
  5
593
330
5
100
AcDbSymbolTableRecord
100
AcDbLinetypeTableRecord
  2
AM_ISO08W050
 70
     0
  3
____ . ____ . ____ . ____ . ____ . ____ . ____
 72
    65
 73
     4
 40
18.0
 49
12.0
 74
     0
 49
-1.5
 74
     0
 49
3.0
 74
     0
 49
-1.5
 74
     0
  0
LTYPE
  5
594
330
5
100
AcDbSymbolTableRecord
100
AcDbLinetypeTableRecord
  2
AM_ISO09W050
 70
     0
  3
_____ . . _____ . . _____ . . ____ .. ____
 72
    65
 73
     6
 40
22.5
 49
12.0
 74
     0
 49
-1.5
 74
     0
 49
3.0
 74
     0
 49
-1.5
 74
     0
 49
3.0
 74
     0
 49
-1.5
 74
     0
  0
LTYPE
  5
595
330
5
100
AcDbSymbolTableRecord
100
AcDbLinetypeTableRecord
  2
Amconstr
 70
     0
  3
_______________________
 72
    65
 73
     2
 40
9999.0
 49
9999.0
 74
     0
 49
0.0
 74
     0
  0
LTYPE
  5
596
330
5
100
AcDbSymbolTableRecord
100
AcDbLinetypeTableRecord
  2
AM_ISO08W050x2
 70
     0
  3
__ . __ . __ . __ . __ . __
 72
    65
 73
     4
 40
9.0
 49
6.0
 74
     0
 49
-0.75
 74
     0
 49
1.5
 74
     0
 49
-0.75
 74
     0
  0
LTYPE
  5
597
330
5
100
AcDbSymbolTableRecord
100
AcDbLinetypeTableRecord
  2
AM_ISO02W050x2
 70
     0
  3
 _ _ _ _ _ _ _ _ _ _ _ _
 72
    65
 73
     2
 40
3.75
 49
3.0
 74
     0
 49
-0.75
 74
     0
  0
LTYPE
  5
59A
330
5
100
AcDbSymbolTableRecord
100
AcDbLinetypeTableRecord
  2
Amzigzag
 70
     0
  3
/\/-/\/-/\/-/\/-/\/-/\/
 72
    65
 73
     2
 40
11.0001
 49
0.0001
 74
     4
 75
   136
340
599
 46
0.04
 50
0.0
 44
0.0
 45
0.0
 49
-11.0
 74
     0
  0
LTYPE
  5
59B
330
5
100
AcDbSymbolTableRecord
100
AcDbLinetypeTableRecord
  2
AM_DIN_F_W050
 70
     0
  3
__ __ __ __ __ __ __ __ __ __ __ __ __ __ __
 72
    65
 73
     2
 40
6.25
 49
4.75
 74
     0
 49
-1.5
 74
     0
  0
LTYPE
  5
59C
330
5
100
AcDbSymbolTableRecord
100
AcDbLinetypeTableRecord
  2
AM_DIN_G_W050
 70
     0
  3
____ . ____ . ____ . ____ . ____ . ____ . ____
 72
    65
 73
     4
 40
13.75
 49
9.75
 74
     0
 49
-1.5
 74
     0
 49
1.0
 74
     0
 49
-1.5
 74
     0
  0
LTYPE
  5
59D
330
5
100
AcDbSymbolTableRecord
100
AcDbLinetypeTableRecord
  2
AM_DIN_K_W050
 70
     0
  3
_____ . . _____ . . _____ . . ____ .. ____
 72
    65
 73
     6
 40
16.25
 49
9.75
 74
     0
 49
-1.5
 74
     0
 49
1.0
 74
     0
 49
-1.5
 74
     0
 49
1.0
 74
     0
 49
-1.5
 74
     0
  0
LTYPE
  5
59E
330
5
100
AcDbSymbolTableRecord
100
AcDbLinetypeTableRecord
  2
AM_DIN_G_W050x2
 70
     0
  3
__ . __ . __ . __ . __ . __
 72
    65
 73
     4
 40
6.875
 49
4.75
 74
     0
 49
-0.875
 74
     0
 49
0.375
 74
     0
 49
-0.875
 74
     0
  0
LTYPE
  5
59F
330
5
100
AcDbSymbolTableRecord
100
AcDbLinetypeTableRecord
  2
AM_DIN_F_W050x2
 70
     0
  3
 _ _ _ _ _ _ _ _ _ _ _ _
 72
    65
 73
     2
 40
3.125
 49
2.25
 74
     0
 49
-0.875
 74
     0
  0
LTYPE
  5
5AE
330
5
100
AcDbSymbolTableRecord
100
AcDbLinetypeTableRecord
  2
ACDINWELD
 70
     0
  3
_ _ _ _ _
 72
    65
 73
     2
 40
2.0
 49
2.0
 74
     0
 49
-1.0
 74
     0
  0
LTYPE
  5
5AF
330
5
100
AcDbSymbolTableRecord
100
AcDbLinetypeTableRecord
  2
ACDINTGB
 70
     0
  3
__ . . __ . .
 72
    65
 73
     6
 40
9.0
 49
4.0
 74
     0
 49
-1.0
 74
     0
 49
1.0
 74
     0
 49
-1.0
 74
     0
 49
1.0
 74
     0
 49
-1.0
 74
     0
  0
LTYPE
  5
5B0
330
5
100
AcDbSymbolTableRecord
100
AcDbLinetypeTableRecord
  2
ACDINTGL
 70
     0
  3
_ _ _ _ _
 72
    65
 73
     2
 40
3.0
 49
2.0
 74
     0
 49
-1.0
 74
     0
  0
ENDTAB
  0
TABLE
  2
LAYER
  5
2
330
0
100
AcDbSymbolTable
 70
    32
  0
LAYER
  5
10
330
2
100
AcDbSymbolTableRecord
100
AcDbLayerTableRecord
  2
0
 70
     0
 62
     7
  6
CONTINUOUS
370
    -3
390
F
  0
LAYER
  5
1FA
330
2
100
AcDbSymbolTableRecord
100
AcDbLayerTableRecord
  2
DEFAULT_1
 70
     0
 62
     7
  6
CENTER
370
    -3
390
F
  0
LAYER
  5
1FB
330
2
100
AcDbSymbolTableRecord
100
AcDbLayerTableRecord
  2
DEFAULT_2
 70
     0
 62
     8
  6
HIDDEN
370
    -3
390
F
  0
LAYER
  5
1FC
330
2
100
AcDbSymbolTableRecord
100
AcDbLayerTableRecord
  2
DEFAULT_3
 70
     0
 62
     7
  6
PHANTOM
370
    -3
390
F
  0
LAYER
  5
1FD
330
2
100
AcDbSymbolTableRecord
100
AcDbLayerTableRecord
  2
01___PRT_ALL_DTM_PLN
 70
     0
 62
     7
  6
CONTINUOUS
370
    -3
390
F
  0
LAYER
  5
1FE
330
2
100
AcDbSymbolTableRecord
100
AcDbLayerTableRecord
  2
01___PRT_DEF_DTM_PLN
 70
     0
 62
     7
  6
CONTINUOUS
370
    -3
390
F
  0
LAYER
  5
1FF
330
2
100
AcDbSymbolTableRecord
100
AcDbLayerTableRecord
  2
02___PRT_ALL_AXES
 70
     0
 62
     7
  6
CONTINUOUS
370
    -3
390
F
  0
LAYER
  5
200
330
2
100
AcDbSymbolTableRecord
100
AcDbLayerTableRecord
  2
03___PRT_ALL_CURVES
 70
     0
 62
     7
  6
CONTINUOUS
370
    -3
390
F
  0
LAYER
  5
201
330
2
100
AcDbSymbolTableRecord
100
AcDbLayerTableRecord
  2
04___PRT_ALL_DTM_PNT
 70
     0
 62
     7
  6
CONTINUOUS
370
    -3
390
F
  0
LAYER
  5
202
330
2
100
AcDbSymbolTableRecord
100
AcDbLayerTableRecord
  2
05___PRT_ALL_DTM_CSYS
 70
     0
 62
     7
  6
CONTINUOUS
370
    -3
390
F
  0
LAYER
  5
203
330
2
100
AcDbSymbolTableRecord
100
AcDbLayerTableRecord
  2
05___PRT_DEF_DTM_CSYS
 70
     0
 62
     7
  6
CONTINUOUS
370
    -3
390
F
  0
LAYER
  5
204
330
2
100
AcDbSymbolTableRecord
100
AcDbLayerTableRecord
  2
06___PRT_ALL_SURFS
 70
     0
 62
     7
  6
CONTINUOUS
370
    -3
390
F
  0
LAYER
  5
205
330
2
100
AcDbSymbolTableRecord
100
AcDbLayerTableRecord
  2
3D_TEIL_NOTIZ
 70
     0
 62
     7
  6
CONTINUOUS
370
    -3
390
F
  0
LAYER
  5
206
330
2
100
AcDbSymbolTableRecord
100
AcDbLayerTableRecord
  2
ACHSEN
 70
     0
 62
     7
  6
CONTINUOUS
370
    -3
390
F
  0
LAYER
  5
207
330
2
100
AcDbSymbolTableRecord
100
AcDbLayerTableRecord
  2
AUSFORMSCHRAEGEN
 70
     0
 62
     7
  6
CONTINUOUS
370
    -3
390
F
  0
LAYER
  5
208
330
2
100
AcDbSymbolTableRecord
100
AcDbLayerTableRecord
  2
BEZUG
 70
     0
 62
     7
  6
CONTINUOUS
370
    -3
390
F
  0
LAYER
  5
209
330
2
100
AcDbSymbolTableRecord
100
AcDbLayerTableRecord
  2
BEZUGSACHSEN
 70
     0
 62
     7
  6
CONTINUOUS
370
    -3
390
F
  0
LAYER
  5
20A
330
2
100
AcDbSymbolTableRecord
100
AcDbLayerTableRecord
  2
BEZUGSEBENEN
 70
     0
 62
     7
  6
CONTINUOUS
370
    -3
390
F
  0
LAYER
  5
20B
330
2
100
AcDbSymbolTableRecord
100
AcDbLayerTableRecord
  2
BG_STARTBEZUEGE
 70
     0
 62
     7
  6
CONTINUOUS
370
    -3
390
F
  0
LAYER
  5
20C
330
2
100
AcDbSymbolTableRecord
100
AcDbLayerTableRecord
  2
BOHRUNGEN
 70
     0
 62
     7
  6
CONTINUOUS
370
    -3
390
F
  0
LAYER
  5
20D
330
2
100
AcDbSymbolTableRecord
100
AcDbLayerTableRecord
  2
DATUMS
 70
     0
 62
     7
  6
CONTINUOUS
370
    -3
390
F
  0
LAYER
  5
20E
330
2
100
AcDbSymbolTableRecord
100
AcDbLayerTableRecord
  2
DETAILS
 70
     0
 62
     7
  6
CONTINUOUS
370
    -3
390
F
  0
LAYER
  5
20F
330
2
100
AcDbSymbolTableRecord
100
AcDbLayerTableRecord
  2
FASEN
 70
     0
 62
     7
  6
CONTINUOUS
370
    -3
390
F
  0
LAYER
  5
210
330
2
100
AcDbSymbolTableRecord
100
AcDbLayerTableRecord
  2
GEWINDE
 70
     0
 62
     7
  6
CONTINUOUS
370
    -3
390
F
  0
LAYER
  5
211
330
2
100
AcDbSymbolTableRecord
100
AcDbLayerTableRecord
  2
HILFEN
 70
     0
 62
     7
  6
CONTINUOUS
370
    -3
390
F
  0
LAYER
  5
212
330
2
100
AcDbSymbolTableRecord
100
AcDbLayerTableRecord
  2
KURVEN
 70
     0
 62
     7
  6
CONTINUOUS
370
    -3
390
F
  0
LAYER
  5
213
330
2
100
AcDbSymbolTableRecord
100
AcDbLayerTableRecord
  2
PLATZIERUNG
 70
     0
 62
     7
  6
CONTINUOUS
370
    -3
390
F
  0
LAYER
  5
214
330
2
100
AcDbSymbolTableRecord
100
AcDbLayerTableRecord
  2
PLAZIERUNG
 70
     0
 62
     7
  6
CONTINUOUS
370
    -3
390
F
  0
LAYER
  5
215
330
2
100
AcDbSymbolTableRecord
100
AcDbLayerTableRecord
  2
RUNDUNGEN
 70
     0
 62
     7
  6
CONTINUOUS
370
    -3
390
F
  0
LAYER
  5
216
330
2
100
AcDbSymbolTableRecord
100
AcDbLayerTableRecord
  2
TEIL_STARTBEZUEGE
 70
     0
 62
     7
  6
CONTINUOUS
370
    -3
390
F
  0
LAYER
  5
217
330
2
100
AcDbSymbolTableRecord
100
AcDbLayerTableRecord
  2
ZEICHNUNGSBEMASSUNGEN
 70
     0
 62
     7
  6
CONTINUOUS
370
    -3
390
F
  0
LAYER
  5
5BE
330
2
100
AcDbSymbolTableRecord
100
AcDbLayerTableRecord
  2
Defpoints
 70
     0
 62
     7
  6
CONTINUOUS
290
     0
370
    -3
390
F
  0
ENDTAB
  0
TABLE
  2
STYLE
  5
3
330
0
100
AcDbSymbolTable
 70
     6
  0
STYLE
  5
11
330
3
100
AcDbSymbolTableRecord
100
AcDbTextStyleTableRecord
  2
STANDARD
 70
     0
 40
0.0
 41
0.7
 50
0.0
 71
     0
 42
0.2
  3
txt
  4

  0
STYLE
  5
218
330
3
100
AcDbSymbolTableRecord
100
AcDbTextStyleTableRecord
  2
TEXTSTYLE_1
 70
     0
 40
0.0
 41
0.8
 50
0.0
 71
     0
 42
0.2
  3
gdt
  4

  0
STYLE
  5
219
330
3
100
AcDbSymbolTableRecord
100
AcDbTextStyleTableRecord
  2
TEXTSTYLE_2
 70
     0
 40
0.0
 41
0.7
 50
0.0
 71
     0
 42
0.2
  3
gdt
  4

  0
STYLE
  5
599
330
3
100
AcDbSymbolTableRecord
100
AcDbTextStyleTableRecord
  2

 70
     1
 40
0.0
 41
1.0
 50
0.0
 71
     0
 42
0.2
  3
genltshp.shx
  4

  0
STYLE
  5
5AC
330
3
100
AcDbSymbolTableRecord
100
AcDbTextStyleTableRecord
  2
ACDINTS
 70
     0
 40
1.0
 41
1.0
 50
0.0
 71
     0
 42
0.2
  3
isocp.shx
  4

  0
STYLE
  5
5AD
330
3
100
AcDbSymbolTableRecord
100
AcDbTextStyleTableRecord
  2
ACDINGDT
 70
     0
 40
0.0
 41
1.0
 50
0.0
 71
     0
 42
0.2
  3
amgdt.shx
  4

  0
ENDTAB
  0
TABLE
  2
VIEW
  5
6
330
0
100
AcDbSymbolTable
 70
     0
  0
ENDTAB
  0
TABLE
  2
UCS
  5
7
330
0
100
AcDbSymbolTable
 70
     0
  0
ENDTAB
  0
TABLE
  2
APPID
  5
9
330
0
100
AcDbSymbolTable
 70
    21
  0
APPID
  5
21A
330
9
100
AcDbSymbolTableRecord
100
AcDbRegAppTableRecord
  2
ACAD
 70
     0
  0
APPID
  5
521
330
9
100
AcDbSymbolTableRecord
100
AcDbRegAppTableRecord
  2
MCAD_NO_VIS
 70
     0
  0
APPID
  5
522
330
9
100
AcDbSymbolTableRecord
100
AcDbRegAppTableRecord
  2
ACAD_TEMP_GRAPHIC
 70
     0
  0
APPID
  5
54E
330
9
100
AcDbSymbolTableRecord
100
AcDbRegAppTableRecord
  2
AD_DRAW
 70
     0
  0
APPID
  5
551
330
9
100
AcDbSymbolTableRecord
100
AcDbRegAppTableRecord
  2
ACATTRIBSERVICES
 70
     0
  0
APPID
  5
571
330
9
100
AcDbSymbolTableRecord
100
AcDbRegAppTableRecord
  2
DESIGNERASSEMBLIES
 70
     0
  0
APPID
  5
577
330
9
100
AcDbSymbolTableRecord
100
AcDbRegAppTableRecord
  2
ACADM_DIM_EDIT
 70
     0
  0
APPID
  5
578
330
9
100
AcDbSymbolTableRecord
100
AcDbRegAppTableRecord
  2
AMDT_DM_ADJ
 70
     0
  0
APPID
  5
58F
330
9
100
AcDbSymbolTableRecord
100
AcDbRegAppTableRecord
  2
ACAD_DSTYLE_DIMJAG
 70
     0
  0
APPID
  5
590
330
9
100
AcDbSymbolTableRecord
100
AcDbRegAppTableRecord
  2
ACAD_DSTYLE_DIMBREAK
 70
     0
  0
APPID
  5
5BF
330
9
100
AcDbSymbolTableRecord
100
AcDbRegAppTableRecord
  2
AcAecLayerStandard
 70
     0
  0
APPID
  5
5C0
330
9
100
AcDbSymbolTableRecord
100
AcDbRegAppTableRecord
  2
GENIUS_GENODEF_13
 70
     0
  0
APPID
  5
5C1
330
9
100
AcDbSymbolTableRecord
100
AcDbRegAppTableRecord
  2
GENIUS_GENOBJ-N-HTC_13
 70
     0
  0
APPID
  5
5C2
330
9
100
AcDbSymbolTableRecord
100
AcDbRegAppTableRecord
  2
GENIUS_GENHATCH_13
 70
     0
  0
APPID
  5
5C3
330
9
100
AcDbSymbolTableRecord
100
AcDbRegAppTableRecord
  2
ACAD_EXEMPT_FROM_CAD_STANDARDS
 70
     0
  0
APPID
  5
5C4
330
9
100
AcDbSymbolTableRecord
100
AcDbRegAppTableRecord
  2
ACAD_MLEADERVER
 70
     0
  0
APPID
  5
5C5
330
9
100
AcDbSymbolTableRecord
100
AcDbRegAppTableRecord
  2
ACAD_DSTYLE_DIMJOGGED_JOGANGLE_SYMBOL
 70
     0
  0
APPID
  5
5C6
330
9
100
AcDbSymbolTableRecord
100
AcDbRegAppTableRecord
  2
ACAD_DSTYLE_DIM_LINETYPE
 70
     0
  0
APPID
  5
5C7
330
9
100
AcDbSymbolTableRecord
100
AcDbRegAppTableRecord
  2
ACAD_DSTYLE_DIM_EXT1_LINETYPE
 70
     0
  0
APPID
  5
5C8
330
9
100
AcDbSymbolTableRecord
100
AcDbRegAppTableRecord
  2
ACAD_DSTYLE_DIM_EXT2_LINETYPE
 70
     0
  0
APPID
  5
5C9
330
9
100
AcDbSymbolTableRecord
100
AcDbRegAppTableRecord
  2
ACAD_DSTYLE_DIMINSPECT
 70
     0
  0
ENDTAB
  0
TABLE
  2
DIMSTYLE
  5
A
330
0
100
AcDbSymbolTable
 70
    12
100
AcDbDimStyleTable
 71
     2
340
223
340
225
  0
DIMSTYLE
105
223
330
A
100
AcDbSymbolTableRecord
100
AcDbDimStyleTableRecord
  2
STANDARD
 70
     0
 41
3.5
 47
0.005
 48
0.005
 71
     1
 73
     0
 74
     0
 77
     1
 78
     8
140
3.5
178
     5
271
     3
272
     3
284
     8
340
11
341
21D
342
21D
343
21D
344
21D
  0
DIMSTYLE
105
224
330
A
100
AcDbSymbolTableRecord
100
AcDbDimStyleTableRecord
  2
DIMSTYLE_1
 70
     0
 41
3.5
 47
0.5
 48
0.5
 73
     0
 74
     0
 77
     1
 78
     8
140
3.5
178
     5
271
     0
272
     0
284
     8
340
11
341
21D
342
21D
343
21D
344
21D
  0
DIMSTYLE
105
225
102
{ACAD_REACTORS
330
25C
330
25B
330
25E
330
25F
330
25D
102
}
330
A
100
AcDbSymbolTableRecord
100
AcDbDimStyleTableRecord
  2
DIMSTYLE_2
 70
     0
 41
3.5
 47
0.3
 48
0.3
 73
     0
 74
     0
 77
     1
 78
     8
140
3.5
178
     5
271
     0
272
     0
284
     8
340
11
341
21D
342
21D
343
21D
344
21D
  0
DIMSTYLE
105
226
330
A
100
AcDbSymbolTableRecord
100
AcDbDimStyleTableRecord
  2
DIMSTYLE_3
 70
     0
 41
3.5
 47
0.5
 48
0.5
 73
     0
 74
     0
 77
     1
 78
     8
140
3.5
178
     5
271
     3
272
     3
284
     8
340
11
341
21D
342
21D
343
21D
344
21D
  0
DIMSTYLE
105
58E
102
{ACAD_REACTORS
330
57D
102
}
330
A
100
AcDbSymbolTableRecord
100
AcDbDimStyleTableRecord
  2
AM_DIN
 70
     0
  4
"
 41
3.5
 42
1.0
 43
10.0
 44
1.0
 47
0.1
 48
0.1
 73
     0
 74
     0
 77
     1
 78
     8
 79
     2
140
3.5
141
0.0
143
0.0393701
146
0.71
147
1.5
172
     1
176
   256
177
   256
178
     2
271
     2
272
     3
274
     4
283
     0
284
     8
340
11
371
    -1
372
    -1
1001
ACAD_DSTYLE_DIMJAG
1070
   388
1040
1.5
1001
ACAD_DSTYLE_DIMBREAK
1070
   391
1040
3.75
1001
ACAD_DSTYLE_DIMJOGGED_JOGANGLE_SYMBOL
1070
   384
1040
1.570796326794896
1001
ACAD_DSTYLE_DIM_LINETYPE
1070
   380
1005
14
1001
ACAD_DSTYLE_DIM_EXT1_LINETYPE
1070
   381
1005
14
1001
ACAD_DSTYLE_DIM_EXT2_LINETYPE
1070
   382
1005
14
  0
DIMSTYLE
105
5A0
330
A
100
AcDbSymbolTableRecord
100
AcDbDimStyleTableRecord
  2
AM_DIN$3
 70
     0
  4
"
 41
3.5
 42
1.0
 43
10.0
 44
1.0
 47
0.1
 48
0.1
 73
     0
 77
     1
 78
     8
 79
     2
140
3.5
141
0.0
143
0.0393701
146
0.71
147
1.5
176
   256
177
   256
178
     2
271
     2
272
     3
274
     4
283
     0
284
     8
288
     1
289
     0
340
11
371
    -1
372
    -1
1001
ACAD_DSTYLE_DIMBREAK
1070
   391
1040
3.75
1001
ACAD_DSTYLE_DIMJAG
1070
   388
1040
1.5
1001
ACAD_DSTYLE_DIMJOGGED_JOGANGLE_SYMBOL
1070
   384
1040
1.570796326794896
1001
ACAD_DSTYLE_DIM_LINETYPE
1070
   380
1005
14
1001
ACAD_DSTYLE_DIM_EXT1_LINETYPE
1070
   381
1005
14
1001
ACAD_DSTYLE_DIM_EXT2_LINETYPE
1070
   382
1005
14
  0
DIMSTYLE
105
5A1
330
A
100
AcDbSymbolTableRecord
100
AcDbDimStyleTableRecord
  2
AM_DIN$4
 70
     0
  4
"
 41
3.5
 42
1.0
 43
10.0
 44
1.0
 47
0.1
 48
0.1
 73
     0
 77
     1
 78
     8
 79
     2
140
3.5
141
0.0
143
0.0393701
146
0.71
147
1.5
176
   256
177
   256
178
     2
271
     2
272
     3
274
     4
283
     0
284
     8
288
     1
289
     0
340
11
371
    -1
372
    -1
1001
ACAD_DSTYLE_DIMBREAK
1070
   391
1040
3.75
1001
ACAD_DSTYLE_DIMJAG
1070
   388
1040
1.5
1001
ACAD_DSTYLE_DIMJOGGED_JOGANGLE_SYMBOL
1070
   384
1040
1.570796326794896
1001
ACAD_DSTYLE_DIM_LINETYPE
1070
   380
1005
14
1001
ACAD_DSTYLE_DIM_EXT1_LINETYPE
1070
   381
1005
14
1001
ACAD_DSTYLE_DIM_EXT2_LINETYPE
1070
   382
1005
14
  0
DIMSTYLE
105
5A2
330
A
100
AcDbSymbolTableRecord
100
AcDbDimStyleTableRecord
  2
AM_DIN$6
 70
     0
  4
"
 41
3.5
 42
1.0
 43
10.0
 44
1.0
 47
0.1
 48
0.1
 73
     0
 74
     0
 78
     8
 79
     2
140
3.5
141
0.0
143
0.0393701
146
0.71
147
1.5
172
     1
176
   256
177
   256
178
     2
271
     2
272
     3
274
     4
283
     0
284
     8
340
11
371
    -1
372
    -1
1001
ACAD_DSTYLE_DIMBREAK
1070
   391
1040
3.75
1001
ACAD_DSTYLE_DIMJAG
1070
   388
1040
1.5
1001
ACAD_DSTYLE_DIMJOGGED_JOGANGLE_SYMBOL
1070
   384
1040
1.570796326794896
1001
ACAD_DSTYLE_DIM_LINETYPE
1070
   380
1005
14
1001
ACAD_DSTYLE_DIM_EXT1_LINETYPE
1070
   381
1005
14
1001
ACAD_DSTYLE_DIM_EXT2_LINETYPE
1070
   382
1005
14
  0
DIMSTYLE
105
5A3
330
A
100
AcDbSymbolTableRecord
100
AcDbDimStyleTableRecord
  2
AM_DIN$7
 70
     0
  4
"
 41
3.5
 42
1.0
 43
10.0
 44
1.0
 47
0.1
 48
0.1
 73
     0
 74
     0
 77
     1
 78
     8
 79
     2
140
3.5
141
0.0
143
0.0393701
146
0.71
147
1.5
172
     1
176
   256
177
   256
178
     2
271
     2
272
     3
274
     4
283
     0
284
     8
340
11
371
    -1
372
    -1
1001
ACAD_DSTYLE_DIMBREAK
1070
   391
1040
3.75
1001
ACAD_DSTYLE_DIMJAG
1070
   388
1040
1.5
1001
ACAD_DSTYLE_DIMJOGGED_JOGANGLE_SYMBOL
1070
   384
1040
1.570796326794896
1001
ACAD_DSTYLE_DIM_LINETYPE
1070
   380
1005
14
1001
ACAD_DSTYLE_DIM_EXT1_LINETYPE
1070
   381
1005
14
1001
ACAD_DSTYLE_DIM_EXT2_LINETYPE
1070
   382
1005
14
  0
DIMSTYLE
105
5A4
330
A
100
AcDbSymbolTableRecord
100
AcDbDimStyleTableRecord
  2
AM_DIN$SF
 70
     0
  4
"
 41
3.5
 42
1.0
 43
10.0
 44
1.0
 47
0.1
 48
0.1
 73
     0
 74
     0
 75
     1
 76
     1
 77
     1
 78
     8
 79
     2
140
3.5
141
0.0
143
0.0393701
146
0.71
147
1.5
172
     1
176
   256
177
   256
178
     2
271
     2
272
     3
274
     4
283
     0
284
     8
340
11
371
    -1
372
    -1
1001
ACAD_DSTYLE_DIMBREAK
1070
   391
1040
3.75
1001
ACAD_DSTYLE_DIMJAG
1070
   388
1040
1.5
1001
ACAD_DSTYLE_DIMJOGGED_JOGANGLE_SYMBOL
1070
   384
1040
1.570796326794896
1001
ACAD_DSTYLE_DIM_LINETYPE
1070
   380
1005
14
1001
ACAD_DSTYLE_DIM_EXT1_LINETYPE
1070
   381
1005
14
1001
ACAD_DSTYLE_DIM_EXT2_LINETYPE
1070
   382
1005
14
  0
DIMSTYLE
105
5A9
330
A
100
AcDbSymbolTableRecord
100
AcDbDimStyleTableRecord
  2
AM_DIN$SH
 70
     0
  4
"
 41
3.5
 42
1.0
 43
10.0
 44
1.0
 47
0.1
 48
0.1
 73
     0
 74
     0
 75
     1
 76
     1
 77
     1
 78
     8
 79
     2
140
3.5
141
0.0
143
0.0393701
144
2.0
146
0.71
147
1.5
172
     1
173
     1
176
   256
177
   256
178
     2
271
     2
272
     3
274
     4
283
     0
284
     8
340
11
343
5A5
371
    -1
372
    -1
1001
ACAD_DSTYLE_DIMBREAK
1070
   391
1040
3.75
1001
ACAD_DSTYLE_DIMJAG
1070
   388
1040
1.5
1001
ACAD_DSTYLE_DIMJOGGED_JOGANGLE_SYMBOL
1070
   384
1040
1.570796326794896
1001
ACAD_DSTYLE_DIM_LINETYPE
1070
   380
1005
14
1001
ACAD_DSTYLE_DIM_EXT1_LINETYPE
1070
   381
1005
14
1001
ACAD_DSTYLE_DIM_EXT2_LINETYPE
1070
   382
1005
14
  0
ENDTAB
  0
TABLE
  2
BLOCK_RECORD
  5
1
330
0
100
AcDbSymbolTable
 70
    15
  0
BLOCK_RECORD
  5
21B
330
1
100
AcDbSymbolTableRecord
100
AcDbBlockTableRecord
  2
*Model_Space
340
4D1
  0
BLOCK_RECORD
  5
21C
330
1
100
AcDbSymbolTableRecord
100
AcDbBlockTableRecord
  2
*Paper_Space
340
4D2
  0
BLOCK_RECORD
  5
21D
330
1
100
AcDbSymbolTableRecord
100
AcDbBlockTableRecord
  2
_FILLED
340
0
102
{BLKREFS
331
5D0
331
5D1
331
5E6
331
5E7
331
5F0
331
5F1
331
5FC
331
5FD
331
612
331
613
331
628
331
629
331
632
331
633
331
64C
331
64D
331
655
331
656
331
65E
331
65F
102
}
  0
BLOCK_RECORD
  5
21E
330
1
100
AcDbSymbolTableRecord
100
AcDbBlockTableRecord
  2
*D1
340
0
  0
BLOCK_RECORD
  5
21F
330
1
100
AcDbSymbolTableRecord
100
AcDbBlockTableRecord
  2
*D2
340
0
  0
BLOCK_RECORD
  5
220
330
1
100
AcDbSymbolTableRecord
100
AcDbBlockTableRecord
  2
*D3
340
0
  0
BLOCK_RECORD
  5
221
330
1
100
AcDbSymbolTableRecord
100
AcDbBlockTableRecord
  2
*D4
340
0
  0
BLOCK_RECORD
  5
222
330
1
100
AcDbSymbolTableRecord
100
AcDbBlockTableRecord
  2
*D5
340
0
  0
BLOCK_RECORD
  5
5A5
330
1
100
AcDbSymbolTableRecord
100
AcDbBlockTableRecord
  2
GENAXEH
340
0
  0
ENDTAB
  0
ENDSEC
  0
SECTION
  2
BLOCKS
  0
BLOCK
  5
20
330
21B
100
AcDbEntity
  8
0
100
AcDbBlockBegin
  2
*Model_Space
 70
     0
 10
0.0
 20
0.0
 30
0.0
  3
*Model_Space
  1

  0
ENDBLK
  5
21
330
21B
100
AcDbEntity
  8
0
100
AcDbBlockEnd
  0
BLOCK
  5
1C
330
21C
100
AcDbEntity
 67
     1
  8
0
100
AcDbBlockBegin
  2
*Paper_Space
 70
     0
 10
0.0
 20
0.0
 30
0.0
  3
*Paper_Space
  1

  0
ENDBLK
  5
1D
330
21C
100
AcDbEntity
 67
     1
  8
0
100
AcDbBlockEnd
  0
BLOCK
  5
227
330
21D
100
AcDbEntity
  8
0
100
AcDbBlockBegin
  2
_FILLED
 70
     0
 10
0.0
 20
0.0
 30
0.0
  3
_FILLED
  1

  0
SOLID
  5
228
330
21D
100
AcDbEntity
  8
0
  6
ByBlock
 62
     0
100
AcDbTrace
 10
0.0
 20
0.0
 30
0.0
 11
-1.0
 21
0.125
 31
0.0
 12
-1.0
 22
-0.125
 32
0.0
 13
-1.0
 23
-0.125
 33
0.0
  0
ENDBLK
  5
229
330
21D
100
AcDbEntity
  8
0
  6
ByBlock
 62
     0
100
AcDbBlockEnd
  0
BLOCK
  5
22A
330
21E
100
AcDbEntity
  8
ZEICHNUNGSBEMASSUNGEN
  6
Continuous
 62
     2
100
AcDbBlockBegin
  2
*D1
 70
     1
 10
0.0
 20
0.0
 30
0.0
  3
*D1
  1

  0
LINE
  5
5ED
330
21E
100
AcDbEntity
  8
ZEICHNUNGSBEMASSUNGEN
  6
Continuous
 62
     0
370
    -2
100
AcDbLine
 10
623.0083988596
 20
370.3539225632
 30
0.0
 11
623.0083988596
 21
419.5012158445999
 31
0.0
  0
LINE
  5
5EE
330
21E
100
AcDbEntity
  8
ZEICHNUNGSBEMASSUNGEN
  6
Continuous
 62
     0
370
    -2
100
AcDbLine
 10
468.4906402486999
 20
370.3539225632
 30
0.0
 11
468.4906402486999
 21
419.5012158445999
 31
0.0
  0
LINE
  5
5EF
330
21E
100
AcDbEntity
  8
ZEICHNUNGSBEMASSUNGEN
  6
Continuous
 62
     0
370
    -2
100
AcDbLine
 10
618.0083988596
 20
419.3212158446
 30
0.0
 11
473.4906402486999
 21
419.3212158446
 31
0.0
  0
INSERT
  5
5F0
330
21E
100
AcDbEntity
  8
ZEICHNUNGSBEMASSUNGEN
  6
Continuous
 62
     0
370
    -2
100
AcDbBlockReference
  2
_FILLED
 10
623.0083988596
 20
419.3212158446
 30
0.0
 41
5.0
 42
5.0
 43
5.0
  0
INSERT
  5
5F1
330
21E
100
AcDbEntity
  8
ZEICHNUNGSBEMASSUNGEN
  6
Continuous
 62
     0
370
    -2
100
AcDbBlockReference
  2
_FILLED
 10
468.4906402486999
 20
419.3212158446
 30
0.0
 41
5.0
 42
5.0
 43
5.0
 50
180.0
  0
MTEXT
  5
5F2
330
21E
100
AcDbEntity
  8
ZEICHNUNGSBEMASSUNGEN
  6
Continuous
100
AcDbMText
 10
542.8328528875
 20
427.8212158446
 30
0.0
 40
7.0
 41
0.0
 71
     2
 72
     1
  1
\A1;%%c155
 73
     1
 44
1.0
1001
ACAD
1000
MTEXTBEGIN
1070
    73
1070
     1
1070
    44
1040
1.0
1070
    74
1070
     0
1000
MTEXTEND
  0
POINT
  5
5F3
330
21E
100
AcDbEntity
  8
Defpoints
  6
Continuous
 62
     0
100
AcDbPoint
 10
623.0083988596
 20
370.2914225632
 30
0.0
  0
POINT
  5
5F4
330
21E
100
AcDbEntity
  8
Defpoints
  6
Continuous
 62
     0
100
AcDbPoint
 10
468.4906402486999
 20
370.2914225632
 30
0.0
  0
POINT
  5
5F5
330
21E
100
AcDbEntity
  8
Defpoints
  6
Continuous
 62
     0
100
AcDbPoint
 10
468.4906402486999
 20
419.3212158446
 30
0.0
  0
ENDBLK
  5
234
330
21E
100
AcDbEntity
  8
0
  6
ByBlock
 62
     0
100
AcDbBlockEnd
  0
BLOCK
  5
235
330
21F
100
AcDbEntity
  8
ZEICHNUNGSBEMASSUNGEN
  6
Continuous
 62
     2
100
AcDbBlockBegin
  2
*D2
 70
     1
 10
0.0
 20
0.0
 30
0.0
  3
*D2
  1

  0
LINE
  5
649
330
21F
100
AcDbEntity
  8
ZEICHNUNGSBEMASSUNGEN
  6
Continuous
 62
     0
370
    -2
100
AcDbLine
 10
395.7495195541
 20
375.2933213183
 30
0.0
 11
395.7495195541
 21
430.3542591946938
 31
0.0
  0
LINE
  5
64A
330
21F
100
AcDbEntity
  8
ZEICHNUNGSBEMASSUNGEN
  6
Continuous
 62
     0
370
    -2
100
AcDbLine
 10
695.7495195541
 20
375.2933213183
 30
0.0
 11
695.7495195541
 21
430.3542591946938
 31
0.0
  0
LINE
  5
64B
330
21F
100
AcDbEntity
  8
ZEICHNUNGSBEMASSUNGEN
  6
Continuous
 62
     0
370
    -2
100
AcDbLine
 10
400.7495195541
 20
430.1742591946938
 30
0.0
 11
690.7495195541001
 21
430.1742591946938
 31
0.0
  0
INSERT
  5
64C
330
21F
100
AcDbEntity
  8
ZEICHNUNGSBEMASSUNGEN
  6
Continuous
 62
     0
370
    -2
100
AcDbBlockReference
  2
_FILLED
 10
395.7495195541
 20
430.1742591946938
 30
0.0
 41
5.0
 42
5.0
 43
5.0
 50
180.0
  0
INSERT
  5
64D
330
21F
100
AcDbEntity
  8
ZEICHNUNGSBEMASSUNGEN
  6
Continuous
 62
     0
370
    -2
100
AcDbBlockReference
  2
_FILLED
 10
695.7495195541
 20
430.1742591946938
 30
0.0
 41
5.0
 42
5.0
 43
5.0
  0
MTEXT
  5
64E
330
21F
100
AcDbEntity
  8
ZEICHNUNGSBEMASSUNGEN
  6
Continuous
100
AcDbMText
 10
542.9862503586232
 20
438.6742591946938
 30
0.0
 40
7.0
 41
0.0
 71
     2
 72
     1
  1
\A1;%%c300
 73
     1
 44
1.0
1001
ACAD
1000
MTEXTBEGIN
1070
    73
1070
     1
1070
    44
1040
1.0
1070
    74
1070
     0
1000
MTEXTEND
  0
POINT
  5
64F
330
21F
100
AcDbEntity
  8
Defpoints
  6
Continuous
 62
     0
100
AcDbPoint
 10
395.7495195541
 20
375.2308213183
 30
0.0
  0
POINT
  5
650
330
21F
100
AcDbEntity
  8
Defpoints
  6
Continuous
 62
     0
100
AcDbPoint
 10
695.7495195541
 20
375.2308213183
 30
0.0
  0
POINT
  5
651
330
21F
100
AcDbEntity
  8
Defpoints
  6
Continuous
 62
     0
100
AcDbPoint
 10
695.7495195541
 20
430.1742591946938
 30
0.0
  0
ENDBLK
  5
23D
330
21F
100
AcDbEntity
  8
0
  6
ByBlock
 62
     0
100
AcDbBlockEnd
  0
BLOCK
  5
23E
330
220
100
AcDbEntity
  8
ZEICHNUNGSBEMASSUNGEN
  6
Continuous
 62
     2
100
AcDbBlockBegin
  2
*D3
 70
     1
 10
0.0
 20
0.0
 30
0.0
  3
*D3
  1

  0
LINE
  5
62F
330
220
100
AcDbEntity
  8
ZEICHNUNGSBEMASSUNGEN
  6
Continuous
 62
     0
370
    -2
100
AcDbLine
 10
508.6870195522
 20
230.1962158446
 30
0.0
 11
384.6247956146001
 21
230.1962158446
 31
0.0
  0
LINE
  5
630
330
220
100
AcDbEntity
  8
ZEICHNUNGSBEMASSUNGEN
  6
Continuous
 62
     0
370
    -2
100
AcDbLine
 10
421.6870195541
 20
377.0971869843
 30
0.0
 11
384.6247956146001
 21
377.0971869843
 31
0.0
  0
LINE
  5
631
330
220
100
AcDbEntity
  8
ZEICHNUNGSBEMASSUNGEN
  6
Continuous
 62
     0
370
    -2
100
AcDbLine
 10
384.8047956146
 20
235.1962158446
 30
0.0
 11
384.8047956146
 21
372.0971869843
 31
0.0
  0
INSERT
  5
632
330
220
100
AcDbEntity
  8
ZEICHNUNGSBEMASSUNGEN
  6
Continuous
 62
     0
370
    -2
100
AcDbBlockReference
  2
_FILLED
 10
384.8047956146
 20
230.1962158446
 30
0.0
 41
5.0
 42
5.0
 43
5.0
 50
270.0
  0
INSERT
  5
633
330
220
100
AcDbEntity
  8
ZEICHNUNGSBEMASSUNGEN
  6
Continuous
 62
     0
370
    -2
100
AcDbBlockReference
  2
_FILLED
 10
384.8047956146
 20
377.0971869843
 30
0.0
 41
5.0
 42
5.0
 43
5.0
 50
90.0
  0
MTEXT
  5
634
330
220
100
AcDbEntity
  8
ZEICHNUNGSBEMASSUNGEN
  6
Continuous
100
AcDbMText
 10
376.3047956146
 20
300.2942139259
 30
0.0
 40
7.0
 41
0.0
 71
     2
 72
     1
  1
\A1;147
 11
0.0000000000000001
 21
1.0
 31
0.0
 73
     1
 44
1.0
1001
ACAD
1000
MTEXTBEGIN
1070
    73
1070
     1
1070
    44
1040
1.0
1070
    74
1070
     0
1000
MTEXTEND
  0
POINT
  5
635
330
220
100
AcDbEntity
  8
Defpoints
  6
Continuous
 62
     0
100
AcDbPoint
 10
508.7495195522
 20
230.1962158446
 30
0.0
  0
POINT
  5
636
330
220
100
AcDbEntity
  8
Defpoints
  6
Continuous
 62
     0
100
AcDbPoint
 10
421.7495195541
 20
377.0971869843
 30
0.0
  0
POINT
  5
637
330
220
100
AcDbEntity
  8
Defpoints
  6
Continuous
 62
     0
100
AcDbPoint
 10
384.8047956146
 20
377.0971869843
 30
0.0
  0
ENDBLK
  5
246
330
220
100
AcDbEntity
  8
0
  6
ByBlock
 62
     0
100
AcDbBlockEnd
  0
BLOCK
  5
247
330
221
100
AcDbEntity
  8
ZEICHNUNGSBEMASSUNGEN
  6
Continuous
 62
     2
100
AcDbBlockBegin
  2
*D4
 70
     1
 10
0.0
 20
0.0
 30
0.0
  3
*D4
  1

  0
LINE
  5
65B
330
221
100
AcDbEntity
  8
ZEICHNUNGSBEMASSUNGEN
  6
Continuous
 62
     0
370
    -2
100
AcDbLine
 10
685.3120195541
 20
269.1962158446
 30
0.0
 11
706.928514677945
 21
269.1962158446
 31
0.0
  0
LINE
  5
65C
330
221
100
AcDbEntity
  8
ZEICHNUNGSBEMASSUNGEN
  6
Continuous
 62
     0
370
    -2
100
AcDbLine
 10
669.8120195541
 20
377.0971869843
 30
0.0
 11
706.928514677945
 21
377.0971869843
 31
0.0
  0
LINE
  5
65D
330
221
100
AcDbEntity
  8
ZEICHNUNGSBEMASSUNGEN
  6
Continuous
 62
     0
370
    -2
100
AcDbLine
 10
706.7485146779451
 20
274.1962158446
 30
0.0
 11
706.7485146779451
 21
372.0971869843
 31
0.0
  0
INSERT
  5
65E
330
221
100
AcDbEntity
  8
ZEICHNUNGSBEMASSUNGEN
  6
Continuous
 62
     0
370
    -2
100
AcDbBlockReference
  2
_FILLED
 10
706.7485146779451
 20
269.1962158446
 30
0.0
 41
5.0
 42
5.0
 43
5.0
 50
270.0
  0
INSERT
  5
65F
330
221
100
AcDbEntity
  8
ZEICHNUNGSBEMASSUNGEN
  6
Continuous
 62
     0
370
    -2
100
AcDbBlockReference
  2
_FILLED
 10
706.7485146779451
 20
377.0971869843
 30
0.0
 41
5.0
 42
5.0
 43
5.0
 50
90.0
  0
MTEXT
  5
660
330
221
100
AcDbEntity
  8
ZEICHNUNGSBEMASSUNGEN
  6
Continuous
100
AcDbMText
 10
698.2485146779449
 20
319.7359748753477
 30
0.0
 40
7.0
 41
0.0
 71
     2
 72
     1
  1
\A1;108
 11
0.0000000000000001
 21
1.0
 31
0.0
 73
     1
 44
1.0
1001
ACAD
1000
MTEXTBEGIN
1070
    73
1070
     1
1070
    44
1040
1.0
1070
    74
1070
     0
1000
MTEXTEND
  0
POINT
  5
661
330
221
100
AcDbEntity
  8
Defpoints
  6
Continuous
 62
     0
100
AcDbPoint
 10
685.2495195541
 20
269.1962158446
 30
0.0
  0
POINT
  5
662
330
221
100
AcDbEntity
  8
Defpoints
  6
Continuous
 62
     0
100
AcDbPoint
 10
669.7495195541001
 20
377.0971869843
 30
0.0
  0
POINT
  5
663
330
221
100
AcDbEntity
  8
Defpoints
  6
Continuous
 62
     0
100
AcDbPoint
 10
706.7485146779451
 20
377.0971869843
 30
0.0
  0
ENDBLK
  5
24F
330
221
100
AcDbEntity
  8
0
  6
ByBlock
 62
     0
100
AcDbBlockEnd
  0
BLOCK
  5
250
330
222
100
AcDbEntity
  8
ZEICHNUNGSBEMASSUNGEN
  6
Continuous
 62
     2
100
AcDbBlockBegin
  2
*D5
 70
     1
 10
0.0
 20
0.0
 30
0.0
  3
*D5
  1

  0
LINE
  5
652
330
222
100
AcDbEntity
  8
ZEICHNUNGSBEMASSUNGEN
  6
Continuous
 62
     0
370
    -2
100
AcDbLine
 10
545.7495195541
 20
225.5137110444
 30
0.0
 11
545.7495195541
 21
217.8152299761655
 31
0.0
  0
LINE
  5
653
330
222
100
AcDbEntity
  8
ZEICHNUNGSBEMASSUNGEN
  6
Continuous
 62
     0
370
    -2
100
AcDbLine
 10
680.7495195541
 20
228.6337158446
 30
0.0
 11
680.7495195541
 21
217.8152299761655
 31
0.0
  0
LINE
  5
654
330
222
100
AcDbEntity
  8
ZEICHNUNGSBEMASSUNGEN
  6
Continuous
 62
     0
370
    -2
100
AcDbLine
 10
550.7495195541
 20
217.9952299761656
 30
0.0
 11
675.7495195541
 21
217.9952299761656
 31
0.0
  0
INSERT
  5
655
330
222
100
AcDbEntity
  8
ZEICHNUNGSBEMASSUNGEN
  6
Continuous
 62
     0
370
    -2
100
AcDbBlockReference
  2
_FILLED
 10
545.7495195541
 20
217.9952299761656
 30
0.0
 41
5.0
 42
5.0
 43
5.0
 50
180.0
  0
INSERT
  5
656
330
222
100
AcDbEntity
  8
ZEICHNUNGSBEMASSUNGEN
  6
Continuous
 62
     0
370
    -2
100
AcDbBlockReference
  2
_FILLED
 10
680.7495195541
 20
217.9952299761656
 30
0.0
 41
5.0
 42
5.0
 43
5.0
  0
MTEXT
  5
657
330
222
100
AcDbEntity
  8
ZEICHNUNGSBEMASSUNGEN
  6
Continuous
100
AcDbMText
 10
610.6341324842274
 20
226.4952299761656
 30
0.0
 40
7.0
 41
0.0
 71
     2
 72
     1
  1
\A1;135
 73
     1
 44
1.0
1001
ACAD
1000
MTEXTBEGIN
1070
    73
1070
     1
1070
    44
1040
1.0
1070
    74
1070
     0
1000
MTEXTEND
  0
POINT
  5
658
330
222
100
AcDbEntity
  8
Defpoints
  6
Continuous
 62
     0
100
AcDbPoint
 10
545.7495195541
 20
225.5762110444
 30
0.0
  0
POINT
  5
659
330
222
100
AcDbEntity
  8
Defpoints
  6
Continuous
 62
     0
100
AcDbPoint
 10
680.7495195541
 20
228.6962158446
 30
0.0
  0
POINT
  5
65A
330
222
100
AcDbEntity
  8
Defpoints
  6
Continuous
 62
     0
100
AcDbPoint
 10
680.7495195541
 20
217.9952299761656
 30
0.0
  0
ENDBLK
  5
258
330
222
100
AcDbEntity
  8
0
  6
ByBlock
 62
     0
100
AcDbBlockEnd
  0
BLOCK
  5
5A7
330
5A5
100
AcDbEntity
  8
0
100
AcDbBlockBegin
  2
GENAXEH
 70
     0
 10
0.0
 20
0.0
 30
0.0
  3
GENAXEH
  1

  0
LINE
  5
5A6
330
5A5
100
AcDbEntity
  8
0
100
AcDbLine
 10
-1.0
 20
0.0
 30
0.0
 11
1.0
 21
0.0
 31
0.0
  0
ENDBLK
  5
5A8
330
5A5
100
AcDbEntity
  8
0
100
AcDbBlockEnd
  0
ENDSEC
  0
SECTION
  2
ENTITIES
  0
HATCH
  5
259
330
21B
100
AcDbEntity
  8
0
  6
Continuous
 62
     1
100
AcDbHatch
 10
0.0
 20
0.0
 30
0.0
210
0.0
220
0.0
230
1.0
  2
DEFAULT__1
 70
     0
 71
     0
 91
        2
 92
        1
 93
       14
 72
     1
 10
683.7744515352999
 20
383.4962158446
 11
622.7495195541
 21
383.4962158446
 72
     1
 10
683.7744515352999
 20
383.4962158446
 11
683.3863159412999
 21
379.0598057045
 72
     4
 94
        3
 73
     1
 74
     0
 95
        8
 96
        4
 40
0.0
 40
0.0
 40
0.0
 40
0.0
 40
1.0
 40
1.0
 40
1.0
 40
1.0
 10
683.3863159412999
 20
379.0598057045
 42
1.0
 10
683.2425251992999
 20
377.4162700032001
 42
0.8228816729999998
 10
682.0213031613999
 20
376.3069900054
 42
0.8228816729999998
 10
680.3715522405
 20
376.3213871636
 42
1.0
 72
     1
 10
676.7563398699
 20
376.352936644
 11
680.3715522405
 21
376.3213871636
 72
     1
 10
676.7563398699
 20
376.352936644
 11
668.2495195541
 21
377.0971869843
 72
     1
 10
661.2858575039
 20
376.4879454983
 11
668.2495195541
 21
377.0971869843
 72
     1
 10
656.2853750089
 20
376.5315840479
 11
661.2858575039
 21
376.4879454983
 72
     1
 10
656.2853750089
 20
376.5315840479
 11
653.2495195541001
 21
376.7971869843
 72
     1
 10
650.7643757947
 20
376.5797650781
 11
653.2495195541001
 21
376.7971869843
 72
     1
 10
639.6233634251999
 20
376.6769912201
 11
650.7643757947
 21
376.5797650781
 72
     1
 10
639.6233634251999
 20
376.6769912201
 11
638.2495195541
 21
376.7971869843
 72
     1
 10
637.1248943624999
 20
376.6987950293
 11
638.2495195541
 21
376.7971869843
 72
     1
 10
623.2131942648
 20
376.8202005968
 11
637.1248943624999
 21
376.6987950293
 72
     1
 10
622.7495195541
 20
383.4962158446
 11
623.2131942648
 21
376.8202005968
 97
        0
 92
        1
 93
       14
 72
     1
 10
468.7495195541
 20
383.4962158446
 11
407.724587573
 21
383.4962158446
 72
     1
 10
468.7495195541
 20
383.4962158446
 11
468.2858448433999
 21
376.8202005968
 72
     1
 10
468.2858448433999
 20
376.8202005968
 11
454.3741447458
 21
376.6987950293
 72
     1
 10
454.3741447458
 20
376.6987950293
 11
453.2495195541001
 21
376.7971869843
 72
     1
 10
451.875675683
 20
376.6769912201
 11
453.2495195541001
 21
376.7971869843
 72
     1
 10
451.875675683
 20
376.6769912201
 11
440.7346633134999
 21
376.5797650781
 72
     1
 10
440.7346633134999
 20
376.5797650781
 11
438.2495195541
 21
376.7971869843
 72
     1
 10
435.2136640994
 20
376.5315840479
 11
438.2495195541
 21
376.7971869843
 72
     1
 10
435.2136640994
 20
376.5315840479
 11
430.2131816043
 21
376.4879454983
 72
     1
 10
430.2131816043
 20
376.4879454983
 11
423.2495195541
 21
377.0971869843
 72
     1
 10
414.7426992383
 20
376.352936644
 11
423.2495195541
 21
377.0971869843
 72
     1
 10
414.7426992383
 20
376.352936644
 11
411.1274868676999
 21
376.3213871636
 72
     4
 94
        3
 73
     1
 74
     0
 95
        8
 96
        4
 40
0.0
 40
0.0
 40
0.0
 40
0.0
 40
1.0
 40
1.0
 40
1.0
 40
1.0
 10
408.112723167
 20
379.0598057045
 42
1.0
 10
408.2565139089
 20
377.4162700032001
 42
0.8228816729999998
 10
409.4777359467999
 20
376.3069900054
 42
0.8228816729999998
 10
411.1274868676999
 20
376.3213871636
 42
1.0
 72
     1
 10
407.724587573
 20
383.4962158446
 11
408.112723167
 21
379.0598057045
 97
        0
 75
     0
 76
     0
 52
135.0
 41
2.984846368799999
 77
     0
 78
     1
 53
135.0
 43
0.0
 44
0.0
 45
-2.1106051082
 46
-2.1106051082
 79
     0
 98
        1
 10
0.0
 20
0.0
  0
HATCH
  5
25A
330
21B
100
AcDbEntity
  8
0
  6
Continuous
 62
     1
100
AcDbHatch
 10
0.0
 20
0.0
 30
0.0
210
0.0
220
0.0
230
1.0
  2
DEFAULT__2
 70
     0
 71
     0
 91
        2
 92
        1
 93
       54
 72
     1
 10
510.2495195541
 20
230.1962158446
 11
565.7495195541001
 21
230.1962158446
 72
     4
 94
        3
 73
     1
 74
     0
 95
        8
 96
        4
 40
0.0
 40
0.0
 40
0.0
 40
0.0
 40
1.0
 40
1.0
 40
1.0
 40
1.0
 10
510.2495195541
 20
230.1962158446
 42
1.0
 10
504.3916551777999
 20
230.1962158446
 42
0.8047378541
 10
500.2495195541
 20
234.3383514683
 42
0.8047378541
 10
500.2495195541
 20
240.1962158446
 42
1.0
 72
     1
 10
500.2495195541
 20
240.1962158446
 11
500.2495195541
 21
263.7338761018
 72
     4
 94
        3
 73
     1
 74
     0
 95
        8
 96
        4
 40
0.0
 40
0.0
 40
0.0
 40
0.0
 40
1.0
 40
1.0
 40
1.0
 40
1.0
 10
497.4065274227999
 20
266.7297647061
 42
1.0
 10
499.0894691244
 20
266.6415654688
 42
0.8169162473
 10
500.2495195541
 20
265.4191273817
 42
0.8169162473
 10
500.2495195541
 20
263.7338761018
 42
1.0
 72
     1
 10
492.5318859753
 20
266.9852338391
 11
497.4065274227999
 21
266.7297647061
 72
     4
 94
        3
 73
     1
 74
     0
 95
        8
 96
        4
 40
0.0
 40
0.0
 40
0.0
 40
0.0
 40
1.0
 40
1.0
 40
1.0
 40
1.0
 10
489.981137991
 20
268.689589153
 42
1.0
 10
490.4669029808999
 20
267.6711616726
 42
0.906270941
 10
491.4050874572
 20
267.0442868472
 42
0.906270941
 10
492.5318859753
 20
266.9852338391
 42
1.0
 72
     1
 10
476.6772060569
 20
296.5818624921
 11
489.981137991
 21
268.689589153
 72
     4
 94
        3
 73
     1
 74
     0
 95
        8
 96
        4
 40
0.0
 40
0.0
 40
0.0
 40
0.0
 40
1.0
 40
1.0
 40
1.0
 40
1.0
 10
476.6772060569
 20
296.5818624921
 42
1.0
 10
476.3808323642999
 20
297.2032228603
 42
0.986030315
 10
476.2172039558999
 20
297.8719169732
 42
0.986030315
 10
476.1931783435
 20
298.5599204926
 42
1.0
 72
     1
 10
474.8067339527
 20
338.2624932316
 11
476.1931783435
 21
298.5599204926
 72
     4
 94
        3
 73
     1
 74
     0
 95
        8
 96
        4
 40
0.0
 40
0.0
 40
0.0
 40
0.0
 40
1.0
 40
1.0
 40
1.0
 40
1.0
 10
474.8067338782
 20
338.2624977099
 42
1.0
 10
474.782091188
 20
338.968172421
 42
0.9853168045999998
 10
474.6107020508
 20
339.6531613433
 42
0.9853168045999998
 10
474.3001160872
 20
340.2872909983
 42
1.0
 72
     1
 10
474.3001159341
 20
340.2872910556
 11
474.1614418719
 21
340.570424407
 72
     4
 94
        3
 73
     1
 74
     0
 95
        8
 96
        4
 40
0.0
 40
0.0
 40
0.0
 40
0.0
 40
1.0
 40
1.0
 40
1.0
 40
1.0
 10
474.1614420318
 20
340.5704244844
 42
1.0
 10
473.8508552391
 20
341.2045544368
 42
0.9853167787
 10
473.6794654807
 20
341.8895438551
 42
0.9853167787
 10
473.6548224176
 20
342.5952191855
 42
1.0
 72
     1
 10
473.3678050938999
 20
350.8143161403
 11
473.6548222002999
 21
342.5952215851
 72
     4
 94
        3
 73
     1
 74
     0
 95
        8
 96
        4
 40
0.0
 40
0.0
 40
0.0
 40
0.0
 40
1.0
 40
1.0
 40
1.0
 40
1.0
 10
473.3678050938999
 20
350.8143161403
 42
1.0
 10
473.3200336138
 20
352.182312344
 42
0.8692022420999998
 10
472.4678205294999
 20
353.2534932749
 42
0.8692022420999998
 10
471.1455685231999
 20
353.6075347406
 42
1.0
 72
     4
 94
        3
 73
     1
 74
     0
 95
        8
 96
        4
 40
0.0
 40
0.0
 40
0.0
 40
0.0
 40
1.0
 40
1.0
 40
1.0
 40
1.0
 10
468.9233319523999
 20
356.4007533408999
 42
1.0
 10
468.9711034324999
 20
355.0327571372
 42
0.8692022420999998
 10
469.8233165168
 20
353.9615762063
 42
0.8692022420999998
 10
471.1455685231999
 20
353.6075347406
 42
1.0
 72
     1
 10
468.9233319523999
 20
356.4007533408999
 11
468.5891307534999
 21
365.9710235207
 72
     4
 94
        3
 73
     1
 74
     0
 95
        8
 96
        4
 40
0.0
 40
0.0
 40
0.0
 40
0.0
 40
1.0
 40
1.0
 40
1.0
 40
1.0
 10
465.6694891173999
 20
368.8652970055001
 42
1.0
 10
467.3423099802
 20
368.8214926496
 42
0.8189139798999999
 10
468.5307301348999
 20
367.6433984273
 42
0.8189139798999999
 10
468.5891307534999
 20
365.9710235207
 42
1.0
 72
     1
 10
465.6694891173999
 20
368.8652970055001
 11
397.6971656575
 21
370.6452149365
 72
     4
 94
        3
 73
     1
 74
     0
 95
        8
 96
        4
 40
0.0
 40
0.0
 40
0.0
 40
0.0
 40
1.0
 40
1.0
 40
1.0
 40
1.0
 10
397.6971656575
 20
370.6452149365
 42
1.0
 10
396.5501620730001
 20
370.6752502824
 42
0.8108679623
 10
395.7495195541
 20
371.4971328177
 42
0.8108679623
 10
395.7495195541
 20
372.6445295864
 42
1.0
 72
     1
 10
395.7495195541
 20
372.6445295864
 11
395.7495195541
 21
373.7308213183
 72
     4
 94
        3
 73
     1
 74
     0
 95
        8
 96
        4
 40
0.0
 40
0.0
 40
0.0
 40
0.0
 40
1.0
 40
1.0
 40
1.0
 40
1.0
 10
395.7495195541
 20
373.7308213183
 42
1.0
 10
395.7495195541
 20
374.8862451878
 42
0.8088336328
 10
396.5593668484
 20
375.7103517817
 42
0.8088336328
 10
397.7146147412
 20
375.7305167087
 42
1.0
 72
     1
 10
397.7146147412
 20
375.7305167087
 11
480.7305022098999
 21
377.1795644145
 72
     4
 94
        3
 73
     1
 74
     0
 95
        8
 96
        4
 40
0.0
 40
0.0
 40
0.0
 40
0.0
 40
1.0
 40
1.0
 40
1.0
 40
1.0
 10
480.7305022098999
 20
377.1795644145
 42
1.0
 10
481.3228280870999
 20
377.1899035011
 42
0.8013725279999999
 10
481.7460383368
 20
376.7753556438
 42
0.8013725279999999
 10
481.7479494130999
 20
376.1829426213
 42
1.0
 72
     1
 10
481.7495195541
 20
375.6962158446
 11
481.7479494130999
 21
376.1829426213
 72
     1
 10
481.7495195541
 20
370.6789131077
 11
481.7495195541
 21
375.6962158446
 72
     4
 94
        3
 73
     1
 74
     0
 95
        8
 96
        4
 40
0.0
 40
0.0
 40
0.0
 40
0.0
 40
1.0
 40
1.0
 40
1.0
 40
1.0
 10
481.7495195541
 20
370.6789131077
 42
1.0
 10
481.7495195541
 20
370.1012011730001
 42
0.8088336328
 10
481.344595907
 20
369.689147876
 42
0.8088336328
 10
480.7669719605999
 20
369.6790654125
 42
1.0
 72
     1
 10
475.7320671477
 20
369.5911808221
 11
480.7669719605999
 21
369.6790654125
 72
     4
 94
        3
 73
     1
 74
     0
 95
        8
 96
        4
 40
0.0
 40
0.0
 40
0.0
 40
0.0
 40
1.0
 40
1.0
 40
1.0
 40
1.0
 10
474.7495195541
 20
368.591333127
 42
1.0
 10
474.7495195541
 20
369.1690450617
 42
0.8088336328
 10
475.1544432012999
 20
369.5810983586
 42
0.8088336328
 10
475.7320671477
 20
369.5911808221
 42
1.0
 72
     1
 10
474.7495195541
 20
359.5567276532
 11
474.7495195541
 21
368.591333127
 72
     4
 94
        3
 73
     1
 74
     0
 95
        8
 96
        4
 40
0.0
 40
0.0
 40
0.0
 40
0.0
 40
1.0
 40
1.0
 40
1.0
 40
1.0
 10
475.7320671477
 20
358.556879958
 42
1.0
 10
475.1544432012999
 20
358.5669624215
 42
0.8088336328
 10
474.7495195541
 20
358.9790157184999
 42
0.8088336328
 10
474.7495195541
 20
359.5567276532
 42
1.0
 72
     1
 10
480.8257691085
 20
358.4679690596
 11
475.7320671477
 21
358.556879958
 72
     4
 94
        3
 73
     1
 74
     0
 95
        8
 96
        4
 40
0.0
 40
0.0
 40
0.0
 40
0.0
 40
1.0
 40
1.0
 40
1.0
 40
1.0
 10
480.8257691085
 20
358.4679690596
 42
1.0
 10
481.4019078005
 20
358.4579125212999
 42
0.8095867034000001
 10
481.8064526487999
 20
358.0475707222
 42
0.8095867034000001
 10
481.8083114988
 20
357.4713472664
 42
1.0
 72
     1
 10
481.9973461158
 20
298.8726553561
 11
481.8083114988
 21
357.4713472664
 72
     4
 94
        3
 73
     1
 74
     0
 95
        8
 96
        4
 40
0.0
 40
0.0
 40
0.0
 40
0.0
 40
1.0
 40
1.0
 40
1.0
 40
1.0
 10
482.2895746530999
 20
297.5907997715
 42
1.0
 10
482.0977968744999
 20
297.9928702455
 42
0.9837980176
 10
481.9987831434
 20
298.427192319
 42
0.9837980176
 10
481.9973461158
 20
298.8726553561
 42
1.0
 72
     1
 10
491.4848221403
 20
278.31256251
 11
482.2895746530999
 21
297.5907997715
 72
     4
 94
        3
 73
     1
 74
     0
 95
        8
 96
        4
 40
0.0
 40
0.0
 40
0.0
 40
0.0
 40
1.0
 40
1.0
 40
1.0
 40
1.0
 10
492.3350714684
 20
277.7444440721
 42
1.0
 10
491.9594719623999
 20
277.7641284081
 42
0.906270941
 10
491.6467438037
 20
277.9730866832
 42
0.906270941
 10
491.4848221403
 20
278.31256251
 42
1.0
 72
     1
 10
507.3018555104
 20
276.9600681574
 11
492.3350714684
 21
277.7444440721
 72
     4
 94
        3
 73
     1
 74
     0
 95
        8
 96
        4
 40
0.0
 40
0.0
 40
0.0
 40
0.0
 40
1.0
 40
1.0
 40
1.0
 40
1.0
 10
507.3018555104
 20
276.9600681574
 42
1.0
 10
507.8628360776
 20
276.9306684117
 42
0.8169162473
 10
508.2495195541
 20
276.5231890493
 42
0.8169162473
 10
508.2495195541
 20
275.9614386227
 42
1.0
 72
     1
 10
508.2495195541
 20
265.8931004525
 11
508.2495195541
 21
275.9614386227
 72
     4
 94
        3
 73
     1
 74
     0
 95
        8
 96
        4
 40
0.0
 40
0.0
 40
0.0
 40
0.0
 40
1.0
 40
1.0
 40
1.0
 40
1.0
 10
509.2320671477
 20
264.8932527573
 42
1.0
 10
508.6544432013
 20
264.9033352208
 42
0.8088336328
 10
508.2495195541
 20
265.3153885177
 42
0.8088336328
 10
508.2495195541
 20
265.8931004525
 42
1.0
 72
     1
 10
514.7669719606
 20
264.7966406344
 11
509.2320671477
 21
264.8932527573
 72
     4
 94
        3
 73
     1
 74
     0
 95
        8
 96
        4
 40
0.0
 40
0.0
 40
0.0
 40
0.0
 40
1.0
 40
1.0
 40
1.0
 40
1.0
 10
514.7669719606
 20
264.7966406344
 42
1.0
 10
515.3445959069999
 20
264.786558171
 42
0.8088336328
 10
515.7495195541001
 20
264.374504874
 42
0.8088336328
 10
515.7495195541001
 20
263.7967929393
 42
1.0
 72
     1
 10
515.7495195541001
 20
259.6796424861
 11
515.7495195541001
 21
263.7967929393
 72
     2
 10
514.7494388076999
 20
259.6795529885
 40
1.0000718385
 50
270.00491132
 51
360.0051230506
 73
     1
 72
     1
 10
506.7495234591
 20
258.6794902024
 11
514.7495244737999
 21
258.6794902024
 72
     2
 10
506.7496084368
 20
257.6794193852
 40
1.000079313499999
 50
90.0048753525
 51
180.0046660537
 73
     1
 72
     1
 10
505.7495195541
 20
240.1962158446
 11
505.7495195541
 21
257.6793379521
 72
     4
 94
        3
 73
     1
 74
     0
 95
        8
 96
        4
 40
0.0
 40
0.0
 40
0.0
 40
0.0
 40
1.0
 40
1.0
 40
1.0
 40
1.0
 10
510.2495195541
 20
235.6962158446
 42
1.0
 10
507.6134805848
 20
235.6962158446
 42
0.8047378541
 10
505.7495195541
 20
237.5601768753
 42
0.8047378541
 10
505.7495195541
 20
240.1962158446
 42
1.0
 72
     1
 10
510.2495195541
 20
235.6962158446
 11
606.7495195541
 21
235.6962158446
 72
     1
 10
606.7495195541
 20
235.6962158446
 11
615.7495195541001
 21
235.6962158446
 72
     1
 10
615.7495195541001
 20
235.6962158446
 11
680.7495195541
 21
235.6962158446
 72
     1
 10
680.7495195541
 20
235.6962158446
 11
680.7495195541
 21
230.1962158446
 72
     1
 10
615.7495195541001
 20
230.1962158446
 11
680.7495195541
 21
230.1962158446
 72
     1
 10
615.7495195541001
 20
230.1962158446
 11
565.7495195541001
 21
230.1962158446
 97
        0
 92
        1
 93
       51
 72
     1
 10
616.6923064380999
 20
338.2625299602
 11
615.7507860737
 21
311.3009143347
 72
     4
 94
        3
 73
     1
 74
     0
 95
        8
 96
        4
 40
0.0
 40
0.0
 40
0.0
 40
0.0
 40
1.0
 40
1.0
 40
1.0
 40
1.0
 10
615.7507855131
 20
311.3009143677
 42
1.0
 10
615.6877428276
 20
309.4956237029
 42
0.7964387892
 10
616.9425674619
 20
308.1962146442
 42
0.7964387892
 10
618.7489585504001
 20
308.1962150357
 42
1.0
 72
     1
 10
618.7489585548
 20
308.1962158446
 11
680.7495195541
 21
308.1962158446
 72
     1
 10
680.7495195541
 20
308.1962158446
 11
680.7495195541
 21
302.6962158446
 72
     1
 10
616.4187385209999
 20
302.6962158446
 11
680.7495195541
 21
302.6962158446
 72
     4
 94
        3
 73
     1
 74
     0
 95
        8
 96
        4
 40
0.0
 40
0.0
 40
0.0
 40
0.0
 40
1.0
 40
1.0
 40
1.0
 40
1.0
 10
616.4187383440999
 20
302.6962158315
 42
1.0
 10
615.8490379654999
 20
302.6962158132
 42
0.8128932103
 10
615.4392298130999
 20
302.3004686723
 42
0.8128932103
 10
615.4193475501
 20
301.73111534
 42
1.0
 72
     1
 10
615.4193476930999
 20
301.7311153161
 11
615.3086037847
 21
298.5598247043
 72
     4
 94
        3
 73
     1
 74
     0
 95
        8
 96
        4
 40
0.0
 40
0.0
 40
0.0
 40
0.0
 40
1.0
 40
1.0
 40
1.0
 40
1.0
 10
614.8243103699
 20
296.5806808717
 42
1.0
 10
615.1208467533999
 20
297.2023823285
 42
0.986030315
 10
615.2845649838
 20
297.8714435133
 42
0.986030315
 10
615.3086037847
 20
298.5598247043
 42
1.0
 72
     1
 10
614.8243103699
 20
296.5806808717
 11
601.0063680296999
 21
267.6107623057
 72
     2
 10
600.1079335916
 20
268.0388465229
 40
0.9951939759999998
 50
272.9766846107
 51
334.5232291045
 73
     1
 72
     1
 10
600.1596144132999
 20
267.0449796281
 11
592.2012270264999
 21
266.6278982184
 72
     2
 10
592.2541075252
 20
265.6274527808
 40
1.001846084999999
 50
93.0256650373
 51
179.9744173847
 73
     1
 72
     1
 10
591.2522642461
 20
265.6279000968
 11
591.2522642461
 21
259.6769019456
 72
     4
 94
        3
 73
     0
 74
     0
 95
       15
 96
       11
 40
0.0
 40
0.0
 40
0.0
 40
0.0
 40
0.125
 40
0.25
 40
0.375
 40
0.5
 40
0.625
 40
0.75
 40
0.875
 40
1.0
 40
1.0
 40
1.0
 40
1.0
 10
591.2522558926
 20
259.6769019457
 10
591.2522644527999
 20
259.6108092808
 10
591.2394134256
 20
259.481585589
 10
591.1823368497
 20
259.2932142027
 10
591.0901148883
 20
259.1205645147
 10
590.9643766987999
 20
258.9671709458
 10
590.8103947355999
 20
258.8414697755
 10
590.6370981259999
 20
258.7493030345
 10
590.4477140721
 20
258.6921081745
 10
590.3175311692999
 20
258.6791841170001
 10
590.2508911358999
 20
258.6791931881
 72
     1
 10
590.2508911359999
 20
258.6791855463
 11
576.7495195547
 21
258.6791855463
 72
     4
 94
        3
 73
     1
 74
     0
 95
        8
 96
        4
 40
0.0
 40
0.0
 40
0.0
 40
0.0
 40
1.0
 40
1.0
 40
1.0
 40
1.0
 10
576.7495194887999
 20
258.6791855569
 42
1.0
 10
576.1637331414999
 20
258.6791855951
 42
0.8047379015
 10
575.7495196283
 20
259.093399079
 42
0.8047379015
 10
575.7495195487999
 20
259.6791854264
 42
1.0
 72
     1
 10
575.7495195541
 20
259.6791855463
 11
575.7495195541
 21
263.7967929393
 72
     4
 94
        3
 73
     1
 74
     0
 95
        8
 96
        4
 40
0.0
 40
0.0
 40
0.0
 40
0.0
 40
1.0
 40
1.0
 40
1.0
 40
1.0
 10
576.7320671476999
 20
264.7966406344
 42
1.0
 10
576.1544432012999
 20
264.786558171
 42
0.8088336328
 10
575.7495195541
 20
264.374504874
 42
0.8088336328
 10
575.7495195541
 20
263.7967929393
 42
1.0
 72
     1
 10
576.7320671476999
 20
264.7966406344
 11
582.2669719605999
 21
264.8932527573
 72
     4
 94
        3
 73
     1
 74
     0
 95
        8
 96
        4
 40
0.0
 40
0.0
 40
0.0
 40
0.0
 40
1.0
 40
1.0
 40
1.0
 40
1.0
 10
582.2669719605999
 20
264.8932527573
 42
1.0
 10
582.8445959069999
 20
264.9033352208
 42
0.8088336328
 10
583.2495195541
 20
265.3153885177
 42
0.8088336328
 10
583.2495195541
 20
265.8931004525
 42
1.0
 72
     1
 10
583.2495195541
 20
265.8931004525
 11
583.2495195541
 21
275.9614386227
 72
     4
 94
        3
 73
     1
 74
     0
 95
        8
 96
        4
 40
0.0
 40
0.0
 40
0.0
 40
0.0
 40
1.0
 40
1.0
 40
1.0
 40
1.0
 10
584.1971835978999
 20
276.9600681574
 42
1.0
 10
583.6362030306999
 20
276.9306684117
 42
0.8169162473
 10
583.2495195541
 20
276.5231890493
 42
0.8169162473
 10
583.2495195541
 20
275.9614386227
 42
1.0
 72
     1
 10
584.1971835978999
 20
276.9600681574
 11
599.1639676398
 21
277.7444440721
 72
     4
 94
        3
 73
     1
 74
     0
 95
        8
 96
        4
 40
0.0
 40
0.0
 40
0.0
 40
0.0
 40
1.0
 40
1.0
 40
1.0
 40
1.0
 10
599.1639676398
 20
277.7444440721
 42
1.0
 10
599.5395671457999
 20
277.7641284081
 42
0.906270941
 10
599.8522953046
 20
277.9730866832
 42
0.906270941
 10
600.0142169679
 20
278.31256251
 42
1.0
 72
     1
 10
600.0142169679
 20
278.31256251
 11
609.2094644551999
 21
297.5907997715
 72
     4
 94
        3
 73
     1
 74
     0
 95
        8
 96
        4
 40
0.0
 40
0.0
 40
0.0
 40
0.0
 40
1.0
 40
1.0
 40
1.0
 40
1.0
 10
609.2094644551999
 20
297.5907997715
 42
1.0
 10
609.4012422337
 20
297.9928702455
 42
0.9837980176
 10
609.5002559649
 20
298.427192319
 42
0.9837980176
 10
609.5016929924
 20
298.8726553561
 42
1.0
 72
     1
 10
609.5016929924
 20
298.8726553561
 11
609.5140274878
 21
302.6962158445
 72
     1
 10
609.5140274878
 20
302.6962158445
 11
609.6907276095
 21
357.4713472664
 72
     4
 94
        3
 73
     1
 74
     0
 95
        8
 96
        4
 40
0.0
 40
0.0
 40
0.0
 40
0.0
 40
1.0
 40
1.0
 40
1.0
 40
1.0
 10
610.6732699998
 20
358.4679690596
 42
1.0
 10
610.0971313077999
 20
358.4579125212999
 42
0.8095867034000001
 10
609.6925864594999
 20
358.0475707222
 42
0.8095867034000001
 10
609.6907276095
 20
357.4713472664
 42
1.0
 72
     1
 10
610.6732699998
 20
358.4679690596
 11
615.7669719605999
 21
358.556879958
 72
     4
 94
        3
 73
     1
 74
     0
 95
        8
 96
        4
 40
0.0
 40
0.0
 40
0.0
 40
0.0
 40
1.0
 40
1.0
 40
1.0
 40
1.0
 10
615.7669719605999
 20
358.556879958
 42
1.0
 10
616.3445959069999
 20
358.5669624215
 42
0.8088336328
 10
616.7495195541
 20
358.9790157184999
 42
0.8088336328
 10
616.7495195541
 20
359.5567276532
 42
1.0
 72
     1
 10
616.7495195541
 20
359.5567276532
 11
616.7495195541
 21
368.591333127
 72
     4
 94
        3
 73
     1
 74
     0
 95
        8
 96
        4
 40
0.0
 40
0.0
 40
0.0
 40
0.0
 40
1.0
 40
1.0
 40
1.0
 40
1.0
 10
616.7495195541
 20
368.591333127
 42
1.0
 10
616.7495195541
 20
369.1690450617
 42
0.8088336328
 10
616.3445959069999
 20
369.5810983586
 42
0.8088336328
 10
615.7669719605999
 20
369.5911808221
 42
1.0
 72
     1
 10
615.7669719605999
 20
369.5911808221
 11
610.7320671476998
 21
369.6790654125
 72
     4
 94
        3
 73
     1
 74
     0
 95
        8
 96
        4
 40
0.0
 40
0.0
 40
0.0
 40
0.0
 40
1.0
 40
1.0
 40
1.0
 40
1.0
 10
609.7495195541
 20
370.6789131077
 42
1.0
 10
609.7495195541
 20
370.1012011730001
 42
0.8088336328
 10
610.1544432013
 20
369.689147876
 42
0.8088336328
 10
610.7320671476998
 20
369.6790654125
 42
1.0
 72
     1
 10
609.7495195541
 20
370.6789131077
 11
609.7495195541
 21
375.6962158446
 72
     1
 10
609.7495195541
 20
375.6962158446
 11
609.7510896951
 21
376.1829426213
 72
     4
 94
        3
 73
     1
 74
     0
 95
        8
 96
        4
 40
0.0
 40
0.0
 40
0.0
 40
0.0
 40
1.0
 40
1.0
 40
1.0
 40
1.0
 10
610.7685368982999
 20
377.1795644145
 42
1.0
 10
610.1762110211
 20
377.1899035011
 42
0.8013725279999999
 10
609.7530007713999
 20
376.7753556438
 42
0.8013725279999999
 10
609.7510896951
 20
376.1829426213
 42
1.0
 72
     1
 10
693.7844243669999
 20
375.7305167087
 11
610.7685368982999
 21
377.1795644145
 72
     4
 94
        3
 73
     1
 74
     0
 95
        8
 96
        4
 40
0.0
 40
0.0
 40
0.0
 40
0.0
 40
1.0
 40
1.0
 40
1.0
 40
1.0
 10
695.7495195541
 20
373.7308213183
 42
1.0
 10
695.7495195541
 20
374.8862451878
 42
0.8088336328
 10
694.9396722598
 20
375.7103517817
 42
0.8088336328
 10
693.7844243669999
 20
375.7305167087
 42
1.0
 72
     1
 10
695.7495195541
 20
372.6445295864
 11
695.7495195541
 21
373.7308213183
 72
     4
 94
        3
 73
     1
 74
     0
 95
        8
 96
        4
 40
0.0
 40
0.0
 40
0.0
 40
0.0
 40
1.0
 40
1.0
 40
1.0
 40
1.0
 10
693.8018734507001
 20
370.6452149365
 42
1.0
 10
694.9488770352001
 20
370.6752502824
 42
0.8108679623
 10
695.7495195541
 20
371.4971328177
 42
0.8108679623
 10
695.7495195541
 20
372.6445295864
 42
1.0
 72
     1
 10
625.8295499908
 20
368.8652970055001
 11
693.8018734507001
 21
370.6452149365
 72
     4
 94
        3
 73
     1
 74
     0
 95
        8
 96
        4
 40
0.0
 40
0.0
 40
0.0
 40
0.0
 40
1.0
 40
1.0
 40
1.0
 40
1.0
 10
625.8295499908
 20
368.8652970055001
 42
1.0
 10
624.156729128
 20
368.8214926496
 42
0.8189139798999999
 10
622.9683089733001
 20
367.6433984273
 42
0.8189139798999999
 10
622.9099083547001
 20
365.9710235207
 42
1.0
 72
     1
 10
622.5757071558
 20
356.4007533408999
 11
622.9099083547001
 21
365.9710235207
 72
     4
 94
        3
 73
     1
 74
     0
 95
        8
 96
        4
 40
0.0
 40
0.0
 40
0.0
 40
0.0
 40
1.0
 40
1.0
 40
1.0
 40
1.0
 10
622.5757071558
 20
356.4007533408999
 42
1.0
 10
622.5279356756999
 20
355.0327571372
 42
0.8692022420999998
 10
621.6757225914
 20
353.9615762063
 42
0.8692022420999998
 10
620.3534705851
 20
353.6075347406
 42
1.0
 72
     4
 94
        3
 73
     1
 74
     0
 95
        8
 96
        4
 40
0.0
 40
0.0
 40
0.0
 40
0.0
 40
1.0
 40
1.0
 40
1.0
 40
1.0
 10
618.1312340143001
 20
350.8143161403
 42
1.0
 10
618.1790054944
 20
352.182312344
 42
0.8692022420999998
 10
619.0312185787
 20
353.2534932749
 42
0.8692022420999998
 10
620.3534705851
 20
353.6075347406
 42
1.0
 72
     1
 10
618.1312340143001
 20
350.8143161403
 11
617.8442180007
 21
342.5952528787
 72
     4
 94
        3
 73
     1
 74
     0
 95
        8
 96
        4
 40
0.0
 40
0.0
 40
0.0
 40
0.0
 40
1.0
 40
1.0
 40
1.0
 40
1.0
 10
617.8442175919999
 20
342.5952479603
 42
1.0
 10
617.8195748698999
 20
341.8895731735
 42
0.9853168014999999
 10
617.6481856706999
 20
341.2045841877
 42
0.9853168014999999
 10
617.3375996193
 20
340.5704544903
 42
1.0
 72
     1
 10
617.3375998548999
 20
340.5704543766
 11
617.1989263767
 21
340.2873220879
 72
     4
 94
        3
 73
     1
 74
     0
 95
        8
 96
        4
 40
0.0
 40
0.0
 40
0.0
 40
0.0
 40
1.0
 40
1.0
 40
1.0
 40
1.0
 10
617.1989274930999
 20
340.287324977
 42
1.0
 10
616.8883400717
 20
339.6531950575
 42
0.9853167687
 10
616.7169497405999
 20
338.9682055279
 42
0.9853167687
 10
616.6923061916
 20
338.2625299674
 42
1.0
 97
        0
 75
     0
 76
     0
 52
45.0
 41
5.945
 77
     0
 78
     1
 53
45.0
 43
0.0
 44
0.0
 45
-4.2037498142
 46
4.2037498142
 79
     0
 98
        1
 10
0.0
 20
0.0
  0
DIMENSION
  5
25B
330
21B
100
AcDbEntity
  8
ZEICHNUNGSBEMASSUNGEN
  6
Continuous
 62
     7
100
AcDbDimension
  2
*D1
 10
468.4906402486999
 20
419.3212158446
 30
0.0
 11
542.8328528875
 21
419.3212158446
 31
0.0
 70
   160
  1
%%c155
 71
     2
 42
154.5177586109
  3
DIMSTYLE_2
100
AcDbAlignedDimension
 13
623.0083988596
 23
370.2914225632
 33
0.0
 14
468.4906402486999
 24
370.2914225632
 34
0.0
 50
180.0
100
AcDbRotatedDimension
1001
ACAD
1000
DSTYLE
1002
{
1070
    41
1040
5.0
1070
   140
1040
7.0
1070
   147
1040
1.5
1070
   178
1070
   256
1002
}
  0
DIMENSION
  5
25C
330
21B
100
AcDbEntity
  8
ZEICHNUNGSBEMASSUNGEN
  6
Continuous
 62
     7
100
AcDbDimension
  2
*D2
 10
695.7495195541
 20
430.1742591946938
 30
0.0
 11
542.9862503586232
 21
430.1742591946938
 31
0.0
 70
   160
  1
%%c<>
 71
     2
 42
300.0
  3
DIMSTYLE_2
100
AcDbAlignedDimension
 13
395.7495195541
 23
375.2308213183
 33
0.0
 14
695.7495195541
 24
375.2308213183
 34
0.0
100
AcDbRotatedDimension
1001
ACAD
1000
DSTYLE
1002
{
1070
    41
1040
5.0
1070
   140
1040
7.0
1070
   147
1040
1.5
1070
   178
1070
   256
1002
}
  0
DIMENSION
  5
25D
330
21B
100
AcDbEntity
  8
ZEICHNUNGSBEMASSUNGEN
  6
Continuous
 62
     7
100
AcDbDimension
  2
*D3
 10
384.8047956146
 20
377.0971869843
 30
0.0
 11
384.8047956146
 21
300.2942139259
 31
0.0
 70
   160
 71
     2
 42
146.9009711396999
  3
DIMSTYLE_2
100
AcDbAlignedDimension
 13
508.7495195522
 23
230.1962158446
 33
0.0
 14
421.7495195541
 24
377.0971869843
 34
0.0
 50
90.0
100
AcDbRotatedDimension
1001
ACAD
1000
DSTYLE
1002
{
1070
    41
1040
5.0
1070
   140
1040
7.0
1070
   147
1040
1.5
1070
   178
1070
   256
1002
}
  0
DIMENSION
  5
25E
330
21B
100
AcDbEntity
  8
ZEICHNUNGSBEMASSUNGEN
  6
Continuous
 62
     7
100
AcDbDimension
  2
*D4
 10
706.7485146779451
 20
377.0971869843
 30
0.0
 11
706.7485146779449
 21
319.7359748753477
 31
0.0
 70
   160
 71
     2
 42
107.9009711397
  3
DIMSTYLE_2
100
AcDbAlignedDimension
 13
685.2495195541
 23
269.1962158446
 33
0.0
 14
669.7495195541001
 24
377.0971869843
 34
0.0
 50
90.0
100
AcDbRotatedDimension
1001
ACAD
1000
DSTYLE
1002
{
1070
    41
1040
5.0
1070
   140
1040
7.0
1070
   147
1040
1.5
1070
   178
1070
   256
1002
}
  0
DIMENSION
  5
25F
330
21B
100
AcDbEntity
  8
ZEICHNUNGSBEMASSUNGEN
  6
Continuous
 62
     7
100
AcDbDimension
  2
*D5
 10
680.7495195541
 20
217.9952299761656
 30
0.0
 11
610.6341324842274
 21
217.9952299761656
 31
0.0
 70
   160
 71
     2
 42
135.0
  3
DIMSTYLE_2
100
AcDbAlignedDimension
 13
545.7495195541
 23
225.5762110444
 33
0.0
 14
680.7495195541
 24
228.6962158446
 34
0.0
100
AcDbRotatedDimension
1001
ACAD
1000
DSTYLE
1002
{
1070
    41
1040
5.0
1070
   140
1040
7.0
1070
   147
1040
1.5
1070
   178
1070
   256
1002
}
  0
LINE
  5
260
330
21B
100
AcDbEntity
  8
0
  6
Continuous
 62
     7
100
AcDbLine
 10
395.7495195541
 20
372.6445295864
 30
0.0
 11
395.7495195541
 21
373.7308213183
 31
0.0
  0
LINE
  5
261
330
21B
100
AcDbEntity
  8
0
  6
Continuous
 62
     7
100
AcDbLine
 10
407.724587573
 20
383.4962158446
 30
0.0
 11
408.112723167
 21
379.0598057045
 31
0.0
  0
LINE
  5
262
330
21B
100
AcDbEntity
  8
0
  6
Continuous
 62
     7
100
AcDbLine
 10
441.1928114083
 20
384.4962158446
 30
0.0
 11
441.1928114083
 21
385.4962158446
 31
0.0
  0
LINE
  5
263
330
21B
100
AcDbEntity
  8
0
  6
Continuous
 62
     7
100
AcDbLine
 10
442.6438679245999
 20
385.4962158446
 30
0.0
 11
442.6438679245999
 21
387.0962158446
 31
0.0
  0
LINE
  5
264
330
21B
100
AcDbEntity
  8
0
  6
Continuous
 62
     7
100
AcDbLine
 10
442.6438679245999
 20
388.6962158446
 30
0.0
 11
442.6438679245999
 21
398.6962158446
 31
0.0
  0
LINE
  5
265
330
21B
100
AcDbEntity
  8
0
  6
Continuous
 62
     7
100
AcDbLine
 10
443.5056623604999
 20
388.101769344
 30
0.0
 11
443.5056623604999
 21
388.6962158446
 31
0.0
  0
LINE
  5
266
330
21B
100
AcDbEntity
  8
0
  6
Continuous
 62
     7
100
AcDbLine
 10
443.6438679245999
 20
398.6962158446
 30
0.0
 11
443.6438679245999
 21
406.6962158445999
 31
0.0
  0
LINE
  5
267
330
21B
100
AcDbEntity
  8
0
  6
Continuous
 62
     7
100
AcDbLine
 10
444.8438679246
 20
387.2462158446
 30
0.0
 11
444.8438679246
 21
387.0962158446
 31
0.0
  0
LINE
  5
268
330
21B
100
AcDbEntity
  8
0
  6
Continuous
 62
     7
100
AcDbLine
 10
445.0661546791
 20
388.101769344
 30
0.0
 11
445.0661546791
 21
388.6962158446
 31
0.0
  0
LINE
  5
269
330
21B
100
AcDbEntity
  8
0
  6
Continuous
 62
     9
100
AcDbLine
 10
447.0661669561
 20
384.4962158446
 30
0.0
 11
447.0661669561
 21
385.4962158446
 31
0.0
  0
LINE
  5
26A
330
21B
100
AcDbEntity
  8
0
  6
Continuous
 62
     9
100
AcDbLine
 10
448.9682799887
 20
384.4962158446
 30
0.0
 11
448.9682799887
 21
385.4962158446
 31
0.0
  0
LINE
  5
26B
330
21B
100
AcDbEntity
  8
0
  6
Continuous
 62
     7
100
AcDbLine
 10
452.2043602431999
 20
388.101769344
 30
0.0
 11
452.2043602431999
 21
388.6962158446
 31
0.0
  0
LINE
  5
26C
330
21B
100
AcDbEntity
  8
0
  6
Continuous
 62
     7
100
AcDbLine
 10
456.4438679245999
 20
387.2462158446
 30
0.0
 11
456.4438679245999
 21
387.0962158446
 31
0.0
  0
LINE
  5
26D
330
21B
100
AcDbEntity
  8
0
  6
Continuous
 62
     7
100
AcDbLine
 10
457.6438679246
 20
398.6962158446
 30
0.0
 11
457.6438679246
 21
406.6962158445999
 31
0.0
  0
LINE
  5
26E
330
21B
100
AcDbEntity
  8
0
  6
Continuous
 62
     7
100
AcDbLine
 10
457.7820734887
 20
388.101769344
 30
0.0
 11
457.7820734887
 21
388.6962158446
 31
0.0
  0
LINE
  5
26F
330
21B
100
AcDbEntity
  8
0
  6
Continuous
 62
     7
100
AcDbLine
 10
458.6438679246
 20
385.4962158446
 30
0.0
 11
458.6438679246
 21
387.0962158446
 31
0.0
  0
LINE
  5
270
330
21B
100
AcDbEntity
  8
0
  6
Continuous
 62
     7
100
AcDbLine
 10
458.6438679246
 20
388.6962158446
 30
0.0
 11
458.6438679246
 21
398.6962158446
 31
0.0
  0
LINE
  5
271
330
21B
100
AcDbEntity
  8
0
  6
Continuous
 62
     7
100
AcDbLine
 10
460.0949244408999
 20
384.4962158446
 30
0.0
 11
460.0949244408999
 21
385.4962158446
 31
0.0
  0
LINE
  5
272
330
21B
100
AcDbEntity
  8
0
  6
Continuous
 62
     7
100
AcDbLine
 10
468.7495195541
 20
383.4962158446
 30
0.0
 11
468.2858448433999
 21
376.8202005968
 31
0.0
  0
LINE
  5
273
330
21B
100
AcDbEntity
  8
0
  6
Continuous
 62
     7
100
AcDbLine
 10
510.2495195541
 20
230.1962158446
 30
0.0
 11
680.7495195541
 21
230.1962158446
 31
0.0
  0
LINE
  5
274
330
21B
100
AcDbEntity
  8
0
  6
Continuous
 62
     7
100
AcDbLine
 10
510.2495195541
 20
235.6962158446
 30
0.0
 11
680.7495195541
 21
235.6962158446
 31
0.0
  0
LINE
  5
276
330
21B
100
AcDbEntity
  8
0
  6
Continuous
 62
     7
100
AcDbLine
 10
468.9233319523999
 20
356.4007533408999
 30
0.0
 11
468.5891307534999
 21
365.9710235207
 31
0.0
  0
LINE
  5
277
330
21B
100
AcDbEntity
  8
0
  6
Continuous
 62
     7
100
AcDbLine
 10
473.3678050938999
 20
350.8143161403
 30
0.0
 11
473.6548222002999
 21
342.5952215851
 31
0.0
  0
LINE
  5
278
330
21B
100
AcDbEntity
  8
0
  6
Continuous
 62
     7
100
AcDbLine
 10
474.8067339527
 20
338.2624932316
 30
0.0
 11
476.1931783435
 21
298.5599204926
 31
0.0
  0
LINE
  5
279
330
21B
100
AcDbEntity
  8
0
  6
Continuous
 62
     7
100
AcDbLine
 10
474.7495195541
 20
359.5567276532
 30
0.0
 11
474.7495195541
 21
368.591333127
 31
0.0
  0
LINE
  5
27C
330
21B
100
AcDbEntity
  8
0
  6
Continuous
 62
     7
100
AcDbLine
 10
476.6772060569
 20
296.5818624921
 30
0.0
 11
489.981137991
 21
268.689589153
 31
0.0
  0
LINE
  5
27D
330
21B
100
AcDbEntity
  8
0
  6
Continuous
 62
     7
100
AcDbLine
 10
481.9973461158
 20
298.8726553561
 30
0.0
 11
481.8083114988
 21
357.4713472664
 31
0.0
  0
LINE
  5
27E
330
21B
100
AcDbEntity
  8
0
  6
Continuous
 62
     7
100
AcDbLine
 10
481.7495195541
 20
375.6962158446
 30
0.0
 11
481.7479494130999
 21
376.1829426213
 31
0.0
  0
LINE
  5
27F
330
21B
100
AcDbEntity
  8
0
  6
Continuous
 62
     7
100
AcDbLine
 10
480.3213163237999
 20
383.4962158446
 30
0.0
 11
480.3213163237999
 21
384.4962158446
 31
0.0
  0
LINE
  5
280
330
21B
100
AcDbEntity
  8
0
  6
Continuous
 62
     7
100
AcDbLine
 10
481.7495195541
 20
370.6789131077
 30
0.0
 11
481.7495195541
 21
375.6962158446
 31
0.0
  0
LINE
  5
281
330
21B
100
AcDbEntity
  8
0
  6
Continuous
 62
     7
100
AcDbLine
 10
483.3213163237999
 20
383.4962158446
 30
0.0
 11
483.3213163237999
 21
384.4962158446
 31
0.0
  0
LINE
  5
282
330
21B
100
AcDbEntity
  8
0
  6
Continuous
 62
     7
100
AcDbLine
 10
483.9879833083999
 20
383.4962158446
 30
0.0
 11
483.9879833083999
 21
384.4962158446
 31
0.0
  0
LINE
  5
283
330
21B
100
AcDbEntity
  8
0
  6
Continuous
 62
     7
100
AcDbLine
 10
484.4879833083999
 20
383.4962158446
 30
0.0
 11
484.4879833083999
 21
384.4962158446
 31
0.0
  0
LINE
  5
284
330
21B
100
AcDbEntity
  8
0
  6
Continuous
 62
     7
100
AcDbLine
 10
486.0198432409999
 20
383.4962158446
 30
0.0
 11
486.0198432409999
 21
384.4962158446
 31
0.0
  0
LINE
  5
285
330
21B
100
AcDbEntity
  8
0
  6
Continuous
 62
     7
100
AcDbLine
 10
486.5135420091999
 20
383.4962158446
 30
0.0
 11
486.5135420091999
 21
384.4962158446
 31
0.0
  0
LINE
  5
286
330
21B
100
AcDbEntity
  8
0
  6
Continuous
 62
     7
100
AcDbLine
 10
486.5520579011
 20
383.4962158446
 30
0.0
 11
486.5520579011
 21
384.4962158446
 31
0.0
  0
LINE
  5
287
330
21B
100
AcDbEntity
  8
0
  6
Continuous
 62
     7
100
AcDbLine
 10
486.9046493393
 20
383.4962158446
 30
0.0
 11
486.9046493393
 21
384.4962158446
 31
0.0
  0
LINE
  5
288
330
21B
100
AcDbEntity
  8
0
  6
Continuous
 62
     7
100
AcDbLine
 10
487.2379833083999
 20
383.4962158446
 30
0.0
 11
487.2379833083999
 21
384.4962158446
 31
0.0
  0
LINE
  5
289
330
21B
100
AcDbEntity
  8
0
  6
Continuous
 62
     7
100
AcDbLine
 10
487.9687248855999
 20
383.4962158446
 30
0.0
 11
487.9687248855999
 21
384.4962158446
 31
0.0
  0
LINE
  5
28A
330
21B
100
AcDbEntity
  8
0
  6
Continuous
 62
     7
100
AcDbLine
 10
488.5968755014999
 20
383.4962158446
 30
0.0
 11
488.5968755014999
 21
384.4962158446
 31
0.0
  0
LINE
  5
28B
330
21B
100
AcDbEntity
  8
RUNDUNGEN
  6
Continuous
 62
     9
100
AcDbLine
 10
545.7495195541
 20
256.9985903422
 30
0.0
 11
565.7495195541001
 21
256.9985903422
 31
0.0
  0
LINE
  5
28C
330
21B
100
AcDbEntity
  8
RUNDUNGEN
  6
Continuous
 62
     9
100
AcDbLine
 10
545.7495195541
 20
257.9984380373
 30
0.0
 11
565.7495195541001
 21
257.9984380373
 31
0.0
  0
LINE
  5
28D
330
21B
100
AcDbEntity
  8
0
  6
Continuous
 62
     7
100
AcDbLine
 10
590.2508911359999
 20
258.6791855463
 30
0.0
 11
576.7495195547
 21
258.6791855463
 31
0.0
  0
LINE
  5
28E
330
21B
100
AcDbEntity
  8
0
  6
Continuous
 62
     7
100
AcDbLine
 10
506.7495234591
 20
258.6794902024
 30
0.0
 11
514.7495244737999
 21
258.6794902024
 31
0.0
  0
LINE
  5
28F
330
21B
100
AcDbEntity
  8
0
  6
Continuous
 62
     7
100
AcDbLine
 10
491.4848221403
 20
278.31256251
 30
0.0
 11
482.2895746530999
 21
297.5907997715
 31
0.0
  0
LINE
  5
290
330
21B
100
AcDbEntity
  8
0
  6
Continuous
 62
     7
100
AcDbLine
 10
489.5198427641
 20
383.4962158446
 30
0.0
 11
489.5198427641
 21
384.4962158446
 31
0.0
  0
LINE
  5
291
330
21B
100
AcDbEntity
  8
0
  6
Continuous
 62
     7
100
AcDbLine
 10
490.1928105036
 20
383.4962158446
 30
0.0
 11
490.1928105036
 21
384.4962158446
 31
0.0
  0
LINE
  5
292
330
21B
100
AcDbEntity
  8
0
  6
Continuous
 62
     7
100
AcDbLine
 10
490.3853913933999
 20
383.4962158446
 30
0.0
 11
490.3853913933999
 21
384.4962158446
 31
0.0
  0
LINE
  5
293
330
21B
100
AcDbEntity
  8
0
  6
Continuous
 62
     7
100
AcDbLine
 10
490.6546498161
 20
383.4962158446
 30
0.0
 11
490.6546498161
 21
384.4962158446
 31
0.0
  0
LINE
  5
294
330
21B
100
AcDbEntity
  8
0
  6
Continuous
 62
     7
100
AcDbLine
 10
491.0713163237999
 20
383.4962158446
 30
0.0
 11
491.0713163237999
 21
384.4962158446
 31
0.0
  0
LINE
  5
295
330
21B
100
AcDbEntity
  8
0
  6
Continuous
 62
     7
100
AcDbLine
 10
491.6353913933999
 20
383.4962158446
 30
0.0
 11
491.6353913933999
 21
384.4962158446
 31
0.0
  0
LINE
  5
296
330
21B
100
AcDbEntity
  8
0
  6
Continuous
 62
     7
100
AcDbLine
 10
492.4942838248999
 20
383.4962158446
 30
0.0
 11
492.4942838248999
 21
384.4962158446
 31
0.0
  0
LINE
  5
297
330
21B
100
AcDbEntity
  8
0
  6
Continuous
 62
     7
100
AcDbLine
 10
493.3339180721
 20
383.4962158446
 30
0.0
 11
493.3339180721
 21
384.4962158446
 31
0.0
  0
LINE
  5
298
330
21B
100
AcDbEntity
  8
0
  6
Continuous
 62
     7
100
AcDbLine
 10
494.2376280401
 20
383.4962158446
 30
0.0
 11
494.2376280401
 21
384.4962158446
 31
0.0
  0
LINE
  5
299
330
21B
100
AcDbEntity
  8
0
  6
Continuous
 62
     7
100
AcDbLine
 10
494.8213163237999
 20
383.4962158446
 30
0.0
 11
494.8213163237999
 21
384.4962158446
 31
0.0
  0
LINE
  5
29A
330
21B
100
AcDbEntity
  8
0
  6
Continuous
 62
     7
100
AcDbLine
 10
495.3213163237999
 20
383.4962158446
 30
0.0
 11
495.3213163237999
 21
384.4962158446
 31
0.0
  0
LINE
  5
29B
330
21B
100
AcDbEntity
  8
0
  6
Continuous
 62
     7
100
AcDbLine
 10
496.8531762563999
 20
383.4962158446
 30
0.0
 11
496.8531762563999
 21
384.4962158446
 31
0.0
  0
LINE
  5
29C
330
21B
100
AcDbEntity
  8
0
  6
Continuous
 62
     7
100
AcDbLine
 10
498.0324451637
 20
383.4962158446
 30
0.0
 11
498.0324451637
 21
384.4962158446
 31
0.0
  0
LINE
  5
29D
330
21B
100
AcDbEntity
  8
0
  6
Continuous
 62
     7
100
AcDbLine
 10
500.2495195541
 20
240.1962158446
 30
0.0
 11
500.2495195541
 21
263.7338761018
 31
0.0
  0
LINE
  5
29E
330
21B
100
AcDbEntity
  8
0
  6
Continuous
 62
     7
100
AcDbLine
 10
600.1596144132999
 20
267.0449796281
 30
0.0
 11
592.2012270264999
 21
266.6278982184
 31
0.0
  0
LINE
  5
29F
330
21B
100
AcDbEntity
  8
0
  6
Continuous
 62
     7
100
AcDbLine
 10
576.7320671476999
 20
264.7966406344
 30
0.0
 11
582.2669719605999
 21
264.8932527573
 31
0.0
  0
LINE
  5
2A0
330
21B
100
AcDbEntity
  8
0
  6
Continuous
 62
     9
100
AcDbLine
 10
575.7495195541
 20
263.7967929393
 30
0.0
 11
515.7495195541001
 21
263.7967929393
 31
0.0
  0
LINE
  5
2A2
330
21B
100
AcDbEntity
  8
0
  6
Continuous
 62
     9
100
AcDbLine
 10
514.7669719606
 20
264.7966406344
 30
0.0
 11
576.7320671476999
 21
264.7966406344
 31
0.0
  0
LINE
  5
2A3
330
21B
100
AcDbEntity
  8
0
  6
Continuous
 62
     9
100
AcDbLine
 10
582.2669719605999
 20
264.8932527573
 30
0.0
 11
509.2320671477
 21
264.8932527573
 31
0.0
  0
LINE
  5
2A4
330
21B
100
AcDbEntity
  8
0
  6
Continuous
 62
     9
100
AcDbLine
 10
508.2495195541
 20
265.8931004525
 30
0.0
 11
583.2495195541
 21
265.8931004525
 31
0.0
  0
LINE
  5
2A5
330
21B
100
AcDbEntity
  8
0
  6
CENTER
100
AcDbLine
 10
683.7495195541
 20
269.1962158446
 30
0.0
 11
612.7495195541
 21
269.1962158446
 31
0.0
  0
LINE
  5
2A6
330
21B
100
AcDbEntity
  8
0
  6
Continuous
 62
     7
100
AcDbLine
 10
514.7669719606
 20
264.7966406344
 30
0.0
 11
509.2320671477
 21
264.8932527573
 31
0.0
  0
LINE
  5
2A7
330
21B
100
AcDbEntity
  8
0
  6
Continuous
 62
     7
100
AcDbLine
 10
492.5318859753
 20
266.9852338391
 30
0.0
 11
497.4065274227999
 21
266.7297647061
 31
0.0
  0
LINE
  5
2A8
330
21B
100
AcDbEntity
  8
0
  6
Continuous
 62
     7
100
AcDbLine
 10
474.3001159341
 20
340.2872910556
 30
0.0
 11
474.1614418719
 21
340.570424407
 31
0.0
  0
LINE
  5
2A9
330
21B
100
AcDbEntity
  8
0
  6
Continuous
 62
     7
100
AcDbLine
 10
502.2495195541
 20
383.4962158446
 30
0.0
 11
502.2495195541
 21
384.4962158446
 31
0.0
  0
LINE
  5
2AA
330
21B
100
AcDbEntity
  8
0
  6
Continuous
 62
     7
100
AcDbLine
 10
505.7495195541
 20
240.1962158446
 30
0.0
 11
505.7495195541
 21
257.6793379521
 31
0.0
  0
LINE
  5
2AB
330
21B
100
AcDbEntity
  8
0
  6
Continuous
 62
     7
100
AcDbLine
 10
508.2495195541
 20
265.8931004525
 30
0.0
 11
508.2495195541
 21
275.9614386227
 31
0.0
  0
LINE
  5
2AC
330
21B
100
AcDbEntity
  8
0
  6
Continuous
 62
     7
100
AcDbLine
 10
584.1971835978999
 20
276.9600681574
 30
0.0
 11
599.1639676398
 21
277.7444440721
 31
0.0
  0
LINE
  5
2AD
330
21B
100
AcDbEntity
  8
0
  6
Continuous
 62
     9
100
AcDbLine
 10
508.2495195541
 20
275.9614386227
 30
0.0
 11
583.2495195541
 21
275.9614386227
 31
0.0
  0
LINE
  5
2AE
330
21B
100
AcDbEntity
  8
0
  6
Continuous
 62
     9
100
AcDbLine
 10
507.3018555104
 20
276.9600681574
 30
0.0
 11
584.1971835978999
 21
276.9600681574
 31
0.0
  0
LINE
  5
2AF
330
21B
100
AcDbEntity
  8
RUNDUNGEN
  6
Continuous
 62
     9
100
AcDbLine
 10
534.6421470358999
 20
277.3826118917
 30
0.0
 11
556.8568920724
 21
277.3826118917
 31
0.0
  0
LINE
  5
2B0
330
21B
100
AcDbEntity
  8
0
  6
Continuous
 62
     9
100
AcDbLine
 10
492.3350714684
 20
277.7444440721
 30
0.0
 11
530.9603976395
 21
277.7444440722
 31
0.0
  0
LINE
  5
2B1
330
21B
100
AcDbEntity
  8
0
  6
Continuous
 62
     9
100
AcDbLine
 10
560.5386414687
 20
277.7444440722
 30
0.0
 11
599.1639676398
 21
277.7444440721
 31
0.0
  0
LINE
  5
2B2
330
21B
100
AcDbEntity
  8
RUNDUNGEN
  6
Continuous
 62
     9
100
AcDbLine
 10
534.4202335083999
 20
278.190432431
 30
0.0
 11
557.0788052509
 21
278.190432431
 31
0.0
  0
LINE
  5
2B3
330
21B
100
AcDbEntity
  8
0
  6
Continuous
 62
     9
100
AcDbLine
 10
491.4848221403
 20
278.31256251
 30
0.0
 11
530.7249849109999
 21
278.3125625098
 31
0.0
  0
LINE
  5
2B4
330
21B
100
AcDbEntity
  8
0
  6
Continuous
 62
     9
100
AcDbLine
 10
560.7740571849999
 20
278.3125625098
 30
0.0
 11
600.0142169679
 21
278.31256251
 31
0.0
  0
LINE
  5
2B5
330
21B
100
AcDbEntity
  8
0
  6
Continuous
 62
     7
100
AcDbLine
 10
507.3018555104
 20
276.9600681574
 30
0.0
 11
492.3350714684
 21
277.7444440721
 31
0.0
  0
LINE
  5
2B6
330
21B
100
AcDbEntity
  8
RUNDUNGEN
  6
Continuous
 62
     9
100
AcDbLine
 10
592.0418161298
 20
258.0823910163
 30
0.0
 11
590.2508911337
 21
258.6788809366
 31
0.0
  0
LINE
  5
2B7
330
21B
100
AcDbEntity
  8
RUNDUNGEN
  6
Continuous
 62
     9
100
AcDbLine
 10
593.0379619493
 20
259.0830659439
 30
0.0
 11
591.2550051766
 21
259.6769019479
 31
0.0
  0
LINE
  5
2B8
330
21B
100
AcDbEntity
  8
0
  6
Continuous
 62
     7
100
AcDbLine
 10
515.7495195541001
 20
259.6796424861
 30
0.0
 11
515.7495195541001
 21
263.7967929393
 31
0.0
  0
LINE
  5
2B9
330
21B
100
AcDbEntity
  8
RUNDUNGEN
  6
Continuous
 62
     9
100
AcDbLine
 10
528.2700196770999
 20
298.8726553561
 30
0.0
 11
528.2631123880999
 21
307.1523182249
 31
0.0
  0
LINE
  5
2BA
330
21B
100
AcDbEntity
  8
RUNDUNGEN
  6
Continuous
 62
     9
100
AcDbLine
 10
529.5048817977
 20
305.1524607871
 30
0.0
 11
529.5101229624999
 21
298.875881258
 31
0.0
  0
LINE
  5
2BB
330
21B
100
AcDbEntity
  8
RUNDUNGEN
  6
Continuous
 62
     9
100
AcDbLine
 10
533.2547886216
 20
370.5767630007
 30
0.0
 11
533.2548013772
 21
376.0775940457
 31
0.0
  0
LINE
  5
2BC
330
21B
100
AcDbEntity
  8
RUNDUNGEN
  6
Continuous
 62
     9
100
AcDbLine
 10
533.9760975108
 20
300.1789131077
 30
0.0
 11
533.9760975108
 21
304.2472512779
 31
0.0
  0
LINE
  5
2BD
330
21B
100
AcDbEntity
  8
RUNDUNGEN
  6
Continuous
 62
     9
100
AcDbLine
 10
534.0560172321
 20
370.5767639013
 30
0.0
 11
534.055971921
 21
376.0575585809
 31
0.0
  0
LINE
  5
2BE
330
21B
100
AcDbEntity
  8
RUNDUNGEN
  6
Continuous
 62
     9
100
AcDbLine
 10
535.1795507264999
 20
300.1789131077
 30
0.0
 11
535.1795507264999
 21
304.2472512779
 31
0.0
  0
LINE
  5
2BF
330
21B
100
AcDbEntity
  8
RUNDUNGEN
  6
Continuous
 62
     9
100
AcDbLine
 10
530.7992412457999
 20
354.0082135704
 30
0.0
 11
530.8024411804
 21
357.4713472664
 31
0.0
  0
LINE
  5
2C0
330
21B
100
AcDbEntity
  8
RUNDUNGEN
  6
Continuous
 62
     9
100
AcDbLine
 10
530.8192815351999
 20
370.6789131077
 30
0.0
 11
530.8197284597
 21
376.1829426213
 31
0.0
  0
LINE
  5
2C1
330
21B
100
AcDbEntity
  8
RUNDUNGEN
  6
Continuous
 62
     9
100
AcDbLine
 10
531.5519223925
 20
370.6789140055999
 30
0.0
 11
531.5523832369
 21
376.1797167193
 31
0.0
  0
LINE
  5
2C2
330
21B
100
AcDbEntity
  8
0
  6
Continuous
 62
     9
100
AcDbLine
 10
609.2094644551999
 20
297.5907997715
 30
0.0
 11
563.1519255841999
 21
297.5907997731
 31
0.0
  0
LINE
  5
2C3
330
21B
100
AcDbEntity
  8
0
  6
Continuous
 62
     9
100
AcDbLine
 10
528.3471135241
 20
297.5907997731
 30
0.0
 11
482.2895746530999
 21
297.5907997715
 31
0.0
  0
LINE
  5
2C4
330
21B
100
AcDbEntity
  8
RUNDUNGEN
  6
Continuous
 62
     9
100
AcDbLine
 10
558.0328525156
 20
297.9041912774
 30
0.0
 11
533.4661865926
 21
297.9041912774
 31
0.0
  0
LINE
  5
2C5
330
21B
100
AcDbEntity
  8
0
  6
Continuous
 62
     9
100
AcDbLine
 10
481.9973461158
 20
298.8726553561
 30
0.0
 11
528.2700196770999
 21
298.8726553561
 31
0.0
  0
LINE
  5
2C6
330
21B
100
AcDbEntity
  8
RUNDUNGEN
  6
Continuous
 62
     9
100
AcDbLine
 10
563.2290194311
 20
298.8726553561
 30
0.0
 11
604.4685663094
 21
298.8726553561
 31
0.0
  0
LINE
  5
2C7
330
21B
100
AcDbEntity
  8
0
  6
Continuous
 62
     9
100
AcDbLine
 10
604.4685663094
 20
298.872655356
 30
0.0
 11
609.5016929924
 21
298.8726553561
 31
0.0
  0
LINE
  5
2C8
330
21B
100
AcDbEntity
  8
RUNDUNGEN
  6
Continuous
 62
     9
100
AcDbLine
 10
557.8018611974999
 20
299.0948479676
 30
0.0
 11
533.6971779107
 21
299.0948479676
 31
0.0
  0
LINE
  5
2C9
330
21B
100
AcDbEntity
  8
RUNDUNGEN
  6
Continuous
 62
     9
100
AcDbLine
 10
556.5528703465999
 20
299.1790654125
 30
0.0
 11
534.9461687616999
 21
299.1790654125
 31
0.0
  0
LINE
  5
2CA
330
21B
100
AcDbEntity
  8
RUNDUNGEN
  6
Continuous
 62
     9
100
AcDbLine
 10
557.5229415973999
 20
300.1789131077
 30
0.0
 11
533.9760975108
 21
300.1789131077
 31
0.0
  0
LINE
  5
2CB
330
21B
100
AcDbEntity
  8
0
  6
Continuous
 62
     7
100
AcDbLine
 10
616.4187385209999
 20
302.6962158446
 30
0.0
 11
680.7495195541
 21
302.6962158446
 31
0.0
  0
LINE
  5
2CC
330
21B
100
AcDbEntity
  8
RUNDUNGEN
  6
Continuous
 62
     9
100
AcDbLine
 10
557.5229415973999
 20
304.2472512779
 30
0.0
 11
533.9760975108
 21
304.2472512779
 31
0.0
  0
LINE
  5
2CD
330
21B
100
AcDbEntity
  8
RUNDUNGEN
  6
Continuous
 62
     9
100
AcDbLine
 10
556.5445845480999
 20
305.2458808126
 30
0.0
 11
534.9544545601999
 21
305.2458808126
 31
0.0
  0
LINE
  5
2CE
330
21B
100
AcDbEntity
  8
RUNDUNGEN
  6
Continuous
 62
     9
100
AcDbLine
 10
530.4517830431999
 20
306.1569145921
 30
0.0
 11
561.047256065
 21
306.1569145921
 31
0.0
  0
LINE
  5
2CF
330
21B
100
AcDbEntity
  8
RUNDUNGEN
  6
Continuous
 62
     9
100
AcDbLine
 10
528.2631123880999
 20
307.1523182249
 30
0.0
 11
563.2359267201
 21
307.1523182249
 31
0.0
  0
LINE
  5
2D0
330
21B
100
AcDbEntity
  8
0
  6
Continuous
 62
     7
100
AcDbLine
 10
618.7489585548
 20
308.1962158446
 30
0.0
 11
680.7495195541
 21
308.1962158446
 31
0.0
  0
LINE
  5
2D1
330
21B
100
AcDbEntity
  8
RUNDUNGEN
  6
Continuous
 62
     9
100
AcDbLine
 10
615.3113430455
 20
298.5597290472
 30
0.0
 11
616.0448159783999
 21
298.5341156079
 31
0.0
  0
LINE
  5
2D2
330
21B
100
AcDbEntity
  8
0
  6
Continuous
 62
     7
100
AcDbLine
 10
537.2495195541
 20
384.4962158446
 30
0.0
 11
537.2495195541
 21
385.4962158446
 31
0.0
  0
LINE
  5
2D3
330
21B
100
AcDbEntity
  8
0
  6
Continuous
 62
     7
100
AcDbLine
 10
537.7495195541
 20
385.4962158446
 30
0.0
 11
537.7495195541
 21
387.0962158446
 31
0.0
  0
LINE
  5
2D4
330
21B
100
AcDbEntity
  8
0
  6
Continuous
 62
     7
100
AcDbLine
 10
537.7495195541
 20
388.6962158446
 30
0.0
 11
537.7495195541
 21
398.6962158446
 31
0.0
  0
LINE
  5
2D5
330
21B
100
AcDbEntity
  8
0
  6
Continuous
 62
     7
100
AcDbLine
 10
538.7495195541
 20
398.6962158446
 30
0.0
 11
538.7495195541
 21
406.6962158445999
 31
0.0
  0
LINE
  5
2D6
330
21B
100
AcDbEntity
  8
0
  6
Continuous
 62
     7
100
AcDbLine
 10
539.2495195541
 20
387.2462158446
 30
0.0
 11
539.2495195541
 21
388.6962158446
 31
0.0
  0
LINE
  5
2D7
330
21B
100
AcDbEntity
  8
0
  6
Continuous
 62
     7
100
AcDbLine
 10
539.9495195541
 20
387.2462158446
 30
0.0
 11
539.9495195541
 21
387.0962158446
 31
0.0
  0
LINE
  5
2D8
330
21B
100
AcDbEntity
  8
RUNDUNGEN
  6
Continuous
 62
     9
100
AcDbLine
 10
545.7495195541
 20
240.3252074942
 30
0.0
 11
545.7495195541
 21
257.9984380373
 31
0.0
  0
LINE
  5
2D9
330
21B
100
AcDbEntity
  8
0
  6
CENTER
100
AcDbLine
 10
545.7495195541
 20
227.0762110444
 30
0.0
 11
545.7495195541
 21
406.6962158445999
 31
0.0
  0
LINE
  5
2DA
330
21B
100
AcDbEntity
  8
0
  6
Continuous
 62
     7
100
AcDbLine
 10
545.7495195541
 20
388.101769344
 30
0.0
 11
545.7495195541
 21
388.6962158446
 31
0.0
  0
LINE
  5
2DB
330
21B
100
AcDbEntity
  8
RUNDUNGEN
  6
Continuous
 62
     9
100
AcDbLine
 10
593.0727873216999
 20
263.9028892511
 30
0.0
 11
591.2550051766
 21
265.6279000968
 31
0.0
  0
LINE
  5
2DC
330
21B
100
AcDbEntity
  8
RUNDUNGEN
  6
Continuous
 62
     9
100
AcDbLine
 10
594.0191526248001
 20
264.9001501988
 30
0.0
 11
592.2013704797
 21
266.6251610445
 31
0.0
  0
LINE
  5
2DD
330
21B
100
AcDbEntity
  8
0
  6
Continuous
 62
     7
100
AcDbLine
 10
551.5495195540999
 20
387.2462158446
 30
0.0
 11
551.5495195540999
 21
387.0962158446
 31
0.0
  0
LINE
  5
2DE
330
21B
100
AcDbEntity
  8
0
  6
Continuous
 62
     7
100
AcDbLine
 10
552.2495195541
 20
387.2462158446
 30
0.0
 11
552.2495195541
 21
388.6962158446
 31
0.0
  0
LINE
  5
2DF
330
21B
100
AcDbEntity
  8
0
  6
Continuous
 62
     7
100
AcDbLine
 10
552.7495195541
 20
398.6962158446
 30
0.0
 11
552.7495195541
 21
406.6962158445999
 31
0.0
  0
LINE
  5
2E0
330
21B
100
AcDbEntity
  8
0
  6
Continuous
 62
     7
100
AcDbLine
 10
553.7495195541001
 20
385.4962158446
 30
0.0
 11
553.7495195541001
 21
387.0962158446
 31
0.0
  0
LINE
  5
2E1
330
21B
100
AcDbEntity
  8
0
  6
Continuous
 62
     7
100
AcDbLine
 10
553.7495195541001
 20
388.6962158446
 30
0.0
 11
553.7495195541001
 21
398.6962158446
 31
0.0
  0
LINE
  5
2E2
330
21B
100
AcDbEntity
  8
0
  6
Continuous
 62
     7
100
AcDbLine
 10
554.2495195541
 20
384.4962158446
 30
0.0
 11
554.2495195541
 21
385.4962158446
 31
0.0
  0
LINE
  5
2E3
330
21B
100
AcDbEntity
  8
RUNDUNGEN
  6
Continuous
 62
     9
100
AcDbLine
 10
556.3194883817
 20
304.2472512779
 30
0.0
 11
556.3194883817
 21
300.1789131077
 31
0.0
  0
LINE
  5
2E4
330
21B
100
AcDbEntity
  8
RUNDUNGEN
  6
Continuous
 62
     9
100
AcDbLine
 10
557.4430671528999
 20
376.0575585809
 30
0.0
 11
557.4430218761
 21
370.5767638897
 31
0.0
  0
LINE
  5
2E5
330
21B
100
AcDbEntity
  8
RUNDUNGEN
  6
Continuous
 62
     9
100
AcDbLine
 10
557.5229415973999
 20
304.2472512779
 30
0.0
 11
557.5229415973999
 21
300.1789131077
 31
0.0
  0
LINE
  5
2E6
330
21B
100
AcDbEntity
  8
RUNDUNGEN
  6
Continuous
 62
     9
100
AcDbLine
 10
558.2442377287
 20
376.0775940456
 30
0.0
 11
558.2442504866
 21
370.5767639333999
 31
0.0
  0
LINE
  5
2E7
330
21B
100
AcDbEntity
  8
RUNDUNGEN
  6
Continuous
 62
     9
100
AcDbLine
 10
614.8267842934999
 20
296.5795008707
 30
0.0
 11
615.7122288648
 21
296.1571654747
 31
0.0
  0
LINE
  5
2E8
330
21B
100
AcDbEntity
  8
RUNDUNGEN
  6
Continuous
 62
     9
100
AcDbLine
 10
560.6965979277999
 20
357.4713472664
 30
0.0
 11
560.6997978624
 21
354.0082135702
 31
0.0
  0
LINE
  5
2E9
330
21B
100
AcDbEntity
  8
RUNDUNGEN
  6
Continuous
 62
     9
100
AcDbLine
 10
559.9466558712999
 20
376.1797167193
 30
0.0
 11
559.9471167157999
 21
370.6789131727
 31
0.0
  0
LINE
  5
2EA
330
21B
100
AcDbEntity
  8
RUNDUNGEN
  6
Continuous
 62
     9
100
AcDbLine
 10
560.6793106484999
 20
376.1829426213
 30
0.0
 11
560.679757573
 21
370.6789131077
 31
0.0
  0
LINE
  5
2EC
330
21B
100
AcDbEntity
  8
RUNDUNGEN
  6
Continuous
 62
     9
100
AcDbLine
 10
561.9889161457
 20
298.875881258
 30
0.0
 11
561.9941573106
 21
305.1524607871
 31
0.0
  0
LINE
  5
2ED
330
21B
100
AcDbEntity
  8
RUNDUNGEN
  6
Continuous
 62
     9
100
AcDbLine
 10
563.2359267201
 20
307.1523182249
 30
0.0
 11
563.2290194311
 21
298.8726553561
 31
0.0
  0
LINE
  5
2EE
330
21B
100
AcDbEntity
  8
RUNDUNGEN
  6
Continuous
 62
     9
100
AcDbLine
 10
600.1597578624999
 20
267.0422424539
 30
0.0
 11
601.2908343395999
 21
265.3494668803
 31
0.0
  0
LINE
  5
2EF
330
21B
100
AcDbEntity
  8
RUNDUNGEN
  6
Continuous
 62
     9
100
AcDbLine
 10
601.0088419535
 20
267.6095823053
 30
0.0
 11
602.1352142901
 21
265.9238469754
 31
0.0
  0
LINE
  5
2F0
330
21B
100
AcDbEntity
  8
0
  6
Continuous
 62
     7
100
AcDbLine
 10
575.7495195541
 20
259.6791855463
 30
0.0
 11
575.7495195541
 21
263.7967929393
 31
0.0
  0
LINE
  5
2F1
330
21B
100
AcDbEntity
  8
RUNDUNGEN
  6
Continuous
 62
     9
100
AcDbLine
 10
532.3325300300999
 20
352.1735741823001
 30
0.0
 11
559.1665090789
 21
352.1735741823001
 31
0.0
  0
LINE
  5
2F2
330
21B
100
AcDbEntity
  8
RUNDUNGEN
  6
Continuous
 62
     9
100
AcDbLine
 10
532.2577484258
 20
352.9363927235
 30
0.0
 11
559.2412906829999
 21
352.9363927235
 31
0.0
  0
LINE
  5
2F3
330
21B
100
AcDbEntity
  8
0
  6
Continuous
 62
     7
100
AcDbLine
 10
583.2495195541
 20
265.8931004525
 30
0.0
 11
583.2495195541
 21
275.9614386227
 31
0.0
  0
LINE
  5
2F4
330
21B
100
AcDbEntity
  8
0
  6
Continuous
 62
     9
100
AcDbLine
 10
590.2508911359999
 20
258.6791855463
 30
0.0
 11
590.2508911347
 21
258.6788809366
 31
0.0
  0
LINE
  5
2F5
330
21B
100
AcDbEntity
  8
0
  6
Continuous
 62
     7
100
AcDbLine
 10
591.2522642461
 20
265.6279000968
 30
0.0
 11
591.2522642461
 21
259.6769019456
 31
0.0
  0
LINE
  5
2F6
330
21B
100
AcDbEntity
  8
0
  6
Continuous
 62
     9
100
AcDbLine
 10
576.7495195541
 20
258.6791855463
 30
0.0
 11
576.7494753398999
 21
258.6788809366
 31
0.0
  0
LINE
  5
2F7
330
21B
100
AcDbEntity
  8
0
  6
Continuous
 62
     7
100
AcDbLine
 10
661.2858575039
 20
376.4879454983
 30
0.0
 11
668.2495195541
 21
377.0971869843
 31
0.0
  0
LINE
  5
2F8
330
21B
100
AcDbEntity
  8
0
  6
Continuous
 62
     7
100
AcDbLine
 10
610.6732699998
 20
358.4679690596
 30
0.0
 11
615.7669719605999
 21
358.556879958
 31
0.0
  0
LINE
  5
2F9
330
21B
100
AcDbEntity
  8
0
  6
Continuous
 62
     9
100
AcDbLine
 10
609.6907276095
 20
357.4713472664
 30
0.0
 11
560.6965979277999
 21
357.4713472664
 31
0.0
  0
LINE
  5
2FA
330
21B
100
AcDbEntity
  8
0
  6
Continuous
 62
     9
100
AcDbLine
 10
530.8024411804
 20
357.4713472664
 30
0.0
 11
481.8083114988
 21
357.4713472664
 31
0.0
  0
LINE
  5
2FB
330
21B
100
AcDbEntity
  8
RUNDUNGEN
  6
Continuous
 62
     9
100
AcDbLine
 10
558.0933973556
 20
358.2742936051
 30
0.0
 11
533.4056417533
 21
358.2742936051
 31
0.0
  0
LINE
  5
2FC
330
21B
100
AcDbEntity
  8
0
  6
Continuous
 62
     9
100
AcDbLine
 10
480.8257691085
 20
358.4679690596
 30
0.0
 11
530.5729933495999
 21
358.4679690596
 31
0.0
  0
LINE
  5
2FD
330
21B
100
AcDbEntity
  8
0
  6
Continuous
 62
     9
100
AcDbLine
 10
560.9260457586
 20
358.4679690596
 30
0.0
 11
610.6732699998
 21
358.4679690596
 31
0.0
  0
LINE
  5
2FE
330
21B
100
AcDbEntity
  8
0
  6
Continuous
 62
     9
100
AcDbLine
 10
615.7669719605999
 20
358.556879958
 30
0.0
 11
559.4426245043
 21
358.5568799580999
 31
0.0
  0
LINE
  5
2FF
330
21B
100
AcDbEntity
  8
0
  6
Continuous
 62
     9
100
AcDbLine
 10
532.0564146233
 20
358.5568799580999
 30
0.0
 11
475.7320671477
 21
358.556879958
 31
0.0
  0
LINE
  5
300
330
21B
100
AcDbEntity
  8
RUNDUNGEN
  6
Continuous
 62
     9
100
AcDbLine
 10
558.1561780512
 20
359.0403380482
 30
0.0
 11
533.3428815347
 21
359.0403380482
 31
0.0
  0
LINE
  5
301
330
21B
100
AcDbEntity
  8
0
  6
Continuous
 62
     9
100
AcDbLine
 10
474.7495195541
 20
359.5567276532
 30
0.0
 11
531.8645678208
 21
359.5567276532
 31
0.0
  0
LINE
  5
302
330
21B
100
AcDbEntity
  8
0
  6
Continuous
 62
     9
100
AcDbLine
 10
559.6344712873999
 20
359.5567276532
 30
0.0
 11
616.7495195541
 21
359.5567276532
 31
0.0
  0
LINE
  5
303
330
21B
100
AcDbEntity
  8
0
  6
Continuous
 62
     7
100
AcDbLine
 10
480.8257691085
 20
358.4679690596
 30
0.0
 11
475.7320671477
 21
358.556879958
 31
0.0
  0
LINE
  5
304
330
21B
100
AcDbEntity
  8
0
  6
Continuous
 62
     7
100
AcDbLine
 10
430.2131816043
 20
376.4879454983
 30
0.0
 11
423.2495195541
 21
377.0971869843
 31
0.0
  0
LINE
  5
305
330
21B
100
AcDbEntity
  8
0
  6
Continuous
 62
     7
100
AcDbLine
 10
617.3375998548999
 20
340.5704543766
 30
0.0
 11
617.1989263767
 21
340.2873220879
 31
0.0
  0
LINE
  5
306
330
21B
100
AcDbEntity
  8
0
  6
Continuous
 62
     7
100
AcDbLine
 10
650.7643757947
 20
376.5797650781
 30
0.0
 11
653.2495195541001
 21
376.7971869843
 31
0.0
  0
LINE
  5
307
330
21B
100
AcDbEntity
  8
0
  6
Continuous
 62
     7
100
AcDbLine
 10
637.1248943624999
 20
376.6987950293
 30
0.0
 11
638.2495195541
 21
376.7971869843
 31
0.0
  0
LINE
  5
308
330
21B
100
AcDbEntity
  8
RUNDUNGEN
  6
Continuous
 62
     7
100
AcDbLine
 10
559.1496471744999
 20
377.0757567941
 30
0.0
 11
559.1498742520999
 21
377.0757705351
 31
0.0
  0
LWPOLYLINE
  5
309
330
21B
100
AcDbEntity
  8
0
  6
Continuous
 62
     7
100
AcDbPolyline
 90
        5
 70
     0
 43
0.0
 10
560.8534113245999
 20
377.1779646181
 10
559.1476299163999
 20
377.0756376252
 10
559.1349590611001
 20
377.0749495175
 10
559.1179031580999
 20
377.0741336109
 10
559.0973245908998
 20
377.0732627825
  0
LINE
  5
30A
330
21B
100
AcDbEntity
  8
RUNDUNGEN
  6
Continuous
 62
     7
100
AcDbLine
 10
560.8534304611
 20
377.1779656739
 30
0.0
 11
560.8535642716
 21
377.1779735791
 31
0.0
  0
LINE
  5
30B
330
21B
100
AcDbEntity
  8
0
  6
Continuous
 62
     7
100
AcDbLine
 10
559.0973245908998
 20
377.0732627825
 30
0.0
 11
559.0451483812
 21
377.0714086706
 31
0.0
  0
LINE
  5
30C
330
21B
100
AcDbEntity
  8
0
  6
Continuous
 62
     7
100
AcDbLine
 10
560.9126298508999
 20
377.1797166980001
 30
0.0
 11
560.8535642716
 21
377.1779735791
 31
0.0
  0
LINE
  5
30D
330
21B
100
AcDbEntity
  8
0
  6
Continuous
 62
     7
100
AcDbLine
 10
559.0451483812
 20
377.0714086706
 30
0.0
 11
558.9791088836
 21
377.0694988224
 31
0.0
  0
LINE
  5
30E
330
21B
100
AcDbEntity
  8
0
  6
Continuous
 62
     7
100
AcDbLine
 10
625.8295499908
 20
368.8652970055001
 30
0.0
 11
693.8018734507001
 21
370.6452149365
 31
0.0
  0
LINE
  5
30F
330
21B
100
AcDbEntity
  8
0
  6
Continuous
 62
     7
100
AcDbLine
 10
558.9791088836
 20
377.0694988224
 30
0.0
 11
558.8997569961
 21
377.0676230214
 31
0.0
  0
LINE
  5
310
330
21B
100
AcDbEntity
  8
0
  6
Continuous
 62
     7
100
AcDbLine
 10
475.7320671477
 20
369.5911808221
 30
0.0
 11
480.7669719605999
 21
369.6790654125
 31
0.0
  0
LINE
  5
311
330
21B
100
AcDbEntity
  8
0
  6
Continuous
 62
     7
100
AcDbLine
 10
558.8997569961
 20
377.0676230214
 30
0.0
 11
558.7559361413999
 21
377.0649506246
 31
0.0
  0
LINE
  5
312
330
21B
100
AcDbEntity
  8
0
  6
Continuous
 62
     7
100
AcDbLine
 10
558.7559361413999
 20
377.0649506246
 30
0.0
 11
558.5199146357
 21
377.0618431877
 31
0.0
  0
LINE
  5
313
330
21B
100
AcDbEntity
  8
0
  6
Continuous
 62
     7
100
AcDbLine
 10
468.2858448433999
 20
376.8202005968
 30
0.0
 11
454.3741447458
 21
376.6987950293
 31
0.0
  0
LINE
  5
314
330
21B
100
AcDbEntity
  8
0
  6
Continuous
 62
     7
100
AcDbLine
 10
451.875675683
 20
376.6769912201
 30
0.0
 11
440.7346633134999
 21
376.5797650781
 31
0.0
  0
LINE
  5
315
330
21B
100
AcDbEntity
  8
0
  6
Continuous
 62
     7
100
AcDbLine
 10
435.2136640994
 20
376.5315840479
 30
0.0
 11
430.2131816043
 21
376.4879454983
 31
0.0
  0
LINE
  5
316
330
21B
100
AcDbEntity
  8
0
  6
Continuous
 62
     7
100
AcDbLine
 10
414.7426992383
 20
376.352936644
 30
0.0
 11
411.1274868676999
 21
376.3213871636
 31
0.0
  0
LINE
  5
317
330
21B
100
AcDbEntity
  8
0
  6
Continuous
 62
     7
100
AcDbLine
 10
480.7305022098999
 20
377.1795644145
 30
0.0
 11
480.7479546162999
 21
377.1797167193
 31
0.0
  0
LINE
  5
318
330
21B
100
AcDbEntity
  8
0
  6
Continuous
 62
     7
100
AcDbLine
 10
558.5199146357
 20
377.0618431877
 30
0.0
 11
558.1603511621999
 21
377.0589965289
 31
0.0
  0
LINE
  5
319
330
21B
100
AcDbEntity
  8
0
  6
Continuous
 62
     7
100
AcDbLine
 10
680.3984535565
 20
376.3214322075
 30
0.0
 11
680.3715522405
 21
376.3213871636
 31
0.0
  0
LINE
  5
31A
330
21B
100
AcDbEntity
  8
0
  6
Continuous
 62
     7
100
AcDbLine
 10
558.1603511621999
 20
377.0589965289
 30
0.0
 11
557.6544659878
 21
377.0575687254
 31
0.0
  0
LINE
  5
31B
330
21B
100
AcDbEntity
  8
0
  6
Continuous
 62
     9
100
AcDbLine
 10
474.7495195541
 20
368.591333127
 30
0.0
 11
531.8645678251999
 21
368.591333127
 31
0.0
  0
LINE
  5
31C
330
21B
100
AcDbEntity
  8
0
  6
Continuous
 62
     9
100
AcDbLine
 10
559.6344711687
 20
368.591333127
 30
0.0
 11
616.7495195541
 21
368.591333127
 31
0.0
  0
LINE
  5
31D
330
21B
100
AcDbEntity
  8
0
  6
Continuous
 62
     9
100
AcDbLine
 10
480.7669719605999
 20
369.5911808221
 30
0.0
 11
532.0563787208
 21
369.5911808221
 31
0.0
  0
LINE
  5
31E
330
21B
100
AcDbEntity
  8
0
  6
Continuous
 62
     9
100
AcDbLine
 10
559.4423115308
 20
369.5911808221
 30
0.0
 11
615.7669719605999
 21
369.5911808221
 31
0.0
  0
LINE
  5
31F
330
21B
100
AcDbEntity
  8
0
  6
Continuous
 62
     9
100
AcDbLine
 10
480.7669719605999
 20
369.6790654125
 30
0.0
 11
530.5902932978
 21
369.6790654125
 31
0.0
  0
LINE
  5
320
330
21B
100
AcDbEntity
  8
0
  6
Continuous
 62
     9
100
AcDbLine
 10
560.908960287
 20
369.6790654125
 30
0.0
 11
610.7320671476998
 21
369.6790654125
 31
0.0
  0
LINE
  5
321
330
21B
100
AcDbEntity
  8
RUNDUNGEN
  6
Continuous
 62
     9
100
AcDbLine
 10
534.0560172321
 20
370.5767639005001
 30
0.0
 11
533.2547886216
 21
370.576763901
 31
0.0
  0
LINE
  5
322
330
21B
100
AcDbEntity
  8
RUNDUNGEN
  6
Continuous
 62
     9
100
AcDbLine
 10
557.4430218761
 20
370.5767638888
 30
0.0
 11
558.2442504866
 21
370.5767638893
 31
0.0
  0
LINE
  5
323
330
21B
100
AcDbEntity
  8
0
  6
Continuous
 62
     9
100
AcDbLine
 10
481.7495195541
 20
370.6789131077
 30
0.0
 11
530.8192815351999
 21
370.6789131077
 31
0.0
  0
LINE
  5
324
330
21B
100
AcDbEntity
  8
RUNDUNGEN
  6
Continuous
 62
     9
100
AcDbLine
 10
530.8192815351999
 20
370.6789131077
 30
0.0
 11
531.5519223925
 21
370.6789131077
 31
0.0
  0
LINE
  5
325
330
21B
100
AcDbEntity
  8
RUNDUNGEN
  6
Continuous
 62
     9
100
AcDbLine
 10
559.9471167157999
 20
370.6789131077
 30
0.0
 11
560.679757573
 21
370.6789131077
 31
0.0
  0
LINE
  5
326
330
21B
100
AcDbEntity
  8
0
  6
Continuous
 62
     9
100
AcDbLine
 10
560.679757573
 20
370.6789131077
 30
0.0
 11
609.7495195541
 21
370.6789131077
 31
0.0
  0
LINE
  5
327
330
21B
100
AcDbEntity
  8
0
  6
Continuous
 62
     7
100
AcDbLine
 10
609.7495195541
 20
375.6962158446
 30
0.0
 11
560.679757573
 21
375.6962158446
 31
0.0
  0
LINE
  5
328
330
21B
100
AcDbEntity
  8
RUNDUNGEN
  6
Continuous
 62
     9
100
AcDbLine
 10
560.679757573
 20
375.6962158446
 30
0.0
 11
559.9471167157999
 21
375.6962158446
 31
0.0
  0
LINE
  5
329
330
21B
100
AcDbEntity
  8
0
  6
Continuous
 62
     7
100
AcDbLine
 10
530.8192815351999
 20
375.6962158446
 30
0.0
 11
481.7495195541
 21
375.6962158446
 31
0.0
  0
LINE
  5
32A
330
21B
100
AcDbEntity
  8
RUNDUNGEN
  6
Continuous
 62
     9
100
AcDbLine
 10
557.4430671528999
 20
376.0575585809
 30
0.0
 11
534.055971921
 21
376.0575585809
 31
0.0
  0
LINE
  5
32B
330
21B
100
AcDbEntity
  8
0
  6
Continuous
 62
     9
100
AcDbLine
 10
609.7510896951
 20
376.1829426213
 30
0.0
 11
560.6793106484999
 21
376.1829426213
 31
0.0
  0
LINE
  5
32C
330
21B
100
AcDbEntity
  8
0
  6
Continuous
 62
     9
100
AcDbLine
 10
530.8197284597
 20
376.1829426213
 30
0.0
 11
481.7479494130999
 21
376.1829426213
 31
0.0
  0
LINE
  5
32D
330
21B
100
AcDbEntity
  8
0
  6
Continuous
 62
     7
100
AcDbLine
 10
414.7426992383
 20
376.3212729328
 30
0.0
 11
431.559016155
 21
376.3212729328
 31
0.0
  0
LINE
  5
32E
330
21B
100
AcDbEntity
  8
0
  6
Continuous
 62
     7
100
AcDbLine
 10
659.9400229532
 20
376.3212729328
 30
0.0
 11
676.7563398699
 21
376.3212729328
 31
0.0
  0
LINE
  5
32F
330
21B
100
AcDbEntity
  8
0
  6
Continuous
 62
     9
100
AcDbLine
 10
659.9400229532
 20
376.3212729328
 30
0.0
 11
659.9334786747
 21
376.3213871636
 31
0.0
  0
LINE
  5
330
330
21B
100
AcDbEntity
  8
0
  6
Continuous
 62
     9
100
AcDbLine
 10
431.5655604336
 20
376.3213871636
 30
0.0
 11
431.559016155
 21
376.3212729328
 31
0.0
  0
LINE
  5
331
330
21B
100
AcDbEntity
  8
0
  6
Continuous
 62
     7
100
AcDbLine
 10
414.7426992383
 20
376.352936644
 30
0.0
 11
433.3730289547999
 21
376.352936644
 31
0.0
  0
LINE
  5
332
330
21B
100
AcDbEntity
  8
0
  6
Continuous
 62
     7
100
AcDbLine
 10
658.1260101535
 20
376.352936644
 30
0.0
 11
676.7563398699
 21
376.352936644
 31
0.0
  0
LINE
  5
333
330
21B
100
AcDbEntity
  8
0
  6
Continuous
 62
     7
100
AcDbLine
 10
434.8932150941
 20
376.4879454983
 30
0.0
 11
441.1076810355999
 21
376.4879454983
 31
0.0
  0
LINE
  5
334
330
21B
100
AcDbEntity
  8
0
  6
Continuous
 62
     7
100
AcDbLine
 10
650.3913580726
 20
376.4879454983
 30
0.0
 11
656.6058240141
 21
376.4879454983
 31
0.0
  0
LINE
  5
335
330
21B
100
AcDbEntity
  8
0
  6
Continuous
 62
     7
100
AcDbLine
 10
438.2495195541
 20
376.5315840479
 30
0.0
 11
443.6077318691999
 21
376.5315840479
 31
0.0
  0
LINE
  5
336
330
21B
100
AcDbEntity
  8
0
  6
Continuous
 62
     7
100
AcDbLine
 10
647.8913072391
 20
376.5315840479
 30
0.0
 11
656.2853750089
 21
376.5315840479
 31
0.0
  0
LINE
  5
337
330
21B
100
AcDbEntity
  8
0
  6
Continuous
 62
     7
100
AcDbLine
 10
557.6544659878
 20
377.0575687254
 30
0.0
 11
533.8913200161
 21
377.0575585809
 31
0.0
  0
LINE
  5
338
330
21B
100
AcDbEntity
  8
0
  6
Continuous
 62
     7
100
AcDbLine
 10
610.7009572787999
 20
377.1797167193
 30
0.0
 11
560.9125816976
 21
377.1797167193
 31
0.0
  0
LINE
  5
339
330
21B
100
AcDbEntity
  8
0
  6
Continuous
 62
     7
100
AcDbLine
 10
530.5864574106
 20
377.1797167193
 30
0.0
 11
480.7980818294999
 21
377.1797167193
 31
0.0
  0
LINE
  5
33A
330
21B
100
AcDbEntity
  8
0
  6
Continuous
 62
     7
100
AcDbLine
 10
411.1005855533999
 20
376.3214322065
 30
0.0
 11
411.1274868676999
 21
376.3213871636
 31
0.0
  0
LINE
  5
33B
330
21B
100
AcDbEntity
  8
0
  6
Continuous
 62
     7
100
AcDbLine
 10
533.8913226675999
 20
377.057556313
 30
0.0
 11
533.4284753380999
 21
377.0585516681
 31
0.0
  0
LINE
  5
33C
330
21B
100
AcDbEntity
  8
0
  6
Continuous
 62
     7
100
AcDbLine
 10
610.7685368982999
 20
377.1795644145
 30
0.0
 11
610.7508239347001
 21
377.179675553
 31
0.0
  0
LINE
  5
33D
330
21B
100
AcDbEntity
  8
0
  6
Continuous
 62
     7
100
AcDbLine
 10
623.2131942648
 20
376.8202005968
 30
0.0
 11
637.1248943624999
 21
376.6987950293
 31
0.0
  0
LINE
  5
33E
330
21B
100
AcDbEntity
  8
0
  6
Continuous
 62
     7
100
AcDbLine
 10
639.6233634251999
 20
376.6769912201
 30
0.0
 11
650.7643757947
 21
376.5797650781
 31
0.0
  0
LINE
  5
33F
330
21B
100
AcDbEntity
  8
0
  6
Continuous
 62
     7
100
AcDbLine
 10
656.2853750089
 20
376.5315840479
 30
0.0
 11
661.2858575039
 21
376.4879454983
 31
0.0
  0
LINE
  5
340
330
21B
100
AcDbEntity
  8
0
  6
Continuous
 62
     7
100
AcDbLine
 10
676.7563398699
 20
376.352936644
 30
0.0
 11
680.3715522405
 21
376.3213871636
 31
0.0
  0
LINE
  5
341
330
21B
100
AcDbEntity
  8
0
  6
Continuous
 62
     7
100
AcDbLine
 10
533.4284753380999
 20
377.0585516681
 30
0.0
 11
533.0355463829
 21
377.0612667574
 31
0.0
  0
LINE
  5
342
330
21B
100
AcDbEntity
  8
0
  6
Continuous
 62
     7
100
AcDbLine
 10
533.0355463829
 20
377.0612667574
 30
0.0
 11
532.7942250744
 21
377.0641642951
 31
0.0
  0
LINE
  5
343
330
21B
100
AcDbEntity
  8
0
  6
Continuous
 62
     7
100
AcDbLine
 10
615.7669719605999
 20
369.5911808221
 30
0.0
 11
610.7320671476998
 21
369.6790654125
 31
0.0
  0
LINE
  5
344
330
21B
100
AcDbEntity
  8
0
  6
Continuous
 62
     7
100
AcDbLine
 10
532.7942250744
 20
377.0641642951
 30
0.0
 11
532.6020027675999
 21
377.06756501
 31
0.0
  0
LINE
  5
345
330
21B
100
AcDbEntity
  8
0
  6
Continuous
 62
     7
100
AcDbLine
 10
532.6020027675999
 20
377.06756501
 30
0.0
 11
532.5019643764
 21
377.0699819906
 31
0.0
  0
LINE
  5
346
330
21B
100
AcDbEntity
  8
0
  6
Continuous
 62
     7
100
AcDbLine
 10
465.6694891173999
 20
368.8652970055001
 30
0.0
 11
397.6971656575
 21
370.6452149365
 31
0.0
  0
LINE
  5
347
330
21B
100
AcDbEntity
  8
0
  6
Continuous
 62
     7
100
AcDbLine
 10
530.5864092573
 20
377.1797166980001
 30
0.0
 11
530.6454748045999
 21
377.177973581
 31
0.0
  0
LWPOLYLINE
  5
348
330
21B
100
AcDbEntity
  8
0
  6
Continuous
 62
     7
100
AcDbPolyline
 90
        5
 70
     0
 43
0.0
 10
532.5019643764
 20
377.0699819906
 10
532.4242238546999
 20
377.0724120126999
 10
532.3941545077
 20
377.0735707497
 10
532.3703948067
 20
377.0746352515
 10
532.3647789558
 20
377.0749139425
  0
LINE
  5
349
330
21B
100
AcDbEntity
  8
0
  6
Continuous
 62
     7
100
AcDbLine
 10
532.3647789558
 20
377.0749139425
 30
0.0
 11
532.3487468478
 21
377.0757956932
 31
0.0
  0
LINE
  5
34A
330
21B
100
AcDbEntity
  8
RUNDUNGEN
  6
Continuous
 62
     7
100
AcDbLine
 10
530.6456086445999
 20
377.177965674
 30
0.0
 11
530.6454748045999
 21
377.177973581
 31
0.0
  0
LINE
  5
34B
330
21B
100
AcDbEntity
  8
RUNDUNGEN
  6
Continuous
 62
     7
100
AcDbLine
 10
532.3493922051
 20
377.0757612318
 30
0.0
 11
532.3487471182
 21
377.075800126
 31
0.0
  0
LINE
  5
34C
330
21B
100
AcDbEntity
  8
0
  6
Continuous
 62
     7
100
AcDbLine
 10
532.3493922051
 20
377.0757612318
 30
0.0
 11
530.6456277808999
 21
377.1779646183
 31
0.0
  0
LINE
  5
34D
330
21B
100
AcDbEntity
  8
0
  6
Continuous
 62
     7
100
AcDbLine
 10
440.7346633134999
 20
376.5797650781
 30
0.0
 11
438.2495195541
 21
376.7971869843
 31
0.0
  0
LINE
  5
34E
330
21B
100
AcDbEntity
  8
0
  6
Continuous
 62
     7
100
AcDbLine
 10
454.3741447458
 20
376.6987950293
 30
0.0
 11
453.2495195541001
 21
376.7971869843
 31
0.0
  0
LINE
  5
34F
330
21B
100
AcDbEntity
  8
0
  6
Continuous
 62
     7
100
AcDbLine
 10
609.7495195541
 20
370.6789131077
 30
0.0
 11
609.7495195541
 21
375.6962158446
 31
0.0
  0
LINE
  5
350
330
21B
100
AcDbEntity
  8
0
  6
Continuous
 62
     7
100
AcDbLine
 10
613.8353994342
 20
383.4962158446
 30
0.0
 11
613.8353994342
 21
384.4962158446
 31
0.0
  0
LINE
  5
351
330
21B
100
AcDbEntity
  8
0
  6
Continuous
 62
     7
100
AcDbLine
 10
614.2609312982999
 20
383.4962158446
 30
0.0
 11
614.2609312982999
 21
384.4962158446
 31
0.0
  0
LINE
  5
354
330
21B
100
AcDbEntity
  8
0
  6
Continuous
 62
     7
100
AcDbLine
 10
616.5703324439
 20
383.4962158446
 30
0.0
 11
616.5703324439
 21
384.4962158446
 31
0.0
  0
LINE
  5
355
330
21B
100
AcDbEntity
  8
0
  6
Continuous
 62
     7
100
AcDbLine
 10
616.7495195541
 20
359.5567276532
 30
0.0
 11
616.7495195541
 21
368.591333127
 31
0.0
  0
LINE
  5
356
330
21B
100
AcDbEntity
  8
0
  6
Continuous
 62
     7
100
AcDbLine
 10
609.5016929924
 20
298.8726553561
 30
0.0
 11
609.6907276095
 21
357.4713472664
 31
0.0
  0
LINE
  5
357
330
21B
100
AcDbEntity
  8
0
  6
Continuous
 62
     7
100
AcDbLine
 10
609.7495195541
 20
375.6962158446
 30
0.0
 11
609.7510896951
 21
376.1829426213
 31
0.0
  0
LINE
  5
358
330
21B
100
AcDbEntity
  8
0
  6
Continuous
 62
     7
100
AcDbLine
 10
616.6923064380999
 20
338.2625299602
 30
0.0
 11
615.7507860737
 21
311.3009143347
 31
0.0
  0
LINE
  5
359
330
21B
100
AcDbEntity
  8
0
  6
Continuous
 62
     7
100
AcDbLine
 10
615.4193476930999
 20
301.7311153161
 30
0.0
 11
615.3086037847
 21
298.5598247043
 31
0.0
  0
LINE
  5
35A
330
21B
100
AcDbEntity
  8
0
  6
Continuous
 62
     7
100
AcDbLine
 10
600.0142169679
 20
278.31256251
 30
0.0
 11
609.2094644551999
 21
297.5907997715
 31
0.0
  0
LINE
  5
35B
330
21B
100
AcDbEntity
  8
0
  6
Continuous
 62
     7
100
AcDbLine
 10
451.875675683
 20
376.6769912201
 30
0.0
 11
453.2495195541001
 21
376.7971869843
 31
0.0
  0
LINE
  5
35C
330
21B
100
AcDbEntity
  8
0
  6
Continuous
 62
     7
100
AcDbLine
 10
435.2136640994
 20
376.5315840479
 30
0.0
 11
438.2495195541
 21
376.7971869843
 31
0.0
  0
LINE
  5
35D
330
21B
100
AcDbEntity
  8
0
  6
Continuous
 62
     7
100
AcDbLine
 10
414.7426992383
 20
376.352936644
 30
0.0
 11
423.2495195541
 21
377.0971869843
 31
0.0
  0
LINE
  5
35E
330
21B
100
AcDbEntity
  8
0
  6
Continuous
 62
     7
100
AcDbLine
 10
397.7146147412
 20
375.7305167087
 30
0.0
 11
480.7305022098999
 21
377.1795644145
 31
0.0
  0
LINE
  5
35F
330
21B
100
AcDbEntity
  8
0
  6
Continuous
 62
     7
100
AcDbLine
 10
683.7744515352999
 20
383.4962158446
 30
0.0
 11
622.7495195541
 21
383.4962158446
 31
0.0
  0
LINE
  5
360
330
21B
100
AcDbEntity
  8
0
  6
Continuous
 62
     7
100
AcDbLine
 10
407.724587573
 20
383.4962158446
 30
0.0
 11
622.6359431051999
 21
383.4962158446
 31
0.0
  0
LINE
  5
361
330
21B
100
AcDbEntity
  8
0
  6
Continuous
 62
     9
100
AcDbLine
 10
441.1928114083
 20
384.4962158446
 30
0.0
 11
460.0949244408999
 21
384.4962158446
 31
0.0
  0
LINE
  5
362
330
21B
100
AcDbEntity
  8
0
  6
Continuous
 62
     7
100
AcDbLine
 10
480.3213163237999
 20
384.4962158446
 30
0.0
 11
502.2495195541
 21
384.4962158446
 31
0.0
  0
LINE
  5
363
330
21B
100
AcDbEntity
  8
0
  6
Continuous
 62
     9
100
AcDbLine
 10
537.2495195541
 20
384.4962158446
 30
0.0
 11
554.2495195541
 21
384.4962158446
 31
0.0
  0
LINE
  5
364
330
21B
100
AcDbEntity
  8
0
  6
Continuous
 62
     7
100
AcDbLine
 10
613.8353994342
 20
384.4962158446
 30
0.0
 11
621.0108259835
 21
384.4962158446
 31
0.0
  0
LINE
  5
365
330
21B
100
AcDbEntity
  8
0
  6
Continuous
 62
     7
100
AcDbLine
 10
622.6359431051999
 20
384.4962158446
 30
0.0
 11
631.4041146673
 21
384.4962158446
 31
0.0
  0
LINE
  5
366
330
21B
100
AcDbEntity
  8
0
  6
Continuous
 62
     9
100
AcDbLine
 10
631.4041146674
 20
384.4962158446
 30
0.0
 11
650.3062276998999
 21
384.4962158446
 31
0.0
  0
LINE
  5
367
330
21B
100
AcDbEntity
  8
0
  6
Continuous
 62
     7
100
AcDbLine
 10
650.3062276998999
 20
384.4962158446
 30
0.0
 11
660.3373572933999
 21
384.4962158446
 31
0.0
  0
LINE
  5
368
330
21B
100
AcDbEntity
  8
02___PRT_ALL_AXES
  6
Continuous
 62
     7
100
AcDbLine
 10
441.1926282824
 20
385.4962158446
 30
0.0
 11
460.0951075668
 21
385.4962158446
 31
0.0
  0
LINE
  5
369
330
21B
100
AcDbEntity
  8
0
  6
Continuous
 62
     7
100
AcDbLine
 10
537.2495195541
 20
385.4962158446
 30
0.0
 11
554.2495195541
 21
385.4962158446
 31
0.0
  0
LINE
  5
36A
330
21B
100
AcDbEntity
  8
02___PRT_ALL_AXES
  6
Continuous
 62
     7
100
AcDbLine
 10
631.4039315415
 20
385.4962158446
 30
0.0
 11
650.3064108258
 21
385.4962158446
 31
0.0
  0
LINE
  5
36B
330
21B
100
AcDbEntity
  8
0
  6
Continuous
 62
     7
100
AcDbLine
 10
442.6438679245999
 20
387.0962158446
 30
0.0
 11
458.6438679246
 21
387.0962158446
 31
0.0
  0
LINE
  5
36C
330
21B
100
AcDbEntity
  8
0
  6
Continuous
 62
     7
100
AcDbLine
 10
537.7495195541
 20
387.0962158446
 30
0.0
 11
553.7495195541001
 21
387.0962158446
 31
0.0
  0
LINE
  5
36D
330
21B
100
AcDbEntity
  8
0
  6
Continuous
 62
     7
100
AcDbLine
 10
632.8551711835999
 20
387.0962158446
 30
0.0
 11
648.8551711836
 21
387.0962158446
 31
0.0
  0
LINE
  5
36E
330
21B
100
AcDbEntity
  8
0
  6
Continuous
 62
     7
100
AcDbLine
 10
443.9939054506999
 20
387.2462158446
 30
0.0
 11
457.2938303985
 21
387.2462158446
 31
0.0
  0
LINE
  5
36F
330
21B
100
AcDbEntity
  8
0
  6
Continuous
 62
     7
100
AcDbLine
 10
539.2495195541
 20
387.2462158446
 30
0.0
 11
552.2495195541
 21
387.2462158446
 31
0.0
  0
LINE
  5
370
330
21B
100
AcDbEntity
  8
0
  6
Continuous
 62
     7
100
AcDbLine
 10
634.2052087097
 20
387.2462158446
 30
0.0
 11
647.5051336576
 21
387.2462158446
 31
0.0
  0
LINE
  5
371
330
21B
100
AcDbEntity
  8
0
  6
Continuous
 62
     7
100
AcDbLine
 10
442.6438679245999
 20
388.6962158446
 30
0.0
 11
458.6438679246
 21
388.6962158446
 31
0.0
  0
LINE
  5
372
330
21B
100
AcDbEntity
  8
0
  6
Continuous
 62
     7
100
AcDbLine
 10
537.7495195541
 20
388.6962158446
 30
0.0
 11
553.7495195541001
 21
388.6962158446
 31
0.0
  0
LINE
  5
373
330
21B
100
AcDbEntity
  8
0
  6
Continuous
 62
     7
100
AcDbLine
 10
632.8551711835999
 20
388.6962158446
 30
0.0
 11
648.8551711836
 21
388.6962158446
 31
0.0
  0
LINE
  5
374
330
21B
100
AcDbEntity
  8
0
  6
Continuous
 62
     7
100
AcDbLine
 10
693.7844243669999
 20
375.7305167087
 30
0.0
 11
610.7685368982999
 21
377.1795644145
 31
0.0
  0
LINE
  5
375
330
21B
100
AcDbEntity
  8
0
  6
Continuous
 62
     7
100
AcDbLine
 10
639.6233634251999
 20
376.6769912201
 30
0.0
 11
638.2495195541
 21
376.7971869843
 31
0.0
  0
LINE
  5
376
330
21B
100
AcDbEntity
  8
0
  6
Continuous
 62
     7
100
AcDbLine
 10
656.2853750089
 20
376.5315840479
 30
0.0
 11
653.2495195541001
 21
376.7971869843
 31
0.0
  0
LINE
  5
377
330
21B
100
AcDbEntity
  8
0
  6
Continuous
 62
     7
100
AcDbLine
 10
676.7563398699
 20
376.352936644
 30
0.0
 11
668.2495195541
 21
377.0971869843
 31
0.0
  0
LINE
  5
378
330
21B
100
AcDbEntity
  8
0
  6
Continuous
 62
     7
100
AcDbLine
 10
622.7495195541
 20
383.4962158446
 30
0.0
 11
623.2131942648
 21
376.8202005968
 31
0.0
  0
LINE
  5
379
330
21B
100
AcDbEntity
  8
0
  6
Continuous
 62
     7
100
AcDbLine
 10
620.1448005797
 20
383.4962158446
 30
0.0
 11
620.1448005797
 21
384.4962158446
 31
0.0
  0
LINE
  5
37A
330
21B
100
AcDbEntity
  8
0
  6
Continuous
 62
     7
100
AcDbLine
 10
621.0108259835
 20
383.4962158446
 30
0.0
 11
621.0108259835
 21
384.4962158446
 31
0.0
  0
LINE
  5
37B
330
21B
100
AcDbEntity
  8
0
  6
Continuous
 62
     7
100
AcDbLine
 10
622.6359431051999
 20
383.4962158446
 30
0.0
 11
622.6359431051999
 21
384.4962158446
 31
0.0
  0
LINE
  5
37C
330
21B
100
AcDbEntity
  8
0
  6
Continuous
 62
     7
100
AcDbLine
 10
622.746924794
 20
383.4962158446
 30
0.0
 11
622.746924794
 21
384.4962158446
 31
0.0
  0
LINE
  5
37D
330
21B
100
AcDbEntity
  8
0
  6
Continuous
 62
     7
100
AcDbLine
 10
622.9430124427999
 20
383.4962158446
 30
0.0
 11
622.9430124427999
 21
384.4962158446
 31
0.0
  0
LINE
  5
37E
330
21B
100
AcDbEntity
  8
0
  6
Continuous
 62
     7
100
AcDbLine
 10
623.2834380533001
 20
383.4962158446
 30
0.0
 11
623.2834380533001
 21
384.4962158446
 31
0.0
  0
LINE
  5
37F
330
21B
100
AcDbEntity
  8
0
  6
Continuous
 62
     7
100
AcDbLine
 10
624.1678579949999
 20
383.4962158446
 30
0.0
 11
624.1678579949999
 21
384.4962158446
 31
0.0
  0
LINE
  5
380
330
21B
100
AcDbEntity
  8
0
  6
Continuous
 62
     7
100
AcDbLine
 10
624.7118520026
 20
383.4962158446
 30
0.0
 11
624.7118520026
 21
384.4962158446
 31
0.0
  0
LINE
  5
381
330
21B
100
AcDbEntity
  8
0
  6
Continuous
 62
     7
100
AcDbLine
 10
625.1707404484
 20
383.4962158446
 30
0.0
 11
625.1707404484
 21
384.4962158446
 31
0.0
  0
LINE
  5
382
330
21B
100
AcDbEntity
  8
0
  6
Continuous
 62
     7
100
AcDbLine
 10
625.5445216879
 20
383.4962158446
 30
0.0
 11
625.5445216879
 21
384.4962158446
 31
0.0
  0
LINE
  5
383
330
21B
100
AcDbEntity
  8
0
  6
Continuous
 62
     7
100
AcDbLine
 10
626.2069786126999
 20
383.4962158446
 30
0.0
 11
626.2069786126999
 21
384.4962158446
 31
0.0
  0
LINE
  5
384
330
21B
100
AcDbEntity
  8
0
  6
Continuous
 62
     7
100
AcDbLine
 10
627.3616788758
 20
383.4962158446
 30
0.0
 11
627.3616788758
 21
384.4962158446
 31
0.0
  0
LINE
  5
385
330
21B
100
AcDbEntity
  8
0
  6
Continuous
 62
     7
100
AcDbLine
 10
627.85392304
 20
383.4962158446
 30
0.0
 11
627.85392304
 21
384.4962158446
 31
0.0
  0
LINE
  5
386
330
21B
100
AcDbEntity
  8
0
  6
Continuous
 62
     7
100
AcDbLine
 10
628.0574915189999
 20
383.4962158446
 30
0.0
 11
628.0574915189999
 21
384.4962158446
 31
0.0
  0
LINE
  5
387
330
21B
100
AcDbEntity
  8
0
  6
Continuous
 62
     7
100
AcDbLine
 10
628.1759536176999
 20
383.4962158446
 30
0.0
 11
628.1759536176999
 21
384.4962158446
 31
0.0
  0
LINE
  5
388
330
21B
100
AcDbEntity
  8
0
  6
Continuous
 62
     7
100
AcDbLine
 10
628.2093101545999
 20
383.4962158446
 30
0.0
 11
628.2093101545999
 21
384.4962158446
 31
0.0
  0
LINE
  5
389
330
21B
100
AcDbEntity
  8
0
  6
Continuous
 62
     7
100
AcDbLine
 10
618.1312340143001
 20
350.8143161403
 30
0.0
 11
617.8442180007
 21
342.5952528787
 31
0.0
  0
LINE
  5
38A
330
21B
100
AcDbEntity
  8
0
  6
Continuous
 62
     7
100
AcDbLine
 10
622.5757071558
 20
356.4007533408999
 30
0.0
 11
622.9099083547001
 21
365.9710235207
 31
0.0
  0
LINE
  5
38B
330
21B
100
AcDbEntity
  8
0
  6
Continuous
 62
     7
100
AcDbLine
 10
614.8243103699
 20
296.5806808717
 30
0.0
 11
601.0063680296999
 21
267.6107623057
 31
0.0
  0
LINE
  5
38C
330
21B
100
AcDbEntity
  8
0
  6
Continuous
 62
     7
100
AcDbLine
 10
442.6438679245999
 20
398.6962158446
 30
0.0
 11
458.6438679246
 21
398.6962158446
 31
0.0
  0
LINE
  5
38D
330
21B
100
AcDbEntity
  8
0
  6
Continuous
 62
     7
100
AcDbLine
 10
537.7495195541
 20
398.6962158446
 30
0.0
 11
553.7495195541001
 21
398.6962158446
 31
0.0
  0
LINE
  5
38E
330
21B
100
AcDbEntity
  8
0
  6
Continuous
 62
     7
100
AcDbLine
 10
632.8551711835999
 20
398.6962158446
 30
0.0
 11
648.8551711836
 21
398.6962158446
 31
0.0
  0
LINE
  5
38F
330
21B
100
AcDbEntity
  8
0
  6
Continuous
 62
     7
100
AcDbLine
 10
631.4041146673
 20
384.4962158446
 30
0.0
 11
631.4041146673
 21
385.4962158446
 31
0.0
  0
LINE
  5
390
330
21B
100
AcDbEntity
  8
0
  6
Continuous
 62
     7
100
AcDbLine
 10
632.8551711835999
 20
385.4962158446
 30
0.0
 11
632.8551711835999
 21
387.0962158446
 31
0.0
  0
LINE
  5
391
330
21B
100
AcDbEntity
  8
0
  6
Continuous
 62
     7
100
AcDbLine
 10
632.8551711835999
 20
388.6962158446
 30
0.0
 11
632.8551711835999
 21
398.6962158446
 31
0.0
  0
LINE
  5
392
330
21B
100
AcDbEntity
  8
0
  6
Continuous
 62
     7
100
AcDbLine
 10
633.7169656196
 20
388.101769344
 30
0.0
 11
633.7169656196
 21
388.6962158446
 31
0.0
  0
LINE
  5
393
330
21B
100
AcDbEntity
  8
0
  6
Continuous
 62
     7
100
AcDbLine
 10
633.8551711835999
 20
398.6962158446
 30
0.0
 11
633.8551711835999
 21
406.6962158445999
 31
0.0
  0
LINE
  5
394
330
21B
100
AcDbEntity
  8
0
  6
Continuous
 62
     7
100
AcDbLine
 10
635.0551711836
 20
387.2462158446
 30
0.0
 11
635.0551711836
 21
387.0962158446
 31
0.0
  0
LINE
  5
395
330
21B
100
AcDbEntity
  8
0
  6
Continuous
 62
     7
100
AcDbLine
 10
639.294678865
 20
388.101769344
 30
0.0
 11
639.294678865
 21
388.6962158446
 31
0.0
  0
LINE
  5
396
330
21B
100
AcDbEntity
  8
0
  6
Continuous
 62
     7
100
AcDbLine
 10
443.6438679245999
 20
406.6962158445999
 30
0.0
 11
457.6438679246
 21
406.6962158445999
 31
0.0
  0
LINE
  5
397
330
21B
100
AcDbEntity
  8
0
  6
Continuous
 62
     7
100
AcDbLine
 10
538.7495195541
 20
406.6962158445999
 30
0.0
 11
552.7495195541
 21
406.6962158445999
 31
0.0
  0
LINE
  5
398
330
21B
100
AcDbEntity
  8
0
  6
Continuous
 62
     7
100
AcDbLine
 10
633.8551711835999
 20
406.6962158445999
 30
0.0
 11
647.8551711835999
 21
406.6962158445999
 31
0.0
  0
LINE
  5
399
330
21B
100
AcDbEntity
  8
0
  6
Continuous
 62
     9
100
AcDbLine
 10
642.5307591194999
 20
384.4962158446
 30
0.0
 11
642.5307591194999
 21
385.4962158446
 31
0.0
  0
LINE
  5
39A
330
21B
100
AcDbEntity
  8
0
  6
Continuous
 62
     9
100
AcDbLine
 10
644.4328721520999
 20
384.4962158446
 30
0.0
 11
644.4328721520999
 21
385.4962158446
 31
0.0
  0
LINE
  5
39B
330
21B
100
AcDbEntity
  8
0
  6
Continuous
 62
     7
100
AcDbLine
 10
646.4328844290999
 20
388.101769344
 30
0.0
 11
646.4328844290999
 21
388.6962158446
 31
0.0
  0
LINE
  5
39C
330
21B
100
AcDbEntity
  8
0
  6
Continuous
 62
     7
100
AcDbLine
 10
646.6551711836
 20
387.2462158446
 30
0.0
 11
646.6551711836
 21
387.0962158446
 31
0.0
  0
LINE
  5
39D
330
21B
100
AcDbEntity
  8
0
  6
Continuous
 62
     7
100
AcDbLine
 10
647.8551711835999
 20
398.6962158446
 30
0.0
 11
647.8551711835999
 21
406.6962158445999
 31
0.0
  0
LINE
  5
39E
330
21B
100
AcDbEntity
  8
0
  6
Continuous
 62
     7
100
AcDbLine
 10
647.9933767476999
 20
388.101769344
 30
0.0
 11
647.9933767476999
 21
388.6962158446
 31
0.0
  0
LINE
  5
39F
330
21B
100
AcDbEntity
  8
0
  6
Continuous
 62
     7
100
AcDbLine
 10
648.8551711836
 20
385.4962158446
 30
0.0
 11
648.8551711836
 21
387.0962158446
 31
0.0
  0
LINE
  5
3A0
330
21B
100
AcDbEntity
  8
0
  6
Continuous
 62
     7
100
AcDbLine
 10
648.8551711836
 20
388.6962158446
 30
0.0
 11
648.8551711836
 21
398.6962158446
 31
0.0
  0
LINE
  5
3A1
330
21B
100
AcDbEntity
  8
0
  6
Continuous
 62
     7
100
AcDbLine
 10
650.3062276998999
 20
384.4962158446
 30
0.0
 11
650.3062276998999
 21
385.4962158446
 31
0.0
  0
LINE
  5
3A2
330
21B
100
AcDbEntity
  8
0
  6
Continuous
 62
     7
100
AcDbLine
 10
650.3780651498999
 20
384.1276529969
 30
0.0
 11
650.3780651498999
 21
384.4962158446
 31
0.0
  0
LINE
  5
3A3
330
21B
100
AcDbEntity
  8
0
  6
Continuous
 62
     7
100
AcDbLine
 10
651.0663970000999
 20
383.4962158446
 30
0.0
 11
651.0663970000999
 21
384.4962158446
 31
0.0
  0
LINE
  5
3A4
330
21B
100
AcDbEntity
  8
0
  6
Continuous
 62
     7
100
AcDbLine
 10
651.66962247
 20
383.4962158446
 30
0.0
 11
651.66962247
 21
384.4962158446
 31
0.0
  0
LINE
  5
3A5
330
21B
100
AcDbEntity
  8
0
  6
Continuous
 62
     7
100
AcDbLine
 10
652.3320769169999
 20
383.4962158446
 30
0.0
 11
652.3320769169999
 21
384.4962158446
 31
0.0
  0
LINE
  5
3A6
330
21B
100
AcDbEntity
  8
0
  6
Continuous
 62
     7
100
AcDbLine
 10
653.1981023208
 20
383.4962158446
 30
0.0
 11
653.1981023208
 21
384.4962158446
 31
0.0
  0
LINE
  5
3A7
330
21B
100
AcDbEntity
  8
0
  6
Continuous
 62
     7
100
AcDbLine
 10
653.6903473108999
 20
383.4962158446
 30
0.0
 11
653.6903473108999
 21
384.4962158446
 31
0.0
  0
LINE
  5
3A8
330
21B
100
AcDbEntity
  8
0
  6
Continuous
 62
     7
100
AcDbLine
 10
653.893914964
 20
383.4962158446
 30
0.0
 11
653.893914964
 21
384.4962158446
 31
0.0
  0
LINE
  5
3A9
330
21B
100
AcDbEntity
  8
0
  6
Continuous
 62
     7
100
AcDbLine
 10
654.0123795404999
 20
383.4962158446
 30
0.0
 11
654.0123795404999
 21
384.4962158446
 31
0.0
  0
LINE
  5
3AA
330
21B
100
AcDbEntity
  8
0
  6
Continuous
 62
     7
100
AcDbLine
 10
654.4971404264999
 20
383.4962158446
 30
0.0
 11
654.4971404264999
 21
384.4962158446
 31
0.0
  0
LINE
  5
3AB
330
21B
100
AcDbEntity
  8
0
  6
Continuous
 62
     7
100
AcDbLine
 10
655.2188304654
 20
383.4962158446
 30
0.0
 11
655.2188304654
 21
384.4962158446
 31
0.0
  0
LINE
  5
3AC
330
21B
100
AcDbEntity
  8
0
  6
Continuous
 62
     7
100
AcDbLine
 10
655.6668047235
 20
383.4962158446
 30
0.0
 11
655.6668047235
 21
384.4962158446
 31
0.0
  0
LINE
  5
3AD
330
21B
100
AcDbEntity
  8
0
  6
Continuous
 62
     7
100
AcDbLine
 10
656.2959043079001
 20
383.4962158446
 30
0.0
 11
656.2959043079001
 21
384.4962158446
 31
0.0
  0
LINE
  5
3AE
330
21B
100
AcDbEntity
  8
0
  6
Continuous
 62
     7
100
AcDbLine
 10
656.7547911166999
 20
383.4962158446
 30
0.0
 11
656.7547911166999
 21
384.4962158446
 31
0.0
  0
LINE
  5
3AF
330
21B
100
AcDbEntity
  8
0
  6
Continuous
 62
     7
100
AcDbLine
 10
657.3580165792
 20
383.4962158446
 30
0.0
 11
657.3580165792
 21
384.4962158446
 31
0.0
  0
LINE
  5
3B0
330
21B
100
AcDbEntity
  8
0
  6
Continuous
 62
     7
100
AcDbLine
 10
657.8761356613999
 20
383.4962158446
 30
0.0
 11
657.8761356613999
 21
384.4962158446
 31
0.0
  0
LINE
  5
3B1
330
21B
100
AcDbEntity
  8
0
  6
Continuous
 62
     7
100
AcDbLine
 10
658.8272674454
 20
383.4962158446
 30
0.0
 11
658.8272674454
 21
384.4962158446
 31
0.0
  0
LINE
  5
3B2
330
21B
100
AcDbEntity
  8
0
  6
Continuous
 62
     7
100
AcDbLine
 10
659.7525251373999
 20
383.4962158446
 30
0.0
 11
659.7525251373999
 21
384.4962158446
 31
0.0
  0
LINE
  5
3B3
330
21B
100
AcDbEntity
  8
0
  6
Continuous
 62
     7
100
AcDbLine
 10
660.1596637398
 20
383.4962158446
 30
0.0
 11
660.1596637398
 21
384.4962158446
 31
0.0
  0
LINE
  5
3B4
330
21B
100
AcDbEntity
  8
0
  6
Continuous
 62
     7
100
AcDbLine
 10
660.3373572933999
 20
383.4962158446
 30
0.0
 11
660.3373572933999
 21
384.4962158446
 31
0.0
  0
LINE
  5
3B5
330
21B
100
AcDbEntity
  8
0
  6
Continuous
 62
     7
100
AcDbLine
 10
680.7495195541
 20
230.1962158446
 30
0.0
 11
680.7495195541
 21
308.1962158446
 31
0.0
  0
LINE
  5
3B6
330
21B
100
AcDbEntity
  8
0
  6
Continuous
 62
     7
100
AcDbLine
 10
683.7744515352999
 20
383.4962158446
 30
0.0
 11
683.3863159412999
 21
379.0598057045
 31
0.0
  0
LINE
  5
3B7
330
21B
100
AcDbEntity
  8
0
  6
Continuous
 62
     7
100
AcDbLine
 10
695.7495195541
 20
372.6445295864
 30
0.0
 11
695.7495195541
 21
373.7308213183
 31
0.0
  0
ARC
  5
3B8
330
21B
100
AcDbEntity
  8
RUNDUNGEN
  6
Continuous
 62
     9
100
AcDbCircle
 10
-437.6955951954999
 20
268.9406129382
 30
0.0
 40
1030.7806929978
100
AcDbArc
 50
359.4520614791
 51
359.719977822
  0
ARC
  5
3B9
330
21B
100
AcDbEntity
  8
RUNDUNGEN
  6
Continuous
 62
     9
100
AcDbCircle
 10
-239.5808152716
 20
620.7082559842
 30
0.0
 40
815.9317146551
100
AcDbArc
 50
340.9211158769
 51
341.1836077215
  0
ARC
  5
3BA
330
21B
100
AcDbEntity
  8
RUNDUNGEN
  6
Continuous
 62
     9
100
AcDbCircle
 10
-141.9315117145
 20
590.4312226561
 30
0.0
 40
714.7971409660999
100
AcDbArc
 50
340.5943059097
 51
340.9201572648
  0
ARC
  5
3BB
330
21B
100
AcDbEntity
  8
0
  6
Continuous
 62
     7
100
AcDbCircle
 10
411.1013072612
 20
379.3212729328
 30
0.0
 40
3.0
100
AcDbArc
 50
185.0
 51
269.9862156634
  0
ARC
  5
3BC
330
21B
100
AcDbEntity
  8
0
  6
Continuous
 62
     7
100
AcDbCircle
 10
397.7495195541001
 20
373.7308213183
 30
0.0
 40
2.0
100
AcDbArc
 50
91.0
 51
180.0
  0
ARC
  5
3BD
330
21B
100
AcDbEntity
  8
0
  6
Continuous
 62
     7
100
AcDbCircle
 10
397.7495195541001
 20
372.6445295864
 30
0.0
 40
2.0
100
AcDbArc
 50
180.0
 51
268.5
  0
ARC
  5
3BE
330
21B
100
AcDbEntity
  8
RUNDUNGEN
  6
Continuous
 62
     9
100
AcDbCircle
 10
564.4843199929
 20
-3385.0929436369
 30
0.0
 40
3642.0917537333
100
AcDbArc
 50
89.5625009079
 51
89.9800964387
  0
ARC
  5
3BF
330
21B
100
AcDbEntity
  8
RUNDUNGEN
  6
Continuous
 62
     9
100
AcDbCircle
 10
820.7509420865999
 20
-3345.430500956001
 30
0.0
 40
3617.4431184222
100
AcDbArc
 50
93.4781096865
 51
93.5935037175
  0
ARC
  5
3C0
330
21B
100
AcDbEntity
  8
0
  6
Continuous
 62
     7
100
AcDbCircle
 10
481.1901324785999
 20
298.7344179761
 30
0.0
 40
5.0
100
AcDbArc
 50
182.0
 51
205.5
  0
ARC
  5
3C1
330
21B
100
AcDbEntity
  8
0
  6
Continuous
 62
     7
100
AcDbCircle
 10
492.688893844
 20
269.9811224434
 30
0.0
 40
3.0
100
AcDbArc
 50
205.5
 51
267.0
  0
ARC
  5
3C2
330
21B
100
AcDbEntity
  8
0
  6
Continuous
 62
     7
100
AcDbCircle
 10
497.2495195541
 20
263.7338761018
 30
0.0
 40
3.0
100
AcDbArc
 50
0.0
 51
87.0
  0
ARC
  5
3C3
330
21B
100
AcDbEntity
  8
0
  6
Continuous
 62
     7
100
AcDbCircle
 10
484.9973305060999
 20
298.8823330619
 30
0.0
 40
3.0
100
AcDbArc
 50
180.1848308864
 51
205.5
  0
ARC
  5
3C4
330
21B
100
AcDbEntity
  8
0
  6
Continuous
 62
     7
100
AcDbCircle
 10
492.3874074247
 20
278.7430736068
 30
0.0
 40
1.0
100
AcDbArc
 50
205.5
 51
267.0
  0
ARC
  5
3C5
330
21B
100
AcDbEntity
  8
RUNDUNGEN
  6
Continuous
 62
     9
100
AcDbCircle
 10
448.7592654123999
 20
360.9864078544
 30
0.0
 40
179.7997429479
100
AcDbArc
 50
338.2416198852
 51
338.9971467716
  0
ARC
  5
3C6
330
21B
100
AcDbEntity
  8
RUNDUNGEN
  6
Continuous
 62
     9
100
AcDbCircle
 10
455.1960224379
 20
359.6846820684
 30
0.0
 40
172.6302345774
100
AcDbArc
 50
337.641213148
 51
338.4078213807
  0
ARC
  5
3C7
330
21B
100
AcDbEntity
  8
0
  6
Continuous
 62
     7
100
AcDbCircle
 10
469.8097797455
 20
338.0880003237
 30
0.0
 40
4.9999999942
100
AcDbArc
 50
1.999998860899999
 51
26.0948299992
  0
ARC
  5
3C8
330
21B
100
AcDbEntity
  8
0
  6
Continuous
 62
     7
100
AcDbCircle
 10
478.6517764512
 20
342.7697190608
 30
0.0
 40
4.9999999843
100
AcDbArc
 50
182.000027399
 51
206.0948798479
  0
ARC
  5
3C9
330
21B
100
AcDbEntity
  8
0
  6
Continuous
 62
     7
100
AcDbCircle
 10
465.5909582725
 20
365.8663250305
 30
0.0
 40
3.0
100
AcDbArc
 50
2.0
 51
88.49999999999999
  0
ARC
  5
3CA
330
21B
100
AcDbEntity
  8
0
  6
Continuous
 62
     7
100
AcDbCircle
 10
471.9215044334999
 20
356.505451831
 30
0.0
 40
3.0
100
AcDbArc
 50
182.0
 51
255.0103055781
  0
ARC
  5
3CB
330
21B
100
AcDbEntity
  8
0
  6
Continuous
 62
     7
100
AcDbCircle
 10
470.3696326129
 20
350.7096176501999
 30
0.0
 40
3.0
100
AcDbArc
 50
2.0
 51
75.0103055781
  0
ARC
  5
3CC
330
21B
100
AcDbEntity
  8
0
  6
Continuous
 62
     7
100
AcDbCircle
 10
461.0949244408999
 20
384.4962158446
 30
0.0
 40
1.0
100
AcDbArc
 50
180.0
 51
269.9988810851
  0
ARC
  5
3CD
330
21B
100
AcDbEntity
  8
0
  6
Continuous
 62
     7
100
AcDbCircle
 10
440.1928114083
 20
384.4962158446
 30
0.0
 40
1.0
100
AcDbArc
 50
270.0011189149
 51
360.0
  0
ARC
  5
3CE
330
21B
100
AcDbEntity
  8
0
  6
Continuous
 62
     7
100
AcDbCircle
 10
480.7479546162999
 20
376.1797167193
 30
0.0
 40
1.0
100
AcDbArc
 50
0.1848308864
 51
89.98507056059999
  0
ARC
  5
3CF
330
21B
100
AcDbEntity
  8
0
  6
Continuous
 62
     7
100
AcDbCircle
 10
475.7495195541
 20
368.591333127
 30
0.0
 40
1.0
100
AcDbArc
 50
91.0
 51
180.0
  0
ARC
  5
3D0
330
21B
100
AcDbEntity
  8
0
  6
Continuous
 62
     7
100
AcDbCircle
 10
480.7495195541
 20
370.6789131077
 30
0.0
 40
1.0
100
AcDbArc
 50
271.0
 51
360.0
  0
ARC
  5
3D1
330
21B
100
AcDbEntity
  8
0
  6
Continuous
 62
     7
100
AcDbCircle
 10
480.8083167019999
 20
357.4681213644
 30
0.0
 40
1.0
100
AcDbArc
 50
0.1848308864
 51
89.0
  0
ARC
  5
3D2
330
21B
100
AcDbEntity
  8
0
  6
Continuous
 62
     7
100
AcDbCircle
 10
475.7495195541
 20
359.5567276532
 30
0.0
 40
1.0
100
AcDbArc
 50
180.0
 51
269.0
  0
ARC
  5
3D3
330
21B
100
AcDbEntity
  8
0
  6
Continuous
 62
     7
100
AcDbCircle
 10
510.2495195541
 20
240.1962158446
 30
0.0
 40
10.0
100
AcDbArc
 50
180.0
 51
270.0
  0
ARC
  5
3D4
330
21B
100
AcDbEntity
  8
0
  6
Continuous
 62
     7
100
AcDbCircle
 10
510.2495195541
 20
240.1962158446
 30
0.0
 40
4.5
100
AcDbArc
 50
180.0
 51
270.0
  0
ARC
  5
3D5
330
21B
100
AcDbEntity
  8
RUNDUNGEN
  6
Continuous
 62
     9
100
AcDbCircle
 10
533.4661911568999
 20
299.8714104829
 30
0.0
 40
1.9672192055
100
AcDbArc
 50
268.9360355303
 51
269.9998670634
  0
ARC
  5
3D6
330
21B
100
AcDbEntity
  8
RUNDUNGEN
  6
Continuous
 62
     9
100
AcDbCircle
 10
558.0328507201999
 20
299.871112308
 30
0.0
 40
1.9669210306
100
AcDbArc
 50
270.0000522993
 51
271.0640451089
  0
ARC
  5
3D7
330
21B
100
AcDbEntity
  8
0
  6
Continuous
 62
     7
100
AcDbCircle
 10
506.7496051056999
 20
257.6794159922
 30
0.0
 40
1.0000793444
100
AcDbArc
 50
90.0046844941
 51
180.0044716778
  0
ARC
  5
3D8
330
21B
100
AcDbEntity
  8
0
  6
Continuous
 62
     7
100
AcDbCircle
 10
514.749442399
 20
259.6795565452
 30
0.0
 40
1.000071820799999
100
AcDbArc
 50
270.0047055518
 51
0.0049192987
  0
ARC
  5
3D9
330
21B
100
AcDbEntity
  8
0
  6
Continuous
 62
     7
100
AcDbCircle
 10
509.2495195541
 20
265.8931004525
 30
0.0
 40
1.0
100
AcDbArc
 50
180.0
 51
269.0
  0
ARC
  5
3DA
330
21B
100
AcDbEntity
  8
0
  6
Continuous
 62
     7
100
AcDbCircle
 10
514.7495195541
 20
263.7967929393
 30
0.0
 40
1.0
100
AcDbArc
 50
0.0
 51
89.0
  0
ARC
  5
3DB
330
21B
100
AcDbEntity
  8
0
  6
Continuous
 62
     7
100
AcDbCircle
 10
507.2495195541001
 20
275.9614386227
 30
0.0
 40
1.0
100
AcDbArc
 50
0.0
 51
87.0
  0
ARC
  5
3DC
330
21B
100
AcDbEntity
  8
RUNDUNGEN
  6
Continuous
 62
     9
100
AcDbCircle
 10
533.6968426956999
 20
300.0544804086
 30
0.0
 40
0.9596324988999999
100
AcDbArc
 50
268.9444510262
 51
270.02001433
  0
ARC
  5
3DD
330
21B
100
AcDbEntity
  8
RUNDUNGEN
  6
Continuous
 62
     9
100
AcDbCircle
 10
557.8021975601
 20
300.0543534183
 30
0.0
 40
0.959505509
100
AcDbArc
 50
269.9799144934
 51
271.0556201514
  0
ARC
  5
3DE
330
21B
100
AcDbEntity
  8
RUNDUNGEN
  6
Continuous
 62
     9
100
AcDbCircle
 10
547.4212000766999
 20
337.5854430848
 30
0.0
 40
34.2969483707
100
AcDbArc
 50
295.6810947486
 51
297.4588714247
  0
ARC
  5
3DF
330
21B
100
AcDbEntity
  8
RUNDUNGEN
  6
Continuous
 62
     9
100
AcDbCircle
 10
543.6589599441999
 20
336.7478652223
 30
0.0
 40
33.3605833888
100
AcDbArc
 50
242.5161772146
 51
244.3438568497001
  0
ARC
  5
3E0
330
21B
100
AcDbEntity
  8
RUNDUNGEN
  6
Continuous
 62
     9
100
AcDbCircle
 10
546.6387756376999
 20
315.2481558378
 30
0.0
 40
18.4664022134
100
AcDbArc
 50
330.660756676
 51
333.9975845673
  0
ARC
  5
3E1
330
21B
100
AcDbEntity
  8
RUNDUNGEN
  6
Continuous
 62
     9
100
AcDbCircle
 10
544.8243383741
 20
315.2293512297
 30
0.0
 40
18.4258695404
100
AcDbArc
 50
205.9988356328
 51
209.3430025669
  0
ARC
  5
3E2
330
21B
100
AcDbEntity
  8
0
  6
Continuous
 62
     7
100
AcDbCircle
 10
536.2495195541
 20
384.4962158446
 30
0.0
 40
1.0
100
AcDbArc
 50
281.2495332682
 51
360.0
  0
ARC
  5
3E3
330
21B
100
AcDbEntity
  8
0
  6
Continuous
 62
     7
100
AcDbCircle
 10
555.2495195541
 20
384.4962158446
 30
0.0
 40
1.0
100
AcDbArc
 50
180.0
 51
258.7504606805
  0
ARC
  5
3E4
330
21B
100
AcDbEntity
  8
RUNDUNGEN
  6
Continuous
 62
     9
100
AcDbCircle
 10
532.2924492330001
 20
376.1407077464
 30
0.0
 40
0.9367766787
100
AcDbArc
 50
77.0991815847
 51
85.57300365319999
  0
ARC
  5
3E5
330
21B
100
AcDbEntity
  8
RUNDUNGEN
  6
Continuous
 62
     9
100
AcDbCircle
 10
560.9088677313
 20
376.2440072473
 30
0.0
 40
0.9355925670000001
100
AcDbArc
 50
93.3964727116
 51
96.1926297876
  0
ARC
  5
3E6
330
21B
100
AcDbEntity
  8
RUNDUNGEN
  6
Continuous
 62
     9
100
AcDbCircle
 10
530.5901713872
 20
376.2440073108
 30
0.0
 40
0.9355925033
100
AcDbArc
 50
83.8074529925
 51
86.60352783489999
  0
ARC
  5
3E7
330
21B
100
AcDbEntity
  8
RUNDUNGEN
  6
Continuous
 62
     9
100
AcDbCircle
 10
532.2926161845999
 20
376.1424668531
 30
0.0
 40
0.9350099340000001
100
AcDbArc
 50
85.5748830629
 51
86.5187593365
  0
ARC
  5
3E9
330
21B
100
AcDbEntity
  8
0
  6
Continuous
 62
     7
100
AcDbCircle
 10
610.3089066295999
 20
298.7344179761
 30
0.0
 40
5.002744692
100
AcDbArc
 50
334.5
 51
358.0
  0
ARC
  5
3EA
330
21B
100
AcDbEntity
  8
0
  6
Continuous
 62
     7
100
AcDbCircle
 10
612.8472634626
 20
342.7697455538
 30
0.0
 40
4.999999998199999
100
AcDbArc
 50
333.9051650885
 51
357.9999987385
  0
ARC
  5
3EB
330
21B
100
AcDbEntity
  8
0
  6
Continuous
 62
     7
100
AcDbCircle
 10
621.6892601079999
 20
338.0880267174
 30
0.0
 40
4.999999982699999
100
AcDbArc
 50
153.9050731807
 51
177.9999338747
  0
ARC
  5
3EC
330
21B
100
AcDbEntity
  8
0
  6
Continuous
 62
     7
100
AcDbCircle
 10
680.3977318469999
 20
379.3212729328
 30
0.0
 40
3.0
100
AcDbArc
 50
270.0137843687
 51
355.0
  0
ARC
  5
3ED
330
21B
100
AcDbEntity
  8
0
  6
Continuous
 62
     7
100
AcDbCircle
 10
625.9080808358
 20
365.8663250305
 30
0.0
 40
3.0
100
AcDbArc
 50
91.5
 51
178.0
  0
ARC
  5
3EE
330
21B
100
AcDbEntity
  8
0
  6
Continuous
 62
     7
100
AcDbCircle
 10
619.5775346747
 20
356.505451831
 30
0.0
 40
3.0
100
AcDbArc
 50
284.9896944219
 51
358.0
  0
ARC
  5
3EF
330
21B
100
AcDbEntity
  8
0
  6
Continuous
 62
     7
100
AcDbCircle
 10
621.1294064954
 20
350.7096176501999
 30
0.0
 40
3.0
100
AcDbArc
 50
104.9896944219
 51
178.0
  0
ARC
  5
3F0
330
21B
100
AcDbEntity
  8
0
  6
Continuous
 62
     7
100
AcDbCircle
 10
606.5017086020999
 20
298.8823330619
 30
0.0
 40
3.0
100
AcDbArc
 50
334.5
 51
359.8151691136
  0
ARC
  5
3F1
330
21B
100
AcDbEntity
  8
0
  6
Continuous
 62
     7
100
AcDbCircle
 10
618.7489579004
 20
311.1962149734
 30
0.0
 40
2.999999937799999
100
AcDbArc
 50
177.9999826807
 51
270.000012415
  0
ARC
  5
3F2
330
21B
100
AcDbEntity
  8
0
  6
Continuous
 62
     7
100
AcDbCircle
 10
693.7495195541
 20
373.7308213183
 30
0.0
 40
2.0
100
AcDbArc
 50
0.0
 51
89.0
  0
ARC
  5
3F3
330
21B
100
AcDbEntity
  8
0
  6
Continuous
 62
     7
100
AcDbCircle
 10
693.7495195541
 20
372.6445295864
 30
0.0
 40
2.0
100
AcDbArc
 50
271.5
 51
360.0
  0
ARC
  5
3F4
330
21B
100
AcDbEntity
  8
RUNDUNGEN
  6
Continuous
 62
     9
100
AcDbCircle
 10
601.2159280089
 20
266.3642687213
 30
0.0
 40
1.019342229699999
100
AcDbArc
 50
317.6366579927
 51
334.4013403135
  0
ARC
  5
3F5
330
21B
100
AcDbEntity
  8
RUNDUNGEN
  6
Continuous
 62
     9
100
AcDbCircle
 10
594.0746262155
 20
263.8998436831
 30
0.0
 40
1.001848384899999
100
AcDbArc
 50
93.1741773635
 51
179.8258226365
  0
ARC
  5
3F6
330
21B
100
AcDbEntity
  8
0
  6
Continuous
 62
     7
100
AcDbCircle
 10
592.2540832365
 20
265.6274758341
 30
0.0
 40
1.001810212799999
100
AcDbArc
 50
93.02434743479999
 51
179.9757352409
  0
ARC
  5
3F7
330
21B
100
AcDbEntity
  8
0
  6
Continuous
 62
     7
100
AcDbCircle
 10
576.7495195541
 20
259.6791855622
 30
0.0
 40
1.000000005299999
100
AcDbArc
 50
180.0000077795
 51
269.9999962625
  0
ARC
  5
3F8
330
21B
100
AcDbEntity
  8
0
  6
Continuous
 62
     7
100
AcDbCircle
 10
651.3062276999
 20
384.4962158446
 30
0.0
 40
1.0
100
AcDbArc
 50
180.0
 51
269.9999586921
  0
ARC
  5
3F9
330
21B
100
AcDbEntity
  8
0
  6
Continuous
 62
     7
100
AcDbCircle
 10
630.4041146673
 20
384.4962158446
 30
0.0
 40
1.0
100
AcDbArc
 50
270.0000413079
 51
360.0
  0
ARC
  5
3FA
330
21B
100
AcDbEntity
  8
0
  6
Continuous
 62
     7
100
AcDbCircle
 10
610.7510844919
 20
376.1797167193
 30
0.0
 40
1.0
100
AcDbArc
 50
90.01492944129999
 51
179.8151691136
  0
ARC
  5
3FB
330
21B
100
AcDbEntity
  8
0
  6
Continuous
 62
     7
100
AcDbCircle
 10
616.4187383764
 20
301.6962158319
 30
0.0
 40
0.9999999995999999
100
AcDbArc
 50
90.00000184700001
 51
177.99999935
  0
ARC
  5
3FC
330
21B
100
AcDbEntity
  8
0
  6
Continuous
 62
     7
100
AcDbCircle
 10
615.7495195541001
 20
368.591333127
 30
0.0
 40
1.0
100
AcDbArc
 50
0.0
 51
89.0
  0
ARC
  5
3FD
330
21B
100
AcDbEntity
  8
0
  6
Continuous
 62
     7
100
AcDbCircle
 10
610.7495195541
 20
370.6789131077
 30
0.0
 40
1.0
100
AcDbArc
 50
180.0
 51
269.0
  0
ARC
  5
3FE
330
21B
100
AcDbEntity
  8
0
  6
Continuous
 62
     7
100
AcDbCircle
 10
610.6907224062
 20
357.4681213644
 30
0.0
 40
1.0
100
AcDbArc
 50
91.0
 51
179.8151691136
  0
ARC
  5
3FF
330
21B
100
AcDbEntity
  8
0
  6
Continuous
 62
     7
100
AcDbCircle
 10
615.7495195541001
 20
359.5567276532
 30
0.0
 40
1.0
100
AcDbArc
 50
271.0
 51
360.0
  0
ARC
  5
400
330
21B
100
AcDbEntity
  8
0
  6
Continuous
 62
     7
100
AcDbCircle
 10
599.1116316835999
 20
278.7430736068
 30
0.0
 40
1.0
100
AcDbArc
 50
273.0
 51
334.5
  0
ARC
  5
401
330
21B
100
AcDbEntity
  8
0
  6
Continuous
 62
     7
100
AcDbCircle
 10
582.2495195541001
 20
265.8931004525
 30
0.0
 40
1.0
100
AcDbArc
 50
271.0
 51
360.0
  0
ARC
  5
402
330
21B
100
AcDbEntity
  8
0
  6
Continuous
 62
     7
100
AcDbCircle
 10
576.7495195541
 20
263.7967929393
 30
0.0
 40
1.0
100
AcDbArc
 50
91.0
 51
180.0
  0
ARC
  5
403
330
21B
100
AcDbEntity
  8
0
  6
Continuous
 62
     7
100
AcDbCircle
 10
584.2495195541
 20
275.9614386227
 30
0.0
 40
1.0
100
AcDbArc
 50
93.0
 51
180.0
  0
ARC
  5
404
330
21B
100
AcDbEntity
  8
0
  6
Continuous
 62
     7
100
AcDbCircle
 10
600.1079481575
 20
268.0388247224
 30
0.0
 40
0.9951813740999998
100
AcDbArc
 50
272.9759123139
 51
334.524001456
  0
ARC
  5
405
330
21B
100
AcDbEntity
  8
RUNDUNGEN
  6
Continuous
 62
     9
100
AcDbCircle
 10
1302.9281951356
 20
611.043631009
 30
0.0
 40
786.1673724057001
100
AcDbArc
 50
198.8114232934
 51
199.0838531123
  0
ARC
  5
406
330
21B
100
AcDbEntity
  8
RUNDUNGEN
  6
Continuous
 62
     9
100
AcDbCircle
 10
1224.7194375697
 20
587.3903993341
 30
0.0
 40
705.5705813025
100
AcDbArc
 50
199.0777122017
 51
199.4078246405
  0
ARC
  5
407
330
21B
100
AcDbEntity
  8
RUNDUNGEN
  6
Continuous
 62
     9
100
AcDbCircle
 10
563.5195201489
 20
5073.524512400901
 30
0.0
 40
4815.5265907036
100
AcDbArc
 50
270.0265328322
 51
270.3393640771
  0
SPLINE
  5
408
330
21B
100
AcDbEntity
  8
0
  6
Continuous
 62
     7
100
AcDbSpline
210
0.0
220
0.0
230
1.0
 70
     8
 71
     3
 72
     9
 73
     5
 74
     0
 42
0.0000000001
 43
0.0000000001
 40
0.0
 40
0.0
 40
0.0
 40
0.0
 40
0.2527133142
 40
1.0
 40
1.0
 40
1.0
 40
1.0
 10
552.2495195541
 20
388.101769344
 30
0.0
 10
552.0882922661
 20
388.0086847259
 30
0.0
 10
551.442146149
 20
387.6558245762999
 30
0.0
 10
550.7506532126
 20
387.376646155
 30
0.0
 10
550.2158151595999
 20
387.2462158446
 30
0.0
  0
SPLINE
  5
409
330
21B
100
AcDbEntity
  8
0
  6
Continuous
 62
     7
100
AcDbSpline
210
0.0
220
0.0
230
1.0
 70
     8
 71
     3
 72
     9
 73
     5
 74
     0
 42
0.0000000001
 43
0.0000000001
 40
0.0
 40
0.0
 40
0.0
 40
0.0
 40
0.2527133142
 40
1.0
 40
1.0
 40
1.0
 40
1.0
 10
545.7495195541
 20
388.101769344
 30
0.0
 10
545.5882922660999
 20
388.0086847259
 30
0.0
 10
544.942146149
 20
387.6558245762999
 30
0.0
 10
544.2506532125999
 20
387.376646155
 30
0.0
 10
543.7158151595999
 20
387.2462158446
 30
0.0
  0
SPLINE
  5
40A
330
21B
100
AcDbEntity
  8
0
  6
Continuous
 62
     7
100
AcDbSpline
210
0.0
220
0.0
230
1.0
 70
     8
 71
     3
 72
     9
 73
     5
 74
     0
 42
0.0000000001
 43
0.0000000001
 40
0.0
 40
0.0
 40
0.0
 40
0.0
 40
0.2477691676
 40
1.0
 40
1.0
 40
1.0
 40
1.0
 10
541.2832239486
 20
387.2462158446
 30
0.0
 10
541.1058193951
 20
387.2894792789
 30
0.0
 10
540.3981719485999
 20
387.4988782291
 30
0.0
 10
539.7296331476999
 20
387.8245756315
 30
0.0
 10
539.2495195541
 20
388.101769344
 30
0.0
  0
SPLINE
  5
40B
330
21B
100
AcDbEntity
  8
0
  6
Continuous
 62
     7
100
AcDbSpline
210
0.0
220
0.0
230
1.0
 70
     8
 71
     3
 72
     9
 73
     5
 74
     0
 42
0.0000000001
 43
0.0000000001
 40
0.0
 40
0.0
 40
0.0
 40
0.0
 40
0.2477691676
 40
1.0
 40
1.0
 40
1.0
 40
1.0
 10
547.7832239486
 20
387.2462158446
 30
0.0
 10
547.6058193951001
 20
387.2894792789
 30
0.0
 10
546.8981719485999
 20
387.4988782291
 30
0.0
 10
546.2296331476999
 20
387.8245756315
 30
0.0
 10
545.7495195541
 20
388.101769344
 30
0.0
  0
SPLINE
  5
40C
330
21B
100
AcDbEntity
  8
0
  6
Continuous
 62
     7
100
AcDbSpline
210
0.0
220
0.0
230
1.0
 70
     8
 71
     3
 72
     9
 73
     5
 74
     0
 42
0.0000000001
 43
0.0000000001
 40
0.0
 40
0.0
 40
0.0
 40
0.0
 40
0.5627263225
 40
1.0
 40
1.0
 40
1.0
 40
1.0
 10
633.7169656196
 20
388.101769344
 30
0.0
 10
633.7881720533999
 20
387.9305273288
 30
0.0
 10
633.9247404187999
 20
387.6312965617
 30
0.0
 10
634.1041082901999
 20
387.3489135896
 30
0.0
 10
634.2052087097
 20
387.2462158446
 30
0.0
  0
SPLINE
  5
40D
330
21B
100
AcDbEntity
  8
0
  6
Continuous
 62
     7
100
AcDbSpline
210
0.0
220
0.0
230
1.0
 70
     8
 71
     3
 72
     9
 73
     5
 74
     0
 42
0.0000000001
 43
0.0000000001
 40
0.0
 40
0.0
 40
0.0
 40
0.0
 40
0.5627263225
 40
1.0
 40
1.0
 40
1.0
 40
1.0
 10
647.9933767476999
 20
388.101769344
 30
0.0
 10
647.9221703137999
 20
387.9305273288
 30
0.0
 10
647.7856019485
 20
387.6312965617
 30
0.0
 10
647.6062340769999
 20
387.3489135896
 30
0.0
 10
647.5051336576
 20
387.2462158446
 30
0.0
  0
SPLINE
  5
40E
330
21B
100
AcDbEntity
  8
0
  6
Continuous
 62
     7
100
AcDbSpline
210
0.0
220
0.0
230
1.0
 70
     8
 71
     3
 72
     9
 73
     5
 74
     0
 42
0.0000000001
 43
0.0000000001
 40
0.0
 40
0.0
 40
0.0
 40
0.0
 40
0.4372730511
 40
1.0
 40
1.0
 40
1.0
 40
1.0
 10
646.9211275192
 20
387.2462158446
 30
0.0
 10
646.8200272426001
 20
387.3489134446
 30
0.0
 10
646.6406591385999
 20
387.6312962605
 30
0.0
 10
646.5040909435999
 20
387.9305271348
 30
0.0
 10
646.4328844290999
 20
388.101769344
 30
0.0
  0
SPLINE
  5
40F
330
21B
100
AcDbEntity
  8
0
  6
Continuous
 62
     7
100
AcDbSpline
210
0.0
220
0.0
230
1.0
 70
     8
 71
     3
 72
     9
 73
     5
 74
     0
 42
0.0000000001
 43
0.0000000001
 40
0.0
 40
0.0
 40
0.0
 40
0.0
 40
0.2559360586
 40
1.0
 40
1.0
 40
1.0
 40
1.0
 10
639.294678865
 20
388.101769344
 30
0.0
 10
639.1568276287
 20
388.0090207763
 30
0.0
 10
638.60971145
 20
387.6607127856
 30
0.0
 10
638.0141691386
 20
387.3782609583
 30
0.0
 10
637.5495373359999
 20
387.2462158446
 30
0.0
  0
SPLINE
  5
410
330
21B
100
AcDbEntity
  8
0
  6
Continuous
 62
     7
100
AcDbSpline
210
0.0
220
0.0
230
1.0
 70
     8
 71
     3
 72
     9
 73
     5
 74
     0
 42
0.0000000001
 43
0.0000000001
 40
0.0
 40
0.0
 40
0.0
 40
0.0
 40
0.2446356607
 40
1.0
 40
1.0
 40
1.0
 40
1.0
 10
635.4621071486
 20
387.2462158446
 30
0.0
 10
635.3092595594
 20
387.2896540621
 30
0.0
 10
634.6942236465
 20
387.5021093798001
 30
0.0
 10
634.1240419212
 20
387.8278817466
 30
0.0
 10
633.7169656196
 20
388.101769344
 30
0.0
  0
SPLINE
  5
411
330
21B
100
AcDbEntity
  8
0
  6
Continuous
 62
     7
100
AcDbSpline
210
0.0
220
0.0
230
1.0
 70
     8
 71
     3
 72
     9
 73
     5
 74
     0
 42
0.0000000001
 43
0.0000000001
 40
0.0
 40
0.0
 40
0.0
 40
0.0
 40
0.7489619328
 40
1.0
 40
1.0
 40
1.0
 40
1.0
 10
641.5280634841999
 20
387.2462158446
 30
0.0
 10
640.9443188576999
 20
387.3758452207
 30
0.0
 10
640.1866397191001
 20
387.653250688
 30
0.0
 10
639.4720827029
 20
388.0085026271
 30
0.0
 10
639.294678865
 20
388.101769344
 30
0.0
  0
SPLINE
  5
412
330
21B
100
AcDbEntity
  8
0
  6
Continuous
 62
     7
100
AcDbSpline
210
0.0
220
0.0
230
1.0
 70
     8
 71
     3
 72
     9
 73
     5
 74
     0
 42
0.0000000001
 43
0.0000000001
 40
0.0
 40
0.0
 40
0.0
 40
0.0
 40
0.2510377027
 40
1.0
 40
1.0
 40
1.0
 40
1.0
 10
646.4328844290999
 20
388.101769344
 30
0.0
 10
646.2554808496999
 20
388.0085027629001
 30
0.0
 10
645.5409237803999
 20
387.6532509447
 30
0.0
 10
644.7832447178
 20
387.3758452832
 30
0.0
 10
644.19949981
 20
387.2462158446
 30
0.0
  0
SPLINE
  5
413
330
21B
100
AcDbEntity
  8
0
  6
Continuous
 62
     7
100
AcDbSpline
210
0.0
220
0.0
230
1.0
 70
     8
 71
     3
 72
     9
 73
     5
 74
     0
 42
0.0000000001
 43
0.0000000001
 40
0.0
 40
0.0
 40
0.0
 40
0.0
 40
0.4372730511
 40
1.0
 40
1.0
 40
1.0
 40
1.0
 10
443.9939054506999
 20
387.2462158446
 30
0.0
 10
443.8928051739999
 20
387.3489134446
 30
0.0
 10
443.7134370699999
 20
387.6312962605
 30
0.0
 10
443.5768688751
 20
387.9305271348
 30
0.0
 10
443.5056623604999
 20
388.101769344
 30
0.0
  0
SPLINE
  5
414
330
21B
100
AcDbEntity
  8
0
  6
Continuous
 62
     7
100
AcDbSpline
210
0.0
220
0.0
230
1.0
 70
     8
 71
     3
 72
     9
 73
     5
 74
     0
 42
0.0000000001
 43
0.0000000001
 40
0.0
 40
0.0
 40
0.0
 40
0.0
 40
0.4372730511
 40
1.0
 40
1.0
 40
1.0
 40
1.0
 10
457.2938303985
 20
387.2462158446
 30
0.0
 10
457.3949306751999
 20
387.3489134446
 30
0.0
 10
457.5742987792
 20
387.6312962605
 30
0.0
 10
457.7108669741999
 20
387.9305271348
 30
0.0
 10
457.7820734887
 20
388.101769344
 30
0.0
  0
SPLINE
  5
415
330
21B
100
AcDbEntity
  8
0
  6
Continuous
 62
     7
100
AcDbSpline
210
0.0
220
0.0
230
1.0
 70
     8
 71
     3
 72
     9
 73
     5
 74
     0
 42
0.0000000001
 43
0.0000000001
 40
0.0
 40
0.0
 40
0.0
 40
0.0
 40
0.2559360586
 40
1.0
 40
1.0
 40
1.0
 40
1.0
 10
457.7820734887
 20
388.101769344
 30
0.0
 10
457.6442222523
 20
388.0090207763
 30
0.0
 10
457.0971060737
 20
387.6607127856
 30
0.0
 10
456.5015637623
 20
387.3782609583
 30
0.0
 10
456.0369319597
 20
387.2462158446
 30
0.0
  0
SPLINE
  5
416
330
21B
100
AcDbEntity
  8
0
  6
Continuous
 62
     7
100
AcDbSpline
210
0.0
220
0.0
230
1.0
 70
     8
 71
     3
 72
     9
 73
     5
 74
     0
 42
0.0000000001
 43
0.0000000001
 40
0.0
 40
0.0
 40
0.0
 40
0.0
 40
0.5627263225
 40
1.0
 40
1.0
 40
1.0
 40
1.0
 10
445.0661546791
 20
388.101769344
 30
0.0
 10
444.9949482453
 20
387.9305273288
 30
0.0
 10
444.8583798798999
 20
387.6312965617
 30
0.0
 10
444.6790120084999
 20
387.3489135896
 30
0.0
 10
444.5779115889999
 20
387.2462158446
 30
0.0
  0
SPLINE
  5
417
330
21B
100
AcDbEntity
  8
0
  6
Continuous
 62
     7
100
AcDbSpline
210
0.0
220
0.0
230
1.0
 70
     8
 71
     3
 72
     9
 73
     5
 74
     0
 42
0.0000000001
 43
0.0000000001
 40
0.0
 40
0.0
 40
0.0
 40
0.0
 40
0.7489619328
 40
1.0
 40
1.0
 40
1.0
 40
1.0
 10
447.2995392983
 20
387.2462158446
 30
0.0
 10
446.7157946718
 20
387.3758452207
 30
0.0
 10
445.9581155331999
 20
387.653250688
 30
0.0
 10
445.2435585169999
 20
388.0085026271
 30
0.0
 10
445.0661546791
 20
388.101769344
 30
0.0
  0
SPLINE
  5
418
330
21B
100
AcDbEntity
  8
0
  6
Continuous
 62
     7
100
AcDbSpline
210
0.0
220
0.0
230
1.0
 70
     8
 71
     3
 72
     9
 73
     5
 74
     0
 42
0.0000000001
 43
0.0000000001
 40
0.0
 40
0.0
 40
0.0
 40
0.0
 40
0.2510377027
 40
1.0
 40
1.0
 40
1.0
 40
1.0
 10
452.2043602431999
 20
388.101769344
 30
0.0
 10
452.0269566637999
 20
388.0085027629001
 30
0.0
 10
451.3123995945
 20
387.6532509447
 30
0.0
 10
450.5547205319
 20
387.3758452832
 30
0.0
 10
449.9709756241
 20
387.2462158446
 30
0.0
  0
SPLINE
  5
419
330
21B
100
AcDbEntity
  8
0
  6
Continuous
 62
     7
100
AcDbSpline
210
0.0
220
0.0
230
1.0
 70
     8
 71
     3
 72
     9
 73
     5
 74
     0
 42
0.0000000001
 43
0.0000000001
 40
0.0
 40
0.0
 40
0.0
 40
0.0
 40
0.2446356607
 40
1.0
 40
1.0
 40
1.0
 40
1.0
 10
453.9495017722
 20
387.2462158446
 30
0.0
 10
453.7966541830999
 20
387.2896540621
 30
0.0
 10
453.1816182701
 20
387.5021093798001
 30
0.0
 10
452.6114365448
 20
387.8278817466
 30
0.0
 10
452.2043602431999
 20
388.101769344
 30
0.0
  0
SPLINE
  5
41A
330
21B
100
AcDbEntity
  8
0
  6
Continuous
 62
     9
100
AcDbSpline
210
0.0
220
0.0
230
1.0
 70
     8
 71
     3
 72
    10
 73
     6
 74
     0
 42
0.0000000001
 43
0.0000000001
 40
0.0
 40
0.0
 40
0.0
 40
0.0
 40
0.1287476602
 40
0.3473896203
 40
1.0
 40
1.0
 40
1.0
 40
1.0
 10
642.8397761139
 20
383.4962158446
 30
0.0
 10
642.7928971535
 20
383.4962158446
 30
0.0
 10
642.6840688111
 20
383.5954976001
 30
0.0
 10
642.5654891822
 20
383.9343122055
 30
0.0
 10
642.5307591194999
 20
384.258590585
 30
0.0
 10
642.5307591194999
 20
384.4962158446
 30
0.0
  0
SPLINE
  5
41B
330
21B
100
AcDbEntity
  8
0
  6
Continuous
 62
     9
100
AcDbSpline
210
0.0
220
0.0
230
1.0
 70
     8
 71
     3
 72
    10
 73
     6
 74
     0
 42
0.0000000001
 43
0.0000000001
 40
0.0
 40
0.0
 40
0.0
 40
0.0
 40
0.1287476588
 40
0.3473896204
 40
1.0
 40
1.0
 40
1.0
 40
1.0
 10
644.7418891465
 20
383.4962158446
 30
0.0
 10
644.6950101866
 20
383.4962158446
 30
0.0
 10
644.5861818437
 20
383.5954975992
 30
0.0
 10
644.4676022151
 20
383.9343122054
 30
0.0
 10
644.4328721520999
 20
384.258590585
 30
0.0
 10
644.4328721520999
 20
384.4962158446
 30
0.0
  0
SPLINE
  5
41C
330
21B
100
AcDbEntity
  8
0
  6
Continuous
 62
     9
100
AcDbSpline
210
0.0
220
0.0
230
1.0
 70
     8
 71
     3
 72
    10
 73
     6
 74
     0
 42
0.0000000001
 43
0.0000000001
 40
0.0
 40
0.0
 40
0.0
 40
0.0
 40
0.1287476602
 40
0.3473896203
 40
1.0
 40
1.0
 40
1.0
 40
1.0
 10
446.7571499617
 20
383.4962158446
 30
0.0
 10
446.8040289222
 20
383.4962158446
 30
0.0
 10
446.9128572644999
 20
383.5954976001
 30
0.0
 10
447.0314368933999
 20
383.9343122055
 30
0.0
 10
447.0661669561
 20
384.258590585
 30
0.0
 10
447.0661669561
 20
384.4962158446
 30
0.0
  0
SPLINE
  5
41D
330
21B
100
AcDbEntity
  8
0
  6
Continuous
 62
     9
100
AcDbSpline
210
0.0
220
0.0
230
1.0
 70
     8
 71
     3
 72
    10
 73
     6
 74
     0
 42
0.0000000001
 43
0.0000000001
 40
0.0
 40
0.0
 40
0.0
 40
0.0
 40
0.1287476588
 40
0.3473896204
 40
1.0
 40
1.0
 40
1.0
 40
1.0
 10
448.6592629942999
 20
383.4962158446
 30
0.0
 10
448.7061419543
 20
383.4962158446
 30
0.0
 10
448.8149702970999
 20
383.5954975991
 30
0.0
 10
448.9335499258
 20
383.9343122054
 30
0.0
 10
448.9682799887
 20
384.258590585
 30
0.0
 10
448.9682799887
 20
384.4962158446
 30
0.0
  0
SPLINE
  5
41E
330
21B
100
AcDbEntity
  8
0
  6
Continuous
 62
     7
100
AcDbSpline
210
0.0
220
0.0
230
1.0
 70
     8
 71
     3
 72
    11
 73
     7
 74
     0
 42
0.0000000001
 43
0.0000000001
 40
0.0
 40
0.0
 40
0.0
 40
0.0
 40
0.2499869415
 40
0.4999793893000001
 40
0.7499836396
 40
1.0
 40
1.0
 40
1.0
 40
1.0
 10
591.2522558926
 20
259.6769019457
 30
0.0
 10
591.2522727313
 20
259.5468925596
 30
0.0
 10
591.2000538412
 20
259.2839919541999
 30
0.0
 10
590.9767495322999
 20
258.9522007073
 30
0.0
 10
590.6437885618999
 20
258.7307758079
 30
0.0
 10
590.3809158217
 20
258.679175489
 30
0.0
 10
590.2508911358999
 20
258.6791931881
 30
0.0
  0
LINE
  5
41F
330
21B
100
AcDbEntity
  8
0
  6
Continuous
 62
     9
100
AcDbLine
 10
606.7495195541
 20
235.6962158446
 30
0.0
 11
606.7495195541
 21
235.724791069
 31
0.0
  0
SPLINE
  5
422
330
21B
100
AcDbEntity
  8
RUNDUNGEN
  6
Continuous
 62
     9
100
AcDbSpline
210
0.0
220
0.0
230
1.0
 70
     8
 71
     3
 72
     9
 73
     5
 74
     0
 42
0.0000000001
 43
0.0000000001
 40
0.0
 40
0.0
 40
0.0
 40
0.0
 40
0.4984081505
 40
1.0
 40
1.0
 40
1.0
 40
1.0
 10
601.5027058549
 20
264.2358170233
 30
0.0
 10
601.7566877898
 20
264.2506706055
 30
0.0
 10
602.2653022045
 20
264.3846629233
 30
0.0
 10
602.6814038413999
 20
264.7049728852
 30
0.0
 10
602.8513550137001
 20
264.8964764515
 30
0.0
  0
SPLINE
  5
423
330
21B
100
AcDbEntity
  8
RUNDUNGEN
  6
Continuous
 62
     9
100
AcDbSpline
210
0.0
220
0.0
230
1.0
 70
     8
 71
     3
 72
    13
 73
     9
 74
     0
 42
0.0000000001
 43
0.0000000001
 40
0.0
 40
0.0
 40
0.0
 40
0.0
 40
0.0466649092
 40
0.1175529182
 40
0.2171105534
 40
0.3432929797999999
 40
0.6549631781000001
 40
1.0
 40
1.0
 40
1.0
 40
1.0
 10
533.679164646
 20
299.0950161051
 30
0.0
 10
533.6597132787
 20
299.0935515034
 30
0.0
 10
533.6152160374999
 20
299.0631251695999
 30
0.0
 10
533.569963562
 20
298.9843233473
 30
0.0
 10
533.5259387094001
 20
298.8677898637
 30
0.0
 10
533.4725247341
 20
298.6493269892
 30
0.0
 10
533.4322349844999
 20
298.3235814945
 30
0.0
 10
533.4256057199
 20
298.0487070432
 30
0.0
 10
533.4296685046999
 20
297.9045352155
 30
0.0
  0
SPLINE
  5
424
330
21B
100
AcDbEntity
  8
RUNDUNGEN
  6
Continuous
 62
     9
100
AcDbSpline
210
0.0
220
0.0
230
1.0
 70
     8
 71
     3
 72
    13
 73
     9
 74
     0
 42
0.0000000001
 43
0.0000000001
 40
0.0
 40
0.0
 40
0.0
 40
0.0
 40
0.0467998419
 40
0.1174531456
 40
0.2167247817
 40
0.3426925786
 40
0.6543374938000001
 40
1.0
 40
1.0
 40
1.0
 40
1.0
 10
533.6971779108
 20
299.0948479676
 30
0.0
 10
533.6776997633998
 20
299.0934288145
 30
0.0
 10
533.6331322759999
 20
299.0632506422
 30
0.0
 10
533.5886464356999
 20
298.9842134304
 30
0.0
 10
533.5462006482999
 20
298.8676835536
 30
0.0
 10
533.4960633412999
 20
298.649020965
 30
0.0
 10
533.4611962372
 20
298.3230309942
 30
0.0
 10
533.4594765237
 20
298.0482815917
 30
0.0
 10
533.4661865926
 20
297.9041912774
 30
0.0
  0
SPLINE
  5
425
330
21B
100
AcDbEntity
  8
RUNDUNGEN
  6
Continuous
 62
     9
100
AcDbSpline
210
0.0
220
0.0
230
1.0
 70
     8
 71
     3
 72
    13
 73
     9
 74
     0
 42
0.0000000001
 43
0.0000000001
 40
0.0
 40
0.0
 40
0.0
 40
0.0
 40
0.0467998413
 40
0.1174531445
 40
0.2167247804
 40
0.3426925772
 40
0.6543374929
 40
1.0
 40
1.0
 40
1.0
 40
1.0
 10
557.8018611974999
 20
299.0948479676
 30
0.0
 10
557.8213393445
 20
299.0934288145
 30
0.0
 10
557.8659068312999
 20
299.0632506421
 30
0.0
 10
557.9103926708999
 20
298.9842134307
 30
0.0
 10
557.9528384579999
 20
298.8676835542
 30
0.0
 10
558.0029757648999
 20
298.6490209658
 30
0.0
 10
558.0378428696
 20
298.3230309948
 30
0.0
 10
558.039562584
 20
298.048281592
 30
0.0
 10
558.0328525156
 20
297.9041912774
 30
0.0
  0
SPLINE
  5
426
330
21B
100
AcDbEntity
  8
RUNDUNGEN
  6
Continuous
 62
     9
100
AcDbSpline
210
0.0
220
0.0
230
1.0
 70
     8
 71
     3
 72
    13
 73
     9
 74
     0
 42
0.0000000001
 43
0.0000000001
 40
0.0
 40
0.0
 40
0.0
 40
0.0
 40
0.0466657558
 40
0.1175535815
 40
0.2171100434
 40
0.3432911321
 40
0.6549607732000001
 40
1.0
 40
1.0
 40
1.0
 40
1.0
 10
557.819874534
 20
299.0950108216
 30
0.0
 10
557.8393261819999
 20
299.0935451541
 30
0.0
 10
557.8838227933999
 20
299.0631185393
 30
0.0
 10
557.9290765526999
 20
298.9843175684
 30
0.0
 10
557.9731021605
 20
298.8677855374
 30
0.0
 10
558.0265179835
 20
298.6493243548
 30
0.0
 10
558.0668094877999
 20
298.3235786795
 30
0.0
 10
558.0734392780999
 20
298.0487033517
 30
0.0
 10
558.0693764574999
 20
297.9045304743
 30
0.0
  0
SPLINE
  5
427
330
21B
100
AcDbEntity
  8
RUNDUNGEN
  6
Continuous
 62
     9
100
AcDbSpline
210
0.0
220
0.0
230
1.0
 70
     8
 71
     3
 72
     9
 73
     5
 74
     0
 42
0.0000000001
 43
0.0000000001
 40
0.0
 40
0.0
 40
0.0
 40
0.0
 40
0.5676727952000001
 40
1.0
 40
1.0
 40
1.0
 40
1.0
 10
560.6793106471
 20
376.1829426213
 30
0.0
 10
560.6794330952999
 20
376.3456607414
 30
0.0
 10
560.6960923697999
 20
376.6316366602
 30
0.0
 10
560.7467245871999
 20
376.9170947623
 30
0.0
 10
560.7908997811001
 20
377.0328762961
 30
0.0
  0
SPLINE
  5
428
330
21B
100
AcDbEntity
  8
RUNDUNGEN
  6
Continuous
 62
     9
100
AcDbSpline
210
0.0
220
0.0
230
1.0
 70
     8
 71
     3
 72
     9
 73
     5
 74
     0
 42
0.0000000001
 43
0.0000000001
 40
0.0
 40
0.0
 40
0.0
 40
0.0
 40
0.6047111707
 40
1.0
 40
1.0
 40
1.0
 40
1.0
 10
560.7908997811001
 20
377.0328762961
 30
0.0
 10
560.8035747029999
 20
377.066096793
 30
0.0
 10
560.8271499347
 20
377.11944077
 30
0.0
 10
560.8688086585
 20
377.1662863761
 30
0.0
 10
560.890302991
 20
377.1751300243
 30
0.0
  0
SPLINE
  5
429
330
21B
100
AcDbEntity
  8
RUNDUNGEN
  6
Continuous
 62
     9
100
AcDbSpline
210
0.0
220
0.0
230
1.0
 70
     8
 71
     3
 72
     8
 73
     4
 74
     0
 42
0.0000000001
 43
0.0000000001
 40
0.0
 40
0.0
 40
0.0
 40
0.0
 40
1.0
 40
1.0
 40
1.0
 40
1.0
 10
560.890302991
 20
377.1751300243
 30
0.0
 10
560.8973180222
 20
377.1780162953
 30
0.0
 10
560.9050073853
 20
377.1797133047
 30
0.0
 10
560.912592978
 20
377.1797155971
 30
0.0
  0
SPLINE
  5
42A
330
21B
100
AcDbEntity
  8
RUNDUNGEN
  6
Continuous
 62
     9
100
AcDbSpline
210
0.0
220
0.0
230
1.0
 70
     8
 71
     3
 72
    11
 73
     7
 74
     0
 42
0.0000000001
 43
0.0000000001
 40
0.0
 40
0.0
 40
0.0
 40
0.0
 40
0.2538846075
 40
0.5054395586
 40
0.7538850889000001
 40
1.0
 40
1.0
 40
1.0
 40
1.0
 10
559.9466558716
 20
376.1797167194
 30
0.0
 10
559.9462692982
 20
376.3010039368
 30
0.0
 10
559.9883649921999
 20
376.5448496227
 30
0.0
 10
560.1744428370999
 20
376.8621710245
 30
0.0
 10
560.4587731142999
 20
377.090147076
 30
0.0
 10
560.6910540515
 20
377.1614571616
 30
0.0
 10
560.8079439831999
 20
377.1741404896
 30
0.0
  0
SPLINE
  5
42B
330
21B
100
AcDbEntity
  8
RUNDUNGEN
  6
Continuous
 62
     9
100
AcDbSpline
210
0.0
220
0.0
230
1.0
 70
     8
 71
     3
 72
    11
 73
     7
 74
     0
 42
0.0000000001
 43
0.0000000001
 40
0.0
 40
0.0
 40
0.0
 40
0.0
 40
0.2539860284
 40
0.5055177985000001
 40
0.7538488734000001
 40
1.0
 40
1.0
 40
1.0
 40
1.0
 10
558.2442479203999
 20
376.0775948174
 30
0.0
 10
558.2437400673999
 20
376.2026142333001
 30
0.0
 10
558.2886732862
 20
376.4540602337
 30
0.0
 10
558.486067663
 20
376.7781864657
 30
0.0
 10
558.7861110915
 20
377.0048767639
 30
0.0
 10
559.0287074466999
 20
377.0683906626
 30
0.0
 10
559.1496477696999
 20
377.0757470065
 30
0.0
  0
SPLINE
  5
42C
330
21B
100
AcDbEntity
  8
RUNDUNGEN
  6
Continuous
 62
     9
100
AcDbSpline
210
0.0
220
0.0
230
1.0
 70
     8
 71
     3
 72
    12
 73
     8
 74
     0
 42
0.0000000001
 43
0.0000000001
 40
0.0
 40
0.0
 40
0.0
 40
0.0
 40
0.3700419399
 40
0.6854537411
 40
0.9012261393999999
 40
0.9638122716999999
 40
1.0
 40
1.0
 40
1.0
 40
1.0
 10
557.4430218761
 20
376.0575585809
 30
0.0
 10
557.4430218762
 20
376.1851882536
 30
0.0
 10
557.4503749066
 20
376.4219947677
 30
0.0
 10
557.4807847324
 20
376.730521986
 30
0.0
 10
557.5233667295999
 20
376.9338367833
 30
0.0
 10
557.5653573304999
 20
377.0323887364
 30
0.0
 10
557.5952357333999
 20
377.0575474599
 30
0.0
 10
557.6077170928
 20
377.057557448
 30
0.0
  0
SPLINE
  5
42D
330
21B
100
AcDbEntity
  8
RUNDUNGEN
  6
Continuous
 62
     9
100
AcDbSpline
210
0.0
220
0.0
230
1.0
 70
     8
 71
     3
 72
    12
 73
     8
 74
     0
 42
0.0000000001
 43
0.0000000001
 40
0.0
 40
0.0
 40
0.0
 40
0.0
 40
0.3700412638
 40
0.6854527607
 40
0.9012254801999999
 40
0.9638119908
 40
1.0
 40
1.0
 40
1.0
 40
1.0
 10
534.0560172321
 20
376.0575585809
 30
0.0
 10
534.0560172317999
 20
376.1851879471
 30
0.0
 10
534.0486642516999
 20
376.4219940004
 30
0.0
 10
534.0182544763999
 20
376.7305207706
 30
0.0
 10
533.9756727609
 20
376.9338357143
 30
0.0
 10
533.9336821764
 20
377.0323878836
 30
0.0
 10
533.9038041165999
 20
377.0575471575
 30
0.0
 10
533.8913226676999
 20
377.0575574475
 30
0.0
  0
SPLINE
  5
42E
330
21B
100
AcDbEntity
  8
RUNDUNGEN
  6
Continuous
 62
     9
100
AcDbSpline
210
0.0
220
0.0
230
1.0
 70
     8
 71
     3
 72
     9
 73
     5
 74
     0
 42
0.0000000001
 43
0.0000000001
 40
0.0
 40
0.0
 40
0.0
 40
0.0
 40
0.5054012783000001
 40
1.0
 40
1.0
 40
1.0
 40
1.0
 10
533.2547886216
 20
376.0775948174
 30
0.0
 10
533.2556827047
 20
376.2976956915
 30
0.0
 10
533.1115191569999
 20
376.7477853783
 30
0.0
 10
532.7115507727
 20
377.0057123251
 30
0.0
 10
532.5015977784
 20
377.053838313
 30
0.0
  0
SPLINE
  5
42F
330
21B
100
AcDbEntity
  8
RUNDUNGEN
  6
Continuous
 62
     9
100
AcDbSpline
210
0.0
220
0.0
230
1.0
 70
     8
 71
     3
 72
    11
 73
     7
 74
     0
 42
0.0000000001
 43
0.0000000001
 40
0.0
 40
0.0
 40
0.0
 40
0.0
 40
0.2538846223
 40
0.5054395778
 40
0.753885101
 40
1.0
 40
1.0
 40
1.0
 40
1.0
 10
531.5523832365999
 20
376.1797167194
 30
0.0
 10
531.5527697983999
 20
376.3010040561
 30
0.0
 10
531.5106740387
 20
376.5448499817
 30
0.0
 10
531.3245958339
 20
376.8621715962999
 30
0.0
 10
531.0402650828999
 20
377.0901476076001
 30
0.0
 10
530.8079838369
 20
377.1614574654
 30
0.0
 10
530.6910937845
 20
377.1741406356
 30
0.0
  0
SPLINE
  5
430
330
21B
100
AcDbEntity
  8
RUNDUNGEN
  6
Continuous
 62
     9
100
AcDbSpline
210
0.0
220
0.0
230
1.0
 70
     8
 71
     3
 72
     9
 73
     5
 74
     0
 42
0.0000000001
 43
0.0000000001
 40
0.0
 40
0.0
 40
0.0
 40
0.0
 40
0.567677432
 40
1.0
 40
1.0
 40
1.0
 40
1.0
 10
530.8197284597
 20
376.1829426213
 30
0.0
 10
530.819606008
 20
376.3456654308
 30
0.0
 10
530.8029457632
 20
376.6316470319
 30
0.0
 10
530.7523113455999
 20
376.9171114115
 30
0.0
 10
530.7081329398
 20
377.0328930362
 30
0.0
  0
SPLINE
  5
431
330
21B
100
AcDbEntity
  8
RUNDUNGEN
  6
Continuous
 62
     9
100
AcDbSpline
210
0.0
220
0.0
230
1.0
 70
     8
 71
     3
 72
     9
 73
     5
 74
     0
 42
0.0000000001
 43
0.0000000001
 40
0.0
 40
0.0
 40
0.0
 40
0.0
 40
0.6046709534
 40
1.0
 40
1.0
 40
1.0
 40
1.0
 10
530.7081329398
 20
377.0328930362
 30
0.0
 10
530.6954615962
 20
377.0661017661
 30
0.0
 10
530.6718901033
 20
377.1194309358
 30
0.0
 10
530.6302528869
 20
377.1662649691001
 30
0.0
 10
530.6087666398
 20
377.1751174574
 30
0.0
  0
SPLINE
  5
432
330
21B
100
AcDbEntity
  8
RUNDUNGEN
  6
Continuous
 62
     9
100
AcDbSpline
210
0.0
220
0.0
230
1.0
 70
     8
 71
     3
 72
     8
 73
     4
 74
     0
 42
0.0000000001
 43
0.0000000001
 40
0.0
 40
0.0
 40
0.0
 40
0.0
 40
1.0
 40
1.0
 40
1.0
 40
1.0
 10
530.6087666398
 20
377.1751174574
 30
0.0
 10
530.6017464174999
 20
377.1780098395
 30
0.0
 10
530.5940501294998
 20
377.1797117159
 30
0.0
 10
530.5864574106
 20
377.1797155925
 30
0.0
  0
SPLINE
  5
433
330
21B
100
AcDbEntity
  8
RUNDUNGEN
  6
Continuous
 62
     9
100
AcDbSpline
210
0.0
220
0.0
230
1.0
 70
     8
 71
     3
 72
    11
 73
     7
 74
     0
 42
0.0000000001
 43
0.0000000001
 40
0.0
 40
0.0
 40
0.0
 40
0.0
 40
0.236917456
 40
0.4801293608
 40
0.7343045534
 40
1.0
 40
1.0
 40
1.0
 40
1.0
 10
532.0567175925
 20
369.5911828369
 30
0.0
 10
532.1919038539
 20
369.5903275007
 30
0.0
 10
532.4677585555999
 20
369.6259405815
 30
0.0
 10
532.8554881239
 20
369.8027851794
 30
0.0
 10
533.1692484885
 20
370.1230287007
 30
0.0
 10
533.2554056329
 20
370.4251550095
 30
0.0
 10
533.2547858241
 20
370.576763901
 30
0.0
  0
SPLINE
  5
435
330
21B
100
AcDbEntity
  8
RUNDUNGEN
  6
Continuous
 62
     9
100
AcDbSpline
210
0.0
220
0.0
230
1.0
 70
     8
 71
     3
 72
    12
 73
     8
 74
     0
 42
0.0000000001
 43
0.0000000001
 40
0.0
 40
0.0
 40
0.0
 40
0.0
 40
0.3632273844
 40
0.6746683640000001
 40
0.8918827947
 40
0.958116638
 40
1.0
 40
1.0
 40
1.0
 40
1.0
 10
531.8645679411999
 20
368.591333127
 30
0.0
 10
531.8645679454
 20
368.717645731
 30
0.0
 10
531.8729597486
 20
368.952648983
 30
0.0
 10
531.9092573406
 20
369.2601370961
 30
0.0
 10
531.9579603188
 20
369.4639889255999
 30
0.0
 10
532.0092417845
 20
369.5645163825
 30
0.0
 10
532.042210299
 20
369.5898859647
 30
0.0
 10
532.0567175986
 20
369.5911808221
 30
0.0
  0
SPLINE
  5
437
330
21B
100
AcDbEntity
  8
RUNDUNGEN
  6
Continuous
 62
     9
100
AcDbSpline
210
0.0
220
0.0
230
1.0
 70
     8
 71
     3
 72
    12
 73
     8
 74
     0
 42
0.0000000001
 43
0.0000000001
 40
0.0
 40
0.0
 40
0.0
 40
0.0
 40
0.041883362
 40
0.1081172053
 40
0.3253316361
 40
0.6367726157
 40
1.0
 40
1.0
 40
1.0
 40
1.0
 10
559.4423215082001
 20
369.5911808221
 30
0.0
 10
559.4568288076999
 20
369.5898859647
 30
0.0
 10
559.4897973222999
 20
369.5645163824
 30
0.0
 10
559.541078788
 20
369.4639889255999
 30
0.0
 10
559.5897817666
 20
369.2601370961
 30
0.0
 10
559.6260793591
 20
368.952648983
 30
0.0
 10
559.6344711627999
 20
368.717645731
 30
0.0
 10
559.6344711670999
 20
368.591333127
 30
0.0
  0
SPLINE
  5
438
330
21B
100
AcDbEntity
  8
RUNDUNGEN
  6
Continuous
 62
     9
100
AcDbSpline
210
0.0
220
0.0
230
1.0
 70
     8
 71
     3
 72
    11
 73
     7
 74
     0
 42
0.0000000001
 43
0.0000000001
 40
0.0
 40
0.0
 40
0.0
 40
0.0
 40
0.2656954452
 40
0.5198706377000001
 40
0.763082543
 40
1.0
 40
1.0
 40
1.0
 40
1.0
 10
558.2442532834
 20
370.5767638893
 30
0.0
 10
558.2436334776
 20
370.4251549983
 30
0.0
 10
558.3297906210999
 20
370.1230286912001
 30
0.0
 10
558.6435509825999
 20
369.8027851669
 30
0.0
 10
559.0312805495999
 20
369.6259405628
 30
0.0
 10
559.3071352526
 20
369.5903274795
 30
0.0
 10
559.4423215148999
 20
369.5911828157
 30
0.0
  0
SPLINE
  5
439
330
21B
100
AcDbEntity
  8
RUNDUNGEN
  6
Continuous
 62
     9
100
AcDbSpline
210
0.0
220
0.0
230
1.0
 70
     8
 71
     3
 72
    12
 73
     8
 74
     0
 42
0.0000000001
 43
0.0000000001
 40
0.0
 40
0.0
 40
0.0
 40
0.0
 40
0.113374482
 40
0.2095325151
 40
0.331938371
 40
0.6408497151
 40
1.0
 40
1.0
 40
1.0
 40
1.0
 10
530.5900679502999
 20
369.6790654125
 30
0.0
 10
530.6298427569999
 20
369.6820414801
 30
0.0
 10
530.6814122446
 20
369.7566731694999
 30
0.0
 10
530.7221848808
 20
369.8604032654
 30
0.0
 10
530.7713715335999
 20
370.0421662501
 30
0.0
 10
530.8088216180999
 20
370.3170383061
 30
0.0
 10
530.8192815351999
 20
370.5525613523
 30
0.0
 10
530.8192815351999
 20
370.6789131077
 30
0.0
  0
SPLINE
  5
43A
330
21B
100
AcDbEntity
  8
RUNDUNGEN
  6
Continuous
 62
     9
100
AcDbSpline
210
0.0
220
0.0
230
1.0
 70
     8
 71
     3
 72
    11
 73
     7
 74
     0
 42
0.0000000001
 43
0.0000000001
 40
0.0
 40
0.0
 40
0.0
 40
0.0
 40
0.253817659
 40
0.5056045587
 40
0.7541220335
 40
1.0
 40
1.0
 40
1.0
 40
1.0
 10
531.5519223925
 20
370.6789131077
 30
0.0
 10
531.5512942666
 20
370.5496143493
 30
0.0
 10
531.5011921005
 20
370.2896121723
 30
0.0
 10
531.2883494901
 20
369.9587503925
 30
0.0
 10
530.9695335645999
 20
369.7345746299
 30
0.0
 10
530.7153191107
 20
369.680123614
 30
0.0
 10
530.5900679502999
 20
369.6790654125
 30
0.0
  0
SPLINE
  5
43B
330
21B
100
AcDbEntity
  8
RUNDUNGEN
  6
Continuous
 62
     9
100
AcDbSpline
210
0.0
220
0.0
230
1.0
 70
     8
 71
     3
 72
    12
 73
     8
 74
     0
 42
0.0000000001
 43
0.0000000001
 40
0.0
 40
0.0
 40
0.0
 40
0.0
 40
0.3591516107999999
 40
0.6680627852000001
 40
0.7904684579000002
 40
0.8866262706999998
 40
1.0
 40
1.0
 40
1.0
 40
1.0
 10
560.679757573
 20
370.6789131077
 30
0.0
 10
560.679757573
 20
370.5525608817
 30
0.0
 10
560.6902175153
 20
370.3170374139
 30
0.0
 10
560.7276678399999
 20
370.0421650347
 30
0.0
 10
560.7768545037999
 20
369.8604022645
 30
0.0
 10
560.8176272217
 20
369.7566725794
 30
0.0
 10
560.8691966139999
 20
369.6820414605
 30
0.0
 10
560.908971158
 20
369.6790654125
 30
0.0
  0
SPLINE
  5
43C
330
21B
100
AcDbEntity
  8
RUNDUNGEN
  6
Continuous
 62
     9
100
AcDbSpline
210
0.0
220
0.0
230
1.0
 70
     8
 71
     3
 72
    11
 73
     7
 74
     0
 42
0.0000000001
 43
0.0000000001
 40
0.0
 40
0.0
 40
0.0
 40
0.0
 40
0.2458842436
 40
0.4943959252
 40
0.7461815663
 40
1.0
 40
1.0
 40
1.0
 40
1.0
 10
560.908971158
 20
369.6790654125
 30
0.0
 10
560.7837170852999
 20
369.6801448132
 30
0.0
 10
560.5295041081999
 20
369.7345583449
 30
0.0
 10
560.2106758966999
 20
369.9587565857
 30
0.0
 10
559.9979101121999
 20
370.2896138125
 30
0.0
 10
559.9476300843
 20
370.5496135561
 30
0.0
 10
559.9471167157999
 20
370.6789131077
 30
0.0
  0
SPLINE
  5
43D
330
21B
100
AcDbEntity
  8
RUNDUNGEN
  6
Continuous
 62
     9
100
AcDbSpline
210
0.0
220
0.0
230
1.0
 70
     8
 71
     3
 72
    11
 73
     7
 74
     0
 42
0.0000000001
 43
0.0000000001
 40
0.0
 40
0.0
 40
0.0
 40
0.0
 40
0.2465397842
 40
0.4976335861
 40
0.7498999517
 40
1.0
 40
1.0
 40
1.0
 40
1.0
 10
592.2943326156
 20
256.8926337384
 30
0.0
 10
592.5501392207999
 20
256.890881712
 30
0.0
 10
593.0731582856
 20
256.9935725251
 30
0.0
 10
593.7317478738999
 20
257.446006214
 30
0.0
 10
594.1656072051999
 20
258.1198785808
 30
0.0
 10
594.2653206495999
 20
258.6463811148
 30
0.0
 10
594.2655939323
 20
258.9058877481
 30
0.0
  0
SPLINE
  5
43E
330
21B
100
AcDbEntity
  8
RUNDUNGEN
  6
Continuous
 62
     9
100
AcDbSpline
210
0.0
220
0.0
230
1.0
 70
     8
 71
     3
 72
     9
 73
     5
 74
     0
 42
0.0000000001
 43
0.0000000001
 40
0.0
 40
0.0
 40
0.0
 40
0.0
 40
0.3405749487
 40
1.0
 40
1.0
 40
1.0
 40
1.0
 10
530.8192815351999
 20
375.6962158446
 30
0.0
 10
530.9024551610999
 20
375.6960631459
 30
0.0
 10
531.1466674244999
 20
375.6953079101001
 30
0.0
 10
531.3908955615
 20
375.6953079883
 30
0.0
 10
531.5519208601999
 20
375.6929899426
 30
0.0
  0
SPLINE
  5
43F
330
21B
100
AcDbEntity
  8
RUNDUNGEN
  6
Continuous
 62
     9
100
AcDbSpline
210
0.0
220
0.0
230
1.0
 70
     8
 71
     3
 72
     9
 73
     5
 74
     0
 42
0.0000000001
 43
0.0000000001
 40
0.0
 40
0.0
 40
0.0
 40
0.0
 40
0.1408897218
 40
1.0
 40
1.0
 40
1.0
 40
1.0
 10
531.5523832365999
 20
376.1797167194
 30
0.0
 10
531.5179784486999
 20
376.1802046247
 30
0.0
 10
531.2737615908
 20
376.1820166414
 30
0.0
 10
531.0295410055999
 20
376.1825648667
 30
0.0
 10
530.8197284611
 20
376.1829426213
 30
0.0
  0
SPLINE
  5
440
330
21B
100
AcDbEntity
  8
RUNDUNGEN
  6
Continuous
 62
     9
100
AcDbSpline
210
0.0
220
0.0
230
1.0
 70
     8
 71
     3
 72
     9
 73
     5
 74
     0
 42
0.0000000001
 43
0.0000000001
 40
0.0
 40
0.0
 40
0.0
 40
0.0
 40
0.3405753991
 40
1.0
 40
1.0
 40
1.0
 40
1.0
 10
560.6793106471
 20
376.1829426213
 30
0.0
 10
560.596135152
 20
376.1827928689
 30
0.0
 10
560.3519176253
 20
376.1820396775
 30
0.0
 10
560.1076849485
 20
376.1820003245
 30
0.0
 10
559.9466558716
 20
376.1797167194
 30
0.0
  0
SPLINE
  5
441
330
21B
100
AcDbEntity
  8
RUNDUNGEN
  6
Continuous
 62
     9
100
AcDbSpline
210
0.0
220
0.0
230
1.0
 70
     8
 71
     3
 72
    10
 73
     6
 74
     0
 42
0.0000000001
 43
0.0000000001
 40
0.0
 40
0.0
 40
0.0
 40
0.0
 40
0.1402972411
 40
0.3668050458
 40
1.0
 40
1.0
 40
1.0
 40
1.0
 10
558.2442377275
 20
376.0775933365
 30
0.0
 10
558.2070224658
 20
376.0730788782
 30
0.0
 10
558.1090390537
 20
376.0678271491
 30
0.0
 10
557.8420569308999
 20
376.0589003434
 30
0.0
 10
557.612259804
 20
376.0575581278
 30
0.0
 10
557.4430671526999
 20
376.0575587066
 30
0.0
  0
SPLINE
  5
442
330
21B
100
AcDbEntity
  8
RUNDUNGEN
  6
Continuous
 62
     9
100
AcDbSpline
210
0.0
220
0.0
230
1.0
 70
     8
 71
     3
 72
    10
 73
     6
 74
     0
 42
0.0000000001
 43
0.0000000001
 40
0.0
 40
0.0
 40
0.0
 40
0.0
 40
0.6331949568999999
 40
0.8597027604999999
 40
1.0
 40
1.0
 40
1.0
 40
1.0
 10
534.0559719210999
 20
376.0575587067
 30
0.0
 10
533.8867792758
 20
376.0575581274
 30
0.0
 10
533.6569821583999
 20
376.0589003488
 30
0.0
 10
533.3900000449999
 20
376.0678271441
 30
0.0
 10
533.292016639
 20
376.0730788854
 30
0.0
 10
533.2548013783999
 20
376.0775933368
 30
0.0
  0
SPLINE
  5
443
330
21B
100
AcDbEntity
  8
RUNDUNGEN
  6
Continuous
 62
     9
100
AcDbSpline
210
0.0
220
0.0
230
1.0
 70
     8
 71
     3
 72
     9
 73
     5
 74
     0
 42
0.0000000001
 43
0.0000000001
 40
0.0
 40
0.0
 40
0.0
 40
0.0
 40
0.5488035218000001
 40
1.0
 40
1.0
 40
1.0
 40
1.0
 10
559.1665071351999
 20
352.1735741823001
 30
0.0
 10
559.1666025883
 20
352.3140139883
 30
0.0
 10
559.1779072358999
 20
352.5698485768
 30
0.0
 10
559.2134633092999
 20
352.824381613
 30
0.0
 10
559.2414809475
 20
352.9363927235
 30
0.0
  0
SPLINE
  5
444
330
21B
100
AcDbEntity
  8
RUNDUNGEN
  6
Continuous
 62
     9
100
AcDbSpline
210
0.0
220
0.0
230
1.0
 70
     8
 71
     3
 72
    13
 73
     9
 74
     0
 42
0.0000000001
 43
0.0000000001
 40
0.0
 40
0.0
 40
0.0
 40
0.0
 40
0.2392594369
 40
0.366942807
 40
0.4965419321000001
 40
0.6250813017
 40
0.7517523104000001
 40
1.0
 40
1.0
 40
1.0
 40
1.0
 10
559.2414809519
 20
352.9363931211
 30
0.0
 10
559.3609070646
 20
352.9116837104
 30
0.0
 10
559.5656108335999
 20
352.9197702979
 30
0.0
 10
559.7729637620999
 20
353.0766685001
 30
0.0
 10
559.8802398875
 20
353.2449955888
 30
0.0
 10
559.9428765551
 20
353.4321987744001
 30
0.0
 10
559.9831283064999
 20
353.686384446
 30
0.0
 10
559.9793725247
 20
353.8789881286
 30
0.0
 10
559.9677248270999
 20
354.0049879349
 30
0.0
  0
SPLINE
  5
445
330
21B
100
AcDbEntity
  8
RUNDUNGEN
  6
Continuous
 62
     9
100
AcDbSpline
210
0.0
220
0.0
230
1.0
 70
     8
 71
     3
 72
    13
 73
     9
 74
     0
 42
0.0000000001
 43
0.0000000001
 40
0.0
 40
0.0
 40
0.0
 40
0.0
 40
0.2482478115
 40
0.374918901
 40
0.5034584041
 40
0.6330576718
 40
0.7607411519000001
 40
1.0
 40
1.0
 40
1.0
 40
1.0
 10
531.5313142746999
 20
354.0049879351
 30
0.0
 10
531.5196666191999
 20
353.8789880623
 30
0.0
 10
531.5159107428
 20
353.6863842745
 30
0.0
 10
531.5561626481
 20
353.4321984486
 30
0.0
 10
531.6187994320999
 20
353.2449951059
 30
0.0
 10
531.7260758716001
 20
353.076667956
 30
0.0
 10
531.9334289321
 20
352.9197702187
 30
0.0
 10
532.1381323466
 20
352.9116837330999
 30
0.0
 10
532.2575581569
 20
352.9363931248
 30
0.0
  0
SPLINE
  5
446
330
21B
100
AcDbEntity
  8
RUNDUNGEN
  6
Continuous
 62
     9
100
AcDbSpline
210
0.0
220
0.0
230
1.0
 70
     8
 71
     3
 72
     9
 73
     5
 74
     0
 42
0.0000000001
 43
0.0000000001
 40
0.0
 40
0.0
 40
0.0
 40
0.0
 40
0.3405880483
 40
1.0
 40
1.0
 40
1.0
 40
1.0
 10
530.7992414644998
 20
354.0082138402
 30
0.0
 10
530.8823539791999
 20
354.0080640128
 30
0.0
 10
531.1263775205
 20
354.0073112733
 30
0.0
 10
531.3704162042999
 20
354.0072706443
 30
0.0
 10
531.5313142746999
 20
354.0049879351
 30
0.0
  0
SPLINE
  5
447
330
21B
100
AcDbEntity
  8
RUNDUNGEN
  6
Continuous
 62
     9
100
AcDbSpline
210
0.0
220
0.0
230
1.0
 70
     8
 71
     3
 72
    12
 73
     8
 74
     0
 42
0.0000000001
 43
0.0000000001
 40
0.0
 40
0.0
 40
0.0
 40
0.0
 40
0.3592502275
 40
0.6680428757
 40
0.7903807432
 40
0.8865022093
 40
1.0
 40
1.0
 40
1.0
 40
1.0
 10
530.8024411751
 20
357.4713472664
 30
0.0
 10
530.8023461381
 20
357.5973743791
 30
0.0
 10
530.7917430484
 20
357.8322087804
 30
0.0
 10
530.7541550189999
 20
358.1062513902
 30
0.0
 10
530.704902232
 20
358.2873411723
 30
0.0
 10
530.6640810288
 20
358.3907625949
 30
0.0
 10
530.6124644494999
 20
358.4650042753
 30
0.0
 10
530.5727592757
 20
358.4679690596
 30
0.0
  0
SPLINE
  5
448
330
21B
100
AcDbEntity
  8
RUNDUNGEN
  6
Continuous
 62
     9
100
AcDbSpline
210
0.0
220
0.0
230
1.0
 70
     8
 71
     3
 72
    11
 73
     7
 74
     0
 42
0.0000000001
 43
0.0000000001
 40
0.0
 40
0.0
 40
0.0
 40
0.0
 40
0.1408961
 40
0.3660783299
 40
0.659413397
 40
1.0
 40
1.0
 40
1.0
 40
1.0
 10
531.5346053778999
 20
357.4681213644
 30
0.0
 10
531.5002577681999
 20
357.4697623567
 30
0.0
 10
531.4108514337
 20
357.4682981571
 30
0.0
 10
531.2499572487
 20
357.4703797433
 30
0.0
 10
531.0402784479999
 20
357.4714812046
 30
0.0
 10
530.8855508084999
 20
357.4698675305
 30
0.0
 10
530.8024411751
 20
357.4713472664
 30
0.0
  0
SPLINE
  5
449
330
21B
100
AcDbEntity
  8
RUNDUNGEN
  6
Continuous
 62
     9
100
AcDbSpline
210
0.0
220
0.0
230
1.0
 70
     8
 71
     3
 72
    11
 73
     7
 74
     0
 42
0.0000000001
 43
0.0000000001
 40
0.0
 40
0.0
 40
0.0
 40
0.0
 40
0.245885411
 40
0.494397135
 40
0.7461821147
 40
1.0
 40
1.0
 40
1.0
 40
1.0
 10
530.5727592757
 20
358.4679690596
 30
0.0
 10
530.6980134913
 20
358.4668887423001
 30
0.0
 10
530.9522258273999
 20
358.4124742286
 30
0.0
 10
531.2710525115
 20
358.1882756646
 30
0.0
 10
531.4838156302999
 20
357.8574188923
 30
0.0
 10
531.534093061
 20
357.5974201826
 30
0.0
 10
531.5346053778999
 20
357.4681213644
 30
0.0
  0
SPLINE
  5
44A
330
21B
100
AcDbEntity
  8
RUNDUNGEN
  6
Continuous
 62
     9
100
AcDbSpline
210
0.0
220
0.0
230
1.0
 70
     8
 71
     3
 72
     9
 73
     5
 74
     0
 42
0.0000000001
 43
0.0000000001
 40
0.0
 40
0.0
 40
0.0
 40
0.0
 40
0.3405859415999999
 40
1.0
 40
1.0
 40
1.0
 40
1.0
 10
560.6965979331
 20
357.4713472664
 30
0.0
 10
560.613475557
 20
357.4711974117
 30
0.0
 10
560.3694215515
 20
357.4704446038
 30
0.0
 10
560.1253524057
 20
357.4704040320999
 30
0.0
 10
559.9644337303
 20
357.4681213644
 30
0.0
  0
SPLINE
  5
44B
330
21B
100
AcDbEntity
  8
RUNDUNGEN
  6
Continuous
 62
     9
100
AcDbSpline
210
0.0
220
0.0
230
1.0
 70
     8
 71
     3
 72
    12
 73
     8
 74
     0
 42
0.0000000001
 43
0.0000000001
 40
0.0
 40
0.0
 40
0.0
 40
0.0
 40
0.1134985339
 40
0.2096202163
 40
0.3319582633
 40
0.6407510772000001
 40
1.0
 40
1.0
 40
1.0
 40
1.0
 10
560.9262798325
 20
358.4679690596
 30
0.0
 10
560.8865744
 20
358.465004256
 30
0.0
 10
560.8349577255999
 20
358.3907620154
 30
0.0
 10
560.7941366033998
 20
358.2873401883
 30
0.0
 10
560.7448838269999
 20
358.1062501967
 30
0.0
 10
560.7072960346999
 20
357.8322079044
 30
0.0
 10
560.6966929698
 20
357.5973739173
 30
0.0
 10
560.6965979331
 20
357.4713472664
 30
0.0
  0
SPLINE
  5
44C
330
21B
100
AcDbEntity
  8
RUNDUNGEN
  6
Continuous
 62
     9
100
AcDbSpline
210
0.0
220
0.0
230
1.0
 70
     8
 71
     3
 72
    11
 73
     7
 74
     0
 42
0.0000000001
 43
0.0000000001
 40
0.0
 40
0.0
 40
0.0
 40
0.0
 40
0.2538176474
 40
0.5056045077000001
 40
0.7541219586
 40
1.0
 40
1.0
 40
1.0
 40
1.0
 10
559.9644337303
 20
357.4681213644
 30
0.0
 10
559.9650639464999
 20
357.5974194723
 30
0.0
 10
560.0151618055999
 20
357.8574204557
 30
0.0
 10
560.2280035827999
 20
358.1882812183
 30
0.0
 10
560.546816378
 20
358.4124574587999
 30
0.0
 10
560.8010292569
 20
358.4669098734
 30
0.0
 10
560.9262798325
 20
358.4679690596
 30
0.0
  0
SPLINE
  5
44D
330
21B
100
AcDbEntity
  8
RUNDUNGEN
  6
Continuous
 62
     9
100
AcDbSpline
210
0.0
220
0.0
230
1.0
 70
     8
 71
     3
 72
    11
 73
     7
 74
     0
 42
0.0000000001
 43
0.0000000001
 40
0.0
 40
0.0
 40
0.0
 40
0.0
 40
0.345732309
 40
0.6451108824000001
 40
0.8695771162999999
 40
1.0
 40
1.0
 40
1.0
 40
1.0
 10
558.1560784587
 20
359.0403380481
 30
0.0
 10
558.2216843503999
 20
358.9627970671
 30
0.0
 10
558.3357194901
 20
358.8113028991001
 30
0.0
 10
558.4838019646999
 20
358.6026441787
 30
0.0
 10
558.5835646683
 20
358.4390636483
 30
0.0
 10
558.6258100454999
 20
358.3415534689
 30
0.0
 10
558.6314477882
 20
358.3036540698
 30
0.0
  0
SPLINE
  5
44E
330
21B
100
AcDbEntity
  8
RUNDUNGEN
  6
Continuous
 62
     9
100
AcDbSpline
210
0.0
220
0.0
230
1.0
 70
     8
 71
     3
 72
     9
 73
     5
 74
     0
 42
0.0000000001
 43
0.0000000001
 40
0.0
 40
0.0
 40
0.0
 40
0.0
 40
0.5496699659000001
 40
1.0
 40
1.0
 40
1.0
 40
1.0
 10
558.1560784587
 20
359.0403380481
 30
0.0
 10
558.1560784587
 20
358.899359651
 30
0.0
 10
558.1467319856999
 20
358.6429330525
 30
0.0
 10
558.1172064398
 20
358.3873676514
 30
0.0
 10
558.0936590703999
 20
358.2742936049
 30
0.0
  0
SPLINE
  5
44F
330
21B
100
AcDbEntity
  8
RUNDUNGEN
  6
Continuous
 62
     9
100
AcDbSpline
210
0.0
220
0.0
230
1.0
 70
     8
 71
     3
 72
     9
 73
     5
 74
     0
 42
0.0000000001
 43
0.0000000001
 40
0.0
 40
0.0
 40
0.0
 40
0.0
 40
0.2225741652
 40
1.0
 40
1.0
 40
1.0
 40
1.0
 10
558.6314477882
 20
358.3036540698
 30
0.0
 10
558.5959636799999
 20
358.2839977472001
 30
0.0
 10
558.4242947679999
 20
358.2172566
 30
0.0
 10
558.2301027464
 20
358.2361028355001
 30
0.0
 10
558.0936590703999
 20
358.2742936049
 30
0.0
  0
SPLINE
  5
450
330
21B
100
AcDbEntity
  8
RUNDUNGEN
  6
Continuous
 62
     9
100
AcDbSpline
210
0.0
220
0.0
230
1.0
 70
     8
 71
     3
 72
    11
 73
     7
 74
     0
 42
0.0000000001
 43
0.0000000001
 40
0.0
 40
0.0
 40
0.0
 40
0.0
 40
0.2478781778
 40
0.4888318832
 40
0.73036601
 40
1.0
 40
1.0
 40
1.0
 40
1.0
 10
558.753961095
 20
357.5404815536
 30
0.0
 10
558.7165522988999
 20
357.5961716119
 30
0.0
 10
558.6495764923999
 20
357.7108889643
 30
0.0
 10
558.5796708655
 20
357.8971008886
 30
0.0
 10
558.5542708423
 20
358.1016917832
 30
0.0
 10
558.5935971183999
 20
358.2412596486
 30
0.0
 10
558.6314446998999
 20
358.3036542476
 30
0.0
  0
SPLINE
  5
451
330
21B
100
AcDbEntity
  8
RUNDUNGEN
  6
Continuous
 62
     9
100
AcDbSpline
210
0.0
220
0.0
230
1.0
 70
     8
 71
     3
 72
     9
 73
     5
 74
     0
 42
0.0000000001
 43
0.0000000001
 40
0.0
 40
0.0
 40
0.0
 40
0.0
 40
0.5297062909
 40
1.0
 40
1.0
 40
1.0
 40
1.0
 10
557.9014777848
 20
356.7744373547
 30
0.0
 10
558.1068632779
 20
356.8204353773
 30
0.0
 10
558.4803534637
 20
356.9999245882
 30
0.0
 10
558.7179198999999
 20
357.3571238067
 30
0.0
 10
558.753961095
 20
357.5404815536
 30
0.0
  0
SPLINE
  5
452
330
21B
100
AcDbEntity
  8
RUNDUNGEN
  6
Continuous
 62
     9
100
AcDbSpline
210
0.0
220
0.0
230
1.0
 70
     8
 71
     3
 72
    12
 73
     8
 74
     0
 42
0.0000000001
 43
0.0000000001
 40
0.0
 40
0.0
 40
0.0
 40
0.0
 40
0.0418833576
 40
0.1081172007
 40
0.3253316337
 40
0.6367726148
 40
1.0
 40
1.0
 40
1.0
 40
1.0
 10
559.4423215074999
 20
358.5568799580999
 30
0.0
 10
559.4568288054
 20
358.5581748157
 30
0.0
 10
559.4897973159
 20
358.5835444006
 30
0.0
 10
559.5410787808
 20
358.6840718544
 30
0.0
 10
559.5897817676
 20
358.8879236837
 30
0.0
 10
559.6260793663999
 20
359.1954117965
 30
0.0
 10
559.634471167
 20
359.4304150492
 30
0.0
 10
559.634471167
 20
359.5567276532
 30
0.0
  0
SPLINE
  5
453
330
21B
100
AcDbEntity
  8
RUNDUNGEN
  6
Continuous
 62
     9
100
AcDbSpline
210
0.0
220
0.0
230
1.0
 70
     8
 71
     3
 72
     9
 73
     5
 74
     0
 42
0.0000000001
 43
0.0000000001
 40
0.0
 40
0.0
 40
0.0
 40
0.0
 40
0.2576989501
 40
1.0
 40
1.0
 40
1.0
 40
1.0
 10
558.6314485107
 20
358.3036530841001
 30
0.0
 10
558.6904345844
 20
358.3479006882
 30
0.0
 10
558.9360292213999
 20
358.4971757726
 30
0.0
 10
559.2299253424999
 20
358.5582221863
 30
0.0
 10
559.4423215129999
 20
358.5568784078
 30
0.0
  0
SPLINE
  5
454
330
21B
100
AcDbEntity
  8
RUNDUNGEN
  6
Continuous
 62
     9
100
AcDbSpline
210
0.0
220
0.0
230
1.0
 70
     8
 71
     3
 72
     9
 73
     5
 74
     0
 42
0.0000000001
 43
0.0000000001
 40
0.0
 40
0.0
 40
0.0
 40
0.0
 40
0.4503299493
 40
1.0
 40
1.0
 40
1.0
 40
1.0
 10
533.4053800378
 20
358.2742936049
 30
0.0
 10
533.3818326728
 20
358.3873676301
 30
0.0
 10
533.3523071235999
 20
358.6429330305
 30
0.0
 10
533.3429606495999
 20
358.8993596292
 30
0.0
 10
533.3429606495999
 20
359.040338048
 30
0.0
  0
SPLINE
  5
455
330
21B
100
AcDbEntity
  8
RUNDUNGEN
  6
Continuous
 62
     9
100
AcDbSpline
210
0.0
220
0.0
230
1.0
 70
     8
 71
     3
 72
    13
 73
     9
 74
     0
 42
0.0000000001
 43
0.0000000001
 40
0.0
 40
0.0
 40
0.0
 40
0.0
 40
0.0534485502
 40
0.1307856572
 40
0.2321956241
 40
0.3552781786
 40
0.6545055018000001
 40
1.0
 40
1.0
 40
1.0
 40
1.0
 10
532.8675913198999
 20
358.3036540699
 30
0.0
 10
532.8676297294
 20
358.3193665016001
 30
0.0
 10
532.8796607568
 20
358.3569618021
 30
0.0
 10
532.9087145324999
 20
358.418290364
 30
0.0
 10
532.9509792226999
 20
358.4965648958
 30
0.0
 10
533.0324996831
 20
358.6271427272
 30
0.0
 10
533.1614831220999
 20
358.8126781033
 30
0.0
 10
533.2805157952999
 20
358.9602358226
 30
0.0
 10
533.3429606495999
 20
359.040338048
 30
0.0
  0
SPLINE
  5
456
330
21B
100
AcDbEntity
  8
RUNDUNGEN
  6
Continuous
 62
     9
100
AcDbSpline
210
0.0
220
0.0
230
1.0
 70
     8
 71
     3
 72
     9
 73
     5
 74
     0
 42
0.0000000001
 43
0.0000000001
 40
0.0
 40
0.0
 40
0.0
 40
0.0
 40
0.2831968527
 40
1.0
 40
1.0
 40
1.0
 40
1.0
 10
533.4053800378
 20
358.2742936049
 30
0.0
 10
533.3558677825
 20
358.2601316762
 30
0.0
 10
533.1788211972
 20
358.223073537
 30
0.0
 10
532.9817185862
 20
358.2406839180001
 30
0.0
 10
532.8675913198999
 20
358.3036540699
 30
0.0
  0
SPLINE
  5
457
330
21B
100
AcDbEntity
  8
RUNDUNGEN
  6
Continuous
 62
     9
100
AcDbSpline
210
0.0
220
0.0
230
1.0
 70
     8
 71
     3
 72
    11
 73
     7
 74
     0
 42
0.0000000001
 43
0.0000000001
 40
0.0
 40
0.0
 40
0.0
 40
0.0
 40
0.2696339915
 40
0.5111681166
 40
0.7521218166
 40
1.0
 40
1.0
 40
1.0
 40
1.0
 10
532.8675944062
 20
358.3036542474
 30
0.0
 10
532.9054418723999
 20
358.2412595782
 30
0.0
 10
532.9447683076
 20
358.1016918115
 30
0.0
 10
532.9193682326
 20
357.8971008813
 30
0.0
 10
532.8494626154
 20
357.7108889698
 30
0.0
 10
532.7824868126
 20
357.5961716109
 30
0.0
 10
532.7450780126
 20
357.5404815536
 30
0.0
  0
SPLINE
  5
458
330
21B
100
AcDbEntity
  8
RUNDUNGEN
  6
Continuous
 62
     9
100
AcDbSpline
210
0.0
220
0.0
230
1.0
 70
     8
 71
     3
 72
     9
 73
     5
 74
     0
 42
0.0000000001
 43
0.0000000001
 40
0.0
 40
0.0
 40
0.0
 40
0.0
 40
0.4702937091
 40
1.0
 40
1.0
 40
1.0
 40
1.0
 10
532.7450780126
 20
357.5404815536
 30
0.0
 10
532.7811192076
 20
357.3571238067
 30
0.0
 10
533.0186856445999
 20
356.9999245887
 30
0.0
 10
533.3921758305999
 20
356.8204353785
 30
0.0
 10
533.5975613237
 20
356.7744373563
 30
0.0
  0
SPLINE
  5
459
330
21B
100
AcDbEntity
  8
RUNDUNGEN
  6
Continuous
 62
     9
100
AcDbSpline
210
0.0
220
0.0
230
1.0
 70
     8
 71
     3
 72
    12
 73
     8
 74
     0
 42
0.0000000001
 43
0.0000000001
 40
0.0
 40
0.0
 40
0.0
 40
0.0
 40
0.3632273848
 40
0.6746683658000001
 40
0.8918827991
 40
0.9581166423
 40
1.0
 40
1.0
 40
1.0
 40
1.0
 10
531.8645679411999
 20
359.5567276532
 30
0.0
 10
531.8645679412999
 20
359.4304150493
 30
0.0
 10
531.8729597418
 20
359.1954117969
 30
0.0
 10
531.9092573406
 20
358.8879236841
 30
0.0
 10
531.9579603273
 20
358.6840718546
 30
0.0
 10
532.0092417923
 20
358.5835444008
 30
0.0
 10
532.0422103028
 20
358.5581748157
 30
0.0
 10
532.0567176007999
 20
358.5568799580999
 30
0.0
  0
SPLINE
  5
45A
330
21B
100
AcDbEntity
  8
RUNDUNGEN
  6
Continuous
 62
     9
100
AcDbSpline
210
0.0
220
0.0
230
1.0
 70
     8
 71
     3
 72
     9
 73
     5
 74
     0
 42
0.0000000001
 43
0.0000000001
 40
0.0
 40
0.0
 40
0.0
 40
0.0
 40
0.2469335812
 40
1.0
 40
1.0
 40
1.0
 40
1.0
 10
532.0567175939999
 20
358.5568780227
 30
0.0
 10
532.1272856342
 20
358.5573245206
 30
0.0
 10
532.4124187854001
 20
358.539369841
 30
0.0
 10
532.6954292589999
 20
358.4327940947
 30
0.0
 10
532.8675903209999
 20
358.3036527094
 30
0.0
  0
SPLINE
  5
45B
330
21B
100
AcDbEntity
  8
RUNDUNGEN
  6
Continuous
 62
     9
100
AcDbSpline
210
0.0
220
0.0
230
1.0
 70
     8
 71
     3
 72
     9
 73
     5
 74
     0
 42
0.0000000001
 43
0.0000000001
 40
0.0
 40
0.0
 40
0.0
 40
0.0
 40
0.2487831979
 40
1.0
 40
1.0
 40
1.0
 40
1.0
 10
594.2655939323
 20
258.9058877481
 30
0.0
 10
594.2660219705999
 20
259.3126002507
 30
0.0
 10
594.2675839369
 20
260.947407373
 30
0.0
 10
594.2686219865
 20
262.5822149725
 30
0.0
 10
594.2691788983999
 20
263.8103099802
 30
0.0
  0
SPLINE
  5
45C
330
21B
100
AcDbEntity
  8
RUNDUNGEN
  6
Continuous
 62
     9
100
AcDbSpline
210
0.0
220
0.0
230
1.0
 70
     8
 71
     3
 72
     9
 73
     5
 74
     0
 42
0.0000000001
 43
0.0000000001
 40
0.0
 40
0.0
 40
0.0
 40
0.0
 40
0.2493663826
 40
1.0
 40
1.0
 40
1.0
 40
1.0
 10
594.2691788983999
 20
263.8103099802
 30
0.0
 10
594.8704373059999
 20
263.8458104677
 30
0.0
 10
597.2815847775
 20
263.988124386
 30
0.0
 10
599.6927582999999
 20
264.1299990816
 30
0.0
 10
601.5027058549
 20
264.2358170233
 30
0.0
  0
SPLINE
  5
45D
330
21B
100
AcDbEntity
  8
RUNDUNGEN
  6
Continuous
 62
     9
100
AcDbSpline
210
0.0
220
0.0
230
1.0
 70
     8
 71
     3
 72
    10
 73
     6
 74
     0
 42
0.0000000001
 43
0.0000000001
 40
0.0
 40
0.0
 40
0.0
 40
0.0
 40
0.5423746752000001
 40
0.7884424590000001
 40
1.0
 40
1.0
 40
1.0
 40
1.0
 10
603.1801348839
 20
265.4001683331
 30
0.0
 10
605.5689688943
 20
270.5801490173
 30
0.0
 10
609.0021370304
 20
278.1293022111
 30
0.0
 10
613.1376280587999
 20
287.7997773623
 30
0.0
 10
614.9448011453999
 20
292.2611439067
 30
0.0
 10
615.7492377025
 20
294.3356300145
 30
0.0
  0
SPLINE
  5
45E
330
21B
100
AcDbEntity
  8
RUNDUNGEN
  6
Continuous
 62
     9
100
AcDbSpline
210
0.0
220
0.0
230
1.0
 70
     8
 71
     3
 72
     9
 73
     5
 74
     0
 42
0.0000000001
 43
0.0000000001
 40
0.0
 40
0.0
 40
0.0
 40
0.0
 40
0.4511964778000001
 40
1.0
 40
1.0
 40
1.0
 40
1.0
 10
532.2575581607
 20
352.9363927235
 30
0.0
 10
532.2855757973999
 20
352.8243816127
 30
0.0
 10
532.3211318693999
 20
352.5698485766
 30
0.0
 10
532.3324365183
 20
352.3140139883
 30
0.0
 10
532.3325319730001
 20
352.1735741823001
 30
0.0
  0
SPLINE
  5
45F
330
21B
100
AcDbEntity
  8
RUNDUNGEN
  6
Continuous
 62
     9
100
AcDbSpline
210
0.0
220
0.0
230
1.0
 70
     8
 71
     3
 72
     9
 73
     5
 74
     0
 42
0.0000000001
 43
0.0000000001
 40
0.0
 40
0.0
 40
0.0
 40
0.0
 40
0.1408982706
 40
1.0
 40
1.0
 40
1.0
 40
1.0
 10
559.9677245829
 20
354.0049879349
 30
0.0
 10
560.0021041487999
 20
354.0054756904
 30
0.0
 10
560.2461271784999
 20
354.0072874808
 30
0.0
 10
560.4901539402
 20
354.0078359094
 30
0.0
 10
560.6997978821
 20
354.0082138367
 30
0.0
  0
SPLINE
  5
460
330
21B
100
AcDbEntity
  8
RUNDUNGEN
  6
Continuous
 62
     9
100
AcDbSpline
210
0.0
220
0.0
230
1.0
 70
     8
 71
     3
 72
     8
 73
     4
 74
     0
 42
0.0000000001
 43
0.0000000001
 40
0.0
 40
0.0
 40
0.0
 40
0.0
 40
1.0
 40
1.0
 40
1.0
 40
1.0
 10
602.8513523638999
 20
264.8964760675
 30
0.0
 10
602.9844323280999
 20
265.0464432313
 30
0.0
 10
603.0961812006999
 20
265.2180908601
 30
0.0
 10
603.1801348839
 20
265.4001683331
 30
0.0
  0
SPLINE
  5
462
330
21B
100
AcDbEntity
  8
RUNDUNGEN
  6
Continuous
 62
     9
100
AcDbSpline
210
0.0
220
0.0
230
1.0
 70
     8
 71
     3
 72
    12
 73
     8
 74
     0
 42
0.0000000001
 43
0.0000000001
 40
0.0
 40
0.0
 40
0.0
 40
0.0
 40
0.2816512465
 40
0.5580684939000001
 40
0.8152597643
 40
0.9235336848000001
 40
1.0
 40
1.0
 40
1.0
 40
1.0
 10
562.2841853890999
 20
306.6763451499
 30
0.0
 10
562.1704673186
 20
306.6217944464
 30
0.0
 10
561.9444532534999
 20
306.5150689563
 30
0.0
 10
561.6116238037999
 20
306.3652753212
 30
0.0
 10
561.3466088188999
 20
306.2530486681
 30
0.0
 10
561.1607244098
 20
306.1860490568
 30
0.0
 10
561.0811109709
 20
306.1615556374
 30
0.0
 10
561.0471858257
 20
306.1569073407
 30
0.0
  0
SPLINE
  5
463
330
21B
100
AcDbEntity
  8
RUNDUNGEN
  6
Continuous
 62
     9
100
AcDbSpline
210
0.0
220
0.0
230
1.0
 70
     8
 71
     3
 72
    11
 73
     7
 74
     0
 42
0.0000000001
 43
0.0000000001
 40
0.0
 40
0.0
 40
0.0
 40
0.0
 40
0.2437197161
 40
0.491937553
 40
0.7448586011
 40
1.0
 40
1.0
 40
1.0
 40
1.0
 10
561.0472560317999
 20
306.1569171876
 30
0.0
 10
561.1711810164999
 20
306.1564310953
 30
0.0
 10
561.4238690487999
 20
306.1023772592
 30
0.0
 10
561.7410772091
 20
305.8784964779
 30
0.0
 10
561.9548604443
 20
305.5481949984
 30
0.0
 10
562.0078944373999
 20
305.2881794054
 30
0.0
 10
562.0100321012
 20
305.1584634140001
 30
0.0
  0
SPLINE
  5
464
330
21B
100
AcDbEntity
  8
RUNDUNGEN
  6
Continuous
 62
     9
100
AcDbSpline
210
0.0
220
0.0
230
1.0
 70
     8
 71
     3
 72
    11
 73
     7
 74
     0
 42
0.0000000001
 43
0.0000000001
 40
0.0
 40
0.0
 40
0.0
 40
0.0
 40
0.2551414055
 40
0.5080624659000001
 40
0.7562803049
 40
1.0
 40
1.0
 40
1.0
 40
1.0
 10
529.4890080375999
 20
305.158463431
 30
0.0
 10
529.49114561
 20
305.2881794037
 30
0.0
 10
529.5441793626
 20
305.5481949917
 30
0.0
 10
529.7579621805
 20
305.8784966661
 30
0.0
 10
530.0751701038999
 20
306.1023777058
 30
0.0
 10
530.3278581292
 20
306.1564315272
 30
0.0
 10
530.4517830808
 20
306.156917533
 30
0.0
  0
SPLINE
  5
465
330
21B
100
AcDbEntity
  8
RUNDUNGEN
  6
Continuous
 62
     9
100
AcDbSpline
210
0.0
220
0.0
230
1.0
 70
     8
 71
     3
 72
    12
 73
     8
 74
     0
 42
0.0000000001
 43
0.0000000001
 40
0.0
 40
0.0
 40
0.0
 40
0.0
 40
0.0764402059
 40
0.1846890911
 40
0.4418514777000001
 40
0.7183013839
 40
1.0
 40
1.0
 40
1.0
 40
1.0
 10
530.4518418039999
 20
306.1569083282
 30
0.0
 10
530.4179284462999
 20
306.1615542186999
 30
0.0
 10
530.3383384061
 20
306.1860432876
 30
0.0
 10
530.1524865764999
 20
306.2530219206
 30
0.0
 10
529.8874922131999
 20
306.3652680225
 30
0.0
 10
529.5546474545999
 20
306.5150732339
 30
0.0
 10
529.3285841230999
 20
306.6217735908001
 30
0.0
 10
529.2148537944
 20
306.6763451148
 30
0.0
  0
SPLINE
  5
466
330
21B
100
AcDbEntity
  8
RUNDUNGEN
  6
Continuous
 62
     9
100
AcDbSpline
210
0.0
220
0.0
230
1.0
 70
     8
 71
     3
 72
    11
 73
     7
 74
     0
 42
0.0000000001
 43
0.0000000001
 40
0.0
 40
0.0
 40
0.0
 40
0.0
 40
0.2533656674
 40
0.5054044150000001
 40
0.7542865335000001
 40
1.0
 40
1.0
 40
1.0
 40
1.0
 10
529.5048787715
 20
305.1524607871
 30
0.0
 10
529.5066416611
 20
305.2824441491
 30
0.0
 10
529.5601503567
 20
305.5436661613
 30
0.0
 10
529.7779143019
 20
305.8746432327
 30
0.0
 10
530.1009738619999
 20
306.0978824432
 30
0.0
 10
530.3574769179999
 20
306.1509768417
 30
0.0
 10
530.4835460430999
 20
306.1510846911
 30
0.0
  0
SPLINE
  5
467
330
21B
100
AcDbEntity
  8
RUNDUNGEN
  6
Continuous
 62
     9
100
AcDbSpline
210
0.0
220
0.0
230
1.0
 70
     8
 71
     3
 72
    11
 73
     7
 74
     0
 42
0.0000000001
 43
0.0000000001
 40
0.0
 40
0.0
 40
0.0
 40
0.0
 40
0.2533645866
 40
0.5054060348000001
 40
0.7542959162000001
 40
1.0
 40
1.0
 40
1.0
 40
1.0
 10
533.976097511
 20
304.2472512778
 30
0.0
 10
533.9782065702999
 20
304.3772037439
 30
0.0
 10
534.0311639681999
 20
304.6383850237
 30
0.0
 10
534.2490732251
 20
304.9693275429
 30
0.0
 10
534.5719726457999
 20
305.1925185536
 30
0.0
 10
534.8284146387999
 20
305.2458187749
 30
0.0
 10
534.9544545601999
 20
305.2458808126
 30
0.0
  0
SPLINE
  5
468
330
21B
100
AcDbEntity
  8
RUNDUNGEN
  6
Continuous
 62
     9
100
AcDbSpline
210
0.0
220
0.0
230
1.0
 70
     8
 71
     3
 72
    11
 73
     7
 74
     0
 42
0.0000000001
 43
0.0000000001
 40
0.0
 40
0.0
 40
0.0
 40
0.0
 40
0.3534608842
 40
0.6597472782000001
 40
0.8803793973000001
 40
1.0
 40
1.0
 40
1.0
 40
1.0
 10
535.1795507258
 20
304.2472512779
 30
0.0
 10
535.1795507258
 20
304.3709007494
 30
0.0
 10
535.1704088814
 20
304.6007191984
 30
0.0
 10
535.1251336666
 20
304.9104707739
 30
0.0
 10
535.068608506
 20
305.119769071
 30
0.0
 10
534.9953180151999
 20
305.2368647453
 30
0.0
 10
534.9544545601999
 20
305.2458808126
 30
0.0
  0
SPLINE
  5
469
330
21B
100
AcDbEntity
  8
RUNDUNGEN
  6
Continuous
 62
     9
100
AcDbSpline
210
0.0
220
0.0
230
1.0
 70
     8
 71
     3
 72
    11
 73
     7
 74
     0
 42
0.0000000001
 43
0.0000000001
 40
0.0
 40
0.0
 40
0.0
 40
0.0
 40
0.353460885
 40
0.6597472796
 40
0.880379398
 40
1.0
 40
1.0
 40
1.0
 40
1.0
 10
556.3194883817
 20
304.2472512779
 30
0.0
 10
556.3194883817
 20
304.3709007497
 30
0.0
 10
556.3286302272
 20
304.6007191992
 30
0.0
 10
556.3739054418
 20
304.9104707749
 30
0.0
 10
556.4304306024999
 20
305.1197690718
 30
0.0
 10
556.5037210931999
 20
305.2368647453
 30
0.0
 10
556.5445845480999
 20
305.2458808126
 30
0.0
  0
SPLINE
  5
46A
330
21B
100
AcDbEntity
  8
RUNDUNGEN
  6
Continuous
 62
     9
100
AcDbSpline
210
0.0
220
0.0
230
1.0
 70
     8
 71
     3
 72
    11
 73
     7
 74
     0
 42
0.0000000001
 43
0.0000000001
 40
0.0
 40
0.0
 40
0.0
 40
0.0
 40
0.2533645915
 40
0.5054060414000001
 40
0.7542959206999999
 40
1.0
 40
1.0
 40
1.0
 40
1.0
 10
557.5229415973
 20
304.2472512778
 30
0.0
 10
557.5208325276
 20
304.3772037463
 30
0.0
 10
557.4678751444
 20
304.6383850305
 30
0.0
 10
557.2499658754
 20
304.9693275487
 30
0.0
 10
556.9270664573
 20
305.1925185564
 30
0.0
 10
556.6706244670999
 20
305.2458187742
 30
0.0
 10
556.5445845480999
 20
305.2458808126
 30
0.0
  0
SPLINE
  5
46B
330
21B
100
AcDbEntity
  8
RUNDUNGEN
  6
Continuous
 62
     9
100
AcDbSpline
210
0.0
220
0.0
230
1.0
 70
     8
 71
     3
 72
    11
 73
     7
 74
     0
 42
0.0000000001
 43
0.0000000001
 40
0.0
 40
0.0
 40
0.0
 40
0.0
 40
0.2533656429
 40
0.5054043891
 40
0.7542865266
 40
1.0
 40
1.0
 40
1.0
 40
1.0
 10
561.9941573106
 20
305.1524607871
 30
0.0
 10
561.9923944221
 20
305.2824442101
 30
0.0
 10
561.9388861122001
 20
305.5436663267
 30
0.0
 10
561.721123466
 20
305.8746443895
 30
0.0
 10
561.3980650524999
 20
306.0978855695
 30
0.0
 10
561.1415621924
 20
306.1509816552
 30
0.0
 10
561.0154929931
 20
306.1510903218
 30
0.0
  0
SPLINE
  5
46C
330
21B
100
AcDbEntity
  8
RUNDUNGEN
  6
Continuous
 62
     9
100
AcDbSpline
210
0.0
220
0.0
230
1.0
 70
     8
 71
     3
 72
    10
 73
     6
 74
     0
 42
0.0000000001
 43
0.0000000001
 40
0.0
 40
0.0
 40
0.0
 40
0.0
 40
0.3947102477
 40
0.6535428115
 40
1.0
 40
1.0
 40
1.0
 40
1.0
 10
559.3888875663
 20
300.0530977272
 30
0.0
 10
559.2534564031
 20
299.8444151961
 30
0.0
 10
558.9534979637
 20
299.5454793419
 30
0.0
 10
558.4160241491
 20
299.2181180705
 30
0.0
 10
558.0382018312999
 20
299.0990244224
 30
0.0
 10
557.8198745348999
 20
299.0950107546
 30
0.0
  0
SPLINE
  5
46D
330
21B
100
AcDbEntity
  8
RUNDUNGEN
  6
Continuous
 62
     9
100
AcDbSpline
210
0.0
220
0.0
230
1.0
 70
     8
 71
     3
 72
    11
 73
     7
 74
     0
 42
0.0000000001
 43
0.0000000001
 40
0.0
 40
0.0
 40
0.0
 40
0.0
 40
0.245853807
 40
0.4943762024
 40
0.7461835523999999
 40
1.0
 40
1.0
 40
1.0
 40
1.0
 10
556.5528703465999
 20
299.1790654125
 30
0.0
 10
556.6787502023999
 20
299.1790858077
 30
0.0
 10
556.9347219017999
 20
299.2320073577
 30
0.0
 10
557.2563611657
 20
299.4557175085
 30
0.0
 10
557.4715771776999
 20
299.7876266955
 30
0.0
 10
557.5220363894
 20
300.0489594432
 30
0.0
 10
557.5229415972
 20
300.1789131077
 30
0.0
  0
SPLINE
  5
46E
330
21B
100
AcDbEntity
  8
RUNDUNGEN
  6
Continuous
 62
     9
100
AcDbSpline
210
0.0
220
0.0
230
1.0
 70
     8
 71
     3
 72
    12
 73
     8
 74
     0
 42
0.0000000001
 43
0.0000000001
 40
0.0
 40
0.0
 40
0.0
 40
0.0
 40
0.1143014288
 40
0.2105653066
 40
0.3329260947
 40
0.6414464911
 40
1.0
 40
1.0
 40
1.0
 40
1.0
 10
556.5528703465999
 20
299.1790654125
 30
0.0
 10
556.5126984086
 20
299.1820175091
 30
0.0
 10
556.4599906908999
 20
299.2562251164
 30
0.0
 10
556.4183738515001
 20
299.3603776096
 30
0.0
 10
556.3682908501999
 20
299.5420296996
 30
0.0
 10
556.3301395266001
 20
299.8170004394
 30
0.0
 10
556.3194883817
 20
300.052557477
 30
0.0
 10
556.3194883817
 20
300.1789131077
 30
0.0
  0
SPLINE
  5
46F
330
21B
100
AcDbEntity
  8
RUNDUNGEN
  6
Continuous
 62
     9
100
AcDbSpline
210
0.0
220
0.0
230
1.0
 70
     8
 71
     3
 72
    12
 73
     8
 74
     0
 42
0.0000000001
 43
0.0000000001
 40
0.0
 40
0.0
 40
0.0
 40
0.0
 40
0.1143014288
 40
0.2105653066
 40
0.3329260947
 40
0.6414464911
 40
1.0
 40
1.0
 40
1.0
 40
1.0
 10
534.9461687616999
 20
299.1790654125
 30
0.0
 10
534.9863406995999
 20
299.1820175091
 30
0.0
 10
535.0390484173
 20
299.2562251163
 30
0.0
 10
535.0806652566999
 20
299.3603776095
 30
0.0
 10
535.130748258
 20
299.5420296996
 30
0.0
 10
535.1688995816
 20
299.8170004393
 30
0.0
 10
535.1795507264999
 20
300.052557477
 30
0.0
 10
535.1795507264999
 20
300.1789131077
 30
0.0
  0
SPLINE
  5
470
330
21B
100
AcDbEntity
  8
RUNDUNGEN
  6
Continuous
 62
     9
100
AcDbSpline
210
0.0
220
0.0
230
1.0
 70
     8
 71
     3
 72
    11
 73
     7
 74
     0
 42
0.0000000001
 43
0.0000000001
 40
0.0
 40
0.0
 40
0.0
 40
0.0
 40
0.2458538137
 40
0.4943762122
 40
0.7461835596
 40
1.0
 40
1.0
 40
1.0
 40
1.0
 10
534.9461687616999
 20
299.1790654125
 30
0.0
 10
534.8202889023999
 20
299.1790858074001
 30
0.0
 10
534.5643171987999
 20
299.2320073613
 30
0.0
 10
534.2426779313999
 20
299.4557175172
 30
0.0
 10
534.0274619368
 20
299.7876267052
 30
0.0
 10
533.9770027039
 20
300.0489594468
 30
0.0
 10
533.976097511
 20
300.1789131077
 30
0.0
  0
SPLINE
  5
471
330
21B
100
AcDbEntity
  8
RUNDUNGEN
  6
Continuous
 62
     9
100
AcDbSpline
210
0.0
220
0.0
230
1.0
 70
     8
 71
     3
 72
    10
 73
     6
 74
     0
 42
0.0000000001
 43
0.0000000001
 40
0.0
 40
0.0
 40
0.0
 40
0.0
 40
0.3464640019
 40
0.6052951899
 40
1.0
 40
1.0
 40
1.0
 40
1.0
 10
533.6791645733
 20
299.0950107546
 30
0.0
 10
533.4608329611
 20
299.0990251876
 30
0.0
 10
533.0830066418
 20
299.2181196274
 30
0.0
 10
532.5455360848999
 20
299.5454852485
 30
0.0
 10
532.2455768015999
 20
299.8444154032
 30
0.0
 10
532.1101515419
 20
300.0530977272
 30
0.0
  0
SPLINE
  5
472
330
21B
100
AcDbEntity
  8
RUNDUNGEN
  6
Continuous
 62
     9
100
AcDbSpline
210
0.0
220
0.0
230
1.0
 70
     8
 71
     3
 72
    10
 73
     6
 74
     0
 42
0.0000000001
 43
0.0000000001
 40
0.0
 40
0.0
 40
0.0
 40
0.0
 40
0.1386339828
 40
0.3511942047
 40
1.0
 40
1.0
 40
1.0
 40
1.0
 10
560.5386414687
 20
277.7444440722
 30
0.0
 10
560.5674951621999
 20
277.7499055923
 30
0.0
 10
560.6289174403999
 20
277.8031520391
 30
0.0
 10
560.7206441135999
 20
277.993513017
 30
0.0
 10
560.7560607022
 20
278.1763127416
 30
0.0
 10
560.7740541965
 20
278.3125625098
 30
0.0
  0
SPLINE
  5
474
330
21B
100
AcDbEntity
  8
RUNDUNGEN
  6
Continuous
 62
     9
100
AcDbSpline
210
0.0
220
0.0
230
1.0
 70
     8
 71
     3
 72
    11
 73
     7
 74
     0
 42
0.0000000001
 43
0.0000000001
 40
0.0
 40
0.0
 40
0.0
 40
0.0
 40
0.2456969364
 40
0.4945826668000001
 40
0.7466286454000001
 40
1.0
 40
1.0
 40
1.0
 40
1.0
 10
560.5386414692
 20
277.7444440723
 30
0.0
 10
560.4124394749
 20
277.7442183071
 30
0.0
 10
560.1555221016999
 20
277.7971150214
 30
0.0
 10
559.8319665387999
 20
278.0201831757
 30
0.0
 10
559.6131735965
 20
278.3513966791
 30
0.0
 10
559.5608316744999
 20
278.6129555517
 30
0.0
 10
559.5582251285
 20
278.7430736071
 30
0.0
  0
SPLINE
  5
475
330
21B
100
AcDbEntity
  8
RUNDUNGEN
  6
Continuous
 62
     9
100
AcDbSpline
210
0.0
220
0.0
230
1.0
 70
     8
 71
     3
 72
    11
 73
     7
 74
     0
 42
0.0000000001
 43
0.0000000001
 40
0.0
 40
0.0
 40
0.0
 40
0.0
 40
0.2457091995
 40
0.4945870052
 40
0.7466277202000001
 40
1.0
 40
1.0
 40
1.0
 40
1.0
 10
559.2843165458
 20
277.4904881913
 30
0.0
 10
559.1581012874
 20
277.4903474273
 30
0.0
 10
558.9011889006
 20
277.543067317
 30
0.0
 10
558.5774679772
 20
277.7662010439
 30
0.0
 10
558.3592054612999
 20
278.0974385975
 30
0.0
 10
558.3055709407
 20
278.358978002
 30
0.0
 10
558.3038060834
 20
278.4891177261
 30
0.0
  0
SPLINE
  5
476
330
21B
100
AcDbEntity
  8
RUNDUNGEN
  6
Continuous
 62
     9
100
AcDbSpline
210
0.0
220
0.0
230
1.0
 70
     8
 71
     3
 72
    11
 73
     7
 74
     0
 42
0.0000000001
 43
0.0000000001
 40
0.0
 40
0.0
 40
0.0
 40
0.0
 40
0.1220976344
 40
0.3372955676
 40
0.6390863567000001
 40
1.0
 40
1.0
 40
1.0
 40
1.0
 10
556.8568920724
 20
277.3826118917
 30
0.0
 10
556.8910854852999
 20
277.3901156002
 30
0.0
 10
556.9568887166999
 20
277.4781939393
 30
0.0
 10
557.0112013161
 20
277.6477136593
 30
0.0
 10
557.0586443633
 20
277.8980958889
 30
0.0
 10
557.0740227251999
 20
278.0870648356
 30
0.0
 10
557.0788211621
 20
278.190432431
 30
0.0
  0
SPLINE
  5
477
330
21B
100
AcDbEntity
  8
RUNDUNGEN
  6
Continuous
 62
     9
100
AcDbSpline
210
0.0
220
0.0
230
1.0
 70
     8
 71
     3
 72
    11
 73
     7
 74
     0
 42
0.0000000001
 43
0.0000000001
 40
0.0
 40
0.0
 40
0.0
 40
0.0
 40
0.1220976474
 40
0.337295579
 40
0.6390863620000001
 40
1.0
 40
1.0
 40
1.0
 40
1.0
 10
534.6421470358999
 20
277.3826118917
 30
0.0
 10
534.6079536183
 20
277.3901155988
 30
0.0
 10
534.5421503690999
 20
277.4781939294
 30
0.0
 10
534.4878377664
 20
277.6477136579
 30
0.0
 10
534.4403947252999
 20
277.898095887
 30
0.0
 10
534.4250163752
 20
278.0870648352
 30
0.0
 10
534.4202179460999
 20
278.190432431
 30
0.0
  0
SPLINE
  5
478
330
21B
100
AcDbEntity
  8
RUNDUNGEN
  6
Continuous
 62
     9
100
AcDbSpline
210
0.0
220
0.0
230
1.0
 70
     8
 71
     3
 72
    11
 73
     7
 74
     0
 42
0.0000000001
 43
0.0000000001
 40
0.0
 40
0.0
 40
0.0
 40
0.0
 40
0.2457091973
 40
0.4945869964
 40
0.746627712
 40
1.0
 40
1.0
 40
1.0
 40
1.0
 10
532.2147225914
 20
277.4904901717
 30
0.0
 10
532.3409378356999
 20
277.490349086
 30
0.0
 10
532.5978503322
 20
277.5430683388
 30
0.0
 10
532.9215717083999
 20
277.7662013771
 30
0.0
 10
533.1398347026
 20
278.0974386165
 30
0.0
 10
533.1934693601
 20
278.3589780108
 30
0.0
 10
533.1952342165
 20
278.4891177261
 30
0.0
  0
SPLINE
  5
479
330
21B
100
AcDbEntity
  8
RUNDUNGEN
  6
Continuous
 62
     9
100
AcDbSpline
210
0.0
220
0.0
230
1.0
 70
     8
 71
     3
 72
    11
 73
     7
 74
     0
 42
0.0000000001
 43
0.0000000001
 40
0.0
 40
0.0
 40
0.0
 40
0.0
 40
0.2456969363
 40
0.4945826667000001
 40
0.7466286453000001
 40
1.0
 40
1.0
 40
1.0
 40
1.0
 10
530.960397639
 20
277.7444440723
 30
0.0
 10
531.0865996332999
 20
277.7442183071
 30
0.0
 10
531.3435170065
 20
277.7971150214
 30
0.0
 10
531.6670725694
 20
278.0201831757
 30
0.0
 10
531.8858655118
 20
278.351396679
 30
0.0
 10
531.9382074336
 20
278.6129555517
 30
0.0
 10
531.9408139796999
 20
278.7430736071
 30
0.0
  0
SPLINE
  5
47A
330
21B
100
AcDbEntity
  8
RUNDUNGEN
  6
Continuous
 62
     9
100
AcDbSpline
210
0.0
220
0.0
230
1.0
 70
     8
 71
     3
 72
    10
 73
     6
 74
     0
 42
0.0000000001
 43
0.0000000001
 40
0.0
 40
0.0
 40
0.0
 40
0.0
 40
0.1386339833
 40
0.3511942051
 40
1.0
 40
1.0
 40
1.0
 40
1.0
 10
530.960397639
 20
277.7444440723
 30
0.0
 10
530.9315439455
 20
277.7499055924
 30
0.0
 10
530.8701216672
 20
277.8031520381
 30
0.0
 10
530.7783949936
 20
277.9935130148
 30
0.0
 10
530.7429784106999
 20
278.1763127391
 30
0.0
 10
530.7249849165
 20
278.3125625063
 30
0.0
  0
LINE
  5
47C
330
21B
100
AcDbEntity
  8
RUNDUNGEN
  6
Continuous
 62
     9
100
AcDbLine
 10
533.1952428080999
 20
278.4891157455
 30
0.0
 11
532.1101515419
 21
300.0530977272
 31
0.0
  0
SPLINE
  5
47D
330
21B
100
AcDbEntity
  8
RUNDUNGEN
  6
Continuous
 62
     9
100
AcDbSpline
210
0.0
220
0.0
230
1.0
 70
     8
 71
     3
 72
    11
 73
     7
 74
     0
 42
0.0000000001
 43
0.0000000001
 40
0.0
 40
0.0
 40
0.0
 40
0.0
 40
0.1545622583
 40
0.3869864678999999
 40
0.681587451
 40
1.0
 40
1.0
 40
1.0
 40
1.0
 10
533.1952432568
 20
278.4891068404
 30
0.0
 10
533.2402390938
 20
278.4408952099
 30
0.0
 10
533.3900407209999
 20
278.3598542531
 30
0.0
 10
533.6662065441999
 20
278.2719441639
 30
0.0
 10
534.0229166633
 20
278.2084663421
 30
0.0
 10
534.2843780269999
 20
278.1909753168
 30
0.0
 10
534.4202335448
 20
278.1904317041
 30
0.0
  0
SPLINE
  5
47E
330
21B
100
AcDbEntity
  8
RUNDUNGEN
  6
Continuous
 62
     9
100
AcDbSpline
210
0.0
220
0.0
230
1.0
 70
     8
 71
     3
 72
    12
 73
     8
 74
     0
 42
0.0000000001
 43
0.0000000001
 40
0.0
 40
0.0
 40
0.0
 40
0.0
 40
0.1359961167
 40
0.26895334
 40
0.3970998013
 40
0.5219254392
 40
1.0
 40
1.0
 40
1.0
 40
1.0
 10
533.4296626192999
 20
297.9045304487
 30
0.0
 10
533.3097755085
 20
297.9094492550999
 30
0.0
 10
533.0805615673
 20
298.0176735652
 30
0.0
 10
532.8346379934999
 20
298.2677044832
 30
0.0
 10
532.6389512117999
 20
298.5483560545
 30
0.0
 10
532.3355543016999
 20
299.118057288
 30
0.0
 10
532.1820349376
 20
299.6374677938
 30
0.0
 10
532.1101515419
 20
300.0530977272
 30
0.0
  0
SPLINE
  5
47F
330
21B
100
AcDbEntity
  8
RUNDUNGEN
  6
Continuous
 62
     9
100
AcDbSpline
210
0.0
220
0.0
230
1.0
 70
     8
 71
     3
 72
    11
 73
     7
 74
     0
 42
0.0000000001
 43
0.0000000001
 40
0.0
 40
0.0
 40
0.0
 40
0.0
 40
0.3184150127
 40
0.6130146991
 40
0.8454381449999999
 40
1.0
 40
1.0
 40
1.0
 40
1.0
 10
557.0788052134999
 20
278.1904316845
 30
0.0
 10
557.2146618281999
 20
278.190975337
 30
0.0
 10
557.4761238169998
 20
278.2084664166
 30
0.0
 10
557.8328340371999
 20
278.2719447436
 30
0.0
 10
558.1089992183999
 20
278.3598544302
 30
0.0
 10
558.2587998576
 20
278.4408957154
 30
0.0
 10
558.3037959288
 20
278.4891069225
 30
0.0
  0
LINE
  5
480
330
21B
100
AcDbEntity
  8
RUNDUNGEN
  6
Continuous
 62
     9
100
AcDbLine
 10
559.3888875663
 20
300.0530977272
 30
0.0
 11
558.3037963740999
 21
278.4891157605
 31
0.0
  0
SPLINE
  5
481
330
21B
100
AcDbEntity
  8
RUNDUNGEN
  6
Continuous
 62
     9
100
AcDbSpline
210
0.0
220
0.0
230
1.0
 70
     8
 71
     3
 72
    12
 73
     8
 74
     0
 42
0.0000000001
 43
0.0000000001
 40
0.0
 40
0.0
 40
0.0
 40
0.0
 40
0.4780804478000001
 40
0.6029067967000001
 40
0.731053145
 40
0.8640089474999999
 40
1.0
 40
1.0
 40
1.0
 40
1.0
 10
559.3888875663
 20
300.0530977272
 30
0.0
 10
559.3170042610999
 20
299.6374628406
 30
0.0
 10
559.1634797248999
 20
299.1180481627
 30
0.0
 10
558.8600800391999
 20
298.5483421733
 30
0.0
 10
558.6643888106999
 20
298.2676951394
 30
0.0
 10
558.418466027
 20
298.0176705261
 30
0.0
 10
558.1892588539
 20
297.9094536504
 30
0.0
 10
558.0693764889
 20
297.9045304487
 30
0.0
  0
SPLINE
  5
483
330
21B
100
AcDbEntity
  8
RUNDUNGEN
  6
Continuous
 62
     9
100
AcDbSpline
210
0.0
220
0.0
230
1.0
 70
     8
 71
     3
 72
    10
 73
     6
 74
     0
 42
0.0000000001
 43
0.0000000001
 40
0.0
 40
0.0
 40
0.0
 40
0.0
 40
0.1768007876
 40
0.4195094124
 40
1.0
 40
1.0
 40
1.0
 40
1.0
 10
559.5582251285
 20
278.7430736071
 30
0.0
 10
559.5955280607999
 20
278.6743162588
 30
0.0
 10
559.7428669503
 20
278.5476643555
 30
0.0
 10
560.1465158541999
 20
278.3670159491
 30
0.0
 10
560.5172266108999
 20
278.310617674
 30
0.0
 10
560.7740541917999
 20
278.3125625063
 30
0.0
  0
SPLINE
  5
484
330
21B
100
AcDbEntity
  8
RUNDUNGEN
  6
Continuous
 62
     9
100
AcDbSpline
210
0.0
220
0.0
230
1.0
 70
     8
 71
     3
 72
    10
 73
     6
 74
     0
 42
0.0000000001
 43
0.0000000001
 40
0.0
 40
0.0
 40
0.0
 40
0.0
 40
0.5805840020000001
 40
0.823216912
 40
1.0
 40
1.0
 40
1.0
 40
1.0
 10
563.1519255189
 20
297.5907998847
 30
0.0
 10
562.8955144069
 20
297.5891448933
 30
0.0
 10
562.5255006198
 20
297.6456147546
 30
0.0
 10
562.1227105309999
 20
297.8262551645
 30
0.0
 10
561.9757206773
 20
297.9526842291999
 30
0.0
 10
561.9384868482
 20
298.0213108683
 30
0.0
  0
SPLINE
  5
485
330
21B
100
AcDbEntity
  8
RUNDUNGEN
  6
Continuous
 62
     9
100
AcDbSpline
210
0.0
220
0.0
230
1.0
 70
     8
 71
     3
 72
     8
 73
     4
 74
     0
 42
0.0000000001
 43
0.0000000001
 40
0.0
 40
0.0
 40
0.0
 40
0.0
 40
1.0
 40
1.0
 40
1.0
 40
1.0
 10
562.0100427981999
 20
305.1584596458
 30
0.0
 10
562.0046919897
 20
305.1566140908
 30
0.0
 10
561.9993805356999
 20
305.1546414164
 30
0.0
 10
561.9941573106
 20
305.1524607871
 30
0.0
  0
SPLINE
  5
486
330
21B
100
AcDbEntity
  8
RUNDUNGEN
  6
Continuous
 62
     9
100
AcDbSpline
210
0.0
220
0.0
230
1.0
 70
     8
 71
     3
 72
     9
 73
     5
 74
     0
 42
0.0000000001
 43
0.0000000001
 40
0.0
 40
0.0
 40
0.0
 40
0.0
 40
0.3167919623
 40
1.0
 40
1.0
 40
1.0
 40
1.0
 10
563.2290194311
 20
298.8726553561
 30
0.0
 10
563.0980672806999
 20
298.8726483551
 30
0.0
 10
562.6847017309
 20
298.8732639722
 30
0.0
 10
562.2713116043
 20
298.8723610361
 30
0.0
 10
561.9889161457
 20
298.875881258
 30
0.0
  0
SPLINE
  5
487
330
21B
100
AcDbEntity
  8
RUNDUNGEN
  6
Continuous
 62
     9
100
AcDbSpline
210
0.0
220
0.0
230
1.0
 70
     8
 71
     3
 72
    13
 73
     9
 74
     0
 42
0.0000000001
 43
0.0000000001
 40
0.0
 40
0.0
 40
0.0
 40
0.0
 40
0.0692246867
 40
0.1724907321
 40
0.2949378757
 40
0.4277959475000001
 40
0.7090843751000002
 40
1.0
 40
1.0
 40
1.0
 40
1.0
 10
562.0100427981999
 20
305.1584596458
 30
0.0
 10
562.0379081809
 20
305.1680826058
 30
0.0
 10
562.094220166
 20
305.2200937283
 30
0.0
 10
562.1758761544
 20
305.3135555965
 30
0.0
 10
562.2668905207
 20
305.4370311527
 30
0.0
 10
562.3952332988999
 20
305.6258496471
 30
0.0
 10
562.5536917759999
 20
305.8811694257
 30
0.0
 10
562.6757600732999
 20
306.0920531094
 30
0.0
 10
562.7365639758998
 20
306.1999957354
 30
0.0
  0
SPLINE
  5
488
330
21B
100
AcDbEntity
  8
RUNDUNGEN
  6
Continuous
 62
     9
100
AcDbSpline
210
0.0
220
0.0
230
1.0
 70
     8
 71
     3
 72
     8
 73
     4
 74
     0
 42
0.0000000001
 43
0.0000000001
 40
0.0
 40
0.0
 40
0.0
 40
0.0
 40
1.0
 40
1.0
 40
1.0
 40
1.0
 10
529.5048817977
 20
305.1524607871
 30
0.0
 10
529.4996585492
 20
305.1546412985
 30
0.0
 10
529.4943470870999
 20
305.1566138623
 30
0.0
 10
529.4889963425999
 20
305.1584595298
 30
0.0
  0
SPLINE
  5
489
330
21B
100
AcDbEntity
  8
RUNDUNGEN
  6
Continuous
 62
     9
100
AcDbSpline
210
0.0
220
0.0
230
1.0
 70
     8
 71
     3
 72
    13
 73
     9
 74
     0
 42
0.0000000001
 43
0.0000000001
 40
0.0
 40
0.0
 40
0.0
 40
0.0
 40
0.2909636756
 40
0.5722717541
 40
0.7051157207
 40
0.8275562623999999
 40
0.9308159937999999
 40
1.0
 40
1.0
 40
1.0
 40
1.0
 10
528.762475172
 20
306.1999956631
 30
0.0
 10
528.8232805308
 20
306.0920309991
 30
0.0
 10
528.9453750370999
 20
305.8811301652
 30
0.0
 10
529.1038905676
 20
305.6258189503
 30
0.0
 10
529.2322793608
 20
305.4370352613
 30
0.0
 10
529.3232305276999
 20
305.3135282183
 30
0.0
 10
529.4048266275
 20
305.2200490179
 30
0.0
 10
529.4611402814999
 20
305.1680559854
 30
0.0
 10
529.4889963425999
 20
305.1584595298
 30
0.0
  0
SPLINE
  5
48A
330
21B
100
AcDbEntity
  8
RUNDUNGEN
  6
Continuous
 62
     9
100
AcDbSpline
210
0.0
220
0.0
230
1.0
 70
     8
 71
     3
 72
     9
 73
     5
 74
     0
 42
0.0000000001
 43
0.0000000001
 40
0.0
 40
0.0
 40
0.0
 40
0.0
 40
0.3167919334
 40
1.0
 40
1.0
 40
1.0
 40
1.0
 10
528.2700197425
 20
298.8726553569
 30
0.0
 10
528.4009718741
 20
298.8726483559
 30
0.0
 10
528.8143374021
 20
298.8732639726
 30
0.0
 10
529.2277275067999
 20
298.8723610386
 30
0.0
 10
529.5101229624999
 20
298.875881258
 30
0.0
  0
SPLINE
  5
48B
330
21B
100
AcDbEntity
  8
RUNDUNGEN
  6
Continuous
 62
     9
100
AcDbSpline
210
0.0
220
0.0
230
1.0
 70
     8
 71
     3
 72
    10
 73
     6
 74
     0
 42
0.0000000001
 43
0.0000000001
 40
0.0
 40
0.0
 40
0.0
 40
0.0
 40
0.5805840316
 40
0.8232169325
 40
1.0
 40
1.0
 40
1.0
 40
1.0
 10
528.3471135229
 20
297.590799769
 30
0.0
 10
528.6035246721
 20
297.5891447769
 30
0.0
 10
528.9735385062
 20
297.645614657
 30
0.0
 10
529.3763286166999
 20
297.8262551186
 30
0.0
 10
529.5233184546999
 20
297.9526842183
 30
0.0
 10
529.5605522599999
 20
298.0213108683
 30
0.0
  0
SPLINE
  5
48C
330
21B
100
AcDbEntity
  8
RUNDUNGEN
  6
Continuous
 62
     9
100
AcDbSpline
210
0.0
220
0.0
230
1.0
 70
     8
 71
     3
 72
    10
 73
     6
 74
     0
 42
0.0000000001
 43
0.0000000001
 40
0.0
 40
0.0
 40
0.0
 40
0.0
 40
0.5804905878
 40
0.8231992125000001
 40
1.0
 40
1.0
 40
1.0
 40
1.0
 10
530.7249849165
 20
278.3125625063
 30
0.0
 10
530.9818124987
 20
278.3106178535
 30
0.0
 10
531.3525232552999
 20
278.3670159118
 30
0.0
 10
531.7561721557
 20
278.5476643627
 30
0.0
 10
531.9035110475
 20
278.6743162589
 30
0.0
 10
531.9408139796999
 20
278.7430736071
 30
0.0
  0
LINE
  5
48D
330
21B
100
AcDbEntity
  8
RUNDUNGEN
  6
Continuous
 62
     9
100
AcDbLine
 10
534.4202335083999
 20
278.190432431
 30
0.0
 11
533.4296626190999
 21
297.9045304488
 31
0.0
  0
LINE
  5
48E
330
21B
100
AcDbEntity
  8
RUNDUNGEN
  6
Continuous
 62
     9
100
AcDbLine
 10
558.0693764891
 20
297.9045304488
 30
0.0
 11
557.0788052509
 21
278.190432431
 31
0.0
  0
LINE
  5
48F
330
21B
100
AcDbEntity
  8
RUNDUNGEN
  6
Continuous
 62
     9
100
AcDbLine
 10
557.8018611974999
 20
299.0948479676
 30
0.0
 11
556.5528703465999
 21
299.1790654125
 31
0.0
  0
LINE
  5
490
330
21B
100
AcDbEntity
  8
RUNDUNGEN
  6
Continuous
 62
     9
100
AcDbLine
 10
534.9461687616999
 20
299.1790654125
 30
0.0
 11
533.6971779107
 21
299.0948479676
 31
0.0
  0
SPLINE
  5
491
330
21B
100
AcDbEntity
  8
RUNDUNGEN
  6
Continuous
 62
     9
100
AcDbSpline
210
0.0
220
0.0
230
1.0
 70
     8
 71
     3
 72
     8
 73
     4
 74
     0
 42
0.0000000001
 43
0.0000000001
 40
0.0
 40
0.0
 40
0.0
 40
0.0
 40
1.0
 40
1.0
 40
1.0
 40
1.0
 10
530.4835461150999
 20
306.1510903219
 30
0.0
 10
530.4729964829
 20
306.1532289145
 30
0.0
 10
530.4623993292
 20
306.1551361691
 30
0.0
 10
530.4517830431999
 20
306.1569145921
 30
0.0
  0
LINE
  5
492
330
21B
100
AcDbEntity
  8
RUNDUNGEN
  6
Continuous
 62
     9
100
AcDbLine
 10
534.9544545601999
 20
305.2458808126
 30
0.0
 11
530.4835461150999
 21
306.1510903219
 31
0.0
  0
LINE
  5
493
330
21B
100
AcDbEntity
  8
RUNDUNGEN
  6
Continuous
 62
     9
100
AcDbLine
 10
561.0154929931
 20
306.1510903219
 30
0.0
 11
556.5445845480999
 21
305.2458808126
 31
0.0
  0
SPLINE
  5
494
330
21B
100
AcDbEntity
  8
RUNDUNGEN
  6
Continuous
 62
     9
100
AcDbSpline
210
0.0
220
0.0
230
1.0
 70
     8
 71
     3
 72
     8
 73
     4
 74
     0
 42
0.0000000001
 43
0.0000000001
 40
0.0
 40
0.0
 40
0.0
 40
0.0
 40
1.0
 40
1.0
 40
1.0
 40
1.0
 10
561.047256065
 20
306.1569145921
 30
0.0
 10
561.0366397887999
 20
306.1551361108
 30
0.0
 10
561.0260426155999
 20
306.1532289625
 30
0.0
 10
561.0154929931
 20
306.1510903219
 30
0.0
  0
LINE
  5
495
330
21B
100
AcDbEntity
  8
RUNDUNGEN
  6
Continuous
 62
     9
100
AcDbLine
 10
558.3037963740999
 20
278.4891157605
 30
0.0
 11
559.5582251285
 21
278.7430736071
 31
0.0
  0
LINE
  5
496
330
21B
100
AcDbEntity
  8
RUNDUNGEN
  6
Continuous
 62
     9
100
AcDbLine
 10
559.5582251285
 20
278.7430736071
 30
0.0
 11
561.9384868482
 21
298.0213108683
 31
0.0
  0
SPLINE
  5
497
330
21B
100
AcDbEntity
  8
RUNDUNGEN
  6
Continuous
 62
     9
100
AcDbSpline
210
0.0
220
0.0
230
1.0
 70
     8
 71
     3
 72
     9
 73
     5
 74
     0
 42
0.0000000001
 43
0.0000000001
 40
0.0
 40
0.0
 40
0.0
 40
0.0
 40
0.2398401366
 40
1.0
 40
1.0
 40
1.0
 40
1.0
 10
561.9384868482
 20
298.0213108683
 30
0.0
 10
561.9468760909
 20
298.0892577339
 30
0.0
 10
561.9768339098999
 20
298.3731660502
 30
0.0
 10
561.988735249
 20
298.6588923058
 30
0.0
 10
561.9889161457
 20
298.875881258
 30
0.0
  0
LINE
  5
498
330
21B
100
AcDbEntity
  8
RUNDUNGEN
  6
Continuous
 62
     9
100
AcDbLine
 10
561.9941573106
 20
305.1524607871
 30
0.0
 11
557.5229415973999
 21
304.2472512779
 31
0.0
  0
LINE
  5
49A
330
21B
100
AcDbEntity
  8
RUNDUNGEN
  6
Continuous
 62
     9
100
AcDbLine
 10
559.3888875663
 20
300.0530977272
 30
0.0
 11
557.5229415973999
 21
300.1789131077
 31
0.0
  0
LINE
  5
49B
330
21B
100
AcDbEntity
  8
RUNDUNGEN
  6
Continuous
 62
     9
100
AcDbLine
 10
533.9760975108
 20
304.2472512779
 30
0.0
 11
529.5048817977
 21
305.1524607871
 31
0.0
  0
SPLINE
  5
49C
330
21B
100
AcDbEntity
  8
RUNDUNGEN
  6
Continuous
 62
     9
100
AcDbSpline
210
0.0
220
0.0
230
1.0
 70
     8
 71
     3
 72
     9
 73
     5
 74
     0
 42
0.0000000001
 43
0.0000000001
 40
0.0
 40
0.0
 40
0.0
 40
0.0
 40
0.2574377726
 40
1.0
 40
1.0
 40
1.0
 40
1.0
 10
529.5101229624999
 20
298.875881258
 30
0.0
 10
529.5101842244
 20
298.8023963849
 30
0.0
 10
529.5145292559999
 20
298.5169850947
 30
0.0
 10
529.5345789836
 20
298.2316758324
 30
0.0
 10
529.5605522599999
 20
298.0213108683
 30
0.0
  0
LINE
  5
49D
330
21B
100
AcDbEntity
  8
RUNDUNGEN
  6
Continuous
 62
     9
100
AcDbLine
 10
529.5605522599999
 20
298.0213108683
 30
0.0
 11
531.9408139796999
 21
278.7430736071
 31
0.0
  0
LINE
  5
49E
330
21B
100
AcDbEntity
  8
RUNDUNGEN
  6
Continuous
 62
     9
100
AcDbLine
 10
531.9408139796999
 20
278.7430736071
 30
0.0
 11
533.1952428080999
 21
278.4891157455
 31
0.0
  0
LINE
  5
49F
330
21B
100
AcDbEntity
  8
RUNDUNGEN
  6
Continuous
 62
     9
100
AcDbLine
 10
533.9760975108
 20
300.1789131077
 30
0.0
 11
532.1101515419
 21
300.0530977272
 31
0.0
  0
LINE
  5
4A0
330
21B
100
AcDbEntity
  8
RUNDUNGEN
  6
Continuous
 62
     9
100
AcDbLine
 10
528.3471135241
 20
297.5907997731
 30
0.0
 11
530.7249849109999
 21
278.3125625098
 31
0.0
  0
LINE
  5
4A1
330
21B
100
AcDbEntity
  8
RUNDUNGEN
  6
Continuous
 62
     9
100
AcDbLine
 10
560.7740571849999
 20
278.3125625098
 30
0.0
 11
563.1519255841999
 21
297.5907997731
 31
0.0
  0
SPLINE
  5
4A2
330
21B
100
AcDbEntity
  8
RUNDUNGEN
  6
Continuous
 62
     9
100
AcDbSpline
210
0.0
220
0.0
230
1.0
 70
     8
 71
     3
 72
    12
 73
     8
 74
     0
 42
0.0000000001
 43
0.0000000001
 40
0.0
 40
0.0
 40
0.0
 40
0.0
 40
0.3447509035
 40
0.6559444239
 40
0.7821314039000001
 40
0.882104125
 40
1.0
 40
1.0
 40
1.0
 40
1.0
 10
592.2943319758998
 20
256.8926342196
 30
0.0
 10
592.3008533062999
 20
257.0367078275999
 30
0.0
 10
592.2974069616999
 20
257.3121335635
 30
0.0
 10
592.2597539406999
 20
257.6364267138
 30
0.0
 10
592.2031906252999
 20
257.8575410925
 30
0.0
 10
592.1544843038
 20
257.9857137693
 30
0.0
 10
592.0910296248999
 20
258.0791551455
 30
0.0
 10
592.04181613
 20
258.0823929119
 30
0.0
  0
SPLINE
  5
4A3
330
21B
100
AcDbEntity
  8
RUNDUNGEN
  6
Continuous
 62
     9
100
AcDbSpline
210
0.0
220
0.0
230
1.0
 70
     8
 71
     3
 72
    11
 73
     7
 74
     0
 42
0.0000000001
 43
0.0000000001
 40
0.0
 40
0.0
 40
0.0
 40
0.0
 40
0.2534156689
 40
0.5049860928000001
 40
0.7532284431999999
 40
1.0
 40
1.0
 40
1.0
 40
1.0
 10
530.7992412457999
 20
354.0082135704
 30
0.0
 10
530.7990508748
 20
353.783041954
 30
0.0
 10
530.8508172019998
 20
353.3314451961
 30
0.0
 10
531.1360670673
 20
352.7082843436
 30
0.0
 10
531.6640962973
 20
352.2644484126999
 30
0.0
 10
532.1132619384
 20
352.1735842826999
 30
0.0
 10
532.3325300300999
 20
352.1735741823001
 30
0.0
  0
SPLINE
  5
4A4
330
21B
100
AcDbEntity
  8
RUNDUNGEN
  6
Continuous
 62
     9
100
AcDbSpline
210
0.0
220
0.0
230
1.0
 70
     8
 71
     3
 72
    11
 73
     7
 74
     0
 42
0.0000000001
 43
0.0000000001
 40
0.0
 40
0.0
 40
0.0
 40
0.0
 40
0.2467719963
 40
0.4950141985000001
 40
0.7465844745
 40
1.0
 40
1.0
 40
1.0
 40
1.0
 10
559.1665090789
 20
352.1735741823001
 30
0.0
 10
559.385777566
 20
352.1735842148
 30
0.0
 10
559.8349435873999
 20
352.2644484503
 30
0.0
 10
560.3629724648
 20
352.7082850354
 30
0.0
 10
560.6482218137999
 20
353.3314455746
 30
0.0
 10
560.6999884101999
 20
353.7830420763
 30
0.0
 10
560.6997978624
 20
354.0082135702
 30
0.0
  0
SPLINE
  5
4A5
330
21B
100
AcDbEntity
  8
RUNDUNGEN
  6
Continuous
 62
     9
100
AcDbSpline
210
0.0
220
0.0
230
1.0
 70
     8
 71
     3
 72
    13
 73
     9
 74
     0
 42
0.0000000001
 43
0.0000000001
 40
0.0
 40
0.0
 40
0.0
 40
0.0
 40
0.3439786869
 40
0.6586141923
 40
0.7867885741
 40
0.8878418670999998
 40
0.9584325719999998
 40
1.0
 40
1.0
 40
1.0
 40
1.0
 10
594.2655940406999
 20
258.9058876642
 30
0.0
 10
594.1209847635999
 20
258.9011094806001
 30
0.0
 10
593.8437630652999
 20
258.9032270172999
 30
0.0
 10
593.513152295
 20
258.930421806
 30
0.0
 10
593.2878480666
 20
258.9685936913
 30
0.0
 10
593.1647966379999
 20
259.0008366547
 30
0.0
 10
593.0829437538
 20
259.0332465034
 30
0.0
 10
593.0427679219999
 20
259.0662548617
 30
0.0
 10
593.0379619493
 20
259.0830659439
 30
0.0
  0
SPLINE
  5
4A6
330
21B
100
AcDbEntity
  8
RUNDUNGEN
  6
Continuous
 62
     9
100
AcDbSpline
210
0.0
220
0.0
230
1.0
 70
     8
 71
     3
 72
    14
 73
    10
 74
     0
 42
0.0000000001
 43
0.0000000001
 40
0.0
 40
0.0
 40
0.0
 40
0.0
 40
0.3531772128
 40
0.5208648003000001
 40
0.6723673000000002
 40
0.8008108617000001
 40
0.9004966146999999
 40
0.9673440921999999
 40
1.0
 40
1.0
 40
1.0
 40
1.0
 10
594.2691788983999
 20
263.8103099802
 30
0.0
 10
594.1272035158999
 20
263.8061541672
 30
0.0
 10
593.917568084
 20
263.8102624543
 30
0.0
 10
593.6474237684999
 20
263.8194072007
 30
0.0
 10
593.4674851937
 20
263.8304507882
 30
0.0
 10
593.3160752298999
 20
263.8445311082
 30
0.0
 10
593.1967835078999
 20
263.8599954103
 30
0.0
 10
593.1217670956999
 20
263.8776245401
 30
0.0
 10
593.0797123862999
 20
263.8917302872
 30
0.0
 10
593.0727873216999
 20
263.9028892511
 30
0.0
  0
SPLINE
  5
4A7
330
21B
100
AcDbEntity
  8
RUNDUNGEN
  6
Continuous
 62
     9
100
AcDbSpline
210
0.0
220
0.0
230
1.0
 70
     8
 71
     3
 72
     9
 73
     5
 74
     0
 42
0.0000000001
 43
0.0000000001
 40
0.0
 40
0.0
 40
0.0
 40
0.0
 40
0.2574172974
 40
1.0
 40
1.0
 40
1.0
 40
1.0
 10
528.2700196770999
 20
298.8726553561
 30
0.0
 10
528.2701134143
 20
298.7624280024001
 30
0.0
 10
528.2767551719
 20
298.3342788376
 30
0.0
 10
528.3074121601
 20
297.9062892478
 30
0.0
 10
528.3471135241
 20
297.5907997731
 30
0.0
  0
SPLINE
  5
4A8
330
21B
100
AcDbEntity
  8
RUNDUNGEN
  6
Continuous
 62
     9
100
AcDbSpline
210
0.0
220
0.0
230
1.0
 70
     8
 71
     3
 72
    12
 73
     8
 74
     0
 42
0.0000000001
 43
0.0000000001
 40
0.0
 40
0.0
 40
0.0
 40
0.0
 40
0.3517141147
 40
0.6629247209
 40
0.8865812018000001
 40
0.9565443581
 40
1.0
 40
1.0
 40
1.0
 40
1.0
 10
594.2691788983999
 20
263.8103099802
 30
0.0
 10
594.2654337313999
 20
263.9439194091
 30
0.0
 10
594.2424359646
 20
264.1955419269
 30
0.0
 10
594.189866163
 20
264.5275016685
 30
0.0
 10
594.1285498323999
 20
264.752215044
 30
0.0
 10
594.0696976234
 20
264.86491838
 30
0.0
 10
594.0352846674
 20
264.8966169091
 30
0.0
 10
594.0191526241999
 20
264.9001501988
 30
0.0
  0
SPLINE
  5
4A9
330
21B
100
AcDbEntity
  8
RUNDUNGEN
  6
Continuous
 62
     9
100
AcDbSpline
210
0.0
220
0.0
230
1.0
 70
     8
 71
     3
 72
     9
 73
     5
 74
     0
 42
0.0000000001
 43
0.0000000001
 40
0.0
 40
0.0
 40
0.0
 40
0.0
 40
0.2398741485
 40
1.0
 40
1.0
 40
1.0
 40
1.0
 10
563.1519255841999
 20
297.5907997731
 30
0.0
 10
563.1647504054
 20
297.6927130502
 30
0.0
 10
563.2105454170999
 20
298.1185206489
 30
0.0
 10
563.2287426303999
 20
298.5471602733
 30
0.0
 10
563.2290194311
 20
298.8726553561
 30
0.0
  0
SPLINE
  5
4AA
330
21B
100
AcDbEntity
  8
RUNDUNGEN
  6
Continuous
 62
     9
100
AcDbSpline
210
0.0
220
0.0
230
1.0
 70
     8
 71
     3
 72
    13
 73
     9
 74
     0
 42
0.0000000001
 43
0.0000000001
 40
0.0
 40
0.0
 40
0.0
 40
0.0
 40
0.354096928
 40
0.6684644170000001
 40
0.794566078
 40
0.8931639266999999
 40
0.9612753568
 40
1.0
 40
1.0
 40
1.0
 40
1.0
 10
601.5027059148
 20
264.2358169797
 30
0.0
 10
601.4971423027
 20
264.3713240513
 30
0.0
 10
601.4787003819999
 20
264.6267452637
 30
0.0
 10
601.43791547
 20
264.9289941221
 30
0.0
 10
601.3950748582
 20
265.1305956819
 30
0.0
 10
601.3630270926999
 20
265.2392318486
 30
0.0
 10
601.3331614976999
 20
265.3100037961
 30
0.0
 10
601.305120106
 20
265.3454794577
 30
0.0
 10
601.2908343466
 20
265.3494667461
 30
0.0
  0
SPLINE
  5
4AB
330
21B
100
AcDbEntity
  8
RUNDUNGEN
  6
Continuous
 62
     9
100
AcDbSpline
210
0.0
220
0.0
230
1.0
 70
     8
 71
     3
 72
    10
 73
     6
 74
     0
 42
0.0000000001
 43
0.0000000001
 40
0.0
 40
0.0
 40
0.0
 40
0.0
 40
0.2727024196
 40
0.5216077603000001
 40
1.0
 40
1.0
 40
1.0
 40
1.0
 10
533.4056417533
 20
358.2742936051
 30
0.0
 10
533.4972945355
 20
358.1644439413
 30
0.0
 10
533.6368157383999
 20
357.9214317843
 30
0.0
 10
533.7451490807
 20
357.4022713641
 30
0.0
 10
533.6795719155999
 20
357.0116251552
 30
0.0
 10
533.5975137979
 20
356.7744478268
 30
0.0
  0
SPLINE
  5
4AC
330
21B
100
AcDbEntity
  8
RUNDUNGEN
  6
Continuous
 62
     9
100
AcDbSpline
210
0.0
220
0.0
230
1.0
 70
     8
 71
     3
 72
    14
 73
    10
 74
     0
 42
0.0000000001
 43
0.0000000001
 40
0.0
 40
0.0
 40
0.0
 40
0.0
 40
0.3561461009
 40
0.5245432027
 40
0.6763856017000001
 40
0.8048831117
 40
0.9043271316
 40
0.9703106657999999
 40
1.0
 40
1.0
 40
1.0
 40
1.0
 10
602.8513507809999
 20
264.8964759166
 30
0.0
 10
602.7486214491
 20
264.9914706797
 30
0.0
 10
602.5966682847
 20
265.1306951134
 30
0.0
 10
602.3993820697
 20
265.3086839894
 30
0.0
 10
602.2679008080999
 20
265.4262097094
 30
0.0
 10
602.1556635869
 20
265.5242898306
 30
0.0
 10
602.068600853
 20
265.6007374354
 30
0.0
 10
602.0086524451
 20
265.647410781
 30
0.0
 10
601.9799366987
 20
265.6730839229
 30
0.0
 10
601.9691037554
 20
265.6774079373
 30
0.0
  0
SPLINE
  5
4AD
330
21B
100
AcDbEntity
  8
RUNDUNGEN
  6
Continuous
 62
     9
100
AcDbSpline
210
0.0
220
0.0
230
1.0
 70
     8
 71
     3
 72
    14
 73
    10
 74
     0
 42
0.0000000001
 43
0.0000000001
 40
0.0
 40
0.0
 40
0.0
 40
0.0
 40
0.3582285885
 40
0.5271053584000001
 40
0.6790570836
 40
0.8073140373000001
 40
0.9062006259
 40
0.9713529202
 40
1.0
 40
1.0
 40
1.0
 40
1.0
 10
603.1801346268999
 20
265.4001685009
 30
0.0
 10
603.0539544907
 20
265.4599272721
 30
0.0
 10
602.8686836263999
 20
265.5487220391
 30
0.0
 10
602.6309671093001
 20
265.664987549
 30
0.0
 10
602.474018319
 20
265.7426260378
 30
0.0
 10
602.3425958955999
 20
265.8096806446
 30
0.0
 10
602.2403870596
 20
265.8611720169
 30
0.0
 10
602.1766223539999
 20
265.8990828016
 30
0.0
 10
602.1425087228
 20
265.9153944054001
 30
0.0
 10
602.1352142901
 20
265.9238469754
 30
0.0
  0
SPLINE
  5
4AE
330
21B
100
AcDbEntity
  8
RUNDUNGEN
  6
Continuous
 62
     9
100
AcDbSpline
210
0.0
220
0.0
230
1.0
 70
     8
 71
     3
 72
    11
 73
     7
 74
     0
 42
0.0000000001
 43
0.0000000001
 40
0.0
 40
0.0
 40
0.0
 40
0.0
 40
0.2824432928
 40
0.5438762789
 40
0.7811758146
 40
1.0
 40
1.0
 40
1.0
 40
1.0
 10
615.7492471318
 20
294.3358747902
 30
0.0
 10
615.6550744078
 20
294.3527795874
 30
0.0
 10
615.4692743416999
 20
294.3656032655
 30
0.0
 10
615.2059030773999
 20
294.3167706972
 30
0.0
 10
614.9868922487
 20
294.2014742665
 30
0.0
 10
614.8830778133999
 20
294.0804825243
 30
0.0
 10
614.8478987779
 20
294.0152350175
 30
0.0
  0
SPLINE
  5
4AF
330
21B
100
AcDbEntity
  8
RUNDUNGEN
  6
Continuous
 62
     9
100
AcDbSpline
210
0.0
220
0.0
230
1.0
 70
     8
 71
     3
 72
    10
 73
     6
 74
     0
 42
0.0000000001
 43
0.0000000001
 40
0.0
 40
0.0
 40
0.0
 40
0.0
 40
0.5282055332
 40
0.7703853347000001
 40
1.0
 40
1.0
 40
1.0
 40
1.0
 10
616.6135771873999
 20
296.5435825557
 30
0.0
 10
616.4330146987
 20
296.5673684819
 30
0.0
 10
616.1513755817
 20
296.5407342275999
 30
0.0
 10
615.8533443208
 20
296.3576684352
 30
0.0
 10
615.7491218678
 20
296.2272140923
 30
0.0
 10
615.7122329456999
 20
296.1571635281
 30
0.0
  0
SPLINE
  5
4B0
330
21B
100
AcDbEntity
  8
0
  6
Continuous
 62
     9
100
AcDbSpline
210
0.0
220
0.0
230
1.0
 70
     8
 71
     3
 72
    45
 73
    41
 74
     0
 42
0.0000000001
 43
0.0000000001
 40
0.0
 40
0.0
 40
0.0
 40
0.0
 40
0.0002794598
 40
0.0008001479
 40
0.0026950617
 40
0.0057658772
 40
0.0100162513
 40
0.0154403306
 40
0.0220265561
 40
0.0297604828
 40
0.0386238048
 40
0.0596528556
 40
0.0849137943
 40
0.1141650036
 40
0.1471260245
 40
0.1834804478
 40
0.2228790534
 40
0.2649431972
 40
0.3092684679
 40
0.4029795411000001
 40
0.5004152211
 40
0.5978346946000001
 40
0.6914977732
 40
0.7357876587000001
 40
0.7778092571
 40
0.8171585679000001
 40
0.8534574232999998
 40
0.8863571403999999
 40
0.9155419051999999
 40
0.9407319041999999
 40
0.9616862084999999
 40
0.9705109609999999
 40
0.9782056429
 40
0.9847520664000001
 40
0.9901358864
 40
0.9943456920999999
 40
0.9973758629999998
 40
0.9992306879999999
 40
0.9997327226999999
 40
1.0
 40
1.0
 40
1.0
 40
1.0
 10
575.7494767662
 20
259.6787286318
 30
0.0
 10
575.7489535551
 20
259.673159742
 30
0.0
 10
575.7351228303999
 20
259.6609695996
 30
0.0
 10
575.6860820297
 20
259.6424430078
 30
0.0
 10
575.5766111311999
 20
259.6198056828
 30
0.0
 10
575.3947404448
 20
259.5954180609
 30
0.0
 10
575.1404281983999
 20
259.5701022468
 30
0.0
 10
574.8161037917999
 20
259.5448758587
 30
0.0
 10
574.4216533203
 20
259.5197133224
 30
0.0
 10
573.9583159148
 20
259.4948399412
 30
0.0
 10
573.2060073389
 20
259.4601512471
 30
0.0
 10
572.1028487962001
 20
259.4193393866
 30
0.0
 10
570.5915320257999
 20
259.3747616403
 30
0.0
 10
568.8412426334999
 20
259.3328778585
 30
0.0
 10
566.8687977381999
 20
259.2941285968
 30
0.0
 10
564.6931566097999
 20
259.2589537322
 30
0.0
 10
562.3352389675
 20
259.2277188848
 30
0.0
 10
559.8177221338
 20
259.200743635
 30
0.0
 10
556.2131204911
 20
259.1702667563
 30
0.0
 10
551.5001801891001
 20
259.1451199016999
 30
0.0
 10
545.724497479
 20
259.1351353371
 30
0.0
 10
539.9497756849
 20
259.1452925589
 30
0.0
 10
535.2388293791
 20
259.170581693
 30
0.0
 10
531.6367491738999
 20
259.201170444
 30
0.0
 10
529.1217797223001
 20
259.2282215351
 30
0.0
 10
526.7668136571
 20
259.2595271019
 30
0.0
 10
524.5944998277999
 20
259.2947666957
 30
0.0
 10
522.6257258722
 20
259.3335739974
 30
0.0
 10
520.8794154707
 20
259.3755075924
 30
0.0
 10
519.3723477078999
 20
259.4201271675999
 30
0.0
 10
518.2728802236
 20
259.4609714685
 30
0.0
 10
517.5236304031999
 20
259.4956921831
 30
0.0
 10
517.0626494366
 20
259.5205720165
 30
0.0
 10
516.6705968231999
 20
259.5457551741
 30
0.0
 10
516.3486803935
 20
259.5709450588
 30
0.0
 10
516.0968464455
 20
259.5963496816
 30
0.0
 10
515.9173308606
 20
259.6204853481
 30
0.0
 10
515.8100491098
 20
259.6434733972
 30
0.0
 10
515.7623019072
 20
259.6616193001
 30
0.0
 10
515.7495199308
 20
259.6742929496
 30
0.0
 10
515.7495195541001
 20
259.6796425305
 30
0.0
  0
SPLINE
  5
4B1
330
21B
100
AcDbEntity
  8
RUNDUNGEN
  6
Continuous
 62
     9
100
AcDbSpline
210
0.0
220
0.0
230
1.0
 70
     8
 71
     3
 72
    11
 73
     7
 74
     0
 42
0.0000000001
 43
0.0000000001
 40
0.0
 40
0.0
 40
0.0
 40
0.0
 40
0.2607419558
 40
0.5160990726
 40
0.7621675428
 40
1.0
 40
1.0
 40
1.0
 40
1.0
 10
617.042837175
 20
299.4008914935
 30
0.0
 10
616.9173867005
 20
299.3991456199
 30
0.0
 10
616.6675690327999
 20
299.3530140155
 30
0.0
 10
616.3443601617
 20
299.1643351714
 30
0.0
 10
616.1164078837
 20
298.8802114684
 30
0.0
 10
616.0516664751
 20
298.6483495181
 30
0.0
 10
616.0448159783999
 20
298.5341156079
 30
0.0
  0
LINE
  5
4B2
330
21B
100
AcDbEntity
  8
RUNDUNGEN
  6
Continuous
 62
     9
100
AcDbLine
 10
530.9603976395
 20
277.7444440722
 30
0.0
 11
532.2147225623999
 21
277.4904881913
 31
0.0
  0
SPLINE
  5
4B3
330
21B
100
AcDbEntity
  8
RUNDUNGEN
  6
Continuous
 62
     9
100
AcDbSpline
210
0.0
220
0.0
230
1.0
 70
     8
 71
     3
 72
    12
 73
     8
 74
     0
 42
0.0000000001
 43
0.0000000001
 40
0.0
 40
0.0
 40
0.0
 40
0.0
 40
0.0567450822
 40
0.140380233
 40
0.3770465421
 40
0.6784430267000001
 40
1.0
 40
1.0
 40
1.0
 40
1.0
 10
532.2147225623999
 20
277.4904881913
 30
0.0
 10
532.2597973653
 20
277.4813554864
 30
0.0
 10
532.3727425058999
 20
277.4663874091
 30
0.0
 10
532.6769389395
 20
277.437744868
 30
0.0
 10
533.180273566
 20
277.4103389576
 30
0.0
 10
533.8766094648
 20
277.3881860662
 30
0.0
 10
534.3815318678999
 20
277.3826185778
 30
0.0
 10
534.6421470358999
 20
277.3826118917
 30
0.0
  0
SPLINE
  5
4B4
330
21B
100
AcDbEntity
  8
RUNDUNGEN
  6
Continuous
 62
     9
100
AcDbSpline
210
0.0
220
0.0
230
1.0
 70
     8
 71
     3
 72
    12
 73
     8
 74
     0
 42
0.0000000001
 43
0.0000000001
 40
0.0
 40
0.0
 40
0.0
 40
0.0
 40
0.321559317
 40
0.6229545975999999
 40
0.8596201172
 40
0.9432550371999999
 40
1.0
 40
1.0
 40
1.0
 40
1.0
 10
556.8568920724
 20
277.3826118917
 30
0.0
 10
557.1175091398999
 20
277.3826187446
 30
0.0
 10
557.6224324665999
 20
277.3881860167
 30
0.0
 10
558.3187686500999
 20
277.4103391046
 30
0.0
 10
558.8221014618
 20
277.4377450033
 30
0.0
 10
559.1262969887
 20
277.4663874162
 30
0.0
 10
559.239241826
 20
277.4813555636
 30
0.0
 10
559.2843165458
 20
277.4904881913
 30
0.0
  0
LINE
  5
4B5
330
21B
100
AcDbEntity
  8
RUNDUNGEN
  6
Continuous
 62
     9
100
AcDbLine
 10
559.2843165458
 20
277.4904881913
 30
0.0
 11
560.5386414687
 21
277.7444440722
 31
0.0
  0
SPLINE
  5
4B6
330
21B
100
AcDbEntity
  8
RUNDUNGEN
  6
Continuous
 62
     9
100
AcDbSpline
210
0.0
220
0.0
230
1.0
 70
     8
 71
     3
 72
    10
 73
     6
 74
     0
 42
0.0000000001
 43
0.0000000001
 40
0.0
 40
0.0
 40
0.0
 40
0.0
 40
0.5419002097
 40
0.7880111854000001
 40
1.0
 40
1.0
 40
1.0
 40
1.0
 10
602.1352142901
 20
265.9238469754
 30
0.0
 10
604.5393005005
 20
270.9485600084
 30
0.0
 10
607.9814474012001
 20
278.2817250434
 30
0.0
 10
612.1691205245999
 20
287.669306676
 30
0.0
 10
614.0194688501999
 20
291.9998096899
 30
0.0
 10
614.8478987657999
 20
294.0152350233
 30
0.0
  0
SPLINE
  5
4B7
330
21B
100
AcDbEntity
  8
RUNDUNGEN
  6
Continuous
 62
     9
100
AcDbSpline
210
0.0
220
0.0
230
1.0
 70
     8
 71
     3
 72
     9
 73
     5
 74
     0
 42
0.0000000001
 43
0.0000000001
 40
0.0
 40
0.0
 40
0.0
 40
0.0
 40
0.5449827568
 40
1.0
 40
1.0
 40
1.0
 40
1.0
 10
615.7122288648
 20
296.1571654747
 30
0.0
 10
615.8687412291999
 20
296.5671564293
 30
0.0
 10
616.0662047958999
 20
297.3575801303
 30
0.0
 10
616.0788751356
 20
298.1692977832
 30
0.0
 10
616.0448159783999
 20
298.5341156079
 30
0.0
  0
SPLINE
  5
4B8
330
21B
100
AcDbEntity
  8
RUNDUNGEN
  6
Continuous
 62
     9
100
AcDbSpline
210
0.0
220
0.0
230
1.0
 70
     8
 71
     3
 72
    15
 73
    11
 74
     0
 42
0.0000000001
 43
0.0000000001
 40
0.0
 40
0.0
 40
0.0
 40
0.0
 40
0.4185123433
 40
0.5854470894000001
 40
0.7236588977
 40
0.8330364318
 40
0.9138599151999999
 40
0.9439589752999999
 40
0.9676704931999999
 40
1.0
 40
1.0
 40
1.0
 40
1.0
 10
616.0448159783999
 20
298.5341156079
 30
0.0
 10
616.0105016289
 20
298.9953102853
 30
0.0
 10
615.9547954993
 20
299.6401066148
 30
0.0
 10
615.8538245635
 20
300.4334729951
 30
0.0
 10
615.7798793304
 20
300.8856819544
 30
0.0
 10
615.70163047
 20
301.2403040451
 30
0.0
 10
615.6300067286
 20
301.4734031711
 30
0.0
 10
615.5650851345
 20
301.6084543323
 30
0.0
 10
615.5141196780999
 20
301.6870840959
 30
0.0
 10
615.457795248
 20
301.7299221036
 30
0.0
 10
615.4220871535
 20
301.7310253734
 30
0.0
  0
SPLINE
  5
4B9
330
21B
100
AcDbEntity
  8
RUNDUNGEN
  6
Continuous
 62
     9
100
AcDbSpline
210
0.0
220
0.0
230
1.0
 70
     8
 71
     3
 72
    10
 73
     6
 74
     0
 42
0.0000000001
 43
0.0000000001
 40
0.0
 40
0.0
 40
0.0
 40
0.0
 40
0.4783922396
 40
0.7272975800000001
 40
1.0
 40
1.0
 40
1.0
 40
1.0
 10
557.9015253104
 20
356.7744478268
 30
0.0
 10
557.8194672394999
 20
357.0116251714
 30
0.0
 10
557.7538900201
 20
357.4022713594
 30
0.0
 10
557.8622233692
 20
357.9214317868
 30
0.0
 10
558.0017445751
 20
358.1644439395
 30
0.0
 10
558.0933973556
 20
358.2742936051
 30
0.0
  0
SPLINE
  5
4BA
330
21B
100
AcDbEntity
  8
RUNDUNGEN
  6
Continuous
 62
     9
100
AcDbSpline
210
0.0
220
0.0
230
1.0
 70
     8
 71
     3
 72
     8
 73
     4
 74
     0
 42
0.0000000001
 43
0.0000000001
 40
0.0
 40
0.0
 40
0.0
 40
0.0
 40
1.0
 40
1.0
 40
1.0
 40
1.0
 10
559.9471167157999
 20
370.6789131727
 30
0.0
 10
559.3794705954
 20
370.6452666438
 30
0.0
 10
558.8118502559999
 20
370.6111835291001
 30
0.0
 10
558.2442504866
 20
370.5767639333999
 30
0.0
  0
SPLINE
  5
4BB
330
21B
100
AcDbEntity
  8
RUNDUNGEN
  6
Continuous
 62
     9
100
AcDbSpline
210
0.0
220
0.0
230
1.0
 70
     8
 71
     3
 72
     8
 73
     4
 74
     0
 42
0.0000000001
 43
0.0000000001
 40
0.0
 40
0.0
 40
0.0
 40
0.0
 40
1.0
 40
1.0
 40
1.0
 40
1.0
 10
559.9466558712999
 20
376.1797167193
 30
0.0
 10
559.3791591272999
 20
376.1460788057
 30
0.0
 10
558.8116881476
 20
376.1120045925
 30
0.0
 10
558.2442377287
 20
376.0775940456
 30
0.0
  0
SPLINE
  5
4BC
330
21B
100
AcDbEntity
  8
RUNDUNGEN
  6
Continuous
 62
     9
100
AcDbSpline
210
0.0
220
0.0
230
1.0
 70
     8
 71
     3
 72
     8
 73
     4
 74
     0
 42
0.0000000001
 43
0.0000000001
 40
0.0
 40
0.0
 40
0.0
 40
0.0
 40
1.0
 40
1.0
 40
1.0
 40
1.0
 10
558.7539608869999
 20
357.5404820821
 30
0.0
 10
559.1574400503
 20
357.5161653373001
 30
0.0
 10
559.5609303065
 20
357.4920316387001
 30
0.0
 10
559.9644337307999
 20
357.4681208487
 30
0.0
  0
LINE
  5
4BD
330
21B
100
AcDbEntity
  8
RUNDUNGEN
  6
Continuous
 62
     9
100
AcDbLine
 10
559.9644337307999
 20
357.4681208487
 30
0.0
 11
559.9677246047
 21
354.0049633657
 31
0.0
  0
SPLINE
  5
4BE
330
21B
100
AcDbEntity
  8
RUNDUNGEN
  6
Continuous
 62
     9
100
AcDbSpline
210
0.0
220
0.0
230
1.0
 70
     8
 71
     3
 72
     8
 73
     4
 74
     0
 42
0.0000000001
 43
0.0000000001
 40
0.0
 40
0.0
 40
0.0
 40
0.0
 40
1.0
 40
1.0
 40
1.0
 40
1.0
 10
533.2547886216
 20
370.5767630007
 30
0.0
 10
532.6871888197
 20
370.6111826425
 30
0.0
 10
532.1195685481
 20
370.6452674771
 30
0.0
 10
531.5519223925
 20
370.6789140055999
 30
0.0
  0
SPLINE
  5
4BF
330
21B
100
AcDbEntity
  8
RUNDUNGEN
  6
Continuous
 62
     9
100
AcDbSpline
210
0.0
220
0.0
230
1.0
 70
     8
 71
     3
 72
     8
 73
     4
 74
     0
 42
0.0000000001
 43
0.0000000001
 40
0.0
 40
0.0
 40
0.0
 40
0.0
 40
1.0
 40
1.0
 40
1.0
 40
1.0
 10
533.2548013772
 20
376.0775940457
 30
0.0
 10
532.6873509591
 20
376.1120045926
 30
0.0
 10
532.1198799801
 20
376.1460788056
 30
0.0
 10
531.5523832369
 20
376.1797167193
 30
0.0
  0
SPLINE
  5
4C0
330
21B
100
AcDbEntity
  8
RUNDUNGEN
  6
Continuous
 62
     9
100
AcDbSpline
210
0.0
220
0.0
230
1.0
 70
     8
 71
     3
 72
     8
 73
     4
 74
     0
 42
0.0000000001
 43
0.0000000001
 40
0.0
 40
0.0
 40
0.0
 40
0.0
 40
1.0
 40
1.0
 40
1.0
 40
1.0
 10
531.5346053774
 20
357.4681208487
 30
0.0
 10
531.9381088024999
 20
357.4920316387001
 30
0.0
 10
532.3415990591001
 20
357.5161653431
 30
0.0
 10
532.7450782232
 20
357.540482088
 30
0.0
  0
LINE
  5
4C1
330
21B
100
AcDbEntity
  8
RUNDUNGEN
  6
Continuous
 62
     9
100
AcDbLine
 10
531.5313145034999
 20
354.0049633653
 30
0.0
 11
531.5346053774
 21
357.4681208487
 31
0.0
  0
SPLINE
  5
4C2
330
21B
100
AcDbEntity
  8
0
  6
Continuous
 62
     9
100
AcDbSpline
210
0.0
220
0.0
230
1.0
 70
     8
 71
     3
 72
    27
 73
    23
 74
     0
 42
0.0000000001
 43
0.0000000001
 40
0.0
 40
0.0
 40
0.0
 40
0.0
 40
0.000514534
 40
0.0015088874
 40
0.0052112523
 40
0.0112714101
 40
0.0196958755
 40
0.0304717796
 40
0.0435767108
 40
0.0589806785
 40
0.0766481964
 40
0.0965369804
 40
0.1186001741
 40
0.1690327013
 40
0.2274626943
 40
0.2933291744
 40
0.3659990645
 40
0.4447734013000001
 40
0.5288941923000001
 40
0.6175518110000001
 40
0.8050276035999999
 40
1.0
 40
1.0
 40
1.0
 40
1.0
 10
505.7495195541
 20
257.6793379521
 30
0.0
 10
505.7495204521999
 20
257.6724727634
 30
0.0
 10
505.7670541565
 20
257.6564257627
 30
0.0
 10
505.8303307835999
 20
257.633888404
 30
0.0
 10
505.9737987297999
 20
257.6047685637
 30
0.0
 10
506.2131333095
 20
257.5745249316999
 30
0.0
 10
506.5493326814999
 20
257.5424982539
 30
0.0
 10
506.9789705286
 20
257.5108117641
 30
0.0
 10
507.5022693093
 20
257.4791086799
 30
0.0
 10
508.1175603918
 20
257.447798479
 30
0.0
 10
508.8235245838999
 20
257.4169290283001
 30
0.0
 10
509.6184226204
 20
257.3866258074001
 30
0.0
 10
510.8503754614999
 20
257.3452306252999
 30
0.0
 10
512.5965908622999
 20
257.2965547825
 30
0.0
 10
514.9273280675999
 20
257.243757092
 30
0.0
 10
517.5549113876
 20
257.1949358343
 30
0.0
 10
520.4540525379
 20
257.1505980536
 30
0.0
 10
523.5968440425999
 20
257.1112205242
 30
0.0
 10
526.9530261062
 20
257.0772019498
 30
0.0
 10
531.7595800087999
 20
257.0387498106
 30
0.0
 10
538.0452608505001
 20
257.0069907774
 30
0.0
 10
543.1480933254
 20
256.9985907232
 30
0.0
 10
545.7495195541
 20
256.9985903422
 30
0.0
  0
SPLINE
  5
4C3
330
21B
100
AcDbEntity
  8
RUNDUNGEN
  6
Continuous
 62
     9
100
AcDbSpline
210
0.0
220
0.0
230
1.0
 70
     8
 71
     3
 72
     9
 73
     5
 74
     0
 42
0.0000000001
 43
0.0000000001
 40
0.0
 40
0.0
 40
0.0
 40
0.0
 40
0.5410699108000001
 40
1.0
 40
1.0
 40
1.0
 40
1.0
 10
616.6135771873999
 20
296.5435837179
 30
0.0
 10
616.8011466401999
 20
297.0331061198
 30
0.0
 10
617.0438402618
 20
297.9817781815
 30
0.0
 10
617.0748696622
 20
298.9574069779
 30
0.0
 10
617.042837175
 20
299.4008961889
 30
0.0
  0
SPLINE
  5
4C4
330
21B
100
AcDbEntity
  8
RUNDUNGEN
  6
Continuous
 62
     9
100
AcDbSpline
210
0.0
220
0.0
230
1.0
 70
     8
 71
     3
 72
     9
 73
     5
 74
     0
 42
0.0000000001
 43
0.0000000001
 40
0.0
 40
0.0
 40
0.0
 40
0.0
 40
0.5011145371
 40
1.0
 40
1.0
 40
1.0
 40
1.0
 10
533.3428815347
 20
359.0403380482
 30
0.0
 10
533.1381794627
 20
359.2093752646
 30
0.0
 10
532.6623773128
 20
359.4709055885
 30
0.0
 10
532.1288610694999
 20
359.5567383977
 30
0.0
 10
531.8645678208
 20
359.5567276532
 30
0.0
  0
SPLINE
  5
4C5
330
21B
100
AcDbEntity
  8
RUNDUNGEN
  6
Continuous
 62
     9
100
AcDbSpline
210
0.0
220
0.0
230
1.0
 70
     8
 71
     3
 72
     9
 73
     5
 74
     0
 42
0.0000000001
 43
0.0000000001
 40
0.0
 40
0.0
 40
0.0
 40
0.0
 40
0.5011140272
 40
1.0
 40
1.0
 40
1.0
 40
1.0
 10
558.1561780512
 20
359.0403380482
 30
0.0
 10
558.3608773757999
 20
359.2093734608
 30
0.0
 10
558.8366682821999
 20
359.4709117883001
 30
0.0
 10
559.3701807523
 20
359.5567388595
 30
0.0
 10
559.6344712873999
 20
359.5567276532
 30
0.0
  0
SPLINE
  5
4C6
330
21B
100
AcDbEntity
  8
RUNDUNGEN
  6
Continuous
 62
     9
100
AcDbSpline
210
0.0
220
0.0
230
1.0
 70
     8
 71
     3
 72
    15
 73
    11
 74
     0
 42
0.0000000001
 43
0.0000000001
 40
0.0
 40
0.0
 40
0.0
 40
0.0
 40
0.4191663888
 40
0.5863250396000001
 40
0.7246779189
 40
0.8340966010999999
 40
0.9148292408999999
 40
0.9448107811999999
 40
0.9683357615000002
 40
1.0
 40
1.0
 40
1.0
 40
1.0
 10
617.042837175
 20
299.4008961889
 30
0.0
 10
617.0085268187
 20
299.8762326365
 30
0.0
 10
616.9528330378
 20
300.5407787185
 30
0.0
 10
616.8518566797001
 20
301.358595904
 30
0.0
 10
616.7779353276999
 20
301.8246647556
 30
0.0
 10
616.6996827896
 20
302.1901437165
 30
0.0
 10
616.6281543594999
 20
302.4303401181
 30
0.0
 10
616.5631579529
 20
302.5697038032
 30
0.0
 10
616.5125633566
 20
302.6502983066
 30
0.0
 10
616.4560909991999
 20
302.6950293875
 30
0.0
 10
616.4201083501
 20
302.6961724087
 30
0.0
  0
SPLINE
  5
4C7
330
21B
100
AcDbEntity
  8
RUNDUNGEN
  6
Continuous
 62
     9
100
AcDbSpline
210
0.0
220
0.0
230
1.0
 70
     8
 71
     3
 72
    11
 73
     7
 74
     0
 42
0.0000000001
 43
0.0000000001
 40
0.0
 40
0.0
 40
0.0
 40
0.0
 40
0.2482713734
 40
0.4976867714
 40
0.7484018831000001
 40
1.0
 40
1.0
 40
1.0
 40
1.0
 10
559.6344711687
 20
368.591333127
 30
0.0
 10
559.3644079921999
 20
368.5913211108001
 30
0.0
 10
558.8184553129
 20
368.6815046864
 30
0.0
 10
558.0936590805
 20
369.0899609467
 30
0.0
 10
557.5718889283999
 20
369.7491711843
 30
0.0
 10
557.4429712799
 20
370.3030819722
 30
0.0
 10
557.4430218761
 20
370.5767638897
 30
0.0
  0
SPLINE
  5
4C8
330
21B
100
AcDbEntity
  8
RUNDUNGEN
  6
Continuous
 62
     9
100
AcDbSpline
210
0.0
220
0.0
230
1.0
 70
     8
 71
     3
 72
    11
 73
     7
 74
     0
 42
0.0000000001
 43
0.0000000001
 40
0.0
 40
0.0
 40
0.0
 40
0.0
 40
0.2515981165999999
 40
0.5023132279000001
 40
0.7517286259000001
 40
1.0
 40
1.0
 40
1.0
 40
1.0
 10
534.0560172321
 20
370.5767639013
 30
0.0
 10
534.0560678474999
 20
370.3030819751
 30
0.0
 10
533.9271501529
 20
369.7491711729
 30
0.0
 10
533.4053799882
 20
369.0899609168
 30
0.0
 10
532.6805837066
 20
368.681504684
 30
0.0
 10
532.1346310112999
 20
368.5913211026
 30
0.0
 10
531.8645678251999
 20
368.591333127
 30
0.0
  0
SPLINE
  5
4C9
330
21B
100
AcDbEntity
  8
RUNDUNGEN
  6
Continuous
 62
     9
100
AcDbSpline
210
0.0
220
0.0
230
1.0
 70
     8
 71
     3
 72
    11
 73
     7
 74
     0
 42
0.0000000001
 43
0.0000000001
 40
0.0
 40
0.0
 40
0.0
 40
0.0
 40
0.2400606667
 40
0.4939422409000001
 40
0.7509463945000001
 40
1.0
 40
1.0
 40
1.0
 40
1.0
 10
592.0418161298
 20
258.0823910163
 30
0.0
 10
592.1659148026
 20
258.0834314195
 30
0.0
 10
592.4232608776999
 20
258.1363122439
 30
0.0
 10
592.7537589321
 20
258.3578448479
 30
0.0
 10
592.9794161747
 20
258.6911660212
 30
0.0
 10
593.0356066534
 20
258.9543354174
 30
0.0
 10
593.0379619493
 20
259.0830659439
 30
0.0
  0
SPLINE
  5
4CA
330
21B
100
AcDbEntity
  8
RUNDUNGEN
  6
Continuous
 62
     9
100
AcDbSpline
210
0.0
220
0.0
230
1.0
 70
     8
 71
     3
 72
     9
 73
     5
 74
     0
 42
0.0000000001
 43
0.0000000001
 40
0.0
 40
0.0
 40
0.0
 40
0.0
 40
0.4953105623
 40
1.0
 40
1.0
 40
1.0
 40
1.0
 10
601.2908343395999
 20
265.3494668803
 30
0.0
 10
601.4172325117
 20
265.3579571408
 30
0.0
 10
601.6713473508
 20
265.4248529838
 30
0.0
 10
601.8820635027
 20
265.5820868748
 30
0.0
 10
601.9691063333
 20
265.677405567
 30
0.0
  0
SPLINE
  5
4CB
330
21B
100
AcDbEntity
  8
RUNDUNGEN
  6
Continuous
 62
     9
100
AcDbSpline
210
0.0
220
0.0
230
1.0
 70
     8
 71
     3
 72
     8
 73
     4
 74
     0
 42
0.0000000001
 43
0.0000000001
 40
0.0
 40
0.0
 40
0.0
 40
0.0
 40
1.0
 40
1.0
 40
1.0
 40
1.0
 10
560.908960287
 20
369.6790654125
 30
0.0
 10
560.4200593709999
 20
369.6500724552
 30
0.0
 10
559.9311775820999
 20
369.6207558314
 30
0.0
 10
559.4423115308
 20
369.5911808221
 30
0.0
  0
SPLINE
  5
4CC
330
21B
100
AcDbEntity
  8
0
  6
Continuous
 62
     9
100
AcDbSpline
210
0.0
220
0.0
230
1.0
 70
     8
 71
     3
 72
    27
 73
    23
 74
     0
 42
0.0000000001
 43
0.0000000001
 40
0.0
 40
0.0
 40
0.0
 40
0.0
 40
0.0005172055
 40
0.0015066668
 40
0.005194453
 40
0.0112391073
 40
0.0196485002
 40
0.0304102158
 40
0.0435020644
 40
0.0588941774
 40
0.0765511404
 40
0.0964307137
 40
0.1184860678
 40
0.1689070609
 40
0.2273310106
 40
0.2931967675
 40
0.3658709666
 40
0.444654254
 40
0.5287881543000001
 40
0.6174624782000001
 40
0.8049798773
 40
1.0
 40
1.0
 40
1.0
 40
1.0
 10
506.7495234591
 20
258.6794902024
 30
0.0
 10
506.7493526876
 20
258.6727637876
 30
0.0
 10
506.7658760816
 20
258.6565682296
 30
0.0
 10
506.827389854
 20
258.6340455143
 30
0.0
 10
506.9664450791999
 20
258.6048559838
 30
0.0
 10
507.1992515491
 20
258.5746449788
 30
0.0
 10
507.5263409151
 20
258.5425948165
 30
0.0
 10
507.9446654760999
 20
258.510905137
 30
0.0
 10
508.4543356736999
 20
258.4791888839
 30
0.0
 10
509.0537683457999
 20
258.4478677832
 30
0.0
 10
509.7416639267
 20
258.4169858392
 30
0.0
 10
510.5163319317999
 20
258.3866701058
 30
0.0
 10
511.717126221
 20
258.3452551393
 30
0.0
 10
513.4193894967999
 20
258.2965565443
 30
0.0
 10
515.6916807315
 20
258.2437342528
 30
0.0
 10
518.2536221123999
 20
258.1948891251
 30
0.0
 10
521.0805438551999
 20
258.1505287626
 30
0.0
 10
524.1452188992999
 20
258.1111305327
 30
0.0
 10
527.418123143
 20
258.0770936043
 30
0.0
 10
532.1056224104999
 20
258.0386198576
 30
0.0
 10
538.2357829953
 20
258.006843132
 30
0.0
 10
543.2124064295
 20
257.9984384167
 30
0.0
 10
545.7495195541
 20
257.9984380373
 30
0.0
  0
SPLINE
  5
4CD
330
21B
100
AcDbEntity
  8
RUNDUNGEN
  6
Continuous
 62
     9
100
AcDbSpline
210
0.0
220
0.0
230
1.0
 70
     8
 71
     3
 72
     8
 73
     4
 74
     0
 42
0.0000000001
 43
0.0000000001
 40
0.0
 40
0.0
 40
0.0
 40
0.0
 40
1.0
 40
1.0
 40
1.0
 40
1.0
 10
532.0563787208
 20
369.5911808221
 30
0.0
 10
531.5676997662999
 20
369.6207444705
 30
0.0
 10
531.0790070997
 20
369.650083526
 30
0.0
 10
530.5902932978
 20
369.6790654125
 30
0.0
  0
SPLINE
  5
4CE
330
21B
100
AcDbEntity
  8
0
  6
Continuous
 62
     9
100
AcDbSpline
210
0.0
220
0.0
230
1.0
 70
     8
 71
     3
 72
    45
 73
    41
 74
     0
 42
0.0000000001
 43
0.0000000001
 40
0.0
 40
0.0
 40
0.0
 40
0.0
 40
0.0002738304
 40
0.0007913933
 40
0.002682457
 40
0.0057503934
 40
0.0099981295
 40
0.015419518
 40
0.0220029186
 40
0.0297338571
 40
0.0385939893
 40
0.0596159938
 40
0.0848690205
 40
0.114111523
 40
0.147063168
 40
0.1834077057
 40
0.2227961036
 40
0.2648499280999999
 40
0.3091649958
 40
0.4028569887
 40
0.5002770275000001
 40
0.5976862639000001
 40
0.6913462662000001
 40
0.7356377477000001
 40
0.7776632129000002
 40
0.8170187521999999
 40
0.8533262489
 40
0.8862370284999999
 40
0.9154352385999999
 40
0.9406409745999999
 40
0.9616131514
 40
0.9704475649999999
 40
0.978152335
 40
0.984709211
 40
0.9901037570999999
 40
0.9943244088
 40
0.9973652205
 40
0.9992295576
 40
0.9997346010999999
 40
1.0
 40
1.0
 40
1.0
 40
1.0
 10
576.7494753398999
 20
258.6788809366
 30
0.0
 10
576.7489262923
 20
258.6732444602
 30
0.0
 10
576.7344541321
 20
258.6610525054
 30
0.0
 10
576.6839718465
 20
258.64260498
 30
0.0
 10
576.5707923052999
 20
258.6199425964
 30
0.0
 10
576.3830334706
 20
258.5955888957
 30
0.0
 10
576.1203137632
 20
258.570268937
 30
0.0
 10
575.7853131243999
 20
258.5450513037
 30
0.0
 10
575.3778537102999
 20
258.519891682
 30
0.0
 10
574.8992396416
 20
258.4950228735
 30
0.0
 10
574.1221131187999
 20
258.4603390153
 30
0.0
 10
572.9825661711999
 20
258.4195329343
 30
0.0
 10
571.4213955723001
 20
258.3749605691
 30
0.0
 10
569.6133573288999
 20
258.3330807717
 30
0.0
 10
567.5758181136
 20
258.2943338499
 30
0.0
 10
565.3283570788
 20
258.259159551
 30
0.0
 10
562.8925774143
 20
258.2279233504
 30
0.0
 10
560.2918973015
 20
258.2009447232
 30
0.0
 10
556.5681358855
 20
258.1704601193
 30
0.0
 10
551.6992621801001
 20
258.145298518
 30
0.0
 10
545.7322795989
 20
258.1352887675
 30
0.0
 10
539.765958819
 20
258.1454136198
 30
0.0
 10
534.898458413
 20
258.1706700726
 30
0.0
 10
531.1764335666
 20
258.2012292576
 30
0.0
 10
528.5775079228
 20
258.2282584476
 30
0.0
 10
526.14376114
 20
258.2595417986
 30
0.0
 10
523.8985918079
 20
258.2947592536001
 30
0.0
 10
521.8635810039
 20
258.3335448819
 30
0.0
 10
520.0582834109999
 20
258.37545788
 30
0.0
 10
518.5000393918
 20
258.420058196
 30
0.0
 10
517.3630349779
 20
258.4608857957
 30
0.0
 10
516.5880153024
 20
258.4955911779
 30
0.0
 10
516.1110246691
 20
258.5204639491
 30
0.0
 10
515.7052157516999
 20
258.5456384108
 30
0.0
 10
515.3718769673999
 20
258.5708284218
 30
0.0
 10
515.1108583291
 20
258.5962160228
 30
0.0
 10
514.9247384566
 20
258.6203828882
 30
0.0
 10
514.8130408698
 20
258.6433120903
 30
0.0
 10
514.7634803644
 20
258.6614669392
 30
0.0
 10
514.7497022969999
 20
258.6740043066
 30
0.0
 10
514.7495244597999
 20
258.679490205
 30
0.0
  0
SPLINE
  5
4CF
330
21B
100
AcDbEntity
  8
RUNDUNGEN
  6
Continuous
 62
     9
100
AcDbSpline
210
0.0
220
0.0
230
1.0
 70
     8
 71
     3
 72
     8
 73
     4
 74
     0
 42
0.0000000001
 43
0.0000000001
 40
0.0
 40
0.0
 40
0.0
 40
0.0
 40
1.0
 40
1.0
 40
1.0
 40
1.0
 10
530.5729933495999
 20
358.4679690596
 30
0.0
 10
531.0674861932
 20
358.4972858583
 30
0.0
 10
531.5619575006
 20
358.5269667359
 30
0.0
 10
532.0564146233
 20
358.5568799580999
 30
0.0
  0
SPLINE
  5
4D0
330
21B
100
AcDbEntity
  8
RUNDUNGEN
  6
Continuous
 62
     9
100
AcDbSpline
210
0.0
220
0.0
230
1.0
 70
     8
 71
     3
 72
     8
 73
     4
 74
     0
 42
0.0000000001
 43
0.0000000001
 40
0.0
 40
0.0
 40
0.0
 40
0.0
 40
1.0
 40
1.0
 40
1.0
 40
1.0
 10
559.4426245043
 20
358.5568799580999
 30
0.0
 10
559.9370816203999
 20
358.526966734
 30
0.0
 10
560.4315529215
 20
358.4972858579
 30
0.0
 10
560.9260457586
 20
358.4679690596
 30
0.0
  0
LEADER
  5
644
330
21B
100
AcDbEntity
  8
ZEICHNUNGSBEMASSUNGEN
  6
Continuous
 62
     7
100
AcDbLeader
  3
DIMSTYLE_2
 74
     0
 76
     3
 10
552.7495193920731
 20
402.6962158560142
 30
0.0
 10
568.888106218273
 20
412.3404599396716
 30
0.0
 10
585.9807363209792
 20
412.3077643612298
 30
0.0
213
8.546107528269942
223
6.697880158863256
233
0.0
1001
ACAD
1000
DSTYLE
1002
{
1070
    41
1040
5.0
1070
   147
1040
1.5
1070
   178
1070
   256
1002
}
  0
LINE
  5
645
330
21B
100
AcDbEntity
  8
0
100
AcDbLine
 10
588.3385066902564
 20
409.0618625835916
 30
0.0
 11
596.9776699645911
 21
409.0618625835916
 31
0.0
  0
LINE
  5
646
330
21B
100
AcDbEntity
  8
0
100
AcDbLine
 10
589.8337270648357
 20
407.9162356780818
 30
0.0
 11
595.4663608620192
 21
407.9162356780818
 31
0.0
  0
LINE
  5
647
330
21B
100
AcDbEntity
  8
0
100
AcDbLine
 10
591.2445385183499
 20
406.9837882493297
 30
0.0
 11
594.2486070318031
 21
406.9837882493297
 31
0.0
  0
LINE
  5
648
330
21B
100
AcDbEntity
  8
0
100
AcDbLine
 10
592.6107396703748
 20
410.6566682839188
 30
0.0
 11
592.6107396703748
 21
416.0977738838449
 31
0.0
  0
ENDSEC
  0
SECTION
  2
OBJECTS
  0
DICTIONARY
  5
C
330
0
100
AcDbDictionary
281
     1
  3
ACAD_COLOR
350
502
  3
ACAD_GROUP
350
D
  3
ACAD_LAYOUT
350
1A
  3
ACAD_MATERIAL
350
4D5
  3
ACAD_MLEADERSTYLE
350
517
  3
ACAD_MLINESTYLE
350
17
  3
ACAD_PLOTSETTINGS
350
19
  3
ACAD_PLOTSTYLENAME
350
E
  3
ACAD_SCALELIST
350
505
  3
ACAD_TABLESTYLE
350
503
  3
ACAD_VISUALSTYLE
350
4EE
  3
ACDB_RECOMPOSE_DATA
350
679
  3
AcDbVariableDictionary
350
66A
  3
AcmDictionary
350
572
  3
AMG
350
51C
  3
AMGSNAPSETTINGS
350
5B7
  3
DWGPROPS
350
67A
  0
DICTIONARY
  5
502
102
{ACAD_REACTORS
330
C
102
}
330
C
100
AcDbDictionary
281
     1
  0
DICTIONARY
  5
D
102
{ACAD_REACTORS
330
C
102
}
330
C
100
AcDbDictionary
281
     1
  0
DICTIONARY
  5
1A
102
{ACAD_REACTORS
330
C
102
}
330
C
100
AcDbDictionary
281
     1
  3
Layout1
350
4D2
  3
Model
350
4D1
  0
DICTIONARY
  5
4D5
102
{ACAD_REACTORS
330
C
102
}
330
C
100
AcDbDictionary
281
     1
  3
ByBlock
350
4DE
  3
ByLayer
350
4D6
  3
Global
350
4E6
  0
DICTIONARY
  5
517
102
{ACAD_REACTORS
330
C
102
}
330
C
100
AcDbDictionary
281
     1
  3
Standard
350
518
  0
DICTIONARY
  5
17
102
{ACAD_REACTORS
330
C
102
}
330
C
100
AcDbDictionary
281
     1
  3
Standard
350
18
  0
DICTIONARY
  5
19
102
{ACAD_REACTORS
330
C
102
}
330
C
100
AcDbDictionary
281
     1
  0
ACDBDICTIONARYWDFLT
  5
E
102
{ACAD_REACTORS
330
C
102
}
330
C
100
AcDbDictionary
281
     1
  3
Normal
350
F
100
AcDbDictionaryWithDefault
340
F
  0
DICTIONARY
  5
505
102
{ACAD_REACTORS
330
C
102
}
330
C
100
AcDbDictionary
281
     1
  3
A0
350
506
  3
A1
350
507
  3
A2
350
508
  3
A3
350
509
  3
A4
350
50A
  3
A5
350
50B
  3
A6
350
50C
  3
A7
350
50D
  3
A8
350
50E
  3
A9
350
50F
  3
B0
350
510
  3
B1
350
511
  3
B2
350
512
  3
B3
350
513
  3
B4
350
514
  3
B5
350
515
  3
B6
350
516
  0
DICTIONARY
  5
503
102
{ACAD_REACTORS
330
C
102
}
330
C
100
AcDbDictionary
281
     1
  3
Standard
350
504
  0
DICTIONARY
  5
4EE
102
{ACAD_REACTORS
330
C
102
}
330
C
100
AcDbDictionary
281
     1
  3
2dWireframe
350
4F4
  3
3D Hidden
350
4F6
  3
3dWireframe
350
4F5
  3
Basic
350
4F3
  3
Brighten
350
4FA
  3
ColorChange
350
4FE
  3
Conceptual
350
4F7
  3
Dim
350
4F9
  3
EdgeColorOff
350
501
  3
Facepattern
350
4FD
  3
Flat
350
4EF
  3
FlatWithEdges
350
4F0
  3
Gouraud
350
4F1
  3
GouraudWithEdges
350
4F2
  3
JitterOff
350
4FF
  3
Linepattern
350
4FC
  3
OverhangOff
350
500
  3
Realistic
350
4F8
  3
Thicken
350
4FB
  0
XRECORD
  5
679
102
{ACAD_REACTORS
330
C
102
}
330
C
100
AcDbXrecord
280
     1
 90
        1
330
504
  0
DICTIONARY
  5
66A
102
{ACAD_REACTORS
330
C
102
}
330
C
100
AcDbDictionary
281
     1
  3
CANNOSCALE
350
66E
  3
CMLEADERSTYLE
350
66C
  3
CTABLESTYLE
350
66B
  3
DIMASSOC
350
675
  3
HIDETEXT
350
674
  3
INDEXCTL
350
673
  3
LAYEREVAL
350
670
  3
LAYERNOTIFY
350
671
  3
LIGHTINGUNITS
350
66F
  3
MSLTSCALE
350
66D
  3
SORTENTS
350
672
  3
XCLIPFRAME
350
676
  0
DICTIONARY
  5
572
102
{ACAD_REACTORS
330
C
102
}
330
C
100
AcDbDictionary
281
     1
  3
AcmStdDictionary
350
57C
  0
DICTIONARY
  5
51C
102
{ACAD_REACTORS
330
C
102
}
330
C
100
AcDbDictionary
281
     1
  0
DICTIONARY
  5
5B7
102
{ACAD_REACTORS
330
C
102
}
330
C
100
AcDbDictionary
281
     1
  0
XRECORD
  5
67A
102
{ACAD_REACTORS
330
C
102
}
330
C
100
AcDbXrecord
280
     1
  1
DWGPROPS COOKIE
  2

  3

  4

  6

  7

  8
sheim
  9

300
=
301
=
302
=
303
=
304
=
305
=
306
=
307
=
308
=
309
=
 40
0.001940625
 41
2456324.652827454
 42
2456324.65476772
  1

 90
        0
  0
LAYOUT
  5
4D2
102
{ACAD_XDICTIONARY
360
67D
102
}
102
{ACAD_REACTORS
330
1A
102
}
330
1A
100
AcDbPlotSettings
  1

  2
none_device
  4
ISO_A0_(1189.00_x_841.00_MM)
  6

 40
0.0
 41
0.0
 42
0.0
 43
0.0
 44
1189.0
 45
841.0
 46
0.0
 47
0.0
 48
0.0
 49
0.0
140
0.0
141
0.0
142
1.0
143
1.0
 70
     0
 72
     1
 73
     0
 74
     0
  7

 75
     0
147
1.0
148
0.0
149
0.0
100
AcDbLayout
  1
Layout1
 70
     1
 71
     1
 10
0.0
 20
0.0
 11
12.0
 21
9.0
 12
0.0
 22
0.0
 32
0.0
 14
1.000000000000000E+20
 24
1.000000000000000E+20
 34
1.000000000000000E+20
 15
-1.000000000000000E+20
 25
-1.000000000000000E+20
 35
-1.000000000000000E+20
146
0.0
 13
0.0
 23
0.0
 33
0.0
 16
1.0
 26
0.0
 36
0.0
 17
0.0
 27
1.0
 37
0.0
 76
     0
330
21C
  0
LAYOUT
  5
4D1
102
{ACAD_XDICTIONARY
360
67B
102
}
102
{ACAD_REACTORS
330
1A
102
}
330
1A
100
AcDbPlotSettings
  1

  2
none_device
  4
ISO_A0_(1189.00_x_841.00_MM)
  6

 40
0.0
 41
0.0
 42
0.0
 43
0.0
 44
1189.0
 45
841.0
 46
0.0
 47
0.0
 48
0.0
 49
0.0
140
0.0
141
0.0
142
1.0
143
1.0
 70
  1024
 72
     1
 73
     0
 74
     0
  7

 75
     0
147
1.0
148
0.0
149
0.0
100
AcDbLayout
  1
Model
 70
     0
 71
     0
 10
0.0
 20
0.0
 11
1189.0
 21
841.0
 12
0.0
 22
0.0
 32
0.0
 14
0.0
 24
0.0
 34
0.0
 15
0.0
 25
0.0
 35
0.0
146
0.0
 13
0.0
 23
0.0
 33
0.0
 16
1.0
 26
0.0
 36
0.0
 17
0.0
 27
1.0
 37
0.0
 76
     0
330
21B
331
1F4
  0
MATERIAL
  5
4DE
102
{ACAD_XDICTIONARY
360
4DF
102
}
102
{ACAD_REACTORS
330
4D5
102
}
330
4D5
100
AcDbMaterial
  1
ByBlock
 72
     0
 43
0.0008202099737533
 43
0.0
 43
0.0
 43
0.0
 43
0.0
 43
0.0008202099737533
 43
0.0
 43
0.0
 43
0.0
 43
0.0
 43
1.0
 43
0.0
 43
0.0
 43
0.0
 43
0.0
 43
1.0
 77
     0
 47
0.0008202099737533
 47
0.0
 47
0.0
 47
0.0
 47
0.0
 47
0.0008202099737533
 47
0.0
 47
0.0
 47
0.0
 47
0.0
 47
1.0
 47
0.0
 47
0.0
 47
0.0
 47
0.0
 47
1.0
171
     0
 49
0.0008202099737533
 49
0.0
 49
0.0
 49
0.0
 49
0.0
 49
0.0008202099737533
 49
0.0
 49
0.0
 49
0.0
 49
0.0
 49
1.0
 49
0.0
 49
0.0
 49
0.0
 49
0.0
 49
1.0
175
     0
142
0.0008202099737533
142
0.0
142
0.0
142
0.0
142
0.0
142
0.0008202099737533
142
0.0
142
0.0
142
0.0
142
0.0
142
1.0
142
0.0
142
0.0
142
0.0
142
0.0
142
1.0
179
     0
144
0.0008202099737533
144
0.0
144
0.0
144
0.0
144
0.0
144
0.0008202099737533
144
0.0
144
0.0
144
0.0
144
0.0
144
1.0
144
0.0
144
0.0
144
0.0
144
0.0
144
1.0
147
0.0008202099737533
147
0.0
147
0.0
147
0.0
147
0.0
147
0.0008202099737533
147
0.0
147
0.0
147
0.0
147
0.0
147
1.0
147
0.0
147
0.0
147
0.0
147
0.0
147
1.0
  0
MATERIAL
  5
4D6
102
{ACAD_XDICTIONARY
360
4D7
102
}
102
{ACAD_REACTORS
330
4D5
102
}
330
4D5
100
AcDbMaterial
  1
ByLayer
 72
     0
 43
0.0008202099737533
 43
0.0
 43
0.0
 43
0.0
 43
0.0
 43
0.0008202099737533
 43
0.0
 43
0.0
 43
0.0
 43
0.0
 43
1.0
 43
0.0
 43
0.0
 43
0.0
 43
0.0
 43
1.0
 77
     0
 47
0.0008202099737533
 47
0.0
 47
0.0
 47
0.0
 47
0.0
 47
0.0008202099737533
 47
0.0
 47
0.0
 47
0.0
 47
0.0
 47
1.0
 47
0.0
 47
0.0
 47
0.0
 47
0.0
 47
1.0
171
     0
 49
0.0008202099737533
 49
0.0
 49
0.0
 49
0.0
 49
0.0
 49
0.0008202099737533
 49
0.0
 49
0.0
 49
0.0
 49
0.0
 49
1.0
 49
0.0
 49
0.0
 49
0.0
 49
0.0
 49
1.0
175
     0
142
0.0008202099737533
142
0.0
142
0.0
142
0.0
142
0.0
142
0.0008202099737533
142
0.0
142
0.0
142
0.0
142
0.0
142
1.0
142
0.0
142
0.0
142
0.0
142
0.0
142
1.0
179
     0
144
0.0008202099737533
144
0.0
144
0.0
144
0.0
144
0.0
144
0.0008202099737533
144
0.0
144
0.0
144
0.0
144
0.0
144
1.0
144
0.0
144
0.0
144
0.0
144
0.0
144
1.0
147
0.0008202099737533
147
0.0
147
0.0
147
0.0
147
0.0
147
0.0008202099737533
147
0.0
147
0.0
147
0.0
147
0.0
147
1.0
147
0.0
147
0.0
147
0.0
147
0.0
147
1.0
  0
MATERIAL
  5
4E6
102
{ACAD_XDICTIONARY
360
4E7
102
}
102
{ACAD_REACTORS
330
4D5
102
}
330
4D5
100
AcDbMaterial
  1
Global
 72
     0
 43
0.0008202099737533
 43
0.0
 43
0.0
 43
0.0
 43
0.0
 43
0.0008202099737533
 43
0.0
 43
0.0
 43
0.0
 43
0.0
 43
1.0
 43
0.0
 43
0.0
 43
0.0
 43
0.0
 43
1.0
 77
     0
 47
0.0008202099737533
 47
0.0
 47
0.0
 47
0.0
 47
0.0
 47
0.0008202099737533
 47
0.0
 47
0.0
 47
0.0
 47
0.0
 47
1.0
 47
0.0
 47
0.0
 47
0.0
 47
0.0
 47
1.0
171
     0
 49
0.0008202099737533
 49
0.0
 49
0.0
 49
0.0
 49
0.0
 49
0.0008202099737533
 49
0.0
 49
0.0
 49
0.0
 49
0.0
 49
1.0
 49
0.0
 49
0.0
 49
0.0
 49
0.0
 49
1.0
175
     0
142
0.0008202099737533
142
0.0
142
0.0
142
0.0
142
0.0
142
0.0008202099737533
142
0.0
142
0.0
142
0.0
142
0.0
142
1.0
142
0.0
142
0.0
142
0.0
142
0.0
142
1.0
179
     0
144
0.0008202099737533
144
0.0
144
0.0
144
0.0
144
0.0
144
0.0008202099737533
144
0.0
144
0.0
144
0.0
144
0.0
144
1.0
144
0.0
144
0.0
144
0.0
144
0.0
144
1.0
147
0.0008202099737533
147
0.0
147
0.0
147
0.0
147
0.0
147
0.0008202099737533
147
0.0
147
0.0
147
0.0
147
0.0
147
1.0
147
0.0
147
0.0
147
0.0
147
0.0
147
1.0
  0
MLEADERSTYLE
  5
518
102
{ACAD_REACTORS
330
517
102
}
330
517
100
AcDbMLeaderStyle
170
     2
171
     1
172
     0
 90
        2
 40
0.0
 41
0.0
173
     1
 91
-1056964608
340
14
 92
       -2
290
     1
 42
2.0
291
     1
 43
0.36
  3
Standard
 44
4.0
300

342
11
174
     1
178
     6
175
     1
176
     0
 93
-1056964608
 45
4.0
292
     0
297
     0
 46
4.0
 94
-1056964608
 47
1.0
 49
1.0
140
1.0
293
     1
141
0.0
294
     1
177
     0
142
1.0
295
     0
296
     0
143
0.125
1001
ACAD_MLEADERVER
1070
     2
  0
MLINESTYLE
  5
18
102
{ACAD_REACTORS
330
17
102
}
330
17
100
AcDbMlineStyle
  2
STANDARD
 70
     0
  3

 62
   256
 51
90.0
 52
90.0
 71
     2
 49
0.5
 62
   256
  6
BYLAYER
 49
-0.5
 62
   256
  6
BYLAYER
  0
ACDBPLACEHOLDER
  5
F
102
{ACAD_REACTORS
330
E
102
}
330
E
  0
SCALE
  5
506
102
{ACAD_REACTORS
330
505
102
}
330
505
100
AcDbScale
 70
     0
300
1:1
140
1.0
141
1.0
290
     1
  0
SCALE
  5
507
102
{ACAD_REACTORS
330
505
102
}
330
505
100
AcDbScale
 70
     0
300
1:2
140
1.0
141
2.0
290
     0
  0
SCALE
  5
508
102
{ACAD_REACTORS
330
505
102
}
330
505
100
AcDbScale
 70
     0
300
1:4
140
1.0
141
4.0
290
     0
  0
SCALE
  5
509
102
{ACAD_REACTORS
330
505
102
}
330
505
100
AcDbScale
 70
     0
300
1:5
140
1.0
141
5.0
290
     0
  0
SCALE
  5
50A
102
{ACAD_REACTORS
330
505
102
}
330
505
100
AcDbScale
 70
     0
300
1:8
140
1.0
141
8.0
290
     0
  0
SCALE
  5
50B
102
{ACAD_REACTORS
330
505
102
}
330
505
100
AcDbScale
 70
     0
300
1:10
140
1.0
141
10.0
290
     0
  0
SCALE
  5
50C
102
{ACAD_REACTORS
330
505
102
}
330
505
100
AcDbScale
 70
     0
300
1:16
140
1.0
141
16.0
290
     0
  0
SCALE
  5
50D
102
{ACAD_REACTORS
330
505
102
}
330
505
100
AcDbScale
 70
     0
300
1:20
140
1.0
141
20.0
290
     0
  0
SCALE
  5
50E
102
{ACAD_REACTORS
330
505
102
}
330
505
100
AcDbScale
 70
     0
300
1:30
140
1.0
141
30.0
290
     0
  0
SCALE
  5
50F
102
{ACAD_REACTORS
330
505
102
}
330
505
100
AcDbScale
 70
     0
300
1:40
140
1.0
141
40.0
290
     0
  0
SCALE
  5
510
102
{ACAD_REACTORS
330
505
102
}
330
505
100
AcDbScale
 70
     0
300
1:50
140
1.0
141
50.0
290
     0
  0
SCALE
  5
511
102
{ACAD_REACTORS
330
505
102
}
330
505
100
AcDbScale
 70
     0
300
1:100
140
1.0
141
100.0
290
     0
  0
SCALE
  5
512
102
{ACAD_REACTORS
330
505
102
}
330
505
100
AcDbScale
 70
     0
300
2:1
140
2.0
141
1.0
290
     0
  0
SCALE
  5
513
102
{ACAD_REACTORS
330
505
102
}
330
505
100
AcDbScale
 70
     0
300
4:1
140
4.0
141
1.0
290
     0
  0
SCALE
  5
514
102
{ACAD_REACTORS
330
505
102
}
330
505
100
AcDbScale
 70
     0
300
8:1
140
8.0
141
1.0
290
     0
  0
SCALE
  5
515
102
{ACAD_REACTORS
330
505
102
}
330
505
100
AcDbScale
 70
     0
300
10:1
140
10.0
141
1.0
290
     0
  0
SCALE
  5
516
102
{ACAD_REACTORS
330
505
102
}
330
505
100
AcDbScale
 70
     0
300
100:1
140
100.0
141
1.0
290
     0
  0
TABLESTYLE
  5
504
102
{ACAD_XDICTIONARY
360
677
102
}
102
{ACAD_REACTORS
330
503
102
}
330
503
100
AcDbTableStyle
  3
Standard
 70
     0
 71
     0
 40
1.5
 41
1.5
280
     0
281
     0
  7
STANDARD
140
4.5
170
     2
 62
     0
 63
     7
283
     0
274
    -2
284
     1
 64
     0
275
    -2
285
     1
 65
     0
276
    -2
286
     1
 66
     0
277
    -2
287
     1
 67
     0
278
    -2
288
     1
 68
     0
279
    -2
289
     1
 69
     0
  7
STANDARD
140
6.0
170
     5
 62
     0
 63
     7
283
     0
274
    -2
284
     1
 64
     0
275
    -2
285
     1
 65
     0
276
    -2
286
     1
 66
     0
277
    -2
287
     1
 67
     0
278
    -2
288
     1
 68
     0
279
    -2
289
     1
 69
     0
  7
STANDARD
140
4.5
170
     5
 62
     0
 63
     7
283
     0
274
    -2
284
     1
 64
     0
275
    -2
285
     1
 65
     0
276
    -2
286
     1
 66
     0
277
    -2
287
     1
 67
     0
278
    -2
288
     1
 68
     0
279
    -2
289
     1
 69
     0
  0
VISUALSTYLE
  5
4F4
102
{ACAD_XDICTIONARY
360
68C
102
}
102
{ACAD_REACTORS
330
4EE
102
}
330
4EE
100
AcDbVisualStyle
  2
2dWireframe
 70
     4
 71
     0
 72
     2
 73
     0
 90
        0
 40
-0.6
 41
-30.0
 62
     5
 63
     7
 74
     1
 91
        4
 64
     7
 65
   257
 75
     1
175
     1
 42
1.0
 92
        0
 66
   257
 43
1.0
 76
     1
 77
     6
 78
     2
 67
     7
 79
     5
170
     0
171
     0
290
     0
174
     0
 93
        1
 44
0.0
173
     0
291
     0
 45
0.0
1001
ACAD
1000
AcDbSavedByObjectVersion
1070
     0
  0
VISUALSTYLE
  5
4F6
102
{ACAD_XDICTIONARY
360
690
102
}
102
{ACAD_REACTORS
330
4EE
102
}
330
4EE
100
AcDbVisualStyle
  2
3D Hidden
 70
     6
 71
     1
 72
     2
 73
     2
 90
        0
 40
-0.6
 41
-30.0
 62
     5
 63
     7
 74
     2
 91
        2
 64
     7
 65
   257
 75
     2
175
     1
 42
179.0
 92
        0
 66
   257
 43
1.0
 76
     1
 77
     6
 78
     2
 67
     7
 79
     3
170
     0
171
     0
290
     0
174
     0
 93
        1
 44
0.0
173
     0
291
     0
 45
0.0
1001
ACAD
1000
AcDbSavedByObjectVersion
1070
     0
  0
VISUALSTYLE
  5
4F5
102
{ACAD_XDICTIONARY
360
68E
102
}
102
{ACAD_REACTORS
330
4EE
102
}
330
4EE
100
AcDbVisualStyle
  2
3dWireframe
 70
     5
 71
     0
 72
     2
 73
     0
 90
        0
 40
-0.6
 41
-30.0
 62
     5
 63
     7
 74
     1
 91
        4
 64
     7
 65
   257
 75
     1
175
     1
 42
1.0
 92
        0
 66
   257
 43
1.0
 76
     1
 77
     6
 78
     2
 67
     7
 79
     5
170
     0
171
     0
290
     0
174
     0
 93
        1
 44
0.0
173
     0
291
     0
 45
0.0
1001
ACAD
1000
AcDbSavedByObjectVersion
1070
     0
  0
VISUALSTYLE
  5
4F3
102
{ACAD_XDICTIONARY
360
68A
102
}
102
{ACAD_REACTORS
330
4EE
102
}
330
4EE
100
AcDbVisualStyle
  2
Basic
 70
     7
 71
     1
 72
     0
 73
     1
 90
        0
 40
-0.6
 41
-30.0
 62
     5
 63
     7
 74
     0
 91
        4
 64
     7
 65
   257
 75
     1
175
     1
 42
1.0
 92
        8
 66
     7
 43
1.0
 76
     1
 77
     6
 78
     2
 67
     7
 79
     5
170
     0
171
     0
290
     0
174
     0
 93
        1
 44
0.0
173
     0
291
     1
 45
0.0
1001
ACAD
1000
AcDbSavedByObjectVersion
1070
     0
  0
VISUALSTYLE
  5
4FA
102
{ACAD_XDICTIONARY
360
698
102
}
102
{ACAD_REACTORS
330
4EE
102
}
330
4EE
100
AcDbVisualStyle
  2
Brighten
 70
    12
 71
     2
 72
     2
 73
     0
 90
        0
 40
-0.6
 41
-30.0
 62
     5
 63
     7
 74
     1
 91
        4
 64
     7
 65
   257
 75
     1
175
     1
 42
1.0
 92
        8
 66
     7
 43
1.0
 76
     1
 77
     6
 78
     2
 67
     7
 79
     5
170
     0
171
     0
290
     0
174
     0
 93
        1
 44
50.0
173
     0
291
     1
 45
0.0
1001
ACAD
1000
AcDbSavedByObjectVersion
1070
     0
  0
VISUALSTYLE
  5
4FE
102
{ACAD_XDICTIONARY
360
6A0
102
}
102
{ACAD_REACTORS
330
4EE
102
}
330
4EE
100
AcDbVisualStyle
  2
ColorChange
 70
    16
 71
     2
 72
     2
 73
     3
 90
        0
 40
-0.6
 41
-30.0
 62
     5
 63
     8
 74
     1
 91
        4
 64
     7
 65
   257
 75
     1
175
     1
 42
1.0
 92
        8
 66
     8
 43
1.0
 76
     1
 77
     6
 78
     2
 67
     7
 79
     5
170
     0
171
     0
290
     0
174
     0
 93
        1
 44
0.0
173
     0
291
     1
 45
0.0
1001
ACAD
1000
AcDbSavedByObjectVersion
1070
     0
  0
VISUALSTYLE
  5
4F7
102
{ACAD_XDICTIONARY
360
692
102
}
102
{ACAD_REACTORS
330
4EE
102
}
330
4EE
100
AcDbVisualStyle
  2
Conceptual
 70
     9
 71
     3
 72
     2
 73
     0
 90
        0
 40
-0.6
 41
-30.0
 62
     5
 63
     7
 74
     2
 91
        2
 64
     7
 65
   257
 75
     1
175
     1
 42
179.0
 92
        8
 66
     7
 43
1.0
 76
     1
 77
     6
 78
     2
 67
     7
 79
     3
170
     0
171
     0
290
     0
174
     0
 93
        1
 44
0.0
173
     0
291
     0
 45
0.0
1001
ACAD
1000
AcDbSavedByObjectVersion
1070
     0
  0
VISUALSTYLE
  5
4F9
102
{ACAD_XDICTIONARY
360
696
102
}
102
{ACAD_REACTORS
330
4EE
102
}
330
4EE
100
AcDbVisualStyle
  2
Dim
 70
    11
 71
     2
 72
     2
 73
     0
 90
        0
 40
-0.6
 41
-30.0
 62
     5
 63
     7
 74
     1
 91
        4
 64
     7
 65
   257
 75
     1
175
     1
 42
1.0
 92
        8
 66
     7
 43
1.0
 76
     1
 77
     6
 78
     2
 67
     7
 79
     5
170
     0
171
     0
290
     0
174
     0
 93
        1
 44
-50.0
173
     0
291
     1
 45
0.0
1001
ACAD
1000
AcDbSavedByObjectVersion
1070
     0
  0
VISUALSTYLE
  5
501
102
{ACAD_XDICTIONARY
360
6A6
102
}
102
{ACAD_REACTORS
330
4EE
102
}
330
4EE
100
AcDbVisualStyle
  2
EdgeColorOff
 70
    22
 71
     2
 72
     2
 73
     0
 90
        0
 40
-0.6
 41
-30.0
 62
     5
 63
     7
 74
     1
 91
        4
 64
     7
 65
   257
 75
     1
175
     1
 42
1.0
 92
        8
 66
     7
 43
1.0
 76
     1
 77
     6
 78
     2
 67
     7
 79
     5
170
     0
171
     0
290
     0
174
     0
 93
        1
 44
0.0
173
     0
291
     1
 45
0.0
1001
ACAD
1000
AcDbSavedByObjectVersion
1070
     0
  0
VISUALSTYLE
  5
4FD
102
{ACAD_XDICTIONARY
360
69E
102
}
102
{ACAD_REACTORS
330
4EE
102
}
330
4EE
100
AcDbVisualStyle
  2
Facepattern
 70
    15
 71
     2
 72
     2
 73
     0
 90
        0
 40
-0.6
 41
-30.0
 62
     5
 63
     7
 74
     1
 91
        4
 64
     7
 65
   257
 75
     1
175
     1
 42
1.0
 92
        8
 66
     7
 43
1.0
 76
     1
 77
     6
 78
     2
 67
     7
 79
     5
170
     0
171
     0
290
     0
174
     0
 93
        1
 44
0.0
173
     0
291
     1
 45
0.0
1001
ACAD
1000
AcDbSavedByObjectVersion
1070
     0
  0
VISUALSTYLE
  5
4EF
102
{ACAD_XDICTIONARY
360
682
102
}
102
{ACAD_REACTORS
330
4EE
102
}
330
4EE
100
AcDbVisualStyle
  2
Flat
 70
     0
 71
     2
 72
     1
 73
     1
 90
        2
 40
-0.6
 41
30.0
 62
     5
 63
     7
 74
     0
 91
        4
 64
     7
 65
   257
 75
     1
175
     1
 42
1.0
 92
        8
 66
     7
 43
1.0
 76
     1
 77
     6
 78
     2
 67
     7
 79
     5
170
     0
171
     0
290
     0
174
     0
 93
       13
 44
0.0
173
     0
291
     1
 45
0.0
1001
ACAD
1000
AcDbSavedByObjectVersion
1070
     0
  0
VISUALSTYLE
  5
4F0
102
{ACAD_XDICTIONARY
360
684
102
}
102
{ACAD_REACTORS
330
4EE
102
}
330
4EE
100
AcDbVisualStyle
  2
FlatWithEdges
 70
     1
 71
     2
 72
     1
 73
     1
 90
        2
 40
-0.6
 41
30.0
 62
     5
 63
     7
 74
     1
 91
        4
 64
     7
 65
   257
 75
     1
175
     1
 42
1.0
 92
        0
 66
   257
 43
1.0
 76
     1
 77
     6
 78
     2
 67
     7
 79
     5
170
     0
171
     0
290
     0
174
     0
 93
       13
 44
0.0
173
     0
291
     1
 45
0.0
1001
ACAD
1000
AcDbSavedByObjectVersion
1070
     0
  0
VISUALSTYLE
  5
4F1
102
{ACAD_XDICTIONARY
360
686
102
}
102
{ACAD_REACTORS
330
4EE
102
}
330
4EE
100
AcDbVisualStyle
  2
Gouraud
 70
     2
 71
     2
 72
     2
 73
     1
 90
        2
 40
-0.6
 41
30.0
 62
     5
 63
     7
 74
     0
 91
        4
 64
     7
 65
   257
 75
     1
175
     1
 42
1.0
 92
        0
 66
     7
 43
1.0
 76
     1
 77
     6
 78
     2
 67
     7
 79
     5
170
     0
171
     0
290
     0
174
     0
 93
       13
 44
0.0
173
     0
291
     1
 45
0.0
1001
ACAD
1000
AcDbSavedByObjectVersion
1070
     0
  0
VISUALSTYLE
  5
4F2
102
{ACAD_XDICTIONARY
360
688
102
}
102
{ACAD_REACTORS
330
4EE
102
}
330
4EE
100
AcDbVisualStyle
  2
GouraudWithEdges
 70
     3
 71
     2
 72
     2
 73
     1
 90
        2
 40
-0.6
 41
30.0
 62
     5
 63
     7
 74
     1
 91
        4
 64
     7
 65
   257
 75
     1
175
     1
 42
1.0
 92
        0
 66
   257
 43
1.0
 76
     1
 77
     6
 78
     2
 67
     7
 79
     5
170
     0
171
     0
290
     0
174
     0
 93
       13
 44
0.0
173
     0
291
     1
 45
0.0
1001
ACAD
1000
AcDbSavedByObjectVersion
1070
     0
  0
VISUALSTYLE
  5
4FF
102
{ACAD_XDICTIONARY
360
6A2
102
}
102
{ACAD_REACTORS
330
4EE
102
}
330
4EE
100
AcDbVisualStyle
  2
JitterOff
 70
    20
 71
     2
 72
     2
 73
     0
 90
        0
 40
-0.6
 41
-30.0
 62
     5
 63
     7
 74
     1
 91
        4
 64
     7
 65
   257
 75
     1
175
     1
 42
1.0
 92
       10
 66
     7
 43
1.0
 76
     1
 77
     6
 78
     2
 67
     7
 79
     5
170
     0
171
     0
290
     0
174
     0
 93
        1
 44
0.0
173
     0
291
     1
 45
0.0
1001
ACAD
1000
AcDbSavedByObjectVersion
1070
     0
  0
VISUALSTYLE
  5
4FC
102
{ACAD_XDICTIONARY
360
69C
102
}
102
{ACAD_REACTORS
330
4EE
102
}
330
4EE
100
AcDbVisualStyle
  2
Linepattern
 70
    14
 71
     2
 72
     2
 73
     0
 90
        0
 40
-0.6
 41
-30.0
 62
     5
 63
     7
 74
     1
 91
        4
 64
     7
 65
   257
 75
     7
175
     7
 42
1.0
 92
        8
 66
     7
 43
1.0
 76
     1
 77
     6
 78
     2
 67
     7
 79
     5
170
     0
171
     0
290
     0
174
     0
 93
        1
 44
0.0
173
     0
291
     1
 45
0.0
1001
ACAD
1000
AcDbSavedByObjectVersion
1070
     0
  0
VISUALSTYLE
  5
500
102
{ACAD_XDICTIONARY
360
6A4
102
}
102
{ACAD_REACTORS
330
4EE
102
}
330
4EE
100
AcDbVisualStyle
  2
OverhangOff
 70
    21
 71
     2
 72
     2
 73
     0
 90
        0
 40
-0.6
 41
-30.0
 62
     5
 63
     7
 74
     1
 91
        4
 64
     7
 65
   257
 75
     1
175
     1
 42
1.0
 92
        9
 66
     7
 43
1.0
 76
     1
 77
     6
 78
     2
 67
     7
 79
     5
170
     0
171
     0
290
     0
174
     0
 93
        1
 44
0.0
173
     0
291
     1
 45
0.0
1001
ACAD
1000
AcDbSavedByObjectVersion
1070
     0
  0
VISUALSTYLE
  5
4F8
102
{ACAD_XDICTIONARY
360
694
102
}
102
{ACAD_REACTORS
330
4EE
102
}
330
4EE
100
AcDbVisualStyle
  2
Realistic
 70
     8
 71
     2
 72
     2
 73
     0
 90
        0
 40
-0.6
 41
-30.0
 62
     5
 63
     7
 74
     1
 91
        0
 64
     7
 65
   257
 75
     1
175
     1
 42
1.0
 92
        8
 66
     8
 43
1.0
 76
     1
 77
     6
 78
     2
 67
     7
 79
     5
170
     0
171
     0
290
     0
174
     0
 93
       13
 44
0.0
173
     0
291
     0
 45
0.0
1001
ACAD
1000
AcDbSavedByObjectVersion
1070
     0
  0
VISUALSTYLE
  5
4FB
102
{ACAD_XDICTIONARY
360
69A
102
}
102
{ACAD_REACTORS
330
4EE
102
}
330
4EE
100
AcDbVisualStyle
  2
Thicken
 70
    13
 71
     2
 72
     2
 73
     0
 90
        0
 40
-0.6
 41
-30.0
 62
     5
 63
     7
 74
     1
 91
        4
 64
     7
 65
   257
 75
     1
175
     1
 42
1.0
 92
       12
 66
     7
 43
1.0
 76
     1
 77
     6
 78
     2
 67
     7
 79
     5
170
     0
171
     0
290
     0
174
     0
 93
        1
 44
0.0
173
     0
291
     1
 45
0.0
1001
ACAD
1000
AcDbSavedByObjectVersion
1070
     0
  0
DICTIONARYVAR
  5
66E
102
{ACAD_REACTORS
330
66A
102
}
330
66A
100
DictionaryVariables
280
     0
  1
1:1
  0
DICTIONARYVAR
  5
66C
102
{ACAD_REACTORS
330
66A
102
}
330
66A
100
DictionaryVariables
280
     0
  1
STANDARD
  0
DICTIONARYVAR
  5
66B
102
{ACAD_REACTORS
330
66A
102
}
330
66A
100
DictionaryVariables
280
     0
  1
STANDARD
  0
DICTIONARYVAR
  5
675
102
{ACAD_REACTORS
330
66A
102
}
330
66A
100
DictionaryVariables
280
     0
  1
2
  0
DICTIONARYVAR
  5
674
102
{ACAD_REACTORS
330
66A
102
}
330
66A
100
DictionaryVariables
280
     0
  1
1
  0
DICTIONARYVAR
  5
673
102
{ACAD_REACTORS
330
66A
102
}
330
66A
100
DictionaryVariables
280
     0
  1
0
  0
DICTIONARYVAR
  5
670
102
{ACAD_REACTORS
330
66A
102
}
330
66A
100
DictionaryVariables
280
     0
  1
0
  0
DICTIONARYVAR
  5
671
102
{ACAD_REACTORS
330
66A
102
}
330
66A
100
DictionaryVariables
280
     0
  1
0
  0
DICTIONARYVAR
  5
66F
102
{ACAD_REACTORS
330
66A
102
}
330
66A
100
DictionaryVariables
280
     0
  1
2
  0
DICTIONARYVAR
  5
66D
102
{ACAD_REACTORS
330
66A
102
}
330
66A
100
DictionaryVariables
280
     0
  1
1
  0
DICTIONARYVAR
  5
672
102
{ACAD_REACTORS
330
66A
102
}
330
66A
100
DictionaryVariables
280
     0
  1
127
  0
DICTIONARYVAR
  5
676
102
{ACAD_REACTORS
330
66A
102
}
330
66A
100
DictionaryVariables
280
     0
  1
2
  0
DICTIONARY
  5
57C
102
{ACAD_REACTORS
330
572
102
}
330
572
100
AcDbDictionary
281
     1
  0
DICTIONARY
  5
67D
330
4D2
100
AcDbDictionary
280
     1
281
     1
  3
ACAD_XREC_ROUNDTRIP
360
67E
  0
DICTIONARY
  5
67B
330
4D1
100
AcDbDictionary
280
     1
281
     1
  3
ACAD_XREC_ROUNDTRIP
360
67C
  0
DICTIONARY
  5
4DF
330
4DE
100
AcDbDictionary
280
     1
281
     1
  3
ACAD_XREC_ROUNDTRIP
360
680
  3
BUMPTILE
360
4E1
  3
DIFFUSETILE
360
4E0
  3
OPACITYTILE
360
4E4
  3
REFLECTIONTILE
360
4E3
  3
REFRACTIONTILE
360
4E5
  3
SPECULARTILE
360
4E2
  0
DICTIONARY
  5
4D7
330
4D6
100
AcDbDictionary
280
     1
281
     1
  3
ACAD_XREC_ROUNDTRIP
360
67F
  3
BUMPTILE
360
4D9
  3
DIFFUSETILE
360
4D8
  3
OPACITYTILE
360
4DC
  3
REFLECTIONTILE
360
4DB
  3
REFRACTIONTILE
360
4DD
  3
SPECULARTILE
360
4DA
  0
DICTIONARY
  5
4E7
330
4E6
100
AcDbDictionary
280
     1
281
     1
  3
ACAD_XREC_ROUNDTRIP
360
681
  3
BUMPTILE
360
4E9
  3
DIFFUSETILE
360
4E8
  3
OPACITYTILE
360
4EC
  3
REFLECTIONTILE
360
4EB
  3
REFRACTIONTILE
360
4ED
  3
SPECULARTILE
360
4EA
  0
DICTIONARY
  5
677
330
504
100
AcDbDictionary
280
     1
281
     1
  3
ACAD_ROUNDTRIP_2008_TABLESTYLE_CELLSTYLEMAP
360
678
  3
ACAD_XREC_ROUNDTRIP
360
6A8
  0
DICTIONARY
  5
68C
330
4F4
100
AcDbDictionary
280
     1
281
     1
  3
ACAD_XREC_ROUNDTRIP
360
68D
  0
DICTIONARY
  5
690
330
4F6
100
AcDbDictionary
280
     1
281
     1
  3
ACAD_XREC_ROUNDTRIP
360
691
  0
DICTIONARY
  5
68E
330
4F5
100
AcDbDictionary
280
     1
281
     1
  3
ACAD_XREC_ROUNDTRIP
360
68F
  0
DICTIONARY
  5
68A
330
4F3
100
AcDbDictionary
280
     1
281
     1
  3
ACAD_XREC_ROUNDTRIP
360
68B
  0
DICTIONARY
  5
698
330
4FA
100
AcDbDictionary
280
     1
281
     1
  3
ACAD_XREC_ROUNDTRIP
360
699
  0
DICTIONARY
  5
6A0
330
4FE
100
AcDbDictionary
280
     1
281
     1
  3
ACAD_XREC_ROUNDTRIP
360
6A1
  0
DICTIONARY
  5
692
330
4F7
100
AcDbDictionary
280
     1
281
     1
  3
ACAD_XREC_ROUNDTRIP
360
693
  0
DICTIONARY
  5
696
330
4F9
100
AcDbDictionary
280
     1
281
     1
  3
ACAD_XREC_ROUNDTRIP
360
697
  0
DICTIONARY
  5
6A6
330
501
100
AcDbDictionary
280
     1
281
     1
  3
ACAD_XREC_ROUNDTRIP
360
6A7
  0
DICTIONARY
  5
69E
330
4FD
100
AcDbDictionary
280
     1
281
     1
  3
ACAD_XREC_ROUNDTRIP
360
69F
  0
DICTIONARY
  5
682
330
4EF
100
AcDbDictionary
280
     1
281
     1
  3
ACAD_XREC_ROUNDTRIP
360
683
  0
DICTIONARY
  5
684
330
4F0
100
AcDbDictionary
280
     1
281
     1
  3
ACAD_XREC_ROUNDTRIP
360
685
  0
DICTIONARY
  5
686
330
4F1
100
AcDbDictionary
280
     1
281
     1
  3
ACAD_XREC_ROUNDTRIP
360
687
  0
DICTIONARY
  5
688
330
4F2
100
AcDbDictionary
280
     1
281
     1
  3
ACAD_XREC_ROUNDTRIP
360
689
  0
DICTIONARY
  5
6A2
330
4FF
100
AcDbDictionary
280
     1
281
     1
  3
ACAD_XREC_ROUNDTRIP
360
6A3
  0
DICTIONARY
  5
69C
330
4FC
100
AcDbDictionary
280
     1
281
     1
  3
ACAD_XREC_ROUNDTRIP
360
69D
  0
DICTIONARY
  5
6A4
330
500
100
AcDbDictionary
280
     1
281
     1
  3
ACAD_XREC_ROUNDTRIP
360
6A5
  0
DICTIONARY
  5
694
330
4F8
100
AcDbDictionary
280
     1
281
     1
  3
ACAD_XREC_ROUNDTRIP
360
695
  0
DICTIONARY
  5
69A
330
4FB
100
AcDbDictionary
280
     1
281
     1
  3
ACAD_XREC_ROUNDTRIP
360
69B
  0
XRECORD
  5
67E
102
{ACAD_REACTORS
330
67D
102
}
330
67D
100
AcDbXrecord
280
     1
102
SHADEPLOT
 70
     0
102
SHADEPLOTRESLEVEL
 70
     2
102
SHADEPLOTCUSTOMDPI
 70
   300
  0
XRECORD
  5
67C
102
{ACAD_REACTORS
330
67B
102
}
330
67B
100
AcDbXrecord
280
     1
102
SHADEPLOT
 70
     0
102
SHADEPLOTRESLEVEL
 70
     2
102
SHADEPLOTCUSTOMDPI
 70
   300
  0
XRECORD
  5
680
102
{ACAD_REACTORS
330
4DF
102
}
330
4DF
100
AcDbXrecord
280
     1
102
MATERIAL
148
0.0
149
0.0
149
0.0
 93
        0
 94
      127
282
     0
 72
     0
 77
     0
171
     0
175
     0
179
     0
273
     0
  0
XRECORD
  5
4E1
102
{ACAD_REACTORS
330
4DF
102
}
330
4DF
100
AcDbXrecord
280
     1
270
     1
271
     1
  0
XRECORD
  5
4E0
102
{ACAD_REACTORS
330
4DF
102
}
330
4DF
100
AcDbXrecord
280
     1
270
     1
271
     1
  0
XRECORD
  5
4E4
102
{ACAD_REACTORS
330
4DF
102
}
330
4DF
100
AcDbXrecord
280
     1
270
     1
271
     1
  0
XRECORD
  5
4E3
102
{ACAD_REACTORS
330
4DF
102
}
330
4DF
100
AcDbXrecord
280
     1
270
     1
271
     1
  0
XRECORD
  5
4E5
102
{ACAD_REACTORS
330
4DF
102
}
330
4DF
100
AcDbXrecord
280
     1
270
     1
271
     1
  0
XRECORD
  5
4E2
102
{ACAD_REACTORS
330
4DF
102
}
330
4DF
100
AcDbXrecord
280
     1
270
     1
271
     1
  0
XRECORD
  5
67F
102
{ACAD_REACTORS
330
4D7
102
}
330
4D7
100
AcDbXrecord
280
     1
102
MATERIAL
148
0.0
149
0.0
149
0.0
 93
        0
 94
      127
282
     0
 72
     0
 77
     0
171
     0
175
     0
179
     0
273
     0
  0
XRECORD
  5
4D9
102
{ACAD_REACTORS
330
4D7
102
}
330
4D7
100
AcDbXrecord
280
     1
270
     1
271
     1
  0
XRECORD
  5
4D8
102
{ACAD_REACTORS
330
4D7
102
}
330
4D7
100
AcDbXrecord
280
     1
270
     1
271
     1
  0
XRECORD
  5
4DC
102
{ACAD_REACTORS
330
4D7
102
}
330
4D7
100
AcDbXrecord
280
     1
270
     1
271
     1
  0
XRECORD
  5
4DB
102
{ACAD_REACTORS
330
4D7
102
}
330
4D7
100
AcDbXrecord
280
     1
270
     1
271
     1
  0
XRECORD
  5
4DD
102
{ACAD_REACTORS
330
4D7
102
}
330
4D7
100
AcDbXrecord
280
     1
270
     1
271
     1
  0
XRECORD
  5
4DA
102
{ACAD_REACTORS
330
4D7
102
}
330
4D7
100
AcDbXrecord
280
     1
270
     1
271
     1
  0
XRECORD
  5
681
102
{ACAD_REACTORS
330
4E7
102
}
330
4E7
100
AcDbXrecord
280
     1
102
MATERIAL
148
0.0
149
0.0
149
0.0
 93
        0
 94
      127
282
     0
 72
     0
 77
     0
171
     0
175
     0
179
     0
273
     0
  0
XRECORD
  5
4E9
102
{ACAD_REACTORS
330
4E7
102
}
330
4E7
100
AcDbXrecord
280
     1
270
     1
271
     1
  0
XRECORD
  5
4E8
102
{ACAD_REACTORS
330
4E7
102
}
330
4E7
100
AcDbXrecord
280
     1
270
     1
271
     1
  0
XRECORD
  5
4EC
102
{ACAD_REACTORS
330
4E7
102
}
330
4E7
100
AcDbXrecord
280
     1
270
     1
271
     1
  0
XRECORD
  5
4EB
102
{ACAD_REACTORS
330
4E7
102
}
330
4E7
100
AcDbXrecord
280
     1
270
     1
271
     1
  0
XRECORD
  5
4ED
102
{ACAD_REACTORS
330
4E7
102
}
330
4E7
100
AcDbXrecord
280
     1
270
     1
271
     1
  0
XRECORD
  5
4EA
102
{ACAD_REACTORS
330
4E7
102
}
330
4E7
100
AcDbXrecord
280
     1
270
     1
271
     1
  0
CELLSTYLEMAP
  5
678
102
{ACAD_REACTORS
330
677
102
}
330
677
100
AcDbCellStyleMap
 90
        3
300
CELLSTYLE
  1
TABLEFORMAT_BEGIN
 90
        5
170
     1
 91
        0
 92
    32768
 62
   257
 93
        1
300
CONTENTFORMAT
  1
CONTENTFORMAT_BEGIN
 90
        0
 91
        0
 92
      512
 93
        0
300

 40
0.0
140
1.0
 94
        5
 62
     0
340
11
144
6.0
309
CONTENTFORMAT_END
171
     1
301
MARGIN
  1
CELLMARGIN_BEGIN
 40
1.5
 40
1.5
 40
1.5
 40
1.5
 40
4.5
 40
4.5
309
CELLMARGIN_END
 94
        6
 95
        1
302
GRIDFORMAT
  1
GRIDFORMAT_BEGIN
 90
        0
 91
        1
 62
     0
 92
       -2
340
0
 93
        0
 40
1.125
309
GRIDFORMAT_END
 95
        2
302
GRIDFORMAT
  1
GRIDFORMAT_BEGIN
 90
        0
 91
        1
 62
     0
 92
       -2
340
0
 93
        0
 40
1.125
309
GRIDFORMAT_END
 95
        4
302
GRIDFORMAT
  1
GRIDFORMAT_BEGIN
 90
        0
 91
        1
 62
     0
 92
       -2
340
0
 93
        0
 40
1.125
309
GRIDFORMAT_END
 95
        8
302
GRIDFORMAT
  1
GRIDFORMAT_BEGIN
 90
        0
 91
        1
 62
     0
 92
       -2
340
0
 93
        0
 40
1.125
309
GRIDFORMAT_END
 95
       16
302
GRIDFORMAT
  1
GRIDFORMAT_BEGIN
 90
        0
 91
        1
 62
     0
 92
       -2
340
0
 93
        0
 40
1.125
309
GRIDFORMAT_END
 95
       32
302
GRIDFORMAT
  1
GRIDFORMAT_BEGIN
 90
        0
 91
        1
 62
     0
 92
       -2
340
0
 93
        0
 40
1.125
309
GRIDFORMAT_END
309
TABLEFORMAT_END
  1
CELLSTYLE_BEGIN
 90
        1
 91
        1
300
_TITLE
309
CELLSTYLE_END
300
CELLSTYLE
  1
TABLEFORMAT_BEGIN
 90
        5
170
     1
 91
        0
 92
        0
 62
   257
 93
        1
300
CONTENTFORMAT
  1
CONTENTFORMAT_BEGIN
 90
        0
 91
        0
 92
      512
 93
        0
300

 40
0.0
140
1.0
 94
        5
 62
     0
340
11
144
4.5
309
CONTENTFORMAT_END
171
     1
301
MARGIN
  1
CELLMARGIN_BEGIN
 40
1.5
 40
1.5
 40
1.5
 40
1.5
 40
4.5
 40
4.5
309
CELLMARGIN_END
 94
        6
 95
        1
302
GRIDFORMAT
  1
GRIDFORMAT_BEGIN
 90
        0
 91
        1
 62
     0
 92
       -2
340
0
 93
        0
 40
1.125
309
GRIDFORMAT_END
 95
        2
302
GRIDFORMAT
  1
GRIDFORMAT_BEGIN
 90
        0
 91
        1
 62
     0
 92
       -2
340
0
 93
        0
 40
1.125
309
GRIDFORMAT_END
 95
        4
302
GRIDFORMAT
  1
GRIDFORMAT_BEGIN
 90
        0
 91
        1
 62
     0
 92
       -2
340
0
 93
        0
 40
1.125
309
GRIDFORMAT_END
 95
        8
302
GRIDFORMAT
  1
GRIDFORMAT_BEGIN
 90
        0
 91
        1
 62
     0
 92
       -2
340
0
 93
        0
 40
1.125
309
GRIDFORMAT_END
 95
       16
302
GRIDFORMAT
  1
GRIDFORMAT_BEGIN
 90
        0
 91
        1
 62
     0
 92
       -2
340
0
 93
        0
 40
1.125
309
GRIDFORMAT_END
 95
       32
302
GRIDFORMAT
  1
GRIDFORMAT_BEGIN
 90
        0
 91
        1
 62
     0
 92
       -2
340
0
 93
        0
 40
1.125
309
GRIDFORMAT_END
309
TABLEFORMAT_END
  1
CELLSTYLE_BEGIN
 90
        2
 91
        1
300
_HEADER
309
CELLSTYLE_END
300
CELLSTYLE
  1
TABLEFORMAT_BEGIN
 90
        5
170
     1
 91
        0
 92
        0
 62
   257
 93
        1
300
CONTENTFORMAT
  1
CONTENTFORMAT_BEGIN
 90
        0
 91
        0
 92
      512
 93
        0
300

 40
0.0
140
1.0
 94
        2
 62
     0
340
11
144
4.5
309
CONTENTFORMAT_END
171
     1
301
MARGIN
  1
CELLMARGIN_BEGIN
 40
1.5
 40
1.5
 40
1.5
 40
1.5
 40
4.5
 40
4.5
309
CELLMARGIN_END
 94
        6
 95
        1
302
GRIDFORMAT
  1
GRIDFORMAT_BEGIN
 90
        0
 91
        1
 62
     0
 92
       -2
340
0
 93
        0
 40
1.125
309
GRIDFORMAT_END
 95
        2
302
GRIDFORMAT
  1
GRIDFORMAT_BEGIN
 90
        0
 91
        1
 62
     0
 92
       -2
340
0
 93
        0
 40
1.125
309
GRIDFORMAT_END
 95
        4
302
GRIDFORMAT
  1
GRIDFORMAT_BEGIN
 90
        0
 91
        1
 62
     0
 92
       -2
340
0
 93
        0
 40
1.125
309
GRIDFORMAT_END
 95
        8
302
GRIDFORMAT
  1
GRIDFORMAT_BEGIN
 90
        0
 91
        1
 62
     0
 92
       -2
340
0
 93
        0
 40
1.125
309
GRIDFORMAT_END
 95
       16
302
GRIDFORMAT
  1
GRIDFORMAT_BEGIN
 90
        0
 91
        1
 62
     0
 92
       -2
340
0
 93
        0
 40
1.125
309
GRIDFORMAT_END
 95
       32
302
GRIDFORMAT
  1
GRIDFORMAT_BEGIN
 90
        0
 91
        1
 62
     0
 92
       -2
340
0
 93
        0
 40
1.125
309
GRIDFORMAT_END
309
TABLEFORMAT_END
  1
CELLSTYLE_BEGIN
 90
        3
 91
        2
300
_DATA
309
CELLSTYLE_END
  0
XRECORD
  5
6A8
102
{ACAD_REACTORS
330
677
102
}
330
677
100
AcDbXrecord
280
     1
102
ACAD_ROUNDTRIP_PRE2007_TABLESTYLE
 90
      512
 91
        0
  1

 92
      512
 93
        0
  2

 94
      512
 95
        0
  3

  0
XRECORD
  5
68D
102
{ACAD_REACTORS
330
68C
102
}
330
68C
100
AcDbXrecord
280
     1
102
RTVSPropertyOp0
 70
     1
102
RTVSPropertyOp1
 70
     1
102
RTVSPropertyOp2
 70
     1
102
RTVSPropertyOp3
 70
     1
102
RTVSPropertyOp4
 70
     1
102
RTVSPropertyOp5
 70
     1
102
RTVSPropertyOp6
 70
     1
102
RTVSPropertyOp7
 70
     1
102
RTVSPropertyOp8
 70
     1
102
RTVSPropertyOp9
 70
     1
102
RTVSPropertyOp10
 70
     1
102
RTVSPropertyOp11
 70
     1
102
RTVSPropertyOp12
 70
     1
102
RTVSPropertyOp13
 70
     1
102
RTVSPropertyOp14
 70
     1
102
RTVSPropertyOp15
 70
     1
102
RTVSPropertyOp16
 70
     1
102
RTVSPropertyOp17
 70
     1
102
RTVSPropertyOp18
 70
     1
102
RTVSPropertyOp19
 70
     1
102
RTVSPropertyOp20
 70
     1
102
RTVSPropertyOp21
 70
     1
102
RTVSPropertyOp22
 70
     1
102
RTVSPropertyOp23
 70
     1
102
RTVSPropertyOp24
 70
     1
102
RTVSPropertyOp25
 70
     1
102
RTVSPropertyOp26
 70
     1
102
RTVSPropertyOp27
 70
     1
  0
XRECORD
  5
691
102
{ACAD_REACTORS
330
690
102
}
330
690
100
AcDbXrecord
280
     1
102
RTVSPropertyOp0
 70
     1
102
RTVSPropertyOp1
 70
     1
102
RTVSPropertyOp2
 70
     1
102
RTVSPropertyOp3
 70
     1
102
RTVSPropertyOp4
 70
     1
102
RTVSPropertyOp5
 70
     1
102
RTVSPropertyOp6
 70
     1
102
RTVSPropertyOp7
 70
     1
102
RTVSPropertyOp8
 70
     1
102
RTVSPropertyOp9
 70
     1
102
RTVSPropertyOp10
 70
     1
102
RTVSPropertyOp11
 70
     1
102
RTVSPropertyOp12
 70
     1
102
RTVSPropertyOp13
 70
     1
102
RTVSPropertyOp14
 70
     1
102
RTVSPropertyOp15
 70
     1
102
RTVSPropertyOp16
 70
     1
102
RTVSPropertyOp17
 70
     1
102
RTVSPropertyOp18
 70
     1
102
RTVSPropertyOp19
 70
     1
102
RTVSPropertyOp20
 70
     1
102
RTVSPropertyOp21
 70
     1
102
RTVSPropertyOp22
 70
     1
102
RTVSPropertyOp23
 70
     1
102
RTVSPropertyOp24
 70
     1
102
RTVSPropertyOp25
 70
     1
102
RTVSPropertyOp26
 70
     1
102
RTVSPropertyOp27
 70
     1
  0
XRECORD
  5
68F
102
{ACAD_REACTORS
330
68E
102
}
330
68E
100
AcDbXrecord
280
     1
102
RTVSPropertyOp0
 70
     1
102
RTVSPropertyOp1
 70
     1
102
RTVSPropertyOp2
 70
     1
102
RTVSPropertyOp3
 70
     1
102
RTVSPropertyOp4
 70
     1
102
RTVSPropertyOp5
 70
     1
102
RTVSPropertyOp6
 70
     1
102
RTVSPropertyOp7
 70
     1
102
RTVSPropertyOp8
 70
     1
102
RTVSPropertyOp9
 70
     1
102
RTVSPropertyOp10
 70
     1
102
RTVSPropertyOp11
 70
     1
102
RTVSPropertyOp12
 70
     1
102
RTVSPropertyOp13
 70
     1
102
RTVSPropertyOp14
 70
     1
102
RTVSPropertyOp15
 70
     1
102
RTVSPropertyOp16
 70
     1
102
RTVSPropertyOp17
 70
     1
102
RTVSPropertyOp18
 70
     1
102
RTVSPropertyOp19
 70
     1
102
RTVSPropertyOp20
 70
     1
102
RTVSPropertyOp21
 70
     1
102
RTVSPropertyOp22
 70
     1
102
RTVSPropertyOp23
 70
     1
102
RTVSPropertyOp24
 70
     1
102
RTVSPropertyOp25
 70
     1
102
RTVSPropertyOp26
 70
     1
102
RTVSPropertyOp27
 70
     1
  0
XRECORD
  5
68B
102
{ACAD_REACTORS
330
68A
102
}
330
68A
100
AcDbXrecord
280
     1
102
RTVSPropertyOp0
 70
     1
102
RTVSPropertyOp1
 70
     1
102
RTVSPropertyOp2
 70
     1
102
RTVSPropertyOp3
 70
     1
102
RTVSPropertyOp4
 70
     1
102
RTVSPropertyOp5
 70
     1
102
RTVSPropertyOp6
 70
     1
102
RTVSPropertyOp7
 70
     1
102
RTVSPropertyOp8
 70
     1
102
RTVSPropertyOp9
 70
     1
102
RTVSPropertyOp10
 70
     1
102
RTVSPropertyOp11
 70
     1
102
RTVSPropertyOp12
 70
     1
102
RTVSPropertyOp13
 70
     1
102
RTVSPropertyOp14
 70
     1
102
RTVSPropertyOp15
 70
     1
102
RTVSPropertyOp16
 70
     1
102
RTVSPropertyOp17
 70
     1
102
RTVSPropertyOp18
 70
     1
102
RTVSPropertyOp19
 70
     1
102
RTVSPropertyOp20
 70
     1
102
RTVSPropertyOp21
 70
     1
102
RTVSPropertyOp22
 70
     1
102
RTVSPropertyOp23
 70
     1
102
RTVSPropertyOp24
 70
     1
102
RTVSPropertyOp25
 70
     1
102
RTVSPropertyOp26
 70
     1
102
RTVSPropertyOp27
 70
     1
  0
XRECORD
  5
699
102
{ACAD_REACTORS
330
698
102
}
330
698
100
AcDbXrecord
280
     1
102
RTVSPropertyOp0
 70
     1
102
RTVSPropertyOp1
 70
     1
102
RTVSPropertyOp2
 70
     1
102
RTVSPropertyOp3
 70
     1
102
RTVSPropertyOp4
 70
     1
102
RTVSPropertyOp5
 70
     1
102
RTVSPropertyOp6
 70
     1
102
RTVSPropertyOp7
 70
     1
102
RTVSPropertyOp8
 70
     1
102
RTVSPropertyOp9
 70
     1
102
RTVSPropertyOp10
 70
     1
102
RTVSPropertyOp11
 70
     1
102
RTVSPropertyOp12
 70
     1
102
RTVSPropertyOp13
 70
     1
102
RTVSPropertyOp14
 70
     1
102
RTVSPropertyOp15
 70
     1
102
RTVSPropertyOp16
 70
     1
102
RTVSPropertyOp17
 70
     1
102
RTVSPropertyOp18
 70
     1
102
RTVSPropertyOp19
 70
     1
102
RTVSPropertyOp20
 70
     1
102
RTVSPropertyOp21
 70
     1
102
RTVSPropertyOp22
 70
     1
102
RTVSPropertyOp23
 70
     1
102
RTVSPropertyOp24
 70
     1
102
RTVSPropertyOp25
 70
     1
102
RTVSPropertyOp26
 70
     1
102
RTVSPropertyOp27
 70
     1
  0
XRECORD
  5
6A1
102
{ACAD_REACTORS
330
6A0
102
}
330
6A0
100
AcDbXrecord
280
     1
102
RTVSPropertyOp0
 70
     1
102
RTVSPropertyOp1
 70
     1
102
RTVSPropertyOp2
 70
     1
102
RTVSPropertyOp3
 70
     1
102
RTVSPropertyOp4
 70
     1
102
RTVSPropertyOp5
 70
     1
102
RTVSPropertyOp6
 70
     1
102
RTVSPropertyOp7
 70
     1
102
RTVSPropertyOp8
 70
     1
102
RTVSPropertyOp9
 70
     1
102
RTVSPropertyOp10
 70
     1
102
RTVSPropertyOp11
 70
     1
102
RTVSPropertyOp12
 70
     1
102
RTVSPropertyOp13
 70
     1
102
RTVSPropertyOp14
 70
     1
102
RTVSPropertyOp15
 70
     1
102
RTVSPropertyOp16
 70
     1
102
RTVSPropertyOp17
 70
     1
102
RTVSPropertyOp18
 70
     1
102
RTVSPropertyOp19
 70
     1
102
RTVSPropertyOp20
 70
     1
102
RTVSPropertyOp21
 70
     1
102
RTVSPropertyOp22
 70
     1
102
RTVSPropertyOp23
 70
     1
102
RTVSPropertyOp24
 70
     1
102
RTVSPropertyOp25
 70
     1
102
RTVSPropertyOp26
 70
     1
102
RTVSPropertyOp27
 70
     1
  0
XRECORD
  5
693
102
{ACAD_REACTORS
330
692
102
}
330
692
100
AcDbXrecord
280
     1
102
RTVSPropertyOp0
 70
     1
102
RTVSPropertyOp1
 70
     1
102
RTVSPropertyOp2
 70
     1
102
RTVSPropertyOp3
 70
     1
102
RTVSPropertyOp4
 70
     1
102
RTVSPropertyOp5
 70
     1
102
RTVSPropertyOp6
 70
     1
102
RTVSPropertyOp7
 70
     1
102
RTVSPropertyOp8
 70
     1
102
RTVSPropertyOp9
 70
     1
102
RTVSPropertyOp10
 70
     1
102
RTVSPropertyOp11
 70
     1
102
RTVSPropertyOp12
 70
     1
102
RTVSPropertyOp13
 70
     1
102
RTVSPropertyOp14
 70
     1
102
RTVSPropertyOp15
 70
     1
102
RTVSPropertyOp16
 70
     1
102
RTVSPropertyOp17
 70
     1
102
RTVSPropertyOp18
 70
     1
102
RTVSPropertyOp19
 70
     1
102
RTVSPropertyOp20
 70
     1
102
RTVSPropertyOp21
 70
     1
102
RTVSPropertyOp22
 70
     1
102
RTVSPropertyOp23
 70
     1
102
RTVSPropertyOp24
 70
     1
102
RTVSPropertyOp25
 70
     1
102
RTVSPropertyOp26
 70
     1
102
RTVSPropertyOp27
 70
     1
  0
XRECORD
  5
697
102
{ACAD_REACTORS
330
696
102
}
330
696
100
AcDbXrecord
280
     1
102
RTVSPropertyOp0
 70
     1
102
RTVSPropertyOp1
 70
     1
102
RTVSPropertyOp2
 70
     1
102
RTVSPropertyOp3
 70
     1
102
RTVSPropertyOp4
 70
     1
102
RTVSPropertyOp5
 70
     1
102
RTVSPropertyOp6
 70
     1
102
RTVSPropertyOp7
 70
     1
102
RTVSPropertyOp8
 70
     1
102
RTVSPropertyOp9
 70
     1
102
RTVSPropertyOp10
 70
     1
102
RTVSPropertyOp11
 70
     1
102
RTVSPropertyOp12
 70
     1
102
RTVSPropertyOp13
 70
     1
102
RTVSPropertyOp14
 70
     1
102
RTVSPropertyOp15
 70
     1
102
RTVSPropertyOp16
 70
     1
102
RTVSPropertyOp17
 70
     1
102
RTVSPropertyOp18
 70
     1
102
RTVSPropertyOp19
 70
     1
102
RTVSPropertyOp20
 70
     1
102
RTVSPropertyOp21
 70
     1
102
RTVSPropertyOp22
 70
     1
102
RTVSPropertyOp23
 70
     1
102
RTVSPropertyOp24
 70
     1
102
RTVSPropertyOp25
 70
     1
102
RTVSPropertyOp26
 70
     1
102
RTVSPropertyOp27
 70
     1
  0
XRECORD
  5
6A7
102
{ACAD_REACTORS
330
6A6
102
}
330
6A6
100
AcDbXrecord
280
     1
102
RTVSPropertyOp0
 70
     0
102
RTVSPropertyOp1
 70
     0
102
RTVSPropertyOp2
 70
     0
102
RTVSPropertyOp3
 70
     0
102
RTVSPropertyOp4
 70
     0
102
RTVSPropertyOp5
 70
     0
102
RTVSPropertyOp6
 70
     0
102
RTVSPropertyOp7
 70
     0
102
RTVSPropertyOp8
 70
     0
102
RTVSPropertyOp9
 70
     0
102
RTVSPropertyOp10
 70
     0
102
RTVSPropertyOp11
 70
     0
102
RTVSPropertyOp12
 70
     0
102
RTVSPropertyOp13
 70
     0
102
RTVSPropertyOp14
 70
     2
102
RTVSPropertyOp15
 70
     0
102
RTVSPropertyOp16
 70
     0
102
RTVSPropertyOp17
 70
     0
102
RTVSPropertyOp18
 70
     0
102
RTVSPropertyOp19
 70
     0
102
RTVSPropertyOp20
 70
     0
102
RTVSPropertyOp21
 70
     0
102
RTVSPropertyOp22
 70
     0
102
RTVSPropertyOp23
 70
     0
102
RTVSPropertyOp24
 70
     0
102
RTVSPropertyOp25
 70
     0
102
RTVSPropertyOp26
 70
     0
102
RTVSPropertyOp27
 70
     0
  0
XRECORD
  5
69F
102
{ACAD_REACTORS
330
69E
102
}
330
69E
100
AcDbXrecord
280
     1
102
RTVSPropertyOp0
 70
     1
102
RTVSPropertyOp1
 70
     1
102
RTVSPropertyOp2
 70
     1
102
RTVSPropertyOp3
 70
     1
102
RTVSPropertyOp4
 70
     1
102
RTVSPropertyOp5
 70
     1
102
RTVSPropertyOp6
 70
     1
102
RTVSPropertyOp7
 70
     1
102
RTVSPropertyOp8
 70
     1
102
RTVSPropertyOp9
 70
     1
102
RTVSPropertyOp10
 70
     1
102
RTVSPropertyOp11
 70
     1
102
RTVSPropertyOp12
 70
     1
102
RTVSPropertyOp13
 70
     1
102
RTVSPropertyOp14
 70
     1
102
RTVSPropertyOp15
 70
     1
102
RTVSPropertyOp16
 70
     1
102
RTVSPropertyOp17
 70
     1
102
RTVSPropertyOp18
 70
     1
102
RTVSPropertyOp19
 70
     1
102
RTVSPropertyOp20
 70
     1
102
RTVSPropertyOp21
 70
     1
102
RTVSPropertyOp22
 70
     1
102
RTVSPropertyOp23
 70
     1
102
RTVSPropertyOp24
 70
     1
102
RTVSPropertyOp25
 70
     1
102
RTVSPropertyOp26
 70
     1
102
RTVSPropertyOp27
 70
     1
  0
XRECORD
  5
683
102
{ACAD_REACTORS
330
682
102
}
330
682
100
AcDbXrecord
280
     1
102
RTVSPropertyOp0
 70
     1
102
RTVSPropertyOp1
 70
     1
102
RTVSPropertyOp2
 70
     1
102
RTVSPropertyOp3
 70
     1
102
RTVSPropertyOp4
 70
     1
102
RTVSPropertyOp5
 70
     1
102
RTVSPropertyOp6
 70
     1
102
RTVSPropertyOp7
 70
     1
102
RTVSPropertyOp8
 70
     1
102
RTVSPropertyOp9
 70
     1
102
RTVSPropertyOp10
 70
     1
102
RTVSPropertyOp11
 70
     1
102
RTVSPropertyOp12
 70
     1
102
RTVSPropertyOp13
 70
     1
102
RTVSPropertyOp14
 70
     1
102
RTVSPropertyOp15
 70
     1
102
RTVSPropertyOp16
 70
     1
102
RTVSPropertyOp17
 70
     1
102
RTVSPropertyOp18
 70
     1
102
RTVSPropertyOp19
 70
     1
102
RTVSPropertyOp20
 70
     1
102
RTVSPropertyOp21
 70
     1
102
RTVSPropertyOp22
 70
     1
102
RTVSPropertyOp23
 70
     1
102
RTVSPropertyOp24
 70
     1
102
RTVSPropertyOp25
 70
     1
102
RTVSPropertyOp26
 70
     1
102
RTVSPropertyOp27
 70
     1
  0
XRECORD
  5
685
102
{ACAD_REACTORS
330
684
102
}
330
684
100
AcDbXrecord
280
     1
102
RTVSPropertyOp0
 70
     1
102
RTVSPropertyOp1
 70
     1
102
RTVSPropertyOp2
 70
     1
102
RTVSPropertyOp3
 70
     1
102
RTVSPropertyOp4
 70
     1
102
RTVSPropertyOp5
 70
     1
102
RTVSPropertyOp6
 70
     1
102
RTVSPropertyOp7
 70
     1
102
RTVSPropertyOp8
 70
     1
102
RTVSPropertyOp9
 70
     1
102
RTVSPropertyOp10
 70
     1
102
RTVSPropertyOp11
 70
     1
102
RTVSPropertyOp12
 70
     1
102
RTVSPropertyOp13
 70
     1
102
RTVSPropertyOp14
 70
     1
102
RTVSPropertyOp15
 70
     1
102
RTVSPropertyOp16
 70
     1
102
RTVSPropertyOp17
 70
     1
102
RTVSPropertyOp18
 70
     1
102
RTVSPropertyOp19
 70
     1
102
RTVSPropertyOp20
 70
     1
102
RTVSPropertyOp21
 70
     1
102
RTVSPropertyOp22
 70
     1
102
RTVSPropertyOp23
 70
     1
102
RTVSPropertyOp24
 70
     1
102
RTVSPropertyOp25
 70
     1
102
RTVSPropertyOp26
 70
     1
102
RTVSPropertyOp27
 70
     1
  0
XRECORD
  5
687
102
{ACAD_REACTORS
330
686
102
}
330
686
100
AcDbXrecord
280
     1
102
RTVSPropertyOp0
 70
     1
102
RTVSPropertyOp1
 70
     1
102
RTVSPropertyOp2
 70
     1
102
RTVSPropertyOp3
 70
     1
102
RTVSPropertyOp4
 70
     1
102
RTVSPropertyOp5
 70
     1
102
RTVSPropertyOp6
 70
     1
102
RTVSPropertyOp7
 70
     1
102
RTVSPropertyOp8
 70
     1
102
RTVSPropertyOp9
 70
     1
102
RTVSPropertyOp10
 70
     1
102
RTVSPropertyOp11
 70
     1
102
RTVSPropertyOp12
 70
     1
102
RTVSPropertyOp13
 70
     1
102
RTVSPropertyOp14
 70
     1
102
RTVSPropertyOp15
 70
     1
102
RTVSPropertyOp16
 70
     1
102
RTVSPropertyOp17
 70
     1
102
RTVSPropertyOp18
 70
     1
102
RTVSPropertyOp19
 70
     1
102
RTVSPropertyOp20
 70
     1
102
RTVSPropertyOp21
 70
     1
102
RTVSPropertyOp22
 70
     1
102
RTVSPropertyOp23
 70
     1
102
RTVSPropertyOp24
 70
     1
102
RTVSPropertyOp25
 70
     1
102
RTVSPropertyOp26
 70
     1
102
RTVSPropertyOp27
 70
     1
  0
XRECORD
  5
689
102
{ACAD_REACTORS
330
688
102
}
330
688
100
AcDbXrecord
280
     1
102
RTVSPropertyOp0
 70
     1
102
RTVSPropertyOp1
 70
     1
102
RTVSPropertyOp2
 70
     1
102
RTVSPropertyOp3
 70
     1
102
RTVSPropertyOp4
 70
     1
102
RTVSPropertyOp5
 70
     1
102
RTVSPropertyOp6
 70
     1
102
RTVSPropertyOp7
 70
     1
102
RTVSPropertyOp8
 70
     1
102
RTVSPropertyOp9
 70
     1
102
RTVSPropertyOp10
 70
     1
102
RTVSPropertyOp11
 70
     1
102
RTVSPropertyOp12
 70
     1
102
RTVSPropertyOp13
 70
     1
102
RTVSPropertyOp14
 70
     1
102
RTVSPropertyOp15
 70
     1
102
RTVSPropertyOp16
 70
     1
102
RTVSPropertyOp17
 70
     1
102
RTVSPropertyOp18
 70
     1
102
RTVSPropertyOp19
 70
     1
102
RTVSPropertyOp20
 70
     1
102
RTVSPropertyOp21
 70
     1
102
RTVSPropertyOp22
 70
     1
102
RTVSPropertyOp23
 70
     1
102
RTVSPropertyOp24
 70
     1
102
RTVSPropertyOp25
 70
     1
102
RTVSPropertyOp26
 70
     1
102
RTVSPropertyOp27
 70
     1
  0
XRECORD
  5
6A3
102
{ACAD_REACTORS
330
6A2
102
}
330
6A2
100
AcDbXrecord
280
     1
102
RTVSPropertyOp0
 70
     0
102
RTVSPropertyOp1
 70
     0
102
RTVSPropertyOp2
 70
     0
102
RTVSPropertyOp3
 70
     0
102
RTVSPropertyOp4
 70
     0
102
RTVSPropertyOp5
 70
     0
102
RTVSPropertyOp6
 70
     0
102
RTVSPropertyOp7
 70
     0
102
RTVSPropertyOp8
 70
     0
102
RTVSPropertyOp9
 70
     0
102
RTVSPropertyOp10
 70
     0
102
RTVSPropertyOp11
 70
     0
102
RTVSPropertyOp12
 70
     0
102
RTVSPropertyOp13
 70
     0
102
RTVSPropertyOp14
 70
     2
102
RTVSPropertyOp15
 70
     0
102
RTVSPropertyOp16
 70
     0
102
RTVSPropertyOp17
 70
     0
102
RTVSPropertyOp18
 70
     0
102
RTVSPropertyOp19
 70
     0
102
RTVSPropertyOp20
 70
     0
102
RTVSPropertyOp21
 70
     0
102
RTVSPropertyOp22
 70
     0
102
RTVSPropertyOp23
 70
     0
102
RTVSPropertyOp24
 70
     0
102
RTVSPropertyOp25
 70
     0
102
RTVSPropertyOp26
 70
     0
102
RTVSPropertyOp27
 70
     0
  0
XRECORD
  5
69D
102
{ACAD_REACTORS
330
69C
102
}
330
69C
100
AcDbXrecord
280
     1
102
RTVSPropertyOp0
 70
     1
102
RTVSPropertyOp1
 70
     1
102
RTVSPropertyOp2
 70
     1
102
RTVSPropertyOp3
 70
     1
102
RTVSPropertyOp4
 70
     1
102
RTVSPropertyOp5
 70
     1
102
RTVSPropertyOp6
 70
     1
102
RTVSPropertyOp7
 70
     1
102
RTVSPropertyOp8
 70
     1
102
RTVSPropertyOp9
 70
     1
102
RTVSPropertyOp10
 70
     1
102
RTVSPropertyOp11
 70
     1
102
RTVSPropertyOp12
 70
     1
102
RTVSPropertyOp13
 70
     1
102
RTVSPropertyOp14
 70
     1
102
RTVSPropertyOp15
 70
     1
102
RTVSPropertyOp16
 70
     1
102
RTVSPropertyOp17
 70
     1
102
RTVSPropertyOp18
 70
     1
102
RTVSPropertyOp19
 70
     1
102
RTVSPropertyOp20
 70
     1
102
RTVSPropertyOp21
 70
     1
102
RTVSPropertyOp22
 70
     1
102
RTVSPropertyOp23
 70
     1
102
RTVSPropertyOp24
 70
     1
102
RTVSPropertyOp25
 70
     1
102
RTVSPropertyOp26
 70
     1
102
RTVSPropertyOp27
 70
     1
  0
XRECORD
  5
6A5
102
{ACAD_REACTORS
330
6A4
102
}
330
6A4
100
AcDbXrecord
280
     1
102
RTVSPropertyOp0
 70
     0
102
RTVSPropertyOp1
 70
     0
102
RTVSPropertyOp2
 70
     0
102
RTVSPropertyOp3
 70
     0
102
RTVSPropertyOp4
 70
     0
102
RTVSPropertyOp5
 70
     0
102
RTVSPropertyOp6
 70
     0
102
RTVSPropertyOp7
 70
     0
102
RTVSPropertyOp8
 70
     0
102
RTVSPropertyOp9
 70
     0
102
RTVSPropertyOp10
 70
     0
102
RTVSPropertyOp11
 70
     0
102
RTVSPropertyOp12
 70
     0
102
RTVSPropertyOp13
 70
     0
102
RTVSPropertyOp14
 70
     2
102
RTVSPropertyOp15
 70
     0
102
RTVSPropertyOp16
 70
     0
102
RTVSPropertyOp17
 70
     0
102
RTVSPropertyOp18
 70
     0
102
RTVSPropertyOp19
 70
     0
102
RTVSPropertyOp20
 70
     0
102
RTVSPropertyOp21
 70
     0
102
RTVSPropertyOp22
 70
     0
102
RTVSPropertyOp23
 70
     0
102
RTVSPropertyOp24
 70
     0
102
RTVSPropertyOp25
 70
     0
102
RTVSPropertyOp26
 70
     0
102
RTVSPropertyOp27
 70
     0
  0
XRECORD
  5
695
102
{ACAD_REACTORS
330
694
102
}
330
694
100
AcDbXrecord
280
     1
102
RTVSPropertyOp0
 70
     1
102
RTVSPropertyOp1
 70
     1
102
RTVSPropertyOp2
 70
     1
102
RTVSPropertyOp3
 70
     1
102
RTVSPropertyOp4
 70
     1
102
RTVSPropertyOp5
 70
     1
102
RTVSPropertyOp6
 70
     1
102
RTVSPropertyOp7
 70
     1
102
RTVSPropertyOp8
 70
     1
102
RTVSPropertyOp9
 70
     1
102
RTVSPropertyOp10
 70
     1
102
RTVSPropertyOp11
 70
     1
102
RTVSPropertyOp12
 70
     1
102
RTVSPropertyOp13
 70
     1
102
RTVSPropertyOp14
 70
     1
102
RTVSPropertyOp15
 70
     1
102
RTVSPropertyOp16
 70
     1
102
RTVSPropertyOp17
 70
     1
102
RTVSPropertyOp18
 70
     1
102
RTVSPropertyOp19
 70
     1
102
RTVSPropertyOp20
 70
     1
102
RTVSPropertyOp21
 70
     1
102
RTVSPropertyOp22
 70
     1
102
RTVSPropertyOp23
 70
     1
102
RTVSPropertyOp24
 70
     1
102
RTVSPropertyOp25
 70
     1
102
RTVSPropertyOp26
 70
     1
102
RTVSPropertyOp27
 70
     1
  0
XRECORD
  5
69B
102
{ACAD_REACTORS
330
69A
102
}
330
69A
100
AcDbXrecord
280
     1
102
RTVSPropertyOp0
 70
     1
102
RTVSPropertyOp1
 70
     1
102
RTVSPropertyOp2
 70
     1
102
RTVSPropertyOp3
 70
     1
102
RTVSPropertyOp4
 70
     1
102
RTVSPropertyOp5
 70
     1
102
RTVSPropertyOp6
 70
     1
102
RTVSPropertyOp7
 70
     1
102
RTVSPropertyOp8
 70
     1
102
RTVSPropertyOp9
 70
     1
102
RTVSPropertyOp10
 70
     1
102
RTVSPropertyOp11
 70
     1
102
RTVSPropertyOp12
 70
     1
102
RTVSPropertyOp13
 70
     1
102
RTVSPropertyOp14
 70
     1
102
RTVSPropertyOp15
 70
     1
102
RTVSPropertyOp16
 70
     1
102
RTVSPropertyOp17
 70
     1
102
RTVSPropertyOp18
 70
     1
102
RTVSPropertyOp19
 70
     1
102
RTVSPropertyOp20
 70
     1
102
RTVSPropertyOp21
 70
     1
102
RTVSPropertyOp22
 70
     1
102
RTVSPropertyOp23
 70
     1
102
RTVSPropertyOp24
 70
     1
102
RTVSPropertyOp25
 70
     1
102
RTVSPropertyOp26
 70
     1
102
RTVSPropertyOp27
 70
     1
  0
ENDSEC
  0
EOF
