  0
SECTION
  2
HEADER
  9
$ACADVER
  1
AC1015
  9
$ACADMAINTVER
 70
    20
  9
$DWGCODEPAGE
  3
ANSI_1252
  9
$INSBASE
 10
0.0
 20
0.0
 30
0.0
  9
$EXTMIN
 10
346.2171509985546
 20
221.7223838080213
 30
-0.0015258207003583
  9
$EXTMAX
 10
735.4687827579546
 20
434.0384383739883
 30
0.0000000349246037
  9
$LIMMIN
 10
0.0
 20
0.0
  9
$LIMMAX
 10
1189.0
 20
841.0
  9
$ORTHOMODE
 70
     0
  9
$REGENMODE
 70
     1
  9
$FILLMODE
 70
     1
  9
$QTEXTMODE
 70
     0
  9
$MIRRTEXT
 70
     0
  9
$LTSCALE
 40
65.395
  9
$ATTMODE
 70
     1
  9
$TEXTSIZE
 40
0.2
  9
$TRACEWID
 40
0.05
  9
$TEXTSTYLE
  7
STANDARD
  9
$CLAYER
  8
0
  9
$CELTYPE
  6
BYLAYER
  9
$CECOLOR
 62
   256
  9
$CELTSCALE
 40
1.0
  9
$DISPSILH
 70
     0
  9
$DIMSCALE
 40
1.0
  9
$DIMASZ
 40
3.5
  9
$DIMEXO
 40
7.43125
  9
$DIMDLI
 40
45.18199999999999
  9
$DIMRND
 40
0.0
  9
$DIMDLE
 40
0.0
  9
$DIMEXE
 40
21.402
  9
$DIMTP
 40
0.005
  9
$DIMTM
 40
0.005
  9
$DIMTXT
 40
3.5
  9
$DIMCEN
 40
10.701
  9
$DIMTSZ
 40
0.0
  9
$DIMTOL
 70
     1
  9
$DIMLIM
 70
     0
  9
$DIMTIH
 70
     1
  9
$DIMTOH
 70
     1
  9
$DIMSE1
 70
     0
  9
$DIMSE2
 70
     0
  9
$DIMTAD
 70
     0
  9
$DIMZIN
 70
     0
  9
$DIMBLK
  1
_FILLED
  9
$DIMASO
 70
     1
  9
$DIMSHO
 70
     1
  9
$DIMPOST
  1

  9
$DIMAPOST
  1

  9
$DIMALT
 70
     0
  9
$DIMALTD
 70
     2
  9
$DIMALTF
 40
25.4
  9
$DIMLFAC
 40
1.0
  9
$DIMTOFL
 70
     0
  9
$DIMTVP
 40
0.0
  9
$DIMTIX
 70
     0
  9
$DIMSOXD
 70
     0
  9
$DIMSAH
 70
     0
  9
$DIMBLK1
  1

  9
$DIMBLK2
  1

  9
$DIMSTYLE
  2
STANDARD
  9
$DIMCLRD
 70
     0
  9
$DIMCLRE
 70
     0
  9
$DIMCLRT
 70
     0
  9
$DIMTFAC
 40
1.0
  9
$DIMGAP
 40
0.09
  9
$DIMJUST
 70
     0
  9
$DIMSD1
 70
     0
  9
$DIMSD2
 70
     0
  9
$DIMTOLJ
 70
     1
  9
$DIMTZIN
 70
     0
  9
$DIMALTZ
 70
     0
  9
$DIMALTTZ
 70
     0
  9
$DIMUPT
 70
     0
  9
$DIMDEC
 70
     4
  9
$DIMTDEC
 70
     4
  9
$DIMALTU
 70
     2
  9
$DIMALTTD
 70
     2
  9
$DIMTXSTY
  7
STANDARD
  9
$DIMAUNIT
 70
     0
  9
$DIMADEC
 70
     0
  9
$DIMALTRND
 40
0.0
  9
$DIMAZIN
 70
     0
  9
$DIMDSEP
 70
    46
  9
$DIMATFIT
 70
     3
  9
$DIMFRAC
 70
     0
  9
$DIMLDRBLK
  1

  9
$DIMLUNIT
 70
     2
  9
$DIMLWD
 70
    -2
  9
$DIMLWE
 70
    -2
  9
$DIMTMOVE
 70
     0
  9
$LUNITS
 70
     2
  9
$LUPREC
 70
     2
  9
$SKETCHINC
 40
0.1
  9
$FILLETRAD
 40
0.0
  9
$AUNITS
 70
     0
  9
$AUPREC
 70
     0
  9
$MENU
  1
.
  9
$ELEVATION
 40
0.0
  9
$PELEVATION
 40
0.0
  9
$THICKNESS
 40
0.0
  9
$LIMCHECK
 70
     0
  9
$CHAMFERA
 40
0.0
  9
$CHAMFERB
 40
0.0
  9
$CHAMFERC
 40
0.0
  9
$CHAMFERD
 40
0.0
  9
$SKPOLY
 70
     0
  9
$TDCREATE
 40
2456324.650621922
  9
$TDUCREATE
 40
2456324.608955255
  9
$TDUPDATE
 40
2456324.652718623
  9
$TDUUPDATE
 40
2456324.611051956
  9
$TDINDWG
 40
0.0020970602
  9
$TDUSRTIMER
 40
0.0020970602
  9
$USRTIMER
 70
     1
  9
$ANGBASE
 50
0.0
  9
$ANGDIR
 70
     0
  9
$PDMODE
 70
     3
  9
$PDSIZE
 40
0.3125
  9
$PLINEWID
 40
0.0
  9
$SPLFRAME
 70
     0
  9
$SPLINETYPE
 70
     6
  9
$SPLINESEGS
 70
     8
  9
$HANDSEED
  5
5E4
  9
$SURFTAB1
 70
     6
  9
$SURFTAB2
 70
     6
  9
$SURFTYPE
 70
     6
  9
$SURFU
 70
     6
  9
$SURFV
 70
     6
  9
$UCSBASE
  2

  9
$UCSNAME
  2

  9
$UCSORG
 10
0.0
 20
0.0
 30
0.0
  9
$UCSXDIR
 10
1.0
 20
0.0
 30
0.0
  9
$UCSYDIR
 10
0.0
 20
1.0
 30
0.0
  9
$UCSORTHOREF
  2

  9
$UCSORTHOVIEW
 70
     0
  9
$UCSORGTOP
 10
0.0
 20
0.0
 30
0.0
  9
$UCSORGBOTTOM
 10
0.0
 20
0.0
 30
0.0
  9
$UCSORGLEFT
 10
0.0
 20
0.0
 30
0.0
  9
$UCSORGRIGHT
 10
0.0
 20
0.0
 30
0.0
  9
$UCSORGFRONT
 10
0.0
 20
0.0
 30
0.0
  9
$UCSORGBACK
 10
0.0
 20
0.0
 30
0.0
  9
$PUCSBASE
  2

  9
$PUCSNAME
  2

  9
$PUCSORG
 10
0.0
 20
0.0
 30
0.0
  9
$PUCSXDIR
 10
1.0
 20
0.0
 30
0.0
  9
$PUCSYDIR
 10
0.0
 20
1.0
 30
0.0
  9
$PUCSORTHOREF
  2

  9
$PUCSORTHOVIEW
 70
     0
  9
$PUCSORGTOP
 10
0.0
 20
0.0
 30
0.0
  9
$PUCSORGBOTTOM
 10
0.0
 20
0.0
 30
0.0
  9
$PUCSORGLEFT
 10
0.0
 20
0.0
 30
0.0
  9
$PUCSORGRIGHT
 10
0.0
 20
0.0
 30
0.0
  9
$PUCSORGFRONT
 10
0.0
 20
0.0
 30
0.0
  9
$PUCSORGBACK
 10
0.0
 20
0.0
 30
0.0
  9
$USERI1
 70
     0
  9
$USERI2
 70
     0
  9
$USERI3
 70
     0
  9
$USERI4
 70
     0
  9
$USERI5
 70
     0
  9
$USERR1
 40
0.0
  9
$USERR2
 40
0.0
  9
$USERR3
 40
0.0
  9
$USERR4
 40
0.0
  9
$USERR5
 40
0.0
  9
$WORLDVIEW
 70
     1
  9
$SHADEDGE
 70
     3
  9
$SHADEDIF
 70
    70
  9
$TILEMODE
 70
     1
  9
$MAXACTVP
 70
    64
  9
$PINSBASE
 10
0.0
 20
0.0
 30
0.0
  9
$PLIMCHECK
 70
     0
  9
$PEXTMIN
 10
1.000000000000000E+20
 20
1.000000000000000E+20
 30
1.000000000000000E+20
  9
$PEXTMAX
 10
-1.000000000000000E+20
 20
-1.000000000000000E+20
 30
-1.000000000000000E+20
  9
$PLIMMIN
 10
0.0
 20
0.0
  9
$PLIMMAX
 10
12.0
 20
9.0
  9
$UNITMODE
 70
     0
  9
$VISRETAIN
 70
     1
  9
$PLINEGEN
 70
     0
  9
$PSLTSCALE
 70
     1
  9
$TREEDEPTH
 70
  3020
  9
$CMLSTYLE
  2
Standard
  9
$CMLJUST
 70
     0
  9
$CMLSCALE
 40
1.0
  9
$PROXYGRAPHICS
 70
     1
  9
$MEASUREMENT
 70
     1
  9
$CELWEIGHT
370
    -1
  9
$ENDCAPS
280
     0
  9
$JOINSTYLE
280
     0
  9
$LWDISPLAY
290
     0
  9
$INSUNITS
 70
     4
  9
$HYPERLINKBASE
  1

  9
$STYLESHEET
  1

  9
$XEDIT
290
     1
  9
$CEPSNTYPE
380
     0
  9
$PSTYLEMODE
290
     1
  9
$FINGERPRINTGUID
  2
{6BA63586-68A0-4B57-9DBF-6B129FC91CEE}
  9
$VERSIONGUID
  2
{B1925E8D-0A7F-40C5-8C2F-676E5D3995F5}
  9
$EXTNAMES
290
     1
  9
$PSVPSCALE
 40
0.0
  9
$OLESTARTUP
290
     0
  0
ENDSEC
  0
SECTION
  2
CLASSES
  0
CLASS
  1
ACDBDICTIONARYWDFLT
  2
AcDbDictionaryWithDefault
  3
ObjectDBX Classes
 90
        0
280
     0
281
     0
  0
CLASS
  1
ACDBPLACEHOLDER
  2
AcDbPlaceHolder
  3
ObjectDBX Classes
 90
        0
280
     0
281
     0
  0
CLASS
  1
LAYOUT
  2
AcDbLayout
  3
ObjectDBX Classes
 90
        0
280
     0
281
     0
  0
CLASS
  1
MATERIAL
  2
AcDbMaterial
  3
ObjectDBX Classes
 90
     1153
280
     0
281
     0
  0
CLASS
  1
VISUALSTYLE
  2
AcDbVisualStyle
  3
ObjectDBX Classes
 90
     4095
280
     0
281
     0
  0
CLASS
  1
TABLESTYLE
  2
AcDbTableStyle
  3
ObjectDBX Classes
 90
     4095
280
     0
281
     0
  0
CLASS
  1
SCALE
  2
AcDbScale
  3
ObjectDBX Classes
 90
     1153
280
     0
281
     0
  0
CLASS
  1
MLEADERSTYLE
  2
AcDbMLeaderStyle
  3
ACDB_MLEADERSTYLE_CLASS
 90
     4095
280
     0
281
     0
  0
CLASS
  1
AMGSETTINGSOBJ
  2
AmgSettingsObj
  3
"AcadM|Product Description: AutoCAD Mechanical|Company: Autodesk, Inc."
 90
     1024
280
     0
281
     0
  0
CLASS
  1
ACME_DOCUMENT
  2
AcMeDbDoc
  3
AcMeServices
 90
     1024
280
     0
281
     0
  0
CLASS
  1
ACMESCOPE
  2
AcMeScope
  3
AcMeServices
 90
     1024
280
     0
281
     0
  0
CLASS
  1
ACMECOMMANDHISTORY
  2
AcMeCommandHistory
  3
AcMeServices
 90
     1024
280
     0
281
     0
  0
CLASS
  1
ACIMSYSVARMAN
  2
AcImSysVarManager
  3
AcMeServices
 90
     1024
280
     0
281
     0
  0
CLASS
  1
ACIMINTSYSVAR
  2
AcImIntSysVar
  3
AcMeServices
 90
     1024
280
     0
281
     0
  0
CLASS
  1
ACMEDRAWINGMAN
  2
AcMeDrawingMan
  3
AcMeServices
 90
     1024
280
     0
281
     0
  0
CLASS
  1
ACMEVIEW
  2
AcMeView
  3
AcMeServices
 90
     1024
280
     0
281
     0
  0
CLASS
  1
ACDBENTITYCACHE
  2
AcMeEntityCache
  3
AcMeServices
 90
     1024
280
     0
281
     0
  0
CLASS
  1
ACMESTATEMGR
  2
AcMeStateMgr
  3
AcMeServices
 90
     1024
280
     0
281
     0
  0
CLASS
  1
ACGREFMASTER
  2
AcGrefMaster
  3
AcAttribServices
 90
     1024
280
     0
281
     0
  0
CLASS
  1
AM_DRAWING_MGR
  2
AcDmDwgMgr
  3
AcMechDwgViewMgmt
 90
     1024
280
     0
281
     0
  0
CLASS
  1
AM_DWG_DOCUMENT
  2
AcDmDwgDocument
  3
AcMechDwgViewMgmt
 90
     1024
280
     0
281
     0
  0
CLASS
  1
AM_DWG_SHEET
  2
AcDmSheet
  3
AcMechDwgViewMgmt
 90
     1024
280
     0
281
     0
  0
CLASS
  1
AM_VIEWDIMPARMAP
  2
AcDmViewDimParMap
  3
AcMechDwgViewMgmt
 90
     1024
280
     0
281
     0
  0
CLASS
  1
AMDTINTERNALREACTOR
  2
AmdtInternalReactor
  3
AcMeServices
 90
     1024
280
     0
281
     0
  0
CLASS
  1
ACIMREALSYSVAR
  2
AcImRealSysVar
  3
AcMeServices
 90
     1024
280
     0
281
     0
  0
CLASS
  1
AM_DWGMGR_NAME
  2
AcDmDwgMgrName
  3
AcMechDwgViewMgmt
 90
     1024
280
     0
281
     0
  0
CLASS
  1
ACME_DATABASE
  2
AcMeDbDatabase
  3
AcMeServices
 90
     1024
280
     0
281
     0
  0
CLASS
  1
ACRFINSADJUSTERMGR
  2
AcRfInsAdjusterMgr
  3
AcMeServices
 90
     1024
280
     0
281
     0
  0
CLASS
  1
ACGREFACADMASTER
  2
AcGrefacadMaster
  3
AcGrefServices
 90
     1024
280
     0
281
     0
  0
CLASS
  1
AMDTMENUSTATEMGR
  2
AmdtMenuStateMgr
  3
McadcomServices
 90
     1024
280
     0
281
     0
  0
CLASS
  1
AMDTMCOMMENUSTATE
  2
AmdtMcomMenuState
  3
McadcomServices
 90
     1024
280
     0
281
     0
  0
CLASS
  1
AMIMASTER
  2
AmiMaster
  3
AmiServices
 90
     1024
280
     0
281
     0
  0
CLASS
  1
MAPIAMMOUDLE
  2
MApiAmModule
  3
MApiAmServices
 90
     1024
280
     0
281
     0
  0
CLASS
  1
ACIMSTRSYSVAR
  2
AcImStrSysVar
  3
AcMeServices
 90
     1024
280
     0
281
     0
  0
CLASS
  1
AMDTADMENUSTATE
  2
AmdtAdMenuState
  3
DesignerServices
 90
     1024
280
     0
281
     0
  0
CLASS
  1
ADAPPL
  2
AcAdAppl
  3
DesignerServices
 90
     1024
280
     0
281
     0
  0
CLASS
  1
DEPMGR
  2
AcAdDepMgr
  3
DesignerServices
 90
     1024
280
     0
281
     0
  0
CLASS
  1
PARAMMGR
  2
AcAdParamMgr
  3
DesignerServices
 90
     1024
280
     0
281
     0
  0
CLASS
  1
PARAMSCOPE
  2
AcAdParamScope
  3
DesignerServices
 90
     1024
280
     0
281
     0
  0
CLASS
  1
NAMEDAPPL
  2
AcAdNamedAppl
  3
DesignerServices
 90
     1024
280
     0
281
     0
  0
CLASS
  1
AMDTDMMENUSTATE
  2
AmdtDmMenuState
  3
AcMechDwgViewMgmt
 90
     1024
280
     0
281
     0
  0
CLASS
  1
AMDTAMMENUSTATE
  2
AmdtAmMenuState
  3
DesignerAssemblies
 90
     1024
280
     0
281
     0
  0
CLASS
  1
ACAMPROJECT
  2
AcAmProject
  3
DesignerAssemblies
 90
     1024
280
     0
281
     0
  0
CLASS
  1
ACAMGRCOMPDEF
  2
AcAmGrCompDef
  3
DesignerAssemblies
 90
     1024
280
     0
281
     0
  0
CLASS
  1
ACAMCOMPDEF
  2
AcAmCompDef
  3
DesignerAssemblies
 90
     1024
280
     0
281
     0
  0
CLASS
  1
ACAMCOMPDEFMGR
  2
AcAmCompDefMgr
  3
DesignerAssemblies
 90
     1024
280
     0
281
     0
  0
CLASS
  1
AMCONTEXTMGR
  2
AcAmContextMgr
  3
DesignerAssemblies
 90
     1024
280
     0
281
     0
  0
CLASS
  1
ACAMCONTEXTMODELER
  2
AcAmContextModeler
  3
DesignerAssemblies
 90
     1024
280
     0
281
     0
  0
CLASS
  1
ACMDATADICTIONARY
  2
AcmDataDictionary
  3
"AcmSymBB|Product Description: AutoCAD Mechanical|Company: Autodesk, Inc."
 90
     1024
280
     0
281
     0
  0
CLASS
  1
CATALOGSTATE
  2
AcAmCatalogState
  3
DesignerAssemblies
 90
     1024
280
     0
281
     0
  0
CLASS
  1
ACAMGRCOMPDEFSET
  2
AcAmGrCompDefSet
  3
DesignerAssemblies
 90
     1024
280
     0
281
     0
  0
CLASS
  1
AMDTBROWSERDBTAB
  2
AmdtBrowserDbTab
  3
McadcomServices
 90
     1024
280
     0
281
     0
  0
CLASS
  1
CBROWSERAPPOBJECT
  2
CBrowserAppObject
  3
McadcomServices
 90
     1024
280
     0
281
     0
  0
CLASS
  1
DM_PLACEHOLDER
  2
AcDmSelsetPlaceholder
  3
AcMechDwgViewMgmt
 90
     1024
280
     0
281
     0
  0
CLASS
  1
ACMSTANDARDDIN
  2
AcmStandardDIN
  3
"Amdt_StdImp|Product Description: AutoCAD Mechanical|Company: Autodesk, Inc."
 90
     1024
280
     0
281
     0
  0
CLASS
  1
AMDTEDGESTANDARDDIN13715
  2
AmdtEdgeStdDIN13715
  3
"Amdt_StdImp|Product Description: AutoCAD Mechanical|Company: Autodesk, Inc."
 90
     1024
280
     0
281
     0
  0
CLASS
  1
ACMSURFSTANDARDDIN2002
  2
AcmSurfTextStdDIN2002
  3
"Amdt_StdImp|Product Description: AutoCAD Mechanical|Company: Autodesk, Inc."
 90
     1024
280
     0
281
     0
  0
CLASS
  1
ACMFCFSTANDARDDIN
  2
AcmFCFStdDIN
  3
"Amdt_StdImp|Product Description: AutoCAD Mechanical|Company: Autodesk, Inc."
 90
     1024
280
     0
281
     0
  0
CLASS
  1
ACMWELDSTANDARDDIN
  2
AcmWeldingStdDIN
  3
"Amdt_StdImp|Product Description: AutoCAD Mechanical|Company: Autodesk, Inc."
 90
     1024
280
     0
281
     0
  0
CLASS
  1
ACMIDSTANDARDDIN
  2
AcmIdStdDIN
  3
"Amdt_StdImp|Product Description: AutoCAD Mechanical|Company: Autodesk, Inc."
 90
     1024
280
     0
281
     0
  0
CLASS
  1
ACMDATUMSTANDARDDIN
  2
AcmDatumStdDIN
  3
"Amdt_StdImp|Product Description: AutoCAD Mechanical|Company: Autodesk, Inc."
 90
     1024
280
     0
281
     0
  0
CLASS
  1
ACMBOMSTANDARDDIN
  2
AcmBOMStdDIN
  3
"Amdt_StdImp|Product Description: AutoCAD Mechanical|Company: Autodesk, Inc."
 90
     1024
280
     0
281
     0
  0
CLASS
  1
ACMDETAILSTANDARDDIN
  2
AmdtDetailSymStdDIN
  3
"Amdt_StdImp|Product Description: AutoCAD Mechanical|Company: Autodesk, Inc."
 90
     1024
280
     0
281
     0
  0
CLASS
  1
ACMSECTIONSTANDARDDIN
  2
AmdtSectionSymStdDIN
  3
"Amdt_StdImp|Product Description: AutoCAD Mechanical|Company: Autodesk, Inc."
 90
     1024
280
     0
281
     0
  0
CLASS
  1
ACMCENTERLINESTANDARDDIN
  2
AmdtCenterLineStdDIN
  3
"Amdt_StdImp|Product Description: AutoCAD Mechanical|Company: Autodesk, Inc."
 90
     1024
280
     0
281
     0
  0
CLASS
  1
ACMTHREADLINESTANDARDDIN
  2
AmdtThreadLineStdDIN
  3
"Amdt_StdImp|Product Description: AutoCAD Mechanical|Company: Autodesk, Inc."
 90
     1024
280
     0
281
     0
  0
CLASS
  1
ACMNOTESTANDARDDIN
  2
AmdtNoteStdDIN
  3
"Amdt_StdImp|Product Description: AutoCAD Mechanical|Company: Autodesk, Inc."
 90
     1024
280
     0
281
     0
  0
CLASS
  1
ACMTAPERSTANDARDDIN
  2
AcmTaperStdDIN
  3
"Amdt_StdImp|Product Description: AutoCAD Mechanical|Company: Autodesk, Inc."
 90
     1024
280
     0
281
     0
  0
CLASS
  1
ACMANOOTATIONVIEWSTANDARDDIN
  2
AmdtAnViewStdDIN
  3
"Amdt_StdImp|Product Description: AutoCAD Mechanical|Company: Autodesk, Inc."
 90
     1024
280
     0
281
     0
  0
CLASS
  1
ACAMGLAYSTD
  2
AcAmgLayStd
  3
"AmgLay|Product Description: AutoCAD Mechanical|Company: Autodesk, Inc."
 90
     1024
280
     0
281
     0
  0
CLASS
  1
ACAMGDIMSTD
  2
AcAmgDimStd
  3
"AmgDim|Product Description: AutoCAD Mechanical|Company: Autodesk, Inc."
 90
     1024
280
     0
281
     0
  0
CLASS
  1
AMGOBJPROPCFG
  2
AmgObjPropCfg
  3
"AmgLay|Product Description: AutoCAD Mechanical|Company: Autodesk, Inc."
 90
     1025
280
     0
281
     0
  0
CLASS
  1
ACAMGHOLECHARTSTDDIN
  2
AcAmgHoleChartStdDIN
  3
AmgDim|Product Description: AutoCAD Mechanical|Company: Autodesk, Inc.
 90
     1024
280
     0
281
     0
  0
CLASS
  1
ACAMGTITLESTD
  2
AcAmgTitleStd
  3
"AmgTitle|Product Description: AutoCAD Mechanical|Company: Autodesk, Inc."
 90
     4095
280
     0
281
     0
  0
CLASS
  1
AMDTNOTETEMPLATEDB
  2
AmdtNoteTemplateDB
  3
AcmSymBB|Product Description: AutoCAD Mechanical|Company: Autodesk, Inc.
 90
     1024
280
     0
281
     0
  0
CLASS
  1
ACAMGFILTERDAT
  2
AcAmgFilterDat
  3
"AcadM|Product Description: AutoCAD Mechanical|Company: Autodesk, Inc."
 90
     1024
280
     0
281
     0
  0
CLASS
  1
DICTIONARYVAR
  2
AcDbDictionaryVar
  3
ObjectDBX Classes
 90
        0
280
     0
281
     0
  0
CLASS
  1
CELLSTYLEMAP
  2
AcDbCellStyleMap
  3
ObjectDBX Classes
 90
     1152
280
     0
281
     0
  0
ENDSEC
  0
SECTION
  2
TABLES
  0
TABLE
  2
VPORT
  5
8
330
0
100
AcDbSymbolTable
 70
     1
  0
VPORT
  5
1F4
330
8
100
AcDbSymbolTableRecord
100
AcDbViewportTableRecord
  2
*ACTIVE
 70
     0
 10
0.0
 20
0.0
 11
1.0
 21
1.0
 12
540.8429668782544
 22
327.8804110910048
 13
0.0
 23
0.0
 14
1.0
 24
1.0
 15
0.0
 25
0.0
 16
0.0
 26
0.0
 36
1.0
 17
0.0
 27
0.0
 37
0.0
 40
213.8165213826877
 41
1.850235849056603
 42
50.0
 43
0.0
 44
0.0
 50
0.0
 51
0.0
 71
     0
 72
   100
 73
     1
 74
     1
 75
     0
 76
     0
 77
     0
 78
     0
281
     0
 65
     0
110
0.0
120
0.0
130
0.0
111
1.0
121
0.0
131
0.0
112
0.0
122
1.0
132
0.0
 79
     0
146
0.0
  0
ENDTAB
  0
TABLE
  2
LTYPE
  5
5
330
0
100
AcDbSymbolTable
 70
    23
  0
LTYPE
  5
14
330
5
100
AcDbSymbolTableRecord
100
AcDbLinetypeTableRecord
  2
BYBLOCK
 70
     0
  3

 72
    65
 73
     0
 40
0.0
  0
LTYPE
  5
15
330
5
100
AcDbSymbolTableRecord
100
AcDbLinetypeTableRecord
  2
BYLAYER
 70
     0
  3

 72
    65
 73
     0
 40
0.0
  0
LTYPE
  5
16
330
5
100
AcDbSymbolTableRecord
100
AcDbLinetypeTableRecord
  2
CONTINUOUS
 70
     0
  3
Solid line
 72
    65
 73
     0
 40
0.0
  0
LTYPE
  5
1F5
330
5
100
AcDbSymbolTableRecord
100
AcDbLinetypeTableRecord
  2
CENTER
 70
     0
  3
____ _ ____ _ ____ _ ____ _ ____ _ ____ _ ____
 72
    65
 73
     4
 40
0.6
 49
0.375
 74
     0
 49
-0.075
 74
     0
 49
0.075
 74
     0
 49
-0.075
 74
     0
  0
LTYPE
  5
1F6
330
5
100
AcDbSymbolTableRecord
100
AcDbLinetypeTableRecord
  2
HIDDEN
 70
     0
  3
- - - - - - - - - - - - - - - - - - - -
 72
    65
 73
     2
 40
0.2
 49
0.1
 74
     0
 49
-0.1
 74
     0
  0
LTYPE
  5
1F7
330
5
100
AcDbSymbolTableRecord
100
AcDbLinetypeTableRecord
  2
PHANTOM
 70
     0
  3
_____ _ _ _____ _ _ _____ _ _ _____
 72
    65
 73
     6
 40
0.8
 49
0.45
 74
     0
 49
-0.05
 74
     0
 49
0.1
 74
     0
 49
-0.05
 74
     0
 49
0.1
 74
     0
 49
-0.05
 74
     0
  0
LTYPE
  5
1F8
330
5
100
AcDbSymbolTableRecord
100
AcDbLinetypeTableRecord
  2
DOT
 70
     0
  3
. . . . . . . . . . . . . . . . . . . .
 72
    65
 73
     2
 40
0.2
 49
0.1
 74
     0
 49
-0.1
 74
     0
  0
LTYPE
  5
1F9
330
5
100
AcDbSymbolTableRecord
100
AcDbLinetypeTableRecord
  2
DASHED
 70
     0
  3
- - - - - - - - - - - - - - - - - - - -
 72
    65
 73
     2
 40
0.2
 49
0.1
 74
     0
 49
-0.1
 74
     0
  0
LTYPE
  5
490
330
5
100
AcDbSymbolTableRecord
100
AcDbLinetypeTableRecord
  2
PHANTOM2
 70
     0
  3
Phantom (.5x) ___ _ _ ___ _ _ ___ _ _ ___ _ _
 72
    65
 73
     6
 40
31.75
 49
15.875
 74
     0
 49
-3.174999999999999
 74
     0
 49
3.174999999999999
 74
     0
 49
-3.174999999999999
 74
     0
 49
3.174999999999999
 74
     0
 49
-3.174999999999999
 74
     0
  0
LTYPE
  5
4D6
330
5
100
AcDbSymbolTableRecord
100
AcDbLinetypeTableRecord
  2
AM_ISO02W050
 70
     0
  3
__ __ __ __ __ __ __ __ __ __ __ __ __ __ __
 72
    65
 73
     2
 40
7.5
 49
6.0
 74
     0
 49
-1.5
 74
     0
  0
LTYPE
  5
4D7
330
5
100
AcDbSymbolTableRecord
100
AcDbLinetypeTableRecord
  2
AM_ISO08W050
 70
     0
  3
____ . ____ . ____ . ____ . ____ . ____ . ____
 72
    65
 73
     4
 40
18.0
 49
12.0
 74
     0
 49
-1.5
 74
     0
 49
3.0
 74
     0
 49
-1.5
 74
     0
  0
LTYPE
  5
4D8
330
5
100
AcDbSymbolTableRecord
100
AcDbLinetypeTableRecord
  2
AM_ISO09W050
 70
     0
  3
_____ . . _____ . . _____ . . ____ .. ____
 72
    65
 73
     6
 40
22.5
 49
12.0
 74
     0
 49
-1.5
 74
     0
 49
3.0
 74
     0
 49
-1.5
 74
     0
 49
3.0
 74
     0
 49
-1.5
 74
     0
  0
LTYPE
  5
4D9
330
5
100
AcDbSymbolTableRecord
100
AcDbLinetypeTableRecord
  2
Amconstr
 70
     0
  3
_______________________
 72
    65
 73
     2
 40
9999.0
 49
9999.0
 74
     0
 49
0.0
 74
     0
  0
LTYPE
  5
4DA
330
5
100
AcDbSymbolTableRecord
100
AcDbLinetypeTableRecord
  2
AM_ISO08W050x2
 70
     0
  3
__ . __ . __ . __ . __ . __
 72
    65
 73
     4
 40
9.0
 49
6.0
 74
     0
 49
-0.75
 74
     0
 49
1.5
 74
     0
 49
-0.75
 74
     0
  0
LTYPE
  5
4DB
330
5
100
AcDbSymbolTableRecord
100
AcDbLinetypeTableRecord
  2
AM_ISO02W050x2
 70
     0
  3
 _ _ _ _ _ _ _ _ _ _ _ _
 72
    65
 73
     2
 40
3.75
 49
3.0
 74
     0
 49
-0.75
 74
     0
  0
LTYPE
  5
4DE
330
5
100
AcDbSymbolTableRecord
100
AcDbLinetypeTableRecord
  2
Amzigzag
 70
     0
  3
/\/-/\/-/\/-/\/-/\/-/\/
 72
    65
 73
     2
 40
11.0001
 49
0.0001
 74
     4
 75
   136
340
4DD
 46
0.04
 50
0.0
 44
0.0
 45
0.0
 49
-11.0
 74
     0
  0
LTYPE
  5
4DF
330
5
100
AcDbSymbolTableRecord
100
AcDbLinetypeTableRecord
  2
AM_DIN_F_W050
 70
     0
  3
__ __ __ __ __ __ __ __ __ __ __ __ __ __ __
 72
    65
 73
     2
 40
6.25
 49
4.75
 74
     0
 49
-1.5
 74
     0
  0
LTYPE
  5
4E0
330
5
100
AcDbSymbolTableRecord
100
AcDbLinetypeTableRecord
  2
AM_DIN_G_W050
 70
     0
  3
____ . ____ . ____ . ____ . ____ . ____ . ____
 72
    65
 73
     4
 40
13.75
 49
9.75
 74
     0
 49
-1.5
 74
     0
 49
1.0
 74
     0
 49
-1.5
 74
     0
  0
LTYPE
  5
4E1
330
5
100
AcDbSymbolTableRecord
100
AcDbLinetypeTableRecord
  2
AM_DIN_K_W050
 70
     0
  3
_____ . . _____ . . _____ . . ____ .. ____
 72
    65
 73
     6
 40
16.25
 49
9.75
 74
     0
 49
-1.5
 74
     0
 49
1.0
 74
     0
 49
-1.5
 74
     0
 49
1.0
 74
     0
 49
-1.5
 74
     0
  0
LTYPE
  5
4E2
330
5
100
AcDbSymbolTableRecord
100
AcDbLinetypeTableRecord
  2
AM_DIN_G_W050x2
 70
     0
  3
__ . __ . __ . __ . __ . __
 72
    65
 73
     4
 40
6.875
 49
4.75
 74
     0
 49
-0.875
 74
     0
 49
0.375
 74
     0
 49
-0.875
 74
     0
  0
LTYPE
  5
4E3
330
5
100
AcDbSymbolTableRecord
100
AcDbLinetypeTableRecord
  2
AM_DIN_F_W050x2
 70
     0
  3
 _ _ _ _ _ _ _ _ _ _ _ _
 72
    65
 73
     2
 40
3.125
 49
2.25
 74
     0
 49
-0.875
 74
     0
  0
LTYPE
  5
4F2
330
5
100
AcDbSymbolTableRecord
100
AcDbLinetypeTableRecord
  2
ACDINWELD
 70
     0
  3
_ _ _ _ _
 72
    65
 73
     2
 40
2.0
 49
2.0
 74
     0
 49
-1.0
 74
     0
  0
LTYPE
  5
4F3
330
5
100
AcDbSymbolTableRecord
100
AcDbLinetypeTableRecord
  2
ACDINTGB
 70
     0
  3
__ . . __ . .
 72
    65
 73
     6
 40
9.0
 49
4.0
 74
     0
 49
-1.0
 74
     0
 49
1.0
 74
     0
 49
-1.0
 74
     0
 49
1.0
 74
     0
 49
-1.0
 74
     0
  0
LTYPE
  5
4F4
330
5
100
AcDbSymbolTableRecord
100
AcDbLinetypeTableRecord
  2
ACDINTGL
 70
     0
  3
_ _ _ _ _
 72
    65
 73
     2
 40
3.0
 49
2.0
 74
     0
 49
-1.0
 74
     0
  0
ENDTAB
  0
TABLE
  2
LAYER
  5
2
330
0
100
AcDbSymbolTable
 70
    24
  0
LAYER
  5
10
330
2
100
AcDbSymbolTableRecord
100
AcDbLayerTableRecord
  2
0
 70
     0
 62
     7
  6
CONTINUOUS
370
    -3
390
F
  0
LAYER
  5
1FA
330
2
100
AcDbSymbolTableRecord
100
AcDbLayerTableRecord
  2
DEFAULT_1
 70
     0
 62
     7
  6
CENTER
370
    -3
390
F
  0
LAYER
  5
1FB
330
2
100
AcDbSymbolTableRecord
100
AcDbLayerTableRecord
  2
DEFAULT_2
 70
     0
 62
     8
  6
HIDDEN
370
    -3
390
F
  0
LAYER
  5
1FC
330
2
100
AcDbSymbolTableRecord
100
AcDbLayerTableRecord
  2
DEFAULT_3
 70
     0
 62
     7
  6
PHANTOM
370
    -3
390
F
  0
LAYER
  5
1FD
330
2
100
AcDbSymbolTableRecord
100
AcDbLayerTableRecord
  2
3D_TEIL_NOTIZ
 70
     0
 62
     7
  6
CONTINUOUS
370
    -3
390
F
  0
LAYER
  5
1FE
330
2
100
AcDbSymbolTableRecord
100
AcDbLayerTableRecord
  2
ACHSEN
 70
     0
 62
     7
  6
CONTINUOUS
370
    -3
390
F
  0
LAYER
  5
1FF
330
2
100
AcDbSymbolTableRecord
100
AcDbLayerTableRecord
  2
AUSFORMSCHRAEGEN
 70
     0
 62
     7
  6
CONTINUOUS
370
    -3
390
F
  0
LAYER
  5
200
330
2
100
AcDbSymbolTableRecord
100
AcDbLayerTableRecord
  2
BEZUG
 70
     0
 62
     7
  6
CONTINUOUS
370
    -3
390
F
  0
LAYER
  5
201
330
2
100
AcDbSymbolTableRecord
100
AcDbLayerTableRecord
  2
BEZUGSACHSEN
 70
     0
 62
     7
  6
CONTINUOUS
370
    -3
390
F
  0
LAYER
  5
202
330
2
100
AcDbSymbolTableRecord
100
AcDbLayerTableRecord
  2
BEZUGSEBENEN
 70
     0
 62
     7
  6
CONTINUOUS
370
    -3
390
F
  0
LAYER
  5
203
330
2
100
AcDbSymbolTableRecord
100
AcDbLayerTableRecord
  2
BG_STARTBEZUEGE
 70
     0
 62
     7
  6
CONTINUOUS
370
    -3
390
F
  0
LAYER
  5
204
330
2
100
AcDbSymbolTableRecord
100
AcDbLayerTableRecord
  2
BOHRUNGEN
 70
     0
 62
     7
  6
CONTINUOUS
370
    -3
390
F
  0
LAYER
  5
205
330
2
100
AcDbSymbolTableRecord
100
AcDbLayerTableRecord
  2
DATUMS
 70
     0
 62
     7
  6
CONTINUOUS
370
    -3
390
F
  0
LAYER
  5
206
330
2
100
AcDbSymbolTableRecord
100
AcDbLayerTableRecord
  2
DETAILS
 70
     0
 62
     7
  6
CONTINUOUS
370
    -3
390
F
  0
LAYER
  5
207
330
2
100
AcDbSymbolTableRecord
100
AcDbLayerTableRecord
  2
FASEN
 70
     0
 62
     7
  6
CONTINUOUS
370
    -3
390
F
  0
LAYER
  5
208
330
2
100
AcDbSymbolTableRecord
100
AcDbLayerTableRecord
  2
GEWINDE
 70
     0
 62
     7
  6
CONTINUOUS
370
    -3
390
F
  0
LAYER
  5
209
330
2
100
AcDbSymbolTableRecord
100
AcDbLayerTableRecord
  2
HILFEN
 70
     0
 62
     7
  6
CONTINUOUS
370
    -3
390
F
  0
LAYER
  5
20A
330
2
100
AcDbSymbolTableRecord
100
AcDbLayerTableRecord
  2
KURVEN
 70
     0
 62
     7
  6
CONTINUOUS
370
    -3
390
F
  0
LAYER
  5
20B
330
2
100
AcDbSymbolTableRecord
100
AcDbLayerTableRecord
  2
PLATZIERUNG
 70
     0
 62
     7
  6
CONTINUOUS
370
    -3
390
F
  0
LAYER
  5
20C
330
2
100
AcDbSymbolTableRecord
100
AcDbLayerTableRecord
  2
PLAZIERUNG
 70
     0
 62
     7
  6
CONTINUOUS
370
    -3
390
F
  0
LAYER
  5
20D
330
2
100
AcDbSymbolTableRecord
100
AcDbLayerTableRecord
  2
RUNDUNGEN
 70
     0
 62
     7
  6
CONTINUOUS
370
    -3
390
F
  0
LAYER
  5
20E
330
2
100
AcDbSymbolTableRecord
100
AcDbLayerTableRecord
  2
TEIL_STARTBEZUEGE
 70
     0
 62
     7
  6
CONTINUOUS
370
    -3
390
F
  0
LAYER
  5
20F
330
2
100
AcDbSymbolTableRecord
100
AcDbLayerTableRecord
  2
ZEICHNUNGSBEMASSUNGEN
 70
     0
 62
     7
  6
CONTINUOUS
370
    -3
390
F
  0
LAYER
  5
502
330
2
100
AcDbSymbolTableRecord
100
AcDbLayerTableRecord
  2
Defpoints
 70
     0
 62
     7
  6
CONTINUOUS
290
     0
370
    -3
390
F
  0
ENDTAB
  0
TABLE
  2
STYLE
  5
3
330
0
100
AcDbSymbolTable
 70
     6
  0
STYLE
  5
11
330
3
100
AcDbSymbolTableRecord
100
AcDbTextStyleTableRecord
  2
STANDARD
 70
     0
 40
0.0
 41
0.7
 50
0.0
 71
     0
 42
0.2
  3
txt
  4

  0
STYLE
  5
210
330
3
100
AcDbSymbolTableRecord
100
AcDbTextStyleTableRecord
  2
TEXTSTYLE_1
 70
     0
 40
0.0
 41
0.8
 50
0.0
 71
     0
 42
0.2
  3
gdt
  4

  0
STYLE
  5
211
330
3
100
AcDbSymbolTableRecord
100
AcDbTextStyleTableRecord
  2
TEXTSTYLE_2
 70
     0
 40
0.0
 41
0.7
 50
0.0
 71
     0
 42
0.2
  3
gdt
  4

  0
STYLE
  5
4DD
330
3
100
AcDbSymbolTableRecord
100
AcDbTextStyleTableRecord
  2

 70
     1
 40
0.0
 41
1.0
 50
0.0
 71
     0
 42
0.2
  3
genltshp.shx
  4

  0
STYLE
  5
4F0
330
3
100
AcDbSymbolTableRecord
100
AcDbTextStyleTableRecord
  2
ACDINTS
 70
     0
 40
1.0
 41
1.0
 50
0.0
 71
     0
 42
0.2
  3
isocp.shx
  4

  0
STYLE
  5
4F1
330
3
100
AcDbSymbolTableRecord
100
AcDbTextStyleTableRecord
  2
ACDINGDT
 70
     0
 40
0.0
 41
1.0
 50
0.0
 71
     0
 42
0.2
  3
amgdt.shx
  4

  0
ENDTAB
  0
TABLE
  2
VIEW
  5
6
330
0
100
AcDbSymbolTable
 70
     0
  0
ENDTAB
  0
TABLE
  2
UCS
  5
7
330
0
100
AcDbSymbolTable
 70
     0
  0
ENDTAB
  0
TABLE
  2
APPID
  5
9
330
0
100
AcDbSymbolTable
 70
    21
  0
APPID
  5
212
330
9
100
AcDbSymbolTableRecord
100
AcDbRegAppTableRecord
  2
ACAD
 70
     0
  0
APPID
  5
465
330
9
100
AcDbSymbolTableRecord
100
AcDbRegAppTableRecord
  2
MCAD_NO_VIS
 70
     0
  0
APPID
  5
466
330
9
100
AcDbSymbolTableRecord
100
AcDbRegAppTableRecord
  2
ACAD_TEMP_GRAPHIC
 70
     0
  0
APPID
  5
492
330
9
100
AcDbSymbolTableRecord
100
AcDbRegAppTableRecord
  2
AD_DRAW
 70
     0
  0
APPID
  5
495
330
9
100
AcDbSymbolTableRecord
100
AcDbRegAppTableRecord
  2
ACATTRIBSERVICES
 70
     0
  0
APPID
  5
4B5
330
9
100
AcDbSymbolTableRecord
100
AcDbRegAppTableRecord
  2
DESIGNERASSEMBLIES
 70
     0
  0
APPID
  5
4BB
330
9
100
AcDbSymbolTableRecord
100
AcDbRegAppTableRecord
  2
ACADM_DIM_EDIT
 70
     0
  0
APPID
  5
4BC
330
9
100
AcDbSymbolTableRecord
100
AcDbRegAppTableRecord
  2
AMDT_DM_ADJ
 70
     0
  0
APPID
  5
4D3
330
9
100
AcDbSymbolTableRecord
100
AcDbRegAppTableRecord
  2
ACAD_DSTYLE_DIMJAG
 70
     0
  0
APPID
  5
4D4
330
9
100
AcDbSymbolTableRecord
100
AcDbRegAppTableRecord
  2
ACAD_DSTYLE_DIMBREAK
 70
     0
  0
APPID
  5
503
330
9
100
AcDbSymbolTableRecord
100
AcDbRegAppTableRecord
  2
AcAecLayerStandard
 70
     0
  0
APPID
  5
504
330
9
100
AcDbSymbolTableRecord
100
AcDbRegAppTableRecord
  2
GENIUS_GENODEF_13
 70
     0
  0
APPID
  5
505
330
9
100
AcDbSymbolTableRecord
100
AcDbRegAppTableRecord
  2
GENIUS_GENOBJ-N-HTC_13
 70
     0
  0
APPID
  5
506
330
9
100
AcDbSymbolTableRecord
100
AcDbRegAppTableRecord
  2
GENIUS_GENHATCH_13
 70
     0
  0
APPID
  5
507
330
9
100
AcDbSymbolTableRecord
100
AcDbRegAppTableRecord
  2
ACAD_EXEMPT_FROM_CAD_STANDARDS
 70
     0
  0
APPID
  5
508
330
9
100
AcDbSymbolTableRecord
100
AcDbRegAppTableRecord
  2
ACAD_MLEADERVER
 70
     0
  0
APPID
  5
509
330
9
100
AcDbSymbolTableRecord
100
AcDbRegAppTableRecord
  2
ACAD_DSTYLE_DIMJOGGED_JOGANGLE_SYMBOL
 70
     0
  0
APPID
  5
50A
330
9
100
AcDbSymbolTableRecord
100
AcDbRegAppTableRecord
  2
ACAD_DSTYLE_DIM_LINETYPE
 70
     0
  0
APPID
  5
50B
330
9
100
AcDbSymbolTableRecord
100
AcDbRegAppTableRecord
  2
ACAD_DSTYLE_DIM_EXT1_LINETYPE
 70
     0
  0
APPID
  5
50C
330
9
100
AcDbSymbolTableRecord
100
AcDbRegAppTableRecord
  2
ACAD_DSTYLE_DIM_EXT2_LINETYPE
 70
     0
  0
APPID
  5
50D
330
9
100
AcDbSymbolTableRecord
100
AcDbRegAppTableRecord
  2
ACAD_DSTYLE_DIMINSPECT
 70
     0
  0
ENDTAB
  0
TABLE
  2
DIMSTYLE
  5
A
330
0
100
AcDbSymbolTable
 70
    12
100
AcDbDimStyleTable
 71
     2
340
21B
340
21D
  0
DIMSTYLE
105
21B
330
A
100
AcDbSymbolTableRecord
100
AcDbDimStyleTableRecord
  2
STANDARD
 70
     0
 41
3.5
 47
0.005
 48
0.005
 71
     1
 73
     0
 74
     0
 77
     1
 78
     8
140
3.5
178
     5
271
     3
272
     3
284
     8
340
11
341
215
342
215
343
215
344
215
  0
DIMSTYLE
105
21C
330
A
100
AcDbSymbolTableRecord
100
AcDbDimStyleTableRecord
  2
DIMSTYLE_1
 70
     0
 41
3.5
 47
0.5
 48
0.5
 73
     0
 74
     0
 77
     1
 78
     8
140
3.5
178
     5
271
     0
272
     0
284
     8
340
11
341
215
342
215
343
215
344
215
  0
DIMSTYLE
105
21D
102
{ACAD_REACTORS
330
253
330
252
330
255
330
254
330
256
102
}
330
A
100
AcDbSymbolTableRecord
100
AcDbDimStyleTableRecord
  2
DIMSTYLE_2
 70
     0
 41
3.5
 47
0.3
 48
0.3
 73
     0
 74
     0
 77
     1
 78
     8
140
3.5
178
     5
271
     0
272
     0
284
     8
340
11
341
215
342
215
343
215
344
215
  0
DIMSTYLE
105
21E
330
A
100
AcDbSymbolTableRecord
100
AcDbDimStyleTableRecord
  2
DIMSTYLE_3
 70
     0
 41
3.5
 47
0.5
 48
0.5
 73
     0
 74
     0
 77
     1
 78
     8
140
3.5
178
     5
271
     3
272
     3
284
     8
340
11
341
215
342
215
343
215
344
215
  0
DIMSTYLE
105
4D2
102
{ACAD_REACTORS
330
4C1
102
}
330
A
100
AcDbSymbolTableRecord
100
AcDbDimStyleTableRecord
  2
AM_DIN
 70
     0
  4
"
 41
3.5
 42
1.0
 43
10.0
 44
1.0
 47
0.1
 48
0.1
 73
     0
 74
     0
 77
     1
 78
     8
 79
     2
140
3.5
141
0.0
143
0.0393701
146
0.71
147
1.5
172
     1
176
   256
177
   256
178
     2
271
     2
272
     3
274
     4
283
     0
284
     8
340
11
371
    -1
372
    -1
1001
ACAD_DSTYLE_DIMJAG
1070
   388
1040
1.5
1001
ACAD_DSTYLE_DIMBREAK
1070
   391
1040
3.75
1001
ACAD_DSTYLE_DIMJOGGED_JOGANGLE_SYMBOL
1070
   384
1040
1.570796326794896
1001
ACAD_DSTYLE_DIM_LINETYPE
1070
   380
1005
14
1001
ACAD_DSTYLE_DIM_EXT1_LINETYPE
1070
   381
1005
14
1001
ACAD_DSTYLE_DIM_EXT2_LINETYPE
1070
   382
1005
14
  0
DIMSTYLE
105
4E4
330
A
100
AcDbSymbolTableRecord
100
AcDbDimStyleTableRecord
  2
AM_DIN$3
 70
     0
  4
"
 41
3.5
 42
1.0
 43
10.0
 44
1.0
 47
0.1
 48
0.1
 73
     0
 77
     1
 78
     8
 79
     2
140
3.5
141
0.0
143
0.0393701
146
0.71
147
1.5
176
   256
177
   256
178
     2
271
     2
272
     3
274
     4
283
     0
284
     8
288
     1
289
     0
340
11
371
    -1
372
    -1
1001
ACAD_DSTYLE_DIMBREAK
1070
   391
1040
3.75
1001
ACAD_DSTYLE_DIMJAG
1070
   388
1040
1.5
1001
ACAD_DSTYLE_DIMJOGGED_JOGANGLE_SYMBOL
1070
   384
1040
1.570796326794896
1001
ACAD_DSTYLE_DIM_LINETYPE
1070
   380
1005
14
1001
ACAD_DSTYLE_DIM_EXT1_LINETYPE
1070
   381
1005
14
1001
ACAD_DSTYLE_DIM_EXT2_LINETYPE
1070
   382
1005
14
  0
DIMSTYLE
105
4E5
330
A
100
AcDbSymbolTableRecord
100
AcDbDimStyleTableRecord
  2
AM_DIN$4
 70
     0
  4
"
 41
3.5
 42
1.0
 43
10.0
 44
1.0
 47
0.1
 48
0.1
 73
     0
 77
     1
 78
     8
 79
     2
140
3.5
141
0.0
143
0.0393701
146
0.71
147
1.5
176
   256
177
   256
178
     2
271
     2
272
     3
274
     4
283
     0
284
     8
288
     1
289
     0
340
11
371
    -1
372
    -1
1001
ACAD_DSTYLE_DIMBREAK
1070
   391
1040
3.75
1001
ACAD_DSTYLE_DIMJAG
1070
   388
1040
1.5
1001
ACAD_DSTYLE_DIMJOGGED_JOGANGLE_SYMBOL
1070
   384
1040
1.570796326794896
1001
ACAD_DSTYLE_DIM_LINETYPE
1070
   380
1005
14
1001
ACAD_DSTYLE_DIM_EXT1_LINETYPE
1070
   381
1005
14
1001
ACAD_DSTYLE_DIM_EXT2_LINETYPE
1070
   382
1005
14
  0
DIMSTYLE
105
4E6
330
A
100
AcDbSymbolTableRecord
100
AcDbDimStyleTableRecord
  2
AM_DIN$6
 70
     0
  4
"
 41
3.5
 42
1.0
 43
10.0
 44
1.0
 47
0.1
 48
0.1
 73
     0
 74
     0
 78
     8
 79
     2
140
3.5
141
0.0
143
0.0393701
146
0.71
147
1.5
172
     1
176
   256
177
   256
178
     2
271
     2
272
     3
274
     4
283
     0
284
     8
340
11
371
    -1
372
    -1
1001
ACAD_DSTYLE_DIMBREAK
1070
   391
1040
3.75
1001
ACAD_DSTYLE_DIMJAG
1070
   388
1040
1.5
1001
ACAD_DSTYLE_DIMJOGGED_JOGANGLE_SYMBOL
1070
   384
1040
1.570796326794896
1001
ACAD_DSTYLE_DIM_LINETYPE
1070
   380
1005
14
1001
ACAD_DSTYLE_DIM_EXT1_LINETYPE
1070
   381
1005
14
1001
ACAD_DSTYLE_DIM_EXT2_LINETYPE
1070
   382
1005
14
  0
DIMSTYLE
105
4E7
330
A
100
AcDbSymbolTableRecord
100
AcDbDimStyleTableRecord
  2
AM_DIN$7
 70
     0
  4
"
 41
3.5
 42
1.0
 43
10.0
 44
1.0
 47
0.1
 48
0.1
 73
     0
 74
     0
 77
     1
 78
     8
 79
     2
140
3.5
141
0.0
143
0.0393701
146
0.71
147
1.5
172
     1
176
   256
177
   256
178
     2
271
     2
272
     3
274
     4
283
     0
284
     8
340
11
371
    -1
372
    -1
1001
ACAD_DSTYLE_DIMBREAK
1070
   391
1040
3.75
1001
ACAD_DSTYLE_DIMJAG
1070
   388
1040
1.5
1001
ACAD_DSTYLE_DIMJOGGED_JOGANGLE_SYMBOL
1070
   384
1040
1.570796326794896
1001
ACAD_DSTYLE_DIM_LINETYPE
1070
   380
1005
14
1001
ACAD_DSTYLE_DIM_EXT1_LINETYPE
1070
   381
1005
14
1001
ACAD_DSTYLE_DIM_EXT2_LINETYPE
1070
   382
1005
14
  0
DIMSTYLE
105
4E8
330
A
100
AcDbSymbolTableRecord
100
AcDbDimStyleTableRecord
  2
AM_DIN$SF
 70
     0
  4
"
 41
3.5
 42
1.0
 43
10.0
 44
1.0
 47
0.1
 48
0.1
 73
     0
 74
     0
 75
     1
 76
     1
 77
     1
 78
     8
 79
     2
140
3.5
141
0.0
143
0.0393701
146
0.71
147
1.5
172
     1
176
   256
177
   256
178
     2
271
     2
272
     3
274
     4
283
     0
284
     8
340
11
371
    -1
372
    -1
1001
ACAD_DSTYLE_DIMBREAK
1070
   391
1040
3.75
1001
ACAD_DSTYLE_DIMJAG
1070
   388
1040
1.5
1001
ACAD_DSTYLE_DIMJOGGED_JOGANGLE_SYMBOL
1070
   384
1040
1.570796326794896
1001
ACAD_DSTYLE_DIM_LINETYPE
1070
   380
1005
14
1001
ACAD_DSTYLE_DIM_EXT1_LINETYPE
1070
   381
1005
14
1001
ACAD_DSTYLE_DIM_EXT2_LINETYPE
1070
   382
1005
14
  0
DIMSTYLE
105
4ED
330
A
100
AcDbSymbolTableRecord
100
AcDbDimStyleTableRecord
  2
AM_DIN$SH
 70
     0
  4
"
 41
3.5
 42
1.0
 43
10.0
 44
1.0
 47
0.1
 48
0.1
 73
     0
 74
     0
 75
     1
 76
     1
 77
     1
 78
     8
 79
     2
140
3.5
141
0.0
143
0.0393701
144
2.0
146
0.71
147
1.5
172
     1
173
     1
176
   256
177
   256
178
     2
271
     2
272
     3
274
     4
283
     0
284
     8
340
11
343
4E9
371
    -1
372
    -1
1001
ACAD_DSTYLE_DIMBREAK
1070
   391
1040
3.75
1001
ACAD_DSTYLE_DIMJAG
1070
   388
1040
1.5
1001
ACAD_DSTYLE_DIMJOGGED_JOGANGLE_SYMBOL
1070
   384
1040
1.570796326794896
1001
ACAD_DSTYLE_DIM_LINETYPE
1070
   380
1005
14
1001
ACAD_DSTYLE_DIM_EXT1_LINETYPE
1070
   381
1005
14
1001
ACAD_DSTYLE_DIM_EXT2_LINETYPE
1070
   382
1005
14
  0
ENDTAB
  0
TABLE
  2
BLOCK_RECORD
  5
1
330
0
100
AcDbSymbolTable
 70
    15
  0
BLOCK_RECORD
  5
213
330
1
100
AcDbSymbolTableRecord
100
AcDbBlockTableRecord
  2
*Model_Space
340
415
  0
BLOCK_RECORD
  5
214
330
1
100
AcDbSymbolTableRecord
100
AcDbBlockTableRecord
  2
*Paper_Space
340
416
  0
BLOCK_RECORD
  5
215
330
1
100
AcDbSymbolTableRecord
100
AcDbBlockTableRecord
  2
_FILLED
340
0
102
{BLKREFS
331
514
331
515
331
52A
331
52B
331
534
331
535
331
540
331
541
331
54A
331
54B
331
556
331
557
331
560
331
561
331
56C
331
56D
331
590
331
591
331
599
331
59A
102
}
  0
BLOCK_RECORD
  5
216
330
1
100
AcDbSymbolTableRecord
100
AcDbBlockTableRecord
  2
*D1
340
0
  0
BLOCK_RECORD
  5
217
330
1
100
AcDbSymbolTableRecord
100
AcDbBlockTableRecord
  2
*D2
340
0
  0
BLOCK_RECORD
  5
218
330
1
100
AcDbSymbolTableRecord
100
AcDbBlockTableRecord
  2
*D3
340
0
  0
BLOCK_RECORD
  5
219
330
1
100
AcDbSymbolTableRecord
100
AcDbBlockTableRecord
  2
*D4
340
0
  0
BLOCK_RECORD
  5
21A
330
1
100
AcDbSymbolTableRecord
100
AcDbBlockTableRecord
  2
*D5
340
0
  0
BLOCK_RECORD
  5
4E9
330
1
100
AcDbSymbolTableRecord
100
AcDbBlockTableRecord
  2
GENAXEH
340
0
  0
ENDTAB
  0
ENDSEC
  0
SECTION
  2
BLOCKS
  0
BLOCK
  5
20
330
213
100
AcDbEntity
  8
0
100
AcDbBlockBegin
  2
*Model_Space
 70
     0
 10
0.0
 20
0.0
 30
0.0
  3
*Model_Space
  1

  0
ENDBLK
  5
21
330
213
100
AcDbEntity
  8
0
100
AcDbBlockEnd
  0
BLOCK
  5
1C
330
214
100
AcDbEntity
 67
     1
  8
0
100
AcDbBlockBegin
  2
*Paper_Space
 70
     0
 10
0.0
 20
0.0
 30
0.0
  3
*Paper_Space
  1

  0
ENDBLK
  5
1D
330
214
100
AcDbEntity
 67
     1
  8
0
100
AcDbBlockEnd
  0
BLOCK
  5
21F
330
215
100
AcDbEntity
  8
0
100
AcDbBlockBegin
  2
_FILLED
 70
     0
 10
0.0
 20
0.0
 30
0.0
  3
_FILLED
  1

  0
SOLID
  5
220
330
215
100
AcDbEntity
  8
0
  6
ByBlock
 62
     0
100
AcDbTrace
 10
0.0
 20
0.0
 30
0.0
 11
-1.0
 21
0.125
 31
0.0
 12
-1.0
 22
-0.125
 32
0.0
 13
-1.0
 23
-0.125
 33
0.0
  0
ENDBLK
  5
221
330
215
100
AcDbEntity
  8
0
  6
ByBlock
 62
     0
100
AcDbBlockEnd
  0
BLOCK
  5
222
330
216
100
AcDbEntity
  8
ZEICHNUNGSBEMASSUNGEN
  6
Continuous
 62
     2
100
AcDbBlockBegin
  2
*D1
 70
     1
 10
0.0
 20
0.0
 30
0.0
  3
*D1
  1

  0
LINE
  5
531
330
216
100
AcDbEntity
  8
ZEICHNUNGSBEMASSUNGEN
  6
Continuous
 62
     0
370
    -2
100
AcDbLine
 10
623.0122928158
 20
374.7154308813
 30
0.0
 11
623.0122928158
 21
415.2512158446
 31
0.0
  0
LINE
  5
532
330
216
100
AcDbEntity
  8
ZEICHNUNGSBEMASSUNGEN
  6
Continuous
 62
     0
370
    -2
100
AcDbLine
 10
468.4867462924
 20
374.7154308813
 30
0.0
 11
468.4867462924
 21
415.2512158446
 31
0.0
  0
LINE
  5
533
330
216
100
AcDbEntity
  8
ZEICHNUNGSBEMASSUNGEN
  6
Continuous
 62
     0
370
    -2
100
AcDbLine
 10
618.0122928158
 20
415.0712158445999
 30
0.0
 11
473.4867462923999
 21
415.0712158445999
 31
0.0
  0
INSERT
  5
534
330
216
100
AcDbEntity
  8
ZEICHNUNGSBEMASSUNGEN
  6
Continuous
 62
     0
370
    -2
100
AcDbBlockReference
  2
_FILLED
 10
623.0122928158
 20
415.0712158445999
 30
0.0
 41
5.0
 42
5.0
 43
5.0
  0
INSERT
  5
535
330
216
100
AcDbEntity
  8
ZEICHNUNGSBEMASSUNGEN
  6
Continuous
 62
     0
370
    -2
100
AcDbBlockReference
  2
_FILLED
 10
468.4867462924
 20
415.0712158445999
 30
0.0
 41
5.0
 42
5.0
 43
5.0
 50
180.0
  0
MTEXT
  5
536
330
216
100
AcDbEntity
  8
ZEICHNUNGSBEMASSUNGEN
  6
Continuous
100
AcDbMText
 10
542.8328528875
 20
423.5712158445999
 30
0.0
 40
7.0
 41
0.0
 71
     2
 72
     1
  1
\A1;%%c155
 73
     1
 44
1.0
1001
ACAD
1000
MTEXTBEGIN
1070
    73
1070
     1
1070
    44
1040
1.0
1070
    74
1070
     0
1000
MTEXTEND
  0
POINT
  5
537
330
216
100
AcDbEntity
  8
Defpoints
  6
Continuous
 62
     0
100
AcDbPoint
 10
623.0122928158
 20
374.6529308813
 30
0.0
  0
POINT
  5
538
330
216
100
AcDbEntity
  8
Defpoints
  6
Continuous
 62
     0
100
AcDbPoint
 10
468.4867462924
 20
374.6529308813
 30
0.0
  0
POINT
  5
539
330
216
100
AcDbEntity
  8
Defpoints
  6
Continuous
 62
     0
100
AcDbPoint
 10
468.4867462924
 20
415.0712158445999
 30
0.0
  0
ENDBLK
  5
22C
330
216
100
AcDbEntity
  8
0
  6
ByBlock
 62
     0
100
AcDbBlockEnd
  0
BLOCK
  5
22D
330
217
100
AcDbEntity
  8
ZEICHNUNGSBEMASSUNGEN
  6
Continuous
 62
     2
100
AcDbBlockBegin
  2
*D2
 70
     1
 10
0.0
 20
0.0
 30
0.0
  3
*D2
  1

  0
LINE
  5
58D
330
217
100
AcDbEntity
  8
ZEICHNUNGSBEMASSUNGEN
  6
Continuous
 62
     0
370
    -2
100
AcDbLine
 10
365.7495195541001
 20
379.5433213183
 30
0.0
 11
365.7495195541001
 21
425.7043690506038
 31
0.0
  0
LINE
  5
58E
330
217
100
AcDbEntity
  8
ZEICHNUNGSBEMASSUNGEN
  6
Continuous
 62
     0
370
    -2
100
AcDbLine
 10
725.7495195541
 20
379.5433213183
 30
0.0
 11
725.7495195541
 21
425.7043690506038
 31
0.0
  0
LINE
  5
58F
330
217
100
AcDbEntity
  8
ZEICHNUNGSBEMASSUNGEN
  6
Continuous
 62
     0
370
    -2
100
AcDbLine
 10
370.7495195541
 20
425.5243690506038
 30
0.0
 11
720.7495195541
 21
425.5243690506038
 31
0.0
  0
INSERT
  5
590
330
217
100
AcDbEntity
  8
ZEICHNUNGSBEMASSUNGEN
  6
Continuous
 62
     0
370
    -2
100
AcDbBlockReference
  2
_FILLED
 10
365.7495195541001
 20
425.5243690506038
 30
0.0
 41
5.0
 42
5.0
 43
5.0
 50
180.0
  0
INSERT
  5
591
330
217
100
AcDbEntity
  8
ZEICHNUNGSBEMASSUNGEN
  6
Continuous
 62
     0
370
    -2
100
AcDbBlockReference
  2
_FILLED
 10
725.7495195541
 20
425.5243690506038
 30
0.0
 41
5.0
 42
5.0
 43
5.0
  0
MTEXT
  5
592
330
217
100
AcDbEntity
  8
ZEICHNUNGSBEMASSUNGEN
  6
Continuous
100
AcDbMText
 10
544.2842726634744
 20
434.0243690506038
 30
0.0
 40
7.0
 41
0.0
 71
     2
 72
     1
  1
\A1;%%c360
 73
     1
 44
1.0
1001
ACAD
1000
MTEXTBEGIN
1070
    73
1070
     1
1070
    44
1040
1.0
1070
    74
1070
     0
1000
MTEXTEND
  0
POINT
  5
593
330
217
100
AcDbEntity
  8
Defpoints
  6
Continuous
 62
     0
100
AcDbPoint
 10
365.7495195541001
 20
379.4808213183
 30
0.0
  0
POINT
  5
594
330
217
100
AcDbEntity
  8
Defpoints
  6
Continuous
 62
     0
100
AcDbPoint
 10
725.7495195541
 20
379.4808213183
 30
0.0
  0
POINT
  5
595
330
217
100
AcDbEntity
  8
Defpoints
  6
Continuous
 62
     0
100
AcDbPoint
 10
725.7495195541
 20
425.5243690506038
 30
0.0
  0
ENDBLK
  5
235
330
217
100
AcDbEntity
  8
0
  6
ByBlock
 62
     0
100
AcDbBlockEnd
  0
BLOCK
  5
236
330
218
100
AcDbEntity
  8
ZEICHNUNGSBEMASSUNGEN
  6
Continuous
 62
     2
100
AcDbBlockBegin
  2
*D3
 70
     1
 10
0.0
 20
0.0
 30
0.0
  3
*D3
  1

  0
LINE
  5
55D
330
218
100
AcDbEntity
  8
ZEICHNUNGSBEMASSUNGEN
  6
Continuous
 62
     0
370
    -2
100
AcDbLine
 10
508.6870195522
 20
234.4462158446
 30
0.0
 11
354.6247956146
 21
234.4462158446
 31
0.0
  0
LINE
  5
55E
330
218
100
AcDbEntity
  8
ZEICHNUNGSBEMASSUNGEN
  6
Continuous
 62
     0
370
    -2
100
AcDbLine
 10
479.166316449
 20
381.9531869373
 30
0.0
 11
354.6247956146
 21
381.9531869373001
 31
0.0
  0
LINE
  5
55F
330
218
100
AcDbEntity
  8
ZEICHNUNGSBEMASSUNGEN
  6
Continuous
 62
     0
370
    -2
100
AcDbLine
 10
354.8047956146
 20
239.4462158446
 30
0.0
 11
354.8047956146
 21
376.9531869373001
 31
0.0
  0
INSERT
  5
560
330
218
100
AcDbEntity
  8
ZEICHNUNGSBEMASSUNGEN
  6
Continuous
 62
     0
370
    -2
100
AcDbBlockReference
  2
_FILLED
 10
354.8047956146
 20
234.4462158446
 30
0.0
 41
5.0
 42
5.0
 43
5.0
 50
270.0
  0
INSERT
  5
561
330
218
100
AcDbEntity
  8
ZEICHNUNGSBEMASSUNGEN
  6
Continuous
 62
     0
370
    -2
100
AcDbBlockReference
  2
_FILLED
 10
354.8047956146
 20
381.9531869373001
 30
0.0
 41
5.0
 42
5.0
 43
5.0
 50
90.0
  0
MTEXT
  5
562
330
218
100
AcDbEntity
  8
ZEICHNUNGSBEMASSUNGEN
  6
Continuous
100
AcDbMText
 10
346.3047956146
 20
304.8472139024
 30
0.0
 40
7.0
 41
0.0
 71
     2
 72
     1
  1
\A1;148
 11
0.0000000000000001
 21
1.0
 31
0.0
 73
     1
 44
1.0
1001
ACAD
1000
MTEXTBEGIN
1070
    73
1070
     1
1070
    44
1040
1.0
1070
    74
1070
     0
1000
MTEXTEND
  0
POINT
  5
563
330
218
100
AcDbEntity
  8
Defpoints
  6
Continuous
 62
     0
100
AcDbPoint
 10
508.7495195522
 20
234.4462158446
 30
0.0
  0
POINT
  5
564
330
218
100
AcDbEntity
  8
Defpoints
  6
Continuous
 62
     0
100
AcDbPoint
 10
479.228816449
 20
381.9531869373
 30
0.0
  0
POINT
  5
565
330
218
100
AcDbEntity
  8
Defpoints
  6
Continuous
 62
     0
100
AcDbPoint
 10
354.8047956146
 20
381.9531869373001
 30
0.0
  0
ENDBLK
  5
23E
330
218
100
AcDbEntity
  8
0
  6
ByBlock
 62
     0
100
AcDbBlockEnd
  0
BLOCK
  5
23F
330
219
100
AcDbEntity
  8
ZEICHNUNGSBEMASSUNGEN
  6
Continuous
 62
     2
100
AcDbBlockBegin
  2
*D4
 70
     1
 10
0.0
 20
0.0
 30
0.0
  3
*D4
  1

  0
LINE
  5
547
330
219
100
AcDbEntity
  8
ZEICHNUNGSBEMASSUNGEN
  6
Continuous
 62
     0
370
    -2
100
AcDbLine
 10
685.3120195541
 20
273.4462158446
 30
0.0
 11
734.9847956146001
 21
273.4462158446
 31
0.0
  0
LINE
  5
548
330
219
100
AcDbEntity
  8
ZEICHNUNGSBEMASSUNGEN
  6
Continuous
 62
     0
370
    -2
100
AcDbLine
 10
612.3327227362999
 20
381.9531869359
 30
0.0
 11
734.9847956146001
 21
381.9531869358999
 31
0.0
  0
LINE
  5
549
330
219
100
AcDbEntity
  8
ZEICHNUNGSBEMASSUNGEN
  6
Continuous
 62
     0
370
    -2
100
AcDbLine
 10
734.8047956146001
 20
278.4462158446
 30
0.0
 11
734.8047956146001
 21
376.9531869358999
 31
0.0
  0
INSERT
  5
54A
330
219
100
AcDbEntity
  8
ZEICHNUNGSBEMASSUNGEN
  6
Continuous
 62
     0
370
    -2
100
AcDbBlockReference
  2
_FILLED
 10
734.8047956146001
 20
273.4462158446
 30
0.0
 41
5.0
 42
5.0
 43
5.0
 50
270.0
  0
INSERT
  5
54B
330
219
100
AcDbEntity
  8
ZEICHNUNGSBEMASSUNGEN
  6
Continuous
 62
     0
370
    -2
100
AcDbBlockReference
  2
_FILLED
 10
734.8047956146001
 20
381.9531869358999
 30
0.0
 41
5.0
 42
5.0
 43
5.0
 50
90.0
  0
MTEXT
  5
54C
330
219
100
AcDbEntity
  8
ZEICHNUNGSBEMASSUNGEN
  6
Continuous
100
AcDbMText
 10
726.3047956146
 20
324.3472139017
 30
0.0
 40
7.0
 41
0.0
 71
     2
 72
     1
  1
\A1;109
 11
0.0000000000000001
 21
1.0
 31
0.0
 73
     1
 44
1.0
1001
ACAD
1000
MTEXTBEGIN
1070
    73
1070
     1
1070
    44
1040
1.0
1070
    74
1070
     0
1000
MTEXTEND
  0
POINT
  5
54D
330
219
100
AcDbEntity
  8
Defpoints
  6
Continuous
 62
     0
100
AcDbPoint
 10
685.2495195541
 20
273.4462158446
 30
0.0
  0
POINT
  5
54E
330
219
100
AcDbEntity
  8
Defpoints
  6
Continuous
 62
     0
100
AcDbPoint
 10
612.2702227362999
 20
381.9531869359
 30
0.0
  0
POINT
  5
54F
330
219
100
AcDbEntity
  8
Defpoints
  6
Continuous
 62
     0
100
AcDbPoint
 10
734.8047956146001
 20
381.9531869358999
 30
0.0
  0
ENDBLK
  5
247
330
219
100
AcDbEntity
  8
0
  6
ByBlock
 62
     0
100
AcDbBlockEnd
  0
BLOCK
  5
248
330
21A
100
AcDbEntity
  8
ZEICHNUNGSBEMASSUNGEN
  6
Continuous
 62
     2
100
AcDbBlockBegin
  2
*D5
 70
     1
 10
0.0
 20
0.0
 30
0.0
  3
*D5
  1

  0
LINE
  5
596
330
21A
100
AcDbEntity
  8
ZEICHNUNGSBEMASSUNGEN
  6
Continuous
 62
     0
370
    -2
100
AcDbLine
 10
545.7495195541
 20
229.7637110444
 30
0.0
 11
545.7495195541
 21
222.2220702483842
 31
0.0
  0
LINE
  5
597
330
21A
100
AcDbEntity
  8
ZEICHNUNGSBEMASSUNGEN
  6
Continuous
 62
     0
370
    -2
100
AcDbLine
 10
680.7495195541
 20
232.8837158446
 30
0.0
 11
680.7495195541
 21
222.2220702483842
 31
0.0
  0
LINE
  5
598
330
21A
100
AcDbEntity
  8
ZEICHNUNGSBEMASSUNGEN
  6
Continuous
 62
     0
370
    -2
100
AcDbLine
 10
550.7495195541
 20
222.4020702483842
 30
0.0
 11
675.7495195541
 21
222.4020702483842
 31
0.0
  0
INSERT
  5
599
330
21A
100
AcDbEntity
  8
ZEICHNUNGSBEMASSUNGEN
  6
Continuous
 62
     0
370
    -2
100
AcDbBlockReference
  2
_FILLED
 10
545.7495195541
 20
222.4020702483842
 30
0.0
 41
5.0
 42
5.0
 43
5.0
 50
180.0
  0
INSERT
  5
59A
330
21A
100
AcDbEntity
  8
ZEICHNUNGSBEMASSUNGEN
  6
Continuous
 62
     0
370
    -2
100
AcDbBlockReference
  2
_FILLED
 10
680.7495195541
 20
222.4020702483842
 30
0.0
 41
5.0
 42
5.0
 43
5.0
  0
MTEXT
  5
59B
330
21A
100
AcDbEntity
  8
ZEICHNUNGSBEMASSUNGEN
  6
Continuous
100
AcDbMText
 10
615.1375917006671
 20
230.9020702483842
 30
0.0
 40
7.0
 41
0.0
 71
     2
 72
     1
  1
\A1;135
 73
     1
 44
1.0
1001
ACAD
1000
MTEXTBEGIN
1070
    73
1070
     1
1070
    44
1040
1.0
1070
    74
1070
     0
1000
MTEXTEND
  0
POINT
  5
59C
330
21A
100
AcDbEntity
  8
Defpoints
  6
Continuous
 62
     0
100
AcDbPoint
 10
545.7495195541
 20
229.8262110444
 30
0.0
  0
POINT
  5
59D
330
21A
100
AcDbEntity
  8
Defpoints
  6
Continuous
 62
     0
100
AcDbPoint
 10
680.7495195541
 20
232.9462158446
 30
0.0
  0
POINT
  5
59E
330
21A
100
AcDbEntity
  8
Defpoints
  6
Continuous
 62
     0
100
AcDbPoint
 10
680.7495195541
 20
222.4020702483842
 30
0.0
  0
ENDBLK
  5
250
330
21A
100
AcDbEntity
  8
0
  6
ByBlock
 62
     0
100
AcDbBlockEnd
  0
BLOCK
  5
4EB
330
4E9
100
AcDbEntity
  8
0
100
AcDbBlockBegin
  2
GENAXEH
 70
     0
 10
0.0
 20
0.0
 30
0.0
  3
GENAXEH
  1

  0
LINE
  5
4EA
330
4E9
100
AcDbEntity
  8
0
100
AcDbLine
 10
-1.0
 20
0.0
 30
0.0
 11
1.0
 21
0.0
 31
0.0
  0
ENDBLK
  5
4EC
330
4E9
100
AcDbEntity
  8
0
100
AcDbBlockEnd
  0
ENDSEC
  0
SECTION
  2
ENTITIES
  0
HATCH
  5
251
330
213
100
AcDbEntity
  8
0
  6
Continuous
 62
     1
100
AcDbHatch
 10
0.0
 20
0.0
 30
0.0
210
0.0
220
0.0
230
1.0
  2
DEFAULT__1
 70
     0
 71
     0
 91
        2
 92
        1
 93
       54
 72
     1
 10
510.2495195541
 20
234.4462158446
 11
565.7495195541001
 21
234.4462158446
 72
     4
 94
        3
 73
     1
 74
     0
 95
        8
 96
        4
 40
0.0
 40
0.0
 40
0.0
 40
0.0
 40
1.0
 40
1.0
 40
1.0
 40
1.0
 10
510.2495195541
 20
234.4462158446
 42
1.0
 10
504.3916551777999
 20
234.4462158446
 42
0.8047378541
 10
500.2495195541
 20
238.5883514683
 42
0.8047378541
 10
500.2495195541
 20
244.4462158446
 42
1.0
 72
     1
 10
500.2495195541
 20
244.4462158446
 11
500.2495195541
 21
267.9838761018
 72
     4
 94
        3
 73
     1
 74
     0
 95
        8
 96
        4
 40
0.0
 40
0.0
 40
0.0
 40
0.0
 40
1.0
 40
1.0
 40
1.0
 40
1.0
 10
497.4065274227999
 20
270.9797647061
 42
1.0
 10
499.0894691244
 20
270.8915654688
 42
0.8169162473
 10
500.2495195541
 20
269.6691273817
 42
0.8169162473
 10
500.2495195541
 20
267.9838761018
 42
1.0
 72
     1
 10
492.5318859753
 20
271.2352338391
 11
497.4065274227999
 21
270.9797647061
 72
     4
 94
        3
 73
     1
 74
     0
 95
        8
 96
        4
 40
0.0
 40
0.0
 40
0.0
 40
0.0
 40
1.0
 40
1.0
 40
1.0
 40
1.0
 10
489.981137991
 20
272.939589153
 42
1.0
 10
490.4669029808999
 20
271.9211616726
 42
0.906270941
 10
491.4050874572
 20
271.2942868472
 42
0.906270941
 10
492.5318859753
 20
271.2352338391
 42
1.0
 72
     1
 10
476.6772060569
 20
300.8318624921
 11
489.981137991
 21
272.939589153
 72
     4
 94
        3
 73
     1
 74
     0
 95
        8
 96
        4
 40
0.0
 40
0.0
 40
0.0
 40
0.0
 40
1.0
 40
1.0
 40
1.0
 40
1.0
 10
476.6772060569
 20
300.8318624921
 42
1.0
 10
476.3808323642999
 20
301.4532228603
 42
0.986030315
 10
476.2172039558999
 20
302.1219169732
 42
0.986030315
 10
476.1931783435
 20
302.8099204926
 42
1.0
 72
     1
 10
474.8067339527
 20
342.5124932316
 11
476.1931783435
 21
302.8099204926
 72
     4
 94
        3
 73
     1
 74
     0
 95
        8
 96
        4
 40
0.0
 40
0.0
 40
0.0
 40
0.0
 40
1.0
 40
1.0
 40
1.0
 40
1.0
 10
474.8067338782
 20
342.5124977099
 42
1.0
 10
474.782091188
 20
343.218172421
 42
0.9853168045999998
 10
474.6107020508
 20
343.9031613433
 42
0.9853168045999998
 10
474.3001160872
 20
344.5372909983
 42
1.0
 72
     1
 10
474.3001159341
 20
344.5372910555999
 11
474.1614418719
 21
344.820424407
 72
     4
 94
        3
 73
     1
 74
     0
 95
        8
 96
        4
 40
0.0
 40
0.0
 40
0.0
 40
0.0
 40
1.0
 40
1.0
 40
1.0
 40
1.0
 10
474.1614420318
 20
344.8204244844
 42
1.0
 10
473.8508552391
 20
345.4545544368
 42
0.9853167787
 10
473.6794654807
 20
346.1395438551
 42
0.9853167787
 10
473.6548224176
 20
346.8452191855
 42
1.0
 72
     1
 10
473.3678050938999
 20
355.0643161403
 11
473.6548222002999
 21
346.8452215851
 72
     4
 94
        3
 73
     1
 74
     0
 95
        8
 96
        4
 40
0.0
 40
0.0
 40
0.0
 40
0.0
 40
1.0
 40
1.0
 40
1.0
 40
1.0
 10
473.3678050938999
 20
355.0643161403
 42
1.0
 10
473.3200336138
 20
356.432312344
 42
0.8692022420999998
 10
472.4678205294999
 20
357.5034932749
 42
0.8692022420999998
 10
471.1455685231999
 20
357.8575347406
 42
1.0
 72
     4
 94
        3
 73
     1
 74
     0
 95
        8
 96
        4
 40
0.0
 40
0.0
 40
0.0
 40
0.0
 40
1.0
 40
1.0
 40
1.0
 40
1.0
 10
468.9233319523999
 20
360.6507533408999
 42
1.0
 10
468.9711034324999
 20
359.2827571372
 42
0.8692022420999998
 10
469.8233165168
 20
358.2115762063
 42
0.8692022420999998
 10
471.1455685231999
 20
357.8575347406
 42
1.0
 72
     1
 10
468.9233319523999
 20
360.6507533408999
 11
468.5861014497
 21
370.3077714319001
 72
     4
 94
        3
 73
     1
 74
     0
 95
        8
 96
        4
 40
0.0
 40
0.0
 40
0.0
 40
0.0
 40
1.0
 40
1.0
 40
1.0
 40
1.0
 10
465.640286188
 20
373.2026160272
 42
1.0
 10
467.3252807958999
 20
373.173204337
 42
0.8169162473
 10
468.5272870282
 20
371.9919961022
 42
0.8169162473
 10
468.5861014497
 20
370.3077714319001
 42
1.0
 72
     1
 10
465.640286188
 20
373.2026160272
 11
367.7146147412
 21
374.9119149805001
 72
     4
 94
        3
 73
     1
 74
     0
 95
        8
 96
        4
 40
0.0
 40
0.0
 40
0.0
 40
0.0
 40
1.0
 40
1.0
 40
1.0
 40
1.0
 10
367.7146147412
 20
374.9119149805001
 42
1.0
 10
366.5593668484
 20
374.9320799075
 42
0.8088336328
 10
365.7495195541001
 20
375.7561865013
 42
0.8088336328
 10
365.7495195541001
 20
376.9116103708
 42
1.0
 72
     1
 10
365.7495195541001
 20
376.9116103708
 11
365.7495195541001
 21
377.9808213183
 72
     4
 94
        3
 73
     1
 74
     0
 95
        8
 96
        4
 40
0.0
 40
0.0
 40
0.0
 40
0.0
 40
1.0
 40
1.0
 40
1.0
 40
1.0
 10
365.7495195541001
 20
377.9808213183
 42
1.0
 10
365.7495195541001
 20
379.1362451878
 42
0.8088336328
 10
366.5593668484
 20
379.9603517817
 42
0.8088336328
 10
367.7146147412
 20
379.9805167087
 42
1.0
 72
     1
 10
367.7146147412
 20
379.9805167087
 11
480.7288130464
 21
381.9531868779
 72
     4
 94
        3
 73
     1
 74
     0
 95
        8
 96
        4
 40
0.0
 40
0.0
 40
0.0
 40
0.0
 40
1.0
 40
1.0
 40
1.0
 40
1.0
 10
480.7288130464
 20
381.9531868779
 42
1.0
 10
481.3211389236
 20
381.9635259645
 42
0.8013725279999999
 10
481.7443491733
 20
381.5489781072
 42
0.8013725279999999
 10
481.7462602495999
 20
380.9565650847
 42
1.0
 72
     1
 10
481.7495195541
 20
379.9462158446
 11
481.7462602495999
 21
380.9565650847
 72
     1
 10
481.7495195541
 20
374.9289131077
 11
481.7495195541
 21
379.9462158446
 72
     4
 94
        3
 73
     1
 74
     0
 95
        8
 96
        4
 40
0.0
 40
0.0
 40
0.0
 40
0.0
 40
1.0
 40
1.0
 40
1.0
 40
1.0
 10
481.7495195541
 20
374.9289131077
 42
1.0
 10
481.7495195541
 20
374.351201173
 42
0.8088336328
 10
481.344595907
 20
373.939147876
 42
0.8088336328
 10
480.7669719605999
 20
373.9290654125
 42
1.0
 72
     1
 10
475.7320671477
 20
373.8411808221
 11
480.7669719605999
 21
373.9290654125
 72
     4
 94
        3
 73
     1
 74
     0
 95
        8
 96
        4
 40
0.0
 40
0.0
 40
0.0
 40
0.0
 40
1.0
 40
1.0
 40
1.0
 40
1.0
 10
474.7495195541
 20
372.841333127
 42
1.0
 10
474.7495195541
 20
373.4190450617
 42
0.8088336328
 10
475.1544432012999
 20
373.8310983586
 42
0.8088336328
 10
475.7320671477
 20
373.8411808221
 42
1.0
 72
     1
 10
474.7495195541
 20
363.8067276532
 11
474.7495195541
 21
372.841333127
 72
     4
 94
        3
 73
     1
 74
     0
 95
        8
 96
        4
 40
0.0
 40
0.0
 40
0.0
 40
0.0
 40
1.0
 40
1.0
 40
1.0
 40
1.0
 10
475.7320671477
 20
362.806879958
 42
1.0
 10
475.1544432012999
 20
362.8169624215
 42
0.8088336328
 10
474.7495195541
 20
363.2290157185
 42
0.8088336328
 10
474.7495195541
 20
363.8067276532
 42
1.0
 72
     1
 10
480.8257691085
 20
362.7179690596
 11
475.7320671477
 21
362.806879958
 72
     4
 94
        3
 73
     1
 74
     0
 95
        8
 96
        4
 40
0.0
 40
0.0
 40
0.0
 40
0.0
 40
1.0
 40
1.0
 40
1.0
 40
1.0
 10
480.8257691085
 20
362.7179690596
 42
1.0
 10
481.4019078005
 20
362.7079125213
 42
0.8095867034000001
 10
481.8064526487999
 20
362.2975707222
 42
0.8095867034000001
 10
481.8083114988
 20
361.7213472664
 42
1.0
 72
     1
 10
481.9973461158
 20
303.1226553561
 11
481.8083114988
 21
361.7213472664
 72
     4
 94
        3
 73
     1
 74
     0
 95
        8
 96
        4
 40
0.0
 40
0.0
 40
0.0
 40
0.0
 40
1.0
 40
1.0
 40
1.0
 40
1.0
 10
482.2895746530999
 20
301.8407997715
 42
1.0
 10
482.0977968744999
 20
302.2428702455
 42
0.9837980176
 10
481.9987831434
 20
302.677192319
 42
0.9837980176
 10
481.9973461158
 20
303.1226553561
 42
1.0
 72
     1
 10
491.4848221403
 20
282.56256251
 11
482.2895746530999
 21
301.8407997715
 72
     4
 94
        3
 73
     1
 74
     0
 95
        8
 96
        4
 40
0.0
 40
0.0
 40
0.0
 40
0.0
 40
1.0
 40
1.0
 40
1.0
 40
1.0
 10
492.3350714684
 20
281.9944440721
 42
1.0
 10
491.9594719623999
 20
282.0141284081
 42
0.906270941
 10
491.6467438037
 20
282.2230866832
 42
0.906270941
 10
491.4848221403
 20
282.56256251
 42
1.0
 72
     1
 10
507.3018555104
 20
281.2100681574
 11
492.3350714684
 21
281.9944440721
 72
     4
 94
        3
 73
     1
 74
     0
 95
        8
 96
        4
 40
0.0
 40
0.0
 40
0.0
 40
0.0
 40
1.0
 40
1.0
 40
1.0
 40
1.0
 10
507.3018555104
 20
281.2100681574
 42
1.0
 10
507.8628360776
 20
281.1806684117
 42
0.8169162473
 10
508.2495195541
 20
280.7731890493
 42
0.8169162473
 10
508.2495195541
 20
280.2114386227
 42
1.0
 72
     1
 10
508.2495195541
 20
270.1431004525
 11
508.2495195541
 21
280.2114386227
 72
     4
 94
        3
 73
     1
 74
     0
 95
        8
 96
        4
 40
0.0
 40
0.0
 40
0.0
 40
0.0
 40
1.0
 40
1.0
 40
1.0
 40
1.0
 10
509.2320671477
 20
269.1432527573
 42
1.0
 10
508.6544432013
 20
269.1533352208001
 42
0.8088336328
 10
508.2495195541
 20
269.5653885177
 42
0.8088336328
 10
508.2495195541
 20
270.1431004525
 42
1.0
 72
     1
 10
514.7669719606
 20
269.0466406344
 11
509.2320671477
 21
269.1432527573
 72
     4
 94
        3
 73
     1
 74
     0
 95
        8
 96
        4
 40
0.0
 40
0.0
 40
0.0
 40
0.0
 40
1.0
 40
1.0
 40
1.0
 40
1.0
 10
514.7669719606
 20
269.0466406344
 42
1.0
 10
515.3445959069999
 20
269.036558171
 42
0.8088336328
 10
515.7495195541001
 20
268.624504874
 42
0.8088336328
 10
515.7495195541001
 20
268.0467929393
 42
1.0
 72
     1
 10
515.7495195541001
 20
263.9296424913
 11
515.7495195541001
 21
268.0467929393
 72
     2
 10
514.7494387763999
 20
263.9295529944
 40
1.0000718464
 50
270.0049131125
 51
360.0051227128
 73
     1
 72
     1
 10
506.7495234591
 20
262.9294902024
 11
514.7495244757
 21
262.9294902024
 72
     2
 10
506.7496079344
 20
261.9294193586
 40
1.0000793393
 50
90.00484656899999
 51
180.0046645254
 73
     1
 72
     1
 10
505.7495195541
 20
244.4462158446
 11
505.7495195541
 21
261.9293379364
 72
     4
 94
        3
 73
     1
 74
     0
 95
        8
 96
        4
 40
0.0
 40
0.0
 40
0.0
 40
0.0
 40
1.0
 40
1.0
 40
1.0
 40
1.0
 10
510.2495195541
 20
239.9462158446
 42
1.0
 10
507.6134805848
 20
239.9462158446
 42
0.8047378541
 10
505.7495195541
 20
241.8101768753
 42
0.8047378541
 10
505.7495195541
 20
244.4462158446
 42
1.0
 72
     1
 10
510.2495195541
 20
239.9462158446
 11
600.7495195541
 21
239.9462158446
 72
     1
 10
600.7495195541
 20
239.9462158446
 11
615.7495195541001
 21
239.9462158446
 72
     1
 10
615.7495195541001
 20
239.9462158446
 11
680.7495195541
 21
239.9462158446
 72
     1
 10
680.7495195541
 20
239.9462158446
 11
680.7495195541
 21
234.4462158446
 72
     1
 10
615.7495195541001
 20
234.4462158446
 11
680.7495195541
 21
234.4462158446
 72
     1
 10
615.7495195541001
 20
234.4462158446
 11
565.7495195541001
 21
234.4462158446
 97
        0
 92
        1
 93
       51
 72
     1
 10
616.6923064380999
 20
342.5125299602
 11
615.7507860737
 21
315.5509143347
 72
     4
 94
        3
 73
     1
 74
     0
 95
        8
 96
        4
 40
0.0
 40
0.0
 40
0.0
 40
0.0
 40
1.0
 40
1.0
 40
1.0
 40
1.0
 10
615.7507855098
 20
315.550914356
 42
1.0
 10
615.6877428280999
 20
313.7456236923
 42
0.7964387894
 10
616.9425674639
 20
312.4462146367
 42
0.7964387894
 10
618.7489585512
 20
312.4462150307
 42
1.0
 72
     1
 10
618.7489585548
 20
312.4462158446
 11
680.7495195541
 21
312.4462158446
 72
     1
 10
680.7495195541
 20
312.4462158446
 11
680.7495195541
 21
306.9462158446
 72
     1
 10
616.4187385209999
 20
306.9462158446
 11
680.7495195541
 21
306.9462158446
 72
     4
 94
        3
 73
     1
 74
     0
 95
        8
 96
        4
 40
0.0
 40
0.0
 40
0.0
 40
0.0
 40
1.0
 40
1.0
 40
1.0
 40
1.0
 10
616.4187384726999
 20
306.9462158315
 42
1.0
 10
615.849038129
 20
306.9462158864
 42
0.8128932279999999
 10
615.4392299357
 20
306.5504688381
 42
0.8128932279999999
 10
615.4193475573
 20
305.9811155448
 42
1.0
 72
     1
 10
615.4193476930999
 20
305.9811153161
 11
615.3086037847
 21
302.8098247043
 72
     4
 94
        3
 73
     1
 74
     0
 95
        8
 96
        4
 40
0.0
 40
0.0
 40
0.0
 40
0.0
 40
1.0
 40
1.0
 40
1.0
 40
1.0
 10
614.8243103699
 20
300.8306808717
 42
1.0
 10
615.1208467533999
 20
301.4523823285
 42
0.986030315
 10
615.2845649838
 20
302.1214435133
 42
0.986030315
 10
615.3086037847
 20
302.8098247043
 42
1.0
 72
     1
 10
614.8243103699
 20
300.8306808717
 11
601.0063680296999
 21
271.8607623057
 72
     2
 10
600.1079335915
 20
272.2888465229
 40
0.9951939761
 50
272.9766846124
 51
334.5232291028
 73
     1
 72
     1
 10
600.1596144132999
 20
271.2949796281
 11
592.2012270296
 21
270.8778982186
 72
     2
 10
592.254130349
 20
269.877430672
 40
1.001878342899999
 50
93.02690147419999
 51
179.9731538073
 73
     1
 72
     1
 10
591.2522642461
 20
269.8779000968
 11
591.2522642461
 21
263.9269019456
 72
     4
 94
        3
 73
     0
 74
     0
 95
       15
 96
       11
 40
0.0
 40
0.0
 40
0.0
 40
0.0
 40
0.125
 40
0.25
 40
0.375
 40
0.5
 40
0.625
 40
0.75
 40
0.875
 40
1.0
 40
1.0
 40
1.0
 40
1.0
 10
591.2522558926
 20
263.9269019457
 10
591.2522644527999
 20
263.8608092808
 10
591.2394134256
 20
263.731585589
 10
591.1823368497
 20
263.5432142027
 10
591.0901148883
 20
263.3705645147
 10
590.9643766987999
 20
263.2171709458
 10
590.8103947355999
 20
263.0914697755
 10
590.6370981259999
 20
262.9993030345
 10
590.4477140721
 20
262.9421081745
 10
590.3175311692999
 20
262.9291841170001
 10
590.2508911358999
 20
262.9291931881
 72
     1
 10
590.2508911359999
 20
262.9291855463
 11
576.7495195547
 21
262.9291855463
 72
     4
 94
        3
 73
     1
 74
     0
 95
        8
 96
        4
 40
0.0
 40
0.0
 40
0.0
 40
0.0
 40
1.0
 40
1.0
 40
1.0
 40
1.0
 10
576.7495194887999
 20
262.9291855569
 42
1.0
 10
576.1637331414999
 20
262.9291855951
 42
0.8047379015
 10
575.7495196283
 20
263.343399079
 42
0.8047379015
 10
575.7495195487999
 20
263.9291854264
 42
1.0
 72
     1
 10
575.7495195541
 20
263.9291855463
 11
575.7495195541
 21
268.0467929393
 72
     4
 94
        3
 73
     1
 74
     0
 95
        8
 96
        4
 40
0.0
 40
0.0
 40
0.0
 40
0.0
 40
1.0
 40
1.0
 40
1.0
 40
1.0
 10
576.7320671476999
 20
269.0466406344
 42
1.0
 10
576.1544432012999
 20
269.036558171
 42
0.8088336328
 10
575.7495195541
 20
268.624504874
 42
0.8088336328
 10
575.7495195541
 20
268.0467929393
 42
1.0
 72
     1
 10
576.7320671476999
 20
269.0466406344
 11
582.2669719605999
 21
269.1432527573
 72
     4
 94
        3
 73
     1
 74
     0
 95
        8
 96
        4
 40
0.0
 40
0.0
 40
0.0
 40
0.0
 40
1.0
 40
1.0
 40
1.0
 40
1.0
 10
582.2669719605999
 20
269.1432527573
 42
1.0
 10
582.8445959069999
 20
269.1533352208001
 42
0.8088336328
 10
583.2495195541
 20
269.5653885177
 42
0.8088336328
 10
583.2495195541
 20
270.1431004525
 42
1.0
 72
     1
 10
583.2495195541
 20
270.1431004525
 11
583.2495195541
 21
280.2114386227
 72
     4
 94
        3
 73
     1
 74
     0
 95
        8
 96
        4
 40
0.0
 40
0.0
 40
0.0
 40
0.0
 40
1.0
 40
1.0
 40
1.0
 40
1.0
 10
584.1971835978999
 20
281.2100681574
 42
1.0
 10
583.6362030306999
 20
281.1806684117
 42
0.8169162473
 10
583.2495195541
 20
280.7731890493
 42
0.8169162473
 10
583.2495195541
 20
280.2114386227
 42
1.0
 72
     1
 10
584.1971835978999
 20
281.2100681574
 11
599.1639676398
 21
281.9944440721
 72
     4
 94
        3
 73
     1
 74
     0
 95
        8
 96
        4
 40
0.0
 40
0.0
 40
0.0
 40
0.0
 40
1.0
 40
1.0
 40
1.0
 40
1.0
 10
599.1639676398
 20
281.9944440721
 42
1.0
 10
599.5395671457999
 20
282.0141284081
 42
0.906270941
 10
599.8522953046
 20
282.2230866832
 42
0.906270941
 10
600.0142169679
 20
282.56256251
 42
1.0
 72
     1
 10
600.0142169679
 20
282.56256251
 11
609.2094644551999
 21
301.8407997715
 72
     4
 94
        3
 73
     1
 74
     0
 95
        8
 96
        4
 40
0.0
 40
0.0
 40
0.0
 40
0.0
 40
1.0
 40
1.0
 40
1.0
 40
1.0
 10
609.2094644551999
 20
301.8407997715
 42
1.0
 10
609.4012422337
 20
302.2428702455
 42
0.9837980176
 10
609.5002559649
 20
302.677192319
 42
0.9837980176
 10
609.5016929924
 20
303.1226553561
 42
1.0
 72
     1
 10
609.5016929924
 20
303.1226553561
 11
609.5140274878
 21
306.9462158445
 72
     1
 10
609.5140274878
 20
306.9462158445
 11
609.6907276095
 21
361.7213472664
 72
     4
 94
        3
 73
     1
 74
     0
 95
        8
 96
        4
 40
0.0
 40
0.0
 40
0.0
 40
0.0
 40
1.0
 40
1.0
 40
1.0
 40
1.0
 10
610.6732699998
 20
362.7179690596
 42
1.0
 10
610.0971313077999
 20
362.7079125213
 42
0.8095867034000001
 10
609.6925864594999
 20
362.2975707222
 42
0.8095867034000001
 10
609.6907276095
 20
361.7213472664
 42
1.0
 72
     1
 10
610.6732699998
 20
362.7179690596
 11
615.7669719605999
 21
362.806879958
 72
     4
 94
        3
 73
     1
 74
     0
 95
        8
 96
        4
 40
0.0
 40
0.0
 40
0.0
 40
0.0
 40
1.0
 40
1.0
 40
1.0
 40
1.0
 10
615.7669719605999
 20
362.806879958
 42
1.0
 10
616.3445959069999
 20
362.8169624215
 42
0.8088336328
 10
616.7495195541
 20
363.2290157185
 42
0.8088336328
 10
616.7495195541
 20
363.8067276532
 42
1.0
 72
     1
 10
616.7495195541
 20
363.8067276532
 11
616.7495195541
 21
372.841333127
 72
     4
 94
        3
 73
     1
 74
     0
 95
        8
 96
        4
 40
0.0
 40
0.0
 40
0.0
 40
0.0
 40
1.0
 40
1.0
 40
1.0
 40
1.0
 10
616.7495195541
 20
372.841333127
 42
1.0
 10
616.7495195541
 20
373.4190450617
 42
0.8088336328
 10
616.3445959069999
 20
373.8310983586
 42
0.8088336328
 10
615.7669719605999
 20
373.8411808221
 42
1.0
 72
     1
 10
615.7669719605999
 20
373.8411808221
 11
610.7320671476998
 21
373.9290654125
 72
     4
 94
        3
 73
     1
 74
     0
 95
        8
 96
        4
 40
0.0
 40
0.0
 40
0.0
 40
0.0
 40
1.0
 40
1.0
 40
1.0
 40
1.0
 10
609.7495195541
 20
374.9289131077
 42
1.0
 10
609.7495195541
 20
374.351201173
 42
0.8088336328
 10
610.1544432013
 20
373.939147876
 42
0.8088336328
 10
610.7320671476998
 20
373.9290654125
 42
1.0
 72
     1
 10
609.7495195541
 20
374.9289131077
 11
609.7495195541
 21
379.9462158446
 72
     1
 10
609.7495195541
 20
379.9462158446
 11
609.7527788585999
 21
380.9565650847
 72
     4
 94
        3
 73
     1
 74
     0
 95
        8
 96
        4
 40
0.0
 40
0.0
 40
0.0
 40
0.0
 40
1.0
 40
1.0
 40
1.0
 40
1.0
 10
610.7702260618
 20
381.9531868779
 42
1.0
 10
610.1779001846999
 20
381.9635259645
 42
0.8013725279999999
 10
609.7546899348999
 20
381.5489781072
 42
0.8013725279999999
 10
609.7527788585999
 20
380.9565650847
 42
1.0
 72
     1
 10
723.7844243669999
 20
379.9805167087
 11
610.7702260618
 21
381.9531868779
 72
     4
 94
        3
 73
     1
 74
     0
 95
        8
 96
        4
 40
0.0
 40
0.0
 40
0.0
 40
0.0
 40
1.0
 40
1.0
 40
1.0
 40
1.0
 10
725.7495195541
 20
377.9808213183
 42
1.0
 10
725.7495195541
 20
379.1362451878
 42
0.8088336328
 10
724.9396722598
 20
379.9603517817
 42
0.8088336328
 10
723.7844243669999
 20
379.9805167087
 42
1.0
 72
     1
 10
725.7495195541
 20
376.9116103708
 11
725.7495195541
 21
377.9808213183
 72
     4
 94
        3
 73
     1
 74
     0
 95
        8
 96
        4
 40
0.0
 40
0.0
 40
0.0
 40
0.0
 40
1.0
 40
1.0
 40
1.0
 40
1.0
 10
723.7844243669999
 20
374.9119149805001
 42
1.0
 10
724.9396722598
 20
374.9320799075
 42
0.8088336328
 10
725.7495195541
 20
375.7561865013
 42
0.8088336328
 10
725.7495195541
 20
376.9116103708
 42
1.0
 72
     1
 10
625.8587529202999
 20
373.2026160272
 11
723.7844243669999
 21
374.9119149805001
 72
     4
 94
        3
 73
     1
 74
     0
 95
        8
 96
        4
 40
0.0
 40
0.0
 40
0.0
 40
0.0
 40
1.0
 40
1.0
 40
1.0
 40
1.0
 10
625.8587529202999
 20
373.2026160272
 42
1.0
 10
624.1737583123
 20
373.173204337
 42
0.8169162473
 10
622.97175208
 20
371.9919961022
 42
0.8169162473
 10
622.9129376584999
 20
370.3077714319001
 42
1.0
 72
     1
 10
622.5757071558
 20
360.6507533408999
 11
622.9129376584999
 21
370.3077714319001
 72
     4
 94
        3
 73
     1
 74
     0
 95
        8
 96
        4
 40
0.0
 40
0.0
 40
0.0
 40
0.0
 40
1.0
 40
1.0
 40
1.0
 40
1.0
 10
622.5757071558
 20
360.6507533408999
 42
1.0
 10
622.5279356756999
 20
359.2827571372
 42
0.8692022420999998
 10
621.6757225914
 20
358.2115762063
 42
0.8692022420999998
 10
620.3534705851
 20
357.8575347406
 42
1.0
 72
     4
 94
        3
 73
     1
 74
     0
 95
        8
 96
        4
 40
0.0
 40
0.0
 40
0.0
 40
0.0
 40
1.0
 40
1.0
 40
1.0
 40
1.0
 10
618.1312340143001
 20
355.0643161403
 42
1.0
 10
618.1790054944
 20
356.432312344
 42
0.8692022420999998
 10
619.0312185787
 20
357.5034932749
 42
0.8692022420999998
 10
620.3534705851
 20
357.8575347406
 42
1.0
 72
     1
 10
618.1312340143001
 20
355.0643161403
 11
617.8442180007
 21
346.8452528787
 72
     4
 94
        3
 73
     1
 74
     0
 95
        8
 96
        4
 40
0.0
 40
0.0
 40
0.0
 40
0.0
 40
1.0
 40
1.0
 40
1.0
 40
1.0
 10
617.8442175919999
 20
346.8452479603
 42
1.0
 10
617.8195748698999
 20
346.1395731735
 42
0.9853168014999999
 10
617.6481856706999
 20
345.4545841877
 42
0.9853168014999999
 10
617.3375996193
 20
344.8204544903
 42
1.0
 72
     1
 10
617.3375998548999
 20
344.8204543766
 11
617.1989263767
 21
344.5373220879
 72
     4
 94
        3
 73
     1
 74
     0
 95
        8
 96
        4
 40
0.0
 40
0.0
 40
0.0
 40
0.0
 40
1.0
 40
1.0
 40
1.0
 40
1.0
 10
617.1989274930999
 20
344.537324977
 42
1.0
 10
616.8883400717
 20
343.9031950575
 42
0.9853167687
 10
616.7169497405999
 20
343.2182055279
 42
0.9853167687
 10
616.6923061916
 20
342.5125299674001
 42
1.0
 97
        0
 75
     0
 76
     0
 52
45.0
 41
5.945
 77
     0
 78
     1
 53
45.0
 43
0.0
 44
0.0
 45
-4.2037498142
 46
4.2037498142
 79
     0
 98
        1
 10
0.0
 20
0.0
  0
DIMENSION
  5
252
330
213
100
AcDbEntity
  8
ZEICHNUNGSBEMASSUNGEN
  6
Continuous
 62
     7
100
AcDbDimension
  2
*D1
 10
468.4867462924
 20
415.0712158445999
 30
0.0
 11
542.8328528875
 21
415.0712158445999
 31
0.0
 70
   160
  1
%%c155
 71
     2
 42
154.5255465234
  3
DIMSTYLE_2
100
AcDbAlignedDimension
 13
623.0122928158
 23
374.6529308813
 33
0.0
 14
468.4867462924
 24
374.6529308813
 34
0.0
 50
180.0
100
AcDbRotatedDimension
1001
ACAD
1000
DSTYLE
1002
{
1070
    41
1040
5.0
1070
   140
1040
7.0
1070
   147
1040
1.5
1070
   178
1070
   256
1002
}
  0
DIMENSION
  5
253
330
213
100
AcDbEntity
  8
ZEICHNUNGSBEMASSUNGEN
  6
Continuous
 62
     7
100
AcDbDimension
  2
*D2
 10
725.7495195541
 20
425.5243690506038
 30
0.0
 11
544.2842726634744
 21
425.5243690506038
 31
0.0
 70
   160
  1
%%c<>
 71
     2
 42
360.0
  3
DIMSTYLE_2
100
AcDbAlignedDimension
 13
365.7495195541001
 23
379.4808213183
 33
0.0
 14
725.7495195541
 24
379.4808213183
 34
0.0
100
AcDbRotatedDimension
1001
ACAD
1000
DSTYLE
1002
{
1070
    41
1040
5.0
1070
   140
1040
7.0
1070
   147
1040
1.5
1070
   178
1070
   256
1002
}
  0
DIMENSION
  5
254
330
213
100
AcDbEntity
  8
ZEICHNUNGSBEMASSUNGEN
  6
Continuous
 62
     7
100
AcDbDimension
  2
*D3
 10
354.8047956146
 20
381.9531869373001
 30
0.0
 11
354.8047956146
 21
304.8472139024
 31
0.0
 70
   160
 71
     2
 42
147.5069710927
  3
DIMSTYLE_2
100
AcDbAlignedDimension
 13
508.7495195522
 23
234.4462158446
 33
0.0
 14
479.228816449
 24
381.9531869373
 34
0.0
 50
90.0
100
AcDbRotatedDimension
1001
ACAD
1000
DSTYLE
1002
{
1070
    41
1040
5.0
1070
   140
1040
7.0
1070
   147
1040
1.5
1070
   178
1070
   256
1002
}
  0
DIMENSION
  5
255
330
213
100
AcDbEntity
  8
ZEICHNUNGSBEMASSUNGEN
  6
Continuous
 62
     7
100
AcDbDimension
  2
*D4
 10
734.8047956146001
 20
381.9531869358999
 30
0.0
 11
734.8047956146
 21
324.3472139017
 31
0.0
 70
   160
 71
     2
 42
108.5069710912999
  3
DIMSTYLE_2
100
AcDbAlignedDimension
 13
685.2495195541
 23
273.4462158446
 33
0.0
 14
612.2702227362999
 24
381.9531869359
 34
0.0
 50
90.0
100
AcDbRotatedDimension
1001
ACAD
1000
DSTYLE
1002
{
1070
    41
1040
5.0
1070
   140
1040
7.0
1070
   147
1040
1.5
1070
   178
1070
   256
1002
}
  0
DIMENSION
  5
256
330
213
100
AcDbEntity
  8
ZEICHNUNGSBEMASSUNGEN
  6
Continuous
 62
     7
100
AcDbDimension
  2
*D5
 10
680.7495195541
 20
222.4020702483842
 30
0.0
 11
615.1375917006671
 21
222.4020702483842
 31
0.0
 70
   160
 71
     2
 42
135.0
  3
DIMSTYLE_2
100
AcDbAlignedDimension
 13
545.7495195541
 23
229.8262110444
 33
0.0
 14
680.7495195541
 24
232.9462158446
 34
0.0
100
AcDbRotatedDimension
1001
ACAD
1000
DSTYLE
1002
{
1070
    41
1040
5.0
1070
   140
1040
7.0
1070
   147
1040
1.5
1070
   178
1070
   256
1002
}
  0
LINE
  5
257
330
213
100
AcDbEntity
  8
0
  6
Continuous
 62
     7
100
AcDbLine
 10
365.7495195541001
 20
376.9116103708
 30
0.0
 11
365.7495195541001
 21
377.9808213183
 31
0.0
  0
LINE
  5
258
330
213
100
AcDbEntity
  8
0
  6
Continuous
 62
     7
100
AcDbLine
 10
510.2495195541
 20
234.4462158446
 30
0.0
 11
680.7495195541
 21
234.4462158446
 31
0.0
  0
LINE
  5
259
330
213
100
AcDbEntity
  8
0
  6
Continuous
 62
     7
100
AcDbLine
 10
510.2495195541
 20
239.9462158446
 30
0.0
 11
680.7495195541
 21
239.9462158446
 31
0.0
  0
LINE
  5
25B
330
213
100
AcDbEntity
  8
0
  6
Continuous
 62
     7
100
AcDbLine
 10
468.9233319523999
 20
360.6507533408999
 30
0.0
 11
468.5861014497
 21
370.3077714319001
 31
0.0
  0
LINE
  5
25C
330
213
100
AcDbEntity
  8
0
  6
Continuous
 62
     7
100
AcDbLine
 10
473.3678050938999
 20
355.0643161403
 30
0.0
 11
473.6548222002999
 21
346.8452215851
 31
0.0
  0
LINE
  5
25D
330
213
100
AcDbEntity
  8
0
  6
Continuous
 62
     7
100
AcDbLine
 10
474.8067339527
 20
342.5124932316
 30
0.0
 11
476.1931783435
 21
302.8099204926
 31
0.0
  0
LINE
  5
25E
330
213
100
AcDbEntity
  8
0
  6
Continuous
 62
     7
100
AcDbLine
 10
474.7495195541
 20
363.8067276532
 30
0.0
 11
474.7495195541
 21
372.841333127
 31
0.0
  0
LINE
  5
261
330
213
100
AcDbEntity
  8
0
  6
Continuous
 62
     7
100
AcDbLine
 10
476.6772060569
 20
300.8318624921
 30
0.0
 11
489.981137991
 21
272.939589153
 31
0.0
  0
LINE
  5
262
330
213
100
AcDbEntity
  8
0
  6
Continuous
 62
     7
100
AcDbLine
 10
481.9973461158
 20
303.1226553561
 30
0.0
 11
481.8083114988
 21
361.7213472664
 31
0.0
  0
LINE
  5
263
330
213
100
AcDbEntity
  8
0
  6
Continuous
 62
     7
100
AcDbLine
 10
481.7495195541
 20
379.9462158446
 30
0.0
 11
481.7462602495999
 21
380.9565650847
 31
0.0
  0
LINE
  5
264
330
213
100
AcDbEntity
  8
0
  6
Continuous
 62
     7
100
AcDbLine
 10
481.7495195541
 20
374.9289131077
 30
0.0
 11
481.7495195541
 21
379.9462158446
 31
0.0
  0
LINE
  5
265
330
213
100
AcDbEntity
  8
RUNDUNGEN
  6
Continuous
 62
     9
100
AcDbLine
 10
545.7495195541
 20
261.2485903422
 30
0.0
 11
565.7495195541001
 21
261.2485903422
 31
0.0
  0
LINE
  5
266
330
213
100
AcDbEntity
  8
RUNDUNGEN
  6
Continuous
 62
     9
100
AcDbLine
 10
545.7495195541
 20
262.2484380373
 30
0.0
 11
565.7495195541001
 21
262.2484380373
 31
0.0
  0
LINE
  5
267
330
213
100
AcDbEntity
  8
0
  6
Continuous
 62
     7
100
AcDbLine
 10
590.2508911359999
 20
262.9291855463
 30
0.0
 11
576.7495195547
 21
262.9291855463
 31
0.0
  0
LINE
  5
268
330
213
100
AcDbEntity
  8
0
  6
Continuous
 62
     7
100
AcDbLine
 10
506.7495234591
 20
262.9294902024
 30
0.0
 11
514.7495244757
 21
262.9294902024
 31
0.0
  0
LINE
  5
269
330
213
100
AcDbEntity
  8
0
  6
Continuous
 62
     7
100
AcDbLine
 10
474.3001159341
 20
344.5372910555999
 30
0.0
 11
474.1614418719
 21
344.820424407
 31
0.0
  0
LINE
  5
26A
330
213
100
AcDbEntity
  8
0
  6
Continuous
 62
     7
100
AcDbLine
 10
491.4848221403
 20
282.56256251
 30
0.0
 11
482.2895746530999
 21
301.8407997715
 31
0.0
  0
LINE
  5
26B
330
213
100
AcDbEntity
  8
0
  6
Continuous
 62
     7
100
AcDbLine
 10
500.2495195541
 20
244.4462158446
 30
0.0
 11
500.2495195541
 21
267.9838761018
 31
0.0
  0
LINE
  5
26C
330
213
100
AcDbEntity
  8
0
  6
Continuous
 62
     7
100
AcDbLine
 10
505.7495195541
 20
244.4462158446
 30
0.0
 11
505.7495195541
 21
261.9293379364
 31
0.0
  0
LINE
  5
26D
330
213
100
AcDbEntity
  8
0
  6
Continuous
 62
     7
100
AcDbLine
 10
600.1596144132999
 20
271.2949796281
 30
0.0
 11
592.2012270296
 21
270.8778982186
 31
0.0
  0
LINE
  5
26E
330
213
100
AcDbEntity
  8
0
  6
Continuous
 62
     7
100
AcDbLine
 10
584.1971835978999
 20
281.2100681574
 30
0.0
 11
599.1639676398
 21
281.9944440721
 31
0.0
  0
LINE
  5
26F
330
213
100
AcDbEntity
  8
0
  6
Continuous
 62
     7
100
AcDbLine
 10
576.7320671476999
 20
269.0466406344
 30
0.0
 11
582.2669719605999
 21
269.1432527573
 31
0.0
  0
LINE
  5
270
330
213
100
AcDbEntity
  8
0
  6
Continuous
 62
     9
100
AcDbLine
 10
575.7495195541
 20
268.0467929393
 30
0.0
 11
515.7495195541001
 21
268.0467929393
 31
0.0
  0
LINE
  5
272
330
213
100
AcDbEntity
  8
0
  6
Continuous
 62
     9
100
AcDbLine
 10
514.7669719606
 20
269.0466406344
 30
0.0
 11
576.7320671476999
 21
269.0466406344
 31
0.0
  0
LINE
  5
273
330
213
100
AcDbEntity
  8
0
  6
Continuous
 62
     9
100
AcDbLine
 10
582.2669719605999
 20
269.1432527573
 30
0.0
 11
509.2320671477
 21
269.1432527573
 31
0.0
  0
LINE
  5
274
330
213
100
AcDbEntity
  8
0
  6
Continuous
 62
     9
100
AcDbLine
 10
508.2495195541
 20
270.1431004525
 30
0.0
 11
583.2495195541
 21
270.1431004525
 31
0.0
  0
LINE
  5
275
330
213
100
AcDbEntity
  8
0
  6
CENTER
100
AcDbLine
 10
683.7495195541
 20
273.4462158446
 30
0.0
 11
612.7495195541
 21
273.4462158446
 31
0.0
  0
LINE
  5
276
330
213
100
AcDbEntity
  8
0
  6
Continuous
 62
     9
100
AcDbLine
 10
508.2495195541
 20
280.2114386227
 30
0.0
 11
583.2495195541
 21
280.2114386227
 31
0.0
  0
LINE
  5
277
330
213
100
AcDbEntity
  8
0
  6
Continuous
 62
     7
100
AcDbLine
 10
514.7669719606
 20
269.0466406344
 30
0.0
 11
509.2320671477
 21
269.1432527573
 31
0.0
  0
LINE
  5
278
330
213
100
AcDbEntity
  8
0
  6
Continuous
 62
     7
100
AcDbLine
 10
492.5318859753
 20
271.2352338391
 30
0.0
 11
497.4065274227999
 21
270.9797647061
 31
0.0
  0
LINE
  5
279
330
213
100
AcDbEntity
  8
0
  6
Continuous
 62
     7
100
AcDbLine
 10
507.3018555104
 20
281.2100681574
 30
0.0
 11
492.3350714684
 21
281.9944440721
 31
0.0
  0
LINE
  5
27A
330
213
100
AcDbEntity
  8
RUNDUNGEN
  6
Continuous
 62
     9
100
AcDbLine
 10
592.0418161298
 20
262.3323910163
 30
0.0
 11
590.2508911337
 21
262.9288809366
 31
0.0
  0
LINE
  5
27B
330
213
100
AcDbEntity
  8
0
  6
Continuous
 62
     7
100
AcDbLine
 10
508.2495195541
 20
270.1431004525
 30
0.0
 11
508.2495195541
 21
280.2114386227
 31
0.0
  0
LINE
  5
27C
330
213
100
AcDbEntity
  8
0
  6
Continuous
 62
     7
100
AcDbLine
 10
515.7495195541001
 20
263.9296424913
 30
0.0
 11
515.7495195541001
 21
268.0467929393
 31
0.0
  0
LINE
  5
27D
330
213
100
AcDbEntity
  8
0
  6
Continuous
 62
     9
100
AcDbLine
 10
507.3018555104
 20
281.2100681574
 30
0.0
 11
584.1971835978999
 21
281.2100681574
 31
0.0
  0
LINE
  5
27E
330
213
100
AcDbEntity
  8
RUNDUNGEN
  6
Continuous
 62
     9
100
AcDbLine
 10
534.6421470358999
 20
281.6326118917
 30
0.0
 11
556.8568920724
 21
281.6326118917
 31
0.0
  0
LINE
  5
27F
330
213
100
AcDbEntity
  8
0
  6
Continuous
 62
     9
100
AcDbLine
 10
492.3350714684
 20
281.9944440721
 30
0.0
 11
530.9603976395
 21
281.9944440722
 31
0.0
  0
LINE
  5
280
330
213
100
AcDbEntity
  8
0
  6
Continuous
 62
     9
100
AcDbLine
 10
560.5386414687
 20
281.9944440722
 30
0.0
 11
599.1639676398
 21
281.9944440721
 31
0.0
  0
LINE
  5
281
330
213
100
AcDbEntity
  8
RUNDUNGEN
  6
Continuous
 62
     9
100
AcDbLine
 10
534.420233883
 20
282.440432431
 30
0.0
 11
557.0788052509
 21
282.440432431
 31
0.0
  0
LINE
  5
282
330
213
100
AcDbEntity
  8
0
  6
Continuous
 62
     9
100
AcDbLine
 10
491.4848221403
 20
282.56256251
 30
0.0
 11
530.7249849109999
 21
282.5625625098
 31
0.0
  0
LINE
  5
283
330
213
100
AcDbEntity
  8
0
  6
Continuous
 62
     9
100
AcDbLine
 10
560.7740566664
 20
282.5625625098
 30
0.0
 11
600.0142169679
 21
282.56256251
 31
0.0
  0
LINE
  5
284
330
213
100
AcDbEntity
  8
RUNDUNGEN
  6
Continuous
 62
     9
100
AcDbLine
 10
593.0379619493
 20
263.3330659439
 30
0.0
 11
591.2550051766
 21
263.9269019479
 31
0.0
  0
LINE
  5
285
330
213
100
AcDbEntity
  8
RUNDUNGEN
  6
Continuous
 62
     9
100
AcDbLine
 10
528.2700196770999
 20
303.1226553561
 30
0.0
 11
528.2631123880999
 21
311.4023182249
 31
0.0
  0
LINE
  5
286
330
213
100
AcDbEntity
  8
RUNDUNGEN
  6
Continuous
 62
     9
100
AcDbLine
 10
529.5048817977
 20
309.4024607871
 30
0.0
 11
529.5101229624999
 21
303.125881258
 31
0.0
  0
LINE
  5
287
330
213
100
AcDbEntity
  8
RUNDUNGEN
  6
Continuous
 62
     9
100
AcDbLine
 10
530.8192815351999
 20
374.9289131077
 30
0.0
 11
530.8192815351999
 21
379.9462158446
 31
0.0
  0
LINE
  5
288
330
213
100
AcDbEntity
  8
RUNDUNGEN
  6
Continuous
 62
     9
100
AcDbLine
 10
531.5519223925
 20
374.9289140056
 30
0.0
 11
531.5519223925
 21
379.9446029132
 31
0.0
  0
LINE
  5
289
330
213
100
AcDbEntity
  8
RUNDUNGEN
  6
Continuous
 62
     9
100
AcDbLine
 10
533.2547886216
 20
374.8267629964
 30
0.0
 11
533.2548031116999
 21
380.8512458896
 31
0.0
  0
LINE
  5
28A
330
213
100
AcDbEntity
  8
RUNDUNGEN
  6
Continuous
 62
     9
100
AcDbLine
 10
533.9760975108
 20
304.4289131077
 30
0.0
 11
533.9760975108
 21
308.4972512779
 31
0.0
  0
LINE
  5
28B
330
213
100
AcDbEntity
  8
RUNDUNGEN
  6
Continuous
 62
     9
100
AcDbLine
 10
534.0560172321
 20
374.8267639013
 30
0.0
 11
534.0559731661
 21
380.8312105288
 31
0.0
  0
LINE
  5
28C
330
213
100
AcDbEntity
  8
RUNDUNGEN
  6
Continuous
 62
     9
100
AcDbLine
 10
530.7992412458998
 20
358.2582135787
 30
0.0
 11
530.8024411804
 21
361.7213472664
 31
0.0
  0
LINE
  5
28D
330
213
100
AcDbEntity
  8
RUNDUNGEN
  6
Continuous
 62
     9
100
AcDbLine
 10
530.8192788313999
 20
379.9462158446
 30
0.0
 11
530.8202121686999
 21
380.9565650847
 31
0.0
  0
LINE
  5
28E
330
213
100
AcDbEntity
  8
RUNDUNGEN
  6
Continuous
 62
     9
100
AcDbLine
 10
531.5519223925
 20
379.9446029132
 30
0.0
 11
531.5528806598
 21
380.9533391826999
 31
0.0
  0
LINE
  5
28F
330
213
100
AcDbEntity
  8
0
  6
Continuous
 62
     9
100
AcDbLine
 10
609.2094644551999
 20
301.8407997715
 30
0.0
 11
563.1519255841999
 21
301.8407997731
 31
0.0
  0
LINE
  5
290
330
213
100
AcDbEntity
  8
0
  6
Continuous
 62
     9
100
AcDbLine
 10
528.3471135241
 20
301.8407997731
 30
0.0
 11
482.2895746530999
 21
301.8407997715
 31
0.0
  0
LINE
  5
291
330
213
100
AcDbEntity
  8
RUNDUNGEN
  6
Continuous
 62
     9
100
AcDbLine
 10
558.0693594416999
 20
302.1541912771
 30
0.0
 11
533.4296796664999
 21
302.1541912771
 31
0.0
  0
LINE
  5
292
330
213
100
AcDbEntity
  8
0
  6
Continuous
 62
     9
100
AcDbLine
 10
481.9973461158
 20
303.1226553561
 30
0.0
 11
528.2700196770999
 21
303.1226553561
 31
0.0
  0
LINE
  5
293
330
213
100
AcDbEntity
  8
RUNDUNGEN
  6
Continuous
 62
     9
100
AcDbLine
 10
563.2290194311
 20
303.1226553561
 30
0.0
 11
604.4685663094
 21
303.1226553561
 31
0.0
  0
LINE
  5
294
330
213
100
AcDbEntity
  8
0
  6
Continuous
 62
     9
100
AcDbLine
 10
604.4685663094
 20
303.122655356
 30
0.0
 11
609.5016929924
 21
303.1226553561
 31
0.0
  0
LINE
  5
295
330
213
100
AcDbEntity
  8
RUNDUNGEN
  6
Continuous
 62
     9
100
AcDbLine
 10
557.8018611609
 20
303.3448479676
 30
0.0
 11
533.6971779473999
 21
303.3448479676
 31
0.0
  0
LINE
  5
296
330
213
100
AcDbEntity
  8
RUNDUNGEN
  6
Continuous
 62
     9
100
AcDbLine
 10
556.5528703465999
 20
303.4290654125
 30
0.0
 11
534.9461687616999
 21
303.4290654125
 31
0.0
  0
LINE
  5
297
330
213
100
AcDbEntity
  8
RUNDUNGEN
  6
Continuous
 62
     9
100
AcDbLine
 10
557.5229415973999
 20
304.4289131077
 30
0.0
 11
533.9760975108
 21
304.4289131077
 31
0.0
  0
LINE
  5
298
330
213
100
AcDbEntity
  8
0
  6
Continuous
 62
     7
100
AcDbLine
 10
616.4187385209999
 20
306.9462158446
 30
0.0
 11
680.7495195541
 21
306.9462158446
 31
0.0
  0
LINE
  5
299
330
213
100
AcDbEntity
  8
RUNDUNGEN
  6
Continuous
 62
     9
100
AcDbLine
 10
615.3113430455
 20
302.8097290472
 30
0.0
 11
616.0448159783999
 21
302.7841156079
 31
0.0
  0
LINE
  5
29A
330
213
100
AcDbEntity
  8
RUNDUNGEN
  6
Continuous
 62
     9
100
AcDbLine
 10
535.1795507264999
 20
304.4289131077
 30
0.0
 11
535.1795507264999
 21
308.4972512779
 31
0.0
  0
LINE
  5
29B
330
213
100
AcDbEntity
  8
0
  6
Continuous
 62
     7
100
AcDbLine
 10
537.7495195541
 20
381.8312105288
 30
0.0
 11
537.7495195541
 21
382.5294902024
 31
0.0
  0
LINE
  5
29C
330
213
100
AcDbEntity
  8
0
  6
Continuous
 62
     7
100
AcDbLine
 10
537.7495195541
 20
384.4462158446
 30
0.0
 11
537.7495195541
 21
394.4462158446
 31
0.0
  0
LINE
  5
29D
330
213
100
AcDbEntity
  8
0
  6
Continuous
 62
     7
100
AcDbLine
 10
538.7495195541
 20
394.4462158446
 30
0.0
 11
538.7495195541
 21
402.4462158446
 31
0.0
  0
LINE
  5
29E
330
213
100
AcDbEntity
  8
0
  6
Continuous
 62
     7
100
AcDbLine
 10
539.2495195541
 20
382.6794902023999
 30
0.0
 11
539.2495195541
 21
384.4462158446
 31
0.0
  0
LINE
  5
29F
330
213
100
AcDbEntity
  8
0
  6
Continuous
 62
     7
100
AcDbLine
 10
539.9495195541
 20
382.6794902023999
 30
0.0
 11
539.9495195541
 21
382.5294902024
 31
0.0
  0
LINE
  5
2A0
330
213
100
AcDbEntity
  8
RUNDUNGEN
  6
Continuous
 62
     9
100
AcDbLine
 10
545.7495195541
 20
244.5752074942
 30
0.0
 11
545.7495195541
 21
262.2484380373
 31
0.0
  0
LINE
  5
2A1
330
213
100
AcDbEntity
  8
0
  6
Continuous
 62
     7
100
AcDbLine
 10
545.7495195541
 20
383.5350437019
 30
0.0
 11
545.7495195541
 21
384.4462158446
 31
0.0
  0
LINE
  5
2A2
330
213
100
AcDbEntity
  8
0
  6
CENTER
100
AcDbLine
 10
545.7495195541
 20
231.3262110444
 30
0.0
 11
545.7495195541
 21
402.4462158446
 31
0.0
  0
LINE
  5
2A3
330
213
100
AcDbEntity
  8
RUNDUNGEN
  6
Continuous
 62
     9
100
AcDbLine
 10
557.5229415973999
 20
308.4972512779
 30
0.0
 11
533.9760975108
 21
308.4972512779
 31
0.0
  0
LINE
  5
2A4
330
213
100
AcDbEntity
  8
RUNDUNGEN
  6
Continuous
 62
     9
100
AcDbLine
 10
556.5445845480999
 20
309.4958808126
 30
0.0
 11
534.9544545601999
 21
309.4958808126
 31
0.0
  0
LINE
  5
2A5
330
213
100
AcDbEntity
  8
RUNDUNGEN
  6
Continuous
 62
     9
100
AcDbLine
 10
530.4517830431999
 20
310.4069145921
 30
0.0
 11
561.047256065
 21
310.4069145921
 31
0.0
  0
LINE
  5
2A6
330
213
100
AcDbEntity
  8
RUNDUNGEN
  6
Continuous
 62
     9
100
AcDbLine
 10
528.2631123880999
 20
311.4023182249
 30
0.0
 11
563.2359267201
 21
311.4023182249
 31
0.0
  0
LINE
  5
2A7
330
213
100
AcDbEntity
  8
0
  6
Continuous
 62
     7
100
AcDbLine
 10
618.7489585548
 20
312.4462158446
 30
0.0
 11
680.7495195541
 21
312.4462158446
 31
0.0
  0
LINE
  5
2A8
330
213
100
AcDbEntity
  8
RUNDUNGEN
  6
Continuous
 62
     9
100
AcDbLine
 10
593.0727873216999
 20
268.1528892511
 30
0.0
 11
591.2550051766
 21
269.8779000968
 31
0.0
  0
LINE
  5
2A9
330
213
100
AcDbEntity
  8
RUNDUNGEN
  6
Continuous
 62
     9
100
AcDbLine
 10
594.0191526248001
 20
269.1501501988
 30
0.0
 11
592.2013704797
 21
270.8751610445
 31
0.0
  0
LINE
  5
2AA
330
213
100
AcDbEntity
  8
RUNDUNGEN
  6
Continuous
 62
     9
100
AcDbLine
 10
559.9461584483999
 20
380.9533391826999
 30
0.0
 11
559.9471167157999
 21
379.9446029132
 31
0.0
  0
LINE
  5
2AB
330
213
100
AcDbEntity
  8
RUNDUNGEN
  6
Continuous
 62
     9
100
AcDbLine
 10
560.6788269395999
 20
380.9565650847
 30
0.0
 11
560.6797602768999
 21
379.9462158446
 31
0.0
  0
LINE
  5
2AC
330
213
100
AcDbEntity
  8
RUNDUNGEN
  6
Continuous
 62
     9
100
AcDbLine
 10
560.6965979277999
 20
361.7213472664
 30
0.0
 11
560.6997978624
 21
358.2582135784
 31
0.0
  0
LINE
  5
2AD
330
213
100
AcDbEntity
  8
0
  6
Continuous
 62
     7
100
AcDbLine
 10
551.5495195540999
 20
382.6794902023999
 30
0.0
 11
551.5495195540999
 21
382.5294902024
 31
0.0
  0
LINE
  5
2AE
330
213
100
AcDbEntity
  8
0
  6
Continuous
 62
     7
100
AcDbLine
 10
552.2495195541
 20
382.6794902023999
 30
0.0
 11
552.2495195541
 21
384.4462158446
 31
0.0
  0
LINE
  5
2AF
330
213
100
AcDbEntity
  8
0
  6
Continuous
 62
     7
100
AcDbLine
 10
552.7495195541
 20
394.4462158446
 30
0.0
 11
552.7495195541
 21
402.4462158446
 31
0.0
  0
LINE
  5
2B0
330
213
100
AcDbEntity
  8
0
  6
Continuous
 62
     7
100
AcDbLine
 10
553.7495195541001
 20
381.8312105288
 30
0.0
 11
553.7495195541001
 21
382.5294902024
 31
0.0
  0
LINE
  5
2B1
330
213
100
AcDbEntity
  8
0
  6
Continuous
 62
     7
100
AcDbLine
 10
553.7495195541001
 20
384.4462158446
 30
0.0
 11
553.7495195541001
 21
394.4462158446
 31
0.0
  0
LINE
  5
2B2
330
213
100
AcDbEntity
  8
RUNDUNGEN
  6
Continuous
 62
     9
100
AcDbLine
 10
556.3194883817
 20
308.4972512779
 30
0.0
 11
556.3194883817
 21
304.4289131077
 31
0.0
  0
LINE
  5
2B3
330
213
100
AcDbEntity
  8
RUNDUNGEN
  6
Continuous
 62
     9
100
AcDbLine
 10
557.4430657217
 20
380.8312105288
 30
0.0
 11
557.4430218761
 21
374.8267639033
 31
0.0
  0
LINE
  5
2B4
330
213
100
AcDbEntity
  8
RUNDUNGEN
  6
Continuous
 62
     9
100
AcDbLine
 10
557.5229415973999
 20
308.4972512779
 30
0.0
 11
557.5229415973999
 21
304.4289131077
 31
0.0
  0
LINE
  5
2B5
330
213
100
AcDbEntity
  8
RUNDUNGEN
  6
Continuous
 62
     9
100
AcDbLine
 10
558.2442355488999
 20
380.8512458626
 30
0.0
 11
558.2442504866
 21
374.8267627737
 31
0.0
  0
LINE
  5
2B6
330
213
100
AcDbEntity
  8
RUNDUNGEN
  6
Continuous
 62
     9
100
AcDbLine
 10
559.9471167157999
 20
379.9446029132
 30
0.0
 11
559.9471167157999
 21
374.9289136641
 31
0.0
  0
LINE
  5
2B7
330
213
100
AcDbEntity
  8
RUNDUNGEN
  6
Continuous
 62
     9
100
AcDbLine
 10
560.679757573
 20
379.9462158446
 30
0.0
 11
560.679757573
 21
374.9289131077
 31
0.0
  0
LINE
  5
2B8
330
213
100
AcDbEntity
  8
RUNDUNGEN
  6
Continuous
 62
     9
100
AcDbLine
 10
614.8267842934999
 20
300.8295008707
 30
0.0
 11
615.7122288648
 21
300.4071654747
 31
0.0
  0
LINE
  5
2BA
330
213
100
AcDbEntity
  8
RUNDUNGEN
  6
Continuous
 62
     9
100
AcDbLine
 10
561.9889161457
 20
303.125881258
 30
0.0
 11
561.9941573106
 21
309.4024607871
 31
0.0
  0
LINE
  5
2BB
330
213
100
AcDbEntity
  8
RUNDUNGEN
  6
Continuous
 62
     9
100
AcDbLine
 10
563.2359267201
 20
311.4023182249
 30
0.0
 11
563.2290194311
 21
303.1226553561
 31
0.0
  0
LINE
  5
2BC
330
213
100
AcDbEntity
  8
RUNDUNGEN
  6
Continuous
 62
     9
100
AcDbLine
 10
600.1597578624999
 20
271.2922424539
 30
0.0
 11
601.2908343395999
 21
269.5994668803
 31
0.0
  0
LINE
  5
2BD
330
213
100
AcDbEntity
  8
RUNDUNGEN
  6
Continuous
 62
     9
100
AcDbLine
 10
601.0088419535
 20
271.8595823053
 30
0.0
 11
602.1352142901
 21
270.1738469754
 31
0.0
  0
LINE
  5
2BE
330
213
100
AcDbEntity
  8
0
  6
Continuous
 62
     7
100
AcDbLine
 10
575.7495195541
 20
263.9291855463
 30
0.0
 11
575.7495195541
 21
268.0467929393
 31
0.0
  0
LINE
  5
2BF
330
213
100
AcDbEntity
  8
0
  6
Continuous
 62
     7
100
AcDbLine
 10
583.2495195541
 20
270.1431004525
 30
0.0
 11
583.2495195541
 21
280.2114386227
 31
0.0
  0
LINE
  5
2C0
330
213
100
AcDbEntity
  8
0
  6
Continuous
 62
     9
100
AcDbLine
 10
576.7495195541
 20
262.9291855463
 30
0.0
 11
576.7494753398999
 21
262.9288809366
 31
0.0
  0
LINE
  5
2C1
330
213
100
AcDbEntity
  8
RUNDUNGEN
  6
Continuous
 62
     9
100
AcDbLine
 10
532.3325300397
 20
356.4235741823001
 30
0.0
 11
559.1665090694999
 21
356.4235741823001
 31
0.0
  0
LINE
  5
2C2
330
213
100
AcDbEntity
  8
RUNDUNGEN
  6
Continuous
 62
     9
100
AcDbLine
 10
532.257773133
 20
357.1863927235
 30
0.0
 11
559.2412659762999
 21
357.1863927235
 31
0.0
  0
LINE
  5
2C3
330
213
100
AcDbEntity
  8
0
  6
Continuous
 62
     9
100
AcDbLine
 10
590.2508911359999
 20
262.9291855463
 30
0.0
 11
590.2508911347
 21
262.9288809366
 31
0.0
  0
LINE
  5
2C4
330
213
100
AcDbEntity
  8
0
  6
Continuous
 62
     7
100
AcDbLine
 10
591.2522642461
 20
269.8779000968
 30
0.0
 11
591.2522642461
 21
263.9269019456
 31
0.0
  0
LINE
  5
2C5
330
213
100
AcDbEntity
  8
0
  6
Continuous
 62
     7
100
AcDbLine
 10
617.3375998548999
 20
344.8204543766
 30
0.0
 11
617.1989263767
 21
344.5373220879
 31
0.0
  0
LINE
  5
2C6
330
213
100
AcDbEntity
  8
0
  6
Continuous
 62
     7
100
AcDbLine
 10
610.6732699998
 20
362.7179690596
 30
0.0
 11
615.7669719605999
 21
362.806879958
 31
0.0
  0
LINE
  5
2C7
330
213
100
AcDbEntity
  8
0
  6
Continuous
 62
     7
100
AcDbLine
 10
625.8587529202999
 20
373.2026160272
 30
0.0
 11
723.7844243669999
 21
374.9119149805001
 31
0.0
  0
LINE
  5
2C8
330
213
100
AcDbEntity
  8
0
  6
Continuous
 62
     9
100
AcDbLine
 10
609.6907276095
 20
361.7213472664
 30
0.0
 11
560.6965979277999
 21
361.7213472664
 31
0.0
  0
LINE
  5
2C9
330
213
100
AcDbEntity
  8
0
  6
Continuous
 62
     9
100
AcDbLine
 10
530.8024411804
 20
361.7213472664
 30
0.0
 11
481.8083114988
 21
361.7213472664
 31
0.0
  0
LINE
  5
2CA
330
213
100
AcDbEntity
  8
RUNDUNGEN
  6
Continuous
 62
     9
100
AcDbLine
 10
558.0933727955
 20
362.5242936051
 30
0.0
 11
533.4056663137999
 21
362.5242936051
 31
0.0
  0
LINE
  5
2CB
330
213
100
AcDbEntity
  8
0
  6
Continuous
 62
     9
100
AcDbLine
 10
480.8257691085
 20
362.7179690596
 30
0.0
 11
530.5729933428
 21
362.7179690596
 31
0.0
  0
LINE
  5
2CC
330
213
100
AcDbEntity
  8
0
  6
Continuous
 62
     9
100
AcDbLine
 10
560.9260457653999
 20
362.7179690596
 30
0.0
 11
610.6732699998
 21
362.7179690596
 31
0.0
  0
LINE
  5
2CD
330
213
100
AcDbEntity
  8
0
  6
Continuous
 62
     9
100
AcDbLine
 10
615.7669719605999
 20
362.806879958
 30
0.0
 11
559.4426251619999
 21
362.8068799580999
 31
0.0
  0
LINE
  5
2CE
330
213
100
AcDbEntity
  8
0
  6
Continuous
 62
     9
100
AcDbLine
 10
532.0564139655999
 20
362.8068799580999
 30
0.0
 11
475.7320671477
 21
362.806879958
 31
0.0
  0
LINE
  5
2CF
330
213
100
AcDbEntity
  8
RUNDUNGEN
  6
Continuous
 62
     9
100
AcDbLine
 10
558.1561780512
 20
363.2903380482
 30
0.0
 11
533.3428815347
 21
363.2903380482
 31
0.0
  0
LINE
  5
2D0
330
213
100
AcDbEntity
  8
0
  6
Continuous
 62
     9
100
AcDbLine
 10
474.7495195541
 20
363.8067276532
 30
0.0
 11
531.8645678208
 21
363.8067276532
 31
0.0
  0
LINE
  5
2D1
330
213
100
AcDbEntity
  8
0
  6
Continuous
 62
     9
100
AcDbLine
 10
559.6344712873999
 20
363.8067276532
 30
0.0
 11
616.7495195541
 21
363.8067276532
 31
0.0
  0
LINE
  5
2D2
330
213
100
AcDbEntity
  8
0
  6
Continuous
 62
     9
100
AcDbLine
 10
474.7495195541
 20
372.841333127
 30
0.0
 11
531.8645678123
 21
372.841333127
 31
0.0
  0
LINE
  5
2D3
330
213
100
AcDbEntity
  8
0
  6
Continuous
 62
     9
100
AcDbLine
 10
559.6344712988
 20
372.841333127
 30
0.0
 11
616.7495195541
 21
372.841333127
 31
0.0
  0
LINE
  5
2D4
330
213
100
AcDbEntity
  8
0
  6
Continuous
 62
     7
100
AcDbLine
 10
480.8257691085
 20
362.7179690596
 30
0.0
 11
475.7320671477
 21
362.806879958
 31
0.0
  0
LINE
  5
2D5
330
213
100
AcDbEntity
  8
0
  6
Continuous
 62
     7
100
AcDbLine
 10
465.640286188
 20
373.2026160272
 30
0.0
 11
367.7146147412
 21
374.9119149805001
 31
0.0
  0
LINE
  5
2D6
330
213
100
AcDbEntity
  8
0
  6
Continuous
 62
     7
100
AcDbLine
 10
609.7495195541
 20
374.9289131077
 30
0.0
 11
609.7495195541
 21
379.9462158446
 31
0.0
  0
LINE
  5
2D7
330
213
100
AcDbEntity
  8
0
  6
Continuous
 62
     7
100
AcDbLine
 10
609.5016929924
 20
303.1226553561
 30
0.0
 11
609.6907276095
 21
361.7213472664
 31
0.0
  0
LINE
  5
2D8
330
213
100
AcDbEntity
  8
0
  6
Continuous
 62
     7
100
AcDbLine
 10
609.7495195541
 20
379.9462158446
 30
0.0
 11
609.7527788585999
 21
380.9565650847
 31
0.0
  0
LINE
  5
2D9
330
213
100
AcDbEntity
  8
0
  6
Continuous
 62
     7
100
AcDbLine
 10
600.0142169679
 20
282.56256251
 30
0.0
 11
609.2094644551999
 21
301.8407997715
 31
0.0
  0
LINE
  5
2DA
330
213
100
AcDbEntity
  8
RUNDUNGEN
  6
Continuous
 62
     7
100
AcDbLine
 10
559.1496473554
 20
381.8494057923
 30
0.0
 11
559.1499357783
 21
381.8494232349
 31
0.0
  0
LINE
  5
2DB
330
213
100
AcDbEntity
  8
0
  6
Continuous
 62
     7
100
AcDbLine
 10
560.8529134595999
 20
381.9515870562
 30
0.0
 11
559.1496468998
 21
381.8494131797
 31
0.0
  0
LWPOLYLINE
  5
2DC
330
213
100
AcDbEntity
  8
0
  6
Continuous
 62
     7
100
AcDbPolyline
 90
        5
 70
     0
 43
0.0
 10
559.1499357783
 20
381.8494232349
 10
559.1477007938
 20
381.8492910232
 10
559.1350233911
 20
381.8486044329
 10
559.1179352425
 20
381.8477883567
 10
559.097323284
 20
381.8469161139
  0
LINE
  5
2DD
330
213
100
AcDbEntity
  8
RUNDUNGEN
  6
Continuous
 62
     7
100
AcDbLine
 10
560.8529325968
 20
381.9515881111
 30
0.0
 11
560.8530664150999
 21
381.9515960168
 31
0.0
  0
LINE
  5
2DE
330
213
100
AcDbEntity
  8
0
  6
Continuous
 62
     7
100
AcDbLine
 10
559.097323284
 20
381.8469161139
 30
0.0
 11
559.0451366774
 21
381.8450604013
 31
0.0
  0
LINE
  5
2DF
330
213
100
AcDbEntity
  8
0
  6
Continuous
 62
     7
100
AcDbLine
 10
560.9121324261
 20
381.9533391614
 30
0.0
 11
560.8530664150999
 21
381.9515960168
 31
0.0
  0
LINE
  5
2E0
330
213
100
AcDbEntity
  8
0
  6
Continuous
 62
     7
100
AcDbLine
 10
559.0451366774
 20
381.8450604013
 30
0.0
 11
558.9790869979
 21
381.8431509841
 31
0.0
  0
LINE
  5
2E1
330
213
100
AcDbEntity
  8
0
  6
Continuous
 62
     7
100
AcDbLine
 10
558.9790869979
 20
381.8431509841
 30
0.0
 11
558.899708773
 21
381.8412730821
 31
0.0
  0
LINE
  5
2E2
330
213
100
AcDbEntity
  8
0
  6
Continuous
 62
     7
100
AcDbLine
 10
475.7320671477
 20
373.8411808221
 30
0.0
 11
480.7669719605999
 21
373.9290654125
 31
0.0
  0
LINE
  5
2E3
330
213
100
AcDbEntity
  8
0
  6
Continuous
 62
     7
100
AcDbLine
 10
367.7146147412
 20
379.9805167087
 30
0.0
 11
480.7288130464
 21
381.9531868779
 31
0.0
  0
LINE
  5
2E4
330
213
100
AcDbEntity
  8
0
  6
Continuous
 62
     7
100
AcDbLine
 10
558.899708773
 20
381.8412730821
 30
0.0
 11
558.7558489955999
 21
381.8386020138
 31
0.0
  0
LINE
  5
2E5
330
213
100
AcDbEntity
  8
0
  6
Continuous
 62
     7
100
AcDbLine
 10
558.7558489955999
 20
381.8386020138
 30
0.0
 11
558.5197953944999
 21
381.8354942301001
 31
0.0
  0
LINE
  5
2E6
330
213
100
AcDbEntity
  8
0
  6
Continuous
 62
     7
100
AcDbLine
 10
480.7288130464
 20
381.9531868779
 30
0.0
 11
480.7462654527999
 21
381.9533391827
 31
0.0
  0
LINE
  5
2E7
330
213
100
AcDbEntity
  8
0
  6
Continuous
 62
     7
100
AcDbLine
 10
558.5197953944999
 20
381.8354942301001
 30
0.0
 11
558.1602259949
 21
381.8326480222
 31
0.0
  0
LINE
  5
2E8
330
213
100
AcDbEntity
  8
0
  6
Continuous
 62
     7
100
AcDbLine
 10
558.1602259949
 20
381.8326480222
 30
0.0
 11
557.7430207714
 21
381.831291709
 31
0.0
  0
LINE
  5
2E9
330
213
100
AcDbEntity
  8
0
  6
Continuous
 62
     9
100
AcDbLine
 10
475.7320671477
 20
373.8411808221
 30
0.0
 11
532.0563774244
 21
373.8411808221
 31
0.0
  0
LINE
  5
2EA
330
213
100
AcDbEntity
  8
0
  6
Continuous
 62
     9
100
AcDbLine
 10
559.4427039982
 20
373.8411808221
 30
0.0
 11
615.7669719605999
 21
373.8411808221
 31
0.0
  0
LINE
  5
2EB
330
213
100
AcDbEntity
  8
0
  6
Continuous
 62
     9
100
AcDbLine
 10
480.7669719605999
 20
373.9290654125
 30
0.0
 11
530.5902932455999
 21
373.9290654125
 31
0.0
  0
LINE
  5
2EC
330
213
100
AcDbEntity
  8
0
  6
Continuous
 62
     9
100
AcDbLine
 10
560.9088171533999
 20
373.9290654125
 30
0.0
 11
610.7320671476998
 21
373.9290654125
 31
0.0
  0
LINE
  5
2ED
330
213
100
AcDbEntity
  8
RUNDUNGEN
  6
Continuous
 62
     9
100
AcDbLine
 10
534.0560172321
 20
374.8267639013
 30
0.0
 11
533.2547886216
 21
374.8267639014
 31
0.0
  0
LINE
  5
2EE
330
213
100
AcDbEntity
  8
RUNDUNGEN
  6
Continuous
 62
     9
100
AcDbLine
 10
557.4430218761
 20
374.8267639033
 30
0.0
 11
558.2442504866
 21
374.8267639033
 31
0.0
  0
LINE
  5
2EF
330
213
100
AcDbEntity
  8
0
  6
Continuous
 62
     9
100
AcDbLine
 10
481.7495195541
 20
374.9289131077
 30
0.0
 11
530.8192815351999
 21
374.9289131077
 31
0.0
  0
LINE
  5
2F0
330
213
100
AcDbEntity
  8
RUNDUNGEN
  6
Continuous
 62
     9
100
AcDbLine
 10
530.8192815351999
 20
374.9289131077
 30
0.0
 11
531.5519223925
 21
374.9289131077
 31
0.0
  0
LINE
  5
2F1
330
213
100
AcDbEntity
  8
RUNDUNGEN
  6
Continuous
 62
     9
100
AcDbLine
 10
559.9471167157999
 20
374.9289131077
 30
0.0
 11
560.679757573
 21
374.9289131077
 31
0.0
  0
LINE
  5
2F2
330
213
100
AcDbEntity
  8
0
  6
Continuous
 62
     9
100
AcDbLine
 10
560.679757573
 20
374.9289131077
 30
0.0
 11
609.7495195541
 21
374.9289131077
 31
0.0
  0
LINE
  5
2F3
330
213
100
AcDbEntity
  8
0
  6
Continuous
 62
     7
100
AcDbLine
 10
609.7495195541
 20
379.9462158446
 30
0.0
 11
560.679757573
 21
379.9462158446
 31
0.0
  0
LINE
  5
2F4
330
213
100
AcDbEntity
  8
RUNDUNGEN
  6
Continuous
 62
     9
100
AcDbLine
 10
560.679757573
 20
379.9462158446
 30
0.0
 11
559.9471167157999
 21
379.9462158446
 31
0.0
  0
LINE
  5
2F5
330
213
100
AcDbEntity
  8
0
  6
Continuous
 62
     7
100
AcDbLine
 10
530.8192815351999
 20
379.9462158446
 30
0.0
 11
481.7495195541
 21
379.9462158446
 31
0.0
  0
LINE
  5
2F6
330
213
100
AcDbEntity
  8
RUNDUNGEN
  6
Continuous
 62
     9
100
AcDbLine
 10
557.4430657217
 20
380.8312105288
 30
0.0
 11
534.0559731661
 21
380.8312105288
 31
0.0
  0
LINE
  5
2F7
330
213
100
AcDbEntity
  8
0
  6
Continuous
 62
     9
100
AcDbLine
 10
609.7527788585999
 20
380.9565650847
 30
0.0
 11
560.6788269395999
 21
380.9565650847
 31
0.0
  0
LINE
  5
2F8
330
213
100
AcDbEntity
  8
0
  6
Continuous
 62
     9
100
AcDbLine
 10
530.8202121686999
 20
380.9565650847
 30
0.0
 11
481.7462602495999
 21
380.9565650847
 31
0.0
  0
LINE
  5
2F9
330
213
100
AcDbEntity
  8
0
  6
Continuous
 62
     7
100
AcDbLine
 10
557.7430207714
 20
381.831291709
 30
0.0
 11
533.8913200161
 21
381.8312105288
 31
0.0
  0
LINE
  5
2FA
330
213
100
AcDbEntity
  8
0
  6
Continuous
 62
     7
100
AcDbLine
 10
610.7080586918
 20
381.9533391827
 30
0.0
 11
560.9120842747
 21
381.9533391827
 31
0.0
  0
LINE
  5
2FB
330
213
100
AcDbEntity
  8
0
  6
Continuous
 62
     7
100
AcDbLine
 10
530.5869548336
 20
381.9533391827
 30
0.0
 11
480.7462654527999
 21
381.9533391827
 31
0.0
  0
LINE
  5
2FC
330
213
100
AcDbEntity
  8
0
  6
Continuous
 62
     7
100
AcDbLine
 10
537.7495195541
 20
382.5294902024
 30
0.0
 11
553.7495195541001
 21
382.5294902024
 31
0.0
  0
LINE
  5
2FD
330
213
100
AcDbEntity
  8
0
  6
Continuous
 62
     7
100
AcDbLine
 10
539.2495195541
 20
382.6794902023999
 30
0.0
 11
552.2495195541
 21
382.6794902023999
 31
0.0
  0
LINE
  5
2FE
330
213
100
AcDbEntity
  8
0
  6
Continuous
 62
     7
100
AcDbLine
 10
537.7495195541
 20
384.4462158446
 30
0.0
 11
553.7495195541001
 21
384.4462158446
 31
0.0
  0
LINE
  5
2FF
330
213
100
AcDbEntity
  8
0
  6
Continuous
 62
     7
100
AcDbLine
 10
533.8913226319999
 20
381.8312084322
 30
0.0
 11
533.4749337897
 21
381.8320102167
 31
0.0
  0
LINE
  5
300
330
213
100
AcDbEntity
  8
0
  6
Continuous
 62
     7
100
AcDbLine
 10
610.7702260618
 20
381.9531868779
 30
0.0
 11
610.7525769034999
 21
381.9533123621
 31
0.0
  0
LINE
  5
301
330
213
100
AcDbEntity
  8
0
  6
Continuous
 62
     7
100
AcDbLine
 10
533.4749337897
 20
381.8320102167
 30
0.0
 11
533.0999781914999
 21
381.8343287004
 31
0.0
  0
LINE
  5
302
330
213
100
AcDbEntity
  8
0
  6
Continuous
 62
     7
100
AcDbLine
 10
533.0999781914999
 20
381.8343287004
 30
0.0
 11
532.8637516211
 21
381.8368592123001
 31
0.0
  0
LINE
  5
303
330
213
100
AcDbEntity
  8
0
  6
Continuous
 62
     7
100
AcDbLine
 10
615.7669719605999
 20
373.8411808221
 30
0.0
 11
610.7320671476998
 21
373.9290654125
 31
0.0
  0
LINE
  5
304
330
213
100
AcDbEntity
  8
0
  6
Continuous
 62
     7
100
AcDbLine
 10
723.7844243669999
 20
379.9805167087
 30
0.0
 11
610.7702260618
 21
381.9531868779
 31
0.0
  0
LINE
  5
305
330
213
100
AcDbEntity
  8
0
  6
Continuous
 62
     7
100
AcDbLine
 10
532.8637516211
 20
381.8368592123001
 30
0.0
 11
532.6693793333
 21
381.8398810154
 31
0.0
  0
LINE
  5
306
330
213
100
AcDbEntity
  8
0
  6
Continuous
 62
     7
100
AcDbLine
 10
532.6693793333
 20
381.8398810154
 30
0.0
 11
532.5636962456
 21
381.84206915
 31
0.0
  0
LINE
  5
307
330
213
100
AcDbEntity
  8
0
  6
Continuous
 62
     7
100
AcDbLine
 10
532.5636962456
 20
381.84206915
 30
0.0
 11
532.4774107258
 21
381.8443370196
 31
0.0
  0
LINE
  5
308
330
213
100
AcDbEntity
  8
0
  6
Continuous
 62
     7
100
AcDbLine
 10
530.5869066822
 20
381.9533391614
 30
0.0
 11
530.6459726802
 21
381.9515960176
 31
0.0
  0
LWPOLYLINE
  5
309
330
213
100
AcDbEntity
  8
0
  6
Continuous
 62
     7
100
AcDbPolyline
 90
        5
 70
     0
 43
0.0
 10
532.4774107258
 20
381.8443370196
 10
532.4106657866
 20
381.8465662501
 10
532.3848509030999
 20
381.8476214489
 10
532.3646056305999
 20
381.8485745905001
 10
532.3601995965
 20
381.8488022779
  0
LINE
  5
30A
330
213
100
AcDbEntity
  8
0
  6
Continuous
 62
     7
100
AcDbLine
 10
532.3601995965
 20
381.8488022779
 30
0.0
 11
532.3488779297999
 21
381.8494375001
 31
0.0
  0
LINE
  5
30B
330
213
100
AcDbEntity
  8
RUNDUNGEN
  6
Continuous
 62
     7
100
AcDbLine
 10
530.6461065067
 20
381.9515881114
 30
0.0
 11
530.6459726802
 21
381.9515960176
 31
0.0
  0
LINE
  5
30C
330
213
100
AcDbEntity
  8
RUNDUNGEN
  6
Continuous
 62
     7
100
AcDbLine
 10
532.3493922041999
 20
381.84941318
 30
0.0
 11
532.3488783392999
 21
381.8494441987001
 31
0.0
  0
LINE
  5
30D
330
213
100
AcDbEntity
  8
0
  6
Continuous
 62
     7
100
AcDbLine
 10
532.3493922041999
 20
381.84941318
 30
0.0
 11
530.6461256438999
 21
381.9515870565
 31
0.0
  0
LINE
  5
310
330
213
100
AcDbEntity
  8
0
  6
Continuous
 62
     7
100
AcDbLine
 10
616.7495195541
 20
363.8067276532
 30
0.0
 11
616.7495195541
 21
372.841333127
 31
0.0
  0
LINE
  5
311
330
213
100
AcDbEntity
  8
0
  6
Continuous
 62
     7
100
AcDbLine
 10
616.6923064380999
 20
342.5125299602
 30
0.0
 11
615.7507860737
 21
315.5509143347
 31
0.0
  0
LINE
  5
312
330
213
100
AcDbEntity
  8
0
  6
Continuous
 62
     7
100
AcDbLine
 10
615.4193476930999
 20
305.9811153161
 30
0.0
 11
615.3086037847
 21
302.8098247043
 31
0.0
  0
LINE
  5
313
330
213
100
AcDbEntity
  8
0
  6
Continuous
 62
     7
100
AcDbLine
 10
618.1312340143001
 20
355.0643161403
 30
0.0
 11
617.8442180007
 21
346.8452528787
 31
0.0
  0
LINE
  5
314
330
213
100
AcDbEntity
  8
0
  6
Continuous
 62
     7
100
AcDbLine
 10
622.5757071558
 20
360.6507533408999
 30
0.0
 11
622.9129376584999
 21
370.3077714319001
 31
0.0
  0
LINE
  5
315
330
213
100
AcDbEntity
  8
0
  6
Continuous
 62
     7
100
AcDbLine
 10
614.8243103699
 20
300.8306808717
 30
0.0
 11
601.0063680296999
 21
271.8607623057
 31
0.0
  0
LINE
  5
316
330
213
100
AcDbEntity
  8
0
  6
Continuous
 62
     7
100
AcDbLine
 10
537.7495195541
 20
394.4462158446
 30
0.0
 11
553.7495195541001
 21
394.4462158446
 31
0.0
  0
LINE
  5
317
330
213
100
AcDbEntity
  8
0
  6
Continuous
 62
     7
100
AcDbLine
 10
538.7495195541
 20
402.4462158446
 30
0.0
 11
552.7495195541
 21
402.4462158446
 31
0.0
  0
LINE
  5
318
330
213
100
AcDbEntity
  8
0
  6
Continuous
 62
     7
100
AcDbLine
 10
680.7495195541
 20
234.4462158446
 30
0.0
 11
680.7495195541
 21
312.4462158446
 31
0.0
  0
LINE
  5
319
330
213
100
AcDbEntity
  8
0
  6
Continuous
 62
     7
100
AcDbLine
 10
725.7495195541
 20
376.9116103708
 30
0.0
 11
725.7495195541
 21
377.9808213183
 31
0.0
  0
ARC
  5
31A
330
213
100
AcDbEntity
  8
RUNDUNGEN
  6
Continuous
 62
     9
100
AcDbCircle
 10
-437.6955952285999
 20
273.1906129385
 30
0.0
 40
1030.7806930309
100
AcDbArc
 50
359.4520614791
 51
359.719977822
  0
ARC
  5
31B
330
213
100
AcDbEntity
  8
RUNDUNGEN
  6
Continuous
 62
     9
100
AcDbCircle
 10
-239.7206291438
 20
625.0059484473999
 30
0.0
 40
816.0794390186
100
AcDbArc
 50
340.9211597129
 51
341.1836043124
  0
ARC
  5
31C
330
213
100
AcDbEntity
  8
RUNDUNGEN
  6
Continuous
 62
     9
100
AcDbCircle
 10
-142.5623806816
 20
594.8958076497
 30
0.0
 40
715.4634902907
100
AcDbArc
 50
340.5948843544
 51
340.9204315105
  0
ARC
  5
31D
330
213
100
AcDbEntity
  8
0
  6
Continuous
 62
     7
100
AcDbCircle
 10
367.7495195541001
 20
377.9808213183
 30
0.0
 40
2.0
100
AcDbArc
 50
91.0
 51
180.0
  0
ARC
  5
31E
330
213
100
AcDbEntity
  8
0
  6
Continuous
 62
     7
100
AcDbCircle
 10
367.7495195541001
 20
376.9116103708
 30
0.0
 40
2.0
100
AcDbArc
 50
180.0
 51
269.0
  0
ARC
  5
31F
330
213
100
AcDbEntity
  8
RUNDUNGEN
  6
Continuous
 62
     9
100
AcDbCircle
 10
564.4825548061
 20
-3381.2851676518
 30
0.0
 40
3642.5339783351
100
AcDbArc
 50
89.5625262573
 51
89.9800710893
  0
ARC
  5
320
330
213
100
AcDbEntity
  8
RUNDUNGEN
  6
Continuous
 62
     9
100
AcDbCircle
 10
820.7510686932
 20
-3341.1825499403
 30
0.0
 40
3617.4451713133
100
AcDbArc
 50
93.4781097193
 51
93.59350368479999
  0
ARC
  5
321
330
213
100
AcDbEntity
  8
RUNDUNGEN
  6
Continuous
 62
     9
100
AcDbCircle
 10
449.2780892991
 20
365.0332883411
 30
0.0
 40
179.2425874531
100
AcDbArc
 50
338.2404447996
 51
338.9983201623
  0
ARC
  5
322
330
213
100
AcDbEntity
  8
RUNDUNGEN
  6
Continuous
 62
     9
100
AcDbCircle
 10
455.3054773676
 20
363.8905138788
 30
0.0
 40
172.512206671
100
AcDbArc
 50
337.6409508984
 51
338.4080836303
  0
ARC
  5
323
330
213
100
AcDbEntity
  8
RUNDUNGEN
  6
Continuous
 62
     9
100
AcDbCircle
 10
547.4197232528999
 20
341.838396165
 30
0.0
 40
34.3002497438
100
AcDbArc
 50
295.6811801482
 51
297.4587858120001
  0
ARC
  5
324
330
213
100
AcDbEntity
  8
RUNDUNGEN
  6
Continuous
 62
     9
100
AcDbCircle
 10
543.6600278592
 20
341.0000005886
 30
0.0
 40
33.362970601
100
AcDbArc
 50
242.5162426047
 51
244.3437914408
  0
ARC
  5
325
330
213
100
AcDbEntity
  8
RUNDUNGEN
  6
Continuous
 62
     9
100
AcDbCircle
 10
546.6402285072
 20
319.4973941234
 30
0.0
 40
18.4647624673
100
AcDbArc
 50
330.6606081434
 51
333.9977324526
  0
ARC
  5
326
330
213
100
AcDbEntity
  8
RUNDUNGEN
  6
Continuous
 62
     9
100
AcDbCircle
 10
544.8218845763999
 20
319.4780636867
 30
0.0
 40
18.4230996618
100
AcDbArc
 50
205.9985818008
 51
209.3432515911
  0
ARC
  5
327
330
213
100
AcDbEntity
  8
0
  6
Continuous
 62
     7
100
AcDbCircle
 10
510.2495195541
 20
244.4462158446
 30
0.0
 40
10.0
100
AcDbArc
 50
180.0
 51
270.0
  0
ARC
  5
328
330
213
100
AcDbEntity
  8
0
  6
Continuous
 62
     7
100
AcDbCircle
 10
481.1901324785999
 20
302.9844179761
 30
0.0
 40
5.0
100
AcDbArc
 50
182.0
 51
205.5
  0
ARC
  5
329
330
213
100
AcDbEntity
  8
0
  6
Continuous
 62
     7
100
AcDbCircle
 10
469.8097797455
 20
342.3380003237
 30
0.0
 40
4.9999999942
100
AcDbArc
 50
1.999998860899999
 51
26.0948299992
  0
ARC
  5
32A
330
213
100
AcDbEntity
  8
0
  6
Continuous
 62
     7
100
AcDbCircle
 10
478.6517764512
 20
347.0197190608
 30
0.0
 40
4.9999999843
100
AcDbArc
 50
182.000027399
 51
206.0948798479
  0
ARC
  5
32B
330
213
100
AcDbEntity
  8
0
  6
Continuous
 62
     7
100
AcDbCircle
 10
510.2495195541
 20
244.4462158446
 30
0.0
 40
4.5
100
AcDbArc
 50
180.0
 51
270.0
  0
ARC
  5
32C
330
213
100
AcDbEntity
  8
0
  6
Continuous
 62
     7
100
AcDbCircle
 10
471.9215044334999
 20
360.755451831
 30
0.0
 40
3.0
100
AcDbArc
 50
182.0
 51
255.0103055781
  0
ARC
  5
32D
330
213
100
AcDbEntity
  8
0
  6
Continuous
 62
     7
100
AcDbCircle
 10
465.5879289687
 20
370.2030729418
 30
0.0
 40
3.0
100
AcDbArc
 50
2.0
 51
89.0
  0
ARC
  5
32E
330
213
100
AcDbEntity
  8
0
  6
Continuous
 62
     7
100
AcDbCircle
 10
497.2495195541
 20
267.9838761018
 30
0.0
 40
3.0
100
AcDbArc
 50
0.0
 51
87.0
  0
ARC
  5
32F
330
213
100
AcDbEntity
  8
0
  6
Continuous
 62
     7
100
AcDbCircle
 10
492.688893844
 20
274.2311224434
 30
0.0
 40
3.0
100
AcDbArc
 50
205.5
 51
267.0
  0
ARC
  5
330
330
213
100
AcDbEntity
  8
0
  6
Continuous
 62
     7
100
AcDbCircle
 10
470.3696326129
 20
354.9596176502
 30
0.0
 40
3.0
100
AcDbArc
 50
2.0
 51
75.0103055781
  0
ARC
  5
331
330
213
100
AcDbEntity
  8
0
  6
Continuous
 62
     7
100
AcDbCircle
 10
484.9973305060999
 20
303.1323330619
 30
0.0
 40
3.0
100
AcDbArc
 50
180.1848308864
 51
205.5
  0
ARC
  5
332
330
213
100
AcDbEntity
  8
0
  6
Continuous
 62
     7
100
AcDbCircle
 10
506.7496046036
 20
261.9294159658001
 30
0.0
 40
1.000079370299999
100
AcDbArc
 50
90.0046557291
 51
180.0044701662
  0
ARC
  5
333
330
213
100
AcDbEntity
  8
0
  6
Continuous
 62
     7
100
AcDbCircle
 10
514.7494423677
 20
263.9295565511
 30
0.0
 40
1.0000718287
100
AcDbArc
 50
270.0047073429
 51
0.0049189598
  0
ARC
  5
334
330
213
100
AcDbEntity
  8
0
  6
Continuous
 62
     7
100
AcDbCircle
 10
576.7495195541
 20
263.9291855622
 30
0.0
 40
1.000000005299999
100
AcDbArc
 50
180.0000077795
 51
269.9999962625
  0
ARC
  5
335
330
213
100
AcDbEntity
  8
0
  6
Continuous
 62
     7
100
AcDbCircle
 10
480.7462654527999
 20
380.9533391826999
 30
0.0
 40
1.0
100
AcDbArc
 50
0.1848308864
 51
89.98872664530001
  0
ARC
  5
336
330
213
100
AcDbEntity
  8
0
  6
Continuous
 62
     7
100
AcDbCircle
 10
475.7495195541
 20
372.841333127
 30
0.0
 40
1.0
100
AcDbArc
 50
91.0
 51
180.0
  0
ARC
  5
337
330
213
100
AcDbEntity
  8
0
  6
Continuous
 62
     7
100
AcDbCircle
 10
480.7495195541
 20
374.9289131077
 30
0.0
 40
1.0
100
AcDbArc
 50
271.0
 51
360.0
  0
ARC
  5
338
330
213
100
AcDbEntity
  8
0
  6
Continuous
 62
     7
100
AcDbCircle
 10
480.8083167019999
 20
361.7181213644
 30
0.0
 40
1.0
100
AcDbArc
 50
0.1848308864
 51
89.0
  0
ARC
  5
339
330
213
100
AcDbEntity
  8
0
  6
Continuous
 62
     7
100
AcDbCircle
 10
475.7495195541
 20
363.8067276532
 30
0.0
 40
1.0
100
AcDbArc
 50
180.0
 51
269.0
  0
ARC
  5
33A
330
213
100
AcDbEntity
  8
0
  6
Continuous
 62
     7
100
AcDbCircle
 10
492.3874074247
 20
282.9930736068
 30
0.0
 40
1.0
100
AcDbArc
 50
205.5
 51
267.0
  0
ARC
  5
33B
330
213
100
AcDbEntity
  8
0
  6
Continuous
 62
     7
100
AcDbCircle
 10
507.2495195541001
 20
280.2114386227
 30
0.0
 40
1.0
100
AcDbArc
 50
0.0
 51
87.0
  0
ARC
  5
33C
330
213
100
AcDbEntity
  8
0
  6
Continuous
 62
     7
100
AcDbCircle
 10
584.2495195541
 20
280.2114386227
 30
0.0
 40
1.0
100
AcDbArc
 50
93.0
 51
180.0
  0
ARC
  5
33D
330
213
100
AcDbEntity
  8
0
  6
Continuous
 62
     7
100
AcDbCircle
 10
514.7495195541
 20
268.0467929393
 30
0.0
 40
1.0
100
AcDbArc
 50
0.0
 51
89.0
  0
ARC
  5
33E
330
213
100
AcDbEntity
  8
0
  6
Continuous
 62
     7
100
AcDbCircle
 10
576.7495195541
 20
268.0467929393
 30
0.0
 40
1.0
100
AcDbArc
 50
91.0
 51
180.0
  0
ARC
  5
33F
330
213
100
AcDbEntity
  8
0
  6
Continuous
 62
     7
100
AcDbCircle
 10
509.2495195541
 20
270.1431004525
 30
0.0
 40
1.0
100
AcDbArc
 50
180.0
 51
269.0
  0
ARC
  5
340
330
213
100
AcDbEntity
  8
0
  6
Continuous
 62
     7
100
AcDbCircle
 10
582.2495195541001
 20
270.1431004525
 30
0.0
 40
1.0
100
AcDbArc
 50
271.0
 51
360.0
  0
ARC
  5
341
330
213
100
AcDbEntity
  8
RUNDUNGEN
  6
Continuous
 62
     9
100
AcDbCircle
 10
532.2924378862999
 20
380.9142763089
 30
0.0
 40
0.9368604927999999
100
AcDbArc
 50
77.09964372379999
 51
85.85302769989999
  0
ARC
  5
342
330
213
100
AcDbEntity
  8
RUNDUNGEN
  6
Continuous
 62
     9
100
AcDbCircle
 10
560.908370277
 20
381.0176297157
 30
0.0
 40
0.9355925601
100
AcDbArc
 50
93.3964978802
 51
96.1926415839
  0
ARC
  5
343
330
213
100
AcDbEntity
  8
RUNDUNGEN
  6
Continuous
 62
     9
100
AcDbCircle
 10
530.5906688352999
 20
381.0176297412001
 30
0.0
 40
0.9355925344999999
100
AcDbArc
 50
83.8073918343
 51
86.6035025645
  0
ARC
  5
344
330
213
100
AcDbEntity
  8
RUNDUNGEN
  6
Continuous
 62
     9
100
AcDbCircle
 10
532.2926289548
 20
380.9163131884
 30
0.0
 40
0.9348151301000001
100
AcDbArc
 50
85.8556798282
 51
86.5188171984
  0
ARC
  5
346
330
213
100
AcDbEntity
  8
0
  6
Continuous
 62
     7
100
AcDbCircle
 10
610.3089066295999
 20
302.9844179761
 30
0.0
 40
5.002744692
100
AcDbArc
 50
334.5
 51
358.0
  0
ARC
  5
347
330
213
100
AcDbEntity
  8
0
  6
Continuous
 62
     7
100
AcDbCircle
 10
612.8472634626
 20
347.0197455537999
 30
0.0
 40
4.999999998199999
100
AcDbArc
 50
333.9051650885
 51
357.9999987385
  0
ARC
  5
348
330
213
100
AcDbEntity
  8
0
  6
Continuous
 62
     7
100
AcDbCircle
 10
621.6892601079999
 20
342.3380267174
 30
0.0
 40
4.999999982699999
100
AcDbArc
 50
153.9050731807
 51
177.9999338747
  0
ARC
  5
349
330
213
100
AcDbEntity
  8
0
  6
Continuous
 62
     7
100
AcDbCircle
 10
619.5775346747
 20
360.755451831
 30
0.0
 40
3.0
100
AcDbArc
 50
284.9896944219
 51
358.0
  0
ARC
  5
34A
330
213
100
AcDbEntity
  8
0
  6
Continuous
 62
     7
100
AcDbCircle
 10
625.9111101395999
 20
370.2030729418
 30
0.0
 40
3.0
100
AcDbArc
 50
91.0
 51
178.0
  0
ARC
  5
34B
330
213
100
AcDbEntity
  8
0
  6
Continuous
 62
     7
100
AcDbCircle
 10
621.1294064954
 20
354.9596176502
 30
0.0
 40
3.0
100
AcDbArc
 50
104.9896944219
 51
178.0
  0
ARC
  5
34C
330
213
100
AcDbEntity
  8
0
  6
Continuous
 62
     7
100
AcDbCircle
 10
606.5017086020999
 20
303.1323330619
 30
0.0
 40
3.0
100
AcDbArc
 50
334.5
 51
359.8151691136
  0
ARC
  5
34D
330
213
100
AcDbEntity
  8
0
  6
Continuous
 62
     7
100
AcDbCircle
 10
618.7489578968
 20
315.4462149681001
 30
0.0
 40
2.9999999374
100
AcDbArc
 50
177.9999828003
 51
270.0000124967
  0
ARC
  5
34E
330
213
100
AcDbEntity
  8
0
  6
Continuous
 62
     7
100
AcDbCircle
 10
723.7495195541001
 20
377.9808213183
 30
0.0
 40
2.0
100
AcDbArc
 50
0.0
 51
89.0
  0
ARC
  5
34F
330
213
100
AcDbEntity
  8
0
  6
Continuous
 62
     7
100
AcDbCircle
 10
723.7495195541001
 20
376.9116103708
 30
0.0
 40
2.0
100
AcDbArc
 50
271.0
 51
360.0
  0
ARC
  5
350
330
213
100
AcDbEntity
  8
RUNDUNGEN
  6
Continuous
 62
     9
100
AcDbCircle
 10
601.2159280089
 20
270.6142687213
 30
0.0
 40
1.019342229699999
100
AcDbArc
 50
317.6366579928
 51
334.4013403135
  0
ARC
  5
351
330
213
100
AcDbEntity
  8
RUNDUNGEN
  6
Continuous
 62
     9
100
AcDbCircle
 10
594.0746262155
 20
268.1498436831
 30
0.0
 40
1.001848384899999
100
AcDbArc
 50
93.1741773635
 51
179.8258226365
  0
ARC
  5
352
330
213
100
AcDbEntity
  8
0
  6
Continuous
 62
     7
100
AcDbCircle
 10
592.2540932436
 20
269.8774658916
 30
0.0
 40
1.0018267217
100
AcDbArc
 50
93.02488867660001
 51
179.9751670735
  0
ARC
  5
353
330
213
100
AcDbEntity
  8
0
  6
Continuous
 62
     7
100
AcDbCircle
 10
610.7527736554
 20
380.9533391826999
 30
0.0
 40
1.0
100
AcDbArc
 50
90.01127335840001
 51
179.8151691136
  0
ARC
  5
354
330
213
100
AcDbEntity
  8
0
  6
Continuous
 62
     7
100
AcDbCircle
 10
616.4187383764
 20
305.9462158319
 30
0.0
 40
0.9999999995999999
100
AcDbArc
 50
89.99999448009999
 51
177.999987609
  0
ARC
  5
355
330
213
100
AcDbEntity
  8
0
  6
Continuous
 62
     7
100
AcDbCircle
 10
615.7495195541001
 20
372.841333127
 30
0.0
 40
1.0
100
AcDbArc
 50
0.0
 51
89.0
  0
ARC
  5
356
330
213
100
AcDbEntity
  8
0
  6
Continuous
 62
     7
100
AcDbCircle
 10
610.7495195541
 20
374.9289131077
 30
0.0
 40
1.0
100
AcDbArc
 50
180.0
 51
269.0
  0
ARC
  5
357
330
213
100
AcDbEntity
  8
0
  6
Continuous
 62
     7
100
AcDbCircle
 10
610.6907224062
 20
361.7181213644
 30
0.0
 40
1.0
100
AcDbArc
 50
91.0
 51
179.8151691136
  0
ARC
  5
358
330
213
100
AcDbEntity
  8
0
  6
Continuous
 62
     7
100
AcDbCircle
 10
615.7495195541001
 20
363.8067276532
 30
0.0
 40
1.0
100
AcDbArc
 50
271.0
 51
360.0
  0
ARC
  5
359
330
213
100
AcDbEntity
  8
0
  6
Continuous
 62
     7
100
AcDbCircle
 10
599.1116316835999
 20
282.9930736068
 30
0.0
 40
1.0
100
AcDbArc
 50
273.0
 51
334.5
  0
ARC
  5
35A
330
213
100
AcDbEntity
  8
0
  6
Continuous
 62
     7
100
AcDbCircle
 10
600.1079481575
 20
272.2888247224
 30
0.0
 40
0.9951813741999998
100
AcDbArc
 50
272.9759123145
 51
334.5240014555
  0
ARC
  5
35B
330
213
100
AcDbEntity
  8
RUNDUNGEN
  6
Continuous
 62
     9
100
AcDbCircle
 10
1303.2369752639
 20
615.3993415831999
 30
0.0
 40
786.493745883
100
AcDbArc
 50
198.811459465
 51
199.0837765134
  0
ARC
  5
35C
330
213
100
AcDbEntity
  8
RUNDUNGEN
  6
Continuous
 62
     9
100
AcDbCircle
 10
1227.9633550816
 20
592.7671826975999
 30
0.0
 40
709.0046128638999
100
AcDbArc
 50
199.0780856674
 51
199.4065984953
  0
ARC
  5
35D
330
213
100
AcDbEntity
  8
RUNDUNGEN
  6
Continuous
 62
     9
100
AcDbCircle
 10
563.5191289010999
 20
5077.8970429233
 30
0.0
 40
4815.649121394
100
AcDbArc
 50
270.0265368121
 51
270.3393600972
  0
SPLINE
  5
35E
330
213
100
AcDbEntity
  8
0
  6
Continuous
 62
     7
100
AcDbSpline
210
0.0
220
0.0
230
1.0
 70
     8
 71
     3
 72
     9
 73
     5
 74
     0
 42
0.0000000001
 43
0.0000000001
 40
0.0
 40
0.0
 40
0.0
 40
0.0
 40
0.2527133142
 40
1.0
 40
1.0
 40
1.0
 40
1.0
 10
552.2495195541
 20
383.5350437019
 30
0.0
 10
552.0882922661
 20
383.4419590837001
 30
0.0
 10
551.442146149
 20
383.0890989341
 30
0.0
 10
550.7506532126
 20
382.8099205129
 30
0.0
 10
550.2158151595999
 20
382.6794902023999
 30
0.0
  0
SPLINE
  5
35F
330
213
100
AcDbEntity
  8
0
  6
Continuous
 62
     7
100
AcDbSpline
210
0.0
220
0.0
230
1.0
 70
     8
 71
     3
 72
     9
 73
     5
 74
     0
 42
0.0000000001
 43
0.0000000001
 40
0.0
 40
0.0
 40
0.0
 40
0.0
 40
0.2527133142
 40
1.0
 40
1.0
 40
1.0
 40
1.0
 10
545.7495195541
 20
383.5350437019
 30
0.0
 10
545.5882922660999
 20
383.4419590837001
 30
0.0
 10
544.942146149
 20
383.0890989341
 30
0.0
 10
544.2506532125999
 20
382.8099205129
 30
0.0
 10
543.7158151595999
 20
382.6794902023999
 30
0.0
  0
SPLINE
  5
360
330
213
100
AcDbEntity
  8
0
  6
Continuous
 62
     7
100
AcDbSpline
210
0.0
220
0.0
230
1.0
 70
     8
 71
     3
 72
     9
 73
     5
 74
     0
 42
0.0000000001
 43
0.0000000001
 40
0.0
 40
0.0
 40
0.0
 40
0.0
 40
0.2477691676
 40
1.0
 40
1.0
 40
1.0
 40
1.0
 10
541.2832239486
 20
382.6794902023999
 30
0.0
 10
541.1058193951
 20
382.7227536368
 30
0.0
 10
540.3981719485999
 20
382.9321525869
 30
0.0
 10
539.7296331476999
 20
383.2578499894
 30
0.0
 10
539.2495195541
 20
383.5350437019
 30
0.0
  0
SPLINE
  5
361
330
213
100
AcDbEntity
  8
0
  6
Continuous
 62
     7
100
AcDbSpline
210
0.0
220
0.0
230
1.0
 70
     8
 71
     3
 72
     9
 73
     5
 74
     0
 42
0.0000000001
 43
0.0000000001
 40
0.0
 40
0.0
 40
0.0
 40
0.0
 40
0.2477691676
 40
1.0
 40
1.0
 40
1.0
 40
1.0
 10
547.7832239486
 20
382.6794902023999
 30
0.0
 10
547.6058193951001
 20
382.7227536368
 30
0.0
 10
546.8981719485999
 20
382.9321525869
 30
0.0
 10
546.2296331476999
 20
383.2578499894
 30
0.0
 10
545.7495195541
 20
383.5350437019
 30
0.0
  0
SPLINE
  5
362
330
213
100
AcDbEntity
  8
0
  6
Continuous
 62
     7
100
AcDbSpline
210
0.0
220
0.0
230
1.0
 70
     8
 71
     3
 72
    11
 73
     7
 74
     0
 42
0.0000000001
 43
0.0000000001
 40
0.0
 40
0.0
 40
0.0
 40
0.0
 40
0.2499869415
 40
0.4999793893000001
 40
0.7499836396
 40
1.0
 40
1.0
 40
1.0
 40
1.0
 10
591.2522558926
 20
263.9269019457
 30
0.0
 10
591.2522727313
 20
263.7968925596
 30
0.0
 10
591.2000538412
 20
263.5339919541999
 30
0.0
 10
590.9767495322999
 20
263.2022007073
 30
0.0
 10
590.6437885618999
 20
262.9807758079
 30
0.0
 10
590.3809158217
 20
262.929175489
 30
0.0
 10
590.2508911358999
 20
262.9291931881
 30
0.0
  0
SPLINE
  5
363
330
213
100
AcDbEntity
  8
RUNDUNGEN
  6
Continuous
 62
     9
100
AcDbSpline
210
0.0
220
0.0
230
1.0
 70
     8
 71
     3
 72
    11
 73
     7
 74
     0
 42
0.0000000001
 43
0.0000000001
 40
0.0
 40
0.0
 40
0.0
 40
0.0
 40
0.2400606667
 40
0.4939422409000001
 40
0.7509463945000001
 40
1.0
 40
1.0
 40
1.0
 40
1.0
 10
592.0418161298
 20
262.3323910163
 30
0.0
 10
592.1659148026
 20
262.3334314195
 30
0.0
 10
592.4232608776999
 20
262.3863122439
 30
0.0
 10
592.7537589321
 20
262.6078448479
 30
0.0
 10
592.9794161747
 20
262.9411660212
 30
0.0
 10
593.0356066534
 20
263.2043354174
 30
0.0
 10
593.0379619493
 20
263.3330659439
 30
0.0
  0
SPLINE
  5
366
330
213
100
AcDbEntity
  8
RUNDUNGEN
  6
Continuous
 62
     9
100
AcDbSpline
210
0.0
220
0.0
230
1.0
 70
     8
 71
     3
 72
     9
 73
     5
 74
     0
 42
0.0000000001
 43
0.0000000001
 40
0.0
 40
0.0
 40
0.0
 40
0.0
 40
0.5636607101
 40
1.0
 40
1.0
 40
1.0
 40
1.0
 10
530.8202121686999
 20
380.9565650847
 30
0.0
 10
530.820092848
 20
381.1151364304
 30
0.0
 10
530.8042724224
 20
381.3959806931
 30
0.0
 10
530.7556185480999
 20
381.6758600556
 30
0.0
 10
530.714209052
 20
381.7914174114
 30
0.0
  0
SPLINE
  5
367
330
213
100
AcDbEntity
  8
RUNDUNGEN
  6
Continuous
 62
     9
100
AcDbSpline
210
0.0
220
0.0
230
1.0
 70
     8
 71
     3
 72
     9
 73
     5
 74
     0
 42
0.0000000001
 43
0.0000000001
 40
0.0
 40
0.0
 40
0.0
 40
0.0
 40
0.6131548779
 40
1.0
 40
1.0
 40
1.0
 40
1.0
 10
530.714209052
 20
381.7914174114
 30
0.0
 10
530.70072272
 20
381.8290523747
 30
0.0
 10
530.6761698453999
 20
381.8884993625
 30
0.0
 10
530.6297746202
 20
381.9416506823
 30
0.0
 10
530.605974007
 20
381.9500003725
 30
0.0
  0
SPLINE
  5
368
330
213
100
AcDbEntity
  8
RUNDUNGEN
  6
Continuous
 62
     9
100
AcDbSpline
210
0.0
220
0.0
230
1.0
 70
     8
 71
     3
 72
     8
 73
     4
 74
     0
 42
0.0000000001
 43
0.0000000001
 40
0.0
 40
0.0
 40
0.0
 40
0.0
 40
1.0
 40
1.0
 40
1.0
 40
1.0
 10
530.605974007
 20
381.9500003725
 30
0.0
 10
530.5999002892
 20
381.9521311438
 30
0.0
 10
530.5933914359
 20
381.9533359207
 30
0.0
 10
530.5869548041
 20
381.9533383407
 30
0.0
  0
SPLINE
  5
369
330
213
100
AcDbEntity
  8
RUNDUNGEN
  6
Continuous
 62
     9
100
AcDbSpline
210
0.0
220
0.0
230
1.0
 70
     8
 71
     3
 72
    11
 73
     7
 74
     0
 42
0.0000000001
 43
0.0000000001
 40
0.0
 40
0.0
 40
0.0
 40
0.0
 40
0.2538846142
 40
0.5054395666
 40
0.7538850936000001
 40
1.0
 40
1.0
 40
1.0
 40
1.0
 10
531.5528806597
 20
380.9533391826999
 30
0.0
 10
531.5532672290999
 20
381.0746264313
 30
0.0
 10
531.5111715327
 20
381.3184721799
 30
0.0
 10
531.3250935984999
 20
381.6357936381
 30
0.0
 10
531.0407632039
 20
381.8637696776999
 30
0.0
 10
530.8084821899999
 20
381.9350797028
 30
0.0
 10
530.6915922289
 20
381.9477629894
 30
0.0
  0
SPLINE
  5
36A
330
213
100
AcDbEntity
  8
RUNDUNGEN
  6
Continuous
 62
     9
100
AcDbSpline
210
0.0
220
0.0
230
1.0
 70
     8
 71
     3
 72
     9
 73
     5
 74
     0
 42
0.0000000001
 43
0.0000000001
 40
0.0
 40
0.0
 40
0.0
 40
0.0
 40
0.5054012783000001
 40
1.0
 40
1.0
 40
1.0
 40
1.0
 10
533.2547886216
 20
380.8512467652
 30
0.0
 10
533.2556827047
 20
381.0713476393
 30
0.0
 10
533.1115191571
 20
381.5214373263
 30
0.0
 10
532.7115507728
 20
381.7793642732
 30
0.0
 10
532.5015977785
 20
381.8274902611
 30
0.0
  0
SPLINE
  5
36B
330
213
100
AcDbEntity
  8
RUNDUNGEN
  6
Continuous
 62
     9
100
AcDbSpline
210
0.0
220
0.0
230
1.0
 70
     8
 71
     3
 72
    12
 73
     8
 74
     0
 42
0.0000000001
 43
0.0000000001
 40
0.0
 40
0.0
 40
0.0
 40
0.0
 40
0.3700413008
 40
0.6854528143000001
 40
0.9012255162999998
 40
0.9638120060999998
 40
1.0
 40
1.0
 40
1.0
 40
1.0
 10
534.0560172321
 20
380.8312105288
 30
0.0
 10
534.0560172317999
 20
380.9588399117
 30
0.0
 10
534.048664249
 20
381.1956459902
 30
0.0
 10
534.0182544708999
 20
381.5041727849
 30
0.0
 10
533.97567274
 20
381.7074877206
 30
0.0
 10
533.9336821547
 20
381.8060398780001
 30
0.0
 10
533.9038040760999
 20
381.8311991218
 30
0.0
 10
533.8913226320999
 20
381.8312093954
 30
0.0
  0
SPLINE
  5
36C
330
213
100
AcDbEntity
  8
RUNDUNGEN
  6
Continuous
 62
     9
100
AcDbSpline
210
0.0
220
0.0
230
1.0
 70
     8
 71
     3
 72
    12
 73
     8
 74
     0
 42
0.0000000001
 43
0.0000000001
 40
0.0
 40
0.0
 40
0.0
 40
0.0
 40
0.3700420005
 40
0.6854538293000001
 40
0.9012261989
 40
0.9638122970999999
 40
1.0
 40
1.0
 40
1.0
 40
1.0
 10
557.4430218761
 20
380.8312105288
 30
0.0
 10
557.4430218762
 20
380.958840229
 30
0.0
 10
557.4503749111999
 20
381.1956467847
 30
0.0
 10
557.4807847415
 20
381.5041740436
 30
0.0
 10
557.5233667643
 20
381.7074888279
 30
0.0
 10
557.5653573666
 20
381.8060407617
 30
0.0
 10
557.5952358009
 20
381.8311994351999
 30
0.0
 10
557.6077171522
 20
381.8312093959
 30
0.0
  0
SPLINE
  5
36D
330
213
100
AcDbEntity
  8
RUNDUNGEN
  6
Continuous
 62
     9
100
AcDbSpline
210
0.0
220
0.0
230
1.0
 70
     8
 71
     3
 72
    11
 73
     7
 74
     0
 42
0.0000000001
 43
0.0000000001
 40
0.0
 40
0.0
 40
0.0
 40
0.0
 40
0.2539860356
 40
0.5055177999
 40
0.7538488658000001
 40
1.0
 40
1.0
 40
1.0
 40
1.0
 10
558.2442462526
 20
380.8512467652
 30
0.0
 10
558.2437383962999
 20
380.9762661572
 30
0.0
 10
558.2886718170999
 20
381.2277121258
 30
0.0
 10
558.4860669332999
 20
381.5518378751
 30
0.0
 10
558.7861110772999
 20
381.7785271394999
 30
0.0
 10
559.0287076227999
 20
381.8420401154
 30
0.0
 10
559.1496479505999
 20
381.8493960048
 30
0.0
  0
SPLINE
  5
36E
330
213
100
AcDbEntity
  8
RUNDUNGEN
  6
Continuous
 62
     9
100
AcDbSpline
210
0.0
220
0.0
230
1.0
 70
     8
 71
     3
 72
    11
 73
     7
 74
     0
 42
0.0000000001
 43
0.0000000001
 40
0.0
 40
0.0
 40
0.0
 40
0.0
 40
0.2538846082
 40
0.5054395588000001
 40
0.7538850887000001
 40
1.0
 40
1.0
 40
1.0
 40
1.0
 10
559.9461584484999
 20
380.9533391826999
 30
0.0
 10
559.9457718744
 20
381.0746263831
 30
0.0
 10
559.9878675443
 20
381.318472035
 30
0.0
 10
560.1739453331999
 20
381.6357934073
 30
0.0
 10
560.4582755364999
 20
381.8637694631
 30
0.0
 10
560.6905564257999
 20
381.9350795801
 30
0.0
 10
560.8074463381999
 20
381.9477629304
 30
0.0
  0
SPLINE
  5
36F
330
213
100
AcDbEntity
  8
RUNDUNGEN
  6
Continuous
 62
     9
100
AcDbSpline
210
0.0
220
0.0
230
1.0
 70
     8
 71
     3
 72
     9
 73
     5
 74
     0
 42
0.0000000001
 43
0.0000000001
 40
0.0
 40
0.0
 40
0.0
 40
0.0
 40
0.5636607103
 40
1.0
 40
1.0
 40
1.0
 40
1.0
 10
560.6788269392
 20
380.9565650847
 30
0.0
 10
560.6789462598999
 20
381.1151364306
 30
0.0
 10
560.6947666858999
 20
381.3959806935
 30
0.0
 10
560.7434205602999
 20
381.6758600563
 30
0.0
 10
560.7848300565
 20
381.7914174121
 30
0.0
  0
SPLINE
  5
370
330
213
100
AcDbEntity
  8
RUNDUNGEN
  6
Continuous
 62
     9
100
AcDbSpline
210
0.0
220
0.0
230
1.0
 70
     8
 71
     3
 72
     9
 73
     5
 74
     0
 42
0.0000000001
 43
0.0000000001
 40
0.0
 40
0.0
 40
0.0
 40
0.0
 40
0.6131785441
 40
1.0
 40
1.0
 40
1.0
 40
1.0
 10
560.7848300565
 20
381.7914174121
 30
0.0
 10
560.7983183366999
 20
381.8290578119
 30
0.0
 10
560.8228722989999
 20
381.8885106563
 30
0.0
 10
560.8692813853
 20
381.9416657784
 30
0.0
 10
560.8930859255
 20
381.950007674
 30
0.0
  0
SPLINE
  5
371
330
213
100
AcDbEntity
  8
RUNDUNGEN
  6
Continuous
 62
     9
100
AcDbSpline
210
0.0
220
0.0
230
1.0
 70
     8
 71
     3
 72
     8
 73
     4
 74
     0
 42
0.0000000001
 43
0.0000000001
 40
0.0
 40
0.0
 40
0.0
 40
0.0
 40
1.0
 40
1.0
 40
1.0
 40
1.0
 10
560.8930859255
 20
381.950007674
 30
0.0
 10
560.8991561923
 20
381.9521348957
 30
0.0
 10
560.9056607111999
 20
381.9533369462
 30
0.0
 10
560.9120929122
 20
381.9533383433
 30
0.0
  0
SPLINE
  5
372
330
213
100
AcDbEntity
  8
RUNDUNGEN
  6
Continuous
 62
     9
100
AcDbSpline
210
0.0
220
0.0
230
1.0
 70
     8
 71
     3
 72
    12
 73
     8
 74
     0
 42
0.0000000001
 43
0.0000000001
 40
0.0
 40
0.0
 40
0.0
 40
0.0
 40
0.3591424289
 40
0.6680649932
 40
0.7904721511
 40
0.8866299829999999
 40
1.0
 40
1.0
 40
1.0
 40
1.0
 10
560.679757573
 20
374.9289131077
 30
0.0
 10
560.679757573
 20
374.8025640294
 30
0.0
 10
560.6902169626001
 20
374.5670393685
 30
0.0
 10
560.7276685903
 20
374.2921664046
 30
0.0
 10
560.7768507268
 20
374.1103970832
 30
0.0
 10
560.8176301944999
 20
374.0066707648001
 30
0.0
 10
560.8691978903999
 20
373.932041365
 30
0.0
 10
560.908971158
 20
373.9290654125
 30
0.0
  0
SPLINE
  5
373
330
213
100
AcDbEntity
  8
RUNDUNGEN
  6
Continuous
 62
     9
100
AcDbSpline
210
0.0
220
0.0
230
1.0
 70
     8
 71
     3
 72
    11
 73
     7
 74
     0
 42
0.0000000001
 43
0.0000000001
 40
0.0
 40
0.0
 40
0.0
 40
0.0
 40
0.2458850584
 40
0.4943967868
 40
0.7461819768000001
 40
1.0
 40
1.0
 40
1.0
 40
1.0
 10
560.908971158
 20
373.9290654125
 30
0.0
 10
560.7837165401
 20
373.9301447733999
 30
0.0
 10
560.5295027983999
 20
373.9845579730001
 30
0.0
 10
560.2106736728
 20
374.2087561262
 30
0.0
 10
559.9979081558999
 20
374.539613719
 30
0.0
 10
559.94762943
 20
374.7996136287
 30
0.0
 10
559.9471167157999
 20
374.9289131077
 30
0.0
  0
SPLINE
  5
374
330
213
100
AcDbEntity
  8
RUNDUNGEN
  6
Continuous
 62
     9
100
AcDbSpline
210
0.0
220
0.0
230
1.0
 70
     8
 71
     3
 72
    12
 73
     8
 74
     0
 42
0.0000000001
 43
0.0000000001
 40
0.0
 40
0.0
 40
0.0
 40
0.0
 40
0.0418856844
 40
0.1081146676
 40
0.3253297986
 40
0.6367821008
 40
1.0
 40
1.0
 40
1.0
 40
1.0
 10
559.4423215104
 20
373.8411808221
 30
0.0
 10
559.4568296369
 20
373.8398858908
 30
0.0
 10
559.4898005392999
 20
373.8145211934
 30
0.0
 10
559.5410729247999
 20
373.7139865526
 30
0.0
 10
559.5897872959
 20
373.5101391318
 30
0.0
 10
559.6260773806
 20
373.2026457996
 30
0.0
 10
559.6344711665
 20
372.9676426292
 30
0.0
 10
559.634471167
 20
372.841333127
 30
0.0
  0
SPLINE
  5
375
330
213
100
AcDbEntity
  8
RUNDUNGEN
  6
Continuous
 62
     9
100
AcDbSpline
210
0.0
220
0.0
230
1.0
 70
     8
 71
     3
 72
    11
 73
     7
 74
     0
 42
0.0000000001
 43
0.0000000001
 40
0.0
 40
0.0
 40
0.0
 40
0.0
 40
0.2656675194
 40
0.5198341996
 40
0.7630623528
 40
1.0
 40
1.0
 40
1.0
 40
1.0
 10
558.2442512914
 20
374.8267639033
 30
0.0
 10
558.2436344041
 20
374.675170529
 30
0.0
 10
558.3297612526
 20
374.3730614988
 30
0.0
 10
558.6435090041
 20
374.0528155346
 30
0.0
 10
559.0312467868
 20
373.8759499421
 30
0.0
 10
559.3071233655999
 20
373.8403263461
 30
0.0
 10
559.4423215119999
 20
373.8411816053
 30
0.0
  0
SPLINE
  5
376
330
213
100
AcDbEntity
  8
RUNDUNGEN
  6
Continuous
 62
     9
100
AcDbSpline
210
0.0
220
0.0
230
1.0
 70
     8
 71
     3
 72
     9
 73
     5
 74
     0
 42
0.0000000001
 43
0.0000000001
 40
0.0
 40
0.0
 40
0.0
 40
0.0
 40
0.3405671107
 40
1.0
 40
1.0
 40
1.0
 40
1.0
 10
560.6788269392
 20
380.9565650847
 30
0.0
 10
560.5956519113
 20
380.9564153387
 30
0.0
 10
560.3514298128
 20
380.9556621722
 30
0.0
 10
560.1071925641
 20
380.9556228419
 30
0.0
 10
559.9461584484999
 20
380.9533391826999
 30
0.0
  0
SPLINE
  5
377
330
213
100
AcDbEntity
  8
RUNDUNGEN
  6
Continuous
 62
     9
100
AcDbSpline
210
0.0
220
0.0
230
1.0
 70
     8
 71
     3
 72
    10
 73
     6
 74
     0
 42
0.0000000001
 43
0.0000000001
 40
0.0
 40
0.0
 40
0.0
 40
0.0
 40
0.1403030149
 40
0.3668075065
 40
1.0
 40
1.0
 40
1.0
 40
1.0
 10
558.2442355473
 20
380.8512450329
 30
0.0
 10
558.2070190175
 20
380.8467285166999
 30
0.0
 10
558.1090345916
 20
380.8414807343
 30
0.0
 10
557.842053108
 20
380.8325505492
 30
0.0
 10
557.6122575528
 20
380.8312100899
 30
0.0
 10
557.4430657215
 20
380.8312106508
 30
0.0
  0
SPLINE
  5
378
330
213
100
AcDbEntity
  8
RUNDUNGEN
  6
Continuous
 62
     9
100
AcDbSpline
210
0.0
220
0.0
230
1.0
 70
     8
 71
     3
 72
    12
 73
     8
 74
     0
 42
0.0000000001
 43
0.0000000001
 40
0.0
 40
0.0
 40
0.0
 40
0.0
 40
0.1133705924
 40
0.2095285707
 40
0.3319359085
 40
0.6408585717000001
 40
1.0
 40
1.0
 40
1.0
 40
1.0
 10
530.5900679502999
 20
373.9290654125
 30
0.0
 10
530.6298414187
 20
373.93204138
 30
0.0
 10
530.6814091668
 20
374.0066712183
 30
0.0
 10
530.7221886218
 20
374.1103978367
 30
0.0
 10
530.771370691
 20
374.2921673374
 30
0.0
 10
530.8088221783
 20
374.5670400482
 30
0.0
 10
530.8192815351999
 20
374.8025643847
 30
0.0
 10
530.8192815351999
 20
374.9289131077
 30
0.0
  0
SPLINE
  5
379
330
213
100
AcDbEntity
  8
RUNDUNGEN
  6
Continuous
 62
     9
100
AcDbSpline
210
0.0
220
0.0
230
1.0
 70
     8
 71
     3
 72
    11
 73
     7
 74
     0
 42
0.0000000001
 43
0.0000000001
 40
0.0
 40
0.0
 40
0.0
 40
0.0
 40
0.2538176591
 40
0.505604559
 40
0.7541220337000001
 40
1.0
 40
1.0
 40
1.0
 40
1.0
 10
531.5519223925
 20
374.9289131077
 30
0.0
 10
531.5512942663999
 20
374.7996143493
 30
0.0
 10
531.5011920999999
 20
374.5396121724
 30
0.0
 10
531.2883494895999
 20
374.2087503926
 30
0.0
 10
530.9695335643
 20
373.98457463
 30
0.0
 10
530.7153191104999
 20
373.930123614
 30
0.0
 10
530.5900679502999
 20
373.9290654125
 30
0.0
  0
SPLINE
  5
37A
330
213
100
AcDbEntity
  8
RUNDUNGEN
  6
Continuous
 62
     9
100
AcDbSpline
210
0.0
220
0.0
230
1.0
 70
     8
 71
     3
 72
    11
 73
     7
 74
     0
 42
0.0000000001
 43
0.0000000001
 40
0.0
 40
0.0
 40
0.0
 40
0.0
 40
0.2369376469
 40
0.4801658003
 40
0.7343324806
 40
1.0
 40
1.0
 40
1.0
 40
1.0
 10
532.0567175966
 20
373.8411816054
 30
0.0
 10
532.1919157427999
 20
373.8403263462
 30
0.0
 10
532.4677923217
 20
373.8759499403
 30
0.0
 10
532.8555301044
 20
374.0528155329
 30
0.0
 10
533.1692778562
 20
374.3730614964
 30
0.0
 10
533.2554047049
 20
374.675170527
 30
0.0
 10
533.2547878166
 20
374.8267639014
 30
0.0
  0
SPLINE
  5
37B
330
213
100
AcDbEntity
  8
RUNDUNGEN
  6
Continuous
 62
     9
100
AcDbSpline
210
0.0
220
0.0
230
1.0
 70
     8
 71
     3
 72
    12
 73
     8
 74
     0
 42
0.0000000001
 43
0.0000000001
 40
0.0
 40
0.0
 40
0.0
 40
0.0
 40
0.3632178992
 40
0.6746702014000001
 40
0.8918853323999998
 40
0.9581143155999999
 40
1.0
 40
1.0
 40
1.0
 40
1.0
 10
531.8645679411999
 20
372.841333127
 30
0.0
 10
531.8645679418
 20
372.9676426292
 30
0.0
 10
531.8729617279
 20
373.2026457996
 30
0.0
 10
531.9092518128
 20
373.5101391318
 30
0.0
 10
531.957966184
 20
373.7139865526
 30
0.0
 10
532.0092385696999
 20
373.8145211934
 30
0.0
 10
532.0422094719999
 20
373.8398858908
 30
0.0
 10
532.0567175984999
 20
373.8411808221
 30
0.0
  0
SPLINE
  5
37C
330
213
100
AcDbEntity
  8
RUNDUNGEN
  6
Continuous
 62
     9
100
AcDbSpline
210
0.0
220
0.0
230
1.0
 70
     8
 71
     3
 72
    10
 73
     6
 74
     0
 42
0.0000000001
 43
0.0000000001
 40
0.0
 40
0.0
 40
0.0
 40
0.0
 40
0.6331928891
 40
0.8596975910999999
 40
1.0
 40
1.0
 40
1.0
 40
1.0
 10
534.0559731662
 20
380.8312106513
 30
0.0
 10
533.8867811802999
 20
380.8312100877
 30
0.0
 10
533.6569854373999
 20
380.8325509118
 30
0.0
 10
533.3900037957
 20
380.8414803805001
 30
0.0
 10
533.2920195417999
 20
380.8467289880001
 30
0.0
 10
533.2548031131999
 20
380.8512450847
 30
0.0
  0
SPLINE
  5
37D
330
213
100
AcDbEntity
  8
RUNDUNGEN
  6
Continuous
 62
     9
100
AcDbSpline
210
0.0
220
0.0
230
1.0
 70
     8
 71
     3
 72
     9
 73
     5
 74
     0
 42
0.0000000001
 43
0.0000000001
 40
0.0
 40
0.0
 40
0.0
 40
0.0
 40
0.3405749487
 40
1.0
 40
1.0
 40
1.0
 40
1.0
 10
530.8192815351999
 20
379.9462158446
 30
0.0
 10
530.9024551610999
 20
379.9460631459
 30
0.0
 10
531.1466674244999
 20
379.9453079101001
 30
0.0
 10
531.3908955615
 20
379.9453079883
 30
0.0
 10
531.5519208601999
 20
379.9429899426
 30
0.0
  0
SPLINE
  5
37E
330
213
100
AcDbEntity
  8
RUNDUNGEN
  6
Continuous
 62
     9
100
AcDbSpline
210
0.0
220
0.0
230
1.0
 70
     8
 71
     3
 72
     9
 73
     5
 74
     0
 42
0.0000000001
 43
0.0000000001
 40
0.0
 40
0.0
 40
0.0
 40
0.0
 40
0.1408879147
 40
1.0
 40
1.0
 40
1.0
 40
1.0
 10
531.5528806597
 20
380.9533391826999
 30
0.0
 10
531.518475669
 20
380.9538270872
 30
0.0
 10
531.2742542437
 20
380.9556396187001
 30
0.0
 10
531.0300290826999
 20
380.9561873362
 30
0.0
 10
530.8202121691
 20
380.9565650847
 30
0.0
  0
SPLINE
  5
37F
330
213
100
AcDbEntity
  8
RUNDUNGEN
  6
Continuous
 62
     9
100
AcDbSpline
210
0.0
220
0.0
230
1.0
 70
     8
 71
     3
 72
    12
 73
     8
 74
     0
 42
0.0000000001
 43
0.0000000001
 40
0.0
 40
0.0
 40
0.0
 40
0.0
 40
0.3592502275
 40
0.6680428757
 40
0.7903807432
 40
0.8865022093
 40
1.0
 40
1.0
 40
1.0
 40
1.0
 10
530.8024411751
 20
361.7213472664
 30
0.0
 10
530.8023461381
 20
361.8473743791
 30
0.0
 10
530.7917430484
 20
362.0822087804
 30
0.0
 10
530.7541550189999
 20
362.3562513902
 30
0.0
 10
530.704902232
 20
362.5373411723
 30
0.0
 10
530.6640810288
 20
362.6407625949
 30
0.0
 10
530.6124644494999
 20
362.7150042753
 30
0.0
 10
530.5727592757
 20
362.7179690596
 30
0.0
  0
SPLINE
  5
380
330
213
100
AcDbEntity
  8
RUNDUNGEN
  6
Continuous
 62
     9
100
AcDbSpline
210
0.0
220
0.0
230
1.0
 70
     8
 71
     3
 72
    11
 73
     7
 74
     0
 42
0.0000000001
 43
0.0000000001
 40
0.0
 40
0.0
 40
0.0
 40
0.0
 40
0.1408961
 40
0.3660783299
 40
0.659413397
 40
1.0
 40
1.0
 40
1.0
 40
1.0
 10
531.5346053778999
 20
361.7181213644
 30
0.0
 10
531.5002577681999
 20
361.7197623567
 30
0.0
 10
531.4108514337
 20
361.7182981571
 30
0.0
 10
531.2499572487
 20
361.7203797433
 30
0.0
 10
531.0402784479999
 20
361.7214812046
 30
0.0
 10
530.8855508084999
 20
361.7198675305
 30
0.0
 10
530.8024411751
 20
361.7213472664
 30
0.0
  0
SPLINE
  5
381
330
213
100
AcDbEntity
  8
RUNDUNGEN
  6
Continuous
 62
     9
100
AcDbSpline
210
0.0
220
0.0
230
1.0
 70
     8
 71
     3
 72
    11
 73
     7
 74
     0
 42
0.0000000001
 43
0.0000000001
 40
0.0
 40
0.0
 40
0.0
 40
0.0
 40
0.245885411
 40
0.494397135
 40
0.7461821147
 40
1.0
 40
1.0
 40
1.0
 40
1.0
 10
530.5727592757
 20
362.7179690596
 30
0.0
 10
530.6980134913
 20
362.7168887423001
 30
0.0
 10
530.9522258273999
 20
362.6624742286
 30
0.0
 10
531.2710525115
 20
362.4382756646
 30
0.0
 10
531.4838156302999
 20
362.1074188923
 30
0.0
 10
531.534093061
 20
361.8474201826
 30
0.0
 10
531.5346053778999
 20
361.7181213644
 30
0.0
  0
SPLINE
  5
382
330
213
100
AcDbEntity
  8
RUNDUNGEN
  6
Continuous
 62
     9
100
AcDbSpline
210
0.0
220
0.0
230
1.0
 70
     8
 71
     3
 72
    12
 73
     8
 74
     0
 42
0.0000000001
 43
0.0000000001
 40
0.0
 40
0.0
 40
0.0
 40
0.0
 40
0.363217899
 40
0.6746702016000001
 40
0.8918853337999998
 40
0.9581143170999999
 40
1.0
 40
1.0
 40
1.0
 40
1.0
 10
531.8645679411999
 20
363.8067276532
 30
0.0
 10
531.8645679412999
 20
363.6804181512
 30
0.0
 10
531.8729617276999
 20
363.445414981
 30
0.0
 10
531.9092518154
 20
363.1379216492
 30
0.0
 10
531.9579661891999
 20
362.9340742283
 30
0.0
 10
532.0092385740999
 20
362.8335395882
 30
0.0
 10
532.0422094748001
 20
362.8081748896
 30
0.0
 10
532.0567176007999
 20
362.8068799580999
 30
0.0
  0
SPLINE
  5
383
330
213
100
AcDbEntity
  8
RUNDUNGEN
  6
Continuous
 62
     9
100
AcDbSpline
210
0.0
220
0.0
230
1.0
 70
     8
 71
     3
 72
     9
 73
     5
 74
     0
 42
0.0000000001
 43
0.0000000001
 40
0.0
 40
0.0
 40
0.0
 40
0.0
 40
0.2469335807
 40
1.0
 40
1.0
 40
1.0
 40
1.0
 10
532.0567175939999
 20
362.8068780227
 30
0.0
 10
532.127285634
 20
362.8073245206
 30
0.0
 10
532.4124186798
 20
362.7893696986
 30
0.0
 10
532.6954299001999
 20
362.6827949496
 30
0.0
 10
532.8675903209999
 20
362.5536527094
 30
0.0
  0
SPLINE
  5
384
330
213
100
AcDbEntity
  8
RUNDUNGEN
  6
Continuous
 62
     9
100
AcDbSpline
210
0.0
220
0.0
230
1.0
 70
     8
 71
     3
 72
    11
 73
     7
 74
     0
 42
0.0000000001
 43
0.0000000001
 40
0.0
 40
0.0
 40
0.0
 40
0.0
 40
0.269633971
 40
0.5111670928000001
 40
0.7521208511000001
 40
1.0
 40
1.0
 40
1.0
 40
1.0
 10
532.8675939287998
 20
362.5536542101
 30
0.0
 10
532.9054381998999
 20
362.4912575367
 30
0.0
 10
532.9447714415
 20
362.3516933648001
 30
0.0
 10
532.9193686516
 20
362.1471012483
 30
0.0
 10
532.8494629092999
 20
361.9608897373999
 30
0.0
 10
532.7824865569
 20
361.8461721803
 30
0.0
 10
532.7450780333
 20
361.7904815536
 30
0.0
  0
SPLINE
  5
385
330
213
100
AcDbEntity
  8
RUNDUNGEN
  6
Continuous
 62
     9
100
AcDbSpline
210
0.0
220
0.0
230
1.0
 70
     8
 71
     3
 72
     9
 73
     5
 74
     0
 42
0.0000000001
 43
0.0000000001
 40
0.0
 40
0.0
 40
0.0
 40
0.0
 40
0.4702936852000001
 40
1.0
 40
1.0
 40
1.0
 40
1.0
 10
532.7450780333
 20
361.7904815536
 30
0.0
 10
532.7811192254
 20
361.6071238173999
 30
0.0
 10
533.0186856473
 20
361.2499245985
 30
0.0
 10
533.3921758272
 20
361.0704353781
 30
0.0
 10
533.5975613268
 20
361.0244373493
 30
0.0
  0
SPLINE
  5
386
330
213
100
AcDbEntity
  8
RUNDUNGEN
  6
Continuous
 62
     9
100
AcDbSpline
210
0.0
220
0.0
230
1.0
 70
     8
 71
     3
 72
     9
 73
     5
 74
     0
 42
0.0000000001
 43
0.0000000001
 40
0.0
 40
0.0
 40
0.0
 40
0.0
 40
0.4503299493
 40
1.0
 40
1.0
 40
1.0
 40
1.0
 10
533.4053800378
 20
362.5242936049
 30
0.0
 10
533.3818326728
 20
362.6373676301
 30
0.0
 10
533.3523071235999
 20
362.8929330306
 30
0.0
 10
533.3429606495999
 20
363.1493596292
 30
0.0
 10
533.3429606495999
 20
363.290338048
 30
0.0
  0
SPLINE
  5
387
330
213
100
AcDbEntity
  8
RUNDUNGEN
  6
Continuous
 62
     9
100
AcDbSpline
210
0.0
220
0.0
230
1.0
 70
     8
 71
     3
 72
    13
 73
     9
 74
     0
 42
0.0000000001
 43
0.0000000001
 40
0.0
 40
0.0
 40
0.0
 40
0.0
 40
0.053227223
 40
0.1307303392
 40
0.2321520918
 40
0.3552128114
 40
0.6544867718000001
 40
1.0
 40
1.0
 40
1.0
 40
1.0
 10
532.8675913198999
 20
362.5536540699
 30
0.0
 10
532.8679594553
 20
362.5692958791999
 30
0.0
 10
532.8802130610999
 20
362.6066687723001
 30
0.0
 10
532.9083780221
 20
362.6684290268
 30
0.0
 10
532.9509631986
 20
362.7465863012
 30
0.0
 10
533.0325018519
 20
362.8771387108
 30
0.0
 10
533.1617560563
 20
363.0624670787
 30
0.0
 10
533.2800694259999
 20
363.2105893188
 30
0.0
 10
533.3429606495999
 20
363.290338048
 30
0.0
  0
SPLINE
  5
388
330
213
100
AcDbEntity
  8
RUNDUNGEN
  6
Continuous
 62
     9
100
AcDbSpline
210
0.0
220
0.0
230
1.0
 70
     8
 71
     3
 72
     9
 73
     5
 74
     0
 42
0.0000000001
 43
0.0000000001
 40
0.0
 40
0.0
 40
0.0
 40
0.0
 40
0.2831969376
 40
1.0
 40
1.0
 40
1.0
 40
1.0
 10
533.4053800378
 20
362.5242936049
 30
0.0
 10
533.3558677603999
 20
362.5101317052
 30
0.0
 10
533.1788211687999
 20
362.4730736588
 30
0.0
 10
532.9817185885999
 20
362.4906839659
 30
0.0
 10
532.8675913198999
 20
362.5536540699
 30
0.0
  0
SPLINE
  5
389
330
213
100
AcDbEntity
  8
RUNDUNGEN
  6
Continuous
 62
     9
100
AcDbSpline
210
0.0
220
0.0
230
1.0
 70
     8
 71
     3
 72
    13
 73
     9
 74
     0
 42
0.0000000001
 43
0.0000000001
 40
0.0
 40
0.0
 40
0.0
 40
0.0
 40
0.2482537424
 40
0.3749264768
 40
0.5034666025
 40
0.6330643543
 40
0.7607439037
 40
1.0
 40
1.0
 40
1.0
 40
1.0
 10
531.5313141437999
 20
358.2549879401999
 30
0.0
 10
531.5196669947
 20
358.1289849615
 30
0.0
 10
531.5159087246
 20
357.9363770442
 30
0.0
 10
531.5561664265
 20
357.6821877824
 30
0.0
 10
531.618805163
 20
357.4949845639
 30
0.0
 10
531.7260837701999
 20
357.3266619465
 30
0.0
 10
531.9334336452
 20
357.1697670573
 30
0.0
 10
532.1381335282
 20
357.1616848079
 30
0.0
 10
532.2575581539
 20
357.1863931115
 30
0.0
  0
SPLINE
  5
38A
330
213
100
AcDbEntity
  8
RUNDUNGEN
  6
Continuous
 62
     9
100
AcDbSpline
210
0.0
220
0.0
230
1.0
 70
     8
 71
     3
 72
     9
 73
     5
 74
     0
 42
0.0000000001
 43
0.0000000001
 40
0.0
 40
0.0
 40
0.0
 40
0.0
 40
0.3405881198
 40
1.0
 40
1.0
 40
1.0
 40
1.0
 10
530.7992415987
 20
358.2582138471
 30
0.0
 10
530.8823541007
 20
358.2580640296
 30
0.0
 10
531.1263775537001
 20
358.2573113073999
 30
0.0
 10
531.3704161496999
 20
358.2572706934
 30
0.0
 10
531.5313141437999
 20
358.2549879401999
 30
0.0
  0
SPLINE
  5
38B
330
213
100
AcDbEntity
  8
RUNDUNGEN
  6
Continuous
 62
     9
100
AcDbSpline
210
0.0
220
0.0
230
1.0
 70
     8
 71
     3
 72
     9
 73
     5
 74
     0
 42
0.0000000001
 43
0.0000000001
 40
0.0
 40
0.0
 40
0.0
 40
0.0
 40
0.3405859415999999
 40
1.0
 40
1.0
 40
1.0
 40
1.0
 10
560.6965979331
 20
361.7213472664
 30
0.0
 10
560.613475557
 20
361.7211974117
 30
0.0
 10
560.3694215515
 20
361.7204446038
 30
0.0
 10
560.1253524057
 20
361.7204040320999
 30
0.0
 10
559.9644337303
 20
361.7181213644
 30
0.0
  0
SPLINE
  5
38C
330
213
100
AcDbEntity
  8
RUNDUNGEN
  6
Continuous
 62
     9
100
AcDbSpline
210
0.0
220
0.0
230
1.0
 70
     8
 71
     3
 72
    12
 73
     8
 74
     0
 42
0.0000000001
 43
0.0000000001
 40
0.0
 40
0.0
 40
0.0
 40
0.0
 40
0.1134985339
 40
0.2096202163
 40
0.3319582633
 40
0.6407510772000001
 40
1.0
 40
1.0
 40
1.0
 40
1.0
 10
560.9262798325
 20
362.7179690596
 30
0.0
 10
560.8865744
 20
362.715004256
 30
0.0
 10
560.8349577255999
 20
362.6407620154
 30
0.0
 10
560.7941366033998
 20
362.5373401883
 30
0.0
 10
560.7448838269999
 20
362.3562501967
 30
0.0
 10
560.7072960346999
 20
362.0822079044
 30
0.0
 10
560.6966929698
 20
361.8473739173
 30
0.0
 10
560.6965979331
 20
361.7213472664
 30
0.0
  0
SPLINE
  5
38D
330
213
100
AcDbEntity
  8
RUNDUNGEN
  6
Continuous
 62
     9
100
AcDbSpline
210
0.0
220
0.0
230
1.0
 70
     8
 71
     3
 72
    11
 73
     7
 74
     0
 42
0.0000000001
 43
0.0000000001
 40
0.0
 40
0.0
 40
0.0
 40
0.0
 40
0.2538176474
 40
0.5056045077000001
 40
0.7541219586
 40
1.0
 40
1.0
 40
1.0
 40
1.0
 10
559.9644337303
 20
361.7181213644
 30
0.0
 10
559.9650639464999
 20
361.8474194723
 30
0.0
 10
560.0151618055999
 20
362.1074204557
 30
0.0
 10
560.2280035827999
 20
362.4382812183
 30
0.0
 10
560.546816378
 20
362.6624574588
 30
0.0
 10
560.8010292569
 20
362.7169098734
 30
0.0
 10
560.9262798325
 20
362.7179690596
 30
0.0
  0
SPLINE
  5
38E
330
213
100
AcDbEntity
  8
RUNDUNGEN
  6
Continuous
 62
     9
100
AcDbSpline
210
0.0
220
0.0
230
1.0
 70
     8
 71
     3
 72
     9
 73
     5
 74
     0
 42
0.0000000001
 43
0.0000000001
 40
0.0
 40
0.0
 40
0.0
 40
0.0
 40
0.5488035186
 40
1.0
 40
1.0
 40
1.0
 40
1.0
 10
559.1665071355
 20
356.4235741823001
 30
0.0
 10
559.1666025726
 20
356.5640139880001
 30
0.0
 10
559.1779072071
 20
356.8198485787001
 30
0.0
 10
559.2134632949999
 20
357.0743816156
 30
0.0
 10
559.2414809487999
 20
357.1863927235
 30
0.0
  0
SPLINE
  5
38F
330
213
100
AcDbEntity
  8
RUNDUNGEN
  6
Continuous
 62
     9
100
AcDbSpline
210
0.0
220
0.0
230
1.0
 70
     8
 71
     3
 72
    13
 73
     9
 74
     0
 42
0.0000000001
 43
0.0000000001
 40
0.0
 40
0.0
 40
0.0
 40
0.0
 40
0.2392567107
 40
0.3669361412
 40
0.4965337440999999
 40
0.6250737341
 40
0.7517463848000001
 40
1.0
 40
1.0
 40
1.0
 40
1.0
 10
559.2414809551
 20
357.1863931071
 30
0.0
 10
559.3609058902
 20
357.1616847533
 30
0.0
 10
559.5656061457
 20
357.169767154
 30
0.0
 10
559.7729558890001
 20
357.3266625051001
 30
0.0
 10
559.8802341668
 20
357.4949850629
 30
0.0
 10
559.9428727864
 20
357.6821881178
 30
0.0
 10
559.9831303196999
 20
357.936377223
 30
0.0
 10
559.9793721521
 20
358.1289850307
 30
0.0
 10
559.967724957
 20
358.25498794
 30
0.0
  0
SPLINE
  5
390
330
213
100
AcDbEntity
  8
RUNDUNGEN
  6
Continuous
 62
     9
100
AcDbSpline
210
0.0
220
0.0
230
1.0
 70
     8
 71
     3
 72
    12
 73
     8
 74
     0
 42
0.0000000001
 43
0.0000000001
 40
0.0
 40
0.0
 40
0.0
 40
0.0
 40
0.0418856828
 40
0.108114666
 40
0.3253297981
 40
0.6367821007
 40
1.0
 40
1.0
 40
1.0
 40
1.0
 10
559.4423215074999
 20
362.8068799580999
 30
0.0
 10
559.4568296333999
 20
362.8081748896
 30
0.0
 10
559.4898005341
 20
362.8335395882
 30
0.0
 10
559.541072919
 20
362.9340742281
 30
0.0
 10
559.5897872928
 20
363.1379216489
 30
0.0
 10
559.6260773805
 20
363.4454149807
 30
0.0
 10
559.634471167
 20
363.6804181511
 30
0.0
 10
559.634471167
 20
363.8067276532
 30
0.0
  0
SPLINE
  5
391
330
213
100
AcDbEntity
  8
RUNDUNGEN
  6
Continuous
 62
     9
100
AcDbSpline
210
0.0
220
0.0
230
1.0
 70
     8
 71
     3
 72
     9
 73
     5
 74
     0
 42
0.0000000001
 43
0.0000000001
 40
0.0
 40
0.0
 40
0.0
 40
0.0
 40
0.2576989579
 40
1.0
 40
1.0
 40
1.0
 40
1.0
 10
558.6314485107
 20
362.5536530841001
 30
0.0
 10
558.6904343656999
 20
362.5979009817
 30
0.0
 10
558.9360295869
 20
362.7471752604
 30
0.0
 10
559.2299253479
 20
362.8082221863
 30
0.0
 10
559.4423215129999
 20
362.8068784078
 30
0.0
  0
SPLINE
  5
392
330
213
100
AcDbEntity
  8
RUNDUNGEN
  6
Continuous
 62
     9
100
AcDbSpline
210
0.0
220
0.0
230
1.0
 70
     8
 71
     3
 72
    11
 73
     7
 74
     0
 42
0.0000000001
 43
0.0000000001
 40
0.0
 40
0.0
 40
0.0
 40
0.0
 40
0.2478791423
 40
0.4888329071000001
 40
0.7303660303
 40
1.0
 40
1.0
 40
1.0
 40
1.0
 10
558.7539610738999
 20
361.7904815536
 30
0.0
 10
558.7165525554
 20
361.8461721816
 30
0.0
 10
558.6495761983
 20
361.9608897317
 30
0.0
 10
558.5796704466999
 20
362.1471012554
 30
0.0
 10
558.554267708
 20
362.3516933368
 30
0.0
 10
558.5936007921
 20
362.4912576065
 30
0.0
 10
558.6314451775999
 20
362.5536542103
 30
0.0
  0
SPLINE
  5
393
330
213
100
AcDbEntity
  8
RUNDUNGEN
  6
Continuous
 62
     9
100
AcDbSpline
210
0.0
220
0.0
230
1.0
 70
     8
 71
     3
 72
     9
 73
     5
 74
     0
 42
0.0000000001
 43
0.0000000001
 40
0.0
 40
0.0
 40
0.0
 40
0.0
 40
0.5297063148
 40
1.0
 40
1.0
 40
1.0
 40
1.0
 10
557.9014777818001
 20
361.0244373467
 30
0.0
 10
558.1068632814
 20
361.0704353762
 30
0.0
 10
558.4803534609999
 20
361.2499245978
 30
0.0
 10
558.7179198819
 20
361.6071238173
 30
0.0
 10
558.7539610738999
 20
361.7904815536
 30
0.0
  0
SPLINE
  5
394
330
213
100
AcDbEntity
  8
RUNDUNGEN
  6
Continuous
 62
     9
100
AcDbSpline
210
0.0
220
0.0
230
1.0
 70
     8
 71
     3
 72
    11
 73
     7
 74
     0
 42
0.0000000001
 43
0.0000000001
 40
0.0
 40
0.0
 40
0.0
 40
0.0
 40
0.3457200652
 40
0.6451371001
 40
0.8696014744999999
 40
1.0
 40
1.0
 40
1.0
 40
1.0
 10
558.1560784587
 20
363.2903380481
 30
0.0
 10
558.2212321545999
 20
363.212422567
 30
0.0
 10
558.3358930821999
 20
363.0615133056
 30
0.0
 10
558.4840581892999
 20
362.8526556678
 30
0.0
 10
558.582871975
 20
362.688930667
 30
0.0
 10
558.6265482965
 20
362.591648407
 30
0.0
 10
558.6314477882
 20
362.5536540698
 30
0.0
  0
SPLINE
  5
395
330
213
100
AcDbEntity
  8
RUNDUNGEN
  6
Continuous
 62
     9
100
AcDbSpline
210
0.0
220
0.0
230
1.0
 70
     8
 71
     3
 72
     9
 73
     5
 74
     0
 42
0.0000000001
 43
0.0000000001
 40
0.0
 40
0.0
 40
0.0
 40
0.0
 40
0.5496699657999999
 40
1.0
 40
1.0
 40
1.0
 40
1.0
 10
558.1560784587
 20
363.2903380481
 30
0.0
 10
558.1560784587
 20
363.149359651
 30
0.0
 10
558.1467319856999
 20
362.8929330525
 30
0.0
 10
558.1172064398999
 20
362.6373676514
 30
0.0
 10
558.0936590703999
 20
362.5242936049
 30
0.0
  0
SPLINE
  5
396
330
213
100
AcDbEntity
  8
RUNDUNGEN
  6
Continuous
 62
     9
100
AcDbSpline
210
0.0
220
0.0
230
1.0
 70
     8
 71
     3
 72
     9
 73
     5
 74
     0
 42
0.0000000001
 43
0.0000000001
 40
0.0
 40
0.0
 40
0.0
 40
0.0
 40
0.2225740407
 40
1.0
 40
1.0
 40
1.0
 40
1.0
 10
558.6314477882
 20
362.5536540698
 30
0.0
 10
558.5959636949
 20
362.5339977706
 30
0.0
 10
558.4242947627
 20
362.4672566987001
 30
0.0
 10
558.2301027856999
 20
362.4861029130999
 30
0.0
 10
558.0936590703999
 20
362.5242936049
 30
0.0
  0
SPLINE
  5
397
330
213
100
AcDbEntity
  8
RUNDUNGEN
  6
Continuous
 62
     9
100
AcDbSpline
210
0.0
220
0.0
230
1.0
 70
     8
 71
     3
 72
     9
 73
     5
 74
     0
 42
0.0000000001
 43
0.0000000001
 40
0.0
 40
0.0
 40
0.0
 40
0.0
 40
0.1408982708
 40
1.0
 40
1.0
 40
1.0
 40
1.0
 10
559.9677245829
 20
358.25498794
 30
0.0
 10
560.0021041487
 20
358.2554757056
 30
0.0
 10
560.2461271784
 20
358.2572875238
 30
0.0
 10
560.4901539402
 20
358.2578359396
 30
0.0
 10
560.6997978821
 20
358.2582138418
 30
0.0
  0
SPLINE
  5
398
330
213
100
AcDbEntity
  8
RUNDUNGEN
  6
Continuous
 62
     9
100
AcDbSpline
210
0.0
220
0.0
230
1.0
 70
     8
 71
     3
 72
     9
 73
     5
 74
     0
 42
0.0000000001
 43
0.0000000001
 40
0.0
 40
0.0
 40
0.0
 40
0.0
 40
0.4511964811000001
 40
1.0
 40
1.0
 40
1.0
 40
1.0
 10
532.2575581594
 20
357.1863927235
 30
0.0
 10
532.2855758119
 20
357.0743816154
 30
0.0
 10
532.3211318984999
 20
356.8198485785
 30
0.0
 10
532.3324365341999
 20
356.5640139880001
 30
0.0
 10
532.3325319726999
 20
356.4235741823001
 30
0.0
  0
SPLINE
  5
399
330
213
100
AcDbEntity
  8
RUNDUNGEN
  6
Continuous
 62
     9
100
AcDbSpline
210
0.0
220
0.0
230
1.0
 70
     8
 71
     3
 72
    12
 73
     8
 74
     0
 42
0.0000000001
 43
0.0000000001
 40
0.0
 40
0.0
 40
0.0
 40
0.0
 40
0.2816954063
 40
0.5581410144
 40
0.8153109032999999
 40
0.9235571681999999
 40
1.0
 40
1.0
 40
1.0
 40
1.0
 10
562.2841853287
 20
310.926345122
 30
0.0
 10
562.1704500547
 20
310.8717935373
 30
0.0
 10
561.9444167922999
 20
310.7650505891
 30
0.0
 10
561.6115741648999
 20
310.6152583981
 30
0.0
 10
561.3465750719
 20
310.5030386648
 30
0.0
 10
561.1607261199
 20
310.4360576235
 30
0.0
 10
561.0811406512
 20
310.4115572544
 30
0.0
 10
561.0472268395999
 20
310.4069114688
 30
0.0
  0
SPLINE
  5
39A
330
213
100
AcDbEntity
  8
RUNDUNGEN
  6
Continuous
 62
     9
100
AcDbSpline
210
0.0
220
0.0
230
1.0
 70
     8
 71
     3
 72
    11
 73
     7
 74
     0
 42
0.0000000001
 43
0.0000000001
 40
0.0
 40
0.0
 40
0.0
 40
0.0
 40
0.243713118
 40
0.4919373554
 40
0.744865361
 40
1.0
 40
1.0
 40
1.0
 40
1.0
 10
561.0472560262999
 20
310.4069176218
 30
0.0
 10
561.1711777596
 20
310.4064316412
 30
0.0
 10
561.4238641889
 20
310.3523769469
 30
0.0
 10
561.7410836978999
 20
310.1285032002
 30
0.0
 10
561.9548585731999
 20
309.7981901335
 30
0.0
 10
562.0078934230999
 20
309.5381759375
 30
0.0
 10
562.0100308658999
 20
309.4084632721
 30
0.0
  0
SPLINE
  5
39B
330
213
100
AcDbEntity
  8
RUNDUNGEN
  6
Continuous
 62
     9
100
AcDbSpline
210
0.0
220
0.0
230
1.0
 70
     8
 71
     3
 72
    11
 73
     7
 74
     0
 42
0.0000000001
 43
0.0000000001
 40
0.0
 40
0.0
 40
0.0
 40
0.0
 40
0.2551346401
 40
0.5080626465
 40
0.7562868843000001
 40
1.0
 40
1.0
 40
1.0
 40
1.0
 10
529.4890083906999
 20
309.4084632634
 30
0.0
 10
529.4911458507
 20
309.5381759138
 30
0.0
 10
529.5441806908999
 20
309.798190075
 30
0.0
 10
529.757955524
 20
310.1285031139
 30
0.0
 10
530.0751749692999
 20
310.3523768670001
 30
0.0
 10
530.3278613638
 20
310.4064315806
 30
0.0
 10
530.4517830812999
 20
310.4069175707
 30
0.0
  0
SPLINE
  5
39C
330
213
100
AcDbEntity
  8
RUNDUNGEN
  6
Continuous
 62
     9
100
AcDbSpline
210
0.0
220
0.0
230
1.0
 70
     8
 71
     3
 72
    12
 73
     8
 74
     0
 42
0.0000000001
 43
0.0000000001
 40
0.0
 40
0.0
 40
0.0
 40
0.0
 40
0.0764373603
 40
0.1846846986
 40
0.4418470146000001
 40
0.7182985111
 40
1.0
 40
1.0
 40
1.0
 40
1.0
 10
530.4518382634999
 20
310.406908691
 30
0.0
 10
530.4179262438
 20
310.4115542909
 30
0.0
 10
530.3383387711
 20
310.4360445434
 30
0.0
 10
530.1524886426
 20
310.5030200500999
 30
0.0
 10
529.8874952566999
 20
310.6152669117
 30
0.0
 10
529.5546499288
 20
310.7650730969
 30
0.0
 10
529.3285848458
 20
310.8717729136
 30
0.0
 10
529.2148537877999
 20
310.9263451179
 30
0.0
  0
SPLINE
  5
39D
330
213
100
AcDbEntity
  8
RUNDUNGEN
  6
Continuous
 62
     9
100
AcDbSpline
210
0.0
220
0.0
230
1.0
 70
     8
 71
     3
 72
    11
 73
     7
 74
     0
 42
0.0000000001
 43
0.0000000001
 40
0.0
 40
0.0
 40
0.0
 40
0.0
 40
0.2533656516
 40
0.5054043981000001
 40
0.7542865284999999
 40
1.0
 40
1.0
 40
1.0
 40
1.0
 10
529.5048806519
 20
309.4024607871
 30
0.0
 10
529.5066435407
 20
309.5324441873
 30
0.0
 10
529.5601519957999
 20
309.7936662651
 30
0.0
 10
529.7779151322
 20
310.1246439552
 30
0.0
 10
530.10097398
 20
310.347884393
 30
0.0
 10
530.3574769158
 20
310.4009798411
 30
0.0
 10
530.483546088
 20
310.4010881983001
 30
0.0
  0
SPLINE
  5
39E
330
213
100
AcDbEntity
  8
RUNDUNGEN
  6
Continuous
 62
     9
100
AcDbSpline
210
0.0
220
0.0
230
1.0
 70
     8
 71
     3
 72
    11
 73
     7
 74
     0
 42
0.0000000001
 43
0.0000000001
 40
0.0
 40
0.0
 40
0.0
 40
0.0
 40
0.2533645866
 40
0.5054060348000001
 40
0.7542959162000001
 40
1.0
 40
1.0
 40
1.0
 40
1.0
 10
533.976097511
 20
308.4972512778
 30
0.0
 10
533.9782065702999
 20
308.6272037439
 30
0.0
 10
534.0311639681999
 20
308.8883850237
 30
0.0
 10
534.2490732251
 20
309.2193275429
 30
0.0
 10
534.5719726457999
 20
309.4425185536
 30
0.0
 10
534.8284146387999
 20
309.4958187749
 30
0.0
 10
534.9544545601999
 20
309.4958808126
 30
0.0
  0
SPLINE
  5
39F
330
213
100
AcDbEntity
  8
RUNDUNGEN
  6
Continuous
 62
     9
100
AcDbSpline
210
0.0
220
0.0
230
1.0
 70
     8
 71
     3
 72
    11
 73
     7
 74
     0
 42
0.0000000001
 43
0.0000000001
 40
0.0
 40
0.0
 40
0.0
 40
0.0
 40
0.3534608842
 40
0.6597472782000001
 40
0.8803793973000001
 40
1.0
 40
1.0
 40
1.0
 40
1.0
 10
535.1795507258
 20
308.4972512779
 30
0.0
 10
535.1795507258
 20
308.6209007494
 30
0.0
 10
535.1704088814
 20
308.8507191984
 30
0.0
 10
535.1251336666
 20
309.1604707739
 30
0.0
 10
535.068608506
 20
309.369769071
 30
0.0
 10
534.9953180151999
 20
309.4868647453
 30
0.0
 10
534.9544545601999
 20
309.4958808126
 30
0.0
  0
SPLINE
  5
3A0
330
213
100
AcDbEntity
  8
RUNDUNGEN
  6
Continuous
 62
     9
100
AcDbSpline
210
0.0
220
0.0
230
1.0
 70
     8
 71
     3
 72
    11
 73
     7
 74
     0
 42
0.0000000001
 43
0.0000000001
 40
0.0
 40
0.0
 40
0.0
 40
0.0
 40
0.353460885
 40
0.6597472796
 40
0.880379398
 40
1.0
 40
1.0
 40
1.0
 40
1.0
 10
556.3194883817
 20
308.4972512779
 30
0.0
 10
556.3194883817
 20
308.6209007497
 30
0.0
 10
556.3286302272
 20
308.8507191992
 30
0.0
 10
556.3739054418
 20
309.1604707749
 30
0.0
 10
556.4304306024999
 20
309.3697690718
 30
0.0
 10
556.5037210931999
 20
309.4868647453
 30
0.0
 10
556.5445845480999
 20
309.4958808126
 30
0.0
  0
SPLINE
  5
3A1
330
213
100
AcDbEntity
  8
RUNDUNGEN
  6
Continuous
 62
     9
100
AcDbSpline
210
0.0
220
0.0
230
1.0
 70
     8
 71
     3
 72
    11
 73
     7
 74
     0
 42
0.0000000001
 43
0.0000000001
 40
0.0
 40
0.0
 40
0.0
 40
0.0
 40
0.2533645915
 40
0.5054060414000001
 40
0.7542959206999999
 40
1.0
 40
1.0
 40
1.0
 40
1.0
 10
557.5229415973
 20
308.4972512778
 30
0.0
 10
557.5208325276
 20
308.6272037463
 30
0.0
 10
557.4678751444
 20
308.8883850305
 30
0.0
 10
557.2499658754
 20
309.2193275487
 30
0.0
 10
556.9270664573
 20
309.4425185564
 30
0.0
 10
556.6706244670999
 20
309.4958187742
 30
0.0
 10
556.5445845480999
 20
309.4958808126
 30
0.0
  0
SPLINE
  5
3A2
330
213
100
AcDbEntity
  8
RUNDUNGEN
  6
Continuous
 62
     9
100
AcDbSpline
210
0.0
220
0.0
230
1.0
 70
     8
 71
     3
 72
    11
 73
     7
 74
     0
 42
0.0000000001
 43
0.0000000001
 40
0.0
 40
0.0
 40
0.0
 40
0.0
 40
0.2533656429
 40
0.5054043891
 40
0.7542865267000001
 40
1.0
 40
1.0
 40
1.0
 40
1.0
 10
561.9941573106
 20
309.4024607871
 30
0.0
 10
561.9923944221
 20
309.5324442101
 30
0.0
 10
561.9388861121
 20
309.7936663267
 30
0.0
 10
561.721123466
 20
310.1246443895
 30
0.0
 10
561.3980650524999
 20
310.3478855695
 30
0.0
 10
561.1415621924
 20
310.4009816552
 30
0.0
 10
561.0154929931
 20
310.4010903218
 30
0.0
  0
SPLINE
  5
3A3
330
213
100
AcDbEntity
  8
RUNDUNGEN
  6
Continuous
 62
     9
100
AcDbSpline
210
0.0
220
0.0
230
1.0
 70
     8
 71
     3
 72
    11
 73
     7
 74
     0
 42
0.0000000001
 43
0.0000000001
 40
0.0
 40
0.0
 40
0.0
 40
0.0
 40
0.2458577514
 40
0.4943786782
 40
0.7461891769
 40
1.0
 40
1.0
 40
1.0
 40
1.0
 10
557.8018611973999
 20
303.3448479683
 30
0.0
 10
557.9277459412999
 20
303.3448931576
 30
0.0
 10
558.1837167982
 20
303.3977553812
 30
0.0
 10
558.5054258230999
 20
303.6214856601
 30
0.0
 10
558.7204333669999
 20
303.9534107669
 30
0.0
 10
558.7713811837
 20
304.2147400838
 30
0.0
 10
558.7719681684999
 20
304.3446956636
 30
0.0
  0
SPLINE
  5
3A4
330
213
100
AcDbEntity
  8
RUNDUNGEN
  6
Continuous
 62
     9
100
AcDbSpline
210
0.0
220
0.0
230
1.0
 70
     8
 71
     3
 72
    11
 73
     7
 74
     0
 42
0.0000000001
 43
0.0000000001
 40
0.0
 40
0.0
 40
0.0
 40
0.0
 40
0.245853807
 40
0.4943762024
 40
0.7461835523999999
 40
1.0
 40
1.0
 40
1.0
 40
1.0
 10
556.5528703465999
 20
303.4290654125
 30
0.0
 10
556.6787502023999
 20
303.4290858077
 30
0.0
 10
556.9347219017999
 20
303.4820073577
 30
0.0
 10
557.2563611657
 20
303.7057175085
 30
0.0
 10
557.4715771776999
 20
304.0376266955
 30
0.0
 10
557.5220363894
 20
304.2989594432
 30
0.0
 10
557.5229415972
 20
304.4289131077
 30
0.0
  0
SPLINE
  5
3A5
330
213
100
AcDbEntity
  8
RUNDUNGEN
  6
Continuous
 62
     9
100
AcDbSpline
210
0.0
220
0.0
230
1.0
 70
     8
 71
     3
 72
    12
 73
     8
 74
     0
 42
0.0000000001
 43
0.0000000001
 40
0.0
 40
0.0
 40
0.0
 40
0.0
 40
0.1142973885
 40
0.2105611732
 40
0.3329232843
 40
0.6414546599000001
 40
1.0
 40
1.0
 40
1.0
 40
1.0
 10
556.5528703465999
 20
303.4290654125
 30
0.0
 10
556.5126998008
 20
303.4320174068
 30
0.0
 10
556.4599938855
 20
303.5062230716
 30
0.0
 10
556.4183701353999
 20
303.6103718828
 30
0.0
 10
556.3682917705
 20
303.7920303533
 30
0.0
 10
556.3301389728
 20
304.0670017995
 30
0.0
 10
556.3194883817
 20
304.3025602681
 30
0.0
 10
556.3194883817
 20
304.4289131077
 30
0.0
  0
SPLINE
  5
3A6
330
213
100
AcDbEntity
  8
RUNDUNGEN
  6
Continuous
 62
     9
100
AcDbSpline
210
0.0
220
0.0
230
1.0
 70
     8
 71
     3
 72
    12
 73
     8
 74
     0
 42
0.0000000001
 43
0.0000000001
 40
0.0
 40
0.0
 40
0.0
 40
0.0
 40
0.1142973884
 40
0.2105611732
 40
0.3329232842
 40
0.6414546599000001
 40
1.0
 40
1.0
 40
1.0
 40
1.0
 10
534.9461687616999
 20
303.4290654125
 30
0.0
 10
534.9863393073999
 20
303.4320174068
 30
0.0
 10
535.0390452226999
 20
303.5062230716
 30
0.0
 10
535.0806689728999
 20
303.6103718828
 30
0.0
 10
535.1307473377
 20
303.7920303533
 30
0.0
 10
535.1689001353999
 20
304.0670017995
 30
0.0
 10
535.1795507264999
 20
304.3025602681
 30
0.0
 10
535.1795507264999
 20
304.4289131077
 30
0.0
  0
SPLINE
  5
3A7
330
213
100
AcDbEntity
  8
RUNDUNGEN
  6
Continuous
 62
     9
100
AcDbSpline
210
0.0
220
0.0
230
1.0
 70
     8
 71
     3
 72
    11
 73
     7
 74
     0
 42
0.0000000001
 43
0.0000000001
 40
0.0
 40
0.0
 40
0.0
 40
0.0
 40
0.2458538137
 40
0.4943762122
 40
0.7461835596
 40
1.0
 40
1.0
 40
1.0
 40
1.0
 10
534.9461687616999
 20
303.4290654125
 30
0.0
 10
534.8202889023999
 20
303.4290858074001
 30
0.0
 10
534.5643171987999
 20
303.4820073613
 30
0.0
 10
534.2426779313999
 20
303.7057175172
 30
0.0
 10
534.0274619368
 20
304.0376267052
 30
0.0
 10
533.9770027039
 20
304.2989594468
 30
0.0
 10
533.976097511
 20
304.4289131077
 30
0.0
  0
SPLINE
  5
3A8
330
213
100
AcDbEntity
  8
RUNDUNGEN
  6
Continuous
 62
     9
100
AcDbSpline
210
0.0
220
0.0
230
1.0
 70
     8
 71
     3
 72
    11
 73
     7
 74
     0
 42
0.0000000001
 43
0.0000000001
 40
0.0
 40
0.0
 40
0.0
 40
0.0
 40
0.2458577514
 40
0.4943786782
 40
0.7461891769
 40
1.0
 40
1.0
 40
1.0
 40
1.0
 10
533.6971779108999
 20
303.3448479683
 30
0.0
 10
533.5712931668999
 20
303.3448931576
 30
0.0
 10
533.31532231
 20
303.3977553812
 30
0.0
 10
532.9936132852
 20
303.6214856601
 30
0.0
 10
532.7786057412001
 20
303.9534107669
 30
0.0
 10
532.7276579245999
 20
304.2147400838
 30
0.0
 10
532.7270709398
 20
304.3446956636
 30
0.0
  0
SPLINE
  5
3A9
330
213
100
AcDbEntity
  8
RUNDUNGEN
  6
Continuous
 62
     9
100
AcDbSpline
210
0.0
220
0.0
230
1.0
 70
     8
 71
     3
 72
    10
 73
     6
 74
     0
 42
0.0000000001
 43
0.0000000001
 40
0.0
 40
0.0
 40
0.0
 40
0.0
 40
0.1386339828
 40
0.3511942047
 40
1.0
 40
1.0
 40
1.0
 40
1.0
 10
560.5386414687
 20
281.9944440722
 30
0.0
 10
560.5674951621999
 20
281.9999055923
 30
0.0
 10
560.6289174403999
 20
282.0531520391
 30
0.0
 10
560.7206441135999
 20
282.243513017
 30
0.0
 10
560.7560607022
 20
282.4263127416
 30
0.0
 10
560.7740541965
 20
282.5625625098
 30
0.0
  0
SPLINE
  5
3AA
330
213
100
AcDbEntity
  8
RUNDUNGEN
  6
Continuous
 62
     9
100
AcDbSpline
210
0.0
220
0.0
230
1.0
 70
     8
 71
     3
 72
    11
 73
     7
 74
     0
 42
0.0000000001
 43
0.0000000001
 40
0.0
 40
0.0
 40
0.0
 40
0.0
 40
0.2456969364
 40
0.4945826668000001
 40
0.7466286454000001
 40
1.0
 40
1.0
 40
1.0
 40
1.0
 10
560.5386414692
 20
281.9944440723
 30
0.0
 10
560.4124394749
 20
281.9942183071
 30
0.0
 10
560.1555221016999
 20
282.0471150214
 30
0.0
 10
559.8319665387999
 20
282.2701831756999
 30
0.0
 10
559.6131735965
 20
282.6013966791
 30
0.0
 10
559.5608316744999
 20
282.8629555517
 30
0.0
 10
559.5582251285
 20
282.9930736071
 30
0.0
  0
SPLINE
  5
3AB
330
213
100
AcDbEntity
  8
RUNDUNGEN
  6
Continuous
 62
     9
100
AcDbSpline
210
0.0
220
0.0
230
1.0
 70
     8
 71
     3
 72
    11
 73
     7
 74
     0
 42
0.0000000001
 43
0.0000000001
 40
0.0
 40
0.0
 40
0.0
 40
0.0
 40
0.2457091995
 40
0.4945870052
 40
0.7466277202000001
 40
1.0
 40
1.0
 40
1.0
 40
1.0
 10
559.2843165458
 20
281.7404881913
 30
0.0
 10
559.1581012874
 20
281.7403474273
 30
0.0
 10
558.9011889006
 20
281.793067317
 30
0.0
 10
558.5774679772
 20
282.0162010439
 30
0.0
 10
558.3592054612999
 20
282.3474385975
 30
0.0
 10
558.3055709407
 20
282.608978002
 30
0.0
 10
558.3038060834
 20
282.7391177261
 30
0.0
  0
SPLINE
  5
3AC
330
213
100
AcDbEntity
  8
RUNDUNGEN
  6
Continuous
 62
     9
100
AcDbSpline
210
0.0
220
0.0
230
1.0
 70
     8
 71
     3
 72
    11
 73
     7
 74
     0
 42
0.0000000001
 43
0.0000000001
 40
0.0
 40
0.0
 40
0.0
 40
0.0
 40
0.1220976344
 40
0.3372955676
 40
0.6390863567000001
 40
1.0
 40
1.0
 40
1.0
 40
1.0
 10
556.8568920724
 20
281.6326118917
 30
0.0
 10
556.8910854852999
 20
281.6401156002
 30
0.0
 10
556.9568887166999
 20
281.7281939393
 30
0.0
 10
557.0112013161
 20
281.8977136593
 30
0.0
 10
557.0586443633
 20
282.1480958889
 30
0.0
 10
557.0740227251999
 20
282.3370648356
 30
0.0
 10
557.0788211621
 20
282.440432431
 30
0.0
  0
SPLINE
  5
3AD
330
213
100
AcDbEntity
  8
RUNDUNGEN
  6
Continuous
 62
     9
100
AcDbSpline
210
0.0
220
0.0
230
1.0
 70
     8
 71
     3
 72
    11
 73
     7
 74
     0
 42
0.0000000001
 43
0.0000000001
 40
0.0
 40
0.0
 40
0.0
 40
0.0
 40
0.1220976474
 40
0.337295579
 40
0.6390863620000001
 40
1.0
 40
1.0
 40
1.0
 40
1.0
 10
534.6421470358999
 20
281.6326118917
 30
0.0
 10
534.6079536183
 20
281.6401155988
 30
0.0
 10
534.5421503690999
 20
281.7281939294
 30
0.0
 10
534.4878377664
 20
281.8977136579
 30
0.0
 10
534.4403947252999
 20
282.148095887
 30
0.0
 10
534.4250163752
 20
282.3370648352
 30
0.0
 10
534.4202179460999
 20
282.440432431
 30
0.0
  0
SPLINE
  5
3AE
330
213
100
AcDbEntity
  8
RUNDUNGEN
  6
Continuous
 62
     9
100
AcDbSpline
210
0.0
220
0.0
230
1.0
 70
     8
 71
     3
 72
    11
 73
     7
 74
     0
 42
0.0000000001
 43
0.0000000001
 40
0.0
 40
0.0
 40
0.0
 40
0.0
 40
0.2457091974
 40
0.4945869966
 40
0.7466277122000001
 40
1.0
 40
1.0
 40
1.0
 40
1.0
 10
532.2147225908
 20
281.740490131
 30
0.0
 10
532.3409378354
 20
281.7403490521
 30
0.0
 10
532.5978503293
 20
281.7930683183
 30
0.0
 10
532.9215716958999
 20
282.0162013707
 30
0.0
 10
533.1398346800999
 20
282.3474386164
 30
0.0
 10
533.1934693348
 20
282.6089780107
 30
0.0
 10
533.1952341912
 20
282.7391177261
 30
0.0
  0
SPLINE
  5
3AF
330
213
100
AcDbEntity
  8
RUNDUNGEN
  6
Continuous
 62
     9
100
AcDbSpline
210
0.0
220
0.0
230
1.0
 70
     8
 71
     3
 72
    11
 73
     7
 74
     0
 42
0.0000000001
 43
0.0000000001
 40
0.0
 40
0.0
 40
0.0
 40
0.0
 40
0.2456969363
 40
0.4945826667000001
 40
0.7466286453000001
 40
1.0
 40
1.0
 40
1.0
 40
1.0
 10
530.960397639
 20
281.9944440723
 30
0.0
 10
531.0865996332999
 20
281.9942183071
 30
0.0
 10
531.3435170065
 20
282.0471150214
 30
0.0
 10
531.6670725694
 20
282.2701831756999
 30
0.0
 10
531.8858655118
 20
282.601396679
 30
0.0
 10
531.9382074336
 20
282.8629555517
 30
0.0
 10
531.9408139796999
 20
282.9930736071
 30
0.0
  0
SPLINE
  5
3B0
330
213
100
AcDbEntity
  8
RUNDUNGEN
  6
Continuous
 62
     9
100
AcDbSpline
210
0.0
220
0.0
230
1.0
 70
     8
 71
     3
 72
    10
 73
     6
 74
     0
 42
0.0000000001
 43
0.0000000001
 40
0.0
 40
0.0
 40
0.0
 40
0.0
 40
0.1386339833
 40
0.3511942051
 40
1.0
 40
1.0
 40
1.0
 40
1.0
 10
530.960397639
 20
281.9944440723
 30
0.0
 10
530.9315439455
 20
281.9999055924
 30
0.0
 10
530.8701216672
 20
282.0531520381
 30
0.0
 10
530.7783949936
 20
282.2435130148
 30
0.0
 10
530.7429784106999
 20
282.4263127391
 30
0.0
 10
530.7249849165
 20
282.5625625063
 30
0.0
  0
SPLINE
  5
3B1
330
213
100
AcDbEntity
  8
RUNDUNGEN
  6
Continuous
 62
     9
100
AcDbSpline
210
0.0
220
0.0
230
1.0
 70
     8
 71
     3
 72
     9
 73
     5
 74
     0
 42
0.0000000001
 43
0.0000000001
 40
0.0
 40
0.0
 40
0.0
 40
0.0
 40
0.5410793467000001
 40
1.0
 40
1.0
 40
1.0
 40
1.0
 10
616.6135771873999
 20
300.7935837179
 30
0.0
 10
616.8011531491999
 20
301.2831134427
 30
0.0
 10
617.0438503033999
 20
302.2317885532
 30
0.0
 10
617.0748549824
 20
303.2074150627
 30
0.0
 10
617.042837175
 20
303.6508961889
 30
0.0
  0
LINE
  5
3B2
330
213
100
AcDbEntity
  8
RUNDUNGEN
  6
Continuous
 62
     9
100
AcDbLine
 10
533.1952427393
 20
282.7391157594
 30
0.0
 11
532.2278824244
 21
301.963382286
 31
0.0
  0
SPLINE
  5
3B3
330
213
100
AcDbEntity
  8
RUNDUNGEN
  6
Continuous
 62
     9
100
AcDbSpline
210
0.0
220
0.0
230
1.0
 70
     8
 71
     3
 72
    11
 73
     7
 74
     0
 42
0.0000000001
 43
0.0000000001
 40
0.0
 40
0.0
 40
0.0
 40
0.0
 40
0.1545618609
 40
0.3869853067
 40
0.6815849918000002
 40
1.0
 40
1.0
 40
1.0
 40
1.0
 10
533.1952431848999
 20
282.7391069167
 30
0.0
 10
533.2402391929999
 20
282.6908956458
 30
0.0
 10
533.3900399404
 20
282.6098544482
 30
0.0
 10
533.6662050746
 20
282.5219447264
 30
0.0
 10
534.0229153202
 20
282.4584664155
 30
0.0
 10
534.2843773055
 20
282.4409753402
 30
0.0
 10
534.4202339206
 20
282.4404316832
 30
0.0
  0
SPLINE
  5
3B4
330
213
100
AcDbEntity
  8
RUNDUNGEN
  6
Continuous
 62
     9
100
AcDbSpline
210
0.0
220
0.0
230
1.0
 70
     8
 71
     3
 72
    12
 73
     8
 74
     0
 42
0.0000000001
 43
0.0000000001
 40
0.0
 40
0.0
 40
0.0
 40
0.0
 40
0.3139385611
 40
0.6115173655000001
 40
0.8504773714
 40
0.9376057607999999
 40
1.0
 40
1.0
 40
1.0
 40
1.0
 10
533.4296796628999
 20
302.1541912771
 30
0.0
 10
533.3013350656999
 20
302.1537171674
 30
0.0
 10
533.0512208546
 20
302.1435067436
 30
0.0
 10
532.7056256655001
 20
302.105126534
 30
0.0
 10
532.4543036151999
 20
302.0564769784
 30
0.0
 10
532.3037124827
 20
302.0061012623
 30
0.0
 10
532.2482775968
 20
301.9787024299
 30
0.0
 10
532.2278824247
 20
301.963382282
 30
0.0
  0
SPLINE
  5
3B5
330
213
100
AcDbEntity
  8
RUNDUNGEN
  6
Continuous
 62
     9
100
AcDbSpline
210
0.0
220
0.0
230
1.0
 70
     8
 71
     3
 72
    11
 73
     7
 74
     0
 42
0.0000000001
 43
0.0000000001
 40
0.0
 40
0.0
 40
0.0
 40
0.0
 40
0.3184150127
 40
0.6130146991
 40
0.8454381449999999
 40
1.0
 40
1.0
 40
1.0
 40
1.0
 10
557.0788052134999
 20
282.4404316845
 30
0.0
 10
557.2146618281999
 20
282.440975337
 30
0.0
 10
557.4761238169998
 20
282.4584664166
 30
0.0
 10
557.8328340371999
 20
282.5219447436
 30
0.0
 10
558.1089992183999
 20
282.6098544302
 30
0.0
 10
558.2587998576
 20
282.6908957154
 30
0.0
 10
558.3037959288
 20
282.7391069225
 30
0.0
  0
LINE
  5
3B6
330
213
100
AcDbEntity
  8
RUNDUNGEN
  6
Continuous
 62
     9
100
AcDbLine
 10
559.2711566837
 20
301.9633822798
 30
0.0
 11
558.3037963740999
 21
282.7391157605
 31
0.0
  0
SPLINE
  5
3B7
330
213
100
AcDbEntity
  8
RUNDUNGEN
  6
Continuous
 62
     9
100
AcDbSpline
210
0.0
220
0.0
230
1.0
 70
     8
 71
     3
 72
    12
 73
     8
 74
     0
 42
0.0000000001
 43
0.0000000001
 40
0.0
 40
0.0
 40
0.0
 40
0.0
 40
0.3139385612
 40
0.6115173657000001
 40
0.8504773715999998
 40
0.937605761
 40
1.0
 40
1.0
 40
1.0
 40
1.0
 10
558.0693594452999
 20
302.1541912771
 30
0.0
 10
558.1977040425999
 20
302.1537171673
 30
0.0
 10
558.4478182537999
 20
302.1435067436
 30
0.0
 10
558.7934134431
 20
302.105126534
 30
0.0
 10
559.0447354934999
 20
302.0564769783
 30
0.0
 10
559.1953266258999
 20
302.006101262
 30
0.0
 10
559.2507615117
 20
301.9787024296
 30
0.0
 10
559.2711566838
 20
301.9633822818
 30
0.0
  0
SPLINE
  5
3B8
330
213
100
AcDbEntity
  8
RUNDUNGEN
  6
Continuous
 62
     9
100
AcDbSpline
210
0.0
220
0.0
230
1.0
 70
     8
 71
     3
 72
    10
 73
     6
 74
     0
 42
0.0000000001
 43
0.0000000001
 40
0.0
 40
0.0
 40
0.0
 40
0.0
 40
0.1768007876
 40
0.4195094124
 40
1.0
 40
1.0
 40
1.0
 40
1.0
 10
559.5582251285
 20
282.9930736071
 30
0.0
 10
559.5955280607999
 20
282.9243162588
 30
0.0
 10
559.7428669503
 20
282.7976643562
 30
0.0
 10
560.1465158543
 20
282.6170159431
 30
0.0
 10
560.5172266105999
 20
282.5606177051
 30
0.0
 10
560.7740541917999
 20
282.5625625063
 30
0.0
  0
SPLINE
  5
3B9
330
213
100
AcDbEntity
  8
RUNDUNGEN
  6
Continuous
 62
     9
100
AcDbSpline
210
0.0
220
0.0
230
1.0
 70
     8
 71
     3
 72
    10
 73
     6
 74
     0
 42
0.0000000001
 43
0.0000000001
 40
0.0
 40
0.0
 40
0.0
 40
0.0
 40
0.5805840020000001
 40
0.823216912
 40
1.0
 40
1.0
 40
1.0
 40
1.0
 10
563.1519255189
 20
301.8407998847
 30
0.0
 10
562.8955144069
 20
301.8391448933
 30
0.0
 10
562.5255006198
 20
301.8956147546
 30
0.0
 10
562.1227105309999
 20
302.0762551645
 30
0.0
 10
561.9757206773
 20
302.2026842292
 30
0.0
 10
561.9384868482
 20
302.2713108683
 30
0.0
  0
SPLINE
  5
3BA
330
213
100
AcDbEntity
  8
RUNDUNGEN
  6
Continuous
 62
     9
100
AcDbSpline
210
0.0
220
0.0
230
1.0
 70
     8
 71
     3
 72
     8
 73
     4
 74
     0
 42
0.0000000001
 43
0.0000000001
 40
0.0
 40
0.0
 40
0.0
 40
0.0
 40
1.0
 40
1.0
 40
1.0
 40
1.0
 10
562.0100426406
 20
309.4084598591
 30
0.0
 10
562.0046922332
 20
309.4066132152
 30
0.0
 10
561.9993810475
 20
309.4046401277
 30
0.0
 10
561.9941573106
 20
309.4024607871
 30
0.0
  0
SPLINE
  5
3BB
330
213
100
AcDbEntity
  8
RUNDUNGEN
  6
Continuous
 62
     9
100
AcDbSpline
210
0.0
220
0.0
230
1.0
 70
     8
 71
     3
 72
     9
 73
     5
 74
     0
 42
0.0000000001
 43
0.0000000001
 40
0.0
 40
0.0
 40
0.0
 40
0.0
 40
0.3167919623
 40
1.0
 40
1.0
 40
1.0
 40
1.0
 10
563.2290194311
 20
303.1226553561
 30
0.0
 10
563.0980672806999
 20
303.1226483551
 30
0.0
 10
562.6847017309
 20
303.1232639722
 30
0.0
 10
562.2713116043
 20
303.1223610361
 30
0.0
 10
561.9889161457
 20
303.125881258
 30
0.0
  0
SPLINE
  5
3BC
330
213
100
AcDbEntity
  8
RUNDUNGEN
  6
Continuous
 62
     9
100
AcDbSpline
210
0.0
220
0.0
230
1.0
 70
     8
 71
     3
 72
    13
 73
     9
 74
     0
 42
0.0000000001
 43
0.0000000001
 40
0.0
 40
0.0
 40
0.0
 40
0.0
 40
0.0691933294
 40
0.1724409201
 40
0.2948608057999999
 40
0.4277114461
 40
0.7090309313
 40
1.0
 40
1.0
 40
1.0
 40
1.0
 10
562.0100426406
 20
309.4084598591
 30
0.0
 10
562.0379125343999
 20
309.4180281852
 30
0.0
 10
562.0941720834999
 20
309.470119394
 30
0.0
 10
562.1758090074999
 20
309.5635172042
 30
0.0
 10
562.2668252439999
 20
309.6869747686
 30
0.0
 10
562.3951779406
 20
309.8757784164
 30
0.0
 10
562.5536567
 20
310.1311248896
 30
0.0
 10
562.6757512264999
 20
310.3420327053
 30
0.0
 10
562.7365639444999
 20
310.4499956775
 30
0.0
  0
SPLINE
  5
3BD
330
213
100
AcDbEntity
  8
RUNDUNGEN
  6
Continuous
 62
     9
100
AcDbSpline
210
0.0
220
0.0
230
1.0
 70
     8
 71
     3
 72
     8
 73
     4
 74
     0
 42
0.0000000001
 43
0.0000000001
 40
0.0
 40
0.0
 40
0.0
 40
0.0
 40
1.0
 40
1.0
 40
1.0
 40
1.0
 10
529.5048817977
 20
309.4024607871
 30
0.0
 10
529.4996580644
 20
309.4046401305
 30
0.0
 10
529.4943468797
 20
309.4066132145
 30
0.0
 10
529.4889964742
 20
309.4084598569
 30
0.0
  0
SPLINE
  5
3BE
330
213
100
AcDbEntity
  8
RUNDUNGEN
  6
Continuous
 62
     9
100
AcDbSpline
210
0.0
220
0.0
230
1.0
 70
     8
 71
     3
 72
    13
 73
     9
 74
     0
 42
0.0000000001
 43
0.0000000001
 40
0.0
 40
0.0
 40
0.0
 40
0.0
 40
0.2909673023999999
 40
0.5722775464000001
 40
0.7051229123000001
 40
0.8275626901
 40
0.9308182437000001
 40
1.0
 40
1.0
 40
1.0
 40
1.0
 10
528.7624751685
 20
310.4499956694
 30
0.0
 10
528.8232809582
 20
310.3420295229
 30
0.0
 10
528.9453768583
 20
310.1311268191
 30
0.0
 10
529.1038957494
 20
309.875813818
 30
0.0
 10
529.2322833308999
 20
309.6870288143
 30
0.0
 10
529.3232295151999
 20
309.5635180307
 30
0.0
 10
529.4048342488999
 20
309.470054493
 30
0.0
 10
529.4611396310999
 20
309.4180510697
 30
0.0
 10
529.4889964742
 20
309.4084598569
 30
0.0
  0
SPLINE
  5
3BF
330
213
100
AcDbEntity
  8
RUNDUNGEN
  6
Continuous
 62
     9
100
AcDbSpline
210
0.0
220
0.0
230
1.0
 70
     8
 71
     3
 72
     9
 73
     5
 74
     0
 42
0.0000000001
 43
0.0000000001
 40
0.0
 40
0.0
 40
0.0
 40
0.0
 40
0.3167919334
 40
1.0
 40
1.0
 40
1.0
 40
1.0
 10
528.2700197425
 20
303.1226553569
 30
0.0
 10
528.4009718741
 20
303.1226483559
 30
0.0
 10
528.8143374021
 20
303.1232639726
 30
0.0
 10
529.2277275067999
 20
303.1223610386
 30
0.0
 10
529.5101229624999
 20
303.125881258
 30
0.0
  0
SPLINE
  5
3C0
330
213
100
AcDbEntity
  8
RUNDUNGEN
  6
Continuous
 62
     9
100
AcDbSpline
210
0.0
220
0.0
230
1.0
 70
     8
 71
     3
 72
    10
 73
     6
 74
     0
 42
0.0000000001
 43
0.0000000001
 40
0.0
 40
0.0
 40
0.0
 40
0.0
 40
0.5805840316
 40
0.8232169325
 40
1.0
 40
1.0
 40
1.0
 40
1.0
 10
528.3471135229
 20
301.840799769
 30
0.0
 10
528.6035246721
 20
301.8391447769
 30
0.0
 10
528.9735385062
 20
301.895614657
 30
0.0
 10
529.3763286166999
 20
302.0762551186
 30
0.0
 10
529.5233184546999
 20
302.2026842183
 30
0.0
 10
529.5605522599999
 20
302.2713108683
 30
0.0
  0
SPLINE
  5
3C1
330
213
100
AcDbEntity
  8
RUNDUNGEN
  6
Continuous
 62
     9
100
AcDbSpline
210
0.0
220
0.0
230
1.0
 70
     8
 71
     3
 72
    10
 73
     6
 74
     0
 42
0.0000000001
 43
0.0000000001
 40
0.0
 40
0.0
 40
0.0
 40
0.0
 40
0.5804905878
 40
0.8231992125000001
 40
1.0
 40
1.0
 40
1.0
 40
1.0
 10
530.7249849165
 20
282.5625625063
 30
0.0
 10
530.9818124987
 20
282.5606178535
 30
0.0
 10
531.3525232552999
 20
282.6170159118
 30
0.0
 10
531.7561721557
 20
282.7976643627
 30
0.0
 10
531.9035110475
 20
282.9243162589
 30
0.0
 10
531.9408139796999
 20
282.9930736071
 30
0.0
  0
LINE
  5
3C2
330
213
100
AcDbEntity
  8
RUNDUNGEN
  6
Continuous
 62
     9
100
AcDbLine
 10
534.420233883
 20
282.440432431
 30
0.0
 11
533.4296796664999
 21
302.1541912771
 31
0.0
  0
LINE
  5
3C3
330
213
100
AcDbEntity
  8
RUNDUNGEN
  6
Continuous
 62
     9
100
AcDbLine
 10
558.0693594416999
 20
302.1541912771
 30
0.0
 11
557.0788052509
 21
282.440432431
 31
0.0
  0
LINE
  5
3C4
330
213
100
AcDbEntity
  8
RUNDUNGEN
  6
Continuous
 62
     9
100
AcDbLine
 10
557.8018611609
 20
303.3448479676
 30
0.0
 11
556.5528703465999
 21
303.4290654125
 31
0.0
  0
LINE
  5
3C5
330
213
100
AcDbEntity
  8
RUNDUNGEN
  6
Continuous
 62
     9
100
AcDbLine
 10
534.9461687616999
 20
303.4290654125
 30
0.0
 11
533.6971779473999
 21
303.3448479676
 31
0.0
  0
SPLINE
  5
3C6
330
213
100
AcDbEntity
  8
RUNDUNGEN
  6
Continuous
 62
     9
100
AcDbSpline
210
0.0
220
0.0
230
1.0
 70
     8
 71
     3
 72
     8
 73
     4
 74
     0
 42
0.0000000001
 43
0.0000000001
 40
0.0
 40
0.0
 40
0.0
 40
0.0
 40
1.0
 40
1.0
 40
1.0
 40
1.0
 10
530.4835461150999
 20
310.4010903219
 30
0.0
 10
530.4729963506999
 20
310.4032282621
 30
0.0
 10
530.4623993848999
 20
310.4051365014
 30
0.0
 10
530.4517830431999
 20
310.4069145921
 30
0.0
  0
LINE
  5
3C7
330
213
100
AcDbEntity
  8
RUNDUNGEN
  6
Continuous
 62
     9
100
AcDbLine
 10
534.9544545601999
 20
309.4958808126
 30
0.0
 11
530.4835461150999
 21
310.4010903219
 31
0.0
  0
LINE
  5
3C8
330
213
100
AcDbEntity
  8
RUNDUNGEN
  6
Continuous
 62
     9
100
AcDbLine
 10
561.0154929931
 20
310.4010903219
 30
0.0
 11
556.5445845480999
 21
309.4958808126
 31
0.0
  0
SPLINE
  5
3C9
330
213
100
AcDbEntity
  8
RUNDUNGEN
  6
Continuous
 62
     9
100
AcDbSpline
210
0.0
220
0.0
230
1.0
 70
     8
 71
     3
 72
     8
 73
     4
 74
     0
 42
0.0000000001
 43
0.0000000001
 40
0.0
 40
0.0
 40
0.0
 40
0.0
 40
1.0
 40
1.0
 40
1.0
 40
1.0
 10
561.047256065
 20
310.4069145921
 30
0.0
 10
561.0366397228999
 20
310.4051365042
 30
0.0
 10
561.0260427583999
 20
310.4032282579
 30
0.0
 10
561.0154929931
 20
310.4010903219
 30
0.0
  0
LINE
  5
3CA
330
213
100
AcDbEntity
  8
RUNDUNGEN
  6
Continuous
 62
     9
100
AcDbLine
 10
558.3037963740999
 20
282.7391157605
 30
0.0
 11
559.5582251285
 21
282.9930736071
 31
0.0
  0
SPLINE
  5
3CB
330
213
100
AcDbEntity
  8
RUNDUNGEN
  6
Continuous
 62
     9
100
AcDbSpline
210
0.0
220
0.0
230
1.0
 70
     8
 71
     3
 72
    15
 73
    11
 74
     0
 42
0.0000000001
 43
0.0000000001
 40
0.0
 40
0.0
 40
0.0
 40
0.0
 40
0.4191635917000001
 40
0.5863216055000001
 40
0.7246797891
 40
0.8340951706999998
 40
0.9148281262999999
 40
0.9448095890999999
 40
0.9683353128
 40
1.0
 40
1.0
 40
1.0
 40
1.0
 10
617.042837175
 20
303.6508961889
 30
0.0
 10
617.0085275415
 20
304.1262298639
 30
0.0
 10
616.9528348374
 20
304.7907728229
 30
0.0
 10
616.8518544589
 20
305.608592005
 30
0.0
 10
616.7779407615999
 20
306.0746643032
 30
0.0
 10
616.6996803081
 20
306.4401442706
 30
0.0
 10
616.6281537202999
 20
306.6803383133
 30
0.0
 10
616.5631580396
 20
306.8197026343999
 30
0.0
 10
616.5125705661999
 20
306.900304539
 30
0.0
 10
616.4560915652999
 20
306.9450302793
 30
0.0
 10
616.4201083501
 20
306.9461724087
 30
0.0
  0
LINE
  5
3CC
330
213
100
AcDbEntity
  8
RUNDUNGEN
  6
Continuous
 62
     9
100
AcDbLine
 10
559.5582251285
 20
282.9930736071
 30
0.0
 11
561.9384868482
 21
302.2713108683
 31
0.0
  0
SPLINE
  5
3CD
330
213
100
AcDbEntity
  8
RUNDUNGEN
  6
Continuous
 62
     9
100
AcDbSpline
210
0.0
220
0.0
230
1.0
 70
     8
 71
     3
 72
     9
 73
     5
 74
     0
 42
0.0000000001
 43
0.0000000001
 40
0.0
 40
0.0
 40
0.0
 40
0.0
 40
0.2398401366
 40
1.0
 40
1.0
 40
1.0
 40
1.0
 10
561.9384868482
 20
302.2713108683
 30
0.0
 10
561.9468760909
 20
302.3392577339
 30
0.0
 10
561.9768339098999
 20
302.6231660502
 30
0.0
 10
561.988735249
 20
302.9088923058
 30
0.0
 10
561.9889161457
 20
303.125881258
 30
0.0
  0
LINE
  5
3CE
330
213
100
AcDbEntity
  8
RUNDUNGEN
  6
Continuous
 62
     9
100
AcDbLine
 10
561.9941573106
 20
309.4024607871
 30
0.0
 11
557.5229415973999
 21
308.4972512779
 31
0.0
  0
LINE
  5
3CF
330
213
100
AcDbEntity
  8
RUNDUNGEN
  6
Continuous
 62
     9
100
AcDbLine
 10
558.7719681658999
 20
304.3446956637
 30
0.0
 11
557.5229415973999
 21
304.4289131077
 31
0.0
  0
LINE
  5
3D0
330
213
100
AcDbEntity
  8
RUNDUNGEN
  6
Continuous
 62
     9
100
AcDbLine
 10
533.9760975108
 20
308.4972512779
 30
0.0
 11
529.5048817977
 21
309.4024607871
 31
0.0
  0
SPLINE
  5
3D1
330
213
100
AcDbEntity
  8
RUNDUNGEN
  6
Continuous
 62
     9
100
AcDbSpline
210
0.0
220
0.0
230
1.0
 70
     8
 71
     3
 72
     9
 73
     5
 74
     0
 42
0.0000000001
 43
0.0000000001
 40
0.0
 40
0.0
 40
0.0
 40
0.0
 40
0.2574377726
 40
1.0
 40
1.0
 40
1.0
 40
1.0
 10
529.5101229624999
 20
303.125881258
 30
0.0
 10
529.5101842244
 20
303.0523963849
 30
0.0
 10
529.5145292559999
 20
302.7669850947
 30
0.0
 10
529.5345789836
 20
302.4816758324
 30
0.0
 10
529.5605522599999
 20
302.2713108683
 30
0.0
  0
LINE
  5
3D2
330
213
100
AcDbEntity
  8
RUNDUNGEN
  6
Continuous
 62
     9
100
AcDbLine
 10
529.5605522599999
 20
302.2713108683
 30
0.0
 11
531.9408139796999
 21
282.9930736071
 31
0.0
  0
LINE
  5
3D3
330
213
100
AcDbEntity
  8
RUNDUNGEN
  6
Continuous
 62
     9
100
AcDbLine
 10
531.9408139796999
 20
282.9930736071
 30
0.0
 11
533.1952427393
 21
282.7391157594
 31
0.0
  0
LINE
  5
3D4
330
213
100
AcDbEntity
  8
RUNDUNGEN
  6
Continuous
 62
     9
100
AcDbLine
 10
533.9760975108
 20
304.4289131077
 30
0.0
 11
532.7270709423
 21
304.3446956637
 31
0.0
  0
SPLINE
  5
3D5
330
213
100
AcDbEntity
  8
0
  6
Continuous
 62
     9
100
AcDbSpline
210
0.0
220
0.0
230
1.0
 70
     8
 71
     3
 72
    27
 73
    23
 74
     0
 42
0.0000000001
 43
0.0000000001
 40
0.0
 40
0.0
 40
0.0
 40
0.0
 40
0.0005171985
 40
0.0015066624
 40
0.0051944681
 40
0.0112391556
 40
0.0196485792
 40
0.0304103494
 40
0.0435022492
 40
0.0588944332
 40
0.076551471
 40
0.0964311231
 40
0.1184865802
 40
0.1689077855
 40
0.2273319703
 40
0.2931979776
 40
0.365872446
 40
0.4446560217
 40
0.5287902190000001
 40
0.6174648481000001
 40
0.8049829026999999
 40
1.0
 40
1.0
 40
1.0
 40
1.0
 10
506.7495234591
 20
262.9294902024
 30
0.0
 10
506.7493523210999
 20
262.9227638884
 30
0.0
 10
506.7658757011
 20
262.9065679281
 30
0.0
 10
506.8273896401
 20
262.8840457409999
 30
0.0
 10
506.9664456242
 20
262.854855596
 30
0.0
 10
507.1992531608
 20
262.8246448501
 30
0.0
 10
507.5263440761
 20
262.7925944388
 30
0.0
 10
507.944670418
 20
262.7609048235
 30
0.0
 10
508.4543429173
 20
262.7291884201
 30
0.0
 10
509.0537781571
 20
262.6978673027
 30
0.0
 10
509.7416766643
 20
262.6669852953
 30
0.0
 10
510.5163480114
 20
262.6366694867
 30
0.0
 10
511.7171474351
 20
262.5952544931
 30
0.0
 10
513.4194178798999
 20
262.5465558081
 30
0.0
 10
515.6917182048999
 20
262.4937334683
 30
0.0
 10
518.2536694209
 20
262.4448882943
 30
0.0
 10
521.0806016931
 20
262.4005279194
 30
0.0
 10
524.1452878751
 20
262.3611297143
 30
0.0
 10
527.4182037245999
 20
262.3270928449
 30
0.0
 10
532.1057193826
 20
262.2886192198
 30
0.0
 10
538.2358531433999
 20
262.2568430125
 30
0.0
 10
543.2124457742999
 20
262.2484383776
 30
0.0
 10
545.7495195541
 20
262.2484380373
 30
0.0
  0
SPLINE
  5
3D6
330
213
100
AcDbEntity
  8
0
  6
Continuous
 62
     9
100
AcDbSpline
210
0.0
220
0.0
230
1.0
 70
     8
 71
     3
 72
    45
 73
    41
 74
     0
 42
0.0000000001
 43
0.0000000001
 40
0.0
 40
0.0
 40
0.0
 40
0.0
 40
0.000273823
 40
0.0007913713
 40
0.0026824504
 40
0.0057503654
 40
0.0099981174
 40
0.0154194582
 40
0.0220029022
 40
0.029733782
 40
0.0385939713
 40
0.0596159745
 40
0.084868999
 40
0.114111497
 40
0.147063136
 40
0.1834076673
 40
0.2227960601
 40
0.264849882
 40
0.3091649511
 40
0.4028569628
 40
0.5002770391000001
 40
0.5976863132
 40
0.6913463336
 40
0.7356378158
 40
0.7776632774
 40
0.8170188102
 40
0.8533262988
 40
0.8862370701999999
 40
0.9154352738
 40
0.9406410052
 40
0.9616131782
 40
0.9704476509999999
 40
0.9781523574999999
 40
0.9847092745999999
 40
0.9901037747
 40
0.9943244484
 40
0.9973652311
 40
0.9992295756
 40
0.9997346049
 40
1.0
 40
1.0
 40
1.0
 40
1.0
 10
576.7494753398999
 20
262.9288809366
 30
0.0
 10
576.7489266302999
 20
262.9232445807
 30
0.0
 10
576.7344555858999
 20
262.9110520135
 30
0.0
 10
576.6839731354
 20
262.8926044491
 30
0.0
 10
576.5707940356
 20
262.8699431903
 30
0.0
 10
576.3830349578999
 20
262.8455890044
 30
0.0
 10
576.1203163494
 20
262.8202694588
 30
0.0
 10
575.785315513
 20
262.7950510179
 30
0.0
 10
575.3778573485
 20
262.7698921896
 30
0.0
 10
574.8992424414
 20
262.7450227444
 30
0.0
 10
574.1221159337999
 20
262.7103394857
 30
0.0
 10
572.9825678802
 20
262.6695329666
 30
0.0
 10
571.4213974146999
 20
262.6249607443
 30
0.0
 10
569.6133594095999
 20
262.5830808775
 30
0.0
 10
567.5758205087
 20
262.5443339519
 30
0.0
 10
565.3283597989
 20
262.5091596225
 30
0.0
 10
562.8925803839999
 20
262.4779233939
 30
0.0
 10
560.2919003591
 20
262.4509447332
 30
0.0
 10
556.5681385182
 20
262.4204600805
 30
0.0
 10
551.6992635399
 20
262.3952984236
 30
0.0
 10
545.7322789188999
 20
262.3852886406
 30
0.0
 10
539.7659561115
 20
262.3954135264
 30
0.0
 10
534.8984544590999
 20
262.4206700375999
 30
0.0
 10
531.1764292361
 20
262.4512292744
 30
0.0
 10
528.5775037449
 20
262.4782585001
 30
0.0
 10
526.1437572999999
 20
262.5095418814
 30
0.0
 10
523.8985884030999
 20
262.5447593693
 30
0.0
 10
521.863578036
 20
262.5835450026
 30
0.0
 10
520.0582808138999
 20
262.6254580746
 30
0.0
 10
518.5000370712
 20
262.6700582411
 30
0.0
 10
517.3630316109999
 20
262.7108863035
 30
0.0
 10
516.5880120601
 20
262.7455910491999
 30
0.0
 10
516.1110206906999
 20
262.7704644887
 30
0.0
 10
515.7052131372999
 20
262.7956381431
 30
0.0
 10
515.3718740348999
 20
262.8208290075
 30
0.0
 10
515.1108565098
 20
262.8462160571
 30
0.0
 10
514.9247365296999
 20
262.8703835866
 30
0.0
 10
514.813039828
 20
262.8933114772
 30
0.0
 10
514.7634791361
 20
262.9114666223
 30
0.0
 10
514.7497021929
 20
262.9240043828
 30
0.0
 10
514.7495244578
 20
262.9294902058
 30
0.0
  0
SPLINE
  5
3D7
330
213
100
AcDbEntity
  8
RUNDUNGEN
  6
Continuous
 62
     9
100
AcDbSpline
210
0.0
220
0.0
230
1.0
 70
     8
 71
     3
 72
    10
 73
     6
 74
     0
 42
0.0000000001
 43
0.0000000001
 40
0.0
 40
0.0
 40
0.0
 40
0.0
 40
0.2726976157
 40
0.5216039536000001
 40
1.0
 40
1.0
 40
1.0
 40
1.0
 10
533.4056663137999
 20
362.5242936051
 30
0.0
 10
533.4973095947
 20
362.4144405886
 30
0.0
 10
533.6368174391
 20
362.1714282054
 30
0.0
 10
533.7451541724
 20
361.6522715425
 30
0.0
 10
533.6795623446
 20
361.2616279201999
 30
0.0
 10
533.5975070009999
 20
361.0244493605001
 30
0.0
  0
SPLINE
  5
3D8
330
213
100
AcDbEntity
  8
RUNDUNGEN
  6
Continuous
 62
     9
100
AcDbSpline
210
0.0
220
0.0
230
1.0
 70
     8
 71
     3
 72
    10
 73
     6
 74
     0
 42
0.0000000001
 43
0.0000000001
 40
0.0
 40
0.0
 40
0.0
 40
0.0
 40
0.4783960463000001
 40
0.7273023839000001
 40
1.0
 40
1.0
 40
1.0
 40
1.0
 10
557.9015321073
 20
361.0244493605001
 30
0.0
 10
557.8194768136
 20
361.2616279375
 30
0.0
 10
557.7538849281999
 20
361.6522715374
 30
0.0
 10
557.8622216682999
 20
362.1714282084
 30
0.0
 10
558.0017295171
 20
362.4144405861
 30
0.0
 10
558.0933727955
 20
362.5242936051
 30
0.0
  0
SPLINE
  5
3D9
330
213
100
AcDbEntity
  8
0
  6
Continuous
 62
     9
100
AcDbSpline
210
0.0
220
0.0
230
1.0
 70
     8
 71
     3
 72
    27
 73
    23
 74
     0
 42
0.0000000001
 43
0.0000000001
 40
0.0
 40
0.0
 40
0.0
 40
0.0
 40
0.000514532
 40
0.0015088915
 40
0.0052112762
 40
0.0112714659
 40
0.0196959609
 40
0.0304719193
 40
0.0435769011
 40
0.0589809391
 40
0.0766485312
 40
0.0965373935
 40
0.1186006897
 40
0.169033428
 40
0.2274636553
 40
0.2933303851
 40
0.3660005438
 40
0.4447751686000001
 40
0.5288962563000001
 40
0.6175541799000001
 40
0.8050306277
 40
1.0
 40
1.0
 40
1.0
 40
1.0
 10
505.7495195541
 20
261.9293379364
 30
0.0
 10
505.7495202705999
 20
261.9224727749
 30
0.0
 10
505.7670541668
 20
261.9064255886
 30
0.0
 10
505.8303310188
 20
261.8838885182
 30
0.0
 10
505.9737998277999
 20
261.8547682614
 30
0.0
 10
506.2131354419
 20
261.8245247621
 30
0.0
 10
506.5493363766
 20
261.7924978868
 30
0.0
 10
506.9789760161
 20
261.7608114433001
 30
0.0
 10
507.5022771349999
 20
261.7291082161
 30
0.0
 10
508.1175708223999
 20
261.6977979953
 30
0.0
 10
508.8235379874999
 20
261.6669284822001
 30
0.0
 10
509.6184394256
 20
261.6366251859
 30
0.0
 10
510.8503974997
 20
261.5952299767
 30
0.0
 10
512.5966202132
 20
261.5465540441
 30
0.0
 10
514.9273666963999
 20
261.4937563056
 30
0.0
 10
517.5549600626999
 20
261.4449350019
 30
0.0
 10
520.4541119751
 20
261.4005972092
 30
0.0
 10
523.5969148705001
 20
261.3612197049
 30
0.0
 10
526.9531088067999
 20
261.3272011899
 30
0.0
 10
531.7596794861
 20
261.2887491727
 30
0.0
 10
538.0453327979999
 20
261.2569906582
 30
0.0
 10
543.148133672
 20
261.248590684
 30
0.0
 10
545.7495195541
 20
261.2485903422
 30
0.0
  0
SPLINE
  5
3DA
330
213
100
AcDbEntity
  8
RUNDUNGEN
  6
Continuous
 62
     9
100
AcDbSpline
210
0.0
220
0.0
230
1.0
 70
     8
 71
     3
 72
     8
 73
     4
 74
     0
 42
0.0000000001
 43
0.0000000001
 40
0.0
 40
0.0
 40
0.0
 40
0.0
 40
1.0
 40
1.0
 40
1.0
 40
1.0
 10
559.9471167157999
 20
374.9289136641
 30
0.0
 10
559.3794705623
 20
374.8952671366
 30
0.0
 10
558.8118502862999
 20
374.861182415
 30
0.0
 10
558.2442504866
 20
374.8267627737
 30
0.0
  0
SPLINE
  5
3DB
330
213
100
AcDbEntity
  8
RUNDUNGEN
  6
Continuous
 62
     9
100
AcDbSpline
210
0.0
220
0.0
230
1.0
 70
     8
 71
     3
 72
     8
 73
     4
 74
     0
 42
0.0000000001
 43
0.0000000001
 40
0.0
 40
0.0
 40
0.0
 40
0.0
 40
1.0
 40
1.0
 40
1.0
 40
1.0
 10
559.9461584483999
 20
380.9533391826999
 30
0.0
 10
559.3788267997
 20
380.9197108129
 30
0.0
 10
558.8115208998999
 20
380.8856464065
 30
0.0
 10
558.2442355488999
 20
380.8512458626
 30
0.0
  0
SPLINE
  5
3DC
330
213
100
AcDbEntity
  8
RUNDUNGEN
  6
Continuous
 62
     9
100
AcDbSpline
210
0.0
220
0.0
230
1.0
 70
     8
 71
     3
 72
     8
 73
     4
 74
     0
 42
0.0000000001
 43
0.0000000001
 40
0.0
 40
0.0
 40
0.0
 40
0.0
 40
1.0
 40
1.0
 40
1.0
 40
1.0
 10
558.7539608872
 20
361.7904820816
 30
0.0
 10
559.1574400505
 20
361.7661653387
 30
0.0
 10
559.5609303066001
 20
361.7420316388
 30
0.0
 10
559.9644337307999
 20
361.7181208488
 30
0.0
  0
LINE
  5
3DD
330
213
100
AcDbEntity
  8
0
  6
Continuous
 62
     9
100
AcDbLine
 10
600.7495195541
 20
239.9462158446
 30
0.0
 11
600.7495195541
 21
239.9892028336
 31
0.0
  0
LINE
  5
3DE
330
213
100
AcDbEntity
  8
RUNDUNGEN
  6
Continuous
 62
     9
100
AcDbLine
 10
559.9644337307999
 20
361.7181208488
 30
0.0
 11
559.9677246085999
 21
358.254959293
 31
0.0
  0
SPLINE
  5
3DF
330
213
100
AcDbEntity
  8
RUNDUNGEN
  6
Continuous
 62
     9
100
AcDbSpline
210
0.0
220
0.0
230
1.0
 70
     8
 71
     3
 72
     8
 73
     4
 74
     0
 42
0.0000000001
 43
0.0000000001
 40
0.0
 40
0.0
 40
0.0
 40
0.0
 40
1.0
 40
1.0
 40
1.0
 40
1.0
 10
533.2547886216
 20
374.8267629964
 30
0.0
 10
532.6871888195999
 20
374.8611826385
 30
0.0
 10
532.1195685482
 20
374.8952674771
 30
0.0
 10
531.5519223925
 20
374.9289140056
 30
0.0
  0
SPLINE
  5
3E0
330
213
100
AcDbEntity
  8
RUNDUNGEN
  6
Continuous
 62
     9
100
AcDbSpline
210
0.0
220
0.0
230
1.0
 70
     8
 71
     3
 72
     8
 73
     4
 74
     0
 42
0.0000000001
 43
0.0000000001
 40
0.0
 40
0.0
 40
0.0
 40
0.0
 40
1.0
 40
1.0
 40
1.0
 40
1.0
 10
533.2548031116999
 20
380.8512458896
 30
0.0
 10
532.6875179098999
 20
380.8856464242
 30
0.0
 10
532.1202121593
 20
380.919710822
 30
0.0
 10
531.5528806598
 20
380.9533391826999
 30
0.0
  0
SPLINE
  5
3E1
330
213
100
AcDbEntity
  8
RUNDUNGEN
  6
Continuous
 62
     9
100
AcDbSpline
210
0.0
220
0.0
230
1.0
 70
     8
 71
     3
 72
     8
 73
     4
 74
     0
 42
0.0000000001
 43
0.0000000001
 40
0.0
 40
0.0
 40
0.0
 40
0.0
 40
1.0
 40
1.0
 40
1.0
 40
1.0
 10
531.5346053774
 20
361.7181208488
 30
0.0
 10
531.9381088023999
 20
361.7420316388
 30
0.0
 10
532.341599059
 20
361.7661653447
 30
0.0
 10
532.7450782230999
 20
361.7904820876
 30
0.0
  0
LINE
  5
3E2
330
213
100
AcDbEntity
  8
RUNDUNGEN
  6
Continuous
 62
     9
100
AcDbLine
 10
531.5313144995999
 20
358.2549592926
 30
0.0
 11
531.5346053774
 21
361.7181208488
 31
0.0
  0
LINE
  5
3E5
330
213
100
AcDbEntity
  8
RUNDUNGEN
  6
Continuous
 62
     9
100
AcDbLine
 10
528.3471135241
 20
301.8407997731
 30
0.0
 11
530.7249849109999
 21
282.5625625098
 31
0.0
  0
SPLINE
  5
3E6
330
213
100
AcDbEntity
  8
RUNDUNGEN
  6
Continuous
 62
     9
100
AcDbSpline
210
0.0
220
0.0
230
1.0
 70
     8
 71
     3
 72
    11
 73
     7
 74
     0
 42
0.0000000001
 43
0.0000000001
 40
0.0
 40
0.0
 40
0.0
 40
0.0
 40
0.2607419735
 40
0.5160990930000001
 40
0.7621675506000001
 40
1.0
 40
1.0
 40
1.0
 40
1.0
 10
617.042837175
 20
303.6508931946
 30
0.0
 10
616.917386556
 20
303.6491473072
 30
0.0
 10
616.6675686070999
 20
303.6030155762
 30
0.0
 10
616.3443595003
 20
303.4143362836
 30
0.0
 10
616.1164073103
 20
303.1302119821
 30
0.0
 10
616.0516662468999
 20
302.8983496525
 30
0.0
 10
616.0448159783999
 20
302.7841156079
 30
0.0
  0
LINE
  5
3E7
330
213
100
AcDbEntity
  8
RUNDUNGEN
  6
Continuous
 62
     9
100
AcDbLine
 10
560.7740566664
 20
282.5625625098
 30
0.0
 11
563.1519255841999
 21
301.8407997731
 31
0.0
  0
SPLINE
  5
3E8
330
213
100
AcDbEntity
  8
RUNDUNGEN
  6
Continuous
 62
     9
100
AcDbSpline
210
0.0
220
0.0
230
1.0
 70
     8
 71
     3
 72
    10
 73
     6
 74
     0
 42
0.0000000001
 43
0.0000000001
 40
0.0
 40
0.0
 40
0.0
 40
0.0
 40
0.5282055158
 40
0.7703853183
 40
1.0
 40
1.0
 40
1.0
 40
1.0
 10
616.6135771873999
 20
300.7935825051
 30
0.0
 10
616.4330147852999
 20
300.8173682845
 30
0.0
 10
616.1513758612
 20
300.79073385
 30
0.0
 10
615.8533448456999
 20
300.6076680409
 30
0.0
 10
615.7491224542
 20
300.4772137704
 30
0.0
 10
615.7122335334999
 20
300.4071632477
 30
0.0
  0
SPLINE
  5
3E9
330
213
100
AcDbEntity
  8
RUNDUNGEN
  6
Continuous
 62
     9
100
AcDbSpline
210
0.0
220
0.0
230
1.0
 70
     8
 71
     3
 72
    11
 73
     7
 74
     0
 42
0.0000000001
 43
0.0000000001
 40
0.0
 40
0.0
 40
0.0
 40
0.0
 40
0.2824432989
 40
0.543876284
 40
0.7811758151000001
 40
1.0
 40
1.0
 40
1.0
 40
1.0
 10
615.7492471318
 20
298.585874972
 30
0.0
 10
615.6550743958
 20
298.602779764
 30
0.0
 10
615.4692743089
 20
298.6156034268
 30
0.0
 10
615.2059030255998
 20
298.566770817
 30
0.0
 10
614.9868922009999
 20
298.4514743286
 30
0.0
 10
614.8830777939999
 20
298.3304825423
 30
0.0
 10
614.847898778
 20
298.2652350175
 30
0.0
  0
SPLINE
  5
3EA
330
213
100
AcDbEntity
  8
RUNDUNGEN
  6
Continuous
 62
     9
100
AcDbSpline
210
0.0
220
0.0
230
1.0
 70
     8
 71
     3
 72
    14
 73
    10
 74
     0
 42
0.0000000001
 43
0.0000000001
 40
0.0
 40
0.0
 40
0.0
 40
0.0
 40
0.3582179738
 40
0.5271123842000001
 40
0.6790603658
 40
0.8073195901000001
 40
0.9062051258
 40
0.9713533413
 40
1.0
 40
1.0
 40
1.0
 40
1.0
 10
603.1801346028999
 20
269.6501685166
 30
0.0
 10
603.0539581869999
 20
269.7099254877
 30
0.0
 10
602.8686849862999
 20
269.7987217165001
 30
0.0
 10
602.6309669008
 20
269.9149869606
 30
0.0
 10
602.4740127902999
 20
269.9926288862
 30
0.0
 10
602.3425907166999
 20
270.0596820808
 30
0.0
 10
602.2403838335
 20
270.1111746496
 30
0.0
 10
602.1766198682
 20
270.1490825632
 30
0.0
 10
602.1425086061
 20
270.1653945211
 30
0.0
 10
602.1352142901
 20
270.1738469754
 30
0.0
  0
SPLINE
  5
3EB
330
213
100
AcDbEntity
  8
RUNDUNGEN
  6
Continuous
 62
     9
100
AcDbSpline
210
0.0
220
0.0
230
1.0
 70
     8
 71
     3
 72
    11
 73
     7
 74
     0
 42
0.0000000001
 43
0.0000000001
 40
0.0
 40
0.0
 40
0.0
 40
0.0
 40
0.2534217139
 40
0.5049922451
 40
0.7532306378
 40
1.0
 40
1.0
 40
1.0
 40
1.0
 10
530.7992412458998
 20
358.2582135787
 30
0.0
 10
530.7990542533999
 20
358.0330365395
 30
0.0
 10
530.8508143323999
 20
357.5814331311
 30
0.0
 10
531.1360776727999
 20
356.9582750036
 30
0.0
 10
531.6641032154
 20
356.5144452166001
 30
0.0
 10
532.1132638507
 20
356.4235851828
 30
0.0
 10
532.3325300397
 20
356.4235741823001
 30
0.0
  0
SPLINE
  5
3EC
330
213
100
AcDbEntity
  8
RUNDUNGEN
  6
Continuous
 62
     9
100
AcDbSpline
210
0.0
220
0.0
230
1.0
 70
     8
 71
     3
 72
    11
 73
     7
 74
     0
 42
0.0000000001
 43
0.0000000001
 40
0.0
 40
0.0
 40
0.0
 40
0.0
 40
0.2467698172
 40
0.4950080574000001
 40
0.7465784363
 40
1.0
 40
1.0
 40
1.0
 40
1.0
 10
559.1665090694999
 20
356.4235741823001
 30
0.0
 10
559.3857756678
 20
356.423585051
 30
0.0
 10
559.8349366956999
 20
356.5144452901999
 30
0.0
 10
560.3629618783998
 20
356.9582757117
 30
0.0
 10
560.6482246859999
 20
357.5814335279
 30
0.0
 10
560.6999850314999
 20
358.0330366678
 30
0.0
 10
560.6997978624
 20
358.2582135784
 30
0.0
  0
SPLINE
  5
3ED
330
213
100
AcDbEntity
  8
RUNDUNGEN
  6
Continuous
 62
     9
100
AcDbSpline
210
0.0
220
0.0
230
1.0
 70
     8
 71
     3
 72
    14
 73
    10
 74
     0
 42
0.0000000001
 43
0.0000000001
 40
0.0
 40
0.0
 40
0.0
 40
0.0
 40
0.3561355285
 40
0.5245502004000001
 40
0.6763889064000001
 40
0.8048886587
 40
0.9043317459
 40
0.9703109923999999
 40
1.0
 40
1.0
 40
1.0
 40
1.0
 10
602.8513507809999
 20
269.1464759166
 30
0.0
 10
602.7486244942999
 20
269.2414678638
 30
0.0
 10
602.5966690748
 20
269.3806939111
 30
0.0
 10
602.3993824783
 20
269.558684327
 30
0.0
 10
602.2678960329
 20
269.676213743
 30
0.0
 10
602.1556601931999
 20
269.7742940695
 30
0.0
 10
602.0685971803
 20
269.8507394697
 30
0.0
 10
602.0086516673999
 20
269.8974130834
 30
0.0
 10
601.9799365799999
 20
269.9230839703
 30
0.0
 10
601.9691037554
 20
269.9274079373
 30
0.0
  0
SPLINE
  5
3EE
330
213
100
AcDbEntity
  8
RUNDUNGEN
  6
Continuous
 62
     9
100
AcDbSpline
210
0.0
220
0.0
230
1.0
 70
     8
 71
     3
 72
    13
 73
     9
 74
     0
 42
0.0000000001
 43
0.0000000001
 40
0.0
 40
0.0
 40
0.0
 40
0.0
 40
0.354096928
 40
0.6684644170000001
 40
0.794566078
 40
0.8931639266999999
 40
0.9612753568
 40
1.0
 40
1.0
 40
1.0
 40
1.0
 10
601.5027059148
 20
268.4858169797
 30
0.0
 10
601.4971423027
 20
268.6213240513
 30
0.0
 10
601.4787003819999
 20
268.8767452637
 30
0.0
 10
601.43791547
 20
269.1789941221
 30
0.0
 10
601.3950748582
 20
269.3805956819
 30
0.0
 10
601.3630270926999
 20
269.4892318486
 30
0.0
 10
601.3331614976999
 20
269.5600037961
 30
0.0
 10
601.305120106
 20
269.5954794577
 30
0.0
 10
601.2908343466
 20
269.5994667461
 30
0.0
  0
SPLINE
  5
3EF
330
213
100
AcDbEntity
  8
RUNDUNGEN
  6
Continuous
 62
     9
100
AcDbSpline
210
0.0
220
0.0
230
1.0
 70
     8
 71
     3
 72
     9
 73
     5
 74
     0
 42
0.0000000001
 43
0.0000000001
 40
0.0
 40
0.0
 40
0.0
 40
0.0
 40
0.2574172974
 40
1.0
 40
1.0
 40
1.0
 40
1.0
 10
528.2700196770999
 20
303.1226553561
 30
0.0
 10
528.2701134143
 20
303.0124280024001
 30
0.0
 10
528.2767551719
 20
302.5842788376
 30
0.0
 10
528.3074121601
 20
302.1562892478
 30
0.0
 10
528.3471135241
 20
301.8407997731
 30
0.0
  0
SPLINE
  5
3F0
330
213
100
AcDbEntity
  8
RUNDUNGEN
  6
Continuous
 62
     9
100
AcDbSpline
210
0.0
220
0.0
230
1.0
 70
     8
 71
     3
 72
    12
 73
     8
 74
     0
 42
0.0000000001
 43
0.0000000001
 40
0.0
 40
0.0
 40
0.0
 40
0.0
 40
0.3517141139
 40
0.6629247194
 40
0.8865812
 40
0.9565443568999999
 40
1.0
 40
1.0
 40
1.0
 40
1.0
 10
594.2691788983999
 20
268.0603099802
 30
0.0
 10
594.2654337328999
 20
268.1939194092
 30
0.0
 10
594.2424359681999
 20
268.4455419271
 30
0.0
 10
594.1898661679999
 20
268.777501669
 30
0.0
 10
594.1285498367
 20
269.0022150446
 30
0.0
 10
594.0696976255
 20
269.1149183808
 30
0.0
 10
594.0352846678999
 20
269.1466169092
 30
0.0
 10
594.0191526241999
 20
269.1501501988
 30
0.0
  0
SPLINE
  5
3F1
330
213
100
AcDbEntity
  8
RUNDUNGEN
  6
Continuous
 62
     9
100
AcDbSpline
210
0.0
220
0.0
230
1.0
 70
     8
 71
     3
 72
    14
 73
    10
 74
     0
 42
0.0000000001
 43
0.0000000001
 40
0.0
 40
0.0
 40
0.0
 40
0.0
 40
0.3531589744
 40
0.5208650118
 40
0.6723589467000001
 40
0.8008013881
 40
0.9004924362
 40
0.9673061818
 40
1.0
 40
1.0
 40
1.0
 40
1.0
 10
594.2691788983999
 20
268.0603099802
 30
0.0
 10
594.1271938401
 20
268.0566741433
 30
0.0
 10
593.9175658038999
 20
268.0599500749
 30
0.0
 10
593.6474291793
 20
268.0694978815
 30
0.0
 10
593.4674728929
 20
268.0804526942
 30
0.0
 10
593.3160802994
 20
268.09444999
 30
0.0
 10
593.1967476226999
 20
268.1101280566
 30
0.0
 10
593.1218642818
 20
268.1275499086
 30
0.0
 10
593.0795414608999
 20
268.1416079402
 30
0.0
 10
593.0727873216999
 20
268.1528892511
 30
0.0
  0
SPLINE
  5
3F2
330
213
100
AcDbEntity
  8
RUNDUNGEN
  6
Continuous
 62
     9
100
AcDbSpline
210
0.0
220
0.0
230
1.0
 70
     8
 71
     3
 72
     9
 73
     5
 74
     0
 42
0.0000000001
 43
0.0000000001
 40
0.0
 40
0.0
 40
0.0
 40
0.0
 40
0.2398741485
 40
1.0
 40
1.0
 40
1.0
 40
1.0
 10
563.1519255841999
 20
301.8407997731
 30
0.0
 10
563.1647504054
 20
301.9427130502
 30
0.0
 10
563.2105454170999
 20
302.3685206489
 30
0.0
 10
563.2287426303999
 20
302.7971602733
 30
0.0
 10
563.2290194311
 20
303.1226553561
 30
0.0
  0
SPLINE
  5
3F3
330
213
100
AcDbEntity
  8
RUNDUNGEN
  6
Continuous
 62
     9
100
AcDbSpline
210
0.0
220
0.0
230
1.0
 70
     8
 71
     3
 72
    13
 73
     9
 74
     0
 42
0.0000000001
 43
0.0000000001
 40
0.0
 40
0.0
 40
0.0
 40
0.0
 40
0.3439786869
 40
0.6586141923
 40
0.7867885741
 40
0.8878418670999998
 40
0.9584325719999998
 40
1.0
 40
1.0
 40
1.0
 40
1.0
 10
594.2655940406999
 20
263.1558876642
 30
0.0
 10
594.1209847635999
 20
263.1511094806
 30
0.0
 10
593.8437630652999
 20
263.1532270173
 30
0.0
 10
593.513152295
 20
263.180421806
 30
0.0
 10
593.2878480666
 20
263.2185936913
 30
0.0
 10
593.1647966379999
 20
263.2508366547
 30
0.0
 10
593.0829437538
 20
263.2832465034
 30
0.0
 10
593.0427679219999
 20
263.3162548617
 30
0.0
 10
593.0379619493
 20
263.3330659439
 30
0.0
  0
SPLINE
  5
3F4
330
213
100
AcDbEntity
  8
RUNDUNGEN
  6
Continuous
 62
     9
100
AcDbSpline
210
0.0
220
0.0
230
1.0
 70
     8
 71
     3
 72
    12
 73
     8
 74
     0
 42
0.0000000001
 43
0.0000000001
 40
0.0
 40
0.0
 40
0.0
 40
0.0
 40
0.3447509035
 40
0.6559444239
 40
0.7821314039000001
 40
0.882104125
 40
1.0
 40
1.0
 40
1.0
 40
1.0
 10
592.2943319758998
 20
261.1426342196
 30
0.0
 10
592.3008533062999
 20
261.2867078276
 30
0.0
 10
592.2974069616999
 20
261.5621335635
 30
0.0
 10
592.2597539406999
 20
261.8864267138
 30
0.0
 10
592.2031906252999
 20
262.1075410925
 30
0.0
 10
592.1544843038
 20
262.2357137693
 30
0.0
 10
592.0910296248999
 20
262.3291551455
 30
0.0
 10
592.04181613
 20
262.3323929119
 30
0.0
  0
SPLINE
  5
3F5
330
213
100
AcDbEntity
  8
RUNDUNGEN
  6
Continuous
 62
     9
100
AcDbSpline
210
0.0
220
0.0
230
1.0
 70
     8
 71
     3
 72
     9
 73
     5
 74
     0
 42
0.0000000001
 43
0.0000000001
 40
0.0
 40
0.0
 40
0.0
 40
0.0
 40
0.4984081505
 40
1.0
 40
1.0
 40
1.0
 40
1.0
 10
601.5027058549
 20
268.4858170233
 30
0.0
 10
601.7566877898
 20
268.5006706055
 30
0.0
 10
602.2653022045
 20
268.6346629233
 30
0.0
 10
602.6814038413999
 20
268.9549728852
 30
0.0
 10
602.8513550137001
 20
269.1464764515
 30
0.0
  0
SPLINE
  5
3F6
330
213
100
AcDbEntity
  8
0
  6
Continuous
 62
     9
100
AcDbSpline
210
0.0
220
0.0
230
1.0
 70
     8
 71
     3
 72
    45
 73
    41
 74
     0
 42
0.0000000001
 43
0.0000000001
 40
0.0
 40
0.0
 40
0.0
 40
0.0
 40
0.0002794552
 40
0.0008001295
 40
0.0026950525
 40
0.0057658429
 40
0.0100162381
 40
0.0154402727
 40
0.0220265383
 40
0.0297604045
 40
0.0386237852
 40
0.0596528348
 40
0.0849137712
 40
0.1141649761
 40
0.1471259909
 40
0.183480408
 40
0.2228790085
 40
0.2649431499
 40
0.3092684221
 40
0.4029795143000001
 40
0.5004152321000001
 40
0.5978347434000001
 40
0.6914978404000001
 40
0.7357877266
 40
0.7778093215000001
 40
0.8171586258999999
 40
0.8534574730999999
 40
0.8863571820999998
 40
0.9155419403999999
 40
0.9407319346999999
 40
0.9616862350999999
 40
0.9705110470000001
 40
0.9782056652999999
 40
0.9847521296
 40
0.9901359037
 40
0.9943457317
 40
0.997375873
 40
0.9992307043
 40
0.9997327252999999
 40
1.0
 40
1.0
 40
1.0
 40
1.0
 10
575.7494767662
 20
263.9287286318
 30
0.0
 10
575.7489537182
 20
263.9231598195
 30
0.0
 10
575.7351240211
 20
263.910969251
 30
0.0
 10
575.6860831033999
 20
263.8924424148
 30
0.0
 10
575.5766128453
 20
263.8698063011
 30
0.0
 10
575.3947420064999
 20
263.8454181103
 30
0.0
 10
575.1404307311999
 20
263.8201027933
 30
0.0
 10
574.8161060386999
 20
263.7948755855
 30
0.0
 10
574.4216568171999
 20
263.7697138273
 30
0.0
 10
573.9583186726
 20
263.7448398068
 30
0.0
 10
573.2060101134999
 20
263.7101517246
 30
0.0
 10
572.1028504705
 20
263.6693394177
 30
0.0
 10
570.5915338291999
 20
263.6247618167
 30
0.0
 10
568.8412446694999
 20
263.5828779646
 30
0.0
 10
566.868800079
 20
263.5441286993
 30
0.0
 10
564.6931592649999
 20
263.508953804
 30
0.0
 10
562.3352418637
 20
263.4777189286
 30
0.0
 10
559.8177251138999
 20
263.4507436452
 30
0.0
 10
556.2131230576
 20
263.4202667177
 30
0.0
 10
551.5001815193
 20
263.3951198074
 30
0.0
 10
545.7244968291
 20
263.3851352102
 30
0.0
 10
539.9497730672
 20
263.3952924653
 30
0.0
 10
535.2388255513
 20
263.420581658
 30
0.0
 10
531.6367449798999
 20
263.4511704608
 30
0.0
 10
529.121775676
 20
263.4782215877
 30
0.0
 10
526.7668099384
 20
263.5095271848
 30
0.0
 10
524.5944965316
 20
263.5447668117
 30
0.0
 10
522.6257230009999
 20
263.5835741183
 30
0.0
 10
520.8794129614
 20
263.6255077877
 30
0.0
 10
519.3723454698999
 20
263.6701272126
 30
0.0
 10
518.2728769751999
 20
263.7109719786
 30
0.0
 10
517.5236272764
 20
263.7456920534
 30
0.0
 10
517.0626456071
 20
263.7705725582
 30
0.0
 10
516.6705943181999
 20
263.7957549052
 30
0.0
 10
516.3486775812999
 20
263.8209456556
 30
0.0
 10
516.0968447079
 20
263.8463496917
 30
0.0
 10
515.9173290538999
 20
263.8704860800999
 30
0.0
 10
515.8100481732
 20
263.8934727356
 30
0.0
 10
515.7623007869999
 20
263.9116190511
 30
0.0
 10
515.749519887
 20
263.924293002
 30
0.0
 10
515.7495195541001
 20
263.9296425305
 30
0.0
  0
LINE
  5
3F8
330
213
100
AcDbEntity
  8
RUNDUNGEN
  6
Continuous
 62
     9
100
AcDbLine
 10
530.9603976395
 20
281.9944440722
 30
0.0
 11
532.2147225623999
 21
281.7404881913
 31
0.0
  0
SPLINE
  5
3F9
330
213
100
AcDbEntity
  8
RUNDUNGEN
  6
Continuous
 62
     9
100
AcDbSpline
210
0.0
220
0.0
230
1.0
 70
     8
 71
     3
 72
    12
 73
     8
 74
     0
 42
0.0000000001
 43
0.0000000001
 40
0.0
 40
0.0
 40
0.0
 40
0.0
 40
0.0567449605
 40
0.140379884
 40
0.3770454027
 40
0.6784406833
 40
1.0
 40
1.0
 40
1.0
 40
1.0
 10
532.2147225623999
 20
281.7404881913
 30
0.0
 10
532.2597972772
 20
281.7313555483
 30
0.0
 10
532.3727421207999
 20
281.7163874268
 30
0.0
 10
532.6769376438
 20
281.6877449932
 30
0.0
 10
533.1802704605
 20
281.6603391103
 30
0.0
 10
533.8766066416999
 20
281.6381860109999
 30
0.0
 10
534.3815299684999
 20
281.6326187551
 30
0.0
 10
534.6421470358999
 20
281.6326118917
 30
0.0
  0
SPLINE
  5
3FA
330
213
100
AcDbEntity
  8
RUNDUNGEN
  6
Continuous
 62
     9
100
AcDbSpline
210
0.0
220
0.0
230
1.0
 70
     8
 71
     3
 72
    12
 73
     8
 74
     0
 42
0.0000000001
 43
0.0000000001
 40
0.0
 40
0.0
 40
0.0
 40
0.0
 40
0.321559317
 40
0.6229545975999999
 40
0.8596201172
 40
0.9432550371999999
 40
1.0
 40
1.0
 40
1.0
 40
1.0
 10
556.8568920724
 20
281.6326118917
 30
0.0
 10
557.1175091398999
 20
281.6326187446
 30
0.0
 10
557.6224324665999
 20
281.6381860167
 30
0.0
 10
558.3187686500999
 20
281.6603391046
 30
0.0
 10
558.8221014618
 20
281.6877450033
 30
0.0
 10
559.1262969887
 20
281.7163874162
 30
0.0
 10
559.239241826
 20
281.7313555636
 30
0.0
 10
559.2843165458
 20
281.7404881913
 30
0.0
  0
LINE
  5
3FB
330
213
100
AcDbEntity
  8
RUNDUNGEN
  6
Continuous
 62
     9
100
AcDbLine
 10
559.2843165458
 20
281.7404881913
 30
0.0
 11
560.5386414687
 21
281.9944440722
 31
0.0
  0
SPLINE
  5
3FC
330
213
100
AcDbEntity
  8
RUNDUNGEN
  6
Continuous
 62
     9
100
AcDbSpline
210
0.0
220
0.0
230
1.0
 70
     8
 71
     3
 72
    10
 73
     6
 74
     0
 42
0.0000000001
 43
0.0000000001
 40
0.0
 40
0.0
 40
0.0
 40
0.0
 40
0.5419032013000001
 40
0.7880123541
 40
1.0
 40
1.0
 40
1.0
 40
1.0
 10
602.1352142901
 20
270.1738469754
 30
0.0
 10
604.5393136701999
 20
275.1985877949
 30
0.0
 10
607.9814654898999
 20
282.5317638094
 30
0.0
 10
612.1691371201999
 20
291.9193460965
 30
0.0
 10
614.0194734785
 20
296.2498207771
 30
0.0
 10
614.8478987657999
 20
298.2652350233
 30
0.0
  0
SPLINE
  5
3FD
330
213
100
AcDbEntity
  8
RUNDUNGEN
  6
Continuous
 62
     9
100
AcDbSpline
210
0.0
220
0.0
230
1.0
 70
     8
 71
     3
 72
     9
 73
     5
 74
     0
 42
0.0000000001
 43
0.0000000001
 40
0.0
 40
0.0
 40
0.0
 40
0.0
 40
0.5449910491
 40
1.0
 40
1.0
 40
1.0
 40
1.0
 10
615.7122288648
 20
300.4071654747
 30
0.0
 10
615.8687447564
 20
300.8171621537
 30
0.0
 10
616.0662055545
 20
301.607587945
 30
0.0
 10
616.0788689598
 20
302.419303973
 30
0.0
 10
616.0448159783999
 20
302.7841156079
 30
0.0
  0
SPLINE
  5
3FE
330
213
100
AcDbEntity
  8
RUNDUNGEN
  6
Continuous
 62
     9
100
AcDbSpline
210
0.0
220
0.0
230
1.0
 70
     8
 71
     3
 72
    15
 73
    11
 74
     0
 42
0.0000000001
 43
0.0000000001
 40
0.0
 40
0.0
 40
0.0
 40
0.0
 40
0.4185091329
 40
0.5854436958
 40
0.7236610076000001
 40
0.833034699
 40
0.9138585654000001
 40
0.9439577788999999
 40
0.9676701631
 40
1.0
 40
1.0
 40
1.0
 40
1.0
 10
616.0448159783999
 20
302.7841156079
 30
0.0
 10
616.0105025776
 20
303.2453072051
 30
0.0
 10
615.9547970024
 20
303.8901005875
 30
0.0
 10
615.8538223293
 20
304.6834692543
 30
0.0
 10
615.7798850827999
 20
305.1356818812
 30
0.0
 10
615.7016277825
 20
305.4903045094
 30
0.0
 10
615.6300058019999
 20
305.7234010002
 30
0.0
 10
615.5650852563
 20
305.8584535073
 30
0.0
 10
615.5141272644
 20
305.9370911913
 30
0.0
 10
615.4577956992
 20
305.9799238823
 30
0.0
 10
615.4220871535
 20
305.9810253734
 30
0.0
  0
SPLINE
  5
400
330
213
100
AcDbEntity
  8
RUNDUNGEN
  6
Continuous
 62
     9
100
AcDbSpline
210
0.0
220
0.0
230
1.0
 70
     8
 71
     3
 72
    11
 73
     7
 74
     0
 42
0.0000000001
 43
0.0000000001
 40
0.0
 40
0.0
 40
0.0
 40
0.0
 40
0.2465397842
 40
0.4976335861
 40
0.7498999517
 40
1.0
 40
1.0
 40
1.0
 40
1.0
 10
592.2943326156
 20
261.1426337384
 30
0.0
 10
592.5501392207999
 20
261.140881712
 30
0.0
 10
593.0731582856
 20
261.2435725251
 30
0.0
 10
593.7317478738999
 20
261.696006214
 30
0.0
 10
594.1656072051999
 20
262.3698785808
 30
0.0
 10
594.2653206495999
 20
262.8963811148
 30
0.0
 10
594.2655939323
 20
263.1558877481
 30
0.0
  0
SPLINE
  5
401
330
213
100
AcDbEntity
  8
RUNDUNGEN
  6
Continuous
 62
     9
100
AcDbSpline
210
0.0
220
0.0
230
1.0
 70
     8
 71
     3
 72
     9
 73
     5
 74
     0
 42
0.0000000001
 43
0.0000000001
 40
0.0
 40
0.0
 40
0.0
 40
0.0
 40
0.5011145371
 40
1.0
 40
1.0
 40
1.0
 40
1.0
 10
533.3428815347
 20
363.2903380482
 30
0.0
 10
533.1381794627
 20
363.4593752646
 30
0.0
 10
532.6623773128
 20
363.7209055885
 30
0.0
 10
532.1288610694999
 20
363.8067383977
 30
0.0
 10
531.8645678208
 20
363.8067276532
 30
0.0
  0
SPLINE
  5
402
330
213
100
AcDbEntity
  8
RUNDUNGEN
  6
Continuous
 62
     9
100
AcDbSpline
210
0.0
220
0.0
230
1.0
 70
     8
 71
     3
 72
     9
 73
     5
 74
     0
 42
0.0000000001
 43
0.0000000001
 40
0.0
 40
0.0
 40
0.0
 40
0.0
 40
0.5011140272
 40
1.0
 40
1.0
 40
1.0
 40
1.0
 10
558.1561780512
 20
363.2903380482
 30
0.0
 10
558.3608773757999
 20
363.4593734608
 30
0.0
 10
558.8366682821999
 20
363.7209117883001
 30
0.0
 10
559.3701807523
 20
363.8067388595
 30
0.0
 10
559.6344712873999
 20
363.8067276532
 30
0.0
  0
SPLINE
  5
403
330
213
100
AcDbEntity
  8
RUNDUNGEN
  6
Continuous
 62
     9
100
AcDbSpline
210
0.0
220
0.0
230
1.0
 70
     8
 71
     3
 72
     9
 73
     5
 74
     0
 42
0.0000000001
 43
0.0000000001
 40
0.0
 40
0.0
 40
0.0
 40
0.0
 40
0.2487831979
 40
1.0
 40
1.0
 40
1.0
 40
1.0
 10
594.2655939323
 20
263.1558877481
 30
0.0
 10
594.2660219705999
 20
263.5626002507
 30
0.0
 10
594.2675839369
 20
265.197407373
 30
0.0
 10
594.2686219865
 20
266.8322149725
 30
0.0
 10
594.2691788983999
 20
268.0603099802
 30
0.0
  0
SPLINE
  5
404
330
213
100
AcDbEntity
  8
RUNDUNGEN
  6
Continuous
 62
     9
100
AcDbSpline
210
0.0
220
0.0
230
1.0
 70
     8
 71
     3
 72
    11
 73
     7
 74
     0
 42
0.0000000001
 43
0.0000000001
 40
0.0
 40
0.0
 40
0.0
 40
0.0
 40
0.2482768718
 40
0.4976944848
 40
0.7484049626
 40
1.0
 40
1.0
 40
1.0
 40
1.0
 10
559.6344712988
 20
372.841333127
 30
0.0
 10
559.3644016698
 20
372.8413237149
 30
0.0
 10
558.8184382182999
 20
372.9315094077
 30
0.0
 10
558.0936480177999
 20
373.3399761873
 30
0.0
 10
557.5718560062999
 20
373.9991755051999
 30
0.0
 10
557.4429906795
 20
374.553084855
 30
0.0
 10
557.4430218761
 20
374.8267639033
 30
0.0
  0
SPLINE
  5
405
330
213
100
AcDbEntity
  8
RUNDUNGEN
  6
Continuous
 62
     9
100
AcDbSpline
210
0.0
220
0.0
230
1.0
 70
     8
 71
     3
 72
    11
 73
     7
 74
     0
 42
0.0000000001
 43
0.0000000001
 40
0.0
 40
0.0
 40
0.0
 40
0.0
 40
0.2515950374
 40
0.5023055152
 40
0.7517231282
 40
1.0
 40
1.0
 40
1.0
 40
1.0
 10
534.0560172321
 20
374.8267639013
 30
0.0
 10
534.0560484382
 20
374.5530848533
 30
0.0
 10
533.9271830983
 20
373.9991755042
 30
0.0
 10
533.4053910928999
 20
373.3399761855
 30
0.0
 10
532.6806008916999
 20
372.9315094108
 30
0.0
 10
532.134637441
 20
372.8413237072
 30
0.0
 10
531.8645678123
 20
372.841333127
 30
0.0
  0
SPLINE
  5
406
330
213
100
AcDbEntity
  8
RUNDUNGEN
  6
Continuous
 62
     9
100
AcDbSpline
210
0.0
220
0.0
230
1.0
 70
     8
 71
     3
 72
     9
 73
     5
 74
     0
 42
0.0000000001
 43
0.0000000001
 40
0.0
 40
0.0
 40
0.0
 40
0.0
 40
0.249366386
 40
1.0
 40
1.0
 40
1.0
 40
1.0
 10
594.2691788983999
 20
268.0603099802
 30
0.0
 10
594.8704373144001
 20
268.0958104681
 30
0.0
 10
597.2815847854
 20
268.2381243933
 30
0.0
 10
599.6927583083
 20
268.3799990822
 30
0.0
 10
601.5027058549
 20
268.4858170233
 30
0.0
  0
SPLINE
  5
407
330
213
100
AcDbEntity
  8
RUNDUNGEN
  6
Continuous
 62
     9
100
AcDbSpline
210
0.0
220
0.0
230
1.0
 70
     8
 71
     3
 72
    10
 73
     6
 74
     0
 42
0.0000000001
 43
0.0000000001
 40
0.0
 40
0.0
 40
0.0
 40
0.0
 40
0.5423777069
 40
0.7884436680000001
 40
1.0
 40
1.0
 40
1.0
 40
1.0
 10
603.1801348839
 20
269.6501683331
 30
0.0
 10
605.5689824463
 20
274.830177855
 30
0.0
 10
609.0021482722
 20
282.3793459759
 30
0.0
 10
613.1376446149999
 20
292.0498187625
 30
0.0
 10
614.9448059861001
 20
296.511155656
 30
0.0
 10
615.7492377023999
 20
298.5856299943
 30
0.0
  0
SPLINE
  5
408
330
213
100
AcDbEntity
  8
RUNDUNGEN
  6
Continuous
 62
     9
100
AcDbSpline
210
0.0
220
0.0
230
1.0
 70
     8
 71
     3
 72
     8
 73
     4
 74
     0
 42
0.0000000001
 43
0.0000000001
 40
0.0
 40
0.0
 40
0.0
 40
0.0
 40
1.0
 40
1.0
 40
1.0
 40
1.0
 10
560.9088171533999
 20
373.9290654125
 30
0.0
 10
560.4200941397
 20
373.9000829889
 30
0.0
 10
559.9313921641001
 20
373.8707450139
 30
0.0
 10
559.4427039982
 20
373.8411808221
 30
0.0
  0
SPLINE
  5
409
330
213
100
AcDbEntity
  8
RUNDUNGEN
  6
Continuous
 62
     9
100
AcDbSpline
210
0.0
220
0.0
230
1.0
 70
     8
 71
     3
 72
     8
 73
     4
 74
     0
 42
0.0000000001
 43
0.0000000001
 40
0.0
 40
0.0
 40
0.0
 40
0.0
 40
1.0
 40
1.0
 40
1.0
 40
1.0
 10
532.0563774244
 20
373.8411808221
 30
0.0
 10
531.5676988826999
 20
373.8707444384
 30
0.0
 10
531.0790066342
 20
373.9000835505
 30
0.0
 10
530.5902932455999
 20
373.9290654125
 30
0.0
  0
SPLINE
  5
40A
330
213
100
AcDbEntity
  8
RUNDUNGEN
  6
Continuous
 62
     9
100
AcDbSpline
210
0.0
220
0.0
230
1.0
 70
     8
 71
     3
 72
     8
 73
     4
 74
     0
 42
0.0000000001
 43
0.0000000001
 40
0.0
 40
0.0
 40
0.0
 40
0.0
 40
1.0
 40
1.0
 40
1.0
 40
1.0
 10
559.4426251619999
 20
362.8068799580999
 30
0.0
 10
559.9370820618999
 20
362.7769667472
 30
0.0
 10
560.4315531444999
 20
362.7472858451
 30
0.0
 10
560.9260457653999
 20
362.7179690596
 30
0.0
  0
SPLINE
  5
40B
330
213
100
AcDbEntity
  8
RUNDUNGEN
  6
Continuous
 62
     9
100
AcDbSpline
210
0.0
220
0.0
230
1.0
 70
     8
 71
     3
 72
     8
 73
     4
 74
     0
 42
0.0000000001
 43
0.0000000001
 40
0.0
 40
0.0
 40
0.0
 40
0.0
 40
1.0
 40
1.0
 40
1.0
 40
1.0
 10
530.5729933428
 20
362.7179690596
 30
0.0
 10
531.0674859701999
 20
362.7472858454
 30
0.0
 10
531.5619570591
 20
362.776966749
 30
0.0
 10
532.0564139655999
 20
362.8068799580999
 30
0.0
  0
SPLINE
  5
40C
330
213
100
AcDbEntity
  8
RUNDUNGEN
  6
Continuous
 62
     9
100
AcDbSpline
210
0.0
220
0.0
230
1.0
 70
     8
 71
     3
 72
     8
 73
     4
 74
     0
 42
0.0000000001
 43
0.0000000001
 40
0.0
 40
0.0
 40
0.0
 40
0.0
 40
1.0
 40
1.0
 40
1.0
 40
1.0
 10
602.8513523638999
 20
269.1464760675
 30
0.0
 10
602.9844323280999
 20
269.2964432313
 30
0.0
 10
603.0961812006999
 20
269.4680908601
 30
0.0
 10
603.1801348839
 20
269.6501683331
 30
0.0
  0
SPLINE
  5
410
330
213
100
AcDbEntity
  8
RUNDUNGEN
  6
Continuous
 62
     9
100
AcDbSpline
210
0.0
220
0.0
230
1.0
 70
     8
 71
     3
 72
    12
 73
     8
 74
     0
 42
0.0000000001
 43
0.0000000001
 40
0.0
 40
0.0
 40
0.0
 40
0.0
 40
0.342341574
 40
0.6516524057000001
 40
0.7775011232
 40
0.8778306333999999
 40
1.0
 40
1.0
 40
1.0
 40
1.0
 10
533.4296796628999
 20
302.1541912771
 30
0.0
 10
533.4219271401999
 20
302.2982753417
 30
0.0
 10
533.4242903895999
 20
302.573965195
 30
0.0
 10
533.4634909912999
 20
302.8990839939
 30
0.0
 10
533.5236052326999
 20
303.1198135962
 30
0.0
 10
533.5762883966
 20
303.2505065508
 30
0.0
 10
533.6457858041
 20
303.3416295581
 30
0.0
 10
533.6971779108
 20
303.3448479676
 30
0.0
  0
SPLINE
  5
411
330
213
100
AcDbEntity
  8
RUNDUNGEN
  6
Continuous
 62
     9
100
AcDbSpline
210
0.0
220
0.0
230
1.0
 70
     8
 71
     3
 72
    14
 73
    10
 74
     0
 42
0.0000000001
 43
0.0000000001
 40
0.0
 40
0.0
 40
0.0
 40
0.0
 40
0.049417192
 40
0.1213600351
 40
0.2209708968
 40
0.3466398064
 40
0.4939040485000001
 40
0.6566945627000001
 40
1.0
 40
1.0
 40
1.0
 40
1.0
 10
532.7270709423
 20
304.3446956637
 30
0.0
 10
532.6856338849999
 20
304.3419113082
 30
0.0
 10
532.5908911194
 20
304.2838307056
 30
0.0
 10
532.4927847172
 20
304.124655072
 30
0.0
 10
532.4011848814
 20
303.8911977616
 30
0.0
 10
532.3254002680999
 20
303.5868540948
 30
0.0
 10
532.2667006881999
 20
303.2250725842
 30
0.0
 10
532.2159183781999
 20
302.6780752228
 30
0.0
 10
532.2133676486999
 20
302.2515328578
 30
0.0
 10
532.2278824244
 20
301.963382286
 30
0.0
  0
SPLINE
  5
412
330
213
100
AcDbEntity
  8
RUNDUNGEN
  6
Continuous
 62
     9
100
AcDbSpline
210
0.0
220
0.0
230
1.0
 70
     8
 71
     3
 72
    12
 73
     8
 74
     0
 42
0.0000000001
 43
0.0000000001
 40
0.0
 40
0.0
 40
0.0
 40
0.0
 40
0.1221693666
 40
0.2224988768
 40
0.3483475943
 40
0.6576584260000001
 40
1.0
 40
1.0
 40
1.0
 40
1.0
 10
557.8018611974999
 20
303.3448479676
 30
0.0
 10
557.8532533040999
 20
303.3416295569
 30
0.0
 10
557.9227507116001
 20
303.2505065512
 30
0.0
 10
557.9754338755
 20
303.119813596
 30
0.0
 10
558.0355481170999
 20
302.899083994
 30
0.0
 10
558.0747487182
 20
302.573965195
 30
0.0
 10
558.077111969
 20
302.2982753416
 30
0.0
 10
558.0693594452999
 20
302.1541912771
 30
0.0
  0
SPLINE
  5
413
330
213
100
AcDbEntity
  8
RUNDUNGEN
  6
Continuous
 62
     9
100
AcDbSpline
210
0.0
220
0.0
230
1.0
 70
     8
 71
     3
 72
    14
 73
    10
 74
     0
 42
0.0000000001
 43
0.0000000001
 40
0.0
 40
0.0
 40
0.0
 40
0.0
 40
0.3433054372
 40
0.5060959512
 40
0.6533601935
 40
0.7790291033
 40
0.8786399648999999
 40
0.9505828075
 40
1.0
 40
1.0
 40
1.0
 40
1.0
 10
559.2711566837
 20
301.9633822798
 30
0.0
 10
559.2856714694
 20
302.2515328517
 30
0.0
 10
559.2831207286
 20
302.678075218
 30
0.0
 10
559.2323384205
 20
303.2250725804
 30
0.0
 10
559.1736388405999
 20
303.5868540923
 30
0.0
 10
559.0978542276999
 20
303.8911977598
 30
0.0
 10
559.0062543915999
 20
304.1246550715
 30
0.0
 10
558.9081479887
 20
304.2838307027
 30
0.0
 10
558.8134052238999
 20
304.3419113099
 30
0.0
 10
558.7719681658999
 20
304.3446956637
 30
0.0
  0
SPLINE
  5
414
330
213
100
AcDbEntity
  8
RUNDUNGEN
  6
Continuous
 62
     9
100
AcDbSpline
210
0.0
220
0.0
230
1.0
 70
     8
 71
     3
 72
     9
 73
     5
 74
     0
 42
0.0000000001
 43
0.0000000001
 40
0.0
 40
0.0
 40
0.0
 40
0.0
 40
0.4953105623
 40
1.0
 40
1.0
 40
1.0
 40
1.0
 10
601.2908343395999
 20
269.5994668803
 30
0.0
 10
601.4172325117
 20
269.6079571408
 30
0.0
 10
601.6713473508
 20
269.6748529838
 30
0.0
 10
601.8820635027
 20
269.8320868748
 30
0.0
 10
601.9691063333
 20
269.927405567
 30
0.0
  0
LEADER
  5
588
330
213
100
AcDbEntity
  8
ZEICHNUNGSBEMASSUNGEN
  6
Continuous
 62
     7
100
AcDbLeader
  3
DIMSTYLE_2
 74
     0
 76
     3
 10
552.7495193920731
 20
398.4462158560143
 30
0.0
 10
568.888106218273
 20
408.0904599396715
 30
0.0
 10
585.9807363209792
 20
408.0577643612299
 30
0.0
213
8.546107528269942
223
6.697880158863256
233
0.0
1001
ACAD
1000
DSTYLE
1002
{
1070
    41
1040
5.0
1070
   147
1040
1.5
1070
   178
1070
   256
1002
}
  0
LINE
  5
589
330
213
100
AcDbEntity
  8
0
100
AcDbLine
 10
588.3385066902564
 20
404.8118625835916
 30
0.0
 11
596.9776699645911
 21
404.8118625835916
 31
0.0
  0
LINE
  5
58A
330
213
100
AcDbEntity
  8
0
100
AcDbLine
 10
589.8337270648357
 20
403.6662356780817
 30
0.0
 11
595.4663608620192
 21
403.6662356780817
 31
0.0
  0
LINE
  5
58B
330
213
100
AcDbEntity
  8
0
100
AcDbLine
 10
591.2445385183499
 20
402.7337882493297
 30
0.0
 11
594.2486070318031
 21
402.7337882493297
 31
0.0
  0
LINE
  5
58C
330
213
100
AcDbEntity
  8
0
100
AcDbLine
 10
592.6107396703748
 20
406.4066682839188
 30
0.0
 11
592.6107396703748
 21
411.8477738838449
 31
0.0
  0
ENDSEC
  0
SECTION
  2
OBJECTS
  0
DICTIONARY
  5
C
330
0
100
AcDbDictionary
281
     1
  3
ACAD_COLOR
350
446
  3
ACAD_GROUP
350
D
  3
ACAD_LAYOUT
350
1A
  3
ACAD_MATERIAL
350
419
  3
ACAD_MLEADERSTYLE
350
45B
  3
ACAD_MLINESTYLE
350
17
  3
ACAD_PLOTSETTINGS
350
19
  3
ACAD_PLOTSTYLENAME
350
E
  3
ACAD_SCALELIST
350
449
  3
ACAD_TABLESTYLE
350
447
  3
ACAD_VISUALSTYLE
350
432
  3
ACDB_RECOMPOSE_DATA
350
5B4
  3
AcDbVariableDictionary
350
5A5
  3
AcmDictionary
350
4B6
  3
AMG
350
460
  3
AMGSNAPSETTINGS
350
4FB
  3
DWGPROPS
350
5B5
  0
DICTIONARY
  5
446
102
{ACAD_REACTORS
330
C
102
}
330
C
100
AcDbDictionary
281
     1
  0
DICTIONARY
  5
D
102
{ACAD_REACTORS
330
C
102
}
330
C
100
AcDbDictionary
281
     1
  0
DICTIONARY
  5
1A
102
{ACAD_REACTORS
330
C
102
}
330
C
100
AcDbDictionary
281
     1
  3
Layout1
350
416
  3
Model
350
415
  0
DICTIONARY
  5
419
102
{ACAD_REACTORS
330
C
102
}
330
C
100
AcDbDictionary
281
     1
  3
ByBlock
350
422
  3
ByLayer
350
41A
  3
Global
350
42A
  0
DICTIONARY
  5
45B
102
{ACAD_REACTORS
330
C
102
}
330
C
100
AcDbDictionary
281
     1
  3
Standard
350
45C
  0
DICTIONARY
  5
17
102
{ACAD_REACTORS
330
C
102
}
330
C
100
AcDbDictionary
281
     1
  3
Standard
350
18
  0
DICTIONARY
  5
19
102
{ACAD_REACTORS
330
C
102
}
330
C
100
AcDbDictionary
281
     1
  0
ACDBDICTIONARYWDFLT
  5
E
102
{ACAD_REACTORS
330
C
102
}
330
C
100
AcDbDictionary
281
     1
  3
Normal
350
F
100
AcDbDictionaryWithDefault
340
F
  0
DICTIONARY
  5
449
102
{ACAD_REACTORS
330
C
102
}
330
C
100
AcDbDictionary
281
     1
  3
A0
350
44A
  3
A1
350
44B
  3
A2
350
44C
  3
A3
350
44D
  3
A4
350
44E
  3
A5
350
44F
  3
A6
350
450
  3
A7
350
451
  3
A8
350
452
  3
A9
350
453
  3
B0
350
454
  3
B1
350
455
  3
B2
350
456
  3
B3
350
457
  3
B4
350
458
  3
B5
350
459
  3
B6
350
45A
  0
DICTIONARY
  5
447
102
{ACAD_REACTORS
330
C
102
}
330
C
100
AcDbDictionary
281
     1
  3
Standard
350
448
  0
DICTIONARY
  5
432
102
{ACAD_REACTORS
330
C
102
}
330
C
100
AcDbDictionary
281
     1
  3
2dWireframe
350
438
  3
3D Hidden
350
43A
  3
3dWireframe
350
439
  3
Basic
350
437
  3
Brighten
350
43E
  3
ColorChange
350
442
  3
Conceptual
350
43B
  3
Dim
350
43D
  3
EdgeColorOff
350
445
  3
Facepattern
350
441
  3
Flat
350
433
  3
FlatWithEdges
350
434
  3
Gouraud
350
435
  3
GouraudWithEdges
350
436
  3
JitterOff
350
443
  3
Linepattern
350
440
  3
OverhangOff
350
444
  3
Realistic
350
43C
  3
Thicken
350
43F
  0
XRECORD
  5
5B4
102
{ACAD_REACTORS
330
C
102
}
330
C
100
AcDbXrecord
280
     1
 90
        1
330
448
  0
DICTIONARY
  5
5A5
102
{ACAD_REACTORS
330
C
102
}
330
C
100
AcDbDictionary
281
     1
  3
CANNOSCALE
350
5A9
  3
CMLEADERSTYLE
350
5A7
  3
CTABLESTYLE
350
5A6
  3
DIMASSOC
350
5B0
  3
HIDETEXT
350
5AF
  3
INDEXCTL
350
5AE
  3
LAYEREVAL
350
5AB
  3
LAYERNOTIFY
350
5AC
  3
LIGHTINGUNITS
350
5AA
  3
MSLTSCALE
350
5A8
  3
SORTENTS
350
5AD
  3
XCLIPFRAME
350
5B1
  0
DICTIONARY
  5
4B6
102
{ACAD_REACTORS
330
C
102
}
330
C
100
AcDbDictionary
281
     1
  3
AcmStdDictionary
350
4C0
  0
DICTIONARY
  5
460
102
{ACAD_REACTORS
330
C
102
}
330
C
100
AcDbDictionary
281
     1
  0
DICTIONARY
  5
4FB
102
{ACAD_REACTORS
330
C
102
}
330
C
100
AcDbDictionary
281
     1
  0
XRECORD
  5
5B5
102
{ACAD_REACTORS
330
C
102
}
330
C
100
AcDbXrecord
280
     1
  1
DWGPROPS COOKIE
  2

  3

  4

  6

  7

  8
sheim
  9

300
=
301
=
302
=
303
=
304
=
305
=
306
=
307
=
308
=
309
=
 40
0.0020970601851852
 41
2456324.650621922
 42
2456324.652718623
  1

 90
        0
  0
LAYOUT
  5
416
102
{ACAD_XDICTIONARY
360
5B8
102
}
102
{ACAD_REACTORS
330
1A
102
}
330
1A
100
AcDbPlotSettings
  1

  2
none_device
  4
ISO_A0_(1189.00_x_841.00_MM)
  6

 40
0.0
 41
0.0
 42
0.0
 43
0.0
 44
1189.0
 45
841.0
 46
0.0
 47
0.0
 48
0.0
 49
0.0
140
0.0
141
0.0
142
1.0
143
1.0
 70
     0
 72
     1
 73
     0
 74
     0
  7

 75
     0
147
1.0
148
0.0
149
0.0
100
AcDbLayout
  1
Layout1
 70
     1
 71
     1
 10
0.0
 20
0.0
 11
12.0
 21
9.0
 12
0.0
 22
0.0
 32
0.0
 14
1.000000000000000E+20
 24
1.000000000000000E+20
 34
1.000000000000000E+20
 15
-1.000000000000000E+20
 25
-1.000000000000000E+20
 35
-1.000000000000000E+20
146
0.0
 13
0.0
 23
0.0
 33
0.0
 16
1.0
 26
0.0
 36
0.0
 17
0.0
 27
1.0
 37
0.0
 76
     0
330
214
  0
LAYOUT
  5
415
102
{ACAD_XDICTIONARY
360
5B6
102
}
102
{ACAD_REACTORS
330
1A
102
}
330
1A
100
AcDbPlotSettings
  1

  2
none_device
  4
ISO_A0_(1189.00_x_841.00_MM)
  6

 40
0.0
 41
0.0
 42
0.0
 43
0.0
 44
1189.0
 45
841.0
 46
0.0
 47
0.0
 48
0.0
 49
0.0
140
0.0
141
0.0
142
1.0
143
1.0
 70
  1024
 72
     1
 73
     0
 74
     0
  7

 75
     0
147
1.0
148
0.0
149
0.0
100
AcDbLayout
  1
Model
 70
     0
 71
     0
 10
0.0
 20
0.0
 11
1189.0
 21
841.0
 12
0.0
 22
0.0
 32
0.0
 14
0.0
 24
0.0
 34
0.0
 15
0.0
 25
0.0
 35
0.0
146
0.0
 13
0.0
 23
0.0
 33
0.0
 16
1.0
 26
0.0
 36
0.0
 17
0.0
 27
1.0
 37
0.0
 76
     0
330
213
331
1F4
  0
MATERIAL
  5
422
102
{ACAD_XDICTIONARY
360
423
102
}
102
{ACAD_REACTORS
330
419
102
}
330
419
100
AcDbMaterial
  1
ByBlock
 72
     0
 43
0.0008202099737533
 43
0.0
 43
0.0
 43
0.0
 43
0.0
 43
0.0008202099737533
 43
0.0
 43
0.0
 43
0.0
 43
0.0
 43
1.0
 43
0.0
 43
0.0
 43
0.0
 43
0.0
 43
1.0
 77
     0
 47
0.0008202099737533
 47
0.0
 47
0.0
 47
0.0
 47
0.0
 47
0.0008202099737533
 47
0.0
 47
0.0
 47
0.0
 47
0.0
 47
1.0
 47
0.0
 47
0.0
 47
0.0
 47
0.0
 47
1.0
171
     0
 49
0.0008202099737533
 49
0.0
 49
0.0
 49
0.0
 49
0.0
 49
0.0008202099737533
 49
0.0
 49
0.0
 49
0.0
 49
0.0
 49
1.0
 49
0.0
 49
0.0
 49
0.0
 49
0.0
 49
1.0
175
     0
142
0.0008202099737533
142
0.0
142
0.0
142
0.0
142
0.0
142
0.0008202099737533
142
0.0
142
0.0
142
0.0
142
0.0
142
1.0
142
0.0
142
0.0
142
0.0
142
0.0
142
1.0
179
     0
144
0.0008202099737533
144
0.0
144
0.0
144
0.0
144
0.0
144
0.0008202099737533
144
0.0
144
0.0
144
0.0
144
0.0
144
1.0
144
0.0
144
0.0
144
0.0
144
0.0
144
1.0
147
0.0008202099737533
147
0.0
147
0.0
147
0.0
147
0.0
147
0.0008202099737533
147
0.0
147
0.0
147
0.0
147
0.0
147
1.0
147
0.0
147
0.0
147
0.0
147
0.0
147
1.0
  0
MATERIAL
  5
41A
102
{ACAD_XDICTIONARY
360
41B
102
}
102
{ACAD_REACTORS
330
419
102
}
330
419
100
AcDbMaterial
  1
ByLayer
 72
     0
 43
0.0008202099737533
 43
0.0
 43
0.0
 43
0.0
 43
0.0
 43
0.0008202099737533
 43
0.0
 43
0.0
 43
0.0
 43
0.0
 43
1.0
 43
0.0
 43
0.0
 43
0.0
 43
0.0
 43
1.0
 77
     0
 47
0.0008202099737533
 47
0.0
 47
0.0
 47
0.0
 47
0.0
 47
0.0008202099737533
 47
0.0
 47
0.0
 47
0.0
 47
0.0
 47
1.0
 47
0.0
 47
0.0
 47
0.0
 47
0.0
 47
1.0
171
     0
 49
0.0008202099737533
 49
0.0
 49
0.0
 49
0.0
 49
0.0
 49
0.0008202099737533
 49
0.0
 49
0.0
 49
0.0
 49
0.0
 49
1.0
 49
0.0
 49
0.0
 49
0.0
 49
0.0
 49
1.0
175
     0
142
0.0008202099737533
142
0.0
142
0.0
142
0.0
142
0.0
142
0.0008202099737533
142
0.0
142
0.0
142
0.0
142
0.0
142
1.0
142
0.0
142
0.0
142
0.0
142
0.0
142
1.0
179
     0
144
0.0008202099737533
144
0.0
144
0.0
144
0.0
144
0.0
144
0.0008202099737533
144
0.0
144
0.0
144
0.0
144
0.0
144
1.0
144
0.0
144
0.0
144
0.0
144
0.0
144
1.0
147
0.0008202099737533
147
0.0
147
0.0
147
0.0
147
0.0
147
0.0008202099737533
147
0.0
147
0.0
147
0.0
147
0.0
147
1.0
147
0.0
147
0.0
147
0.0
147
0.0
147
1.0
  0
MATERIAL
  5
42A
102
{ACAD_XDICTIONARY
360
42B
102
}
102
{ACAD_REACTORS
330
419
102
}
330
419
100
AcDbMaterial
  1
Global
 72
     0
 43
0.0008202099737533
 43
0.0
 43
0.0
 43
0.0
 43
0.0
 43
0.0008202099737533
 43
0.0
 43
0.0
 43
0.0
 43
0.0
 43
1.0
 43
0.0
 43
0.0
 43
0.0
 43
0.0
 43
1.0
 77
     0
 47
0.0008202099737533
 47
0.0
 47
0.0
 47
0.0
 47
0.0
 47
0.0008202099737533
 47
0.0
 47
0.0
 47
0.0
 47
0.0
 47
1.0
 47
0.0
 47
0.0
 47
0.0
 47
0.0
 47
1.0
171
     0
 49
0.0008202099737533
 49
0.0
 49
0.0
 49
0.0
 49
0.0
 49
0.0008202099737533
 49
0.0
 49
0.0
 49
0.0
 49
0.0
 49
1.0
 49
0.0
 49
0.0
 49
0.0
 49
0.0
 49
1.0
175
     0
142
0.0008202099737533
142
0.0
142
0.0
142
0.0
142
0.0
142
0.0008202099737533
142
0.0
142
0.0
142
0.0
142
0.0
142
1.0
142
0.0
142
0.0
142
0.0
142
0.0
142
1.0
179
     0
144
0.0008202099737533
144
0.0
144
0.0
144
0.0
144
0.0
144
0.0008202099737533
144
0.0
144
0.0
144
0.0
144
0.0
144
1.0
144
0.0
144
0.0
144
0.0
144
0.0
144
1.0
147
0.0008202099737533
147
0.0
147
0.0
147
0.0
147
0.0
147
0.0008202099737533
147
0.0
147
0.0
147
0.0
147
0.0
147
1.0
147
0.0
147
0.0
147
0.0
147
0.0
147
1.0
  0
MLEADERSTYLE
  5
45C
102
{ACAD_REACTORS
330
45B
102
}
330
45B
100
AcDbMLeaderStyle
170
     2
171
     1
172
     0
 90
        2
 40
0.0
 41
0.0
173
     1
 91
-1056964608
340
14
 92
       -2
290
     1
 42
2.0
291
     1
 43
0.36
  3
Standard
 44
4.0
300

342
11
174
     1
178
     6
175
     1
176
     0
 93
-1056964608
 45
4.0
292
     0
297
     0
 46
4.0
 94
-1056964608
 47
1.0
 49
1.0
140
1.0
293
     1
141
0.0
294
     1
177
     0
142
1.0
295
     0
296
     0
143
0.125
1001
ACAD_MLEADERVER
1070
     2
  0
MLINESTYLE
  5
18
102
{ACAD_REACTORS
330
17
102
}
330
17
100
AcDbMlineStyle
  2
STANDARD
 70
     0
  3

 62
   256
 51
90.0
 52
90.0
 71
     2
 49
0.5
 62
   256
  6
BYLAYER
 49
-0.5
 62
   256
  6
BYLAYER
  0
ACDBPLACEHOLDER
  5
F
102
{ACAD_REACTORS
330
E
102
}
330
E
  0
SCALE
  5
44A
102
{ACAD_REACTORS
330
449
102
}
330
449
100
AcDbScale
 70
     0
300
1:1
140
1.0
141
1.0
290
     1
  0
SCALE
  5
44B
102
{ACAD_REACTORS
330
449
102
}
330
449
100
AcDbScale
 70
     0
300
1:2
140
1.0
141
2.0
290
     0
  0
SCALE
  5
44C
102
{ACAD_REACTORS
330
449
102
}
330
449
100
AcDbScale
 70
     0
300
1:4
140
1.0
141
4.0
290
     0
  0
SCALE
  5
44D
102
{ACAD_REACTORS
330
449
102
}
330
449
100
AcDbScale
 70
     0
300
1:5
140
1.0
141
5.0
290
     0
  0
SCALE
  5
44E
102
{ACAD_REACTORS
330
449
102
}
330
449
100
AcDbScale
 70
     0
300
1:8
140
1.0
141
8.0
290
     0
  0
SCALE
  5
44F
102
{ACAD_REACTORS
330
449
102
}
330
449
100
AcDbScale
 70
     0
300
1:10
140
1.0
141
10.0
290
     0
  0
SCALE
  5
450
102
{ACAD_REACTORS
330
449
102
}
330
449
100
AcDbScale
 70
     0
300
1:16
140
1.0
141
16.0
290
     0
  0
SCALE
  5
451
102
{ACAD_REACTORS
330
449
102
}
330
449
100
AcDbScale
 70
     0
300
1:20
140
1.0
141
20.0
290
     0
  0
SCALE
  5
452
102
{ACAD_REACTORS
330
449
102
}
330
449
100
AcDbScale
 70
     0
300
1:30
140
1.0
141
30.0
290
     0
  0
SCALE
  5
453
102
{ACAD_REACTORS
330
449
102
}
330
449
100
AcDbScale
 70
     0
300
1:40
140
1.0
141
40.0
290
     0
  0
SCALE
  5
454
102
{ACAD_REACTORS
330
449
102
}
330
449
100
AcDbScale
 70
     0
300
1:50
140
1.0
141
50.0
290
     0
  0
SCALE
  5
455
102
{ACAD_REACTORS
330
449
102
}
330
449
100
AcDbScale
 70
     0
300
1:100
140
1.0
141
100.0
290
     0
  0
SCALE
  5
456
102
{ACAD_REACTORS
330
449
102
}
330
449
100
AcDbScale
 70
     0
300
2:1
140
2.0
141
1.0
290
     0
  0
SCALE
  5
457
102
{ACAD_REACTORS
330
449
102
}
330
449
100
AcDbScale
 70
     0
300
4:1
140
4.0
141
1.0
290
     0
  0
SCALE
  5
458
102
{ACAD_REACTORS
330
449
102
}
330
449
100
AcDbScale
 70
     0
300
8:1
140
8.0
141
1.0
290
     0
  0
SCALE
  5
459
102
{ACAD_REACTORS
330
449
102
}
330
449
100
AcDbScale
 70
     0
300
10:1
140
10.0
141
1.0
290
     0
  0
SCALE
  5
45A
102
{ACAD_REACTORS
330
449
102
}
330
449
100
AcDbScale
 70
     0
300
100:1
140
100.0
141
1.0
290
     0
  0
TABLESTYLE
  5
448
102
{ACAD_XDICTIONARY
360
5B2
102
}
102
{ACAD_REACTORS
330
447
102
}
330
447
100
AcDbTableStyle
  3
Standard
 70
     0
 71
     0
 40
1.5
 41
1.5
280
     0
281
     0
  7
STANDARD
140
4.5
170
     2
 62
     0
 63
     7
283
     0
274
    -2
284
     1
 64
     0
275
    -2
285
     1
 65
     0
276
    -2
286
     1
 66
     0
277
    -2
287
     1
 67
     0
278
    -2
288
     1
 68
     0
279
    -2
289
     1
 69
     0
  7
STANDARD
140
6.0
170
     5
 62
     0
 63
     7
283
     0
274
    -2
284
     1
 64
     0
275
    -2
285
     1
 65
     0
276
    -2
286
     1
 66
     0
277
    -2
287
     1
 67
     0
278
    -2
288
     1
 68
     0
279
    -2
289
     1
 69
     0
  7
STANDARD
140
4.5
170
     5
 62
     0
 63
     7
283
     0
274
    -2
284
     1
 64
     0
275
    -2
285
     1
 65
     0
276
    -2
286
     1
 66
     0
277
    -2
287
     1
 67
     0
278
    -2
288
     1
 68
     0
279
    -2
289
     1
 69
     0
  0
VISUALSTYLE
  5
438
102
{ACAD_XDICTIONARY
360
5C7
102
}
102
{ACAD_REACTORS
330
432
102
}
330
432
100
AcDbVisualStyle
  2
2dWireframe
 70
     4
 71
     0
 72
     2
 73
     0
 90
        0
 40
-0.6
 41
-30.0
 62
     5
 63
     7
 74
     1
 91
        4
 64
     7
 65
   257
 75
     1
175
     1
 42
1.0
 92
        0
 66
   257
 43
1.0
 76
     1
 77
     6
 78
     2
 67
     7
 79
     5
170
     0
171
     0
290
     0
174
     0
 93
        1
 44
0.0
173
     0
291
     0
 45
0.0
1001
ACAD
1000
AcDbSavedByObjectVersion
1070
     0
  0
VISUALSTYLE
  5
43A
102
{ACAD_XDICTIONARY
360
5CB
102
}
102
{ACAD_REACTORS
330
432
102
}
330
432
100
AcDbVisualStyle
  2
3D Hidden
 70
     6
 71
     1
 72
     2
 73
     2
 90
        0
 40
-0.6
 41
-30.0
 62
     5
 63
     7
 74
     2
 91
        2
 64
     7
 65
   257
 75
     2
175
     1
 42
179.0
 92
        0
 66
   257
 43
1.0
 76
     1
 77
     6
 78
     2
 67
     7
 79
     3
170
     0
171
     0
290
     0
174
     0
 93
        1
 44
0.0
173
     0
291
     0
 45
0.0
1001
ACAD
1000
AcDbSavedByObjectVersion
1070
     0
  0
VISUALSTYLE
  5
439
102
{ACAD_XDICTIONARY
360
5C9
102
}
102
{ACAD_REACTORS
330
432
102
}
330
432
100
AcDbVisualStyle
  2
3dWireframe
 70
     5
 71
     0
 72
     2
 73
     0
 90
        0
 40
-0.6
 41
-30.0
 62
     5
 63
     7
 74
     1
 91
        4
 64
     7
 65
   257
 75
     1
175
     1
 42
1.0
 92
        0
 66
   257
 43
1.0
 76
     1
 77
     6
 78
     2
 67
     7
 79
     5
170
     0
171
     0
290
     0
174
     0
 93
        1
 44
0.0
173
     0
291
     0
 45
0.0
1001
ACAD
1000
AcDbSavedByObjectVersion
1070
     0
  0
VISUALSTYLE
  5
437
102
{ACAD_XDICTIONARY
360
5C5
102
}
102
{ACAD_REACTORS
330
432
102
}
330
432
100
AcDbVisualStyle
  2
Basic
 70
     7
 71
     1
 72
     0
 73
     1
 90
        0
 40
-0.6
 41
-30.0
 62
     5
 63
     7
 74
     0
 91
        4
 64
     7
 65
   257
 75
     1
175
     1
 42
1.0
 92
        8
 66
     7
 43
1.0
 76
     1
 77
     6
 78
     2
 67
     7
 79
     5
170
     0
171
     0
290
     0
174
     0
 93
        1
 44
0.0
173
     0
291
     1
 45
0.0
1001
ACAD
1000
AcDbSavedByObjectVersion
1070
     0
  0
VISUALSTYLE
  5
43E
102
{ACAD_XDICTIONARY
360
5D3
102
}
102
{ACAD_REACTORS
330
432
102
}
330
432
100
AcDbVisualStyle
  2
Brighten
 70
    12
 71
     2
 72
     2
 73
     0
 90
        0
 40
-0.6
 41
-30.0
 62
     5
 63
     7
 74
     1
 91
        4
 64
     7
 65
   257
 75
     1
175
     1
 42
1.0
 92
        8
 66
     7
 43
1.0
 76
     1
 77
     6
 78
     2
 67
     7
 79
     5
170
     0
171
     0
290
     0
174
     0
 93
        1
 44
50.0
173
     0
291
     1
 45
0.0
1001
ACAD
1000
AcDbSavedByObjectVersion
1070
     0
  0
VISUALSTYLE
  5
442
102
{ACAD_XDICTIONARY
360
5DB
102
}
102
{ACAD_REACTORS
330
432
102
}
330
432
100
AcDbVisualStyle
  2
ColorChange
 70
    16
 71
     2
 72
     2
 73
     3
 90
        0
 40
-0.6
 41
-30.0
 62
     5
 63
     8
 74
     1
 91
        4
 64
     7
 65
   257
 75
     1
175
     1
 42
1.0
 92
        8
 66
     8
 43
1.0
 76
     1
 77
     6
 78
     2
 67
     7
 79
     5
170
     0
171
     0
290
     0
174
     0
 93
        1
 44
0.0
173
     0
291
     1
 45
0.0
1001
ACAD
1000
AcDbSavedByObjectVersion
1070
     0
  0
VISUALSTYLE
  5
43B
102
{ACAD_XDICTIONARY
360
5CD
102
}
102
{ACAD_REACTORS
330
432
102
}
330
432
100
AcDbVisualStyle
  2
Conceptual
 70
     9
 71
     3
 72
     2
 73
     0
 90
        0
 40
-0.6
 41
-30.0
 62
     5
 63
     7
 74
     2
 91
        2
 64
     7
 65
   257
 75
     1
175
     1
 42
179.0
 92
        8
 66
     7
 43
1.0
 76
     1
 77
     6
 78
     2
 67
     7
 79
     3
170
     0
171
     0
290
     0
174
     0
 93
        1
 44
0.0
173
     0
291
     0
 45
0.0
1001
ACAD
1000
AcDbSavedByObjectVersion
1070
     0
  0
VISUALSTYLE
  5
43D
102
{ACAD_XDICTIONARY
360
5D1
102
}
102
{ACAD_REACTORS
330
432
102
}
330
432
100
AcDbVisualStyle
  2
Dim
 70
    11
 71
     2
 72
     2
 73
     0
 90
        0
 40
-0.6
 41
-30.0
 62
     5
 63
     7
 74
     1
 91
        4
 64
     7
 65
   257
 75
     1
175
     1
 42
1.0
 92
        8
 66
     7
 43
1.0
 76
     1
 77
     6
 78
     2
 67
     7
 79
     5
170
     0
171
     0
290
     0
174
     0
 93
        1
 44
-50.0
173
     0
291
     1
 45
0.0
1001
ACAD
1000
AcDbSavedByObjectVersion
1070
     0
  0
VISUALSTYLE
  5
445
102
{ACAD_XDICTIONARY
360
5E1
102
}
102
{ACAD_REACTORS
330
432
102
}
330
432
100
AcDbVisualStyle
  2
EdgeColorOff
 70
    22
 71
     2
 72
     2
 73
     0
 90
        0
 40
-0.6
 41
-30.0
 62
     5
 63
     7
 74
     1
 91
        4
 64
     7
 65
   257
 75
     1
175
     1
 42
1.0
 92
        8
 66
     7
 43
1.0
 76
     1
 77
     6
 78
     2
 67
     7
 79
     5
170
     0
171
     0
290
     0
174
     0
 93
        1
 44
0.0
173
     0
291
     1
 45
0.0
1001
ACAD
1000
AcDbSavedByObjectVersion
1070
     0
  0
VISUALSTYLE
  5
441
102
{ACAD_XDICTIONARY
360
5D9
102
}
102
{ACAD_REACTORS
330
432
102
}
330
432
100
AcDbVisualStyle
  2
Facepattern
 70
    15
 71
     2
 72
     2
 73
     0
 90
        0
 40
-0.6
 41
-30.0
 62
     5
 63
     7
 74
     1
 91
        4
 64
     7
 65
   257
 75
     1
175
     1
 42
1.0
 92
        8
 66
     7
 43
1.0
 76
     1
 77
     6
 78
     2
 67
     7
 79
     5
170
     0
171
     0
290
     0
174
     0
 93
        1
 44
0.0
173
     0
291
     1
 45
0.0
1001
ACAD
1000
AcDbSavedByObjectVersion
1070
     0
  0
VISUALSTYLE
  5
433
102
{ACAD_XDICTIONARY
360
5BD
102
}
102
{ACAD_REACTORS
330
432
102
}
330
432
100
AcDbVisualStyle
  2
Flat
 70
     0
 71
     2
 72
     1
 73
     1
 90
        2
 40
-0.6
 41
30.0
 62
     5
 63
     7
 74
     0
 91
        4
 64
     7
 65
   257
 75
     1
175
     1
 42
1.0
 92
        8
 66
     7
 43
1.0
 76
     1
 77
     6
 78
     2
 67
     7
 79
     5
170
     0
171
     0
290
     0
174
     0
 93
       13
 44
0.0
173
     0
291
     1
 45
0.0
1001
ACAD
1000
AcDbSavedByObjectVersion
1070
     0
  0
VISUALSTYLE
  5
434
102
{ACAD_XDICTIONARY
360
5BF
102
}
102
{ACAD_REACTORS
330
432
102
}
330
432
100
AcDbVisualStyle
  2
FlatWithEdges
 70
     1
 71
     2
 72
     1
 73
     1
 90
        2
 40
-0.6
 41
30.0
 62
     5
 63
     7
 74
     1
 91
        4
 64
     7
 65
   257
 75
     1
175
     1
 42
1.0
 92
        0
 66
   257
 43
1.0
 76
     1
 77
     6
 78
     2
 67
     7
 79
     5
170
     0
171
     0
290
     0
174
     0
 93
       13
 44
0.0
173
     0
291
     1
 45
0.0
1001
ACAD
1000
AcDbSavedByObjectVersion
1070
     0
  0
VISUALSTYLE
  5
435
102
{ACAD_XDICTIONARY
360
5C1
102
}
102
{ACAD_REACTORS
330
432
102
}
330
432
100
AcDbVisualStyle
  2
Gouraud
 70
     2
 71
     2
 72
     2
 73
     1
 90
        2
 40
-0.6
 41
30.0
 62
     5
 63
     7
 74
     0
 91
        4
 64
     7
 65
   257
 75
     1
175
     1
 42
1.0
 92
        0
 66
     7
 43
1.0
 76
     1
 77
     6
 78
     2
 67
     7
 79
     5
170
     0
171
     0
290
     0
174
     0
 93
       13
 44
0.0
173
     0
291
     1
 45
0.0
1001
ACAD
1000
AcDbSavedByObjectVersion
1070
     0
  0
VISUALSTYLE
  5
436
102
{ACAD_XDICTIONARY
360
5C3
102
}
102
{ACAD_REACTORS
330
432
102
}
330
432
100
AcDbVisualStyle
  2
GouraudWithEdges
 70
     3
 71
     2
 72
     2
 73
     1
 90
        2
 40
-0.6
 41
30.0
 62
     5
 63
     7
 74
     1
 91
        4
 64
     7
 65
   257
 75
     1
175
     1
 42
1.0
 92
        0
 66
   257
 43
1.0
 76
     1
 77
     6
 78
     2
 67
     7
 79
     5
170
     0
171
     0
290
     0
174
     0
 93
       13
 44
0.0
173
     0
291
     1
 45
0.0
1001
ACAD
1000
AcDbSavedByObjectVersion
1070
     0
  0
VISUALSTYLE
  5
443
102
{ACAD_XDICTIONARY
360
5DD
102
}
102
{ACAD_REACTORS
330
432
102
}
330
432
100
AcDbVisualStyle
  2
JitterOff
 70
    20
 71
     2
 72
     2
 73
     0
 90
        0
 40
-0.6
 41
-30.0
 62
     5
 63
     7
 74
     1
 91
        4
 64
     7
 65
   257
 75
     1
175
     1
 42
1.0
 92
       10
 66
     7
 43
1.0
 76
     1
 77
     6
 78
     2
 67
     7
 79
     5
170
     0
171
     0
290
     0
174
     0
 93
        1
 44
0.0
173
     0
291
     1
 45
0.0
1001
ACAD
1000
AcDbSavedByObjectVersion
1070
     0
  0
VISUALSTYLE
  5
440
102
{ACAD_XDICTIONARY
360
5D7
102
}
102
{ACAD_REACTORS
330
432
102
}
330
432
100
AcDbVisualStyle
  2
Linepattern
 70
    14
 71
     2
 72
     2
 73
     0
 90
        0
 40
-0.6
 41
-30.0
 62
     5
 63
     7
 74
     1
 91
        4
 64
     7
 65
   257
 75
     7
175
     7
 42
1.0
 92
        8
 66
     7
 43
1.0
 76
     1
 77
     6
 78
     2
 67
     7
 79
     5
170
     0
171
     0
290
     0
174
     0
 93
        1
 44
0.0
173
     0
291
     1
 45
0.0
1001
ACAD
1000
AcDbSavedByObjectVersion
1070
     0
  0
VISUALSTYLE
  5
444
102
{ACAD_XDICTIONARY
360
5DF
102
}
102
{ACAD_REACTORS
330
432
102
}
330
432
100
AcDbVisualStyle
  2
OverhangOff
 70
    21
 71
     2
 72
     2
 73
     0
 90
        0
 40
-0.6
 41
-30.0
 62
     5
 63
     7
 74
     1
 91
        4
 64
     7
 65
   257
 75
     1
175
     1
 42
1.0
 92
        9
 66
     7
 43
1.0
 76
     1
 77
     6
 78
     2
 67
     7
 79
     5
170
     0
171
     0
290
     0
174
     0
 93
        1
 44
0.0
173
     0
291
     1
 45
0.0
1001
ACAD
1000
AcDbSavedByObjectVersion
1070
     0
  0
VISUALSTYLE
  5
43C
102
{ACAD_XDICTIONARY
360
5CF
102
}
102
{ACAD_REACTORS
330
432
102
}
330
432
100
AcDbVisualStyle
  2
Realistic
 70
     8
 71
     2
 72
     2
 73
     0
 90
        0
 40
-0.6
 41
-30.0
 62
     5
 63
     7
 74
     1
 91
        0
 64
     7
 65
   257
 75
     1
175
     1
 42
1.0
 92
        8
 66
     8
 43
1.0
 76
     1
 77
     6
 78
     2
 67
     7
 79
     5
170
     0
171
     0
290
     0
174
     0
 93
       13
 44
0.0
173
     0
291
     0
 45
0.0
1001
ACAD
1000
AcDbSavedByObjectVersion
1070
     0
  0
VISUALSTYLE
  5
43F
102
{ACAD_XDICTIONARY
360
5D5
102
}
102
{ACAD_REACTORS
330
432
102
}
330
432
100
AcDbVisualStyle
  2
Thicken
 70
    13
 71
     2
 72
     2
 73
     0
 90
        0
 40
-0.6
 41
-30.0
 62
     5
 63
     7
 74
     1
 91
        4
 64
     7
 65
   257
 75
     1
175
     1
 42
1.0
 92
       12
 66
     7
 43
1.0
 76
     1
 77
     6
 78
     2
 67
     7
 79
     5
170
     0
171
     0
290
     0
174
     0
 93
        1
 44
0.0
173
     0
291
     1
 45
0.0
1001
ACAD
1000
AcDbSavedByObjectVersion
1070
     0
  0
DICTIONARYVAR
  5
5A9
102
{ACAD_REACTORS
330
5A5
102
}
330
5A5
100
DictionaryVariables
280
     0
  1
1:1
  0
DICTIONARYVAR
  5
5A7
102
{ACAD_REACTORS
330
5A5
102
}
330
5A5
100
DictionaryVariables
280
     0
  1
STANDARD
  0
DICTIONARYVAR
  5
5A6
102
{ACAD_REACTORS
330
5A5
102
}
330
5A5
100
DictionaryVariables
280
     0
  1
STANDARD
  0
DICTIONARYVAR
  5
5B0
102
{ACAD_REACTORS
330
5A5
102
}
330
5A5
100
DictionaryVariables
280
     0
  1
2
  0
DICTIONARYVAR
  5
5AF
102
{ACAD_REACTORS
330
5A5
102
}
330
5A5
100
DictionaryVariables
280
     0
  1
1
  0
DICTIONARYVAR
  5
5AE
102
{ACAD_REACTORS
330
5A5
102
}
330
5A5
100
DictionaryVariables
280
     0
  1
0
  0
DICTIONARYVAR
  5
5AB
102
{ACAD_REACTORS
330
5A5
102
}
330
5A5
100
DictionaryVariables
280
     0
  1
0
  0
DICTIONARYVAR
  5
5AC
102
{ACAD_REACTORS
330
5A5
102
}
330
5A5
100
DictionaryVariables
280
     0
  1
0
  0
DICTIONARYVAR
  5
5AA
102
{ACAD_REACTORS
330
5A5
102
}
330
5A5
100
DictionaryVariables
280
     0
  1
2
  0
DICTIONARYVAR
  5
5A8
102
{ACAD_REACTORS
330
5A5
102
}
330
5A5
100
DictionaryVariables
280
     0
  1
1
  0
DICTIONARYVAR
  5
5AD
102
{ACAD_REACTORS
330
5A5
102
}
330
5A5
100
DictionaryVariables
280
     0
  1
127
  0
DICTIONARYVAR
  5
5B1
102
{ACAD_REACTORS
330
5A5
102
}
330
5A5
100
DictionaryVariables
280
     0
  1
2
  0
DICTIONARY
  5
4C0
102
{ACAD_REACTORS
330
4B6
102
}
330
4B6
100
AcDbDictionary
281
     1
  0
DICTIONARY
  5
5B8
330
416
100
AcDbDictionary
280
     1
281
     1
  3
ACAD_XREC_ROUNDTRIP
360
5B9
  0
DICTIONARY
  5
5B6
330
415
100
AcDbDictionary
280
     1
281
     1
  3
ACAD_XREC_ROUNDTRIP
360
5B7
  0
DICTIONARY
  5
423
330
422
100
AcDbDictionary
280
     1
281
     1
  3
ACAD_XREC_ROUNDTRIP
360
5BB
  3
BUMPTILE
360
425
  3
DIFFUSETILE
360
424
  3
OPACITYTILE
360
428
  3
REFLECTIONTILE
360
427
  3
REFRACTIONTILE
360
429
  3
SPECULARTILE
360
426
  0
DICTIONARY
  5
41B
330
41A
100
AcDbDictionary
280
     1
281
     1
  3
ACAD_XREC_ROUNDTRIP
360
5BA
  3
BUMPTILE
360
41D
  3
DIFFUSETILE
360
41C
  3
OPACITYTILE
360
420
  3
REFLECTIONTILE
360
41F
  3
REFRACTIONTILE
360
421
  3
SPECULARTILE
360
41E
  0
DICTIONARY
  5
42B
330
42A
100
AcDbDictionary
280
     1
281
     1
  3
ACAD_XREC_ROUNDTRIP
360
5BC
  3
BUMPTILE
360
42D
  3
DIFFUSETILE
360
42C
  3
OPACITYTILE
360
430
  3
REFLECTIONTILE
360
42F
  3
REFRACTIONTILE
360
431
  3
SPECULARTILE
360
42E
  0
DICTIONARY
  5
5B2
330
448
100
AcDbDictionary
280
     1
281
     1
  3
ACAD_ROUNDTRIP_2008_TABLESTYLE_CELLSTYLEMAP
360
5B3
  3
ACAD_XREC_ROUNDTRIP
360
5E3
  0
DICTIONARY
  5
5C7
330
438
100
AcDbDictionary
280
     1
281
     1
  3
ACAD_XREC_ROUNDTRIP
360
5C8
  0
DICTIONARY
  5
5CB
330
43A
100
AcDbDictionary
280
     1
281
     1
  3
ACAD_XREC_ROUNDTRIP
360
5CC
  0
DICTIONARY
  5
5C9
330
439
100
AcDbDictionary
280
     1
281
     1
  3
ACAD_XREC_ROUNDTRIP
360
5CA
  0
DICTIONARY
  5
5C5
330
437
100
AcDbDictionary
280
     1
281
     1
  3
ACAD_XREC_ROUNDTRIP
360
5C6
  0
DICTIONARY
  5
5D3
330
43E
100
AcDbDictionary
280
     1
281
     1
  3
ACAD_XREC_ROUNDTRIP
360
5D4
  0
DICTIONARY
  5
5DB
330
442
100
AcDbDictionary
280
     1
281
     1
  3
ACAD_XREC_ROUNDTRIP
360
5DC
  0
DICTIONARY
  5
5CD
330
43B
100
AcDbDictionary
280
     1
281
     1
  3
ACAD_XREC_ROUNDTRIP
360
5CE
  0
DICTIONARY
  5
5D1
330
43D
100
AcDbDictionary
280
     1
281
     1
  3
ACAD_XREC_ROUNDTRIP
360
5D2
  0
DICTIONARY
  5
5E1
330
445
100
AcDbDictionary
280
     1
281
     1
  3
ACAD_XREC_ROUNDTRIP
360
5E2
  0
DICTIONARY
  5
5D9
330
441
100
AcDbDictionary
280
     1
281
     1
  3
ACAD_XREC_ROUNDTRIP
360
5DA
  0
DICTIONARY
  5
5BD
330
433
100
AcDbDictionary
280
     1
281
     1
  3
ACAD_XREC_ROUNDTRIP
360
5BE
  0
DICTIONARY
  5
5BF
330
434
100
AcDbDictionary
280
     1
281
     1
  3
ACAD_XREC_ROUNDTRIP
360
5C0
  0
DICTIONARY
  5
5C1
330
435
100
AcDbDictionary
280
     1
281
     1
  3
ACAD_XREC_ROUNDTRIP
360
5C2
  0
DICTIONARY
  5
5C3
330
436
100
AcDbDictionary
280
     1
281
     1
  3
ACAD_XREC_ROUNDTRIP
360
5C4
  0
DICTIONARY
  5
5DD
330
443
100
AcDbDictionary
280
     1
281
     1
  3
ACAD_XREC_ROUNDTRIP
360
5DE
  0
DICTIONARY
  5
5D7
330
440
100
AcDbDictionary
280
     1
281
     1
  3
ACAD_XREC_ROUNDTRIP
360
5D8
  0
DICTIONARY
  5
5DF
330
444
100
AcDbDictionary
280
     1
281
     1
  3
ACAD_XREC_ROUNDTRIP
360
5E0
  0
DICTIONARY
  5
5CF
330
43C
100
AcDbDictionary
280
     1
281
     1
  3
ACAD_XREC_ROUNDTRIP
360
5D0
  0
DICTIONARY
  5
5D5
330
43F
100
AcDbDictionary
280
     1
281
     1
  3
ACAD_XREC_ROUNDTRIP
360
5D6
  0
XRECORD
  5
5B9
102
{ACAD_REACTORS
330
5B8
102
}
330
5B8
100
AcDbXrecord
280
     1
102
SHADEPLOT
 70
     0
102
SHADEPLOTRESLEVEL
 70
     2
102
SHADEPLOTCUSTOMDPI
 70
   300
  0
XRECORD
  5
5B7
102
{ACAD_REACTORS
330
5B6
102
}
330
5B6
100
AcDbXrecord
280
     1
102
SHADEPLOT
 70
     0
102
SHADEPLOTRESLEVEL
 70
     2
102
SHADEPLOTCUSTOMDPI
 70
   300
  0
XRECORD
  5
5BB
102
{ACAD_REACTORS
330
423
102
}
330
423
100
AcDbXrecord
280
     1
102
MATERIAL
148
0.0
149
0.0
149
0.0
 93
        0
 94
      127
282
     0
 72
     0
 77
     0
171
     0
175
     0
179
     0
273
     0
  0
XRECORD
  5
425
102
{ACAD_REACTORS
330
423
102
}
330
423
100
AcDbXrecord
280
     1
270
     1
271
     1
  0
XRECORD
  5
424
102
{ACAD_REACTORS
330
423
102
}
330
423
100
AcDbXrecord
280
     1
270
     1
271
     1
  0
XRECORD
  5
428
102
{ACAD_REACTORS
330
423
102
}
330
423
100
AcDbXrecord
280
     1
270
     1
271
     1
  0
XRECORD
  5
427
102
{ACAD_REACTORS
330
423
102
}
330
423
100
AcDbXrecord
280
     1
270
     1
271
     1
  0
XRECORD
  5
429
102
{ACAD_REACTORS
330
423
102
}
330
423
100
AcDbXrecord
280
     1
270
     1
271
     1
  0
XRECORD
  5
426
102
{ACAD_REACTORS
330
423
102
}
330
423
100
AcDbXrecord
280
     1
270
     1
271
     1
  0
XRECORD
  5
5BA
102
{ACAD_REACTORS
330
41B
102
}
330
41B
100
AcDbXrecord
280
     1
102
MATERIAL
148
0.0
149
0.0
149
0.0
 93
        0
 94
      127
282
     0
 72
     0
 77
     0
171
     0
175
     0
179
     0
273
     0
  0
XRECORD
  5
41D
102
{ACAD_REACTORS
330
41B
102
}
330
41B
100
AcDbXrecord
280
     1
270
     1
271
     1
  0
XRECORD
  5
41C
102
{ACAD_REACTORS
330
41B
102
}
330
41B
100
AcDbXrecord
280
     1
270
     1
271
     1
  0
XRECORD
  5
420
102
{ACAD_REACTORS
330
41B
102
}
330
41B
100
AcDbXrecord
280
     1
270
     1
271
     1
  0
XRECORD
  5
41F
102
{ACAD_REACTORS
330
41B
102
}
330
41B
100
AcDbXrecord
280
     1
270
     1
271
     1
  0
XRECORD
  5
421
102
{ACAD_REACTORS
330
41B
102
}
330
41B
100
AcDbXrecord
280
     1
270
     1
271
     1
  0
XRECORD
  5
41E
102
{ACAD_REACTORS
330
41B
102
}
330
41B
100
AcDbXrecord
280
     1
270
     1
271
     1
  0
XRECORD
  5
5BC
102
{ACAD_REACTORS
330
42B
102
}
330
42B
100
AcDbXrecord
280
     1
102
MATERIAL
148
0.0
149
0.0
149
0.0
 93
        0
 94
      127
282
     0
 72
     0
 77
     0
171
     0
175
     0
179
     0
273
     0
  0
XRECORD
  5
42D
102
{ACAD_REACTORS
330
42B
102
}
330
42B
100
AcDbXrecord
280
     1
270
     1
271
     1
  0
XRECORD
  5
42C
102
{ACAD_REACTORS
330
42B
102
}
330
42B
100
AcDbXrecord
280
     1
270
     1
271
     1
  0
XRECORD
  5
430
102
{ACAD_REACTORS
330
42B
102
}
330
42B
100
AcDbXrecord
280
     1
270
     1
271
     1
  0
XRECORD
  5
42F
102
{ACAD_REACTORS
330
42B
102
}
330
42B
100
AcDbXrecord
280
     1
270
     1
271
     1
  0
XRECORD
  5
431
102
{ACAD_REACTORS
330
42B
102
}
330
42B
100
AcDbXrecord
280
     1
270
     1
271
     1
  0
XRECORD
  5
42E
102
{ACAD_REACTORS
330
42B
102
}
330
42B
100
AcDbXrecord
280
     1
270
     1
271
     1
  0
CELLSTYLEMAP
  5
5B3
102
{ACAD_REACTORS
330
5B2
102
}
330
5B2
100
AcDbCellStyleMap
 90
        3
300
CELLSTYLE
  1
TABLEFORMAT_BEGIN
 90
        5
170
     1
 91
        0
 92
    32768
 62
   257
 93
        1
300
CONTENTFORMAT
  1
CONTENTFORMAT_BEGIN
 90
        0
 91
        0
 92
      512
 93
        0
300

 40
0.0
140
1.0
 94
        5
 62
     0
340
11
144
6.0
309
CONTENTFORMAT_END
171
     1
301
MARGIN
  1
CELLMARGIN_BEGIN
 40
1.5
 40
1.5
 40
1.5
 40
1.5
 40
4.5
 40
4.5
309
CELLMARGIN_END
 94
        6
 95
        1
302
GRIDFORMAT
  1
GRIDFORMAT_BEGIN
 90
        0
 91
        1
 62
     0
 92
       -2
340
0
 93
        0
 40
1.125
309
GRIDFORMAT_END
 95
        2
302
GRIDFORMAT
  1
GRIDFORMAT_BEGIN
 90
        0
 91
        1
 62
     0
 92
       -2
340
0
 93
        0
 40
1.125
309
GRIDFORMAT_END
 95
        4
302
GRIDFORMAT
  1
GRIDFORMAT_BEGIN
 90
        0
 91
        1
 62
     0
 92
       -2
340
0
 93
        0
 40
1.125
309
GRIDFORMAT_END
 95
        8
302
GRIDFORMAT
  1
GRIDFORMAT_BEGIN
 90
        0
 91
        1
 62
     0
 92
       -2
340
0
 93
        0
 40
1.125
309
GRIDFORMAT_END
 95
       16
302
GRIDFORMAT
  1
GRIDFORMAT_BEGIN
 90
        0
 91
        1
 62
     0
 92
       -2
340
0
 93
        0
 40
1.125
309
GRIDFORMAT_END
 95
       32
302
GRIDFORMAT
  1
GRIDFORMAT_BEGIN
 90
        0
 91
        1
 62
     0
 92
       -2
340
0
 93
        0
 40
1.125
309
GRIDFORMAT_END
309
TABLEFORMAT_END
  1
CELLSTYLE_BEGIN
 90
        1
 91
        1
300
_TITLE
309
CELLSTYLE_END
300
CELLSTYLE
  1
TABLEFORMAT_BEGIN
 90
        5
170
     1
 91
        0
 92
        0
 62
   257
 93
        1
300
CONTENTFORMAT
  1
CONTENTFORMAT_BEGIN
 90
        0
 91
        0
 92
      512
 93
        0
300

 40
0.0
140
1.0
 94
        5
 62
     0
340
11
144
4.5
309
CONTENTFORMAT_END
171
     1
301
MARGIN
  1
CELLMARGIN_BEGIN
 40
1.5
 40
1.5
 40
1.5
 40
1.5
 40
4.5
 40
4.5
309
CELLMARGIN_END
 94
        6
 95
        1
302
GRIDFORMAT
  1
GRIDFORMAT_BEGIN
 90
        0
 91
        1
 62
     0
 92
       -2
340
0
 93
        0
 40
1.125
309
GRIDFORMAT_END
 95
        2
302
GRIDFORMAT
  1
GRIDFORMAT_BEGIN
 90
        0
 91
        1
 62
     0
 92
       -2
340
0
 93
        0
 40
1.125
309
GRIDFORMAT_END
 95
        4
302
GRIDFORMAT
  1
GRIDFORMAT_BEGIN
 90
        0
 91
        1
 62
     0
 92
       -2
340
0
 93
        0
 40
1.125
309
GRIDFORMAT_END
 95
        8
302
GRIDFORMAT
  1
GRIDFORMAT_BEGIN
 90
        0
 91
        1
 62
     0
 92
       -2
340
0
 93
        0
 40
1.125
309
GRIDFORMAT_END
 95
       16
302
GRIDFORMAT
  1
GRIDFORMAT_BEGIN
 90
        0
 91
        1
 62
     0
 92
       -2
340
0
 93
        0
 40
1.125
309
GRIDFORMAT_END
 95
       32
302
GRIDFORMAT
  1
GRIDFORMAT_BEGIN
 90
        0
 91
        1
 62
     0
 92
       -2
340
0
 93
        0
 40
1.125
309
GRIDFORMAT_END
309
TABLEFORMAT_END
  1
CELLSTYLE_BEGIN
 90
        2
 91
        1
300
_HEADER
309
CELLSTYLE_END
300
CELLSTYLE
  1
TABLEFORMAT_BEGIN
 90
        5
170
     1
 91
        0
 92
        0
 62
   257
 93
        1
300
CONTENTFORMAT
  1
CONTENTFORMAT_BEGIN
 90
        0
 91
        0
 92
      512
 93
        0
300

 40
0.0
140
1.0
 94
        2
 62
     0
340
11
144
4.5
309
CONTENTFORMAT_END
171
     1
301
MARGIN
  1
CELLMARGIN_BEGIN
 40
1.5
 40
1.5
 40
1.5
 40
1.5
 40
4.5
 40
4.5
309
CELLMARGIN_END
 94
        6
 95
        1
302
GRIDFORMAT
  1
GRIDFORMAT_BEGIN
 90
        0
 91
        1
 62
     0
 92
       -2
340
0
 93
        0
 40
1.125
309
GRIDFORMAT_END
 95
        2
302
GRIDFORMAT
  1
GRIDFORMAT_BEGIN
 90
        0
 91
        1
 62
     0
 92
       -2
340
0
 93
        0
 40
1.125
309
GRIDFORMAT_END
 95
        4
302
GRIDFORMAT
  1
GRIDFORMAT_BEGIN
 90
        0
 91
        1
 62
     0
 92
       -2
340
0
 93
        0
 40
1.125
309
GRIDFORMAT_END
 95
        8
302
GRIDFORMAT
  1
GRIDFORMAT_BEGIN
 90
        0
 91
        1
 62
     0
 92
       -2
340
0
 93
        0
 40
1.125
309
GRIDFORMAT_END
 95
       16
302
GRIDFORMAT
  1
GRIDFORMAT_BEGIN
 90
        0
 91
        1
 62
     0
 92
       -2
340
0
 93
        0
 40
1.125
309
GRIDFORMAT_END
 95
       32
302
GRIDFORMAT
  1
GRIDFORMAT_BEGIN
 90
        0
 91
        1
 62
     0
 92
       -2
340
0
 93
        0
 40
1.125
309
GRIDFORMAT_END
309
TABLEFORMAT_END
  1
CELLSTYLE_BEGIN
 90
        3
 91
        2
300
_DATA
309
CELLSTYLE_END
  0
XRECORD
  5
5E3
102
{ACAD_REACTORS
330
5B2
102
}
330
5B2
100
AcDbXrecord
280
     1
102
ACAD_ROUNDTRIP_PRE2007_TABLESTYLE
 90
      512
 91
        0
  1

 92
      512
 93
        0
  2

 94
      512
 95
        0
  3

  0
XRECORD
  5
5C8
102
{ACAD_REACTORS
330
5C7
102
}
330
5C7
100
AcDbXrecord
280
     1
102
RTVSPropertyOp0
 70
     1
102
RTVSPropertyOp1
 70
     1
102
RTVSPropertyOp2
 70
     1
102
RTVSPropertyOp3
 70
     1
102
RTVSPropertyOp4
 70
     1
102
RTVSPropertyOp5
 70
     1
102
RTVSPropertyOp6
 70
     1
102
RTVSPropertyOp7
 70
     1
102
RTVSPropertyOp8
 70
     1
102
RTVSPropertyOp9
 70
     1
102
RTVSPropertyOp10
 70
     1
102
RTVSPropertyOp11
 70
     1
102
RTVSPropertyOp12
 70
     1
102
RTVSPropertyOp13
 70
     1
102
RTVSPropertyOp14
 70
     1
102
RTVSPropertyOp15
 70
     1
102
RTVSPropertyOp16
 70
     1
102
RTVSPropertyOp17
 70
     1
102
RTVSPropertyOp18
 70
     1
102
RTVSPropertyOp19
 70
     1
102
RTVSPropertyOp20
 70
     1
102
RTVSPropertyOp21
 70
     1
102
RTVSPropertyOp22
 70
     1
102
RTVSPropertyOp23
 70
     1
102
RTVSPropertyOp24
 70
     1
102
RTVSPropertyOp25
 70
     1
102
RTVSPropertyOp26
 70
     1
102
RTVSPropertyOp27
 70
     1
  0
XRECORD
  5
5CC
102
{ACAD_REACTORS
330
5CB
102
}
330
5CB
100
AcDbXrecord
280
     1
102
RTVSPropertyOp0
 70
     1
102
RTVSPropertyOp1
 70
     1
102
RTVSPropertyOp2
 70
     1
102
RTVSPropertyOp3
 70
     1
102
RTVSPropertyOp4
 70
     1
102
RTVSPropertyOp5
 70
     1
102
RTVSPropertyOp6
 70
     1
102
RTVSPropertyOp7
 70
     1
102
RTVSPropertyOp8
 70
     1
102
RTVSPropertyOp9
 70
     1
102
RTVSPropertyOp10
 70
     1
102
RTVSPropertyOp11
 70
     1
102
RTVSPropertyOp12
 70
     1
102
RTVSPropertyOp13
 70
     1
102
RTVSPropertyOp14
 70
     1
102
RTVSPropertyOp15
 70
     1
102
RTVSPropertyOp16
 70
     1
102
RTVSPropertyOp17
 70
     1
102
RTVSPropertyOp18
 70
     1
102
RTVSPropertyOp19
 70
     1
102
RTVSPropertyOp20
 70
     1
102
RTVSPropertyOp21
 70
     1
102
RTVSPropertyOp22
 70
     1
102
RTVSPropertyOp23
 70
     1
102
RTVSPropertyOp24
 70
     1
102
RTVSPropertyOp25
 70
     1
102
RTVSPropertyOp26
 70
     1
102
RTVSPropertyOp27
 70
     1
  0
XRECORD
  5
5CA
102
{ACAD_REACTORS
330
5C9
102
}
330
5C9
100
AcDbXrecord
280
     1
102
RTVSPropertyOp0
 70
     1
102
RTVSPropertyOp1
 70
     1
102
RTVSPropertyOp2
 70
     1
102
RTVSPropertyOp3
 70
     1
102
RTVSPropertyOp4
 70
     1
102
RTVSPropertyOp5
 70
     1
102
RTVSPropertyOp6
 70
     1
102
RTVSPropertyOp7
 70
     1
102
RTVSPropertyOp8
 70
     1
102
RTVSPropertyOp9
 70
     1
102
RTVSPropertyOp10
 70
     1
102
RTVSPropertyOp11
 70
     1
102
RTVSPropertyOp12
 70
     1
102
RTVSPropertyOp13
 70
     1
102
RTVSPropertyOp14
 70
     1
102
RTVSPropertyOp15
 70
     1
102
RTVSPropertyOp16
 70
     1
102
RTVSPropertyOp17
 70
     1
102
RTVSPropertyOp18
 70
     1
102
RTVSPropertyOp19
 70
     1
102
RTVSPropertyOp20
 70
     1
102
RTVSPropertyOp21
 70
     1
102
RTVSPropertyOp22
 70
     1
102
RTVSPropertyOp23
 70
     1
102
RTVSPropertyOp24
 70
     1
102
RTVSPropertyOp25
 70
     1
102
RTVSPropertyOp26
 70
     1
102
RTVSPropertyOp27
 70
     1
  0
XRECORD
  5
5C6
102
{ACAD_REACTORS
330
5C5
102
}
330
5C5
100
AcDbXrecord
280
     1
102
RTVSPropertyOp0
 70
     1
102
RTVSPropertyOp1
 70
     1
102
RTVSPropertyOp2
 70
     1
102
RTVSPropertyOp3
 70
     1
102
RTVSPropertyOp4
 70
     1
102
RTVSPropertyOp5
 70
     1
102
RTVSPropertyOp6
 70
     1
102
RTVSPropertyOp7
 70
     1
102
RTVSPropertyOp8
 70
     1
102
RTVSPropertyOp9
 70
     1
102
RTVSPropertyOp10
 70
     1
102
RTVSPropertyOp11
 70
     1
102
RTVSPropertyOp12
 70
     1
102
RTVSPropertyOp13
 70
     1
102
RTVSPropertyOp14
 70
     1
102
RTVSPropertyOp15
 70
     1
102
RTVSPropertyOp16
 70
     1
102
RTVSPropertyOp17
 70
     1
102
RTVSPropertyOp18
 70
     1
102
RTVSPropertyOp19
 70
     1
102
RTVSPropertyOp20
 70
     1
102
RTVSPropertyOp21
 70
     1
102
RTVSPropertyOp22
 70
     1
102
RTVSPropertyOp23
 70
     1
102
RTVSPropertyOp24
 70
     1
102
RTVSPropertyOp25
 70
     1
102
RTVSPropertyOp26
 70
     1
102
RTVSPropertyOp27
 70
     1
  0
XRECORD
  5
5D4
102
{ACAD_REACTORS
330
5D3
102
}
330
5D3
100
AcDbXrecord
280
     1
102
RTVSPropertyOp0
 70
     1
102
RTVSPropertyOp1
 70
     1
102
RTVSPropertyOp2
 70
     1
102
RTVSPropertyOp3
 70
     1
102
RTVSPropertyOp4
 70
     1
102
RTVSPropertyOp5
 70
     1
102
RTVSPropertyOp6
 70
     1
102
RTVSPropertyOp7
 70
     1
102
RTVSPropertyOp8
 70
     1
102
RTVSPropertyOp9
 70
     1
102
RTVSPropertyOp10
 70
     1
102
RTVSPropertyOp11
 70
     1
102
RTVSPropertyOp12
 70
     1
102
RTVSPropertyOp13
 70
     1
102
RTVSPropertyOp14
 70
     1
102
RTVSPropertyOp15
 70
     1
102
RTVSPropertyOp16
 70
     1
102
RTVSPropertyOp17
 70
     1
102
RTVSPropertyOp18
 70
     1
102
RTVSPropertyOp19
 70
     1
102
RTVSPropertyOp20
 70
     1
102
RTVSPropertyOp21
 70
     1
102
RTVSPropertyOp22
 70
     1
102
RTVSPropertyOp23
 70
     1
102
RTVSPropertyOp24
 70
     1
102
RTVSPropertyOp25
 70
     1
102
RTVSPropertyOp26
 70
     1
102
RTVSPropertyOp27
 70
     1
  0
XRECORD
  5
5DC
102
{ACAD_REACTORS
330
5DB
102
}
330
5DB
100
AcDbXrecord
280
     1
102
RTVSPropertyOp0
 70
     1
102
RTVSPropertyOp1
 70
     1
102
RTVSPropertyOp2
 70
     1
102
RTVSPropertyOp3
 70
     1
102
RTVSPropertyOp4
 70
     1
102
RTVSPropertyOp5
 70
     1
102
RTVSPropertyOp6
 70
     1
102
RTVSPropertyOp7
 70
     1
102
RTVSPropertyOp8
 70
     1
102
RTVSPropertyOp9
 70
     1
102
RTVSPropertyOp10
 70
     1
102
RTVSPropertyOp11
 70
     1
102
RTVSPropertyOp12
 70
     1
102
RTVSPropertyOp13
 70
     1
102
RTVSPropertyOp14
 70
     1
102
RTVSPropertyOp15
 70
     1
102
RTVSPropertyOp16
 70
     1
102
RTVSPropertyOp17
 70
     1
102
RTVSPropertyOp18
 70
     1
102
RTVSPropertyOp19
 70
     1
102
RTVSPropertyOp20
 70
     1
102
RTVSPropertyOp21
 70
     1
102
RTVSPropertyOp22
 70
     1
102
RTVSPropertyOp23
 70
     1
102
RTVSPropertyOp24
 70
     1
102
RTVSPropertyOp25
 70
     1
102
RTVSPropertyOp26
 70
     1
102
RTVSPropertyOp27
 70
     1
  0
XRECORD
  5
5CE
102
{ACAD_REACTORS
330
5CD
102
}
330
5CD
100
AcDbXrecord
280
     1
102
RTVSPropertyOp0
 70
     1
102
RTVSPropertyOp1
 70
     1
102
RTVSPropertyOp2
 70
     1
102
RTVSPropertyOp3
 70
     1
102
RTVSPropertyOp4
 70
     1
102
RTVSPropertyOp5
 70
     1
102
RTVSPropertyOp6
 70
     1
102
RTVSPropertyOp7
 70
     1
102
RTVSPropertyOp8
 70
     1
102
RTVSPropertyOp9
 70
     1
102
RTVSPropertyOp10
 70
     1
102
RTVSPropertyOp11
 70
     1
102
RTVSPropertyOp12
 70
     1
102
RTVSPropertyOp13
 70
     1
102
RTVSPropertyOp14
 70
     1
102
RTVSPropertyOp15
 70
     1
102
RTVSPropertyOp16
 70
     1
102
RTVSPropertyOp17
 70
     1
102
RTVSPropertyOp18
 70
     1
102
RTVSPropertyOp19
 70
     1
102
RTVSPropertyOp20
 70
     1
102
RTVSPropertyOp21
 70
     1
102
RTVSPropertyOp22
 70
     1
102
RTVSPropertyOp23
 70
     1
102
RTVSPropertyOp24
 70
     1
102
RTVSPropertyOp25
 70
     1
102
RTVSPropertyOp26
 70
     1
102
RTVSPropertyOp27
 70
     1
  0
XRECORD
  5
5D2
102
{ACAD_REACTORS
330
5D1
102
}
330
5D1
100
AcDbXrecord
280
     1
102
RTVSPropertyOp0
 70
     1
102
RTVSPropertyOp1
 70
     1
102
RTVSPropertyOp2
 70
     1
102
RTVSPropertyOp3
 70
     1
102
RTVSPropertyOp4
 70
     1
102
RTVSPropertyOp5
 70
     1
102
RTVSPropertyOp6
 70
     1
102
RTVSPropertyOp7
 70
     1
102
RTVSPropertyOp8
 70
     1
102
RTVSPropertyOp9
 70
     1
102
RTVSPropertyOp10
 70
     1
102
RTVSPropertyOp11
 70
     1
102
RTVSPropertyOp12
 70
     1
102
RTVSPropertyOp13
 70
     1
102
RTVSPropertyOp14
 70
     1
102
RTVSPropertyOp15
 70
     1
102
RTVSPropertyOp16
 70
     1
102
RTVSPropertyOp17
 70
     1
102
RTVSPropertyOp18
 70
     1
102
RTVSPropertyOp19
 70
     1
102
RTVSPropertyOp20
 70
     1
102
RTVSPropertyOp21
 70
     1
102
RTVSPropertyOp22
 70
     1
102
RTVSPropertyOp23
 70
     1
102
RTVSPropertyOp24
 70
     1
102
RTVSPropertyOp25
 70
     1
102
RTVSPropertyOp26
 70
     1
102
RTVSPropertyOp27
 70
     1
  0
XRECORD
  5
5E2
102
{ACAD_REACTORS
330
5E1
102
}
330
5E1
100
AcDbXrecord
280
     1
102
RTVSPropertyOp0
 70
     0
102
RTVSPropertyOp1
 70
     0
102
RTVSPropertyOp2
 70
     0
102
RTVSPropertyOp3
 70
     0
102
RTVSPropertyOp4
 70
     0
102
RTVSPropertyOp5
 70
     0
102
RTVSPropertyOp6
 70
     0
102
RTVSPropertyOp7
 70
     0
102
RTVSPropertyOp8
 70
     0
102
RTVSPropertyOp9
 70
     0
102
RTVSPropertyOp10
 70
     0
102
RTVSPropertyOp11
 70
     0
102
RTVSPropertyOp12
 70
     0
102
RTVSPropertyOp13
 70
     0
102
RTVSPropertyOp14
 70
     2
102
RTVSPropertyOp15
 70
     0
102
RTVSPropertyOp16
 70
     0
102
RTVSPropertyOp17
 70
     0
102
RTVSPropertyOp18
 70
     0
102
RTVSPropertyOp19
 70
     0
102
RTVSPropertyOp20
 70
     0
102
RTVSPropertyOp21
 70
     0
102
RTVSPropertyOp22
 70
     0
102
RTVSPropertyOp23
 70
     0
102
RTVSPropertyOp24
 70
     0
102
RTVSPropertyOp25
 70
     0
102
RTVSPropertyOp26
 70
     0
102
RTVSPropertyOp27
 70
     0
  0
XRECORD
  5
5DA
102
{ACAD_REACTORS
330
5D9
102
}
330
5D9
100
AcDbXrecord
280
     1
102
RTVSPropertyOp0
 70
     1
102
RTVSPropertyOp1
 70
     1
102
RTVSPropertyOp2
 70
     1
102
RTVSPropertyOp3
 70
     1
102
RTVSPropertyOp4
 70
     1
102
RTVSPropertyOp5
 70
     1
102
RTVSPropertyOp6
 70
     1
102
RTVSPropertyOp7
 70
     1
102
RTVSPropertyOp8
 70
     1
102
RTVSPropertyOp9
 70
     1
102
RTVSPropertyOp10
 70
     1
102
RTVSPropertyOp11
 70
     1
102
RTVSPropertyOp12
 70
     1
102
RTVSPropertyOp13
 70
     1
102
RTVSPropertyOp14
 70
     1
102
RTVSPropertyOp15
 70
     1
102
RTVSPropertyOp16
 70
     1
102
RTVSPropertyOp17
 70
     1
102
RTVSPropertyOp18
 70
     1
102
RTVSPropertyOp19
 70
     1
102
RTVSPropertyOp20
 70
     1
102
RTVSPropertyOp21
 70
     1
102
RTVSPropertyOp22
 70
     1
102
RTVSPropertyOp23
 70
     1
102
RTVSPropertyOp24
 70
     1
102
RTVSPropertyOp25
 70
     1
102
RTVSPropertyOp26
 70
     1
102
RTVSPropertyOp27
 70
     1
  0
XRECORD
  5
5BE
102
{ACAD_REACTORS
330
5BD
102
}
330
5BD
100
AcDbXrecord
280
     1
102
RTVSPropertyOp0
 70
     1
102
RTVSPropertyOp1
 70
     1
102
RTVSPropertyOp2
 70
     1
102
RTVSPropertyOp3
 70
     1
102
RTVSPropertyOp4
 70
     1
102
RTVSPropertyOp5
 70
     1
102
RTVSPropertyOp6
 70
     1
102
RTVSPropertyOp7
 70
     1
102
RTVSPropertyOp8
 70
     1
102
RTVSPropertyOp9
 70
     1
102
RTVSPropertyOp10
 70
     1
102
RTVSPropertyOp11
 70
     1
102
RTVSPropertyOp12
 70
     1
102
RTVSPropertyOp13
 70
     1
102
RTVSPropertyOp14
 70
     1
102
RTVSPropertyOp15
 70
     1
102
RTVSPropertyOp16
 70
     1
102
RTVSPropertyOp17
 70
     1
102
RTVSPropertyOp18
 70
     1
102
RTVSPropertyOp19
 70
     1
102
RTVSPropertyOp20
 70
     1
102
RTVSPropertyOp21
 70
     1
102
RTVSPropertyOp22
 70
     1
102
RTVSPropertyOp23
 70
     1
102
RTVSPropertyOp24
 70
     1
102
RTVSPropertyOp25
 70
     1
102
RTVSPropertyOp26
 70
     1
102
RTVSPropertyOp27
 70
     1
  0
XRECORD
  5
5C0
102
{ACAD_REACTORS
330
5BF
102
}
330
5BF
100
AcDbXrecord
280
     1
102
RTVSPropertyOp0
 70
     1
102
RTVSPropertyOp1
 70
     1
102
RTVSPropertyOp2
 70
     1
102
RTVSPropertyOp3
 70
     1
102
RTVSPropertyOp4
 70
     1
102
RTVSPropertyOp5
 70
     1
102
RTVSPropertyOp6
 70
     1
102
RTVSPropertyOp7
 70
     1
102
RTVSPropertyOp8
 70
     1
102
RTVSPropertyOp9
 70
     1
102
RTVSPropertyOp10
 70
     1
102
RTVSPropertyOp11
 70
     1
102
RTVSPropertyOp12
 70
     1
102
RTVSPropertyOp13
 70
     1
102
RTVSPropertyOp14
 70
     1
102
RTVSPropertyOp15
 70
     1
102
RTVSPropertyOp16
 70
     1
102
RTVSPropertyOp17
 70
     1
102
RTVSPropertyOp18
 70
     1
102
RTVSPropertyOp19
 70
     1
102
RTVSPropertyOp20
 70
     1
102
RTVSPropertyOp21
 70
     1
102
RTVSPropertyOp22
 70
     1
102
RTVSPropertyOp23
 70
     1
102
RTVSPropertyOp24
 70
     1
102
RTVSPropertyOp25
 70
     1
102
RTVSPropertyOp26
 70
     1
102
RTVSPropertyOp27
 70
     1
  0
XRECORD
  5
5C2
102
{ACAD_REACTORS
330
5C1
102
}
330
5C1
100
AcDbXrecord
280
     1
102
RTVSPropertyOp0
 70
     1
102
RTVSPropertyOp1
 70
     1
102
RTVSPropertyOp2
 70
     1
102
RTVSPropertyOp3
 70
     1
102
RTVSPropertyOp4
 70
     1
102
RTVSPropertyOp5
 70
     1
102
RTVSPropertyOp6
 70
     1
102
RTVSPropertyOp7
 70
     1
102
RTVSPropertyOp8
 70
     1
102
RTVSPropertyOp9
 70
     1
102
RTVSPropertyOp10
 70
     1
102
RTVSPropertyOp11
 70
     1
102
RTVSPropertyOp12
 70
     1
102
RTVSPropertyOp13
 70
     1
102
RTVSPropertyOp14
 70
     1
102
RTVSPropertyOp15
 70
     1
102
RTVSPropertyOp16
 70
     1
102
RTVSPropertyOp17
 70
     1
102
RTVSPropertyOp18
 70
     1
102
RTVSPropertyOp19
 70
     1
102
RTVSPropertyOp20
 70
     1
102
RTVSPropertyOp21
 70
     1
102
RTVSPropertyOp22
 70
     1
102
RTVSPropertyOp23
 70
     1
102
RTVSPropertyOp24
 70
     1
102
RTVSPropertyOp25
 70
     1
102
RTVSPropertyOp26
 70
     1
102
RTVSPropertyOp27
 70
     1
  0
XRECORD
  5
5C4
102
{ACAD_REACTORS
330
5C3
102
}
330
5C3
100
AcDbXrecord
280
     1
102
RTVSPropertyOp0
 70
     1
102
RTVSPropertyOp1
 70
     1
102
RTVSPropertyOp2
 70
     1
102
RTVSPropertyOp3
 70
     1
102
RTVSPropertyOp4
 70
     1
102
RTVSPropertyOp5
 70
     1
102
RTVSPropertyOp6
 70
     1
102
RTVSPropertyOp7
 70
     1
102
RTVSPropertyOp8
 70
     1
102
RTVSPropertyOp9
 70
     1
102
RTVSPropertyOp10
 70
     1
102
RTVSPropertyOp11
 70
     1
102
RTVSPropertyOp12
 70
     1
102
RTVSPropertyOp13
 70
     1
102
RTVSPropertyOp14
 70
     1
102
RTVSPropertyOp15
 70
     1
102
RTVSPropertyOp16
 70
     1
102
RTVSPropertyOp17
 70
     1
102
RTVSPropertyOp18
 70
     1
102
RTVSPropertyOp19
 70
     1
102
RTVSPropertyOp20
 70
     1
102
RTVSPropertyOp21
 70
     1
102
RTVSPropertyOp22
 70
     1
102
RTVSPropertyOp23
 70
     1
102
RTVSPropertyOp24
 70
     1
102
RTVSPropertyOp25
 70
     1
102
RTVSPropertyOp26
 70
     1
102
RTVSPropertyOp27
 70
     1
  0
XRECORD
  5
5DE
102
{ACAD_REACTORS
330
5DD
102
}
330
5DD
100
AcDbXrecord
280
     1
102
RTVSPropertyOp0
 70
     0
102
RTVSPropertyOp1
 70
     0
102
RTVSPropertyOp2
 70
     0
102
RTVSPropertyOp3
 70
     0
102
RTVSPropertyOp4
 70
     0
102
RTVSPropertyOp5
 70
     0
102
RTVSPropertyOp6
 70
     0
102
RTVSPropertyOp7
 70
     0
102
RTVSPropertyOp8
 70
     0
102
RTVSPropertyOp9
 70
     0
102
RTVSPropertyOp10
 70
     0
102
RTVSPropertyOp11
 70
     0
102
RTVSPropertyOp12
 70
     0
102
RTVSPropertyOp13
 70
     0
102
RTVSPropertyOp14
 70
     2
102
RTVSPropertyOp15
 70
     0
102
RTVSPropertyOp16
 70
     0
102
RTVSPropertyOp17
 70
     0
102
RTVSPropertyOp18
 70
     0
102
RTVSPropertyOp19
 70
     0
102
RTVSPropertyOp20
 70
     0
102
RTVSPropertyOp21
 70
     0
102
RTVSPropertyOp22
 70
     0
102
RTVSPropertyOp23
 70
     0
102
RTVSPropertyOp24
 70
     0
102
RTVSPropertyOp25
 70
     0
102
RTVSPropertyOp26
 70
     0
102
RTVSPropertyOp27
 70
     0
  0
XRECORD
  5
5D8
102
{ACAD_REACTORS
330
5D7
102
}
330
5D7
100
AcDbXrecord
280
     1
102
RTVSPropertyOp0
 70
     1
102
RTVSPropertyOp1
 70
     1
102
RTVSPropertyOp2
 70
     1
102
RTVSPropertyOp3
 70
     1
102
RTVSPropertyOp4
 70
     1
102
RTVSPropertyOp5
 70
     1
102
RTVSPropertyOp6
 70
     1
102
RTVSPropertyOp7
 70
     1
102
RTVSPropertyOp8
 70
     1
102
RTVSPropertyOp9
 70
     1
102
RTVSPropertyOp10
 70
     1
102
RTVSPropertyOp11
 70
     1
102
RTVSPropertyOp12
 70
     1
102
RTVSPropertyOp13
 70
     1
102
RTVSPropertyOp14
 70
     1
102
RTVSPropertyOp15
 70
     1
102
RTVSPropertyOp16
 70
     1
102
RTVSPropertyOp17
 70
     1
102
RTVSPropertyOp18
 70
     1
102
RTVSPropertyOp19
 70
     1
102
RTVSPropertyOp20
 70
     1
102
RTVSPropertyOp21
 70
     1
102
RTVSPropertyOp22
 70
     1
102
RTVSPropertyOp23
 70
     1
102
RTVSPropertyOp24
 70
     1
102
RTVSPropertyOp25
 70
     1
102
RTVSPropertyOp26
 70
     1
102
RTVSPropertyOp27
 70
     1
  0
XRECORD
  5
5E0
102
{ACAD_REACTORS
330
5DF
102
}
330
5DF
100
AcDbXrecord
280
     1
102
RTVSPropertyOp0
 70
     0
102
RTVSPropertyOp1
 70
     0
102
RTVSPropertyOp2
 70
     0
102
RTVSPropertyOp3
 70
     0
102
RTVSPropertyOp4
 70
     0
102
RTVSPropertyOp5
 70
     0
102
RTVSPropertyOp6
 70
     0
102
RTVSPropertyOp7
 70
     0
102
RTVSPropertyOp8
 70
     0
102
RTVSPropertyOp9
 70
     0
102
RTVSPropertyOp10
 70
     0
102
RTVSPropertyOp11
 70
     0
102
RTVSPropertyOp12
 70
     0
102
RTVSPropertyOp13
 70
     0
102
RTVSPropertyOp14
 70
     2
102
RTVSPropertyOp15
 70
     0
102
RTVSPropertyOp16
 70
     0
102
RTVSPropertyOp17
 70
     0
102
RTVSPropertyOp18
 70
     0
102
RTVSPropertyOp19
 70
     0
102
RTVSPropertyOp20
 70
     0
102
RTVSPropertyOp21
 70
     0
102
RTVSPropertyOp22
 70
     0
102
RTVSPropertyOp23
 70
     0
102
RTVSPropertyOp24
 70
     0
102
RTVSPropertyOp25
 70
     0
102
RTVSPropertyOp26
 70
     0
102
RTVSPropertyOp27
 70
     0
  0
XRECORD
  5
5D0
102
{ACAD_REACTORS
330
5CF
102
}
330
5CF
100
AcDbXrecord
280
     1
102
RTVSPropertyOp0
 70
     1
102
RTVSPropertyOp1
 70
     1
102
RTVSPropertyOp2
 70
     1
102
RTVSPropertyOp3
 70
     1
102
RTVSPropertyOp4
 70
     1
102
RTVSPropertyOp5
 70
     1
102
RTVSPropertyOp6
 70
     1
102
RTVSPropertyOp7
 70
     1
102
RTVSPropertyOp8
 70
     1
102
RTVSPropertyOp9
 70
     1
102
RTVSPropertyOp10
 70
     1
102
RTVSPropertyOp11
 70
     1
102
RTVSPropertyOp12
 70
     1
102
RTVSPropertyOp13
 70
     1
102
RTVSPropertyOp14
 70
     1
102
RTVSPropertyOp15
 70
     1
102
RTVSPropertyOp16
 70
     1
102
RTVSPropertyOp17
 70
     1
102
RTVSPropertyOp18
 70
     1
102
RTVSPropertyOp19
 70
     1
102
RTVSPropertyOp20
 70
     1
102
RTVSPropertyOp21
 70
     1
102
RTVSPropertyOp22
 70
     1
102
RTVSPropertyOp23
 70
     1
102
RTVSPropertyOp24
 70
     1
102
RTVSPropertyOp25
 70
     1
102
RTVSPropertyOp26
 70
     1
102
RTVSPropertyOp27
 70
     1
  0
XRECORD
  5
5D6
102
{ACAD_REACTORS
330
5D5
102
}
330
5D5
100
AcDbXrecord
280
     1
102
RTVSPropertyOp0
 70
     1
102
RTVSPropertyOp1
 70
     1
102
RTVSPropertyOp2
 70
     1
102
RTVSPropertyOp3
 70
     1
102
RTVSPropertyOp4
 70
     1
102
RTVSPropertyOp5
 70
     1
102
RTVSPropertyOp6
 70
     1
102
RTVSPropertyOp7
 70
     1
102
RTVSPropertyOp8
 70
     1
102
RTVSPropertyOp9
 70
     1
102
RTVSPropertyOp10
 70
     1
102
RTVSPropertyOp11
 70
     1
102
RTVSPropertyOp12
 70
     1
102
RTVSPropertyOp13
 70
     1
102
RTVSPropertyOp14
 70
     1
102
RTVSPropertyOp15
 70
     1
102
RTVSPropertyOp16
 70
     1
102
RTVSPropertyOp17
 70
     1
102
RTVSPropertyOp18
 70
     1
102
RTVSPropertyOp19
 70
     1
102
RTVSPropertyOp20
 70
     1
102
RTVSPropertyOp21
 70
     1
102
RTVSPropertyOp22
 70
     1
102
RTVSPropertyOp23
 70
     1
102
RTVSPropertyOp24
 70
     1
102
RTVSPropertyOp25
 70
     1
102
RTVSPropertyOp26
 70
     1
102
RTVSPropertyOp27
 70
     1
  0
ENDSEC
  0
EOF
