  0
SECTION
  2
HEADER
  9
$ACADVER
  1
AC1015
  9
$ACADMAINTVER
 70
    20
  9
$DWGCODEPAGE
  3
ANSI_1252
  9
$INSBASE
 10
0.0
 20
0.0
 30
0.0
  9
$EXTMIN
 10
375.9711793535053
 20
298.2690910504539
 30
-0.0015258207003583
  9
$EXTMAX
 10
764.1342490999191
 20
552.034578037721
 30
0.0000000349246037
  9
$LIMMIN
 10
0.0
 20
0.0
  9
$LIMMAX
 10
1189.0
 20
841.0
  9
$ORTHOMODE
 70
     0
  9
$REGENMODE
 70
     1
  9
$FILLMODE
 70
     1
  9
$QTEXTMODE
 70
     0
  9
$MIRRTEXT
 70
     0
  9
$LTSCALE
 40
65.395
  9
$ATTMODE
 70
     1
  9
$TEXTSIZE
 40
0.2
  9
$TRACEWID
 40
0.05
  9
$TEXTSTYLE
  7
STANDARD
  9
$CLAYER
  8
0
  9
$CELTYPE
  6
BYLAYER
  9
$CECOLOR
 62
   256
  9
$CELTSCALE
 40
1.0
  9
$DISPSILH
 70
     0
  9
$DIMSCALE
 40
1.0
  9
$DIMASZ
 40
3.5
  9
$DIMEXO
 40
7.43125
  9
$DIMDLI
 40
45.18199999999999
  9
$DIMRND
 40
0.0
  9
$DIMDLE
 40
0.0
  9
$DIMEXE
 40
21.402
  9
$DIMTP
 40
0.005
  9
$DIMTM
 40
0.005
  9
$DIMTXT
 40
3.5
  9
$DIMCEN
 40
10.701
  9
$DIMTSZ
 40
0.0
  9
$DIMTOL
 70
     1
  9
$DIMLIM
 70
     0
  9
$DIMTIH
 70
     1
  9
$DIMTOH
 70
     1
  9
$DIMSE1
 70
     0
  9
$DIMSE2
 70
     0
  9
$DIMTAD
 70
     0
  9
$DIMZIN
 70
     0
  9
$DIMBLK
  1
_FILLED
  9
$DIMASO
 70
     1
  9
$DIMSHO
 70
     1
  9
$DIMPOST
  1

  9
$DIMAPOST
  1

  9
$DIMALT
 70
     0
  9
$DIMALTD
 70
     2
  9
$DIMALTF
 40
25.4
  9
$DIMLFAC
 40
1.0
  9
$DIMTOFL
 70
     0
  9
$DIMTVP
 40
0.0
  9
$DIMTIX
 70
     0
  9
$DIMSOXD
 70
     0
  9
$DIMSAH
 70
     0
  9
$DIMBLK1
  1

  9
$DIMBLK2
  1

  9
$DIMSTYLE
  2
STANDARD
  9
$DIMCLRD
 70
     0
  9
$DIMCLRE
 70
     0
  9
$DIMCLRT
 70
     0
  9
$DIMTFAC
 40
1.0
  9
$DIMGAP
 40
0.09
  9
$DIMJUST
 70
     0
  9
$DIMSD1
 70
     0
  9
$DIMSD2
 70
     0
  9
$DIMTOLJ
 70
     1
  9
$DIMTZIN
 70
     0
  9
$DIMALTZ
 70
     0
  9
$DIMALTTZ
 70
     0
  9
$DIMUPT
 70
     0
  9
$DIMDEC
 70
     4
  9
$DIMTDEC
 70
     4
  9
$DIMALTU
 70
     2
  9
$DIMALTTD
 70
     2
  9
$DIMTXSTY
  7
STANDARD
  9
$DIMAUNIT
 70
     0
  9
$DIMADEC
 70
     0
  9
$DIMALTRND
 40
0.0
  9
$DIMAZIN
 70
     0
  9
$DIMDSEP
 70
    46
  9
$DIMATFIT
 70
     3
  9
$DIMFRAC
 70
     0
  9
$DIMLDRBLK
  1

  9
$DIMLUNIT
 70
     2
  9
$DIMLWD
 70
    -2
  9
$DIMLWE
 70
    -2
  9
$DIMTMOVE
 70
     0
  9
$LUNITS
 70
     2
  9
$LUPREC
 70
     2
  9
$SKETCHINC
 40
0.1
  9
$FILLETRAD
 40
0.0
  9
$AUNITS
 70
     0
  9
$AUPREC
 70
     0
  9
$MENU
  1
.
  9
$ELEVATION
 40
0.0
  9
$PELEVATION
 40
0.0
  9
$THICKNESS
 40
0.0
  9
$LIMCHECK
 70
     0
  9
$CHAMFERA
 40
0.0
  9
$CHAMFERB
 40
0.0
  9
$CHAMFERC
 40
0.0
  9
$CHAMFERD
 40
0.0
  9
$SKPOLY
 70
     0
  9
$TDCREATE
 40
2456324.647597755
  9
$TDUCREATE
 40
2456324.605931088
  9
$TDUPDATE
 40
2456324.648908160
  9
$TDUUPDATE
 40
2456324.607241493
  9
$TDINDWG
 40
0.0013109491
  9
$TDUSRTIMER
 40
0.0013109491
  9
$USRTIMER
 70
     1
  9
$ANGBASE
 50
0.0
  9
$ANGDIR
 70
     0
  9
$PDMODE
 70
     3
  9
$PDSIZE
 40
0.3125
  9
$PLINEWID
 40
0.0
  9
$SPLFRAME
 70
     0
  9
$SPLINETYPE
 70
     6
  9
$SPLINESEGS
 70
     8
  9
$HANDSEED
  5
5A9
  9
$SURFTAB1
 70
     6
  9
$SURFTAB2
 70
     6
  9
$SURFTYPE
 70
     6
  9
$SURFU
 70
     6
  9
$SURFV
 70
     6
  9
$UCSBASE
  2

  9
$UCSNAME
  2

  9
$UCSORG
 10
0.0
 20
0.0
 30
0.0
  9
$UCSXDIR
 10
1.0
 20
0.0
 30
0.0
  9
$UCSYDIR
 10
0.0
 20
1.0
 30
0.0
  9
$UCSORTHOREF
  2

  9
$UCSORTHOVIEW
 70
     0
  9
$UCSORGTOP
 10
0.0
 20
0.0
 30
0.0
  9
$UCSORGBOTTOM
 10
0.0
 20
0.0
 30
0.0
  9
$UCSORGLEFT
 10
0.0
 20
0.0
 30
0.0
  9
$UCSORGRIGHT
 10
0.0
 20
0.0
 30
0.0
  9
$UCSORGFRONT
 10
0.0
 20
0.0
 30
0.0
  9
$UCSORGBACK
 10
0.0
 20
0.0
 30
0.0
  9
$PUCSBASE
  2

  9
$PUCSNAME
  2

  9
$PUCSORG
 10
0.0
 20
0.0
 30
0.0
  9
$PUCSXDIR
 10
1.0
 20
0.0
 30
0.0
  9
$PUCSYDIR
 10
0.0
 20
1.0
 30
0.0
  9
$PUCSORTHOREF
  2

  9
$PUCSORTHOVIEW
 70
     0
  9
$PUCSORGTOP
 10
0.0
 20
0.0
 30
0.0
  9
$PUCSORGBOTTOM
 10
0.0
 20
0.0
 30
0.0
  9
$PUCSORGLEFT
 10
0.0
 20
0.0
 30
0.0
  9
$PUCSORGRIGHT
 10
0.0
 20
0.0
 30
0.0
  9
$PUCSORGFRONT
 10
0.0
 20
0.0
 30
0.0
  9
$PUCSORGBACK
 10
0.0
 20
0.0
 30
0.0
  9
$USERI1
 70
     0
  9
$USERI2
 70
     0
  9
$USERI3
 70
     0
  9
$USERI4
 70
     0
  9
$USERI5
 70
     0
  9
$USERR1
 40
0.0
  9
$USERR2
 40
0.0
  9
$USERR3
 40
0.0
  9
$USERR4
 40
0.0
  9
$USERR5
 40
0.0
  9
$WORLDVIEW
 70
     1
  9
$SHADEDGE
 70
     3
  9
$SHADEDIF
 70
    70
  9
$TILEMODE
 70
     1
  9
$MAXACTVP
 70
    64
  9
$PINSBASE
 10
0.0
 20
0.0
 30
0.0
  9
$PLIMCHECK
 70
     0
  9
$PEXTMIN
 10
1.000000000000000E+20
 20
1.000000000000000E+20
 30
1.000000000000000E+20
  9
$PEXTMAX
 10
-1.000000000000000E+20
 20
-1.000000000000000E+20
 30
-1.000000000000000E+20
  9
$PLIMMIN
 10
0.0
 20
0.0
  9
$PLIMMAX
 10
12.0
 20
9.0
  9
$UNITMODE
 70
     0
  9
$VISRETAIN
 70
     1
  9
$PLINEGEN
 70
     0
  9
$PSLTSCALE
 70
     1
  9
$TREEDEPTH
 70
  3020
  9
$CMLSTYLE
  2
Standard
  9
$CMLJUST
 70
     0
  9
$CMLSCALE
 40
1.0
  9
$PROXYGRAPHICS
 70
     1
  9
$MEASUREMENT
 70
     1
  9
$CELWEIGHT
370
    -1
  9
$ENDCAPS
280
     0
  9
$JOINSTYLE
280
     0
  9
$LWDISPLAY
290
     0
  9
$INSUNITS
 70
     4
  9
$HYPERLINKBASE
  1

  9
$STYLESHEET
  1

  9
$XEDIT
290
     1
  9
$CEPSNTYPE
380
     0
  9
$PSTYLEMODE
290
     1
  9
$FINGERPRINTGUID
  2
{B8A75A09-13D0-4116-A86D-FC8CF02D22AB}
  9
$VERSIONGUID
  2
{38011A58-CB0B-41DE-8ED8-0387CC18B987}
  9
$EXTNAMES
290
     1
  9
$PSVPSCALE
 40
0.0
  9
$OLESTARTUP
290
     0
  0
ENDSEC
  0
SECTION
  2
CLASSES
  0
CLASS
  1
ACDBDICTIONARYWDFLT
  2
AcDbDictionaryWithDefault
  3
ObjectDBX Classes
 90
        0
280
     0
281
     0
  0
CLASS
  1
ACDBPLACEHOLDER
  2
AcDbPlaceHolder
  3
ObjectDBX Classes
 90
        0
280
     0
281
     0
  0
CLASS
  1
LAYOUT
  2
AcDbLayout
  3
ObjectDBX Classes
 90
        0
280
     0
281
     0
  0
CLASS
  1
MATERIAL
  2
AcDbMaterial
  3
ObjectDBX Classes
 90
     1153
280
     0
281
     0
  0
CLASS
  1
VISUALSTYLE
  2
AcDbVisualStyle
  3
ObjectDBX Classes
 90
     4095
280
     0
281
     0
  0
CLASS
  1
TABLESTYLE
  2
AcDbTableStyle
  3
ObjectDBX Classes
 90
     4095
280
     0
281
     0
  0
CLASS
  1
SCALE
  2
AcDbScale
  3
ObjectDBX Classes
 90
     1153
280
     0
281
     0
  0
CLASS
  1
MLEADERSTYLE
  2
AcDbMLeaderStyle
  3
ACDB_MLEADERSTYLE_CLASS
 90
     4095
280
     0
281
     0
  0
CLASS
  1
AMGSETTINGSOBJ
  2
AmgSettingsObj
  3
"AcadM|Product Description: AutoCAD Mechanical|Company: Autodesk, Inc."
 90
     1024
280
     0
281
     0
  0
CLASS
  1
ACME_DOCUMENT
  2
AcMeDbDoc
  3
AcMeServices
 90
     1024
280
     0
281
     0
  0
CLASS
  1
ACMESCOPE
  2
AcMeScope
  3
AcMeServices
 90
     1024
280
     0
281
     0
  0
CLASS
  1
ACMECOMMANDHISTORY
  2
AcMeCommandHistory
  3
AcMeServices
 90
     1024
280
     0
281
     0
  0
CLASS
  1
ACIMSYSVARMAN
  2
AcImSysVarManager
  3
AcMeServices
 90
     1024
280
     0
281
     0
  0
CLASS
  1
ACIMINTSYSVAR
  2
AcImIntSysVar
  3
AcMeServices
 90
     1024
280
     0
281
     0
  0
CLASS
  1
ACMEDRAWINGMAN
  2
AcMeDrawingMan
  3
AcMeServices
 90
     1024
280
     0
281
     0
  0
CLASS
  1
ACMEVIEW
  2
AcMeView
  3
AcMeServices
 90
     1024
280
     0
281
     0
  0
CLASS
  1
ACDBENTITYCACHE
  2
AcMeEntityCache
  3
AcMeServices
 90
     1024
280
     0
281
     0
  0
CLASS
  1
ACMESTATEMGR
  2
AcMeStateMgr
  3
AcMeServices
 90
     1024
280
     0
281
     0
  0
CLASS
  1
ACGREFMASTER
  2
AcGrefMaster
  3
AcAttribServices
 90
     1024
280
     0
281
     0
  0
CLASS
  1
AM_DRAWING_MGR
  2
AcDmDwgMgr
  3
AcMechDwgViewMgmt
 90
     1024
280
     0
281
     0
  0
CLASS
  1
AM_DWG_DOCUMENT
  2
AcDmDwgDocument
  3
AcMechDwgViewMgmt
 90
     1024
280
     0
281
     0
  0
CLASS
  1
AM_DWG_SHEET
  2
AcDmSheet
  3
AcMechDwgViewMgmt
 90
     1024
280
     0
281
     0
  0
CLASS
  1
AM_VIEWDIMPARMAP
  2
AcDmViewDimParMap
  3
AcMechDwgViewMgmt
 90
     1024
280
     0
281
     0
  0
CLASS
  1
AMDTINTERNALREACTOR
  2
AmdtInternalReactor
  3
AcMeServices
 90
     1024
280
     0
281
     0
  0
CLASS
  1
ACIMREALSYSVAR
  2
AcImRealSysVar
  3
AcMeServices
 90
     1024
280
     0
281
     0
  0
CLASS
  1
AM_DWGMGR_NAME
  2
AcDmDwgMgrName
  3
AcMechDwgViewMgmt
 90
     1024
280
     0
281
     0
  0
CLASS
  1
ACME_DATABASE
  2
AcMeDbDatabase
  3
AcMeServices
 90
     1024
280
     0
281
     0
  0
CLASS
  1
ACRFINSADJUSTERMGR
  2
AcRfInsAdjusterMgr
  3
AcMeServices
 90
     1024
280
     0
281
     0
  0
CLASS
  1
ACGREFACADMASTER
  2
AcGrefacadMaster
  3
AcGrefServices
 90
     1024
280
     0
281
     0
  0
CLASS
  1
AMDTMENUSTATEMGR
  2
AmdtMenuStateMgr
  3
McadcomServices
 90
     1024
280
     0
281
     0
  0
CLASS
  1
AMDTMCOMMENUSTATE
  2
AmdtMcomMenuState
  3
McadcomServices
 90
     1024
280
     0
281
     0
  0
CLASS
  1
AMIMASTER
  2
AmiMaster
  3
AmiServices
 90
     1024
280
     0
281
     0
  0
CLASS
  1
MAPIAMMOUDLE
  2
MApiAmModule
  3
MApiAmServices
 90
     1024
280
     0
281
     0
  0
CLASS
  1
ACIMSTRSYSVAR
  2
AcImStrSysVar
  3
AcMeServices
 90
     1024
280
     0
281
     0
  0
CLASS
  1
AMDTADMENUSTATE
  2
AmdtAdMenuState
  3
DesignerServices
 90
     1024
280
     0
281
     0
  0
CLASS
  1
ADAPPL
  2
AcAdAppl
  3
DesignerServices
 90
     1024
280
     0
281
     0
  0
CLASS
  1
DEPMGR
  2
AcAdDepMgr
  3
DesignerServices
 90
     1024
280
     0
281
     0
  0
CLASS
  1
PARAMMGR
  2
AcAdParamMgr
  3
DesignerServices
 90
     1024
280
     0
281
     0
  0
CLASS
  1
PARAMSCOPE
  2
AcAdParamScope
  3
DesignerServices
 90
     1024
280
     0
281
     0
  0
CLASS
  1
NAMEDAPPL
  2
AcAdNamedAppl
  3
DesignerServices
 90
     1024
280
     0
281
     0
  0
CLASS
  1
AMDTDMMENUSTATE
  2
AmdtDmMenuState
  3
AcMechDwgViewMgmt
 90
     1024
280
     0
281
     0
  0
CLASS
  1
AMDTAMMENUSTATE
  2
AmdtAmMenuState
  3
DesignerAssemblies
 90
     1024
280
     0
281
     0
  0
CLASS
  1
ACAMPROJECT
  2
AcAmProject
  3
DesignerAssemblies
 90
     1024
280
     0
281
     0
  0
CLASS
  1
ACAMGRCOMPDEF
  2
AcAmGrCompDef
  3
DesignerAssemblies
 90
     1024
280
     0
281
     0
  0
CLASS
  1
ACAMCOMPDEF
  2
AcAmCompDef
  3
DesignerAssemblies
 90
     1024
280
     0
281
     0
  0
CLASS
  1
ACAMCOMPDEFMGR
  2
AcAmCompDefMgr
  3
DesignerAssemblies
 90
     1024
280
     0
281
     0
  0
CLASS
  1
AMCONTEXTMGR
  2
AcAmContextMgr
  3
DesignerAssemblies
 90
     1024
280
     0
281
     0
  0
CLASS
  1
ACAMCONTEXTMODELER
  2
AcAmContextModeler
  3
DesignerAssemblies
 90
     1024
280
     0
281
     0
  0
CLASS
  1
ACMDATADICTIONARY
  2
AcmDataDictionary
  3
"AcmSymBB|Product Description: AutoCAD Mechanical|Company: Autodesk, Inc."
 90
     1024
280
     0
281
     0
  0
CLASS
  1
CATALOGSTATE
  2
AcAmCatalogState
  3
DesignerAssemblies
 90
     1024
280
     0
281
     0
  0
CLASS
  1
ACAMGRCOMPDEFSET
  2
AcAmGrCompDefSet
  3
DesignerAssemblies
 90
     1024
280
     0
281
     0
  0
CLASS
  1
AMDTBROWSERDBTAB
  2
AmdtBrowserDbTab
  3
McadcomServices
 90
     1024
280
     0
281
     0
  0
CLASS
  1
CBROWSERAPPOBJECT
  2
CBrowserAppObject
  3
McadcomServices
 90
     1024
280
     0
281
     0
  0
CLASS
  1
DM_PLACEHOLDER
  2
AcDmSelsetPlaceholder
  3
AcMechDwgViewMgmt
 90
     1024
280
     0
281
     0
  0
CLASS
  1
ACMSTANDARDDIN
  2
AcmStandardDIN
  3
"Amdt_StdImp|Product Description: AutoCAD Mechanical|Company: Autodesk, Inc."
 90
     1024
280
     0
281
     0
  0
CLASS
  1
AMDTEDGESTANDARDDIN13715
  2
AmdtEdgeStdDIN13715
  3
"Amdt_StdImp|Product Description: AutoCAD Mechanical|Company: Autodesk, Inc."
 90
     1024
280
     0
281
     0
  0
CLASS
  1
ACMSURFSTANDARDDIN2002
  2
AcmSurfTextStdDIN2002
  3
"Amdt_StdImp|Product Description: AutoCAD Mechanical|Company: Autodesk, Inc."
 90
     1024
280
     0
281
     0
  0
CLASS
  1
ACMFCFSTANDARDDIN
  2
AcmFCFStdDIN
  3
"Amdt_StdImp|Product Description: AutoCAD Mechanical|Company: Autodesk, Inc."
 90
     1024
280
     0
281
     0
  0
CLASS
  1
ACMWELDSTANDARDDIN
  2
AcmWeldingStdDIN
  3
"Amdt_StdImp|Product Description: AutoCAD Mechanical|Company: Autodesk, Inc."
 90
     1024
280
     0
281
     0
  0
CLASS
  1
ACMIDSTANDARDDIN
  2
AcmIdStdDIN
  3
"Amdt_StdImp|Product Description: AutoCAD Mechanical|Company: Autodesk, Inc."
 90
     1024
280
     0
281
     0
  0
CLASS
  1
ACMDATUMSTANDARDDIN
  2
AcmDatumStdDIN
  3
"Amdt_StdImp|Product Description: AutoCAD Mechanical|Company: Autodesk, Inc."
 90
     1024
280
     0
281
     0
  0
CLASS
  1
ACMBOMSTANDARDDIN
  2
AcmBOMStdDIN
  3
"Amdt_StdImp|Product Description: AutoCAD Mechanical|Company: Autodesk, Inc."
 90
     1024
280
     0
281
     0
  0
CLASS
  1
ACMDETAILSTANDARDDIN
  2
AmdtDetailSymStdDIN
  3
"Amdt_StdImp|Product Description: AutoCAD Mechanical|Company: Autodesk, Inc."
 90
     1024
280
     0
281
     0
  0
CLASS
  1
ACMSECTIONSTANDARDDIN
  2
AmdtSectionSymStdDIN
  3
"Amdt_StdImp|Product Description: AutoCAD Mechanical|Company: Autodesk, Inc."
 90
     1024
280
     0
281
     0
  0
CLASS
  1
ACMCENTERLINESTANDARDDIN
  2
AmdtCenterLineStdDIN
  3
"Amdt_StdImp|Product Description: AutoCAD Mechanical|Company: Autodesk, Inc."
 90
     1024
280
     0
281
     0
  0
CLASS
  1
ACMTHREADLINESTANDARDDIN
  2
AmdtThreadLineStdDIN
  3
"Amdt_StdImp|Product Description: AutoCAD Mechanical|Company: Autodesk, Inc."
 90
     1024
280
     0
281
     0
  0
CLASS
  1
ACMNOTESTANDARDDIN
  2
AmdtNoteStdDIN
  3
"Amdt_StdImp|Product Description: AutoCAD Mechanical|Company: Autodesk, Inc."
 90
     1024
280
     0
281
     0
  0
CLASS
  1
ACMTAPERSTANDARDDIN
  2
AcmTaperStdDIN
  3
"Amdt_StdImp|Product Description: AutoCAD Mechanical|Company: Autodesk, Inc."
 90
     1024
280
     0
281
     0
  0
CLASS
  1
ACMANOOTATIONVIEWSTANDARDDIN
  2
AmdtAnViewStdDIN
  3
"Amdt_StdImp|Product Description: AutoCAD Mechanical|Company: Autodesk, Inc."
 90
     1024
280
     0
281
     0
  0
CLASS
  1
ACAMGLAYSTD
  2
AcAmgLayStd
  3
"AmgLay|Product Description: AutoCAD Mechanical|Company: Autodesk, Inc."
 90
     1024
280
     0
281
     0
  0
CLASS
  1
ACAMGDIMSTD
  2
AcAmgDimStd
  3
"AmgDim|Product Description: AutoCAD Mechanical|Company: Autodesk, Inc."
 90
     1024
280
     0
281
     0
  0
CLASS
  1
AMGOBJPROPCFG
  2
AmgObjPropCfg
  3
"AmgLay|Product Description: AutoCAD Mechanical|Company: Autodesk, Inc."
 90
     1025
280
     0
281
     0
  0
CLASS
  1
ACAMGHOLECHARTSTDDIN
  2
AcAmgHoleChartStdDIN
  3
AmgDim|Product Description: AutoCAD Mechanical|Company: Autodesk, Inc.
 90
     1024
280
     0
281
     0
  0
CLASS
  1
ACAMGTITLESTD
  2
AcAmgTitleStd
  3
"AmgTitle|Product Description: AutoCAD Mechanical|Company: Autodesk, Inc."
 90
     4095
280
     0
281
     0
  0
CLASS
  1
AMDTNOTETEMPLATEDB
  2
AmdtNoteTemplateDB
  3
AcmSymBB|Product Description: AutoCAD Mechanical|Company: Autodesk, Inc.
 90
     1024
280
     0
281
     0
  0
CLASS
  1
ACAMGFILTERDAT
  2
AcAmgFilterDat
  3
"AcadM|Product Description: AutoCAD Mechanical|Company: Autodesk, Inc."
 90
     1024
280
     0
281
     0
  0
CLASS
  1
DICTIONARYVAR
  2
AcDbDictionaryVar
  3
ObjectDBX Classes
 90
        0
280
     0
281
     0
  0
CLASS
  1
CELLSTYLEMAP
  2
AcDbCellStyleMap
  3
ObjectDBX Classes
 90
     1152
280
     0
281
     0
  0
ENDSEC
  0
SECTION
  2
TABLES
  0
TABLE
  2
VPORT
  5
8
330
0
100
AcDbSymbolTable
 70
     1
  0
VPORT
  5
1F4
330
8
100
AcDbSymbolTableRecord
100
AcDbViewportTableRecord
  2
*ACTIVE
 70
     0
 10
0.0
 20
0.0
 11
1.0
 21
1.0
 12
570.0527142267121
 22
425.1518345440874
 13
0.0
 23
0.0
 14
1.0
 24
1.0
 15
0.0
 25
0.0
 16
0.0
 26
0.0
 36
1.0
 17
0.0
 27
0.0
 37
0.0
 40
255.5588826550218
 41
1.850235849056603
 42
50.0
 43
0.0
 44
0.0
 50
0.0
 51
0.0
 71
     0
 72
   100
 73
     1
 74
     1
 75
     0
 76
     0
 77
     0
 78
     0
281
     0
 65
     0
110
0.0
120
0.0
130
0.0
111
1.0
121
0.0
131
0.0
112
0.0
122
1.0
132
0.0
 79
     0
146
0.0
  0
ENDTAB
  0
TABLE
  2
LTYPE
  5
5
330
0
100
AcDbSymbolTable
 70
    23
  0
LTYPE
  5
14
330
5
100
AcDbSymbolTableRecord
100
AcDbLinetypeTableRecord
  2
BYBLOCK
 70
     0
  3

 72
    65
 73
     0
 40
0.0
  0
LTYPE
  5
15
330
5
100
AcDbSymbolTableRecord
100
AcDbLinetypeTableRecord
  2
BYLAYER
 70
     0
  3

 72
    65
 73
     0
 40
0.0
  0
LTYPE
  5
16
330
5
100
AcDbSymbolTableRecord
100
AcDbLinetypeTableRecord
  2
CONTINUOUS
 70
     0
  3
Solid line
 72
    65
 73
     0
 40
0.0
  0
LTYPE
  5
1F5
330
5
100
AcDbSymbolTableRecord
100
AcDbLinetypeTableRecord
  2
CENTER
 70
     0
  3
____ _ ____ _ ____ _ ____ _ ____ _ ____ _ ____
 72
    65
 73
     4
 40
0.6
 49
0.375
 74
     0
 49
-0.075
 74
     0
 49
0.075
 74
     0
 49
-0.075
 74
     0
  0
LTYPE
  5
1F6
330
5
100
AcDbSymbolTableRecord
100
AcDbLinetypeTableRecord
  2
HIDDEN
 70
     0
  3
- - - - - - - - - - - - - - - - - - - -
 72
    65
 73
     2
 40
0.2
 49
0.1
 74
     0
 49
-0.1
 74
     0
  0
LTYPE
  5
1F7
330
5
100
AcDbSymbolTableRecord
100
AcDbLinetypeTableRecord
  2
PHANTOM
 70
     0
  3
_____ _ _ _____ _ _ _____ _ _ _____
 72
    65
 73
     6
 40
0.8
 49
0.45
 74
     0
 49
-0.05
 74
     0
 49
0.1
 74
     0
 49
-0.05
 74
     0
 49
0.1
 74
     0
 49
-0.05
 74
     0
  0
LTYPE
  5
1F8
330
5
100
AcDbSymbolTableRecord
100
AcDbLinetypeTableRecord
  2
DOT
 70
     0
  3
. . . . . . . . . . . . . . . . . . . .
 72
    65
 73
     2
 40
0.2
 49
0.1
 74
     0
 49
-0.1
 74
     0
  0
LTYPE
  5
1F9
330
5
100
AcDbSymbolTableRecord
100
AcDbLinetypeTableRecord
  2
DASHED
 70
     0
  3
- - - - - - - - - - - - - - - - - - - -
 72
    65
 73
     2
 40
0.2
 49
0.1
 74
     0
 49
-0.1
 74
     0
  0
LTYPE
  5
43E
330
5
100
AcDbSymbolTableRecord
100
AcDbLinetypeTableRecord
  2
PHANTOM2
 70
     0
  3
Phantom (.5x) ___ _ _ ___ _ _ ___ _ _ ___ _ _
 72
    65
 73
     6
 40
31.75
 49
15.875
 74
     0
 49
-3.174999999999999
 74
     0
 49
3.174999999999999
 74
     0
 49
-3.174999999999999
 74
     0
 49
3.174999999999999
 74
     0
 49
-3.174999999999999
 74
     0
  0
LTYPE
  5
484
330
5
100
AcDbSymbolTableRecord
100
AcDbLinetypeTableRecord
  2
AM_ISO02W050
 70
     0
  3
__ __ __ __ __ __ __ __ __ __ __ __ __ __ __
 72
    65
 73
     2
 40
7.5
 49
6.0
 74
     0
 49
-1.5
 74
     0
  0
LTYPE
  5
485
330
5
100
AcDbSymbolTableRecord
100
AcDbLinetypeTableRecord
  2
AM_ISO08W050
 70
     0
  3
____ . ____ . ____ . ____ . ____ . ____ . ____
 72
    65
 73
     4
 40
18.0
 49
12.0
 74
     0
 49
-1.5
 74
     0
 49
3.0
 74
     0
 49
-1.5
 74
     0
  0
LTYPE
  5
486
330
5
100
AcDbSymbolTableRecord
100
AcDbLinetypeTableRecord
  2
AM_ISO09W050
 70
     0
  3
_____ . . _____ . . _____ . . ____ .. ____
 72
    65
 73
     6
 40
22.5
 49
12.0
 74
     0
 49
-1.5
 74
     0
 49
3.0
 74
     0
 49
-1.5
 74
     0
 49
3.0
 74
     0
 49
-1.5
 74
     0
  0
LTYPE
  5
487
330
5
100
AcDbSymbolTableRecord
100
AcDbLinetypeTableRecord
  2
Amconstr
 70
     0
  3
_______________________
 72
    65
 73
     2
 40
9999.0
 49
9999.0
 74
     0
 49
0.0
 74
     0
  0
LTYPE
  5
488
330
5
100
AcDbSymbolTableRecord
100
AcDbLinetypeTableRecord
  2
AM_ISO08W050x2
 70
     0
  3
__ . __ . __ . __ . __ . __
 72
    65
 73
     4
 40
9.0
 49
6.0
 74
     0
 49
-0.75
 74
     0
 49
1.5
 74
     0
 49
-0.75
 74
     0
  0
LTYPE
  5
489
330
5
100
AcDbSymbolTableRecord
100
AcDbLinetypeTableRecord
  2
AM_ISO02W050x2
 70
     0
  3
 _ _ _ _ _ _ _ _ _ _ _ _
 72
    65
 73
     2
 40
3.75
 49
3.0
 74
     0
 49
-0.75
 74
     0
  0
LTYPE
  5
48C
330
5
100
AcDbSymbolTableRecord
100
AcDbLinetypeTableRecord
  2
Amzigzag
 70
     0
  3
/\/-/\/-/\/-/\/-/\/-/\/
 72
    65
 73
     2
 40
11.0001
 49
0.0001
 74
     4
 75
   136
340
48B
 46
0.04
 50
0.0
 44
0.0
 45
0.0
 49
-11.0
 74
     0
  0
LTYPE
  5
48D
330
5
100
AcDbSymbolTableRecord
100
AcDbLinetypeTableRecord
  2
AM_DIN_F_W050
 70
     0
  3
__ __ __ __ __ __ __ __ __ __ __ __ __ __ __
 72
    65
 73
     2
 40
6.25
 49
4.75
 74
     0
 49
-1.5
 74
     0
  0
LTYPE
  5
48E
330
5
100
AcDbSymbolTableRecord
100
AcDbLinetypeTableRecord
  2
AM_DIN_G_W050
 70
     0
  3
____ . ____ . ____ . ____ . ____ . ____ . ____
 72
    65
 73
     4
 40
13.75
 49
9.75
 74
     0
 49
-1.5
 74
     0
 49
1.0
 74
     0
 49
-1.5
 74
     0
  0
LTYPE
  5
48F
330
5
100
AcDbSymbolTableRecord
100
AcDbLinetypeTableRecord
  2
AM_DIN_K_W050
 70
     0
  3
_____ . . _____ . . _____ . . ____ .. ____
 72
    65
 73
     6
 40
16.25
 49
9.75
 74
     0
 49
-1.5
 74
     0
 49
1.0
 74
     0
 49
-1.5
 74
     0
 49
1.0
 74
     0
 49
-1.5
 74
     0
  0
LTYPE
  5
490
330
5
100
AcDbSymbolTableRecord
100
AcDbLinetypeTableRecord
  2
AM_DIN_G_W050x2
 70
     0
  3
__ . __ . __ . __ . __ . __
 72
    65
 73
     4
 40
6.875
 49
4.75
 74
     0
 49
-0.875
 74
     0
 49
0.375
 74
     0
 49
-0.875
 74
     0
  0
LTYPE
  5
491
330
5
100
AcDbSymbolTableRecord
100
AcDbLinetypeTableRecord
  2
AM_DIN_F_W050x2
 70
     0
  3
 _ _ _ _ _ _ _ _ _ _ _ _
 72
    65
 73
     2
 40
3.125
 49
2.25
 74
     0
 49
-0.875
 74
     0
  0
LTYPE
  5
4A0
330
5
100
AcDbSymbolTableRecord
100
AcDbLinetypeTableRecord
  2
ACDINWELD
 70
     0
  3
_ _ _ _ _
 72
    65
 73
     2
 40
2.0
 49
2.0
 74
     0
 49
-1.0
 74
     0
  0
LTYPE
  5
4A1
330
5
100
AcDbSymbolTableRecord
100
AcDbLinetypeTableRecord
  2
ACDINTGB
 70
     0
  3
__ . . __ . .
 72
    65
 73
     6
 40
9.0
 49
4.0
 74
     0
 49
-1.0
 74
     0
 49
1.0
 74
     0
 49
-1.0
 74
     0
 49
1.0
 74
     0
 49
-1.0
 74
     0
  0
LTYPE
  5
4A2
330
5
100
AcDbSymbolTableRecord
100
AcDbLinetypeTableRecord
  2
ACDINTGL
 70
     0
  3
_ _ _ _ _
 72
    65
 73
     2
 40
3.0
 49
2.0
 74
     0
 49
-1.0
 74
     0
  0
ENDTAB
  0
TABLE
  2
LAYER
  5
2
330
0
100
AcDbSymbolTable
 70
    23
  0
LAYER
  5
10
330
2
100
AcDbSymbolTableRecord
100
AcDbLayerTableRecord
  2
0
 70
     0
 62
     7
  6
CONTINUOUS
370
    -3
390
F
  0
LAYER
  5
1FA
330
2
100
AcDbSymbolTableRecord
100
AcDbLayerTableRecord
  2
DEFAULT_1
 70
     0
 62
     7
  6
CENTER
370
    -3
390
F
  0
LAYER
  5
1FB
330
2
100
AcDbSymbolTableRecord
100
AcDbLayerTableRecord
  2
DEFAULT_2
 70
     0
 62
     8
  6
HIDDEN
370
    -3
390
F
  0
LAYER
  5
1FC
330
2
100
AcDbSymbolTableRecord
100
AcDbLayerTableRecord
  2
DEFAULT_3
 70
     0
 62
     7
  6
PHANTOM
370
    -3
390
F
  0
LAYER
  5
1FD
330
2
100
AcDbSymbolTableRecord
100
AcDbLayerTableRecord
  2
3D_TEIL_NOTIZ
 70
     0
 62
     7
  6
CONTINUOUS
370
    -3
390
F
  0
LAYER
  5
1FE
330
2
100
AcDbSymbolTableRecord
100
AcDbLayerTableRecord
  2
ACHSEN
 70
     0
 62
     7
  6
CONTINUOUS
370
    -3
390
F
  0
LAYER
  5
1FF
330
2
100
AcDbSymbolTableRecord
100
AcDbLayerTableRecord
  2
AUSFORMSCHRAEGEN
 70
     0
 62
     7
  6
CONTINUOUS
370
    -3
390
F
  0
LAYER
  5
200
330
2
100
AcDbSymbolTableRecord
100
AcDbLayerTableRecord
  2
BEZUG
 70
     0
 62
     7
  6
CONTINUOUS
370
    -3
390
F
  0
LAYER
  5
201
330
2
100
AcDbSymbolTableRecord
100
AcDbLayerTableRecord
  2
BEZUGSACHSEN
 70
     0
 62
     7
  6
CONTINUOUS
370
    -3
390
F
  0
LAYER
  5
202
330
2
100
AcDbSymbolTableRecord
100
AcDbLayerTableRecord
  2
BEZUGSEBENEN
 70
     0
 62
     7
  6
CONTINUOUS
370
    -3
390
F
  0
LAYER
  5
203
330
2
100
AcDbSymbolTableRecord
100
AcDbLayerTableRecord
  2
BG_STARTBEZUEGE
 70
     0
 62
     7
  6
CONTINUOUS
370
    -3
390
F
  0
LAYER
  5
204
330
2
100
AcDbSymbolTableRecord
100
AcDbLayerTableRecord
  2
BOHRUNGEN
 70
     0
 62
     7
  6
CONTINUOUS
370
    -3
390
F
  0
LAYER
  5
205
330
2
100
AcDbSymbolTableRecord
100
AcDbLayerTableRecord
  2
DATUMS
 70
     0
 62
     7
  6
CONTINUOUS
370
    -3
390
F
  0
LAYER
  5
206
330
2
100
AcDbSymbolTableRecord
100
AcDbLayerTableRecord
  2
DETAILS
 70
     0
 62
     7
  6
CONTINUOUS
370
    -3
390
F
  0
LAYER
  5
207
330
2
100
AcDbSymbolTableRecord
100
AcDbLayerTableRecord
  2
FASEN
 70
     0
 62
     7
  6
CONTINUOUS
370
    -3
390
F
  0
LAYER
  5
208
330
2
100
AcDbSymbolTableRecord
100
AcDbLayerTableRecord
  2
GEWINDE
 70
     0
 62
     7
  6
CONTINUOUS
370
    -3
390
F
  0
LAYER
  5
209
330
2
100
AcDbSymbolTableRecord
100
AcDbLayerTableRecord
  2
HILFEN
 70
     0
 62
     7
  6
CONTINUOUS
370
    -3
390
F
  0
LAYER
  5
20A
330
2
100
AcDbSymbolTableRecord
100
AcDbLayerTableRecord
  2
PLATZIERUNG
 70
     0
 62
     7
  6
CONTINUOUS
370
    -3
390
F
  0
LAYER
  5
20B
330
2
100
AcDbSymbolTableRecord
100
AcDbLayerTableRecord
  2
PLAZIERUNG
 70
     0
 62
     7
  6
CONTINUOUS
370
    -3
390
F
  0
LAYER
  5
20C
330
2
100
AcDbSymbolTableRecord
100
AcDbLayerTableRecord
  2
RUNDUNGEN
 70
     0
 62
     7
  6
CONTINUOUS
370
    -3
390
F
  0
LAYER
  5
20D
330
2
100
AcDbSymbolTableRecord
100
AcDbLayerTableRecord
  2
TEIL_STARTBEZUEGE
 70
     0
 62
     7
  6
CONTINUOUS
370
    -3
390
F
  0
LAYER
  5
20E
330
2
100
AcDbSymbolTableRecord
100
AcDbLayerTableRecord
  2
ZEICHNUNGSBEMASSUNGEN
 70
     0
 62
     7
  6
CONTINUOUS
370
    -3
390
F
  0
LAYER
  5
4B0
330
2
100
AcDbSymbolTableRecord
100
AcDbLayerTableRecord
  2
Defpoints
 70
     0
 62
     7
  6
CONTINUOUS
290
     0
370
    -3
390
F
  0
ENDTAB
  0
TABLE
  2
STYLE
  5
3
330
0
100
AcDbSymbolTable
 70
     6
  0
STYLE
  5
11
330
3
100
AcDbSymbolTableRecord
100
AcDbTextStyleTableRecord
  2
STANDARD
 70
     0
 40
0.0
 41
0.7
 50
0.0
 71
     0
 42
0.2
  3
txt
  4

  0
STYLE
  5
20F
330
3
100
AcDbSymbolTableRecord
100
AcDbTextStyleTableRecord
  2
TEXTSTYLE_1
 70
     0
 40
0.0
 41
0.8
 50
0.0
 71
     0
 42
0.2
  3
gdt
  4

  0
STYLE
  5
210
330
3
100
AcDbSymbolTableRecord
100
AcDbTextStyleTableRecord
  2
TEXTSTYLE_2
 70
     0
 40
0.0
 41
0.7
 50
0.0
 71
     0
 42
0.2
  3
gdt
  4

  0
STYLE
  5
48B
330
3
100
AcDbSymbolTableRecord
100
AcDbTextStyleTableRecord
  2

 70
     1
 40
0.0
 41
1.0
 50
0.0
 71
     0
 42
0.2
  3
genltshp.shx
  4

  0
STYLE
  5
49E
330
3
100
AcDbSymbolTableRecord
100
AcDbTextStyleTableRecord
  2
ACDINTS
 70
     0
 40
1.0
 41
1.0
 50
0.0
 71
     0
 42
0.2
  3
isocp.shx
  4

  0
STYLE
  5
49F
330
3
100
AcDbSymbolTableRecord
100
AcDbTextStyleTableRecord
  2
ACDINGDT
 70
     0
 40
0.0
 41
1.0
 50
0.0
 71
     0
 42
0.2
  3
amgdt.shx
  4

  0
ENDTAB
  0
TABLE
  2
VIEW
  5
6
330
0
100
AcDbSymbolTable
 70
     0
  0
ENDTAB
  0
TABLE
  2
UCS
  5
7
330
0
100
AcDbSymbolTable
 70
     0
  0
ENDTAB
  0
TABLE
  2
APPID
  5
9
330
0
100
AcDbSymbolTable
 70
    21
  0
APPID
  5
211
330
9
100
AcDbSymbolTableRecord
100
AcDbRegAppTableRecord
  2
ACAD
 70
     0
  0
APPID
  5
413
330
9
100
AcDbSymbolTableRecord
100
AcDbRegAppTableRecord
  2
MCAD_NO_VIS
 70
     0
  0
APPID
  5
414
330
9
100
AcDbSymbolTableRecord
100
AcDbRegAppTableRecord
  2
ACAD_TEMP_GRAPHIC
 70
     0
  0
APPID
  5
440
330
9
100
AcDbSymbolTableRecord
100
AcDbRegAppTableRecord
  2
AD_DRAW
 70
     0
  0
APPID
  5
443
330
9
100
AcDbSymbolTableRecord
100
AcDbRegAppTableRecord
  2
ACATTRIBSERVICES
 70
     0
  0
APPID
  5
463
330
9
100
AcDbSymbolTableRecord
100
AcDbRegAppTableRecord
  2
DESIGNERASSEMBLIES
 70
     0
  0
APPID
  5
469
330
9
100
AcDbSymbolTableRecord
100
AcDbRegAppTableRecord
  2
ACADM_DIM_EDIT
 70
     0
  0
APPID
  5
46A
330
9
100
AcDbSymbolTableRecord
100
AcDbRegAppTableRecord
  2
AMDT_DM_ADJ
 70
     0
  0
APPID
  5
481
330
9
100
AcDbSymbolTableRecord
100
AcDbRegAppTableRecord
  2
ACAD_DSTYLE_DIMJAG
 70
     0
  0
APPID
  5
482
330
9
100
AcDbSymbolTableRecord
100
AcDbRegAppTableRecord
  2
ACAD_DSTYLE_DIMBREAK
 70
     0
  0
APPID
  5
4B1
330
9
100
AcDbSymbolTableRecord
100
AcDbRegAppTableRecord
  2
AcAecLayerStandard
 70
     0
  0
APPID
  5
4B2
330
9
100
AcDbSymbolTableRecord
100
AcDbRegAppTableRecord
  2
GENIUS_GENODEF_13
 70
     0
  0
APPID
  5
4B3
330
9
100
AcDbSymbolTableRecord
100
AcDbRegAppTableRecord
  2
GENIUS_GENOBJ-N-HTC_13
 70
     0
  0
APPID
  5
4B4
330
9
100
AcDbSymbolTableRecord
100
AcDbRegAppTableRecord
  2
GENIUS_GENHATCH_13
 70
     0
  0
APPID
  5
4B5
330
9
100
AcDbSymbolTableRecord
100
AcDbRegAppTableRecord
  2
ACAD_EXEMPT_FROM_CAD_STANDARDS
 70
     0
  0
APPID
  5
4B6
330
9
100
AcDbSymbolTableRecord
100
AcDbRegAppTableRecord
  2
ACAD_MLEADERVER
 70
     0
  0
APPID
  5
4B7
330
9
100
AcDbSymbolTableRecord
100
AcDbRegAppTableRecord
  2
ACAD_DSTYLE_DIMJOGGED_JOGANGLE_SYMBOL
 70
     0
  0
APPID
  5
4B8
330
9
100
AcDbSymbolTableRecord
100
AcDbRegAppTableRecord
  2
ACAD_DSTYLE_DIM_LINETYPE
 70
     0
  0
APPID
  5
4B9
330
9
100
AcDbSymbolTableRecord
100
AcDbRegAppTableRecord
  2
ACAD_DSTYLE_DIM_EXT1_LINETYPE
 70
     0
  0
APPID
  5
4BA
330
9
100
AcDbSymbolTableRecord
100
AcDbRegAppTableRecord
  2
ACAD_DSTYLE_DIM_EXT2_LINETYPE
 70
     0
  0
APPID
  5
4BB
330
9
100
AcDbSymbolTableRecord
100
AcDbRegAppTableRecord
  2
ACAD_DSTYLE_DIMINSPECT
 70
     0
  0
ENDTAB
  0
TABLE
  2
DIMSTYLE
  5
A
330
0
100
AcDbSymbolTable
 70
    12
100
AcDbDimStyleTable
 71
     2
340
219
340
21B
  0
DIMSTYLE
105
219
330
A
100
AcDbSymbolTableRecord
100
AcDbDimStyleTableRecord
  2
STANDARD
 70
     0
 41
3.5
 47
0.005
 48
0.005
 71
     1
 73
     0
 74
     0
 77
     1
 78
     8
140
3.5
178
     5
271
     3
272
     3
284
     8
340
11
341
214
342
214
343
214
344
214
  0
DIMSTYLE
105
21A
330
A
100
AcDbSymbolTableRecord
100
AcDbDimStyleTableRecord
  2
DIMSTYLE_1
 70
     0
 41
3.5
 47
0.5
 48
0.5
 73
     0
 74
     0
 77
     1
 78
     8
140
3.5
178
     5
271
     0
272
     0
284
     8
340
11
341
214
342
214
343
214
344
214
  0
DIMSTYLE
105
21B
102
{ACAD_REACTORS
330
248
330
247
330
24A
330
249
102
}
330
A
100
AcDbSymbolTableRecord
100
AcDbDimStyleTableRecord
  2
DIMSTYLE_2
 70
     0
 41
3.5
 47
0.5
 48
0.5
 73
     0
 74
     0
 77
     1
 78
     8
140
3.5
178
     5
271
     3
272
     3
284
     8
340
11
341
214
342
214
343
214
344
214
  0
DIMSTYLE
105
21C
330
A
100
AcDbSymbolTableRecord
100
AcDbDimStyleTableRecord
  2
DIMSTYLE_3
 70
     0
 41
3.5
 47
0.3
 48
0.3
 73
     0
 74
     0
 77
     1
 78
     8
140
3.5
178
     5
271
     0
272
     0
284
     8
340
11
341
214
342
214
343
214
344
214
  0
DIMSTYLE
105
480
102
{ACAD_REACTORS
330
46F
102
}
330
A
100
AcDbSymbolTableRecord
100
AcDbDimStyleTableRecord
  2
AM_DIN
 70
     0
  4
"
 41
3.5
 42
1.0
 43
10.0
 44
1.0
 47
0.1
 48
0.1
 73
     0
 74
     0
 77
     1
 78
     8
 79
     2
140
3.5
141
0.0
143
0.0393701
146
0.71
147
1.5
172
     1
176
   256
177
   256
178
     2
271
     2
272
     3
274
     4
283
     0
284
     8
340
11
371
    -1
372
    -1
1001
ACAD_DSTYLE_DIMJAG
1070
   388
1040
1.5
1001
ACAD_DSTYLE_DIMBREAK
1070
   391
1040
3.75
1001
ACAD_DSTYLE_DIMJOGGED_JOGANGLE_SYMBOL
1070
   384
1040
1.570796326794896
1001
ACAD_DSTYLE_DIM_LINETYPE
1070
   380
1005
14
1001
ACAD_DSTYLE_DIM_EXT1_LINETYPE
1070
   381
1005
14
1001
ACAD_DSTYLE_DIM_EXT2_LINETYPE
1070
   382
1005
14
  0
DIMSTYLE
105
492
330
A
100
AcDbSymbolTableRecord
100
AcDbDimStyleTableRecord
  2
AM_DIN$3
 70
     0
  4
"
 41
3.5
 42
1.0
 43
10.0
 44
1.0
 47
0.1
 48
0.1
 73
     0
 77
     1
 78
     8
 79
     2
140
3.5
141
0.0
143
0.0393701
146
0.71
147
1.5
176
   256
177
   256
178
     2
271
     2
272
     3
274
     4
283
     0
284
     8
288
     1
289
     0
340
11
371
    -1
372
    -1
1001
ACAD_DSTYLE_DIMBREAK
1070
   391
1040
3.75
1001
ACAD_DSTYLE_DIMJAG
1070
   388
1040
1.5
1001
ACAD_DSTYLE_DIMJOGGED_JOGANGLE_SYMBOL
1070
   384
1040
1.570796326794896
1001
ACAD_DSTYLE_DIM_LINETYPE
1070
   380
1005
14
1001
ACAD_DSTYLE_DIM_EXT1_LINETYPE
1070
   381
1005
14
1001
ACAD_DSTYLE_DIM_EXT2_LINETYPE
1070
   382
1005
14
  0
DIMSTYLE
105
493
330
A
100
AcDbSymbolTableRecord
100
AcDbDimStyleTableRecord
  2
AM_DIN$4
 70
     0
  4
"
 41
3.5
 42
1.0
 43
10.0
 44
1.0
 47
0.1
 48
0.1
 73
     0
 77
     1
 78
     8
 79
     2
140
3.5
141
0.0
143
0.0393701
146
0.71
147
1.5
176
   256
177
   256
178
     2
271
     2
272
     3
274
     4
283
     0
284
     8
288
     1
289
     0
340
11
371
    -1
372
    -1
1001
ACAD_DSTYLE_DIMBREAK
1070
   391
1040
3.75
1001
ACAD_DSTYLE_DIMJAG
1070
   388
1040
1.5
1001
ACAD_DSTYLE_DIMJOGGED_JOGANGLE_SYMBOL
1070
   384
1040
1.570796326794896
1001
ACAD_DSTYLE_DIM_LINETYPE
1070
   380
1005
14
1001
ACAD_DSTYLE_DIM_EXT1_LINETYPE
1070
   381
1005
14
1001
ACAD_DSTYLE_DIM_EXT2_LINETYPE
1070
   382
1005
14
  0
DIMSTYLE
105
494
330
A
100
AcDbSymbolTableRecord
100
AcDbDimStyleTableRecord
  2
AM_DIN$6
 70
     0
  4
"
 41
3.5
 42
1.0
 43
10.0
 44
1.0
 47
0.1
 48
0.1
 73
     0
 74
     0
 78
     8
 79
     2
140
3.5
141
0.0
143
0.0393701
146
0.71
147
1.5
172
     1
176
   256
177
   256
178
     2
271
     2
272
     3
274
     4
283
     0
284
     8
340
11
371
    -1
372
    -1
1001
ACAD_DSTYLE_DIMBREAK
1070
   391
1040
3.75
1001
ACAD_DSTYLE_DIMJAG
1070
   388
1040
1.5
1001
ACAD_DSTYLE_DIMJOGGED_JOGANGLE_SYMBOL
1070
   384
1040
1.570796326794896
1001
ACAD_DSTYLE_DIM_LINETYPE
1070
   380
1005
14
1001
ACAD_DSTYLE_DIM_EXT1_LINETYPE
1070
   381
1005
14
1001
ACAD_DSTYLE_DIM_EXT2_LINETYPE
1070
   382
1005
14
  0
DIMSTYLE
105
495
330
A
100
AcDbSymbolTableRecord
100
AcDbDimStyleTableRecord
  2
AM_DIN$7
 70
     0
  4
"
 41
3.5
 42
1.0
 43
10.0
 44
1.0
 47
0.1
 48
0.1
 73
     0
 74
     0
 77
     1
 78
     8
 79
     2
140
3.5
141
0.0
143
0.0393701
146
0.71
147
1.5
172
     1
176
   256
177
   256
178
     2
271
     2
272
     3
274
     4
283
     0
284
     8
340
11
371
    -1
372
    -1
1001
ACAD_DSTYLE_DIMBREAK
1070
   391
1040
3.75
1001
ACAD_DSTYLE_DIMJAG
1070
   388
1040
1.5
1001
ACAD_DSTYLE_DIMJOGGED_JOGANGLE_SYMBOL
1070
   384
1040
1.570796326794896
1001
ACAD_DSTYLE_DIM_LINETYPE
1070
   380
1005
14
1001
ACAD_DSTYLE_DIM_EXT1_LINETYPE
1070
   381
1005
14
1001
ACAD_DSTYLE_DIM_EXT2_LINETYPE
1070
   382
1005
14
  0
DIMSTYLE
105
496
330
A
100
AcDbSymbolTableRecord
100
AcDbDimStyleTableRecord
  2
AM_DIN$SF
 70
     0
  4
"
 41
3.5
 42
1.0
 43
10.0
 44
1.0
 47
0.1
 48
0.1
 73
     0
 74
     0
 75
     1
 76
     1
 77
     1
 78
     8
 79
     2
140
3.5
141
0.0
143
0.0393701
146
0.71
147
1.5
172
     1
176
   256
177
   256
178
     2
271
     2
272
     3
274
     4
283
     0
284
     8
340
11
371
    -1
372
    -1
1001
ACAD_DSTYLE_DIMBREAK
1070
   391
1040
3.75
1001
ACAD_DSTYLE_DIMJAG
1070
   388
1040
1.5
1001
ACAD_DSTYLE_DIMJOGGED_JOGANGLE_SYMBOL
1070
   384
1040
1.570796326794896
1001
ACAD_DSTYLE_DIM_LINETYPE
1070
   380
1005
14
1001
ACAD_DSTYLE_DIM_EXT1_LINETYPE
1070
   381
1005
14
1001
ACAD_DSTYLE_DIM_EXT2_LINETYPE
1070
   382
1005
14
  0
DIMSTYLE
105
49B
330
A
100
AcDbSymbolTableRecord
100
AcDbDimStyleTableRecord
  2
AM_DIN$SH
 70
     0
  4
"
 41
3.5
 42
1.0
 43
10.0
 44
1.0
 47
0.1
 48
0.1
 73
     0
 74
     0
 75
     1
 76
     1
 77
     1
 78
     8
 79
     2
140
3.5
141
0.0
143
0.0393701
144
2.0
146
0.71
147
1.5
172
     1
173
     1
176
   256
177
   256
178
     2
271
     2
272
     3
274
     4
283
     0
284
     8
340
11
343
497
371
    -1
372
    -1
1001
ACAD_DSTYLE_DIMBREAK
1070
   391
1040
3.75
1001
ACAD_DSTYLE_DIMJAG
1070
   388
1040
1.5
1001
ACAD_DSTYLE_DIMJOGGED_JOGANGLE_SYMBOL
1070
   384
1040
1.570796326794896
1001
ACAD_DSTYLE_DIM_LINETYPE
1070
   380
1005
14
1001
ACAD_DSTYLE_DIM_EXT1_LINETYPE
1070
   381
1005
14
1001
ACAD_DSTYLE_DIM_EXT2_LINETYPE
1070
   382
1005
14
  0
ENDTAB
  0
TABLE
  2
BLOCK_RECORD
  5
1
330
0
100
AcDbSymbolTable
 70
    13
  0
BLOCK_RECORD
  5
212
330
1
100
AcDbSymbolTableRecord
100
AcDbBlockTableRecord
  2
*Model_Space
340
3C3
  0
BLOCK_RECORD
  5
213
330
1
100
AcDbSymbolTableRecord
100
AcDbBlockTableRecord
  2
*Paper_Space
340
3C4
  0
BLOCK_RECORD
  5
214
330
1
100
AcDbSymbolTableRecord
100
AcDbBlockTableRecord
  2
_FILLED
340
0
102
{BLKREFS
331
4C2
331
4C3
331
4D8
331
4D9
331
4E2
331
4E3
331
4EE
331
4EF
331
504
331
505
331
537
331
538
331
549
331
54A
331
564
331
565
102
}
  0
BLOCK_RECORD
  5
215
330
1
100
AcDbSymbolTableRecord
100
AcDbBlockTableRecord
  2
*D1
340
0
  0
BLOCK_RECORD
  5
216
330
1
100
AcDbSymbolTableRecord
100
AcDbBlockTableRecord
  2
*D2
340
0
  0
BLOCK_RECORD
  5
217
330
1
100
AcDbSymbolTableRecord
100
AcDbBlockTableRecord
  2
*D3
340
0
  0
BLOCK_RECORD
  5
218
330
1
100
AcDbSymbolTableRecord
100
AcDbBlockTableRecord
  2
*D4
340
0
  0
BLOCK_RECORD
  5
497
330
1
100
AcDbSymbolTableRecord
100
AcDbBlockTableRecord
  2
GENAXEH
340
0
  0
ENDTAB
  0
ENDSEC
  0
SECTION
  2
BLOCKS
  0
BLOCK
  5
20
330
212
100
AcDbEntity
  8
0
100
AcDbBlockBegin
  2
*Model_Space
 70
     0
 10
0.0
 20
0.0
 30
0.0
  3
*Model_Space
  1

  0
ENDBLK
  5
21
330
212
100
AcDbEntity
  8
0
100
AcDbBlockEnd
  0
BLOCK
  5
1C
330
213
100
AcDbEntity
 67
     1
  8
0
100
AcDbBlockBegin
  2
*Paper_Space
 70
     0
 10
0.0
 20
0.0
 30
0.0
  3
*Paper_Space
  1

  0
ENDBLK
  5
1D
330
213
100
AcDbEntity
 67
     1
  8
0
100
AcDbBlockEnd
  0
BLOCK
  5
21D
330
214
100
AcDbEntity
  8
0
100
AcDbBlockBegin
  2
_FILLED
 70
     0
 10
0.0
 20
0.0
 30
0.0
  3
_FILLED
  1

  0
SOLID
  5
21E
330
214
100
AcDbEntity
  8
0
  6
ByBlock
 62
     0
100
AcDbTrace
 10
0.0
 20
0.0
 30
0.0
 11
-1.0
 21
0.125
 31
0.0
 12
-1.0
 22
-0.125
 32
0.0
 13
-1.0
 23
-0.125
 33
0.0
  0
ENDBLK
  5
21F
330
214
100
AcDbEntity
  8
0
  6
ByBlock
 62
     0
100
AcDbBlockEnd
  0
BLOCK
  5
220
330
215
100
AcDbEntity
  8
ZEICHNUNGSBEMASSUNGEN
  6
Continuous
 62
     2
100
AcDbBlockBegin
  2
*D1
 70
     1
 10
0.0
 20
0.0
 30
0.0
  3
*D1
  1

  0
LINE
  5
4DF
330
215
100
AcDbEntity
  8
ZEICHNUNGSBEMASSUNGEN
  6
Continuous
 62
     0
370
    -2
100
AcDbLine
 10
497.4166621576999
 20
491.3403145101
 30
0.0
 11
497.4166621576999
 21
531.7828145101
 31
0.0
  0
LINE
  5
4E0
330
215
100
AcDbEntity
  8
ZEICHNUNGSBEMASSUNGEN
  6
Continuous
 62
     0
370
    -2
100
AcDbLine
 10
651.8579298459
 20
491.3403145101
 30
0.0
 11
651.8579298459
 21
531.7828145101
 31
0.0
  0
LINE
  5
4E1
330
215
100
AcDbEntity
  8
ZEICHNUNGSBEMASSUNGEN
  6
Continuous
 62
     0
370
    -2
100
AcDbLine
 10
502.4166621576999
 20
531.6028145101
 30
0.0
 11
646.8579298458999
 21
531.6028145101
 31
0.0
  0
INSERT
  5
4E2
330
215
100
AcDbEntity
  8
ZEICHNUNGSBEMASSUNGEN
  6
Continuous
 62
     0
370
    -2
100
AcDbBlockReference
  2
_FILLED
 10
497.4166621576999
 20
531.6028145101
 30
0.0
 41
5.0
 42
5.0
 43
5.0
 50
180.0
  0
INSERT
  5
4E3
330
215
100
AcDbEntity
  8
ZEICHNUNGSBEMASSUNGEN
  6
Continuous
 62
     0
370
    -2
100
AcDbBlockReference
  2
_FILLED
 10
651.8579298459
 20
531.6028145101
 30
0.0
 41
5.0
 42
5.0
 43
5.0
  0
MTEXT
  5
4E4
330
215
100
AcDbEntity
  8
ZEICHNUNGSBEMASSUNGEN
  6
Continuous
100
AcDbMText
 10
571.7206293351
 20
540.1028145101
 30
0.0
 40
7.0
 41
0.0
 71
     2
 72
     1
  1
\A1;%%c155
 73
     1
 44
1.0
1001
ACAD
1000
MTEXTBEGIN
1070
    73
1070
     1
1070
    44
1040
1.0
1070
    74
1070
     0
1000
MTEXTEND
  0
POINT
  5
4E5
330
215
100
AcDbEntity
  8
Defpoints
  6
Continuous
 62
     0
100
AcDbPoint
 10
497.4166621576999
 20
491.2778145100999
 30
0.0
  0
POINT
  5
4E6
330
215
100
AcDbEntity
  8
Defpoints
  6
Continuous
 62
     0
100
AcDbPoint
 10
651.8579298459
 20
491.2778145100999
 30
0.0
  0
POINT
  5
4E7
330
215
100
AcDbEntity
  8
Defpoints
  6
Continuous
 62
     0
100
AcDbPoint
 10
651.8579298459
 20
531.6028145101
 30
0.0
  0
ENDBLK
  5
22A
330
215
100
AcDbEntity
  8
0
  6
ByBlock
 62
     0
100
AcDbBlockEnd
  0
BLOCK
  5
22B
330
216
100
AcDbEntity
  8
ZEICHNUNGSBEMASSUNGEN
  6
Continuous
 62
     2
100
AcDbBlockBegin
  2
*D2
 70
     1
 10
0.0
 20
0.0
 30
0.0
  3
*D2
  1

  0
LINE
  5
561
330
216
100
AcDbEntity
  8
ZEICHNUNGSBEMASSUNGEN
  6
Continuous
 62
     0
370
    -2
100
AcDbLine
 10
394.4276648847
 20
490.3403145101
 30
0.0
 11
394.4276648847
 21
543.7004538614432
 31
0.0
  0
LINE
  5
562
330
216
100
AcDbEntity
  8
ZEICHNUNGSBEMASSUNGEN
  6
Continuous
 62
     0
370
    -2
100
AcDbLine
 10
754.8469271189
 20
490.3403145101
 30
0.0
 11
754.8469271189
 21
543.7004538614432
 31
0.0
  0
LINE
  5
563
330
216
100
AcDbEntity
  8
ZEICHNUNGSBEMASSUNGEN
  6
Continuous
 62
     0
370
    -2
100
AcDbLine
 10
399.4276648847
 20
543.5204538614432
 30
0.0
 11
749.8469271189
 21
543.5204538614432
 31
0.0
  0
INSERT
  5
564
330
216
100
AcDbEntity
  8
ZEICHNUNGSBEMASSUNGEN
  6
Continuous
 62
     0
370
    -2
100
AcDbBlockReference
  2
_FILLED
 10
394.4276648847
 20
543.5204538614432
 30
0.0
 41
5.0
 42
5.0
 43
5.0
 50
180.0
  0
INSERT
  5
565
330
216
100
AcDbEntity
  8
ZEICHNUNGSBEMASSUNGEN
  6
Continuous
 62
     0
370
    -2
100
AcDbBlockReference
  2
_FILLED
 10
754.8469271189
 20
543.5204538614432
 30
0.0
 41
5.0
 42
5.0
 43
5.0
  0
MTEXT
  5
566
330
216
100
AcDbEntity
  8
ZEICHNUNGSBEMASSUNGEN
  6
Continuous
100
AcDbMText
 10
570.7932526241457
 20
552.0204538614432
 30
0.0
 40
7.0
 41
0.0
 71
     2
 72
     1
  1
\A1;%%c360
 73
     1
 44
1.0
1001
ACAD
1000
MTEXTBEGIN
1070
    73
1070
     1
1070
    44
1040
1.0
1070
    74
1070
     0
1000
MTEXTEND
  0
POINT
  5
567
330
216
100
AcDbEntity
  8
Defpoints
  6
Continuous
 62
     0
100
AcDbPoint
 10
394.4276648847
 20
490.2778145101
 30
0.0
  0
POINT
  5
568
330
216
100
AcDbEntity
  8
Defpoints
  6
Continuous
 62
     0
100
AcDbPoint
 10
754.8469271189
 20
490.2778145101
 30
0.0
  0
POINT
  5
569
330
216
100
AcDbEntity
  8
Defpoints
  6
Continuous
 62
     0
100
AcDbPoint
 10
754.8469271189
 20
543.5204538614432
 30
0.0
  0
ENDBLK
  5
233
330
216
100
AcDbEntity
  8
0
  6
ByBlock
 62
     0
100
AcDbBlockEnd
  0
BLOCK
  5
234
330
217
100
AcDbEntity
  8
ZEICHNUNGSBEMASSUNGEN
  6
Continuous
 62
     2
100
AcDbBlockBegin
  2
*D3
 70
     1
 10
0.0
 20
0.0
 30
0.0
  3
*D3
  1

  0
LINE
  5
546
330
217
100
AcDbEntity
  8
ZEICHNUNGSBEMASSUNGEN
  6
Continuous
 62
     0
370
    -2
100
AcDbLine
 10
535.0574932649
 20
301.2778145101
 30
0.0
 11
384.3111065814
 21
301.2778145101
 31
0.0
  0
LINE
  5
547
330
217
100
AcDbEntity
  8
ZEICHNUNGSBEMASSUNGEN
  6
Continuous
 62
     0
370
    -2
100
AcDbLine
 10
394.9727251352
 20
497.7778145101
 30
0.0
 11
384.3111065814001
 21
497.7778145101
 31
0.0
  0
LINE
  5
548
330
217
100
AcDbEntity
  8
ZEICHNUNGSBEMASSUNGEN
  6
Continuous
 62
     0
370
    -2
100
AcDbLine
 10
384.4911065814001
 20
306.2778145101
 30
0.0
 11
384.4911065814001
 21
492.7778145101
 31
0.0
  0
INSERT
  5
549
330
217
100
AcDbEntity
  8
ZEICHNUNGSBEMASSUNGEN
  6
Continuous
 62
     0
370
    -2
100
AcDbBlockReference
  2
_FILLED
 10
384.4911065814001
 20
301.2778145101
 30
0.0
 41
5.0
 42
5.0
 43
5.0
 50
270.0
  0
INSERT
  5
54A
330
217
100
AcDbEntity
  8
ZEICHNUNGSBEMASSUNGEN
  6
Continuous
 62
     0
370
    -2
100
AcDbBlockReference
  2
_FILLED
 10
384.4911065814001
 20
497.7778145101
 30
0.0
 41
5.0
 42
5.0
 43
5.0
 50
90.0
  0
MTEXT
  5
54B
330
217
100
AcDbEntity
  8
ZEICHNUNGSBEMASSUNGEN
  6
Continuous
100
AcDbMText
 10
375.9911065814
 20
394.1638345285
 30
0.0
 40
7.0
 41
0.0
 71
     2
 72
     1
  1
\A1;197
 11
0.0000000000000001
 21
1.0
 31
0.0
 73
     1
 44
1.0
1001
ACAD
1000
MTEXTBEGIN
1070
    73
1070
     1
1070
    44
1040
1.0
1070
    74
1070
     0
1000
MTEXTEND
  0
POINT
  5
54C
330
217
100
AcDbEntity
  8
Defpoints
  6
Continuous
 62
     0
100
AcDbPoint
 10
535.1199932649
 20
301.2778145101
 30
0.0
  0
POINT
  5
54D
330
217
100
AcDbEntity
  8
Defpoints
  6
Continuous
 62
     0
100
AcDbPoint
 10
395.0352251352
 20
497.7778145101
 30
0.0
  0
POINT
  5
54E
330
217
100
AcDbEntity
  8
Defpoints
  6
Continuous
 62
     0
100
AcDbPoint
 10
384.4911065814001
 20
497.7778145101
 30
0.0
  0
ENDBLK
  5
23C
330
217
100
AcDbEntity
  8
0
  6
ByBlock
 62
     0
100
AcDbBlockEnd
  0
BLOCK
  5
23D
330
218
100
AcDbEntity
  8
ZEICHNUNGSBEMASSUNGEN
  6
Continuous
 62
     2
100
AcDbBlockBegin
  2
*D4
 70
     1
 10
0.0
 20
0.0
 30
0.0
  3
*D4
  1

  0
LINE
  5
534
330
218
100
AcDbEntity
  8
ZEICHNUNGSBEMASSUNGEN
  6
Continuous
 62
     0
370
    -2
100
AcDbLine
 10
614.2170987386999
 20
301.2778145101
 30
0.0
 11
763.6341295633002
 21
301.2778145100999
 31
0.0
  0
LINE
  5
535
330
218
100
AcDbEntity
  8
ZEICHNUNGSBEMASSUNGEN
  6
Continuous
 62
     0
370
    -2
100
AcDbLine
 10
616.494154433
 20
375.431559373
 30
0.0
 11
763.6341295633002
 21
375.431559373
 31
0.0
  0
LINE
  5
536
330
218
100
AcDbEntity
  8
ZEICHNUNGSBEMASSUNGEN
  6
Continuous
 62
     0
370
    -2
100
AcDbLine
 10
763.4541295633002
 20
306.2778145100999
 30
0.0
 11
763.4541295633002
 21
370.431559373
 31
0.0
  0
INSERT
  5
537
330
218
100
AcDbEntity
  8
ZEICHNUNGSBEMASSUNGEN
  6
Continuous
 62
     0
370
    -2
100
AcDbBlockReference
  2
_FILLED
 10
763.4541295633002
 20
301.2778145100999
 30
0.0
 41
5.0
 42
5.0
 43
5.0
 50
270.0
  0
INSERT
  5
538
330
218
100
AcDbEntity
  8
ZEICHNUNGSBEMASSUNGEN
  6
Continuous
 62
     0
370
    -2
100
AcDbBlockReference
  2
_FILLED
 10
763.4541295633002
 20
375.431559373
 30
0.0
 41
5.0
 42
5.0
 43
5.0
 50
90.0
  0
MTEXT
  5
539
330
218
100
AcDbEntity
  8
ZEICHNUNGSBEMASSUNGEN
  6
Continuous
100
AcDbMText
 10
754.9541295633
 20
335.8961961166
 30
0.0
 40
7.0
 41
0.0
 71
     2
 72
     1
  1
\A1;74
 11
0.0000000000000001
 21
1.0
 31
0.0
 73
     1
 44
1.0
1001
ACAD
1000
MTEXTBEGIN
1070
    73
1070
     1
1070
    44
1040
1.0
1070
    74
1070
     0
1000
MTEXTEND
  0
POINT
  5
53A
330
218
100
AcDbEntity
  8
Defpoints
  6
Continuous
 62
     0
100
AcDbPoint
 10
614.1545987386999
 20
301.2778145101
 30
0.0
  0
POINT
  5
53B
330
218
100
AcDbEntity
  8
Defpoints
  6
Continuous
 62
     0
100
AcDbPoint
 10
616.431654433
 20
375.431559373
 30
0.0
  0
POINT
  5
53C
330
218
100
AcDbEntity
  8
Defpoints
  6
Continuous
 62
     0
100
AcDbPoint
 10
763.4541295633002
 20
375.431559373
 30
0.0
  0
ENDBLK
  5
245
330
218
100
AcDbEntity
  8
0
  6
ByBlock
 62
     0
100
AcDbBlockEnd
  0
BLOCK
  5
499
330
497
100
AcDbEntity
  8
0
100
AcDbBlockBegin
  2
GENAXEH
 70
     0
 10
0.0
 20
0.0
 30
0.0
  3
GENAXEH
  1

  0
LINE
  5
498
330
497
100
AcDbEntity
  8
0
100
AcDbLine
 10
-1.0
 20
0.0
 30
0.0
 11
1.0
 21
0.0
 31
0.0
  0
ENDBLK
  5
49A
330
497
100
AcDbEntity
  8
0
100
AcDbBlockEnd
  0
ENDSEC
  0
SECTION
  2
ENTITIES
  0
HATCH
  5
246
330
212
100
AcDbEntity
  8
0
  6
Continuous
 62
     1
100
AcDbHatch
 10
0.0
 20
0.0
 30
0.0
210
0.0
220
0.0
230
1.0
  2
DEFAULT__1
 70
     0
 71
     0
 91
        2
 92
        1
 93
       61
 72
     1
 10
536.6199932649
 20
301.2778145101
 11
549.6372960018
 21
301.2778145101
 72
     4
 94
        3
 73
     1
 74
     0
 95
        8
 96
        4
 40
0.0
 40
0.0
 40
0.0
 40
0.0
 40
1.0
 40
1.0
 40
1.0
 40
1.0
 10
536.6199932649
 20
301.2778145101
 42
1.0
 10
536.0422813302
 20
301.2778145101
 42
0.8088336328
 10
535.6302280331999
 20
301.6827381572
 42
0.8088336328
 10
535.6201455697999
 20
302.2603621036
 42
1.0
 72
     1
 10
535.6201455697999
 20
302.2603621036
 11
534.3429375704999
 21
375.431559373
 72
     4
 94
        3
 73
     1
 74
     0
 95
        8
 96
        4
 40
0.0
 40
0.0
 40
0.0
 40
0.0
 40
1.0
 40
1.0
 40
1.0
 40
1.0
 10
533.3733183299999
 20
377.1109891615
 42
1.0
 10
533.9779407595999
 20
376.7476953542
 42
0.9164131381
 10
534.3306271192
 20
376.1368246603
 42
0.9164131381
 10
534.3429375704999
 20
375.431559373
 42
1.0
 72
     1
 10
532.9759351625
 20
377.3497610576
 11
533.3733183299999
 21
377.1109891615
 72
     4
 94
        3
 73
     1
 74
     0
 95
        8
 96
        4
 40
0.0
 40
0.0
 40
0.0
 40
0.0
 40
1.0
 40
1.0
 40
1.0
 40
1.0
 10
532.9759351625
 20
377.3497610576
 42
1.0
 10
532.1198586209
 20
377.8641437383
 42
0.9246738887999999
 10
531.5980249438999
 20
378.7156989044
 42
0.9246738887999999
 10
531.5283572363999
 20
379.7119935383999
 42
1.0
 72
     1
 10
531.5283572363999
 20
379.7119935383999
 11
531.0941246976
 21
385.921808154
 72
     4
 94
        3
 73
     1
 74
     0
 95
        8
 96
        4
 40
0.0
 40
0.0
 40
0.0
 40
0.0
 40
1.0
 40
1.0
 40
1.0
 40
1.0
 10
531.0941246976
 20
385.921808154
 42
1.0
 10
530.983099053
 20
387.5095488435
 42
0.8326371471999999
 10
529.8478769491
 20
388.6251284980001
 42
0.8326371471999999
 10
528.2584404155
 20
388.708427337
 42
1.0
 72
     1
 10
521.3669730939
 20
389.0695938354
 11
528.2584404155
 21
388.708427337
 72
     4
 94
        3
 73
     1
 74
     0
 95
        8
 96
        4
 40
0.0
 40
0.0
 40
0.0
 40
0.0
 40
1.0
 40
1.0
 40
1.0
 40
1.0
 10
518.8509613901
 20
390.7035109404
 42
1.0
 10
519.3494775579999
 20
389.7251178719999
 42
0.9106836024999999
 10
520.2704017579
 20
389.1270627039
 42
0.9106836024999999
 10
521.3669730939
 20
389.0695938354
 42
1.0
 72
     1
 10
505.6933943993
 20
416.5266901433999
 11
518.8509613901
 21
390.7035109404
 72
     4
 94
        3
 73
     1
 74
     0
 95
        8
 96
        4
 40
0.0
 40
0.0
 40
0.0
 40
0.0
 40
1.0
 40
1.0
 40
1.0
 40
1.0
 10
505.1514728851999
 20
418.6221451584999
 42
1.0
 10
505.1770559442999
 20
417.8895421991
 42
0.9841973380999998
 10
505.3605968844
 20
417.1798420423999
 42
0.9841973380999998
 10
505.6933943993
 20
416.5266901433999
 42
1.0
 72
     1
 10
503.6945100635
 20
460.3441015453999
 11
505.1514728851999
 21
418.6221451584999
 72
     4
 94
        3
 73
     1
 74
     0
 95
        8
 96
        4
 40
0.0
 40
0.0
 40
0.0
 40
0.0
 40
1.0
 40
1.0
 40
1.0
 40
1.0
 10
503.6945101569999
 20
460.3441015478999
 42
1.0
 10
503.6698678798
 20
461.0497804119999
 42
0.9853166357999999
 10
503.4984774487999
 20
461.7347732741
 42
0.9853166357999999
 10
503.1878886280999
 20
462.3689061351999
 42
1.0
 72
     1
 10
503.1878885494
 20
462.3689060948999
 11
503.0492213605
 21
462.6520242437999
 72
     4
 94
        3
 73
     1
 74
     0
 95
        8
 96
        4
 40
0.0
 40
0.0
 40
0.0
 40
0.0
 40
1.0
 40
1.0
 40
1.0
 40
1.0
 10
503.0492214496
 20
462.6520242855999
 42
1.0
 10
502.7386328383
 20
463.2861555608
 42
0.9853166976
 10
502.5672419763999
 20
463.9711467519999
 42
0.9853166976
 10
502.5425986153999
 20
464.676824061
 42
1.0
 72
     1
 10
502.2555815416
 20
472.8959148058
 11
502.5425985151
 21
464.676824057
 72
     4
 94
        3
 73
     1
 74
     0
 95
        8
 96
        4
 40
0.0
 40
0.0
 40
0.0
 40
0.0
 40
1.0
 40
1.0
 40
1.0
 40
1.0
 10
502.2555815416
 20
472.8959148058
 42
1.0
 10
502.2013666303999
 20
474.4484267354
 42
0.8389989303
 10
501.1485116401
 20
475.5906740456
 42
0.8389989303
 10
499.6055489099999
 20
475.7709476198999
 42
1.0
 72
     4
 94
        3
 73
     1
 74
     0
 95
        8
 96
        4
 40
0.0
 40
0.0
 40
0.0
 40
0.0
 40
1.0
 40
1.0
 40
1.0
 40
1.0
 10
499.6055489099999
 20
475.7709476198999
 42
1.0
 10
498.5769070898999
 20
475.8911300027
 42
0.8389989303
 10
497.8750037631
 20
476.6526282094999
 42
0.8389989303
 10
497.8388604889
 20
477.6876361626
 42
1.0
 72
     1
 10
497.8388604889
 20
477.6876361626
 11
497.4840662622
 21
487.8476135035
 72
     4
 94
        3
 73
     1
 74
     0
 95
        8
 96
        4
 40
0.0
 40
0.0
 40
0.0
 40
0.0
 40
1.0
 40
1.0
 40
1.0
 40
1.0
 10
495.4852846080999
 20
489.7778145101
 42
1.0
 10
496.6246854056
 20
489.7778145101
 42
0.8128932001999999
 10
497.4443017478
 20
488.9863202087999
 42
0.8128932001999999
 10
497.4840662622
 20
487.8476135035
 42
1.0
 72
     1
 10
396.5352251352
 20
489.7778145101
 11
495.4852846080999
 21
489.7778145101
 72
     4
 94
        3
 73
     1
 74
     0
 95
        8
 96
        4
 40
0.0
 40
0.0
 40
0.0
 40
0.0
 40
1.0
 40
1.0
 40
1.0
 40
1.0
 10
396.5352251352
 20
489.7778145101
 42
1.0
 10
395.411724282
 20
489.7778145101
 42
0.8169162473
 10
394.5967655571999
 20
490.5511814632
 42
0.8169162473
 10
394.5379660657
 20
491.6731425976
 42
1.0
 72
     1
 10
394.5379660657
 20
491.6731425976
 11
394.4276648847
 21
493.7778145101
 72
     1
 10
394.4276648847
 20
493.7778145101
 11
394.5379660657
 21
495.8824864226
 72
     4
 94
        3
 73
     1
 74
     0
 95
        8
 96
        4
 40
0.0
 40
0.0
 40
0.0
 40
0.0
 40
1.0
 40
1.0
 40
1.0
 40
1.0
 10
394.5379660657
 20
495.8824864226
 42
1.0
 10
394.5967655571999
 20
497.0044475568999
 42
0.8169162473
 10
395.411724282
 20
497.7778145101
 42
0.8169162473
 10
396.5352251352
 20
497.7778145101
 42
1.0
 72
     1
 10
509.6372960017999
 20
497.7778145101
 11
396.5352251352
 21
497.7778145101
 72
     4
 94
        3
 73
     1
 74
     0
 95
        8
 96
        4
 40
0.0
 40
0.0
 40
0.0
 40
0.0
 40
1.0
 40
1.0
 40
1.0
 40
1.0
 10
509.6372960017999
 20
497.7778145101
 42
1.0
 10
510.2230824394
 20
497.7778145101
 42
0.8047378541
 10
510.6372960017999
 20
497.3636009476999
 42
0.8047378541
 10
510.6372960017999
 20
496.7778145101
 42
1.0
 72
     1
 10
510.6372960017999
 20
493.3826972277
 11
510.6372960017999
 21
496.7778145101
 72
     4
 94
        3
 73
     1
 74
     0
 95
        8
 96
        4
 40
0.0
 40
0.0
 40
0.0
 40
0.0
 40
1.0
 40
1.0
 40
1.0
 40
1.0
 10
510.6372960017999
 20
493.3826972277
 42
1.0
 10
510.6372960017999
 20
492.804985293
 42
0.8088336328
 10
510.2323723546
 20
492.392931996
 42
0.8088336328
 10
509.6547484082
 20
492.3828495324999
 42
1.0
 72
     1
 10
504.6198435954
 20
492.2949649420999
 11
509.6547484082
 21
492.3828495324999
 72
     4
 94
        3
 73
     1
 74
     0
 95
        8
 96
        4
 40
0.0
 40
0.0
 40
0.0
 40
0.0
 40
1.0
 40
1.0
 40
1.0
 40
1.0
 10
503.6372960018
 20
491.2951172469999
 42
1.0
 10
503.6372960018
 20
491.8728291816999
 42
0.8088336328
 10
504.0422196489
 20
492.2848824786
 42
0.8088336328
 10
504.6198435954
 20
492.2949649420999
 42
1.0
 72
     1
 10
503.6372960018
 20
482.2605117732
 11
503.6372960018
 21
491.2951172469999
 72
     4
 94
        3
 73
     1
 74
     0
 95
        8
 96
        4
 40
0.0
 40
0.0
 40
0.0
 40
0.0
 40
1.0
 40
1.0
 40
1.0
 40
1.0
 10
504.6198435954
 20
481.260664078
 42
1.0
 10
504.0422196489
 20
481.2707465415
 42
0.8088336328
 10
503.6372960018
 20
481.6827998385
 42
0.8088336328
 10
503.6372960018
 20
482.2605117732
 42
1.0
 72
     1
 10
508.6963098687
 20
481.1895090945999
 11
504.6198435954
 21
481.260664078
 72
     1
 10
508.6963098687
 20
481.1895090945999
 11
509.6412726582999
 21
481.1895090945999
 72
     4
 94
        3
 73
     1
 74
     0
 95
        8
 96
        4
 40
0.0
 40
0.0
 40
0.0
 40
0.0
 40
1.0
 40
1.0
 40
1.0
 40
1.0
 10
509.6412726582999
 20
481.1895090945999
 42
1.0
 10
510.2252100719
 20
481.1895090945999
 42
0.8056760909999999
 10
510.6389379842999
 20
480.7774264359999
 42
0.8056760909999999
 10
510.6412647198999
 20
480.1934936579
 42
1.0
 72
     1
 10
510.8844513505
 20
419.1617875186
 11
510.6412647198999
 21
480.1934936579
 72
     4
 94
        3
 73
     1
 74
     0
 95
        8
 96
        4
 40
0.0
 40
0.0
 40
0.0
 40
0.0
 40
1.0
 40
1.0
 40
1.0
 40
1.0
 10
511.2114079627999
 20
417.8117697094999
 42
1.0
 10
510.9973261080999
 20
418.2319290064
 42
0.9818887202999999
 10
510.8863302944999
 20
418.6902354591
 42
0.9818887202999999
 10
510.8844513505
 20
419.1617875186
 42
1.0
 72
     1
 10
522.7030511241999
 20
395.2581501153
 11
511.2114079627999
 21
417.8117697094999
 72
     4
 94
        3
 73
     1
 74
     0
 95
        8
 96
        4
 40
0.0
 40
0.0
 40
0.0
 40
0.0
 40
1.0
 40
1.0
 40
1.0
 40
1.0
 10
523.9610569761
 20
394.4411915628
 42
1.0
 10
523.4127713081
 20
394.4699259971
 42
0.9106836024999999
 10
522.9523092081999
 20
394.7689535812001
 42
0.9106836024999999
 10
522.7030511241999
 20
395.2581501153
 42
1.0
 72
     1
 10
536.3791647668
 20
393.7903861106
 11
523.9610569761
 21
394.4411915628
 72
     4
 94
        3
 73
     1
 74
     0
 95
        8
 96
        4
 40
0.0
 40
0.0
 40
0.0
 40
0.0
 40
1.0
 40
1.0
 40
1.0
 40
1.0
 10
536.3791647668
 20
393.7903861106
 42
1.0
 10
536.8279492205
 20
393.766866314
 42
0.8169162473
 10
537.1372960018
 20
393.4408828241
 42
0.8169162473
 10
537.1372960018
 20
392.9914824828
 42
1.0
 72
     1
 10
537.1372960018
 20
382.8642643863
 11
537.1372960018
 21
392.9914824828
 72
     4
 94
        3
 73
     1
 74
     0
 95
        8
 96
        4
 40
0.0
 40
0.0
 40
0.0
 40
0.0
 40
1.0
 40
1.0
 40
1.0
 40
1.0
 10
538.1198435953999
 20
381.8644166911
 42
1.0
 10
537.5422196488999
 20
381.8744991546
 42
0.8088336328
 10
537.1372960018
 20
382.2865524515
 42
0.8088336328
 10
537.1372960018
 20
382.8642643863
 42
1.0
 72
     1
 10
538.1198435953999
 20
381.8644166911
 11
543.6547484082
 21
381.7678045682
 72
     4
 94
        3
 73
     1
 74
     0
 95
        8
 96
        4
 40
0.0
 40
0.0
 40
0.0
 40
0.0
 40
1.0
 40
1.0
 40
1.0
 40
1.0
 10
543.6547484082
 20
381.7678045682
 42
1.0
 10
544.2323723546
 20
381.7577221047
 42
0.8088336328
 10
544.6372960018
 20
381.3456688078
 42
0.8088336328
 10
544.6372960018
 20
380.7679568731
 42
1.0
 72
     1
 10
544.6372960018
 20
376.7333513993
 11
544.6372960018
 21
380.7679568731
 72
     4
 94
        3
 73
     1
 74
     0
 95
        8
 96
        4
 40
0.0
 40
0.0
 40
0.0
 40
0.0
 40
1.0
 40
1.0
 40
1.0
 40
1.0
 10
544.6372960018
 20
376.7333513993
 42
1.0
 10
544.6372960018
 20
376.1556394646
 42
0.8088336328
 10
544.2323723546
 20
375.7435861676
 42
0.8088336328
 10
543.6547484082
 20
375.7335037041
 42
1.0
 72
     1
 10
543.6547484082
 20
375.7335037041
 11
542.1198435953999
 21
375.706711841
 72
     4
 94
        3
 73
     1
 74
     0
 95
        8
 96
        4
 40
0.0
 40
0.0
 40
0.0
 40
0.0
 40
1.0
 40
1.0
 40
1.0
 40
1.0
 10
541.1372960018
 20
374.7068641458
 42
1.0
 10
541.1372960018
 20
375.2845760806
 42
0.8088336328
 10
541.5422196488999
 20
375.6966293775
 42
0.8088336328
 10
542.1198435953999
 20
375.706711841
 42
1.0
 72
     1
 10
541.1372960018
 20
316.5621503836
 11
541.1372960018
 21
374.7068641458
 72
     4
 94
        3
 73
     1
 74
     0
 95
        8
 96
        4
 40
0.0
 40
0.0
 40
0.0
 40
0.0
 40
1.0
 40
1.0
 40
1.0
 40
1.0
 10
541.7963799368
 20
315.6220566454
 42
1.0
 10
541.3871733258999
 20
315.7704515362
 42
0.8792100115
 10
541.1372960018
 20
316.1268676089
 42
0.8792100115
 10
541.1372960018
 20
316.5621503836
 42
1.0
 72
     1
 10
543.9864348583
 20
314.8278540297
 11
541.7963799368
 21
315.6220566454
 72
     4
 94
        3
 73
     1
 74
     0
 95
        8
 96
        4
 40
0.0
 40
0.0
 40
0.0
 40
0.0
 40
1.0
 40
1.0
 40
1.0
 40
1.0
 10
543.9864348583
 20
314.8278540297
 42
1.0
 10
544.3956414691999
 20
314.6794591389
 42
0.8792100115
 10
544.6455187933
 20
314.3230430662
 42
0.8792100115
 10
544.6455187933
 20
313.8877602914
 42
1.0
 72
     1
 10
544.6455187933
 20
308.5407948143
 11
544.6455187933
 21
313.8877602914
 72
     4
 94
        3
 73
     1
 74
     0
 95
        8
 96
        4
 40
0.0
 40
0.0
 40
0.0
 40
0.0
 40
1.0
 40
1.0
 40
1.0
 40
1.0
 10
545.5931828369999
 20
307.5421652795
 42
1.0
 10
545.0322022697999
 20
307.5715650252
 42
0.8169162473
 10
544.6455187933
 20
307.9790443876
 42
0.8169162473
 10
544.6455187933
 20
308.5407948143
 42
1.0
 72
     1
 10
549.6896319580001
 20
307.3274794781
 11
545.5931828369999
 21
307.5421652795
 72
     4
 94
        3
 73
     1
 74
     0
 95
        8
 96
        4
 40
0.0
 40
0.0
 40
0.0
 40
0.0
 40
1.0
 40
1.0
 40
1.0
 40
1.0
 10
549.6896319580001
 20
307.3274794781
 42
1.0
 10
550.2506125251999
 20
307.2980797324
 42
0.8169162473
 10
550.6372960018
 20
306.89060037
 42
0.8169162473
 10
550.6372960018
 20
306.3288499434
 42
1.0
 72
     1
 10
550.6372960018
 20
302.2778145101
 11
550.6372960018
 21
306.3288499434
 72
     4
 94
        3
 73
     1
 74
     0
 95
        8
 96
        4
 40
0.0
 40
0.0
 40
0.0
 40
0.0
 40
1.0
 40
1.0
 40
1.0
 40
1.0
 10
550.6372960018
 20
302.2778145101
 42
1.0
 10
550.6372960018
 20
301.6920280724
 42
0.8047378541
 10
550.2230824394001
 20
301.2778145101
 42
0.8047378541
 10
549.6372960018
 20
301.2778145101
 42
1.0
 97
        0
 92
        1
 93
       61
 72
     1
 10
599.6372960018
 20
301.2778145101
 11
612.6545987386999
 21
301.2778145101
 72
     4
 94
        3
 73
     1
 74
     0
 95
        8
 96
        4
 40
0.0
 40
0.0
 40
0.0
 40
0.0
 40
1.0
 40
1.0
 40
1.0
 40
1.0
 10
598.6372960018
 20
302.2778145101
 42
1.0
 10
598.6372960018
 20
301.6920280724
 42
0.8047378541
 10
599.0515095641999
 20
301.2778145101
 42
0.8047378541
 10
599.6372960018
 20
301.2778145101
 42
1.0
 72
     1
 10
598.6372960018
 20
302.2778145101
 11
598.6372960018
 21
306.3288499434
 72
     4
 94
        3
 73
     1
 74
     0
 95
        8
 96
        4
 40
0.0
 40
0.0
 40
0.0
 40
0.0
 40
1.0
 40
1.0
 40
1.0
 40
1.0
 10
599.5849600455
 20
307.3274794781
 42
1.0
 10
599.0239794783999
 20
307.2980797324
 42
0.8169162473
 10
598.6372960018
 20
306.89060037
 42
0.8169162473
 10
598.6372960018
 20
306.3288499434
 42
1.0
 72
     1
 10
599.5849600455
 20
307.3274794781
 11
603.6814091666
 21
307.5421652795
 72
     4
 94
        3
 73
     1
 74
     0
 95
        8
 96
        4
 40
0.0
 40
0.0
 40
0.0
 40
0.0
 40
1.0
 40
1.0
 40
1.0
 40
1.0
 10
603.6814091666
 20
307.5421652795
 42
1.0
 10
604.2423897337999
 20
307.5715650252
 42
0.8169162473
 10
604.6290732103
 20
307.9790443876
 42
0.8169162473
 10
604.6290732103
 20
308.5407948143
 42
1.0
 72
     1
 10
604.6290732103
 20
308.5407948143
 11
604.6290732103
 21
313.8877602914
 72
     4
 94
        3
 73
     1
 74
     0
 95
        8
 96
        4
 40
0.0
 40
0.0
 40
0.0
 40
0.0
 40
1.0
 40
1.0
 40
1.0
 40
1.0
 10
605.2881571453
 20
314.8278540297
 42
1.0
 10
604.8789505344
 20
314.6794591389
 42
0.8792100115
 10
604.6290732103
 20
314.3230430662
 42
0.8792100115
 10
604.6290732103
 20
313.8877602914
 42
1.0
 72
     1
 10
605.2881571453
 20
314.8278540297
 11
607.4782120667999
 21
315.6220566454
 72
     4
 94
        3
 73
     1
 74
     0
 95
        8
 96
        4
 40
0.0
 40
0.0
 40
0.0
 40
0.0
 40
1.0
 40
1.0
 40
1.0
 40
1.0
 10
607.4782120667999
 20
315.6220566454
 42
1.0
 10
607.8874186776999
 20
315.7704515362
 42
0.8792100115
 10
608.1372960018
 20
316.1268676089
 42
0.8792100115
 10
608.1372960018
 20
316.5621503836
 42
1.0
 72
     1
 10
608.1372960018
 20
316.5621503836
 11
608.1372960018
 21
374.7068641458
 72
     4
 94
        3
 73
     1
 74
     0
 95
        8
 96
        4
 40
0.0
 40
0.0
 40
0.0
 40
0.0
 40
1.0
 40
1.0
 40
1.0
 40
1.0
 10
608.1372960018
 20
374.7068641458
 42
1.0
 10
608.1372960018
 20
375.2845760806
 42
0.8088336328
 10
607.7323723545999
 20
375.6966293775
 42
0.8088336328
 10
607.1547484082
 20
375.706711841
 42
1.0
 72
     1
 10
605.6198435954
 20
375.7335037041
 11
607.1547484082
 21
375.706711841
 72
     4
 94
        3
 73
     1
 74
     0
 95
        8
 96
        4
 40
0.0
 40
0.0
 40
0.0
 40
0.0
 40
1.0
 40
1.0
 40
1.0
 40
1.0
 10
604.6372960018
 20
376.7333513993
 42
1.0
 10
604.6372960018
 20
376.1556394646
 42
0.8088336328
 10
605.0422196488999
 20
375.7435861676
 42
0.8088336328
 10
605.6198435954
 20
375.7335037041
 42
1.0
 72
     1
 10
604.6372960018
 20
376.7333513993
 11
604.6372960018
 21
380.7679568731
 72
     4
 94
        3
 73
     1
 74
     0
 95
        8
 96
        4
 40
0.0
 40
0.0
 40
0.0
 40
0.0
 40
1.0
 40
1.0
 40
1.0
 40
1.0
 10
605.6198435954
 20
381.7678045682
 42
1.0
 10
605.0422196488999
 20
381.7577221047
 42
0.8088336328
 10
604.6372960018
 20
381.3456688078
 42
0.8088336328
 10
604.6372960018
 20
380.7679568731
 42
1.0
 72
     1
 10
611.1547484082
 20
381.8644166911
 11
605.6198435954
 21
381.7678045682
 72
     4
 94
        3
 73
     1
 74
     0
 95
        8
 96
        4
 40
0.0
 40
0.0
 40
0.0
 40
0.0
 40
1.0
 40
1.0
 40
1.0
 40
1.0
 10
611.1547484082
 20
381.8644166911
 42
1.0
 10
611.7323723545999
 20
381.8744991546
 42
0.8088336328
 10
612.1372960018
 20
382.2865524515
 42
0.8088336328
 10
612.1372960018
 20
382.8642643863
 42
1.0
 72
     1
 10
612.1372960018
 20
382.8642643863
 11
612.1372960018
 21
392.9914824828
 72
     4
 94
        3
 73
     1
 74
     0
 95
        8
 96
        4
 40
0.0
 40
0.0
 40
0.0
 40
0.0
 40
1.0
 40
1.0
 40
1.0
 40
1.0
 10
612.8954272367999
 20
393.7903861106
 42
1.0
 10
612.446642783
 20
393.766866314
 42
0.8169162473
 10
612.1372960018
 20
393.4408828241
 42
0.8169162473
 10
612.1372960018
 20
392.9914824828
 42
1.0
 72
     1
 10
612.8954272367999
 20
393.7903861106
 11
625.3135350275
 21
394.4411915628
 72
     4
 94
        3
 73
     1
 74
     0
 95
        8
 96
        4
 40
0.0
 40
0.0
 40
0.0
 40
0.0
 40
1.0
 40
1.0
 40
1.0
 40
1.0
 10
625.3135350275
 20
394.4411915628
 42
1.0
 10
625.8618206955
 20
394.4699259971
 42
0.9106836024999999
 10
626.3222827954
 20
394.7689535812001
 42
0.9106836024999999
 10
626.5715408794
 20
395.2581501153
 42
1.0
 72
     1
 10
626.5715408794
 20
395.2581501153
 11
638.0631840408
 21
417.8117697094999
 72
     4
 94
        3
 73
     1
 74
     0
 95
        8
 96
        4
 40
0.0
 40
0.0
 40
0.0
 40
0.0
 40
1.0
 40
1.0
 40
1.0
 40
1.0
 10
638.0631840408
 20
417.8117697094999
 42
1.0
 10
638.2772658953999
 20
418.2319290064
 42
0.9818887202999999
 10
638.3882617091
 20
418.6902354591
 42
0.9818887202999999
 10
638.390140653
 20
419.1617875186
 42
1.0
 72
     1
 10
638.390140653
 20
419.1617875186
 11
638.6333272837
 21
480.1934936579
 72
     4
 94
        3
 73
     1
 74
     0
 95
        8
 96
        4
 40
0.0
 40
0.0
 40
0.0
 40
0.0
 40
1.0
 40
1.0
 40
1.0
 40
1.0
 10
639.6333193453
 20
481.1895090945999
 42
1.0
 10
639.0493819316999
 20
481.1895090945999
 42
0.8056760909999999
 10
638.6356540192999
 20
480.7774264359999
 42
0.8056760909999999
 10
638.6333272837
 20
480.1934936579
 42
1.0
 72
     1
 10
639.6333193453
 20
481.1895090945999
 11
640.5782821348
 21
481.1895090945999
 72
     1
 10
640.5782821348
 20
481.1895090945999
 11
644.6547484082
 21
481.260664078
 72
     4
 94
        3
 73
     1
 74
     0
 95
        8
 96
        4
 40
0.0
 40
0.0
 40
0.0
 40
0.0
 40
1.0
 40
1.0
 40
1.0
 40
1.0
 10
644.6547484082
 20
481.260664078
 42
1.0
 10
645.2323723545999
 20
481.2707465415
 42
0.8088336328
 10
645.6372960018
 20
481.6827998385
 42
0.8088336328
 10
645.6372960018
 20
482.2605117732
 42
1.0
 72
     1
 10
645.6372960018
 20
482.2605117732
 11
645.6372960018
 21
491.2951172469999
 72
     4
 94
        3
 73
     1
 74
     0
 95
        8
 96
        4
 40
0.0
 40
0.0
 40
0.0
 40
0.0
 40
1.0
 40
1.0
 40
1.0
 40
1.0
 10
645.6372960018
 20
491.2951172469999
 42
1.0
 10
645.6372960018
 20
491.8728291816999
 42
0.8088336328
 10
645.2323723545999
 20
492.2848824786
 42
0.8088336328
 10
644.6547484082
 20
492.2949649420999
 42
1.0
 72
     1
 10
644.6547484082
 20
492.2949649420999
 11
639.6198435954
 21
492.3828495324999
 72
     4
 94
        3
 73
     1
 74
     0
 95
        8
 96
        4
 40
0.0
 40
0.0
 40
0.0
 40
0.0
 40
1.0
 40
1.0
 40
1.0
 40
1.0
 10
638.6372960017999
 20
493.3826972277
 42
1.0
 10
638.6372960017999
 20
492.804985293
 42
0.8088336328
 10
639.0422196488999
 20
492.392931996
 42
0.8088336328
 10
639.6198435954
 20
492.3828495324999
 42
1.0
 72
     1
 10
638.6372960017999
 20
493.3826972277
 11
638.6372960017999
 21
496.7778145101
 72
     4
 94
        3
 73
     1
 74
     0
 95
        8
 96
        4
 40
0.0
 40
0.0
 40
0.0
 40
0.0
 40
1.0
 40
1.0
 40
1.0
 40
1.0
 10
639.6372960017999
 20
497.7778145101
 42
1.0
 10
639.0515095642
 20
497.7778145101
 42
0.8047378541
 10
638.6372960017999
 20
497.3636009476999
 42
0.8047378541
 10
638.6372960017999
 20
496.7778145101
 42
1.0
 72
     1
 10
752.7393668683999
 20
497.7778145101
 11
639.6372960017999
 21
497.7778145101
 72
     4
 94
        3
 73
     1
 74
     0
 95
        8
 96
        4
 40
0.0
 40
0.0
 40
0.0
 40
0.0
 40
1.0
 40
1.0
 40
1.0
 40
1.0
 10
754.7366259378999
 20
495.8824864226
 42
1.0
 10
754.6778264463999
 20
497.0044475568999
 42
0.8169162473
 10
753.8628677216
 20
497.7778145101
 42
0.8169162473
 10
752.7393668683999
 20
497.7778145101
 42
1.0
 72
     1
 10
754.8469271189
 20
493.7778145101
 11
754.7366259378999
 21
495.8824864226
 72
     1
 10
754.7366259378999
 20
491.6731425976
 11
754.8469271189
 21
493.7778145101
 72
     4
 94
        3
 73
     1
 74
     0
 95
        8
 96
        4
 40
0.0
 40
0.0
 40
0.0
 40
0.0
 40
1.0
 40
1.0
 40
1.0
 40
1.0
 10
752.7393668683999
 20
489.7778145101
 42
1.0
 10
753.8628677216
 20
489.7778145101
 42
0.8169162473
 10
754.6778264463999
 20
490.5511814632
 42
0.8169162473
 10
754.7366259378999
 20
491.6731425976
 42
1.0
 72
     1
 10
653.7893073955
 20
489.7778145101
 11
752.7393668683999
 21
489.7778145101
 72
     4
 94
        3
 73
     1
 74
     0
 95
        8
 96
        4
 40
0.0
 40
0.0
 40
0.0
 40
0.0
 40
1.0
 40
1.0
 40
1.0
 40
1.0
 10
653.7893073955
 20
489.7778145101
 42
1.0
 10
652.649906598
 20
489.7778145101
 42
0.8128932001999999
 10
651.8302902558
 20
488.9863202087999
 42
0.8128932001999999
 10
651.7905257414
 20
487.8476135035
 42
1.0
 72
     1
 10
651.4357315147
 20
477.6876361626
 11
651.7905257414
 21
487.8476135035
 72
     4
 94
        3
 73
     1
 74
     0
 95
        8
 96
        4
 40
0.0
 40
0.0
 40
0.0
 40
0.0
 40
1.0
 40
1.0
 40
1.0
 40
1.0
 10
649.6690430935999
 20
475.7709476198999
 42
1.0
 10
650.6976849137
 20
475.8911300027
 42
0.8389989303
 10
651.3995882405001
 20
476.6526282094999
 42
0.8389989303
 10
651.4357315147
 20
477.6876361626
 42
1.0
 72
     4
 94
        3
 73
     1
 74
     0
 95
        8
 96
        4
 40
0.0
 40
0.0
 40
0.0
 40
0.0
 40
1.0
 40
1.0
 40
1.0
 40
1.0
 10
647.019010462
 20
472.8959148058
 42
1.0
 10
647.0732253731999
 20
474.4484267354
 42
0.8389989303
 10
648.1260803635
 20
475.5906740456
 42
0.8389989303
 10
649.6690430935999
 20
475.7709476198999
 42
1.0
 72
     1
 10
647.019010462
 20
472.8959148058
 11
646.7319937772
 21
464.6768323219999
 72
     4
 94
        3
 73
     1
 74
     0
 95
        8
 96
        4
 40
0.0
 40
0.0
 40
0.0
 40
0.0
 40
1.0
 40
1.0
 40
1.0
 40
1.0
 10
646.7319933945
 20
464.6768234133
 42
1.0
 10
646.7073506195999
 20
463.9711467458999
 42
0.9853167245999999
 10
646.5359605976999
 20
463.2861560264999
 42
0.9853167245999999
 10
646.2253730295
 20
462.6520249772
 42
1.0
 72
     1
 10
646.2253730969999
 20
462.6520249453999
 11
646.0867058716001
 21
462.3689066812
 72
     4
 94
        3
 73
     1
 74
     0
 95
        8
 96
        4
 40
0.0
 40
0.0
 40
0.0
 40
0.0
 40
1.0
 40
1.0
 40
1.0
 40
1.0
 10
646.0867058133
 20
462.3689067111
 42
1.0
 10
645.7761159778999
 20
461.7347736563999
 42
0.9853166104999999
 10
645.6047247194999
 20
461.0497803619999
 42
0.9853166104999999
 10
645.5800818519999
 20
460.3441008979
 42
1.0
 72
     1
 10
645.5800822293999
 20
460.3441098281
 11
644.1231191183999
 21
418.6221451584999
 72
     4
 94
        3
 73
     1
 74
     0
 95
        8
 96
        4
 40
0.0
 40
0.0
 40
0.0
 40
0.0
 40
1.0
 40
1.0
 40
1.0
 40
1.0
 10
644.1231191183999
 20
418.6221451584999
 42
1.0
 10
644.0975360592999
 20
417.8895421991
 42
0.9841973380999998
 10
643.9139951191999
 20
417.1798420423999
 42
0.9841973380999998
 10
643.5811976041999
 20
416.5266901433999
 42
1.0
 72
     1
 10
643.5811976041999
 20
416.5266901433999
 11
630.4236306135
 21
390.7035109404
 72
     4
 94
        3
 73
     1
 74
     0
 95
        8
 96
        4
 40
0.0
 40
0.0
 40
0.0
 40
0.0
 40
1.0
 40
1.0
 40
1.0
 40
1.0
 10
630.4236306135
 20
390.7035109404
 42
1.0
 10
629.9251144455999
 20
389.7251178719999
 42
0.9106836024999999
 10
629.0041902457
 20
389.1270627039
 42
0.9106836024999999
 10
627.9076189097
 20
389.0695938354
 42
1.0
 72
     1
 10
627.9076189097
 20
389.0695938354
 11
621.0161515881
 21
388.708427337
 72
     4
 94
        3
 73
     1
 74
     0
 95
        8
 96
        4
 40
0.0
 40
0.0
 40
0.0
 40
0.0
 40
1.0
 40
1.0
 40
1.0
 40
1.0
 10
618.180467306
 20
385.921808154
 42
1.0
 10
618.2914929506
 20
387.5095488435
 42
0.8326371471999999
 10
619.4267150544999
 20
388.6251284980001
 42
0.8326371471999999
 10
621.0161515881
 20
388.708427337
 42
1.0
 72
     1
 10
617.7462347671999
 20
379.7119935383999
 11
618.180467306
 21
385.921808154
 72
     4
 94
        3
 73
     1
 74
     0
 95
        8
 96
        4
 40
0.0
 40
0.0
 40
0.0
 40
0.0
 40
1.0
 40
1.0
 40
1.0
 40
1.0
 10
616.2986568411
 20
377.3497610576
 42
1.0
 10
617.1547333827
 20
377.8641437383
 42
0.9246738887999999
 10
617.6765670596999
 20
378.7156989044
 42
0.9246738887999999
 10
617.7462347671999
 20
379.7119935383999
 42
1.0
 72
     1
 10
616.2986568411
 20
377.3497610576
 11
615.9012736734999
 21
377.1109891615
 72
     4
 94
        3
 73
     1
 74
     0
 95
        8
 96
        4
 40
0.0
 40
0.0
 40
0.0
 40
0.0
 40
1.0
 40
1.0
 40
1.0
 40
1.0
 10
615.9012736734999
 20
377.1109891615
 42
1.0
 10
615.296651244
 20
376.7476953542
 42
0.9164131381
 10
614.9439648843999
 20
376.1368246603
 42
0.9164131381
 10
614.931654433
 20
375.431559373
 42
1.0
 72
     1
 10
613.6544464337999
 20
302.2603621036
 11
614.931654433
 21
375.431559373
 72
     4
 94
        3
 73
     1
 74
     0
 95
        8
 96
        4
 40
0.0
 40
0.0
 40
0.0
 40
0.0
 40
1.0
 40
1.0
 40
1.0
 40
1.0
 10
612.6545987386999
 20
301.2778145101
 42
1.0
 10
613.2323106733999
 20
301.2778145101
 42
0.8088336328
 10
613.6443639702999
 20
301.6827381572
 42
0.8088336328
 10
613.6544464337999
 20
302.2603621036
 42
1.0
 97
        0
 75
     0
 76
     0
 52
45.0
 41
5.945
 77
     0
 78
     1
 53
45.0
 43
0.0
 44
0.0
 45
-4.2037498142
 46
4.2037498142
 79
     0
 98
        1
 10
0.0
 20
0.0
  0
DIMENSION
  5
247
330
212
100
AcDbEntity
  8
ZEICHNUNGSBEMASSUNGEN
  6
Continuous
 62
     7
100
AcDbDimension
  2
*D1
 10
651.8579298459
 20
531.6028145101
 30
0.0
 11
571.7206293351
 21
531.6028145101
 31
0.0
 70
   160
  1
%%c155
 71
     2
 42
154.4412676882
  3
DIMSTYLE_2
100
AcDbAlignedDimension
 13
497.4166621576999
 23
491.2778145100999
 33
0.0
 14
651.8579298459
 24
491.2778145100999
 34
0.0
100
AcDbRotatedDimension
1001
ACAD
1000
DSTYLE
1002
{
1070
    41
1040
5.0
1070
   140
1040
7.0
1070
   147
1040
1.5
1070
   178
1070
   256
1002
}
  0
DIMENSION
  5
248
330
212
100
AcDbEntity
  8
ZEICHNUNGSBEMASSUNGEN
  6
Continuous
 62
     7
100
AcDbDimension
  2
*D2
 10
754.8469271189
 20
543.5204538614432
 30
0.0
 11
570.7932526241457
 21
543.5204538614432
 31
0.0
 70
   160
  1
%%c<>
 71
     2
 42
360.4192622342
  3
DIMSTYLE_2
100
AcDbAlignedDimension
 13
394.4276648847
 23
490.2778145101
 33
0.0
 14
754.8469271189
 24
490.2778145101
 34
0.0
100
AcDbRotatedDimension
1001
ACAD_DSTYLE_DIMINSPECT
1070
   396
1000
100%
1070
   395
1000

1070
   394
1070
    33
1070
   393
1070
     0
1001
ACAD
1000
DSTYLE
1002
{
1070
    41
1040
5.0
1070
   140
1040
7.0
1070
   147
1040
1.5
1070
   178
1070
   256
1070
   271
1070
     0
1002
}
  0
DIMENSION
  5
249
330
212
100
AcDbEntity
  8
ZEICHNUNGSBEMASSUNGEN
  6
Continuous
 62
     7
100
AcDbDimension
  2
*D3
 10
384.4911065814001
 20
497.7778145101
 30
0.0
 11
384.4911065814
 21
394.1638345285
 31
0.0
 70
   160
 71
     2
 42
196.5
  3
DIMSTYLE_2
100
AcDbAlignedDimension
 13
535.1199932649
 23
301.2778145101
 33
0.0
 14
395.0352251352
 24
497.7778145101
 34
0.0
 50
90.0
100
AcDbRotatedDimension
1001
ACAD_DSTYLE_DIMINSPECT
1070
   396
1000
100%
1070
   395
1000

1070
   394
1070
    33
1070
   393
1070
     0
1001
ACAD
1000
DSTYLE
1002
{
1070
    41
1040
5.0
1070
   140
1040
7.0
1070
   147
1040
1.5
1070
   178
1070
   256
1070
   271
1070
     0
1002
}
  0
DIMENSION
  5
24A
330
212
100
AcDbEntity
  8
ZEICHNUNGSBEMASSUNGEN
  6
Continuous
 62
     7
100
AcDbDimension
  2
*D4
 10
763.4541295633002
 20
375.431559373
 30
0.0
 11
763.4541295633
 21
335.8961961166
 31
0.0
 70
   160
 71
     2
 42
74.15374486290005
  3
DIMSTYLE_2
100
AcDbAlignedDimension
 13
614.1545987386999
 23
301.2778145101
 33
0.0
 14
616.431654433
 24
375.431559373
 34
0.0
 50
90.0
100
AcDbRotatedDimension
1001
ACAD_DSTYLE_DIMINSPECT
1070
   396
1000
100%
1070
   395
1000

1070
   394
1070
    33
1070
   393
1070
     0
1001
ACAD
1000
DSTYLE
1002
{
1070
    41
1040
5.0
1070
   140
1040
7.0
1070
   147
1040
1.5
1070
   178
1070
   256
1070
   271
1070
     0
1002
}
  0
LINE
  5
24B
330
212
100
AcDbEntity
  8
0
  6
Continuous
 62
     7
100
AcDbLine
 10
394.4276648847
 20
493.7778145101
 30
0.0
 11
394.5379660657
 21
495.8824864226
 31
0.0
  0
LINE
  5
24C
330
212
100
AcDbEntity
  8
0
  6
Continuous
 62
     7
100
AcDbLine
 10
394.5379660657
 20
491.6731425976
 30
0.0
 11
394.4276648847
 21
493.7778145101
 31
0.0
  0
LINE
  5
24D
330
212
100
AcDbEntity
  8
0
  6
Continuous
 62
     7
100
AcDbLine
 10
599.5849600455
 20
307.3274794781
 30
0.0
 11
603.6814091666
 21
307.5421652795
 31
0.0
  0
LINE
  5
24E
330
212
100
AcDbEntity
  8
0
  6
Continuous
 62
     7
100
AcDbLine
 10
536.6199932649
 20
301.2778145101
 30
0.0
 11
612.6545987386999
 21
301.2778145101
 31
0.0
  0
LINE
  5
24F
330
212
100
AcDbEntity
  8
0
  6
Continuous
 62
     9
100
AcDbLine
 10
550.6372960018
 20
302.2778145101
 30
0.0
 11
598.6372960018
 21
302.2778145101
 31
0.0
  0
LINE
  5
250
330
212
100
AcDbEntity
  8
0
  6
Continuous
 62
     9
100
AcDbLine
 10
550.6372960018
 20
306.3288499434
 30
0.0
 11
598.6372960018
 21
306.3288499434
 31
0.0
  0
LINE
  5
251
330
212
100
AcDbEntity
  8
0
  6
Continuous
 62
     9
100
AcDbLine
 10
549.6896319580001
 20
307.3274794781
 30
0.0
 11
599.5849600455
 21
307.3274794781
 31
0.0
  0
LINE
  5
252
330
212
100
AcDbEntity
  8
0
  6
Continuous
 62
     9
100
AcDbLine
 10
603.6814091666
 20
307.5421652795
 30
0.0
 11
545.5931828369999
 21
307.5421652795
 31
0.0
  0
LINE
  5
253
330
212
100
AcDbEntity
  8
0
  6
Continuous
 62
     9
100
AcDbLine
 10
604.6290732103
 20
308.5407948143
 30
0.0
 11
544.6455187933
 21
308.5407948143
 31
0.0
  0
LINE
  5
254
330
212
100
AcDbEntity
  8
0
  6
Continuous
 62
     7
100
AcDbLine
 10
549.6896319580001
 20
307.3274794781
 30
0.0
 11
545.5931828369999
 21
307.5421652795
 31
0.0
  0
LINE
  5
255
330
212
100
AcDbEntity
  8
0
  6
Continuous
 62
     7
100
AcDbLine
 10
543.9864348583
 20
314.8278540297
 30
0.0
 11
541.7963799368
 21
315.6220566454
 31
0.0
  0
LINE
  5
256
330
212
100
AcDbEntity
  8
0
  6
Continuous
 62
     9
100
AcDbLine
 10
544.6455187933
 20
313.8877602914
 30
0.0
 11
604.6290732103
 21
313.8877602914
 31
0.0
  0
LINE
  5
257
330
212
100
AcDbEntity
  8
0
  6
Continuous
 62
     9
100
AcDbLine
 10
543.9864348583
 20
314.8278540297
 30
0.0
 11
605.2881571453
 21
314.8278540297
 31
0.0
  0
LINE
  5
258
330
212
100
AcDbEntity
  8
0
  6
Continuous
 62
     9
100
AcDbLine
 10
607.4782120667999
 20
315.6220566454
 30
0.0
 11
541.7963799368
 21
315.6220566454
 31
0.0
  0
LINE
  5
259
330
212
100
AcDbEntity
  8
0
  6
Continuous
 62
     9
100
AcDbLine
 10
608.1372960018
 20
316.5621503836
 30
0.0
 11
541.1372960018
 21
316.5621503836
 31
0.0
  0
LINE
  5
25A
330
212
100
AcDbEntity
  8
0
  6
Continuous
 62
     7
100
AcDbLine
 10
497.8388604889
 20
477.6876361626
 30
0.0
 11
497.4840662622
 21
487.8476135035
 31
0.0
  0
LINE
  5
25B
330
212
100
AcDbEntity
  8
0
  6
Continuous
 62
     7
100
AcDbLine
 10
502.2555815416
 20
472.8959148058
 30
0.0
 11
502.5425985151
 21
464.676824057
 31
0.0
  0
LINE
  5
25C
330
212
100
AcDbEntity
  8
0
  6
Continuous
 62
     7
100
AcDbLine
 10
503.6945100635
 20
460.3441015453999
 30
0.0
 11
505.1514728851999
 21
418.6221451584999
 31
0.0
  0
LINE
  5
25D
330
212
100
AcDbEntity
  8
0
  6
Continuous
 62
     7
100
AcDbLine
 10
503.6372960018
 20
482.2605117732
 30
0.0
 11
503.6372960018
 21
491.2951172469999
 31
0.0
  0
LINE
  5
25E
330
212
100
AcDbEntity
  8
0
  6
Continuous
 62
     7
100
AcDbLine
 10
510.8844513505
 20
419.1617875186
 30
0.0
 11
510.6412647198999
 21
480.1934936579
 31
0.0
  0
LINE
  5
25F
330
212
100
AcDbEntity
  8
0
  6
Continuous
 62
     7
100
AcDbLine
 10
510.6372960017999
 20
493.3826972277
 30
0.0
 11
510.6372960017999
 21
496.7778145101
 31
0.0
  0
LINE
  5
260
330
212
100
AcDbEntity
  8
0
  6
Continuous
 62
     7
100
AcDbLine
 10
505.6933943993
 20
416.5266901433999
 30
0.0
 11
518.8509613901
 21
390.7035109404
 31
0.0
  0
LINE
  5
261
330
212
100
AcDbEntity
  8
0
  6
Continuous
 62
     7
100
AcDbLine
 10
531.5283572363999
 20
379.7119935383999
 30
0.0
 11
531.0941246976
 21
385.921808154
 31
0.0
  0
LINE
  5
262
330
212
100
AcDbEntity
  8
0
  6
Continuous
 62
     7
100
AcDbLine
 10
535.6201455697999
 20
302.2603621036
 30
0.0
 11
534.3429375704999
 21
375.431559373
 31
0.0
  0
LINE
  5
263
330
212
100
AcDbEntity
  8
0
  6
Continuous
 62
     7
100
AcDbLine
 10
532.9759351625
 20
377.3497610576
 30
0.0
 11
533.3733183299999
 21
377.1109891615
 31
0.0
  0
LINE
  5
264
330
212
100
AcDbEntity
  8
0
  6
Continuous
 62
     7
100
AcDbLine
 10
522.7030511241999
 20
395.2581501153
 30
0.0
 11
511.2114079627999
 21
417.8117697094999
 31
0.0
  0
LINE
  5
265
330
212
100
AcDbEntity
  8
0
  6
Continuous
 62
     7
100
AcDbLine
 10
503.1878885494
 20
462.3689060948999
 30
0.0
 11
503.0492213605
 21
462.6520242437999
 31
0.0
  0
LINE
  5
266
330
212
100
AcDbEntity
  8
0
  6
Continuous
 62
     7
100
AcDbLine
 10
537.1372960018
 20
382.8642643863
 30
0.0
 11
537.1372960018
 21
392.9914824828
 31
0.0
  0
LINE
  5
267
330
212
100
AcDbEntity
  8
0
  6
Continuous
 62
     7
100
AcDbLine
 10
541.1372960018
 20
316.5621503836
 30
0.0
 11
541.1372960018
 21
374.7068641458
 31
0.0
  0
LINE
  5
268
330
212
100
AcDbEntity
  8
0
  6
Continuous
 62
     7
100
AcDbLine
 10
544.6372960018
 20
376.7333513993
 30
0.0
 11
544.6372960018
 21
380.7679568731
 31
0.0
  0
LINE
  5
269
330
212
100
AcDbEntity
  8
0
  6
Continuous
 62
     7
100
AcDbLine
 10
544.6455187933
 20
308.5407948143
 30
0.0
 11
544.6455187933
 21
313.8877602914
 31
0.0
  0
LINE
  5
26A
330
212
100
AcDbEntity
  8
0
  6
Continuous
 62
     7
100
AcDbLine
 10
543.6547484082
 20
375.7335037041
 30
0.0
 11
542.1198435953999
 21
375.706711841
 31
0.0
  0
LINE
  5
26B
330
212
100
AcDbEntity
  8
0
  6
Continuous
 62
     7
100
AcDbLine
 10
611.1547484082
 20
381.8644166911
 30
0.0
 11
605.6198435954
 21
381.7678045682
 31
0.0
  0
LINE
  5
26C
330
212
100
AcDbEntity
  8
0
  6
Continuous
 62
     9
100
AcDbLine
 10
541.1372960018
 20
374.7068641458
 30
0.0
 11
608.1372960018
 21
374.7068641458
 31
0.0
  0
LINE
  5
26D
330
212
100
AcDbEntity
  8
0
  6
Continuous
 62
     9
100
AcDbLine
 10
543.5463701963999
 20
375.706711841
 30
0.0
 11
605.6198435954
 21
375.706711841
 31
0.0
  0
LINE
  5
26E
330
212
100
AcDbEntity
  8
0
  6
Continuous
 62
     9
100
AcDbLine
 10
543.6547484082
 20
375.7335037041
 30
0.0
 11
605.6198435954
 21
375.7335037041
 31
0.0
  0
LINE
  5
26F
330
212
100
AcDbEntity
  8
0
  6
Continuous
 62
     9
100
AcDbLine
 10
544.6372960018
 20
376.7333513993
 30
0.0
 11
604.6372960018
 21
376.7333513993
 31
0.0
  0
LINE
  5
270
330
212
100
AcDbEntity
  8
0
  6
Continuous
 62
     9
100
AcDbLine
 10
604.6372960018
 20
380.7679568731
 30
0.0
 11
544.6372960018
 21
380.7679568731
 31
0.0
  0
LINE
  5
271
330
212
100
AcDbEntity
  8
0
  6
Continuous
 62
     9
100
AcDbLine
 10
605.6198435954
 20
381.7678045682
 30
0.0
 11
543.6547484082
 21
381.7678045682
 31
0.0
  0
LINE
  5
272
330
212
100
AcDbEntity
  8
0
  6
Continuous
 62
     9
100
AcDbLine
 10
605.6198435954
 20
381.8644166911
 30
0.0
 11
538.1198435953999
 21
381.8644166911
 31
0.0
  0
LINE
  5
273
330
212
100
AcDbEntity
  8
0
  6
Continuous
 62
     9
100
AcDbLine
 10
612.1372960018
 20
382.8642643863
 30
0.0
 11
537.1372960018
 21
382.8642643863
 31
0.0
  0
LINE
  5
274
330
212
100
AcDbEntity
  8
0
  6
Continuous
 62
     7
100
AcDbLine
 10
605.6198435954
 20
375.7335037041
 30
0.0
 11
607.1547484082
 21
375.706711841
 31
0.0
  0
LINE
  5
275
330
212
100
AcDbEntity
  8
0
  6
Continuous
 62
     7
100
AcDbLine
 10
538.1198435953999
 20
381.8644166911
 30
0.0
 11
543.6547484082
 21
381.7678045682
 31
0.0
  0
LINE
  5
276
330
212
100
AcDbEntity
  8
RUNDUNGEN
  6
Continuous
 62
     9
100
AcDbLine
 10
557.1544605845999
 20
422.2296803976
 30
0.0
 11
557.1576225864999
 21
419.1617875186
 31
0.0
  0
LINE
  5
277
330
212
100
AcDbEntity
  8
RUNDUNGEN
  6
Continuous
 62
     9
100
AcDbLine
 10
558.3945606633
 20
422.2336741741999
 30
0.0
 11
558.3977249573999
 21
419.165772082
 31
0.0
  0
LINE
  5
278
330
212
100
AcDbEntity
  8
0
  6
Continuous
 62
     7
100
AcDbLine
 10
550.6372960018
 20
302.2778145101
 30
0.0
 11
550.6372960018
 21
306.3288499434
 31
0.0
  0
LINE
  5
279
330
212
100
AcDbEntity
  8
RUNDUNGEN
  6
Continuous
 62
     9
100
AcDbLine
 10
559.7070579829
 20
493.3826972277
 30
0.0
 11
559.7070579829
 21
496.7778145101
 31
0.0
  0
LINE
  5
27A
330
212
100
AcDbEntity
  8
RUNDUNGEN
  6
Continuous
 62
     9
100
AcDbLine
 10
560.4396988401
 20
493.3826981255999
 30
0.0
 11
560.4396988401
 21
496.7778145101
 31
0.0
  0
LINE
  5
27B
330
212
100
AcDbEntity
  8
RUNDUNGEN
  6
Continuous
 62
     9
100
AcDbLine
 10
562.1425650692999
 20
493.2805471164
 30
0.0
 11
562.1425650692999
 21
496.7778145101
 31
0.0
  0
LINE
  5
27C
330
212
100
AcDbEntity
  8
RUNDUNGEN
  6
Continuous
 62
     9
100
AcDbLine
 10
559.701895276
 20
476.6686731063
 30
0.0
 11
559.7059173697999
 21
480.1934936579
 31
0.0
  0
LINE
  5
27D
330
212
100
AcDbEntity
  8
0
  6
Continuous
 62
     7
100
AcDbLine
 10
627.9076189097
 20
389.0695938354
 30
0.0
 11
621.0161515881
 21
388.708427337
 31
0.0
  0
LINE
  5
27E
330
212
100
AcDbEntity
  8
0
  6
Continuous
 62
     7
100
AcDbLine
 10
612.8954272367999
 20
393.7903861106
 30
0.0
 11
625.3135350275
 21
394.4411915628
 31
0.0
  0
LINE
  5
27F
330
212
100
AcDbEntity
  8
0
  6
Continuous
 62
     9
100
AcDbLine
 10
537.1372960018
 20
392.9914824828
 30
0.0
 11
612.1372960018
 21
392.9914824828
 31
0.0
  0
LINE
  5
280
330
212
100
AcDbEntity
  8
0
  6
Continuous
 62
     9
100
AcDbLine
 10
536.3791647668
 20
393.7903861106
 30
0.0
 11
612.8954272367999
 21
393.7903861106
 31
0.0
  0
LINE
  5
281
330
212
100
AcDbEntity
  8
RUNDUNGEN
  6
Continuous
 62
     9
100
AcDbLine
 10
563.6338883355
 20
394.1999342506
 30
0.0
 11
585.6407036680999
 21
394.1999342506
 31
0.0
  0
LINE
  5
282
330
212
100
AcDbEntity
  8
0
  6
Continuous
 62
     9
100
AcDbLine
 10
625.3135350275
 20
394.4411915628
 30
0.0
 11
589.1986319320999
 21
394.4411915628
 31
0.0
  0
LINE
  5
283
330
212
100
AcDbEntity
  8
0
  6
Continuous
 62
     9
100
AcDbLine
 10
560.0759604433999
 20
394.4411915628
 30
0.0
 11
523.9610569761
 21
394.4411915628
 31
0.0
  0
LINE
  5
284
330
212
100
AcDbEntity
  8
0
  6
Continuous
 62
     9
100
AcDbLine
 10
522.7030511241999
 20
395.2581501153
 30
0.0
 11
560.1497182397999
 21
395.2581501153
 31
0.0
  0
LINE
  5
285
330
212
100
AcDbEntity
  8
0
  6
Continuous
 62
     9
100
AcDbLine
 10
589.1248737638
 20
395.2581501153
 30
0.0
 11
626.5715408794
 21
395.2581501153
 31
0.0
  0
LINE
  5
286
330
212
100
AcDbEntity
  8
RUNDUNGEN
  6
Continuous
 62
     9
100
AcDbLine
 10
563.3009886938999
 20
395.4116650595
 30
0.0
 11
585.9736032071
 21
395.4116650595
 31
0.0
  0
LINE
  5
287
330
212
100
AcDbEntity
  8
0
  6
Continuous
 62
     7
100
AcDbLine
 10
521.3669730939
 20
389.0695938354
 30
0.0
 11
528.2584404155
 21
388.708427337
 31
0.0
  0
LINE
  5
288
330
212
100
AcDbEntity
  8
0
  6
Continuous
 62
     7
100
AcDbLine
 10
536.3791647668
 20
393.7903861106
 30
0.0
 11
523.9610569761
 21
394.4411915628
 31
0.0
  0
LINE
  5
289
330
212
100
AcDbEntity
  8
RUNDUNGEN
  6
Continuous
 62
     9
100
AcDbLine
 10
562.8638739584999
 20
417.2605117732
 30
0.0
 11
562.8638739584999
 21
421.3288499433999
 31
0.0
  0
LINE
  5
28A
330
212
100
AcDbEntity
  8
RUNDUNGEN
  6
Continuous
 62
     9
100
AcDbLine
 10
562.9437936798
 20
493.2805480213
 30
0.0
 11
562.9437936798
 21
496.7778145101
 31
0.0
  0
LINE
  5
28B
330
212
100
AcDbEntity
  8
RUNDUNGEN
  6
Continuous
 62
     9
100
AcDbLine
 10
564.0673271741999
 20
417.2605117732
 30
0.0
 11
564.0673271741999
 21
421.3288499433999
 31
0.0
  0
LINE
  5
28C
330
212
100
AcDbEntity
  8
0
  6
Continuous
 62
     7
100
AcDbLine
 10
566.6372960018
 20
497.7778145101
 30
0.0
 11
566.6372960018
 21
499.3778145101
 31
0.0
  0
LINE
  5
28D
330
212
100
AcDbEntity
  8
0
  6
Continuous
 62
     7
100
AcDbLine
 10
566.6372960018
 20
500.9778145101
 30
0.0
 11
566.6372960018
 21
510.9778145101
 31
0.0
  0
LINE
  5
28E
330
212
100
AcDbEntity
  8
0
  6
Continuous
 62
     7
100
AcDbLine
 10
567.6372960017999
 20
510.9778145101
 30
0.0
 11
567.6372960017999
 21
518.9778145101
 31
0.0
  0
LINE
  5
28F
330
212
100
AcDbEntity
  8
0
  6
Continuous
 62
     7
100
AcDbLine
 10
568.1372960017999
 20
499.5278145101
 30
0.0
 11
568.1372960017999
 21
500.9778145101
 31
0.0
  0
LINE
  5
290
330
212
100
AcDbEntity
  8
0
  6
Continuous
 62
     7
100
AcDbLine
 10
568.8372960018
 20
499.5278145101
 30
0.0
 11
568.8372960018
 21
499.3778145101
 31
0.0
  0
LINE
  5
291
330
212
100
AcDbEntity
  8
0
  6
Continuous
 62
     7
100
AcDbLine
 10
574.6372960018
 20
500.3833680095
 30
0.0
 11
574.6372960018
 21
500.9778145101
 31
0.0
  0
LINE
  5
292
330
212
100
AcDbEntity
  8
0
  6
CENTER
100
AcDbLine
 10
574.6372960018
 20
298.2778145101
 30
0.0
 11
574.6372960018
 21
518.9778145101
 31
0.0
  0
LINE
  5
293
330
212
100
AcDbEntity
  8
RUNDUNGEN
  6
Continuous
 62
     9
100
AcDbLine
 10
589.5686746337999
 20
480.1934936579
 30
0.0
 11
589.5726967276
 21
476.6686731058999
 31
0.0
  0
LINE
  5
294
330
212
100
AcDbEntity
  8
0
  6
Continuous
 62
     7
100
AcDbLine
 10
580.4372960017999
 20
499.5278145101
 30
0.0
 11
580.4372960017999
 21
499.3778145101
 31
0.0
  0
LINE
  5
295
330
212
100
AcDbEntity
  8
0
  6
Continuous
 62
     7
100
AcDbLine
 10
581.1372960017999
 20
499.5278145101
 30
0.0
 11
581.1372960017999
 21
500.9778145101
 31
0.0
  0
LINE
  5
296
330
212
100
AcDbEntity
  8
0
  6
Continuous
 62
     7
100
AcDbLine
 10
581.6372960017999
 20
510.9778145101
 30
0.0
 11
581.6372960017999
 21
518.9778145101
 31
0.0
  0
LINE
  5
297
330
212
100
AcDbEntity
  8
0
  6
Continuous
 62
     7
100
AcDbLine
 10
582.6372960018
 20
497.7778145101
 30
0.0
 11
582.6372960018
 21
499.3778145101
 31
0.0
  0
LINE
  5
298
330
212
100
AcDbEntity
  8
0
  6
Continuous
 62
     7
100
AcDbLine
 10
582.6372960018
 20
500.9778145101
 30
0.0
 11
582.6372960018
 21
510.9778145101
 31
0.0
  0
LINE
  5
299
330
212
100
AcDbEntity
  8
RUNDUNGEN
  6
Continuous
 62
     9
100
AcDbLine
 10
585.2072648294
 20
421.3288499433999
 30
0.0
 11
585.2072648294
 21
417.2605117732
 31
0.0
  0
LINE
  5
29A
330
212
100
AcDbEntity
  8
RUNDUNGEN
  6
Continuous
 62
     9
100
AcDbLine
 10
586.3307983238
 20
496.7778145101
 30
0.0
 11
586.3307983238
 21
493.2805480233
 31
0.0
  0
LINE
  5
29B
330
212
100
AcDbEntity
  8
RUNDUNGEN
  6
Continuous
 62
     9
100
AcDbLine
 10
586.4107180450999
 20
421.3288499433999
 30
0.0
 11
586.4107180450999
 21
417.2605117732
 31
0.0
  0
LINE
  5
29C
330
212
100
AcDbEntity
  8
RUNDUNGEN
  6
Continuous
 62
     9
100
AcDbLine
 10
587.1320269343
 20
496.7778145101
 30
0.0
 11
587.1320269343
 21
493.2805469579999
 31
0.0
  0
LINE
  5
29D
330
212
100
AcDbEntity
  8
RUNDUNGEN
  6
Continuous
 62
     9
100
AcDbLine
 10
588.8348931633999
 20
496.7778145101
 30
0.0
 11
588.8348931633999
 21
493.3826977156
 31
0.0
  0
LINE
  5
29E
330
212
100
AcDbEntity
  8
RUNDUNGEN
  6
Continuous
 62
     9
100
AcDbLine
 10
589.5675340207
 20
496.7778145101
 30
0.0
 11
589.5675340207
 21
493.3826972277
 31
0.0
  0
LINE
  5
29F
330
212
100
AcDbEntity
  8
RUNDUNGEN
  6
Continuous
 62
     9
100
AcDbLine
 10
562.3539631786
 20
414.9857899426
 30
0.0
 11
586.9206288254
 21
414.9857899426
 31
0.0
  0
LINE
  5
2A0
330
212
100
AcDbEntity
  8
RUNDUNGEN
  6
Continuous
 62
     9
100
AcDbLine
 10
562.5849372264
 20
416.1764466331
 30
0.0
 11
586.6896547771999
 21
416.1764466331
 31
0.0
  0
LINE
  5
2A1
330
212
100
AcDbEntity
  8
RUNDUNGEN
  6
Continuous
 62
     9
100
AcDbLine
 10
585.4406467943
 20
416.260664078
 30
0.0
 11
563.8339452093
 21
416.260664078
 31
0.0
  0
LINE
  5
2A2
330
212
100
AcDbEntity
  8
RUNDUNGEN
  6
Continuous
 62
     9
100
AcDbLine
 10
586.4107180450999
 20
417.2605117732
 30
0.0
 11
562.8638739584999
 21
417.2605117732
 31
0.0
  0
LINE
  5
2A3
330
212
100
AcDbEntity
  8
0
  6
Continuous
 62
     9
100
AcDbLine
 10
638.0631840408
 20
417.8117697094999
 30
0.0
 11
592.0307132473999
 21
417.8117697139
 31
0.0
  0
LINE
  5
2A4
330
212
100
AcDbEntity
  8
0
  6
Continuous
 62
     9
100
AcDbLine
 10
557.2438787562
 20
417.8117697139
 30
0.0
 11
511.2114079627999
 21
417.8117697094999
 31
0.0
  0
LINE
  5
2A5
330
212
100
AcDbEntity
  8
0
  6
Continuous
 62
     9
100
AcDbLine
 10
510.8844513505
 20
419.1617875186
 30
0.0
 11
557.1576225864999
 21
419.1617875186
 31
0.0
  0
LINE
  5
2A6
330
212
100
AcDbEntity
  8
0
  6
Continuous
 62
     9
100
AcDbLine
 10
592.1169694170999
 20
419.1617875186
 30
0.0
 11
638.390140653
 21
419.1617875186
 31
0.0
  0
LINE
  5
2A7
330
212
100
AcDbEntity
  8
RUNDUNGEN
  6
Continuous
 62
     9
100
AcDbLine
 10
586.4107180450999
 20
421.3288499433999
 30
0.0
 11
562.8638739584999
 21
421.3288499433999
 31
0.0
  0
LINE
  5
2A8
330
212
100
AcDbEntity
  8
RUNDUNGEN
  6
Continuous
 62
     9
100
AcDbLine
 10
585.4323609957
 20
422.3274794781
 30
0.0
 11
563.8422310077999
 21
422.3274794781
 31
0.0
  0
LINE
  5
2A9
330
212
100
AcDbEntity
  8
RUNDUNGEN
  6
Continuous
 62
     9
100
AcDbLine
 10
589.9307647396
 20
423.2382077500999
 30
0.0
 11
559.3438272639999
 21
423.2382077500999
 31
0.0
  0
LINE
  5
2AA
330
212
100
AcDbEntity
  8
RUNDUNGEN
  6
Continuous
 62
     9
100
AcDbLine
 10
590.1612088463999
 20
424.2328527215
 30
0.0
 11
559.1133831572
 21
424.2328527215
 31
0.0
  0
LINE
  5
2AB
330
212
100
AcDbEntity
  8
0
  6
Continuous
 62
     7
100
AcDbLine
 10
598.6372960018
 20
302.2778145101
 30
0.0
 11
598.6372960018
 21
306.3288499434
 31
0.0
  0
LINE
  5
2AC
330
212
100
AcDbEntity
  8
RUNDUNGEN
  6
Continuous
 62
     9
100
AcDbLine
 10
590.8768670461999
 20
419.165772082
 30
0.0
 11
590.8800313402999
 21
422.2336741741999
 31
0.0
  0
LINE
  5
2AD
330
212
100
AcDbEntity
  8
RUNDUNGEN
  6
Continuous
 62
     9
100
AcDbLine
 10
592.1169694170999
 20
419.1617875186
 30
0.0
 11
592.120131419
 21
422.2296803969
 31
0.0
  0
LINE
  5
2AE
330
212
100
AcDbEntity
  8
0
  6
Continuous
 62
     7
100
AcDbLine
 10
604.6290732103
 20
308.5407948143
 30
0.0
 11
604.6290732103
 21
313.8877602914
 31
0.0
  0
LINE
  5
2AF
330
212
100
AcDbEntity
  8
0
  6
Continuous
 62
     7
100
AcDbLine
 10
604.6372960018
 20
376.7333513993
 30
0.0
 11
604.6372960018
 21
380.7679568731
 31
0.0
  0
LINE
  5
2B0
330
212
100
AcDbEntity
  8
0
  6
Continuous
 62
     7
100
AcDbLine
 10
608.1372960018
 20
316.5621503836
 30
0.0
 11
608.1372960018
 21
374.7068641458
 31
0.0
  0
LINE
  5
2B1
330
212
100
AcDbEntity
  8
0
  6
Continuous
 62
     7
100
AcDbLine
 10
612.1372960018
 20
382.8642643863
 30
0.0
 11
612.1372960018
 21
392.9914824828
 31
0.0
  0
LINE
  5
2B2
330
212
100
AcDbEntity
  8
0
  6
Continuous
 62
     7
100
AcDbLine
 10
613.6544464337999
 20
302.2603621036
 30
0.0
 11
614.931654433
 21
375.431559373
 31
0.0
  0
LINE
  5
2B3
330
212
100
AcDbEntity
  8
0
  6
Continuous
 62
     7
100
AcDbLine
 10
646.2253730969999
 20
462.6520249453999
 30
0.0
 11
646.0867058716001
 21
462.3689066812
 31
0.0
  0
LINE
  5
2B4
330
212
100
AcDbEntity
  8
0
  6
Continuous
 62
     7
100
AcDbLine
 10
617.7462347671999
 20
379.7119935383999
 30
0.0
 11
618.180467306
 21
385.921808154
 31
0.0
  0
LINE
  5
2B5
330
212
100
AcDbEntity
  8
0
  6
Continuous
 62
     7
100
AcDbLine
 10
626.5715408794
 20
395.2581501153
 30
0.0
 11
638.0631840408
 21
417.8117697094999
 31
0.0
  0
LINE
  5
2B6
330
212
100
AcDbEntity
  8
0
  6
Continuous
 62
     7
100
AcDbLine
 10
616.2986568411
 20
377.3497610576
 30
0.0
 11
615.9012736734999
 21
377.1109891615
 31
0.0
  0
LINE
  5
2B7
330
212
100
AcDbEntity
  8
0
  6
Continuous
 62
     7
100
AcDbLine
 10
638.6372960017999
 20
493.3826972277
 30
0.0
 11
638.6372960017999
 21
496.7778145101
 31
0.0
  0
LINE
  5
2B8
330
212
100
AcDbEntity
  8
0
  6
Continuous
 62
     7
100
AcDbLine
 10
645.6372960018
 20
482.2605117732
 30
0.0
 11
645.6372960018
 21
491.2951172469999
 31
0.0
  0
LINE
  5
2B9
330
212
100
AcDbEntity
  8
0
  6
Continuous
 62
     7
100
AcDbLine
 10
638.390140653
 20
419.1617875186
 30
0.0
 11
638.6333272837
 21
480.1934936579
 31
0.0
  0
LINE
  5
2BA
330
212
100
AcDbEntity
  8
0
  6
Continuous
 62
     7
100
AcDbLine
 10
645.5800822293999
 20
460.3441098281
 30
0.0
 11
644.1231191183999
 21
418.6221451584999
 31
0.0
  0
LINE
  5
2BB
330
212
100
AcDbEntity
  8
0
  6
Continuous
 62
     7
100
AcDbLine
 10
647.019010462
 20
472.8959148058
 30
0.0
 11
646.7319937772
 21
464.6768323219999
 31
0.0
  0
LINE
  5
2BC
330
212
100
AcDbEntity
  8
0
  6
Continuous
 62
     7
100
AcDbLine
 10
643.5811976041999
 20
416.5266901433999
 30
0.0
 11
630.4236306135
 21
390.7035109404
 31
0.0
  0
LINE
  5
2BD
330
212
100
AcDbEntity
  8
0
  6
Continuous
 62
     7
100
AcDbLine
 10
640.5782821348
 20
481.1895090945999
 30
0.0
 11
644.6547484082
 21
481.260664078
 31
0.0
  0
LINE
  5
2BE
330
212
100
AcDbEntity
  8
RUNDUNGEN
  6
Continuous
 62
     9
100
AcDbLine
 10
561.2351158505
 20
474.8322265228999
 30
0.0
 11
588.0394761541
 21
474.8322265228999
 31
0.0
  0
LINE
  5
2BF
330
212
100
AcDbEntity
  8
RUNDUNGEN
  6
Continuous
 62
     9
100
AcDbLine
 10
561.1605280623
 20
475.5942864027
 30
0.0
 11
588.1140639424
 21
475.5942864027
 31
0.0
  0
LINE
  5
2C0
330
212
100
AcDbEntity
  8
RUNDUNGEN
  6
Continuous
 62
     9
100
AcDbLine
 10
560.4385277755999
 20
480.1895090946
 30
0.0
 11
560.7187815901998
 21
480.1895090946
 31
0.0
  0
LINE
  5
2C1
330
212
100
AcDbEntity
  8
RUNDUNGEN
  6
Continuous
 62
     9
100
AcDbLine
 10
588.5558104133999
 20
480.1895090946
 30
0.0
 11
588.836064228
 21
480.1895090946
 31
0.0
  0
LINE
  5
2C2
330
212
100
AcDbEntity
  8
0
  6
Continuous
 62
     9
100
AcDbLine
 10
638.6333272837
 20
480.1934936579
 30
0.0
 11
589.5686746337999
 21
480.1934936579
 31
0.0
  0
LINE
  5
2C3
330
212
100
AcDbEntity
  8
0
  6
Continuous
 62
     9
100
AcDbLine
 10
559.7059173697999
 20
480.1934936579
 30
0.0
 11
510.6412647198999
 21
480.1934936579
 31
0.0
  0
LINE
  5
2C4
330
212
100
AcDbEntity
  8
RUNDUNGEN
  6
Continuous
 62
     9
100
AcDbLine
 10
586.8817278587999
 20
480.8897723095999
 30
0.0
 11
562.3928641005
 21
480.8897723095999
 31
0.0
  0
LINE
  5
2C5
330
212
100
AcDbEntity
  8
0
  6
Continuous
 62
     7
100
AcDbLine
 10
508.6963098687
 20
481.1895090945999
 30
0.0
 11
559.4726110118999
 21
481.1895090945999
 31
0.0
  0
LINE
  5
2C6
330
212
100
AcDbEntity
  8
RUNDUNGEN
  6
Continuous
 62
     7
100
AcDbLine
 10
559.4726110118999
 20
481.1895090945999
 30
0.0
 11
559.7502461897
 21
481.1895090945999
 31
0.0
  0
LINE
  5
2C7
330
212
100
AcDbEntity
  8
RUNDUNGEN
  6
Continuous
 62
     7
100
AcDbLine
 10
589.5243458208
 20
481.1895090945999
 30
0.0
 11
589.8019809787999
 21
481.1895090945999
 31
0.0
  0
LINE
  5
2C8
330
212
100
AcDbEntity
  8
0
  6
Continuous
 62
     7
100
AcDbLine
 10
589.5242954386
 20
481.1895090945999
 30
0.0
 11
640.5782821348
 21
481.1895090945999
 31
0.0
  0
LINE
  5
2C9
330
212
100
AcDbEntity
  8
0
  6
Continuous
 62
     9
100
AcDbLine
 10
640.5782821348
 20
481.260664078
 30
0.0
 11
588.3302150611
 21
481.260664078
 31
0.0
  0
LINE
  5
2CA
330
212
100
AcDbEntity
  8
0
  6
Continuous
 62
     9
100
AcDbLine
 10
560.9443789268
 20
481.260664078
 30
0.0
 11
504.6198435954
 21
481.260664078
 31
0.0
  0
LINE
  5
2CB
330
212
100
AcDbEntity
  8
RUNDUNGEN
  6
Continuous
 62
     9
100
AcDbLine
 10
586.9435970079
 20
481.6558167526999
 30
0.0
 11
562.3309949951
 21
481.6558167526999
 31
0.0
  0
LINE
  5
2CC
330
212
100
AcDbEntity
  8
0
  6
Continuous
 62
     7
100
AcDbLine
 10
508.6963098687
 20
481.1895090945999
 30
0.0
 11
504.6198435954
 21
481.260664078
 31
0.0
  0
LINE
  5
2CD
330
212
100
AcDbEntity
  8
0
  6
Continuous
 62
     7
100
AcDbLine
 10
651.4357315147
 20
477.6876361626
 30
0.0
 11
651.7905257414
 21
487.8476135035
 31
0.0
  0
LINE
  5
2CE
330
212
100
AcDbEntity
  8
0
  6
Continuous
 62
     7
100
AcDbLine
 10
504.6198435954
 20
492.2949649420999
 30
0.0
 11
509.6547484082
 21
492.3828495324999
 31
0.0
  0
LINE
  5
2CF
330
212
100
AcDbEntity
  8
0
  6
Continuous
 62
     9
100
AcDbLine
 10
645.6372960018
 20
482.2605117732
 30
0.0
 11
588.5222477272
 21
482.2605117732
 31
0.0
  0
LINE
  5
2D0
330
212
100
AcDbEntity
  8
0
  6
Continuous
 62
     9
100
AcDbLine
 10
560.7523442691999
 20
482.2605117732
 30
0.0
 11
503.6372960018
 21
482.2605117732
 31
0.0
  0
LINE
  5
2D1
330
212
100
AcDbEntity
  8
0
  6
Continuous
 62
     7
100
AcDbLine
 10
396.5352251352
 20
489.7778145101
 30
0.0
 11
495.4852846080999
 21
489.7778145101
 31
0.0
  0
LINE
  5
2D2
330
212
100
AcDbEntity
  8
0
  6
Continuous
 62
     7
100
AcDbLine
 10
653.7893073955
 20
489.7778145101
 30
0.0
 11
752.7393668683999
 21
489.7778145101
 31
0.0
  0
LINE
  5
2D3
330
212
100
AcDbEntity
  8
0
  6
Continuous
 62
     9
100
AcDbLine
 10
645.6372960018
 20
491.2951172469999
 30
0.0
 11
588.5222477457
 21
491.2951172469999
 31
0.0
  0
LINE
  5
2D4
330
212
100
AcDbEntity
  8
0
  6
Continuous
 62
     9
100
AcDbLine
 10
560.7523442599999
 20
491.2951172469999
 30
0.0
 11
503.6372960018
 21
491.2951172469999
 31
0.0
  0
LINE
  5
2D5
330
212
100
AcDbEntity
  8
0
  6
Continuous
 62
     9
100
AcDbLine
 10
504.6198435954
 20
492.2949649420999
 30
0.0
 11
560.9441538720999
 21
492.2949649420999
 31
0.0
  0
LINE
  5
2D6
330
212
100
AcDbEntity
  8
0
  6
Continuous
 62
     9
100
AcDbLine
 10
588.3304607033998
 20
492.2949649420999
 30
0.0
 11
644.6547484082
 21
492.2949649420999
 31
0.0
  0
LINE
  5
2D7
330
212
100
AcDbEntity
  8
0
  6
Continuous
 62
     9
100
AcDbLine
 10
509.6547484082
 20
492.3828495324999
 30
0.0
 11
559.4780696932999
 21
492.3828495324999
 31
0.0
  0
LINE
  5
2D8
330
212
100
AcDbEntity
  8
0
  6
Continuous
 62
     9
100
AcDbLine
 10
589.7966069738999
 20
492.3828495324999
 30
0.0
 11
639.6198435954
 21
492.3828495324999
 31
0.0
  0
LINE
  5
2D9
330
212
100
AcDbEntity
  8
RUNDUNGEN
  6
Continuous
 62
     9
100
AcDbLine
 10
562.1425650692999
 20
493.2805480213999
 30
0.0
 11
562.9437936798
 21
493.2805480213
 31
0.0
  0
LINE
  5
2DA
330
212
100
AcDbEntity
  8
RUNDUNGEN
  6
Continuous
 62
     9
100
AcDbLine
 10
586.3307983238
 20
493.2805480232
 30
0.0
 11
587.1320269343
 21
493.2805480233
 31
0.0
  0
LINE
  5
2DB
330
212
100
AcDbEntity
  8
0
  6
Continuous
 62
     9
100
AcDbLine
 10
510.6372960017999
 20
493.3826972277
 30
0.0
 11
559.7070579829
 21
493.3826972277
 31
0.0
  0
LINE
  5
2DC
330
212
100
AcDbEntity
  8
RUNDUNGEN
  6
Continuous
 62
     9
100
AcDbLine
 10
559.7070579829
 20
493.3826972277
 30
0.0
 11
560.4396988401
 21
493.3826972277
 31
0.0
  0
LINE
  5
2DD
330
212
100
AcDbEntity
  8
0
  6
Continuous
 62
     9
100
AcDbLine
 10
589.5675340207
 20
493.3826972277
 30
0.0
 11
638.6372960017999
 21
493.3826972277
 31
0.0
  0
LINE
  5
2DE
330
212
100
AcDbEntity
  8
RUNDUNGEN
  6
Continuous
 62
     9
100
AcDbLine
 10
588.8348931633999
 20
493.3826972277
 30
0.0
 11
589.5675340207
 21
493.3826972277
 31
0.0
  0
LINE
  5
2DF
330
212
100
AcDbEntity
  8
0
  6
Continuous
 62
     7
100
AcDbLine
 10
644.6547484082
 20
492.2949649420999
 30
0.0
 11
639.6198435954
 21
492.3828495324999
 31
0.0
  0
LINE
  5
2E0
330
212
100
AcDbEntity
  8
0
  6
Continuous
 62
     7
100
AcDbLine
 10
605.2881571453
 20
314.8278540297
 30
0.0
 11
607.4782120667999
 21
315.6220566454
 31
0.0
  0
LINE
  5
2E1
330
212
100
AcDbEntity
  8
0
  6
Continuous
 62
     9
100
AcDbLine
 10
638.6372960017999
 20
496.7778145101
 30
0.0
 11
589.5675340207
 21
496.7778145101
 31
0.0
  0
LINE
  5
2E2
330
212
100
AcDbEntity
  8
RUNDUNGEN
  6
Continuous
 62
     9
100
AcDbLine
 10
589.5675340207
 20
496.7778145101
 30
0.0
 11
559.7070579829
 21
496.7778145101
 31
0.0
  0
LINE
  5
2E3
330
212
100
AcDbEntity
  8
0
  6
Continuous
 62
     9
100
AcDbLine
 10
559.7070579829
 20
496.7778145101
 30
0.0
 11
510.6372960017999
 21
496.7778145101
 31
0.0
  0
LINE
  5
2E4
330
212
100
AcDbEntity
  8
0
  6
Continuous
 62
     7
100
AcDbLine
 10
752.7393668683999
 20
497.7778145101
 30
0.0
 11
589.8008189897
 21
497.7778145101
 31
0.0
  0
LINE
  5
2E5
330
212
100
AcDbEntity
  8
RUNDUNGEN
  6
Continuous
 62
     7
100
AcDbLine
 10
589.8008189897
 20
497.7778145101
 30
0.0
 11
559.4737730139
 21
497.7778145101
 31
0.0
  0
LINE
  5
2E6
330
212
100
AcDbEntity
  8
0
  6
Continuous
 62
     7
100
AcDbLine
 10
559.4737730139
 20
497.7778145101
 30
0.0
 11
396.5352251352
 21
497.7778145101
 31
0.0
  0
LINE
  5
2E7
330
212
100
AcDbEntity
  8
0
  6
Continuous
 62
     7
100
AcDbLine
 10
566.6372960018
 20
499.3778145101
 30
0.0
 11
582.6372960018
 21
499.3778145101
 31
0.0
  0
LINE
  5
2E8
330
212
100
AcDbEntity
  8
0
  6
Continuous
 62
     7
100
AcDbLine
 10
568.1372960017999
 20
499.5278145101
 30
0.0
 11
581.1372960017999
 21
499.5278145101
 31
0.0
  0
LINE
  5
2E9
330
212
100
AcDbEntity
  8
0
  6
Continuous
 62
     7
100
AcDbLine
 10
566.6372960018
 20
500.9778145101
 30
0.0
 11
582.6372960018
 21
500.9778145101
 31
0.0
  0
LINE
  5
2EA
330
212
100
AcDbEntity
  8
0
  6
Continuous
 62
     7
100
AcDbLine
 10
566.6372960018
 20
510.9778145101
 30
0.0
 11
582.6372960018
 21
510.9778145101
 31
0.0
  0
LINE
  5
2EB
330
212
100
AcDbEntity
  8
0
  6
Continuous
 62
     7
100
AcDbLine
 10
567.6372960017999
 20
518.9778145101
 30
0.0
 11
581.6372960017999
 21
518.9778145101
 31
0.0
  0
LINE
  5
2EC
330
212
100
AcDbEntity
  8
0
  6
Continuous
 62
     7
100
AcDbLine
 10
754.8469271189
 20
493.7778145101
 30
0.0
 11
754.7366259378999
 21
495.8824864226
 31
0.0
  0
LINE
  5
2ED
330
212
100
AcDbEntity
  8
0
  6
Continuous
 62
     7
100
AcDbLine
 10
754.7366259378999
 20
491.6731425976
 30
0.0
 11
754.8469271189
 21
493.7778145101
 31
0.0
  0
ARC
  5
2EE
330
212
100
AcDbEntity
  8
0
  6
Continuous
 62
     7
100
AcDbCircle
 10
510.1484270203
 20
418.7966426421
 30
0.0
 40
5.0
100
AcDbArc
 50
182.0
 51
207.0
  0
ARC
  5
2EF
330
212
100
AcDbEntity
  8
0
  6
Continuous
 62
     7
100
AcDbCircle
 10
498.6975558873
 20
460.1696081086
 30
0.0
 40
4.999999993399999
100
AcDbArc
 50
1.999953630099999
 51
26.0949237879
  0
ARC
  5
2F0
330
212
100
AcDbEntity
  8
0
  6
Continuous
 62
     7
100
AcDbCircle
 10
507.5395525969999
 20
464.8513255499
 30
0.0
 40
4.999999986499999
100
AcDbArc
 50
182.0000459297
 51
206.0949651389
  0
ARC
  5
2F1
330
212
100
AcDbEntity
  8
0
  6
Continuous
 62
     7
100
AcDbCircle
 10
513.8844275353
 20
419.1737412087
 30
0.0
 40
3.0
100
AcDbArc
 50
180.2282992679
 51
207.0
  0
ARC
  5
2F2
330
212
100
AcDbEntity
  8
0
  6
Continuous
 62
     7
100
AcDbCircle
 10
499.2574090605
 20
472.7912163156999
 30
0.0
 40
3.0
100
AcDbArc
 50
2.0
 51
83.33600404390001
  0
ARC
  5
2F3
330
212
100
AcDbEntity
  8
0
  6
Continuous
 62
     7
100
AcDbCircle
 10
528.1014325467999
 20
385.7125387328
 30
0.0
 40
3.0
100
AcDbArc
 50
4.0
 51
87.0
  0
ARC
  5
2F4
330
212
100
AcDbEntity
  8
0
  6
Continuous
 62
     7
100
AcDbCircle
 10
521.5239809626999
 20
392.0654824396
 30
0.0
 40
3.0
100
AcDbArc
 50
207.0
 51
267.0
  0
ARC
  5
2F5
330
212
100
AcDbEntity
  8
0
  6
Continuous
 62
     7
100
AcDbCircle
 10
534.5210493872
 20
379.9212629597
 30
0.0
 40
3.0
100
AcDbArc
 50
184.0
 51
239.0
  0
ARC
  5
2F6
330
212
100
AcDbEntity
  8
0
  6
Continuous
 62
     7
100
AcDbCircle
 10
495.4852846080999
 20
487.7778145101
 30
0.0
 40
2.0
100
AcDbArc
 50
2.0
 51
90.0
  0
ARC
  5
2F7
330
212
100
AcDbEntity
  8
0
  6
Continuous
 62
     7
100
AcDbCircle
 10
396.5352251352
 20
495.7778145101
 30
0.0
 40
2.0
100
AcDbArc
 50
90.0
 51
177.0
  0
ARC
  5
2F8
330
212
100
AcDbEntity
  8
0
  6
Continuous
 62
     7
100
AcDbCircle
 10
396.5352251352
 20
491.7778145101
 30
0.0
 40
2.0
100
AcDbArc
 50
183.0
 51
270.0
  0
ARC
  5
2F9
330
212
100
AcDbEntity
  8
0
  6
Continuous
 62
     7
100
AcDbCircle
 10
499.837642143
 20
477.757435156
 30
0.0
 40
2.0
100
AcDbArc
 50
182.0
 51
263.3360040439
  0
ARC
  5
2FA
330
212
100
AcDbEntity
  8
0
  6
Continuous
 62
     7
100
AcDbCircle
 10
532.3432421801999
 20
375.3966545601
 30
0.0
 40
2.0
100
AcDbArc
 50
1.0
 51
58.99999999999999
  0
ARC
  5
2FB
330
212
100
AcDbEntity
  8
0
  6
Continuous
 62
     7
100
AcDbCircle
 10
524.0395609105
 20
395.939135865
 30
0.0
 40
1.5
100
AcDbArc
 50
207.0
 51
267.0
  0
ARC
  5
2FC
330
212
100
AcDbEntity
  8
0
  6
Continuous
 62
     7
100
AcDbCircle
 10
504.6372960018
 20
482.2605117732
 30
0.0
 40
1.0
100
AcDbArc
 50
180.0
 51
269.0
  0
ARC
  5
2FD
330
212
100
AcDbEntity
  8
0
  6
Continuous
 62
     7
100
AcDbCircle
 10
509.6412726582999
 20
480.1895090946
 30
0.0
 40
1.0
100
AcDbArc
 50
0.2282992679
 51
90.0
  0
ARC
  5
2FE
330
212
100
AcDbEntity
  8
0
  6
Continuous
 62
     7
100
AcDbCircle
 10
509.6372960017999
 20
493.3826972277
 30
0.0
 40
1.0
100
AcDbArc
 50
271.0
 51
360.0
  0
ARC
  5
2FF
330
212
100
AcDbEntity
  8
0
  6
Continuous
 62
     7
100
AcDbCircle
 10
504.6372960018
 20
491.2951172469999
 30
0.0
 40
1.0
100
AcDbArc
 50
91.0
 51
180.0
  0
ARC
  5
300
330
212
100
AcDbEntity
  8
0
  6
Continuous
 62
     7
100
AcDbCircle
 10
538.1372960018
 20
382.8642643863
 30
0.0
 40
1.0
100
AcDbArc
 50
180.0
 51
269.0000000001
  0
ARC
  5
301
330
212
100
AcDbEntity
  8
0
  6
Continuous
 62
     7
100
AcDbCircle
 10
542.1372960018
 20
374.7068641458
 30
0.0
 40
1.0
100
AcDbArc
 50
90.9999999999
 51
180.0
  0
ARC
  5
302
330
212
100
AcDbEntity
  8
0
  6
Continuous
 62
     7
100
AcDbCircle
 10
543.6372960017999
 20
380.7679568731
 30
0.0
 40
1.0
100
AcDbArc
 50
0.0
 51
89.0
  0
ARC
  5
303
330
212
100
AcDbEntity
  8
0
  6
Continuous
 62
     7
100
AcDbCircle
 10
543.6372960017999
 20
376.7333513993
 30
0.0
 40
1.0
100
AcDbArc
 50
271.0
 51
360.0
  0
ARC
  5
304
330
212
100
AcDbEntity
  8
0
  6
Continuous
 62
     7
100
AcDbCircle
 10
545.6455187932999
 20
308.5407948143
 30
0.0
 40
1.0
100
AcDbArc
 50
180.0
 51
267.0000000002
  0
ARC
  5
305
330
212
100
AcDbEntity
  8
0
  6
Continuous
 62
     7
100
AcDbCircle
 10
542.1372960018
 20
316.5621503836
 30
0.0
 40
1.0
100
AcDbArc
 50
180.0
 51
250.0673044796
  0
ARC
  5
306
330
212
100
AcDbEntity
  8
0
  6
Continuous
 62
     7
100
AcDbCircle
 10
549.6372960018
 20
306.3288499434
 30
0.0
 40
1.0
100
AcDbArc
 50
0.0
 51
87.0
  0
ARC
  5
307
330
212
100
AcDbEntity
  8
0
  6
Continuous
 62
     7
100
AcDbCircle
 10
549.6372960018
 20
302.2778145101
 30
0.0
 40
1.0
100
AcDbArc
 50
270.0
 51
360.0
  0
ARC
  5
308
330
212
100
AcDbEntity
  8
0
  6
Continuous
 62
     7
100
AcDbCircle
 10
543.6455187932999
 20
313.8877602914
 30
0.0
 40
1.0
100
AcDbArc
 50
0.0
 51
70.06730447939999
  0
ARC
  5
309
330
212
100
AcDbEntity
  8
0
  6
Continuous
 62
     7
100
AcDbCircle
 10
536.6199932649
 20
302.2778145101
 30
0.0
 40
1.0
100
AcDbArc
 50
181.0
 51
270.0
  0
ARC
  5
30A
330
212
100
AcDbEntity
  8
0
  6
Continuous
 62
     7
100
AcDbCircle
 10
509.6372960017999
 20
496.7778145101
 30
0.0
 40
1.0
100
AcDbArc
 50
0.0
 51
90.0
  0
ARC
  5
30B
330
212
100
AcDbEntity
  8
0
  6
Continuous
 62
     7
100
AcDbCircle
 10
536.3372960018
 20
392.9914824828
 30
0.0
 40
0.8
100
AcDbArc
 50
0.0
 51
87.0
  0
ARC
  5
30C
330
212
100
AcDbEntity
  8
RUNDUNGEN
  6
Continuous
 62
     9
100
AcDbCircle
 10
-214.452175175
 20
744.6129733269
 30
0.0
 40
819.9057817742
100
AcDbArc
 50
340.9251071841
 51
341.189713083
  0
ARC
  5
30D
330
212
100
AcDbEntity
  8
RUNDUNGEN
  6
Continuous
 62
     9
100
AcDbCircle
 10
-114.0810160225
 20
713.3924971117998
 30
0.0
 40
715.8904468383999
100
AcDbArc
 50
340.5993865547
 51
340.9287743662
  0
ARC
  5
30E
330
212
100
AcDbEntity
  8
0
  6
Continuous
 62
     7
100
AcDbCircle
 10
621.1731594568
 20
385.7125387328
 30
0.0
 40
3.0
100
AcDbArc
 50
93.0
 51
176.0
  0
ARC
  5
30F
330
212
100
AcDbEntity
  8
0
  6
Continuous
 62
     7
100
AcDbCircle
 10
627.7506110408999
 20
392.0654824396
 30
0.0
 40
3.0
100
AcDbArc
 50
273.0
 51
333.0
  0
ARC
  5
310
330
212
100
AcDbEntity
  8
0
  6
Continuous
 62
     7
100
AcDbCircle
 10
614.7535426163999
 20
379.9212629597
 30
0.0
 40
3.0
100
AcDbArc
 50
301.0
 51
356.0
  0
ARC
  5
311
330
212
100
AcDbEntity
  8
0
  6
Continuous
 62
     7
100
AcDbCircle
 10
616.9313498233999
 20
375.3966545601
 30
0.0
 40
2.0
100
AcDbArc
 50
121.0
 51
179.0
  0
ARC
  5
312
330
212
100
AcDbEntity
  8
0
  6
Continuous
 62
     7
100
AcDbCircle
 10
625.2350310930999
 20
395.939135865
 30
0.0
 40
1.5
100
AcDbArc
 50
273.0
 51
333.0
  0
ARC
  5
313
330
212
100
AcDbEntity
  8
0
  6
Continuous
 62
     7
100
AcDbCircle
 10
611.1372960018
 20
382.8642643863
 30
0.0
 40
1.0
100
AcDbArc
 50
270.9999999999
 51
360.0
  0
ARC
  5
314
330
212
100
AcDbEntity
  8
0
  6
Continuous
 62
     7
100
AcDbCircle
 10
607.1372960018
 20
374.7068641458
 30
0.0
 40
1.0
100
AcDbArc
 50
0.0
 51
89.00000000010001
  0
ARC
  5
315
330
212
100
AcDbEntity
  8
0
  6
Continuous
 62
     7
100
AcDbCircle
 10
605.6372960017999
 20
380.7679568731
 30
0.0
 40
1.0
100
AcDbArc
 50
91.0
 51
180.0
  0
ARC
  5
316
330
212
100
AcDbEntity
  8
0
  6
Continuous
 62
     7
100
AcDbCircle
 10
605.6372960017999
 20
376.7333513993
 30
0.0
 40
1.0
100
AcDbArc
 50
180.0
 51
269.0
  0
ARC
  5
317
330
212
100
AcDbEntity
  8
0
  6
Continuous
 62
     7
100
AcDbCircle
 10
603.6290732103
 20
308.5407948143
 30
0.0
 40
1.0
100
AcDbArc
 50
272.9999999998
 51
360.0
  0
ARC
  5
318
330
212
100
AcDbEntity
  8
0
  6
Continuous
 62
     7
100
AcDbCircle
 10
607.1372960018
 20
316.5621503836
 30
0.0
 40
1.0
100
AcDbArc
 50
289.9326955204
 51
360.0
  0
ARC
  5
319
330
212
100
AcDbEntity
  8
0
  6
Continuous
 62
     7
100
AcDbCircle
 10
599.6372960018
 20
306.3288499434
 30
0.0
 40
1.0
100
AcDbArc
 50
93.0
 51
180.0
  0
ARC
  5
31A
330
212
100
AcDbEntity
  8
0
  6
Continuous
 62
     7
100
AcDbCircle
 10
599.6372960018
 20
302.2778145101
 30
0.0
 40
1.0
100
AcDbArc
 50
180.0
 51
270.0
  0
ARC
  5
31B
330
212
100
AcDbEntity
  8
0
  6
Continuous
 62
     7
100
AcDbCircle
 10
605.6290732103
 20
313.8877602914
 30
0.0
 40
1.0
100
AcDbArc
 50
109.9326955206
 51
180.0
  0
ARC
  5
31C
330
212
100
AcDbEntity
  8
0
  6
Continuous
 62
     7
100
AcDbCircle
 10
612.6545987386999
 20
302.2778145101
 30
0.0
 40
1.0
100
AcDbArc
 50
270.0
 51
359.0
  0
ARC
  5
31D
330
212
100
AcDbEntity
  8
0
  6
Continuous
 62
     7
100
AcDbCircle
 10
612.9372960017999
 20
392.9914824828
 30
0.0
 40
0.8
100
AcDbArc
 50
93.0
 51
180.0
  0
ARC
  5
31E
330
212
100
AcDbEntity
  8
0
  6
Continuous
 62
     7
100
AcDbCircle
 10
639.1261649832999
 20
418.7966426421
 30
0.0
 40
5.0
100
AcDbArc
 50
333.0
 51
358.0
  0
ARC
  5
31F
330
212
100
AcDbEntity
  8
0
  6
Continuous
 62
     7
100
AcDbCircle
 10
650.5770359826
 20
460.1696034299999
 30
0.0
 40
4.9999999954
100
AcDbArc
 50
153.9050091721
 51
178.0000001829
  0
ARC
  5
320
330
212
100
AcDbEntity
  8
0
  6
Continuous
 62
     7
100
AcDbCircle
 10
641.7350392731999
 20
464.8513209153
 30
0.0
 40
4.999999986799999
100
AcDbArc
 50
333.9051028183
 51
357.9999997897
  0
ARC
  5
321
330
212
100
AcDbEntity
  8
0
  6
Continuous
 62
     7
100
AcDbCircle
 10
635.3901644682999
 20
419.1737412087
 30
0.0
 40
3.0
100
AcDbArc
 50
333.0
 51
359.7717007321
  0
ARC
  5
322
330
212
100
AcDbEntity
  8
0
  6
Continuous
 62
     7
100
AcDbCircle
 10
650.0171829431
 20
472.7912163156999
 30
0.0
 40
3.0
100
AcDbArc
 50
96.66399595610002
 51
178.0
  0
ARC
  5
323
330
212
100
AcDbEntity
  8
0
  6
Continuous
 62
     7
100
AcDbCircle
 10
653.7893073955
 20
487.7778145101
 30
0.0
 40
2.0
100
AcDbArc
 50
90.0
 51
178.0
  0
ARC
  5
324
330
212
100
AcDbEntity
  8
0
  6
Continuous
 62
     7
100
AcDbCircle
 10
649.4369498605999
 20
477.757435156
 30
0.0
 40
2.0
100
AcDbArc
 50
276.6639959561
 51
358.0
  0
ARC
  5
325
330
212
100
AcDbEntity
  8
RUNDUNGEN
  6
Continuous
 62
     9
100
AcDbCircle
 10
562.3539677429
 20
416.9530186679
 30
0.0
 40
1.9672287253
100
AcDbArc
 50
268.9360366441
 51
269.9998670654
  0
ARC
  5
326
330
212
100
AcDbEntity
  8
RUNDUNGEN
  6
Continuous
 62
     9
100
AcDbCircle
 10
586.9206270603999
 20
416.9527171803999
 30
0.0
 40
1.9669272378
100
AcDbArc
 50
270.0000514135
 51
271.0640448888
  0
ARC
  5
327
330
212
100
AcDbEntity
  8
0
  6
Continuous
 62
     7
100
AcDbCircle
 10
639.6333193453
 20
480.1895090946
 30
0.0
 40
1.0
100
AcDbArc
 50
90.0
 51
179.7717007321
  0
ARC
  5
328
330
212
100
AcDbEntity
  8
0
  6
Continuous
 62
     7
100
AcDbCircle
 10
644.6372960018
 20
482.2605117732
 30
0.0
 40
1.0
100
AcDbArc
 50
271.0
 51
360.0
  0
ARC
  5
329
330
212
100
AcDbEntity
  8
0
  6
Continuous
 62
     7
100
AcDbCircle
 10
644.6372960018
 20
491.2951172469999
 30
0.0
 40
1.0
100
AcDbArc
 50
0.0
 51
89.0
  0
ARC
  5
32A
330
212
100
AcDbEntity
  8
0
  6
Continuous
 62
     7
100
AcDbCircle
 10
639.6372960017999
 20
493.3826972277
 30
0.0
 40
1.0
100
AcDbArc
 50
180.0
 51
269.0
  0
ARC
  5
32B
330
212
100
AcDbEntity
  8
0
  6
Continuous
 62
     7
100
AcDbCircle
 10
639.6372960017999
 20
496.7778145101
 30
0.0
 40
1.0
100
AcDbArc
 50
90.0
 51
180.0
  0
ARC
  5
32C
330
212
100
AcDbEntity
  8
RUNDUNGEN
  6
Continuous
 62
     9
100
AcDbCircle
 10
562.584620556
 20
417.1360800422
 30
0.0
 40
0.9596336131000001
100
AcDbArc
 50
268.944367769
 51
270.0199299973
  0
ARC
  5
32D
330
212
100
AcDbEntity
  8
RUNDUNGEN
  6
Continuous
 62
     9
100
AcDbCircle
 10
586.6899668169
 20
417.1359513954
 30
0.0
 40
0.9595048866999999
100
AcDbArc
 50
269.9803438639
 51
271.0560502598
  0
ARC
  5
32E
330
212
100
AcDbEntity
  8
RUNDUNGEN
  6
Continuous
 62
     9
100
AcDbCircle
 10
589.802105285
 20
480.2557716796999
 30
0.0
 40
0.9337374219999999
100
AcDbArc
 50
90.00707076389998
 51
95.82764493370001
  0
ARC
  5
32F
330
212
100
AcDbEntity
  8
0
  6
Continuous
 62
     7
100
AcDbCircle
 10
752.7393668683999
 20
491.7778145101
 30
0.0
 40
2.0
100
AcDbArc
 50
270.0
 51
357.0
  0
ARC
  5
330
330
212
100
AcDbEntity
  8
0
  6
Continuous
 62
     7
100
AcDbCircle
 10
752.7393668683999
 20
495.7778145101
 30
0.0
 40
2.0
100
AcDbArc
 50
3.0
 51
90.0
  0
ARC
  5
331
330
212
100
AcDbEntity
  8
RUNDUNGEN
  6
Continuous
 62
     9
100
AcDbCircle
 10
1335.3610849791
 20
734.8776668297
 30
0.0
 40
789.9160645097
100
AcDbArc
 50
198.8052639359
 51
199.0799158011
  0
ARC
  5
332
330
212
100
AcDbEntity
  8
RUNDUNGEN
  6
Continuous
 62
     9
100
AcDbCircle
 10
1260.7934637834
 20
712.4984628588999
 30
0.0
 40
713.1768110313
100
AcDbArc
 50
199.0705989871
 51
199.401240122
  0
SPLINE
  5
333
330
212
100
AcDbEntity
  8
0
  6
Continuous
 62
     7
100
AcDbSpline
210
0.0
220
0.0
230
1.0
 70
     8
 71
     3
 72
     9
 73
     5
 74
     0
 42
0.0000000001
 43
0.0000000001
 40
0.0
 40
0.0
 40
0.0
 40
0.0
 40
0.2527133142
 40
1.0
 40
1.0
 40
1.0
 40
1.0
 10
581.1372960017999
 20
500.3833680095
 30
0.0
 10
580.9760687136999
 20
500.2902833913999
 30
0.0
 10
580.3299225966999
 20
499.9374232417999
 30
0.0
 10
579.6384296602
 20
499.6582448205
 30
0.0
 10
579.1035916073
 20
499.5278145101
 30
0.0
  0
SPLINE
  5
334
330
212
100
AcDbEntity
  8
0
  6
Continuous
 62
     7
100
AcDbSpline
210
0.0
220
0.0
230
1.0
 70
     8
 71
     3
 72
     9
 73
     5
 74
     0
 42
0.0000000001
 43
0.0000000001
 40
0.0
 40
0.0
 40
0.0
 40
0.0
 40
0.2527133142
 40
1.0
 40
1.0
 40
1.0
 40
1.0
 10
574.6372960018
 20
500.3833680095
 30
0.0
 10
574.4760687137
 20
500.2902833913999
 30
0.0
 10
573.8299225966999
 20
499.9374232417999
 30
0.0
 10
573.1384296602
 20
499.6582448205
 30
0.0
 10
572.6035916073
 20
499.5278145101
 30
0.0
  0
SPLINE
  5
335
330
212
100
AcDbEntity
  8
0
  6
Continuous
 62
     7
100
AcDbSpline
210
0.0
220
0.0
230
1.0
 70
     8
 71
     3
 72
     9
 73
     5
 74
     0
 42
0.0000000001
 43
0.0000000001
 40
0.0
 40
0.0
 40
0.0
 40
0.0
 40
0.2477691676
 40
1.0
 40
1.0
 40
1.0
 40
1.0
 10
570.1710003962999
 20
499.5278145101
 30
0.0
 10
569.9935958428
 20
499.5710779444
 30
0.0
 10
569.2859483962999
 20
499.7804768945999
 30
0.0
 10
568.6174095953999
 20
500.1061742971
 30
0.0
 10
568.1372960017999
 20
500.3833680095
 30
0.0
  0
SPLINE
  5
336
330
212
100
AcDbEntity
  8
0
  6
Continuous
 62
     7
100
AcDbSpline
210
0.0
220
0.0
230
1.0
 70
     8
 71
     3
 72
     9
 73
     5
 74
     0
 42
0.0000000001
 43
0.0000000001
 40
0.0
 40
0.0
 40
0.0
 40
0.0
 40
0.2477691676
 40
1.0
 40
1.0
 40
1.0
 40
1.0
 10
576.6710003962999
 20
499.5278145101
 30
0.0
 10
576.4935958428
 20
499.5710779444
 30
0.0
 10
575.7859483963
 20
499.7804768945999
 30
0.0
 10
575.1174095954
 20
500.1061742971
 30
0.0
 10
574.6372960018
 20
500.3833680095
 30
0.0
  0
SPLINE
  5
337
330
212
100
AcDbEntity
  8
RUNDUNGEN
  6
Continuous
 62
     9
100
AcDbSpline
210
0.0
220
0.0
230
1.0
 70
     8
 71
     3
 72
    11
 73
     7
 74
     0
 42
0.0000000001
 43
0.0000000001
 40
0.0
 40
0.0
 40
0.0
 40
0.0
 40
0.2537962011
 40
0.50544844
 40
0.7538258185
 40
1.0
 40
1.0
 40
1.0
 40
1.0
 10
560.7187815901998
 20
480.1895090946
 30
0.0
 10
560.7186151519999
 20
480.3194423276999
 30
0.0
 10
560.6684495567
 20
480.5808431941001
 30
0.0
 10
560.4540463683999
 20
480.9129691172
 30
0.0
 10
560.1324318154
 20
481.1368871266
 30
0.0
 10
559.8763277405001
 20
481.1895090945999
 30
0.0
 10
559.750296565
 20
481.1895090945999
 30
0.0
  0
SPLINE
  5
338
330
212
100
AcDbEntity
  8
RUNDUNGEN
  6
Continuous
 62
     9
100
AcDbSpline
210
0.0
220
0.0
230
1.0
 70
     8
 71
     3
 72
     9
 73
     5
 74
     0
 42
0.0000000001
 43
0.0000000001
 40
0.0
 40
0.0
 40
0.0
 40
0.0
 40
0.4511821710000001
 40
1.0
 40
1.0
 40
1.0
 40
1.0
 10
561.1602868751999
 20
475.5942864027
 30
0.0
 10
561.1882254505998
 20
475.4823796049
 30
0.0
 10
561.2236988188
 20
475.228102699
 30
0.0
 10
561.2350007274
 20
474.9725280105
 30
0.0
 10
561.2351181862
 20
474.8322265228999
 30
0.0
  0
SPLINE
  5
339
330
212
100
AcDbEntity
  8
RUNDUNGEN
  6
Continuous
 62
     9
100
AcDbSpline
210
0.0
220
0.0
230
1.0
 70
     8
 71
     3
 72
     9
 73
     5
 74
     0
 42
0.0000000001
 43
0.0000000001
 40
0.0
 40
0.0
 40
0.0
 40
0.0
 40
0.1408942218
 40
1.0
 40
1.0
 40
1.0
 40
1.0
 10
588.8402004288999
 20
476.6646890929
 30
0.0
 10
588.8745972686
 20
476.6652917205
 30
0.0
 10
589.1187605782
 20
476.6675297892
 30
0.0
 10
589.3629295747
 20
476.6682071108
 30
0.0
 10
589.5726967686999
 20
476.6686736560999
 30
0.0
  0
SPLINE
  5
33A
330
212
100
AcDbEntity
  8
RUNDUNGEN
  6
Continuous
 62
     9
100
AcDbSpline
210
0.0
220
0.0
230
1.0
 70
     8
 71
     3
 72
     9
 73
     5
 74
     0
 42
0.0000000001
 43
0.0000000001
 40
0.0
 40
0.0
 40
0.0
 40
0.0
 40
0.193524809
 40
1.0
 40
1.0
 40
1.0
 40
1.0
 10
589.8019900542999
 20
481.1895090945999
 30
0.0
 10
589.7942224906
 20
481.1895090945999
 30
0.0
 10
589.7538993883
 20
481.1798517924
 30
0.0
 10
589.728819559
 20
481.1419289823
 30
0.0
 10
589.7129031072999
 20
481.1137426996999
 30
0.0
  0
SPLINE
  5
33B
330
212
100
AcDbEntity
  8
RUNDUNGEN
  6
Continuous
 62
     9
100
AcDbSpline
210
0.0
220
0.0
230
1.0
 70
     8
 71
     3
 72
    10
 73
     6
 74
     0
 42
0.0000000001
 43
0.0000000001
 40
0.0
 40
0.0
 40
0.0
 40
0.0
 40
0.1719333218
 40
0.4079743275000001
 40
1.0
 40
1.0
 40
1.0
 40
1.0
 10
589.7129031072999
 20
481.1137426996999
 30
0.0
 10
589.6864831888999
 20
481.0669559346
 30
0.0
 10
589.6447263494999
 20
480.9449446316
 30
0.0
 10
589.5836778388
 20
480.6385725668
 30
0.0
 10
589.5688466497
 20
480.3785077054
 30
0.0
 10
589.5686746467999
 20
480.1934936579
 30
0.0
  0
SPLINE
  5
33C
330
212
100
AcDbEntity
  8
RUNDUNGEN
  6
Continuous
 62
     9
100
AcDbSpline
210
0.0
220
0.0
230
1.0
 70
     8
 71
     3
 72
    11
 73
     7
 74
     0
 42
0.0000000001
 43
0.0000000001
 40
0.0
 40
0.0
 40
0.0
 40
0.0
 40
0.253852195
 40
0.5054914269
 40
0.7537874775
 40
1.0
 40
1.0
 40
1.0
 40
1.0
 10
588.5558104133999
 20
480.1895090946
 30
0.0
 10
588.5561662769999
 20
480.3194580395
 30
0.0
 10
588.6064843848999
 20
480.5807674273999
 30
0.0
 10
588.8206850742
 20
480.9129275498
 30
0.0
 10
589.1421810701
 20
481.1369403985
 30
0.0
 10
589.3982568298
 20
481.1895090945999
 30
0.0
 10
589.5242954386
 20
481.1895090945999
 30
0.0
  0
SPLINE
  5
33D
330
212
100
AcDbEntity
  8
RUNDUNGEN
  6
Continuous
 62
     9
100
AcDbSpline
210
0.0
220
0.0
230
1.0
 70
     8
 71
     3
 72
    11
 73
     7
 74
     0
 42
0.0000000001
 43
0.0000000001
 40
0.0
 40
0.0
 40
0.0
 40
0.0
 40
0.2459838565
 40
0.4943392643
 40
0.7460104053
 40
1.0
 40
1.0
 40
1.0
 40
1.0
 10
559.4726019493
 20
481.1895090945999
 30
0.0
 10
559.5984019989
 20
481.1895090945999
 30
0.0
 10
559.8541079952999
 20
481.1368185724999
 30
0.0
 10
560.1751745880999
 20
480.9129624087999
 30
0.0
 10
560.3888472783999
 20
480.5807022506999
 30
0.0
 10
560.4385277755999
 20
480.3194034058
 30
0.0
 10
560.4385277755999
 20
480.1895090946
 30
0.0
  0
SPLINE
  5
33E
330
212
100
AcDbEntity
  8
RUNDUNGEN
  6
Continuous
 62
     9
100
AcDbSpline
210
0.0
220
0.0
230
1.0
 70
     8
 71
     3
 72
    11
 73
     7
 74
     0
 42
0.0000000001
 43
0.0000000001
 40
0.0
 40
0.0
 40
0.0
 40
0.0
 40
0.1408914839
 40
0.366082059
 40
0.6594246977
 40
1.0
 40
1.0
 40
1.0
 40
1.0
 10
560.4385277755999
 20
480.1895090946
 30
0.0
 10
560.4041647620999
 20
480.1912451760999
 30
0.0
 10
560.3146980501
 20
480.1899760829
 30
0.0
 10
560.1537065507
 20
480.1922289189
 30
0.0
 10
559.9438973549999
 20
480.1935262498999
 30
0.0
 10
559.7890743873001
 20
480.1919560507
 30
0.0
 10
559.7059173567999
 20
480.1934936579
 30
0.0
  0
SPLINE
  5
33F
330
212
100
AcDbEntity
  8
RUNDUNGEN
  6
Continuous
 62
     9
100
AcDbSpline
210
0.0
220
0.0
230
1.0
 70
     8
 71
     3
 72
    10
 73
     6
 74
     0
 42
0.0000000001
 43
0.0000000001
 40
0.0
 40
0.0
 40
0.0
 40
0.0
 40
0.5921062026000001
 40
0.8281323829999999
 40
1.0
 40
1.0
 40
1.0
 40
1.0
 10
559.7059173567999
 20
480.1934936579
 30
0.0
 10
559.7057452934999
 20
480.3785726825
 30
0.0
 10
559.6909070497
 20
480.6387167897
 30
0.0
 10
559.6298149969999
 20
480.9451466758
 30
0.0
 10
559.5880305935
 20
481.067155999
 30
0.0
 10
559.5615886841
 20
481.1139200259999
 30
0.0
  0
SPLINE
  5
340
330
212
100
AcDbEntity
  8
RUNDUNGEN
  6
Continuous
 62
     9
100
AcDbSpline
210
0.0
220
0.0
230
1.0
 70
     8
 71
     3
 72
     9
 73
     5
 74
     0
 42
0.0000000001
 43
0.0000000001
 40
0.0
 40
0.0
 40
0.0
 40
0.0
 40
0.3293276614
 40
1.0
 40
1.0
 40
1.0
 40
1.0
 10
559.5615886841
 20
481.1139200259999
 30
0.0
 10
559.5551514213999
 20
481.1253046926999
 30
0.0
 10
559.5348071599
 20
481.1580840677
 30
0.0
 10
559.4992363199
 20
481.1895090945999
 30
0.0
 10
559.4726019493
 20
481.1895090945999
 30
0.0
  0
SPLINE
  5
341
330
212
100
AcDbEntity
  8
RUNDUNGEN
  6
Continuous
 62
     9
100
AcDbSpline
210
0.0
220
0.0
230
1.0
 70
     8
 71
     3
 72
     9
 73
     5
 74
     0
 42
0.0000000001
 43
0.0000000001
 40
0.0
 40
0.0
 40
0.0
 40
0.0
 40
0.3405749359
 40
1.0
 40
1.0
 40
1.0
 40
1.0
 10
589.5686746467999
 20
480.1934936579
 30
0.0
 10
589.4855038985999
 20
480.1933086758
 30
0.0
 10
589.2413015393
 20
480.1923789184
 30
0.0
 10
588.9970760741
 20
480.1923295304
 30
0.0
 10
588.836064228
 20
480.1895090946
 30
0.0
  0
SPLINE
  5
342
330
212
100
AcDbEntity
  8
RUNDUNGEN
  6
Continuous
 62
     9
100
AcDbSpline
210
0.0
220
0.0
230
1.0
 70
     8
 71
     3
 72
    11
 73
     7
 74
     0
 42
0.0000000001
 43
0.0000000001
 40
0.0
 40
0.0
 40
0.0
 40
0.0
 40
0.2537231484
 40
0.5053760389999999
 40
0.753937324
 40
1.0
 40
1.0
 40
1.0
 40
1.0
 10
588.836064228
 20
480.1895090946
 30
0.0
 10
588.836064228
 20
480.3113940629
 30
0.0
 10
588.8797174968
 20
480.5563901623999
 30
0.0
 10
589.0684632385999
 20
480.8745174741999
 30
0.0
 10
589.3556698668
 20
481.1022917175
 30
0.0
 10
589.5897022547
 20
481.1726880899
 30
0.0
 10
589.7072970323001
 20
481.1846833915
 30
0.0
  0
SPLINE
  5
343
330
212
100
AcDbEntity
  8
RUNDUNGEN
  6
Continuous
 62
     9
100
AcDbSpline
210
0.0
220
0.0
230
1.0
 70
     8
 71
     3
 72
     9
 73
     5
 74
     0
 42
0.0000000001
 43
0.0000000001
 40
0.0
 40
0.0
 40
0.0
 40
0.0
 40
0.3405776382
 40
1.0
 40
1.0
 40
1.0
 40
1.0
 10
559.7018956352
 20
476.6686736632
 30
0.0
 10
559.7850540006
 20
476.6684887099
 30
0.0
 10
560.0292180633
 20
476.6675590358999
 30
0.0
 10
560.2734052347
 20
476.66750953
 30
0.0
 10
560.4343911636
 20
476.6646890930999
 30
0.0
  0
SPLINE
  5
344
330
212
100
AcDbEntity
  8
RUNDUNGEN
  6
Continuous
 62
     9
100
AcDbSpline
210
0.0
220
0.0
230
1.0
 70
     8
 71
     3
 72
    13
 73
     9
 74
     0
 42
0.0000000001
 43
0.0000000001
 40
0.0
 40
0.0
 40
0.0
 40
0.0
 40
0.2481923541
 40
0.3748317804
 40
0.5033458253000001
 40
0.6329453321999999
 40
0.7606693646
 40
1.0
 40
1.0
 40
1.0
 40
1.0
 10
560.4343911636
 20
476.6646890930999
 30
0.0
 10
560.4227068230999
 20
476.5386092401
 30
0.0
 10
560.4188744708999
 20
476.3458887221999
 30
0.0
 10
560.4589543857001
 20
476.0915089115
 30
0.0
 10
560.5214028548
 20
475.9040970813999
 30
0.0
 10
560.6284564836999
 20
475.7354304614
 30
0.0
 10
560.8356823062
 20
475.577869813
 30
0.0
 10
561.0407162508001
 20
475.569566953
 30
0.0
 10
561.1602868671
 20
475.5942867218999
 30
0.0
  0
SPLINE
  5
345
330
212
100
AcDbEntity
  8
RUNDUNGEN
  6
Continuous
 62
     9
100
AcDbSpline
210
0.0
220
0.0
230
1.0
 70
     8
 71
     3
 72
     9
 73
     5
 74
     0
 42
0.0000000001
 43
0.0000000001
 40
0.0
 40
0.0
 40
0.0
 40
0.0
 40
0.5488178287
 40
1.0
 40
1.0
 40
1.0
 40
1.0
 10
588.0394738174
 20
474.8322265228999
 30
0.0
 10
588.0395912746999
 20
474.9725280105
 30
0.0
 10
588.0508931821
 20
475.2281026991
 30
0.0
 10
588.0863665516
 20
475.4823796051
 30
0.0
 10
588.1143051282999
 20
475.5942864027
 30
0.0
  0
SPLINE
  5
346
330
212
100
AcDbEntity
  8
RUNDUNGEN
  6
Continuous
 62
     9
100
AcDbSpline
210
0.0
220
0.0
230
1.0
 70
     8
 71
     3
 72
    13
 73
     9
 74
     0
 42
0.0000000001
 43
0.0000000001
 40
0.0
 40
0.0
 40
0.0
 40
0.0
 40
0.2393312746
 40
0.3670551811
 40
0.4966545321
 40
0.6251684375
 40
0.7518077779000001
 40
1.0
 40
1.0
 40
1.0
 40
1.0
 10
588.1143051372999
 20
475.5942867172
 30
0.0
 10
588.2338760747
 20
475.5695668921999
 30
0.0
 10
588.4389104039
 20
475.5778699254
 30
0.0
 10
588.6461360937
 20
475.7354310405
 30
0.0
 10
588.7531893778
 20
475.9040975996
 30
0.0
 10
588.8156377273999
 20
476.0915092585999
 30
0.0
 10
588.8557174663999
 20
476.3458889079999
 30
0.0
 10
588.8518852196
 20
476.5386093119999
 30
0.0
 10
588.8402008322
 20
476.6646890929
 30
0.0
  0
SPLINE
  5
347
330
212
100
AcDbEntity
  8
RUNDUNGEN
  6
Continuous
 62
     9
100
AcDbSpline
210
0.0
220
0.0
230
1.0
 70
     8
 71
     3
 72
     9
 73
     5
 74
     0
 42
0.0000000001
 43
0.0000000001
 40
0.0
 40
0.0
 40
0.0
 40
0.0
 40
0.4920777657000001
 40
1.0
 40
1.0
 40
1.0
 40
1.0
 10
560.9444940459
 20
481.2606635532
 30
0.0
 10
561.0969613278999
 20
481.2616280029
 30
0.0
 10
561.4090184739
 20
481.2163753966
 30
0.0
 10
561.6904630306
 20
481.0658554516
 30
0.0
 10
561.8101018637
 20
480.9636060855999
 30
0.0
  0
SPLINE
  5
348
330
212
100
AcDbEntity
  8
RUNDUNGEN
  6
Continuous
 62
     9
100
AcDbSpline
210
0.0
220
0.0
230
1.0
 70
     8
 71
     3
 72
    12
 73
     8
 74
     0
 42
0.0000000001
 43
0.0000000001
 40
0.0
 40
0.0
 40
0.0
 40
0.0
 40
0.3632179001
 40
0.6746702033
 40
0.8918853348999999
 40
0.9581143176000001
 40
1.0
 40
1.0
 40
1.0
 40
1.0
 10
560.7523443889
 20
482.2605117732
 30
0.0
 10
560.7523443887999
 20
482.1342022708
 30
0.0
 10
560.760738175
 20
481.8991990998999
 30
0.0
 10
560.7970282623999
 20
481.5917057676
 30
0.0
 10
560.8457426361
 20
481.3878583469
 30
0.0
 10
560.8970150206999
 20
481.2873237073
 30
0.0
 10
560.9299859215
 20
481.2619590091999
 30
0.0
 10
560.9444940473
 20
481.260664078
 30
0.0
  0
SPLINE
  5
349
330
212
100
AcDbEntity
  8
RUNDUNGEN
  6
Continuous
 62
     9
100
AcDbSpline
210
0.0
220
0.0
230
1.0
 70
     8
 71
     3
 72
     9
 73
     5
 74
     0
 42
0.0000000001
 43
0.0000000001
 40
0.0
 40
0.0
 40
0.0
 40
0.0
 40
0.4702783977000001
 40
1.0
 40
1.0
 40
1.0
 40
1.0
 10
561.6635742180999
 20
480.2461174468
 30
0.0
 10
561.6996378496
 20
480.0627092232
 30
0.0
 10
561.9373784143
 20
479.7054368007
 30
0.0
 10
562.311050418
 20
479.5260102887
 30
0.0
 10
562.5165250044999
 20
479.4800733687999
 30
0.0
  0
SPLINE
  5
34A
330
212
100
AcDbEntity
  8
RUNDUNGEN
  6
Continuous
 62
     9
100
AcDbSpline
210
0.0
220
0.0
230
1.0
 70
     8
 71
     3
 72
    10
 73
     6
 74
     0
 42
0.0000000001
 43
0.0000000001
 40
0.0
 40
0.0
 40
0.0
 40
0.0
 40
0.2628752645
 40
0.5063267182
 40
1.0
 40
1.0
 40
1.0
 40
1.0
 10
561.8101029786999
 20
480.9636074723999
 30
0.0
 10
561.8374719944999
 20
480.9028949988999
 30
0.0
 10
561.8618789602
 20
480.7722341033
 30
0.0
 10
561.8213933416999
 20
480.5197996686
 30
0.0
 10
561.7332956472999
 20
480.3499465425
 30
0.0
 10
561.6635742180999
 20
480.2461174468
 30
0.0
  0
SPLINE
  5
34B
330
212
100
AcDbEntity
  8
RUNDUNGEN
  6
Continuous
 62
     9
100
AcDbSpline
210
0.0
220
0.0
230
1.0
 70
     8
 71
     3
 72
     9
 73
     5
 74
     0
 42
0.0000000001
 43
0.0000000001
 40
0.0
 40
0.0
 40
0.0
 40
0.0
 40
0.2804757598
 40
1.0
 40
1.0
 40
1.0
 40
1.0
 10
562.3929066667
 20
480.8897723095999
 30
0.0
 10
562.3385261341
 20
480.8779269084999
 30
0.0
 10
562.1430293679
 20
480.8500242072
 30
0.0
 10
561.9297395992999
 20
480.8856812319
 30
0.0
 10
561.810103044
 20
480.9636074754
 30
0.0
  0
SPLINE
  5
34C
330
212
100
AcDbEntity
  8
RUNDUNGEN
  6
Continuous
 62
     9
100
AcDbSpline
210
0.0
220
0.0
230
1.0
 70
     8
 71
     3
 72
    12
 73
     8
 74
     0
 42
0.0000000001
 43
0.0000000001
 40
0.0
 40
0.0
 40
0.0
 40
0.0
 40
0.0540300787
 40
0.1322380699
 40
0.3570146332
 40
0.6555668940000001
 40
1.0
 40
1.0
 40
1.0
 40
1.0
 10
561.810103044
 20
480.9636074754
 30
0.0
 10
561.8124538992
 20
480.9791074005
 30
0.0
 10
561.8281237567999
 20
481.0149121444999
 30
0.0
 10
561.8786561660999
 20
481.1049148626999
 30
0.0
 10
561.9805782166
 20
481.2474768017
 30
0.0
 10
562.1384445466999
 20
481.4434908564
 30
0.0
 10
562.2641852606999
 20
481.5814876296999
 30
0.0
 10
562.3309916754
 20
481.6558167526999
 30
0.0
  0
SPLINE
  5
34D
330
212
100
AcDbEntity
  8
RUNDUNGEN
  6
Continuous
 62
     9
100
AcDbSpline
210
0.0
220
0.0
230
1.0
 70
     8
 71
     3
 72
     9
 73
     5
 74
     0
 42
0.0000000001
 43
0.0000000001
 40
0.0
 40
0.0
 40
0.0
 40
0.0
 40
0.4502977465
 40
1.0
 40
1.0
 40
1.0
 40
1.0
 10
562.3929066667
 20
480.8897723095999
 30
0.0
 10
562.3695450866001
 20
481.0028681005
 30
0.0
 10
562.3402627294
 20
481.2584310523
 30
0.0
 10
562.3309916754
 20
481.5148400341
 30
0.0
 10
562.3309916754
 20
481.6558167526999
 30
0.0
  0
SPLINE
  5
34E
330
212
100
AcDbEntity
  8
RUNDUNGEN
  6
Continuous
 62
     9
100
AcDbSpline
210
0.0
220
0.0
230
1.0
 70
     8
 71
     3
 72
    10
 73
     6
 74
     0
 42
0.0000000001
 43
0.0000000001
 40
0.0
 40
0.0
 40
0.0
 40
0.0
 40
0.4936732804
 40
0.7371247288
 40
1.0
 40
1.0
 40
1.0
 40
1.0
 10
587.6110177844999
 20
480.2461174477
 30
0.0
 10
587.5412963616001
 20
480.3499465473
 30
0.0
 10
587.4531986793
 20
480.5197996606
 30
0.0
 10
587.4127130107999
 20
480.7722341127999
 30
0.0
 10
587.4371200660999
 20
480.9028949708999
 30
0.0
 10
587.4644890248999
 20
480.9636074719001
 30
0.0
  0
SPLINE
  5
34F
330
212
100
AcDbEntity
  8
RUNDUNGEN
  6
Continuous
 62
     9
100
AcDbSpline
210
0.0
220
0.0
230
1.0
 70
     8
 71
     3
 72
     9
 73
     5
 74
     0
 42
0.0000000001
 43
0.0000000001
 40
0.0
 40
0.0
 40
0.0
 40
0.0
 40
0.5297216023
 40
1.0
 40
1.0
 40
1.0
 40
1.0
 10
586.7580669989999
 20
479.4800733681999
 30
0.0
 10
586.9635415854999
 20
479.5260102884999
 30
0.0
 10
587.3372135889
 20
479.7054368012
 30
0.0
 10
587.5749541530999
 20
480.062709224
 30
0.0
 10
587.6110177844999
 20
480.2461174477
 30
0.0
  0
SPLINE
  5
350
330
212
100
AcDbEntity
  8
RUNDUNGEN
  6
Continuous
 62
     9
100
AcDbSpline
210
0.0
220
0.0
230
1.0
 70
     8
 71
     3
 72
    12
 73
     8
 74
     0
 42
0.0000000001
 43
0.0000000001
 40
0.0
 40
0.0
 40
0.0
 40
0.0
 40
0.0418856823
 40
0.1081146649
 40
0.3253297965
 40
0.6367820997
 40
1.0
 40
1.0
 40
1.0
 40
1.0
 10
588.3300979564999
 20
481.260664078
 30
0.0
 10
588.3446060823001
 20
481.2619590091999
 30
0.0
 10
588.3775769830999
 20
481.2873237071999
 30
0.0
 10
588.4288493676999
 20
481.3878583466999
 30
0.0
 10
588.4775637414
 20
481.5917057673999
 30
0.0
 10
588.5138538287
 20
481.8991990998
 30
0.0
 10
588.5222476147999
 20
482.1342022708
 30
0.0
 10
588.5222476147
 20
482.2605117732
 30
0.0
  0
SPLINE
  5
351
330
212
100
AcDbEntity
  8
RUNDUNGEN
  6
Continuous
 62
     9
100
AcDbSpline
210
0.0
220
0.0
230
1.0
 70
     8
 71
     3
 72
     9
 73
     5
 74
     0
 42
0.0000000001
 43
0.0000000001
 40
0.0
 40
0.0
 40
0.0
 40
0.0
 40
0.5079222329
 40
1.0
 40
1.0
 40
1.0
 40
1.0
 10
587.4644901468
 20
480.9636060782
 30
0.0
 10
587.5841289943
 20
481.0658554258999
 30
0.0
 10
587.8655735218
 20
481.2163754068
 30
0.0
 10
588.1776306758
 20
481.2616280033
 30
0.0
 10
588.3300979578
 20
481.260663553
 30
0.0
  0
SPLINE
  5
352
330
212
100
AcDbEntity
  8
RUNDUNGEN
  6
Continuous
 62
     9
100
AcDbSpline
210
0.0
220
0.0
230
1.0
 70
     8
 71
     3
 72
     9
 73
     5
 74
     0
 42
0.0000000001
 43
0.0000000001
 40
0.0
 40
0.0
 40
0.0
 40
0.0
 40
0.2249208242
 40
1.0
 40
1.0
 40
1.0
 40
1.0
 10
587.4644889605
 20
480.9636074749
 30
0.0
 10
587.4270270655999
 20
480.9391719644999
 30
0.0
 10
587.2456511548
 20
480.8527765944999
 30
0.0
 10
587.0324022868
 20
480.8575209720999
 30
0.0
 10
586.8816853378
 20
480.8897723095999
 30
0.0
  0
SPLINE
  5
353
330
212
100
AcDbEntity
  8
RUNDUNGEN
  6
Continuous
 62
     9
100
AcDbSpline
210
0.0
220
0.0
230
1.0
 70
     8
 71
     3
 72
     9
 73
     5
 74
     0
 42
0.0000000001
 43
0.0000000001
 40
0.0
 40
0.0
 40
0.0
 40
0.0
 40
0.5497024199000001
 40
1.0
 40
1.0
 40
1.0
 40
1.0
 10
586.9436003291999
 20
481.6558167526999
 30
0.0
 10
586.9436003291999
 20
481.5148399914
 30
0.0
 10
586.9343292732
 20
481.2584310093
 30
0.0
 10
586.9050469093
 20
481.0028680587
 30
0.0
 10
586.8816853378
 20
480.8897723095999
 30
0.0
  0
SPLINE
  5
354
330
212
100
AcDbEntity
  8
RUNDUNGEN
  6
Continuous
 62
     9
100
AcDbSpline
210
0.0
220
0.0
230
1.0
 70
     8
 71
     3
 72
    11
 73
     7
 74
     0
 42
0.0000000001
 43
0.0000000001
 40
0.0
 40
0.0
 40
0.0
 40
0.0
 40
0.3445752262
 40
0.6432193481000001
 40
0.8680381562999999
 40
1.0
 40
1.0
 40
1.0
 40
1.0
 10
586.9436003291999
 20
481.6558167526999
 30
0.0
 10
587.012367745
 20
481.583294211
 30
0.0
 10
587.1349010062999
 20
481.4425943109999
 30
0.0
 10
587.2945275444999
 20
481.2473260928999
 30
0.0
 10
587.4043037545
 20
481.0929642404
 30
0.0
 10
587.4550916907
 20
481.0007108241999
 30
0.0
 10
587.4644889605
 20
480.9636074749
 30
0.0
  0
SPLINE
  5
355
330
212
100
AcDbEntity
  8
RUNDUNGEN
  6
Continuous
 62
     9
100
AcDbSpline
210
0.0
220
0.0
230
1.0
 70
     8
 71
     3
 72
    10
 73
     6
 74
     0
 42
0.0000000001
 43
0.0000000001
 40
0.0
 40
0.0
 40
0.0
 40
0.0
 40
0.1659372497
 40
0.3974326836999999
 40
1.0
 40
1.0
 40
1.0
 40
1.0
 10
562.0697971339
 20
395.8333961337999
 30
0.0
 10
562.1111117868999
 20
395.7724042540001
 30
0.0
 10
562.2530086962999
 20
395.6582100758999
 30
0.0
 10
562.657728396
 20
395.4751808085
 30
0.0
 10
563.0334847716
 20
395.4132672189
 30
0.0
 10
563.3009887201999
 20
395.4116645343
 30
0.0
  0
LINE
  5
356
330
212
100
AcDbEntity
  8
RUNDUNGEN
  6
Continuous
 62
     9
100
AcDbLine
 10
562.0697967362999
 20
395.8334040318
 30
0.0
 11
560.9979279896
 21
417.1346963925
 31
0.0
  0
SPLINE
  5
357
330
212
100
AcDbEntity
  8
RUNDUNGEN
  6
Continuous
 62
     9
100
AcDbSpline
210
0.0
220
0.0
230
1.0
 70
     8
 71
     3
 72
    10
 73
     6
 74
     0
 42
0.0000000001
 43
0.0000000001
 40
0.0
 40
0.0
 40
0.0
 40
0.0
 40
0.2621957866
 40
0.5169168569
 40
1.0
 40
1.0
 40
1.0
 40
1.0
 10
562.3174390669
 20
414.9861291148
 30
0.0
 10
562.1761680429
 20
414.9919668996
 30
0.0
 10
561.9113675451999
 20
415.1376116133999
 30
0.0
 10
561.5599849008999
 20
415.5447372213999
 30
0.0
 10
561.3751658155
 20
415.9048627091999
 30
0.0
 10
561.2771909123999
 20
416.1462439996999
 30
0.0
  0
SPLINE
  5
358
330
212
100
AcDbEntity
  8
RUNDUNGEN
  6
Continuous
 62
     9
100
AcDbSpline
210
0.0
220
0.0
230
1.0
 70
     8
 71
     3
 72
    10
 73
     6
 74
     0
 42
0.0000000001
 43
0.0000000001
 40
0.0
 40
0.0
 40
0.0
 40
0.0
 40
0.6025672687000001
 40
0.8340627504
 40
1.0
 40
1.0
 40
1.0
 40
1.0
 10
585.9736031805
 20
395.4116645288
 30
0.0
 10
586.2411071293999
 20
395.4132672237
 30
0.0
 10
586.6168634833999
 20
395.4751808105001
 30
0.0
 10
587.0215833268999
 20
395.6582100627
 30
0.0
 10
587.1634800893
 20
395.7724043592
 30
0.0
 10
587.2047948818
 20
395.8333961516
 30
0.0
  0
SPLINE
  5
359
330
212
100
AcDbEntity
  8
RUNDUNGEN
  6
Continuous
 62
     9
100
AcDbSpline
210
0.0
220
0.0
230
1.0
 70
     8
 71
     3
 72
    10
 73
     6
 74
     0
 42
0.0000000001
 43
0.0000000001
 40
0.0
 40
0.0
 40
0.0
 40
0.0
 40
0.4830839693
 40
0.7378077552
 40
1.0
 40
1.0
 40
1.0
 40
1.0
 10
587.9974009400999
 20
416.1462436408
 30
0.0
 10
587.8994325776999
 20
415.9048613123
 30
0.0
 10
587.7145909699
 20
415.5447474724999
 30
0.0
 10
587.3632097864
 20
415.1376279651
 30
0.0
 10
587.0984205685999
 20
414.9919771691999
 30
0.0
 10
586.9571529365999
 20
414.9861291148
 30
0.0
  0
LINE
  5
35A
330
212
100
AcDbEntity
  8
RUNDUNGEN
  6
Continuous
 62
     9
100
AcDbLine
 10
588.276664014
 20
417.1346963925
 30
0.0
 11
587.2047952786
 21
395.8334040341
 31
0.0
  0
SPLINE
  5
35B
330
212
100
AcDbEntity
  8
RUNDUNGEN
  6
Continuous
 62
     9
100
AcDbSpline
210
0.0
220
0.0
230
1.0
 70
     8
 71
     3
 72
    10
 73
     6
 74
     0
 42
0.0000000001
 43
0.0000000001
 40
0.0
 40
0.0
 40
0.0
 40
0.0
 40
0.5770722379
 40
0.8200568690999999
 40
1.0
 40
1.0
 40
1.0
 40
1.0
 10
557.2438787541999
 20
417.8117697045999
 30
0.0
 10
557.5003483125
 20
417.8100459893
 30
0.0
 10
557.8715996687999
 20
417.8701672674
 30
0.0
 10
558.2732990301999
 20
418.0611161798999
 30
0.0
 10
558.4179318870999
 20
418.1944556019
 30
0.0
 10
558.4541472123
 20
418.2657602092
 30
0.0
  0
SPLINE
  5
35C
330
212
100
AcDbEntity
  8
RUNDUNGEN
  6
Continuous
 62
     9
100
AcDbSpline
210
0.0
220
0.0
230
1.0
 70
     8
 71
     3
 72
    10
 73
     6
 74
     0
 42
0.0000000001
 43
0.0000000001
 40
0.0
 40
0.0
 40
0.0
 40
0.0
 40
0.1799536287
 40
0.4230417985
 40
1.0
 40
1.0
 40
1.0
 40
1.0
 10
561.394856396
 20
395.9700096289
 30
0.0
 10
561.3585588330001
 20
395.898538679
 30
0.0
 10
561.2134566594
 20
395.7649370312
 30
0.0
 10
560.8107200679
 20
395.5738656999
 30
0.0
 10
560.4385432223999
 20
395.5139067614
 30
0.0
 10
560.1815472916999
 20
395.5160190803
 30
0.0
  0
SPLINE
  5
35D
330
212
100
AcDbEntity
  8
RUNDUNGEN
  6
Continuous
 62
     9
100
AcDbSpline
210
0.0
220
0.0
230
1.0
 70
     8
 71
     3
 72
     9
 73
     5
 74
     0
 42
0.0000000001
 43
0.0000000001
 40
0.0
 40
0.0
 40
0.0
 40
0.0
 40
0.6187012662
 40
1.0
 40
1.0
 40
1.0
 40
1.0
 10
557.1576242244
 20
419.1617875426
 30
0.0
 10
557.4133767902
 20
419.1617706574
 30
0.0
 10
557.8267374789
 20
419.1629541035999
 30
0.0
 10
558.2401261646
 20
419.1633455406999
 30
0.0
 10
558.3977249573999
 20
419.165772082
 30
0.0
  0
SPLINE
  5
35E
330
212
100
AcDbEntity
  8
RUNDUNGEN
  6
Continuous
 62
     9
100
AcDbSpline
210
0.0
220
0.0
230
1.0
 70
     8
 71
     3
 72
    11
 73
     7
 74
     0
 42
0.0000000001
 43
0.0000000001
 40
0.0
 40
0.0
 40
0.0
 40
0.0
 40
0.2533645866
 40
0.5054060348000001
 40
0.7542959162000001
 40
1.0
 40
1.0
 40
1.0
 40
1.0
 10
562.8638739587001
 20
421.3288499433
 30
0.0
 10
562.8659830180001
 20
421.4588024094
 30
0.0
 10
562.9189404158999
 20
421.7199836892
 30
0.0
 10
563.1368496727999
 20
422.0509262083999
 30
0.0
 10
563.4597490935
 20
422.2741172191
 30
0.0
 10
563.7161910865
 20
422.3274174403999
 30
0.0
 10
563.8422310077999
 20
422.3274794781
 30
0.0
  0
SPLINE
  5
35F
330
212
100
AcDbEntity
  8
RUNDUNGEN
  6
Continuous
 62
     9
100
AcDbSpline
210
0.0
220
0.0
230
1.0
 70
     8
 71
     3
 72
    11
 73
     7
 74
     0
 42
0.0000000001
 43
0.0000000001
 40
0.0
 40
0.0
 40
0.0
 40
0.0
 40
0.3534608842
 40
0.6597472782000001
 40
0.8803793973000001
 40
1.0
 40
1.0
 40
1.0
 40
1.0
 10
564.0673271734999
 20
421.3288499433999
 30
0.0
 10
564.0673271734999
 20
421.4524994149
 30
0.0
 10
564.0581853291
 20
421.6823178639
 30
0.0
 10
564.0129101141999
 20
421.9920694394
 30
0.0
 10
563.9563849537
 20
422.2013677365
 30
0.0
 10
563.8830944628999
 20
422.3184634107999
 30
0.0
 10
563.8422310077999
 20
422.3274794781
 30
0.0
  0
SPLINE
  5
360
330
212
100
AcDbEntity
  8
RUNDUNGEN
  6
Continuous
 62
     9
100
AcDbSpline
210
0.0
220
0.0
230
1.0
 70
     8
 71
     3
 72
    11
 73
     7
 74
     0
 42
0.0000000001
 43
0.0000000001
 40
0.0
 40
0.0
 40
0.0
 40
0.0
 40
0.353460885
 40
0.6597472796
 40
0.880379398
 40
1.0
 40
1.0
 40
1.0
 40
1.0
 10
585.2072648294
 20
421.3288499433999
 30
0.0
 10
585.2072648294
 20
421.4524994151999
 30
0.0
 10
585.2164066749
 20
421.6823178647
 30
0.0
 10
585.2616818895
 20
421.9920694404
 30
0.0
 10
585.3182070501999
 20
422.2013677372999
 30
0.0
 10
585.3914975409
 20
422.3184634107999
 30
0.0
 10
585.4323609957
 20
422.3274794781
 30
0.0
  0
SPLINE
  5
361
330
212
100
AcDbEntity
  8
RUNDUNGEN
  6
Continuous
 62
     9
100
AcDbSpline
210
0.0
220
0.0
230
1.0
 70
     8
 71
     3
 72
    11
 73
     7
 74
     0
 42
0.0000000001
 43
0.0000000001
 40
0.0
 40
0.0
 40
0.0
 40
0.0
 40
0.2533645915
 40
0.5054060414000001
 40
0.7542959206999999
 40
1.0
 40
1.0
 40
1.0
 40
1.0
 10
586.4107180449
 20
421.3288499433
 30
0.0
 10
586.4086089753
 20
421.4588024118
 30
0.0
 10
586.3556515921
 20
421.7199836959999
 30
0.0
 10
586.1377423230999
 20
422.0509262142
 30
0.0
 10
585.8148429049999
 20
422.2741172219
 30
0.0
 10
585.5584009148
 20
422.3274174396999
 30
0.0
 10
585.4323609957
 20
422.3274794781
 30
0.0
  0
SPLINE
  5
362
330
212
100
AcDbEntity
  8
RUNDUNGEN
  6
Continuous
 62
     9
100
AcDbSpline
210
0.0
220
0.0
230
1.0
 70
     8
 71
     3
 72
    11
 73
     7
 74
     0
 42
0.0000000001
 43
0.0000000001
 40
0.0
 40
0.0
 40
0.0
 40
0.0
 40
0.3529063695
 40
0.6586109013
 40
0.8791810582
 40
1.0
 40
1.0
 40
1.0
 40
1.0
 10
559.1133831512
 20
424.2328527215
 30
0.0
 10
559.1135026937999
 20
424.1095945882999
 30
0.0
 10
559.1230251226999
 20
423.8804625655999
 30
0.0
 10
559.1695576851999
 20
423.5720655858
 30
0.0
 10
559.2275034487999
 20
423.3627140843
 30
0.0
 10
559.3028129997
 20
423.2470892063999
 30
0.0
 10
559.3440657141999
 20
423.2382077500999
 30
0.0
  0
SPLINE
  5
363
330
212
100
AcDbEntity
  8
RUNDUNGEN
  6
Continuous
 62
     9
100
AcDbSpline
210
0.0
220
0.0
230
1.0
 70
     8
 71
     3
 72
    10
 73
     6
 74
     0
 42
0.0000000001
 43
0.0000000001
 40
0.0
 40
0.0
 40
0.0
 40
0.0
 40
0.5769581872
 40
0.8200463724
 40
1.0
 40
1.0
 40
1.0
 40
1.0
 10
589.0930452364999
 20
395.5160190846
 30
0.0
 10
588.8360492085999
 20
395.5139066964
 30
0.0
 10
588.4638721953
 20
395.5738656085
 30
0.0
 10
588.0611354203999
 20
395.7649369674
 30
0.0
 10
587.916033169
 20
395.8985386676
 30
0.0
 10
587.8797355973
 20
395.970009649
 30
0.0
  0
SPLINE
  5
364
330
212
100
AcDbEntity
  8
RUNDUNGEN
  6
Continuous
 62
     9
100
AcDbSpline
210
0.0
220
0.0
230
1.0
 70
     8
 71
     3
 72
    10
 73
     6
 74
     0
 42
0.0000000001
 43
0.0000000001
 40
0.0
 40
0.0
 40
0.0
 40
0.0
 40
0.5770716203
 40
0.8200564371
 40
1.0
 40
1.0
 40
1.0
 40
1.0
 10
592.0307118297
 20
417.8117723424
 30
0.0
 10
591.7742430846
 20
417.8100486431
 30
0.0
 10
591.4029927743
 20
417.8701694937
 30
0.0
 10
591.0012938812
 20
418.0611172226
 30
0.0
 10
590.8566606497999
 20
418.1944558458999
 30
0.0
 10
590.8204447913
 20
418.2657602092
 30
0.0
  0
SPLINE
  5
365
330
212
100
AcDbEntity
  8
RUNDUNGEN
  6
Continuous
 62
     9
100
AcDbSpline
210
0.0
220
0.0
230
1.0
 70
     8
 71
     3
 72
     9
 73
     5
 74
     0
 42
0.0000000001
 43
0.0000000001
 40
0.0
 40
0.0
 40
0.0
 40
0.0
 40
0.6187024149
 40
1.0
 40
1.0
 40
1.0
 40
1.0
 10
592.1169694170999
 20
419.1617875188
 30
0.0
 10
591.8612160384999
 20
419.1617706305
 30
0.0
 10
591.4478548043
 20
419.1629541016999
 30
0.0
 10
591.0344655715999
 20
419.1633454983999
 30
0.0
 10
590.8768670461999
 20
419.165772082
 30
0.0
  0
SPLINE
  5
366
330
212
100
AcDbEntity
  8
RUNDUNGEN
  6
Continuous
 62
     9
100
AcDbSpline
210
0.0
220
0.0
230
1.0
 70
     8
 71
     3
 72
     9
 73
     5
 74
     0
 42
0.0000000001
 43
0.0000000001
 40
0.0
 40
0.0
 40
0.0
 40
0.0
 40
0.6187045228
 40
1.0
 40
1.0
 40
1.0
 40
1.0
 10
592.1201307276999
 20
422.2296897204
 30
0.0
 10
591.8643770935
 20
422.2296728331
 30
0.0
 10
591.4510168541
 20
422.2308562578
 30
0.0
 10
591.0376286168
 20
422.2312477166
 30
0.0
 10
590.8800313419
 20
422.2336742837
 30
0.0
  0
SPLINE
  5
367
330
212
100
AcDbEntity
  8
RUNDUNGEN
  6
Continuous
 62
     9
100
AcDbSpline
210
0.0
220
0.0
230
1.0
 70
     8
 71
     3
 72
    11
 73
     7
 74
     0
 42
0.0000000001
 43
0.0000000001
 40
0.0
 40
0.0
 40
0.0
 40
0.0
 40
0.2541230044
 40
0.5046068578
 40
0.7522336413
 40
1.0
 40
1.0
 40
1.0
 40
1.0
 10
590.8800312296
 20
422.2336742837
 30
0.0
 10
590.8820409403
 20
422.3633086489
 30
0.0
 10
590.8377213042999
 20
422.624187058
 30
0.0
 10
590.6314658853999
 20
422.9591997346999
 30
0.0
 10
590.3129181135
 20
423.1859580994999
 30
0.0
 10
590.0569331422
 20
423.2383136736999
 30
0.0
 10
589.9305263162
 20
423.2382056662
 30
0.0
  0
SPLINE
  5
368
330
212
100
AcDbEntity
  8
RUNDUNGEN
  6
Continuous
 62
     9
100
AcDbSpline
210
0.0
220
0.0
230
1.0
 70
     8
 71
     3
 72
    11
 73
     7
 74
     0
 42
0.0000000001
 43
0.0000000001
 40
0.0
 40
0.0
 40
0.0
 40
0.0
 40
0.1208189416
 40
0.3413890986
 40
0.6470936305000001
 40
1.0
 40
1.0
 40
1.0
 40
1.0
 10
589.9305262894
 20
423.2382077500999
 30
0.0
 10
589.9717790037999
 20
423.2470892064999
 30
0.0
 10
590.0470885540999
 20
423.3627140847
 30
0.0
 10
590.1050343175
 20
423.5720655859999
 30
0.0
 10
590.1515668801001
 20
423.8804625658
 30
0.0
 10
590.1610893094
 20
424.1095945882999
 30
0.0
 10
590.1612088522999
 20
424.2328527215
 30
0.0
  0
SPLINE
  5
369
330
212
100
AcDbEntity
  8
RUNDUNGEN
  6
Continuous
 62
     9
100
AcDbSpline
210
0.0
220
0.0
230
1.0
 70
     8
 71
     3
 72
    11
 73
     7
 74
     0
 42
0.0000000001
 43
0.0000000001
 40
0.0
 40
0.0
 40
0.0
 40
0.0
 40
0.2477662037
 40
0.4953930319000001
 40
0.7458769229000001
 40
1.0
 40
1.0
 40
1.0
 40
1.0
 10
559.344065686
 20
423.2382055597
 30
0.0
 10
559.2176589412
 20
423.2383135772
 30
0.0
 10
558.961674023
 20
423.1859581277999
 30
0.0
 10
558.6431262042
 20
422.9591998721
 30
0.0
 10
558.4368707108
 20
422.6241871462999
 30
0.0
 10
558.3925510677
 20
422.3633086839
 30
0.0
 10
558.3945607705
 20
422.2336742837
 30
0.0
  0
SPLINE
  5
36A
330
212
100
AcDbEntity
  8
RUNDUNGEN
  6
Continuous
 62
     9
100
AcDbSpline
210
0.0
220
0.0
230
1.0
 70
     8
 71
     3
 72
     9
 73
     5
 74
     0
 42
0.0000000001
 43
0.0000000001
 40
0.0
 40
0.0
 40
0.0
 40
0.0
 40
0.3812954986
 40
1.0
 40
1.0
 40
1.0
 40
1.0
 10
558.3945607705
 20
422.2336742837
 30
0.0
 10
558.2369634798999
 20
422.2312477165
 30
0.0
 10
557.8235752245999
 20
422.2308562583
 30
0.0
 10
557.4102149672
 20
422.2296728337
 30
0.0
 10
557.1544613307
 20
422.2296897212
 30
0.0
  0
SPLINE
  5
36B
330
212
100
AcDbEntity
  8
RUNDUNGEN
  6
Continuous
 62
     9
100
AcDbSpline
210
0.0
220
0.0
230
1.0
 70
     8
 71
     3
 72
    11
 73
     7
 74
     0
 42
0.0000000001
 43
0.0000000001
 40
0.0
 40
0.0
 40
0.0
 40
0.0
 40
0.2458538137
 40
0.4943762122
 40
0.7461835596
 40
1.0
 40
1.0
 40
1.0
 40
1.0
 10
563.8339452093
 20
416.260664078
 30
0.0
 10
563.7080653501
 20
416.2606844728999
 30
0.0
 10
563.4520936464999
 20
416.3136060268
 30
0.0
 10
563.1304543790999
 20
416.5373161826999
 30
0.0
 10
562.9152383844999
 20
416.8692253707
 30
0.0
 10
562.8647791516
 20
417.1305581123
 30
0.0
 10
562.8638739587001
 20
417.2605117732
 30
0.0
  0
SPLINE
  5
36C
330
212
100
AcDbEntity
  8
RUNDUNGEN
  6
Continuous
 62
     9
100
AcDbSpline
210
0.0
220
0.0
230
1.0
 70
     8
 71
     3
 72
    12
 73
     8
 74
     0
 42
0.0000000001
 43
0.0000000001
 40
0.0
 40
0.0
 40
0.0
 40
0.0
 40
0.1142973884
 40
0.2105611732
 40
0.3329232842
 40
0.6414546599000001
 40
1.0
 40
1.0
 40
1.0
 40
1.0
 10
563.8339452093
 20
416.260664078
 30
0.0
 10
563.8741157551
 20
416.2636160723
 30
0.0
 10
563.9268216704
 20
416.3378217371
 30
0.0
 10
563.9684454205
 20
416.4419705482999
 30
0.0
 10
564.0185237854
 20
416.6236290188
 30
0.0
 10
564.0566765830999
 20
416.8986004649999
 30
0.0
 10
564.0673271741999
 20
417.1341589336
 30
0.0
 10
564.0673271741999
 20
417.2605117732
 30
0.0
  0
SPLINE
  5
36D
330
212
100
AcDbEntity
  8
RUNDUNGEN
  6
Continuous
 62
     9
100
AcDbSpline
210
0.0
220
0.0
230
1.0
 70
     8
 71
     3
 72
    12
 73
     8
 74
     0
 42
0.0000000001
 43
0.0000000001
 40
0.0
 40
0.0
 40
0.0
 40
0.0
 40
0.1142973885
 40
0.2105611732
 40
0.3329232843
 40
0.6414546599000001
 40
1.0
 40
1.0
 40
1.0
 40
1.0
 10
585.4406467943
 20
416.260664078
 30
0.0
 10
585.4004762485
 20
416.2636160723
 30
0.0
 10
585.3477703331999
 20
416.3378217371
 30
0.0
 10
585.3061465829999
 20
416.4419705482999
 30
0.0
 10
585.2560682182
 20
416.6236290188
 30
0.0
 10
585.2179154205
 20
416.8986004649999
 30
0.0
 10
585.2072648294
 20
417.1341589336
 30
0.0
 10
585.2072648294
 20
417.2605117732
 30
0.0
  0
SPLINE
  5
36E
330
212
100
AcDbEntity
  8
RUNDUNGEN
  6
Continuous
 62
     9
100
AcDbSpline
210
0.0
220
0.0
230
1.0
 70
     8
 71
     3
 72
    11
 73
     7
 74
     0
 42
0.0000000001
 43
0.0000000001
 40
0.0
 40
0.0
 40
0.0
 40
0.0
 40
0.245853807
 40
0.4943762024
 40
0.7461835523999999
 40
1.0
 40
1.0
 40
1.0
 40
1.0
 10
585.4406467943
 20
416.260664078
 30
0.0
 10
585.5665266501
 20
416.2606844732
 30
0.0
 10
585.8224983494999
 20
416.3136060232
 30
0.0
 10
586.1441376133
 20
416.5373161741
 30
0.0
 10
586.3593536254
 20
416.8692253609999
 30
0.0
 10
586.4098128370999
 20
417.1305581087
 30
0.0
 10
586.4107180449
 20
417.2605117732
 30
0.0
  0
SPLINE
  5
36F
330
212
100
AcDbEntity
  8
RUNDUNGEN
  6
Continuous
 62
     9
100
AcDbSpline
210
0.0
220
0.0
230
1.0
 70
     8
 71
     3
 72
     9
 73
     5
 74
     0
 42
0.0000000001
 43
0.0000000001
 40
0.0
 40
0.0
 40
0.0
 40
0.0
 40
0.2290857683
 40
1.0
 40
1.0
 40
1.0
 40
1.0
 10
588.276664014
 20
417.1346963925
 30
0.0
 10
588.2520403653
 20
417.0967509705
 30
0.0
 10
588.1376758997999
 20
416.9356080817999
 30
0.0
 10
587.9983515558999
 20
416.7928096106999
 30
0.0
 10
587.882624455
 20
416.6939206497
 30
0.0
  0
SPLINE
  5
370
330
212
100
AcDbEntity
  8
RUNDUNGEN
  6
Continuous
 62
     9
100
AcDbSpline
210
0.0
220
0.0
230
1.0
 70
     8
 71
     3
 72
     9
 73
     5
 74
     0
 42
0.0000000001
 43
0.0000000001
 40
0.0
 40
0.0
 40
0.0
 40
0.0
 40
0.2464454752
 40
1.0
 40
1.0
 40
1.0
 40
1.0
 10
588.276664014
 20
417.1346963925
 30
0.0
 10
588.2622713883001
 20
417.0514672141999
 30
0.0
 10
588.1952538335
 20
416.7153438609999
 30
0.0
 10
588.0945197371
 20
416.3855505257
 30
0.0
 10
587.9973989194999
 20
416.1462410009999
 30
0.0
  0
SPLINE
  5
371
330
212
100
AcDbEntity
  8
RUNDUNGEN
  6
Continuous
 62
     9
100
AcDbSpline
210
0.0
220
0.0
230
1.0
 70
     8
 71
     3
 72
    10
 73
     6
 74
     0
 42
0.0000000001
 43
0.0000000001
 40
0.0
 40
0.0
 40
0.0
 40
0.0
 40
0.4186971556000001
 40
0.6814744756000001
 40
1.0
 40
1.0
 40
1.0
 40
1.0
 10
587.8826179952999
 20
416.6939241216999
 30
0.0
 10
587.7442707212
 20
416.5757218208
 30
0.0
 10
587.496700549
 20
416.4070669133999
 30
0.0
 10
587.0977499253999
 20
416.2332365226999
 30
0.0
 10
586.8460592161
 20
416.1791548087999
 30
0.0
 10
586.7076509437
 20
416.1766122967
 30
0.0
  0
SPLINE
  5
372
330
212
100
AcDbEntity
  8
RUNDUNGEN
  6
Continuous
 62
     9
100
AcDbSpline
210
0.0
220
0.0
230
1.0
 70
     8
 71
     3
 72
    13
 73
     9
 74
     0
 42
0.0000000001
 43
0.0000000001
 40
0.0
 40
0.0
 40
0.0
 40
0.0
 40
0.0467998414
 40
0.1174531449
 40
0.2167247809
 40
0.3426925779
 40
0.6543374934
 40
1.0
 40
1.0
 40
1.0
 40
1.0
 10
586.6896376451999
 20
416.1764466331
 30
0.0
 10
586.7091157923
 20
416.17502748
 30
0.0
 10
586.7536832792
 20
416.1448493075
 30
0.0
 10
586.7981691187999
 20
416.0658120958
 30
0.0
 10
586.8406149059999
 20
415.9492822189999
 30
0.0
 10
586.8907522127999
 20
415.7306196303999
 30
0.0
 10
586.9256193174
 20
415.4046296594999
 30
0.0
 10
586.9273390316999
 20
415.1298802569999
 30
0.0
 10
586.9206289633
 20
414.9857899426
 30
0.0
  0
SPLINE
  5
373
330
212
100
AcDbEntity
  8
RUNDUNGEN
  6
Continuous
 62
     9
100
AcDbSpline
210
0.0
220
0.0
230
1.0
 70
     8
 71
     3
 72
    13
 73
     9
 74
     0
 42
0.0000000001
 43
0.0000000001
 40
0.0
 40
0.0
 40
0.0
 40
0.0
 40
0.0466657558
 40
0.1175535815
 40
0.2171100433
 40
0.343291132
 40
0.6549607729
 40
1.0
 40
1.0
 40
1.0
 40
1.0
 10
586.7076509818
 20
416.1766094866
 30
0.0
 10
586.7271026297999
 20
416.175143819
 30
0.0
 10
586.7715992411
 20
416.1447172043
 30
0.0
 10
586.8168530005
 20
416.0659162334999
 30
0.0
 10
586.8608786083
 20
415.9493842026
 30
0.0
 10
586.9142944312999
 20
415.7309230201999
 30
0.0
 10
586.9545859349999
 20
415.4051773449999
 30
0.0
 10
586.9612157254
 20
415.1303020173
 30
0.0
 10
586.9571529057
 20
414.9861291398999
 30
0.0
  0
SPLINE
  5
374
330
212
100
AcDbEntity
  8
RUNDUNGEN
  6
Continuous
 62
     9
100
AcDbSpline
210
0.0
220
0.0
230
1.0
 70
     8
 71
     3
 72
    13
 73
     9
 74
     0
 42
0.0000000001
 43
0.0000000001
 40
0.0
 40
0.0
 40
0.0
 40
0.0
 40
0.3456625066
 40
0.6573074221000001
 40
0.7832752191
 40
0.8825468551
 40
0.9532001585999999
 40
1.0
 40
1.0
 40
1.0
 40
1.0
 10
562.3539630403
 20
414.9857899426
 30
0.0
 10
562.3472529719
 20
415.1298802569999
 30
0.0
 10
562.3489726862
 20
415.4046296594999
 30
0.0
 10
562.3838397908
 20
415.7306196303999
 30
0.0
 10
562.4339770976
 20
415.9492822189999
 30
0.0
 10
562.4764228848
 20
416.0658120958
 30
0.0
 10
562.5209087244
 20
416.1448493075
 30
0.0
 10
562.5654762112999
 20
416.17502748
 30
0.0
 10
562.5849543583999
 20
416.1764466331
 30
0.0
  0
SPLINE
  5
375
330
212
100
AcDbEntity
  8
RUNDUNGEN
  6
Continuous
 62
     9
100
AcDbSpline
210
0.0
220
0.0
230
1.0
 70
     8
 71
     3
 72
    10
 73
     6
 74
     0
 42
0.0000000001
 43
0.0000000001
 40
0.0
 40
0.0
 40
0.0
 40
0.0
 40
0.3185246273
 40
0.5812995653000001
 40
1.0
 40
1.0
 40
1.0
 40
1.0
 10
562.566941066
 20
416.1766127484999
 30
0.0
 10
562.4285327088999
 20
416.1791554447
 30
0.0
 10
562.1768427673
 20
416.2332359788
 30
0.0
 10
561.7778883628
 20
416.4070635503
 30
0.0
 10
561.5303230401
 20
416.5757270508
 30
0.0
 10
561.3919711080999
 20
416.6939270611
 30
0.0
  0
SPLINE
  5
376
330
212
100
AcDbEntity
  8
RUNDUNGEN
  6
Continuous
 62
     9
100
AcDbSpline
210
0.0
220
0.0
230
1.0
 70
     8
 71
     3
 72
    13
 73
     9
 74
     0
 42
0.0000000001
 43
0.0000000001
 40
0.0
 40
0.0
 40
0.0
 40
0.0
 40
0.0466651022
 40
0.1175529503
 40
0.2171101009
 40
0.343292027
 40
0.65496213
 40
1.0
 40
1.0
 40
1.0
 40
1.0
 10
562.566941066
 20
416.1766127484999
 30
0.0
 10
562.547489653
 20
416.1751477420999
 30
0.0
 10
562.5029927957
 20
416.1447212541
 30
0.0
 10
562.4577401312
 20
416.0659197611
 30
0.0
 10
562.4137152441
 20
415.9493868385999
 30
0.0
 10
562.3603008441
 20
415.7309245923999
 30
0.0
 10
562.3200104024999
 20
415.4051790668
 30
0.0
 10
562.3133803937999
 20
415.130304314
 30
0.0
 10
562.317442713
 20
414.9861320698999
 30
0.0
  0
SPLINE
  5
377
330
212
100
AcDbEntity
  8
RUNDUNGEN
  6
Continuous
 62
     9
100
AcDbSpline
210
0.0
220
0.0
230
1.0
 70
     8
 71
     3
 72
     9
 73
     5
 74
     0
 42
0.0000000001
 43
0.0000000001
 40
0.0
 40
0.0
 40
0.0
 40
0.0
 40
0.2541915771
 40
1.0
 40
1.0
 40
1.0
 40
1.0
 10
561.2771901401999
 20
416.1462472141
 30
0.0
 10
561.2444227716
 20
416.226976395
 30
0.0
 10
561.1254156768
 20
416.548531141
 30
0.0
 10
561.0414887926999
 20
416.8828046566999
 30
0.0
 10
560.9979279896
 20
417.1346963925
 30
0.0
  0
SPLINE
  5
378
330
212
100
AcDbEntity
  8
RUNDUNGEN
  6
Continuous
 62
     9
100
AcDbSpline
210
0.0
220
0.0
230
1.0
 70
     8
 71
     3
 72
     9
 73
     5
 74
     0
 42
0.0000000001
 43
0.0000000001
 40
0.0
 40
0.0
 40
0.0
 40
0.0
 40
0.2732937875
 40
1.0
 40
1.0
 40
1.0
 40
1.0
 10
561.3919662873001
 20
416.6939244696
 30
0.0
 10
561.3509408638999
 20
416.7289781383999
 30
0.0
 10
561.2051934045999
 20
416.8621469319
 30
0.0
 10
561.076032571
 20
417.014329209
 30
0.0
 10
560.9979279896
 20
417.1346963925
 30
0.0
  0
SPLINE
  5
379
330
212
100
AcDbEntity
  8
RUNDUNGEN
  6
Continuous
 62
     9
100
AcDbSpline
210
0.0
220
0.0
230
1.0
 70
     8
 71
     3
 72
    11
 73
     7
 74
     0
 42
0.0000000001
 43
0.0000000001
 40
0.0
 40
0.0
 40
0.0
 40
0.0
 40
0.2457014084
 40
0.4945843932000001
 40
0.7466324798999999
 40
1.0
 40
1.0
 40
1.0
 40
1.0
 10
588.676339749
 20
394.3354608963
 30
0.0
 10
588.4869604931
 20
394.3351444971
 30
0.0
 10
588.1014222241
 20
394.4140668248
 30
0.0
 10
587.6155447413
 20
394.7487106426
 30
0.0
 10
587.2879537245999
 20
395.2456942067
 30
0.0
 10
587.2074484435
 20
395.6381348074
 30
0.0
 10
587.2048010331999
 20
395.8334051987
 30
0.0
  0
SPLINE
  5
37A
330
212
100
AcDbEntity
  8
RUNDUNGEN
  6
Continuous
 62
     9
100
AcDbSpline
210
0.0
220
0.0
230
1.0
 70
     8
 71
     3
 72
    12
 73
     8
 74
     0
 42
0.0000000001
 43
0.0000000001
 40
0.0
 40
0.0
 40
0.0
 40
0.0
 40
0.1220410067
 40
0.2178991942
 40
0.3375872497
 40
0.6392561495
 40
1.0
 40
1.0
 40
1.0
 40
1.0
 10
585.6407036680999
 20
394.1999342506
 30
0.0
 10
585.6919925887
 20
394.2111890193
 30
0.0
 10
585.7570012333999
 20
394.2977717571
 30
0.0
 10
585.8149633407
 20
394.4266301064
 30
0.0
 10
585.8826731950999
 20
394.6408959137
 30
0.0
 10
585.9420692820999
 20
394.9720220047
 30
0.0
 10
585.96641521
 20
395.2566186753
 30
0.0
 10
585.9736129670999
 20
395.4116650595
 30
0.0
  0
SPLINE
  5
37B
330
212
100
AcDbEntity
  8
RUNDUNGEN
  6
Continuous
 62
     9
100
AcDbSpline
210
0.0
220
0.0
230
1.0
 70
     8
 71
     3
 72
    12
 73
     8
 74
     0
 42
0.0000000001
 43
0.0000000001
 40
0.0
 40
0.0
 40
0.0
 40
0.0
 40
0.1220410147
 40
0.2178992023
 40
0.3375872567
 40
0.6392561527
 40
1.0
 40
1.0
 40
1.0
 40
1.0
 10
563.6338883355
 20
394.1999342506
 30
0.0
 10
563.5825994105
 20
394.2111890180001
 30
0.0
 10
563.5175907535999
 20
394.2977717514
 30
0.0
 10
563.4596286408999
 20
394.4266301045
 30
0.0
 10
563.3919187842999
 20
394.6408959108
 30
0.0
 10
563.3325227033999
 20
394.9720220036
 30
0.0
 10
563.3081767863
 20
395.2566186748001
 30
0.0
 10
563.3009790365
 20
395.4116650595
 30
0.0
  0
SPLINE
  5
37C
330
212
100
AcDbEntity
  8
RUNDUNGEN
  6
Continuous
 62
     9
100
AcDbSpline
210
0.0
220
0.0
230
1.0
 70
     8
 71
     3
 72
    11
 73
     7
 74
     0
 42
0.0000000001
 43
0.0000000001
 40
0.0
 40
0.0
 40
0.0
 40
0.0
 40
0.2457014083
 40
0.4945843921
 40
0.7466324788
 40
1.0
 40
1.0
 40
1.0
 40
1.0
 10
560.5982522623
 20
394.3354614105
 30
0.0
 10
560.7876315053999
 20
394.3351449453
 30
0.0
 10
561.1731697759999
 20
394.4140671331
 30
0.0
 10
561.6590473348
 20
394.7487107775
 30
0.0
 10
561.9866384462999
 20
395.2456942419
 30
0.0
 10
562.0671437559
 20
395.6381348197
 30
0.0
 10
562.0697911659999
 20
395.8334051987
 30
0.0
  0
SPLINE
  5
37D
330
212
100
AcDbEntity
  8
RUNDUNGEN
  6
Continuous
 62
     9
100
AcDbSpline
210
0.0
220
0.0
230
1.0
 70
     8
 71
     3
 72
     9
 73
     5
 74
     0
 42
0.0000000001
 43
0.0000000001
 40
0.0
 40
0.0
 40
0.0
 40
0.0
 40
0.5220776245000001
 40
1.0
 40
1.0
 40
1.0
 40
1.0
 10
561.2273668251
 20
395.2116881178
 30
0.0
 10
561.1124211454999
 20
394.9895861522
 30
0.0
 10
560.7878423009999
 20
394.6056359264
 30
0.0
 10
560.3048392784
 20
394.4455515176
 30
0.0
 10
560.0759483021
 20
394.4411915626
 30
0.0
  0
SPLINE
  5
37E
330
212
100
AcDbEntity
  8
RUNDUNGEN
  6
Continuous
 62
     9
100
AcDbSpline
210
0.0
220
0.0
230
1.0
 70
     8
 71
     3
 72
    14
 73
    10
 74
     0
 42
0.0000000001
 43
0.0000000001
 40
0.0
 40
0.0
 40
0.0
 40
0.0
 40
0.0292584925
 40
0.0875538276
 40
0.174883265
 40
0.2903502167
 40
0.4326580415
 40
0.6000029002
 40
1.0
 40
1.0
 40
1.0
 40
1.0
 10
560.0759226371
 20
394.4411586440001
 30
0.0
 10
560.0813043147
 20
394.4470936109
 30
0.0
 10
560.0861050459999
 20
394.4721597584
 30
0.0
 10
560.0956324068
 20
394.5179466137
 30
0.0
 10
560.1041818474999
 20
394.5895498314
 30
0.0
 10
560.1138379336999
 20
394.6833064674
 30
0.0
 10
560.1233796553999
 20
394.7994201185
 30
0.0
 10
560.1368227397
 20
394.9932346574
 30
0.0
 10
560.1447725801
 20
395.1484139266
 30
0.0
 10
560.1496967852999
 20
395.2578313957
 30
0.0
  0
SPLINE
  5
37F
330
212
100
AcDbEntity
  8
RUNDUNGEN
  6
Continuous
 62
     9
100
AcDbSpline
210
0.0
220
0.0
230
1.0
 70
     8
 71
     3
 72
     9
 73
     5
 74
     0
 42
0.0000000001
 43
0.0000000001
 40
0.0
 40
0.0
 40
0.0
 40
0.0
 40
0.2531345824
 40
1.0
 40
1.0
 40
1.0
 40
1.0
 10
561.3948552294
 20
395.9700095859
 30
0.0
 10
561.3972204844999
 20
395.9041203718
 30
0.0
 10
561.3905769957
 20
395.6435216726
 30
0.0
 10
561.3167638622
 20
395.3844588969
 30
0.0
 10
561.2273683034999
 20
395.2116872256
 30
0.0
  0
SPLINE
  5
380
330
212
100
AcDbEntity
  8
RUNDUNGEN
  6
Continuous
 62
     9
100
AcDbSpline
210
0.0
220
0.0
230
1.0
 70
     8
 71
     3
 72
    10
 73
     6
 74
     0
 42
0.0000000001
 43
0.0000000001
 40
0.0
 40
0.0
 40
0.0
 40
0.0
 40
0.1909100496
 40
0.4290462717000001
 40
1.0
 40
1.0
 40
1.0
 40
1.0
 10
561.2273683034999
 20
395.2116872256
 30
0.0
 10
561.1708637169999
 20
395.1687375941
 30
0.0
 10
561.0167601633999
 20
395.1091915487
 30
0.0
 10
560.6431611469999
 20
395.0897375148
 30
0.0
 10
560.3437169995999
 20
395.1720070425
 30
0.0
 10
560.1497182396
 20
395.258150115
 30
0.0
  0
SPLINE
  5
381
330
212
100
AcDbEntity
  8
RUNDUNGEN
  6
Continuous
 62
     9
100
AcDbSpline
210
0.0
220
0.0
230
1.0
 70
     8
 71
     3
 72
     9
 73
     5
 74
     0
 42
0.0000000001
 43
0.0000000001
 40
0.0
 40
0.0
 40
0.0
 40
0.0
 40
0.4779168198
 40
1.0
 40
1.0
 40
1.0
 40
1.0
 10
589.1986437031
 20
394.4411915626
 30
0.0
 10
588.9697578700999
 20
394.4456602671
 30
0.0
 10
588.4867745764999
 20
394.6055848743
 30
0.0
 10
588.1621263405
 20
394.9895614248001
 30
0.0
 10
588.0472347928999
 20
395.211693921
 30
0.0
  0
SPLINE
  5
382
330
212
100
AcDbEntity
  8
RUNDUNGEN
  6
Continuous
 62
     9
100
AcDbSpline
210
0.0
220
0.0
230
1.0
 70
     8
 71
     3
 72
    14
 73
    10
 74
     0
 42
0.0000000001
 43
0.0000000001
 40
0.0
 40
0.0
 40
0.0
 40
0.0
 40
0.3998651633
 40
0.5671606994000001
 40
0.7094599957
 40
0.8249383143999999
 40
0.9123041727
 40
0.970621198
 40
1.0
 40
1.0
 40
1.0
 40
1.0
 10
589.1248684133
 20
395.2582251029
 30
0.0
 10
589.1298458203
 20
395.1487969798
 30
0.0
 10
589.1377485859
 20
394.9935951185
 30
0.0
 10
589.1512281394999
 20
394.7997481293
 30
0.0
 10
589.1607839711
 20
394.6835945643
 30
0.0
 10
589.1702730762
 20
394.5897747767
 30
0.0
 10
589.179071045
 20
394.5181265712999
 30
0.0
 10
589.1883501440999
 20
394.4722904475
 30
0.0
 10
589.1931546786
 20
394.4470774987
 30
0.0
 10
589.1986436915
 20
394.4411915737001
 30
0.0
  0
SPLINE
  5
383
330
212
100
AcDbEntity
  8
RUNDUNGEN
  6
Continuous
 62
     9
100
AcDbSpline
210
0.0
220
0.0
230
1.0
 70
     8
 71
     3
 72
    10
 73
     6
 74
     0
 42
0.0000000001
 43
0.0000000001
 40
0.0
 40
0.0
 40
0.0
 40
0.0
 40
0.5709535289
 40
0.8090898498999999
 40
1.0
 40
1.0
 40
1.0
 40
1.0
 10
589.1248737687999
 20
395.2581501061
 30
0.0
 10
588.9308748116999
 20
395.1720069654
 30
0.0
 10
588.6314303948999
 20
395.0897372199
 30
0.0
 10
588.2578308765999
 20
395.1091907946
 30
0.0
 10
588.1037269401999
 20
395.168736681
 30
0.0
 10
588.0472221890999
 20
395.2116863135
 30
0.0
  0
SPLINE
  5
384
330
212
100
AcDbEntity
  8
RUNDUNGEN
  6
Continuous
 62
     9
100
AcDbSpline
210
0.0
220
0.0
230
1.0
 70
     8
 71
     3
 72
     9
 73
     5
 74
     0
 42
0.0000000001
 43
0.0000000001
 40
0.0
 40
0.0
 40
0.0
 40
0.0
 40
0.7468616933
 40
1.0
 40
1.0
 40
1.0
 40
1.0
 10
588.0472221890999
 20
395.2116863135
 30
0.0
 10
587.9578122251
 20
395.3844490013
 30
0.0
 10
587.8840429009999
 20
395.6435235219
 30
0.0
 10
587.8773691410999
 20
395.9041196194
 30
0.0
 10
587.8797368105999
 20
395.9700095859
 30
0.0
  0
SPLINE
  5
385
330
212
100
AcDbEntity
  8
RUNDUNGEN
  6
Continuous
 62
     9
100
AcDbSpline
210
0.0
220
0.0
230
1.0
 70
     8
 71
     3
 72
    12
 73
     8
 74
     0
 42
0.0000000001
 43
0.0000000001
 40
0.0
 40
0.0
 40
0.0
 40
0.0
 40
0.3591424289
 40
0.6680649932
 40
0.7904721511
 40
0.8866299829999999
 40
1.0
 40
1.0
 40
1.0
 40
1.0
 10
589.5675340207
 20
493.3826972277
 30
0.0
 10
589.5675340207
 20
493.2563481494
 30
0.0
 10
589.5779934103
 20
493.0208234884999
 30
0.0
 10
589.615445038
 20
492.7459505246
 30
0.0
 10
589.6646271744
 20
492.5641812032
 30
0.0
 10
589.7054066422
 20
492.4604548848
 30
0.0
 10
589.756974338
 20
492.3858254849999
 30
0.0
 10
589.7967476056
 20
492.3828495324999
 30
0.0
  0
SPLINE
  5
386
330
212
100
AcDbEntity
  8
RUNDUNGEN
  6
Continuous
 62
     9
100
AcDbSpline
210
0.0
220
0.0
230
1.0
 70
     8
 71
     3
 72
    11
 73
     7
 74
     0
 42
0.0000000001
 43
0.0000000001
 40
0.0
 40
0.0
 40
0.0
 40
0.0
 40
0.2458850068
 40
0.4943967323
 40
0.7461819508
 40
1.0
 40
1.0
 40
1.0
 40
1.0
 10
589.7967476056
 20
492.3828495324999
 30
0.0
 10
589.6714930223001
 20
492.3839288958999
 30
0.0
 10
589.4172793289
 20
492.4383421165
 30
0.0
 10
589.0984502612
 20
492.6625402753
 30
0.0
 10
588.8856847273999
 20
492.9933978448999
 30
0.0
 10
588.8354059191
 20
493.2533977441999
 30
0.0
 10
588.8348931633999
 20
493.3826972277
 30
0.0
  0
SPLINE
  5
387
330
212
100
AcDbEntity
  8
RUNDUNGEN
  6
Continuous
 62
     9
100
AcDbSpline
210
0.0
220
0.0
230
1.0
 70
     8
 71
     3
 72
    11
 73
     7
 74
     0
 42
0.0000000001
 43
0.0000000001
 40
0.0
 40
0.0
 40
0.0
 40
0.0
 40
0.2656675193
 40
0.5198341996
 40
0.7630623528
 40
1.0
 40
1.0
 40
1.0
 40
1.0
 10
587.132027739
 20
493.2805480233
 30
0.0
 10
587.1314108517999
 20
493.128954649
 30
0.0
 10
587.2175377001999
 20
492.8268456187
 30
0.0
 10
587.5312854518
 20
492.5065996546
 30
0.0
 10
587.9190232344
 20
492.3297340619999
 30
0.0
 10
588.1948998133
 20
492.294110466
 30
0.0
 10
588.3300979597
 20
492.2949657251999
 30
0.0
  0
SPLINE
  5
388
330
212
100
AcDbEntity
  8
RUNDUNGEN
  6
Continuous
 62
     9
100
AcDbSpline
210
0.0
220
0.0
230
1.0
 70
     8
 71
     3
 72
    12
 73
     8
 74
     0
 42
0.0000000001
 43
0.0000000001
 40
0.0
 40
0.0
 40
0.0
 40
0.0
 40
0.0418856844
 40
0.1081146676
 40
0.3253297986
 40
0.6367821008
 40
1.0
 40
1.0
 40
1.0
 40
1.0
 10
588.330097958
 20
492.2949649420999
 30
0.0
 10
588.3446060845999
 20
492.2936700108
 30
0.0
 10
588.3775769869
 20
492.2683053133999
 30
0.0
 10
588.4288493725001
 20
492.1677706726
 30
0.0
 10
588.4775637436
 20
491.9639232518
 30
0.0
 10
588.5138538283
 20
491.6564299195999
 30
0.0
 10
588.5222476141999
 20
491.4214267492
 30
0.0
 10
588.5222476147
 20
491.2951172469999
 30
0.0
  0
SPLINE
  5
389
330
212
100
AcDbEntity
  8
RUNDUNGEN
  6
Continuous
 62
     9
100
AcDbSpline
210
0.0
220
0.0
230
1.0
 70
     8
 71
     3
 72
    12
 73
     8
 74
     0
 42
0.0000000001
 43
0.0000000001
 40
0.0
 40
0.0
 40
0.0
 40
0.0
 40
0.3632178992
 40
0.6746702014000001
 40
0.8918853323999998
 40
0.9581143155999999
 40
1.0
 40
1.0
 40
1.0
 40
1.0
 10
560.7523443889
 20
491.2951172469999
 30
0.0
 10
560.7523443894999
 20
491.4214267492
 30
0.0
 10
560.7607381755999
 20
491.6564299195999
 30
0.0
 10
560.7970282603999
 20
491.9639232518
 30
0.0
 10
560.8457426316999
 20
492.1677706726
 30
0.0
 10
560.8970150173
 20
492.2683053133999
 30
0.0
 10
560.9299859197
 20
492.2936700108
 30
0.0
 10
560.9444940462
 20
492.2949649420999
 30
0.0
  0
SPLINE
  5
38A
330
212
100
AcDbEntity
  8
RUNDUNGEN
  6
Continuous
 62
     9
100
AcDbSpline
210
0.0
220
0.0
230
1.0
 70
     8
 71
     3
 72
    11
 73
     7
 74
     0
 42
0.0000000001
 43
0.0000000001
 40
0.0
 40
0.0
 40
0.0
 40
0.0
 40
0.2369376469
 40
0.4801658003
 40
0.7343324806
 40
1.0
 40
1.0
 40
1.0
 40
1.0
 10
560.9444940442999
 20
492.2949657254
 30
0.0
 10
561.0796921905
 20
492.2941104662
 30
0.0
 10
561.3555687694001
 20
492.3297340602999
 30
0.0
 10
561.7433065519999
 20
492.5065996529
 30
0.0
 10
562.0570543039
 20
492.8268456163999
 30
0.0
 10
562.1431811526
 20
493.1289546469999
 30
0.0
 10
562.1425642642999
 20
493.2805480213999
 30
0.0
  0
SPLINE
  5
38B
330
212
100
AcDbEntity
  8
RUNDUNGEN
  6
Continuous
 62
     9
100
AcDbSpline
210
0.0
220
0.0
230
1.0
 70
     8
 71
     3
 72
    11
 73
     7
 74
     0
 42
0.0000000001
 43
0.0000000001
 40
0.0
 40
0.0
 40
0.0
 40
0.0
 40
0.2538176591
 40
0.505604559
 40
0.7541220337000001
 40
1.0
 40
1.0
 40
1.0
 40
1.0
 10
560.4396988401
 20
493.3826972277
 30
0.0
 10
560.4390707141
 20
493.2533984693
 30
0.0
 10
560.3889685476999
 20
492.9933962924
 30
0.0
 10
560.1761259373001
 20
492.6625345126
 30
0.0
 10
559.8573100119999
 20
492.43835875
 30
0.0
 10
559.6030955582
 20
492.383907734
 30
0.0
 10
559.4778443979
 20
492.3828495324999
 30
0.0
  0
SPLINE
  5
38C
330
212
100
AcDbEntity
  8
RUNDUNGEN
  6
Continuous
 62
     9
100
AcDbSpline
210
0.0
220
0.0
230
1.0
 70
     8
 71
     3
 72
    12
 73
     8
 74
     0
 42
0.0000000001
 43
0.0000000001
 40
0.0
 40
0.0
 40
0.0
 40
0.0
 40
0.1133705924
 40
0.2095285707
 40
0.3319359085
 40
0.6408585717000001
 40
1.0
 40
1.0
 40
1.0
 40
1.0
 10
559.4778443979
 20
492.3828495324999
 30
0.0
 10
559.5176178663999
 20
492.3858254999999
 30
0.0
 10
559.5691856144999
 20
492.4604553383
 30
0.0
 10
559.6099650694999
 20
492.5641819566999
 30
0.0
 10
559.6591471386
 20
492.7459514574
 30
0.0
 10
559.6965986258999
 20
493.0208241682
 30
0.0
 10
559.7070579829
 20
493.2563485046999
 30
0.0
 10
559.7070579829
 20
493.3826972277
 30
0.0
  0
LINE
  5
38D
330
212
100
AcDbEntity
  8
RUNDUNGEN
  6
Continuous
 62
     9
100
AcDbLine
 10
560.0759604433999
 20
394.4411915628
 30
0.0
 11
560.5982522544999
 21
394.3354608966
 31
0.0
  0
SPLINE
  5
38E
330
212
100
AcDbEntity
  8
RUNDUNGEN
  6
Continuous
 62
     9
100
AcDbSpline
210
0.0
220
0.0
230
1.0
 70
     8
 71
     3
 72
    12
 73
     8
 74
     0
 42
0.0000000001
 43
0.0000000001
 40
0.0
 40
0.0
 40
0.0
 40
0.0
 40
0.0567465516
 40
0.1403965933
 40
0.3771007909000001
 40
0.6784914443000001
 40
1.0
 40
1.0
 40
1.0
 40
1.0
 10
560.5982522544999
 20
394.3354608966
 30
0.0
 10
560.6546238088999
 20
394.3240438257
 30
0.0
 10
560.795882311
 20
394.3053033034
 30
0.0
 10
561.1763484871
 20
394.2693925526
 30
0.0
 10
561.8058392102
 20
394.2349117593
 30
0.0
 10
562.6766335352999
 20
394.2069783901
 30
0.0
 10
563.3080197597999
 20
394.199939902
 30
0.0
 10
563.6338883355
 20
394.1999342506
 30
0.0
  0
SPLINE
  5
38F
330
212
100
AcDbEntity
  8
RUNDUNGEN
  6
Continuous
 62
     9
100
AcDbSpline
210
0.0
220
0.0
230
1.0
 70
     8
 71
     3
 72
    11
 73
     7
 74
     0
 42
0.0000000001
 43
0.0000000001
 40
0.0
 40
0.0
 40
0.0
 40
0.0
 40
0.2466426609
 40
0.4948201022000001
 40
0.7461213733
 40
1.0
 40
1.0
 40
1.0
 40
1.0
 10
590.1612088463999
 20
424.2328527215
 30
0.0
 10
590.4155336455
 20
424.2328719160999
 30
0.0
 10
590.9315582676
 20
424.1294462482
 30
0.0
 10
591.5833768498999
 20
423.6844840445999
 30
0.0
 10
592.0191195569
 20
423.0180865430999
 30
0.0
 10
592.1204120347
 20
422.4914663895999
 30
0.0
 10
592.120131419
 20
422.2296803969
 30
0.0
  0
SPLINE
  5
390
330
212
100
AcDbEntity
  8
RUNDUNGEN
  6
Continuous
 62
     9
100
AcDbSpline
210
0.0
220
0.0
230
1.0
 70
     8
 71
     3
 72
    11
 73
     7
 74
     0
 42
0.0000000001
 43
0.0000000001
 40
0.0
 40
0.0
 40
0.0
 40
0.0
 40
0.253878699
 40
0.5051800079
 40
0.7533574886
 40
1.0
 40
1.0
 40
1.0
 40
1.0
 10
557.1544605845999
 20
422.2296803976
 30
0.0
 10
557.1541800141
 20
422.4914664644999
 30
0.0
 10
557.2554724645999
 20
423.0180867162999
 30
0.0
 10
557.6912153541
 20
423.6844843933
 30
0.0
 10
558.3430340437001
 20
424.1294460809999
 30
0.0
 10
558.8590585127
 20
424.2328722655
 30
0.0
 10
559.1133831572
 20
424.2328527215
 30
0.0
  0
SPLINE
  5
391
330
212
100
AcDbEntity
  8
RUNDUNGEN
  6
Continuous
 62
     9
100
AcDbSpline
210
0.0
220
0.0
230
1.0
 70
     8
 71
     3
 72
    12
 73
     8
 74
     0
 42
0.0000000001
 43
0.0000000001
 40
0.0
 40
0.0
 40
0.0
 40
0.0
 40
0.3215084439
 40
0.6228991544
 40
0.8596033885999998
 40
0.9432534400999999
 40
1.0
 40
1.0
 40
1.0
 40
1.0
 10
585.6407036680999
 20
394.1999342506
 30
0.0
 10
585.9665721305999
 20
394.1999399705001
 30
0.0
 10
586.5979582989
 20
394.2069783614
 30
0.0
 10
587.4687526085
 20
394.234911745
 30
0.0
 10
588.0982434304
 20
394.2693925671
 30
0.0
 10
588.4787096701999
 20
394.3053032781
 30
0.0
 10
588.6199681806999
 20
394.324043852
 30
0.0
 10
588.676339749
 20
394.3354608966
 30
0.0
  0
SPLINE
  5
392
330
212
100
AcDbEntity
  8
RUNDUNGEN
  6
Continuous
 62
     9
100
AcDbSpline
210
0.0
220
0.0
230
1.0
 70
     8
 71
     3
 72
    11
 73
     7
 74
     0
 42
0.0000000001
 43
0.0000000001
 40
0.0
 40
0.0
 40
0.0
 40
0.0
 40
0.2534061775
 40
0.5049799406000001
 40
0.7532302996000001
 40
1.0
 40
1.0
 40
1.0
 40
1.0
 10
559.701895276
 20
476.6686731063
 30
0.0
 10
559.7016599262999
 20
476.4433806551
 30
0.0
 10
559.7532937139
 20
475.9915259033
 30
0.0
 10
560.0382806683
 20
475.3678414248
 30
0.0
 10
560.5662710766999
 20
474.9232969333
 30
0.0
 10
561.0157234841999
 20
474.8322380073999
 30
0.0
 10
561.2351158505
 20
474.8322265228999
 30
0.0
  0
SPLINE
  5
393
330
212
100
AcDbEntity
  8
RUNDUNGEN
  6
Continuous
 62
     9
100
AcDbSpline
210
0.0
220
0.0
230
1.0
 70
     8
 71
     3
 72
    11
 73
     7
 74
     0
 42
0.0000000001
 43
0.0000000001
 40
0.0
 40
0.0
 40
0.0
 40
0.0
 40
0.2467701726
 40
0.4950203741
 40
0.7465939790000001
 40
1.0
 40
1.0
 40
1.0
 40
1.0
 10
588.0394761541
 20
474.8322265228999
 30
0.0
 10
588.2588689453999
 20
474.8322378619999
 30
0.0
 10
588.7083217603
 20
474.9232970176999
 30
0.0
 10
589.2363117968
 20
475.3678421591001
 30
0.0
 10
589.5212981980001
 20
475.9915263174
 30
0.0
 10
589.5729322561
 20
476.4433807887
 30
0.0
 10
589.5726967276
 20
476.6686731058999
 30
0.0
  0
LINE
  5
394
330
212
100
AcDbEntity
  8
RUNDUNGEN
  6
Continuous
 62
     9
100
AcDbLine
 10
588.676339749
 20
394.3354608966
 30
0.0
 11
589.1986319319999
 21
394.4411915628
 31
0.0
  0
SPLINE
  5
395
330
212
100
AcDbEntity
  8
RUNDUNGEN
  6
Continuous
 62
     9
100
AcDbSpline
210
0.0
220
0.0
230
1.0
 70
     8
 71
     3
 72
     8
 73
     4
 74
     0
 42
0.0000000001
 43
0.0000000001
 40
0.0
 40
0.0
 40
0.0
 40
0.0
 40
1.0
 40
1.0
 40
1.0
 40
1.0
 10
557.2438787562
 20
417.8117697139
 30
0.0
 10
558.2232547903999
 20
410.3798733554
 30
0.0
 10
559.2025115776
 20
402.9479612794
 30
0.0
 10
560.1815472453999
 20
395.5160200753
 30
0.0
  0
SPLINE
  5
396
330
212
100
AcDbEntity
  8
RUNDUNGEN
  6
Continuous
 62
     9
100
AcDbSpline
210
0.0
220
0.0
230
1.0
 70
     8
 71
     3
 72
     9
 73
     5
 74
     0
 42
0.0000000001
 43
0.0000000001
 40
0.0
 40
0.0
 40
0.0
 40
0.0
 40
0.7438874447
 40
1.0
 40
1.0
 40
1.0
 40
1.0
 10
560.1497182397999
 20
395.2581501153
 30
0.0
 10
560.1747272705
 20
395.3179714792
 30
0.0
 10
560.1907194017
 20
395.4069247423
 30
0.0
 10
560.1844625893
 20
395.4938880107
 30
0.0
 10
560.1815472453999
 20
395.5160200753
 30
0.0
  0
SPLINE
  5
397
330
212
100
AcDbEntity
  8
RUNDUNGEN
  6
Continuous
 62
     9
100
AcDbSpline
210
0.0
220
0.0
230
1.0
 70
     8
 71
     3
 72
     9
 73
     5
 74
     0
 42
0.0000000001
 43
0.0000000001
 40
0.0
 40
0.0
 40
0.0
 40
0.0
 40
0.743886988
 40
1.0
 40
1.0
 40
1.0
 40
1.0
 10
589.1248737638
 20
395.2581501153
 30
0.0
 10
589.0998696066
 20
395.3179717472
 30
0.0
 10
589.0838739343999
 20
395.4069200862
 30
0.0
 10
589.0901271693
 20
395.4938821766
 30
0.0
 10
589.0930444394999
 20
395.5160134744001
 30
0.0
  0
SPLINE
  5
398
330
212
100
AcDbEntity
  8
RUNDUNGEN
  6
Continuous
 62
     9
100
AcDbSpline
210
0.0
220
0.0
230
1.0
 70
     8
 71
     3
 72
     8
 73
     4
 74
     0
 42
0.0000000001
 43
0.0000000001
 40
0.0
 40
0.0
 40
0.0
 40
0.0
 40
1.0
 40
1.0
 40
1.0
 40
1.0
 10
589.0930444394999
 20
395.5160134744001
 30
0.0
 10
590.0720803748
 20
402.9479568576
 30
0.0
 10
591.0513369264
 20
410.3798711788999
 30
0.0
 10
592.0307132473999
 20
417.8117697139
 30
0.0
  0
SPLINE
  5
399
330
212
100
AcDbEntity
  8
RUNDUNGEN
  6
Continuous
 62
     9
100
AcDbSpline
210
0.0
220
0.0
230
1.0
 70
     8
 71
     3
 72
     9
 73
     5
 74
     0
 42
0.0000000001
 43
0.0000000001
 40
0.0
 40
0.0
 40
0.0
 40
0.0
 40
0.25833837
 40
1.0
 40
1.0
 40
1.0
 40
1.0
 10
557.1576225864999
 20
419.1617875186
 30
0.0
 10
557.1577454849999
 20
419.0452512895999
 30
0.0
 10
557.1652200304
 20
418.5942236389
 30
0.0
 10
557.199306454
 20
418.1433504853999
 30
0.0
 10
557.2438787562
 20
417.8117697139
 30
0.0
  0
SPLINE
  5
39A
330
212
100
AcDbEntity
  8
RUNDUNGEN
  6
Continuous
 62
     9
100
AcDbSpline
210
0.0
220
0.0
230
1.0
 70
     8
 71
     3
 72
     9
 73
     5
 74
     0
 42
0.0000000001
 43
0.0000000001
 40
0.0
 40
0.0
 40
0.0
 40
0.0
 40
0.2386342692
 40
1.0
 40
1.0
 40
1.0
 40
1.0
 10
592.0307132473999
 20
417.8117697139
 30
0.0
 10
592.0450549705999
 20
417.918460179
 30
0.0
 10
592.096395374
 20
418.3667032293
 30
0.0
 10
592.1166072073
 20
418.8183287238
 30
0.0
 10
592.1169694170999
 20
419.1617875186
 30
0.0
  0
SPLINE
  5
39B
330
212
100
AcDbEntity
  8
RUNDUNGEN
  6
Continuous
 62
     9
100
AcDbSpline
210
0.0
220
0.0
230
1.0
 70
     8
 71
     3
 72
    12
 73
     8
 74
     0
 42
0.0000000001
 43
0.0000000001
 40
0.0
 40
0.0
 40
0.0
 40
0.0
 40
0.3617939639999999
 40
0.6718791239000001
 40
0.7939802820999999
 40
0.8892020733
 40
1.0
 40
1.0
 40
1.0
 40
1.0
 10
589.5675340202999
 20
496.7778145101
 30
0.0
 10
589.5675340202999
 20
496.9055126782
 30
0.0
 10
589.5782800865999
 20
497.1431706443
 30
0.0
 10
589.6161842088999
 20
497.4200899558
 30
0.0
 10
589.6667349108001
 20
497.6022986233999
 30
0.0
 10
589.7072793526
 20
497.7046521337
 30
0.0
 10
589.7617119462999
 20
497.7778145101
 30
0.0
 10
589.8008189897
 20
497.7778145101
 30
0.0
  0
SPLINE
  5
39C
330
212
100
AcDbEntity
  8
RUNDUNGEN
  6
Continuous
 62
     9
100
AcDbSpline
210
0.0
220
0.0
230
1.0
 70
     8
 71
     3
 72
    11
 73
     7
 74
     0
 42
0.0000000001
 43
0.0000000001
 40
0.0
 40
0.0
 40
0.0
 40
0.0
 40
0.2539891048
 40
0.5056604168
 40
0.7540159947000001
 40
1.0
 40
1.0
 40
1.0
 40
1.0
 10
588.8348931633999
 20
496.7778145101
 30
0.0
 10
588.8348931633999
 20
496.9077085704999
 30
0.0
 10
588.8845735429
 20
497.1690072314999
 30
0.0
 10
589.0982459696
 20
497.5012674826
 30
0.0
 10
589.4193126998
 20
497.7251239249
 30
0.0
 10
589.6750188642999
 20
497.7778145101
 30
0.0
 10
589.8008189897
 20
497.7778145101
 30
0.0
  0
SPLINE
  5
39D
330
212
100
AcDbEntity
  8
RUNDUNGEN
  6
Continuous
 62
     9
100
AcDbSpline
210
0.0
220
0.0
230
1.0
 70
     8
 71
     3
 72
    11
 73
     7
 74
     0
 42
0.0000000001
 43
0.0000000001
 40
0.0
 40
0.0
 40
0.0
 40
0.0
 40
0.2539895946000001
 40
0.5056607357000001
 40
0.7540161437
 40
1.0
 40
1.0
 40
1.0
 40
1.0
 10
587.1320269343
 20
496.7778145101
 30
0.0
 10
587.1320269343
 20
496.9077088211999
 30
0.0
 10
587.1817074314
 20
497.1690076662
 30
0.0
 10
587.3953801218
 20
497.5012678242999
 30
0.0
 10
587.7164467146
 20
497.725123988
 30
0.0
 10
587.9721527108999
 20
497.7778145101
 30
0.0
 10
588.0979527604999
 20
497.7778145101
 30
0.0
  0
SPLINE
  5
39E
330
212
100
AcDbEntity
  8
RUNDUNGEN
  6
Continuous
 62
     9
100
AcDbSpline
210
0.0
220
0.0
230
1.0
 70
     8
 71
     3
 72
    12
 73
     8
 74
     0
 42
0.0000000001
 43
0.0000000001
 40
0.0
 40
0.0
 40
0.0
 40
0.0
 40
0.3700404353
 40
0.6854701758
 40
0.9012391429999999
 40
0.9638183806
 40
1.0
 40
1.0
 40
1.0
 40
1.0
 10
586.3307983238
 20
496.7778145101
 30
0.0
 10
586.3307983238
 20
496.9054440876
 30
0.0
 10
586.3381529666001
 20
497.1422584458999
 30
0.0
 10
586.3685590909999
 20
497.4507861471
 30
0.0
 10
586.4111492401999
 20
497.6541140798999
 30
0.0
 10
586.4531379905001
 20
497.7526477586
 30
0.0
 10
586.4830162418
 20
497.7778145101
 30
0.0
 10
586.4954955396
 20
497.7778145101
 30
0.0
  0
SPLINE
  5
39F
330
212
100
AcDbEntity
  8
RUNDUNGEN
  6
Continuous
 62
     9
100
AcDbSpline
210
0.0
220
0.0
230
1.0
 70
     8
 71
     3
 72
    12
 73
     8
 74
     0
 42
0.0000000001
 43
0.0000000001
 40
0.0
 40
0.0
 40
0.0
 40
0.0
 40
0.3700404350999999
 40
0.6854701756999999
 40
0.9012391428
 40
0.9638183804
 40
1.0
 40
1.0
 40
1.0
 40
1.0
 10
562.9437936797
 20
496.7778145101
 30
0.0
 10
562.9437936797
 20
496.9054440876
 30
0.0
 10
562.936439037
 20
497.1422584457999
 30
0.0
 10
562.9060329126
 20
497.4507861471
 30
0.0
 10
562.8634427633999
 20
497.6541140798
 30
0.0
 10
562.821454013
 20
497.7526477587999
 30
0.0
 10
562.7915757617
 20
497.7778145101
 30
0.0
 10
562.7790964637999
 20
497.7778145101
 30
0.0
  0
SPLINE
  5
3A0
330
212
100
AcDbEntity
  8
RUNDUNGEN
  6
Continuous
 62
     9
100
AcDbSpline
210
0.0
220
0.0
230
1.0
 70
     8
 71
     3
 72
    11
 73
     7
 74
     0
 42
0.0000000001
 43
0.0000000001
 40
0.0
 40
0.0
 40
0.0
 40
0.0
 40
0.2539895947
 40
0.5056607357000001
 40
0.7540161434999999
 40
1.0
 40
1.0
 40
1.0
 40
1.0
 10
562.1425650692999
 20
496.7778145101
 30
0.0
 10
562.1425650692999
 20
496.9077088212999
 30
0.0
 10
562.0928845721
 20
497.1690076663
 30
0.0
 10
561.8792118817999
 20
497.5012678242999
 30
0.0
 10
561.5581452889999
 20
497.725123988
 30
0.0
 10
561.3024392926
 20
497.7778145101
 30
0.0
 10
561.176639243
 20
497.7778145101
 30
0.0
  0
SPLINE
  5
3A1
330
212
100
AcDbEntity
  8
RUNDUNGEN
  6
Continuous
 62
     9
100
AcDbSpline
210
0.0
220
0.0
230
1.0
 70
     8
 71
     3
 72
    11
 73
     7
 74
     0
 42
0.0000000001
 43
0.0000000001
 40
0.0
 40
0.0
 40
0.0
 40
0.0
 40
0.2539891049
 40
0.5056604168
 40
0.7540159947000001
 40
1.0
 40
1.0
 40
1.0
 40
1.0
 10
560.4396988401
 20
496.7778145101
 30
0.0
 10
560.4396988401
 20
496.9077085706
 30
0.0
 10
560.3900184607
 20
497.1690072316
 30
0.0
 10
560.1763460338999
 20
497.5012674827
 30
0.0
 10
559.8552793038
 20
497.7251239249
 30
0.0
 10
559.5995731392999
 20
497.7778145101
 30
0.0
 10
559.4737730139
 20
497.7778145101
 30
0.0
  0
LINE
  5
3A2
330
212
100
AcDbEntity
  8
RUNDUNGEN
  6
Continuous
 62
     9
100
AcDbLine
 10
560.4343915414
 20
476.6646579576
 30
0.0
 11
560.4385277755999
 21
480.1895090946
 31
0.0
  0
SPLINE
  5
3A3
330
212
100
AcDbEntity
  8
RUNDUNGEN
  6
Continuous
 62
     9
100
AcDbSpline
210
0.0
220
0.0
230
1.0
 70
     8
 71
     3
 72
    12
 73
     8
 74
     0
 42
0.0000000001
 43
0.0000000001
 40
0.0
 40
0.0
 40
0.0
 40
0.0
 40
0.3617939639999999
 40
0.6718791239000001
 40
0.7939802820999999
 40
0.8892020734
 40
1.0
 40
1.0
 40
1.0
 40
1.0
 10
559.7070579829
 20
496.7778145101
 30
0.0
 10
559.7070579829
 20
496.9055126782
 30
0.0
 10
559.6963119171
 20
497.1431706443
 30
0.0
 10
559.6584077946999
 20
497.4200899558
 30
0.0
 10
559.6078570928
 20
497.6022986233999
 30
0.0
 10
559.5673126509999
 20
497.7046521337
 30
0.0
 10
559.5128800572999
 20
497.7778145101
 30
0.0
 10
559.4737730139
 20
497.7778145101
 30
0.0
  0
LINE
  5
3A4
330
212
100
AcDbEntity
  8
RUNDUNGEN
  6
Continuous
 62
     9
100
AcDbLine
 10
560.7187815901998
 20
480.1895090946
 30
0.0
 11
561.663574439
 21
480.2461180143
 31
0.0
  0
SPLINE
  5
3A5
330
212
100
AcDbEntity
  8
RUNDUNGEN
  6
Continuous
 62
     9
100
AcDbSpline
210
0.0
220
0.0
230
1.0
 70
     8
 71
     3
 72
     8
 73
     4
 74
     0
 42
0.0000000001
 43
0.0000000001
 40
0.0
 40
0.0
 40
0.0
 40
0.0
 40
1.0
 40
1.0
 40
1.0
 40
1.0
 10
562.1425650692999
 20
493.2805471164
 30
0.0
 10
561.5749652673001
 20
493.3149667584999
 30
0.0
 10
561.0073449958999
 20
493.3490515971
 30
0.0
 10
560.4396988401
 20
493.3826981255999
 30
0.0
  0
LINE
  5
3A6
330
212
100
AcDbEntity
  8
RUNDUNGEN
  6
Continuous
 62
     9
100
AcDbLine
 10
588.836064228
 20
480.1895090946
 30
0.0
 11
588.8402004621999
 21
476.664657958
 31
0.0
  0
LINE
  5
3A7
330
212
100
AcDbEntity
  8
RUNDUNGEN
  6
Continuous
 62
     9
100
AcDbLine
 10
587.6110175691999
 20
480.2461180008
 30
0.0
 11
588.5558104133999
 21
480.1895090946
 31
0.0
  0
SPLINE
  5
3A8
330
212
100
AcDbEntity
  8
RUNDUNGEN
  6
Continuous
 62
     9
100
AcDbSpline
210
0.0
220
0.0
230
1.0
 70
     8
 71
     3
 72
     8
 73
     4
 74
     0
 42
0.0000000001
 43
0.0000000001
 40
0.0
 40
0.0
 40
0.0
 40
0.0
 40
1.0
 40
1.0
 40
1.0
 40
1.0
 10
588.8348931633999
 20
493.3826977156
 30
0.0
 10
588.2672470126999
 20
493.3490511884
 30
0.0
 10
587.6996267313
 20
493.314966599
 30
0.0
 10
587.1320269343
 20
493.2805469579999
 30
0.0
  0
SPLINE
  5
3A9
330
212
100
AcDbEntity
  8
RUNDUNGEN
  6
Continuous
 62
     9
100
AcDbSpline
210
0.0
220
0.0
230
1.0
 70
     8
 71
     3
 72
    10
 73
     6
 74
     0
 42
0.0000000001
 43
0.0000000001
 40
0.0
 40
0.0
 40
0.0
 40
0.0
 40
0.4829010479999999
 40
0.7319236192
 40
1.0
 40
1.0
 40
1.0
 40
1.0
 10
586.7581511956
 20
479.4800919575999
 30
0.0
 10
586.6812052697
 20
479.7025801099
 30
0.0
 10
586.6164327383999
 20
480.065281345
 30
0.0
 10
586.6962098646999
 20
480.5505821354
 30
0.0
 10
586.807356388
 20
480.7823079611
 30
0.0
 10
586.8817278587999
 20
480.8897723095999
 30
0.0
  0
SPLINE
  5
3AA
330
212
100
AcDbEntity
  8
RUNDUNGEN
  6
Continuous
 62
     9
100
AcDbSpline
210
0.0
220
0.0
230
1.0
 70
     8
 71
     3
 72
    10
 73
     6
 74
     0
 42
0.0000000001
 43
0.0000000001
 40
0.0
 40
0.0
 40
0.0
 40
0.0
 40
0.2680763842
 40
0.5170989548
 40
1.0
 40
1.0
 40
1.0
 40
1.0
 10
562.3928641005
 20
480.8897723095999
 30
0.0
 10
562.4672356627
 20
480.7823080204
 30
0.0
 10
562.5783820974
 20
480.5505821201
 30
0.0
 10
562.6581592781
 20
480.0652813646999
 30
0.0
 10
562.5933867776
 20
479.7025800951999
 30
0.0
 10
562.5164408076
 20
479.4800919566
 30
0.0
  0
SPLINE
  5
3AB
330
212
100
AcDbEntity
  8
RUNDUNGEN
  6
Continuous
 62
     9
100
AcDbSpline
210
0.0
220
0.0
230
1.0
 70
     8
 71
     3
 72
     8
 73
     4
 74
     0
 42
0.0000000001
 43
0.0000000001
 40
0.0
 40
0.0
 40
0.0
 40
0.0
 40
1.0
 40
1.0
 40
1.0
 40
1.0
 10
559.7593522139
 20
481.1895090966999
 30
0.0
 10
560.1543726987999
 20
481.2130337645999
 30
0.0
 10
560.5493807458
 20
481.2367678316999
 30
0.0
 10
560.9443789268
 20
481.260664078
 30
0.0
  0
SPLINE
  5
3AC
330
212
100
AcDbEntity
  8
RUNDUNGEN
  6
Continuous
 62
     9
100
AcDbSpline
210
0.0
220
0.0
230
1.0
 70
     8
 71
     3
 72
     8
 73
     4
 74
     0
 42
0.0000000001
 43
0.0000000001
 40
0.0
 40
0.0
 40
0.0
 40
0.0
 40
1.0
 40
1.0
 40
1.0
 40
1.0
 10
588.3302150611
 20
481.260664078
 30
0.0
 10
588.7252125810999
 20
481.2367678737
 30
0.0
 10
589.1202199598
 20
481.2130337245999
 30
0.0
 10
589.5152397838
 20
481.1895090970999
 30
0.0
  0
SPLINE
  5
3AD
330
212
100
AcDbEntity
  8
RUNDUNGEN
  6
Continuous
 62
     9
100
AcDbSpline
210
0.0
220
0.0
230
1.0
 70
     8
 71
     3
 72
     9
 73
     5
 74
     0
 42
0.0000000001
 43
0.0000000001
 40
0.0
 40
0.0
 40
0.0
 40
0.0
 40
0.5011944757000001
 40
1.0
 40
1.0
 40
1.0
 40
1.0
 10
586.9435970079
 20
481.6558167526999
 30
0.0
 10
587.1531271207
 20
481.8526232454
 30
0.0
 10
587.6577657103999
 20
482.159873449
 30
0.0
 10
588.2361537345
 20
482.2605209967
 30
0.0
 10
588.5222477272
 20
482.2605117732
 30
0.0
  0
SPLINE
  5
3AE
330
212
100
AcDbEntity
  8
RUNDUNGEN
  6
Continuous
 62
     9
100
AcDbSpline
210
0.0
220
0.0
230
1.0
 70
     8
 71
     3
 72
     9
 73
     5
 74
     0
 42
0.0000000001
 43
0.0000000001
 40
0.0
 40
0.0
 40
0.0
 40
0.0
 40
0.4988055242
 40
1.0
 40
1.0
 40
1.0
 40
1.0
 10
560.7523442691999
 20
482.2605117732
 30
0.0
 10
561.038438263
 20
482.2605209851999
 30
0.0
 10
561.6168262855999
 20
482.1598734537999
 30
0.0
 10
562.1214648907
 20
481.8526232561
 30
0.0
 10
562.3309949951
 20
481.6558167526999
 30
0.0
  0
SPLINE
  5
3AF
330
212
100
AcDbEntity
  8
RUNDUNGEN
  6
Continuous
 62
     9
100
AcDbSpline
210
0.0
220
0.0
230
1.0
 70
     8
 71
     3
 72
    11
 73
     7
 74
     0
 42
0.0000000001
 43
0.0000000001
 40
0.0
 40
0.0
 40
0.0
 40
0.0
 40
0.2515950374
 40
0.5023055152
 40
0.7517231282
 40
1.0
 40
1.0
 40
1.0
 40
1.0
 10
562.9437936798
 20
493.2805480213
 30
0.0
 10
562.9438248858999
 20
493.0068689732999
 30
0.0
 10
562.814959546
 20
492.4529596242
 30
0.0
 10
562.2931675405999
 20
491.7937603055
 30
0.0
 10
561.5683773393
 20
491.3852935308
 30
0.0
 10
561.0224138886
 20
491.2951078272
 30
0.0
 10
560.7523442599999
 20
491.2951172469999
 30
0.0
  0
LINE
  5
3B0
330
212
100
AcDbEntity
  8
RUNDUNGEN
  6
Continuous
 62
     9
100
AcDbLine
 10
558.4541472123
 20
418.2657602092
 30
0.0
 11
561.394856404
 21
395.9700095687001
 31
0.0
  0
SPLINE
  5
3B1
330
212
100
AcDbEntity
  8
RUNDUNGEN
  6
Continuous
 62
     9
100
AcDbSpline
210
0.0
220
0.0
230
1.0
 70
     8
 71
     3
 72
     9
 73
     5
 74
     0
 42
0.0000000001
 43
0.0000000001
 40
0.0
 40
0.0
 40
0.0
 40
0.0
 40
0.2583612889
 40
1.0
 40
1.0
 40
1.0
 40
1.0
 10
558.3977249573999
 20
419.165772082
 30
0.0
 10
558.39780568
 20
419.0880813791
 30
0.0
 10
558.4026941287
 20
418.7874216661
 30
0.0
 10
558.4249881644999
 20
418.4868608116999
 30
0.0
 10
558.4541472123
 20
418.2657602092
 30
0.0
  0
LINE
  5
3B2
330
212
100
AcDbEntity
  8
RUNDUNGEN
  6
Continuous
 62
     9
100
AcDbLine
 10
562.8638739584999
 20
421.3288499433999
 30
0.0
 11
558.3945606633
 21
422.2336741741999
 31
0.0
  0
LINE
  5
3B3
330
212
100
AcDbEntity
  8
RUNDUNGEN
  6
Continuous
 62
     9
100
AcDbLine
 10
562.8638739584999
 20
417.2605117732
 30
0.0
 11
560.9979279896
 21
417.1346963925
 31
0.0
  0
LINE
  5
3B4
330
212
100
AcDbEntity
  8
RUNDUNGEN
  6
Continuous
 62
     9
100
AcDbLine
 10
561.394856404
 20
395.9700095687001
 30
0.0
 11
562.0697967362999
 21
395.8334040318
 31
0.0
  0
LINE
  5
3B5
330
212
100
AcDbEntity
  8
RUNDUNGEN
  6
Continuous
 62
     9
100
AcDbLine
 10
587.8797355864
 20
395.970009566
 30
0.0
 11
590.8204447913
 21
418.2657602092
 31
0.0
  0
LINE
  5
3B6
330
212
100
AcDbEntity
  8
RUNDUNGEN
  6
Continuous
 62
     9
100
AcDbLine
 10
587.2047952786
 20
395.8334040341
 30
0.0
 11
587.8797355864
 21
395.970009566
 31
0.0
  0
LINE
  5
3B7
330
212
100
AcDbEntity
  8
RUNDUNGEN
  6
Continuous
 62
     9
100
AcDbLine
 10
588.276664014
 20
417.1346963925
 30
0.0
 11
586.4107180450999
 21
417.2605117732
 31
0.0
  0
LINE
  5
3B8
330
212
100
AcDbEntity
  8
RUNDUNGEN
  6
Continuous
 62
     9
100
AcDbLine
 10
590.8800313402999
 20
422.2336741741999
 30
0.0
 11
586.4107180450999
 21
421.3288499433999
 31
0.0
  0
SPLINE
  5
3B9
330
212
100
AcDbEntity
  8
RUNDUNGEN
  6
Continuous
 62
     9
100
AcDbSpline
210
0.0
220
0.0
230
1.0
 70
     8
 71
     3
 72
     9
 73
     5
 74
     0
 42
0.0000000001
 43
0.0000000001
 40
0.0
 40
0.0
 40
0.0
 40
0.0
 40
0.238595374
 40
1.0
 40
1.0
 40
1.0
 40
1.0
 10
590.8204447913
 20
418.2657602092
 30
0.0
 10
590.829825851
 20
418.3368927771
 30
0.0
 10
590.8634128953
 20
418.6357649545
 30
0.0
 10
590.8766291476
 20
418.9368086894
 30
0.0
 10
590.8768670461999
 20
419.165772082
 30
0.0
  0
LINE
  5
3BA
330
212
100
AcDbEntity
  8
RUNDUNGEN
  6
Continuous
 62
     9
100
AcDbLine
 10
589.9307647396
 20
423.2382077500999
 30
0.0
 11
585.4323609957
 21
422.3274794781
 31
0.0
  0
LINE
  5
3BB
330
212
100
AcDbEntity
  8
RUNDUNGEN
  6
Continuous
 62
     9
100
AcDbLine
 10
563.8422310077999
 20
422.3274794781
 30
0.0
 11
559.3438272639999
 21
423.2382077500999
 31
0.0
  0
LINE
  5
3BC
330
212
100
AcDbEntity
  8
RUNDUNGEN
  6
Continuous
 62
     9
100
AcDbLine
 10
563.8339452093
 20
416.260664078
 30
0.0
 11
562.5849372264
 21
416.1764466331
 31
0.0
  0
LINE
  5
3BD
330
212
100
AcDbEntity
  8
RUNDUNGEN
  6
Continuous
 62
     9
100
AcDbLine
 10
586.6896547771999
 20
416.1764466331
 30
0.0
 11
585.4406467943
 21
416.260664078
 31
0.0
  0
LINE
  5
3BE
330
212
100
AcDbEntity
  8
RUNDUNGEN
  6
Continuous
 62
     9
100
AcDbLine
 10
563.3009886938999
 20
395.4116650595
 30
0.0
 11
562.3174390666
 21
414.9861291148999
 31
0.0
  0
LINE
  5
3BF
330
212
100
AcDbEntity
  8
RUNDUNGEN
  6
Continuous
 62
     9
100
AcDbLine
 10
586.9571529369999
 20
414.9861291148999
 30
0.0
 11
585.9736032071
 21
395.4116650595
 31
0.0
  0
SPLINE
  5
3C0
330
212
100
AcDbEntity
  8
RUNDUNGEN
  6
Continuous
 62
     9
100
AcDbSpline
210
0.0
220
0.0
230
1.0
 70
     8
 71
     3
 72
    11
 73
     7
 74
     0
 42
0.0000000001
 43
0.0000000001
 40
0.0
 40
0.0
 40
0.0
 40
0.0
 40
0.2482768718
 40
0.4976944848
 40
0.7484049626
 40
1.0
 40
1.0
 40
1.0
 40
1.0
 10
588.5222477457
 20
491.2951172469999
 30
0.0
 10
588.2521781169
 20
491.2951078348999
 30
0.0
 10
587.7062146654
 20
491.3852935278
 30
0.0
 10
586.9814244651999
 20
491.7937603074999
 30
0.0
 10
586.4596324538999
 20
492.4529596252999
 30
0.0
 10
586.3307671271
 20
493.0068689749999
 30
0.0
 10
586.3307983238
 20
493.2805480233
 30
0.0
  0
SPLINE
  5
3C1
330
212
100
AcDbEntity
  8
RUNDUNGEN
  6
Continuous
 62
     9
100
AcDbSpline
210
0.0
220
0.0
230
1.0
 70
     8
 71
     3
 72
     8
 73
     4
 74
     0
 42
0.0000000001
 43
0.0000000001
 40
0.0
 40
0.0
 40
0.0
 40
0.0
 40
1.0
 40
1.0
 40
1.0
 40
1.0
 10
560.9441538720999
 20
492.2949649420999
 30
0.0
 10
560.4554753303999
 20
492.3245285583999
 30
0.0
 10
559.9667830819
 20
492.3538676705
 30
0.0
 10
559.4780696932999
 20
492.3828495324999
 30
0.0
  0
SPLINE
  5
3C2
330
212
100
AcDbEntity
  8
RUNDUNGEN
  6
Continuous
 62
     9
100
AcDbSpline
210
0.0
220
0.0
230
1.0
 70
     8
 71
     3
 72
     8
 73
     4
 74
     0
 42
0.0000000001
 43
0.0000000001
 40
0.0
 40
0.0
 40
0.0
 40
0.0
 40
1.0
 40
1.0
 40
1.0
 40
1.0
 10
589.7966069738999
 20
492.3828495324999
 30
0.0
 10
589.3078729607
 20
492.3538664582999
 30
0.0
 10
588.8191598677999
 20
492.3245298012999
 30
0.0
 10
588.3304607033998
 20
492.2949649420999
 30
0.0
  0
LEADER
  5
520
330
212
100
AcDbEntity
  8
ZEICHNUNGSBEMASSUNGEN
  6
Continuous
 62
     7
100
AcDbLeader
  3
DIMSTYLE_2
 74
     0
 76
     3
 10
581.637295839773
 20
514.9778145215143
 30
0.0
 10
597.7758826659729
 20
524.6220586051716
 30
0.0
 10
614.8685127686792
 20
524.58936302673
 30
0.0
213
8.546107528269942
223
6.697880158863256
233
0.0
1001
ACAD
1000
DSTYLE
1002
{
1070
    41
1040
5.0
1070
   147
1040
1.5
1070
   178
1070
   256
1002
}
  0
LINE
  5
521
330
212
100
AcDbEntity
  8
0
100
AcDbLine
 10
617.2262831379564
 20
521.3434612490916
 30
0.0
 11
625.865446412291
 21
521.3434612490916
 31
0.0
  0
LINE
  5
522
330
212
100
AcDbEntity
  8
0
100
AcDbLine
 10
618.7215035125356
 20
520.1978343435818
 30
0.0
 11
624.3541373097191
 21
520.1978343435818
 31
0.0
  0
LINE
  5
523
330
212
100
AcDbEntity
  8
0
100
AcDbLine
 10
620.1323149660498
 20
519.2653869148298
 30
0.0
 11
623.1363834795031
 21
519.2653869148298
 31
0.0
  0
LINE
  5
524
330
212
100
AcDbEntity
  8
0
100
AcDbLine
 10
621.4985161180748
 20
522.9382669494189
 30
0.0
 11
621.4985161180748
 21
528.3793725493451
 31
0.0
  0
ENDSEC
  0
SECTION
  2
OBJECTS
  0
DICTIONARY
  5
C
330
0
100
AcDbDictionary
281
     1
  3
ACAD_COLOR
350
3F4
  3
ACAD_GROUP
350
D
  3
ACAD_LAYOUT
350
1A
  3
ACAD_MATERIAL
350
3C7
  3
ACAD_MLEADERSTYLE
350
409
  3
ACAD_MLINESTYLE
350
17
  3
ACAD_PLOTSETTINGS
350
19
  3
ACAD_PLOTSTYLENAME
350
E
  3
ACAD_SCALELIST
350
3F7
  3
ACAD_TABLESTYLE
350
3F5
  3
ACAD_VISUALSTYLE
350
3E0
  3
ACDB_RECOMPOSE_DATA
350
579
  3
AcDbVariableDictionary
350
56A
  3
AcmDictionary
350
464
  3
AMG
350
40E
  3
AMGSNAPSETTINGS
350
4A9
  3
DWGPROPS
350
57A
  0
DICTIONARY
  5
3F4
102
{ACAD_REACTORS
330
C
102
}
330
C
100
AcDbDictionary
281
     1
  0
DICTIONARY
  5
D
102
{ACAD_REACTORS
330
C
102
}
330
C
100
AcDbDictionary
281
     1
  0
DICTIONARY
  5
1A
102
{ACAD_REACTORS
330
C
102
}
330
C
100
AcDbDictionary
281
     1
  3
Layout1
350
3C4
  3
Model
350
3C3
  0
DICTIONARY
  5
3C7
102
{ACAD_REACTORS
330
C
102
}
330
C
100
AcDbDictionary
281
     1
  3
ByBlock
350
3D0
  3
ByLayer
350
3C8
  3
Global
350
3D8
  0
DICTIONARY
  5
409
102
{ACAD_REACTORS
330
C
102
}
330
C
100
AcDbDictionary
281
     1
  3
Standard
350
40A
  0
DICTIONARY
  5
17
102
{ACAD_REACTORS
330
C
102
}
330
C
100
AcDbDictionary
281
     1
  3
Standard
350
18
  0
DICTIONARY
  5
19
102
{ACAD_REACTORS
330
C
102
}
330
C
100
AcDbDictionary
281
     1
  0
ACDBDICTIONARYWDFLT
  5
E
102
{ACAD_REACTORS
330
C
102
}
330
C
100
AcDbDictionary
281
     1
  3
Normal
350
F
100
AcDbDictionaryWithDefault
340
F
  0
DICTIONARY
  5
3F7
102
{ACAD_REACTORS
330
C
102
}
330
C
100
AcDbDictionary
281
     1
  3
A0
350
3F8
  3
A1
350
3F9
  3
A2
350
3FA
  3
A3
350
3FB
  3
A4
350
3FC
  3
A5
350
3FD
  3
A6
350
3FE
  3
A7
350
3FF
  3
A8
350
400
  3
A9
350
401
  3
B0
350
402
  3
B1
350
403
  3
B2
350
404
  3
B3
350
405
  3
B4
350
406
  3
B5
350
407
  3
B6
350
408
  0
DICTIONARY
  5
3F5
102
{ACAD_REACTORS
330
C
102
}
330
C
100
AcDbDictionary
281
     1
  3
Standard
350
3F6
  0
DICTIONARY
  5
3E0
102
{ACAD_REACTORS
330
C
102
}
330
C
100
AcDbDictionary
281
     1
  3
2dWireframe
350
3E6
  3
3D Hidden
350
3E8
  3
3dWireframe
350
3E7
  3
Basic
350
3E5
  3
Brighten
350
3EC
  3
ColorChange
350
3F0
  3
Conceptual
350
3E9
  3
Dim
350
3EB
  3
EdgeColorOff
350
3F3
  3
Facepattern
350
3EF
  3
Flat
350
3E1
  3
FlatWithEdges
350
3E2
  3
Gouraud
350
3E3
  3
GouraudWithEdges
350
3E4
  3
JitterOff
350
3F1
  3
Linepattern
350
3EE
  3
OverhangOff
350
3F2
  3
Realistic
350
3EA
  3
Thicken
350
3ED
  0
XRECORD
  5
579
102
{ACAD_REACTORS
330
C
102
}
330
C
100
AcDbXrecord
280
     1
 90
        1
330
3F6
  0
DICTIONARY
  5
56A
102
{ACAD_REACTORS
330
C
102
}
330
C
100
AcDbDictionary
281
     1
  3
CANNOSCALE
350
56E
  3
CMLEADERSTYLE
350
56C
  3
CTABLESTYLE
350
56B
  3
DIMASSOC
350
575
  3
HIDETEXT
350
574
  3
INDEXCTL
350
573
  3
LAYEREVAL
350
570
  3
LAYERNOTIFY
350
571
  3
LIGHTINGUNITS
350
56F
  3
MSLTSCALE
350
56D
  3
SORTENTS
350
572
  3
XCLIPFRAME
350
576
  0
DICTIONARY
  5
464
102
{ACAD_REACTORS
330
C
102
}
330
C
100
AcDbDictionary
281
     1
  3
AcmStdDictionary
350
46E
  0
DICTIONARY
  5
40E
102
{ACAD_REACTORS
330
C
102
}
330
C
100
AcDbDictionary
281
     1
  0
DICTIONARY
  5
4A9
102
{ACAD_REACTORS
330
C
102
}
330
C
100
AcDbDictionary
281
     1
  0
XRECORD
  5
57A
102
{ACAD_REACTORS
330
C
102
}
330
C
100
AcDbXrecord
280
     1
  1
DWGPROPS COOKIE
  2

  3

  4

  6

  7

  8
sheim
  9

300
=
301
=
302
=
303
=
304
=
305
=
306
=
307
=
308
=
309
=
 40
0.0013107638888889
 41
2456324.647597755
 42
2456324.64890816
  1

 90
        0
  0
LAYOUT
  5
3C4
102
{ACAD_XDICTIONARY
360
57D
102
}
102
{ACAD_REACTORS
330
1A
102
}
330
1A
100
AcDbPlotSettings
  1

  2
none_device
  4
ISO_A0_(1189.00_x_841.00_MM)
  6

 40
0.0
 41
0.0
 42
0.0
 43
0.0
 44
1189.0
 45
841.0
 46
0.0
 47
0.0
 48
0.0
 49
0.0
140
0.0
141
0.0
142
1.0
143
1.0
 70
     0
 72
     1
 73
     0
 74
     0
  7

 75
     0
147
1.0
148
0.0
149
0.0
100
AcDbLayout
  1
Layout1
 70
     1
 71
     1
 10
0.0
 20
0.0
 11
12.0
 21
9.0
 12
0.0
 22
0.0
 32
0.0
 14
1.000000000000000E+20
 24
1.000000000000000E+20
 34
1.000000000000000E+20
 15
-1.000000000000000E+20
 25
-1.000000000000000E+20
 35
-1.000000000000000E+20
146
0.0
 13
0.0
 23
0.0
 33
0.0
 16
1.0
 26
0.0
 36
0.0
 17
0.0
 27
1.0
 37
0.0
 76
     0
330
213
  0
LAYOUT
  5
3C3
102
{ACAD_XDICTIONARY
360
57B
102
}
102
{ACAD_REACTORS
330
1A
102
}
330
1A
100
AcDbPlotSettings
  1

  2
none_device
  4
ISO_A0_(1189.00_x_841.00_MM)
  6

 40
0.0
 41
0.0
 42
0.0
 43
0.0
 44
1189.0
 45
841.0
 46
0.0
 47
0.0
 48
0.0
 49
0.0
140
0.0
141
0.0
142
1.0
143
1.0
 70
  1024
 72
     1
 73
     0
 74
     0
  7

 75
     0
147
1.0
148
0.0
149
0.0
100
AcDbLayout
  1
Model
 70
     0
 71
     0
 10
0.0
 20
0.0
 11
1189.0
 21
841.0
 12
0.0
 22
0.0
 32
0.0
 14
0.0
 24
0.0
 34
0.0
 15
0.0
 25
0.0
 35
0.0
146
0.0
 13
0.0
 23
0.0
 33
0.0
 16
1.0
 26
0.0
 36
0.0
 17
0.0
 27
1.0
 37
0.0
 76
     0
330
212
331
1F4
  0
MATERIAL
  5
3D0
102
{ACAD_XDICTIONARY
360
3D1
102
}
102
{ACAD_REACTORS
330
3C7
102
}
330
3C7
100
AcDbMaterial
  1
ByBlock
 72
     0
 43
0.0008202099737533
 43
0.0
 43
0.0
 43
0.0
 43
0.0
 43
0.0008202099737533
 43
0.0
 43
0.0
 43
0.0
 43
0.0
 43
1.0
 43
0.0
 43
0.0
 43
0.0
 43
0.0
 43
1.0
 77
     0
 47
0.0008202099737533
 47
0.0
 47
0.0
 47
0.0
 47
0.0
 47
0.0008202099737533
 47
0.0
 47
0.0
 47
0.0
 47
0.0
 47
1.0
 47
0.0
 47
0.0
 47
0.0
 47
0.0
 47
1.0
171
     0
 49
0.0008202099737533
 49
0.0
 49
0.0
 49
0.0
 49
0.0
 49
0.0008202099737533
 49
0.0
 49
0.0
 49
0.0
 49
0.0
 49
1.0
 49
0.0
 49
0.0
 49
0.0
 49
0.0
 49
1.0
175
     0
142
0.0008202099737533
142
0.0
142
0.0
142
0.0
142
0.0
142
0.0008202099737533
142
0.0
142
0.0
142
0.0
142
0.0
142
1.0
142
0.0
142
0.0
142
0.0
142
0.0
142
1.0
179
     0
144
0.0008202099737533
144
0.0
144
0.0
144
0.0
144
0.0
144
0.0008202099737533
144
0.0
144
0.0
144
0.0
144
0.0
144
1.0
144
0.0
144
0.0
144
0.0
144
0.0
144
1.0
147
0.0008202099737533
147
0.0
147
0.0
147
0.0
147
0.0
147
0.0008202099737533
147
0.0
147
0.0
147
0.0
147
0.0
147
1.0
147
0.0
147
0.0
147
0.0
147
0.0
147
1.0
  0
MATERIAL
  5
3C8
102
{ACAD_XDICTIONARY
360
3C9
102
}
102
{ACAD_REACTORS
330
3C7
102
}
330
3C7
100
AcDbMaterial
  1
ByLayer
 72
     0
 43
0.0008202099737533
 43
0.0
 43
0.0
 43
0.0
 43
0.0
 43
0.0008202099737533
 43
0.0
 43
0.0
 43
0.0
 43
0.0
 43
1.0
 43
0.0
 43
0.0
 43
0.0
 43
0.0
 43
1.0
 77
     0
 47
0.0008202099737533
 47
0.0
 47
0.0
 47
0.0
 47
0.0
 47
0.0008202099737533
 47
0.0
 47
0.0
 47
0.0
 47
0.0
 47
1.0
 47
0.0
 47
0.0
 47
0.0
 47
0.0
 47
1.0
171
     0
 49
0.0008202099737533
 49
0.0
 49
0.0
 49
0.0
 49
0.0
 49
0.0008202099737533
 49
0.0
 49
0.0
 49
0.0
 49
0.0
 49
1.0
 49
0.0
 49
0.0
 49
0.0
 49
0.0
 49
1.0
175
     0
142
0.0008202099737533
142
0.0
142
0.0
142
0.0
142
0.0
142
0.0008202099737533
142
0.0
142
0.0
142
0.0
142
0.0
142
1.0
142
0.0
142
0.0
142
0.0
142
0.0
142
1.0
179
     0
144
0.0008202099737533
144
0.0
144
0.0
144
0.0
144
0.0
144
0.0008202099737533
144
0.0
144
0.0
144
0.0
144
0.0
144
1.0
144
0.0
144
0.0
144
0.0
144
0.0
144
1.0
147
0.0008202099737533
147
0.0
147
0.0
147
0.0
147
0.0
147
0.0008202099737533
147
0.0
147
0.0
147
0.0
147
0.0
147
1.0
147
0.0
147
0.0
147
0.0
147
0.0
147
1.0
  0
MATERIAL
  5
3D8
102
{ACAD_XDICTIONARY
360
3D9
102
}
102
{ACAD_REACTORS
330
3C7
102
}
330
3C7
100
AcDbMaterial
  1
Global
 72
     0
 43
0.0008202099737533
 43
0.0
 43
0.0
 43
0.0
 43
0.0
 43
0.0008202099737533
 43
0.0
 43
0.0
 43
0.0
 43
0.0
 43
1.0
 43
0.0
 43
0.0
 43
0.0
 43
0.0
 43
1.0
 77
     0
 47
0.0008202099737533
 47
0.0
 47
0.0
 47
0.0
 47
0.0
 47
0.0008202099737533
 47
0.0
 47
0.0
 47
0.0
 47
0.0
 47
1.0
 47
0.0
 47
0.0
 47
0.0
 47
0.0
 47
1.0
171
     0
 49
0.0008202099737533
 49
0.0
 49
0.0
 49
0.0
 49
0.0
 49
0.0008202099737533
 49
0.0
 49
0.0
 49
0.0
 49
0.0
 49
1.0
 49
0.0
 49
0.0
 49
0.0
 49
0.0
 49
1.0
175
     0
142
0.0008202099737533
142
0.0
142
0.0
142
0.0
142
0.0
142
0.0008202099737533
142
0.0
142
0.0
142
0.0
142
0.0
142
1.0
142
0.0
142
0.0
142
0.0
142
0.0
142
1.0
179
     0
144
0.0008202099737533
144
0.0
144
0.0
144
0.0
144
0.0
144
0.0008202099737533
144
0.0
144
0.0
144
0.0
144
0.0
144
1.0
144
0.0
144
0.0
144
0.0
144
0.0
144
1.0
147
0.0008202099737533
147
0.0
147
0.0
147
0.0
147
0.0
147
0.0008202099737533
147
0.0
147
0.0
147
0.0
147
0.0
147
1.0
147
0.0
147
0.0
147
0.0
147
0.0
147
1.0
  0
MLEADERSTYLE
  5
40A
102
{ACAD_REACTORS
330
409
102
}
330
409
100
AcDbMLeaderStyle
170
     2
171
     1
172
     0
 90
        2
 40
0.0
 41
0.0
173
     1
 91
-1056964608
340
14
 92
       -2
290
     1
 42
2.0
291
     1
 43
0.36
  3
Standard
 44
4.0
300

342
11
174
     1
178
     6
175
     1
176
     0
 93
-1056964608
 45
4.0
292
     0
297
     0
 46
4.0
 94
-1056964608
 47
1.0
 49
1.0
140
1.0
293
     1
141
0.0
294
     1
177
     0
142
1.0
295
     0
296
     0
143
0.125
1001
ACAD_MLEADERVER
1070
     2
  0
MLINESTYLE
  5
18
102
{ACAD_REACTORS
330
17
102
}
330
17
100
AcDbMlineStyle
  2
STANDARD
 70
     0
  3

 62
   256
 51
90.0
 52
90.0
 71
     2
 49
0.5
 62
   256
  6
BYLAYER
 49
-0.5
 62
   256
  6
BYLAYER
  0
ACDBPLACEHOLDER
  5
F
102
{ACAD_REACTORS
330
E
102
}
330
E
  0
SCALE
  5
3F8
102
{ACAD_REACTORS
330
3F7
102
}
330
3F7
100
AcDbScale
 70
     0
300
1:1
140
1.0
141
1.0
290
     1
  0
SCALE
  5
3F9
102
{ACAD_REACTORS
330
3F7
102
}
330
3F7
100
AcDbScale
 70
     0
300
1:2
140
1.0
141
2.0
290
     0
  0
SCALE
  5
3FA
102
{ACAD_REACTORS
330
3F7
102
}
330
3F7
100
AcDbScale
 70
     0
300
1:4
140
1.0
141
4.0
290
     0
  0
SCALE
  5
3FB
102
{ACAD_REACTORS
330
3F7
102
}
330
3F7
100
AcDbScale
 70
     0
300
1:5
140
1.0
141
5.0
290
     0
  0
SCALE
  5
3FC
102
{ACAD_REACTORS
330
3F7
102
}
330
3F7
100
AcDbScale
 70
     0
300
1:8
140
1.0
141
8.0
290
     0
  0
SCALE
  5
3FD
102
{ACAD_REACTORS
330
3F7
102
}
330
3F7
100
AcDbScale
 70
     0
300
1:10
140
1.0
141
10.0
290
     0
  0
SCALE
  5
3FE
102
{ACAD_REACTORS
330
3F7
102
}
330
3F7
100
AcDbScale
 70
     0
300
1:16
140
1.0
141
16.0
290
     0
  0
SCALE
  5
3FF
102
{ACAD_REACTORS
330
3F7
102
}
330
3F7
100
AcDbScale
 70
     0
300
1:20
140
1.0
141
20.0
290
     0
  0
SCALE
  5
400
102
{ACAD_REACTORS
330
3F7
102
}
330
3F7
100
AcDbScale
 70
     0
300
1:30
140
1.0
141
30.0
290
     0
  0
SCALE
  5
401
102
{ACAD_REACTORS
330
3F7
102
}
330
3F7
100
AcDbScale
 70
     0
300
1:40
140
1.0
141
40.0
290
     0
  0
SCALE
  5
402
102
{ACAD_REACTORS
330
3F7
102
}
330
3F7
100
AcDbScale
 70
     0
300
1:50
140
1.0
141
50.0
290
     0
  0
SCALE
  5
403
102
{ACAD_REACTORS
330
3F7
102
}
330
3F7
100
AcDbScale
 70
     0
300
1:100
140
1.0
141
100.0
290
     0
  0
SCALE
  5
404
102
{ACAD_REACTORS
330
3F7
102
}
330
3F7
100
AcDbScale
 70
     0
300
2:1
140
2.0
141
1.0
290
     0
  0
SCALE
  5
405
102
{ACAD_REACTORS
330
3F7
102
}
330
3F7
100
AcDbScale
 70
     0
300
4:1
140
4.0
141
1.0
290
     0
  0
SCALE
  5
406
102
{ACAD_REACTORS
330
3F7
102
}
330
3F7
100
AcDbScale
 70
     0
300
8:1
140
8.0
141
1.0
290
     0
  0
SCALE
  5
407
102
{ACAD_REACTORS
330
3F7
102
}
330
3F7
100
AcDbScale
 70
     0
300
10:1
140
10.0
141
1.0
290
     0
  0
SCALE
  5
408
102
{ACAD_REACTORS
330
3F7
102
}
330
3F7
100
AcDbScale
 70
     0
300
100:1
140
100.0
141
1.0
290
     0
  0
TABLESTYLE
  5
3F6
102
{ACAD_XDICTIONARY
360
577
102
}
102
{ACAD_REACTORS
330
3F5
102
}
330
3F5
100
AcDbTableStyle
  3
Standard
 70
     0
 71
     0
 40
1.5
 41
1.5
280
     0
281
     0
  7
STANDARD
140
4.5
170
     2
 62
     0
 63
     7
283
     0
274
    -2
284
     1
 64
     0
275
    -2
285
     1
 65
     0
276
    -2
286
     1
 66
     0
277
    -2
287
     1
 67
     0
278
    -2
288
     1
 68
     0
279
    -2
289
     1
 69
     0
  7
STANDARD
140
6.0
170
     5
 62
     0
 63
     7
283
     0
274
    -2
284
     1
 64
     0
275
    -2
285
     1
 65
     0
276
    -2
286
     1
 66
     0
277
    -2
287
     1
 67
     0
278
    -2
288
     1
 68
     0
279
    -2
289
     1
 69
     0
  7
STANDARD
140
4.5
170
     5
 62
     0
 63
     7
283
     0
274
    -2
284
     1
 64
     0
275
    -2
285
     1
 65
     0
276
    -2
286
     1
 66
     0
277
    -2
287
     1
 67
     0
278
    -2
288
     1
 68
     0
279
    -2
289
     1
 69
     0
  0
VISUALSTYLE
  5
3E6
102
{ACAD_XDICTIONARY
360
58C
102
}
102
{ACAD_REACTORS
330
3E0
102
}
330
3E0
100
AcDbVisualStyle
  2
2dWireframe
 70
     4
 71
     0
 72
     2
 73
     0
 90
        0
 40
-0.6
 41
-30.0
 62
     5
 63
     7
 74
     1
 91
        4
 64
     7
 65
   257
 75
     1
175
     1
 42
1.0
 92
        0
 66
   257
 43
1.0
 76
     1
 77
     6
 78
     2
 67
     7
 79
     5
170
     0
171
     0
290
     0
174
     0
 93
        1
 44
0.0
173
     0
291
     0
 45
0.0
1001
ACAD
1000
AcDbSavedByObjectVersion
1070
     0
  0
VISUALSTYLE
  5
3E8
102
{ACAD_XDICTIONARY
360
590
102
}
102
{ACAD_REACTORS
330
3E0
102
}
330
3E0
100
AcDbVisualStyle
  2
3D Hidden
 70
     6
 71
     1
 72
     2
 73
     2
 90
        0
 40
-0.6
 41
-30.0
 62
     5
 63
     7
 74
     2
 91
        2
 64
     7
 65
   257
 75
     2
175
     1
 42
179.0
 92
        0
 66
   257
 43
1.0
 76
     1
 77
     6
 78
     2
 67
     7
 79
     3
170
     0
171
     0
290
     0
174
     0
 93
        1
 44
0.0
173
     0
291
     0
 45
0.0
1001
ACAD
1000
AcDbSavedByObjectVersion
1070
     0
  0
VISUALSTYLE
  5
3E7
102
{ACAD_XDICTIONARY
360
58E
102
}
102
{ACAD_REACTORS
330
3E0
102
}
330
3E0
100
AcDbVisualStyle
  2
3dWireframe
 70
     5
 71
     0
 72
     2
 73
     0
 90
        0
 40
-0.6
 41
-30.0
 62
     5
 63
     7
 74
     1
 91
        4
 64
     7
 65
   257
 75
     1
175
     1
 42
1.0
 92
        0
 66
   257
 43
1.0
 76
     1
 77
     6
 78
     2
 67
     7
 79
     5
170
     0
171
     0
290
     0
174
     0
 93
        1
 44
0.0
173
     0
291
     0
 45
0.0
1001
ACAD
1000
AcDbSavedByObjectVersion
1070
     0
  0
VISUALSTYLE
  5
3E5
102
{ACAD_XDICTIONARY
360
58A
102
}
102
{ACAD_REACTORS
330
3E0
102
}
330
3E0
100
AcDbVisualStyle
  2
Basic
 70
     7
 71
     1
 72
     0
 73
     1
 90
        0
 40
-0.6
 41
-30.0
 62
     5
 63
     7
 74
     0
 91
        4
 64
     7
 65
   257
 75
     1
175
     1
 42
1.0
 92
        8
 66
     7
 43
1.0
 76
     1
 77
     6
 78
     2
 67
     7
 79
     5
170
     0
171
     0
290
     0
174
     0
 93
        1
 44
0.0
173
     0
291
     1
 45
0.0
1001
ACAD
1000
AcDbSavedByObjectVersion
1070
     0
  0
VISUALSTYLE
  5
3EC
102
{ACAD_XDICTIONARY
360
598
102
}
102
{ACAD_REACTORS
330
3E0
102
}
330
3E0
100
AcDbVisualStyle
  2
Brighten
 70
    12
 71
     2
 72
     2
 73
     0
 90
        0
 40
-0.6
 41
-30.0
 62
     5
 63
     7
 74
     1
 91
        4
 64
     7
 65
   257
 75
     1
175
     1
 42
1.0
 92
        8
 66
     7
 43
1.0
 76
     1
 77
     6
 78
     2
 67
     7
 79
     5
170
     0
171
     0
290
     0
174
     0
 93
        1
 44
50.0
173
     0
291
     1
 45
0.0
1001
ACAD
1000
AcDbSavedByObjectVersion
1070
     0
  0
VISUALSTYLE
  5
3F0
102
{ACAD_XDICTIONARY
360
5A0
102
}
102
{ACAD_REACTORS
330
3E0
102
}
330
3E0
100
AcDbVisualStyle
  2
ColorChange
 70
    16
 71
     2
 72
     2
 73
     3
 90
        0
 40
-0.6
 41
-30.0
 62
     5
 63
     8
 74
     1
 91
        4
 64
     7
 65
   257
 75
     1
175
     1
 42
1.0
 92
        8
 66
     8
 43
1.0
 76
     1
 77
     6
 78
     2
 67
     7
 79
     5
170
     0
171
     0
290
     0
174
     0
 93
        1
 44
0.0
173
     0
291
     1
 45
0.0
1001
ACAD
1000
AcDbSavedByObjectVersion
1070
     0
  0
VISUALSTYLE
  5
3E9
102
{ACAD_XDICTIONARY
360
592
102
}
102
{ACAD_REACTORS
330
3E0
102
}
330
3E0
100
AcDbVisualStyle
  2
Conceptual
 70
     9
 71
     3
 72
     2
 73
     0
 90
        0
 40
-0.6
 41
-30.0
 62
     5
 63
     7
 74
     2
 91
        2
 64
     7
 65
   257
 75
     1
175
     1
 42
179.0
 92
        8
 66
     7
 43
1.0
 76
     1
 77
     6
 78
     2
 67
     7
 79
     3
170
     0
171
     0
290
     0
174
     0
 93
        1
 44
0.0
173
     0
291
     0
 45
0.0
1001
ACAD
1000
AcDbSavedByObjectVersion
1070
     0
  0
VISUALSTYLE
  5
3EB
102
{ACAD_XDICTIONARY
360
596
102
}
102
{ACAD_REACTORS
330
3E0
102
}
330
3E0
100
AcDbVisualStyle
  2
Dim
 70
    11
 71
     2
 72
     2
 73
     0
 90
        0
 40
-0.6
 41
-30.0
 62
     5
 63
     7
 74
     1
 91
        4
 64
     7
 65
   257
 75
     1
175
     1
 42
1.0
 92
        8
 66
     7
 43
1.0
 76
     1
 77
     6
 78
     2
 67
     7
 79
     5
170
     0
171
     0
290
     0
174
     0
 93
        1
 44
-50.0
173
     0
291
     1
 45
0.0
1001
ACAD
1000
AcDbSavedByObjectVersion
1070
     0
  0
VISUALSTYLE
  5
3F3
102
{ACAD_XDICTIONARY
360
5A6
102
}
102
{ACAD_REACTORS
330
3E0
102
}
330
3E0
100
AcDbVisualStyle
  2
EdgeColorOff
 70
    22
 71
     2
 72
     2
 73
     0
 90
        0
 40
-0.6
 41
-30.0
 62
     5
 63
     7
 74
     1
 91
        4
 64
     7
 65
   257
 75
     1
175
     1
 42
1.0
 92
        8
 66
     7
 43
1.0
 76
     1
 77
     6
 78
     2
 67
     7
 79
     5
170
     0
171
     0
290
     0
174
     0
 93
        1
 44
0.0
173
     0
291
     1
 45
0.0
1001
ACAD
1000
AcDbSavedByObjectVersion
1070
     0
  0
VISUALSTYLE
  5
3EF
102
{ACAD_XDICTIONARY
360
59E
102
}
102
{ACAD_REACTORS
330
3E0
102
}
330
3E0
100
AcDbVisualStyle
  2
Facepattern
 70
    15
 71
     2
 72
     2
 73
     0
 90
        0
 40
-0.6
 41
-30.0
 62
     5
 63
     7
 74
     1
 91
        4
 64
     7
 65
   257
 75
     1
175
     1
 42
1.0
 92
        8
 66
     7
 43
1.0
 76
     1
 77
     6
 78
     2
 67
     7
 79
     5
170
     0
171
     0
290
     0
174
     0
 93
        1
 44
0.0
173
     0
291
     1
 45
0.0
1001
ACAD
1000
AcDbSavedByObjectVersion
1070
     0
  0
VISUALSTYLE
  5
3E1
102
{ACAD_XDICTIONARY
360
582
102
}
102
{ACAD_REACTORS
330
3E0
102
}
330
3E0
100
AcDbVisualStyle
  2
Flat
 70
     0
 71
     2
 72
     1
 73
     1
 90
        2
 40
-0.6
 41
30.0
 62
     5
 63
     7
 74
     0
 91
        4
 64
     7
 65
   257
 75
     1
175
     1
 42
1.0
 92
        8
 66
     7
 43
1.0
 76
     1
 77
     6
 78
     2
 67
     7
 79
     5
170
     0
171
     0
290
     0
174
     0
 93
       13
 44
0.0
173
     0
291
     1
 45
0.0
1001
ACAD
1000
AcDbSavedByObjectVersion
1070
     0
  0
VISUALSTYLE
  5
3E2
102
{ACAD_XDICTIONARY
360
584
102
}
102
{ACAD_REACTORS
330
3E0
102
}
330
3E0
100
AcDbVisualStyle
  2
FlatWithEdges
 70
     1
 71
     2
 72
     1
 73
     1
 90
        2
 40
-0.6
 41
30.0
 62
     5
 63
     7
 74
     1
 91
        4
 64
     7
 65
   257
 75
     1
175
     1
 42
1.0
 92
        0
 66
   257
 43
1.0
 76
     1
 77
     6
 78
     2
 67
     7
 79
     5
170
     0
171
     0
290
     0
174
     0
 93
       13
 44
0.0
173
     0
291
     1
 45
0.0
1001
ACAD
1000
AcDbSavedByObjectVersion
1070
     0
  0
VISUALSTYLE
  5
3E3
102
{ACAD_XDICTIONARY
360
586
102
}
102
{ACAD_REACTORS
330
3E0
102
}
330
3E0
100
AcDbVisualStyle
  2
Gouraud
 70
     2
 71
     2
 72
     2
 73
     1
 90
        2
 40
-0.6
 41
30.0
 62
     5
 63
     7
 74
     0
 91
        4
 64
     7
 65
   257
 75
     1
175
     1
 42
1.0
 92
        0
 66
     7
 43
1.0
 76
     1
 77
     6
 78
     2
 67
     7
 79
     5
170
     0
171
     0
290
     0
174
     0
 93
       13
 44
0.0
173
     0
291
     1
 45
0.0
1001
ACAD
1000
AcDbSavedByObjectVersion
1070
     0
  0
VISUALSTYLE
  5
3E4
102
{ACAD_XDICTIONARY
360
588
102
}
102
{ACAD_REACTORS
330
3E0
102
}
330
3E0
100
AcDbVisualStyle
  2
GouraudWithEdges
 70
     3
 71
     2
 72
     2
 73
     1
 90
        2
 40
-0.6
 41
30.0
 62
     5
 63
     7
 74
     1
 91
        4
 64
     7
 65
   257
 75
     1
175
     1
 42
1.0
 92
        0
 66
   257
 43
1.0
 76
     1
 77
     6
 78
     2
 67
     7
 79
     5
170
     0
171
     0
290
     0
174
     0
 93
       13
 44
0.0
173
     0
291
     1
 45
0.0
1001
ACAD
1000
AcDbSavedByObjectVersion
1070
     0
  0
VISUALSTYLE
  5
3F1
102
{ACAD_XDICTIONARY
360
5A2
102
}
102
{ACAD_REACTORS
330
3E0
102
}
330
3E0
100
AcDbVisualStyle
  2
JitterOff
 70
    20
 71
     2
 72
     2
 73
     0
 90
        0
 40
-0.6
 41
-30.0
 62
     5
 63
     7
 74
     1
 91
        4
 64
     7
 65
   257
 75
     1
175
     1
 42
1.0
 92
       10
 66
     7
 43
1.0
 76
     1
 77
     6
 78
     2
 67
     7
 79
     5
170
     0
171
     0
290
     0
174
     0
 93
        1
 44
0.0
173
     0
291
     1
 45
0.0
1001
ACAD
1000
AcDbSavedByObjectVersion
1070
     0
  0
VISUALSTYLE
  5
3EE
102
{ACAD_XDICTIONARY
360
59C
102
}
102
{ACAD_REACTORS
330
3E0
102
}
330
3E0
100
AcDbVisualStyle
  2
Linepattern
 70
    14
 71
     2
 72
     2
 73
     0
 90
        0
 40
-0.6
 41
-30.0
 62
     5
 63
     7
 74
     1
 91
        4
 64
     7
 65
   257
 75
     7
175
     7
 42
1.0
 92
        8
 66
     7
 43
1.0
 76
     1
 77
     6
 78
     2
 67
     7
 79
     5
170
     0
171
     0
290
     0
174
     0
 93
        1
 44
0.0
173
     0
291
     1
 45
0.0
1001
ACAD
1000
AcDbSavedByObjectVersion
1070
     0
  0
VISUALSTYLE
  5
3F2
102
{ACAD_XDICTIONARY
360
5A4
102
}
102
{ACAD_REACTORS
330
3E0
102
}
330
3E0
100
AcDbVisualStyle
  2
OverhangOff
 70
    21
 71
     2
 72
     2
 73
     0
 90
        0
 40
-0.6
 41
-30.0
 62
     5
 63
     7
 74
     1
 91
        4
 64
     7
 65
   257
 75
     1
175
     1
 42
1.0
 92
        9
 66
     7
 43
1.0
 76
     1
 77
     6
 78
     2
 67
     7
 79
     5
170
     0
171
     0
290
     0
174
     0
 93
        1
 44
0.0
173
     0
291
     1
 45
0.0
1001
ACAD
1000
AcDbSavedByObjectVersion
1070
     0
  0
VISUALSTYLE
  5
3EA
102
{ACAD_XDICTIONARY
360
594
102
}
102
{ACAD_REACTORS
330
3E0
102
}
330
3E0
100
AcDbVisualStyle
  2
Realistic
 70
     8
 71
     2
 72
     2
 73
     0
 90
        0
 40
-0.6
 41
-30.0
 62
     5
 63
     7
 74
     1
 91
        0
 64
     7
 65
   257
 75
     1
175
     1
 42
1.0
 92
        8
 66
     8
 43
1.0
 76
     1
 77
     6
 78
     2
 67
     7
 79
     5
170
     0
171
     0
290
     0
174
     0
 93
       13
 44
0.0
173
     0
291
     0
 45
0.0
1001
ACAD
1000
AcDbSavedByObjectVersion
1070
     0
  0
VISUALSTYLE
  5
3ED
102
{ACAD_XDICTIONARY
360
59A
102
}
102
{ACAD_REACTORS
330
3E0
102
}
330
3E0
100
AcDbVisualStyle
  2
Thicken
 70
    13
 71
     2
 72
     2
 73
     0
 90
        0
 40
-0.6
 41
-30.0
 62
     5
 63
     7
 74
     1
 91
        4
 64
     7
 65
   257
 75
     1
175
     1
 42
1.0
 92
       12
 66
     7
 43
1.0
 76
     1
 77
     6
 78
     2
 67
     7
 79
     5
170
     0
171
     0
290
     0
174
     0
 93
        1
 44
0.0
173
     0
291
     1
 45
0.0
1001
ACAD
1000
AcDbSavedByObjectVersion
1070
     0
  0
DICTIONARYVAR
  5
56E
102
{ACAD_REACTORS
330
56A
102
}
330
56A
100
DictionaryVariables
280
     0
  1
1:1
  0
DICTIONARYVAR
  5
56C
102
{ACAD_REACTORS
330
56A
102
}
330
56A
100
DictionaryVariables
280
     0
  1
STANDARD
  0
DICTIONARYVAR
  5
56B
102
{ACAD_REACTORS
330
56A
102
}
330
56A
100
DictionaryVariables
280
     0
  1
STANDARD
  0
DICTIONARYVAR
  5
575
102
{ACAD_REACTORS
330
56A
102
}
330
56A
100
DictionaryVariables
280
     0
  1
2
  0
DICTIONARYVAR
  5
574
102
{ACAD_REACTORS
330
56A
102
}
330
56A
100
DictionaryVariables
280
     0
  1
1
  0
DICTIONARYVAR
  5
573
102
{ACAD_REACTORS
330
56A
102
}
330
56A
100
DictionaryVariables
280
     0
  1
0
  0
DICTIONARYVAR
  5
570
102
{ACAD_REACTORS
330
56A
102
}
330
56A
100
DictionaryVariables
280
     0
  1
0
  0
DICTIONARYVAR
  5
571
102
{ACAD_REACTORS
330
56A
102
}
330
56A
100
DictionaryVariables
280
     0
  1
0
  0
DICTIONARYVAR
  5
56F
102
{ACAD_REACTORS
330
56A
102
}
330
56A
100
DictionaryVariables
280
     0
  1
2
  0
DICTIONARYVAR
  5
56D
102
{ACAD_REACTORS
330
56A
102
}
330
56A
100
DictionaryVariables
280
     0
  1
1
  0
DICTIONARYVAR
  5
572
102
{ACAD_REACTORS
330
56A
102
}
330
56A
100
DictionaryVariables
280
     0
  1
127
  0
DICTIONARYVAR
  5
576
102
{ACAD_REACTORS
330
56A
102
}
330
56A
100
DictionaryVariables
280
     0
  1
2
  0
DICTIONARY
  5
46E
102
{ACAD_REACTORS
330
464
102
}
330
464
100
AcDbDictionary
281
     1
  0
DICTIONARY
  5
57D
330
3C4
100
AcDbDictionary
280
     1
281
     1
  3
ACAD_XREC_ROUNDTRIP
360
57E
  0
DICTIONARY
  5
57B
330
3C3
100
AcDbDictionary
280
     1
281
     1
  3
ACAD_XREC_ROUNDTRIP
360
57C
  0
DICTIONARY
  5
3D1
330
3D0
100
AcDbDictionary
280
     1
281
     1
  3
ACAD_XREC_ROUNDTRIP
360
580
  3
BUMPTILE
360
3D3
  3
DIFFUSETILE
360
3D2
  3
OPACITYTILE
360
3D6
  3
REFLECTIONTILE
360
3D5
  3
REFRACTIONTILE
360
3D7
  3
SPECULARTILE
360
3D4
  0
DICTIONARY
  5
3C9
330
3C8
100
AcDbDictionary
280
     1
281
     1
  3
ACAD_XREC_ROUNDTRIP
360
57F
  3
BUMPTILE
360
3CB
  3
DIFFUSETILE
360
3CA
  3
OPACITYTILE
360
3CE
  3
REFLECTIONTILE
360
3CD
  3
REFRACTIONTILE
360
3CF
  3
SPECULARTILE
360
3CC
  0
DICTIONARY
  5
3D9
330
3D8
100
AcDbDictionary
280
     1
281
     1
  3
ACAD_XREC_ROUNDTRIP
360
581
  3
BUMPTILE
360
3DB
  3
DIFFUSETILE
360
3DA
  3
OPACITYTILE
360
3DE
  3
REFLECTIONTILE
360
3DD
  3
REFRACTIONTILE
360
3DF
  3
SPECULARTILE
360
3DC
  0
DICTIONARY
  5
577
330
3F6
100
AcDbDictionary
280
     1
281
     1
  3
ACAD_ROUNDTRIP_2008_TABLESTYLE_CELLSTYLEMAP
360
578
  3
ACAD_XREC_ROUNDTRIP
360
5A8
  0
DICTIONARY
  5
58C
330
3E6
100
AcDbDictionary
280
     1
281
     1
  3
ACAD_XREC_ROUNDTRIP
360
58D
  0
DICTIONARY
  5
590
330
3E8
100
AcDbDictionary
280
     1
281
     1
  3
ACAD_XREC_ROUNDTRIP
360
591
  0
DICTIONARY
  5
58E
330
3E7
100
AcDbDictionary
280
     1
281
     1
  3
ACAD_XREC_ROUNDTRIP
360
58F
  0
DICTIONARY
  5
58A
330
3E5
100
AcDbDictionary
280
     1
281
     1
  3
ACAD_XREC_ROUNDTRIP
360
58B
  0
DICTIONARY
  5
598
330
3EC
100
AcDbDictionary
280
     1
281
     1
  3
ACAD_XREC_ROUNDTRIP
360
599
  0
DICTIONARY
  5
5A0
330
3F0
100
AcDbDictionary
280
     1
281
     1
  3
ACAD_XREC_ROUNDTRIP
360
5A1
  0
DICTIONARY
  5
592
330
3E9
100
AcDbDictionary
280
     1
281
     1
  3
ACAD_XREC_ROUNDTRIP
360
593
  0
DICTIONARY
  5
596
330
3EB
100
AcDbDictionary
280
     1
281
     1
  3
ACAD_XREC_ROUNDTRIP
360
597
  0
DICTIONARY
  5
5A6
330
3F3
100
AcDbDictionary
280
     1
281
     1
  3
ACAD_XREC_ROUNDTRIP
360
5A7
  0
DICTIONARY
  5
59E
330
3EF
100
AcDbDictionary
280
     1
281
     1
  3
ACAD_XREC_ROUNDTRIP
360
59F
  0
DICTIONARY
  5
582
330
3E1
100
AcDbDictionary
280
     1
281
     1
  3
ACAD_XREC_ROUNDTRIP
360
583
  0
DICTIONARY
  5
584
330
3E2
100
AcDbDictionary
280
     1
281
     1
  3
ACAD_XREC_ROUNDTRIP
360
585
  0
DICTIONARY
  5
586
330
3E3
100
AcDbDictionary
280
     1
281
     1
  3
ACAD_XREC_ROUNDTRIP
360
587
  0
DICTIONARY
  5
588
330
3E4
100
AcDbDictionary
280
     1
281
     1
  3
ACAD_XREC_ROUNDTRIP
360
589
  0
DICTIONARY
  5
5A2
330
3F1
100
AcDbDictionary
280
     1
281
     1
  3
ACAD_XREC_ROUNDTRIP
360
5A3
  0
DICTIONARY
  5
59C
330
3EE
100
AcDbDictionary
280
     1
281
     1
  3
ACAD_XREC_ROUNDTRIP
360
59D
  0
DICTIONARY
  5
5A4
330
3F2
100
AcDbDictionary
280
     1
281
     1
  3
ACAD_XREC_ROUNDTRIP
360
5A5
  0
DICTIONARY
  5
594
330
3EA
100
AcDbDictionary
280
     1
281
     1
  3
ACAD_XREC_ROUNDTRIP
360
595
  0
DICTIONARY
  5
59A
330
3ED
100
AcDbDictionary
280
     1
281
     1
  3
ACAD_XREC_ROUNDTRIP
360
59B
  0
XRECORD
  5
57E
102
{ACAD_REACTORS
330
57D
102
}
330
57D
100
AcDbXrecord
280
     1
102
SHADEPLOT
 70
     0
102
SHADEPLOTRESLEVEL
 70
     2
102
SHADEPLOTCUSTOMDPI
 70
   300
  0
XRECORD
  5
57C
102
{ACAD_REACTORS
330
57B
102
}
330
57B
100
AcDbXrecord
280
     1
102
SHADEPLOT
 70
     0
102
SHADEPLOTRESLEVEL
 70
     2
102
SHADEPLOTCUSTOMDPI
 70
   300
  0
XRECORD
  5
580
102
{ACAD_REACTORS
330
3D1
102
}
330
3D1
100
AcDbXrecord
280
     1
102
MATERIAL
148
0.0
149
0.0
149
0.0
 93
        0
 94
      127
282
     0
 72
     0
 77
     0
171
     0
175
     0
179
     0
273
     0
  0
XRECORD
  5
3D3
102
{ACAD_REACTORS
330
3D1
102
}
330
3D1
100
AcDbXrecord
280
     1
270
     1
271
     1
  0
XRECORD
  5
3D2
102
{ACAD_REACTORS
330
3D1
102
}
330
3D1
100
AcDbXrecord
280
     1
270
     1
271
     1
  0
XRECORD
  5
3D6
102
{ACAD_REACTORS
330
3D1
102
}
330
3D1
100
AcDbXrecord
280
     1
270
     1
271
     1
  0
XRECORD
  5
3D5
102
{ACAD_REACTORS
330
3D1
102
}
330
3D1
100
AcDbXrecord
280
     1
270
     1
271
     1
  0
XRECORD
  5
3D7
102
{ACAD_REACTORS
330
3D1
102
}
330
3D1
100
AcDbXrecord
280
     1
270
     1
271
     1
  0
XRECORD
  5
3D4
102
{ACAD_REACTORS
330
3D1
102
}
330
3D1
100
AcDbXrecord
280
     1
270
     1
271
     1
  0
XRECORD
  5
57F
102
{ACAD_REACTORS
330
3C9
102
}
330
3C9
100
AcDbXrecord
280
     1
102
MATERIAL
148
0.0
149
0.0
149
0.0
 93
        0
 94
      127
282
     0
 72
     0
 77
     0
171
     0
175
     0
179
     0
273
     0
  0
XRECORD
  5
3CB
102
{ACAD_REACTORS
330
3C9
102
}
330
3C9
100
AcDbXrecord
280
     1
270
     1
271
     1
  0
XRECORD
  5
3CA
102
{ACAD_REACTORS
330
3C9
102
}
330
3C9
100
AcDbXrecord
280
     1
270
     1
271
     1
  0
XRECORD
  5
3CE
102
{ACAD_REACTORS
330
3C9
102
}
330
3C9
100
AcDbXrecord
280
     1
270
     1
271
     1
  0
XRECORD
  5
3CD
102
{ACAD_REACTORS
330
3C9
102
}
330
3C9
100
AcDbXrecord
280
     1
270
     1
271
     1
  0
XRECORD
  5
3CF
102
{ACAD_REACTORS
330
3C9
102
}
330
3C9
100
AcDbXrecord
280
     1
270
     1
271
     1
  0
XRECORD
  5
3CC
102
{ACAD_REACTORS
330
3C9
102
}
330
3C9
100
AcDbXrecord
280
     1
270
     1
271
     1
  0
XRECORD
  5
581
102
{ACAD_REACTORS
330
3D9
102
}
330
3D9
100
AcDbXrecord
280
     1
102
MATERIAL
148
0.0
149
0.0
149
0.0
 93
        0
 94
      127
282
     0
 72
     0
 77
     0
171
     0
175
     0
179
     0
273
     0
  0
XRECORD
  5
3DB
102
{ACAD_REACTORS
330
3D9
102
}
330
3D9
100
AcDbXrecord
280
     1
270
     1
271
     1
  0
XRECORD
  5
3DA
102
{ACAD_REACTORS
330
3D9
102
}
330
3D9
100
AcDbXrecord
280
     1
270
     1
271
     1
  0
XRECORD
  5
3DE
102
{ACAD_REACTORS
330
3D9
102
}
330
3D9
100
AcDbXrecord
280
     1
270
     1
271
     1
  0
XRECORD
  5
3DD
102
{ACAD_REACTORS
330
3D9
102
}
330
3D9
100
AcDbXrecord
280
     1
270
     1
271
     1
  0
XRECORD
  5
3DF
102
{ACAD_REACTORS
330
3D9
102
}
330
3D9
100
AcDbXrecord
280
     1
270
     1
271
     1
  0
XRECORD
  5
3DC
102
{ACAD_REACTORS
330
3D9
102
}
330
3D9
100
AcDbXrecord
280
     1
270
     1
271
     1
  0
CELLSTYLEMAP
  5
578
102
{ACAD_REACTORS
330
577
102
}
330
577
100
AcDbCellStyleMap
 90
        3
300
CELLSTYLE
  1
TABLEFORMAT_BEGIN
 90
        5
170
     1
 91
        0
 92
    32768
 62
   257
 93
        1
300
CONTENTFORMAT
  1
CONTENTFORMAT_BEGIN
 90
        0
 91
        0
 92
      512
 93
        0
300

 40
0.0
140
1.0
 94
        5
 62
     0
340
11
144
6.0
309
CONTENTFORMAT_END
171
     1
301
MARGIN
  1
CELLMARGIN_BEGIN
 40
1.5
 40
1.5
 40
1.5
 40
1.5
 40
4.5
 40
4.5
309
CELLMARGIN_END
 94
        6
 95
        1
302
GRIDFORMAT
  1
GRIDFORMAT_BEGIN
 90
        0
 91
        1
 62
     0
 92
       -2
340
0
 93
        0
 40
1.125
309
GRIDFORMAT_END
 95
        2
302
GRIDFORMAT
  1
GRIDFORMAT_BEGIN
 90
        0
 91
        1
 62
     0
 92
       -2
340
0
 93
        0
 40
1.125
309
GRIDFORMAT_END
 95
        4
302
GRIDFORMAT
  1
GRIDFORMAT_BEGIN
 90
        0
 91
        1
 62
     0
 92
       -2
340
0
 93
        0
 40
1.125
309
GRIDFORMAT_END
 95
        8
302
GRIDFORMAT
  1
GRIDFORMAT_BEGIN
 90
        0
 91
        1
 62
     0
 92
       -2
340
0
 93
        0
 40
1.125
309
GRIDFORMAT_END
 95
       16
302
GRIDFORMAT
  1
GRIDFORMAT_BEGIN
 90
        0
 91
        1
 62
     0
 92
       -2
340
0
 93
        0
 40
1.125
309
GRIDFORMAT_END
 95
       32
302
GRIDFORMAT
  1
GRIDFORMAT_BEGIN
 90
        0
 91
        1
 62
     0
 92
       -2
340
0
 93
        0
 40
1.125
309
GRIDFORMAT_END
309
TABLEFORMAT_END
  1
CELLSTYLE_BEGIN
 90
        1
 91
        1
300
_TITLE
309
CELLSTYLE_END
300
CELLSTYLE
  1
TABLEFORMAT_BEGIN
 90
        5
170
     1
 91
        0
 92
        0
 62
   257
 93
        1
300
CONTENTFORMAT
  1
CONTENTFORMAT_BEGIN
 90
        0
 91
        0
 92
      512
 93
        0
300

 40
0.0
140
1.0
 94
        5
 62
     0
340
11
144
4.5
309
CONTENTFORMAT_END
171
     1
301
MARGIN
  1
CELLMARGIN_BEGIN
 40
1.5
 40
1.5
 40
1.5
 40
1.5
 40
4.5
 40
4.5
309
CELLMARGIN_END
 94
        6
 95
        1
302
GRIDFORMAT
  1
GRIDFORMAT_BEGIN
 90
        0
 91
        1
 62
     0
 92
       -2
340
0
 93
        0
 40
1.125
309
GRIDFORMAT_END
 95
        2
302
GRIDFORMAT
  1
GRIDFORMAT_BEGIN
 90
        0
 91
        1
 62
     0
 92
       -2
340
0
 93
        0
 40
1.125
309
GRIDFORMAT_END
 95
        4
302
GRIDFORMAT
  1
GRIDFORMAT_BEGIN
 90
        0
 91
        1
 62
     0
 92
       -2
340
0
 93
        0
 40
1.125
309
GRIDFORMAT_END
 95
        8
302
GRIDFORMAT
  1
GRIDFORMAT_BEGIN
 90
        0
 91
        1
 62
     0
 92
       -2
340
0
 93
        0
 40
1.125
309
GRIDFORMAT_END
 95
       16
302
GRIDFORMAT
  1
GRIDFORMAT_BEGIN
 90
        0
 91
        1
 62
     0
 92
       -2
340
0
 93
        0
 40
1.125
309
GRIDFORMAT_END
 95
       32
302
GRIDFORMAT
  1
GRIDFORMAT_BEGIN
 90
        0
 91
        1
 62
     0
 92
       -2
340
0
 93
        0
 40
1.125
309
GRIDFORMAT_END
309
TABLEFORMAT_END
  1
CELLSTYLE_BEGIN
 90
        2
 91
        1
300
_HEADER
309
CELLSTYLE_END
300
CELLSTYLE
  1
TABLEFORMAT_BEGIN
 90
        5
170
     1
 91
        0
 92
        0
 62
   257
 93
        1
300
CONTENTFORMAT
  1
CONTENTFORMAT_BEGIN
 90
        0
 91
        0
 92
      512
 93
        0
300

 40
0.0
140
1.0
 94
        2
 62
     0
340
11
144
4.5
309
CONTENTFORMAT_END
171
     1
301
MARGIN
  1
CELLMARGIN_BEGIN
 40
1.5
 40
1.5
 40
1.5
 40
1.5
 40
4.5
 40
4.5
309
CELLMARGIN_END
 94
        6
 95
        1
302
GRIDFORMAT
  1
GRIDFORMAT_BEGIN
 90
        0
 91
        1
 62
     0
 92
       -2
340
0
 93
        0
 40
1.125
309
GRIDFORMAT_END
 95
        2
302
GRIDFORMAT
  1
GRIDFORMAT_BEGIN
 90
        0
 91
        1
 62
     0
 92
       -2
340
0
 93
        0
 40
1.125
309
GRIDFORMAT_END
 95
        4
302
GRIDFORMAT
  1
GRIDFORMAT_BEGIN
 90
        0
 91
        1
 62
     0
 92
       -2
340
0
 93
        0
 40
1.125
309
GRIDFORMAT_END
 95
        8
302
GRIDFORMAT
  1
GRIDFORMAT_BEGIN
 90
        0
 91
        1
 62
     0
 92
       -2
340
0
 93
        0
 40
1.125
309
GRIDFORMAT_END
 95
       16
302
GRIDFORMAT
  1
GRIDFORMAT_BEGIN
 90
        0
 91
        1
 62
     0
 92
       -2
340
0
 93
        0
 40
1.125
309
GRIDFORMAT_END
 95
       32
302
GRIDFORMAT
  1
GRIDFORMAT_BEGIN
 90
        0
 91
        1
 62
     0
 92
       -2
340
0
 93
        0
 40
1.125
309
GRIDFORMAT_END
309
TABLEFORMAT_END
  1
CELLSTYLE_BEGIN
 90
        3
 91
        2
300
_DATA
309
CELLSTYLE_END
  0
XRECORD
  5
5A8
102
{ACAD_REACTORS
330
577
102
}
330
577
100
AcDbXrecord
280
     1
102
ACAD_ROUNDTRIP_PRE2007_TABLESTYLE
 90
      512
 91
        0
  1

 92
      512
 93
        0
  2

 94
      512
 95
        0
  3

  0
XRECORD
  5
58D
102
{ACAD_REACTORS
330
58C
102
}
330
58C
100
AcDbXrecord
280
     1
102
RTVSPropertyOp0
 70
     1
102
RTVSPropertyOp1
 70
     1
102
RTVSPropertyOp2
 70
     1
102
RTVSPropertyOp3
 70
     1
102
RTVSPropertyOp4
 70
     1
102
RTVSPropertyOp5
 70
     1
102
RTVSPropertyOp6
 70
     1
102
RTVSPropertyOp7
 70
     1
102
RTVSPropertyOp8
 70
     1
102
RTVSPropertyOp9
 70
     1
102
RTVSPropertyOp10
 70
     1
102
RTVSPropertyOp11
 70
     1
102
RTVSPropertyOp12
 70
     1
102
RTVSPropertyOp13
 70
     1
102
RTVSPropertyOp14
 70
     1
102
RTVSPropertyOp15
 70
     1
102
RTVSPropertyOp16
 70
     1
102
RTVSPropertyOp17
 70
     1
102
RTVSPropertyOp18
 70
     1
102
RTVSPropertyOp19
 70
     1
102
RTVSPropertyOp20
 70
     1
102
RTVSPropertyOp21
 70
     1
102
RTVSPropertyOp22
 70
     1
102
RTVSPropertyOp23
 70
     1
102
RTVSPropertyOp24
 70
     1
102
RTVSPropertyOp25
 70
     1
102
RTVSPropertyOp26
 70
     1
102
RTVSPropertyOp27
 70
     1
  0
XRECORD
  5
591
102
{ACAD_REACTORS
330
590
102
}
330
590
100
AcDbXrecord
280
     1
102
RTVSPropertyOp0
 70
     1
102
RTVSPropertyOp1
 70
     1
102
RTVSPropertyOp2
 70
     1
102
RTVSPropertyOp3
 70
     1
102
RTVSPropertyOp4
 70
     1
102
RTVSPropertyOp5
 70
     1
102
RTVSPropertyOp6
 70
     1
102
RTVSPropertyOp7
 70
     1
102
RTVSPropertyOp8
 70
     1
102
RTVSPropertyOp9
 70
     1
102
RTVSPropertyOp10
 70
     1
102
RTVSPropertyOp11
 70
     1
102
RTVSPropertyOp12
 70
     1
102
RTVSPropertyOp13
 70
     1
102
RTVSPropertyOp14
 70
     1
102
RTVSPropertyOp15
 70
     1
102
RTVSPropertyOp16
 70
     1
102
RTVSPropertyOp17
 70
     1
102
RTVSPropertyOp18
 70
     1
102
RTVSPropertyOp19
 70
     1
102
RTVSPropertyOp20
 70
     1
102
RTVSPropertyOp21
 70
     1
102
RTVSPropertyOp22
 70
     1
102
RTVSPropertyOp23
 70
     1
102
RTVSPropertyOp24
 70
     1
102
RTVSPropertyOp25
 70
     1
102
RTVSPropertyOp26
 70
     1
102
RTVSPropertyOp27
 70
     1
  0
XRECORD
  5
58F
102
{ACAD_REACTORS
330
58E
102
}
330
58E
100
AcDbXrecord
280
     1
102
RTVSPropertyOp0
 70
     1
102
RTVSPropertyOp1
 70
     1
102
RTVSPropertyOp2
 70
     1
102
RTVSPropertyOp3
 70
     1
102
RTVSPropertyOp4
 70
     1
102
RTVSPropertyOp5
 70
     1
102
RTVSPropertyOp6
 70
     1
102
RTVSPropertyOp7
 70
     1
102
RTVSPropertyOp8
 70
     1
102
RTVSPropertyOp9
 70
     1
102
RTVSPropertyOp10
 70
     1
102
RTVSPropertyOp11
 70
     1
102
RTVSPropertyOp12
 70
     1
102
RTVSPropertyOp13
 70
     1
102
RTVSPropertyOp14
 70
     1
102
RTVSPropertyOp15
 70
     1
102
RTVSPropertyOp16
 70
     1
102
RTVSPropertyOp17
 70
     1
102
RTVSPropertyOp18
 70
     1
102
RTVSPropertyOp19
 70
     1
102
RTVSPropertyOp20
 70
     1
102
RTVSPropertyOp21
 70
     1
102
RTVSPropertyOp22
 70
     1
102
RTVSPropertyOp23
 70
     1
102
RTVSPropertyOp24
 70
     1
102
RTVSPropertyOp25
 70
     1
102
RTVSPropertyOp26
 70
     1
102
RTVSPropertyOp27
 70
     1
  0
XRECORD
  5
58B
102
{ACAD_REACTORS
330
58A
102
}
330
58A
100
AcDbXrecord
280
     1
102
RTVSPropertyOp0
 70
     1
102
RTVSPropertyOp1
 70
     1
102
RTVSPropertyOp2
 70
     1
102
RTVSPropertyOp3
 70
     1
102
RTVSPropertyOp4
 70
     1
102
RTVSPropertyOp5
 70
     1
102
RTVSPropertyOp6
 70
     1
102
RTVSPropertyOp7
 70
     1
102
RTVSPropertyOp8
 70
     1
102
RTVSPropertyOp9
 70
     1
102
RTVSPropertyOp10
 70
     1
102
RTVSPropertyOp11
 70
     1
102
RTVSPropertyOp12
 70
     1
102
RTVSPropertyOp13
 70
     1
102
RTVSPropertyOp14
 70
     1
102
RTVSPropertyOp15
 70
     1
102
RTVSPropertyOp16
 70
     1
102
RTVSPropertyOp17
 70
     1
102
RTVSPropertyOp18
 70
     1
102
RTVSPropertyOp19
 70
     1
102
RTVSPropertyOp20
 70
     1
102
RTVSPropertyOp21
 70
     1
102
RTVSPropertyOp22
 70
     1
102
RTVSPropertyOp23
 70
     1
102
RTVSPropertyOp24
 70
     1
102
RTVSPropertyOp25
 70
     1
102
RTVSPropertyOp26
 70
     1
102
RTVSPropertyOp27
 70
     1
  0
XRECORD
  5
599
102
{ACAD_REACTORS
330
598
102
}
330
598
100
AcDbXrecord
280
     1
102
RTVSPropertyOp0
 70
     1
102
RTVSPropertyOp1
 70
     1
102
RTVSPropertyOp2
 70
     1
102
RTVSPropertyOp3
 70
     1
102
RTVSPropertyOp4
 70
     1
102
RTVSPropertyOp5
 70
     1
102
RTVSPropertyOp6
 70
     1
102
RTVSPropertyOp7
 70
     1
102
RTVSPropertyOp8
 70
     1
102
RTVSPropertyOp9
 70
     1
102
RTVSPropertyOp10
 70
     1
102
RTVSPropertyOp11
 70
     1
102
RTVSPropertyOp12
 70
     1
102
RTVSPropertyOp13
 70
     1
102
RTVSPropertyOp14
 70
     1
102
RTVSPropertyOp15
 70
     1
102
RTVSPropertyOp16
 70
     1
102
RTVSPropertyOp17
 70
     1
102
RTVSPropertyOp18
 70
     1
102
RTVSPropertyOp19
 70
     1
102
RTVSPropertyOp20
 70
     1
102
RTVSPropertyOp21
 70
     1
102
RTVSPropertyOp22
 70
     1
102
RTVSPropertyOp23
 70
     1
102
RTVSPropertyOp24
 70
     1
102
RTVSPropertyOp25
 70
     1
102
RTVSPropertyOp26
 70
     1
102
RTVSPropertyOp27
 70
     1
  0
XRECORD
  5
5A1
102
{ACAD_REACTORS
330
5A0
102
}
330
5A0
100
AcDbXrecord
280
     1
102
RTVSPropertyOp0
 70
     1
102
RTVSPropertyOp1
 70
     1
102
RTVSPropertyOp2
 70
     1
102
RTVSPropertyOp3
 70
     1
102
RTVSPropertyOp4
 70
     1
102
RTVSPropertyOp5
 70
     1
102
RTVSPropertyOp6
 70
     1
102
RTVSPropertyOp7
 70
     1
102
RTVSPropertyOp8
 70
     1
102
RTVSPropertyOp9
 70
     1
102
RTVSPropertyOp10
 70
     1
102
RTVSPropertyOp11
 70
     1
102
RTVSPropertyOp12
 70
     1
102
RTVSPropertyOp13
 70
     1
102
RTVSPropertyOp14
 70
     1
102
RTVSPropertyOp15
 70
     1
102
RTVSPropertyOp16
 70
     1
102
RTVSPropertyOp17
 70
     1
102
RTVSPropertyOp18
 70
     1
102
RTVSPropertyOp19
 70
     1
102
RTVSPropertyOp20
 70
     1
102
RTVSPropertyOp21
 70
     1
102
RTVSPropertyOp22
 70
     1
102
RTVSPropertyOp23
 70
     1
102
RTVSPropertyOp24
 70
     1
102
RTVSPropertyOp25
 70
     1
102
RTVSPropertyOp26
 70
     1
102
RTVSPropertyOp27
 70
     1
  0
XRECORD
  5
593
102
{ACAD_REACTORS
330
592
102
}
330
592
100
AcDbXrecord
280
     1
102
RTVSPropertyOp0
 70
     1
102
RTVSPropertyOp1
 70
     1
102
RTVSPropertyOp2
 70
     1
102
RTVSPropertyOp3
 70
     1
102
RTVSPropertyOp4
 70
     1
102
RTVSPropertyOp5
 70
     1
102
RTVSPropertyOp6
 70
     1
102
RTVSPropertyOp7
 70
     1
102
RTVSPropertyOp8
 70
     1
102
RTVSPropertyOp9
 70
     1
102
RTVSPropertyOp10
 70
     1
102
RTVSPropertyOp11
 70
     1
102
RTVSPropertyOp12
 70
     1
102
RTVSPropertyOp13
 70
     1
102
RTVSPropertyOp14
 70
     1
102
RTVSPropertyOp15
 70
     1
102
RTVSPropertyOp16
 70
     1
102
RTVSPropertyOp17
 70
     1
102
RTVSPropertyOp18
 70
     1
102
RTVSPropertyOp19
 70
     1
102
RTVSPropertyOp20
 70
     1
102
RTVSPropertyOp21
 70
     1
102
RTVSPropertyOp22
 70
     1
102
RTVSPropertyOp23
 70
     1
102
RTVSPropertyOp24
 70
     1
102
RTVSPropertyOp25
 70
     1
102
RTVSPropertyOp26
 70
     1
102
RTVSPropertyOp27
 70
     1
  0
XRECORD
  5
597
102
{ACAD_REACTORS
330
596
102
}
330
596
100
AcDbXrecord
280
     1
102
RTVSPropertyOp0
 70
     1
102
RTVSPropertyOp1
 70
     1
102
RTVSPropertyOp2
 70
     1
102
RTVSPropertyOp3
 70
     1
102
RTVSPropertyOp4
 70
     1
102
RTVSPropertyOp5
 70
     1
102
RTVSPropertyOp6
 70
     1
102
RTVSPropertyOp7
 70
     1
102
RTVSPropertyOp8
 70
     1
102
RTVSPropertyOp9
 70
     1
102
RTVSPropertyOp10
 70
     1
102
RTVSPropertyOp11
 70
     1
102
RTVSPropertyOp12
 70
     1
102
RTVSPropertyOp13
 70
     1
102
RTVSPropertyOp14
 70
     1
102
RTVSPropertyOp15
 70
     1
102
RTVSPropertyOp16
 70
     1
102
RTVSPropertyOp17
 70
     1
102
RTVSPropertyOp18
 70
     1
102
RTVSPropertyOp19
 70
     1
102
RTVSPropertyOp20
 70
     1
102
RTVSPropertyOp21
 70
     1
102
RTVSPropertyOp22
 70
     1
102
RTVSPropertyOp23
 70
     1
102
RTVSPropertyOp24
 70
     1
102
RTVSPropertyOp25
 70
     1
102
RTVSPropertyOp26
 70
     1
102
RTVSPropertyOp27
 70
     1
  0
XRECORD
  5
5A7
102
{ACAD_REACTORS
330
5A6
102
}
330
5A6
100
AcDbXrecord
280
     1
102
RTVSPropertyOp0
 70
     0
102
RTVSPropertyOp1
 70
     0
102
RTVSPropertyOp2
 70
     0
102
RTVSPropertyOp3
 70
     0
102
RTVSPropertyOp4
 70
     0
102
RTVSPropertyOp5
 70
     0
102
RTVSPropertyOp6
 70
     0
102
RTVSPropertyOp7
 70
     0
102
RTVSPropertyOp8
 70
     0
102
RTVSPropertyOp9
 70
     0
102
RTVSPropertyOp10
 70
     0
102
RTVSPropertyOp11
 70
     0
102
RTVSPropertyOp12
 70
     0
102
RTVSPropertyOp13
 70
     0
102
RTVSPropertyOp14
 70
     2
102
RTVSPropertyOp15
 70
     0
102
RTVSPropertyOp16
 70
     0
102
RTVSPropertyOp17
 70
     0
102
RTVSPropertyOp18
 70
     0
102
RTVSPropertyOp19
 70
     0
102
RTVSPropertyOp20
 70
     0
102
RTVSPropertyOp21
 70
     0
102
RTVSPropertyOp22
 70
     0
102
RTVSPropertyOp23
 70
     0
102
RTVSPropertyOp24
 70
     0
102
RTVSPropertyOp25
 70
     0
102
RTVSPropertyOp26
 70
     0
102
RTVSPropertyOp27
 70
     0
  0
XRECORD
  5
59F
102
{ACAD_REACTORS
330
59E
102
}
330
59E
100
AcDbXrecord
280
     1
102
RTVSPropertyOp0
 70
     1
102
RTVSPropertyOp1
 70
     1
102
RTVSPropertyOp2
 70
     1
102
RTVSPropertyOp3
 70
     1
102
RTVSPropertyOp4
 70
     1
102
RTVSPropertyOp5
 70
     1
102
RTVSPropertyOp6
 70
     1
102
RTVSPropertyOp7
 70
     1
102
RTVSPropertyOp8
 70
     1
102
RTVSPropertyOp9
 70
     1
102
RTVSPropertyOp10
 70
     1
102
RTVSPropertyOp11
 70
     1
102
RTVSPropertyOp12
 70
     1
102
RTVSPropertyOp13
 70
     1
102
RTVSPropertyOp14
 70
     1
102
RTVSPropertyOp15
 70
     1
102
RTVSPropertyOp16
 70
     1
102
RTVSPropertyOp17
 70
     1
102
RTVSPropertyOp18
 70
     1
102
RTVSPropertyOp19
 70
     1
102
RTVSPropertyOp20
 70
     1
102
RTVSPropertyOp21
 70
     1
102
RTVSPropertyOp22
 70
     1
102
RTVSPropertyOp23
 70
     1
102
RTVSPropertyOp24
 70
     1
102
RTVSPropertyOp25
 70
     1
102
RTVSPropertyOp26
 70
     1
102
RTVSPropertyOp27
 70
     1
  0
XRECORD
  5
583
102
{ACAD_REACTORS
330
582
102
}
330
582
100
AcDbXrecord
280
     1
102
RTVSPropertyOp0
 70
     1
102
RTVSPropertyOp1
 70
     1
102
RTVSPropertyOp2
 70
     1
102
RTVSPropertyOp3
 70
     1
102
RTVSPropertyOp4
 70
     1
102
RTVSPropertyOp5
 70
     1
102
RTVSPropertyOp6
 70
     1
102
RTVSPropertyOp7
 70
     1
102
RTVSPropertyOp8
 70
     1
102
RTVSPropertyOp9
 70
     1
102
RTVSPropertyOp10
 70
     1
102
RTVSPropertyOp11
 70
     1
102
RTVSPropertyOp12
 70
     1
102
RTVSPropertyOp13
 70
     1
102
RTVSPropertyOp14
 70
     1
102
RTVSPropertyOp15
 70
     1
102
RTVSPropertyOp16
 70
     1
102
RTVSPropertyOp17
 70
     1
102
RTVSPropertyOp18
 70
     1
102
RTVSPropertyOp19
 70
     1
102
RTVSPropertyOp20
 70
     1
102
RTVSPropertyOp21
 70
     1
102
RTVSPropertyOp22
 70
     1
102
RTVSPropertyOp23
 70
     1
102
RTVSPropertyOp24
 70
     1
102
RTVSPropertyOp25
 70
     1
102
RTVSPropertyOp26
 70
     1
102
RTVSPropertyOp27
 70
     1
  0
XRECORD
  5
585
102
{ACAD_REACTORS
330
584
102
}
330
584
100
AcDbXrecord
280
     1
102
RTVSPropertyOp0
 70
     1
102
RTVSPropertyOp1
 70
     1
102
RTVSPropertyOp2
 70
     1
102
RTVSPropertyOp3
 70
     1
102
RTVSPropertyOp4
 70
     1
102
RTVSPropertyOp5
 70
     1
102
RTVSPropertyOp6
 70
     1
102
RTVSPropertyOp7
 70
     1
102
RTVSPropertyOp8
 70
     1
102
RTVSPropertyOp9
 70
     1
102
RTVSPropertyOp10
 70
     1
102
RTVSPropertyOp11
 70
     1
102
RTVSPropertyOp12
 70
     1
102
RTVSPropertyOp13
 70
     1
102
RTVSPropertyOp14
 70
     1
102
RTVSPropertyOp15
 70
     1
102
RTVSPropertyOp16
 70
     1
102
RTVSPropertyOp17
 70
     1
102
RTVSPropertyOp18
 70
     1
102
RTVSPropertyOp19
 70
     1
102
RTVSPropertyOp20
 70
     1
102
RTVSPropertyOp21
 70
     1
102
RTVSPropertyOp22
 70
     1
102
RTVSPropertyOp23
 70
     1
102
RTVSPropertyOp24
 70
     1
102
RTVSPropertyOp25
 70
     1
102
RTVSPropertyOp26
 70
     1
102
RTVSPropertyOp27
 70
     1
  0
XRECORD
  5
587
102
{ACAD_REACTORS
330
586
102
}
330
586
100
AcDbXrecord
280
     1
102
RTVSPropertyOp0
 70
     1
102
RTVSPropertyOp1
 70
     1
102
RTVSPropertyOp2
 70
     1
102
RTVSPropertyOp3
 70
     1
102
RTVSPropertyOp4
 70
     1
102
RTVSPropertyOp5
 70
     1
102
RTVSPropertyOp6
 70
     1
102
RTVSPropertyOp7
 70
     1
102
RTVSPropertyOp8
 70
     1
102
RTVSPropertyOp9
 70
     1
102
RTVSPropertyOp10
 70
     1
102
RTVSPropertyOp11
 70
     1
102
RTVSPropertyOp12
 70
     1
102
RTVSPropertyOp13
 70
     1
102
RTVSPropertyOp14
 70
     1
102
RTVSPropertyOp15
 70
     1
102
RTVSPropertyOp16
 70
     1
102
RTVSPropertyOp17
 70
     1
102
RTVSPropertyOp18
 70
     1
102
RTVSPropertyOp19
 70
     1
102
RTVSPropertyOp20
 70
     1
102
RTVSPropertyOp21
 70
     1
102
RTVSPropertyOp22
 70
     1
102
RTVSPropertyOp23
 70
     1
102
RTVSPropertyOp24
 70
     1
102
RTVSPropertyOp25
 70
     1
102
RTVSPropertyOp26
 70
     1
102
RTVSPropertyOp27
 70
     1
  0
XRECORD
  5
589
102
{ACAD_REACTORS
330
588
102
}
330
588
100
AcDbXrecord
280
     1
102
RTVSPropertyOp0
 70
     1
102
RTVSPropertyOp1
 70
     1
102
RTVSPropertyOp2
 70
     1
102
RTVSPropertyOp3
 70
     1
102
RTVSPropertyOp4
 70
     1
102
RTVSPropertyOp5
 70
     1
102
RTVSPropertyOp6
 70
     1
102
RTVSPropertyOp7
 70
     1
102
RTVSPropertyOp8
 70
     1
102
RTVSPropertyOp9
 70
     1
102
RTVSPropertyOp10
 70
     1
102
RTVSPropertyOp11
 70
     1
102
RTVSPropertyOp12
 70
     1
102
RTVSPropertyOp13
 70
     1
102
RTVSPropertyOp14
 70
     1
102
RTVSPropertyOp15
 70
     1
102
RTVSPropertyOp16
 70
     1
102
RTVSPropertyOp17
 70
     1
102
RTVSPropertyOp18
 70
     1
102
RTVSPropertyOp19
 70
     1
102
RTVSPropertyOp20
 70
     1
102
RTVSPropertyOp21
 70
     1
102
RTVSPropertyOp22
 70
     1
102
RTVSPropertyOp23
 70
     1
102
RTVSPropertyOp24
 70
     1
102
RTVSPropertyOp25
 70
     1
102
RTVSPropertyOp26
 70
     1
102
RTVSPropertyOp27
 70
     1
  0
XRECORD
  5
5A3
102
{ACAD_REACTORS
330
5A2
102
}
330
5A2
100
AcDbXrecord
280
     1
102
RTVSPropertyOp0
 70
     0
102
RTVSPropertyOp1
 70
     0
102
RTVSPropertyOp2
 70
     0
102
RTVSPropertyOp3
 70
     0
102
RTVSPropertyOp4
 70
     0
102
RTVSPropertyOp5
 70
     0
102
RTVSPropertyOp6
 70
     0
102
RTVSPropertyOp7
 70
     0
102
RTVSPropertyOp8
 70
     0
102
RTVSPropertyOp9
 70
     0
102
RTVSPropertyOp10
 70
     0
102
RTVSPropertyOp11
 70
     0
102
RTVSPropertyOp12
 70
     0
102
RTVSPropertyOp13
 70
     0
102
RTVSPropertyOp14
 70
     2
102
RTVSPropertyOp15
 70
     0
102
RTVSPropertyOp16
 70
     0
102
RTVSPropertyOp17
 70
     0
102
RTVSPropertyOp18
 70
     0
102
RTVSPropertyOp19
 70
     0
102
RTVSPropertyOp20
 70
     0
102
RTVSPropertyOp21
 70
     0
102
RTVSPropertyOp22
 70
     0
102
RTVSPropertyOp23
 70
     0
102
RTVSPropertyOp24
 70
     0
102
RTVSPropertyOp25
 70
     0
102
RTVSPropertyOp26
 70
     0
102
RTVSPropertyOp27
 70
     0
  0
XRECORD
  5
59D
102
{ACAD_REACTORS
330
59C
102
}
330
59C
100
AcDbXrecord
280
     1
102
RTVSPropertyOp0
 70
     1
102
RTVSPropertyOp1
 70
     1
102
RTVSPropertyOp2
 70
     1
102
RTVSPropertyOp3
 70
     1
102
RTVSPropertyOp4
 70
     1
102
RTVSPropertyOp5
 70
     1
102
RTVSPropertyOp6
 70
     1
102
RTVSPropertyOp7
 70
     1
102
RTVSPropertyOp8
 70
     1
102
RTVSPropertyOp9
 70
     1
102
RTVSPropertyOp10
 70
     1
102
RTVSPropertyOp11
 70
     1
102
RTVSPropertyOp12
 70
     1
102
RTVSPropertyOp13
 70
     1
102
RTVSPropertyOp14
 70
     1
102
RTVSPropertyOp15
 70
     1
102
RTVSPropertyOp16
 70
     1
102
RTVSPropertyOp17
 70
     1
102
RTVSPropertyOp18
 70
     1
102
RTVSPropertyOp19
 70
     1
102
RTVSPropertyOp20
 70
     1
102
RTVSPropertyOp21
 70
     1
102
RTVSPropertyOp22
 70
     1
102
RTVSPropertyOp23
 70
     1
102
RTVSPropertyOp24
 70
     1
102
RTVSPropertyOp25
 70
     1
102
RTVSPropertyOp26
 70
     1
102
RTVSPropertyOp27
 70
     1
  0
XRECORD
  5
5A5
102
{ACAD_REACTORS
330
5A4
102
}
330
5A4
100
AcDbXrecord
280
     1
102
RTVSPropertyOp0
 70
     0
102
RTVSPropertyOp1
 70
     0
102
RTVSPropertyOp2
 70
     0
102
RTVSPropertyOp3
 70
     0
102
RTVSPropertyOp4
 70
     0
102
RTVSPropertyOp5
 70
     0
102
RTVSPropertyOp6
 70
     0
102
RTVSPropertyOp7
 70
     0
102
RTVSPropertyOp8
 70
     0
102
RTVSPropertyOp9
 70
     0
102
RTVSPropertyOp10
 70
     0
102
RTVSPropertyOp11
 70
     0
102
RTVSPropertyOp12
 70
     0
102
RTVSPropertyOp13
 70
     0
102
RTVSPropertyOp14
 70
     2
102
RTVSPropertyOp15
 70
     0
102
RTVSPropertyOp16
 70
     0
102
RTVSPropertyOp17
 70
     0
102
RTVSPropertyOp18
 70
     0
102
RTVSPropertyOp19
 70
     0
102
RTVSPropertyOp20
 70
     0
102
RTVSPropertyOp21
 70
     0
102
RTVSPropertyOp22
 70
     0
102
RTVSPropertyOp23
 70
     0
102
RTVSPropertyOp24
 70
     0
102
RTVSPropertyOp25
 70
     0
102
RTVSPropertyOp26
 70
     0
102
RTVSPropertyOp27
 70
     0
  0
XRECORD
  5
595
102
{ACAD_REACTORS
330
594
102
}
330
594
100
AcDbXrecord
280
     1
102
RTVSPropertyOp0
 70
     1
102
RTVSPropertyOp1
 70
     1
102
RTVSPropertyOp2
 70
     1
102
RTVSPropertyOp3
 70
     1
102
RTVSPropertyOp4
 70
     1
102
RTVSPropertyOp5
 70
     1
102
RTVSPropertyOp6
 70
     1
102
RTVSPropertyOp7
 70
     1
102
RTVSPropertyOp8
 70
     1
102
RTVSPropertyOp9
 70
     1
102
RTVSPropertyOp10
 70
     1
102
RTVSPropertyOp11
 70
     1
102
RTVSPropertyOp12
 70
     1
102
RTVSPropertyOp13
 70
     1
102
RTVSPropertyOp14
 70
     1
102
RTVSPropertyOp15
 70
     1
102
RTVSPropertyOp16
 70
     1
102
RTVSPropertyOp17
 70
     1
102
RTVSPropertyOp18
 70
     1
102
RTVSPropertyOp19
 70
     1
102
RTVSPropertyOp20
 70
     1
102
RTVSPropertyOp21
 70
     1
102
RTVSPropertyOp22
 70
     1
102
RTVSPropertyOp23
 70
     1
102
RTVSPropertyOp24
 70
     1
102
RTVSPropertyOp25
 70
     1
102
RTVSPropertyOp26
 70
     1
102
RTVSPropertyOp27
 70
     1
  0
XRECORD
  5
59B
102
{ACAD_REACTORS
330
59A
102
}
330
59A
100
AcDbXrecord
280
     1
102
RTVSPropertyOp0
 70
     1
102
RTVSPropertyOp1
 70
     1
102
RTVSPropertyOp2
 70
     1
102
RTVSPropertyOp3
 70
     1
102
RTVSPropertyOp4
 70
     1
102
RTVSPropertyOp5
 70
     1
102
RTVSPropertyOp6
 70
     1
102
RTVSPropertyOp7
 70
     1
102
RTVSPropertyOp8
 70
     1
102
RTVSPropertyOp9
 70
     1
102
RTVSPropertyOp10
 70
     1
102
RTVSPropertyOp11
 70
     1
102
RTVSPropertyOp12
 70
     1
102
RTVSPropertyOp13
 70
     1
102
RTVSPropertyOp14
 70
     1
102
RTVSPropertyOp15
 70
     1
102
RTVSPropertyOp16
 70
     1
102
RTVSPropertyOp17
 70
     1
102
RTVSPropertyOp18
 70
     1
102
RTVSPropertyOp19
 70
     1
102
RTVSPropertyOp20
 70
     1
102
RTVSPropertyOp21
 70
     1
102
RTVSPropertyOp22
 70
     1
102
RTVSPropertyOp23
 70
     1
102
RTVSPropertyOp24
 70
     1
102
RTVSPropertyOp25
 70
     1
102
RTVSPropertyOp26
 70
     1
102
RTVSPropertyOp27
 70
     1
  0
ENDSEC
  0
EOF
