  0
SECTION
  2
HEADER
  9
$ACADVER
  1
AC1015
  9
$ACADMAINTVER
 70
    20
  9
$DWGCODEPAGE
  3
ANSI_1252
  9
$INSBASE
 10
0.0
 20
0.0
 30
0.0
  9
$EXTMIN
 10
413.7987093047691
 20
222.3640158888466
 30
-0.0015258207003583
  9
$EXTMAX
 10
670.0643484777124
 20
433.1401534608334
 30
0.0000000349246037
  9
$LIMMIN
 10
0.0
 20
0.0
  9
$LIMMAX
 10
1189.0
 20
841.0
  9
$ORTHOMODE
 70
     1
  9
$REGENMODE
 70
     1
  9
$FILLMODE
 70
     1
  9
$QTEXTMODE
 70
     0
  9
$MIRRTEXT
 70
     0
  9
$LTSCALE
 40
65.395
  9
$ATTMODE
 70
     1
  9
$TEXTSIZE
 40
0.2
  9
$TRACEWID
 40
0.05
  9
$TEXTSTYLE
  7
STANDARD
  9
$CLAYER
  8
0
  9
$CELTYPE
  6
BYLAYER
  9
$CECOLOR
 62
   256
  9
$CELTSCALE
 40
1.0
  9
$DISPSILH
 70
     0
  9
$DIMSCALE
 40
1.0
  9
$DIMASZ
 40
3.5
  9
$DIMEXO
 40
7.43125
  9
$DIMDLI
 40
45.18199999999999
  9
$DIMRND
 40
0.0
  9
$DIMDLE
 40
0.0
  9
$DIMEXE
 40
21.402
  9
$DIMTP
 40
0.005
  9
$DIMTM
 40
0.005
  9
$DIMTXT
 40
3.5
  9
$DIMCEN
 40
10.701
  9
$DIMTSZ
 40
0.0
  9
$DIMTOL
 70
     1
  9
$DIMLIM
 70
     0
  9
$DIMTIH
 70
     1
  9
$DIMTOH
 70
     1
  9
$DIMSE1
 70
     0
  9
$DIMSE2
 70
     0
  9
$DIMTAD
 70
     0
  9
$DIMZIN
 70
     0
  9
$DIMBLK
  1
_FILLED
  9
$DIMASO
 70
     1
  9
$DIMSHO
 70
     1
  9
$DIMPOST
  1

  9
$DIMAPOST
  1

  9
$DIMALT
 70
     0
  9
$DIMALTD
 70
     2
  9
$DIMALTF
 40
25.4
  9
$DIMLFAC
 40
1.0
  9
$DIMTOFL
 70
     0
  9
$DIMTVP
 40
0.0
  9
$DIMTIX
 70
     0
  9
$DIMSOXD
 70
     0
  9
$DIMSAH
 70
     0
  9
$DIMBLK1
  1

  9
$DIMBLK2
  1

  9
$DIMSTYLE
  2
STANDARD
  9
$DIMCLRD
 70
     0
  9
$DIMCLRE
 70
     0
  9
$DIMCLRT
 70
     0
  9
$DIMTFAC
 40
1.0
  9
$DIMGAP
 40
0.09
  9
$DIMJUST
 70
     0
  9
$DIMSD1
 70
     0
  9
$DIMSD2
 70
     0
  9
$DIMTOLJ
 70
     1
  9
$DIMTZIN
 70
     0
  9
$DIMALTZ
 70
     0
  9
$DIMALTTZ
 70
     0
  9
$DIMUPT
 70
     0
  9
$DIMDEC
 70
     4
  9
$DIMTDEC
 70
     4
  9
$DIMALTU
 70
     2
  9
$DIMALTTD
 70
     2
  9
$DIMTXSTY
  7
STANDARD
  9
$DIMAUNIT
 70
     0
  9
$DIMADEC
 70
     0
  9
$DIMALTRND
 40
0.0
  9
$DIMAZIN
 70
     0
  9
$DIMDSEP
 70
    46
  9
$DIMATFIT
 70
     3
  9
$DIMFRAC
 70
     0
  9
$DIMLDRBLK
  1

  9
$DIMLUNIT
 70
     2
  9
$DIMLWD
 70
    -2
  9
$DIMLWE
 70
    -2
  9
$DIMTMOVE
 70
     0
  9
$LUNITS
 70
     2
  9
$LUPREC
 70
     2
  9
$SKETCHINC
 40
0.1
  9
$FILLETRAD
 40
0.0
  9
$AUNITS
 70
     0
  9
$AUPREC
 70
     0
  9
$MENU
  1
.
  9
$ELEVATION
 40
0.0
  9
$PELEVATION
 40
0.0
  9
$THICKNESS
 40
0.0
  9
$LIMCHECK
 70
     0
  9
$CHAMFERA
 40
0.0
  9
$CHAMFERB
 40
0.0
  9
$CHAMFERC
 40
0.0
  9
$CHAMFERD
 40
0.0
  9
$SKPOLY
 70
     0
  9
$TDCREATE
 40
2456324.647544398
  9
$TDUCREATE
 40
2456324.605877731
  9
$TDUPDATE
 40
2456324.649689329
  9
$TDUUPDATE
 40
2456324.608022662
  9
$TDINDWG
 40
0.0021454861
  9
$TDUSRTIMER
 40
0.0021454861
  9
$USRTIMER
 70
     1
  9
$ANGBASE
 50
0.0
  9
$ANGDIR
 70
     0
  9
$PDMODE
 70
     3
  9
$PDSIZE
 40
0.3125
  9
$PLINEWID
 40
0.0
  9
$SPLFRAME
 70
     0
  9
$SPLINETYPE
 70
     6
  9
$SPLINESEGS
 70
     8
  9
$HANDSEED
  5
5F2
  9
$SURFTAB1
 70
     6
  9
$SURFTAB2
 70
     6
  9
$SURFTYPE
 70
     6
  9
$SURFU
 70
     6
  9
$SURFV
 70
     6
  9
$UCSBASE
  2

  9
$UCSNAME
  2

  9
$UCSORG
 10
0.0
 20
0.0
 30
0.0
  9
$UCSXDIR
 10
1.0
 20
0.0
 30
0.0
  9
$UCSYDIR
 10
0.0
 20
1.0
 30
0.0
  9
$UCSORTHOREF
  2

  9
$UCSORTHOVIEW
 70
     0
  9
$UCSORGTOP
 10
0.0
 20
0.0
 30
0.0
  9
$UCSORGBOTTOM
 10
0.0
 20
0.0
 30
0.0
  9
$UCSORGLEFT
 10
0.0
 20
0.0
 30
0.0
  9
$UCSORGRIGHT
 10
0.0
 20
0.0
 30
0.0
  9
$UCSORGFRONT
 10
0.0
 20
0.0
 30
0.0
  9
$UCSORGBACK
 10
0.0
 20
0.0
 30
0.0
  9
$PUCSBASE
  2

  9
$PUCSNAME
  2

  9
$PUCSORG
 10
0.0
 20
0.0
 30
0.0
  9
$PUCSXDIR
 10
1.0
 20
0.0
 30
0.0
  9
$PUCSYDIR
 10
0.0
 20
1.0
 30
0.0
  9
$PUCSORTHOREF
  2

  9
$PUCSORTHOVIEW
 70
     0
  9
$PUCSORGTOP
 10
0.0
 20
0.0
 30
0.0
  9
$PUCSORGBOTTOM
 10
0.0
 20
0.0
 30
0.0
  9
$PUCSORGLEFT
 10
0.0
 20
0.0
 30
0.0
  9
$PUCSORGRIGHT
 10
0.0
 20
0.0
 30
0.0
  9
$PUCSORGFRONT
 10
0.0
 20
0.0
 30
0.0
  9
$PUCSORGBACK
 10
0.0
 20
0.0
 30
0.0
  9
$USERI1
 70
     0
  9
$USERI2
 70
     0
  9
$USERI3
 70
     0
  9
$USERI4
 70
     0
  9
$USERI5
 70
     0
  9
$USERR1
 40
0.0
  9
$USERR2
 40
0.0
  9
$USERR3
 40
0.0
  9
$USERR4
 40
0.0
  9
$USERR5
 40
0.0
  9
$WORLDVIEW
 70
     1
  9
$SHADEDGE
 70
     3
  9
$SHADEDIF
 70
    70
  9
$TILEMODE
 70
     1
  9
$MAXACTVP
 70
    64
  9
$PINSBASE
 10
0.0
 20
0.0
 30
0.0
  9
$PLIMCHECK
 70
     0
  9
$PEXTMIN
 10
1.000000000000000E+20
 20
1.000000000000000E+20
 30
1.000000000000000E+20
  9
$PEXTMAX
 10
-1.000000000000000E+20
 20
-1.000000000000000E+20
 30
-1.000000000000000E+20
  9
$PLIMMIN
 10
0.0
 20
0.0
  9
$PLIMMAX
 10
12.0
 20
9.0
  9
$UNITMODE
 70
     0
  9
$VISRETAIN
 70
     1
  9
$PLINEGEN
 70
     0
  9
$PSLTSCALE
 70
     1
  9
$TREEDEPTH
 70
  3020
  9
$CMLSTYLE
  2
Standard
  9
$CMLJUST
 70
     0
  9
$CMLSCALE
 40
1.0
  9
$PROXYGRAPHICS
 70
     1
  9
$MEASUREMENT
 70
     1
  9
$CELWEIGHT
370
    -1
  9
$ENDCAPS
280
     0
  9
$JOINSTYLE
280
     0
  9
$LWDISPLAY
290
     0
  9
$INSUNITS
 70
     4
  9
$HYPERLINKBASE
  1

  9
$STYLESHEET
  1

  9
$XEDIT
290
     1
  9
$CEPSNTYPE
380
     0
  9
$PSTYLEMODE
290
     1
  9
$FINGERPRINTGUID
  2
{676209E3-6AA6-4F6A-B2CD-1472AF0D0CEB}
  9
$VERSIONGUID
  2
{C40296CD-F114-4F2E-897A-57401CD46B3F}
  9
$EXTNAMES
290
     1
  9
$PSVPSCALE
 40
0.0
  9
$OLESTARTUP
290
     0
  0
ENDSEC
  0
SECTION
  2
CLASSES
  0
CLASS
  1
ACDBDICTIONARYWDFLT
  2
AcDbDictionaryWithDefault
  3
ObjectDBX Classes
 90
        0
280
     0
281
     0
  0
CLASS
  1
ACDBPLACEHOLDER
  2
AcDbPlaceHolder
  3
ObjectDBX Classes
 90
        0
280
     0
281
     0
  0
CLASS
  1
LAYOUT
  2
AcDbLayout
  3
ObjectDBX Classes
 90
        0
280
     0
281
     0
  0
CLASS
  1
MATERIAL
  2
AcDbMaterial
  3
ObjectDBX Classes
 90
     1153
280
     0
281
     0
  0
CLASS
  1
VISUALSTYLE
  2
AcDbVisualStyle
  3
ObjectDBX Classes
 90
     4095
280
     0
281
     0
  0
CLASS
  1
TABLESTYLE
  2
AcDbTableStyle
  3
ObjectDBX Classes
 90
     4095
280
     0
281
     0
  0
CLASS
  1
SCALE
  2
AcDbScale
  3
ObjectDBX Classes
 90
     1153
280
     0
281
     0
  0
CLASS
  1
MLEADERSTYLE
  2
AcDbMLeaderStyle
  3
ACDB_MLEADERSTYLE_CLASS
 90
     4095
280
     0
281
     0
  0
CLASS
  1
AMGSETTINGSOBJ
  2
AmgSettingsObj
  3
"AcadM|Product Description: AutoCAD Mechanical|Company: Autodesk, Inc."
 90
     1024
280
     0
281
     0
  0
CLASS
  1
ACME_DOCUMENT
  2
AcMeDbDoc
  3
AcMeServices
 90
     1024
280
     0
281
     0
  0
CLASS
  1
ACMESCOPE
  2
AcMeScope
  3
AcMeServices
 90
     1024
280
     0
281
     0
  0
CLASS
  1
ACMECOMMANDHISTORY
  2
AcMeCommandHistory
  3
AcMeServices
 90
     1024
280
     0
281
     0
  0
CLASS
  1
ACIMSYSVARMAN
  2
AcImSysVarManager
  3
AcMeServices
 90
     1024
280
     0
281
     0
  0
CLASS
  1
ACIMINTSYSVAR
  2
AcImIntSysVar
  3
AcMeServices
 90
     1024
280
     0
281
     0
  0
CLASS
  1
ACMEDRAWINGMAN
  2
AcMeDrawingMan
  3
AcMeServices
 90
     1024
280
     0
281
     0
  0
CLASS
  1
ACMEVIEW
  2
AcMeView
  3
AcMeServices
 90
     1024
280
     0
281
     0
  0
CLASS
  1
ACDBENTITYCACHE
  2
AcMeEntityCache
  3
AcMeServices
 90
     1024
280
     0
281
     0
  0
CLASS
  1
ACMESTATEMGR
  2
AcMeStateMgr
  3
AcMeServices
 90
     1024
280
     0
281
     0
  0
CLASS
  1
ACGREFMASTER
  2
AcGrefMaster
  3
AcAttribServices
 90
     1024
280
     0
281
     0
  0
CLASS
  1
AM_DRAWING_MGR
  2
AcDmDwgMgr
  3
AcMechDwgViewMgmt
 90
     1024
280
     0
281
     0
  0
CLASS
  1
AM_DWG_DOCUMENT
  2
AcDmDwgDocument
  3
AcMechDwgViewMgmt
 90
     1024
280
     0
281
     0
  0
CLASS
  1
AM_DWG_SHEET
  2
AcDmSheet
  3
AcMechDwgViewMgmt
 90
     1024
280
     0
281
     0
  0
CLASS
  1
AM_VIEWDIMPARMAP
  2
AcDmViewDimParMap
  3
AcMechDwgViewMgmt
 90
     1024
280
     0
281
     0
  0
CLASS
  1
AMDTINTERNALREACTOR
  2
AmdtInternalReactor
  3
AcMeServices
 90
     1024
280
     0
281
     0
  0
CLASS
  1
ACIMREALSYSVAR
  2
AcImRealSysVar
  3
AcMeServices
 90
     1024
280
     0
281
     0
  0
CLASS
  1
AM_DWGMGR_NAME
  2
AcDmDwgMgrName
  3
AcMechDwgViewMgmt
 90
     1024
280
     0
281
     0
  0
CLASS
  1
ACME_DATABASE
  2
AcMeDbDatabase
  3
AcMeServices
 90
     1024
280
     0
281
     0
  0
CLASS
  1
ACRFINSADJUSTERMGR
  2
AcRfInsAdjusterMgr
  3
AcMeServices
 90
     1024
280
     0
281
     0
  0
CLASS
  1
ACGREFACADMASTER
  2
AcGrefacadMaster
  3
AcGrefServices
 90
     1024
280
     0
281
     0
  0
CLASS
  1
AMDTMENUSTATEMGR
  2
AmdtMenuStateMgr
  3
McadcomServices
 90
     1024
280
     0
281
     0
  0
CLASS
  1
AMDTMCOMMENUSTATE
  2
AmdtMcomMenuState
  3
McadcomServices
 90
     1024
280
     0
281
     0
  0
CLASS
  1
AMIMASTER
  2
AmiMaster
  3
AmiServices
 90
     1024
280
     0
281
     0
  0
CLASS
  1
MAPIAMMOUDLE
  2
MApiAmModule
  3
MApiAmServices
 90
     1024
280
     0
281
     0
  0
CLASS
  1
ACIMSTRSYSVAR
  2
AcImStrSysVar
  3
AcMeServices
 90
     1024
280
     0
281
     0
  0
CLASS
  1
AMDTADMENUSTATE
  2
AmdtAdMenuState
  3
DesignerServices
 90
     1024
280
     0
281
     0
  0
CLASS
  1
ADAPPL
  2
AcAdAppl
  3
DesignerServices
 90
     1024
280
     0
281
     0
  0
CLASS
  1
DEPMGR
  2
AcAdDepMgr
  3
DesignerServices
 90
     1024
280
     0
281
     0
  0
CLASS
  1
PARAMMGR
  2
AcAdParamMgr
  3
DesignerServices
 90
     1024
280
     0
281
     0
  0
CLASS
  1
PARAMSCOPE
  2
AcAdParamScope
  3
DesignerServices
 90
     1024
280
     0
281
     0
  0
CLASS
  1
NAMEDAPPL
  2
AcAdNamedAppl
  3
DesignerServices
 90
     1024
280
     0
281
     0
  0
CLASS
  1
AMDTDMMENUSTATE
  2
AmdtDmMenuState
  3
AcMechDwgViewMgmt
 90
     1024
280
     0
281
     0
  0
CLASS
  1
AMDTAMMENUSTATE
  2
AmdtAmMenuState
  3
DesignerAssemblies
 90
     1024
280
     0
281
     0
  0
CLASS
  1
ACAMPROJECT
  2
AcAmProject
  3
DesignerAssemblies
 90
     1024
280
     0
281
     0
  0
CLASS
  1
ACAMGRCOMPDEF
  2
AcAmGrCompDef
  3
DesignerAssemblies
 90
     1024
280
     0
281
     0
  0
CLASS
  1
ACAMCOMPDEF
  2
AcAmCompDef
  3
DesignerAssemblies
 90
     1024
280
     0
281
     0
  0
CLASS
  1
ACAMCOMPDEFMGR
  2
AcAmCompDefMgr
  3
DesignerAssemblies
 90
     1024
280
     0
281
     0
  0
CLASS
  1
AMCONTEXTMGR
  2
AcAmContextMgr
  3
DesignerAssemblies
 90
     1024
280
     0
281
     0
  0
CLASS
  1
ACAMCONTEXTMODELER
  2
AcAmContextModeler
  3
DesignerAssemblies
 90
     1024
280
     0
281
     0
  0
CLASS
  1
ACMDATADICTIONARY
  2
AcmDataDictionary
  3
"AcmSymBB|Product Description: AutoCAD Mechanical|Company: Autodesk, Inc."
 90
     1024
280
     0
281
     0
  0
CLASS
  1
CATALOGSTATE
  2
AcAmCatalogState
  3
DesignerAssemblies
 90
     1024
280
     0
281
     0
  0
CLASS
  1
ACAMGRCOMPDEFSET
  2
AcAmGrCompDefSet
  3
DesignerAssemblies
 90
     1024
280
     0
281
     0
  0
CLASS
  1
AMDTBROWSERDBTAB
  2
AmdtBrowserDbTab
  3
McadcomServices
 90
     1024
280
     0
281
     0
  0
CLASS
  1
CBROWSERAPPOBJECT
  2
CBrowserAppObject
  3
McadcomServices
 90
     1024
280
     0
281
     0
  0
CLASS
  1
DM_PLACEHOLDER
  2
AcDmSelsetPlaceholder
  3
AcMechDwgViewMgmt
 90
     1024
280
     0
281
     0
  0
CLASS
  1
ACMSTANDARDDIN
  2
AcmStandardDIN
  3
"Amdt_StdImp|Product Description: AutoCAD Mechanical|Company: Autodesk, Inc."
 90
     1024
280
     0
281
     0
  0
CLASS
  1
AMDTEDGESTANDARDDIN13715
  2
AmdtEdgeStdDIN13715
  3
"Amdt_StdImp|Product Description: AutoCAD Mechanical|Company: Autodesk, Inc."
 90
     1024
280
     0
281
     0
  0
CLASS
  1
ACMSURFSTANDARDDIN2002
  2
AcmSurfTextStdDIN2002
  3
"Amdt_StdImp|Product Description: AutoCAD Mechanical|Company: Autodesk, Inc."
 90
     1024
280
     0
281
     0
  0
CLASS
  1
ACMFCFSTANDARDDIN
  2
AcmFCFStdDIN
  3
"Amdt_StdImp|Product Description: AutoCAD Mechanical|Company: Autodesk, Inc."
 90
     1024
280
     0
281
     0
  0
CLASS
  1
ACMWELDSTANDARDDIN
  2
AcmWeldingStdDIN
  3
"Amdt_StdImp|Product Description: AutoCAD Mechanical|Company: Autodesk, Inc."
 90
     1024
280
     0
281
     0
  0
CLASS
  1
ACMIDSTANDARDDIN
  2
AcmIdStdDIN
  3
"Amdt_StdImp|Product Description: AutoCAD Mechanical|Company: Autodesk, Inc."
 90
     1024
280
     0
281
     0
  0
CLASS
  1
ACMDATUMSTANDARDDIN
  2
AcmDatumStdDIN
  3
"Amdt_StdImp|Product Description: AutoCAD Mechanical|Company: Autodesk, Inc."
 90
     1024
280
     0
281
     0
  0
CLASS
  1
ACMBOMSTANDARDDIN
  2
AcmBOMStdDIN
  3
"Amdt_StdImp|Product Description: AutoCAD Mechanical|Company: Autodesk, Inc."
 90
     1024
280
     0
281
     0
  0
CLASS
  1
ACMDETAILSTANDARDDIN
  2
AmdtDetailSymStdDIN
  3
"Amdt_StdImp|Product Description: AutoCAD Mechanical|Company: Autodesk, Inc."
 90
     1024
280
     0
281
     0
  0
CLASS
  1
ACMSECTIONSTANDARDDIN
  2
AmdtSectionSymStdDIN
  3
"Amdt_StdImp|Product Description: AutoCAD Mechanical|Company: Autodesk, Inc."
 90
     1024
280
     0
281
     0
  0
CLASS
  1
ACMCENTERLINESTANDARDDIN
  2
AmdtCenterLineStdDIN
  3
"Amdt_StdImp|Product Description: AutoCAD Mechanical|Company: Autodesk, Inc."
 90
     1024
280
     0
281
     0
  0
CLASS
  1
ACMTHREADLINESTANDARDDIN
  2
AmdtThreadLineStdDIN
  3
"Amdt_StdImp|Product Description: AutoCAD Mechanical|Company: Autodesk, Inc."
 90
     1024
280
     0
281
     0
  0
CLASS
  1
ACMNOTESTANDARDDIN
  2
AmdtNoteStdDIN
  3
"Amdt_StdImp|Product Description: AutoCAD Mechanical|Company: Autodesk, Inc."
 90
     1024
280
     0
281
     0
  0
CLASS
  1
ACMTAPERSTANDARDDIN
  2
AcmTaperStdDIN
  3
"Amdt_StdImp|Product Description: AutoCAD Mechanical|Company: Autodesk, Inc."
 90
     1024
280
     0
281
     0
  0
CLASS
  1
ACMANOOTATIONVIEWSTANDARDDIN
  2
AmdtAnViewStdDIN
  3
"Amdt_StdImp|Product Description: AutoCAD Mechanical|Company: Autodesk, Inc."
 90
     1024
280
     0
281
     0
  0
CLASS
  1
ACAMGLAYSTD
  2
AcAmgLayStd
  3
"AmgLay|Product Description: AutoCAD Mechanical|Company: Autodesk, Inc."
 90
     1024
280
     0
281
     0
  0
CLASS
  1
ACAMGDIMSTD
  2
AcAmgDimStd
  3
"AmgDim|Product Description: AutoCAD Mechanical|Company: Autodesk, Inc."
 90
     1024
280
     0
281
     0
  0
CLASS
  1
AMGOBJPROPCFG
  2
AmgObjPropCfg
  3
"AmgLay|Product Description: AutoCAD Mechanical|Company: Autodesk, Inc."
 90
     1025
280
     0
281
     0
  0
CLASS
  1
ACAMGHOLECHARTSTDDIN
  2
AcAmgHoleChartStdDIN
  3
AmgDim|Product Description: AutoCAD Mechanical|Company: Autodesk, Inc.
 90
     1024
280
     0
281
     0
  0
CLASS
  1
ACAMGTITLESTD
  2
AcAmgTitleStd
  3
"AmgTitle|Product Description: AutoCAD Mechanical|Company: Autodesk, Inc."
 90
     4095
280
     0
281
     0
  0
CLASS
  1
AMDTNOTETEMPLATEDB
  2
AmdtNoteTemplateDB
  3
AcmSymBB|Product Description: AutoCAD Mechanical|Company: Autodesk, Inc.
 90
     1024
280
     0
281
     0
  0
CLASS
  1
ACAMGFILTERDAT
  2
AcAmgFilterDat
  3
"AcadM|Product Description: AutoCAD Mechanical|Company: Autodesk, Inc."
 90
     1024
280
     0
281
     0
  0
CLASS
  1
DICTIONARYVAR
  2
AcDbDictionaryVar
  3
ObjectDBX Classes
 90
        0
280
     0
281
     0
  0
CLASS
  1
CELLSTYLEMAP
  2
AcDbCellStyleMap
  3
ObjectDBX Classes
 90
     1152
280
     0
281
     0
  0
ENDSEC
  0
SECTION
  2
TABLES
  0
TABLE
  2
VPORT
  5
8
330
0
100
AcDbSymbolTable
 70
     1
  0
VPORT
  5
1F4
330
8
100
AcDbSymbolTableRecord
100
AcDbViewportTableRecord
  2
*ACTIVE
 70
     0
 10
0.0
 20
0.0
 11
1.0
 21
1.0
 12
541.9315288912407
 22
327.75208467484
 13
0.0
 23
0.0
 14
1.0
 24
1.0
 15
0.0
 25
0.0
 16
0.0
 26
0.0
 36
1.0
 17
0.0
 27
0.0
 37
0.0
 40
212.2657215830964
 41
1.850235849056603
 42
50.0
 43
0.0
 44
0.0
 50
0.0
 51
0.0
 71
     0
 72
   100
 73
     1
 74
     1
 75
     0
 76
     0
 77
     0
 78
     0
281
     0
 65
     0
110
0.0
120
0.0
130
0.0
111
1.0
121
0.0
131
0.0
112
0.0
122
1.0
132
0.0
 79
     0
146
0.0
  0
ENDTAB
  0
TABLE
  2
LTYPE
  5
5
330
0
100
AcDbSymbolTable
 70
    23
  0
LTYPE
  5
14
330
5
100
AcDbSymbolTableRecord
100
AcDbLinetypeTableRecord
  2
BYBLOCK
 70
     0
  3

 72
    65
 73
     0
 40
0.0
  0
LTYPE
  5
15
330
5
100
AcDbSymbolTableRecord
100
AcDbLinetypeTableRecord
  2
BYLAYER
 70
     0
  3

 72
    65
 73
     0
 40
0.0
  0
LTYPE
  5
16
330
5
100
AcDbSymbolTableRecord
100
AcDbLinetypeTableRecord
  2
CONTINUOUS
 70
     0
  3
Solid line
 72
    65
 73
     0
 40
0.0
  0
LTYPE
  5
1F5
330
5
100
AcDbSymbolTableRecord
100
AcDbLinetypeTableRecord
  2
CENTER
 70
     0
  3
____ _ ____ _ ____ _ ____ _ ____ _ ____ _ ____
 72
    65
 73
     4
 40
0.6
 49
0.375
 74
     0
 49
-0.075
 74
     0
 49
0.075
 74
     0
 49
-0.075
 74
     0
  0
LTYPE
  5
1F6
330
5
100
AcDbSymbolTableRecord
100
AcDbLinetypeTableRecord
  2
HIDDEN
 70
     0
  3
- - - - - - - - - - - - - - - - - - - -
 72
    65
 73
     2
 40
0.2
 49
0.1
 74
     0
 49
-0.1
 74
     0
  0
LTYPE
  5
1F7
330
5
100
AcDbSymbolTableRecord
100
AcDbLinetypeTableRecord
  2
PHANTOM
 70
     0
  3
_____ _ _ _____ _ _ _____ _ _ _____
 72
    65
 73
     6
 40
0.8
 49
0.45
 74
     0
 49
-0.05
 74
     0
 49
0.1
 74
     0
 49
-0.05
 74
     0
 49
0.1
 74
     0
 49
-0.05
 74
     0
  0
LTYPE
  5
1F8
330
5
100
AcDbSymbolTableRecord
100
AcDbLinetypeTableRecord
  2
DOT
 70
     0
  3
. . . . . . . . . . . . . . . . . . . .
 72
    65
 73
     2
 40
0.2
 49
0.1
 74
     0
 49
-0.1
 74
     0
  0
LTYPE
  5
1F9
330
5
100
AcDbSymbolTableRecord
100
AcDbLinetypeTableRecord
  2
DASHED
 70
     0
  3
- - - - - - - - - - - - - - - - - - - -
 72
    65
 73
     2
 40
0.2
 49
0.1
 74
     0
 49
-0.1
 74
     0
  0
LTYPE
  5
495
330
5
100
AcDbSymbolTableRecord
100
AcDbLinetypeTableRecord
  2
PHANTOM2
 70
     0
  3
Phantom (.5x) ___ _ _ ___ _ _ ___ _ _ ___ _ _
 72
    65
 73
     6
 40
31.75
 49
15.875
 74
     0
 49
-3.174999999999999
 74
     0
 49
3.174999999999999
 74
     0
 49
-3.174999999999999
 74
     0
 49
3.174999999999999
 74
     0
 49
-3.174999999999999
 74
     0
  0
LTYPE
  5
4DB
330
5
100
AcDbSymbolTableRecord
100
AcDbLinetypeTableRecord
  2
AM_ISO02W050
 70
     0
  3
__ __ __ __ __ __ __ __ __ __ __ __ __ __ __
 72
    65
 73
     2
 40
7.5
 49
6.0
 74
     0
 49
-1.5
 74
     0
  0
LTYPE
  5
4DC
330
5
100
AcDbSymbolTableRecord
100
AcDbLinetypeTableRecord
  2
AM_ISO08W050
 70
     0
  3
____ . ____ . ____ . ____ . ____ . ____ . ____
 72
    65
 73
     4
 40
18.0
 49
12.0
 74
     0
 49
-1.5
 74
     0
 49
3.0
 74
     0
 49
-1.5
 74
     0
  0
LTYPE
  5
4DD
330
5
100
AcDbSymbolTableRecord
100
AcDbLinetypeTableRecord
  2
AM_ISO09W050
 70
     0
  3
_____ . . _____ . . _____ . . ____ .. ____
 72
    65
 73
     6
 40
22.5
 49
12.0
 74
     0
 49
-1.5
 74
     0
 49
3.0
 74
     0
 49
-1.5
 74
     0
 49
3.0
 74
     0
 49
-1.5
 74
     0
  0
LTYPE
  5
4DE
330
5
100
AcDbSymbolTableRecord
100
AcDbLinetypeTableRecord
  2
Amconstr
 70
     0
  3
_______________________
 72
    65
 73
     2
 40
9999.0
 49
9999.0
 74
     0
 49
0.0
 74
     0
  0
LTYPE
  5
4DF
330
5
100
AcDbSymbolTableRecord
100
AcDbLinetypeTableRecord
  2
AM_ISO08W050x2
 70
     0
  3
__ . __ . __ . __ . __ . __
 72
    65
 73
     4
 40
9.0
 49
6.0
 74
     0
 49
-0.75
 74
     0
 49
1.5
 74
     0
 49
-0.75
 74
     0
  0
LTYPE
  5
4E0
330
5
100
AcDbSymbolTableRecord
100
AcDbLinetypeTableRecord
  2
AM_ISO02W050x2
 70
     0
  3
 _ _ _ _ _ _ _ _ _ _ _ _
 72
    65
 73
     2
 40
3.75
 49
3.0
 74
     0
 49
-0.75
 74
     0
  0
LTYPE
  5
4E3
330
5
100
AcDbSymbolTableRecord
100
AcDbLinetypeTableRecord
  2
Amzigzag
 70
     0
  3
/\/-/\/-/\/-/\/-/\/-/\/
 72
    65
 73
     2
 40
11.0001
 49
0.0001
 74
     4
 75
   136
340
4E2
 46
0.04
 50
0.0
 44
0.0
 45
0.0
 49
-11.0
 74
     0
  0
LTYPE
  5
4E4
330
5
100
AcDbSymbolTableRecord
100
AcDbLinetypeTableRecord
  2
AM_DIN_F_W050
 70
     0
  3
__ __ __ __ __ __ __ __ __ __ __ __ __ __ __
 72
    65
 73
     2
 40
6.25
 49
4.75
 74
     0
 49
-1.5
 74
     0
  0
LTYPE
  5
4E5
330
5
100
AcDbSymbolTableRecord
100
AcDbLinetypeTableRecord
  2
AM_DIN_G_W050
 70
     0
  3
____ . ____ . ____ . ____ . ____ . ____ . ____
 72
    65
 73
     4
 40
13.75
 49
9.75
 74
     0
 49
-1.5
 74
     0
 49
1.0
 74
     0
 49
-1.5
 74
     0
  0
LTYPE
  5
4E6
330
5
100
AcDbSymbolTableRecord
100
AcDbLinetypeTableRecord
  2
AM_DIN_K_W050
 70
     0
  3
_____ . . _____ . . _____ . . ____ .. ____
 72
    65
 73
     6
 40
16.25
 49
9.75
 74
     0
 49
-1.5
 74
     0
 49
1.0
 74
     0
 49
-1.5
 74
     0
 49
1.0
 74
     0
 49
-1.5
 74
     0
  0
LTYPE
  5
4E7
330
5
100
AcDbSymbolTableRecord
100
AcDbLinetypeTableRecord
  2
AM_DIN_G_W050x2
 70
     0
  3
__ . __ . __ . __ . __ . __
 72
    65
 73
     4
 40
6.875
 49
4.75
 74
     0
 49
-0.875
 74
     0
 49
0.375
 74
     0
 49
-0.875
 74
     0
  0
LTYPE
  5
4E8
330
5
100
AcDbSymbolTableRecord
100
AcDbLinetypeTableRecord
  2
AM_DIN_F_W050x2
 70
     0
  3
 _ _ _ _ _ _ _ _ _ _ _ _
 72
    65
 73
     2
 40
3.125
 49
2.25
 74
     0
 49
-0.875
 74
     0
  0
LTYPE
  5
4F7
330
5
100
AcDbSymbolTableRecord
100
AcDbLinetypeTableRecord
  2
ACDINWELD
 70
     0
  3
_ _ _ _ _
 72
    65
 73
     2
 40
2.0
 49
2.0
 74
     0
 49
-1.0
 74
     0
  0
LTYPE
  5
4F8
330
5
100
AcDbSymbolTableRecord
100
AcDbLinetypeTableRecord
  2
ACDINTGB
 70
     0
  3
__ . . __ . .
 72
    65
 73
     6
 40
9.0
 49
4.0
 74
     0
 49
-1.0
 74
     0
 49
1.0
 74
     0
 49
-1.0
 74
     0
 49
1.0
 74
     0
 49
-1.0
 74
     0
  0
LTYPE
  5
4F9
330
5
100
AcDbSymbolTableRecord
100
AcDbLinetypeTableRecord
  2
ACDINTGL
 70
     0
  3
_ _ _ _ _
 72
    65
 73
     2
 40
3.0
 49
2.0
 74
     0
 49
-1.0
 74
     0
  0
ENDTAB
  0
TABLE
  2
LAYER
  5
2
330
0
100
AcDbSymbolTable
 70
    25
  0
LAYER
  5
10
330
2
100
AcDbSymbolTableRecord
100
AcDbLayerTableRecord
  2
0
 70
     0
 62
     7
  6
CONTINUOUS
370
    -3
390
F
  0
LAYER
  5
1FA
330
2
100
AcDbSymbolTableRecord
100
AcDbLayerTableRecord
  2
DEFAULT_1
 70
     0
 62
     7
  6
CENTER
370
    -3
390
F
  0
LAYER
  5
1FB
330
2
100
AcDbSymbolTableRecord
100
AcDbLayerTableRecord
  2
DEFAULT_2
 70
     0
 62
     8
  6
HIDDEN
370
    -3
390
F
  0
LAYER
  5
1FC
330
2
100
AcDbSymbolTableRecord
100
AcDbLayerTableRecord
  2
DEFAULT_3
 70
     0
 62
     7
  6
PHANTOM
370
    -3
390
F
  0
LAYER
  5
1FD
330
2
100
AcDbSymbolTableRecord
100
AcDbLayerTableRecord
  2
3D_TEIL_NOTIZ
 70
     0
 62
     7
  6
CONTINUOUS
370
    -3
390
F
  0
LAYER
  5
1FE
330
2
100
AcDbSymbolTableRecord
100
AcDbLayerTableRecord
  2
ACHSEN
 70
     0
 62
     7
  6
CONTINUOUS
370
    -3
390
F
  0
LAYER
  5
1FF
330
2
100
AcDbSymbolTableRecord
100
AcDbLayerTableRecord
  2
AUSFORMSCHRAEGEN
 70
     0
 62
     7
  6
CONTINUOUS
370
    -3
390
F
  0
LAYER
  5
200
330
2
100
AcDbSymbolTableRecord
100
AcDbLayerTableRecord
  2
BEZUG
 70
     0
 62
     7
  6
CONTINUOUS
370
    -3
390
F
  0
LAYER
  5
201
330
2
100
AcDbSymbolTableRecord
100
AcDbLayerTableRecord
  2
BEZUGSACHSEN
 70
     0
 62
     7
  6
CONTINUOUS
370
    -3
390
F
  0
LAYER
  5
202
330
2
100
AcDbSymbolTableRecord
100
AcDbLayerTableRecord
  2
BEZUGSEBENEN
 70
     0
 62
     7
  6
CONTINUOUS
370
    -3
390
F
  0
LAYER
  5
203
330
2
100
AcDbSymbolTableRecord
100
AcDbLayerTableRecord
  2
BG_STARTBEZUEGE
 70
     0
 62
     7
  6
CONTINUOUS
370
    -3
390
F
  0
LAYER
  5
204
330
2
100
AcDbSymbolTableRecord
100
AcDbLayerTableRecord
  2
BOHRUNGEN
 70
     0
 62
     7
  6
CONTINUOUS
370
    -3
390
F
  0
LAYER
  5
205
330
2
100
AcDbSymbolTableRecord
100
AcDbLayerTableRecord
  2
DATUMS
 70
     0
 62
     7
  6
CONTINUOUS
370
    -3
390
F
  0
LAYER
  5
206
330
2
100
AcDbSymbolTableRecord
100
AcDbLayerTableRecord
  2
DETAILS
 70
     0
 62
     7
  6
CONTINUOUS
370
    -3
390
F
  0
LAYER
  5
207
330
2
100
AcDbSymbolTableRecord
100
AcDbLayerTableRecord
  2
FASEN
 70
     0
 62
     7
  6
CONTINUOUS
370
    -3
390
F
  0
LAYER
  5
208
330
2
100
AcDbSymbolTableRecord
100
AcDbLayerTableRecord
  2
GEWINDE
 70
     0
 62
     7
  6
CONTINUOUS
370
    -3
390
F
  0
LAYER
  5
209
330
2
100
AcDbSymbolTableRecord
100
AcDbLayerTableRecord
  2
HILFEN
 70
     0
 62
     7
  6
CONTINUOUS
370
    -3
390
F
  0
LAYER
  5
20A
330
2
100
AcDbSymbolTableRecord
100
AcDbLayerTableRecord
  2
KURVEN
 70
     0
 62
     7
  6
CONTINUOUS
370
    -3
390
F
  0
LAYER
  5
20B
330
2
100
AcDbSymbolTableRecord
100
AcDbLayerTableRecord
  2
PLATZIERUNG
 70
     0
 62
     7
  6
CONTINUOUS
370
    -3
390
F
  0
LAYER
  5
20C
330
2
100
AcDbSymbolTableRecord
100
AcDbLayerTableRecord
  2
PLAZIERUNG
 70
     0
 62
     7
  6
CONTINUOUS
370
    -3
390
F
  0
LAYER
  5
20D
330
2
100
AcDbSymbolTableRecord
100
AcDbLayerTableRecord
  2
RUNDUNGEN
 70
     0
 62
     7
  6
CONTINUOUS
370
    -3
390
F
  0
LAYER
  5
20E
330
2
100
AcDbSymbolTableRecord
100
AcDbLayerTableRecord
  2
SKIZZEN
 70
     0
 62
     7
  6
CONTINUOUS
370
    -3
390
F
  0
LAYER
  5
20F
330
2
100
AcDbSymbolTableRecord
100
AcDbLayerTableRecord
  2
TEIL_STARTBEZUEGE
 70
     0
 62
     7
  6
CONTINUOUS
370
    -3
390
F
  0
LAYER
  5
210
330
2
100
AcDbSymbolTableRecord
100
AcDbLayerTableRecord
  2
ZEICHNUNGSBEMASSUNGEN
 70
     0
 62
     7
  6
CONTINUOUS
370
    -3
390
F
  0
LAYER
  5
507
330
2
100
AcDbSymbolTableRecord
100
AcDbLayerTableRecord
  2
Defpoints
 70
     0
 62
     7
  6
CONTINUOUS
290
     0
370
    -3
390
F
  0
ENDTAB
  0
TABLE
  2
STYLE
  5
3
330
0
100
AcDbSymbolTable
 70
     6
  0
STYLE
  5
11
330
3
100
AcDbSymbolTableRecord
100
AcDbTextStyleTableRecord
  2
STANDARD
 70
     0
 40
0.0
 41
0.7
 50
0.0
 71
     0
 42
0.2
  3
txt
  4

  0
STYLE
  5
211
330
3
100
AcDbSymbolTableRecord
100
AcDbTextStyleTableRecord
  2
TEXTSTYLE_1
 70
     0
 40
0.0
 41
0.8
 50
0.0
 71
     0
 42
0.2
  3
gdt
  4

  0
STYLE
  5
212
330
3
100
AcDbSymbolTableRecord
100
AcDbTextStyleTableRecord
  2
TEXTSTYLE_2
 70
     0
 40
0.0
 41
0.7
 50
0.0
 71
     0
 42
0.2
  3
gdt
  4

  0
STYLE
  5
4E2
330
3
100
AcDbSymbolTableRecord
100
AcDbTextStyleTableRecord
  2

 70
     1
 40
0.0
 41
1.0
 50
0.0
 71
     0
 42
0.2
  3
genltshp.shx
  4

  0
STYLE
  5
4F5
330
3
100
AcDbSymbolTableRecord
100
AcDbTextStyleTableRecord
  2
ACDINTS
 70
     0
 40
1.0
 41
1.0
 50
0.0
 71
     0
 42
0.2
  3
isocp.shx
  4

  0
STYLE
  5
4F6
330
3
100
AcDbSymbolTableRecord
100
AcDbTextStyleTableRecord
  2
ACDINGDT
 70
     0
 40
0.0
 41
1.0
 50
0.0
 71
     0
 42
0.2
  3
amgdt.shx
  4

  0
ENDTAB
  0
TABLE
  2
VIEW
  5
6
330
0
100
AcDbSymbolTable
 70
     0
  0
ENDTAB
  0
TABLE
  2
UCS
  5
7
330
0
100
AcDbSymbolTable
 70
     0
  0
ENDTAB
  0
TABLE
  2
APPID
  5
9
330
0
100
AcDbSymbolTable
 70
    21
  0
APPID
  5
213
330
9
100
AcDbSymbolTableRecord
100
AcDbRegAppTableRecord
  2
ACAD
 70
     0
  0
APPID
  5
46A
330
9
100
AcDbSymbolTableRecord
100
AcDbRegAppTableRecord
  2
MCAD_NO_VIS
 70
     0
  0
APPID
  5
46B
330
9
100
AcDbSymbolTableRecord
100
AcDbRegAppTableRecord
  2
ACAD_TEMP_GRAPHIC
 70
     0
  0
APPID
  5
497
330
9
100
AcDbSymbolTableRecord
100
AcDbRegAppTableRecord
  2
AD_DRAW
 70
     0
  0
APPID
  5
49A
330
9
100
AcDbSymbolTableRecord
100
AcDbRegAppTableRecord
  2
ACATTRIBSERVICES
 70
     0
  0
APPID
  5
4BA
330
9
100
AcDbSymbolTableRecord
100
AcDbRegAppTableRecord
  2
DESIGNERASSEMBLIES
 70
     0
  0
APPID
  5
4C0
330
9
100
AcDbSymbolTableRecord
100
AcDbRegAppTableRecord
  2
ACADM_DIM_EDIT
 70
     0
  0
APPID
  5
4C1
330
9
100
AcDbSymbolTableRecord
100
AcDbRegAppTableRecord
  2
AMDT_DM_ADJ
 70
     0
  0
APPID
  5
4D8
330
9
100
AcDbSymbolTableRecord
100
AcDbRegAppTableRecord
  2
ACAD_DSTYLE_DIMJAG
 70
     0
  0
APPID
  5
4D9
330
9
100
AcDbSymbolTableRecord
100
AcDbRegAppTableRecord
  2
ACAD_DSTYLE_DIMBREAK
 70
     0
  0
APPID
  5
508
330
9
100
AcDbSymbolTableRecord
100
AcDbRegAppTableRecord
  2
AcAecLayerStandard
 70
     0
  0
APPID
  5
509
330
9
100
AcDbSymbolTableRecord
100
AcDbRegAppTableRecord
  2
GENIUS_GENODEF_13
 70
     0
  0
APPID
  5
50A
330
9
100
AcDbSymbolTableRecord
100
AcDbRegAppTableRecord
  2
GENIUS_GENOBJ-N-HTC_13
 70
     0
  0
APPID
  5
50B
330
9
100
AcDbSymbolTableRecord
100
AcDbRegAppTableRecord
  2
GENIUS_GENHATCH_13
 70
     0
  0
APPID
  5
50C
330
9
100
AcDbSymbolTableRecord
100
AcDbRegAppTableRecord
  2
ACAD_EXEMPT_FROM_CAD_STANDARDS
 70
     0
  0
APPID
  5
50D
330
9
100
AcDbSymbolTableRecord
100
AcDbRegAppTableRecord
  2
ACAD_MLEADERVER
 70
     0
  0
APPID
  5
50E
330
9
100
AcDbSymbolTableRecord
100
AcDbRegAppTableRecord
  2
ACAD_DSTYLE_DIMJOGGED_JOGANGLE_SYMBOL
 70
     0
  0
APPID
  5
50F
330
9
100
AcDbSymbolTableRecord
100
AcDbRegAppTableRecord
  2
ACAD_DSTYLE_DIM_LINETYPE
 70
     0
  0
APPID
  5
510
330
9
100
AcDbSymbolTableRecord
100
AcDbRegAppTableRecord
  2
ACAD_DSTYLE_DIM_EXT1_LINETYPE
 70
     0
  0
APPID
  5
511
330
9
100
AcDbSymbolTableRecord
100
AcDbRegAppTableRecord
  2
ACAD_DSTYLE_DIM_EXT2_LINETYPE
 70
     0
  0
APPID
  5
512
330
9
100
AcDbSymbolTableRecord
100
AcDbRegAppTableRecord
  2
ACAD_DSTYLE_DIMINSPECT
 70
     0
  0
ENDTAB
  0
TABLE
  2
DIMSTYLE
  5
A
330
0
100
AcDbSymbolTable
 70
    12
100
AcDbDimStyleTable
 71
     2
340
21C
340
21E
  0
DIMSTYLE
105
21C
330
A
100
AcDbSymbolTableRecord
100
AcDbDimStyleTableRecord
  2
STANDARD
 70
     0
 41
3.5
 47
0.005
 48
0.005
 71
     1
 73
     0
 74
     0
 77
     1
 78
     8
140
3.5
178
     5
271
     3
272
     3
284
     8
340
11
341
216
342
216
343
216
344
216
  0
DIMSTYLE
105
21D
330
A
100
AcDbSymbolTableRecord
100
AcDbDimStyleTableRecord
  2
DIMSTYLE_1
 70
     0
 41
3.5
 47
0.5
 48
0.5
 73
     0
 74
     0
 77
     1
 78
     8
140
3.5
178
     5
271
     0
272
     0
284
     8
340
11
341
216
342
216
343
216
344
216
  0
DIMSTYLE
105
21E
102
{ACAD_REACTORS
330
256
330
254
330
253
330
255
330
257
102
}
330
A
100
AcDbSymbolTableRecord
100
AcDbDimStyleTableRecord
  2
DIMSTYLE_2
 70
     0
 41
3.5
 47
0.3
 48
0.3
 73
     0
 74
     0
 77
     1
 78
     8
140
3.5
178
     5
271
     0
272
     0
284
     8
340
11
341
216
342
216
343
216
344
216
  0
DIMSTYLE
105
21F
330
A
100
AcDbSymbolTableRecord
100
AcDbDimStyleTableRecord
  2
DIMSTYLE_3
 70
     0
 41
3.5
 47
0.5
 48
0.5
 73
     0
 74
     0
 77
     1
 78
     8
140
3.5
178
     5
271
     3
272
     3
284
     8
340
11
341
216
342
216
343
216
344
216
  0
DIMSTYLE
105
4D7
102
{ACAD_REACTORS
330
4C6
102
}
330
A
100
AcDbSymbolTableRecord
100
AcDbDimStyleTableRecord
  2
AM_DIN
 70
     0
  4
"
 41
3.5
 42
1.0
 43
10.0
 44
1.0
 47
0.1
 48
0.1
 73
     0
 74
     0
 77
     1
 78
     8
 79
     2
140
3.5
141
0.0
143
0.0393701
146
0.71
147
1.5
172
     1
176
   256
177
   256
178
     2
271
     2
272
     3
274
     4
283
     0
284
     8
340
11
371
    -1
372
    -1
1001
ACAD_DSTYLE_DIMJAG
1070
   388
1040
1.5
1001
ACAD_DSTYLE_DIMBREAK
1070
   391
1040
3.75
1001
ACAD_DSTYLE_DIMJOGGED_JOGANGLE_SYMBOL
1070
   384
1040
1.570796326794896
1001
ACAD_DSTYLE_DIM_LINETYPE
1070
   380
1005
14
1001
ACAD_DSTYLE_DIM_EXT1_LINETYPE
1070
   381
1005
14
1001
ACAD_DSTYLE_DIM_EXT2_LINETYPE
1070
   382
1005
14
  0
DIMSTYLE
105
4E9
330
A
100
AcDbSymbolTableRecord
100
AcDbDimStyleTableRecord
  2
AM_DIN$3
 70
     0
  4
"
 41
3.5
 42
1.0
 43
10.0
 44
1.0
 47
0.1
 48
0.1
 73
     0
 77
     1
 78
     8
 79
     2
140
3.5
141
0.0
143
0.0393701
146
0.71
147
1.5
176
   256
177
   256
178
     2
271
     2
272
     3
274
     4
283
     0
284
     8
288
     1
289
     0
340
11
371
    -1
372
    -1
1001
ACAD_DSTYLE_DIMBREAK
1070
   391
1040
3.75
1001
ACAD_DSTYLE_DIMJAG
1070
   388
1040
1.5
1001
ACAD_DSTYLE_DIMJOGGED_JOGANGLE_SYMBOL
1070
   384
1040
1.570796326794896
1001
ACAD_DSTYLE_DIM_LINETYPE
1070
   380
1005
14
1001
ACAD_DSTYLE_DIM_EXT1_LINETYPE
1070
   381
1005
14
1001
ACAD_DSTYLE_DIM_EXT2_LINETYPE
1070
   382
1005
14
  0
DIMSTYLE
105
4EA
330
A
100
AcDbSymbolTableRecord
100
AcDbDimStyleTableRecord
  2
AM_DIN$4
 70
     0
  4
"
 41
3.5
 42
1.0
 43
10.0
 44
1.0
 47
0.1
 48
0.1
 73
     0
 77
     1
 78
     8
 79
     2
140
3.5
141
0.0
143
0.0393701
146
0.71
147
1.5
176
   256
177
   256
178
     2
271
     2
272
     3
274
     4
283
     0
284
     8
288
     1
289
     0
340
11
371
    -1
372
    -1
1001
ACAD_DSTYLE_DIMBREAK
1070
   391
1040
3.75
1001
ACAD_DSTYLE_DIMJAG
1070
   388
1040
1.5
1001
ACAD_DSTYLE_DIMJOGGED_JOGANGLE_SYMBOL
1070
   384
1040
1.570796326794896
1001
ACAD_DSTYLE_DIM_LINETYPE
1070
   380
1005
14
1001
ACAD_DSTYLE_DIM_EXT1_LINETYPE
1070
   381
1005
14
1001
ACAD_DSTYLE_DIM_EXT2_LINETYPE
1070
   382
1005
14
  0
DIMSTYLE
105
4EB
330
A
100
AcDbSymbolTableRecord
100
AcDbDimStyleTableRecord
  2
AM_DIN$6
 70
     0
  4
"
 41
3.5
 42
1.0
 43
10.0
 44
1.0
 47
0.1
 48
0.1
 73
     0
 74
     0
 78
     8
 79
     2
140
3.5
141
0.0
143
0.0393701
146
0.71
147
1.5
172
     1
176
   256
177
   256
178
     2
271
     2
272
     3
274
     4
283
     0
284
     8
340
11
371
    -1
372
    -1
1001
ACAD_DSTYLE_DIMBREAK
1070
   391
1040
3.75
1001
ACAD_DSTYLE_DIMJAG
1070
   388
1040
1.5
1001
ACAD_DSTYLE_DIMJOGGED_JOGANGLE_SYMBOL
1070
   384
1040
1.570796326794896
1001
ACAD_DSTYLE_DIM_LINETYPE
1070
   380
1005
14
1001
ACAD_DSTYLE_DIM_EXT1_LINETYPE
1070
   381
1005
14
1001
ACAD_DSTYLE_DIM_EXT2_LINETYPE
1070
   382
1005
14
  0
DIMSTYLE
105
4EC
330
A
100
AcDbSymbolTableRecord
100
AcDbDimStyleTableRecord
  2
AM_DIN$7
 70
     0
  4
"
 41
3.5
 42
1.0
 43
10.0
 44
1.0
 47
0.1
 48
0.1
 73
     0
 74
     0
 77
     1
 78
     8
 79
     2
140
3.5
141
0.0
143
0.0393701
146
0.71
147
1.5
172
     1
176
   256
177
   256
178
     2
271
     2
272
     3
274
     4
283
     0
284
     8
340
11
371
    -1
372
    -1
1001
ACAD_DSTYLE_DIMBREAK
1070
   391
1040
3.75
1001
ACAD_DSTYLE_DIMJAG
1070
   388
1040
1.5
1001
ACAD_DSTYLE_DIMJOGGED_JOGANGLE_SYMBOL
1070
   384
1040
1.570796326794896
1001
ACAD_DSTYLE_DIM_LINETYPE
1070
   380
1005
14
1001
ACAD_DSTYLE_DIM_EXT1_LINETYPE
1070
   381
1005
14
1001
ACAD_DSTYLE_DIM_EXT2_LINETYPE
1070
   382
1005
14
  0
DIMSTYLE
105
4ED
330
A
100
AcDbSymbolTableRecord
100
AcDbDimStyleTableRecord
  2
AM_DIN$SF
 70
     0
  4
"
 41
3.5
 42
1.0
 43
10.0
 44
1.0
 47
0.1
 48
0.1
 73
     0
 74
     0
 75
     1
 76
     1
 77
     1
 78
     8
 79
     2
140
3.5
141
0.0
143
0.0393701
146
0.71
147
1.5
172
     1
176
   256
177
   256
178
     2
271
     2
272
     3
274
     4
283
     0
284
     8
340
11
371
    -1
372
    -1
1001
ACAD_DSTYLE_DIMBREAK
1070
   391
1040
3.75
1001
ACAD_DSTYLE_DIMJAG
1070
   388
1040
1.5
1001
ACAD_DSTYLE_DIMJOGGED_JOGANGLE_SYMBOL
1070
   384
1040
1.570796326794896
1001
ACAD_DSTYLE_DIM_LINETYPE
1070
   380
1005
14
1001
ACAD_DSTYLE_DIM_EXT1_LINETYPE
1070
   381
1005
14
1001
ACAD_DSTYLE_DIM_EXT2_LINETYPE
1070
   382
1005
14
  0
DIMSTYLE
105
4F2
330
A
100
AcDbSymbolTableRecord
100
AcDbDimStyleTableRecord
  2
AM_DIN$SH
 70
     0
  4
"
 41
3.5
 42
1.0
 43
10.0
 44
1.0
 47
0.1
 48
0.1
 73
     0
 74
     0
 75
     1
 76
     1
 77
     1
 78
     8
 79
     2
140
3.5
141
0.0
143
0.0393701
144
2.0
146
0.71
147
1.5
172
     1
173
     1
176
   256
177
   256
178
     2
271
     2
272
     3
274
     4
283
     0
284
     8
340
11
343
4EE
371
    -1
372
    -1
1001
ACAD_DSTYLE_DIMBREAK
1070
   391
1040
3.75
1001
ACAD_DSTYLE_DIMJAG
1070
   388
1040
1.5
1001
ACAD_DSTYLE_DIMJOGGED_JOGANGLE_SYMBOL
1070
   384
1040
1.570796326794896
1001
ACAD_DSTYLE_DIM_LINETYPE
1070
   380
1005
14
1001
ACAD_DSTYLE_DIM_EXT1_LINETYPE
1070
   381
1005
14
1001
ACAD_DSTYLE_DIM_EXT2_LINETYPE
1070
   382
1005
14
  0
ENDTAB
  0
TABLE
  2
BLOCK_RECORD
  5
1
330
0
100
AcDbSymbolTable
 70
    15
  0
BLOCK_RECORD
  5
214
330
1
100
AcDbSymbolTableRecord
100
AcDbBlockTableRecord
  2
*Model_Space
340
41A
  0
BLOCK_RECORD
  5
215
330
1
100
AcDbSymbolTableRecord
100
AcDbBlockTableRecord
  2
*Paper_Space
340
41B
  0
BLOCK_RECORD
  5
216
330
1
100
AcDbSymbolTableRecord
100
AcDbBlockTableRecord
  2
_FILLED
340
0
102
{BLKREFS
331
519
331
51A
331
52F
331
530
331
545
331
546
331
54F
331
550
331
55B
331
55C
331
565
331
566
331
571
331
572
331
595
331
596
331
59E
331
59F
331
5A7
331
5A8
102
}
  0
BLOCK_RECORD
  5
217
330
1
100
AcDbSymbolTableRecord
100
AcDbBlockTableRecord
  2
*D1
340
0
  0
BLOCK_RECORD
  5
218
330
1
100
AcDbSymbolTableRecord
100
AcDbBlockTableRecord
  2
*D2
340
0
  0
BLOCK_RECORD
  5
219
330
1
100
AcDbSymbolTableRecord
100
AcDbBlockTableRecord
  2
*D3
340
0
  0
BLOCK_RECORD
  5
21A
330
1
100
AcDbSymbolTableRecord
100
AcDbBlockTableRecord
  2
*D4
340
0
  0
BLOCK_RECORD
  5
21B
330
1
100
AcDbSymbolTableRecord
100
AcDbBlockTableRecord
  2
*D5
340
0
  0
BLOCK_RECORD
  5
4EE
330
1
100
AcDbSymbolTableRecord
100
AcDbBlockTableRecord
  2
GENAXEH
340
0
  0
ENDTAB
  0
ENDSEC
  0
SECTION
  2
BLOCKS
  0
BLOCK
  5
20
330
214
100
AcDbEntity
  8
0
100
AcDbBlockBegin
  2
*Model_Space
 70
     0
 10
0.0
 20
0.0
 30
0.0
  3
*Model_Space
  1

  0
ENDBLK
  5
21
330
214
100
AcDbEntity
  8
0
100
AcDbBlockEnd
  0
BLOCK
  5
1C
330
215
100
AcDbEntity
 67
     1
  8
0
100
AcDbBlockBegin
  2
*Paper_Space
 70
     0
 10
0.0
 20
0.0
 30
0.0
  3
*Paper_Space
  1

  0
ENDBLK
  5
1D
330
215
100
AcDbEntity
 67
     1
  8
0
100
AcDbBlockEnd
  0
BLOCK
  5
220
330
216
100
AcDbEntity
  8
0
100
AcDbBlockBegin
  2
_FILLED
 70
     0
 10
0.0
 20
0.0
 30
0.0
  3
_FILLED
  1

  0
SOLID
  5
221
330
216
100
AcDbEntity
  8
0
  6
ByBlock
 62
     0
100
AcDbTrace
 10
0.0
 20
0.0
 30
0.0
 11
-1.0
 21
0.125
 31
0.0
 12
-1.0
 22
-0.125
 32
0.0
 13
-1.0
 23
-0.125
 33
0.0
  0
ENDBLK
  5
222
330
216
100
AcDbEntity
  8
0
  6
ByBlock
 62
     0
100
AcDbBlockEnd
  0
BLOCK
  5
223
330
217
100
AcDbEntity
  8
ZEICHNUNGSBEMASSUNGEN
  6
Continuous
 62
     2
100
AcDbBlockBegin
  2
*D1
 70
     1
 10
0.0
 20
0.0
 30
0.0
  3
*D1
  1

  0
LINE
  5
54C
330
217
100
AcDbEntity
  8
ZEICHNUNGSBEMASSUNGEN
  6
Continuous
 62
     0
370
    -2
100
AcDbLine
 10
445.9850129894
 20
375.5687819048
 30
0.0
 11
445.9850129894
 21
414.2512158446
 31
0.0
  0
LINE
  5
54D
330
217
100
AcDbEntity
  8
ZEICHNUNGSBEMASSUNGEN
  6
Continuous
 62
     0
370
    -2
100
AcDbLine
 10
600.5003173226
 20
375.5687819048
 30
0.0
 11
600.5003173226
 21
414.2512158446
 31
0.0
  0
LINE
  5
54E
330
217
100
AcDbEntity
  8
ZEICHNUNGSBEMASSUNGEN
  6
Continuous
 62
     0
370
    -2
100
AcDbLine
 10
450.9850129894
 20
414.0712158446
 30
0.0
 11
595.5003173226
 21
414.0712158446
 31
0.0
  0
INSERT
  5
54F
330
217
100
AcDbEntity
  8
ZEICHNUNGSBEMASSUNGEN
  6
Continuous
 62
     0
370
    -2
100
AcDbBlockReference
  2
_FILLED
 10
445.9850129894
 20
414.0712158446
 30
0.0
 41
5.0
 42
5.0
 43
5.0
 50
180.0
  0
INSERT
  5
550
330
217
100
AcDbEntity
  8
ZEICHNUNGSBEMASSUNGEN
  6
Continuous
 62
     0
370
    -2
100
AcDbBlockReference
  2
_FILLED
 10
600.5003173226
 20
414.0712158446
 30
0.0
 41
5.0
 42
5.0
 43
5.0
  0
MTEXT
  5
551
330
217
100
AcDbEntity
  8
ZEICHNUNGSBEMASSUNGEN
  6
Continuous
100
AcDbMText
 10
520.3259984893
 20
422.5712158446
 30
0.0
 40
7.0
 41
0.0
 71
     2
 72
     1
  1
\A1;%%c155
 73
     1
 44
1.0
1001
ACAD
1000
MTEXTBEGIN
1070
    73
1070
     1
1070
    44
1040
1.0
1070
    74
1070
     0
1000
MTEXTEND
  0
POINT
  5
552
330
217
100
AcDbEntity
  8
Defpoints
  6
Continuous
 62
     0
100
AcDbPoint
 10
445.9850129894
 20
375.5062819048001
 30
0.0
  0
POINT
  5
553
330
217
100
AcDbEntity
  8
Defpoints
  6
Continuous
 62
     0
100
AcDbPoint
 10
600.5003173226
 20
375.5062819048001
 30
0.0
  0
POINT
  5
554
330
217
100
AcDbEntity
  8
Defpoints
  6
Continuous
 62
     0
100
AcDbPoint
 10
600.5003173226
 20
414.0712158446
 30
0.0
  0
ENDBLK
  5
22D
330
217
100
AcDbEntity
  8
0
  6
ByBlock
 62
     0
100
AcDbBlockEnd
  0
BLOCK
  5
22E
330
218
100
AcDbEntity
  8
ZEICHNUNGSBEMASSUNGEN
  6
Continuous
 62
     2
100
AcDbBlockBegin
  2
*D2
 70
     1
 10
0.0
 20
0.0
 30
0.0
  3
*D2
  1

  0
LINE
  5
592
330
218
100
AcDbEntity
  8
ZEICHNUNGSBEMASSUNGEN
  6
Continuous
 62
     0
370
    -2
100
AcDbLine
 10
433.2426651559999
 20
381.1011498373001
 30
0.0
 11
433.2426651559999
 21
424.8194834550536
 31
0.0
  0
LINE
  5
593
330
218
100
AcDbEntity
  8
ZEICHNUNGSBEMASSUNGEN
  6
Continuous
 62
     0
370
    -2
100
AcDbLine
 10
613.2426651559999
 20
381.1011498373001
 30
0.0
 11
613.2426651559999
 21
424.8194834550536
 31
0.0
  0
LINE
  5
594
330
218
100
AcDbEntity
  8
ZEICHNUNGSBEMASSUNGEN
  6
Continuous
 62
     0
370
    -2
100
AcDbLine
 10
438.242665156
 20
424.6394834550535
 30
0.0
 11
608.2426651559999
 21
424.6394834550535
 31
0.0
  0
INSERT
  5
595
330
218
100
AcDbEntity
  8
ZEICHNUNGSBEMASSUNGEN
  6
Continuous
 62
     0
370
    -2
100
AcDbBlockReference
  2
_FILLED
 10
433.2426651559999
 20
424.6394834550535
 30
0.0
 41
5.0
 42
5.0
 43
5.0
 50
180.0
  0
INSERT
  5
596
330
218
100
AcDbEntity
  8
ZEICHNUNGSBEMASSUNGEN
  6
Continuous
 62
     0
370
    -2
100
AcDbBlockReference
  2
_FILLED
 10
613.2426651559999
 20
424.6394834550535
 30
0.0
 41
5.0
 42
5.0
 43
5.0
  0
MTEXT
  5
597
330
218
100
AcDbEntity
  8
ZEICHNUNGSBEMASSUNGEN
  6
Continuous
100
AcDbMText
 10
521.243394025174
 20
433.1394834550535
 30
0.0
 40
7.0
 41
0.0
 71
     2
 72
     1
  1
\A1;%%c180
 73
     1
 44
1.0
1001
ACAD
1000
MTEXTBEGIN
1070
    73
1070
     1
1070
    44
1040
1.0
1070
    74
1070
     0
1000
MTEXTEND
  0
POINT
  5
598
330
218
100
AcDbEntity
  8
Defpoints
  6
Continuous
 62
     0
100
AcDbPoint
 10
433.2426651559999
 20
381.0386498373
 30
0.0
  0
POINT
  5
599
330
218
100
AcDbEntity
  8
Defpoints
  6
Continuous
 62
     0
100
AcDbPoint
 10
613.2426651559999
 20
381.0386498373
 30
0.0
  0
POINT
  5
59A
330
218
100
AcDbEntity
  8
Defpoints
  6
Continuous
 62
     0
100
AcDbPoint
 10
613.2426651559999
 20
424.6394834550535
 30
0.0
  0
ENDBLK
  5
236
330
218
100
AcDbEntity
  8
0
  6
ByBlock
 62
     0
100
AcDbBlockEnd
  0
BLOCK
  5
237
330
219
100
AcDbEntity
  8
ZEICHNUNGSBEMASSUNGEN
  6
Continuous
 62
     2
100
AcDbBlockBegin
  2
*D3
 70
     1
 10
0.0
 20
0.0
 30
0.0
  3
*D3
  1

  0
LINE
  5
562
330
219
100
AcDbEntity
  8
ZEICHNUNGSBEMASSUNGEN
  6
Continuous
 62
     0
370
    -2
100
AcDbLine
 10
486.180165154
 20
235.4462158446
 30
0.0
 11
422.1316500127
 21
235.4462158446001
 31
0.0
  0
LINE
  5
563
330
219
100
AcDbEntity
  8
ZEICHNUNGSBEMASSUNGEN
  6
Continuous
 62
     0
370
    -2
100
AcDbLine
 10
456.6439832156
 20
382.341783123
 30
0.0
 11
422.1316500127
 21
382.341783123
 31
0.0
  0
LINE
  5
564
330
219
100
AcDbEntity
  8
ZEICHNUNGSBEMASSUNGEN
  6
Continuous
 62
     0
370
    -2
100
AcDbLine
 10
422.3116500127
 20
240.4462158446
 30
0.0
 11
422.3116500127
 21
377.341783123
 31
0.0
  0
INSERT
  5
565
330
219
100
AcDbEntity
  8
ZEICHNUNGSBEMASSUNGEN
  6
Continuous
 62
     0
370
    -2
100
AcDbBlockReference
  2
_FILLED
 10
422.3116500127
 20
235.4462158446001
 30
0.0
 41
5.0
 42
5.0
 43
5.0
 50
270.0
  0
INSERT
  5
566
330
219
100
AcDbEntity
  8
ZEICHNUNGSBEMASSUNGEN
  6
Continuous
 62
     0
370
    -2
100
AcDbBlockReference
  2
_FILLED
 10
422.3116500127
 20
382.341783123
 30
0.0
 41
5.0
 42
5.0
 43
5.0
 50
90.0
  0
MTEXT
  5
567
330
219
100
AcDbEntity
  8
ZEICHNUNGSBEMASSUNGEN
  6
Continuous
100
AcDbMText
 10
413.8116500126999
 20
305.5415119953
 30
0.0
 40
7.0
 41
0.0
 71
     2
 72
     1
  1
\A1;147
 11
0.0000000000000001
 21
1.0
 31
0.0
 73
     1
 44
1.0
1001
ACAD
1000
MTEXTBEGIN
1070
    73
1070
     1
1070
    44
1040
1.0
1070
    74
1070
     0
1000
MTEXTEND
  0
POINT
  5
568
330
219
100
AcDbEntity
  8
Defpoints
  6
Continuous
 62
     0
100
AcDbPoint
 10
486.2426651539999
 20
235.4462158446
 30
0.0
  0
POINT
  5
569
330
219
100
AcDbEntity
  8
Defpoints
  6
Continuous
 62
     0
100
AcDbPoint
 10
456.7064832155999
 20
382.341783123
 30
0.0
  0
POINT
  5
56A
330
219
100
AcDbEntity
  8
Defpoints
  6
Continuous
 62
     0
100
AcDbPoint
 10
422.3116500127
 20
382.341783123
 30
0.0
  0
ENDBLK
  5
23F
330
219
100
AcDbEntity
  8
0
  6
ByBlock
 62
     0
100
AcDbBlockEnd
  0
BLOCK
  5
240
330
21A
100
AcDbEntity
  8
ZEICHNUNGSBEMASSUNGEN
  6
Continuous
 62
     2
100
AcDbBlockBegin
  2
*D4
 70
     1
 10
0.0
 20
0.0
 30
0.0
  3
*D4
  1

  0
LINE
  5
5A4
330
21A
100
AcDbEntity
  8
ZEICHNUNGSBEMASSUNGEN
  6
Continuous
 62
     0
370
    -2
100
AcDbLine
 10
589.8413464553
 20
382.3417831454
 30
0.0
 11
669.532949908308
 21
382.3417831454
 31
0.0
  0
LINE
  5
5A5
330
21A
100
AcDbEntity
  8
ZEICHNUNGSBEMASSUNGEN
  6
Continuous
 62
     0
370
    -2
100
AcDbLine
 10
662.8051651559999
 20
274.4462158446
 30
0.0
 11
669.5329499083079
 21
274.4462158446
 31
0.0
  0
LINE
  5
5A6
330
21A
100
AcDbEntity
  8
ZEICHNUNGSBEMASSUNGEN
  6
Continuous
 62
     0
370
    -2
100
AcDbLine
 10
669.352949908308
 20
377.3417831454
 30
0.0
 11
669.352949908308
 21
279.4462158446
 31
0.0
  0
INSERT
  5
5A7
330
21A
100
AcDbEntity
  8
ZEICHNUNGSBEMASSUNGEN
  6
Continuous
 62
     0
370
    -2
100
AcDbBlockReference
  2
_FILLED
 10
669.352949908308
 20
382.3417831454
 30
0.0
 41
5.0
 42
5.0
 43
5.0
 50
90.0
  0
INSERT
  5
5A8
330
21A
100
AcDbEntity
  8
ZEICHNUNGSBEMASSUNGEN
  6
Continuous
 62
     0
370
    -2
100
AcDbBlockReference
  2
_FILLED
 10
669.352949908308
 20
274.4462158446
 30
0.0
 41
5.0
 42
5.0
 43
5.0
 50
270.0
  0
MTEXT
  5
5A9
330
21A
100
AcDbEntity
  8
ZEICHNUNGSBEMASSUNGEN
  6
Continuous
100
AcDbMText
 10
660.8529499083078
 20
324.8644515115527
 30
0.0
 40
7.0
 41
0.0
 71
     2
 72
     1
  1
\A1;108
 11
0.0000000000000001
 21
1.0
 31
0.0
 73
     1
 44
1.0
1001
ACAD
1000
MTEXTBEGIN
1070
    73
1070
     1
1070
    44
1040
1.0
1070
    74
1070
     0
1000
MTEXTEND
  0
POINT
  5
5AA
330
21A
100
AcDbEntity
  8
Defpoints
  6
Continuous
 62
     0
100
AcDbPoint
 10
589.7788464553
 20
382.3417831454
 30
0.0
  0
POINT
  5
5AB
330
21A
100
AcDbEntity
  8
Defpoints
  6
Continuous
 62
     0
100
AcDbPoint
 10
662.7426651559999
 20
274.4462158446
 30
0.0
  0
POINT
  5
5AC
330
21A
100
AcDbEntity
  8
Defpoints
  6
Continuous
 62
     0
100
AcDbPoint
 10
669.352949908308
 20
274.4462158446
 30
0.0
  0
ENDBLK
  5
248
330
21A
100
AcDbEntity
  8
0
  6
ByBlock
 62
     0
100
AcDbBlockEnd
  0
BLOCK
  5
249
330
21B
100
AcDbEntity
  8
ZEICHNUNGSBEMASSUNGEN
  6
Continuous
 62
     2
100
AcDbBlockBegin
  2
*D5
 70
     1
 10
0.0
 20
0.0
 30
0.0
  3
*D5
  1

  0
LINE
  5
59B
330
21B
100
AcDbEntity
  8
ZEICHNUNGSBEMASSUNGEN
  6
Continuous
 62
     0
370
    -2
100
AcDbLine
 10
523.2426651559999
 20
230.7637110444
 30
0.0
 11
523.2426651559999
 21
222.8233301054368
 31
0.0
  0
LINE
  5
59C
330
21B
100
AcDbEntity
  8
ZEICHNUNGSBEMASSUNGEN
  6
Continuous
 62
     0
370
    -2
100
AcDbLine
 10
658.2426651559999
 20
233.8837158446
 30
0.0
 11
658.2426651559999
 21
222.8233301054368
 31
0.0
  0
LINE
  5
59D
330
21B
100
AcDbEntity
  8
ZEICHNUNGSBEMASSUNGEN
  6
Continuous
 62
     0
370
    -2
100
AcDbLine
 10
528.2426651559999
 20
223.0033301054368
 30
0.0
 11
653.2426651559999
 21
223.0033301054368
 31
0.0
  0
INSERT
  5
59E
330
21B
100
AcDbEntity
  8
ZEICHNUNGSBEMASSUNGEN
  6
Continuous
 62
     0
370
    -2
100
AcDbBlockReference
  2
_FILLED
 10
523.2426651559999
 20
223.0033301054368
 30
0.0
 41
5.0
 42
5.0
 43
5.0
 50
180.0
  0
INSERT
  5
59F
330
21B
100
AcDbEntity
  8
ZEICHNUNGSBEMASSUNGEN
  6
Continuous
 62
     0
370
    -2
100
AcDbBlockReference
  2
_FILLED
 10
658.2426651559999
 20
223.0033301054368
 30
0.0
 41
5.0
 42
5.0
 43
5.0
  0
MTEXT
  5
5A0
330
21B
100
AcDbEntity
  8
ZEICHNUNGSBEMASSUNGEN
  6
Continuous
100
AcDbMText
 10
589.3439030863946
 20
231.5033301054368
 30
0.0
 40
7.0
 41
0.0
 71
     2
 72
     1
  1
\A1;135
 73
     1
 44
1.0
1001
ACAD
1000
MTEXTBEGIN
1070
    73
1070
     1
1070
    44
1040
1.0
1070
    74
1070
     0
1000
MTEXTEND
  0
POINT
  5
5A1
330
21B
100
AcDbEntity
  8
Defpoints
  6
Continuous
 62
     0
100
AcDbPoint
 10
523.2426651559999
 20
230.8262110444
 30
0.0
  0
POINT
  5
5A2
330
21B
100
AcDbEntity
  8
Defpoints
  6
Continuous
 62
     0
100
AcDbPoint
 10
658.2426651559999
 20
233.9462158446
 30
0.0
  0
POINT
  5
5A3
330
21B
100
AcDbEntity
  8
Defpoints
  6
Continuous
 62
     0
100
AcDbPoint
 10
658.2426651559999
 20
223.0033301054368
 30
0.0
  0
ENDBLK
  5
251
330
21B
100
AcDbEntity
  8
0
  6
ByBlock
 62
     0
100
AcDbBlockEnd
  0
BLOCK
  5
4F0
330
4EE
100
AcDbEntity
  8
0
100
AcDbBlockBegin
  2
GENAXEH
 70
     0
 10
0.0
 20
0.0
 30
0.0
  3
GENAXEH
  1

  0
LINE
  5
4EF
330
4EE
100
AcDbEntity
  8
0
100
AcDbLine
 10
-1.0
 20
0.0
 30
0.0
 11
1.0
 21
0.0
 31
0.0
  0
ENDBLK
  5
4F1
330
4EE
100
AcDbEntity
  8
0
100
AcDbBlockEnd
  0
ENDSEC
  0
SECTION
  2
ENTITIES
  0
HATCH
  5
252
330
214
100
AcDbEntity
  8
0
  6
Continuous
 62
     1
100
AcDbHatch
 10
0.0
 20
0.0
 30
0.0
210
0.0
220
0.0
230
1.0
  2
DEFAULT__1
 70
     0
 71
     0
 91
        2
 92
        1
 93
       54
 72
     1
 10
487.7426651559999
 20
235.4462158446
 11
543.2426651559999
 21
235.4462158446
 72
     4
 94
        3
 73
     1
 74
     0
 95
        8
 96
        4
 40
0.0
 40
0.0
 40
0.0
 40
0.0
 40
1.0
 40
1.0
 40
1.0
 40
1.0
 10
487.7426651559999
 20
235.4462158446
 42
1.0
 10
481.8848007797
 20
235.4462158446
 42
0.8047378541
 10
477.7426651559999
 20
239.5883514683
 42
0.8047378541
 10
477.7426651559999
 20
245.4462158446
 42
1.0
 72
     1
 10
477.7426651559999
 20
245.4462158446
 11
477.7426651559999
 21
268.9838761018
 72
     4
 94
        3
 73
     1
 74
     0
 95
        8
 96
        4
 40
0.0
 40
0.0
 40
0.0
 40
0.0
 40
1.0
 40
1.0
 40
1.0
 40
1.0
 10
474.8996730246999
 20
271.9797647061
 42
1.0
 10
476.5826147263
 20
271.8915654688
 42
0.8169162473
 10
477.7426651559999
 20
270.6691273817
 42
0.8169162473
 10
477.7426651559999
 20
268.9838761018
 42
1.0
 72
     1
 10
470.0250315772
 20
272.2352338391
 11
474.8996730246999
 21
271.9797647061
 72
     4
 94
        3
 73
     1
 74
     0
 95
        8
 96
        4
 40
0.0
 40
0.0
 40
0.0
 40
0.0
 40
1.0
 40
1.0
 40
1.0
 40
1.0
 10
467.4742835928999
 20
273.939589153
 42
1.0
 10
467.9600485827999
 20
272.9211616726
 42
0.906270941
 10
468.898233059
 20
272.2942868472
 42
0.906270941
 10
470.0250315772
 20
272.2352338391
 42
1.0
 72
     1
 10
454.1703516587999
 20
301.8318624921
 11
467.4742835928999
 21
273.939589153
 72
     4
 94
        3
 73
     1
 74
     0
 95
        8
 96
        4
 40
0.0
 40
0.0
 40
0.0
 40
0.0
 40
1.0
 40
1.0
 40
1.0
 40
1.0
 10
454.1703516587999
 20
301.8318624921
 42
1.0
 10
453.8739779662
 20
302.4532228603
 42
0.986030315
 10
453.7103495576999
 20
303.1219169732
 42
0.986030315
 10
453.6863239454
 20
303.8099204926
 42
1.0
 72
     1
 10
452.2998795546
 20
343.5124932316
 11
453.6863239454
 21
303.8099204926
 72
     4
 94
        3
 73
     1
 74
     0
 95
        8
 96
        4
 40
0.0
 40
0.0
 40
0.0
 40
0.0
 40
1.0
 40
1.0
 40
1.0
 40
1.0
 10
452.2998794812999
 20
343.5124976745
 42
1.0
 10
452.2752367953
 20
344.2181724086
 42
0.9853168037000001
 10
452.1038476529
 20
344.9031613530999
 42
0.9853168037000001
 10
451.7932616751999
 20
345.5372910267
 42
1.0
 72
     1
 10
451.793261536
 20
345.5372910556
 11
451.6545874737999
 21
345.820424407
 72
     4
 94
        3
 73
     1
 74
     0
 95
        8
 96
        4
 40
0.0
 40
0.0
 40
0.0
 40
0.0
 40
1.0
 40
1.0
 40
1.0
 40
1.0
 10
451.6545876493999
 20
345.8204244522
 42
1.0
 10
451.3440008422
 20
346.4545544229
 42
0.9853167777999999
 10
451.1726110779
 20
347.1395438631
 42
0.9853167777999999
 10
451.1479680184
 20
347.8452192165
 42
1.0
 72
     1
 10
450.8538210683
 20
356.2684819594001
 11
451.1479678021999
 21
347.8452215851
 72
     4
 94
        3
 73
     1
 74
     0
 95
        8
 96
        4
 40
0.0
 40
0.0
 40
0.0
 40
0.0
 40
1.0
 40
1.0
 40
1.0
 40
1.0
 10
448.6315844975
 20
359.0617005597
 42
1.0
 10
449.9538365039
 20
358.707659094
 42
0.8692022420999998
 10
450.8060495881999
 20
357.6364781631
 42
0.8692022420999998
 10
450.8538210683
 20
356.2684819594001
 42
1.0
 72
     4
 94
        3
 73
     1
 74
     0
 95
        8
 96
        4
 40
0.0
 40
0.0
 40
0.0
 40
0.0
 40
1.0
 40
1.0
 40
1.0
 40
1.0
 10
448.6315844975
 20
359.0617005597
 42
1.0
 10
447.3093324912
 20
359.4157420254
 42
0.8692022420999998
 10
446.4571194068999
 20
360.4869229563
 42
0.8692022420999998
 10
446.4093479268
 20
361.85491916
 42
1.0
 72
     1
 10
446.4093479268
 20
361.85491916
 11
446.0792839333
 21
371.3067152773001
 72
     4
 94
        3
 73
     1
 74
     0
 95
        8
 96
        4
 40
0.0
 40
0.0
 40
0.0
 40
0.0
 40
1.0
 40
1.0
 40
1.0
 40
1.0
 10
443.2903808735
 20
374.194708938
 42
1.0
 10
444.9012164515
 20
374.0820683413999
 42
0.828763217
 10
446.0229293053
 20
372.9205006779
 42
0.828763217
 10
446.0792839333
 20
371.3067152773001
 42
1.0
 72
     1
 10
443.2903808735
 20
374.194708938
 11
435.1031522084999
 21
374.7672157372
 72
     4
 94
        3
 73
     1
 74
     0
 95
        8
 96
        4
 40
0.0
 40
0.0
 40
0.0
 40
0.0
 40
1.0
 40
1.0
 40
1.0
 40
1.0
 10
435.1031522084999
 20
374.7672157372
 42
1.0
 10
433.9981292643
 20
374.8444864688
 42
0.8209024677
 10
433.2426651559999
 20
375.6546225401
 42
0.8209024677
 10
433.2426651559999
 20
376.7623438377
 42
1.0
 72
     1
 10
433.2426651559999
 20
376.7623438377
 11
433.2426651559999
 21
379.5386498373001
 72
     4
 94
        3
 73
     1
 74
     0
 95
        8
 96
        4
 40
0.0
 40
0.0
 40
0.0
 40
0.0
 40
1.0
 40
1.0
 40
1.0
 40
1.0
 10
433.2426651559999
 20
379.5386498373001
 42
1.0
 10
433.2426651559999
 20
380.6780506348001
 42
0.8128932001999999
 10
434.0341594573
 20
381.497666977
 42
0.8128932001999999
 10
435.1728661626
 20
381.5374314914
 42
1.0
 72
     1
 10
435.1728661626
 20
381.5374314914
 11
458.2064824230999
 21
382.3417830954
 72
     4
 94
        3
 73
     1
 74
     0
 95
        8
 96
        4
 40
0.0
 40
0.0
 40
0.0
 40
0.0
 40
1.0
 40
1.0
 40
1.0
 40
1.0
 10
458.2064824230999
 20
382.3417830954
 42
1.0
 10
458.80672515
 20
382.3627440333
 42
0.7972118188
 10
459.2394392120999
 20
381.9462236466001
 42
0.7972118188
 10
459.2413767165
 20
381.3456181703
 42
1.0
 72
     1
 10
459.242665156
 20
380.9462158446
 11
459.2413767165
 21
381.3456181703
 72
     1
 10
459.242665156
 20
375.9289131076999
 11
459.242665156
 21
380.9462158446
 72
     4
 94
        3
 73
     1
 74
     0
 95
        8
 96
        4
 40
0.0
 40
0.0
 40
0.0
 40
0.0
 40
1.0
 40
1.0
 40
1.0
 40
1.0
 10
459.242665156
 20
375.9289131076999
 42
1.0
 10
459.242665156
 20
375.351201173
 42
0.8088336328
 10
458.8377415087999
 20
374.939147876
 42
0.8088336328
 10
458.2601175623999
 20
374.9290654125
 42
1.0
 72
     1
 10
453.2252127495
 20
374.8411808221
 11
458.2601175623999
 21
374.9290654125
 72
     4
 94
        3
 73
     1
 74
     0
 95
        8
 96
        4
 40
0.0
 40
0.0
 40
0.0
 40
0.0
 40
1.0
 40
1.0
 40
1.0
 40
1.0
 10
452.242665156
 20
373.841333127
 42
1.0
 10
452.242665156
 20
374.4190450616999
 42
0.8088336328
 10
452.6475888031
 20
374.8310983586
 42
0.8088336328
 10
453.2252127495
 20
374.8411808221
 42
1.0
 72
     1
 10
452.242665156
 20
364.8067276532
 11
452.242665156
 21
373.841333127
 72
     4
 94
        3
 73
     1
 74
     0
 95
        8
 96
        4
 40
0.0
 40
0.0
 40
0.0
 40
0.0
 40
1.0
 40
1.0
 40
1.0
 40
1.0
 10
453.2252127495
 20
363.806879958
 42
1.0
 10
452.6475888031
 20
363.8169624215
 42
0.8088336328
 10
452.242665156
 20
364.2290157185
 42
0.8088336328
 10
452.242665156
 20
364.8067276532
 42
1.0
 72
     1
 10
458.3189147102999
 20
363.7179690596
 11
453.2252127495
 21
363.806879958
 72
     4
 94
        3
 73
     1
 74
     0
 95
        8
 96
        4
 40
0.0
 40
0.0
 40
0.0
 40
0.0
 40
1.0
 40
1.0
 40
1.0
 40
1.0
 10
458.3189147102999
 20
363.7179690596
 42
1.0
 10
458.8950534023
 20
363.7079125213
 42
0.8095867034000001
 10
459.2995982505999
 20
363.2975707222
 42
0.8095867034000001
 10
459.3014571007
 20
362.7213472664
 42
1.0
 72
     1
 10
459.4904917176999
 20
304.1226553561
 11
459.3014571007
 21
362.7213472664
 72
     4
 94
        3
 73
     1
 74
     0
 95
        8
 96
        4
 40
0.0
 40
0.0
 40
0.0
 40
0.0
 40
1.0
 40
1.0
 40
1.0
 40
1.0
 10
459.7827202548999
 20
302.8407997715
 42
1.0
 10
459.5909424764
 20
303.2428702455
 42
0.9837980176
 10
459.4919287451999
 20
303.677192319
 42
0.9837980176
 10
459.4904917176999
 20
304.1226553561
 42
1.0
 72
     1
 10
468.9779677421999
 20
283.56256251
 11
459.7827202548999
 21
302.8407997715
 72
     4
 94
        3
 73
     1
 74
     0
 95
        8
 96
        4
 40
0.0
 40
0.0
 40
0.0
 40
0.0
 40
1.0
 40
1.0
 40
1.0
 40
1.0
 10
469.8282170703
 20
282.9944440721
 42
1.0
 10
469.4526175643
 20
283.0141284081
 42
0.906270941
 10
469.1398894055
 20
283.2230866831999
 42
0.906270941
 10
468.9779677421999
 20
283.56256251
 42
1.0
 72
     1
 10
484.7950011122
 20
282.2100681574
 11
469.8282170703
 21
282.9944440721
 72
     4
 94
        3
 73
     1
 74
     0
 95
        8
 96
        4
 40
0.0
 40
0.0
 40
0.0
 40
0.0
 40
1.0
 40
1.0
 40
1.0
 40
1.0
 10
484.7950011122
 20
282.2100681574
 42
1.0
 10
485.3559816794
 20
282.1806684116999
 42
0.8169162473
 10
485.7426651559999
 20
281.7731890493
 42
0.8169162473
 10
485.7426651559999
 20
281.2114386227
 42
1.0
 72
     1
 10
485.7426651559999
 20
271.1431004525
 11
485.7426651559999
 21
281.2114386227
 72
     4
 94
        3
 73
     1
 74
     0
 95
        8
 96
        4
 40
0.0
 40
0.0
 40
0.0
 40
0.0
 40
1.0
 40
1.0
 40
1.0
 40
1.0
 10
486.7252127495
 20
270.1432527573
 42
1.0
 10
486.1475888030999
 20
270.1533352208
 42
0.8088336328
 10
485.7426651559999
 20
270.5653885177
 42
0.8088336328
 10
485.7426651559999
 20
271.1431004525
 42
1.0
 72
     1
 10
492.2601175624
 20
270.0466406344
 11
486.7252127495
 21
270.1432527573
 72
     4
 94
        3
 73
     1
 74
     0
 95
        8
 96
        4
 40
0.0
 40
0.0
 40
0.0
 40
0.0
 40
1.0
 40
1.0
 40
1.0
 40
1.0
 10
492.2601175624
 20
270.0466406344
 42
1.0
 10
492.8377415087999
 20
270.036558171
 42
0.8088336328
 10
493.242665156
 20
269.624504874
 42
0.8088336328
 10
493.242665156
 20
269.0467929393
 42
1.0
 72
     1
 10
493.242665156
 20
264.9296425138
 11
493.242665156
 21
269.0467929393
 72
     2
 10
492.2425846951999
 20
264.9295536415
 40
1.0000720555
 50
270.0049038434999
 51
360.0050749665
 73
     1
 72
     1
 10
492.2426700492
 20
263.9294902024
 11
485.2426811869
 21
263.9294902024
 72
     2
 10
485.242862654
 20
261.9293283406
 40
2.000182942499999
 50
90.0051976393
 51
180.0040909139
 73
     1
 72
     1
 10
483.2426651559999
 20
245.4462158446
 11
483.2426651559999
 21
261.9291857164
 72
     4
 94
        3
 73
     1
 74
     0
 95
        8
 96
        4
 40
0.0
 40
0.0
 40
0.0
 40
0.0
 40
1.0
 40
1.0
 40
1.0
 40
1.0
 10
487.7426651559999
 20
240.9462158446
 42
1.0
 10
485.1066261867
 20
240.9462158446
 42
0.8047378541
 10
483.242665156
 20
242.8101768753
 42
0.8047378541
 10
483.2426651559999
 20
245.4462158446
 42
1.0
 72
     1
 10
487.7426651559999
 20
240.9462158446
 11
578.2426651559999
 21
240.9462158446
 72
     1
 10
578.2426651559999
 20
240.9462158446
 11
593.2426651559999
 21
240.9462158446
 72
     1
 10
593.2426651559999
 20
240.9462158446
 11
658.2426651559999
 21
240.9462158446
 72
     1
 10
658.2426651559999
 20
240.9462158446
 11
658.2426651559999
 21
235.4462158446
 72
     1
 10
593.2426651559999
 20
235.4462158446
 11
658.2426651559999
 21
235.4462158446
 72
     1
 10
593.2426651559999
 20
235.4462158446
 11
543.2426651559999
 21
235.4462158446
 97
        0
 92
        1
 93
       51
 72
     1
 10
594.1854520399999
 20
343.5125299602
 11
593.2439316755999
 21
316.5509143347
 72
     4
 94
        3
 73
     1
 74
     0
 95
        8
 96
        4
 40
0.0
 40
0.0
 40
0.0
 40
0.0
 40
1.0
 40
1.0
 40
1.0
 40
1.0
 10
593.2439308266
 20
316.5509143777
 42
1.0
 10
593.1808878291
 20
314.7456233494
 42
0.7964387223000001
 10
594.4357126896
 20
313.4462139889
 42
0.7964387223000001
 10
596.2421041523
 20
313.4462145852
 42
1.0
 72
     1
 10
596.2421041566999
 20
313.4462158446
 11
658.2426651559999
 21
313.4462158446
 72
     1
 10
658.2426651559999
 20
313.4462158446
 11
658.2426651559999
 21
307.9462158446
 72
     1
 10
594.8775728977
 20
307.9462158446
 11
658.2426651559999
 21
307.9462158446
 72
     4
 94
        3
 73
     1
 74
     0
 95
        8
 96
        4
 40
0.0
 40
0.0
 40
0.0
 40
0.0
 40
1.0
 40
1.0
 40
1.0
 40
1.0
 10
594.8774650769999
 20
307.9462158416
 42
1.0
 10
593.7381135816
 20
307.9461544188
 42
0.8129056830999999
 10
592.9185540375
 20
307.1546722728
 42
0.8129056830999999
 10
592.8787912437
 20
306.0160148379
 42
1.0
 72
     1
 10
592.8787912437
 20
306.0160148379
 11
592.8017493866
 21
303.8098247043
 72
     4
 94
        3
 73
     1
 74
     0
 95
        8
 96
        4
 40
0.0
 40
0.0
 40
0.0
 40
0.0
 40
1.0
 40
1.0
 40
1.0
 40
1.0
 10
592.3174559717999
 20
301.8306808717
 42
1.0
 10
592.6139923552999
 20
302.4523823285
 42
0.986030315
 10
592.7777105857
 20
303.1214435133
 42
0.986030315
 10
592.8017493866
 20
303.8098247043
 42
1.0
 72
     1
 10
592.3174559717999
 20
301.8306808717
 11
579.0110659808
 21
273.9332541091
 72
     2
 10
576.31022909
 20
275.2207380623
 40
2.991985880199999
 50
272.9870622353
 51
334.5129486642
 73
     1
 72
     1
 10
576.4661441819
 20
272.2327917274
 11
571.5871032409999
 21
271.9770920266
 72
     2
 10
571.7435115235999
 20
268.9830725216999
 40
2.9980741099
 50
92.99042659299999
 51
180.0095651947
 73
     1
 72
     1
 10
568.7454098479999
 20
268.9825720093
 11
568.7454098479999
 21
266.925379552
 72
     4
 94
        3
 73
     0
 74
     0
 95
       18
 96
       14
 40
0.0
 40
0.0
 40
0.0
 40
0.0
 40
0.0909090909
 40
0.1818181818
 40
0.2727272727
 40
0.3636363636
 40
0.4545454545000001
 40
0.5454545455
 40
0.6363636364000001
 40
0.7272727273
 40
0.8181818181999998
 40
0.9090909091
 40
1.0
 40
1.0
 40
1.0
 40
1.0
 10
568.745396326
 20
266.9253795518
 10
568.7453821352
 20
266.7820749829
 10
568.7250818535
 20
266.498565854
 10
568.6339114974999
 20
266.0786702523
 10
568.4833678180999
 20
265.675938129
 10
568.2779420362999
 20
265.3001709669
 10
568.0195192974999
 20
264.9556658967
 10
567.7164445233
 20
264.6532528335
 10
567.3710680879
 20
264.3953326902
 10
566.9944271801
 20
264.1903902324
 10
566.590987635
 20
264.0403030507
 10
566.1704596082
 20
263.9494364515
 10
565.8865910641
 20
263.9292128838
 10
565.7431213244999
 20
263.9291993755
 72
     1
 10
565.7431213244999
 20
263.9291855463
 11
554.2426651566001
 21
263.9291855463
 72
     4
 94
        3
 73
     1
 74
     0
 95
        8
 96
        4
 40
0.0
 40
0.0
 40
0.0
 40
0.0
 40
1.0
 40
1.0
 40
1.0
 40
1.0
 10
554.242664935
 20
263.9291855569
 42
1.0
 10
553.6568787462
 20
263.9291856863
 42
0.8047379819999999
 10
553.2426653388999
 20
264.3433990519
 42
0.8047379819999999
 10
553.2426651505999
 20
264.9291852407
 42
1.0
 72
     1
 10
553.2426651559999
 20
264.9291855463
 11
553.2426651559999
 21
269.0467929393
 72
     4
 94
        3
 73
     1
 74
     0
 95
        8
 96
        4
 40
0.0
 40
0.0
 40
0.0
 40
0.0
 40
1.0
 40
1.0
 40
1.0
 40
1.0
 10
554.2252127494999
 20
270.0466406344
 42
1.0
 10
553.6475888031
 20
270.036558171
 42
0.8088336328
 10
553.2426651559999
 20
269.624504874
 42
0.8088336328
 10
553.2426651559999
 20
269.0467929393
 42
1.0
 72
     1
 10
554.2252127494999
 20
270.0466406344
 11
559.7601175623999
 21
270.1432527573
 72
     4
 94
        3
 73
     1
 74
     0
 95
        8
 96
        4
 40
0.0
 40
0.0
 40
0.0
 40
0.0
 40
1.0
 40
1.0
 40
1.0
 40
1.0
 10
559.7601175623999
 20
270.1432527573
 42
1.0
 10
560.3377415087999
 20
270.1533352208
 42
0.8088336328
 10
560.7426651559999
 20
270.5653885177
 42
0.8088336328
 10
560.7426651559999
 20
271.1431004525
 42
1.0
 72
     1
 10
560.7426651559999
 20
271.1431004525
 11
560.7426651559999
 21
281.2114386227
 72
     4
 94
        3
 73
     1
 74
     0
 95
        8
 96
        4
 40
0.0
 40
0.0
 40
0.0
 40
0.0
 40
1.0
 40
1.0
 40
1.0
 40
1.0
 10
561.6903291997
 20
282.2100681574
 42
1.0
 10
561.1293486325999
 20
282.1806684116999
 42
0.8169162473
 10
560.7426651559999
 20
281.7731890493
 42
0.8169162473
 10
560.7426651559999
 20
281.2114386227
 42
1.0
 72
     1
 10
561.6903291997
 20
282.2100681574
 11
576.6571132416999
 21
282.9944440721
 72
     4
 94
        3
 73
     1
 74
     0
 95
        8
 96
        4
 40
0.0
 40
0.0
 40
0.0
 40
0.0
 40
1.0
 40
1.0
 40
1.0
 40
1.0
 10
576.6571132416999
 20
282.9944440721
 42
1.0
 10
577.0327127476998
 20
283.0141284081
 42
0.906270941
 10
577.3454409065
 20
283.2230866831999
 42
0.906270941
 10
577.5073625698
 20
283.56256251
 42
1.0
 72
     1
 10
577.5073625698
 20
283.56256251
 11
586.702610057
 21
302.8407997715
 72
     4
 94
        3
 73
     1
 74
     0
 95
        8
 96
        4
 40
0.0
 40
0.0
 40
0.0
 40
0.0
 40
1.0
 40
1.0
 40
1.0
 40
1.0
 10
586.702610057
 20
302.8407997715
 42
1.0
 10
586.8943878356
 20
303.2428702455
 42
0.9837980176
 10
586.9934015666999
 20
303.677192319
 42
0.9837980176
 10
586.9948385942999
 20
304.1226553561
 42
1.0
 72
     1
 10
586.9948385942999
 20
304.1226553561
 11
587.0071730895999
 21
307.9462158445
 72
     1
 10
587.0071730895999
 20
307.9462158445
 11
587.1838732112999
 21
362.7213472664
 72
     4
 94
        3
 73
     1
 74
     0
 95
        8
 96
        4
 40
0.0
 40
0.0
 40
0.0
 40
0.0
 40
1.0
 40
1.0
 40
1.0
 40
1.0
 10
588.1664156016
 20
363.7179690596
 42
1.0
 10
587.5902769096
 20
363.7079125213
 42
0.8095867034000001
 10
587.1857320614
 20
363.2975707222
 42
0.8095867034000001
 10
587.1838732112999
 20
362.7213472664
 42
1.0
 72
     1
 10
588.1664156016
 20
363.7179690596
 11
593.2601175623999
 21
363.806879958
 72
     4
 94
        3
 73
     1
 74
     0
 95
        8
 96
        4
 40
0.0
 40
0.0
 40
0.0
 40
0.0
 40
1.0
 40
1.0
 40
1.0
 40
1.0
 10
593.2601175623999
 20
363.806879958
 42
1.0
 10
593.8377415087999
 20
363.8169624215
 42
0.8088336328
 10
594.2426651559999
 20
364.2290157185
 42
0.8088336328
 10
594.2426651559999
 20
364.8067276532
 42
1.0
 72
     1
 10
594.2426651559999
 20
364.8067276532
 11
594.2426651559999
 21
373.841333127
 72
     4
 94
        3
 73
     1
 74
     0
 95
        8
 96
        4
 40
0.0
 40
0.0
 40
0.0
 40
0.0
 40
1.0
 40
1.0
 40
1.0
 40
1.0
 10
594.2426651559999
 20
373.841333127
 42
1.0
 10
594.2426651559999
 20
374.4190450616999
 42
0.8088336328
 10
593.8377415087999
 20
374.8310983586
 42
0.8088336328
 10
593.2601175623999
 20
374.8411808221
 42
1.0
 72
     1
 10
593.2601175623999
 20
374.8411808221
 11
588.2252127494999
 21
374.9290654125
 72
     4
 94
        3
 73
     1
 74
     0
 95
        8
 96
        4
 40
0.0
 40
0.0
 40
0.0
 40
0.0
 40
1.0
 40
1.0
 40
1.0
 40
1.0
 10
587.2426651559999
 20
375.9289131076999
 42
1.0
 10
587.2426651559999
 20
375.351201173
 42
0.8088336328
 10
587.6475888030999
 20
374.939147876
 42
0.8088336328
 10
588.2252127494999
 20
374.9290654125
 42
1.0
 72
     1
 10
587.2426651559999
 20
375.9289131076999
 11
587.2426651559999
 21
380.9462158446
 72
     1
 10
587.2426651559999
 20
380.9462158446
 11
587.2439535954
 21
381.3456181703
 72
     4
 94
        3
 73
     1
 74
     0
 95
        8
 96
        4
 40
0.0
 40
0.0
 40
0.0
 40
0.0
 40
1.0
 40
1.0
 40
1.0
 40
1.0
 10
588.2788478889
 20
382.3417830954
 42
1.0
 10
587.6786051619999
 20
382.3627440333
 42
0.7972118188
 10
587.2458910998999
 20
381.9462236466001
 42
0.7972118188
 10
587.2439535954
 20
381.3456181703
 42
1.0
 72
     1
 10
611.3124641494001
 20
381.5374314914
 11
588.2788478889
 21
382.3417830954
 72
     4
 94
        3
 73
     1
 74
     0
 95
        8
 96
        4
 40
0.0
 40
0.0
 40
0.0
 40
0.0
 40
1.0
 40
1.0
 40
1.0
 40
1.0
 10
613.2426651559999
 20
379.5386498373001
 42
1.0
 10
613.2426651559999
 20
380.6780506348001
 42
0.8128932001999999
 10
612.4511708546999
 20
381.497666977
 42
0.8128932001999999
 10
611.3124641494001
 20
381.5374314914
 42
1.0
 72
     1
 10
613.2426651559999
 20
376.7623438377
 11
613.2426651559999
 21
379.5386498373001
 72
     4
 94
        3
 73
     1
 74
     0
 95
        8
 96
        4
 40
0.0
 40
0.0
 40
0.0
 40
0.0
 40
1.0
 40
1.0
 40
1.0
 40
1.0
 10
611.3821781034999
 20
374.7672157372
 42
1.0
 10
612.4872010476
 20
374.8444864688
 42
0.8209024677
 10
613.2426651559999
 20
375.6546225401
 42
0.8209024677
 10
613.2426651559999
 20
376.7623438377
 42
1.0
 72
     1
 10
603.1949494384999
 20
374.194708938
 11
611.3821781034999
 21
374.7672157372
 72
     4
 94
        3
 73
     1
 74
     0
 95
        8
 96
        4
 40
0.0
 40
0.0
 40
0.0
 40
0.0
 40
1.0
 40
1.0
 40
1.0
 40
1.0
 10
603.1949494384999
 20
374.194708938
 42
1.0
 10
601.5841138605
 20
374.0820683413999
 42
0.828763217
 10
600.4624010066001
 20
372.9205006779
 42
0.828763217
 10
600.4060463786999
 20
371.3067152773001
 42
1.0
 72
     1
 10
600.0759823851999
 20
361.85491916
 11
600.4060463786999
 21
371.3067152773001
 72
     4
 94
        3
 73
     1
 74
     0
 95
        8
 96
        4
 40
0.0
 40
0.0
 40
0.0
 40
0.0
 40
1.0
 40
1.0
 40
1.0
 40
1.0
 10
597.8537458144
 20
359.0617005597
 42
1.0
 10
599.1759978207999
 20
359.4157420254
 42
0.8692022420999998
 10
600.0282109050999
 20
360.4869229563
 42
0.8692022420999998
 10
600.0759823851999
 20
361.85491916
 42
1.0
 72
     4
 94
        3
 73
     1
 74
     0
 95
        8
 96
        4
 40
0.0
 40
0.0
 40
0.0
 40
0.0
 40
1.0
 40
1.0
 40
1.0
 40
1.0
 10
597.8537458144
 20
359.0617005597
 42
1.0
 10
596.5314938080999
 20
358.707659094
 42
0.8692022420999998
 10
595.6792807237999
 20
357.6364781631
 42
0.8692022420999998
 10
595.6315092437001
 20
356.2684819594001
 42
1.0
 72
     1
 10
595.6315092437001
 20
356.2684819594001
 11
595.3373636025999
 21
347.8452528787
 72
     4
 94
        3
 73
     1
 74
     0
 95
        8
 96
        4
 40
0.0
 40
0.0
 40
0.0
 40
0.0
 40
1.0
 40
1.0
 40
1.0
 40
1.0
 10
595.3373631949999
 20
347.8452479915
 42
1.0
 10
595.3127204764999
 20
347.1395731818
 42
0.9853168006
 10
595.1413312714
 20
346.4545841739
 42
0.9853168006
 10
594.8307452055001
 20
345.8204544583
 42
1.0
 72
     1
 10
594.8307454566999
 20
345.8204543766
 11
594.6920719786
 21
345.5373220879
 72
     4
 94
        3
 73
     1
 74
     0
 95
        8
 96
        4
 40
0.0
 40
0.0
 40
0.0
 40
0.0
 40
1.0
 40
1.0
 40
1.0
 40
1.0
 10
594.6920731089
 20
345.5373250054
 42
1.0
 10
594.3814856733999
 20
344.9031950673
 42
0.9853167678
 10
594.2100953369999
 20
344.2182055154
 42
0.9853167678
 10
594.1854517921999
 20
343.5125299319
 42
1.0
 97
        0
 75
     0
 76
     0
 52
45.0
 41
5.945
 77
     0
 78
     1
 53
45.0
 43
0.0
 44
0.0
 45
-4.2037498142
 46
4.2037498142
 79
     0
 98
        1
 10
0.0
 20
0.0
  0
DIMENSION
  5
253
330
214
100
AcDbEntity
  8
ZEICHNUNGSBEMASSUNGEN
  6
Continuous
 62
     7
100
AcDbDimension
  2
*D1
 10
600.5003173226
 20
414.0712158446
 30
0.0
 11
520.3259984893
 21
414.0712158446
 31
0.0
 70
   160
  1
%%c155
 71
     2
 42
154.5153043332
  3
DIMSTYLE_2
100
AcDbAlignedDimension
 13
445.9850129894
 23
375.5062819048001
 33
0.0
 14
600.5003173226
 24
375.5062819048001
 34
0.0
100
AcDbRotatedDimension
1001
ACAD
1000
DSTYLE
1002
{
1070
    41
1040
5.0
1070
   140
1040
7.0
1070
   147
1040
1.5
1070
   178
1070
   256
1002
}
  0
DIMENSION
  5
254
330
214
100
AcDbEntity
  8
ZEICHNUNGSBEMASSUNGEN
  6
Continuous
 62
     7
100
AcDbDimension
  2
*D2
 10
613.2426651559999
 20
424.6394834550535
 30
0.0
 11
521.243394025174
 21
424.6394834550535
 31
0.0
 70
   160
  1
%%c<>
 71
     2
 42
179.9999999999999
  3
DIMSTYLE_2
100
AcDbAlignedDimension
 13
433.2426651559999
 23
381.0386498373
 33
0.0
 14
613.2426651559999
 24
381.0386498373
 34
0.0
100
AcDbRotatedDimension
1001
ACAD
1000
DSTYLE
1002
{
1070
    41
1040
5.0
1070
   140
1040
7.0
1070
   147
1040
1.5
1070
   178
1070
   256
1002
}
  0
DIMENSION
  5
255
330
214
100
AcDbEntity
  8
ZEICHNUNGSBEMASSUNGEN
  6
Continuous
 62
     7
100
AcDbDimension
  2
*D3
 10
422.3116500127
 20
382.341783123
 30
0.0
 11
422.3116500126999
 21
305.5415119953
 31
0.0
 70
   160
 71
     2
 42
146.8955672784
  3
DIMSTYLE_2
100
AcDbAlignedDimension
 13
486.2426651539999
 23
235.4462158446
 33
0.0
 14
456.7064832155999
 24
382.341783123
 34
0.0
 50
90.0
100
AcDbRotatedDimension
1001
ACAD
1000
DSTYLE
1002
{
1070
    41
1040
5.0
1070
   140
1040
7.0
1070
   147
1040
1.5
1070
   178
1070
   256
1002
}
  0
DIMENSION
  5
256
330
214
100
AcDbEntity
  8
ZEICHNUNGSBEMASSUNGEN
  6
Continuous
 62
     7
100
AcDbDimension
  2
*D4
 10
669.352949908308
 20
274.4462158446
 30
0.0
 11
669.3529499083078
 21
324.8644515115527
 31
0.0
 70
   160
 71
     2
 42
107.8955673008
  3
DIMSTYLE_2
100
AcDbAlignedDimension
 13
589.7788464553
 23
382.3417831454
 33
0.0
 14
662.7426651559999
 24
274.4462158446
 34
0.0
 50
270.0
100
AcDbRotatedDimension
1001
ACAD
1000
DSTYLE
1002
{
1070
    41
1040
5.0
1070
   140
1040
7.0
1070
   147
1040
1.5
1070
   178
1070
   256
1002
}
  0
DIMENSION
  5
257
330
214
100
AcDbEntity
  8
ZEICHNUNGSBEMASSUNGEN
  6
Continuous
 62
     7
100
AcDbDimension
  2
*D5
 10
658.2426651559999
 20
223.0033301054368
 30
0.0
 11
589.3439030863946
 21
223.0033301054368
 31
0.0
 70
   160
 71
     2
 42
135.0
  3
DIMSTYLE_2
100
AcDbAlignedDimension
 13
523.2426651559999
 23
230.8262110444
 33
0.0
 14
658.2426651559999
 24
233.9462158446
 34
0.0
100
AcDbRotatedDimension
1001
ACAD
1000
DSTYLE
1002
{
1070
    41
1040
5.0
1070
   140
1040
7.0
1070
   147
1040
1.5
1070
   178
1070
   256
1002
}
  0
LINE
  5
258
330
214
100
AcDbEntity
  8
0
  6
Continuous
 62
     7
100
AcDbLine
 10
433.2426651559999
 20
376.7623438377
 30
0.0
 11
433.2426651559999
 21
379.5386498373001
 31
0.0
  0
LINE
  5
259
330
214
100
AcDbEntity
  8
0
  6
Continuous
 62
     7
100
AcDbLine
 10
446.4093479268
 20
361.85491916
 30
0.0
 11
446.0792839333
 21
371.3067152773001
 31
0.0
  0
LINE
  5
25A
330
214
100
AcDbEntity
  8
0
  6
Continuous
 62
     7
100
AcDbLine
 10
450.8538210683
 20
356.2684819594001
 30
0.0
 11
451.1479678021999
 21
347.8452215851
 31
0.0
  0
LINE
  5
25B
330
214
100
AcDbEntity
  8
0
  6
Continuous
 62
     7
100
AcDbLine
 10
452.2998795546
 20
343.5124932316
 30
0.0
 11
453.6863239454
 21
303.8099204926
 31
0.0
  0
LINE
  5
25C
330
214
100
AcDbEntity
  8
0
  6
Continuous
 62
     7
100
AcDbLine
 10
452.242665156
 20
364.8067276532
 30
0.0
 11
452.242665156
 21
373.841333127
 31
0.0
  0
LINE
  5
25D
330
214
100
AcDbEntity
  8
0
  6
Continuous
 62
     7
100
AcDbLine
 10
459.4904917176999
 20
304.1226553561
 30
0.0
 11
459.3014571007
 21
362.7213472664
 31
0.0
  0
LINE
  5
25E
330
214
100
AcDbEntity
  8
0
  6
Continuous
 62
     7
100
AcDbLine
 10
459.242665156
 20
380.9462158446
 30
0.0
 11
459.2413767165
 21
381.3456181703
 31
0.0
  0
LINE
  5
25F
330
214
100
AcDbEntity
  8
0
  6
Continuous
 62
     7
100
AcDbLine
 10
459.242665156
 20
375.9289131076999
 30
0.0
 11
459.242665156
 21
380.9462158446
 31
0.0
  0
LINE
  5
260
330
214
100
AcDbEntity
  8
0
  6
Continuous
 62
     7
100
AcDbLine
 10
487.7426651559999
 20
235.4462158446
 30
0.0
 11
658.2426651559999
 21
235.4462158446
 31
0.0
  0
LINE
  5
261
330
214
100
AcDbEntity
  8
0
  6
Continuous
 62
     7
100
AcDbLine
 10
454.1703516587999
 20
301.8318624921
 30
0.0
 11
467.4742835928999
 21
273.939589153
 31
0.0
  0
LINE
  5
262
330
214
100
AcDbEntity
  8
0
  6
Continuous
 62
     7
100
AcDbLine
 10
468.9779677421999
 20
283.56256251
 30
0.0
 11
459.7827202548999
 21
302.8407997715
 31
0.0
  0
LINE
  5
263
330
214
100
AcDbEntity
  8
0
  6
Continuous
 62
     7
100
AcDbLine
 10
487.7426651559999
 20
240.9462158446
 30
0.0
 11
658.2426651559999
 21
240.9462158446
 31
0.0
  0
LINE
  5
265
330
214
100
AcDbEntity
  8
0
  6
Continuous
 62
     7
100
AcDbLine
 10
477.7426651559999
 20
245.4462158446
 30
0.0
 11
477.7426651559999
 21
268.9838761018
 31
0.0
  0
LINE
  5
268
330
214
100
AcDbEntity
  8
0
  6
Continuous
 62
     7
100
AcDbLine
 10
451.793261536
 20
345.5372910556
 30
0.0
 11
451.6545874737999
 21
345.820424407
 31
0.0
  0
LINE
  5
269
330
214
100
AcDbEntity
  8
0
  6
Continuous
 62
     7
100
AcDbLine
 10
483.2426651559999
 20
245.4462158446
 30
0.0
 11
483.2426651559999
 21
261.9291857164
 31
0.0
  0
LINE
  5
26A
330
214
100
AcDbEntity
  8
0
  6
Continuous
 62
     7
100
AcDbLine
 10
485.7426651559999
 20
271.1431004525
 30
0.0
 11
485.7426651559999
 21
281.2114386227
 31
0.0
  0
LINE
  5
26B
330
214
100
AcDbEntity
  8
RUNDUNGEN
  6
Continuous
 62
     9
100
AcDbLine
 10
523.2426651559999
 20
261.265893079
 30
0.0
 11
543.2426651559999
 21
261.265893079
 31
0.0
  0
LINE
  5
26C
330
214
100
AcDbEntity
  8
RUNDUNGEN
  6
Continuous
 62
     9
100
AcDbLine
 10
523.2426651559999
 20
263.2655884694
 30
0.0
 11
543.2426651559999
 21
263.2655884694
 31
0.0
  0
LINE
  5
26D
330
214
100
AcDbEntity
  8
0
  6
Continuous
 62
     7
100
AcDbLine
 10
493.242665156
 20
264.9296425138
 30
0.0
 11
493.242665156
 21
269.0467929393
 31
0.0
  0
LINE
  5
26E
330
214
100
AcDbEntity
  8
0
  6
Continuous
 62
     7
100
AcDbLine
 10
576.4661441819
 20
272.2327917274
 30
0.0
 11
571.5871032409999
 21
271.9770920266
 31
0.0
  0
LINE
  5
26F
330
214
100
AcDbEntity
  8
0
  6
Continuous
 62
     7
100
AcDbLine
 10
554.2252127494999
 20
270.0466406344
 30
0.0
 11
559.7601175623999
 21
270.1432527573
 31
0.0
  0
LINE
  5
270
330
214
100
AcDbEntity
  8
0
  6
Continuous
 62
     7
100
AcDbLine
 10
565.7431213244999
 20
263.9291855463
 30
0.0
 11
554.2426651566001
 21
263.9291855463
 31
0.0
  0
LINE
  5
271
330
214
100
AcDbEntity
  8
0
  6
Continuous
 62
     7
100
AcDbLine
 10
492.2426700492
 20
263.9294902024
 30
0.0
 11
485.2426811869
 21
263.9294902024
 31
0.0
  0
LINE
  5
272
330
214
100
AcDbEntity
  8
0
  6
Continuous
 62
     9
100
AcDbLine
 10
553.2426651559999
 20
269.0467929393
 30
0.0
 11
493.242665156
 21
269.0467929393
 31
0.0
  0
LINE
  5
274
330
214
100
AcDbEntity
  8
0
  6
Continuous
 62
     9
100
AcDbLine
 10
492.2601175624
 20
270.0466406344
 30
0.0
 11
554.2252127494999
 21
270.0466406344
 31
0.0
  0
LINE
  5
275
330
214
100
AcDbEntity
  8
0
  6
Continuous
 62
     9
100
AcDbLine
 10
559.7601175623999
 20
270.1432527573
 30
0.0
 11
486.7252127495
 21
270.1432527573
 31
0.0
  0
LINE
  5
276
330
214
100
AcDbEntity
  8
0
  6
Continuous
 62
     9
100
AcDbLine
 10
485.7426651559999
 20
271.1431004525
 30
0.0
 11
560.7426651559999
 21
271.1431004525
 31
0.0
  0
LINE
  5
277
330
214
100
AcDbEntity
  8
0
  6
Continuous
 62
     7
100
AcDbLine
 10
492.2601175624
 20
270.0466406344
 30
0.0
 11
486.7252127495
 21
270.1432527573
 31
0.0
  0
LINE
  5
278
330
214
100
AcDbEntity
  8
0
  6
Continuous
 62
     7
100
AcDbLine
 10
470.0250315772
 20
272.2352338391
 30
0.0
 11
474.8996730246999
 21
271.9797647061
 31
0.0
  0
LINE
  5
279
330
214
100
AcDbEntity
  8
RUNDUNGEN
  6
Continuous
 62
     9
100
AcDbLine
 10
567.4985980448999
 20
263.3441975078
 30
0.0
 11
565.7431213273
 21
263.9288809366
 31
0.0
  0
LINE
  5
27A
330
214
100
AcDbEntity
  8
RUNDUNGEN
  6
Continuous
 62
     9
100
AcDbLine
 10
505.763165279
 20
304.1226553561
 30
0.0
 11
505.7562579899999
 21
312.4023182249
 31
0.0
  0
LINE
  5
27B
330
214
100
AcDbEntity
  8
RUNDUNGEN
  6
Continuous
 62
     9
100
AcDbLine
 10
506.9980273994999
 20
310.4024607871
 30
0.0
 11
507.0032685644
 21
304.125881258
 31
0.0
  0
LINE
  5
27C
330
214
100
AcDbEntity
  8
RUNDUNGEN
  6
Continuous
 62
     9
100
AcDbLine
 10
508.2923868476999
 20
359.2582135572
 30
0.0
 11
508.2955867823
 21
362.7213472664
 31
0.0
  0
LINE
  5
27D
330
214
100
AcDbEntity
  8
RUNDUNGEN
  6
Continuous
 62
     9
100
AcDbLine
 10
508.3124271371
 20
375.9289131076999
 30
0.0
 11
508.3127933932
 21
381.3456181703
 31
0.0
  0
LINE
  5
27E
330
214
100
AcDbEntity
  8
RUNDUNGEN
  6
Continuous
 62
     9
100
AcDbLine
 10
509.0450679943
 20
375.9289140056
 30
0.0
 11
509.0454458833
 21
381.3423922683
 31
0.0
  0
LINE
  5
27F
330
214
100
AcDbEntity
  8
0
  6
Continuous
 62
     7
100
AcDbLine
 10
561.6903291997
 20
282.2100681574
 30
0.0
 11
576.6571132416999
 21
282.9944440721
 31
0.0
  0
LINE
  5
280
330
214
100
AcDbEntity
  8
0
  6
CENTER
100
AcDbLine
 10
661.2426651559999
 20
274.4462158446
 30
0.0
 11
523.2426651559999
 21
274.4462158446
 31
0.0
  0
LINE
  5
281
330
214
100
AcDbEntity
  8
0
  6
Continuous
 62
     9
100
AcDbLine
 10
485.7426651559999
 20
281.2114386227
 30
0.0
 11
560.7426651559999
 21
281.2114386227
 31
0.0
  0
LINE
  5
282
330
214
100
AcDbEntity
  8
0
  6
Continuous
 62
     9
100
AcDbLine
 10
484.7950011122
 20
282.2100681574
 30
0.0
 11
561.6903291997
 21
282.2100681574
 31
0.0
  0
LINE
  5
283
330
214
100
AcDbEntity
  8
0
  6
Continuous
 62
     7
100
AcDbLine
 10
484.7950011122
 20
282.2100681574
 30
0.0
 11
469.8282170703
 21
282.9944440721
 31
0.0
  0
LINE
  5
284
330
214
100
AcDbEntity
  8
RUNDUNGEN
  6
Continuous
 62
     9
100
AcDbLine
 10
570.4860954905999
 20
266.3465353734
 30
0.0
 11
568.7481507784999
 21
266.925379549
 31
0.0
  0
LINE
  5
285
330
214
100
AcDbEntity
  8
RUNDUNGEN
  6
Continuous
 62
     9
100
AcDbLine
 10
510.7479342234999
 20
375.8267630079
 30
0.0
 11
510.7479469577
 21
381.1380748398999
 31
0.0
  0
LINE
  5
286
330
214
100
AcDbEntity
  8
RUNDUNGEN
  6
Continuous
 62
     9
100
AcDbLine
 10
511.4692431126999
 20
305.4289131077
 30
0.0
 11
511.4692431126999
 21
309.4972512779
 31
0.0
  0
LINE
  5
287
330
214
100
AcDbEntity
  8
RUNDUNGEN
  6
Continuous
 62
     9
100
AcDbLine
 10
511.549162834
 20
375.8267639012999
 30
0.0
 11
511.5491174874
 21
381.0979916935
 31
0.0
  0
LINE
  5
288
330
214
100
AcDbEntity
  8
RUNDUNGEN
  6
Continuous
 62
     9
100
AcDbLine
 10
512.6726963283999
 20
305.4289131077
 30
0.0
 11
512.6726963283999
 21
309.4972512779
 31
0.0
  0
LINE
  5
289
330
214
100
AcDbEntity
  8
0
  6
Continuous
 62
     7
100
AcDbLine
 10
515.2426651559999
 20
382.9462158446
 30
0.0
 11
515.2426651559999
 21
382.0979916935
 31
0.0
  0
LINE
  5
28A
330
214
100
AcDbEntity
  8
0
  6
Continuous
 62
     7
100
AcDbLine
 10
515.2426651559999
 20
383.4462158446
 30
0.0
 11
515.2426651559999
 21
393.4462158446
 31
0.0
  0
LINE
  5
28B
330
214
100
AcDbEntity
  8
0
  6
Continuous
 62
     7
100
AcDbLine
 10
516.2426651559999
 20
393.4462158446
 30
0.0
 11
516.2426651559999
 21
401.4462158445999
 31
0.0
  0
LINE
  5
28C
330
214
100
AcDbEntity
  8
0
  6
Continuous
 62
     7
100
AcDbLine
 10
516.7426651559999
 20
382.9462158446
 30
0.0
 11
516.7426651559999
 21
383.4462158446
 31
0.0
  0
LINE
  5
28D
330
214
100
AcDbEntity
  8
RUNDUNGEN
  6
Continuous
 62
     9
100
AcDbLine
 10
512.1352926376999
 20
282.6326118917
 30
0.0
 11
534.3500376741999
 21
282.6326118917
 31
0.0
  0
LINE
  5
28E
330
214
100
AcDbEntity
  8
0
  6
Continuous
 62
     9
100
AcDbLine
 10
469.8282170703
 20
282.9944440721
 30
0.0
 11
508.4535432413999
 21
282.9944440722
 31
0.0
  0
LINE
  5
28F
330
214
100
AcDbEntity
  8
0
  6
Continuous
 62
     9
100
AcDbLine
 10
538.0317870706
 20
282.9944440722
 30
0.0
 11
576.6571132416999
 21
282.9944440721
 31
0.0
  0
LINE
  5
290
330
214
100
AcDbEntity
  8
RUNDUNGEN
  6
Continuous
 62
     9
100
AcDbLine
 10
511.913377665
 20
283.440432431
 30
0.0
 11
534.571952685
 21
283.440432431
 31
0.0
  0
LINE
  5
291
330
214
100
AcDbEntity
  8
0
  6
Continuous
 62
     9
100
AcDbLine
 10
468.9779677421999
 20
283.56256251
 30
0.0
 11
508.2181305129
 21
283.5625625098
 31
0.0
  0
LINE
  5
292
330
214
100
AcDbEntity
  8
0
  6
Continuous
 62
     9
100
AcDbLine
 10
538.2672017114999
 20
283.5625625098
 30
0.0
 11
577.5073625698
 21
283.56256251
 31
0.0
  0
LINE
  5
293
330
214
100
AcDbEntity
  8
RUNDUNGEN
  6
Continuous
 62
     9
100
AcDbLine
 10
523.2426651559999
 20
245.5752074942
 30
0.0
 11
523.2426651559999
 21
263.2655884694
 31
0.0
  0
LINE
  5
294
330
214
100
AcDbEntity
  8
0
  6
Continuous
 62
     7
100
AcDbLine
 10
523.2426651559999
 20
383.351769344
 30
0.0
 11
523.2426651559999
 21
383.4462158446
 31
0.0
  0
LINE
  5
295
330
214
100
AcDbEntity
  8
0
  6
CENTER
100
AcDbLine
 10
523.2426651559999
 20
232.3262110444
 30
0.0
 11
523.2426651559999
 21
401.4462158445999
 31
0.0
  0
LINE
  5
296
330
214
100
AcDbEntity
  8
RUNDUNGEN
  6
Continuous
 62
     9
100
AcDbLine
 10
570.4936517172
 20
267.3261534673
 30
0.0
 11
568.7481507784999
 21
268.9825720093
 31
0.0
  0
LINE
  5
297
330
214
100
AcDbEntity
  8
0
  6
Continuous
 62
     7
100
AcDbLine
 10
529.7426651559999
 20
382.9462158446
 30
0.0
 11
529.7426651559999
 21
383.4462158446
 31
0.0
  0
LINE
  5
298
330
214
100
AcDbEntity
  8
0
  6
Continuous
 62
     7
100
AcDbLine
 10
530.2426651559999
 20
393.4462158446
 30
0.0
 11
530.2426651559999
 21
401.4462158445999
 31
0.0
  0
LINE
  5
299
330
214
100
AcDbEntity
  8
0
  6
Continuous
 62
     7
100
AcDbLine
 10
531.2426651559999
 20
382.9462158446
 30
0.0
 11
531.2426651559999
 21
382.0979916935
 31
0.0
  0
LINE
  5
29A
330
214
100
AcDbEntity
  8
0
  6
Continuous
 62
     7
100
AcDbLine
 10
531.2426651559999
 20
383.4462158446
 30
0.0
 11
531.2426651559999
 21
393.4462158446
 31
0.0
  0
LINE
  5
29B
330
214
100
AcDbEntity
  8
RUNDUNGEN
  6
Continuous
 62
     9
100
AcDbLine
 10
533.8126339836
 20
309.4972512779
 30
0.0
 11
533.8126339836
 21
305.4289131077
 31
0.0
  0
LINE
  5
29C
330
214
100
AcDbEntity
  8
RUNDUNGEN
  6
Continuous
 62
     9
100
AcDbLine
 10
534.9362127898
 20
381.0979916935
 30
0.0
 11
534.9361674779999
 21
375.8267639034
 31
0.0
  0
LINE
  5
29D
330
214
100
AcDbEntity
  8
RUNDUNGEN
  6
Continuous
 62
     9
100
AcDbLine
 10
535.0160871993
 20
309.4972512779
 30
0.0
 11
535.0160871993
 21
305.4289131077
 31
0.0
  0
LINE
  5
29E
330
214
100
AcDbEntity
  8
RUNDUNGEN
  6
Continuous
 62
     9
100
AcDbLine
 10
535.7373833519999
 20
381.1380748396
 30
0.0
 11
535.7373960884999
 21
375.8267627714
 31
0.0
  0
LINE
  5
29F
330
214
100
AcDbEntity
  8
RUNDUNGEN
  6
Continuous
 62
     9
100
AcDbLine
 10
537.4398844286999
 20
381.3423922683
 30
0.0
 11
537.4402623176
 21
375.9289138573
 31
0.0
  0
LINE
  5
2A0
330
214
100
AcDbEntity
  8
0
  6
Continuous
 62
     9
100
AcDbLine
 10
586.702610057
 20
302.8407997715
 30
0.0
 11
540.6450711859999
 21
302.8407997731
 31
0.0
  0
LINE
  5
2A1
330
214
100
AcDbEntity
  8
0
  6
Continuous
 62
     9
100
AcDbLine
 10
505.840259126
 20
302.8407997731
 30
0.0
 11
459.7827202548999
 21
302.8407997715
 31
0.0
  0
LINE
  5
2A2
330
214
100
AcDbEntity
  8
RUNDUNGEN
  6
Continuous
 62
     9
100
AcDbLine
 10
510.9227724548
 20
303.154191277
 30
0.0
 11
535.5259980422999
 21
303.1541912771
 31
0.0
  0
LINE
  5
2A3
330
214
100
AcDbEntity
  8
0
  6
Continuous
 62
     9
100
AcDbLine
 10
459.4904917176999
 20
304.1226553561
 30
0.0
 11
505.763165279
 21
304.1226553561
 31
0.0
  0
LINE
  5
2A4
330
214
100
AcDbEntity
  8
RUNDUNGEN
  6
Continuous
 62
     9
100
AcDbLine
 10
540.722165033
 20
304.1226553561
 30
0.0
 11
581.9617119112999
 21
304.1226553561
 31
0.0
  0
LINE
  5
2A5
330
214
100
AcDbEntity
  8
0
  6
Continuous
 62
     9
100
AcDbLine
 10
581.9617119112999
 20
304.122655356
 30
0.0
 11
586.9948385942999
 21
304.1226553561
 31
0.0
  0
LINE
  5
2A6
330
214
100
AcDbEntity
  8
RUNDUNGEN
  6
Continuous
 62
     9
100
AcDbLine
 10
511.1903235104
 20
304.3448479674
 30
0.0
 11
535.2950239314
 21
304.3448479676
 31
0.0
  0
LINE
  5
2A7
330
214
100
AcDbEntity
  8
RUNDUNGEN
  6
Continuous
 62
     9
100
AcDbLine
 10
534.0460159484999
 20
304.4290654125
 30
0.0
 11
512.4393143635
 21
304.4290654125
 31
0.0
  0
LINE
  5
2A8
330
214
100
AcDbEntity
  8
RUNDUNGEN
  6
Continuous
 62
     9
100
AcDbLine
 10
535.0160871993
 20
305.4289131077
 30
0.0
 11
511.4692431126999
 21
305.4289131077
 31
0.0
  0
LINE
  5
2A9
330
214
100
AcDbEntity
  8
0
  6
Continuous
 62
     7
100
AcDbLine
 10
594.8775728977
 20
307.9462158446
 30
0.0
 11
658.2426651559999
 21
307.9462158446
 31
0.0
  0
LINE
  5
2AA
330
214
100
AcDbEntity
  8
RUNDUNGEN
  6
Continuous
 62
     9
100
AcDbLine
 10
535.0160871993
 20
309.4972512779
 30
0.0
 11
511.4692431126999
 21
309.4972512779
 31
0.0
  0
LINE
  5
2AB
330
214
100
AcDbEntity
  8
RUNDUNGEN
  6
Continuous
 62
     9
100
AcDbLine
 10
592.8044886472999
 20
303.8097290472
 30
0.0
 11
593.4138722057
 21
303.7884489044
 31
0.0
  0
LINE
  5
2AC
330
214
100
AcDbEntity
  8
RUNDUNGEN
  6
Continuous
 62
     9
100
AcDbLine
 10
573.3295023514999
 20
270.3210159614
 30
0.0
 11
571.5872466877999
 21
271.9743548524
 31
0.0
  0
LINE
  5
2AD
330
214
100
AcDbEntity
  8
RUNDUNGEN
  6
Continuous
 62
     9
100
AcDbLine
 10
538.1897435296999
 20
362.7213472664
 30
0.0
 11
538.1929434643
 21
359.2582135569001
 31
0.0
  0
LINE
  5
2AE
330
214
100
AcDbEntity
  8
RUNDUNGEN
  6
Continuous
 62
     9
100
AcDbLine
 10
538.1725369187001
 20
381.3456181703
 30
0.0
 11
538.1729031748999
 21
375.9289131076999
 31
0.0
  0
LINE
  5
2B0
330
214
100
AcDbEntity
  8
RUNDUNGEN
  6
Continuous
 62
     9
100
AcDbLine
 10
539.4820617476
 20
304.125881258
 30
0.0
 11
539.4873029125
 21
310.4024607871
 31
0.0
  0
LINE
  5
2B1
330
214
100
AcDbEntity
  8
RUNDUNGEN
  6
Continuous
 62
     9
100
AcDbLine
 10
540.729072322
 20
312.4023182249
 30
0.0
 11
540.722165033
 21
304.1226553561
 31
0.0
  0
LINE
  5
2B2
330
214
100
AcDbEntity
  8
RUNDUNGEN
  6
Continuous
 62
     9
100
AcDbLine
 10
534.0377301499
 20
310.4958808126
 30
0.0
 11
512.4476001619999
 21
310.4958808126
 31
0.0
  0
LINE
  5
2B3
330
214
100
AcDbEntity
  8
RUNDUNGEN
  6
Continuous
 62
     9
100
AcDbLine
 10
507.9449286451001
 20
311.4069145921
 30
0.0
 11
538.5404016669
 21
311.4069145921
 31
0.0
  0
LINE
  5
2B4
330
214
100
AcDbEntity
  8
RUNDUNGEN
  6
Continuous
 62
     9
100
AcDbLine
 10
505.7562579899999
 20
312.4023182249
 30
0.0
 11
540.729072322
 21
312.4023182249
 31
0.0
  0
LINE
  5
2B5
330
214
100
AcDbEntity
  8
0
  6
Continuous
 62
     7
100
AcDbLine
 10
596.2421041566999
 20
313.4462158446
 30
0.0
 11
658.2426651559999
 21
313.4462158446
 31
0.0
  0
LINE
  5
2B6
330
214
100
AcDbEntity
  8
RUNDUNGEN
  6
Continuous
 62
     9
100
AcDbLine
 10
576.4662876311
 20
272.2300545532
 30
0.0
 11
577.5666701662999
 21
270.58321571
 31
0.0
  0
LINE
  5
2B7
330
214
100
AcDbEntity
  8
0
  6
Continuous
 62
     7
100
AcDbLine
 10
553.2426651559999
 20
264.9291855463
 30
0.0
 11
553.2426651559999
 21
269.0467929393
 31
0.0
  0
LINE
  5
2B8
330
214
100
AcDbEntity
  8
RUNDUNGEN
  6
Continuous
 62
     9
100
AcDbLine
 10
592.3199298953
 20
301.8295008707
 30
0.0
 11
593.1523200572
 21
301.4324711299
 31
0.0
  0
LINE
  5
2B9
330
214
100
AcDbEntity
  8
RUNDUNGEN
  6
Continuous
 62
     9
100
AcDbLine
 10
579.013539904
 20
273.9320741073
 30
0.0
 11
580.1029939781999
 21
272.3015908617
 31
0.0
  0
LINE
  5
2BA
330
214
100
AcDbEntity
  8
0
  6
Continuous
 62
     7
100
AcDbLine
 10
560.7426651559999
 20
271.1431004525
 30
0.0
 11
560.7426651559999
 21
281.2114386227
 31
0.0
  0
LINE
  5
2BB
330
214
100
AcDbEntity
  8
0
  6
Continuous
 62
     9
100
AcDbLine
 10
554.2426651559999
 20
263.9291855463
 30
0.0
 11
554.2426209418001
 21
263.9288809366
 31
0.0
  0
LINE
  5
2BC
330
214
100
AcDbEntity
  8
0
  6
Continuous
 62
     9
100
AcDbLine
 10
565.7431213244999
 20
263.9291855463
 30
0.0
 11
565.7431213259999
 21
263.9288809366
 31
0.0
  0
LINE
  5
2BD
330
214
100
AcDbEntity
  8
0
  6
Continuous
 62
     7
100
AcDbLine
 10
568.7454098479999
 20
268.9825720093
 30
0.0
 11
568.7454098479999
 21
266.925379552
 31
0.0
  0
LINE
  5
2BE
330
214
100
AcDbEntity
  8
0
  6
Continuous
 62
     7
100
AcDbLine
 10
594.8307454566999
 20
345.8204543766
 30
0.0
 11
594.6920719786
 21
345.5373220879
 31
0.0
  0
LINE
  5
2BF
330
214
100
AcDbEntity
  8
0
  6
Continuous
 62
     7
100
AcDbLine
 10
587.2426651559999
 20
375.9289131076999
 30
0.0
 11
587.2426651559999
 21
380.9462158446
 31
0.0
  0
LINE
  5
2C2
330
214
100
AcDbEntity
  8
0
  6
Continuous
 62
     7
100
AcDbLine
 10
586.9948385942999
 20
304.1226553561
 30
0.0
 11
587.1838732112999
 21
362.7213472664
 31
0.0
  0
LINE
  5
2C3
330
214
100
AcDbEntity
  8
0
  6
Continuous
 62
     7
100
AcDbLine
 10
587.2426651559999
 20
380.9462158446
 30
0.0
 11
587.2439535954
 21
381.3456181703
 31
0.0
  0
LINE
  5
2C4
330
214
100
AcDbEntity
  8
0
  6
Continuous
 62
     7
100
AcDbLine
 10
594.1854520399999
 20
343.5125299602
 30
0.0
 11
593.2439316755999
 21
316.5509143347
 31
0.0
  0
LINE
  5
2C5
330
214
100
AcDbEntity
  8
0
  6
Continuous
 62
     7
100
AcDbLine
 10
592.8787912437
 20
306.0160148379
 30
0.0
 11
592.8017493866
 21
303.8098247043
 31
0.0
  0
LINE
  5
2C6
330
214
100
AcDbEntity
  8
0
  6
Continuous
 62
     7
100
AcDbLine
 10
577.5073625698
 20
283.56256251
 30
0.0
 11
586.702610057
 21
302.8407997715
 31
0.0
  0
LINE
  5
2C7
330
214
100
AcDbEntity
  8
0
  6
Continuous
 62
     7
100
AcDbLine
 10
588.1664156016
 20
363.7179690596
 30
0.0
 11
593.2601175623999
 21
363.806879958
 31
0.0
  0
LINE
  5
2C8
330
214
100
AcDbEntity
  8
RUNDUNGEN
  6
Continuous
 62
     9
100
AcDbLine
 10
509.8256756167
 20
357.4235741823001
 30
0.0
 11
536.6596546956999
 21
357.4235741823001
 31
0.0
  0
LINE
  5
2C9
330
214
100
AcDbEntity
  8
RUNDUNGEN
  6
Continuous
 62
     9
100
AcDbLine
 10
509.7508552931
 20
358.1863927235
 30
0.0
 11
536.7344750188
 21
358.1863927235
 31
0.0
  0
LINE
  5
2CA
330
214
100
AcDbEntity
  8
0
  6
Continuous
 62
     9
100
AcDbLine
 10
587.1838732112999
 20
362.7213472664
 30
0.0
 11
538.1897435296999
 21
362.7213472664
 31
0.0
  0
LINE
  5
2CB
330
214
100
AcDbEntity
  8
0
  6
Continuous
 62
     9
100
AcDbLine
 10
508.2955867823
 20
362.7213472664
 30
0.0
 11
459.3014571007
 21
362.7213472664
 31
0.0
  0
LINE
  5
2CC
330
214
100
AcDbEntity
  8
RUNDUNGEN
  6
Continuous
 62
     9
100
AcDbLine
 10
535.586582462
 20
363.5242936051
 30
0.0
 11
510.8987591998
 21
363.5242936051
 31
0.0
  0
LINE
  5
2CD
330
214
100
AcDbEntity
  8
0
  6
Continuous
 62
     9
100
AcDbLine
 10
458.3189147102999
 20
363.7179690596
 30
0.0
 11
508.0661389730999
 21
363.7179690596
 31
0.0
  0
LINE
  5
2CE
330
214
100
AcDbEntity
  8
0
  6
Continuous
 62
     9
100
AcDbLine
 10
538.4191913388999
 20
363.7179690596
 30
0.0
 11
588.1664156016
 21
363.7179690596
 31
0.0
  0
LINE
  5
2CF
330
214
100
AcDbEntity
  8
0
  6
Continuous
 62
     9
100
AcDbLine
 10
588.1664156016
 20
363.806879958
 30
0.0
 11
536.9357679892
 21
363.8068799581
 31
0.0
  0
LINE
  5
2D0
330
214
100
AcDbEntity
  8
0
  6
Continuous
 62
     9
100
AcDbLine
 10
509.5495623508999
 20
363.8068799581
 30
0.0
 11
453.2252127495
 21
363.806879958
 31
0.0
  0
LINE
  5
2D1
330
214
100
AcDbEntity
  8
RUNDUNGEN
  6
Continuous
 62
     9
100
AcDbLine
 10
535.6492510094
 20
364.2903380482
 30
0.0
 11
510.8361031
 21
364.2903380482
 31
0.0
  0
LINE
  5
2D2
330
214
100
AcDbEntity
  8
0
  6
Continuous
 62
     9
100
AcDbLine
 10
452.242665156
 20
364.8067276532
 30
0.0
 11
509.3577134212
 21
364.8067276532
 31
0.0
  0
LINE
  5
2D3
330
214
100
AcDbEntity
  8
0
  6
Continuous
 62
     9
100
AcDbLine
 10
537.1276168887999
 20
364.8067276532
 30
0.0
 11
594.2426651559999
 21
364.8067276532
 31
0.0
  0
LINE
  5
2D4
330
214
100
AcDbEntity
  8
0
  6
Continuous
 62
     7
100
AcDbLine
 10
458.3189147102999
 20
363.7179690596
 30
0.0
 11
453.2252127495
 21
363.806879958
 31
0.0
  0
LINE
  5
2D5
330
214
100
AcDbEntity
  8
0
  6
Continuous
 62
     7
100
AcDbLine
 10
594.2426651559999
 20
364.8067276532
 30
0.0
 11
594.2426651559999
 21
373.841333127
 31
0.0
  0
LINE
  5
2D6
330
214
100
AcDbEntity
  8
0
  6
Continuous
 62
     7
100
AcDbLine
 10
595.6315092437001
 20
356.2684819594001
 30
0.0
 11
595.3373636025999
 21
347.8452528787
 31
0.0
  0
LINE
  5
2D7
330
214
100
AcDbEntity
  8
0
  6
Continuous
 62
     7
100
AcDbLine
 10
600.0759823851999
 20
361.85491916
 30
0.0
 11
600.4060463786999
 21
371.3067152773001
 31
0.0
  0
LINE
  5
2D8
330
214
100
AcDbEntity
  8
0
  6
Continuous
 62
     7
100
AcDbLine
 10
592.3174559717999
 20
301.8306808717
 30
0.0
 11
579.0110659808
 21
273.9332541091
 31
0.0
  0
LINE
  5
2D9
330
214
100
AcDbEntity
  8
0
  6
Continuous
 62
     7
100
AcDbLine
 10
603.1949494384999
 20
374.194708938
 30
0.0
 11
611.3821781034999
 21
374.7672157372
 31
0.0
  0
LINE
  5
2DA
330
214
100
AcDbEntity
  8
0
  6
Continuous
 62
     9
100
AcDbLine
 10
452.242665156
 20
373.841333127
 30
0.0
 11
509.3577134288
 21
373.841333127
 31
0.0
  0
LINE
  5
2DB
330
214
100
AcDbEntity
  8
0
  6
Continuous
 62
     9
100
AcDbLine
 10
537.1276168862
 20
373.841333127
 30
0.0
 11
594.2426651559999
 21
373.841333127
 31
0.0
  0
LINE
  5
2DC
330
214
100
AcDbEntity
  8
0
  6
Continuous
 62
     9
100
AcDbLine
 10
458.2601175623999
 20
374.8411808221
 30
0.0
 11
509.549526581
 21
374.8411808221
 31
0.0
  0
LINE
  5
2DD
330
214
100
AcDbEntity
  8
0
  6
Continuous
 62
     9
100
AcDbLine
 10
536.9358527588
 20
374.8411808221
 30
0.0
 11
593.2601175623999
 21
374.8411808221
 31
0.0
  0
LINE
  5
2DE
330
214
100
AcDbEntity
  8
0
  6
Continuous
 62
     9
100
AcDbLine
 10
458.2601175623999
 20
374.9290654125
 30
0.0
 11
508.0834389877
 21
374.9290654125
 31
0.0
  0
LINE
  5
2DF
330
214
100
AcDbEntity
  8
0
  6
Continuous
 62
     9
100
AcDbLine
 10
538.4019232432999
 20
374.9290654125
 30
0.0
 11
588.2252127494999
 21
374.9290654125
 31
0.0
  0
LINE
  5
2E0
330
214
100
AcDbEntity
  8
0
  6
Continuous
 62
     7
100
AcDbLine
 10
443.2903808735
 20
374.194708938
 30
0.0
 11
435.1031522084999
 21
374.7672157372
 31
0.0
  0
LINE
  5
2E1
330
214
100
AcDbEntity
  8
RUNDUNGEN
  6
Continuous
 62
     7
100
AcDbLine
 10
536.5828872928
 20
382.1307935499
 30
0.0
 11
536.5832776754
 21
382.1308408245
 31
0.0
  0
LINE
  5
2E2
330
214
100
AcDbEntity
  8
RUNDUNGEN
  6
Continuous
 62
     7
100
AcDbLine
 10
538.2865070566
 20
382.3352501048999
 30
0.0
 11
538.2880726788999
 21
382.3354367794
 31
0.0
  0
LINE
  5
2E3
330
214
100
AcDbEntity
  8
0
  6
Continuous
 62
     7
100
AcDbLine
 10
538.2880509301998
 20
382.3354344354001
 30
0.0
 11
536.5828867964999
 21
382.130797581
 31
0.0
  0
LWPOLYLINE
  5
2E4
330
214
100
AcDbEntity
  8
0
  6
Continuous
 62
     7
100
AcDbPolyline
 90
       10
 70
     0
 43
0.0
 10
536.5832776754
 20
382.1308408245
 10
536.5823630231999
 20
382.1307335584
 10
536.5766997823
 20
382.1301304158
 10
536.5666200594001
 20
382.1291718104
 10
536.5522203162
 20
382.1279475236
 10
536.5339563131999
 20
382.1265542737
 10
536.5118601776
 20
382.1250348025
 10
536.4860870049999
 20
382.1234290997
 10
536.4567920826999
 20
382.1217692645
 10
536.4242371366
 20
382.1200921931
  0
LINE
  5
2E5
330
214
100
AcDbEntity
  8
0
  6
Continuous
 62
     7
100
AcDbLine
 10
536.4242371366
 20
382.1200921931
 30
0.0
 11
536.3490268658999
 21
382.1167338187
 31
0.0
  0
LINE
  5
2E6
330
214
100
AcDbEntity
  8
0
  6
Continuous
 62
     7
100
AcDbLine
 10
536.3490268658999
 20
382.1167338187
 30
0.0
 11
536.2607018863
 21
382.1134446496
 31
0.0
  0
LINE
  5
2E7
330
214
100
AcDbEntity
  8
0
  6
Continuous
 62
     7
100
AcDbLine
 10
536.2607018863
 20
382.1134446496
 30
0.0
 11
536.159745863
 21
382.1103213401999
 31
0.0
  0
LINE
  5
2E8
330
214
100
AcDbEntity
  8
0
  6
Continuous
 62
     7
100
AcDbLine
 10
536.159745863
 20
382.1103213401999
 30
0.0
 11
536.0463915792999
 21
382.1074333373001
 31
0.0
  0
LINE
  5
2E9
330
214
100
AcDbEntity
  8
0
  6
Continuous
 62
     7
100
AcDbLine
 10
536.0463915792999
 20
382.1074333373001
 30
0.0
 11
535.9211504664999
 21
382.1048325439
 31
0.0
  0
LINE
  5
2EA
330
214
100
AcDbEntity
  8
0
  6
Continuous
 62
     7
100
AcDbLine
 10
453.2252127495
 20
374.8411808221
 30
0.0
 11
458.2601175623999
 21
374.9290654125
 31
0.0
  0
LINE
  5
2EB
330
214
100
AcDbEntity
  8
0
  6
Continuous
 62
     7
100
AcDbLine
 10
458.2064824230999
 20
382.3417830954
 30
0.0
 11
458.2413819197999
 21
382.3423922683001
 31
0.0
  0
LINE
  5
2EC
330
214
100
AcDbEntity
  8
0
  6
Continuous
 62
     7
100
AcDbLine
 10
535.9211504664999
 20
382.1048325439
 30
0.0
 11
535.7124072136
 21
382.1016078542
 31
0.0
  0
LINE
  5
2ED
330
214
100
AcDbEntity
  8
0
  6
Continuous
 62
     7
100
AcDbLine
 10
535.7124072136
 20
382.1016078542
 30
0.0
 11
535.4812072408999
 21
382.099335377
 31
0.0
  0
LINE
  5
2EE
330
214
100
AcDbEntity
  8
0
  6
Continuous
 62
     7
100
AcDbLine
 10
535.4812072408999
 20
382.099335377
 30
0.0
 11
535.2311202775
 21
382.0981440283
 31
0.0
  0
LINE
  5
2EF
330
214
100
AcDbEntity
  8
RUNDUNGEN
  6
Continuous
 62
     9
100
AcDbLine
 10
511.549162834
 20
375.8267639005
 30
0.0
 11
510.7479342234999
 21
375.826763901
 31
0.0
  0
LINE
  5
2F0
330
214
100
AcDbEntity
  8
RUNDUNGEN
  6
Continuous
 62
     9
100
AcDbLine
 10
534.9361674779999
 20
375.8267639024
 30
0.0
 11
535.7373960884999
 21
375.826763903
 31
0.0
  0
LINE
  5
2F1
330
214
100
AcDbEntity
  8
0
  6
Continuous
 62
     9
100
AcDbLine
 10
459.242665156
 20
375.9289131076999
 30
0.0
 11
508.3124271371
 21
375.9289131076999
 31
0.0
  0
LINE
  5
2F2
330
214
100
AcDbEntity
  8
RUNDUNGEN
  6
Continuous
 62
     9
100
AcDbLine
 10
508.3124271371
 20
375.9289131076999
 30
0.0
 11
509.0450679943
 21
375.9289131076999
 31
0.0
  0
LINE
  5
2F3
330
214
100
AcDbEntity
  8
RUNDUNGEN
  6
Continuous
 62
     9
100
AcDbLine
 10
537.4402623176
 20
375.9289131076999
 30
0.0
 11
538.1729031748999
 21
375.9289131076999
 31
0.0
  0
LINE
  5
2F4
330
214
100
AcDbEntity
  8
0
  6
Continuous
 62
     9
100
AcDbLine
 10
538.1729031748999
 20
375.9289131076999
 30
0.0
 11
587.2426651559999
 21
375.9289131076999
 31
0.0
  0
LINE
  5
2F5
330
214
100
AcDbEntity
  8
RUNDUNGEN
  6
Continuous
 62
     9
100
AcDbLine
 10
538.1729031748999
 20
380.9462158446
 30
0.0
 11
537.4402623176
 21
380.9462158446
 31
0.0
  0
LINE
  5
2F6
330
214
100
AcDbEntity
  8
0
  6
Continuous
 62
     7
100
AcDbLine
 10
587.2426651559999
 20
380.9462158446
 30
0.0
 11
538.1729031748999
 21
380.9462158446
 31
0.0
  0
LINE
  5
2F7
330
214
100
AcDbEntity
  8
0
  6
Continuous
 62
     7
100
AcDbLine
 10
508.3124271371
 20
380.9462158446
 30
0.0
 11
459.242665156
 21
380.9462158446
 31
0.0
  0
LINE
  5
2F8
330
214
100
AcDbEntity
  8
RUNDUNGEN
  6
Continuous
 62
     9
100
AcDbLine
 10
534.9362127898
 20
381.0979916935
 30
0.0
 11
511.5491174874
 21
381.0979916935
 31
0.0
  0
LINE
  5
2F9
330
214
100
AcDbEntity
  8
0
  6
Continuous
 62
     9
100
AcDbLine
 10
587.2439535954
 20
381.3456181703
 30
0.0
 11
538.1725369187001
 21
381.3456181703
 31
0.0
  0
LINE
  5
2FA
330
214
100
AcDbEntity
  8
0
  6
Continuous
 62
     9
100
AcDbLine
 10
508.3127933932
 20
381.3456181703
 30
0.0
 11
459.2413767165
 21
381.3456181703
 31
0.0
  0
LINE
  5
2FB
330
214
100
AcDbEntity
  8
0
  6
Continuous
 62
     7
100
AcDbLine
 10
535.2311202775
 20
382.0981440283
 30
0.0
 11
511.3844656179
 21
382.0979916935
 31
0.0
  0
LINE
  5
2FC
330
214
100
AcDbEntity
  8
0
  6
Continuous
 62
     7
100
AcDbLine
 10
588.1873608661
 20
382.3423922683001
 30
0.0
 11
538.405810255
 21
382.3423922683001
 31
0.0
  0
LINE
  5
2FD
330
214
100
AcDbEntity
  8
0
  6
Continuous
 62
     7
100
AcDbLine
 10
508.0795200569999
 20
382.3423922683001
 30
0.0
 11
458.2979694617
 21
382.3423922683001
 31
0.0
  0
LINE
  5
2FE
330
214
100
AcDbEntity
  8
0
  6
Continuous
 62
     7
100
AcDbLine
 10
531.2426651559999
 20
382.9462158446
 30
0.0
 11
515.2426651559999
 21
382.9462158446
 31
0.0
  0
LINE
  5
2FF
330
214
100
AcDbEntity
  8
0
  6
Continuous
 62
     7
100
AcDbLine
 10
515.2426651559999
 20
383.4462158446
 30
0.0
 11
531.2426651559999
 21
383.4462158446
 31
0.0
  0
LINE
  5
300
330
214
100
AcDbEntity
  8
0
  6
Continuous
 62
     7
100
AcDbLine
 10
511.3844676615
 20
382.097989469
 30
0.0
 11
511.1371190563
 21
382.0985480723
 31
0.0
  0
LINE
  5
301
330
214
100
AcDbEntity
  8
0
  6
Continuous
 62
     7
100
AcDbLine
 10
511.1371190563
 20
382.0985480723
 30
0.0
 11
510.8645061773
 21
382.1005555212
 31
0.0
  0
LINE
  5
302
330
214
100
AcDbEntity
  8
0
  6
Continuous
 62
     7
100
AcDbLine
 10
588.2788478889
 20
382.3417830954
 30
0.0
 11
588.2434776049999
 21
382.3423232916001
 31
0.0
  0
LINE
  5
303
330
214
100
AcDbEntity
  8
0
  6
Continuous
 62
     7
100
AcDbLine
 10
510.8645061773
 20
382.1005555212
 30
0.0
 11
510.6179457304
 21
382.1038830466001
 31
0.0
  0
LINE
  5
304
330
214
100
AcDbEntity
  8
0
  6
Continuous
 62
     7
100
AcDbLine
 10
593.2601175623999
 20
374.8411808221
 30
0.0
 11
588.2252127494999
 21
374.9290654125
 31
0.0
  0
LINE
  5
305
330
214
100
AcDbEntity
  8
0
  6
Continuous
 62
     7
100
AcDbLine
 10
510.6179457304
 20
382.1038830466001
 30
0.0
 11
510.4708707798
 21
382.1067149214
 31
0.0
  0
LINE
  5
306
330
214
100
AcDbEntity
  8
0
  6
Continuous
 62
     7
100
AcDbLine
 10
510.4708707798
 20
382.1067149214
 30
0.0
 11
510.3391591608
 21
382.1099447492
 31
0.0
  0
LINE
  5
307
330
214
100
AcDbEntity
  8
0
  6
Continuous
 62
     7
100
AcDbLine
 10
510.3391591608
 20
382.1099447492
 30
0.0
 11
510.2236942674999
 21
382.1134764853
 31
0.0
  0
LINE
  5
308
330
214
100
AcDbEntity
  8
0
  6
Continuous
 62
     7
100
AcDbLine
 10
611.3124641494001
 20
381.5374314914
 30
0.0
 11
588.2788478889
 21
382.3417830954
 31
0.0
  0
LWPOLYLINE
  5
309
330
214
100
AcDbEntity
  8
0
  6
Continuous
 62
     7
100
AcDbPolyline
 90
        3
 70
     0
 43
0.0
 10
510.2236942674999
 20
382.1134764853
 10
510.1250204857
 20
382.1171993988
 10
510.0821334628999
 20
382.1190873736
  0
LWPOLYLINE
  5
30A
330
214
100
AcDbEntity
  8
0
  6
Continuous
 62
     7
100
AcDbPolyline
 90
        8
 70
     0
 43
0.0
 10
510.0821334628999
 20
382.1190873736
 10
510.0436528630999
 20
382.120970721
 10
510.0095739241
 20
382.122825591
 10
509.9798027717
 20
382.1246256101
 10
509.9545824783
 20
382.1263236703
 10
509.9340474311
 20
382.1278721847
 10
509.918388078
 20
382.1292008912
 10
509.9140324601999
 20
382.129603229
  0
LINE
  5
30B
330
214
100
AcDbEntity
  8
0
  6
Continuous
 62
     7
100
AcDbLine
 10
509.9140324601999
 20
382.129603229
 30
0.0
 11
509.9022700843
 21
382.130814521
 31
0.0
  0
LINE
  5
30C
330
214
100
AcDbEntity
  8
RUNDUNGEN
  6
Continuous
 62
     7
100
AcDbLine
 10
508.1988231889
 20
382.3352501128
 30
0.0
 11
508.1972576236
 21
382.3354367806
 31
0.0
  0
LINE
  5
30D
330
214
100
AcDbEntity
  8
RUNDUNGEN
  6
Continuous
 62
     7
100
AcDbLine
 10
509.9024435072999
 20
382.1307975819
 30
0.0
 11
509.9022705789
 21
382.1308185449
 31
0.0
  0
LINE
  5
30E
330
214
100
AcDbEntity
  8
0
  6
Continuous
 62
     7
100
AcDbLine
 10
509.9024435072999
 20
382.1307975819
 30
0.0
 11
508.1972793723999
 21
382.3354344367
 31
0.0
  0
LINE
  5
30F
330
214
100
AcDbEntity
  8
0
  6
Continuous
 62
     7
100
AcDbLine
 10
613.2426651559999
 20
376.7623438377
 30
0.0
 11
613.2426651559999
 21
379.5386498373001
 31
0.0
  0
LINE
  5
310
330
214
100
AcDbEntity
  8
0
  6
Continuous
 62
     7
100
AcDbLine
 10
435.1728661626
 20
381.5374314914
 30
0.0
 11
458.2064824230999
 21
382.3417830954
 31
0.0
  0
LINE
  5
311
330
214
100
AcDbEntity
  8
0
  6
Continuous
 62
     7
100
AcDbLine
 10
515.2426651559999
 20
393.4462158446
 30
0.0
 11
531.2426651559999
 21
393.4462158446
 31
0.0
  0
LINE
  5
312
330
214
100
AcDbEntity
  8
0
  6
Continuous
 62
     7
100
AcDbLine
 10
516.2426651559999
 20
401.4462158445999
 30
0.0
 11
530.2426651559999
 21
401.4462158445999
 31
0.0
  0
LINE
  5
313
330
214
100
AcDbEntity
  8
0
  6
Continuous
 62
     7
100
AcDbLine
 10
658.2426651559999
 20
235.4462158446
 30
0.0
 11
658.2426651559999
 21
313.4462158446
 31
0.0
  0
ARC
  5
314
330
214
100
AcDbEntity
  8
RUNDUNGEN
  6
Continuous
 62
     9
100
AcDbCircle
 10
-261.8697398994
 20
625.8839172737999
 30
0.0
 40
815.7014547521001
100
AcDbArc
 50
340.9210475061
 51
341.1836130256
  0
ARC
  5
315
330
214
100
AcDbEntity
  8
RUNDUNGEN
  6
Continuous
 62
     9
100
AcDbCircle
 10
-163.3758327566
 20
595.3190230088999
 30
0.0
 40
713.6745914705999
100
AcDbArc
 50
340.5933889363
 51
340.9197539485
  0
ARC
  5
316
330
214
100
AcDbEntity
  8
RUNDUNGEN
  6
Continuous
 62
     9
100
AcDbCircle
 10
434.0869710105
 20
-250.453988239
 30
0.0
 40
636.2275059893
100
AcDbArc
 50
83.07944277899999
 51
83.23386253429999
  0
ARC
  5
317
330
214
100
AcDbEntity
  8
0
  6
Continuous
 62
     7
100
AcDbCircle
 10
458.6832780805
 20
303.9844179761
 30
0.0
 40
5.0
100
AcDbArc
 50
182.0
 51
205.5
  0
ARC
  5
318
330
214
100
AcDbEntity
  8
0
  6
Continuous
 62
     7
100
AcDbCircle
 10
470.1820394459
 20
275.2311224434
 30
0.0
 40
3.0
100
AcDbArc
 50
205.5
 51
267.0
  0
ARC
  5
319
330
214
100
AcDbEntity
  8
0
  6
Continuous
 62
     7
100
AcDbCircle
 10
462.490476108
 20
304.1323330619
 30
0.0
 40
3.0
100
AcDbArc
 50
180.1848308864
 51
205.5
  0
ARC
  5
31A
330
214
100
AcDbEntity
  8
0
  6
Continuous
 62
     7
100
AcDbCircle
 10
469.8805530266
 20
283.9930736068
 30
0.0
 40
1.0
100
AcDbArc
 50
205.5
 51
267.0
  0
ARC
  5
31B
330
214
100
AcDbEntity
  8
0
  6
Continuous
 62
     7
100
AcDbCircle
 10
447.3029253474
 20
343.3380003237
 30
0.0
 40
4.9999999942
100
AcDbArc
 50
1.999998454499999
 51
26.0948303612
  0
ARC
  5
31C
330
214
100
AcDbEntity
  8
0
  6
Continuous
 62
     7
100
AcDbCircle
 10
456.1449220531
 20
348.0197190608
 30
0.0
 40
4.9999999843
100
AcDbArc
 50
182.0000270438
 51
206.0948802584
  0
ARC
  5
31D
330
214
100
AcDbEntity
  8
0
  6
Continuous
 62
     7
100
AcDbCircle
 10
447.8556485871999
 20
356.1637834693
 30
0.0
 40
3.0
100
AcDbArc
 50
2.0
 51
75.01030557819999
  0
ARC
  5
31E
330
214
100
AcDbEntity
  8
0
  6
Continuous
 62
     7
100
AcDbCircle
 10
449.4075204079
 20
361.9596176502
 30
0.0
 40
3.0
100
AcDbArc
 50
182.0
 51
255.0103055784
  0
ARC
  5
31F
330
214
100
AcDbEntity
  8
0
  6
Continuous
 62
     7
100
AcDbCircle
 10
443.0811114523
 20
371.2020167872
 30
0.0
 40
3.0
100
AcDbArc
 50
2.0
 51
86.0
  0
ARC
  5
320
330
214
100
AcDbEntity
  8
0
  6
Continuous
 62
     7
100
AcDbCircle
 10
435.242665156
 20
376.7623438377
 30
0.0
 40
2.0
100
AcDbArc
 50
180.0
 51
266.0
  0
ARC
  5
321
330
214
100
AcDbEntity
  8
0
  6
Continuous
 62
     7
100
AcDbCircle
 10
435.242665156
 20
379.5386498373001
 30
0.0
 40
2.0
100
AcDbArc
 50
92.0
 51
180.0
  0
ARC
  5
322
330
214
100
AcDbEntity
  8
0
  6
Continuous
 62
     7
100
AcDbCircle
 10
458.2413819197999
 20
381.3423922683
 30
0.0
 40
1.0
100
AcDbArc
 50
0.1848308864
 51
89.97302402629999
  0
ARC
  5
323
330
214
100
AcDbEntity
  8
0
  6
Continuous
 62
     7
100
AcDbCircle
 10
453.2426651559999
 20
373.841333127
 30
0.0
 40
1.0
100
AcDbArc
 50
91.0
 51
180.0
  0
ARC
  5
324
330
214
100
AcDbEntity
  8
0
  6
Continuous
 62
     7
100
AcDbCircle
 10
458.2426651559999
 20
375.9289131076999
 30
0.0
 40
1.0
100
AcDbArc
 50
271.0
 51
360.0
  0
ARC
  5
325
330
214
100
AcDbEntity
  8
0
  6
Continuous
 62
     7
100
AcDbCircle
 10
458.3014623039
 20
362.7181213644
 30
0.0
 40
1.0
100
AcDbArc
 50
0.1848308864
 51
89.0
  0
ARC
  5
326
330
214
100
AcDbEntity
  8
0
  6
Continuous
 62
     7
100
AcDbCircle
 10
453.2426651559999
 20
364.8067276532
 30
0.0
 40
1.0
100
AcDbArc
 50
180.0
 51
269.0
  0
ARC
  5
327
330
214
100
AcDbEntity
  8
0
  6
Continuous
 62
     7
100
AcDbCircle
 10
487.7426651559999
 20
245.4462158446
 30
0.0
 40
10.0
100
AcDbArc
 50
180.0
 51
270.0
  0
ARC
  5
328
330
214
100
AcDbEntity
  8
0
  6
Continuous
 62
     7
100
AcDbCircle
 10
487.7426651559999
 20
245.4462158446
 30
0.0
 40
4.5
100
AcDbArc
 50
180.0
 51
270.0
  0
ARC
  5
329
330
214
100
AcDbEntity
  8
0
  6
Continuous
 62
     7
100
AcDbCircle
 10
474.7426651559999
 20
268.9838761018
 30
0.0
 40
3.0
100
AcDbArc
 50
0.0
 51
87.0
  0
ARC
  5
32A
330
214
100
AcDbEntity
  8
0
  6
Continuous
 62
     7
100
AcDbCircle
 10
485.2428556508
 20
261.9293208199
 30
0.0
 40
2.0001793907
100
AcDbArc
 50
90.0049970104
 51
180.0038754973
  0
ARC
  5
32B
330
214
100
AcDbEntity
  8
0
  6
Continuous
 62
     7
100
AcDbCircle
 10
492.2425771195999
 20
264.9295672932
 30
0.0
 40
1.0000840414
100
AcDbArc
 50
270.0053377931
 51
0.0042928132
  0
ARC
  5
32C
330
214
100
AcDbEntity
  8
0
  6
Continuous
 62
     7
100
AcDbCircle
 10
484.742665156
 20
281.2114386227
 30
0.0
 40
1.0
100
AcDbArc
 50
0.0
 51
87.0
  0
ARC
  5
32D
330
214
100
AcDbEntity
  8
0
  6
Continuous
 62
     7
100
AcDbCircle
 10
492.242665156
 20
269.0467929393
 30
0.0
 40
1.0
100
AcDbArc
 50
0.0
 51
89.0
  0
ARC
  5
32E
330
214
100
AcDbEntity
  8
0
  6
Continuous
 62
     7
100
AcDbCircle
 10
486.7426651559999
 20
271.1431004525
 30
0.0
 40
1.0
100
AcDbArc
 50
180.0
 51
269.0
  0
ARC
  5
32F
330
214
100
AcDbEntity
  8
0
  6
Continuous
 62
     7
100
AcDbCircle
 10
508.0793024502999
 20
381.3390294711
 30
0.0
 40
1.003358595799999
100
AcDbArc
 50
83.1587027315
 51
89.9924107264
  0
ARC
  5
330
330
214
100
AcDbEntity
  8
RUNDUNGEN
  6
Continuous
 62
     9
100
AcDbCircle
 10
612.3983523498999
 20
-250.4539303179
 30
0.0
 40
636.2274476527
100
AcDbArc
 50
96.76613745860001
 51
96.92055722820001
  0
ARC
  5
332
330
214
100
AcDbEntity
  8
RUNDUNGEN
  6
Continuous
 62
     9
100
AcDbCircle
 10
524.9185345622
 20
342.8270687095
 30
0.0
 40
34.287585892
100
AcDbArc
 50
295.6808531141
 51
297.4591129735
  0
ARC
  5
333
330
214
100
AcDbEntity
  8
RUNDUNGEN
  6
Continuous
 62
     9
100
AcDbCircle
 10
521.1507124095
 20
341.9950810098
 30
0.0
 40
33.3574704694
100
AcDbArc
 50
242.5160930506
 51
244.3439407309
  0
ARC
  5
334
330
214
100
AcDbEntity
  8
RUNDUNGEN
  6
Continuous
 62
     9
100
AcDbCircle
 10
524.1284219980999
 20
320.4999904641
 30
0.0
 40
18.4703515633
100
AcDbArc
 50
330.6611239514
 51
333.9972283964
  0
ARC
  5
335
330
214
100
AcDbEntity
  8
RUNDUNGEN
  6
Continuous
 62
     9
100
AcDbCircle
 10
522.3213344948999
 20
320.4813714521
 30
0.0
 40
18.4302159689
100
AcDbArc
 50
205.9992332349
 51
209.3426113862
  0
ARC
  5
336
330
214
100
AcDbEntity
  8
0
  6
Continuous
 62
     7
100
AcDbCircle
 10
587.8020522315
 20
303.9844179761
 30
0.0
 40
5.002744692
100
AcDbArc
 50
334.5
 51
358.0
  0
ARC
  5
337
330
214
100
AcDbEntity
  8
0
  6
Continuous
 62
     7
100
AcDbCircle
 10
590.3404090645
 20
348.0197455538
 30
0.0
 40
4.999999998199999
100
AcDbArc
 50
333.9051646799
 51
357.9999990969
  0
ARC
  5
338
330
214
100
AcDbEntity
  8
0
  6
Continuous
 62
     7
100
AcDbCircle
 10
599.1824057098999
 20
343.3380267174
 30
0.0
 40
4.999999982699999
100
AcDbArc
 50
153.9050728186
 51
177.999934281
  0
ARC
  5
339
330
214
100
AcDbEntity
  8
RUNDUNGEN
  6
Continuous
 62
     9
100
AcDbCircle
 10
515.0207061367999
 20
303.3451775174
 30
0.0
 40
4.102329019599999
100
AcDbArc
 50
177.4561164535
 51
182.6684018363
  0
ARC
  5
33A
330
214
100
AcDbEntity
  8
RUNDUNGEN
  6
Continuous
 62
     9
100
AcDbCircle
 10
577.3701447716
 20
273.608886527
 30
0.0
 40
3.029436703899999
100
AcDbArc
 50
320.0148728497
 51
334.435243331
  0
ARC
  5
33B
330
214
100
AcDbEntity
  8
0
  6
Continuous
 62
     7
100
AcDbCircle
 10
598.6296817248
 20
356.1637834693
 30
0.0
 40
3.0
100
AcDbArc
 50
104.9896944219
 51
178.0
  0
ARC
  5
33C
330
214
100
AcDbEntity
  8
0
  6
Continuous
 62
     7
100
AcDbCircle
 10
597.0778099041
 20
361.9596176502
 30
0.0
 40
3.0
100
AcDbArc
 50
284.9896944217
 51
358.0
  0
ARC
  5
33D
330
214
100
AcDbEntity
  8
0
  6
Continuous
 62
     7
100
AcDbCircle
 10
603.4042188596999
 20
371.2020167872
 30
0.0
 40
3.0
100
AcDbArc
 50
94.0
 51
178.0
  0
ARC
  5
33E
330
214
100
AcDbEntity
  8
0
  6
Continuous
 62
     7
100
AcDbCircle
 10
583.994854204
 20
304.1323330619
 30
0.0
 40
3.0
100
AcDbArc
 50
334.5
 51
359.8151691136
  0
ARC
  5
33F
330
214
100
AcDbEntity
  8
0
  6
Continuous
 62
     7
100
AcDbCircle
 10
596.2421031618
 20
316.4462144884
 30
0.0
 40
2.999999903099999
100
AcDbArc
 50
177.9999731955
 51
270.0000189162
  0
ARC
  5
340
330
214
100
AcDbEntity
  8
0
  6
Continuous
 62
     7
100
AcDbCircle
 10
571.7435249478
 20
268.9830597824
 30
0.0
 40
2.9980888972
100
AcDbArc
 50
92.99067008870002
 51
180.0093216956
  0
ARC
  5
341
330
214
100
AcDbEntity
  8
0
  6
Continuous
 62
     7
100
AcDbCircle
 10
576.310239143
 20
275.2207230169
 30
0.0
 40
2.9919858801
100
AcDbArc
 50
272.9868849982
 51
334.5131259013
  0
ARC
  5
342
330
214
100
AcDbEntity
  8
0
  6
Continuous
 62
     7
100
AcDbCircle
 10
594.8775728977
 20
305.9462158445
 30
0.0
 40
2.0
100
AcDbArc
 50
90.00308883589999
 51
178.0
  0
ARC
  5
343
330
214
100
AcDbEntity
  8
0
  6
Continuous
 62
     7
100
AcDbCircle
 10
611.2426651559999
 20
376.7623438377
 30
0.0
 40
2.0
100
AcDbArc
 50
274.0
 51
360.0
  0
ARC
  5
344
330
214
100
AcDbEntity
  8
0
  6
Continuous
 62
     7
100
AcDbCircle
 10
611.2426651559999
 20
379.5386498373001
 30
0.0
 40
2.0
100
AcDbArc
 50
0.0
 51
88.0
  0
ARC
  5
345
330
214
100
AcDbEntity
  8
RUNDUNGEN
  6
Continuous
 62
     9
100
AcDbCircle
 10
535.5259964857
 20
305.1210701939
 30
0.0
 40
1.966878916799999
100
AcDbArc
 50
270.000045344
 51
271.0640388083001
  0
ARC
  5
346
330
214
100
AcDbEntity
  8
0
  6
Continuous
 62
     7
100
AcDbCircle
 10
538.4060278616999
 20
381.3390294705
 30
0.0
 40
1.0033585964
100
AcDbArc
 50
90.00758927700001
 51
96.8413010899
  0
ARC
  5
347
330
214
100
AcDbEntity
  8
0
  6
Continuous
 62
     7
100
AcDbCircle
 10
554.2426651559
 20
264.9291855622
 30
0.0
 40
1.000000005299999
100
AcDbArc
 50
180.0000184177
 51
269.9999873424
  0
ARC
  5
348
330
214
100
AcDbEntity
  8
0
  6
Continuous
 62
     7
100
AcDbCircle
 10
588.2439483922
 20
381.3423922683
 30
0.0
 40
1.0
100
AcDbArc
 50
90.02697597879999
 51
179.8151691136
  0
ARC
  5
349
330
214
100
AcDbEntity
  8
0
  6
Continuous
 62
     7
100
AcDbCircle
 10
593.2426651559999
 20
373.841333127
 30
0.0
 40
1.0
100
AcDbArc
 50
0.0
 51
89.0
  0
ARC
  5
34A
330
214
100
AcDbEntity
  8
0
  6
Continuous
 62
     7
100
AcDbCircle
 10
588.2426651559999
 20
375.9289131076999
 30
0.0
 40
1.0
100
AcDbArc
 50
180.0
 51
269.0
  0
ARC
  5
34B
330
214
100
AcDbEntity
  8
0
  6
Continuous
 62
     7
100
AcDbCircle
 10
588.1838680080999
 20
362.7181213644
 30
0.0
 40
1.0
100
AcDbArc
 50
91.0
 51
179.8151691136
  0
ARC
  5
34C
330
214
100
AcDbEntity
  8
0
  6
Continuous
 62
     7
100
AcDbCircle
 10
593.2426651559999
 20
364.8067276532
 30
0.0
 40
1.0
100
AcDbArc
 50
271.0
 51
360.0
  0
ARC
  5
34D
330
214
100
AcDbEntity
  8
0
  6
Continuous
 62
     7
100
AcDbCircle
 10
576.6047772854
 20
283.9930736068
 30
0.0
 40
1.0
100
AcDbArc
 50
273.0
 51
334.5
  0
ARC
  5
34E
330
214
100
AcDbEntity
  8
0
  6
Continuous
 62
     7
100
AcDbCircle
 10
561.7426651559999
 20
281.2114386227
 30
0.0
 40
1.0
100
AcDbArc
 50
93.0
 51
180.0
  0
ARC
  5
34F
330
214
100
AcDbEntity
  8
0
  6
Continuous
 62
     7
100
AcDbCircle
 10
559.7426651559999
 20
271.1431004525
 30
0.0
 40
1.0
100
AcDbArc
 50
271.0
 51
360.0
  0
ARC
  5
350
330
214
100
AcDbEntity
  8
0
  6
Continuous
 62
     7
100
AcDbCircle
 10
554.2426651559999
 20
269.0467929393
 30
0.0
 40
1.0
100
AcDbArc
 50
91.0
 51
180.0
  0
ARC
  5
351
330
214
100
AcDbEntity
  8
RUNDUNGEN
  6
Continuous
 62
     9
100
AcDbCircle
 10
535.2953359610999
 20
305.3043528834
 30
0.0
 40
0.9595050407
100
AcDbArc
 50
269.980344457
 51
271.0560506775
  0
ARC
  5
352
330
214
100
AcDbEntity
  8
RUNDUNGEN
  6
Continuous
 62
     9
100
AcDbCircle
 10
509.7894716313
 20
381.2000015281
 30
0.0
 40
0.9375980454999998
100
AcDbArc
 50
82.37167515729998
 51
83.07978792649999
  0
ARC
  5
353
330
214
100
AcDbEntity
  8
RUNDUNGEN
  6
Continuous
 62
     9
100
AcDbCircle
 10
509.7898662330999
 20
381.2025590999
 30
0.0
 40
0.9350107275
100
AcDbArc
 50
75.24595730359999
 51
82.37483718689999
  0
ARC
  5
354
330
214
100
AcDbEntity
  8
RUNDUNGEN
  6
Continuous
 62
     9
100
AcDbCircle
 10
1279.9453572916
 20
616.1306835087
 30
0.0
 40
785.664270478
100
AcDbArc
 50
198.8113678194
 51
199.0839716509
  0
ARC
  5
355
330
214
100
AcDbEntity
  8
RUNDUNGEN
  6
Continuous
 62
     9
100
AcDbCircle
 10
1197.1863190406
 20
590.8944002440001
 30
0.0
 40
700.2497090582001
100
AcDbArc
 50
199.0771175775
 51
199.409739535
  0
ARC
  5
356
330
214
100
AcDbEntity
  8
RUNDUNGEN
  6
Continuous
 62
     9
100
AcDbCircle
 10
541.4210614119
 20
4567.642470723
 30
0.0
 40
4304.3772677031
100
AcDbArc
 50
270.0242474586
 51
270.3471215083
  0
SPLINE
  5
357
330
214
100
AcDbEntity
  8
0
  6
Continuous
 62
     7
100
AcDbSpline
210
0.0
220
0.0
230
1.0
 70
     8
 71
     3
 72
     8
 73
     4
 74
     0
 42
0.0000000001
 43
0.0000000001
 40
0.0
 40
0.0
 40
0.0
 40
0.0
 40
1.0
 40
1.0
 40
1.0
 40
1.0
 10
529.7426651559999
 20
383.351769344
 30
0.0
 10
529.4870026592999
 20
383.2041625328
 30
0.0
 10
529.2254221648001
 20
383.0660213886
 30
0.0
 10
528.9575291785999
 20
382.9419873977
 30
0.0
  0
SPLINE
  5
358
330
214
100
AcDbEntity
  8
0
  6
Continuous
 62
     7
100
AcDbSpline
210
0.0
220
0.0
230
1.0
 70
     8
 71
     3
 72
     8
 73
     4
 74
     0
 42
0.0000000001
 43
0.0000000001
 40
0.0
 40
0.0
 40
0.0
 40
0.0
 40
1.0
 40
1.0
 40
1.0
 40
1.0
 10
523.2426651559999
 20
383.351769344
 30
0.0
 10
522.9870026592999
 20
383.2041625328
 30
0.0
 10
522.7254221648
 20
383.0660213886
 30
0.0
 10
522.4575291786
 20
382.9419873977
 30
0.0
  0
SPLINE
  5
359
330
214
100
AcDbEntity
  8
0
  6
Continuous
 62
     7
100
AcDbSpline
210
0.0
220
0.0
230
1.0
 70
     8
 71
     3
 72
     8
 73
     4
 74
     0
 42
0.0000000001
 43
0.0000000001
 40
0.0
 40
0.0
 40
0.0
 40
0.0
 40
1.0
 40
1.0
 40
1.0
 40
1.0
 10
517.5278582176999
 20
382.9419608046
 30
0.0
 10
517.2599453105
 20
383.0660016808
 30
0.0
 10
516.9983458133999
 20
383.2041520476
 30
0.0
 10
516.7426651559999
 20
383.351769344
 30
0.0
  0
SPLINE
  5
35A
330
214
100
AcDbEntity
  8
0
  6
Continuous
 62
     7
100
AcDbSpline
210
0.0
220
0.0
230
1.0
 70
     8
 71
     3
 72
     8
 73
     4
 74
     0
 42
0.0000000001
 43
0.0000000001
 40
0.0
 40
0.0
 40
0.0
 40
0.0
 40
1.0
 40
1.0
 40
1.0
 40
1.0
 10
524.0278582176999
 20
382.9419608046
 30
0.0
 10
523.7599453105
 20
383.0660016808
 30
0.0
 10
523.4983458133999
 20
383.2041520476
 30
0.0
 10
523.2426651559999
 20
383.351769344
 30
0.0
  0
SPLINE
  5
35B
330
214
100
AcDbEntity
  8
0
  6
Continuous
 62
     7
100
AcDbSpline
210
0.0
220
0.0
230
1.0
 70
     8
 71
     3
 72
    11
 73
     7
 74
     0
 42
0.0000000001
 43
0.0000000001
 40
0.0
 40
0.0
 40
0.0
 40
0.0
 40
0.2499928699
 40
0.4999885343
 40
0.7499910609000001
 40
1.0
 40
1.0
 40
1.0
 40
1.0
 10
568.745396326
 20
266.9253795518
 30
0.0
 10
568.7453576966
 20
266.5352834622
 30
0.0
 10
568.5890317411
 20
265.7464935611
 30
0.0
 10
567.9201044223999
 20
264.7503252165
 30
0.0
 10
566.9219869866999
 20
264.084527323
 30
0.0
 10
566.1332424890999
 20
263.9292361071
 30
0.0
 10
565.7431213244999
 20
263.9291993755
 30
0.0
  0
SPLINE
  5
35C
330
214
100
AcDbEntity
  8
0
  6
Continuous
 62
     9
100
AcDbSpline
210
0.0
220
0.0
230
1.0
 70
     8
 71
     3
 72
    27
 73
    23
 74
     0
 42
0.0000000001
 43
0.0000000001
 40
0.0
 40
0.0
 40
0.0
 40
0.0
 40
0.0005059183
 40
0.0014958951
 40
0.0051936014
 40
0.0112511998
 40
0.0196738384
 40
0.0304487206
 40
0.0435527295
 40
0.0589563785
 40
0.0766235259
 40
0.0965123686
 40
0.1185756576
 40
0.1690089544
 40
0.2274401702
 40
0.2933082032
 40
0.3659798946
 40
0.4447562581000001
 40
0.5288792757000001
 40
0.6175392770000001
 40
0.8050200237
 40
1.0
 40
1.0
 40
1.0
 40
1.0
 10
483.2426651559999
 20
261.9291857164
 30
0.0
 10
483.2426661476
 20
261.9224357025
 30
0.0
 10
483.2604109674999
 20
261.9067707948
 30
0.0
 10
483.3234686505999
 20
261.8849357876
 30
0.0
 10
483.4670765855999
 20
261.8564834137
 30
0.0
 10
483.7062797528
 20
261.8270735824
 30
0.0
 10
484.0425136408
 20
261.7958457425999
 30
0.0
 10
484.4721288028999
 20
261.7649827721
 30
0.0
 10
484.9954342658
 20
261.7340880884
 30
0.0
 10
485.6107217864
 20
261.7035830987
 30
0.0
 10
486.3166891584
 20
261.6735040172
 30
0.0
 10
487.1115873328999
 20
261.6439785298
 30
0.0
 10
488.3435475553
 20
261.6036442136
 30
0.0
 10
490.0897676939
 20
261.5562168636
 30
0.0
 10
492.4205064176
 20
261.5047730122
 30
0.0
 10
495.0480880912
 20
261.45720376
 30
0.0
 10
497.9472238097
 20
261.4140029246
 30
0.0
 10
501.0900063225
 20
261.3756351663
 30
0.0
 10
504.4461764916
 20
261.3424889404
 30
0.0
 10
509.2527095017
 20
261.3050228784
 30
0.0
 10
515.5383885121
 20
261.2740780573
 30
0.0
 10
520.6412222893
 20
261.2658935252
 30
0.0
 10
523.2426651559999
 20
261.265893079
 30
0.0
  0
SPLINE
  5
35D
330
214
100
AcDbEntity
  8
RUNDUNGEN
  6
Continuous
 62
     9
100
AcDbSpline
210
0.0
220
0.0
230
1.0
 70
     8
 71
     3
 72
     9
 73
     5
 74
     0
 42
0.0000000001
 43
0.0000000001
 40
0.0
 40
0.0
 40
0.0
 40
0.0
 40
0.5537222072
 40
1.0
 40
1.0
 40
1.0
 40
1.0
 10
508.3127933932
 20
381.3456181703
 30
0.0
 10
508.3126824647
 20
381.4930266443
 30
0.0
 10
508.2989352844999
 20
381.7590677832
 30
0.0
 10
508.2558076267999
 20
382.0235459072
 30
0.0
 10
508.2210954208
 20
382.1371670677
 30
0.0
  0
SPLINE
  5
35E
330
214
100
AcDbEntity
  8
RUNDUNGEN
  6
Continuous
 62
     9
100
AcDbSpline
210
0.0
220
0.0
230
1.0
 70
     8
 71
     3
 72
     9
 73
     5
 74
     0
 42
0.0000000001
 43
0.0000000001
 40
0.0
 40
0.0
 40
0.0
 40
0.0
 40
0.6247956935
 40
1.0
 40
1.0
 40
1.0
 40
1.0
 10
508.2210954208
 20
382.1371670677
 30
0.0
 10
508.2064211519
 20
382.1851993782
 30
0.0
 10
508.1802428115
 20
382.2591557536
 30
0.0
 10
508.126605989
 20
382.3294471571
 30
0.0
 10
508.0980690441999
 20
382.3392095578
 30
0.0
  0
SPLINE
  5
35F
330
214
100
AcDbEntity
  8
RUNDUNGEN
  6
Continuous
 62
     9
100
AcDbSpline
210
0.0
220
0.0
230
1.0
 70
     8
 71
     3
 72
     8
 73
     4
 74
     0
 42
0.0000000001
 43
0.0000000001
 40
0.0
 40
0.0
 40
0.0
 40
0.0
 40
1.0
 40
1.0
 40
1.0
 40
1.0
 10
508.0980690441999
 20
382.3392095578
 30
0.0
 10
508.0921336164
 20
382.3412400493
 30
0.0
 10
508.0857931811999
 20
382.3423832773999
 30
0.0
 10
508.0795200502
 20
382.3423883324
 30
0.0
  0
SPLINE
  5
361
330
214
100
AcDbEntity
  8
RUNDUNGEN
  6
Continuous
 62
     9
100
AcDbSpline
210
0.0
220
0.0
230
1.0
 70
     8
 71
     3
 72
    11
 73
     7
 74
     0
 42
0.0000000001
 43
0.0000000001
 40
0.0
 40
0.0
 40
0.0
 40
0.0
 40
0.2540094925
 40
0.5054500056000001
 40
0.75379265
 40
1.0
 40
1.0
 40
1.0
 40
1.0
 10
509.045445883
 20
381.3423922684
 30
0.0
 10
509.0462636358999
 20
381.4626527793
 30
0.0
 10
509.0059265834999
 20
381.7044794517
 30
0.0
 10
508.8237197321999
 20
382.0201437274
 30
0.0
 10
508.543940795
 20
382.2483632514
 30
0.0
 10
508.3145308724
 20
382.3213188225
 30
0.0
 10
508.1987939416
 20
382.3352242969
 30
0.0
  0
SPLINE
  5
362
330
214
100
AcDbEntity
  8
RUNDUNGEN
  6
Continuous
 62
     9
100
AcDbSpline
210
0.0
220
0.0
230
1.0
 70
     8
 71
     3
 72
     9
 73
     5
 74
     0
 42
0.0000000001
 43
0.0000000001
 40
0.0
 40
0.0
 40
0.0
 40
0.0
 40
0.5053844404
 40
1.0
 40
1.0
 40
1.0
 40
1.0
 10
510.7479342234999
 20
381.1380763793
 30
0.0
 10
510.7496807678
 20
381.3529886229
 30
0.0
 10
510.6141638337
 20
381.7925179636
 30
0.0
 10
510.2313806137
 20
382.0531376133
 30
0.0
 10
510.0279855841
 20
382.1067406277
 30
0.0
  0
SPLINE
  5
363
330
214
100
AcDbEntity
  8
RUNDUNGEN
  6
Continuous
 62
     9
100
AcDbSpline
210
0.0
220
0.0
230
1.0
 70
     8
 71
     3
 72
    12
 73
     8
 74
     0
 42
0.0000000001
 43
0.0000000001
 40
0.0
 40
0.0
 40
0.0
 40
0.0
 40
0.3700509757
 40
0.6854423716
 40
0.9012074031999999
 40
0.9638059994
 40
1.0
 40
1.0
 40
1.0
 40
1.0
 10
511.549162834
 20
381.0979916935
 30
0.0
 10
511.5491628336
 20
381.2256237682
 30
0.0
 10
511.541809834
 20
381.4624233506
 30
0.0
 10
511.5114001116999
 20
381.7709484449
 30
0.0
 10
511.468826416
 20
381.9742456311
 30
0.0
 10
511.4268302368
 20
382.0728142976999
 30
0.0
 10
511.3969510991
 20
382.0979641031
 30
0.0
 10
511.3844676615999
 20
382.0979860665
 30
0.0
  0
SPLINE
  5
364
330
214
100
AcDbEntity
  8
RUNDUNGEN
  6
Continuous
 62
     9
100
AcDbSpline
210
0.0
220
0.0
230
1.0
 70
     8
 71
     3
 72
    12
 73
     8
 74
     0
 42
0.0000000001
 43
0.0000000001
 40
0.0
 40
0.0
 40
0.0
 40
0.0
 40
0.3700511339
 40
0.6854426001000001
 40
0.9012075562999999
 40
0.9638060643999999
 40
1.0
 40
1.0
 40
1.0
 40
1.0
 10
534.9361674779999
 20
381.0979916935
 30
0.0
 10
534.9361674779999
 20
381.2256238397
 30
0.0
 10
534.9435204888
 20
381.4624235294001
 30
0.0
 10
534.9739302228999
 20
381.7709487276
 30
0.0
 10
535.0165039836
 20
381.9742458794
 30
0.0
 10
535.0585001672
 20
382.0728144953
 30
0.0
 10
535.0883793839
 20
382.0979641732
 30
0.0
 10
535.1008628007
 20
382.0979860668
 30
0.0
  0
SPLINE
  5
365
330
214
100
AcDbEntity
  8
RUNDUNGEN
  6
Continuous
 62
     9
100
AcDbSpline
210
0.0
220
0.0
230
1.0
 70
     8
 71
     3
 72
    11
 73
     7
 74
     0
 42
0.0000000001
 43
0.0000000001
 40
0.0
 40
0.0
 40
0.0
 40
0.0
 40
0.2539914037
 40
0.5053953376
 40
0.7537080348
 40
1.0
 40
1.0
 40
1.0
 40
1.0
 10
535.7373935248
 20
381.1380763793
 30
0.0
 10
535.7364170033999
 20
381.2582361002
 30
0.0
 10
535.7768651517
 20
381.4998543566001
 30
0.0
 10
535.9586227183
 20
381.8153476689
 30
0.0
 10
536.2380339251
 20
382.0436236769
 30
0.0
 10
536.4672184605999
 20
382.1167264697
 30
0.0
 10
536.5828907520999
 20
382.1307650459
 30
0.0
  0
SPLINE
  5
366
330
214
100
AcDbEntity
  8
RUNDUNGEN
  6
Continuous
 62
     9
100
AcDbSpline
210
0.0
220
0.0
230
1.0
 70
     8
 71
     3
 72
    11
 73
     7
 74
     0
 42
0.0000000001
 43
0.0000000001
 40
0.0
 40
0.0
 40
0.0
 40
0.0
 40
0.2540094775
 40
0.5054499841000001
 40
0.7537926344
 40
1.0
 40
1.0
 40
1.0
 40
1.0
 10
537.4398844289999
 20
381.3423922684
 30
0.0
 10
537.4390666583
 20
381.4626527664
 30
0.0
 10
537.4794037327999
 20
381.7044794157
 30
0.0
 10
537.6616105372
 20
382.0201436824
 30
0.0
 10
537.9413894572
 20
382.2483632169999
 30
0.0
 10
538.1707993726999
 20
382.321318804
 30
0.0
 10
538.2865363043999
 20
382.3352242876
 30
0.0
  0
SPLINE
  5
367
330
214
100
AcDbEntity
  8
RUNDUNGEN
  6
Continuous
 62
     9
100
AcDbSpline
210
0.0
220
0.0
230
1.0
 70
     8
 71
     3
 72
     9
 73
     5
 74
     0
 42
0.0000000001
 43
0.0000000001
 40
0.0
 40
0.0
 40
0.0
 40
0.0
 40
0.5537221368000001
 40
1.0
 40
1.0
 40
1.0
 40
1.0
 10
538.1725369173999
 20
381.3456181703
 30
0.0
 10
538.1726478458
 20
381.4930265595
 30
0.0
 10
538.1863950130999
 20
381.7590675805
 30
0.0
 10
538.2295226274
 20
382.0235455847
 30
0.0
 10
538.264234786
 20
382.1371667236
 30
0.0
  0
SPLINE
  5
368
330
214
100
AcDbEntity
  8
RUNDUNGEN
  6
Continuous
 62
     9
100
AcDbSpline
210
0.0
220
0.0
230
1.0
 70
     8
 71
     3
 72
     9
 73
     5
 74
     0
 42
0.0000000001
 43
0.0000000001
 40
0.0
 40
0.0
 40
0.0
 40
0.0
 40
0.6248329713000001
 40
1.0
 40
1.0
 40
1.0
 40
1.0
 10
538.264234786
 20
382.1371667236
 30
0.0
 10
538.2789118276
 20
382.1852081662001
 30
0.0
 10
538.3050899866999
 20
382.2591724505
 30
0.0
 10
538.3587501957999
 20
382.3294728195
 30
0.0
 10
538.3872931723999
 20
382.339220463
 30
0.0
  0
SPLINE
  5
369
330
214
100
AcDbEntity
  8
RUNDUNGEN
  6
Continuous
 62
     9
100
AcDbSpline
210
0.0
220
0.0
230
1.0
 70
     8
 71
     3
 72
     8
 73
     4
 74
     0
 42
0.0000000001
 43
0.0000000001
 40
0.0
 40
0.0
 40
0.0
 40
0.0
 40
1.0
 40
1.0
 40
1.0
 40
1.0
 10
538.3872931723999
 20
382.339220463
 30
0.0
 10
538.3932255438
 20
382.3412464129
 30
0.0
 10
538.3995619857
 20
382.3423856602
 30
0.0
 10
538.4058307571999
 20
382.342388345
 30
0.0
  0
SPLINE
  5
36A
330
214
100
AcDbEntity
  8
RUNDUNGEN
  6
Continuous
 62
     9
100
AcDbSpline
210
0.0
220
0.0
230
1.0
 70
     8
 71
     3
 72
    12
 73
     8
 74
     0
 42
0.0000000001
 43
0.0000000001
 40
0.0
 40
0.0
 40
0.0
 40
0.0
 40
0.3591518985
 40
0.6680631970000001
 40
0.7904688411000001
 40
0.8866266887
 40
1.0
 40
1.0
 40
1.0
 40
1.0
 10
538.1729031748999
 20
375.9289131076999
 30
0.0
 10
538.1729031748999
 20
375.8025607775
 30
0.0
 10
538.1833631417999
 20
375.5670371637001
 30
0.0
 10
538.2208134819999
 20
375.2921646313
 30
0.0
 10
538.2700002566
 20
375.1104018481
 30
0.0
 10
538.3107729537999
 20
375.006672281
 30
0.0
 10
538.3623423615
 20
374.9320414496
 30
0.0
 10
538.4021167598
 20
374.9290654125
 30
0.0
  0
SPLINE
  5
36B
330
214
100
AcDbEntity
  8
RUNDUNGEN
  6
Continuous
 62
     9
100
AcDbSpline
210
0.0
220
0.0
230
1.0
 70
     8
 71
     3
 72
    11
 73
     7
 74
     0
 42
0.0000000001
 43
0.0000000001
 40
0.0
 40
0.0
 40
0.0
 40
0.0
 40
0.2458966611
 40
0.4943968383
 40
0.7461703245
 40
1.0
 40
1.0
 40
1.0
 40
1.0
 10
538.4021167598
 20
374.9290654125
 30
0.0
 10
538.2768561473999
 20
374.9301448179
 30
0.0
 10
538.0226440515
 20
374.9845647137
 30
0.0
 10
537.7038144016
 20
375.2087514061
 30
0.0
 10
537.491060033
 20
375.539609242
 30
0.0
 10
537.4407749514999
 20
375.7996076056
 30
0.0
 10
537.4402623176
 20
375.9289131076999
 30
0.0
  0
SPLINE
  5
36C
330
214
100
AcDbEntity
  8
RUNDUNGEN
  6
Continuous
 62
     9
100
AcDbSpline
210
0.0
220
0.0
230
1.0
 70
     8
 71
     3
 72
    12
 73
     8
 74
     0
 42
0.0000000001
 43
0.0000000001
 40
0.0
 40
0.0
 40
0.0
 40
0.0
 40
0.0418833627
 40
0.108117206
 40
0.3253316365
 40
0.6367726158
 40
1.0
 40
1.0
 40
1.0
 40
1.0
 10
536.9354671122001
 20
374.8411808221
 30
0.0
 10
536.9499744119999
 20
374.8398859648
 30
0.0
 10
536.9829429271
 20
374.8145163828
 30
0.0
 10
537.0342243924
 20
374.7139889253
 30
0.0
 10
537.0829273686
 20
374.5101370957
 30
0.0
 10
537.1192249593
 20
374.2026489826999
 30
0.0
 10
537.1276167636
 20
373.967645731
 30
0.0
 10
537.1276167689
 20
373.841333127
 30
0.0
  0
SPLINE
  5
36D
330
214
100
AcDbEntity
  8
RUNDUNGEN
  6
Continuous
 62
     9
100
AcDbSpline
210
0.0
220
0.0
230
1.0
 70
     8
 71
     3
 72
    11
 73
     7
 74
     0
 42
0.0000000001
 43
0.0000000001
 40
0.0
 40
0.0
 40
0.0
 40
0.0
 40
0.2656941125
 40
0.5198669907
 40
0.7630780278
 40
1.0
 40
1.0
 40
1.0
 40
1.0
 10
535.7373989908999
 20
375.826763903
 30
0.0
 10
535.7367790605
 20
375.675155755
 30
0.0
 10
535.8229348957999
 20
375.3730313659
 30
0.0
 10
536.1366921761
 20
375.0527888744001
 30
0.0
 10
536.5244211483
 20
374.875940848
 30
0.0
 10
536.8002782645
 20
374.8403277646
 30
0.0
 10
536.9354671191
 20
374.8411831437
 30
0.0
  0
SPLINE
  5
36E
330
214
100
AcDbEntity
  8
RUNDUNGEN
  6
Continuous
 62
     9
100
AcDbSpline
210
0.0
220
0.0
230
1.0
 70
     8
 71
     3
 72
     9
 73
     5
 74
     0
 42
0.0000000001
 43
0.0000000001
 40
0.0
 40
0.0
 40
0.0
 40
0.0
 40
0.3405754504
 40
1.0
 40
1.0
 40
1.0
 40
1.0
 10
538.1725369173999
 20
381.3456181703
 30
0.0
 10
538.0893616695
 20
381.3454684174
 30
0.0
 10
537.8451449074
 20
381.3447145037
 30
0.0
 10
537.6009129904
 20
381.3446758692
 30
0.0
 10
537.4398844289999
 20
381.3423922684
 30
0.0
  0
SPLINE
  5
36F
330
214
100
AcDbEntity
  8
RUNDUNGEN
  6
Continuous
 62
     9
100
AcDbSpline
210
0.0
220
0.0
230
1.0
 70
     8
 71
     3
 72
    10
 73
     6
 74
     0
 42
0.0000000001
 43
0.0000000001
 40
0.0
 40
0.0
 40
0.0
 40
0.0
 40
0.1410671901
 40
0.3675246452
 40
1.0
 40
1.0
 40
1.0
 40
1.0
 10
535.7373833507999
 20
381.1380734217
 30
0.0
 10
535.7006922211
 20
381.1291689544
 30
0.0
 10
535.6024766346999
 20
381.1185062643
 30
0.0
 10
535.3356891167
 20
381.1007489442
 30
0.0
 10
535.1054927502999
 20
381.0979907855
 30
0.0
 10
534.9362127895999
 20
381.0979919451
 30
0.0
  0
SPLINE
  5
370
330
214
100
AcDbEntity
  8
RUNDUNGEN
  6
Continuous
 62
     9
100
AcDbSpline
210
0.0
220
0.0
230
1.0
 70
     8
 71
     3
 72
    12
 73
     8
 74
     0
 42
0.0000000001
 43
0.0000000001
 40
0.0
 40
0.0
 40
0.0
 40
0.0
 40
0.1133745977
 40
0.2095327805
 40
0.3319387676
 40
0.64085057
 40
1.0
 40
1.0
 40
1.0
 40
1.0
 10
508.0832135520999
 20
374.9290654125
 30
0.0
 10
508.1229883992
 20
374.9320414831
 30
0.0
 10
508.1745579275
 20
375.0066733005001
 30
0.0
 10
508.2153305571
 20
375.1104035328
 30
0.0
 10
508.2645172599
 20
375.2921667773001
 30
0.0
 10
508.3019672420999
 20
375.5670387526
 30
0.0
 10
508.3124271371
 20
375.8025616539
 30
0.0
 10
508.3124271371
 20
375.9289131076999
 30
0.0
  0
SPLINE
  5
371
330
214
100
AcDbEntity
  8
RUNDUNGEN
  6
Continuous
 62
     9
100
AcDbSpline
210
0.0
220
0.0
230
1.0
 70
     8
 71
     3
 72
    11
 73
     7
 74
     0
 42
0.0000000001
 43
0.0000000001
 40
0.0
 40
0.0
 40
0.0
 40
0.0
 40
0.2538284637
 40
0.5056069812000001
 40
0.7541255825
 40
1.0
 40
1.0
 40
1.0
 40
1.0
 10
509.0450679943
 20
375.9289131076999
 30
0.0
 10
509.0443789476999
 20
375.799609085
 30
0.0
 10
508.9943769485
 20
375.5396035287
 30
0.0
 10
508.781489523
 20
375.2087375376
 30
0.0
 10
508.4626715886
 20
374.9845996854
 30
0.0
 10
508.2084630373999
 20
374.9301159271
 30
0.0
 10
508.0832135520999
 20
374.9290654125
 30
0.0
  0
SPLINE
  5
372
330
214
100
AcDbEntity
  8
RUNDUNGEN
  6
Continuous
 62
     9
100
AcDbSpline
210
0.0
220
0.0
230
1.0
 70
     8
 71
     3
 72
    11
 73
     7
 74
     0
 42
0.0000000001
 43
0.0000000001
 40
0.0
 40
0.0
 40
0.0
 40
0.0
 40
0.23692164
 40
0.4801324485000001
 40
0.7343063815999999
 40
1.0
 40
1.0
 40
1.0
 40
1.0
 10
509.5498631933
 20
374.8411831399
 30
0.0
 10
509.6850518573999
 20
374.8403277617
 30
0.0
 10
509.9609086344999
 20
374.8759408143
 30
0.0
 10
510.3486379657
 20
375.052788651
 30
0.0
 10
510.66239545
 20
375.3730314304001
 30
0.0
 10
510.7485512369999
 20
375.6751560353
 30
0.0
 10
510.7479314655
 20
375.826763901
 30
0.0
  0
SPLINE
  5
373
330
214
100
AcDbEntity
  8
RUNDUNGEN
  6
Continuous
 62
     9
100
AcDbSpline
210
0.0
220
0.0
230
1.0
 70
     8
 71
     3
 72
    12
 73
     8
 74
     0
 42
0.0000000001
 43
0.0000000001
 40
0.0
 40
0.0
 40
0.0
 40
0.0
 40
0.3632273842
 40
0.6746683635
 40
0.8918827940999999
 40
0.9581166373
 40
1.0
 40
1.0
 40
1.0
 40
1.0
 10
509.3577135430999
 20
373.841333127
 30
0.0
 10
509.3577135483999
 20
373.967645731
 30
0.0
 10
509.3661053527999
 20
374.2026489826999
 30
0.0
 10
509.4024029437999
 20
374.5101370957
 30
0.0
 10
509.4511059201999
 20
374.7139889253
 30
0.0
 10
509.5023873856
 20
374.8145163828
 30
0.0
 10
509.5353559007
 20
374.8398859648
 30
0.0
 10
509.5498632005
 20
374.8411808221
 30
0.0
  0
SPLINE
  5
374
330
214
100
AcDbEntity
  8
RUNDUNGEN
  6
Continuous
 62
     9
100
AcDbSpline
210
0.0
220
0.0
230
1.0
 70
     8
 71
     3
 72
    10
 73
     6
 74
     0
 42
0.0000000001
 43
0.0000000001
 40
0.0
 40
0.0
 40
0.0
 40
0.0
 40
0.6324753572999999
 40
0.8589328113
 40
1.0
 40
1.0
 40
1.0
 40
1.0
 10
511.5491174876
 20
381.0979919453
 30
0.0
 10
511.3798375331
 20
381.0979907848001
 30
0.0
 10
511.1496411779
 20
381.1007489543
 30
0.0
 10
510.8828536659999
 20
381.1185062551
 30
0.0
 10
510.7846380898
 20
381.1291689679
 30
0.0
 10
510.7479469589
 20
381.1380734223
 30
0.0
  0
SPLINE
  5
375
330
214
100
AcDbEntity
  8
RUNDUNGEN
  6
Continuous
 62
     9
100
AcDbSpline
210
0.0
220
0.0
230
1.0
 70
     8
 71
     3
 72
     9
 73
     5
 74
     0
 42
0.0000000001
 43
0.0000000001
 40
0.0
 40
0.0
 40
0.0
 40
0.0
 40
0.3405553846
 40
1.0
 40
1.0
 40
1.0
 40
1.0
 10
508.3124271371
 20
380.9462158446
 30
0.0
 10
508.3955959815
 20
380.9460612738
 30
0.0
 10
508.6398081791999
 20
380.9453042199
 30
0.0
 10
508.8840366598
 20
380.9453269843
 30
0.0
 10
509.0450664621
 20
380.9429899426
 30
0.0
  0
SPLINE
  5
376
330
214
100
AcDbEntity
  8
RUNDUNGEN
  6
Continuous
 62
     9
100
AcDbSpline
210
0.0
220
0.0
230
1.0
 70
     8
 71
     3
 72
     9
 73
     5
 74
     0
 42
0.0000000001
 43
0.0000000001
 40
0.0
 40
0.0
 40
0.0
 40
0.0
 40
0.140889756
 40
1.0
 40
1.0
 40
1.0
 40
1.0
 10
509.045445883
 20
381.3423922684
 30
0.0
 10
509.0110411941
 20
381.342880173
 30
0.0
 10
508.7668251022
 20
381.3446926033
 30
0.0
 10
508.5226052759
 20
381.3452404146
 30
0.0
 10
508.3127933945999
 20
381.3456181703
 30
0.0
  0
SPLINE
  5
377
330
214
100
AcDbEntity
  8
RUNDUNGEN
  6
Continuous
 62
     9
100
AcDbSpline
210
0.0
220
0.0
230
1.0
 70
     8
 71
     3
 72
    12
 73
     8
 74
     0
 42
0.0000000001
 43
0.0000000001
 40
0.0
 40
0.0
 40
0.0
 40
0.0
 40
0.3592505138
 40
0.6680432843000001
 40
0.790381123
 40
0.8865026235
 40
1.0
 40
1.0
 40
1.0
 40
1.0
 10
508.2955867769999
 20
362.7213472664
 30
0.0
 10
508.2954917399
 20
362.8473744825
 30
0.0
 10
508.2848886256999
 20
363.0822090282
 30
0.0
 10
508.2473005808
 20
363.3562517894
 30
0.0
 10
508.1980476841001
 20
363.5373415837999
 30
0.0
 10
508.1572265013
 20
363.6407628896
 30
0.0
 10
508.1056099073999
 20
363.7150042861
 30
0.0
 10
508.0659048775999
 20
363.7179690596
 30
0.0
  0
SPLINE
  5
378
330
214
100
AcDbEntity
  8
RUNDUNGEN
  6
Continuous
 62
     9
100
AcDbSpline
210
0.0
220
0.0
230
1.0
 70
     8
 71
     3
 72
    11
 73
     7
 74
     0
 42
0.0000000001
 43
0.0000000001
 40
0.0
 40
0.0
 40
0.0
 40
0.0
 40
0.1408882978
 40
0.3660685456
 40
0.659434165
 40
1.0
 40
1.0
 40
1.0
 40
1.0
 10
509.0277509798
 20
362.7181213644
 30
0.0
 10
508.9934604661999
 20
362.7206671349
 30
0.0
 10
508.9039613036
 20
362.7177577551
 30
0.0
 10
508.7431184636
 20
362.7206262145
 30
0.0
 10
508.5334214299
 20
362.7214498091
 30
0.0
 10
508.3786736353999
 20
362.7190817492
 30
0.0
 10
508.2955867769999
 20
362.7213472664
 30
0.0
  0
SPLINE
  5
379
330
214
100
AcDbEntity
  8
RUNDUNGEN
  6
Continuous
 62
     9
100
AcDbSpline
210
0.0
220
0.0
230
1.0
 70
     8
 71
     3
 72
    11
 73
     7
 74
     0
 42
0.0000000001
 43
0.0000000001
 40
0.0
 40
0.0
 40
0.0
 40
0.0
 40
0.245896862
 40
0.4943970254
 40
0.7461703859000001
 40
1.0
 40
1.0
 40
1.0
 40
1.0
 10
508.0659048775999
 20
363.7179690596
 30
0.0
 10
508.1911649862
 20
363.7168886901
 30
0.0
 10
508.445375534
 20
363.6624674193
 30
0.0
 10
508.7642025702999
 20
363.4382802980001
 30
0.0
 10
508.9769545944999
 20
363.1074233524
 30
0.0
 10
509.027238618
 20
362.8474262192
 30
0.0
 10
509.0277509798
 20
362.7181213644
 30
0.0
  0
SPLINE
  5
37A
330
214
100
AcDbEntity
  8
RUNDUNGEN
  6
Continuous
 62
     9
100
AcDbSpline
210
0.0
220
0.0
230
1.0
 70
     8
 71
     3
 72
    12
 73
     8
 74
     0
 42
0.0000000001
 43
0.0000000001
 40
0.0
 40
0.0
 40
0.0
 40
0.0
 40
0.363227385
 40
0.6746683661000001
 40
0.8918827993
 40
0.9581166423999999
 40
1.0
 40
1.0
 40
1.0
 40
1.0
 10
509.3577135430999
 20
364.8067276532
 30
0.0
 10
509.3577135430999
 20
364.6804150493
 30
0.0
 10
509.3661053437
 20
364.4454117967
 30
0.0
 10
509.4024029424999
 20
364.1379236839
 30
0.0
 10
509.4511059293
 20
363.9340718545
 30
0.0
 10
509.5023873941999
 20
363.8335444007
 30
0.0
 10
509.5353559047
 20
363.8081748157
 30
0.0
 10
509.5498632026
 20
363.8068799581
 30
0.0
  0
SPLINE
  5
37B
330
214
100
AcDbEntity
  8
RUNDUNGEN
  6
Continuous
 62
     9
100
AcDbSpline
210
0.0
220
0.0
230
1.0
 70
     8
 71
     3
 72
     9
 73
     5
 74
     0
 42
0.0000000001
 43
0.0000000001
 40
0.0
 40
0.0
 40
0.0
 40
0.0
 40
0.2469307718
 40
1.0
 40
1.0
 40
1.0
 40
1.0
 10
509.5498631973
 20
363.8068784647
 30
0.0
 10
509.6204304313999
 20
363.8073249311
 30
0.0
 10
509.9055635923
 20
363.7893690981
 30
0.0
 10
510.1885733641
 20
363.6827934222
 30
0.0
 10
510.3607360568
 20
363.5536528903
 30
0.0
  0
SPLINE
  5
37C
330
214
100
AcDbEntity
  8
RUNDUNGEN
  6
Continuous
 62
     9
100
AcDbSpline
210
0.0
220
0.0
230
1.0
 70
     8
 71
     3
 72
    11
 73
     7
 74
     0
 42
0.0000000001
 43
0.0000000001
 40
0.0
 40
0.0
 40
0.0
 40
0.0
 40
0.2696514611
 40
0.5111747283
 40
0.7521221586
 40
1.0
 40
1.0
 40
1.0
 40
1.0
 10
510.3607370558999
 20
363.5536540818
 30
0.0
 10
510.3985689331
 20
363.4912438776999
 30
0.0
 10
510.4379358667999
 20
363.3516922889
 30
0.0
 10
510.4125144630999
 20
363.1470934205
 30
0.0
 10
510.3426094169
 20
362.9608883936
 30
0.0
 10
510.275631171
 20
362.8461729759
 30
0.0
 10
510.2382237901999
 20
362.7904815536
 30
0.0
  0
SPLINE
  5
37D
330
214
100
AcDbEntity
  8
RUNDUNGEN
  6
Continuous
 62
     9
100
AcDbSpline
210
0.0
220
0.0
230
1.0
 70
     8
 71
     3
 72
     9
 73
     5
 74
     0
 42
0.0000000001
 43
0.0000000001
 40
0.0
 40
0.0
 40
0.0
 40
0.0
 40
0.4702937371
 40
1.0
 40
1.0
 40
1.0
 40
1.0
 10
510.2382237901999
 20
362.7904815536
 30
0.0
 10
510.2742649624
 20
362.6071237848
 30
0.0
 10
510.5118312749
 20
362.2499244924
 30
0.0
 10
510.8853213991
 20
362.0704351228
 30
0.0
 10
511.0907068689
 20
362.0244370163
 30
0.0
  0
SPLINE
  5
37E
330
214
100
AcDbEntity
  8
RUNDUNGEN
  6
Continuous
 62
     9
100
AcDbSpline
210
0.0
220
0.0
230
1.0
 70
     8
 71
     3
 72
     9
 73
     5
 74
     0
 42
0.0000000001
 43
0.0000000001
 40
0.0
 40
0.0
 40
0.0
 40
0.0
 40
0.4503299493
 40
1.0
 40
1.0
 40
1.0
 40
1.0
 10
510.8985256396
 20
363.5242936051
 30
0.0
 10
510.8749782747
 20
363.6373676303
 30
0.0
 10
510.8454527254
 20
363.8929330307
 30
0.0
 10
510.8361062513999
 20
364.1493596293
 30
0.0
 10
510.8361062513999
 20
364.2903380481
 30
0.0
  0
SPLINE
  5
37F
330
214
100
AcDbEntity
  8
RUNDUNGEN
  6
Continuous
 62
     9
100
AcDbSpline
210
0.0
220
0.0
230
1.0
 70
     8
 71
     3
 72
    13
 73
     9
 74
     0
 42
0.0000000001
 43
0.0000000001
 40
0.0
 40
0.0
 40
0.0
 40
0.0
 40
0.0534479558
 40
0.130784846
 40
0.2321947785
 40
0.3552774165999999
 40
0.65450509
 40
1.0
 40
1.0
 40
1.0
 40
1.0
 10
510.3607369219
 20
363.5536540697
 30
0.0
 10
510.3607757663
 20
363.5693663111
 30
0.0
 10
510.3728076207
 20
363.6069610044
 30
0.0
 10
510.4018619546
 20
363.6682889432
 30
0.0
 10
510.4441270337
 20
363.7465631086
 30
0.0
 10
510.5256476532
 20
363.8771408
 30
0.0
 10
510.6546304876999
 20
364.0626766099
 30
0.0
 10
510.7736620916
 20
364.2102352466001
 30
0.0
 10
510.8361062513999
 20
364.2903380481
 30
0.0
  0
SPLINE
  5
380
330
214
100
AcDbEntity
  8
RUNDUNGEN
  6
Continuous
 62
     9
100
AcDbSpline
210
0.0
220
0.0
230
1.0
 70
     8
 71
     3
 72
     9
 73
     5
 74
     0
 42
0.0000000001
 43
0.0000000001
 40
0.0
 40
0.0
 40
0.0
 40
0.0
 40
0.2831971509
 40
1.0
 40
1.0
 40
1.0
 40
1.0
 10
510.8985256396
 20
363.5242936051
 30
0.0
 10
510.8490133061
 20
363.5101317804
 30
0.0
 10
510.671966701
 20
363.4730739616001
 30
0.0
 10
510.4748641942999
 20
363.4906840816
 30
0.0
 10
510.3607369219
 20
363.5536540697
 30
0.0
  0
SPLINE
  5
381
330
214
100
AcDbEntity
  8
RUNDUNGEN
  6
Continuous
 62
     9
100
AcDbSpline
210
0.0
220
0.0
230
1.0
 70
     8
 71
     3
 72
    13
 73
     9
 74
     0
 42
0.0000000001
 43
0.0000000001
 40
0.0
 40
0.0
 40
0.0
 40
0.0
 40
0.2482386639
 40
0.3749065503
 40
0.5034451928000001
 40
0.6330491239000001
 40
0.7607435785
 40
1.0
 40
1.0
 40
1.0
 40
1.0
 10
509.0244589382
 20
359.2549879269999
 30
0.0
 10
509.0128156082999
 20
359.1289925508001
 30
0.0
 10
509.0090549692
 20
358.9363966571
 30
0.0
 10
509.049291536
 20
358.6822157953
 30
0.0
 10
509.1119370359999
 20
358.4950117473001
 30
0.0
 10
509.2192339509999
 20
358.3266972491001
 30
0.0
 10
509.4265616467
 20
358.1697439416
 30
0.0
 10
509.6312736757
 20
358.1617109813
 30
0.0
 10
509.7507037083999
 20
358.1863928325
 30
0.0
  0
SPLINE
  5
382
330
214
100
AcDbEntity
  8
RUNDUNGEN
  6
Continuous
 62
     9
100
AcDbSpline
210
0.0
220
0.0
230
1.0
 70
     8
 71
     3
 72
     9
 73
     5
 74
     0
 42
0.0000000001
 43
0.0000000001
 40
0.0
 40
0.0
 40
0.0
 40
0.0
 40
0.3405885522
 40
1.0
 40
1.0
 40
1.0
 40
1.0
 10
508.2923880041
 20
359.2582138445
 30
0.0
 10
508.3755004289
 20
359.2580640833
 30
0.0
 10
508.6195233446
 20
359.2573114596
 30
0.0
 10
508.8635614072
 20
359.2572709279
 30
0.0
 10
509.0244589382
 20
359.2549879269999
 30
0.0
  0
SPLINE
  5
383
330
214
100
AcDbEntity
  8
RUNDUNGEN
  6
Continuous
 62
     9
100
AcDbSpline
210
0.0
220
0.0
230
1.0
 70
     8
 71
     3
 72
     9
 73
     5
 74
     0
 42
0.0000000001
 43
0.0000000001
 40
0.0
 40
0.0
 40
0.0
 40
0.0
 40
0.3405663901
 40
1.0
 40
1.0
 40
1.0
 40
1.0
 10
538.189743535
 20
362.7213472664
 30
0.0
 10
538.1066259306
 20
362.7211974203
 30
0.0
 10
537.862571925
 20
362.7204446102
 30
0.0
 10
537.6185027787999
 20
362.7204040997
 30
0.0
 10
537.4575793322
 20
362.7181213644
 30
0.0
  0
SPLINE
  5
384
330
214
100
AcDbEntity
  8
RUNDUNGEN
  6
Continuous
 62
     9
100
AcDbSpline
210
0.0
220
0.0
230
1.0
 70
     8
 71
     3
 72
    12
 73
     8
 74
     0
 42
0.0000000001
 43
0.0000000001
 40
0.0
 40
0.0
 40
0.0
 40
0.0
 40
0.1134986475
 40
0.2096204767
 40
0.3319586535
 40
0.6407519191
 40
1.0
 40
1.0
 40
1.0
 40
1.0
 10
538.4194254344
 20
363.7179690596
 30
0.0
 10
538.3797199624
 20
363.7150042531
 30
0.0
 10
538.3281032479
 20
363.6407618873
 30
0.0
 10
538.2872821319
 20
363.5373399264
 30
0.0
 10
538.2380293063
 20
363.3562496796
 30
0.0
 10
538.2004416145999
 20
363.082207466
 30
0.0
 10
538.1898385713999
 20
362.8473736211
 30
0.0
 10
538.189743535
 20
362.7213472664
 30
0.0
  0
SPLINE
  5
385
330
214
100
AcDbEntity
  8
RUNDUNGEN
  6
Continuous
 62
     9
100
AcDbSpline
210
0.0
220
0.0
230
1.0
 70
     8
 71
     3
 72
    11
 73
     7
 74
     0
 42
0.0000000001
 43
0.0000000001
 40
0.0
 40
0.0
 40
0.0
 40
0.0
 40
0.2538284312
 40
0.5056069540000001
 40
0.7541255117
 40
1.0
 40
1.0
 40
1.0
 40
1.0
 10
537.4575793322
 20
362.7181213644
 30
0.0
 10
537.4582711225
 20
362.8474247261
 30
0.0
 10
537.5082675884999
 20
363.107429194
 30
0.0
 10
537.7211548927999
 20
363.4382940093
 30
0.0
 10
538.0399695122999
 20
363.6624324258999
 30
0.0
 10
538.2941765314
 20
363.7169175544
 30
0.0
 10
538.4194254344
 20
363.7179690596
 30
0.0
  0
SPLINE
  5
386
330
214
100
AcDbEntity
  8
RUNDUNGEN
  6
Continuous
 62
     9
100
AcDbSpline
210
0.0
220
0.0
230
1.0
 70
     8
 71
     3
 72
     9
 73
     5
 74
     0
 42
0.0000000001
 43
0.0000000001
 40
0.0
 40
0.0
 40
0.0
 40
0.0
 40
0.5488034619
 40
1.0
 40
1.0
 40
1.0
 40
1.0
 10
536.6596527367
 20
357.4235741823001
 30
0.0
 10
536.659747893
 20
357.5640139817
 30
0.0
 10
536.6710522946999
 20
357.8198486107
 30
0.0
 10
536.7066086276
 20
358.0743816604
 30
0.0
 10
536.7346265474
 20
358.1863927235
 30
0.0
  0
SPLINE
  5
387
330
214
100
AcDbEntity
  8
RUNDUNGEN
  6
Continuous
 62
     9
100
AcDbSpline
210
0.0
220
0.0
230
1.0
 70
     8
 71
     3
 72
    13
 73
     9
 74
     0
 42
0.0000000001
 43
0.0000000001
 40
0.0
 40
0.0
 40
0.0
 40
0.0
 40
0.2392569291
 40
0.3669512807
 40
0.49655508
 40
0.625093613
 40
0.7517614249
 40
1.0
 40
1.0
 40
1.0
 40
1.0
 10
536.7346266037999
 20
358.186392831
 30
0.0
 10
536.8540569483
 20
358.161711221
 30
0.0
 10
537.0587692064999
 20
358.1697440046
 30
0.0
 10
537.2660967905999
 20
358.3266977493
 30
0.0
 10
537.3733935136
 20
358.4950121261
 30
0.0
 10
537.4360388151999
 20
358.6822160734
 30
0.0
 10
537.4762752914
 20
358.9363967895
 30
0.0
 10
537.4725147498
 20
359.1289926038
 30
0.0
 10
537.4608713608999
 20
359.2549879268
 30
0.0
  0
SPLINE
  5
388
330
214
100
AcDbEntity
  8
RUNDUNGEN
  6
Continuous
 62
     9
100
AcDbSpline
210
0.0
220
0.0
230
1.0
 70
     8
 71
     3
 72
    12
 73
     8
 74
     0
 42
0.0000000001
 43
0.0000000001
 40
0.0
 40
0.0
 40
0.0
 40
0.0
 40
0.0418833576
 40
0.1081172006
 40
0.3253316336
 40
0.6367726148
 40
1.0
 40
1.0
 40
1.0
 40
1.0
 10
536.9354671093
 20
363.8068799581
 30
0.0
 10
536.9499744073
 20
363.8081748157
 30
0.0
 10
536.9829429176999
 20
363.8335444006
 30
0.0
 10
537.0342243826
 20
363.9340718543
 30
0.0
 10
537.0829273694
 20
364.1379236837
 30
0.0
 10
537.1192249683
 20
364.4454117965
 30
0.0
 10
537.1276167687999
 20
364.6804150492
 30
0.0
 10
537.1276167689
 20
364.8067276532
 30
0.0
  0
SPLINE
  5
389
330
214
100
AcDbEntity
  8
RUNDUNGEN
  6
Continuous
 62
     9
100
AcDbSpline
210
0.0
220
0.0
230
1.0
 70
     8
 71
     3
 72
     9
 73
     5
 74
     0
 42
0.0000000001
 43
0.0000000001
 40
0.0
 40
0.0
 40
0.0
 40
0.0
 40
0.2576967444
 40
1.0
 40
1.0
 40
1.0
 40
1.0
 10
536.1245940766
 20
363.5536531376999
 30
0.0
 10
536.1835803266999
 20
363.5978994463
 30
0.0
 10
536.4291733968
 20
363.7471764657
 30
0.0
 10
536.7230703273
 20
363.8082223051
 30
0.0
 10
536.9354671142999
 20
363.8068785532
 30
0.0
  0
SPLINE
  5
38A
330
214
100
AcDbEntity
  8
RUNDUNGEN
  6
Continuous
 62
     9
100
AcDbSpline
210
0.0
220
0.0
230
1.0
 70
     8
 71
     3
 72
    11
 73
     7
 74
     0
 42
0.0000000001
 43
0.0000000001
 40
0.0
 40
0.0
 40
0.0
 40
0.0
 40
0.2478775623
 40
0.4888250972
 40
0.7303484588
 40
1.0
 40
1.0
 40
1.0
 40
1.0
 10
536.2471065376
 20
362.7904815536
 30
0.0
 10
536.2096991233999
 20
362.8461728389
 30
0.0
 10
536.1427209982999
 20
362.9608883109999
 30
0.0
 10
536.0728163723
 20
363.1470931639
 30
0.0
 10
536.0473942376
 20
363.3516926333
 30
0.0
 10
536.0867635084999
 20
363.4912426472
 30
0.0
 10
536.1245933727999
 20
363.5536540719
 30
0.0
  0
SPLINE
  5
38B
330
214
100
AcDbEntity
  8
RUNDUNGEN
  6
Continuous
 62
     9
100
AcDbSpline
210
0.0
220
0.0
230
1.0
 70
     8
 71
     3
 72
     9
 73
     5
 74
     0
 42
0.0000000001
 43
0.0000000001
 40
0.0
 40
0.0
 40
0.0
 40
0.0
 40
0.5297062624000001
 40
1.0
 40
1.0
 40
1.0
 40
1.0
 10
535.3946234391001
 20
362.024437043
 30
0.0
 10
535.60000891
 20
362.0704351423
 30
0.0
 10
535.9734990396
 20
362.2499244986
 30
0.0
 10
536.2110653633999
 20
362.6071237852
 30
0.0
 10
536.2471065376
 20
362.7904815536
 30
0.0
  0
SPLINE
  5
38C
330
214
100
AcDbEntity
  8
RUNDUNGEN
  6
Continuous
 62
     9
100
AcDbSpline
210
0.0
220
0.0
230
1.0
 70
     8
 71
     3
 72
    11
 73
     7
 74
     0
 42
0.0000000001
 43
0.0000000001
 40
0.0
 40
0.0
 40
0.0
 40
0.0
 40
0.3457327579
 40
0.6451117188000001
 40
0.8695780037999998
 40
1.0
 40
1.0
 40
1.0
 40
1.0
 10
535.6492240605
 20
364.2903380481
 30
0.0
 10
535.7148291508999
 20
364.2127963475
 30
0.0
 10
535.8288630398
 20
364.0613011604
 30
0.0
 10
535.9769446258
 20
363.8526419246
 30
0.0
 10
536.07670778
 20
363.6890618642
 30
0.0
 10
536.1189541485999
 20
363.591552944
 30
0.0
 10
536.1245933901
 20
363.5536540697
 30
0.0
  0
SPLINE
  5
38D
330
214
100
AcDbEntity
  8
RUNDUNGEN
  6
Continuous
 62
     9
100
AcDbSpline
210
0.0
220
0.0
230
1.0
 70
     8
 71
     3
 72
     9
 73
     5
 74
     0
 42
0.0000000001
 43
0.0000000001
 40
0.0
 40
0.0
 40
0.0
 40
0.0
 40
0.5496699657999999
 40
1.0
 40
1.0
 40
1.0
 40
1.0
 10
535.6492240605
 20
364.2903380481
 30
0.0
 10
535.6492240605
 20
364.1493596511
 30
0.0
 10
535.6398775875
 20
363.8929330527
 30
0.0
 10
535.6103520417999
 20
363.6373676516
 30
0.0
 10
535.5868046722999
 20
363.5242936051
 30
0.0
  0
SPLINE
  5
38E
330
214
100
AcDbEntity
  8
RUNDUNGEN
  6
Continuous
 62
     9
100
AcDbSpline
210
0.0
220
0.0
230
1.0
 70
     8
 71
     3
 72
     9
 73
     5
 74
     0
 42
0.0000000001
 43
0.0000000001
 40
0.0
 40
0.0
 40
0.0
 40
0.0
 40
0.2225738528
 40
1.0
 40
1.0
 40
1.0
 40
1.0
 10
536.1245933901
 20
363.5536540697
 30
0.0
 10
536.0891093192999
 20
363.5339978056
 30
0.0
 10
535.9174403568
 20
363.4672568467
 30
0.0
 10
535.7232484467999
 20
363.48610303
 30
0.0
 10
535.5868046722999
 20
363.5242936051
 30
0.0
  0
SPLINE
  5
38F
330
214
100
AcDbEntity
  8
RUNDUNGEN
  6
Continuous
 62
     9
100
AcDbSpline
210
0.0
220
0.0
230
1.0
 70
     8
 71
     3
 72
     9
 73
     5
 74
     0
 42
0.0000000001
 43
0.0000000001
 40
0.0
 40
0.0
 40
0.0
 40
0.0
 40
0.1408982722
 40
1.0
 40
1.0
 40
1.0
 40
1.0
 10
537.4608701848
 20
359.2549879268
 30
0.0
 10
537.4952497501999
 20
359.2554757494
 30
0.0
 10
537.7392727795999
 20
359.2572877252
 30
0.0
 10
537.9832995419999
 20
359.2578360691001
 30
0.0
 10
538.1929434839999
 20
359.258213828
 30
0.0
  0
SPLINE
  5
390
330
214
100
AcDbEntity
  8
RUNDUNGEN
  6
Continuous
 62
     9
100
AcDbSpline
210
0.0
220
0.0
230
1.0
 70
     8
 71
     3
 72
     9
 73
     5
 74
     0
 42
0.0000000001
 43
0.0000000001
 40
0.0
 40
0.0
 40
0.0
 40
0.0
 40
0.4511965379
 40
1.0
 40
1.0
 40
1.0
 40
1.0
 10
509.7507037645
 20
358.1863927235
 30
0.0
 10
509.7787216833
 20
358.0743816601999
 30
0.0
 10
509.8142780152
 20
357.8198486106
 30
0.0
 10
509.8255824177999
 20
357.5640139817
 30
0.0
 10
509.8256775752999
 20
357.4235741823001
 30
0.0
  0
SPLINE
  5
391
330
214
100
AcDbEntity
  8
RUNDUNGEN
  6
Continuous
 62
     9
100
AcDbSpline
210
0.0
220
0.0
230
1.0
 70
     8
 71
     3
 72
     8
 73
     4
 74
     0
 42
0.0000000001
 43
0.0000000001
 40
0.0
 40
0.0
 40
0.0
 40
0.0
 40
1.0
 40
1.0
 40
1.0
 40
1.0
 10
581.4950023455
 20
270.1598317367
 30
0.0
 10
581.7631348024999
 20
270.5020615086
 30
0.0
 10
581.9891211406
 20
270.8812418374
 30
0.0
 10
582.1652110944
 20
271.2787447424
 30
0.0
  0
SPLINE
  5
392
330
214
100
AcDbEntity
  8
RUNDUNGEN
  6
Continuous
 62
     9
100
AcDbSpline
210
0.0
220
0.0
230
1.0
 70
     8
 71
     3
 72
     9
 73
     5
 74
     0
 42
0.0000000001
 43
0.0000000001
 40
0.0
 40
0.0
 40
0.0
 40
0.0
 40
0.2720307409
 40
1.0
 40
1.0
 40
1.0
 40
1.0
 10
593.242082049
 20
297.7622138648
 30
0.0
 10
593.4017280025
 20
298.1657930885
 30
0.0
 10
593.9851474297999
 20
299.6507229866
 30
0.0
 10
594.5544443658999
 20
301.1412834863
 30
0.0
 10
594.9550167024
 20
302.2314488162
 30
0.0
  0
SPLINE
  5
393
330
214
100
AcDbEntity
  8
RUNDUNGEN
  6
Continuous
 62
     9
100
AcDbSpline
210
0.0
220
0.0
230
1.0
 70
     8
 71
     3
 72
    12
 73
     8
 74
     0
 42
0.0000000001
 43
0.0000000001
 40
0.0
 40
0.0
 40
0.0
 40
0.0
 40
0.3144024152
 40
0.6122782241
 40
0.8512009976999998
 40
0.9381118953000001
 40
1.0
 40
1.0
 40
1.0
 40
1.0
 10
510.9224406776
 20
303.5272529118
 30
0.0
 10
510.7940797493999
 20
303.5277089764
 30
0.0
 10
510.5439986022
 20
303.5374558677
 30
0.0
 10
510.1984054923
 20
303.5741180913
 30
0.0
 10
509.9470546076999
 20
303.6205030653
 30
0.0
 10
509.7963079466
 20
303.6686609924
 30
0.0
 10
509.7407262284
 20
303.6948000476
 30
0.0
 10
509.720187145
 20
303.7095165963
 30
0.0
  0
SPLINE
  5
394
330
214
100
AcDbEntity
  8
RUNDUNGEN
  6
Continuous
 62
     9
100
AcDbSpline
210
0.0
220
0.0
230
1.0
 70
     8
 71
     3
 72
     8
 73
     4
 74
     0
 42
0.0000000001
 43
0.0000000001
 40
0.0
 40
0.0
 40
0.0
 40
0.0
 40
1.0
 40
1.0
 40
1.0
 40
1.0
 10
509.7036090237
 20
303.3095569966
 30
0.0
 10
509.7090779856999
 20
303.4428792164
 30
0.0
 10
509.7137245815
 20
303.5762388434
 30
0.0
 10
509.7201871438
 20
303.7095165952
 30
0.0
  0
SPLINE
  5
395
330
214
100
AcDbEntity
  8
RUNDUNGEN
  6
Continuous
 62
     9
100
AcDbSpline
210
0.0
220
0.0
230
1.0
 70
     8
 71
     3
 72
    16
 73
    12
 74
     0
 42
0.0000000001
 43
0.0000000001
 40
0.0
 40
0.0
 40
0.0
 40
0.0
 40
0.0617392302
 40
0.1471315021
 40
0.3821163284
 40
0.5256146036000001
 40
0.6803626677
 40
0.7601502203
 40
0.8404908815999998
 40
0.9206051929999999
 40
1.0
 40
1.0
 40
1.0
 40
1.0
 10
509.7036090237
 20
303.3095569966
 30
0.0
 10
509.7244990283999
 20
303.3244154887
 30
0.0
 10
509.7801522905
 20
303.3510331361
 30
0.0
 10
509.9305151332999
 20
303.4016208894
 30
0.0
 10
510.120490313
 20
303.437952411
 30
0.0
 10
510.3396437511
 20
303.4690165608
 30
0.0
 10
510.4961022763999
 20
303.4823932663
 30
0.0
 10
510.6264192370999
 20
303.4931796028
 30
0.0
 10
510.7256207560999
 20
303.5028051858
 30
0.0
 10
510.8260763737
 20
303.500662242
 30
0.0
 10
510.8894795768
 20
303.5266735354
 30
0.0
 10
510.9224406776
 20
303.5272529118
 30
0.0
  0
SPLINE
  5
396
330
214
100
AcDbEntity
  8
RUNDUNGEN
  6
Continuous
 62
     9
100
AcDbSpline
210
0.0
220
0.0
230
1.0
 70
     8
 71
     3
 72
     9
 73
     5
 74
     0
 42
0.0000000001
 43
0.0000000001
 40
0.0
 40
0.0
 40
0.0
 40
0.0
 40
0.2592497087
 40
1.0
 40
1.0
 40
1.0
 40
1.0
 10
509.7201871438
 20
303.7095165952
 30
0.0
 10
509.7227062657999
 20
303.7619977845
 30
0.0
 10
509.7346066541
 20
303.9643137398
 30
0.0
 10
509.7551130562999
 20
304.1661870506
 30
0.0
 10
509.7764536654
 20
304.3147888785
 30
0.0
  0
SPLINE
  5
397
330
214
100
AcDbEntity
  8
RUNDUNGEN
  6
Continuous
 62
     9
100
AcDbSpline
210
0.0
220
0.0
230
1.0
 70
     8
 71
     3
 72
     9
 73
     5
 74
     0
 42
0.0000000001
 43
0.0000000001
 40
0.0
 40
0.0
 40
0.0
 40
0.0
 40
0.259157787
 40
1.0
 40
1.0
 40
1.0
 40
1.0
 10
510.9224198806999
 20
303.5272575773
 30
0.0
 10
510.923766318
 20
303.5535011707
 30
0.0
 10
510.9300890022
 20
303.6547005507
 30
0.0
 10
510.9410597526
 20
303.7556447197
 30
0.0
 10
510.9524603505999
 20
303.8298945755
 30
0.0
  0
SPLINE
  5
398
330
214
100
AcDbEntity
  8
RUNDUNGEN
  6
Continuous
 62
     9
100
AcDbSpline
210
0.0
220
0.0
230
1.0
 70
     8
 71
     3
 72
    11
 73
     7
 74
     0
 42
0.0000000001
 43
0.0000000001
 40
0.0
 40
0.0
 40
0.0
 40
0.0
 40
0.3623573044
 40
0.6533921718000001
 40
0.8622123631999999
 40
1.0
 40
1.0
 40
1.0
 40
1.0
 10
510.9524603505999
 20
303.8298945755
 30
0.0
 10
510.9632958058
 20
303.9004721348
 30
0.0
 10
510.9877070389
 20
304.0271426638
 30
0.0
 10
511.0418540769
 20
304.1890333254
 30
0.0
 10
511.1011110287
 20
304.3002269434
 30
0.0
 10
511.1631864999999
 20
304.3431451509
 30
0.0
 10
511.1902850062
 20
304.3448455371
 30
0.0
  0
SPLINE
  5
399
330
214
100
AcDbEntity
  8
RUNDUNGEN
  6
Continuous
 62
     9
100
AcDbSpline
210
0.0
220
0.0
230
1.0
 70
     8
 71
     3
 72
    11
 73
     7
 74
     0
 42
0.0000000001
 43
0.0000000001
 40
0.0
 40
0.0
 40
0.0
 40
0.0
 40
0.2458643108
 40
0.4943787336
 40
0.7461823872
 40
1.0
 40
1.0
 40
1.0
 40
1.0
 10
511.1903235386
 20
304.3448417308
 30
0.0
 10
511.0644356496999
 20
304.3448869218
 30
0.0
 10
510.8084632978999
 20
304.3977490453
 30
0.0
 10
510.4867681053
 20
304.621489705
 30
0.0
 10
510.2717563671999
 20
304.9534055319
 30
0.0
 10
510.2208128775999
 20
305.2147368198
 30
0.0
 10
510.2202274448
 20
305.3446956626
 30
0.0
  0
SPLINE
  5
39A
330
214
100
AcDbEntity
  8
RUNDUNGEN
  6
Continuous
 62
     9
100
AcDbSpline
210
0.0
220
0.0
230
1.0
 70
     8
 71
     3
 72
    13
 73
     9
 74
     0
 42
0.0000000001
 43
0.0000000001
 40
0.0
 40
0.0
 40
0.0
 40
0.0
 40
0.0466623291
 40
0.1175570235
 40
0.2171137216
 40
0.3432928704
 40
0.6549490198
 40
1.0
 40
1.0
 40
1.0
 40
1.0
 10
535.3130201358999
 20
304.3450108208
 30
0.0
 10
535.332470305
 20
304.3435452646
 30
0.0
 10
535.3769630094999
 20
304.3131104489
 30
0.0
 10
535.4222284871999
 20
304.2343177912
 30
0.0
 10
535.4662407421
 20
304.1177764202
 30
0.0
 10
535.5196657619
 20
303.8993268086
 30
0.0
 10
535.5599539305
 20
303.573581039
 30
0.0
 10
535.5665850033999
 20
303.2987078882
 30
0.0
 10
535.5625220597
 20
303.1545304739
 30
0.0
  0
SPLINE
  5
39B
330
214
100
AcDbEntity
  8
RUNDUNGEN
  6
Continuous
 62
     9
100
AcDbSpline
210
0.0
220
0.0
230
1.0
 70
     8
 71
     3
 72
    13
 73
     9
 74
     0
 42
0.0000000001
 43
0.0000000001
 40
0.0
 40
0.0
 40
0.0
 40
0.0
 40
0.0467998414
 40
0.1174531449
 40
0.2167247809
 40
0.3426925779
 40
0.6543374934
 40
1.0
 40
1.0
 40
1.0
 40
1.0
 10
535.2950067993
 20
304.3448479676
 30
0.0
 10
535.3144849463999
 20
304.3434288145
 30
0.0
 10
535.3590524332999
 20
304.313250642
 30
0.0
 10
535.403538273
 20
304.2342134303
 30
0.0
 10
535.4459840601999
 20
304.1176835536
 30
0.0
 10
535.496121367
 20
303.899020965
 30
0.0
 10
535.5309884716
 20
303.5730309941
 30
0.0
 10
535.5327081859
 20
303.2982815915
 30
0.0
 10
535.5259981175
 20
303.1541912771
 30
0.0
  0
SPLINE
  5
39C
330
214
100
AcDbEntity
  8
RUNDUNGEN
  6
Continuous
 62
     9
100
AcDbSpline
210
0.0
220
0.0
230
1.0
 70
     8
 71
     3
 72
    10
 73
     6
 74
     0
 42
0.0000000001
 43
0.0000000001
 40
0.0
 40
0.0
 40
0.0
 40
0.0
 40
0.4186814059000001
 40
0.6814622782999999
 40
1.0
 40
1.0
 40
1.0
 40
1.0
 10
536.4879878207
 20
304.8623250954
 30
0.0
 10
536.3496472822999
 20
304.7441255398
 30
0.0
 10
536.1020752683
 20
304.5754864017
 30
0.0
 10
535.7031345138999
 20
304.4016293544
 30
0.0
 10
535.4514334452
 20
304.3475671311
 30
0.0
 10
535.3130200373
 20
304.3450180451
 30
0.0
  0
SPLINE
  5
39D
330
214
100
AcDbEntity
  8
RUNDUNGEN
  6
Continuous
 62
     9
100
AcDbSpline
210
0.0
220
0.0
230
1.0
 70
     8
 71
     3
 72
     9
 73
     5
 74
     0
 42
0.0000000001
 43
0.0000000001
 40
0.0
 40
0.0
 40
0.0
 40
0.0
 40
0.2464447174
 40
1.0
 40
1.0
 40
1.0
 40
1.0
 10
536.8820331682
 20
305.3030977272
 30
0.0
 10
536.8676404847
 20
305.2198688314
 30
0.0
 10
536.8006223722
 20
304.8837456474
 30
0.0
 10
536.6998892088999
 20
304.5539520512
 30
0.0
 10
536.6027679968
 20
304.3146424354
 30
0.0
  0
SPLINE
  5
39E
330
214
100
AcDbEntity
  8
RUNDUNGEN
  6
Continuous
 62
     9
100
AcDbSpline
210
0.0
220
0.0
230
1.0
 70
     8
 71
     3
 72
     9
 73
     5
 74
     0
 42
0.0000000001
 43
0.0000000001
 40
0.0
 40
0.0
 40
0.0
 40
0.0
 40
0.229086331
 40
1.0
 40
1.0
 40
1.0
 40
1.0
 10
536.8820331682
 20
305.3030977272
 30
0.0
 10
536.8574102991999
 20
305.26515167
 30
0.0
 10
536.7430446201999
 20
305.1040094966
 30
0.0
 10
536.6037206188999
 20
304.9612110832
 30
0.0
 10
536.4879939504
 20
304.862321801
 30
0.0
  0
SPLINE
  5
39F
330
214
100
AcDbEntity
  8
RUNDUNGEN
  6
Continuous
 62
     9
100
AcDbSpline
210
0.0
220
0.0
230
1.0
 70
     8
 71
     3
 72
    11
 73
     7
 74
     0
 42
0.0000000001
 43
0.0000000001
 40
0.0
 40
0.0
 40
0.0
 40
0.0
 40
0.2458432646
 40
0.4943708449
 40
0.7461743314
 40
1.0
 40
1.0
 40
1.0
 40
1.0
 10
534.0460159484999
 20
304.4290654125
 30
0.0
 10
534.1718908520999
 20
304.4290745908
 30
0.0
 10
534.4278589888999
 20
304.4820396681
 30
0.0
 10
534.7494835298
 20
304.7057056281
 30
0.0
 10
534.9648365574999
 20
305.0376080128
 30
0.0
 10
535.0150243096
 20
305.298955457
 30
0.0
 10
535.0160871988999
 20
305.4289131077
 30
0.0
  0
SPLINE
  5
3A0
330
214
100
AcDbEntity
  8
RUNDUNGEN
  6
Continuous
 62
     9
100
AcDbSpline
210
0.0
220
0.0
230
1.0
 70
     8
 71
     3
 72
    12
 73
     8
 74
     0
 42
0.0000000001
 43
0.0000000001
 40
0.0
 40
0.0
 40
0.0
 40
0.0
 40
0.114301874
 40
0.2105663523
 40
0.3329275131
 40
0.6414494718000001
 40
1.0
 40
1.0
 40
1.0
 40
1.0
 10
534.0460159484999
 20
304.4290654125
 30
0.0
 10
534.0058438548999
 20
304.4320175205
 30
0.0
 10
533.9531359603999
 20
304.5062256203
 30
0.0
 10
533.9115191861
 20
304.6103786179
 30
0.0
 10
533.8614359698
 20
304.7920315849
 30
0.0
 10
533.8232850530999
 20
305.0670020149
 30
0.0
 10
533.8126339836
 20
305.3025585302
 30
0.0
 10
533.8126339836
 20
305.4289131077
 30
0.0
  0
SPLINE
  5
3A1
330
214
100
AcDbEntity
  8
RUNDUNGEN
  6
Continuous
 62
     9
100
AcDbSpline
210
0.0
220
0.0
230
1.0
 70
     8
 71
     3
 72
    12
 73
     8
 74
     0
 42
0.0000000001
 43
0.0000000001
 40
0.0
 40
0.0
 40
0.0
 40
0.0
 40
0.114301874
 40
0.2105663523
 40
0.3329275132
 40
0.6414494718000001
 40
1.0
 40
1.0
 40
1.0
 40
1.0
 10
512.4393143635
 20
304.4290654125
 30
0.0
 10
512.479486457
 20
304.4320175205
 30
0.0
 10
512.5321943516
 20
304.5062256203
 30
0.0
 10
512.5738111258
 20
304.6103786179
 30
0.0
 10
512.6238943422
 20
304.792031585
 30
0.0
 10
512.6620452592
 20
305.067002015
 30
0.0
 10
512.6726963277999
 20
305.3025585302
 30
0.0
 10
512.6726963277999
 20
305.4289131077
 30
0.0
  0
SPLINE
  5
3A2
330
214
100
AcDbEntity
  8
RUNDUNGEN
  6
Continuous
 62
     9
100
AcDbSpline
210
0.0
220
0.0
230
1.0
 70
     8
 71
     3
 72
    11
 73
     7
 74
     0
 42
0.0000000001
 43
0.0000000001
 40
0.0
 40
0.0
 40
0.0
 40
0.0
 40
0.2458432825
 40
0.4943708715
 40
0.7461743503
 40
1.0
 40
1.0
 40
1.0
 40
1.0
 10
512.4393143635
 20
304.4290654125
 30
0.0
 10
512.3134394508
 20
304.4290745901
 30
0.0
 10
512.0574713027999
 20
304.4820396772
 30
0.0
 10
511.7358467503
 20
304.7057056496
 30
0.0
 10
511.5204937759999
 20
305.03760804
 30
0.0
 10
511.47030596
 20
305.2989554665
 30
0.0
 10
511.4692431131
 20
305.4289131077
 30
0.0
  0
SPLINE
  5
3A3
330
214
100
AcDbEntity
  8
RUNDUNGEN
  6
Continuous
 62
     9
100
AcDbSpline
210
0.0
220
0.0
230
1.0
 70
     8
 71
     3
 72
    12
 73
     8
 74
     0
 42
0.0000000001
 43
0.0000000001
 40
0.0
 40
0.0
 40
0.0
 40
0.0
 40
0.2816474638
 40
0.5580616201
 40
0.8152533428999999
 40
0.9235321817
 40
1.0
 40
1.0
 40
1.0
 40
1.0
 10
539.7773322165
 20
311.9263457637
 30
0.0
 10
539.6636152743
 20
311.8717966884
 30
0.0
 10
539.4376047491
 20
311.7650710557
 30
0.0
 10
539.1047775412
 20
311.6152796017
 30
0.0
 10
538.8397625036
 20
311.5030507349
 30
0.0
 10
538.6538750204
 20
311.436050399
 30
0.0
 10
538.5742588669
 20
311.4115564774
 30
0.0
 10
538.5403331402
 20
311.4069075213
 30
0.0
  0
SPLINE
  5
3A4
330
214
100
AcDbEntity
  8
RUNDUNGEN
  6
Continuous
 62
     9
100
AcDbSpline
210
0.0
220
0.0
230
1.0
 70
     8
 71
     3
 72
    11
 73
     7
 74
     0
 42
0.0000000001
 43
0.0000000001
 40
0.0
 40
0.0
 40
0.0
 40
0.0
 40
0.2437197275
 40
0.4919375614
 40
0.7448586015
 40
1.0
 40
1.0
 40
1.0
 40
1.0
 10
538.5404016384
 20
311.4069168257
 30
0.0
 10
538.6643266423999
 20
311.406430639
 30
0.0
 10
538.9170146545
 20
311.3523767775
 30
0.0
 10
539.2342230199999
 20
311.128496265
 30
0.0
 10
539.4480066605999
 20
310.7981950019
 30
0.0
 10
539.5010409013999
 20
310.5381794177
 30
0.0
 10
539.503178655
 20
310.4084634133
 30
0.0
  0
SPLINE
  5
3A5
330
214
100
AcDbEntity
  8
RUNDUNGEN
  6
Continuous
 62
     9
100
AcDbSpline
210
0.0
220
0.0
230
1.0
 70
     8
 71
     3
 72
    11
 73
     7
 74
     0
 42
0.0000000001
 43
0.0000000001
 40
0.0
 40
0.0
 40
0.0
 40
0.0
 40
0.2551413999
 40
0.5080624493000001
 40
0.7562802864
 40
1.0
 40
1.0
 40
1.0
 40
1.0
 10
506.9821527582
 20
310.4084634706
 30
0.0
 10
506.9842904182999
 20
310.5381794513001
 30
0.0
 10
507.0373244005999
 20
310.7981950222
 30
0.0
 10
507.2511075815
 20
311.1284964948
 30
0.0
 10
507.5683156937
 20
311.3523772891
 30
0.0
 10
507.8210037059999
 20
311.4064311263
 30
0.0
 10
507.9449286785999
 20
311.4069172135
 30
0.0
  0
SPLINE
  5
3A6
330
214
100
AcDbEntity
  8
RUNDUNGEN
  6
Continuous
 62
     9
100
AcDbSpline
210
0.0
220
0.0
230
1.0
 70
     8
 71
     3
 72
    12
 73
     8
 74
     0
 42
0.0000000001
 43
0.0000000001
 40
0.0
 40
0.0
 40
0.0
 40
0.0
 40
0.0764416163
 40
0.1846933468
 40
0.4418558354
 40
0.7183045285
 40
1.0
 40
1.0
 40
1.0
 40
1.0
 10
507.9449874469
 20
311.4069083267
 30
0.0
 10
507.9110734796
 20
311.4115547138
 30
0.0
 10
507.8314812833999
 20
311.4360431969
 30
0.0
 10
507.6456278139
 20
311.503024099
 30
0.0
 10
507.3806323653999
 20
311.6152701359
 30
0.0
 10
507.0477887377999
 20
311.7650744073
 30
0.0
 10
506.8217274223999
 20
311.8717751092
 30
0.0
 10
506.7079980787
 20
311.9263457707
 30
0.0
  0
SPLINE
  5
3A7
330
214
100
AcDbEntity
  8
RUNDUNGEN
  6
Continuous
 62
     9
100
AcDbSpline
210
0.0
220
0.0
230
1.0
 70
     8
 71
     3
 72
    11
 73
     7
 74
     0
 42
0.0000000001
 43
0.0000000001
 40
0.0
 40
0.0
 40
0.0
 40
0.0
 40
0.2533775053
 40
0.5054045269
 40
0.7542749773999999
 40
1.0
 40
1.0
 40
1.0
 40
1.0
 10
506.9980241298999
 20
310.4024607871
 30
0.0
 10
506.9997871027999
 20
310.5324502777
 30
0.0
 10
507.0533025680999
 20
310.7936706031
 30
0.0
 10
507.2710552958999
 20
311.1246478983
 30
0.0
 10
507.5941152322
 20
311.3478752921
 30
0.0
 10
507.8506165311
 20
311.4009764489
 30
0.0
 10
507.9766916391999
 20
311.4010842376
 30
0.0
  0
SPLINE
  5
3A8
330
214
100
AcDbEntity
  8
RUNDUNGEN
  6
Continuous
 62
     9
100
AcDbSpline
210
0.0
220
0.0
230
1.0
 70
     8
 71
     3
 72
    11
 73
     7
 74
     0
 42
0.0000000001
 43
0.0000000001
 40
0.0
 40
0.0
 40
0.0
 40
0.0
 40
0.253376297
 40
0.5054123432999999
 40
0.7543054325
 40
1.0
 40
1.0
 40
1.0
 40
1.0
 10
511.4692431131
 20
309.4972512778
 30
0.0
 10
511.4715167612
 20
309.6272073957
 30
0.0
 10
511.5241877575
 20
309.8884068465
 30
0.0
 10
511.7422437816
 20
310.2193425482
 30
0.0
 10
512.0651281822
 20
310.4424690019
 30
0.0
 10
512.3215647039
 20
310.4958518588
 30
0.0
 10
512.4476001619999
 20
310.4958808126
 30
0.0
  0
SPLINE
  5
3A9
330
214
100
AcDbEntity
  8
RUNDUNGEN
  6
Continuous
 62
     9
100
AcDbSpline
210
0.0
220
0.0
230
1.0
 70
     8
 71
     3
 72
    11
 73
     7
 74
     0
 42
0.0000000001
 43
0.0000000001
 40
0.0
 40
0.0
 40
0.0
 40
0.0
 40
0.353458214
 40
0.6597459839999999
 40
0.8803789776
 40
1.0
 40
1.0
 40
1.0
 40
1.0
 10
512.6726963273
 20
309.4972512779
 30
0.0
 10
512.6726963272
 20
309.6208998138
 30
0.0
 10
512.6635545661001
 20
309.8507178027
 30
0.0
 10
512.6182796207999
 20
310.1604692987
 30
0.0
 10
512.5617543880999
 20
310.3697684444
 30
0.0
 10
512.4884637599999
 20
310.4868647138
 30
0.0
 10
512.4476001619999
 20
310.4958808126
 30
0.0
  0
SPLINE
  5
3AA
330
214
100
AcDbEntity
  8
RUNDUNGEN
  6
Continuous
 62
     9
100
AcDbSpline
210
0.0
220
0.0
230
1.0
 70
     8
 71
     3
 72
    11
 73
     7
 74
     0
 42
0.0000000001
 43
0.0000000001
 40
0.0
 40
0.0
 40
0.0
 40
0.0
 40
0.353458214
 40
0.6597459844
 40
0.8803789773999998
 40
1.0
 40
1.0
 40
1.0
 40
1.0
 10
533.8126339836
 20
309.4972512779
 30
0.0
 10
533.8126339836
 20
309.6208998138
 30
0.0
 10
533.8217757464
 20
309.8507178028
 30
0.0
 10
533.8670506910999
 20
310.1604692988
 30
0.0
 10
533.9235759241001
 20
310.3697684445
 30
0.0
 10
533.9968665518999
 20
310.4868647138
 30
0.0
 10
534.0377301499
 20
310.4958808126
 30
0.0
  0
SPLINE
  5
3AB
330
214
100
AcDbEntity
  8
RUNDUNGEN
  6
Continuous
 62
     9
100
AcDbSpline
210
0.0
220
0.0
230
1.0
 70
     8
 71
     3
 72
    11
 73
     7
 74
     0
 42
0.0000000001
 43
0.0000000001
 40
0.0
 40
0.0
 40
0.0
 40
0.0
 40
0.2533763117999999
 40
0.5054123636
 40
0.7543054463
 40
1.0
 40
1.0
 40
1.0
 40
1.0
 10
535.0160871988999
 20
309.4972512778
 30
0.0
 10
535.0138135178
 20
309.6272074028
 30
0.0
 10
534.9611425714999
 20
309.8884068679
 30
0.0
 10
534.7430865053
 20
310.2193425643
 30
0.0
 10
534.4202021144
 20
310.4424690099
 30
0.0
 10
534.1637656010999
 20
310.4958518571
 30
0.0
 10
534.0377301499
 20
310.4958808126
 30
0.0
  0
SPLINE
  5
3AC
330
214
100
AcDbEntity
  8
RUNDUNGEN
  6
Continuous
 62
     9
100
AcDbSpline
210
0.0
220
0.0
230
1.0
 70
     8
 71
     3
 72
    11
 73
     7
 74
     0
 42
0.0000000001
 43
0.0000000001
 40
0.0
 40
0.0
 40
0.0
 40
0.0
 40
0.2533774763
 40
0.5054044953
 40
0.7542749675
 40
1.0
 40
1.0
 40
1.0
 40
1.0
 10
539.4873029125
 20
310.4024607871
 30
0.0
 10
539.4855399407999
 20
310.5324503423
 30
0.0
 10
539.4320248932999
 20
310.7936707787
 30
0.0
 10
539.2142735712
 20
311.1246491449
 30
0.0
 10
538.8912148738
 20
311.3478786693999
 30
0.0
 10
538.6347137844999
 20
311.4009816501
 30
0.0
 10
538.508638595
 20
311.4010903218
 30
0.0
  0
SPLINE
  5
3AD
330
214
100
AcDbEntity
  8
RUNDUNGEN
  6
Continuous
 62
     9
100
AcDbSpline
210
0.0
220
0.0
230
1.0
 70
     8
 71
     3
 72
    10
 73
     6
 74
     0
 42
0.0000000001
 43
0.0000000001
 40
0.0
 40
0.0
 40
0.0
 40
0.0
 40
0.1386339051
 40
0.351194469
 40
1.0
 40
1.0
 40
1.0
 40
1.0
 10
538.0317870705
 20
282.9944440722
 30
0.0
 10
538.0606407478
 20
282.9999055891999
 30
0.0
 10
538.1220631651
 20
283.0531519604
 30
0.0
 10
538.2137893947
 20
283.2435132382
 30
0.0
 10
538.2492063114999
 20
283.4263127974001
 30
0.0
 10
538.2671997983999
 20
283.5625625098
 30
0.0
  0
SPLINE
  5
3AE
330
214
100
AcDbEntity
  8
RUNDUNGEN
  6
Continuous
 62
     9
100
AcDbSpline
210
0.0
220
0.0
230
1.0
 70
     8
 71
     3
 72
    11
 73
     7
 74
     0
 42
0.0000000001
 43
0.0000000001
 40
0.0
 40
0.0
 40
0.0
 40
0.0
 40
0.2456835734
 40
0.4945712021000001
 40
0.7466165828
 40
1.0
 40
1.0
 40
1.0
 40
1.0
 10
538.0317870710999
 20
282.9944440723
 30
0.0
 10
537.9055906730999
 20
282.9941856303
 30
0.0
 10
537.6486717955
 20
283.0471643587
 30
0.0
 10
537.3251660623
 20
283.2701788525
 30
0.0
 10
537.1060842225
 20
283.6013502107
 30
0.0
 10
537.0542590763
 20
283.8629539323
 30
0.0
 10
537.0513707304
 20
283.9930736071
 30
0.0
  0
SPLINE
  5
3AF
330
214
100
AcDbEntity
  8
RUNDUNGEN
  6
Continuous
 62
     9
100
AcDbSpline
210
0.0
220
0.0
230
1.0
 70
     8
 71
     3
 72
    11
 73
     7
 74
     0
 42
0.0000000001
 43
0.0000000001
 40
0.0
 40
0.0
 40
0.0
 40
0.0
 40
0.2457207813
 40
0.4945868985000001
 40
0.7466158629999999
 40
1.0
 40
1.0
 40
1.0
 40
1.0
 10
536.7774621477
 20
282.7404881913
 30
0.0
 10
536.6512408800999
 20
282.7403474206
 30
0.0
 10
536.3943302617
 20
282.793074242
 30
0.0
 10
536.0706090569
 20
283.0161962592
 30
0.0
 10
535.8523579166
 20
283.3474341363
 30
0.0
 10
535.7987166258999
 20
283.60897185
 30
0.0
 10
535.7969516851999
 20
283.7391177261
 30
0.0
  0
SPLINE
  5
3B0
330
214
100
AcDbEntity
  8
RUNDUNGEN
  6
Continuous
 62
     9
100
AcDbSpline
210
0.0
220
0.0
230
1.0
 70
     8
 71
     3
 72
    11
 73
     7
 74
     0
 42
0.0000000001
 43
0.0000000001
 40
0.0
 40
0.0
 40
0.0
 40
0.0
 40
0.1220996727
 40
0.3373148640999999
 40
0.6390736274000001
 40
1.0
 40
1.0
 40
1.0
 40
1.0
 10
534.3500376741999
 20
282.6326118917
 30
0.0
 10
534.3842316432
 20
282.6401157231
 30
0.0
 10
534.4500434620999
 20
282.7281954507
 30
0.0
 10
534.504329934
 20
282.8977218729999
 30
0.0
 10
534.5517989500999
 20
283.148095586
 30
0.0
 10
534.5671681567999
 20
283.3370612343
 30
0.0
 10
534.571966764
 20
283.440432431
 30
0.0
  0
SPLINE
  5
3B1
330
214
100
AcDbEntity
  8
RUNDUNGEN
  6
Continuous
 62
     9
100
AcDbSpline
210
0.0
220
0.0
230
1.0
 70
     8
 71
     3
 72
    11
 73
     7
 74
     0
 42
0.0000000001
 43
0.0000000001
 40
0.0
 40
0.0
 40
0.0
 40
0.0
 40
0.1220996918
 40
0.3373148817
 40
0.6390736366
 40
1.0
 40
1.0
 40
1.0
 40
1.0
 10
512.1352926376999
 20
282.6326118917
 30
0.0
 10
512.1010986619999
 20
282.6401157213
 30
0.0
 10
512.0352868180999
 20
282.7281954376
 30
0.0
 10
511.9810003416
 20
282.8977218723
 30
0.0
 10
511.9335313342999
 20
283.1480955843
 30
0.0
 10
511.9181621442
 20
283.3370612342
 30
0.0
 10
511.9133635479999
 20
283.440432431
 30
0.0
  0
SPLINE
  5
3B2
330
214
100
AcDbEntity
  8
RUNDUNGEN
  6
Continuous
 62
     9
100
AcDbSpline
210
0.0
220
0.0
230
1.0
 70
     8
 71
     3
 72
    11
 73
     7
 74
     0
 42
0.0000000001
 43
0.0000000001
 40
0.0
 40
0.0
 40
0.0
 40
0.0
 40
0.2457207741
 40
0.4945868729
 40
0.7466158399
 40
1.0
 40
1.0
 40
1.0
 40
1.0
 10
509.7078682408
 20
282.7404934221
 30
0.0
 10
509.8340894811999
 20
282.740351772
 30
0.0
 10
510.0910004237
 20
282.793076873
 30
0.0
 10
510.4147228676
 20
283.0161970738
 30
0.0
 10
510.6329752913
 20
283.3474341509
 30
0.0
 10
510.6866169459999
 20
283.6089718614
 30
0.0
 10
510.6883818837999
 20
283.7391177261
 30
0.0
  0
SPLINE
  5
3B3
330
214
100
AcDbEntity
  8
RUNDUNGEN
  6
Continuous
 62
     9
100
AcDbSpline
210
0.0
220
0.0
230
1.0
 70
     8
 71
     3
 72
    11
 73
     7
 74
     0
 42
0.0000000001
 43
0.0000000001
 40
0.0
 40
0.0
 40
0.0
 40
0.0
 40
0.245683575
 40
0.4945712046000001
 40
0.7466165845999999
 40
1.0
 40
1.0
 40
1.0
 40
1.0
 10
508.4535432408999
 20
282.9944440723
 30
0.0
 10
508.5797396397
 20
282.9941856299
 30
0.0
 10
508.8366585183
 20
283.0471643598
 30
0.0
 10
509.1601642529
 20
283.2701788543
 30
0.0
 10
509.3792460867
 20
283.6013502135
 30
0.0
 10
509.4310712403999
 20
283.8629539331
 30
0.0
 10
509.4339595816
 20
283.9930736071
 30
0.0
  0
SPLINE
  5
3B4
330
214
100
AcDbEntity
  8
RUNDUNGEN
  6
Continuous
 62
     9
100
AcDbSpline
210
0.0
220
0.0
230
1.0
 70
     8
 71
     3
 72
    10
 73
     6
 74
     0
 42
0.0000000001
 43
0.0000000001
 40
0.0
 40
0.0
 40
0.0
 40
0.0
 40
0.1386339049
 40
0.3511944714
 40
1.0
 40
1.0
 40
1.0
 40
1.0
 10
508.4535432408999
 20
282.9944440723
 30
0.0
 10
508.4246895639
 20
282.9999055893
 30
0.0
 10
508.3632671462999
 20
283.0531519591
 30
0.0
 10
508.2715409164999
 20
283.2435132354
 30
0.0
 10
508.2361240103
 20
283.4263127947
 30
0.0
 10
508.2181305236
 20
283.5625625052
 30
0.0
  0
SPLINE
  5
3B5
330
214
100
AcDbEntity
  8
RUNDUNGEN
  6
Continuous
 62
     9
100
AcDbSpline
210
0.0
220
0.0
230
1.0
 70
     8
 71
     3
 72
     9
 73
     5
 74
     0
 42
0.0000000001
 43
0.0000000001
 40
0.0
 40
0.0
 40
0.0
 40
0.0
 40
0.2936408218
 40
1.0
 40
1.0
 40
1.0
 40
1.0
 10
594.9550167024
 20
302.2314488162
 30
0.0
 10
595.0695832047
 20
302.5432159547
 30
0.0
 10
595.3937052436
 20
303.6283862248
 30
0.0
 10
595.4825175488999
 20
304.781628329
 30
0.0
 10
595.4099145988999
 20
305.5773188839
 30
0.0
  0
SPLINE
  5
3B6
330
214
100
AcDbEntity
  8
RUNDUNGEN
  6
Continuous
 62
     9
100
AcDbSpline
210
0.0
220
0.0
230
1.0
 70
     8
 71
     3
 72
    11
 73
     7
 74
     0
 42
0.0000000001
 43
0.0000000001
 40
0.0
 40
0.0
 40
0.0
 40
0.0
 40
0.144100069
 40
0.3789966805
 40
0.6786556267
 40
1.0
 40
1.0
 40
1.0
 40
1.0
 10
509.7036090237
 20
303.3095569966
 30
0.0
 10
509.7550854871
 20
303.2800923734
 30
0.0
 10
509.9090818722
 20
303.2408999877
 30
0.0
 10
510.183242296
 20
303.194781447
 30
0.0
 10
510.5350758133
 20
303.1637305121
 30
0.0
 10
510.7905055470999
 20
303.1546762281
 30
0.0
 10
510.9227723726999
 20
303.1541929014
 30
0.0
  0
SPLINE
  5
3B7
330
214
100
AcDbEntity
  8
RUNDUNGEN
  6
Continuous
 62
     9
100
AcDbSpline
210
0.0
220
0.0
230
1.0
 70
     8
 71
     3
 72
    11
 73
     7
 74
     0
 42
0.0000000001
 43
0.0000000001
 40
0.0
 40
0.0
 40
0.0
 40
0.0
 40
0.1545628424
 40
0.3869867947999999
 40
0.6815863967000001
 40
1.0
 40
1.0
 40
1.0
 40
1.0
 10
510.6883923728999
 20
283.7391031012
 30
0.0
 10
510.7333718219999
 20
283.6908765379
 30
0.0
 10
510.8832027402999
 20
283.6098649095
 30
0.0
 10
511.15935401
 20
283.521954856
 30
0.0
 10
511.5160655658
 20
283.4584805019
 30
0.0
 10
511.7775227772
 20
283.4409743298
 30
0.0
 10
511.9133776982
 20
283.4404317684
 30
0.0
  0
SPLINE
  5
3B8
330
214
100
AcDbEntity
  8
RUNDUNGEN
  6
Continuous
 62
     9
100
AcDbSpline
210
0.0
220
0.0
230
1.0
 70
     8
 71
     3
 72
    11
 73
     7
 74
     0
 42
0.0000000001
 43
0.0000000001
 40
0.0
 40
0.0
 40
0.0
 40
0.0
 40
0.3184136039999999
 40
0.6130132044
 40
0.8454371579
 40
1.0
 40
1.0
 40
1.0
 40
1.0
 10
534.5719526518999
 20
283.4404317702
 30
0.0
 10
534.7078075680999
 20
283.4409743259
 30
0.0
 10
534.9692647768001
 20
283.4584805052
 30
0.0
 10
535.3259762891999
 20
283.5219548759
 30
0.0
 10
535.6021276259999
 20
283.6098648679
 30
0.0
 10
535.7519583974
 20
283.6908766178
 30
0.0
 10
535.7969379341
 20
283.7391030959
 30
0.0
  0
LINE
  5
3B9
330
214
100
AcDbEntity
  8
RUNDUNGEN
  6
Continuous
 62
     9
100
AcDbLine
 10
536.8820331682
 20
305.3030977272
 30
0.0
 11
535.7969385374999
 21
283.7391150644
 31
0.0
  0
SPLINE
  5
3BA
330
214
100
AcDbEntity
  8
RUNDUNGEN
  6
Continuous
 62
     9
100
AcDbSpline
210
0.0
220
0.0
230
1.0
 70
     8
 71
     3
 72
    10
 73
     6
 74
     0
 42
0.0000000001
 43
0.0000000001
 40
0.0
 40
0.0
 40
0.0
 40
0.0
 40
0.4830537007000001
 40
0.7377653834000001
 40
1.0
 40
1.0
 40
1.0
 40
1.0
 10
536.6027741044
 20
304.3146545156
 30
0.0
 10
536.5048099526999
 20
304.0732776639
 30
0.0
 10
536.3198135372
 20
303.7132995256
 30
0.0
 10
535.9687616530999
 20
303.305860506
 30
0.0
 10
535.7038205117
 20
303.1602929281
 30
0.0
 10
535.5625212501
 20
303.1545303046
 30
0.0
  0
SPLINE
  5
3BB
330
214
100
AcDbEntity
  8
RUNDUNGEN
  6
Continuous
 62
     9
100
AcDbSpline
210
0.0
220
0.0
230
1.0
 70
     8
 71
     3
 72
    10
 73
     6
 74
     0
 42
0.0000000001
 43
0.0000000001
 40
0.0
 40
0.0
 40
0.0
 40
0.0
 40
0.1768147592
 40
0.4195127928000001
 40
1.0
 40
1.0
 40
1.0
 40
1.0
 10
537.0513707304
 20
283.9930736071
 30
0.0
 10
537.0886767245999
 20
283.924310615
 30
0.0
 10
537.2359969228999
 20
283.7976333091999
 30
0.0
 10
537.6396853362
 20
283.6170513732
 30
0.0
 10
538.0103729168999
 20
283.5606177432
 30
0.0
 10
538.2671997883999
 20
283.5625625052
 30
0.0
  0
SPLINE
  5
3BC
330
214
100
AcDbEntity
  8
RUNDUNGEN
  6
Continuous
 62
     9
100
AcDbSpline
210
0.0
220
0.0
230
1.0
 70
     8
 71
     3
 72
    10
 73
     6
 74
     0
 42
0.0000000001
 43
0.0000000001
 40
0.0
 40
0.0
 40
0.0
 40
0.0
 40
0.5805855738
 40
0.8232062005999999
 40
1.0
 40
1.0
 40
1.0
 40
1.0
 10
540.6450711206999
 20
302.8407998847
 30
0.0
 10
540.3886592719
 20
302.8391448884999
 30
0.0
 10
540.0186475779999
 20
302.8956083711
 30
0.0
 10
539.6158618851
 20
303.0762551545
 30
0.0
 10
539.4688685413
 20
303.2026800596
 30
0.0
 10
539.4316324501
 20
303.2713108683
 30
0.0
  0
SPLINE
  5
3BD
330
214
100
AcDbEntity
  8
RUNDUNGEN
  6
Continuous
 62
     9
100
AcDbSpline
210
0.0
220
0.0
230
1.0
 70
     8
 71
     3
 72
     8
 73
     4
 74
     0
 42
0.0000000001
 43
0.0000000001
 40
0.0
 40
0.0
 40
0.0
 40
0.0
 40
1.0
 40
1.0
 40
1.0
 40
1.0
 10
539.5031884001999
 20
310.4084596478
 30
0.0
 10
539.4978375912
 20
310.4066140934
 30
0.0
 10
539.4925261372
 20
310.4046414179
 30
0.0
 10
539.4873029125
 20
310.4024607871
 30
0.0
  0
SPLINE
  5
3BE
330
214
100
AcDbEntity
  8
RUNDUNGEN
  6
Continuous
 62
     9
100
AcDbSpline
210
0.0
220
0.0
230
1.0
 70
     8
 71
     3
 72
     9
 73
     5
 74
     0
 42
0.0000000001
 43
0.0000000001
 40
0.0
 40
0.0
 40
0.0
 40
0.0
 40
0.3168075087
 40
1.0
 40
1.0
 40
1.0
 40
1.0
 10
540.722165033
 20
304.1226553561
 30
0.0
 10
540.5912064561
 20
304.1226483548
 30
0.0
 10
540.1778409065
 20
304.1232640084
 30
0.0
 10
539.7644507803
 20
304.1223611162
 30
0.0
 10
539.4820617476
 20
304.125881258
 30
0.0
  0
SPLINE
  5
3BF
330
214
100
AcDbEntity
  8
RUNDUNGEN
  6
Continuous
 62
     9
100
AcDbSpline
210
0.0
220
0.0
230
1.0
 70
     8
 71
     3
 72
    13
 73
     9
 74
     0
 42
0.0000000001
 43
0.0000000001
 40
0.0
 40
0.0
 40
0.0
 40
0.0
 40
0.0692244421
 40
0.1724944301
 40
0.2949467553
 40
0.4278024696000001
 40
0.7090879178
 40
1.0
 40
1.0
 40
1.0
 40
1.0
 10
539.5031884001999
 20
310.4084596478
 30
0.0
 10
539.5310513423001
 20
310.4180895052
 30
0.0
 10
539.5873714891
 20
310.4700859895
 30
0.0
 10
539.6690277930999
 20
310.5635585165
 30
0.0
 10
539.7600379732999
 20
310.6870390439
 30
0.0
 10
539.8883831289
 20
310.8758569718
 30
0.0
 10
540.0468382862999
 20
311.1311746435
 30
0.0
 10
540.1689073047
 20
311.3420552477
 30
0.0
 10
540.2297102712
 20
311.4499969094
 30
0.0
  0
SPLINE
  5
3C0
330
214
100
AcDbEntity
  8
RUNDUNGEN
  6
Continuous
 62
     9
100
AcDbSpline
210
0.0
220
0.0
230
1.0
 70
     8
 71
     3
 72
     8
 73
     4
 74
     0
 42
0.0000000001
 43
0.0000000001
 40
0.0
 40
0.0
 40
0.0
 40
0.0
 40
1.0
 40
1.0
 40
1.0
 40
1.0
 10
506.9980273994999
 20
310.4024607871
 30
0.0
 10
506.9928041787
 20
310.4046414225
 30
0.0
 10
506.9874927243
 20
310.406614092
 30
0.0
 10
506.9821419172
 20
310.4084596459
 30
0.0
  0
SPLINE
  5
3C1
330
214
100
AcDbEntity
  8
RUNDUNGEN
  6
Continuous
 62
     9
100
AcDbSpline
210
0.0
220
0.0
230
1.0
 70
     8
 71
     3
 72
    13
 73
     9
 74
     0
 42
0.0000000001
 43
0.0000000001
 40
0.0
 40
0.0
 40
0.0
 40
0.0
 40
0.2909604225
 40
0.5722674198
 40
0.7051097135
 40
0.8275514504
 40
0.9308164637
 40
1.0
 40
1.0
 40
1.0
 40
1.0
 10
506.2556200328
 20
311.4499969257
 30
0.0
 10
506.3164251499999
 20
311.342033509
 30
0.0
 10
506.4385188861
 20
311.1311338676
 30
0.0
 10
506.5970305686
 20
310.8758232098
 30
0.0
 10
506.7254220268
 20
310.6870406882
 30
0.0
 10
506.8163789683
 20
310.563537554
 30
0.0
 10
506.8979645665
 20
310.4700404811
 30
0.0
 10
506.9542880444999
 20
310.4180619689
 30
0.0
 10
506.9821419172
 20
310.4084596459
 30
0.0
  0
SPLINE
  5
3C2
330
214
100
AcDbEntity
  8
RUNDUNGEN
  6
Continuous
 62
     9
100
AcDbSpline
210
0.0
220
0.0
230
1.0
 70
     8
 71
     3
 72
     9
 73
     5
 74
     0
 42
0.0000000001
 43
0.0000000001
 40
0.0
 40
0.0
 40
0.0
 40
0.0
 40
0.3168074798
 40
1.0
 40
1.0
 40
1.0
 40
1.0
 10
505.7631653444
 20
304.1226553569
 30
0.0
 10
505.8941239024
 20
304.1226483556
 30
0.0
 10
506.3074894301999
 20
304.1232640087
 30
0.0
 10
506.7208795345999
 20
304.1223611187
 30
0.0
 10
507.0032685644
 20
304.125881258
 30
0.0
  0
SPLINE
  5
3C3
330
214
100
AcDbEntity
  8
RUNDUNGEN
  6
Continuous
 62
     9
100
AcDbSpline
210
0.0
220
0.0
230
1.0
 70
     8
 71
     3
 72
    10
 73
     6
 74
     0
 42
0.0000000001
 43
0.0000000001
 40
0.0
 40
0.0
 40
0.0
 40
0.0
 40
0.5805856035
 40
0.8232062212
 40
1.0
 40
1.0
 40
1.0
 40
1.0
 10
505.8402591247999
 20
302.840799769
 30
0.0
 10
506.0966710108
 20
302.8391447721
 30
0.0
 10
506.4666827518999
 20
302.8956082734
 30
0.0
 10
506.8694684662999
 20
303.0762551086
 30
0.0
 10
507.0164617944
 20
303.2026800487
 30
0.0
 10
507.0536978619
 20
303.2713108683
 30
0.0
  0
SPLINE
  5
3C4
330
214
100
AcDbEntity
  8
RUNDUNGEN
  6
Continuous
 62
     9
100
AcDbSpline
210
0.0
220
0.0
230
1.0
 70
     8
 71
     3
 72
    10
 73
     6
 74
     0
 42
0.0000000001
 43
0.0000000001
 40
0.0
 40
0.0
 40
0.0
 40
0.0
 40
0.5804872068
 40
0.8231852397
 40
1.0
 40
1.0
 40
1.0
 40
1.0
 10
508.2181305236
 20
283.5625625052
 30
0.0
 10
508.4749573957999
 20
283.560617858
 30
0.0
 10
508.8456449760999
 20
283.6170513481
 30
0.0
 10
509.2493333880999
 20
283.7976333121
 30
0.0
 10
509.3966535871
 20
283.9243106145
 30
0.0
 10
509.4339595816
 20
283.9930736071
 30
0.0
  0
LINE
  5
3C5
330
214
100
AcDbEntity
  8
RUNDUNGEN
  6
Continuous
 62
     9
100
AcDbLine
 10
511.913377665
 20
283.440432431
 30
0.0
 11
510.9227724548
 21
303.154191277
 31
0.0
  0
LINE
  5
3C6
330
214
100
AcDbEntity
  8
RUNDUNGEN
  6
Continuous
 62
     9
100
AcDbLine
 10
535.5625212562999
 20
303.1545304372
 30
0.0
 11
534.571952685
 21
283.440432431
 31
0.0
  0
LINE
  5
3C7
330
214
100
AcDbEntity
  8
RUNDUNGEN
  6
Continuous
 62
     9
100
AcDbLine
 10
535.2950239314
 20
304.3448479676
 30
0.0
 11
534.0460159484999
 21
304.4290654125
 31
0.0
  0
LINE
  5
3C8
330
214
100
AcDbEntity
  8
RUNDUNGEN
  6
Continuous
 62
     9
100
AcDbLine
 10
512.4393143635
 20
304.4290654125
 30
0.0
 11
511.1903235104
 21
304.3448479674
 31
0.0
  0
SPLINE
  5
3C9
330
214
100
AcDbEntity
  8
RUNDUNGEN
  6
Continuous
 62
     9
100
AcDbSpline
210
0.0
220
0.0
230
1.0
 70
     8
 71
     3
 72
     8
 73
     4
 74
     0
 42
0.0000000001
 43
0.0000000001
 40
0.0
 40
0.0
 40
0.0
 40
0.0
 40
1.0
 40
1.0
 40
1.0
 40
1.0
 10
507.9766917169999
 20
311.4010903219
 30
0.0
 10
507.9661420955
 20
311.4032289673
 30
0.0
 10
507.9555449203
 20
311.4051361048
 30
0.0
 10
507.9449286451001
 20
311.4069145921
 30
0.0
  0
LINE
  5
3CA
330
214
100
AcDbEntity
  8
RUNDUNGEN
  6
Continuous
 62
     9
100
AcDbLine
 10
512.4476001619999
 20
310.4958808126
 30
0.0
 11
507.9766917169999
 21
311.4010903219
 31
0.0
  0
LINE
  5
3CB
330
214
100
AcDbEntity
  8
RUNDUNGEN
  6
Continuous
 62
     9
100
AcDbLine
 10
538.508638595
 20
311.4010903219
 30
0.0
 11
534.0377301499
 21
310.4958808126
 31
0.0
  0
SPLINE
  5
3CC
330
214
100
AcDbEntity
  8
RUNDUNGEN
  6
Continuous
 62
     9
100
AcDbSpline
210
0.0
220
0.0
230
1.0
 70
     8
 71
     3
 72
     8
 73
     4
 74
     0
 42
0.0000000001
 43
0.0000000001
 40
0.0
 40
0.0
 40
0.0
 40
0.0
 40
1.0
 40
1.0
 40
1.0
 40
1.0
 10
538.5404016669
 20
311.4069145921
 30
0.0
 10
538.5297853908
 20
311.4051361097001
 30
0.0
 10
538.5191882173
 20
311.4032289633
 30
0.0
 10
538.508638595
 20
311.4010903219
 30
0.0
  0
LINE
  5
3CD
330
214
100
AcDbEntity
  8
RUNDUNGEN
  6
Continuous
 62
     9
100
AcDbLine
 10
536.8820331682
 20
305.3030977272
 30
0.0
 11
535.0160871993
 21
305.4289131077
 31
0.0
  0
LINE
  5
3CE
330
214
100
AcDbEntity
  8
RUNDUNGEN
  6
Continuous
 62
     9
100
AcDbLine
 10
535.7969385374999
 20
283.7391150644
 30
0.0
 11
537.0513707304
 21
283.9930736071
 31
0.0
  0
LINE
  5
3CF
330
214
100
AcDbEntity
  8
RUNDUNGEN
  6
Continuous
 62
     9
100
AcDbLine
 10
537.0513707304
 20
283.9930736071
 30
0.0
 11
539.4316324501
 21
303.2713108683
 31
0.0
  0
SPLINE
  5
3D0
330
214
100
AcDbEntity
  8
RUNDUNGEN
  6
Continuous
 62
     9
100
AcDbSpline
210
0.0
220
0.0
230
1.0
 70
     8
 71
     3
 72
     9
 73
     5
 74
     0
 42
0.0000000001
 43
0.0000000001
 40
0.0
 40
0.0
 40
0.0
 40
0.0
 40
0.2398401366
 40
1.0
 40
1.0
 40
1.0
 40
1.0
 10
539.4316324501
 20
303.2713108683
 30
0.0
 10
539.4400216926999
 20
303.3392577339
 30
0.0
 10
539.4699795118
 20
303.6231660502
 30
0.0
 10
539.4818808509
 20
303.9088923058
 30
0.0
 10
539.4820617476
 20
304.125881258
 30
0.0
  0
LINE
  5
3D1
330
214
100
AcDbEntity
  8
RUNDUNGEN
  6
Continuous
 62
     9
100
AcDbLine
 10
539.4873029125
 20
310.4024607871
 30
0.0
 11
535.0160871993
 21
309.4972512779
 31
0.0
  0
LINE
  5
3D2
330
214
100
AcDbEntity
  8
RUNDUNGEN
  6
Continuous
 62
     9
100
AcDbLine
 10
511.4692431126999
 20
305.4289131077
 30
0.0
 11
510.2202164652999
 21
305.3446956317
 31
0.0
  0
LINE
  5
3D3
330
214
100
AcDbEntity
  8
RUNDUNGEN
  6
Continuous
 62
     9
100
AcDbLine
 10
511.4692431126999
 20
309.4972512779
 30
0.0
 11
506.9980273994999
 21
310.4024607871
 31
0.0
  0
SPLINE
  5
3D4
330
214
100
AcDbEntity
  8
RUNDUNGEN
  6
Continuous
 62
     9
100
AcDbSpline
210
0.0
220
0.0
230
1.0
 70
     8
 71
     3
 72
     9
 73
     5
 74
     0
 42
0.0000000001
 43
0.0000000001
 40
0.0
 40
0.0
 40
0.0
 40
0.0
 40
0.2574377726
 40
1.0
 40
1.0
 40
1.0
 40
1.0
 10
507.0032685644
 20
304.125881258
 30
0.0
 10
507.0033298262999
 20
304.0523963849
 30
0.0
 10
507.0076748578999
 20
303.7669850947001
 30
0.0
 10
507.0277245855
 20
303.4816758324
 30
0.0
 10
507.0536978619
 20
303.2713108683
 30
0.0
  0
LINE
  5
3D5
330
214
100
AcDbEntity
  8
RUNDUNGEN
  6
Continuous
 62
     9
100
AcDbLine
 10
507.0536978619
 20
303.2713108683
 30
0.0
 11
509.4339595816
 21
283.9930736071
 31
0.0
  0
SPLINE
  5
3D6
330
214
100
AcDbEntity
  8
0
  6
Continuous
 62
     9
100
AcDbSpline
210
0.0
220
0.0
230
1.0
 70
     8
 71
     3
 72
    14
 73
    10
 74
     0
 42
0.0000000001
 43
0.0000000001
 40
0.0
 40
0.0
 40
0.0
 40
0.0
 40
0.4179432396000001
 40
0.5842106764000001
 40
0.7217240298
 40
0.8305583563999999
 40
0.9112401287999999
 40
0.9655195006999999
 40
1.0
 40
1.0
 40
1.0
 40
1.0
 10
595.4099145988999
 20
305.5773188839
 30
0.0
 10
595.3785438789
 20
305.9211938895
 30
0.0
 10
595.3283628263999
 20
306.4014681433
 30
0.0
 10
595.2404138232
 20
306.9913535107
 30
0.0
 10
595.1763719347
 20
307.3262809145
 30
0.0
 10
595.1110895755
 20
307.5887421482
 30
0.0
 10
595.0412579794
 20
307.7783286066
 30
0.0
 10
594.9748942588
 20
307.902034331
 30
0.0
 10
594.906060543
 20
307.9462123012
 30
0.0
 10
594.8775728977
 20
307.9462158446
 30
0.0
  0
LINE
  5
3D7
330
214
100
AcDbEntity
  8
RUNDUNGEN
  6
Continuous
 62
     9
100
AcDbLine
 10
509.4339595816
 20
283.9930736071
 30
0.0
 11
510.6883917697
 21
283.7391150653
 31
0.0
  0
LINE
  5
3D8
330
214
100
AcDbEntity
  8
RUNDUNGEN
  6
Continuous
 62
     9
100
AcDbLine
 10
510.6883917697
 20
283.7391150653
 30
0.0
 11
509.7036090237
 21
303.3095569966
 31
0.0
  0
SPLINE
  5
3D9
330
214
100
AcDbEntity
  8
RUNDUNGEN
  6
Continuous
 62
     9
100
AcDbSpline
210
0.0
220
0.0
230
1.0
 70
     8
 71
     3
 72
    12
 73
     8
 74
     0
 42
0.0000000001
 43
0.0000000001
 40
0.0
 40
0.0
 40
0.0
 40
0.0
 40
0.1323201056
 40
0.2257378517
 40
0.3406540942
 40
0.6336405790000001
 40
1.0
 40
1.0
 40
1.0
 40
1.0
 10
510.2202164652999
 20
305.3446956317
 30
0.0
 10
510.1688876963
 20
305.3412567203
 30
0.0
 10
510.0896687670999
 20
305.2820643202
 30
0.0
 10
510.0164324296
 20
305.1737103828
 30
0.0
 10
509.9299512288999
 20
304.9975507773
 30
0.0
 10
509.8432606704
 20
304.7082499012
 30
0.0
 10
509.7966964808
 20
304.455777487
 30
0.0
 10
509.7764536654
 20
304.3147888785
 30
0.0
  0
SPLINE
  5
3DA
330
214
100
AcDbEntity
  8
0
  6
Continuous
 62
     9
100
AcDbSpline
210
0.0
220
0.0
230
1.0
 70
     8
 71
     3
 72
    26
 73
    22
 74
     0
 42
0.0000000001
 43
0.0000000001
 40
0.0
 40
0.0
 40
0.0
 40
0.0
 40
0.0005110146
 40
0.0014906344
 40
0.0051580674
 40
0.0111836212
 40
0.0195751708
 40
0.0303208294
 40
0.0433979143
 40
0.0587771832
 40
0.0764226378
 40
0.1183396493
 40
0.1687493158
 40
0.2271682121
 40
0.2930348781
 40
0.3657155582
 40
0.4445104586000001
 40
0.5286605663000001
 40
0.6173550513000001
 40
0.8049216143
 40
1.0
 40
1.0
 40
1.0
 40
1.0
 10
485.2426811869
 20
263.9294902024
 30
0.0
 10
485.2423424784999
 20
263.923021438
 30
0.0
 10
485.2580476915
 20
263.9070492044
 30
0.0
 10
485.3176126848
 20
263.8852531749
 30
0.0
 10
485.4523648258
 20
263.8566538859
 30
0.0
 10
485.6785286271
 20
263.8273150799
 30
0.0
 10
485.99653393
 20
263.7960380103
 30
0.0
 10
486.4035251872
 20
263.7651695281
 30
0.0
 10
486.8995719649999
 20
263.7342491052
 30
0.0
 10
487.4831428223999
 20
263.7037180173
 30
0.0
 10
488.4321651691
 20
263.6610950102
 30
0.0
 10
489.8252886866999
 20
263.6109627656
 30
0.0
 10
491.7353678666
 20
263.5561992983
 30
0.0
 10
493.9492161419
 20
263.5047340871
 30
0.0
 10
496.4455132763999
 20
263.4571081634
 30
0.0
 10
499.2002103735999
 20
263.4138649511
 30
0.0
 10
502.1867599875999
 20
263.3754549586
 30
0.0
 10
505.3763745977
 20
263.3422722802
 30
0.0
 10
509.944798461
 20
263.3047629251
 30
0.0
 10
515.9194356133
 20
263.2737827783
 30
0.0
 10
520.7698499087
 20
263.2655889124
 30
0.0
 10
523.2426651559999
 20
263.2655884694
 30
0.0
  0
SPLINE
  5
3DB
330
214
100
AcDbEntity
  8
0
  6
Continuous
 62
     9
100
AcDbSpline
210
0.0
220
0.0
230
1.0
 70
     8
 71
     3
 72
    45
 73
    41
 74
     0
 42
0.0000000001
 43
0.0000000001
 40
0.0
 40
0.0
 40
0.0
 40
0.0
 40
0.0002738426
 40
0.0007914314
 40
0.0026824624
 40
0.0057504116
 40
0.0099981388
 40
0.0154195691
 40
0.0220029625
 40
0.0297339197
 40
0.038594065
 40
0.0596161087
 40
0.0848691535
 40
0.1141116717
 40
0.1470633418
 40
0.1834079098
 40
0.2227963311
 40
0.2648501724
 40
0.3091652563
 40
0.4028572789
 40
0.5002773346
 40
0.5976865767000001
 40
0.6913465742
 40
0.7356380489
 40
0.7776635033
 40
0.8170190284
 40
0.8533265083999999
 40
0.886237269
 40
0.9154354591
 40
0.9406411711
 40
0.9616133145999999
 40
0.9704476860999999
 40
0.9781524579
 40
0.9847092877999999
 40
0.9901038434999998
 40
0.9943244443000001
 40
0.9973652711999999
 40
0.9992295684
 40
0.9997346122999999
 40
1.0
 40
1.0
 40
1.0
 40
1.0
 10
554.2426209418001
 20
263.9288809366
 30
0.0
 10
554.242071257
 20
263.9232442693999
 30
0.0
 10
554.2275969821999
 20
263.9110535742
 30
0.0
 10
554.1771151251
 20
263.8926063011
 30
0.0
 10
554.0639353934999
 20
263.8699420374
 30
0.0
 10
553.8761773339
 20
263.845588534
 30
0.0
 10
553.6134566215
 20
263.8202683193
 30
0.0
 10
553.2784554204
 20
263.7950515984
 30
0.0
 10
552.8709949362
 20
263.7698914757
 30
0.0
 10
552.3923803681999
 20
263.7450226826
 30
0.0
 10
551.6152523967999
 20
263.7103387268
 30
0.0
 10
550.475704015
 20
263.6695327837
 30
0.0
 10
548.9145319448
 20
263.624960342
 30
0.0
 10
547.1064925227999
 20
263.5830806028
 30
0.0
 10
545.0689518819
 20
263.54433368
 30
0.0
 10
542.8214892674
 20
263.5091594005
 30
0.0
 10
540.3857081979
 20
263.4779232165
 30
0.0
 10
537.7850269746
 20
263.4509446136
 30
0.0
 10
534.0612643441
 20
263.4204600451
 30
0.0
 10
529.1923894481999
 20
263.3952984909
 30
0.0
 10
523.2254059190999
 20
263.3852888009
 30
0.0
 10
517.2590849035999
 20
263.3954137172
 30
0.0
 10
512.391584728
 20
263.420670226
 30
0.0
 10
508.6695604283
 20
263.4512294579
 30
0.0
 10
506.0706355004
 20
263.47825868
 30
0.0
 10
503.6368896372
 20
263.509542065
 30
0.0
 10
501.3917213869
 20
263.5447595458
 30
0.0
 10
499.3567117812999
 20
263.5835452211
 30
0.0
 10
497.5514155288999
 20
263.6254582058001
 30
0.0
 10
495.9931731505999
 20
263.6700586621
 30
0.0
 10
494.8561708098
 20
263.7108860404
 30
0.0
 10
494.0811526895999
 20
263.7455917093
 30
0.0
 10
493.6041638433
 20
263.7704642384
 30
0.0
 10
493.1983556837999
 20
263.7956392807
 30
0.0
 10
492.8650186718
 20
263.8208282332
 30
0.0
 10
492.6040005713999
 20
263.8462167463
 30
0.0
 10
492.4178824169
 20
263.8703826831
 30
0.0
 10
492.3061851869
 20
263.8933138814
 30
0.0
 10
492.2566260907
 20
263.9114673067
 30
0.0
 10
492.2428474154
 20
263.9240045267
 30
0.0
 10
492.2426700492
 20
263.9294902091
 30
0.0
  0
LINE
  5
3DC
330
214
100
AcDbEntity
  8
0
  6
Continuous
 62
     9
100
AcDbLine
 10
578.2426651559999
 20
240.9462158446
 30
0.0
 11
578.2426651559999
 21
240.9892028336
 31
0.0
  0
SPLINE
  5
3DE
330
214
100
AcDbEntity
  8
RUNDUNGEN
  6
Continuous
 62
     9
100
AcDbSpline
210
0.0
220
0.0
230
1.0
 70
     8
 71
     3
 72
    10
 73
     6
 74
     0
 42
0.0000000001
 43
0.0000000001
 40
0.0
 40
0.0
 40
0.0
 40
0.0
 40
0.2727105431
 40
0.5216144409000001
 40
1.0
 40
1.0
 40
1.0
 40
1.0
 10
510.8987591998
 20
363.5242936051
 30
0.0
 10
510.9904299962999
 20
363.4144507741
 30
0.0
 10
511.1299676833
 20
363.1714361803
 30
0.0
 10
511.2383184057
 20
362.6522692191
 30
0.0
 10
511.1727177348
 20
362.2616263588
 30
0.0
 10
511.0906694805
 20
362.0244455516
 30
0.0
  0
SPLINE
  5
3E0
330
214
100
AcDbEntity
  8
RUNDUNGEN
  6
Continuous
 62
     9
100
AcDbSpline
210
0.0
220
0.0
230
1.0
 70
     8
 71
     3
 72
     9
 73
     5
 74
     0
 42
0.0000000001
 43
0.0000000001
 40
0.0
 40
0.0
 40
0.0
 40
0.0
 40
0.4980864737
 40
1.0
 40
1.0
 40
1.0
 40
1.0
 10
578.0130978062
 20
268.3102712257
 30
0.0
 10
578.6819849718
 20
268.3466603729
 30
0.0
 10
580.0249354147
 20
268.7233021662
 30
0.0
 10
581.0787344641
 20
269.6284413604
 30
0.0
 10
581.4950033137001
 20
270.159832605
 30
0.0
  0
LINE
  5
3E1
330
214
100
AcDbEntity
  8
RUNDUNGEN
  6
Continuous
 62
     9
100
AcDbLine
 10
505.840259126
 20
302.8407997731
 30
0.0
 11
508.2181305129
 21
283.5625625098
 31
0.0
  0
LINE
  5
3E3
330
214
100
AcDbEntity
  8
RUNDUNGEN
  6
Continuous
 62
     9
100
AcDbLine
 10
538.2672017114999
 20
283.5625625098
 30
0.0
 11
540.6450711859999
 21
302.8407997731
 31
0.0
  0
SPLINE
  5
3E5
330
214
100
AcDbEntity
  8
RUNDUNGEN
  6
Continuous
 62
     9
100
AcDbSpline
210
0.0
220
0.0
230
1.0
 70
     8
 71
     3
 72
    11
 73
     7
 74
     0
 42
0.0000000001
 43
0.0000000001
 40
0.0
 40
0.0
 40
0.0
 40
0.0
 40
0.2534065747
 40
0.5049757141
 40
0.7532266370000001
 40
1.0
 40
1.0
 40
1.0
 40
1.0
 10
508.2923868476999
 20
359.2582135572
 30
0.0
 10
508.2922127473999
 20
359.0330511236
 30
0.0
 10
508.3438832925
 20
358.5814458046
 30
0.0
 10
508.6292633248
 20
357.9583544818
 30
0.0
 10
509.1572208257
 20
357.5144383231
 30
0.0
 10
509.6064070087999
 20
357.4236093339
 30
0.0
 10
509.8256756167
 20
357.4235741823001
 30
0.0
  0
SPLINE
  5
3E6
330
214
100
AcDbEntity
  8
RUNDUNGEN
  6
Continuous
 62
     9
100
AcDbSpline
210
0.0
220
0.0
230
1.0
 70
     8
 71
     3
 72
    11
 73
     7
 74
     0
 42
0.0000000001
 43
0.0000000001
 40
0.0
 40
0.0
 40
0.0
 40
0.0
 40
0.2467737373999999
 40
0.4950245335
 40
0.7465935495
 40
1.0
 40
1.0
 40
1.0
 40
1.0
 10
536.6596546956999
 20
357.4235741823001
 30
0.0
 10
536.8789236362999
 20
357.4236094335
 30
0.0
 10
537.3281100451
 20
357.5144385034
 30
0.0
 10
537.8560674889
 20
357.958354996
 30
0.0
 10
538.1414468074
 20
358.5814461806
 30
0.0
 10
538.1931177432
 20
359.0330512337
 30
0.0
 10
538.1929434643
 20
359.2582135569001
 30
0.0
  0
SPLINE
  5
3E7
330
214
100
AcDbEntity
  8
RUNDUNGEN
  6
Continuous
 62
     9
100
AcDbSpline
210
0.0
220
0.0
230
1.0
 70
     8
 71
     3
 72
    10
 73
     6
 74
     0
 42
0.0000000001
 43
0.0000000001
 40
0.0
 40
0.0
 40
0.0
 40
0.0
 40
0.4783838695
 40
0.7272869693999999
 40
1.0
 40
1.0
 40
1.0
 40
1.0
 10
535.3946608314999
 20
362.0244455516
 30
0.0
 10
535.3126120726
 20
362.2616261744
 30
0.0
 10
535.247014864
 20
362.6522676014
 30
0.0
 10
535.3553586235
 20
363.1714411434
 30
0.0
 10
535.4949139918
 20
363.4144464817
 30
0.0
 10
535.586582462
 20
363.5242936051
 30
0.0
  0
SPLINE
  5
3E8
330
214
100
AcDbEntity
  8
RUNDUNGEN
  6
Continuous
 62
     9
100
AcDbSpline
210
0.0
220
0.0
230
1.0
 70
     8
 71
     3
 72
     9
 73
     5
 74
     0
 42
0.0000000001
 43
0.0000000001
 40
0.0
 40
0.0
 40
0.0
 40
0.0
 40
0.2544948255
 40
1.0
 40
1.0
 40
1.0
 40
1.0
 10
543.2426651559999
 20
261.265893079
 30
0.0
 10
545.3457588402
 20
261.2658932119
 30
0.0
 10
553.6095681461
 20
261.2319619441
 30
0.0
 10
561.8725870559
 20
261.0961674522
 30
0.0
 10
568.0320403129
 20
260.9720457626
 30
0.0
  0
SPLINE
  5
3E9
330
214
100
AcDbEntity
  8
RUNDUNGEN
  6
Continuous
 62
     9
100
AcDbSpline
210
0.0
220
0.0
230
1.0
 70
     8
 71
     3
 72
     9
 73
     5
 74
     0
 42
0.0000000001
 43
0.0000000001
 40
0.0
 40
0.0
 40
0.0
 40
0.0
 40
0.2574172974
 40
1.0
 40
1.0
 40
1.0
 40
1.0
 10
505.763165279
 20
304.1226553561
 30
0.0
 10
505.7632590162
 20
304.0124280024
 30
0.0
 10
505.7699007737999
 20
303.5842788376
 30
0.0
 10
505.8005577619
 20
303.1562892478
 30
0.0
 10
505.8402591259
 20
302.8407997731
 30
0.0
  0
SPLINE
  5
3EA
330
214
100
AcDbEntity
  8
RUNDUNGEN
  6
Continuous
 62
     9
100
AcDbSpline
210
0.0
220
0.0
230
1.0
 70
     8
 71
     3
 72
    11
 73
     7
 74
     0
 42
0.0000000001
 43
0.0000000001
 40
0.0
 40
0.0
 40
0.0
 40
0.0
 40
0.2457238157
 40
0.4968030170000001
 40
0.7491838314
 40
1.0
 40
1.0
 40
1.0
 40
1.0
 10
568.0320403129
 20
260.9720457626
 30
0.0
 10
568.6706674705
 20
260.9591788271
 30
0.0
 10
569.9842777183
 20
261.2015069506
 30
0.0
 10
571.6273427901999
 20
262.3514910863
 30
0.0
 10
572.6785284822
 20
264.0657453048
 30
0.0
 10
572.9085052822999
 20
265.3879520197
 30
0.0
 10
572.9049413708
 20
266.0399365676
 30
0.0
  0
SPLINE
  5
3EB
330
214
100
AcDbEntity
  8
RUNDUNGEN
  6
Continuous
 62
     9
100
AcDbSpline
210
0.0
220
0.0
230
1.0
 70
     8
 71
     3
 72
     9
 73
     5
 74
     0
 42
0.0000000001
 43
0.0000000001
 40
0.0
 40
0.0
 40
0.0
 40
0.0
 40
0.2398741485
 40
1.0
 40
1.0
 40
1.0
 40
1.0
 10
540.6450711859999
 20
302.8407997731
 30
0.0
 10
540.6578960073
 20
302.9427130502
 30
0.0
 10
540.7036910189999
 20
303.3685206489
 30
0.0
 10
540.7218882322999
 20
303.7971602733
 30
0.0
 10
540.722165033
 20
304.1226553561
 30
0.0
  0
LINE
  5
3EC
330
214
100
AcDbEntity
  8
RUNDUNGEN
  6
Continuous
 62
     9
100
AcDbLine
 10
572.9049413708
 20
266.0399365676
 30
0.0
 11
572.8996807176001
 21
267.0567274467
 31
0.0
  0
SPLINE
  5
3ED
330
214
100
AcDbEntity
  8
RUNDUNGEN
  6
Continuous
 62
     9
100
AcDbSpline
210
0.0
220
0.0
230
1.0
 70
     8
 71
     3
 72
     8
 73
     4
 74
     0
 42
0.0000000001
 43
0.0000000001
 40
0.0
 40
0.0
 40
0.0
 40
0.0
 40
1.0
 40
1.0
 40
1.0
 40
1.0
 10
537.4402623176
 20
375.9289138573
 30
0.0
 10
536.8726161602999
 20
375.8952673292
 30
0.0
 10
536.3049958921
 20
375.8611824127
 30
0.0
 10
535.7373960884999
 20
375.8267627714
 30
0.0
  0
SPLINE
  5
3EE
330
214
100
AcDbEntity
  8
RUNDUNGEN
  6
Continuous
 62
     9
100
AcDbSpline
210
0.0
220
0.0
230
1.0
 70
     8
 71
     3
 72
     8
 73
     4
 74
     0
 42
0.0000000001
 43
0.0000000001
 40
0.0
 40
0.0
 40
0.0
 40
0.0
 40
1.0
 40
1.0
 40
1.0
 40
1.0
 10
536.2471064908999
 20
362.7904820761
 30
0.0
 10
536.6505856538
 20
362.7661653376
 30
0.0
 10
537.0540759092
 20
362.7420316381
 30
0.0
 10
537.4575793326999
 20
362.7181208482
 30
0.0
  0
SPLINE
  5
3EF
330
214
100
AcDbEntity
  8
RUNDUNGEN
  6
Continuous
 62
     9
100
AcDbSpline
210
0.0
220
0.0
230
1.0
 70
     8
 71
     3
 72
    11
 73
     7
 74
     0
 42
0.0000000001
 43
0.0000000001
 40
0.0
 40
0.0
 40
0.0
 40
0.0
 40
0.2503186508
 40
0.5016949125
 40
0.7520522073000001
 40
1.0
 40
1.0
 40
1.0
 40
1.0
 10
572.8996807176001
 20
267.0567274467
 30
0.0
 10
572.899072572
 20
267.1832035275
 30
0.0
 10
572.9430083756
 20
267.4392445419
 30
0.0
 10
573.1405282984999
 20
267.7738539929
 30
0.0
 10
573.4477489014
 20
268.0112902642
 30
0.0
 10
573.699176253
 20
268.0771730866
 30
0.0
 10
573.824274885
 20
268.0839049222
 30
0.0
  0
SPLINE
  5
3F0
330
214
100
AcDbEntity
  8
RUNDUNGEN
  6
Continuous
 62
     9
100
AcDbSpline
210
0.0
220
0.0
230
1.0
 70
     8
 71
     3
 72
     9
 73
     5
 74
     0
 42
0.0000000001
 43
0.0000000001
 40
0.0
 40
0.0
 40
0.0
 40
0.0
 40
0.249578896
 40
1.0
 40
1.0
 40
1.0
 40
1.0
 10
573.824274885
 20
268.0839049222
 30
0.0
 10
574.1727616777999
 20
268.1026221268
 30
0.0
 10
575.5690550854
 20
268.1777235514
 30
0.0
 10
576.9653243717999
 20
268.2532737716
 30
0.0
 10
578.0130978062
 20
268.3102712257
 30
0.0
  0
SPLINE
  5
3F1
330
214
100
AcDbEntity
  8
0
  6
Continuous
 62
     9
100
AcDbSpline
210
0.0
220
0.0
230
1.0
 70
     8
 71
     3
 72
    45
 73
    41
 74
     0
 42
0.0000000001
 43
0.0000000001
 40
0.0
 40
0.0
 40
0.0
 40
0.0
 40
0.0002794664
 40
0.0008001781
 40
0.0026950698
 40
0.0057659086
 40
0.0100162663
 40
0.0154403773
 40
0.0220265996
 40
0.0297605516
 40
0.0386238856
 40
0.0596529725
 40
0.0849139308
 40
0.1141651552
 40
0.1471262015
 40
0.1834806551
 40
0.222879284
 40
0.2649434447
 40
0.3092687317
 40
0.4029798345000001
 40
0.5004155314000001
 40
0.5978350105
 40
0.6914980842000001
 40
0.7357879626999999
 40
0.7778095502
 40
0.8171588465999999
 40
0.853457685
 40
0.8863573829000001
 40
0.9155421274
 40
0.9407321020999999
 40
0.9616863726999998
 40
0.9705110831
 40
0.9782057667
 40
0.9847521434
 40
0.9901359724999998
 40
0.9943457284
 40
0.9973759145999999
 40
0.9992306961
 40
0.9997327312999999
 40
1.0
 40
1.0
 40
1.0
 40
1.0
 10
553.2426223681
 20
264.9287286318
 30
0.0
 10
553.2420988519
 20
264.9231596386
 30
0.0
 10
553.2282662294999
 20
264.9109703983
 30
0.0
 10
553.1792258000999
 20
264.8924444276
 30
0.0
 10
553.0697542906
 20
264.869805047
 30
0.0
 10
552.8878840963999
 20
264.8454178302
 30
0.0
 10
552.6335710227999
 20
264.8201016024
 30
0.0
 10
552.3092463449
 20
264.7948761193
 30
0.0
 10
551.9147948260999
 20
264.7697131101
 30
0.0
 10
551.4514567458999
 20
264.7448397637
 30
0.0
 10
550.6991467201999
 20
264.7101509528
 30
0.0
 10
549.5959868403999
 20
264.6693392297
 30
0.0
 10
548.0846686897
 20
264.624761415
 30
0.0
 10
546.3343781323
 20
264.5828776872
 30
0.0
 10
544.3619318652999
 20
264.5441284269
 30
0.0
 10
542.1862892026999
 20
264.5089535811
 30
0.0
 10
539.8283702019999
 20
264.4777187508
 30
0.0
 10
537.3108522935
 20
264.4507435253
 30
0.0
 10
533.7062494762
 20
264.4202666823
 30
0.0
 10
528.9933080234999
 20
264.3951198749
 30
0.0
 10
523.2176243996999
 20
264.3851353709
 30
0.0
 10
517.4429023846999
 20
264.3952926565
 30
0.0
 10
512.7319563108
 20
264.4205818465
 30
0.0
 10
509.1298766447
 20
264.4511706442
 30
0.0
 10
506.6149078962999
 20
264.4782217674
 30
0.0
 10
504.2599427329
 20
264.5095273679999
 30
0.0
 10
502.0876299641
 20
264.5447669876
 30
0.0
 10
500.1188571841
 20
264.583574336
 30
0.0
 10
498.3725480963999
 20
264.6255079178
 30
0.0
 10
496.8654819423
 20
264.6701276324
 30
0.0
 10
495.7660164784999
 20
264.7109717131
 30
0.0
 10
495.0167681744999
 20
264.7456927136
 30
0.0
 10
494.5557889510999
 20
264.7705723033
 30
0.0
 10
494.1637371021999
 20
264.7957560402
 30
0.0
 10
493.8418223769
 20
264.8209448883
 30
0.0
 10
493.5899889591
 20
264.8463503725
 30
0.0
 10
493.4104750319
 20
264.8704851733
 30
0.0
 10
493.303193791
 20
264.89347508
 30
0.0
 10
493.2554479194
 20
264.9116198237
 30
0.0
 10
493.2426652975999
 20
264.9242931232
 30
0.0
 10
493.242665156
 20
264.9296425305
 30
0.0
  0
LINE
  5
3F3
330
214
100
AcDbEntity
  8
RUNDUNGEN
  6
Continuous
 62
     9
100
AcDbLine
 10
508.4535432413999
 20
282.9944440722
 30
0.0
 11
509.7078681643
 21
282.7404881913
 31
0.0
  0
SPLINE
  5
3F4
330
214
100
AcDbEntity
  8
RUNDUNGEN
  6
Continuous
 62
     9
100
AcDbSpline
210
0.0
220
0.0
230
1.0
 70
     8
 71
     3
 72
    12
 73
     8
 74
     0
 42
0.0000000001
 43
0.0000000001
 40
0.0
 40
0.0
 40
0.0
 40
0.0
 40
0.0567450085
 40
0.1403816828
 40
0.3770466113
 40
0.6784407954999999
 40
1.0
 40
1.0
 40
1.0
 40
1.0
 10
509.7078681643
 20
282.7404881913
 30
0.0
 10
509.7529425028
 20
282.7313534986
 30
0.0
 10
509.8658895135
 20
282.7163887661
 30
0.0
 10
510.1700855369999
 20
282.6877444225
 30
0.0
 10
510.6734187304
 20
282.6603398345
 30
0.0
 10
511.3697532833
 20
282.6381854136
 30
0.0
 10
511.8746756651
 20
282.6326192619
 30
0.0
 10
512.1352926376999
 20
282.6326118917
 30
0.0
  0
SPLINE
  5
3F5
330
214
100
AcDbEntity
  8
RUNDUNGEN
  6
Continuous
 62
     9
100
AcDbSpline
210
0.0
220
0.0
230
1.0
 70
     8
 71
     3
 72
    12
 73
     8
 74
     0
 42
0.0000000001
 43
0.0000000001
 40
0.0
 40
0.0
 40
0.0
 40
0.0
 40
0.3215592045
 40
0.6229533892
 40
0.8596183216
 40
0.9432549843
 40
1.0
 40
1.0
 40
1.0
 40
1.0
 10
534.3500376741999
 20
282.6326118917
 30
0.0
 10
534.6106546469
 20
282.6326192419
 30
0.0
 10
535.1155770290001
 20
282.6381854224
 30
0.0
 10
535.8119115859999
 20
282.6603398313
 30
0.0
 10
536.3152447719999
 20
282.6877444255
 30
0.0
 10
536.6194407973999
 20
282.716388761
 30
0.0
 10
536.7323878010999
 20
282.7313535094
 30
0.0
 10
536.7774621477
 20
282.7404881913
 30
0.0
  0
LINE
  5
3F6
330
214
100
AcDbEntity
  8
RUNDUNGEN
  6
Continuous
 62
     9
100
AcDbLine
 10
536.7774621477
 20
282.7404881913
 30
0.0
 11
538.0317870706
 21
282.9944440722
 31
0.0
  0
SPLINE
  5
3F7
330
214
100
AcDbEntity
  8
RUNDUNGEN
  6
Continuous
 62
     9
100
AcDbSpline
210
0.0
220
0.0
230
1.0
 70
     8
 71
     3
 72
     8
 73
     4
 74
     0
 42
0.0000000001
 43
0.0000000001
 40
0.0
 40
0.0
 40
0.0
 40
0.0
 40
1.0
 40
1.0
 40
1.0
 40
1.0
 10
570.4860954905999
 20
266.3465353734
 30
0.0
 10
570.4887821166001
 20
266.6730733999
 30
0.0
 10
570.4912999668001
 20
266.9996128573
 30
0.0
 10
570.4936517172
 20
267.3261534673
 30
0.0
  0
SPLINE
  5
3F8
330
214
100
AcDbEntity
  8
RUNDUNGEN
  6
Continuous
 62
     9
100
AcDbSpline
210
0.0
220
0.0
230
1.0
 70
     8
 71
     3
 72
     9
 73
     5
 74
     0
 42
0.0000000001
 43
0.0000000001
 40
0.0
 40
0.0
 40
0.0
 40
0.0
 40
0.2495836773
 40
1.0
 40
1.0
 40
1.0
 40
1.0
 10
573.3295023514999
 20
270.3210159614
 30
0.0
 10
573.6819977158999
 20
270.3430539611
 30
0.0
 10
575.0943429737
 20
270.4311630549
 30
0.0
 10
576.5067425183999
 20
270.5184038576
 30
0.0
 10
577.5666701662999
 20
270.58321571
 30
0.0
  0
SPLINE
  5
3F9
330
214
100
AcDbEntity
  8
RUNDUNGEN
  6
Continuous
 62
     9
100
AcDbSpline
210
0.0
220
0.0
230
1.0
 70
     8
 71
     3
 72
     9
 73
     5
 74
     0
 42
0.0000000001
 43
0.0000000001
 40
0.0
 40
0.0
 40
0.0
 40
0.0
 40
0.2719061101
 40
1.0
 40
1.0
 40
1.0
 40
1.0
 10
591.4393828084
 20
297.2299762272
 30
0.0
 10
591.5988848841
 20
297.6091173135
 30
0.0
 10
592.1820606948999
 20
299.0049289498
 30
0.0
 10
592.7514378798999
 20
300.4065924271
 30
0.0
 10
593.1523200572
 20
301.4324711299
 30
0.0
  0
SPLINE
  5
3FA
330
214
100
AcDbEntity
  8
RUNDUNGEN
  6
Continuous
 62
     9
100
AcDbSpline
210
0.0
220
0.0
230
1.0
 70
     8
 71
     3
 72
    10
 73
     6
 74
     0
 42
0.0000000001
 43
0.0000000001
 40
0.0
 40
0.0
 40
0.0
 40
0.0
 40
0.5338580296000001
 40
0.7805519014
 40
1.0
 40
1.0
 40
1.0
 40
1.0
 10
580.1029939781999
 20
272.3015908617
 30
0.0
 10
582.2052269441
 20
276.6984774293
 30
0.0
 10
585.2329525508999
 20
283.1495602674
 30
0.0
 10
588.9718634838999
 20
291.4779706995
 30
0.0
 10
590.6625499399999
 20
295.3833771325
 30
0.0
 10
591.4393828084
 20
297.2299762272
 30
0.0
  0
SPLINE
  5
3FB
330
214
100
AcDbEntity
  8
RUNDUNGEN
  6
Continuous
 62
     9
100
AcDbSpline
210
0.0
220
0.0
230
1.0
 70
     8
 71
     3
 72
     9
 73
     5
 74
     0
 42
0.0000000001
 43
0.0000000001
 40
0.0
 40
0.0
 40
0.0
 40
0.0
 40
0.3008528223
 40
1.0
 40
1.0
 40
1.0
 40
1.0
 10
593.1523200572
 20
301.4324711299
 30
0.0
 10
593.2339360968
 20
301.6572933635
 30
0.0
 10
593.4544276661999
 20
302.4222635606
 30
0.0
 10
593.4929086874999
 20
303.2382744886
 30
0.0
 10
593.4138722057
 20
303.7884489044
 30
0.0
  0
SPLINE
  5
3FC
330
214
100
AcDbEntity
  8
RUNDUNGEN
  6
Continuous
 62
     9
100
AcDbSpline
210
0.0
220
0.0
230
1.0
 70
     8
 71
     3
 72
    13
 73
     9
 74
     0
 42
0.0000000001
 43
0.0000000001
 40
0.0
 40
0.0
 40
0.0
 40
0.0
 40
0.4175117514
 40
0.5837188411
 40
0.7213055733
 40
0.8303931762000001
 40
0.9115922591
 40
1.0
 40
1.0
 40
1.0
 40
1.0
 10
593.4138722057
 20
303.7884489044
 30
0.0
 10
593.3824920585999
 20
304.1118845144
 30
0.0
 10
593.3325404812999
 20
304.5633113082
 30
0.0
 10
593.2440295708
 20
305.1186568841
 30
0.0
 10
593.1811504565001
 20
305.4320867234
 30
0.0
 10
593.1126459053
 20
305.6832324246
 30
0.0
 10
593.0418351971
 20
305.8743836799
 30
0.0
 10
592.9503392362001
 20
306.015900897
 30
0.0
 10
592.8815304518
 20
306.0159176733
 30
0.0
  0
LINE
  5
3FE
330
214
100
AcDbEntity
  8
RUNDUNGEN
  6
Continuous
 62
     9
100
AcDbLine
 10
537.4575793326999
 20
362.7181208482
 30
0.0
 11
537.4608702005
 21
359.2549697189
 31
0.0
  0
SPLINE
  5
400
330
214
100
AcDbEntity
  8
RUNDUNGEN
  6
Continuous
 62
     9
100
AcDbSpline
210
0.0
220
0.0
230
1.0
 70
     8
 71
     3
 72
     8
 73
     4
 74
     0
 42
0.0000000001
 43
0.0000000001
 40
0.0
 40
0.0
 40
0.0
 40
0.0
 40
1.0
 40
1.0
 40
1.0
 40
1.0
 10
510.7479342234999
 20
375.8267630079
 30
0.0
 10
510.1803344217
 20
375.8611826497
 30
0.0
 10
509.6127141499
 20
375.8952674772
 30
0.0
 10
509.0450679943
 20
375.9289140056
 30
0.0
  0
SPLINE
  5
401
330
214
100
AcDbEntity
  8
RUNDUNGEN
  6
Continuous
 62
     9
100
AcDbSpline
210
0.0
220
0.0
230
1.0
 70
     8
 71
     3
 72
     8
 73
     4
 74
     0
 42
0.0000000001
 43
0.0000000001
 40
0.0
 40
0.0
 40
0.0
 40
0.0
 40
1.0
 40
1.0
 40
1.0
 40
1.0
 10
509.0277509793
 20
362.7181208482
 30
0.0
 10
509.4312544034999
 20
362.7420316382
 30
0.0
 10
509.8347446593
 20
362.7661653436
 30
0.0
 10
510.238223823
 20
362.7904820818
 30
0.0
  0
LINE
  5
402
330
214
100
AcDbEntity
  8
RUNDUNGEN
  6
Continuous
 62
     9
100
AcDbLine
 10
509.0244601114
 20
359.2549697188
 30
0.0
 11
509.0277509793
 21
362.7181208482
 31
0.0
  0
SPLINE
  5
404
330
214
100
AcDbEntity
  8
RUNDUNGEN
  6
Continuous
 62
     9
100
AcDbSpline
210
0.0
220
0.0
230
1.0
 70
     8
 71
     3
 72
    11
 73
     7
 74
     0
 42
0.0000000001
 43
0.0000000001
 40
0.0
 40
0.0
 40
0.0
 40
0.0
 40
0.2575099508
 40
0.5113800016
 40
0.7586762365000001
 40
1.0
 40
1.0
 40
1.0
 40
1.0
 10
595.4099145988999
 20
305.5773105842
 30
0.0
 10
595.1584466199999
 20
305.5739823768
 30
0.0
 10
594.6557916696999
 20
305.4784096304
 30
0.0
 10
594.0081096144
 20
305.0870872909
 30
0.0
 10
593.5540995925999
 20
304.4996604062
 30
0.0
 10
593.4269690369999
 20
304.0237669368
 30
0.0
 10
593.4138722057
 20
303.7884489044
 30
0.0
  0
SPLINE
  5
405
330
214
100
AcDbEntity
  8
RUNDUNGEN
  6
Continuous
 62
     9
100
AcDbSpline
210
0.0
220
0.0
230
1.0
 70
     8
 71
     3
 72
    10
 73
     6
 74
     0
 42
0.0000000001
 43
0.0000000001
 40
0.0
 40
0.0
 40
0.0
 40
0.0
 40
0.5256662315
 40
0.7685827392000001
 40
1.0
 40
1.0
 40
1.0
 40
1.0
 10
594.9550167023
 20
302.2314496066
 30
0.0
 10
594.5934929994
 20
302.2755365191
 30
0.0
 10
594.0294206422
 20
302.2142455609
 30
0.0
 10
593.4354035685999
 20
301.8391112671
 30
0.0
 10
593.2267518495999
 20
301.574482457
 30
0.0
 10
593.1523235769
 20
301.4324694511
 30
0.0
  0
SPLINE
  5
406
330
214
100
AcDbEntity
  8
RUNDUNGEN
  6
Continuous
 62
     9
100
AcDbSpline
210
0.0
220
0.0
230
1.0
 70
     8
 71
     3
 72
    11
 73
     7
 74
     0
 42
0.0000000001
 43
0.0000000001
 40
0.0
 40
0.0
 40
0.0
 40
0.0
 40
0.2909103504
 40
0.5558853542000001
 40
0.7900399473000001
 40
1.0
 40
1.0
 40
1.0
 40
1.0
 10
593.2420795466
 20
297.7622048004
 30
0.0
 10
593.0526744576999
 20
297.8032808331
 30
0.0
 10
592.6811206536
 20
297.8451886237
 30
0.0
 10
592.1531387704
 20
297.7773881074
 30
0.0
 10
591.7147722976999
 20
297.5784080404
 30
0.0
 10
591.5068607677999
 20
297.3525019548
 30
0.0
 10
591.4393828086
 20
297.2299762271
 30
0.0
  0
SPLINE
  5
407
330
214
100
AcDbEntity
  8
RUNDUNGEN
  6
Continuous
 62
     9
100
AcDbSpline
210
0.0
220
0.0
230
1.0
 70
     8
 71
     3
 72
    15
 73
    11
 74
     0
 42
0.0000000001
 43
0.0000000001
 40
0.0
 40
0.0
 40
0.0
 40
0.0
 40
0.3597206869
 40
0.5286340447
 40
0.6803166868000002
 40
0.8081773415
 40
0.9066637117
 40
0.9715108068000001
 40
0.9903957054000001
 40
1.0
 40
1.0
 40
1.0
 40
1.0
 10
582.1652110848999
 20
271.2787447483
 30
0.0
 10
581.9158072047001
 20
271.3971527893
 30
0.0
 10
581.5499284331999
 20
271.5724997216
 30
0.0
 10
581.0803565672
 20
271.8008533448
 30
0.0
 10
580.7715794748999
 20
271.9528637027
 30
0.0
 10
580.5118400451999
 20
272.0823108772
 30
0.0
 10
580.3131496543
 20
272.184272623
 30
0.0
 10
580.1887576261
 20
272.2488876096
 30
0.0
 10
580.1273083658998
 20
272.2851579827
 30
0.0
 10
580.1082718408
 20
272.2964450084
 30
0.0
 10
580.1029939781999
 20
272.3015908617
 30
0.0
  0
SPLINE
  5
408
330
214
100
AcDbEntity
  8
RUNDUNGEN
  6
Continuous
 62
     9
100
AcDbSpline
210
0.0
220
0.0
230
1.0
 70
     8
 71
     3
 72
     9
 73
     5
 74
     0
 42
0.0000000001
 43
0.0000000001
 40
0.0
 40
0.0
 40
0.0
 40
0.0
 40
0.5011187330000001
 40
1.0
 40
1.0
 40
1.0
 40
1.0
 10
510.8361031
 20
364.2903380482
 30
0.0
 10
510.6313908213
 20
364.4593839754
 30
0.0
 10
510.1555460658999
 20
364.7208845064
 30
0.0
 10
509.6220155908
 20
364.8067375466001
 30
0.0
 10
509.3577134212
 20
364.8067276532
 30
0.0
  0
SPLINE
  5
409
330
214
100
AcDbEntity
  8
RUNDUNGEN
  6
Continuous
 62
     9
100
AcDbSpline
210
0.0
220
0.0
230
1.0
 70
     8
 71
     3
 72
     9
 73
     5
 74
     0
 42
0.0000000001
 43
0.0000000001
 40
0.0
 40
0.0
 40
0.0
 40
0.0
 40
0.5011129256000001
 40
1.0
 40
1.0
 40
1.0
 40
1.0
 10
535.6492510094
 20
364.2903380482
 30
0.0
 10
535.8539583130999
 20
364.4593796926
 30
0.0
 10
536.3297887380999
 20
364.7208905798
 30
0.0
 10
536.8633151136
 20
364.806738457
 30
0.0
 10
537.1276168887999
 20
364.8067276532
 30
0.0
  0
SPLINE
  5
40A
330
214
100
AcDbEntity
  8
RUNDUNGEN
  6
Continuous
 62
     9
100
AcDbSpline
210
0.0
220
0.0
230
1.0
 70
     8
 71
     3
 72
    13
 73
     9
 74
     0
 42
0.0000000001
 43
0.0000000001
 40
0.0
 40
0.0
 40
0.0
 40
0.0
 40
0.3567870259000001
 40
0.6771692355
 40
0.8055946923
 40
0.9048965987
 40
0.9706689152999999
 40
1.0
 40
1.0
 40
1.0
 40
1.0
 10
581.4950017446
 20
270.1598311786
 30
0.0
 10
581.2814974212
 20
270.3397153327
 30
0.0
 10
580.8758092102999
 20
270.6805677874001
 30
0.0
 10
580.3924162581999
 20
271.0851951408
 30
0.0
 10
580.0624346115
 20
271.3591138853
 30
0.0
 10
579.8858366149
 20
271.5060309183
 30
0.0
 10
579.7673379892
 20
271.6012493552
 30
0.0
 10
579.7102742289999
 20
271.6492444704
 30
0.0
 10
579.6913327260999
 20
271.6622051202
 30
0.0
  0
SPLINE
  5
40B
330
214
100
AcDbEntity
  8
RUNDUNGEN
  6
Continuous
 62
     9
100
AcDbSpline
210
0.0
220
0.0
230
1.0
 70
     8
 71
     3
 72
    11
 73
     7
 74
     0
 42
0.0000000001
 43
0.0000000001
 40
0.0
 40
0.0
 40
0.0
 40
0.0
 40
0.2482768026
 40
0.4976902487
 40
0.7484031211
 40
1.0
 40
1.0
 40
1.0
 40
1.0
 10
537.1276168862
 20
373.841333127
 30
0.0
 10
536.8575477683
 20
373.8413206335
 30
0.0
 10
536.3115908856
 20
373.9315074621
 30
0.0
 10
535.5867963189
 20
374.3399689554
 30
0.0
 10
535.0650328829
 20
374.999176207
 30
0.0
 10
534.9361160374
 20
375.5530832964
 30
0.0
 10
534.9361674779999
 20
375.8267639034
 30
0.0
  0
SPLINE
  5
40C
330
214
100
AcDbEntity
  8
RUNDUNGEN
  6
Continuous
 62
     9
100
AcDbSpline
210
0.0
220
0.0
230
1.0
 70
     8
 71
     3
 72
    13
 73
     9
 74
     0
 42
0.0000000001
 43
0.0000000001
 40
0.0
 40
0.0
 40
0.0
 40
0.0
 40
0.3514672661
 40
0.6655910739000001
 40
0.7920848253
 40
0.8912615440999999
 40
0.9601211806
 40
1.0
 40
1.0
 40
1.0
 40
1.0
 10
578.0130965609999
 20
268.3102722398
 30
0.0
 10
578.0030979969999
 20
268.585567229
 30
0.0
 10
577.9664703055999
 20
269.1061688554
 30
0.0
 10
577.8815721142
 20
269.7225552195
 30
0.0
 10
577.7907888106
 20
270.1351710447
 30
0.0
 10
577.7221528664999
 20
270.3578063106
 30
0.0
 10
577.6578008162
 20
270.5038220678
 30
0.0
 10
577.5969371301999
 20
270.5754237459
 30
0.0
 10
577.5666696851
 20
270.5832248905
 30
0.0
  0
SPLINE
  5
40D
330
214
100
AcDbEntity
  8
RUNDUNGEN
  6
Continuous
 62
     9
100
AcDbSpline
210
0.0
220
0.0
230
1.0
 70
     8
 71
     3
 72
    11
 73
     7
 74
     0
 42
0.0000000001
 43
0.0000000001
 40
0.0
 40
0.0
 40
0.0
 40
0.0
 40
0.2515964554
 40
0.5023103423
 40
0.7517236329000001
 40
1.0
 40
1.0
 40
1.0
 40
1.0
 10
511.549162834
 20
375.8267639012999
 30
0.0
 10
511.549213246
 20
375.5530837587
 30
0.0
 10
511.4202979987
 20
374.9991760604
 30
0.0
 10
510.8985333751999
 20
374.3399683644
 30
0.0
 10
510.1737383087999
 20
373.9315072451999
 30
0.0
 10
509.6277820692
 20
373.8413206279
 30
0.0
 10
509.3577134288
 20
373.841333127
 30
0.0
  0
SPLINE
  5
40E
330
214
100
AcDbEntity
  8
RUNDUNGEN
  6
Continuous
 62
     9
100
AcDbSpline
210
0.0
220
0.0
230
1.0
 70
     8
 71
     3
 72
    13
 73
     9
 74
     0
 42
0.0000000001
 43
0.0000000001
 40
0.0
 40
0.0
 40
0.0
 40
0.0
 40
0.3501414456
 40
0.6621454104
 40
0.7879709473000001
 40
0.8871428403999999
 40
0.9571031746999999
 40
1.0
 40
1.0
 40
1.0
 40
1.0
 10
573.824274764
 20
268.0839049974
 30
0.0
 10
573.8141779026999
 20
268.356255791
 30
0.0
 10
573.7752688045
 20
268.8705485613
 30
0.0
 10
573.6821633805999
 20
269.4782117306
 30
0.0
 10
573.581333736
 20
269.8836520554
 30
0.0
 10
573.5046052192
 20
270.1017482527
 30
0.0
 10
573.4310533017
 20
270.2472759404
 30
0.0
 10
573.3621373176999
 20
270.3139584039
 30
0.0
 10
573.3295023473
 20
270.3210160421
 30
0.0
  0
SPLINE
  5
40F
330
214
100
AcDbEntity
  8
RUNDUNGEN
  6
Continuous
 62
     9
100
AcDbSpline
210
0.0
220
0.0
230
1.0
 70
     8
 71
     3
 72
     8
 73
     4
 74
     0
 42
0.0000000001
 43
0.0000000001
 40
0.0
 40
0.0
 40
0.0
 40
0.0
 40
1.0
 40
1.0
 40
1.0
 40
1.0
 10
536.9357679892
 20
363.8068799581
 30
0.0
 10
537.4302258013
 20
363.776966693
 30
0.0
 10
537.9246978058001
 20
363.7472858991001
 30
0.0
 10
538.4191913388999
 20
363.7179690596
 30
0.0
  0
SPLINE
  5
410
330
214
100
AcDbEntity
  8
RUNDUNGEN
  6
Continuous
 62
     9
100
AcDbSpline
210
0.0
220
0.0
230
1.0
 70
     8
 71
     3
 72
    14
 73
    10
 74
     0
 42
0.0000000001
 43
0.0000000001
 40
0.0
 40
0.0
 40
0.0
 40
0.0
 40
0.3496427107
 40
0.516062011
 40
0.6666988708
 40
0.7948256182
 40
0.8949210760999999
 40
0.9632619335999999
 40
1.0
 40
1.0
 40
1.0
 40
1.0
 10
572.8996806558
 20
267.0567274875
 30
0.0
 10
572.6145188404
 20
267.05063723
 30
0.0
 10
572.1931605719
 20
267.0540782212
 30
0.0
 10
571.6501301792
 20
267.0827643796
 30
0.0
 10
571.2879010834
 20
267.1146839261
 30
0.0
 10
570.9824484783999
 20
267.1549122212
 30
0.0
 10
570.7421234575999
 20
267.2027263357
 30
0.0
 10
570.5876814439
 20
267.2508204178
 30
0.0
 10
570.5043221340999
 20
267.298141437
 30
0.0
 10
570.4936681034999
 20
267.3261534664
 30
0.0
  0
SPLINE
  5
411
330
214
100
AcDbEntity
  8
RUNDUNGEN
  6
Continuous
 62
     9
100
AcDbSpline
210
0.0
220
0.0
230
1.0
 70
     8
 71
     3
 72
     8
 73
     4
 74
     0
 42
0.0000000001
 43
0.0000000001
 40
0.0
 40
0.0
 40
0.0
 40
0.0
 40
1.0
 40
1.0
 40
1.0
 40
1.0
 10
508.0661389730999
 20
363.7179690596
 30
0.0
 10
508.5606325155
 20
363.7472858997
 30
0.0
 10
509.0551045291999
 20
363.776966696
 30
0.0
 10
509.5495623508999
 20
363.8068799581
 30
0.0
  0
SPLINE
  5
412
330
214
100
AcDbEntity
  8
RUNDUNGEN
  6
Continuous
 62
     9
100
AcDbSpline
210
0.0
220
0.0
230
1.0
 70
     8
 71
     3
 72
    14
 73
    10
 74
     0
 42
0.0000000001
 43
0.0000000001
 40
0.0
 40
0.0
 40
0.0
 40
0.0
 40
0.347574329
 40
0.5133278231000001
 40
0.663573754
 40
0.7916193125
 40
0.8920153137999999
 40
0.9612255506
 40
1.0
 40
1.0
 40
1.0
 40
1.0
 10
572.9049414009999
 20
266.0399365457
 30
0.0
 10
572.6187052353
 20
266.0326614559
 30
0.0
 10
572.1953700591
 20
266.0362561907
 30
0.0
 10
571.6497167008999
 20
266.0686546252
 30
0.0
 10
571.2853077741
 20
266.1050025302
 30
0.0
 10
570.9774498272
 20
266.1508118949
 30
0.0
 10
570.7357611672001
 20
266.2058197922
 30
0.0
 10
570.5779335323
 20
266.2606836094
 30
0.0
 10
570.4961849301001
 20
266.3162286532
 30
0.0
 10
570.4860954905999
 20
266.3465353734
 30
0.0
  0
SPLINE
  5
413
330
214
100
AcDbEntity
  8
RUNDUNGEN
  6
Continuous
 62
     9
100
AcDbSpline
210
0.0
220
0.0
230
1.0
 70
     8
 71
     3
 72
     8
 73
     4
 74
     0
 42
0.0000000001
 43
0.0000000001
 40
0.0
 40
0.0
 40
0.0
 40
0.0
 40
1.0
 40
1.0
 40
1.0
 40
1.0
 10
538.4019232432999
 20
374.9290654125
 30
0.0
 10
537.9132144031
 20
374.9000838244
 30
0.0
 10
537.4245267522
 20
374.8707441644
 30
0.0
 10
536.9358527588
 20
374.8411808221
 30
0.0
  0
SPLINE
  5
414
330
214
100
AcDbEntity
  8
RUNDUNGEN
  6
Continuous
 62
     9
100
AcDbSpline
210
0.0
220
0.0
230
1.0
 70
     8
 71
     3
 72
    13
 73
     9
 74
     0
 42
0.0000000001
 43
0.0000000001
 40
0.0
 40
0.0
 40
0.0
 40
0.0
 40
0.3431661977
 40
0.5058555326
 40
0.6531277597000001
 40
0.7790207687000001
 40
0.8792057768000001
 40
1.0
 40
1.0
 40
1.0
 40
1.0
 10
568.0320400034999
 20
260.9720459786
 30
0.0
 10
568.0454797782
 20
261.2595532828
 30
0.0
 10
568.0406072992999
 20
261.6849316956
 30
0.0
 10
567.9842480669999
 20
262.2306265633
 30
0.0
 10
567.9220585959
 20
262.5898319592
 30
0.0
 10
567.8384367796
 20
262.8966011279
 30
0.0
 10
567.7349713173
 20
263.1551811385
 30
0.0
 10
567.5997162523999
 20
263.3379220898
 30
0.0
 10
567.4985980448999
 20
263.3441991637
 30
0.0
  0
SPLINE
  5
415
330
214
100
AcDbEntity
  8
RUNDUNGEN
  6
Continuous
 62
     9
100
AcDbSpline
210
0.0
220
0.0
230
1.0
 70
     8
 71
     3
 72
     8
 73
     4
 74
     0
 42
0.0000000001
 43
0.0000000001
 40
0.0
 40
0.0
 40
0.0
 40
0.0
 40
1.0
 40
1.0
 40
1.0
 40
1.0
 10
509.549526581
 20
374.8411808221
 30
0.0
 10
509.0608469058
 20
374.8707445156
 30
0.0
 10
508.5721535104
 20
374.9000834832
 30
0.0
 10
508.0834389877
 20
374.9290654125
 30
0.0
  0
SPLINE
  5
416
330
214
100
AcDbEntity
  8
RUNDUNGEN
  6
Continuous
 62
     9
100
AcDbSpline
210
0.0
220
0.0
230
1.0
 70
     8
 71
     3
 72
    11
 73
     7
 74
     0
 42
0.0000000001
 43
0.0000000001
 40
0.0
 40
0.0
 40
0.0
 40
0.0
 40
0.2409916489
 40
0.493757274
 40
0.7490968218000001
 40
1.0
 40
1.0
 40
1.0
 40
1.0
 10
567.4985980448999
 20
263.3441975078
 30
0.0
 10
567.8725826592
 20
263.347048214
 30
0.0
 10
568.6450334548999
 20
263.5053654217
 30
0.0
 10
569.6351069883998
 20
264.167724351
 30
0.0
 10
570.313648724
 20
265.1656859372
 30
0.0
 10
570.480979668
 20
265.9571917785
 30
0.0
 10
570.4860954905999
 20
266.3465353734
 30
0.0
  0
SPLINE
  5
417
330
214
100
AcDbEntity
  8
RUNDUNGEN
  6
Continuous
 62
     9
100
AcDbSpline
210
0.0
220
0.0
230
1.0
 70
     8
 71
     3
 72
     9
 73
     5
 74
     0
 42
0.0000000001
 43
0.0000000001
 40
0.0
 40
0.0
 40
0.0
 40
0.0
 40
0.4959934588000001
 40
1.0
 40
1.0
 40
1.0
 40
1.0
 10
577.5666701662999
 20
270.58321571
 30
0.0
 10
577.9678912319999
 20
270.6096671982
 30
0.0
 10
578.7738553604
 20
270.8293715825
 30
0.0
 10
579.4286611694999
 20
271.3492388355
 30
0.0
 10
579.6913333226
 20
271.6622046184
 30
0.0
  0
SPLINE
  5
418
330
214
100
AcDbEntity
  8
RUNDUNGEN
  6
Continuous
 62
     9
100
AcDbSpline
210
0.0
220
0.0
230
1.0
 70
     8
 71
     3
 72
    11
 73
     7
 74
     0
 42
0.0000000001
 43
0.0000000001
 40
0.0
 40
0.0
 40
0.0
 40
0.0
 40
0.2499482723
 40
0.5002903591
 40
0.7504500691000001
 40
1.0
 40
1.0
 40
1.0
 40
1.0
 10
570.4936517172
 20
267.3261534673
 30
0.0
 10
570.495217011
 20
267.7023661188
 30
0.0
 10
570.6434050087999
 20
268.4623116633
 30
0.0
 10
571.2679196491999
 20
269.4346754918
 30
0.0
 10
572.2044011819
 20
270.1108558797
 30
0.0
 10
572.9545064402999
 20
270.2994359442
 30
0.0
 10
573.3295023514999
 20
270.3210159614
 30
0.0
  0
SPLINE
  5
419
330
214
100
AcDbEntity
  8
RUNDUNGEN
  6
Continuous
 62
     9
100
AcDbSpline
210
0.0
220
0.0
230
1.0
 70
     8
 71
     3
 72
    10
 73
     6
 74
     0
 42
0.0000000001
 43
0.0000000001
 40
0.0
 40
0.0
 40
0.0
 40
0.0
 40
0.5346394729
 40
0.7812689357
 40
1.0
 40
1.0
 40
1.0
 40
1.0
 10
582.1652110944
 20
271.2787447424
 30
0.0
 10
584.2375535802999
 20
275.9568096025
 30
0.0
 10
587.241144739
 20
282.8045551997
 30
0.0
 10
590.8875250607
 20
291.6531637989
 30
0.0
 10
592.5062646208999
 20
295.8025367125
 30
0.0
 10
593.2420820165
 20
297.76221754
 30
0.0
  0
LEADER
  5
58D
330
214
100
AcDbEntity
  8
ZEICHNUNGSBEMASSUNGEN
  6
Continuous
 62
     7
100
AcDbLeader
  3
DIMSTYLE_2
 74
     0
 76
     3
 10
530.242664993973
 20
397.4462158560143
 30
0.0
 10
546.3812518201729
 20
407.0904599396715
 30
0.0
 10
563.4738819228791
 20
407.0577643612298
 30
0.0
213
8.546107528269942
223
6.697880158863256
233
0.0
1001
ACAD
1000
DSTYLE
1002
{
1070
    41
1040
5.0
1070
   147
1040
1.5
1070
   178
1070
   256
1002
}
  0
LINE
  5
58E
330
214
100
AcDbEntity
  8
0
100
AcDbLine
 10
565.8316522921563
 20
403.8118625835916
 30
0.0
 11
574.4708155664909
 21
403.8118625835916
 31
0.0
  0
LINE
  5
58F
330
214
100
AcDbEntity
  8
0
100
AcDbLine
 10
567.3268726667356
 20
402.6662356780818
 30
0.0
 11
572.959506463919
 21
402.6662356780818
 31
0.0
  0
LINE
  5
590
330
214
100
AcDbEntity
  8
0
100
AcDbLine
 10
568.7376841202498
 20
401.7337882493297
 30
0.0
 11
571.7417526337031
 21
401.7337882493297
 31
0.0
  0
LINE
  5
591
330
214
100
AcDbEntity
  8
0
100
AcDbLine
 10
570.1038852722747
 20
405.4066682839188
 30
0.0
 11
570.1038852722747
 21
410.8477738838449
 31
0.0
  0
ENDSEC
  0
SECTION
  2
OBJECTS
  0
DICTIONARY
  5
C
330
0
100
AcDbDictionary
281
     1
  3
ACAD_COLOR
350
44B
  3
ACAD_GROUP
350
D
  3
ACAD_LAYOUT
350
1A
  3
ACAD_MATERIAL
350
41E
  3
ACAD_MLEADERSTYLE
350
460
  3
ACAD_MLINESTYLE
350
17
  3
ACAD_PLOTSETTINGS
350
19
  3
ACAD_PLOTSTYLENAME
350
E
  3
ACAD_SCALELIST
350
44E
  3
ACAD_TABLESTYLE
350
44C
  3
ACAD_VISUALSTYLE
350
437
  3
ACDB_RECOMPOSE_DATA
350
5C2
  3
AcDbVariableDictionary
350
5B3
  3
AcmDictionary
350
4BB
  3
AMG
350
465
  3
AMGSNAPSETTINGS
350
500
  3
DWGPROPS
350
5C3
  0
DICTIONARY
  5
44B
102
{ACAD_REACTORS
330
C
102
}
330
C
100
AcDbDictionary
281
     1
  0
DICTIONARY
  5
D
102
{ACAD_REACTORS
330
C
102
}
330
C
100
AcDbDictionary
281
     1
  0
DICTIONARY
  5
1A
102
{ACAD_REACTORS
330
C
102
}
330
C
100
AcDbDictionary
281
     1
  3
Layout1
350
41B
  3
Model
350
41A
  0
DICTIONARY
  5
41E
102
{ACAD_REACTORS
330
C
102
}
330
C
100
AcDbDictionary
281
     1
  3
ByBlock
350
427
  3
ByLayer
350
41F
  3
Global
350
42F
  0
DICTIONARY
  5
460
102
{ACAD_REACTORS
330
C
102
}
330
C
100
AcDbDictionary
281
     1
  3
Standard
350
461
  0
DICTIONARY
  5
17
102
{ACAD_REACTORS
330
C
102
}
330
C
100
AcDbDictionary
281
     1
  3
Standard
350
18
  0
DICTIONARY
  5
19
102
{ACAD_REACTORS
330
C
102
}
330
C
100
AcDbDictionary
281
     1
  0
ACDBDICTIONARYWDFLT
  5
E
102
{ACAD_REACTORS
330
C
102
}
330
C
100
AcDbDictionary
281
     1
  3
Normal
350
F
100
AcDbDictionaryWithDefault
340
F
  0
DICTIONARY
  5
44E
102
{ACAD_REACTORS
330
C
102
}
330
C
100
AcDbDictionary
281
     1
  3
A0
350
44F
  3
A1
350
450
  3
A2
350
451
  3
A3
350
452
  3
A4
350
453
  3
A5
350
454
  3
A6
350
455
  3
A7
350
456
  3
A8
350
457
  3
A9
350
458
  3
B0
350
459
  3
B1
350
45A
  3
B2
350
45B
  3
B3
350
45C
  3
B4
350
45D
  3
B5
350
45E
  3
B6
350
45F
  0
DICTIONARY
  5
44C
102
{ACAD_REACTORS
330
C
102
}
330
C
100
AcDbDictionary
281
     1
  3
Standard
350
44D
  0
DICTIONARY
  5
437
102
{ACAD_REACTORS
330
C
102
}
330
C
100
AcDbDictionary
281
     1
  3
2dWireframe
350
43D
  3
3D Hidden
350
43F
  3
3dWireframe
350
43E
  3
Basic
350
43C
  3
Brighten
350
443
  3
ColorChange
350
447
  3
Conceptual
350
440
  3
Dim
350
442
  3
EdgeColorOff
350
44A
  3
Facepattern
350
446
  3
Flat
350
438
  3
FlatWithEdges
350
439
  3
Gouraud
350
43A
  3
GouraudWithEdges
350
43B
  3
JitterOff
350
448
  3
Linepattern
350
445
  3
OverhangOff
350
449
  3
Realistic
350
441
  3
Thicken
350
444
  0
XRECORD
  5
5C2
102
{ACAD_REACTORS
330
C
102
}
330
C
100
AcDbXrecord
280
     1
 90
        1
330
44D
  0
DICTIONARY
  5
5B3
102
{ACAD_REACTORS
330
C
102
}
330
C
100
AcDbDictionary
281
     1
  3
CANNOSCALE
350
5B7
  3
CMLEADERSTYLE
350
5B5
  3
CTABLESTYLE
350
5B4
  3
DIMASSOC
350
5BE
  3
HIDETEXT
350
5BD
  3
INDEXCTL
350
5BC
  3
LAYEREVAL
350
5B9
  3
LAYERNOTIFY
350
5BA
  3
LIGHTINGUNITS
350
5B8
  3
MSLTSCALE
350
5B6
  3
SORTENTS
350
5BB
  3
XCLIPFRAME
350
5BF
  0
DICTIONARY
  5
4BB
102
{ACAD_REACTORS
330
C
102
}
330
C
100
AcDbDictionary
281
     1
  3
AcmStdDictionary
350
4C5
  0
DICTIONARY
  5
465
102
{ACAD_REACTORS
330
C
102
}
330
C
100
AcDbDictionary
281
     1
  0
DICTIONARY
  5
500
102
{ACAD_REACTORS
330
C
102
}
330
C
100
AcDbDictionary
281
     1
  0
XRECORD
  5
5C3
102
{ACAD_REACTORS
330
C
102
}
330
C
100
AcDbXrecord
280
     1
  1
DWGPROPS COOKIE
  2

  3

  4

  6

  7

  8
sheim
  9

300
=
301
=
302
=
303
=
304
=
305
=
306
=
307
=
308
=
309
=
 40
0.0021453009259259
 41
2456324.647544398
 42
2456324.649689329
  1

 90
        0
  0
LAYOUT
  5
41B
102
{ACAD_XDICTIONARY
360
5C6
102
}
102
{ACAD_REACTORS
330
1A
102
}
330
1A
100
AcDbPlotSettings
  1

  2
none_device
  4
ISO_A0_(1189.00_x_841.00_MM)
  6

 40
0.0
 41
0.0
 42
0.0
 43
0.0
 44
1189.0
 45
841.0
 46
0.0
 47
0.0
 48
0.0
 49
0.0
140
0.0
141
0.0
142
1.0
143
1.0
 70
     0
 72
     1
 73
     0
 74
     0
  7

 75
     0
147
1.0
148
0.0
149
0.0
100
AcDbLayout
  1
Layout1
 70
     1
 71
     1
 10
0.0
 20
0.0
 11
12.0
 21
9.0
 12
0.0
 22
0.0
 32
0.0
 14
1.000000000000000E+20
 24
1.000000000000000E+20
 34
1.000000000000000E+20
 15
-1.000000000000000E+20
 25
-1.000000000000000E+20
 35
-1.000000000000000E+20
146
0.0
 13
0.0
 23
0.0
 33
0.0
 16
1.0
 26
0.0
 36
0.0
 17
0.0
 27
1.0
 37
0.0
 76
     0
330
215
  0
LAYOUT
  5
41A
102
{ACAD_XDICTIONARY
360
5C4
102
}
102
{ACAD_REACTORS
330
1A
102
}
330
1A
100
AcDbPlotSettings
  1

  2
none_device
  4
ISO_A0_(1189.00_x_841.00_MM)
  6

 40
0.0
 41
0.0
 42
0.0
 43
0.0
 44
1189.0
 45
841.0
 46
0.0
 47
0.0
 48
0.0
 49
0.0
140
0.0
141
0.0
142
1.0
143
1.0
 70
  1024
 72
     1
 73
     0
 74
     0
  7

 75
     0
147
1.0
148
0.0
149
0.0
100
AcDbLayout
  1
Model
 70
     0
 71
     0
 10
0.0
 20
0.0
 11
1189.0
 21
841.0
 12
0.0
 22
0.0
 32
0.0
 14
0.0
 24
0.0
 34
0.0
 15
0.0
 25
0.0
 35
0.0
146
0.0
 13
0.0
 23
0.0
 33
0.0
 16
1.0
 26
0.0
 36
0.0
 17
0.0
 27
1.0
 37
0.0
 76
     0
330
214
331
1F4
  0
MATERIAL
  5
427
102
{ACAD_XDICTIONARY
360
428
102
}
102
{ACAD_REACTORS
330
41E
102
}
330
41E
100
AcDbMaterial
  1
ByBlock
 72
     0
 43
0.0008202099737533
 43
0.0
 43
0.0
 43
0.0
 43
0.0
 43
0.0008202099737533
 43
0.0
 43
0.0
 43
0.0
 43
0.0
 43
1.0
 43
0.0
 43
0.0
 43
0.0
 43
0.0
 43
1.0
 77
     0
 47
0.0008202099737533
 47
0.0
 47
0.0
 47
0.0
 47
0.0
 47
0.0008202099737533
 47
0.0
 47
0.0
 47
0.0
 47
0.0
 47
1.0
 47
0.0
 47
0.0
 47
0.0
 47
0.0
 47
1.0
171
     0
 49
0.0008202099737533
 49
0.0
 49
0.0
 49
0.0
 49
0.0
 49
0.0008202099737533
 49
0.0
 49
0.0
 49
0.0
 49
0.0
 49
1.0
 49
0.0
 49
0.0
 49
0.0
 49
0.0
 49
1.0
175
     0
142
0.0008202099737533
142
0.0
142
0.0
142
0.0
142
0.0
142
0.0008202099737533
142
0.0
142
0.0
142
0.0
142
0.0
142
1.0
142
0.0
142
0.0
142
0.0
142
0.0
142
1.0
179
     0
144
0.0008202099737533
144
0.0
144
0.0
144
0.0
144
0.0
144
0.0008202099737533
144
0.0
144
0.0
144
0.0
144
0.0
144
1.0
144
0.0
144
0.0
144
0.0
144
0.0
144
1.0
147
0.0008202099737533
147
0.0
147
0.0
147
0.0
147
0.0
147
0.0008202099737533
147
0.0
147
0.0
147
0.0
147
0.0
147
1.0
147
0.0
147
0.0
147
0.0
147
0.0
147
1.0
  0
MATERIAL
  5
41F
102
{ACAD_XDICTIONARY
360
420
102
}
102
{ACAD_REACTORS
330
41E
102
}
330
41E
100
AcDbMaterial
  1
ByLayer
 72
     0
 43
0.0008202099737533
 43
0.0
 43
0.0
 43
0.0
 43
0.0
 43
0.0008202099737533
 43
0.0
 43
0.0
 43
0.0
 43
0.0
 43
1.0
 43
0.0
 43
0.0
 43
0.0
 43
0.0
 43
1.0
 77
     0
 47
0.0008202099737533
 47
0.0
 47
0.0
 47
0.0
 47
0.0
 47
0.0008202099737533
 47
0.0
 47
0.0
 47
0.0
 47
0.0
 47
1.0
 47
0.0
 47
0.0
 47
0.0
 47
0.0
 47
1.0
171
     0
 49
0.0008202099737533
 49
0.0
 49
0.0
 49
0.0
 49
0.0
 49
0.0008202099737533
 49
0.0
 49
0.0
 49
0.0
 49
0.0
 49
1.0
 49
0.0
 49
0.0
 49
0.0
 49
0.0
 49
1.0
175
     0
142
0.0008202099737533
142
0.0
142
0.0
142
0.0
142
0.0
142
0.0008202099737533
142
0.0
142
0.0
142
0.0
142
0.0
142
1.0
142
0.0
142
0.0
142
0.0
142
0.0
142
1.0
179
     0
144
0.0008202099737533
144
0.0
144
0.0
144
0.0
144
0.0
144
0.0008202099737533
144
0.0
144
0.0
144
0.0
144
0.0
144
1.0
144
0.0
144
0.0
144
0.0
144
0.0
144
1.0
147
0.0008202099737533
147
0.0
147
0.0
147
0.0
147
0.0
147
0.0008202099737533
147
0.0
147
0.0
147
0.0
147
0.0
147
1.0
147
0.0
147
0.0
147
0.0
147
0.0
147
1.0
  0
MATERIAL
  5
42F
102
{ACAD_XDICTIONARY
360
430
102
}
102
{ACAD_REACTORS
330
41E
102
}
330
41E
100
AcDbMaterial
  1
Global
 72
     0
 43
0.0008202099737533
 43
0.0
 43
0.0
 43
0.0
 43
0.0
 43
0.0008202099737533
 43
0.0
 43
0.0
 43
0.0
 43
0.0
 43
1.0
 43
0.0
 43
0.0
 43
0.0
 43
0.0
 43
1.0
 77
     0
 47
0.0008202099737533
 47
0.0
 47
0.0
 47
0.0
 47
0.0
 47
0.0008202099737533
 47
0.0
 47
0.0
 47
0.0
 47
0.0
 47
1.0
 47
0.0
 47
0.0
 47
0.0
 47
0.0
 47
1.0
171
     0
 49
0.0008202099737533
 49
0.0
 49
0.0
 49
0.0
 49
0.0
 49
0.0008202099737533
 49
0.0
 49
0.0
 49
0.0
 49
0.0
 49
1.0
 49
0.0
 49
0.0
 49
0.0
 49
0.0
 49
1.0
175
     0
142
0.0008202099737533
142
0.0
142
0.0
142
0.0
142
0.0
142
0.0008202099737533
142
0.0
142
0.0
142
0.0
142
0.0
142
1.0
142
0.0
142
0.0
142
0.0
142
0.0
142
1.0
179
     0
144
0.0008202099737533
144
0.0
144
0.0
144
0.0
144
0.0
144
0.0008202099737533
144
0.0
144
0.0
144
0.0
144
0.0
144
1.0
144
0.0
144
0.0
144
0.0
144
0.0
144
1.0
147
0.0008202099737533
147
0.0
147
0.0
147
0.0
147
0.0
147
0.0008202099737533
147
0.0
147
0.0
147
0.0
147
0.0
147
1.0
147
0.0
147
0.0
147
0.0
147
0.0
147
1.0
  0
MLEADERSTYLE
  5
461
102
{ACAD_REACTORS
330
460
102
}
330
460
100
AcDbMLeaderStyle
170
     2
171
     1
172
     0
 90
        2
 40
0.0
 41
0.0
173
     1
 91
-1056964608
340
14
 92
       -2
290
     1
 42
2.0
291
     1
 43
0.36
  3
Standard
 44
4.0
300

342
11
174
     1
178
     6
175
     1
176
     0
 93
-1056964608
 45
4.0
292
     0
297
     0
 46
4.0
 94
-1056964608
 47
1.0
 49
1.0
140
1.0
293
     1
141
0.0
294
     1
177
     0
142
1.0
295
     0
296
     0
143
0.125
1001
ACAD_MLEADERVER
1070
     2
  0
MLINESTYLE
  5
18
102
{ACAD_REACTORS
330
17
102
}
330
17
100
AcDbMlineStyle
  2
STANDARD
 70
     0
  3

 62
   256
 51
90.0
 52
90.0
 71
     2
 49
0.5
 62
   256
  6
BYLAYER
 49
-0.5
 62
   256
  6
BYLAYER
  0
ACDBPLACEHOLDER
  5
F
102
{ACAD_REACTORS
330
E
102
}
330
E
  0
SCALE
  5
44F
102
{ACAD_REACTORS
330
44E
102
}
330
44E
100
AcDbScale
 70
     0
300
1:1
140
1.0
141
1.0
290
     1
  0
SCALE
  5
450
102
{ACAD_REACTORS
330
44E
102
}
330
44E
100
AcDbScale
 70
     0
300
1:2
140
1.0
141
2.0
290
     0
  0
SCALE
  5
451
102
{ACAD_REACTORS
330
44E
102
}
330
44E
100
AcDbScale
 70
     0
300
1:4
140
1.0
141
4.0
290
     0
  0
SCALE
  5
452
102
{ACAD_REACTORS
330
44E
102
}
330
44E
100
AcDbScale
 70
     0
300
1:5
140
1.0
141
5.0
290
     0
  0
SCALE
  5
453
102
{ACAD_REACTORS
330
44E
102
}
330
44E
100
AcDbScale
 70
     0
300
1:8
140
1.0
141
8.0
290
     0
  0
SCALE
  5
454
102
{ACAD_REACTORS
330
44E
102
}
330
44E
100
AcDbScale
 70
     0
300
1:10
140
1.0
141
10.0
290
     0
  0
SCALE
  5
455
102
{ACAD_REACTORS
330
44E
102
}
330
44E
100
AcDbScale
 70
     0
300
1:16
140
1.0
141
16.0
290
     0
  0
SCALE
  5
456
102
{ACAD_REACTORS
330
44E
102
}
330
44E
100
AcDbScale
 70
     0
300
1:20
140
1.0
141
20.0
290
     0
  0
SCALE
  5
457
102
{ACAD_REACTORS
330
44E
102
}
330
44E
100
AcDbScale
 70
     0
300
1:30
140
1.0
141
30.0
290
     0
  0
SCALE
  5
458
102
{ACAD_REACTORS
330
44E
102
}
330
44E
100
AcDbScale
 70
     0
300
1:40
140
1.0
141
40.0
290
     0
  0
SCALE
  5
459
102
{ACAD_REACTORS
330
44E
102
}
330
44E
100
AcDbScale
 70
     0
300
1:50
140
1.0
141
50.0
290
     0
  0
SCALE
  5
45A
102
{ACAD_REACTORS
330
44E
102
}
330
44E
100
AcDbScale
 70
     0
300
1:100
140
1.0
141
100.0
290
     0
  0
SCALE
  5
45B
102
{ACAD_REACTORS
330
44E
102
}
330
44E
100
AcDbScale
 70
     0
300
2:1
140
2.0
141
1.0
290
     0
  0
SCALE
  5
45C
102
{ACAD_REACTORS
330
44E
102
}
330
44E
100
AcDbScale
 70
     0
300
4:1
140
4.0
141
1.0
290
     0
  0
SCALE
  5
45D
102
{ACAD_REACTORS
330
44E
102
}
330
44E
100
AcDbScale
 70
     0
300
8:1
140
8.0
141
1.0
290
     0
  0
SCALE
  5
45E
102
{ACAD_REACTORS
330
44E
102
}
330
44E
100
AcDbScale
 70
     0
300
10:1
140
10.0
141
1.0
290
     0
  0
SCALE
  5
45F
102
{ACAD_REACTORS
330
44E
102
}
330
44E
100
AcDbScale
 70
     0
300
100:1
140
100.0
141
1.0
290
     0
  0
TABLESTYLE
  5
44D
102
{ACAD_XDICTIONARY
360
5C0
102
}
102
{ACAD_REACTORS
330
44C
102
}
330
44C
100
AcDbTableStyle
  3
Standard
 70
     0
 71
     0
 40
1.5
 41
1.5
280
     0
281
     0
  7
STANDARD
140
4.5
170
     2
 62
     0
 63
     7
283
     0
274
    -2
284
     1
 64
     0
275
    -2
285
     1
 65
     0
276
    -2
286
     1
 66
     0
277
    -2
287
     1
 67
     0
278
    -2
288
     1
 68
     0
279
    -2
289
     1
 69
     0
  7
STANDARD
140
6.0
170
     5
 62
     0
 63
     7
283
     0
274
    -2
284
     1
 64
     0
275
    -2
285
     1
 65
     0
276
    -2
286
     1
 66
     0
277
    -2
287
     1
 67
     0
278
    -2
288
     1
 68
     0
279
    -2
289
     1
 69
     0
  7
STANDARD
140
4.5
170
     5
 62
     0
 63
     7
283
     0
274
    -2
284
     1
 64
     0
275
    -2
285
     1
 65
     0
276
    -2
286
     1
 66
     0
277
    -2
287
     1
 67
     0
278
    -2
288
     1
 68
     0
279
    -2
289
     1
 69
     0
  0
VISUALSTYLE
  5
43D
102
{ACAD_XDICTIONARY
360
5D5
102
}
102
{ACAD_REACTORS
330
437
102
}
330
437
100
AcDbVisualStyle
  2
2dWireframe
 70
     4
 71
     0
 72
     2
 73
     0
 90
        0
 40
-0.6
 41
-30.0
 62
     5
 63
     7
 74
     1
 91
        4
 64
     7
 65
   257
 75
     1
175
     1
 42
1.0
 92
        0
 66
   257
 43
1.0
 76
     1
 77
     6
 78
     2
 67
     7
 79
     5
170
     0
171
     0
290
     0
174
     0
 93
        1
 44
0.0
173
     0
291
     0
 45
0.0
1001
ACAD
1000
AcDbSavedByObjectVersion
1070
     0
  0
VISUALSTYLE
  5
43F
102
{ACAD_XDICTIONARY
360
5D9
102
}
102
{ACAD_REACTORS
330
437
102
}
330
437
100
AcDbVisualStyle
  2
3D Hidden
 70
     6
 71
     1
 72
     2
 73
     2
 90
        0
 40
-0.6
 41
-30.0
 62
     5
 63
     7
 74
     2
 91
        2
 64
     7
 65
   257
 75
     2
175
     1
 42
179.0
 92
        0
 66
   257
 43
1.0
 76
     1
 77
     6
 78
     2
 67
     7
 79
     3
170
     0
171
     0
290
     0
174
     0
 93
        1
 44
0.0
173
     0
291
     0
 45
0.0
1001
ACAD
1000
AcDbSavedByObjectVersion
1070
     0
  0
VISUALSTYLE
  5
43E
102
{ACAD_XDICTIONARY
360
5D7
102
}
102
{ACAD_REACTORS
330
437
102
}
330
437
100
AcDbVisualStyle
  2
3dWireframe
 70
     5
 71
     0
 72
     2
 73
     0
 90
        0
 40
-0.6
 41
-30.0
 62
     5
 63
     7
 74
     1
 91
        4
 64
     7
 65
   257
 75
     1
175
     1
 42
1.0
 92
        0
 66
   257
 43
1.0
 76
     1
 77
     6
 78
     2
 67
     7
 79
     5
170
     0
171
     0
290
     0
174
     0
 93
        1
 44
0.0
173
     0
291
     0
 45
0.0
1001
ACAD
1000
AcDbSavedByObjectVersion
1070
     0
  0
VISUALSTYLE
  5
43C
102
{ACAD_XDICTIONARY
360
5D3
102
}
102
{ACAD_REACTORS
330
437
102
}
330
437
100
AcDbVisualStyle
  2
Basic
 70
     7
 71
     1
 72
     0
 73
     1
 90
        0
 40
-0.6
 41
-30.0
 62
     5
 63
     7
 74
     0
 91
        4
 64
     7
 65
   257
 75
     1
175
     1
 42
1.0
 92
        8
 66
     7
 43
1.0
 76
     1
 77
     6
 78
     2
 67
     7
 79
     5
170
     0
171
     0
290
     0
174
     0
 93
        1
 44
0.0
173
     0
291
     1
 45
0.0
1001
ACAD
1000
AcDbSavedByObjectVersion
1070
     0
  0
VISUALSTYLE
  5
443
102
{ACAD_XDICTIONARY
360
5E1
102
}
102
{ACAD_REACTORS
330
437
102
}
330
437
100
AcDbVisualStyle
  2
Brighten
 70
    12
 71
     2
 72
     2
 73
     0
 90
        0
 40
-0.6
 41
-30.0
 62
     5
 63
     7
 74
     1
 91
        4
 64
     7
 65
   257
 75
     1
175
     1
 42
1.0
 92
        8
 66
     7
 43
1.0
 76
     1
 77
     6
 78
     2
 67
     7
 79
     5
170
     0
171
     0
290
     0
174
     0
 93
        1
 44
50.0
173
     0
291
     1
 45
0.0
1001
ACAD
1000
AcDbSavedByObjectVersion
1070
     0
  0
VISUALSTYLE
  5
447
102
{ACAD_XDICTIONARY
360
5E9
102
}
102
{ACAD_REACTORS
330
437
102
}
330
437
100
AcDbVisualStyle
  2
ColorChange
 70
    16
 71
     2
 72
     2
 73
     3
 90
        0
 40
-0.6
 41
-30.0
 62
     5
 63
     8
 74
     1
 91
        4
 64
     7
 65
   257
 75
     1
175
     1
 42
1.0
 92
        8
 66
     8
 43
1.0
 76
     1
 77
     6
 78
     2
 67
     7
 79
     5
170
     0
171
     0
290
     0
174
     0
 93
        1
 44
0.0
173
     0
291
     1
 45
0.0
1001
ACAD
1000
AcDbSavedByObjectVersion
1070
     0
  0
VISUALSTYLE
  5
440
102
{ACAD_XDICTIONARY
360
5DB
102
}
102
{ACAD_REACTORS
330
437
102
}
330
437
100
AcDbVisualStyle
  2
Conceptual
 70
     9
 71
     3
 72
     2
 73
     0
 90
        0
 40
-0.6
 41
-30.0
 62
     5
 63
     7
 74
     2
 91
        2
 64
     7
 65
   257
 75
     1
175
     1
 42
179.0
 92
        8
 66
     7
 43
1.0
 76
     1
 77
     6
 78
     2
 67
     7
 79
     3
170
     0
171
     0
290
     0
174
     0
 93
        1
 44
0.0
173
     0
291
     0
 45
0.0
1001
ACAD
1000
AcDbSavedByObjectVersion
1070
     0
  0
VISUALSTYLE
  5
442
102
{ACAD_XDICTIONARY
360
5DF
102
}
102
{ACAD_REACTORS
330
437
102
}
330
437
100
AcDbVisualStyle
  2
Dim
 70
    11
 71
     2
 72
     2
 73
     0
 90
        0
 40
-0.6
 41
-30.0
 62
     5
 63
     7
 74
     1
 91
        4
 64
     7
 65
   257
 75
     1
175
     1
 42
1.0
 92
        8
 66
     7
 43
1.0
 76
     1
 77
     6
 78
     2
 67
     7
 79
     5
170
     0
171
     0
290
     0
174
     0
 93
        1
 44
-50.0
173
     0
291
     1
 45
0.0
1001
ACAD
1000
AcDbSavedByObjectVersion
1070
     0
  0
VISUALSTYLE
  5
44A
102
{ACAD_XDICTIONARY
360
5EF
102
}
102
{ACAD_REACTORS
330
437
102
}
330
437
100
AcDbVisualStyle
  2
EdgeColorOff
 70
    22
 71
     2
 72
     2
 73
     0
 90
        0
 40
-0.6
 41
-30.0
 62
     5
 63
     7
 74
     1
 91
        4
 64
     7
 65
   257
 75
     1
175
     1
 42
1.0
 92
        8
 66
     7
 43
1.0
 76
     1
 77
     6
 78
     2
 67
     7
 79
     5
170
     0
171
     0
290
     0
174
     0
 93
        1
 44
0.0
173
     0
291
     1
 45
0.0
1001
ACAD
1000
AcDbSavedByObjectVersion
1070
     0
  0
VISUALSTYLE
  5
446
102
{ACAD_XDICTIONARY
360
5E7
102
}
102
{ACAD_REACTORS
330
437
102
}
330
437
100
AcDbVisualStyle
  2
Facepattern
 70
    15
 71
     2
 72
     2
 73
     0
 90
        0
 40
-0.6
 41
-30.0
 62
     5
 63
     7
 74
     1
 91
        4
 64
     7
 65
   257
 75
     1
175
     1
 42
1.0
 92
        8
 66
     7
 43
1.0
 76
     1
 77
     6
 78
     2
 67
     7
 79
     5
170
     0
171
     0
290
     0
174
     0
 93
        1
 44
0.0
173
     0
291
     1
 45
0.0
1001
ACAD
1000
AcDbSavedByObjectVersion
1070
     0
  0
VISUALSTYLE
  5
438
102
{ACAD_XDICTIONARY
360
5CB
102
}
102
{ACAD_REACTORS
330
437
102
}
330
437
100
AcDbVisualStyle
  2
Flat
 70
     0
 71
     2
 72
     1
 73
     1
 90
        2
 40
-0.6
 41
30.0
 62
     5
 63
     7
 74
     0
 91
        4
 64
     7
 65
   257
 75
     1
175
     1
 42
1.0
 92
        8
 66
     7
 43
1.0
 76
     1
 77
     6
 78
     2
 67
     7
 79
     5
170
     0
171
     0
290
     0
174
     0
 93
       13
 44
0.0
173
     0
291
     1
 45
0.0
1001
ACAD
1000
AcDbSavedByObjectVersion
1070
     0
  0
VISUALSTYLE
  5
439
102
{ACAD_XDICTIONARY
360
5CD
102
}
102
{ACAD_REACTORS
330
437
102
}
330
437
100
AcDbVisualStyle
  2
FlatWithEdges
 70
     1
 71
     2
 72
     1
 73
     1
 90
        2
 40
-0.6
 41
30.0
 62
     5
 63
     7
 74
     1
 91
        4
 64
     7
 65
   257
 75
     1
175
     1
 42
1.0
 92
        0
 66
   257
 43
1.0
 76
     1
 77
     6
 78
     2
 67
     7
 79
     5
170
     0
171
     0
290
     0
174
     0
 93
       13
 44
0.0
173
     0
291
     1
 45
0.0
1001
ACAD
1000
AcDbSavedByObjectVersion
1070
     0
  0
VISUALSTYLE
  5
43A
102
{ACAD_XDICTIONARY
360
5CF
102
}
102
{ACAD_REACTORS
330
437
102
}
330
437
100
AcDbVisualStyle
  2
Gouraud
 70
     2
 71
     2
 72
     2
 73
     1
 90
        2
 40
-0.6
 41
30.0
 62
     5
 63
     7
 74
     0
 91
        4
 64
     7
 65
   257
 75
     1
175
     1
 42
1.0
 92
        0
 66
     7
 43
1.0
 76
     1
 77
     6
 78
     2
 67
     7
 79
     5
170
     0
171
     0
290
     0
174
     0
 93
       13
 44
0.0
173
     0
291
     1
 45
0.0
1001
ACAD
1000
AcDbSavedByObjectVersion
1070
     0
  0
VISUALSTYLE
  5
43B
102
{ACAD_XDICTIONARY
360
5D1
102
}
102
{ACAD_REACTORS
330
437
102
}
330
437
100
AcDbVisualStyle
  2
GouraudWithEdges
 70
     3
 71
     2
 72
     2
 73
     1
 90
        2
 40
-0.6
 41
30.0
 62
     5
 63
     7
 74
     1
 91
        4
 64
     7
 65
   257
 75
     1
175
     1
 42
1.0
 92
        0
 66
   257
 43
1.0
 76
     1
 77
     6
 78
     2
 67
     7
 79
     5
170
     0
171
     0
290
     0
174
     0
 93
       13
 44
0.0
173
     0
291
     1
 45
0.0
1001
ACAD
1000
AcDbSavedByObjectVersion
1070
     0
  0
VISUALSTYLE
  5
448
102
{ACAD_XDICTIONARY
360
5EB
102
}
102
{ACAD_REACTORS
330
437
102
}
330
437
100
AcDbVisualStyle
  2
JitterOff
 70
    20
 71
     2
 72
     2
 73
     0
 90
        0
 40
-0.6
 41
-30.0
 62
     5
 63
     7
 74
     1
 91
        4
 64
     7
 65
   257
 75
     1
175
     1
 42
1.0
 92
       10
 66
     7
 43
1.0
 76
     1
 77
     6
 78
     2
 67
     7
 79
     5
170
     0
171
     0
290
     0
174
     0
 93
        1
 44
0.0
173
     0
291
     1
 45
0.0
1001
ACAD
1000
AcDbSavedByObjectVersion
1070
     0
  0
VISUALSTYLE
  5
445
102
{ACAD_XDICTIONARY
360
5E5
102
}
102
{ACAD_REACTORS
330
437
102
}
330
437
100
AcDbVisualStyle
  2
Linepattern
 70
    14
 71
     2
 72
     2
 73
     0
 90
        0
 40
-0.6
 41
-30.0
 62
     5
 63
     7
 74
     1
 91
        4
 64
     7
 65
   257
 75
     7
175
     7
 42
1.0
 92
        8
 66
     7
 43
1.0
 76
     1
 77
     6
 78
     2
 67
     7
 79
     5
170
     0
171
     0
290
     0
174
     0
 93
        1
 44
0.0
173
     0
291
     1
 45
0.0
1001
ACAD
1000
AcDbSavedByObjectVersion
1070
     0
  0
VISUALSTYLE
  5
449
102
{ACAD_XDICTIONARY
360
5ED
102
}
102
{ACAD_REACTORS
330
437
102
}
330
437
100
AcDbVisualStyle
  2
OverhangOff
 70
    21
 71
     2
 72
     2
 73
     0
 90
        0
 40
-0.6
 41
-30.0
 62
     5
 63
     7
 74
     1
 91
        4
 64
     7
 65
   257
 75
     1
175
     1
 42
1.0
 92
        9
 66
     7
 43
1.0
 76
     1
 77
     6
 78
     2
 67
     7
 79
     5
170
     0
171
     0
290
     0
174
     0
 93
        1
 44
0.0
173
     0
291
     1
 45
0.0
1001
ACAD
1000
AcDbSavedByObjectVersion
1070
     0
  0
VISUALSTYLE
  5
441
102
{ACAD_XDICTIONARY
360
5DD
102
}
102
{ACAD_REACTORS
330
437
102
}
330
437
100
AcDbVisualStyle
  2
Realistic
 70
     8
 71
     2
 72
     2
 73
     0
 90
        0
 40
-0.6
 41
-30.0
 62
     5
 63
     7
 74
     1
 91
        0
 64
     7
 65
   257
 75
     1
175
     1
 42
1.0
 92
        8
 66
     8
 43
1.0
 76
     1
 77
     6
 78
     2
 67
     7
 79
     5
170
     0
171
     0
290
     0
174
     0
 93
       13
 44
0.0
173
     0
291
     0
 45
0.0
1001
ACAD
1000
AcDbSavedByObjectVersion
1070
     0
  0
VISUALSTYLE
  5
444
102
{ACAD_XDICTIONARY
360
5E3
102
}
102
{ACAD_REACTORS
330
437
102
}
330
437
100
AcDbVisualStyle
  2
Thicken
 70
    13
 71
     2
 72
     2
 73
     0
 90
        0
 40
-0.6
 41
-30.0
 62
     5
 63
     7
 74
     1
 91
        4
 64
     7
 65
   257
 75
     1
175
     1
 42
1.0
 92
       12
 66
     7
 43
1.0
 76
     1
 77
     6
 78
     2
 67
     7
 79
     5
170
     0
171
     0
290
     0
174
     0
 93
        1
 44
0.0
173
     0
291
     1
 45
0.0
1001
ACAD
1000
AcDbSavedByObjectVersion
1070
     0
  0
DICTIONARYVAR
  5
5B7
102
{ACAD_REACTORS
330
5B3
102
}
330
5B3
100
DictionaryVariables
280
     0
  1
1:1
  0
DICTIONARYVAR
  5
5B5
102
{ACAD_REACTORS
330
5B3
102
}
330
5B3
100
DictionaryVariables
280
     0
  1
STANDARD
  0
DICTIONARYVAR
  5
5B4
102
{ACAD_REACTORS
330
5B3
102
}
330
5B3
100
DictionaryVariables
280
     0
  1
STANDARD
  0
DICTIONARYVAR
  5
5BE
102
{ACAD_REACTORS
330
5B3
102
}
330
5B3
100
DictionaryVariables
280
     0
  1
2
  0
DICTIONARYVAR
  5
5BD
102
{ACAD_REACTORS
330
5B3
102
}
330
5B3
100
DictionaryVariables
280
     0
  1
1
  0
DICTIONARYVAR
  5
5BC
102
{ACAD_REACTORS
330
5B3
102
}
330
5B3
100
DictionaryVariables
280
     0
  1
0
  0
DICTIONARYVAR
  5
5B9
102
{ACAD_REACTORS
330
5B3
102
}
330
5B3
100
DictionaryVariables
280
     0
  1
0
  0
DICTIONARYVAR
  5
5BA
102
{ACAD_REACTORS
330
5B3
102
}
330
5B3
100
DictionaryVariables
280
     0
  1
0
  0
DICTIONARYVAR
  5
5B8
102
{ACAD_REACTORS
330
5B3
102
}
330
5B3
100
DictionaryVariables
280
     0
  1
2
  0
DICTIONARYVAR
  5
5B6
102
{ACAD_REACTORS
330
5B3
102
}
330
5B3
100
DictionaryVariables
280
     0
  1
1
  0
DICTIONARYVAR
  5
5BB
102
{ACAD_REACTORS
330
5B3
102
}
330
5B3
100
DictionaryVariables
280
     0
  1
127
  0
DICTIONARYVAR
  5
5BF
102
{ACAD_REACTORS
330
5B3
102
}
330
5B3
100
DictionaryVariables
280
     0
  1
2
  0
DICTIONARY
  5
4C5
102
{ACAD_REACTORS
330
4BB
102
}
330
4BB
100
AcDbDictionary
281
     1
  0
DICTIONARY
  5
5C6
330
41B
100
AcDbDictionary
280
     1
281
     1
  3
ACAD_XREC_ROUNDTRIP
360
5C7
  0
DICTIONARY
  5
5C4
330
41A
100
AcDbDictionary
280
     1
281
     1
  3
ACAD_XREC_ROUNDTRIP
360
5C5
  0
DICTIONARY
  5
428
330
427
100
AcDbDictionary
280
     1
281
     1
  3
ACAD_XREC_ROUNDTRIP
360
5C9
  3
BUMPTILE
360
42A
  3
DIFFUSETILE
360
429
  3
OPACITYTILE
360
42D
  3
REFLECTIONTILE
360
42C
  3
REFRACTIONTILE
360
42E
  3
SPECULARTILE
360
42B
  0
DICTIONARY
  5
420
330
41F
100
AcDbDictionary
280
     1
281
     1
  3
ACAD_XREC_ROUNDTRIP
360
5C8
  3
BUMPTILE
360
422
  3
DIFFUSETILE
360
421
  3
OPACITYTILE
360
425
  3
REFLECTIONTILE
360
424
  3
REFRACTIONTILE
360
426
  3
SPECULARTILE
360
423
  0
DICTIONARY
  5
430
330
42F
100
AcDbDictionary
280
     1
281
     1
  3
ACAD_XREC_ROUNDTRIP
360
5CA
  3
BUMPTILE
360
432
  3
DIFFUSETILE
360
431
  3
OPACITYTILE
360
435
  3
REFLECTIONTILE
360
434
  3
REFRACTIONTILE
360
436
  3
SPECULARTILE
360
433
  0
DICTIONARY
  5
5C0
330
44D
100
AcDbDictionary
280
     1
281
     1
  3
ACAD_ROUNDTRIP_2008_TABLESTYLE_CELLSTYLEMAP
360
5C1
  3
ACAD_XREC_ROUNDTRIP
360
5F1
  0
DICTIONARY
  5
5D5
330
43D
100
AcDbDictionary
280
     1
281
     1
  3
ACAD_XREC_ROUNDTRIP
360
5D6
  0
DICTIONARY
  5
5D9
330
43F
100
AcDbDictionary
280
     1
281
     1
  3
ACAD_XREC_ROUNDTRIP
360
5DA
  0
DICTIONARY
  5
5D7
330
43E
100
AcDbDictionary
280
     1
281
     1
  3
ACAD_XREC_ROUNDTRIP
360
5D8
  0
DICTIONARY
  5
5D3
330
43C
100
AcDbDictionary
280
     1
281
     1
  3
ACAD_XREC_ROUNDTRIP
360
5D4
  0
DICTIONARY
  5
5E1
330
443
100
AcDbDictionary
280
     1
281
     1
  3
ACAD_XREC_ROUNDTRIP
360
5E2
  0
DICTIONARY
  5
5E9
330
447
100
AcDbDictionary
280
     1
281
     1
  3
ACAD_XREC_ROUNDTRIP
360
5EA
  0
DICTIONARY
  5
5DB
330
440
100
AcDbDictionary
280
     1
281
     1
  3
ACAD_XREC_ROUNDTRIP
360
5DC
  0
DICTIONARY
  5
5DF
330
442
100
AcDbDictionary
280
     1
281
     1
  3
ACAD_XREC_ROUNDTRIP
360
5E0
  0
DICTIONARY
  5
5EF
330
44A
100
AcDbDictionary
280
     1
281
     1
  3
ACAD_XREC_ROUNDTRIP
360
5F0
  0
DICTIONARY
  5
5E7
330
446
100
AcDbDictionary
280
     1
281
     1
  3
ACAD_XREC_ROUNDTRIP
360
5E8
  0
DICTIONARY
  5
5CB
330
438
100
AcDbDictionary
280
     1
281
     1
  3
ACAD_XREC_ROUNDTRIP
360
5CC
  0
DICTIONARY
  5
5CD
330
439
100
AcDbDictionary
280
     1
281
     1
  3
ACAD_XREC_ROUNDTRIP
360
5CE
  0
DICTIONARY
  5
5CF
330
43A
100
AcDbDictionary
280
     1
281
     1
  3
ACAD_XREC_ROUNDTRIP
360
5D0
  0
DICTIONARY
  5
5D1
330
43B
100
AcDbDictionary
280
     1
281
     1
  3
ACAD_XREC_ROUNDTRIP
360
5D2
  0
DICTIONARY
  5
5EB
330
448
100
AcDbDictionary
280
     1
281
     1
  3
ACAD_XREC_ROUNDTRIP
360
5EC
  0
DICTIONARY
  5
5E5
330
445
100
AcDbDictionary
280
     1
281
     1
  3
ACAD_XREC_ROUNDTRIP
360
5E6
  0
DICTIONARY
  5
5ED
330
449
100
AcDbDictionary
280
     1
281
     1
  3
ACAD_XREC_ROUNDTRIP
360
5EE
  0
DICTIONARY
  5
5DD
330
441
100
AcDbDictionary
280
     1
281
     1
  3
ACAD_XREC_ROUNDTRIP
360
5DE
  0
DICTIONARY
  5
5E3
330
444
100
AcDbDictionary
280
     1
281
     1
  3
ACAD_XREC_ROUNDTRIP
360
5E4
  0
XRECORD
  5
5C7
102
{ACAD_REACTORS
330
5C6
102
}
330
5C6
100
AcDbXrecord
280
     1
102
SHADEPLOT
 70
     0
102
SHADEPLOTRESLEVEL
 70
     2
102
SHADEPLOTCUSTOMDPI
 70
   300
  0
XRECORD
  5
5C5
102
{ACAD_REACTORS
330
5C4
102
}
330
5C4
100
AcDbXrecord
280
     1
102
SHADEPLOT
 70
     0
102
SHADEPLOTRESLEVEL
 70
     2
102
SHADEPLOTCUSTOMDPI
 70
   300
  0
XRECORD
  5
5C9
102
{ACAD_REACTORS
330
428
102
}
330
428
100
AcDbXrecord
280
     1
102
MATERIAL
148
0.0
149
0.0
149
0.0
 93
        0
 94
      127
282
     0
 72
     0
 77
     0
171
     0
175
     0
179
     0
273
     0
  0
XRECORD
  5
42A
102
{ACAD_REACTORS
330
428
102
}
330
428
100
AcDbXrecord
280
     1
270
     1
271
     1
  0
XRECORD
  5
429
102
{ACAD_REACTORS
330
428
102
}
330
428
100
AcDbXrecord
280
     1
270
     1
271
     1
  0
XRECORD
  5
42D
102
{ACAD_REACTORS
330
428
102
}
330
428
100
AcDbXrecord
280
     1
270
     1
271
     1
  0
XRECORD
  5
42C
102
{ACAD_REACTORS
330
428
102
}
330
428
100
AcDbXrecord
280
     1
270
     1
271
     1
  0
XRECORD
  5
42E
102
{ACAD_REACTORS
330
428
102
}
330
428
100
AcDbXrecord
280
     1
270
     1
271
     1
  0
XRECORD
  5
42B
102
{ACAD_REACTORS
330
428
102
}
330
428
100
AcDbXrecord
280
     1
270
     1
271
     1
  0
XRECORD
  5
5C8
102
{ACAD_REACTORS
330
420
102
}
330
420
100
AcDbXrecord
280
     1
102
MATERIAL
148
0.0
149
0.0
149
0.0
 93
        0
 94
      127
282
     0
 72
     0
 77
     0
171
     0
175
     0
179
     0
273
     0
  0
XRECORD
  5
422
102
{ACAD_REACTORS
330
420
102
}
330
420
100
AcDbXrecord
280
     1
270
     1
271
     1
  0
XRECORD
  5
421
102
{ACAD_REACTORS
330
420
102
}
330
420
100
AcDbXrecord
280
     1
270
     1
271
     1
  0
XRECORD
  5
425
102
{ACAD_REACTORS
330
420
102
}
330
420
100
AcDbXrecord
280
     1
270
     1
271
     1
  0
XRECORD
  5
424
102
{ACAD_REACTORS
330
420
102
}
330
420
100
AcDbXrecord
280
     1
270
     1
271
     1
  0
XRECORD
  5
426
102
{ACAD_REACTORS
330
420
102
}
330
420
100
AcDbXrecord
280
     1
270
     1
271
     1
  0
XRECORD
  5
423
102
{ACAD_REACTORS
330
420
102
}
330
420
100
AcDbXrecord
280
     1
270
     1
271
     1
  0
XRECORD
  5
5CA
102
{ACAD_REACTORS
330
430
102
}
330
430
100
AcDbXrecord
280
     1
102
MATERIAL
148
0.0
149
0.0
149
0.0
 93
        0
 94
      127
282
     0
 72
     0
 77
     0
171
     0
175
     0
179
     0
273
     0
  0
XRECORD
  5
432
102
{ACAD_REACTORS
330
430
102
}
330
430
100
AcDbXrecord
280
     1
270
     1
271
     1
  0
XRECORD
  5
431
102
{ACAD_REACTORS
330
430
102
}
330
430
100
AcDbXrecord
280
     1
270
     1
271
     1
  0
XRECORD
  5
435
102
{ACAD_REACTORS
330
430
102
}
330
430
100
AcDbXrecord
280
     1
270
     1
271
     1
  0
XRECORD
  5
434
102
{ACAD_REACTORS
330
430
102
}
330
430
100
AcDbXrecord
280
     1
270
     1
271
     1
  0
XRECORD
  5
436
102
{ACAD_REACTORS
330
430
102
}
330
430
100
AcDbXrecord
280
     1
270
     1
271
     1
  0
XRECORD
  5
433
102
{ACAD_REACTORS
330
430
102
}
330
430
100
AcDbXrecord
280
     1
270
     1
271
     1
  0
CELLSTYLEMAP
  5
5C1
102
{ACAD_REACTORS
330
5C0
102
}
330
5C0
100
AcDbCellStyleMap
 90
        3
300
CELLSTYLE
  1
TABLEFORMAT_BEGIN
 90
        5
170
     1
 91
        0
 92
    32768
 62
   257
 93
        1
300
CONTENTFORMAT
  1
CONTENTFORMAT_BEGIN
 90
        0
 91
        0
 92
      512
 93
        0
300

 40
0.0
140
1.0
 94
        5
 62
     0
340
11
144
6.0
309
CONTENTFORMAT_END
171
     1
301
MARGIN
  1
CELLMARGIN_BEGIN
 40
1.5
 40
1.5
 40
1.5
 40
1.5
 40
4.5
 40
4.5
309
CELLMARGIN_END
 94
        6
 95
        1
302
GRIDFORMAT
  1
GRIDFORMAT_BEGIN
 90
        0
 91
        1
 62
     0
 92
       -2
340
0
 93
        0
 40
1.125
309
GRIDFORMAT_END
 95
        2
302
GRIDFORMAT
  1
GRIDFORMAT_BEGIN
 90
        0
 91
        1
 62
     0
 92
       -2
340
0
 93
        0
 40
1.125
309
GRIDFORMAT_END
 95
        4
302
GRIDFORMAT
  1
GRIDFORMAT_BEGIN
 90
        0
 91
        1
 62
     0
 92
       -2
340
0
 93
        0
 40
1.125
309
GRIDFORMAT_END
 95
        8
302
GRIDFORMAT
  1
GRIDFORMAT_BEGIN
 90
        0
 91
        1
 62
     0
 92
       -2
340
0
 93
        0
 40
1.125
309
GRIDFORMAT_END
 95
       16
302
GRIDFORMAT
  1
GRIDFORMAT_BEGIN
 90
        0
 91
        1
 62
     0
 92
       -2
340
0
 93
        0
 40
1.125
309
GRIDFORMAT_END
 95
       32
302
GRIDFORMAT
  1
GRIDFORMAT_BEGIN
 90
        0
 91
        1
 62
     0
 92
       -2
340
0
 93
        0
 40
1.125
309
GRIDFORMAT_END
309
TABLEFORMAT_END
  1
CELLSTYLE_BEGIN
 90
        1
 91
        1
300
_TITLE
309
CELLSTYLE_END
300
CELLSTYLE
  1
TABLEFORMAT_BEGIN
 90
        5
170
     1
 91
        0
 92
        0
 62
   257
 93
        1
300
CONTENTFORMAT
  1
CONTENTFORMAT_BEGIN
 90
        0
 91
        0
 92
      512
 93
        0
300

 40
0.0
140
1.0
 94
        5
 62
     0
340
11
144
4.5
309
CONTENTFORMAT_END
171
     1
301
MARGIN
  1
CELLMARGIN_BEGIN
 40
1.5
 40
1.5
 40
1.5
 40
1.5
 40
4.5
 40
4.5
309
CELLMARGIN_END
 94
        6
 95
        1
302
GRIDFORMAT
  1
GRIDFORMAT_BEGIN
 90
        0
 91
        1
 62
     0
 92
       -2
340
0
 93
        0
 40
1.125
309
GRIDFORMAT_END
 95
        2
302
GRIDFORMAT
  1
GRIDFORMAT_BEGIN
 90
        0
 91
        1
 62
     0
 92
       -2
340
0
 93
        0
 40
1.125
309
GRIDFORMAT_END
 95
        4
302
GRIDFORMAT
  1
GRIDFORMAT_BEGIN
 90
        0
 91
        1
 62
     0
 92
       -2
340
0
 93
        0
 40
1.125
309
GRIDFORMAT_END
 95
        8
302
GRIDFORMAT
  1
GRIDFORMAT_BEGIN
 90
        0
 91
        1
 62
     0
 92
       -2
340
0
 93
        0
 40
1.125
309
GRIDFORMAT_END
 95
       16
302
GRIDFORMAT
  1
GRIDFORMAT_BEGIN
 90
        0
 91
        1
 62
     0
 92
       -2
340
0
 93
        0
 40
1.125
309
GRIDFORMAT_END
 95
       32
302
GRIDFORMAT
  1
GRIDFORMAT_BEGIN
 90
        0
 91
        1
 62
     0
 92
       -2
340
0
 93
        0
 40
1.125
309
GRIDFORMAT_END
309
TABLEFORMAT_END
  1
CELLSTYLE_BEGIN
 90
        2
 91
        1
300
_HEADER
309
CELLSTYLE_END
300
CELLSTYLE
  1
TABLEFORMAT_BEGIN
 90
        5
170
     1
 91
        0
 92
        0
 62
   257
 93
        1
300
CONTENTFORMAT
  1
CONTENTFORMAT_BEGIN
 90
        0
 91
        0
 92
      512
 93
        0
300

 40
0.0
140
1.0
 94
        2
 62
     0
340
11
144
4.5
309
CONTENTFORMAT_END
171
     1
301
MARGIN
  1
CELLMARGIN_BEGIN
 40
1.5
 40
1.5
 40
1.5
 40
1.5
 40
4.5
 40
4.5
309
CELLMARGIN_END
 94
        6
 95
        1
302
GRIDFORMAT
  1
GRIDFORMAT_BEGIN
 90
        0
 91
        1
 62
     0
 92
       -2
340
0
 93
        0
 40
1.125
309
GRIDFORMAT_END
 95
        2
302
GRIDFORMAT
  1
GRIDFORMAT_BEGIN
 90
        0
 91
        1
 62
     0
 92
       -2
340
0
 93
        0
 40
1.125
309
GRIDFORMAT_END
 95
        4
302
GRIDFORMAT
  1
GRIDFORMAT_BEGIN
 90
        0
 91
        1
 62
     0
 92
       -2
340
0
 93
        0
 40
1.125
309
GRIDFORMAT_END
 95
        8
302
GRIDFORMAT
  1
GRIDFORMAT_BEGIN
 90
        0
 91
        1
 62
     0
 92
       -2
340
0
 93
        0
 40
1.125
309
GRIDFORMAT_END
 95
       16
302
GRIDFORMAT
  1
GRIDFORMAT_BEGIN
 90
        0
 91
        1
 62
     0
 92
       -2
340
0
 93
        0
 40
1.125
309
GRIDFORMAT_END
 95
       32
302
GRIDFORMAT
  1
GRIDFORMAT_BEGIN
 90
        0
 91
        1
 62
     0
 92
       -2
340
0
 93
        0
 40
1.125
309
GRIDFORMAT_END
309
TABLEFORMAT_END
  1
CELLSTYLE_BEGIN
 90
        3
 91
        2
300
_DATA
309
CELLSTYLE_END
  0
XRECORD
  5
5F1
102
{ACAD_REACTORS
330
5C0
102
}
330
5C0
100
AcDbXrecord
280
     1
102
ACAD_ROUNDTRIP_PRE2007_TABLESTYLE
 90
      512
 91
        0
  1

 92
      512
 93
        0
  2

 94
      512
 95
        0
  3

  0
XRECORD
  5
5D6
102
{ACAD_REACTORS
330
5D5
102
}
330
5D5
100
AcDbXrecord
280
     1
102
RTVSPropertyOp0
 70
     1
102
RTVSPropertyOp1
 70
     1
102
RTVSPropertyOp2
 70
     1
102
RTVSPropertyOp3
 70
     1
102
RTVSPropertyOp4
 70
     1
102
RTVSPropertyOp5
 70
     1
102
RTVSPropertyOp6
 70
     1
102
RTVSPropertyOp7
 70
     1
102
RTVSPropertyOp8
 70
     1
102
RTVSPropertyOp9
 70
     1
102
RTVSPropertyOp10
 70
     1
102
RTVSPropertyOp11
 70
     1
102
RTVSPropertyOp12
 70
     1
102
RTVSPropertyOp13
 70
     1
102
RTVSPropertyOp14
 70
     1
102
RTVSPropertyOp15
 70
     1
102
RTVSPropertyOp16
 70
     1
102
RTVSPropertyOp17
 70
     1
102
RTVSPropertyOp18
 70
     1
102
RTVSPropertyOp19
 70
     1
102
RTVSPropertyOp20
 70
     1
102
RTVSPropertyOp21
 70
     1
102
RTVSPropertyOp22
 70
     1
102
RTVSPropertyOp23
 70
     1
102
RTVSPropertyOp24
 70
     1
102
RTVSPropertyOp25
 70
     1
102
RTVSPropertyOp26
 70
     1
102
RTVSPropertyOp27
 70
     1
  0
XRECORD
  5
5DA
102
{ACAD_REACTORS
330
5D9
102
}
330
5D9
100
AcDbXrecord
280
     1
102
RTVSPropertyOp0
 70
     1
102
RTVSPropertyOp1
 70
     1
102
RTVSPropertyOp2
 70
     1
102
RTVSPropertyOp3
 70
     1
102
RTVSPropertyOp4
 70
     1
102
RTVSPropertyOp5
 70
     1
102
RTVSPropertyOp6
 70
     1
102
RTVSPropertyOp7
 70
     1
102
RTVSPropertyOp8
 70
     1
102
RTVSPropertyOp9
 70
     1
102
RTVSPropertyOp10
 70
     1
102
RTVSPropertyOp11
 70
     1
102
RTVSPropertyOp12
 70
     1
102
RTVSPropertyOp13
 70
     1
102
RTVSPropertyOp14
 70
     1
102
RTVSPropertyOp15
 70
     1
102
RTVSPropertyOp16
 70
     1
102
RTVSPropertyOp17
 70
     1
102
RTVSPropertyOp18
 70
     1
102
RTVSPropertyOp19
 70
     1
102
RTVSPropertyOp20
 70
     1
102
RTVSPropertyOp21
 70
     1
102
RTVSPropertyOp22
 70
     1
102
RTVSPropertyOp23
 70
     1
102
RTVSPropertyOp24
 70
     1
102
RTVSPropertyOp25
 70
     1
102
RTVSPropertyOp26
 70
     1
102
RTVSPropertyOp27
 70
     1
  0
XRECORD
  5
5D8
102
{ACAD_REACTORS
330
5D7
102
}
330
5D7
100
AcDbXrecord
280
     1
102
RTVSPropertyOp0
 70
     1
102
RTVSPropertyOp1
 70
     1
102
RTVSPropertyOp2
 70
     1
102
RTVSPropertyOp3
 70
     1
102
RTVSPropertyOp4
 70
     1
102
RTVSPropertyOp5
 70
     1
102
RTVSPropertyOp6
 70
     1
102
RTVSPropertyOp7
 70
     1
102
RTVSPropertyOp8
 70
     1
102
RTVSPropertyOp9
 70
     1
102
RTVSPropertyOp10
 70
     1
102
RTVSPropertyOp11
 70
     1
102
RTVSPropertyOp12
 70
     1
102
RTVSPropertyOp13
 70
     1
102
RTVSPropertyOp14
 70
     1
102
RTVSPropertyOp15
 70
     1
102
RTVSPropertyOp16
 70
     1
102
RTVSPropertyOp17
 70
     1
102
RTVSPropertyOp18
 70
     1
102
RTVSPropertyOp19
 70
     1
102
RTVSPropertyOp20
 70
     1
102
RTVSPropertyOp21
 70
     1
102
RTVSPropertyOp22
 70
     1
102
RTVSPropertyOp23
 70
     1
102
RTVSPropertyOp24
 70
     1
102
RTVSPropertyOp25
 70
     1
102
RTVSPropertyOp26
 70
     1
102
RTVSPropertyOp27
 70
     1
  0
XRECORD
  5
5D4
102
{ACAD_REACTORS
330
5D3
102
}
330
5D3
100
AcDbXrecord
280
     1
102
RTVSPropertyOp0
 70
     1
102
RTVSPropertyOp1
 70
     1
102
RTVSPropertyOp2
 70
     1
102
RTVSPropertyOp3
 70
     1
102
RTVSPropertyOp4
 70
     1
102
RTVSPropertyOp5
 70
     1
102
RTVSPropertyOp6
 70
     1
102
RTVSPropertyOp7
 70
     1
102
RTVSPropertyOp8
 70
     1
102
RTVSPropertyOp9
 70
     1
102
RTVSPropertyOp10
 70
     1
102
RTVSPropertyOp11
 70
     1
102
RTVSPropertyOp12
 70
     1
102
RTVSPropertyOp13
 70
     1
102
RTVSPropertyOp14
 70
     1
102
RTVSPropertyOp15
 70
     1
102
RTVSPropertyOp16
 70
     1
102
RTVSPropertyOp17
 70
     1
102
RTVSPropertyOp18
 70
     1
102
RTVSPropertyOp19
 70
     1
102
RTVSPropertyOp20
 70
     1
102
RTVSPropertyOp21
 70
     1
102
RTVSPropertyOp22
 70
     1
102
RTVSPropertyOp23
 70
     1
102
RTVSPropertyOp24
 70
     1
102
RTVSPropertyOp25
 70
     1
102
RTVSPropertyOp26
 70
     1
102
RTVSPropertyOp27
 70
     1
  0
XRECORD
  5
5E2
102
{ACAD_REACTORS
330
5E1
102
}
330
5E1
100
AcDbXrecord
280
     1
102
RTVSPropertyOp0
 70
     1
102
RTVSPropertyOp1
 70
     1
102
RTVSPropertyOp2
 70
     1
102
RTVSPropertyOp3
 70
     1
102
RTVSPropertyOp4
 70
     1
102
RTVSPropertyOp5
 70
     1
102
RTVSPropertyOp6
 70
     1
102
RTVSPropertyOp7
 70
     1
102
RTVSPropertyOp8
 70
     1
102
RTVSPropertyOp9
 70
     1
102
RTVSPropertyOp10
 70
     1
102
RTVSPropertyOp11
 70
     1
102
RTVSPropertyOp12
 70
     1
102
RTVSPropertyOp13
 70
     1
102
RTVSPropertyOp14
 70
     1
102
RTVSPropertyOp15
 70
     1
102
RTVSPropertyOp16
 70
     1
102
RTVSPropertyOp17
 70
     1
102
RTVSPropertyOp18
 70
     1
102
RTVSPropertyOp19
 70
     1
102
RTVSPropertyOp20
 70
     1
102
RTVSPropertyOp21
 70
     1
102
RTVSPropertyOp22
 70
     1
102
RTVSPropertyOp23
 70
     1
102
RTVSPropertyOp24
 70
     1
102
RTVSPropertyOp25
 70
     1
102
RTVSPropertyOp26
 70
     1
102
RTVSPropertyOp27
 70
     1
  0
XRECORD
  5
5EA
102
{ACAD_REACTORS
330
5E9
102
}
330
5E9
100
AcDbXrecord
280
     1
102
RTVSPropertyOp0
 70
     1
102
RTVSPropertyOp1
 70
     1
102
RTVSPropertyOp2
 70
     1
102
RTVSPropertyOp3
 70
     1
102
RTVSPropertyOp4
 70
     1
102
RTVSPropertyOp5
 70
     1
102
RTVSPropertyOp6
 70
     1
102
RTVSPropertyOp7
 70
     1
102
RTVSPropertyOp8
 70
     1
102
RTVSPropertyOp9
 70
     1
102
RTVSPropertyOp10
 70
     1
102
RTVSPropertyOp11
 70
     1
102
RTVSPropertyOp12
 70
     1
102
RTVSPropertyOp13
 70
     1
102
RTVSPropertyOp14
 70
     1
102
RTVSPropertyOp15
 70
     1
102
RTVSPropertyOp16
 70
     1
102
RTVSPropertyOp17
 70
     1
102
RTVSPropertyOp18
 70
     1
102
RTVSPropertyOp19
 70
     1
102
RTVSPropertyOp20
 70
     1
102
RTVSPropertyOp21
 70
     1
102
RTVSPropertyOp22
 70
     1
102
RTVSPropertyOp23
 70
     1
102
RTVSPropertyOp24
 70
     1
102
RTVSPropertyOp25
 70
     1
102
RTVSPropertyOp26
 70
     1
102
RTVSPropertyOp27
 70
     1
  0
XRECORD
  5
5DC
102
{ACAD_REACTORS
330
5DB
102
}
330
5DB
100
AcDbXrecord
280
     1
102
RTVSPropertyOp0
 70
     1
102
RTVSPropertyOp1
 70
     1
102
RTVSPropertyOp2
 70
     1
102
RTVSPropertyOp3
 70
     1
102
RTVSPropertyOp4
 70
     1
102
RTVSPropertyOp5
 70
     1
102
RTVSPropertyOp6
 70
     1
102
RTVSPropertyOp7
 70
     1
102
RTVSPropertyOp8
 70
     1
102
RTVSPropertyOp9
 70
     1
102
RTVSPropertyOp10
 70
     1
102
RTVSPropertyOp11
 70
     1
102
RTVSPropertyOp12
 70
     1
102
RTVSPropertyOp13
 70
     1
102
RTVSPropertyOp14
 70
     1
102
RTVSPropertyOp15
 70
     1
102
RTVSPropertyOp16
 70
     1
102
RTVSPropertyOp17
 70
     1
102
RTVSPropertyOp18
 70
     1
102
RTVSPropertyOp19
 70
     1
102
RTVSPropertyOp20
 70
     1
102
RTVSPropertyOp21
 70
     1
102
RTVSPropertyOp22
 70
     1
102
RTVSPropertyOp23
 70
     1
102
RTVSPropertyOp24
 70
     1
102
RTVSPropertyOp25
 70
     1
102
RTVSPropertyOp26
 70
     1
102
RTVSPropertyOp27
 70
     1
  0
XRECORD
  5
5E0
102
{ACAD_REACTORS
330
5DF
102
}
330
5DF
100
AcDbXrecord
280
     1
102
RTVSPropertyOp0
 70
     1
102
RTVSPropertyOp1
 70
     1
102
RTVSPropertyOp2
 70
     1
102
RTVSPropertyOp3
 70
     1
102
RTVSPropertyOp4
 70
     1
102
RTVSPropertyOp5
 70
     1
102
RTVSPropertyOp6
 70
     1
102
RTVSPropertyOp7
 70
     1
102
RTVSPropertyOp8
 70
     1
102
RTVSPropertyOp9
 70
     1
102
RTVSPropertyOp10
 70
     1
102
RTVSPropertyOp11
 70
     1
102
RTVSPropertyOp12
 70
     1
102
RTVSPropertyOp13
 70
     1
102
RTVSPropertyOp14
 70
     1
102
RTVSPropertyOp15
 70
     1
102
RTVSPropertyOp16
 70
     1
102
RTVSPropertyOp17
 70
     1
102
RTVSPropertyOp18
 70
     1
102
RTVSPropertyOp19
 70
     1
102
RTVSPropertyOp20
 70
     1
102
RTVSPropertyOp21
 70
     1
102
RTVSPropertyOp22
 70
     1
102
RTVSPropertyOp23
 70
     1
102
RTVSPropertyOp24
 70
     1
102
RTVSPropertyOp25
 70
     1
102
RTVSPropertyOp26
 70
     1
102
RTVSPropertyOp27
 70
     1
  0
XRECORD
  5
5F0
102
{ACAD_REACTORS
330
5EF
102
}
330
5EF
100
AcDbXrecord
280
     1
102
RTVSPropertyOp0
 70
     0
102
RTVSPropertyOp1
 70
     0
102
RTVSPropertyOp2
 70
     0
102
RTVSPropertyOp3
 70
     0
102
RTVSPropertyOp4
 70
     0
102
RTVSPropertyOp5
 70
     0
102
RTVSPropertyOp6
 70
     0
102
RTVSPropertyOp7
 70
     0
102
RTVSPropertyOp8
 70
     0
102
RTVSPropertyOp9
 70
     0
102
RTVSPropertyOp10
 70
     0
102
RTVSPropertyOp11
 70
     0
102
RTVSPropertyOp12
 70
     0
102
RTVSPropertyOp13
 70
     0
102
RTVSPropertyOp14
 70
     2
102
RTVSPropertyOp15
 70
     0
102
RTVSPropertyOp16
 70
     0
102
RTVSPropertyOp17
 70
     0
102
RTVSPropertyOp18
 70
     0
102
RTVSPropertyOp19
 70
     0
102
RTVSPropertyOp20
 70
     0
102
RTVSPropertyOp21
 70
     0
102
RTVSPropertyOp22
 70
     0
102
RTVSPropertyOp23
 70
     0
102
RTVSPropertyOp24
 70
     0
102
RTVSPropertyOp25
 70
     0
102
RTVSPropertyOp26
 70
     0
102
RTVSPropertyOp27
 70
     0
  0
XRECORD
  5
5E8
102
{ACAD_REACTORS
330
5E7
102
}
330
5E7
100
AcDbXrecord
280
     1
102
RTVSPropertyOp0
 70
     1
102
RTVSPropertyOp1
 70
     1
102
RTVSPropertyOp2
 70
     1
102
RTVSPropertyOp3
 70
     1
102
RTVSPropertyOp4
 70
     1
102
RTVSPropertyOp5
 70
     1
102
RTVSPropertyOp6
 70
     1
102
RTVSPropertyOp7
 70
     1
102
RTVSPropertyOp8
 70
     1
102
RTVSPropertyOp9
 70
     1
102
RTVSPropertyOp10
 70
     1
102
RTVSPropertyOp11
 70
     1
102
RTVSPropertyOp12
 70
     1
102
RTVSPropertyOp13
 70
     1
102
RTVSPropertyOp14
 70
     1
102
RTVSPropertyOp15
 70
     1
102
RTVSPropertyOp16
 70
     1
102
RTVSPropertyOp17
 70
     1
102
RTVSPropertyOp18
 70
     1
102
RTVSPropertyOp19
 70
     1
102
RTVSPropertyOp20
 70
     1
102
RTVSPropertyOp21
 70
     1
102
RTVSPropertyOp22
 70
     1
102
RTVSPropertyOp23
 70
     1
102
RTVSPropertyOp24
 70
     1
102
RTVSPropertyOp25
 70
     1
102
RTVSPropertyOp26
 70
     1
102
RTVSPropertyOp27
 70
     1
  0
XRECORD
  5
5CC
102
{ACAD_REACTORS
330
5CB
102
}
330
5CB
100
AcDbXrecord
280
     1
102
RTVSPropertyOp0
 70
     1
102
RTVSPropertyOp1
 70
     1
102
RTVSPropertyOp2
 70
     1
102
RTVSPropertyOp3
 70
     1
102
RTVSPropertyOp4
 70
     1
102
RTVSPropertyOp5
 70
     1
102
RTVSPropertyOp6
 70
     1
102
RTVSPropertyOp7
 70
     1
102
RTVSPropertyOp8
 70
     1
102
RTVSPropertyOp9
 70
     1
102
RTVSPropertyOp10
 70
     1
102
RTVSPropertyOp11
 70
     1
102
RTVSPropertyOp12
 70
     1
102
RTVSPropertyOp13
 70
     1
102
RTVSPropertyOp14
 70
     1
102
RTVSPropertyOp15
 70
     1
102
RTVSPropertyOp16
 70
     1
102
RTVSPropertyOp17
 70
     1
102
RTVSPropertyOp18
 70
     1
102
RTVSPropertyOp19
 70
     1
102
RTVSPropertyOp20
 70
     1
102
RTVSPropertyOp21
 70
     1
102
RTVSPropertyOp22
 70
     1
102
RTVSPropertyOp23
 70
     1
102
RTVSPropertyOp24
 70
     1
102
RTVSPropertyOp25
 70
     1
102
RTVSPropertyOp26
 70
     1
102
RTVSPropertyOp27
 70
     1
  0
XRECORD
  5
5CE
102
{ACAD_REACTORS
330
5CD
102
}
330
5CD
100
AcDbXrecord
280
     1
102
RTVSPropertyOp0
 70
     1
102
RTVSPropertyOp1
 70
     1
102
RTVSPropertyOp2
 70
     1
102
RTVSPropertyOp3
 70
     1
102
RTVSPropertyOp4
 70
     1
102
RTVSPropertyOp5
 70
     1
102
RTVSPropertyOp6
 70
     1
102
RTVSPropertyOp7
 70
     1
102
RTVSPropertyOp8
 70
     1
102
RTVSPropertyOp9
 70
     1
102
RTVSPropertyOp10
 70
     1
102
RTVSPropertyOp11
 70
     1
102
RTVSPropertyOp12
 70
     1
102
RTVSPropertyOp13
 70
     1
102
RTVSPropertyOp14
 70
     1
102
RTVSPropertyOp15
 70
     1
102
RTVSPropertyOp16
 70
     1
102
RTVSPropertyOp17
 70
     1
102
RTVSPropertyOp18
 70
     1
102
RTVSPropertyOp19
 70
     1
102
RTVSPropertyOp20
 70
     1
102
RTVSPropertyOp21
 70
     1
102
RTVSPropertyOp22
 70
     1
102
RTVSPropertyOp23
 70
     1
102
RTVSPropertyOp24
 70
     1
102
RTVSPropertyOp25
 70
     1
102
RTVSPropertyOp26
 70
     1
102
RTVSPropertyOp27
 70
     1
  0
XRECORD
  5
5D0
102
{ACAD_REACTORS
330
5CF
102
}
330
5CF
100
AcDbXrecord
280
     1
102
RTVSPropertyOp0
 70
     1
102
RTVSPropertyOp1
 70
     1
102
RTVSPropertyOp2
 70
     1
102
RTVSPropertyOp3
 70
     1
102
RTVSPropertyOp4
 70
     1
102
RTVSPropertyOp5
 70
     1
102
RTVSPropertyOp6
 70
     1
102
RTVSPropertyOp7
 70
     1
102
RTVSPropertyOp8
 70
     1
102
RTVSPropertyOp9
 70
     1
102
RTVSPropertyOp10
 70
     1
102
RTVSPropertyOp11
 70
     1
102
RTVSPropertyOp12
 70
     1
102
RTVSPropertyOp13
 70
     1
102
RTVSPropertyOp14
 70
     1
102
RTVSPropertyOp15
 70
     1
102
RTVSPropertyOp16
 70
     1
102
RTVSPropertyOp17
 70
     1
102
RTVSPropertyOp18
 70
     1
102
RTVSPropertyOp19
 70
     1
102
RTVSPropertyOp20
 70
     1
102
RTVSPropertyOp21
 70
     1
102
RTVSPropertyOp22
 70
     1
102
RTVSPropertyOp23
 70
     1
102
RTVSPropertyOp24
 70
     1
102
RTVSPropertyOp25
 70
     1
102
RTVSPropertyOp26
 70
     1
102
RTVSPropertyOp27
 70
     1
  0
XRECORD
  5
5D2
102
{ACAD_REACTORS
330
5D1
102
}
330
5D1
100
AcDbXrecord
280
     1
102
RTVSPropertyOp0
 70
     1
102
RTVSPropertyOp1
 70
     1
102
RTVSPropertyOp2
 70
     1
102
RTVSPropertyOp3
 70
     1
102
RTVSPropertyOp4
 70
     1
102
RTVSPropertyOp5
 70
     1
102
RTVSPropertyOp6
 70
     1
102
RTVSPropertyOp7
 70
     1
102
RTVSPropertyOp8
 70
     1
102
RTVSPropertyOp9
 70
     1
102
RTVSPropertyOp10
 70
     1
102
RTVSPropertyOp11
 70
     1
102
RTVSPropertyOp12
 70
     1
102
RTVSPropertyOp13
 70
     1
102
RTVSPropertyOp14
 70
     1
102
RTVSPropertyOp15
 70
     1
102
RTVSPropertyOp16
 70
     1
102
RTVSPropertyOp17
 70
     1
102
RTVSPropertyOp18
 70
     1
102
RTVSPropertyOp19
 70
     1
102
RTVSPropertyOp20
 70
     1
102
RTVSPropertyOp21
 70
     1
102
RTVSPropertyOp22
 70
     1
102
RTVSPropertyOp23
 70
     1
102
RTVSPropertyOp24
 70
     1
102
RTVSPropertyOp25
 70
     1
102
RTVSPropertyOp26
 70
     1
102
RTVSPropertyOp27
 70
     1
  0
XRECORD
  5
5EC
102
{ACAD_REACTORS
330
5EB
102
}
330
5EB
100
AcDbXrecord
280
     1
102
RTVSPropertyOp0
 70
     0
102
RTVSPropertyOp1
 70
     0
102
RTVSPropertyOp2
 70
     0
102
RTVSPropertyOp3
 70
     0
102
RTVSPropertyOp4
 70
     0
102
RTVSPropertyOp5
 70
     0
102
RTVSPropertyOp6
 70
     0
102
RTVSPropertyOp7
 70
     0
102
RTVSPropertyOp8
 70
     0
102
RTVSPropertyOp9
 70
     0
102
RTVSPropertyOp10
 70
     0
102
RTVSPropertyOp11
 70
     0
102
RTVSPropertyOp12
 70
     0
102
RTVSPropertyOp13
 70
     0
102
RTVSPropertyOp14
 70
     2
102
RTVSPropertyOp15
 70
     0
102
RTVSPropertyOp16
 70
     0
102
RTVSPropertyOp17
 70
     0
102
RTVSPropertyOp18
 70
     0
102
RTVSPropertyOp19
 70
     0
102
RTVSPropertyOp20
 70
     0
102
RTVSPropertyOp21
 70
     0
102
RTVSPropertyOp22
 70
     0
102
RTVSPropertyOp23
 70
     0
102
RTVSPropertyOp24
 70
     0
102
RTVSPropertyOp25
 70
     0
102
RTVSPropertyOp26
 70
     0
102
RTVSPropertyOp27
 70
     0
  0
XRECORD
  5
5E6
102
{ACAD_REACTORS
330
5E5
102
}
330
5E5
100
AcDbXrecord
280
     1
102
RTVSPropertyOp0
 70
     1
102
RTVSPropertyOp1
 70
     1
102
RTVSPropertyOp2
 70
     1
102
RTVSPropertyOp3
 70
     1
102
RTVSPropertyOp4
 70
     1
102
RTVSPropertyOp5
 70
     1
102
RTVSPropertyOp6
 70
     1
102
RTVSPropertyOp7
 70
     1
102
RTVSPropertyOp8
 70
     1
102
RTVSPropertyOp9
 70
     1
102
RTVSPropertyOp10
 70
     1
102
RTVSPropertyOp11
 70
     1
102
RTVSPropertyOp12
 70
     1
102
RTVSPropertyOp13
 70
     1
102
RTVSPropertyOp14
 70
     1
102
RTVSPropertyOp15
 70
     1
102
RTVSPropertyOp16
 70
     1
102
RTVSPropertyOp17
 70
     1
102
RTVSPropertyOp18
 70
     1
102
RTVSPropertyOp19
 70
     1
102
RTVSPropertyOp20
 70
     1
102
RTVSPropertyOp21
 70
     1
102
RTVSPropertyOp22
 70
     1
102
RTVSPropertyOp23
 70
     1
102
RTVSPropertyOp24
 70
     1
102
RTVSPropertyOp25
 70
     1
102
RTVSPropertyOp26
 70
     1
102
RTVSPropertyOp27
 70
     1
  0
XRECORD
  5
5EE
102
{ACAD_REACTORS
330
5ED
102
}
330
5ED
100
AcDbXrecord
280
     1
102
RTVSPropertyOp0
 70
     0
102
RTVSPropertyOp1
 70
     0
102
RTVSPropertyOp2
 70
     0
102
RTVSPropertyOp3
 70
     0
102
RTVSPropertyOp4
 70
     0
102
RTVSPropertyOp5
 70
     0
102
RTVSPropertyOp6
 70
     0
102
RTVSPropertyOp7
 70
     0
102
RTVSPropertyOp8
 70
     0
102
RTVSPropertyOp9
 70
     0
102
RTVSPropertyOp10
 70
     0
102
RTVSPropertyOp11
 70
     0
102
RTVSPropertyOp12
 70
     0
102
RTVSPropertyOp13
 70
     0
102
RTVSPropertyOp14
 70
     2
102
RTVSPropertyOp15
 70
     0
102
RTVSPropertyOp16
 70
     0
102
RTVSPropertyOp17
 70
     0
102
RTVSPropertyOp18
 70
     0
102
RTVSPropertyOp19
 70
     0
102
RTVSPropertyOp20
 70
     0
102
RTVSPropertyOp21
 70
     0
102
RTVSPropertyOp22
 70
     0
102
RTVSPropertyOp23
 70
     0
102
RTVSPropertyOp24
 70
     0
102
RTVSPropertyOp25
 70
     0
102
RTVSPropertyOp26
 70
     0
102
RTVSPropertyOp27
 70
     0
  0
XRECORD
  5
5DE
102
{ACAD_REACTORS
330
5DD
102
}
330
5DD
100
AcDbXrecord
280
     1
102
RTVSPropertyOp0
 70
     1
102
RTVSPropertyOp1
 70
     1
102
RTVSPropertyOp2
 70
     1
102
RTVSPropertyOp3
 70
     1
102
RTVSPropertyOp4
 70
     1
102
RTVSPropertyOp5
 70
     1
102
RTVSPropertyOp6
 70
     1
102
RTVSPropertyOp7
 70
     1
102
RTVSPropertyOp8
 70
     1
102
RTVSPropertyOp9
 70
     1
102
RTVSPropertyOp10
 70
     1
102
RTVSPropertyOp11
 70
     1
102
RTVSPropertyOp12
 70
     1
102
RTVSPropertyOp13
 70
     1
102
RTVSPropertyOp14
 70
     1
102
RTVSPropertyOp15
 70
     1
102
RTVSPropertyOp16
 70
     1
102
RTVSPropertyOp17
 70
     1
102
RTVSPropertyOp18
 70
     1
102
RTVSPropertyOp19
 70
     1
102
RTVSPropertyOp20
 70
     1
102
RTVSPropertyOp21
 70
     1
102
RTVSPropertyOp22
 70
     1
102
RTVSPropertyOp23
 70
     1
102
RTVSPropertyOp24
 70
     1
102
RTVSPropertyOp25
 70
     1
102
RTVSPropertyOp26
 70
     1
102
RTVSPropertyOp27
 70
     1
  0
XRECORD
  5
5E4
102
{ACAD_REACTORS
330
5E3
102
}
330
5E3
100
AcDbXrecord
280
     1
102
RTVSPropertyOp0
 70
     1
102
RTVSPropertyOp1
 70
     1
102
RTVSPropertyOp2
 70
     1
102
RTVSPropertyOp3
 70
     1
102
RTVSPropertyOp4
 70
     1
102
RTVSPropertyOp5
 70
     1
102
RTVSPropertyOp6
 70
     1
102
RTVSPropertyOp7
 70
     1
102
RTVSPropertyOp8
 70
     1
102
RTVSPropertyOp9
 70
     1
102
RTVSPropertyOp10
 70
     1
102
RTVSPropertyOp11
 70
     1
102
RTVSPropertyOp12
 70
     1
102
RTVSPropertyOp13
 70
     1
102
RTVSPropertyOp14
 70
     1
102
RTVSPropertyOp15
 70
     1
102
RTVSPropertyOp16
 70
     1
102
RTVSPropertyOp17
 70
     1
102
RTVSPropertyOp18
 70
     1
102
RTVSPropertyOp19
 70
     1
102
RTVSPropertyOp20
 70
     1
102
RTVSPropertyOp21
 70
     1
102
RTVSPropertyOp22
 70
     1
102
RTVSPropertyOp23
 70
     1
102
RTVSPropertyOp24
 70
     1
102
RTVSPropertyOp25
 70
     1
102
RTVSPropertyOp26
 70
     1
102
RTVSPropertyOp27
 70
     1
  0
ENDSEC
  0
EOF
