  0
SECTION
  2
HEADER
  9
$ACADVER
  1
AC1015
  9
$ACADMAINTVER
 70
    20
  9
$DWGCODEPAGE
  3
ANSI_1252
  9
$INSBASE
 10
0.0
 20
0.0
 30
0.0
  9
$EXTMIN
 10
399.284549131622
 20
282.2282890298268
 30
-0.0015258207003583
  9
$EXTMAX
 10
607.0184652256061
 20
534.8388382716088
 30
0.0000000349246037
  9
$LIMMIN
 10
0.0
 20
0.0
  9
$LIMMAX
 10
1189.0
 20
841.0
  9
$ORTHOMODE
 70
     0
  9
$REGENMODE
 70
     1
  9
$FILLMODE
 70
     1
  9
$QTEXTMODE
 70
     0
  9
$MIRRTEXT
 70
     0
  9
$LTSCALE
 40
65.395
  9
$ATTMODE
 70
     1
  9
$TEXTSIZE
 40
0.2
  9
$TRACEWID
 40
0.05
  9
$TEXTSTYLE
  7
STANDARD
  9
$CLAYER
  8
0
  9
$CELTYPE
  6
BYLAYER
  9
$CECOLOR
 62
   256
  9
$CELTSCALE
 40
1.0
  9
$DISPSILH
 70
     0
  9
$DIMSCALE
 40
1.0
  9
$DIMASZ
 40
3.5
  9
$DIMEXO
 40
7.43125
  9
$DIMDLI
 40
45.18199999999999
  9
$DIMRND
 40
0.0
  9
$DIMDLE
 40
0.0
  9
$DIMEXE
 40
21.402
  9
$DIMTP
 40
0.005
  9
$DIMTM
 40
0.005
  9
$DIMTXT
 40
3.5
  9
$DIMCEN
 40
10.701
  9
$DIMTSZ
 40
0.0
  9
$DIMTOL
 70
     1
  9
$DIMLIM
 70
     0
  9
$DIMTIH
 70
     1
  9
$DIMTOH
 70
     1
  9
$DIMSE1
 70
     0
  9
$DIMSE2
 70
     0
  9
$DIMTAD
 70
     0
  9
$DIMZIN
 70
     0
  9
$DIMBLK
  1
_FILLED
  9
$DIMASO
 70
     1
  9
$DIMSHO
 70
     1
  9
$DIMPOST
  1

  9
$DIMAPOST
  1

  9
$DIMALT
 70
     0
  9
$DIMALTD
 70
     2
  9
$DIMALTF
 40
25.4
  9
$DIMLFAC
 40
1.0
  9
$DIMTOFL
 70
     0
  9
$DIMTVP
 40
0.0
  9
$DIMTIX
 70
     0
  9
$DIMSOXD
 70
     0
  9
$DIMSAH
 70
     0
  9
$DIMBLK1
  1

  9
$DIMBLK2
  1

  9
$DIMSTYLE
  2
STANDARD
  9
$DIMCLRD
 70
     0
  9
$DIMCLRE
 70
     0
  9
$DIMCLRT
 70
     0
  9
$DIMTFAC
 40
1.0
  9
$DIMGAP
 40
0.09
  9
$DIMJUST
 70
     0
  9
$DIMSD1
 70
     0
  9
$DIMSD2
 70
     0
  9
$DIMTOLJ
 70
     1
  9
$DIMTZIN
 70
     0
  9
$DIMALTZ
 70
     0
  9
$DIMALTTZ
 70
     0
  9
$DIMUPT
 70
     0
  9
$DIMDEC
 70
     4
  9
$DIMTDEC
 70
     4
  9
$DIMALTU
 70
     2
  9
$DIMALTTD
 70
     2
  9
$DIMTXSTY
  7
STANDARD
  9
$DIMAUNIT
 70
     0
  9
$DIMADEC
 70
     0
  9
$DIMALTRND
 40
0.0
  9
$DIMAZIN
 70
     0
  9
$DIMDSEP
 70
    46
  9
$DIMATFIT
 70
     3
  9
$DIMFRAC
 70
     0
  9
$DIMLDRBLK
  1

  9
$DIMLUNIT
 70
     2
  9
$DIMLWD
 70
    -2
  9
$DIMLWE
 70
    -2
  9
$DIMTMOVE
 70
     0
  9
$LUNITS
 70
     2
  9
$LUPREC
 70
     2
  9
$SKETCHINC
 40
0.1
  9
$FILLETRAD
 40
0.0
  9
$AUNITS
 70
     0
  9
$AUPREC
 70
     0
  9
$MENU
  1
.
  9
$ELEVATION
 40
0.0
  9
$PELEVATION
 40
0.0
  9
$THICKNESS
 40
0.0
  9
$LIMCHECK
 70
     0
  9
$CHAMFERA
 40
0.0
  9
$CHAMFERB
 40
0.0
  9
$CHAMFERC
 40
0.0
  9
$CHAMFERD
 40
0.0
  9
$SKPOLY
 70
     0
  9
$TDCREATE
 40
2456324.645117511
  9
$TDUCREATE
 40
2456324.603450845
  9
$TDUPDATE
 40
2456324.647172245
  9
$TDUUPDATE
 40
2456324.605505579
  9
$TDINDWG
 40
0.0020552778
  9
$TDUSRTIMER
 40
0.0020552778
  9
$USRTIMER
 70
     1
  9
$ANGBASE
 50
0.0
  9
$ANGDIR
 70
     0
  9
$PDMODE
 70
     3
  9
$PDSIZE
 40
0.3125
  9
$PLINEWID
 40
0.0
  9
$SPLFRAME
 70
     0
  9
$SPLINETYPE
 70
     6
  9
$SPLINESEGS
 70
     8
  9
$HANDSEED
  5
5CB
  9
$SURFTAB1
 70
     6
  9
$SURFTAB2
 70
     6
  9
$SURFTYPE
 70
     6
  9
$SURFU
 70
     6
  9
$SURFV
 70
     6
  9
$UCSBASE
  2

  9
$UCSNAME
  2

  9
$UCSORG
 10
0.0
 20
0.0
 30
0.0
  9
$UCSXDIR
 10
1.0
 20
0.0
 30
0.0
  9
$UCSYDIR
 10
0.0
 20
1.0
 30
0.0
  9
$UCSORTHOREF
  2

  9
$UCSORTHOVIEW
 70
     0
  9
$UCSORGTOP
 10
0.0
 20
0.0
 30
0.0
  9
$UCSORGBOTTOM
 10
0.0
 20
0.0
 30
0.0
  9
$UCSORGLEFT
 10
0.0
 20
0.0
 30
0.0
  9
$UCSORGRIGHT
 10
0.0
 20
0.0
 30
0.0
  9
$UCSORGFRONT
 10
0.0
 20
0.0
 30
0.0
  9
$UCSORGBACK
 10
0.0
 20
0.0
 30
0.0
  9
$PUCSBASE
  2

  9
$PUCSNAME
  2

  9
$PUCSORG
 10
0.0
 20
0.0
 30
0.0
  9
$PUCSXDIR
 10
1.0
 20
0.0
 30
0.0
  9
$PUCSYDIR
 10
0.0
 20
1.0
 30
0.0
  9
$PUCSORTHOREF
  2

  9
$PUCSORTHOVIEW
 70
     0
  9
$PUCSORGTOP
 10
0.0
 20
0.0
 30
0.0
  9
$PUCSORGBOTTOM
 10
0.0
 20
0.0
 30
0.0
  9
$PUCSORGLEFT
 10
0.0
 20
0.0
 30
0.0
  9
$PUCSORGRIGHT
 10
0.0
 20
0.0
 30
0.0
  9
$PUCSORGFRONT
 10
0.0
 20
0.0
 30
0.0
  9
$PUCSORGBACK
 10
0.0
 20
0.0
 30
0.0
  9
$USERI1
 70
     0
  9
$USERI2
 70
     0
  9
$USERI3
 70
     0
  9
$USERI4
 70
     0
  9
$USERI5
 70
     0
  9
$USERR1
 40
0.0
  9
$USERR2
 40
0.0
  9
$USERR3
 40
0.0
  9
$USERR4
 40
0.0
  9
$USERR5
 40
0.0
  9
$WORLDVIEW
 70
     1
  9
$SHADEDGE
 70
     3
  9
$SHADEDIF
 70
    70
  9
$TILEMODE
 70
     1
  9
$MAXACTVP
 70
    64
  9
$PINSBASE
 10
0.0
 20
0.0
 30
0.0
  9
$PLIMCHECK
 70
     0
  9
$PEXTMIN
 10
1.000000000000000E+20
 20
1.000000000000000E+20
 30
1.000000000000000E+20
  9
$PEXTMAX
 10
-1.000000000000000E+20
 20
-1.000000000000000E+20
 30
-1.000000000000000E+20
  9
$PLIMMIN
 10
0.0
 20
0.0
  9
$PLIMMAX
 10
12.0
 20
9.0
  9
$UNITMODE
 70
     0
  9
$VISRETAIN
 70
     1
  9
$PLINEGEN
 70
     0
  9
$PSLTSCALE
 70
     1
  9
$TREEDEPTH
 70
  3020
  9
$CMLSTYLE
  2
Standard
  9
$CMLJUST
 70
     0
  9
$CMLSCALE
 40
1.0
  9
$PROXYGRAPHICS
 70
     1
  9
$MEASUREMENT
 70
     1
  9
$CELWEIGHT
370
    -1
  9
$ENDCAPS
280
     0
  9
$JOINSTYLE
280
     0
  9
$LWDISPLAY
290
     0
  9
$INSUNITS
 70
     4
  9
$HYPERLINKBASE
  1

  9
$STYLESHEET
  1

  9
$XEDIT
290
     1
  9
$CEPSNTYPE
380
     0
  9
$PSTYLEMODE
290
     1
  9
$FINGERPRINTGUID
  2
{CF6C68C2-C8B0-48AF-BC8B-F49C3A707BB1}
  9
$VERSIONGUID
  2
{CF4AA0AA-E303-48A5-BB23-BC9A53F5D75B}
  9
$EXTNAMES
290
     1
  9
$PSVPSCALE
 40
0.0
  9
$OLESTARTUP
290
     0
  0
ENDSEC
  0
SECTION
  2
CLASSES
  0
CLASS
  1
ACDBDICTIONARYWDFLT
  2
AcDbDictionaryWithDefault
  3
ObjectDBX Classes
 90
        0
280
     0
281
     0
  0
CLASS
  1
ACDBPLACEHOLDER
  2
AcDbPlaceHolder
  3
ObjectDBX Classes
 90
        0
280
     0
281
     0
  0
CLASS
  1
LAYOUT
  2
AcDbLayout
  3
ObjectDBX Classes
 90
        0
280
     0
281
     0
  0
CLASS
  1
MATERIAL
  2
AcDbMaterial
  3
ObjectDBX Classes
 90
     1153
280
     0
281
     0
  0
CLASS
  1
VISUALSTYLE
  2
AcDbVisualStyle
  3
ObjectDBX Classes
 90
     4095
280
     0
281
     0
  0
CLASS
  1
TABLESTYLE
  2
AcDbTableStyle
  3
ObjectDBX Classes
 90
     4095
280
     0
281
     0
  0
CLASS
  1
SCALE
  2
AcDbScale
  3
ObjectDBX Classes
 90
     1153
280
     0
281
     0
  0
CLASS
  1
MLEADERSTYLE
  2
AcDbMLeaderStyle
  3
ACDB_MLEADERSTYLE_CLASS
 90
     4095
280
     0
281
     0
  0
CLASS
  1
AMGSETTINGSOBJ
  2
AmgSettingsObj
  3
"AcadM|Product Description: AutoCAD Mechanical|Company: Autodesk, Inc."
 90
     1024
280
     0
281
     0
  0
CLASS
  1
ACME_DOCUMENT
  2
AcMeDbDoc
  3
AcMeServices
 90
     1024
280
     0
281
     0
  0
CLASS
  1
ACMESCOPE
  2
AcMeScope
  3
AcMeServices
 90
     1024
280
     0
281
     0
  0
CLASS
  1
ACMECOMMANDHISTORY
  2
AcMeCommandHistory
  3
AcMeServices
 90
     1024
280
     0
281
     0
  0
CLASS
  1
ACIMSYSVARMAN
  2
AcImSysVarManager
  3
AcMeServices
 90
     1024
280
     0
281
     0
  0
CLASS
  1
ACIMINTSYSVAR
  2
AcImIntSysVar
  3
AcMeServices
 90
     1024
280
     0
281
     0
  0
CLASS
  1
ACMEDRAWINGMAN
  2
AcMeDrawingMan
  3
AcMeServices
 90
     1024
280
     0
281
     0
  0
CLASS
  1
ACMEVIEW
  2
AcMeView
  3
AcMeServices
 90
     1024
280
     0
281
     0
  0
CLASS
  1
ACDBENTITYCACHE
  2
AcMeEntityCache
  3
AcMeServices
 90
     1024
280
     0
281
     0
  0
CLASS
  1
ACMESTATEMGR
  2
AcMeStateMgr
  3
AcMeServices
 90
     1024
280
     0
281
     0
  0
CLASS
  1
ACGREFMASTER
  2
AcGrefMaster
  3
AcAttribServices
 90
     1024
280
     0
281
     0
  0
CLASS
  1
AM_DRAWING_MGR
  2
AcDmDwgMgr
  3
AcMechDwgViewMgmt
 90
     1024
280
     0
281
     0
  0
CLASS
  1
AM_DWG_DOCUMENT
  2
AcDmDwgDocument
  3
AcMechDwgViewMgmt
 90
     1024
280
     0
281
     0
  0
CLASS
  1
AM_DWG_SHEET
  2
AcDmSheet
  3
AcMechDwgViewMgmt
 90
     1024
280
     0
281
     0
  0
CLASS
  1
AM_VIEWDIMPARMAP
  2
AcDmViewDimParMap
  3
AcMechDwgViewMgmt
 90
     1024
280
     0
281
     0
  0
CLASS
  1
AMDTINTERNALREACTOR
  2
AmdtInternalReactor
  3
AcMeServices
 90
     1024
280
     0
281
     0
  0
CLASS
  1
ACIMREALSYSVAR
  2
AcImRealSysVar
  3
AcMeServices
 90
     1024
280
     0
281
     0
  0
CLASS
  1
AM_DWGMGR_NAME
  2
AcDmDwgMgrName
  3
AcMechDwgViewMgmt
 90
     1024
280
     0
281
     0
  0
CLASS
  1
ACME_DATABASE
  2
AcMeDbDatabase
  3
AcMeServices
 90
     1024
280
     0
281
     0
  0
CLASS
  1
ACRFINSADJUSTERMGR
  2
AcRfInsAdjusterMgr
  3
AcMeServices
 90
     1024
280
     0
281
     0
  0
CLASS
  1
ACGREFACADMASTER
  2
AcGrefacadMaster
  3
AcGrefServices
 90
     1024
280
     0
281
     0
  0
CLASS
  1
AMDTMENUSTATEMGR
  2
AmdtMenuStateMgr
  3
McadcomServices
 90
     1024
280
     0
281
     0
  0
CLASS
  1
AMDTMCOMMENUSTATE
  2
AmdtMcomMenuState
  3
McadcomServices
 90
     1024
280
     0
281
     0
  0
CLASS
  1
AMIMASTER
  2
AmiMaster
  3
AmiServices
 90
     1024
280
     0
281
     0
  0
CLASS
  1
MAPIAMMOUDLE
  2
MApiAmModule
  3
MApiAmServices
 90
     1024
280
     0
281
     0
  0
CLASS
  1
ACIMSTRSYSVAR
  2
AcImStrSysVar
  3
AcMeServices
 90
     1024
280
     0
281
     0
  0
CLASS
  1
AMDTADMENUSTATE
  2
AmdtAdMenuState
  3
DesignerServices
 90
     1024
280
     0
281
     0
  0
CLASS
  1
ADAPPL
  2
AcAdAppl
  3
DesignerServices
 90
     1024
280
     0
281
     0
  0
CLASS
  1
DEPMGR
  2
AcAdDepMgr
  3
DesignerServices
 90
     1024
280
     0
281
     0
  0
CLASS
  1
PARAMMGR
  2
AcAdParamMgr
  3
DesignerServices
 90
     1024
280
     0
281
     0
  0
CLASS
  1
PARAMSCOPE
  2
AcAdParamScope
  3
DesignerServices
 90
     1024
280
     0
281
     0
  0
CLASS
  1
NAMEDAPPL
  2
AcAdNamedAppl
  3
DesignerServices
 90
     1024
280
     0
281
     0
  0
CLASS
  1
AMDTDMMENUSTATE
  2
AmdtDmMenuState
  3
AcMechDwgViewMgmt
 90
     1024
280
     0
281
     0
  0
CLASS
  1
AMDTAMMENUSTATE
  2
AmdtAmMenuState
  3
DesignerAssemblies
 90
     1024
280
     0
281
     0
  0
CLASS
  1
ACAMPROJECT
  2
AcAmProject
  3
DesignerAssemblies
 90
     1024
280
     0
281
     0
  0
CLASS
  1
ACAMGRCOMPDEF
  2
AcAmGrCompDef
  3
DesignerAssemblies
 90
     1024
280
     0
281
     0
  0
CLASS
  1
ACAMCOMPDEF
  2
AcAmCompDef
  3
DesignerAssemblies
 90
     1024
280
     0
281
     0
  0
CLASS
  1
ACAMCOMPDEFMGR
  2
AcAmCompDefMgr
  3
DesignerAssemblies
 90
     1024
280
     0
281
     0
  0
CLASS
  1
AMCONTEXTMGR
  2
AcAmContextMgr
  3
DesignerAssemblies
 90
     1024
280
     0
281
     0
  0
CLASS
  1
ACAMCONTEXTMODELER
  2
AcAmContextModeler
  3
DesignerAssemblies
 90
     1024
280
     0
281
     0
  0
CLASS
  1
ACMDATADICTIONARY
  2
AcmDataDictionary
  3
"AcmSymBB|Product Description: AutoCAD Mechanical|Company: Autodesk, Inc."
 90
     1024
280
     0
281
     0
  0
CLASS
  1
CATALOGSTATE
  2
AcAmCatalogState
  3
DesignerAssemblies
 90
     1024
280
     0
281
     0
  0
CLASS
  1
ACAMGRCOMPDEFSET
  2
AcAmGrCompDefSet
  3
DesignerAssemblies
 90
     1024
280
     0
281
     0
  0
CLASS
  1
AMDTBROWSERDBTAB
  2
AmdtBrowserDbTab
  3
McadcomServices
 90
     1024
280
     0
281
     0
  0
CLASS
  1
CBROWSERAPPOBJECT
  2
CBrowserAppObject
  3
McadcomServices
 90
     1024
280
     0
281
     0
  0
CLASS
  1
DM_PLACEHOLDER
  2
AcDmSelsetPlaceholder
  3
AcMechDwgViewMgmt
 90
     1024
280
     0
281
     0
  0
CLASS
  1
ACMSTANDARDDIN
  2
AcmStandardDIN
  3
"Amdt_StdImp|Product Description: AutoCAD Mechanical|Company: Autodesk, Inc."
 90
     1024
280
     0
281
     0
  0
CLASS
  1
AMDTEDGESTANDARDDIN13715
  2
AmdtEdgeStdDIN13715
  3
"Amdt_StdImp|Product Description: AutoCAD Mechanical|Company: Autodesk, Inc."
 90
     1024
280
     0
281
     0
  0
CLASS
  1
ACMSURFSTANDARDDIN2002
  2
AcmSurfTextStdDIN2002
  3
"Amdt_StdImp|Product Description: AutoCAD Mechanical|Company: Autodesk, Inc."
 90
     1024
280
     0
281
     0
  0
CLASS
  1
ACMFCFSTANDARDDIN
  2
AcmFCFStdDIN
  3
"Amdt_StdImp|Product Description: AutoCAD Mechanical|Company: Autodesk, Inc."
 90
     1024
280
     0
281
     0
  0
CLASS
  1
ACMWELDSTANDARDDIN
  2
AcmWeldingStdDIN
  3
"Amdt_StdImp|Product Description: AutoCAD Mechanical|Company: Autodesk, Inc."
 90
     1024
280
     0
281
     0
  0
CLASS
  1
ACMIDSTANDARDDIN
  2
AcmIdStdDIN
  3
"Amdt_StdImp|Product Description: AutoCAD Mechanical|Company: Autodesk, Inc."
 90
     1024
280
     0
281
     0
  0
CLASS
  1
ACMDATUMSTANDARDDIN
  2
AcmDatumStdDIN
  3
"Amdt_StdImp|Product Description: AutoCAD Mechanical|Company: Autodesk, Inc."
 90
     1024
280
     0
281
     0
  0
CLASS
  1
ACMBOMSTANDARDDIN
  2
AcmBOMStdDIN
  3
"Amdt_StdImp|Product Description: AutoCAD Mechanical|Company: Autodesk, Inc."
 90
     1024
280
     0
281
     0
  0
CLASS
  1
ACMDETAILSTANDARDDIN
  2
AmdtDetailSymStdDIN
  3
"Amdt_StdImp|Product Description: AutoCAD Mechanical|Company: Autodesk, Inc."
 90
     1024
280
     0
281
     0
  0
CLASS
  1
ACMSECTIONSTANDARDDIN
  2
AmdtSectionSymStdDIN
  3
"Amdt_StdImp|Product Description: AutoCAD Mechanical|Company: Autodesk, Inc."
 90
     1024
280
     0
281
     0
  0
CLASS
  1
ACMCENTERLINESTANDARDDIN
  2
AmdtCenterLineStdDIN
  3
"Amdt_StdImp|Product Description: AutoCAD Mechanical|Company: Autodesk, Inc."
 90
     1024
280
     0
281
     0
  0
CLASS
  1
ACMTHREADLINESTANDARDDIN
  2
AmdtThreadLineStdDIN
  3
"Amdt_StdImp|Product Description: AutoCAD Mechanical|Company: Autodesk, Inc."
 90
     1024
280
     0
281
     0
  0
CLASS
  1
ACMNOTESTANDARDDIN
  2
AmdtNoteStdDIN
  3
"Amdt_StdImp|Product Description: AutoCAD Mechanical|Company: Autodesk, Inc."
 90
     1024
280
     0
281
     0
  0
CLASS
  1
ACMTAPERSTANDARDDIN
  2
AcmTaperStdDIN
  3
"Amdt_StdImp|Product Description: AutoCAD Mechanical|Company: Autodesk, Inc."
 90
     1024
280
     0
281
     0
  0
CLASS
  1
ACMANOOTATIONVIEWSTANDARDDIN
  2
AmdtAnViewStdDIN
  3
"Amdt_StdImp|Product Description: AutoCAD Mechanical|Company: Autodesk, Inc."
 90
     1024
280
     0
281
     0
  0
CLASS
  1
ACAMGLAYSTD
  2
AcAmgLayStd
  3
"AmgLay|Product Description: AutoCAD Mechanical|Company: Autodesk, Inc."
 90
     1024
280
     0
281
     0
  0
CLASS
  1
ACAMGDIMSTD
  2
AcAmgDimStd
  3
"AmgDim|Product Description: AutoCAD Mechanical|Company: Autodesk, Inc."
 90
     1024
280
     0
281
     0
  0
CLASS
  1
AMGOBJPROPCFG
  2
AmgObjPropCfg
  3
"AmgLay|Product Description: AutoCAD Mechanical|Company: Autodesk, Inc."
 90
     1025
280
     0
281
     0
  0
CLASS
  1
ACAMGHOLECHARTSTDDIN
  2
AcAmgHoleChartStdDIN
  3
AmgDim|Product Description: AutoCAD Mechanical|Company: Autodesk, Inc.
 90
     1024
280
     0
281
     0
  0
CLASS
  1
ACAMGTITLESTD
  2
AcAmgTitleStd
  3
"AmgTitle|Product Description: AutoCAD Mechanical|Company: Autodesk, Inc."
 90
     4095
280
     0
281
     0
  0
CLASS
  1
AMDTNOTETEMPLATEDB
  2
AmdtNoteTemplateDB
  3
AcmSymBB|Product Description: AutoCAD Mechanical|Company: Autodesk, Inc.
 90
     1024
280
     0
281
     0
  0
CLASS
  1
ACAMGFILTERDAT
  2
AcAmgFilterDat
  3
"AcadM|Product Description: AutoCAD Mechanical|Company: Autodesk, Inc."
 90
     1024
280
     0
281
     0
  0
CLASS
  1
DICTIONARYVAR
  2
AcDbDictionaryVar
  3
ObjectDBX Classes
 90
        0
280
     0
281
     0
  0
CLASS
  1
CELLSTYLEMAP
  2
AcDbCellStyleMap
  3
ObjectDBX Classes
 90
     1152
280
     0
281
     0
  0
ENDSEC
  0
SECTION
  2
TABLES
  0
TABLE
  2
VPORT
  5
8
330
0
100
AcDbSymbolTable
 70
     1
  0
VPORT
  5
1F4
330
8
100
AcDbSymbolTableRecord
100
AcDbViewportTableRecord
  2
*ACTIVE
 70
     0
 10
0.0
 20
0.0
 11
1.0
 21
1.0
 12
503.151507178614
 22
408.5335636507178
 13
0.0
 23
0.0
 14
1.0
 24
1.0
 15
0.0
 25
0.0
 16
0.0
 26
0.0
 36
1.0
 17
0.0
 27
0.0
 37
0.0
 40
254.3957828053283
 41
1.850235849056603
 42
50.0
 43
0.0
 44
0.0
 50
0.0
 51
0.0
 71
     0
 72
   100
 73
     1
 74
     1
 75
     0
 76
     0
 77
     0
 78
     0
281
     0
 65
     0
110
0.0
120
0.0
130
0.0
111
1.0
121
0.0
131
0.0
112
0.0
122
1.0
132
0.0
 79
     0
146
0.0
  0
ENDTAB
  0
TABLE
  2
LTYPE
  5
5
330
0
100
AcDbSymbolTable
 70
    23
  0
LTYPE
  5
14
330
5
100
AcDbSymbolTableRecord
100
AcDbLinetypeTableRecord
  2
BYBLOCK
 70
     0
  3

 72
    65
 73
     0
 40
0.0
  0
LTYPE
  5
15
330
5
100
AcDbSymbolTableRecord
100
AcDbLinetypeTableRecord
  2
BYLAYER
 70
     0
  3

 72
    65
 73
     0
 40
0.0
  0
LTYPE
  5
16
330
5
100
AcDbSymbolTableRecord
100
AcDbLinetypeTableRecord
  2
CONTINUOUS
 70
     0
  3
Solid line
 72
    65
 73
     0
 40
0.0
  0
LTYPE
  5
1F5
330
5
100
AcDbSymbolTableRecord
100
AcDbLinetypeTableRecord
  2
CENTER
 70
     0
  3
____ _ ____ _ ____ _ ____ _ ____ _ ____ _ ____
 72
    65
 73
     4
 40
0.6
 49
0.375
 74
     0
 49
-0.075
 74
     0
 49
0.075
 74
     0
 49
-0.075
 74
     0
  0
LTYPE
  5
1F6
330
5
100
AcDbSymbolTableRecord
100
AcDbLinetypeTableRecord
  2
HIDDEN
 70
     0
  3
- - - - - - - - - - - - - - - - - - - -
 72
    65
 73
     2
 40
0.2
 49
0.1
 74
     0
 49
-0.1
 74
     0
  0
LTYPE
  5
1F7
330
5
100
AcDbSymbolTableRecord
100
AcDbLinetypeTableRecord
  2
PHANTOM
 70
     0
  3
_____ _ _ _____ _ _ _____ _ _ _____
 72
    65
 73
     6
 40
0.8
 49
0.45
 74
     0
 49
-0.05
 74
     0
 49
0.1
 74
     0
 49
-0.05
 74
     0
 49
0.1
 74
     0
 49
-0.05
 74
     0
  0
LTYPE
  5
1F8
330
5
100
AcDbSymbolTableRecord
100
AcDbLinetypeTableRecord
  2
DOT
 70
     0
  3
. . . . . . . . . . . . . . . . . . . .
 72
    65
 73
     2
 40
0.2
 49
0.1
 74
     0
 49
-0.1
 74
     0
  0
LTYPE
  5
1F9
330
5
100
AcDbSymbolTableRecord
100
AcDbLinetypeTableRecord
  2
DASHED
 70
     0
  3
- - - - - - - - - - - - - - - - - - - -
 72
    65
 73
     2
 40
0.2
 49
0.1
 74
     0
 49
-0.1
 74
     0
  0
LTYPE
  5
480
330
5
100
AcDbSymbolTableRecord
100
AcDbLinetypeTableRecord
  2
PHANTOM2
 70
     0
  3
Phantom (.5x) ___ _ _ ___ _ _ ___ _ _ ___ _ _
 72
    65
 73
     6
 40
31.75
 49
15.875
 74
     0
 49
-3.174999999999999
 74
     0
 49
3.174999999999999
 74
     0
 49
-3.174999999999999
 74
     0
 49
3.174999999999999
 74
     0
 49
-3.174999999999999
 74
     0
  0
LTYPE
  5
4C6
330
5
100
AcDbSymbolTableRecord
100
AcDbLinetypeTableRecord
  2
AM_ISO02W050
 70
     0
  3
__ __ __ __ __ __ __ __ __ __ __ __ __ __ __
 72
    65
 73
     2
 40
7.5
 49
6.0
 74
     0
 49
-1.5
 74
     0
  0
LTYPE
  5
4C7
330
5
100
AcDbSymbolTableRecord
100
AcDbLinetypeTableRecord
  2
AM_ISO08W050
 70
     0
  3
____ . ____ . ____ . ____ . ____ . ____ . ____
 72
    65
 73
     4
 40
18.0
 49
12.0
 74
     0
 49
-1.5
 74
     0
 49
3.0
 74
     0
 49
-1.5
 74
     0
  0
LTYPE
  5
4C8
330
5
100
AcDbSymbolTableRecord
100
AcDbLinetypeTableRecord
  2
AM_ISO09W050
 70
     0
  3
_____ . . _____ . . _____ . . ____ .. ____
 72
    65
 73
     6
 40
22.5
 49
12.0
 74
     0
 49
-1.5
 74
     0
 49
3.0
 74
     0
 49
-1.5
 74
     0
 49
3.0
 74
     0
 49
-1.5
 74
     0
  0
LTYPE
  5
4C9
330
5
100
AcDbSymbolTableRecord
100
AcDbLinetypeTableRecord
  2
Amconstr
 70
     0
  3
_______________________
 72
    65
 73
     2
 40
9999.0
 49
9999.0
 74
     0
 49
0.0
 74
     0
  0
LTYPE
  5
4CA
330
5
100
AcDbSymbolTableRecord
100
AcDbLinetypeTableRecord
  2
AM_ISO08W050x2
 70
     0
  3
__ . __ . __ . __ . __ . __
 72
    65
 73
     4
 40
9.0
 49
6.0
 74
     0
 49
-0.75
 74
     0
 49
1.5
 74
     0
 49
-0.75
 74
     0
  0
LTYPE
  5
4CB
330
5
100
AcDbSymbolTableRecord
100
AcDbLinetypeTableRecord
  2
AM_ISO02W050x2
 70
     0
  3
 _ _ _ _ _ _ _ _ _ _ _ _
 72
    65
 73
     2
 40
3.75
 49
3.0
 74
     0
 49
-0.75
 74
     0
  0
LTYPE
  5
4CE
330
5
100
AcDbSymbolTableRecord
100
AcDbLinetypeTableRecord
  2
Amzigzag
 70
     0
  3
/\/-/\/-/\/-/\/-/\/-/\/
 72
    65
 73
     2
 40
11.0001
 49
0.0001
 74
     4
 75
   136
340
4CD
 46
0.04
 50
0.0
 44
0.0
 45
0.0
 49
-11.0
 74
     0
  0
LTYPE
  5
4CF
330
5
100
AcDbSymbolTableRecord
100
AcDbLinetypeTableRecord
  2
AM_DIN_F_W050
 70
     0
  3
__ __ __ __ __ __ __ __ __ __ __ __ __ __ __
 72
    65
 73
     2
 40
6.25
 49
4.75
 74
     0
 49
-1.5
 74
     0
  0
LTYPE
  5
4D0
330
5
100
AcDbSymbolTableRecord
100
AcDbLinetypeTableRecord
  2
AM_DIN_G_W050
 70
     0
  3
____ . ____ . ____ . ____ . ____ . ____ . ____
 72
    65
 73
     4
 40
13.75
 49
9.75
 74
     0
 49
-1.5
 74
     0
 49
1.0
 74
     0
 49
-1.5
 74
     0
  0
LTYPE
  5
4D1
330
5
100
AcDbSymbolTableRecord
100
AcDbLinetypeTableRecord
  2
AM_DIN_K_W050
 70
     0
  3
_____ . . _____ . . _____ . . ____ .. ____
 72
    65
 73
     6
 40
16.25
 49
9.75
 74
     0
 49
-1.5
 74
     0
 49
1.0
 74
     0
 49
-1.5
 74
     0
 49
1.0
 74
     0
 49
-1.5
 74
     0
  0
LTYPE
  5
4D2
330
5
100
AcDbSymbolTableRecord
100
AcDbLinetypeTableRecord
  2
AM_DIN_G_W050x2
 70
     0
  3
__ . __ . __ . __ . __ . __
 72
    65
 73
     4
 40
6.875
 49
4.75
 74
     0
 49
-0.875
 74
     0
 49
0.375
 74
     0
 49
-0.875
 74
     0
  0
LTYPE
  5
4D3
330
5
100
AcDbSymbolTableRecord
100
AcDbLinetypeTableRecord
  2
AM_DIN_F_W050x2
 70
     0
  3
 _ _ _ _ _ _ _ _ _ _ _ _
 72
    65
 73
     2
 40
3.125
 49
2.25
 74
     0
 49
-0.875
 74
     0
  0
LTYPE
  5
4E2
330
5
100
AcDbSymbolTableRecord
100
AcDbLinetypeTableRecord
  2
ACDINWELD
 70
     0
  3
_ _ _ _ _
 72
    65
 73
     2
 40
2.0
 49
2.0
 74
     0
 49
-1.0
 74
     0
  0
LTYPE
  5
4E3
330
5
100
AcDbSymbolTableRecord
100
AcDbLinetypeTableRecord
  2
ACDINTGB
 70
     0
  3
__ . . __ . .
 72
    65
 73
     6
 40
9.0
 49
4.0
 74
     0
 49
-1.0
 74
     0
 49
1.0
 74
     0
 49
-1.0
 74
     0
 49
1.0
 74
     0
 49
-1.0
 74
     0
  0
LTYPE
  5
4E4
330
5
100
AcDbSymbolTableRecord
100
AcDbLinetypeTableRecord
  2
ACDINTGL
 70
     0
  3
_ _ _ _ _
 72
    65
 73
     2
 40
3.0
 49
2.0
 74
     0
 49
-1.0
 74
     0
  0
ENDTAB
  0
TABLE
  2
LAYER
  5
2
330
0
100
AcDbSymbolTable
 70
    24
  0
LAYER
  5
10
330
2
100
AcDbSymbolTableRecord
100
AcDbLayerTableRecord
  2
0
 70
     0
 62
     7
  6
CONTINUOUS
370
    -3
390
F
  0
LAYER
  5
1FA
330
2
100
AcDbSymbolTableRecord
100
AcDbLayerTableRecord
  2
DEFAULT_1
 70
     0
 62
     7
  6
CENTER
370
    -3
390
F
  0
LAYER
  5
1FB
330
2
100
AcDbSymbolTableRecord
100
AcDbLayerTableRecord
  2
DEFAULT_2
 70
     0
 62
     8
  6
HIDDEN
370
    -3
390
F
  0
LAYER
  5
1FC
330
2
100
AcDbSymbolTableRecord
100
AcDbLayerTableRecord
  2
DEFAULT_3
 70
     0
 62
     7
  6
PHANTOM
370
    -3
390
F
  0
LAYER
  5
1FD
330
2
100
AcDbSymbolTableRecord
100
AcDbLayerTableRecord
  2
3D_TEIL_NOTIZ
 70
     0
 62
     7
  6
CONTINUOUS
370
    -3
390
F
  0
LAYER
  5
1FE
330
2
100
AcDbSymbolTableRecord
100
AcDbLayerTableRecord
  2
ACHSEN
 70
     0
 62
     7
  6
CONTINUOUS
370
    -3
390
F
  0
LAYER
  5
1FF
330
2
100
AcDbSymbolTableRecord
100
AcDbLayerTableRecord
  2
AUSFORMSCHRAEGEN
 70
     0
 62
     7
  6
CONTINUOUS
370
    -3
390
F
  0
LAYER
  5
200
330
2
100
AcDbSymbolTableRecord
100
AcDbLayerTableRecord
  2
BEZUG
 70
     0
 62
     7
  6
CONTINUOUS
370
    -3
390
F
  0
LAYER
  5
201
330
2
100
AcDbSymbolTableRecord
100
AcDbLayerTableRecord
  2
BEZUGSACHSEN
 70
     0
 62
     7
  6
CONTINUOUS
370
    -3
390
F
  0
LAYER
  5
202
330
2
100
AcDbSymbolTableRecord
100
AcDbLayerTableRecord
  2
BEZUGSEBENEN
 70
     0
 62
     7
  6
CONTINUOUS
370
    -3
390
F
  0
LAYER
  5
203
330
2
100
AcDbSymbolTableRecord
100
AcDbLayerTableRecord
  2
BG_STARTBEZUEGE
 70
     0
 62
     7
  6
CONTINUOUS
370
    -3
390
F
  0
LAYER
  5
204
330
2
100
AcDbSymbolTableRecord
100
AcDbLayerTableRecord
  2
BOHRUNGEN
 70
     0
 62
     7
  6
CONTINUOUS
370
    -3
390
F
  0
LAYER
  5
205
330
2
100
AcDbSymbolTableRecord
100
AcDbLayerTableRecord
  2
DATUMS
 70
     0
 62
     7
  6
CONTINUOUS
370
    -3
390
F
  0
LAYER
  5
206
330
2
100
AcDbSymbolTableRecord
100
AcDbLayerTableRecord
  2
DETAILS
 70
     0
 62
     7
  6
CONTINUOUS
370
    -3
390
F
  0
LAYER
  5
207
330
2
100
AcDbSymbolTableRecord
100
AcDbLayerTableRecord
  2
FASEN
 70
     0
 62
     7
  6
CONTINUOUS
370
    -3
390
F
  0
LAYER
  5
208
330
2
100
AcDbSymbolTableRecord
100
AcDbLayerTableRecord
  2
GEWINDE
 70
     0
 62
     7
  6
CONTINUOUS
370
    -3
390
F
  0
LAYER
  5
209
330
2
100
AcDbSymbolTableRecord
100
AcDbLayerTableRecord
  2
HILFEN
 70
     0
 62
     7
  6
CONTINUOUS
370
    -3
390
F
  0
LAYER
  5
20A
330
2
100
AcDbSymbolTableRecord
100
AcDbLayerTableRecord
  2
KURVEN
 70
     0
 62
     7
  6
CONTINUOUS
370
    -3
390
F
  0
LAYER
  5
20B
330
2
100
AcDbSymbolTableRecord
100
AcDbLayerTableRecord
  2
PLATZIERUNG
 70
     0
 62
     7
  6
CONTINUOUS
370
    -3
390
F
  0
LAYER
  5
20C
330
2
100
AcDbSymbolTableRecord
100
AcDbLayerTableRecord
  2
PLAZIERUNG
 70
     0
 62
     7
  6
CONTINUOUS
370
    -3
390
F
  0
LAYER
  5
20D
330
2
100
AcDbSymbolTableRecord
100
AcDbLayerTableRecord
  2
RUNDUNGEN
 70
     0
 62
     7
  6
CONTINUOUS
370
    -3
390
F
  0
LAYER
  5
20E
330
2
100
AcDbSymbolTableRecord
100
AcDbLayerTableRecord
  2
TEIL_STARTBEZUEGE
 70
     0
 62
     7
  6
CONTINUOUS
370
    -3
390
F
  0
LAYER
  5
20F
330
2
100
AcDbSymbolTableRecord
100
AcDbLayerTableRecord
  2
ZEICHNUNGSBEMASSUNGEN
 70
     0
 62
     7
  6
CONTINUOUS
370
    -3
390
F
  0
LAYER
  5
4F2
330
2
100
AcDbSymbolTableRecord
100
AcDbLayerTableRecord
  2
Defpoints
 70
     0
 62
     7
  6
CONTINUOUS
290
     0
370
    -3
390
F
  0
ENDTAB
  0
TABLE
  2
STYLE
  5
3
330
0
100
AcDbSymbolTable
 70
     6
  0
STYLE
  5
11
330
3
100
AcDbSymbolTableRecord
100
AcDbTextStyleTableRecord
  2
STANDARD
 70
     0
 40
0.0
 41
0.7
 50
0.0
 71
     0
 42
0.2
  3
txt
  4

  0
STYLE
  5
210
330
3
100
AcDbSymbolTableRecord
100
AcDbTextStyleTableRecord
  2
TEXTSTYLE_1
 70
     0
 40
0.0
 41
0.8
 50
0.0
 71
     0
 42
0.2
  3
gdt
  4

  0
STYLE
  5
211
330
3
100
AcDbSymbolTableRecord
100
AcDbTextStyleTableRecord
  2
TEXTSTYLE_2
 70
     0
 40
0.0
 41
0.7
 50
0.0
 71
     0
 42
0.2
  3
gdt
  4

  0
STYLE
  5
4CD
330
3
100
AcDbSymbolTableRecord
100
AcDbTextStyleTableRecord
  2

 70
     1
 40
0.0
 41
1.0
 50
0.0
 71
     0
 42
0.2
  3
genltshp.shx
  4

  0
STYLE
  5
4E0
330
3
100
AcDbSymbolTableRecord
100
AcDbTextStyleTableRecord
  2
ACDINTS
 70
     0
 40
1.0
 41
1.0
 50
0.0
 71
     0
 42
0.2
  3
isocp.shx
  4

  0
STYLE
  5
4E1
330
3
100
AcDbSymbolTableRecord
100
AcDbTextStyleTableRecord
  2
ACDINGDT
 70
     0
 40
0.0
 41
1.0
 50
0.0
 71
     0
 42
0.2
  3
amgdt.shx
  4

  0
ENDTAB
  0
TABLE
  2
VIEW
  5
6
330
0
100
AcDbSymbolTable
 70
     0
  0
ENDTAB
  0
TABLE
  2
UCS
  5
7
330
0
100
AcDbSymbolTable
 70
     0
  0
ENDTAB
  0
TABLE
  2
APPID
  5
9
330
0
100
AcDbSymbolTable
 70
    21
  0
APPID
  5
212
330
9
100
AcDbSymbolTableRecord
100
AcDbRegAppTableRecord
  2
ACAD
 70
     0
  0
APPID
  5
455
330
9
100
AcDbSymbolTableRecord
100
AcDbRegAppTableRecord
  2
MCAD_NO_VIS
 70
     0
  0
APPID
  5
456
330
9
100
AcDbSymbolTableRecord
100
AcDbRegAppTableRecord
  2
ACAD_TEMP_GRAPHIC
 70
     0
  0
APPID
  5
482
330
9
100
AcDbSymbolTableRecord
100
AcDbRegAppTableRecord
  2
AD_DRAW
 70
     0
  0
APPID
  5
485
330
9
100
AcDbSymbolTableRecord
100
AcDbRegAppTableRecord
  2
ACATTRIBSERVICES
 70
     0
  0
APPID
  5
4A5
330
9
100
AcDbSymbolTableRecord
100
AcDbRegAppTableRecord
  2
DESIGNERASSEMBLIES
 70
     0
  0
APPID
  5
4AB
330
9
100
AcDbSymbolTableRecord
100
AcDbRegAppTableRecord
  2
ACADM_DIM_EDIT
 70
     0
  0
APPID
  5
4AC
330
9
100
AcDbSymbolTableRecord
100
AcDbRegAppTableRecord
  2
AMDT_DM_ADJ
 70
     0
  0
APPID
  5
4C3
330
9
100
AcDbSymbolTableRecord
100
AcDbRegAppTableRecord
  2
ACAD_DSTYLE_DIMJAG
 70
     0
  0
APPID
  5
4C4
330
9
100
AcDbSymbolTableRecord
100
AcDbRegAppTableRecord
  2
ACAD_DSTYLE_DIMBREAK
 70
     0
  0
APPID
  5
4F3
330
9
100
AcDbSymbolTableRecord
100
AcDbRegAppTableRecord
  2
AcAecLayerStandard
 70
     0
  0
APPID
  5
4F4
330
9
100
AcDbSymbolTableRecord
100
AcDbRegAppTableRecord
  2
GENIUS_GENODEF_13
 70
     0
  0
APPID
  5
4F5
330
9
100
AcDbSymbolTableRecord
100
AcDbRegAppTableRecord
  2
GENIUS_GENOBJ-N-HTC_13
 70
     0
  0
APPID
  5
4F6
330
9
100
AcDbSymbolTableRecord
100
AcDbRegAppTableRecord
  2
GENIUS_GENHATCH_13
 70
     0
  0
APPID
  5
4F7
330
9
100
AcDbSymbolTableRecord
100
AcDbRegAppTableRecord
  2
ACAD_EXEMPT_FROM_CAD_STANDARDS
 70
     0
  0
APPID
  5
4F8
330
9
100
AcDbSymbolTableRecord
100
AcDbRegAppTableRecord
  2
ACAD_MLEADERVER
 70
     0
  0
APPID
  5
4F9
330
9
100
AcDbSymbolTableRecord
100
AcDbRegAppTableRecord
  2
ACAD_DSTYLE_DIMJOGGED_JOGANGLE_SYMBOL
 70
     0
  0
APPID
  5
4FA
330
9
100
AcDbSymbolTableRecord
100
AcDbRegAppTableRecord
  2
ACAD_DSTYLE_DIM_LINETYPE
 70
     0
  0
APPID
  5
4FB
330
9
100
AcDbSymbolTableRecord
100
AcDbRegAppTableRecord
  2
ACAD_DSTYLE_DIM_EXT1_LINETYPE
 70
     0
  0
APPID
  5
4FC
330
9
100
AcDbSymbolTableRecord
100
AcDbRegAppTableRecord
  2
ACAD_DSTYLE_DIM_EXT2_LINETYPE
 70
     0
  0
APPID
  5
4FD
330
9
100
AcDbSymbolTableRecord
100
AcDbRegAppTableRecord
  2
ACAD_DSTYLE_DIMINSPECT
 70
     0
  0
ENDTAB
  0
TABLE
  2
DIMSTYLE
  5
A
330
0
100
AcDbSymbolTable
 70
    12
100
AcDbDimStyleTable
 71
     2
340
21A
340
21C
  0
DIMSTYLE
105
21A
330
A
100
AcDbSymbolTableRecord
100
AcDbDimStyleTableRecord
  2
STANDARD
 70
     0
 41
3.5
 47
0.005
 48
0.005
 71
     1
 73
     0
 74
     0
 77
     1
 78
     8
140
3.5
178
     5
271
     3
272
     3
284
     8
340
11
341
215
342
215
343
215
344
215
  0
DIMSTYLE
105
21B
330
A
100
AcDbSymbolTableRecord
100
AcDbDimStyleTableRecord
  2
DIMSTYLE_1
 70
     0
 41
3.5
 47
0.5
 48
0.5
 73
     0
 74
     0
 77
     1
 78
     8
140
3.5
178
     5
271
     3
272
     3
284
     8
340
11
341
215
342
215
343
215
344
215
  0
DIMSTYLE
105
21C
102
{ACAD_REACTORS
330
247
330
246
330
249
330
248
102
}
330
A
100
AcDbSymbolTableRecord
100
AcDbDimStyleTableRecord
  2
DIMSTYLE_2
 70
     0
 41
3.5
 47
0.5
 48
0.5
 73
     0
 74
     0
 77
     1
 78
     8
140
3.5
178
     5
271
     0
272
     0
284
     8
340
11
341
215
342
215
343
215
344
215
  0
DIMSTYLE
105
21D
330
A
100
AcDbSymbolTableRecord
100
AcDbDimStyleTableRecord
  2
DIMSTYLE_3
 70
     0
 41
3.5
 47
0.3
 48
0.3
 73
     0
 74
     0
 77
     1
 78
     8
140
3.5
178
     5
271
     0
272
     0
284
     8
340
11
341
215
342
215
343
215
344
215
  0
DIMSTYLE
105
4C2
102
{ACAD_REACTORS
330
4B1
102
}
330
A
100
AcDbSymbolTableRecord
100
AcDbDimStyleTableRecord
  2
AM_DIN
 70
     0
  4
"
 41
3.5
 42
1.0
 43
10.0
 44
1.0
 47
0.1
 48
0.1
 73
     0
 74
     0
 77
     1
 78
     8
 79
     2
140
3.5
141
0.0
143
0.0393701
146
0.71
147
1.5
172
     1
176
   256
177
   256
178
     2
271
     2
272
     3
274
     4
283
     0
284
     8
340
11
371
    -1
372
    -1
1001
ACAD_DSTYLE_DIMJAG
1070
   388
1040
1.5
1001
ACAD_DSTYLE_DIMBREAK
1070
   391
1040
3.75
1001
ACAD_DSTYLE_DIMJOGGED_JOGANGLE_SYMBOL
1070
   384
1040
1.570796326794896
1001
ACAD_DSTYLE_DIM_LINETYPE
1070
   380
1005
14
1001
ACAD_DSTYLE_DIM_EXT1_LINETYPE
1070
   381
1005
14
1001
ACAD_DSTYLE_DIM_EXT2_LINETYPE
1070
   382
1005
14
  0
DIMSTYLE
105
4D4
330
A
100
AcDbSymbolTableRecord
100
AcDbDimStyleTableRecord
  2
AM_DIN$3
 70
     0
  4
"
 41
3.5
 42
1.0
 43
10.0
 44
1.0
 47
0.1
 48
0.1
 73
     0
 77
     1
 78
     8
 79
     2
140
3.5
141
0.0
143
0.0393701
146
0.71
147
1.5
176
   256
177
   256
178
     2
271
     2
272
     3
274
     4
283
     0
284
     8
288
     1
289
     0
340
11
371
    -1
372
    -1
1001
ACAD_DSTYLE_DIMBREAK
1070
   391
1040
3.75
1001
ACAD_DSTYLE_DIMJAG
1070
   388
1040
1.5
1001
ACAD_DSTYLE_DIMJOGGED_JOGANGLE_SYMBOL
1070
   384
1040
1.570796326794896
1001
ACAD_DSTYLE_DIM_LINETYPE
1070
   380
1005
14
1001
ACAD_DSTYLE_DIM_EXT1_LINETYPE
1070
   381
1005
14
1001
ACAD_DSTYLE_DIM_EXT2_LINETYPE
1070
   382
1005
14
  0
DIMSTYLE
105
4D5
330
A
100
AcDbSymbolTableRecord
100
AcDbDimStyleTableRecord
  2
AM_DIN$4
 70
     0
  4
"
 41
3.5
 42
1.0
 43
10.0
 44
1.0
 47
0.1
 48
0.1
 73
     0
 77
     1
 78
     8
 79
     2
140
3.5
141
0.0
143
0.0393701
146
0.71
147
1.5
176
   256
177
   256
178
     2
271
     2
272
     3
274
     4
283
     0
284
     8
288
     1
289
     0
340
11
371
    -1
372
    -1
1001
ACAD_DSTYLE_DIMBREAK
1070
   391
1040
3.75
1001
ACAD_DSTYLE_DIMJAG
1070
   388
1040
1.5
1001
ACAD_DSTYLE_DIMJOGGED_JOGANGLE_SYMBOL
1070
   384
1040
1.570796326794896
1001
ACAD_DSTYLE_DIM_LINETYPE
1070
   380
1005
14
1001
ACAD_DSTYLE_DIM_EXT1_LINETYPE
1070
   381
1005
14
1001
ACAD_DSTYLE_DIM_EXT2_LINETYPE
1070
   382
1005
14
  0
DIMSTYLE
105
4D6
330
A
100
AcDbSymbolTableRecord
100
AcDbDimStyleTableRecord
  2
AM_DIN$6
 70
     0
  4
"
 41
3.5
 42
1.0
 43
10.0
 44
1.0
 47
0.1
 48
0.1
 73
     0
 74
     0
 78
     8
 79
     2
140
3.5
141
0.0
143
0.0393701
146
0.71
147
1.5
172
     1
176
   256
177
   256
178
     2
271
     2
272
     3
274
     4
283
     0
284
     8
340
11
371
    -1
372
    -1
1001
ACAD_DSTYLE_DIMBREAK
1070
   391
1040
3.75
1001
ACAD_DSTYLE_DIMJAG
1070
   388
1040
1.5
1001
ACAD_DSTYLE_DIMJOGGED_JOGANGLE_SYMBOL
1070
   384
1040
1.570796326794896
1001
ACAD_DSTYLE_DIM_LINETYPE
1070
   380
1005
14
1001
ACAD_DSTYLE_DIM_EXT1_LINETYPE
1070
   381
1005
14
1001
ACAD_DSTYLE_DIM_EXT2_LINETYPE
1070
   382
1005
14
  0
DIMSTYLE
105
4D7
330
A
100
AcDbSymbolTableRecord
100
AcDbDimStyleTableRecord
  2
AM_DIN$7
 70
     0
  4
"
 41
3.5
 42
1.0
 43
10.0
 44
1.0
 47
0.1
 48
0.1
 73
     0
 74
     0
 77
     1
 78
     8
 79
     2
140
3.5
141
0.0
143
0.0393701
146
0.71
147
1.5
172
     1
176
   256
177
   256
178
     2
271
     2
272
     3
274
     4
283
     0
284
     8
340
11
371
    -1
372
    -1
1001
ACAD_DSTYLE_DIMBREAK
1070
   391
1040
3.75
1001
ACAD_DSTYLE_DIMJAG
1070
   388
1040
1.5
1001
ACAD_DSTYLE_DIMJOGGED_JOGANGLE_SYMBOL
1070
   384
1040
1.570796326794896
1001
ACAD_DSTYLE_DIM_LINETYPE
1070
   380
1005
14
1001
ACAD_DSTYLE_DIM_EXT1_LINETYPE
1070
   381
1005
14
1001
ACAD_DSTYLE_DIM_EXT2_LINETYPE
1070
   382
1005
14
  0
DIMSTYLE
105
4D8
330
A
100
AcDbSymbolTableRecord
100
AcDbDimStyleTableRecord
  2
AM_DIN$SF
 70
     0
  4
"
 41
3.5
 42
1.0
 43
10.0
 44
1.0
 47
0.1
 48
0.1
 73
     0
 74
     0
 75
     1
 76
     1
 77
     1
 78
     8
 79
     2
140
3.5
141
0.0
143
0.0393701
146
0.71
147
1.5
172
     1
176
   256
177
   256
178
     2
271
     2
272
     3
274
     4
283
     0
284
     8
340
11
371
    -1
372
    -1
1001
ACAD_DSTYLE_DIMBREAK
1070
   391
1040
3.75
1001
ACAD_DSTYLE_DIMJAG
1070
   388
1040
1.5
1001
ACAD_DSTYLE_DIMJOGGED_JOGANGLE_SYMBOL
1070
   384
1040
1.570796326794896
1001
ACAD_DSTYLE_DIM_LINETYPE
1070
   380
1005
14
1001
ACAD_DSTYLE_DIM_EXT1_LINETYPE
1070
   381
1005
14
1001
ACAD_DSTYLE_DIM_EXT2_LINETYPE
1070
   382
1005
14
  0
DIMSTYLE
105
4DD
330
A
100
AcDbSymbolTableRecord
100
AcDbDimStyleTableRecord
  2
AM_DIN$SH
 70
     0
  4
"
 41
3.5
 42
1.0
 43
10.0
 44
1.0
 47
0.1
 48
0.1
 73
     0
 74
     0
 75
     1
 76
     1
 77
     1
 78
     8
 79
     2
140
3.5
141
0.0
143
0.0393701
144
2.0
146
0.71
147
1.5
172
     1
173
     1
176
   256
177
   256
178
     2
271
     2
272
     3
274
     4
283
     0
284
     8
340
11
343
4D9
371
    -1
372
    -1
1001
ACAD_DSTYLE_DIMBREAK
1070
   391
1040
3.75
1001
ACAD_DSTYLE_DIMJAG
1070
   388
1040
1.5
1001
ACAD_DSTYLE_DIMJOGGED_JOGANGLE_SYMBOL
1070
   384
1040
1.570796326794896
1001
ACAD_DSTYLE_DIM_LINETYPE
1070
   380
1005
14
1001
ACAD_DSTYLE_DIM_EXT1_LINETYPE
1070
   381
1005
14
1001
ACAD_DSTYLE_DIM_EXT2_LINETYPE
1070
   382
1005
14
  0
ENDTAB
  0
TABLE
  2
BLOCK_RECORD
  5
1
330
0
100
AcDbSymbolTable
 70
    14
  0
BLOCK_RECORD
  5
213
330
1
100
AcDbSymbolTableRecord
100
AcDbBlockTableRecord
  2
*Model_Space
340
405
  0
BLOCK_RECORD
  5
214
330
1
100
AcDbSymbolTableRecord
100
AcDbBlockTableRecord
  2
*Paper_Space
340
406
  0
BLOCK_RECORD
  5
215
330
1
100
AcDbSymbolTableRecord
100
AcDbBlockTableRecord
  2
_FILLED
340
0
102
{BLKREFS
331
504
331
505
331
51A
331
51B
331
524
331
525
331
530
331
531
331
546
331
547
331
550
331
551
331
55C
331
55D
331
566
331
567
331
56F
331
570
102
}
  0
BLOCK_RECORD
  5
216
330
1
100
AcDbSymbolTableRecord
100
AcDbBlockTableRecord
  2
*D1
340
0
  0
BLOCK_RECORD
  5
217
330
1
100
AcDbSymbolTableRecord
100
AcDbBlockTableRecord
  2
*D2
340
0
  0
BLOCK_RECORD
  5
218
330
1
100
AcDbSymbolTableRecord
100
AcDbBlockTableRecord
  2
*D3
340
0
  0
BLOCK_RECORD
  5
219
330
1
100
AcDbSymbolTableRecord
100
AcDbBlockTableRecord
  2
*D4
340
0
  0
BLOCK_RECORD
  5
4D9
330
1
100
AcDbSymbolTableRecord
100
AcDbBlockTableRecord
  2
GENAXEH
340
0
  0
ENDTAB
  0
ENDSEC
  0
SECTION
  2
BLOCKS
  0
BLOCK
  5
20
330
213
100
AcDbEntity
  8
0
100
AcDbBlockBegin
  2
*Model_Space
 70
     0
 10
0.0
 20
0.0
 30
0.0
  3
*Model_Space
  1

  0
ENDBLK
  5
21
330
213
100
AcDbEntity
  8
0
100
AcDbBlockEnd
  0
BLOCK
  5
1C
330
214
100
AcDbEntity
 67
     1
  8
0
100
AcDbBlockBegin
  2
*Paper_Space
 70
     0
 10
0.0
 20
0.0
 30
0.0
  3
*Paper_Space
  1

  0
ENDBLK
  5
1D
330
214
100
AcDbEntity
 67
     1
  8
0
100
AcDbBlockEnd
  0
BLOCK
  5
21E
330
215
100
AcDbEntity
  8
0
100
AcDbBlockBegin
  2
_FILLED
 70
     0
 10
0.0
 20
0.0
 30
0.0
  3
_FILLED
  1

  0
SOLID
  5
21F
330
215
100
AcDbEntity
  8
0
  6
ByBlock
 62
     0
100
AcDbTrace
 10
0.0
 20
0.0
 30
0.0
 11
-1.0
 21
0.125
 31
0.0
 12
-1.0
 22
-0.125
 32
0.0
 13
-1.0
 23
-0.125
 33
0.0
  0
ENDBLK
  5
220
330
215
100
AcDbEntity
  8
0
  6
ByBlock
 62
     0
100
AcDbBlockEnd
  0
BLOCK
  5
221
330
216
100
AcDbEntity
  8
ZEICHNUNGSBEMASSUNGEN
  6
Continuous
 62
     2
100
AcDbBlockBegin
  2
*D1
 70
     1
 10
0.0
 20
0.0
 30
0.0
  3
*D1
  1

  0
LINE
  5
56C
330
216
100
AcDbEntity
  8
ZEICHNUNGSBEMASSUNGEN
  6
Continuous
 62
     0
370
    -2
100
AcDbLine
 10
417.7810916762999
 20
481.3233580508
 30
0.0
 11
417.7810916762999
 21
526.4831122768627
 31
0.0
  0
LINE
  5
56D
330
216
100
AcDbEntity
  8
ZEICHNUNGSBEMASSUNGEN
  6
Continuous
 62
     0
370
    -2
100
AcDbLine
 10
597.7810916762999
 20
481.3233580508
 30
0.0
 11
597.7810916762999
 21
526.4831122768627
 31
0.0
  0
LINE
  5
56E
330
216
100
AcDbEntity
  8
ZEICHNUNGSBEMASSUNGEN
  6
Continuous
 62
     0
370
    -2
100
AcDbLine
 10
422.7810916762999
 20
526.3031122768627
 30
0.0
 11
592.7810916762999
 21
526.3031122768627
 31
0.0
  0
INSERT
  5
56F
330
216
100
AcDbEntity
  8
ZEICHNUNGSBEMASSUNGEN
  6
Continuous
 62
     0
370
    -2
100
AcDbBlockReference
  2
_FILLED
 10
417.7810916762999
 20
526.3031122768627
 30
0.0
 41
5.0
 42
5.0
 43
5.0
 50
180.0
  0
INSERT
  5
570
330
216
100
AcDbEntity
  8
ZEICHNUNGSBEMASSUNGEN
  6
Continuous
 62
     0
370
    -2
100
AcDbBlockReference
  2
_FILLED
 10
597.7810916762999
 20
526.3031122768627
 30
0.0
 41
5.0
 42
5.0
 43
5.0
  0
MTEXT
  5
571
330
216
100
AcDbEntity
  8
ZEICHNUNGSBEMASSUNGEN
  6
Continuous
100
AcDbMText
 10
505.541982172791
 20
534.8031122768627
 30
0.0
 40
7.0
 41
0.0
 71
     2
 72
     1
  1
\A1;%%c180
 73
     1
 44
1.0
1001
ACAD
1000
MTEXTBEGIN
1070
    73
1070
     1
1070
    44
1040
1.0
1070
    74
1070
     0
1000
MTEXTEND
  0
POINT
  5
572
330
216
100
AcDbEntity
  8
Defpoints
  6
Continuous
 62
     0
100
AcDbPoint
 10
417.7810916762999
 20
481.2608580508
 30
0.0
  0
POINT
  5
573
330
216
100
AcDbEntity
  8
Defpoints
  6
Continuous
 62
     0
100
AcDbPoint
 10
597.7810916762999
 20
481.2608580508
 30
0.0
  0
POINT
  5
574
330
216
100
AcDbEntity
  8
Defpoints
  6
Continuous
 62
     0
100
AcDbPoint
 10
597.7810916762999
 20
526.3031122768627
 30
0.0
  0
ENDBLK
  5
229
330
216
100
AcDbEntity
  8
0
  6
ByBlock
 62
     0
100
AcDbBlockEnd
  0
BLOCK
  5
22A
330
217
100
AcDbEntity
  8
ZEICHNUNGSBEMASSUNGEN
  6
Continuous
 62
     2
100
AcDbBlockBegin
  2
*D2
 70
     1
 10
0.0
 20
0.0
 30
0.0
  3
*D2
  1

  0
LINE
  5
521
330
217
100
AcDbEntity
  8
ZEICHNUNGSBEMASSUNGEN
  6
Continuous
 62
     0
370
    -2
100
AcDbLine
 10
430.4556955237
 20
478.3233580508
 30
0.0
 11
430.4556955237
 21
515.2658580507999
 31
0.0
  0
LINE
  5
522
330
217
100
AcDbEntity
  8
ZEICHNUNGSBEMASSUNGEN
  6
Continuous
 62
     0
370
    -2
100
AcDbLine
 10
585.1064878288
 20
478.3233580508
 30
0.0
 11
585.1064878288
 21
515.2658580507999
 31
0.0
  0
LINE
  5
523
330
217
100
AcDbEntity
  8
ZEICHNUNGSBEMASSUNGEN
  6
Continuous
 62
     0
370
    -2
100
AcDbLine
 10
435.4556955237
 20
515.0858580507999
 30
0.0
 11
580.1064878288
 21
515.0858580507999
 31
0.0
  0
INSERT
  5
524
330
217
100
AcDbEntity
  8
ZEICHNUNGSBEMASSUNGEN
  6
Continuous
 62
     0
370
    -2
100
AcDbBlockReference
  2
_FILLED
 10
430.4556955237
 20
515.0858580507999
 30
0.0
 41
5.0
 42
5.0
 43
5.0
 50
180.0
  0
INSERT
  5
525
330
217
100
AcDbEntity
  8
ZEICHNUNGSBEMASSUNGEN
  6
Continuous
 62
     0
370
    -2
100
AcDbBlockReference
  2
_FILLED
 10
585.1064878288
 20
515.0858580507999
 30
0.0
 41
5.0
 42
5.0
 43
5.0
  0
MTEXT
  5
526
330
217
100
AcDbEntity
  8
ZEICHNUNGSBEMASSUNGEN
  6
Continuous
100
AcDbMText
 10
504.8644250096
 20
523.5858580508
 30
0.0
 40
7.0
 41
0.0
 71
     2
 72
     1
  1
\A1;%%c155
 73
     1
 44
1.0
1001
ACAD
1000
MTEXTBEGIN
1070
    73
1070
     1
1070
    44
1040
1.0
1070
    74
1070
     0
1000
MTEXTEND
  0
POINT
  5
527
330
217
100
AcDbEntity
  8
Defpoints
  6
Continuous
 62
     0
100
AcDbPoint
 10
430.4556955237
 20
478.2608580508
 30
0.0
  0
POINT
  5
528
330
217
100
AcDbEntity
  8
Defpoints
  6
Continuous
 62
     0
100
AcDbPoint
 10
585.1064878288
 20
478.2608580508
 30
0.0
  0
POINT
  5
529
330
217
100
AcDbEntity
  8
Defpoints
  6
Continuous
 62
     0
100
AcDbPoint
 10
585.1064878288
 20
515.0858580507999
 30
0.0
  0
ENDBLK
  5
232
330
217
100
AcDbEntity
  8
0
  6
ByBlock
 62
     0
100
AcDbBlockEnd
  0
BLOCK
  5
233
330
218
100
AcDbEntity
  8
ZEICHNUNGSBEMASSUNGEN
  6
Continuous
 62
     2
100
AcDbBlockBegin
  2
*D3
 70
     1
 10
0.0
 20
0.0
 30
0.0
  3
*D3
  1

  0
LINE
  5
563
330
218
100
AcDbEntity
  8
ZEICHNUNGSBEMASSUNGEN
  6
Continuous
 62
     0
370
    -2
100
AcDbLine
 10
418.2185916851
 20
481.7608580508
 30
0.0
 11
407.6713842494001
 21
481.7608580508
 31
0.0
  0
LINE
  5
564
330
218
100
AcDbEntity
  8
ZEICHNUNGSBEMASSUNGEN
  6
Continuous
 62
     0
370
    -2
100
AcDbLine
 10
468.2012889394
 20
285.2608580508
 30
0.0
 11
407.6713842494
 21
285.2608580508
 31
0.0
  0
LINE
  5
565
330
218
100
AcDbEntity
  8
ZEICHNUNGSBEMASSUNGEN
  6
Continuous
 62
     0
370
    -2
100
AcDbLine
 10
407.8513842494001
 20
476.7608580508
 30
0.0
 11
407.8513842494
 21
290.2608580508001
 31
0.0
  0
INSERT
  5
566
330
218
100
AcDbEntity
  8
ZEICHNUNGSBEMASSUNGEN
  6
Continuous
 62
     0
370
    -2
100
AcDbBlockReference
  2
_FILLED
 10
407.8513842494001
 20
481.7608580508
 30
0.0
 41
5.0
 42
5.0
 43
5.0
 50
90.0
  0
INSERT
  5
567
330
218
100
AcDbEntity
  8
ZEICHNUNGSBEMASSUNGEN
  6
Continuous
 62
     0
370
    -2
100
AcDbBlockReference
  2
_FILLED
 10
407.8513842494
 20
285.2608580508
 30
0.0
 41
5.0
 42
5.0
 43
5.0
 50
270.0
  0
MTEXT
  5
568
330
218
100
AcDbEntity
  8
ZEICHNUNGSBEMASSUNGEN
  6
Continuous
100
AcDbMText
 10
399.3513842494
 20
378.1468780692
 30
0.0
 40
7.0
 41
0.0
 71
     2
 72
     1
  1
\A1;197
 11
0.0000000000000001
 21
1.0
 31
0.0
 73
     1
 44
1.0
1001
ACAD
1000
MTEXTBEGIN
1070
    73
1070
     1
1070
    44
1040
1.0
1070
    74
1070
     0
1000
MTEXTEND
  0
POINT
  5
569
330
218
100
AcDbEntity
  8
Defpoints
  6
Continuous
 62
     0
100
AcDbPoint
 10
418.2810916851
 20
481.7608580508
 30
0.0
  0
POINT
  5
56A
330
218
100
AcDbEntity
  8
Defpoints
  6
Continuous
 62
     0
100
AcDbPoint
 10
468.2637889393999
 20
285.2608580508
 30
0.0
  0
POINT
  5
56B
330
218
100
AcDbEntity
  8
Defpoints
  6
Continuous
 62
     0
100
AcDbPoint
 10
407.8513842494
 20
285.2608580508
 30
0.0
  0
ENDBLK
  5
23B
330
218
100
AcDbEntity
  8
0
  6
ByBlock
 62
     0
100
AcDbBlockEnd
  0
BLOCK
  5
23C
330
219
100
AcDbEntity
  8
ZEICHNUNGSBEMASSUNGEN
  6
Continuous
 62
     2
100
AcDbBlockBegin
  2
*D4
 70
     1
 10
0.0
 20
0.0
 30
0.0
  3
*D4
  1

  0
LINE
  5
54D
330
219
100
AcDbEntity
  8
ZEICHNUNGSBEMASSUNGEN
  6
Continuous
 62
     0
370
    -2
100
AcDbLine
 10
547.3608944131999
 20
285.2608580508
 30
0.0
 11
606.5614420951001
 21
285.2608580508
 31
0.0
  0
LINE
  5
54E
330
219
100
AcDbEntity
  8
ZEICHNUNGSBEMASSUNGEN
  6
Continuous
 62
     0
370
    -2
100
AcDbLine
 10
549.6282903271
 20
358.8611944667
 30
0.0
 11
606.5614420951001
 21
358.8611944667
 31
0.0
  0
LINE
  5
54F
330
219
100
AcDbEntity
  8
ZEICHNUNGSBEMASSUNGEN
  6
Continuous
 62
     0
370
    -2
100
AcDbLine
 10
606.3814420951001
 20
290.2608580508001
 30
0.0
 11
606.3814420951001
 21
353.8611944667
 31
0.0
  0
INSERT
  5
550
330
219
100
AcDbEntity
  8
ZEICHNUNGSBEMASSUNGEN
  6
Continuous
 62
     0
370
    -2
100
AcDbBlockReference
  2
_FILLED
 10
606.3814420951001
 20
285.2608580508
 30
0.0
 41
5.0
 42
5.0
 43
5.0
 50
270.0
  0
INSERT
  5
551
330
219
100
AcDbEntity
  8
ZEICHNUNGSBEMASSUNGEN
  6
Continuous
 62
     0
370
    -2
100
AcDbBlockReference
  2
_FILLED
 10
606.3814420951001
 20
358.8611944667
 30
0.0
 41
5.0
 42
5.0
 43
5.0
 50
90.0
  0
MTEXT
  5
552
330
219
100
AcDbEntity
  8
ZEICHNUNGSBEMASSUNGEN
  6
Continuous
100
AcDbMText
 10
597.8814420951001
 20
319.6025354339
 30
0.0
 40
7.0
 41
0.0
 71
     2
 72
     1
  1
\A1;74
 11
0.0000000000000001
 21
1.0
 31
0.0
 73
     1
 44
1.0
1001
ACAD
1000
MTEXTBEGIN
1070
    73
1070
     1
1070
    44
1040
1.0
1070
    74
1070
     0
1000
MTEXTEND
  0
POINT
  5
553
330
219
100
AcDbEntity
  8
Defpoints
  6
Continuous
 62
     0
100
AcDbPoint
 10
547.2983944131999
 20
285.2608580508
 30
0.0
  0
POINT
  5
554
330
219
100
AcDbEntity
  8
Defpoints
  6
Continuous
 62
     0
100
AcDbPoint
 10
549.5657903270999
 20
358.8611944667
 30
0.0
  0
POINT
  5
555
330
219
100
AcDbEntity
  8
Defpoints
  6
Continuous
 62
     0
100
AcDbPoint
 10
606.3814420951001
 20
358.8611944667
 30
0.0
  0
ENDBLK
  5
244
330
219
100
AcDbEntity
  8
0
  6
ByBlock
 62
     0
100
AcDbBlockEnd
  0
BLOCK
  5
4DB
330
4D9
100
AcDbEntity
  8
0
100
AcDbBlockBegin
  2
GENAXEH
 70
     0
 10
0.0
 20
0.0
 30
0.0
  3
GENAXEH
  1

  0
LINE
  5
4DA
330
4D9
100
AcDbEntity
  8
0
100
AcDbLine
 10
-1.0
 20
0.0
 30
0.0
 11
1.0
 21
0.0
 31
0.0
  0
ENDBLK
  5
4DC
330
4D9
100
AcDbEntity
  8
0
100
AcDbBlockEnd
  0
ENDSEC
  0
SECTION
  2
ENTITIES
  0
HATCH
  5
245
330
213
100
AcDbEntity
  8
0
  6
Continuous
 62
     1
100
AcDbHatch
 10
0.0
 20
0.0
 30
0.0
210
0.0
220
0.0
230
1.0
  2
DEFAULT__1
 70
     0
 71
     0
 91
        2
 92
        1
 93
       59
 72
     1
 10
469.7637889394
 20
285.2608580508
 11
482.7810916763
 21
285.2608580508
 72
     4
 94
        3
 73
     1
 74
     0
 95
        8
 96
        4
 40
0.0
 40
0.0
 40
0.0
 40
0.0
 40
1.0
 40
1.0
 40
1.0
 40
1.0
 10
469.7637889394
 20
285.2608580508
 42
1.0
 10
469.1860770046
 20
285.2608580508
 42
0.8088336328
 10
468.7740237077
 20
285.665781698
 42
0.8088336328
 10
468.7639412442
 20
286.2434056444
 42
1.0
 72
     1
 10
468.7639412442
 20
286.2434056444
 11
467.4963930254
 21
358.8611944667
 72
     4
 94
        3
 73
     1
 74
     0
 95
        8
 96
        4
 40
0.0
 40
0.0
 40
0.0
 40
0.0
 40
1.0
 40
1.0
 40
1.0
 40
1.0
 10
466.0808475008
 20
361.3565718739
 42
1.0
 10
466.9647091683999
 20
360.8070504634
 42
0.9188511737999998
 10
467.4782292266
 20
359.9017978035
 42
0.9188511737999998
 10
467.4963930254
 20
358.8611944667
 42
1.0
 72
     4
 94
        3
 73
     1
 74
     0
 95
        8
 96
        4
 40
0.0
 40
0.0
 40
0.0
 40
0.0
 40
1.0
 40
1.0
 40
1.0
 40
1.0
 10
466.0808475008
 20
361.3565718739
 42
1.0
 10
465.2471754807
 20
361.874888983
 42
0.9269949157999999
 10
464.7406302394999
 20
362.7157656571
 42
0.9269949157999999
 10
464.6721529108999
 20
363.6950370792
 42
1.0
 72
     1
 10
464.6721529108999
 20
363.6950370792
 11
464.2379203721
 21
369.9048516948
 72
     4
 94
        3
 73
     1
 74
     0
 95
        8
 96
        4
 40
0.0
 40
0.0
 40
0.0
 40
0.0
 40
1.0
 40
1.0
 40
1.0
 40
1.0
 10
464.2379203721
 20
369.9048516948
 42
1.0
 10
464.1268947273999
 20
371.4925923842999
 42
0.8326371471999999
 10
462.9916726235999
 20
372.6081720388
 42
0.8326371471999999
 10
461.4022360899999
 20
372.6914708778
 42
1.0
 72
     1
 10
461.4022360899999
 20
372.6914708778
 11
454.5107687683999
 21
373.0526373761
 72
     4
 94
        3
 73
     1
 74
     0
 95
        8
 96
        4
 40
0.0
 40
0.0
 40
0.0
 40
0.0
 40
1.0
 40
1.0
 40
1.0
 40
1.0
 10
451.9947570645999
 20
374.6865544812
 42
1.0
 10
452.4932732324999
 20
373.7081614128
 42
0.9106836024999999
 10
453.4141974323
 20
373.1101062447
 42
0.9106836024999999
 10
454.5107687683999
 20
373.0526373761
 42
1.0
 72
     1
 10
438.8371900737999
 20
400.5097336841
 11
451.9947570645999
 21
374.6865544812
 72
     4
 94
        3
 73
     1
 74
     0
 95
        8
 96
        4
 40
0.0
 40
0.0
 40
0.0
 40
0.0
 40
1.0
 40
1.0
 40
1.0
 40
1.0
 10
438.2952685597
 20
402.6051886993
 42
1.0
 10
438.3208516187
 20
401.8725857398
 42
0.9841973380999998
 10
438.5043925589
 20
401.1628855830999
 42
0.9841973380999998
 10
438.8371900737999
 20
400.5097336841
 42
1.0
 72
     1
 10
436.8383057378999
 20
444.3271450861
 11
438.2952685597
 21
402.6051886993
 72
     4
 94
        3
 73
     1
 74
     0
 95
        8
 96
        4
 40
0.0
 40
0.0
 40
0.0
 40
0.0
 40
1.0
 40
1.0
 40
1.0
 40
1.0
 10
436.8383058611
 20
444.3271450581
 42
1.0
 10
436.8136635908999
 20
445.03282395
 42
0.9853166346
 10
436.6422731551999
 20
445.7178168394
 42
0.9853166346
 10
436.3316843191999
 20
446.3519497235999
 42
1.0
 72
     1
 10
436.3316842238999
 20
446.3519496357
 11
436.1930170349999
 21
446.6350677846
 72
     4
 94
        3
 73
     1
 74
     0
 95
        8
 96
        4
 40
0.0
 40
0.0
 40
0.0
 40
0.0
 40
1.0
 40
1.0
 40
1.0
 40
1.0
 10
436.1930171723
 20
446.63506781
 42
1.0
 10
435.8824285473
 20
447.2691990986
 42
0.9853166969
 10
435.7110376783
 20
447.9541903067
 42
0.9853166969
 10
435.6863943176001
 20
448.6598676337999
 42
1.0
 72
     1
 10
435.3993772161
 20
456.8789583465
 11
435.6863941894999
 21
448.6598675976999
 72
     4
 94
        3
 73
     1
 74
     0
 95
        8
 96
        4
 40
0.0
 40
0.0
 40
0.0
 40
0.0
 40
1.0
 40
1.0
 40
1.0
 40
1.0
 10
435.3993772161
 20
456.8789583465
 42
1.0
 10
435.351605736
 20
458.2469545502999
 42
0.8692022420999998
 10
434.4993926516999
 20
459.3181354812
 42
0.8692022420999998
 10
433.1771406452999
 20
459.6721769469
 42
1.0
 72
     4
 94
        3
 73
     1
 74
     0
 95
        8
 96
        4
 40
0.0
 40
0.0
 40
0.0
 40
0.0
 40
1.0
 40
1.0
 40
1.0
 40
1.0
 10
433.1771406452999
 20
459.6721769469
 42
1.0
 10
431.854888639
 20
460.0262184126
 42
0.8692022420999998
 10
431.0026755547
 20
461.0973993435
 42
0.8692022420999998
 10
430.9549040745999
 20
462.4653955471999
 42
1.0
 72
     1
 10
430.9549040745999
 20
462.4653955471999
 11
430.5568016804
 21
473.865556541
 72
     4
 94
        3
 73
     1
 74
     0
 95
        8
 96
        4
 40
0.0
 40
0.0
 40
0.0
 40
0.0
 40
1.0
 40
1.0
 40
1.0
 40
1.0
 10
427.5586291993
 20
476.7608580508
 42
1.0
 10
429.2677303955
 20
476.7608580508
 42
0.8128932001999999
 10
430.4971549088
 20
475.5736165989
 42
0.8128932001999999
 10
430.5568016804
 20
473.865556541
 42
1.0
 72
     1
 10
419.7810916763
 20
476.7608580508
 11
427.5586291993
 21
476.7608580508
 72
     4
 94
        3
 73
     1
 74
     0
 95
        8
 96
        4
 40
0.0
 40
0.0
 40
0.0
 40
0.0
 40
1.0
 40
1.0
 40
1.0
 40
1.0
 10
419.7810916763
 20
476.7608580508
 42
1.0
 10
418.6095188009999
 20
476.7608580508
 42
0.8047378541
 10
417.7810916762999
 20
477.5892851755999
 42
0.8047378541
 10
417.7810916762999
 20
478.7608580508
 42
1.0
 72
     1
 10
417.7810916762999
 20
478.7608580508
 11
417.7810916762999
 21
479.7608580508
 72
     4
 94
        3
 73
     1
 74
     0
 95
        8
 96
        4
 40
0.0
 40
0.0
 40
0.0
 40
0.0
 40
1.0
 40
1.0
 40
1.0
 40
1.0
 10
417.7810916762999
 20
479.7608580508
 42
1.0
 10
417.7810916762999
 20
480.9324309261
 42
0.8047378541
 10
418.6095188009999
 20
481.7608580508
 42
0.8047378541
 10
419.7810916763
 20
481.7608580508
 42
1.0
 72
     1
 10
442.7810916762999
 20
481.7608580508
 11
419.7810916763
 21
481.7608580508
 72
     4
 94
        3
 73
     1
 74
     0
 95
        8
 96
        4
 40
0.0
 40
0.0
 40
0.0
 40
0.0
 40
1.0
 40
1.0
 40
1.0
 40
1.0
 10
443.7810916762999
 20
480.7608580508
 42
1.0
 10
443.7810916762999
 20
481.3466444884999
 42
0.8047378541
 10
443.3668781138999
 20
481.7608580508
 42
0.8047378541
 10
442.7810916762999
 20
481.7608580508
 42
1.0
 72
     1
 10
443.7810916762999
 20
477.3657407684999
 11
443.7810916762999
 21
480.7608580508
 72
     4
 94
        3
 73
     1
 74
     0
 95
        8
 96
        4
 40
0.0
 40
0.0
 40
0.0
 40
0.0
 40
1.0
 40
1.0
 40
1.0
 40
1.0
 10
443.7810916762999
 20
477.3657407684999
 42
1.0
 10
443.7810916762999
 20
476.7880288337
 42
0.8088336328
 10
443.3761680291
 20
476.3759755368
 42
0.8088336328
 10
442.7985440826999
 20
476.3658930733
 42
1.0
 72
     1
 10
437.7636392698
 20
476.2780084829
 11
442.7985440826999
 21
476.3658930733
 72
     4
 94
        3
 73
     1
 74
     0
 95
        8
 96
        4
 40
0.0
 40
0.0
 40
0.0
 40
0.0
 40
1.0
 40
1.0
 40
1.0
 40
1.0
 10
436.7810916763
 20
475.2781607876999
 42
1.0
 10
436.7810916762999
 20
475.8558727225
 42
0.8088336328
 10
437.1860153233999
 20
476.2679260194
 42
0.8088336328
 10
437.7636392698
 20
476.2780084829
 42
1.0
 72
     1
 10
436.7810916763
 20
466.2435553139999
 11
436.7810916763
 21
475.2781607876999
 72
     4
 94
        3
 73
     1
 74
     0
 95
        8
 96
        4
 40
0.0
 40
0.0
 40
0.0
 40
0.0
 40
1.0
 40
1.0
 40
1.0
 40
1.0
 10
437.7636392698
 20
465.2437076187999
 42
1.0
 10
437.1860153233999
 20
465.2537900823
 42
0.8088336328
 10
436.7810916762999
 20
465.6658433791999
 42
0.8088336328
 10
436.7810916763
 20
466.2435553139999
 42
1.0
 72
     1
 10
441.8401055432
 20
465.1725526353
 11
437.7636392698
 21
465.2437076187999
 72
     1
 10
441.8401055432
 20
465.1725526353
 11
442.7850683327999
 21
465.1725526353
 72
     4
 94
        3
 73
     1
 74
     0
 95
        8
 96
        4
 40
0.0
 40
0.0
 40
0.0
 40
0.0
 40
1.0
 40
1.0
 40
1.0
 40
1.0
 10
442.7850683327999
 20
465.1725526353
 42
1.0
 10
443.3690057464
 20
465.1725526353
 42
0.8056760909999999
 10
443.7827336587999
 20
464.7604699767
 42
0.8056760909999999
 10
443.7850603944
 20
464.1765371987
 42
1.0
 72
     1
 10
444.0282470249999
 20
403.1448310594
 11
443.7850603944
 21
464.1765371987
 72
     4
 94
        3
 73
     1
 74
     0
 95
        8
 96
        4
 40
0.0
 40
0.0
 40
0.0
 40
0.0
 40
1.0
 40
1.0
 40
1.0
 40
1.0
 10
444.3552036372
 20
401.7948132502
 42
1.0
 10
444.1411217826
 20
402.2149725472
 42
0.9818887202999999
 10
444.030125969
 20
402.6732789999
 42
0.9818887202999999
 10
444.0282470249999
 20
403.1448310594
 42
1.0
 72
     1
 10
455.9779025673
 20
378.9839822278
 11
444.3552036372
 21
401.7948132502
 72
     4
 94
        3
 73
     1
 74
     0
 95
        8
 96
        4
 40
0.0
 40
0.0
 40
0.0
 40
0.0
 40
1.0
 40
1.0
 40
1.0
 40
1.0
 10
456.8165731351999
 20
378.4393431928
 42
1.0
 10
456.4510493564999
 20
378.4584994823001
 42
0.9106836024999999
 10
456.1440746232999
 20
378.6578512050001
 42
0.9106836024999999
 10
455.9779025673
 20
378.9839822278
 42
1.0
 72
     1
 10
469.3334276325
 20
377.783362645
 11
456.8165731351999
 21
378.4393431928
 72
     4
 94
        3
 73
     1
 74
     0
 95
        8
 96
        4
 40
0.0
 40
0.0
 40
0.0
 40
0.0
 40
1.0
 40
1.0
 40
1.0
 40
1.0
 10
469.3334276325
 20
377.783362645
 42
1.0
 10
469.8944081997
 20
377.7539628992
 42
0.8169162473
 10
470.2810916763
 20
377.3464835369001
 42
0.8169162473
 10
470.2810916763
 20
376.7847331102
 42
1.0
 72
     1
 10
470.2810916763
 20
366.847307927
 11
470.2810916763
 21
376.7847331102
 72
     4
 94
        3
 73
     1
 74
     0
 95
        8
 96
        4
 40
0.0
 40
0.0
 40
0.0
 40
0.0
 40
1.0
 40
1.0
 40
1.0
 40
1.0
 10
471.2636392698
 20
365.8474602319
 42
1.0
 10
470.6860153233999
 20
365.8575426954
 42
0.8088336328
 10
470.2810916763
 20
366.2695959923
 42
0.8088336328
 10
470.2810916763
 20
366.847307927
 42
1.0
 72
     1
 10
471.2636392698
 20
365.8474602319
 11
476.7985440826999
 21
365.750848109
 72
     4
 94
        3
 73
     1
 74
     0
 95
        8
 96
        4
 40
0.0
 40
0.0
 40
0.0
 40
0.0
 40
1.0
 40
1.0
 40
1.0
 40
1.0
 10
476.7985440826999
 20
365.750848109
 42
1.0
 10
477.3761680291
 20
365.7407656455
 42
0.8088336328
 10
477.7810916763
 20
365.3287123486
 42
0.8088336328
 10
477.7810916763
 20
364.7510004138
 42
1.0
 72
     1
 10
477.7810916763
 20
360.7163949401
 11
477.7810916763
 21
364.7510004138
 72
     4
 94
        3
 73
     1
 74
     0
 95
        8
 96
        4
 40
0.0
 40
0.0
 40
0.0
 40
0.0
 40
1.0
 40
1.0
 40
1.0
 40
1.0
 10
477.7810916763
 20
360.7163949401
 42
1.0
 10
477.7810916763
 20
360.1386830053
 42
0.8088336328
 10
477.3761680291
 20
359.7266297084
 42
0.8088336328
 10
476.7985440826999
 20
359.7165472449
 42
1.0
 72
     1
 10
476.7985440826999
 20
359.7165472449
 11
475.2636392698
 21
359.6897553817
 72
     4
 94
        3
 73
     1
 74
     0
 95
        8
 96
        4
 40
0.0
 40
0.0
 40
0.0
 40
0.0
 40
1.0
 40
1.0
 40
1.0
 40
1.0
 10
474.2810916763
 20
358.6899076866
 42
1.0
 10
474.2810916763
 20
359.2676196213
 42
0.8088336328
 10
474.6860153233999
 20
359.6796729183
 42
0.8088336328
 10
475.2636392698
 20
359.6897553817
 42
1.0
 72
     1
 10
474.2810916763
 20
300.5451939244
 11
474.2810916763
 21
358.6899076866
 72
     4
 94
        3
 73
     1
 74
     0
 95
        8
 96
        4
 40
0.0
 40
0.0
 40
0.0
 40
0.0
 40
1.0
 40
1.0
 40
1.0
 40
1.0
 10
474.9401756113
 20
299.6051001862
 42
1.0
 10
474.5309690004
 20
299.7534950769
 42
0.8792100115
 10
474.2810916763
 20
300.1099111497
 42
0.8792100115
 10
474.2810916763
 20
300.5451939244
 42
1.0
 72
     1
 10
477.1302305326999
 20
298.8108975704
 11
474.9401756113
 21
299.6051001862
 72
     4
 94
        3
 73
     1
 74
     0
 95
        8
 96
        4
 40
0.0
 40
0.0
 40
0.0
 40
0.0
 40
1.0
 40
1.0
 40
1.0
 40
1.0
 10
477.1302305326999
 20
298.8108975704
 42
1.0
 10
477.5394371436
 20
298.6625026797
 42
0.8792100115
 10
477.7893144676999
 20
298.306086607
 42
0.8792100115
 10
477.7893144676999
 20
297.8708038322
 42
1.0
 72
     1
 10
477.7893144676999
 20
292.523838355
 11
477.7893144676999
 21
297.8708038322
 72
     4
 94
        3
 73
     1
 74
     0
 95
        8
 96
        4
 40
0.0
 40
0.0
 40
0.0
 40
0.0
 40
1.0
 40
1.0
 40
1.0
 40
1.0
 10
478.7369785115
 20
291.5252088203
 42
1.0
 10
478.1759979442999
 20
291.554608566
 42
0.8169162473
 10
477.7893144676999
 20
291.9620879284
 42
0.8169162473
 10
477.7893144676999
 20
292.523838355
 42
1.0
 72
     1
 10
482.8334276325
 20
291.3105230189
 11
478.7369785115
 21
291.5252088203
 72
     4
 94
        3
 73
     1
 74
     0
 95
        8
 96
        4
 40
0.0
 40
0.0
 40
0.0
 40
0.0
 40
1.0
 40
1.0
 40
1.0
 40
1.0
 10
482.8334276325
 20
291.3105230189
 42
1.0
 10
483.3944081997
 20
291.2811232731
 42
0.8169162473
 10
483.7810916762999
 20
290.8736439108
 42
0.8169162473
 10
483.7810916762999
 20
290.3118934841
 42
1.0
 72
     1
 10
483.7810916762999
 20
286.2608580508
 11
483.7810916762999
 21
290.3118934841
 72
     4
 94
        3
 73
     1
 74
     0
 95
        8
 96
        4
 40
0.0
 40
0.0
 40
0.0
 40
0.0
 40
1.0
 40
1.0
 40
1.0
 40
1.0
 10
483.7810916762999
 20
286.2608580508
 42
1.0
 10
483.7810916762999
 20
285.6750716132
 42
0.8047378541
 10
483.3668781139
 20
285.2608580508
 42
0.8047378541
 10
482.7810916763
 20
285.2608580508
 42
1.0
 97
        0
 92
        1
 93
       59
 72
     1
 10
532.7810916763
 20
285.2608580508
 11
545.7983944131999
 21
285.2608580508
 72
     4
 94
        3
 73
     1
 74
     0
 95
        8
 96
        4
 40
0.0
 40
0.0
 40
0.0
 40
0.0
 40
1.0
 40
1.0
 40
1.0
 40
1.0
 10
531.7810916763
 20
286.2608580508
 42
1.0
 10
531.7810916763
 20
285.6750716132
 42
0.8047378541
 10
532.1953052386
 20
285.2608580508
 42
0.8047378541
 10
532.7810916763
 20
285.2608580508
 42
1.0
 72
     1
 10
531.7810916763
 20
286.2608580508
 11
531.7810916763
 21
290.3118934841
 72
     4
 94
        3
 73
     1
 74
     0
 95
        8
 96
        4
 40
0.0
 40
0.0
 40
0.0
 40
0.0
 40
1.0
 40
1.0
 40
1.0
 40
1.0
 10
532.72875572
 20
291.3105230189
 42
1.0
 10
532.1677751528
 20
291.2811232731
 42
0.8169162473
 10
531.7810916763
 20
290.8736439108
 42
0.8169162473
 10
531.7810916763
 20
290.3118934841
 42
1.0
 72
     1
 10
532.72875572
 20
291.3105230189
 11
536.8252048409999
 21
291.5252088203
 72
     4
 94
        3
 73
     1
 74
     0
 95
        8
 96
        4
 40
0.0
 40
0.0
 40
0.0
 40
0.0
 40
1.0
 40
1.0
 40
1.0
 40
1.0
 10
536.8252048409999
 20
291.5252088203
 42
1.0
 10
537.3861854082
 20
291.554608566
 42
0.8169162473
 10
537.7728688848
 20
291.9620879284
 42
0.8169162473
 10
537.7728688848
 20
292.523838355
 42
1.0
 72
     1
 10
537.7728688848
 20
292.523838355
 11
537.7728688848
 21
297.8708038322
 72
     4
 94
        3
 73
     1
 74
     0
 95
        8
 96
        4
 40
0.0
 40
0.0
 40
0.0
 40
0.0
 40
1.0
 40
1.0
 40
1.0
 40
1.0
 10
538.4319528198
 20
298.8108975704
 42
1.0
 10
538.0227462089
 20
298.6625026797
 42
0.8792100115
 10
537.7728688848
 20
298.306086607
 42
0.8792100115
 10
537.7728688848
 20
297.8708038322
 42
1.0
 72
     1
 10
538.4319528198
 20
298.8108975704
 11
540.6220077412999
 21
299.6051001862
 72
     4
 94
        3
 73
     1
 74
     0
 95
        8
 96
        4
 40
0.0
 40
0.0
 40
0.0
 40
0.0
 40
1.0
 40
1.0
 40
1.0
 40
1.0
 10
540.6220077412999
 20
299.6051001862
 42
1.0
 10
541.0312143521999
 20
299.7534950769
 42
0.8792100115
 10
541.2810916763
 20
300.1099111497
 42
0.8792100115
 10
541.2810916763
 20
300.5451939244
 42
1.0
 72
     1
 10
541.2810916763
 20
300.5451939244
 11
541.2810916763
 21
358.6899076866
 72
     4
 94
        3
 73
     1
 74
     0
 95
        8
 96
        4
 40
0.0
 40
0.0
 40
0.0
 40
0.0
 40
1.0
 40
1.0
 40
1.0
 40
1.0
 10
541.2810916763
 20
358.6899076866
 42
1.0
 10
541.2810916763
 20
359.2676196213
 42
0.8088336328
 10
540.8761680291
 20
359.6796729183
 42
0.8088336328
 10
540.2985440826999
 20
359.6897553817
 42
1.0
 72
     1
 10
538.7636392697999
 20
359.7165472449
 11
540.2985440826999
 21
359.6897553817
 72
     4
 94
        3
 73
     1
 74
     0
 95
        8
 96
        4
 40
0.0
 40
0.0
 40
0.0
 40
0.0
 40
1.0
 40
1.0
 40
1.0
 40
1.0
 10
537.7810916762999
 20
360.7163949401
 42
1.0
 10
537.7810916762999
 20
360.1386830053
 42
0.8088336328
 10
538.1860153233999
 20
359.7266297084
 42
0.8088336328
 10
538.7636392697999
 20
359.7165472449
 42
1.0
 72
     1
 10
537.7810916762999
 20
360.7163949401
 11
537.7810916762999
 21
364.7510004138
 72
     4
 94
        3
 73
     1
 74
     0
 95
        8
 96
        4
 40
0.0
 40
0.0
 40
0.0
 40
0.0
 40
1.0
 40
1.0
 40
1.0
 40
1.0
 10
538.7636392697999
 20
365.750848109
 42
1.0
 10
538.1860153233999
 20
365.7407656455
 42
0.8088336328
 10
537.7810916762999
 20
365.3287123486
 42
0.8088336328
 10
537.7810916762999
 20
364.7510004138
 42
1.0
 72
     1
 10
544.2985440826999
 20
365.8474602319
 11
538.7636392697999
 21
365.750848109
 72
     4
 94
        3
 73
     1
 74
     0
 95
        8
 96
        4
 40
0.0
 40
0.0
 40
0.0
 40
0.0
 40
1.0
 40
1.0
 40
1.0
 40
1.0
 10
544.2985440826999
 20
365.8474602319
 42
1.0
 10
544.8761680291
 20
365.8575426954
 42
0.8088336328
 10
545.2810916763
 20
366.2695959923
 42
0.8088336328
 10
545.2810916763
 20
366.847307927
 42
1.0
 72
     1
 10
545.2810916763
 20
366.847307927
 11
545.2810916763
 21
376.7847331102
 72
     4
 94
        3
 73
     1
 74
     0
 95
        8
 96
        4
 40
0.0
 40
0.0
 40
0.0
 40
0.0
 40
1.0
 40
1.0
 40
1.0
 40
1.0
 10
546.2287557199999
 20
377.783362645
 42
1.0
 10
545.6677751527999
 20
377.7539628992
 42
0.8169162473
 10
545.2810916763
 20
377.3464835369001
 42
0.8169162473
 10
545.2810916763
 20
376.7847331102
 42
1.0
 72
     1
 10
546.2287557199999
 20
377.783362645
 11
558.7456102173
 21
378.4393431928
 72
     4
 94
        3
 73
     1
 74
     0
 95
        8
 96
        4
 40
0.0
 40
0.0
 40
0.0
 40
0.0
 40
1.0
 40
1.0
 40
1.0
 40
1.0
 10
558.7456102173
 20
378.4393431928
 42
1.0
 10
559.111133996
 20
378.4584994823001
 42
0.9106836024999999
 10
559.4181087293
 20
378.6578512050001
 42
0.9106836024999999
 10
559.5842807852999
 20
378.9839822278
 42
1.0
 72
     1
 10
559.5842807852999
 20
378.9839822278
 11
571.2069797153
 21
401.7948132502
 72
     4
 94
        3
 73
     1
 74
     0
 95
        8
 96
        4
 40
0.0
 40
0.0
 40
0.0
 40
0.0
 40
1.0
 40
1.0
 40
1.0
 40
1.0
 10
571.2069797153
 20
401.7948132502
 42
1.0
 10
571.4210615698999
 20
402.2149725472
 42
0.9818887202999999
 10
571.5320573834999
 20
402.6732789999
 42
0.9818887202999999
 10
571.5339363274999
 20
403.1448310594
 42
1.0
 72
     1
 10
571.5339363274999
 20
403.1448310594
 11
571.7771229581
 21
464.1765371987
 72
     4
 94
        3
 73
     1
 74
     0
 95
        8
 96
        4
 40
0.0
 40
0.0
 40
0.0
 40
0.0
 40
1.0
 40
1.0
 40
1.0
 40
1.0
 10
572.7771150196999
 20
465.1725526353
 42
1.0
 10
572.1931776062
 20
465.1725526353
 42
0.8056760909999999
 10
571.7794496937999
 20
464.7604699767
 42
0.8056760909999999
 10
571.7771229581
 20
464.1765371987
 42
1.0
 72
     1
 10
572.7771150196999
 20
465.1725526353
 11
573.7220778093
 21
465.1725526353
 72
     1
 10
573.7220778093
 20
465.1725526353
 11
577.7985440826999
 21
465.2437076187999
 72
     4
 94
        3
 73
     1
 74
     0
 95
        8
 96
        4
 40
0.0
 40
0.0
 40
0.0
 40
0.0
 40
1.0
 40
1.0
 40
1.0
 40
1.0
 10
577.7985440826999
 20
465.2437076187999
 42
1.0
 10
578.3761680291
 20
465.2537900823
 42
0.8088336328
 10
578.7810916763
 20
465.6658433791999
 42
0.8088336328
 10
578.7810916763
 20
466.2435553139999
 42
1.0
 72
     1
 10
578.7810916763
 20
466.2435553139999
 11
578.7810916763
 21
475.2781607876999
 72
     4
 94
        3
 73
     1
 74
     0
 95
        8
 96
        4
 40
0.0
 40
0.0
 40
0.0
 40
0.0
 40
1.0
 40
1.0
 40
1.0
 40
1.0
 10
578.7810916763
 20
475.2781607876999
 42
1.0
 10
578.7810916763
 20
475.8558727225
 42
0.8088336328
 10
578.3761680291
 20
476.2679260194
 42
0.8088336328
 10
577.7985440826999
 20
476.2780084829
 42
1.0
 72
     1
 10
577.7985440826999
 20
476.2780084829
 11
572.7636392698
 21
476.3658930733
 72
     4
 94
        3
 73
     1
 74
     0
 95
        8
 96
        4
 40
0.0
 40
0.0
 40
0.0
 40
0.0
 40
1.0
 40
1.0
 40
1.0
 40
1.0
 10
571.7810916762999
 20
477.3657407684999
 42
1.0
 10
571.7810916762999
 20
476.7880288337
 42
0.8088336328
 10
572.1860153233999
 20
476.3759755368
 42
0.8088336328
 10
572.7636392698
 20
476.3658930733
 42
1.0
 72
     1
 10
571.7810916762999
 20
477.3657407684999
 11
571.7810916762999
 21
480.7608580508
 72
     4
 94
        3
 73
     1
 74
     0
 95
        8
 96
        4
 40
0.0
 40
0.0
 40
0.0
 40
0.0
 40
1.0
 40
1.0
 40
1.0
 40
1.0
 10
571.7810916762999
 20
480.7608580508
 42
1.0
 10
571.7810916762999
 20
481.3466444884999
 42
0.8047378541
 10
572.1953052385999
 20
481.7608580508
 42
0.8047378541
 10
572.7810916762999
 20
481.7608580508
 42
1.0
 72
     1
 10
595.7810916763
 20
481.7608580508
 11
572.7810916762999
 21
481.7608580508
 72
     4
 94
        3
 73
     1
 74
     0
 95
        8
 96
        4
 40
0.0
 40
0.0
 40
0.0
 40
0.0
 40
1.0
 40
1.0
 40
1.0
 40
1.0
 10
597.7810916762999
 20
479.7608580508
 42
1.0
 10
597.7810916762999
 20
480.9324309261
 42
0.8047378541
 10
596.9526645514999
 20
481.7608580508
 42
0.8047378541
 10
595.7810916763
 20
481.7608580508
 42
1.0
 72
     1
 10
597.7810916762999
 20
478.7608580508
 11
597.7810916762999
 21
479.7608580508
 72
     4
 94
        3
 73
     1
 74
     0
 95
        8
 96
        4
 40
0.0
 40
0.0
 40
0.0
 40
0.0
 40
1.0
 40
1.0
 40
1.0
 40
1.0
 10
595.7810916763
 20
476.7608580508
 42
1.0
 10
596.9526645514999
 20
476.7608580508
 42
0.8047378541
 10
597.7810916762999
 20
477.5892851755999
 42
0.8047378541
 10
597.7810916762999
 20
478.7608580508
 42
1.0
 72
     1
 10
588.0035541532
 20
476.7608580508
 11
595.7810916763
 21
476.7608580508
 72
     4
 94
        3
 73
     1
 74
     0
 95
        8
 96
        4
 40
0.0
 40
0.0
 40
0.0
 40
0.0
 40
1.0
 40
1.0
 40
1.0
 40
1.0
 10
588.0035541532
 20
476.7608580508
 42
1.0
 10
586.294452957
 20
476.7608580508
 42
0.8128932001999999
 10
585.0650284437
 20
475.5736165989
 42
0.8128932001999999
 10
585.0053816722
 20
473.865556541
 42
1.0
 72
     1
 10
584.6072792779
 20
462.4653955471999
 11
585.0053816722
 21
473.865556541
 72
     4
 94
        3
 73
     1
 74
     0
 95
        8
 96
        4
 40
0.0
 40
0.0
 40
0.0
 40
0.0
 40
1.0
 40
1.0
 40
1.0
 40
1.0
 10
582.3850427072
 20
459.6721769469
 42
1.0
 10
583.7072947136
 20
460.0262184126
 42
0.8692022420999998
 10
584.5595077977999
 20
461.0973993435
 42
0.8692022420999998
 10
584.6072792779
 20
462.4653955471999
 42
1.0
 72
     4
 94
        3
 73
     1
 74
     0
 95
        8
 96
        4
 40
0.0
 40
0.0
 40
0.0
 40
0.0
 40
1.0
 40
1.0
 40
1.0
 40
1.0
 10
580.1628061365
 20
456.8789583465
 42
1.0
 10
580.2105776166
 20
458.2469545502999
 42
0.8692022420999998
 10
581.0627907008999
 20
459.3181354812
 42
0.8692022420999998
 10
582.3850427072
 20
459.6721769469
 42
1.0
 72
     1
 10
580.1628061365
 20
456.8789583465
 11
579.8757894516
 21
448.6598758628
 72
     4
 94
        3
 73
     1
 74
     0
 95
        8
 96
        4
 40
0.0
 40
0.0
 40
0.0
 40
0.0
 40
1.0
 40
1.0
 40
1.0
 40
1.0
 10
579.8757890494
 20
448.6598669858
 42
1.0
 10
579.8511462737
 20
447.9541902993999
 42
0.9853167239000001
 10
579.6797562433
 20
447.2691995626
 42
0.9853167239000001
 10
579.3691686595999
 20
446.6350684997999
 42
1.0
 72
     1
 10
579.3691687714999
 20
446.6350684862
 11
579.2305015460999
 21
446.3519502219
 72
     4
 94
        3
 73
     1
 74
     0
 95
        8
 96
        4
 40
0.0
 40
0.0
 40
0.0
 40
0.0
 40
1.0
 40
1.0
 40
1.0
 40
1.0
 10
579.2305014753
 20
446.3519502975
 42
1.0
 10
578.9199116262999
 20
445.7178172198
 42
0.9853166094
 10
578.7485203648
 20
445.0328238987
 42
0.9853166094
 10
578.7238775051999
 20
444.3271444078
 42
1.0
 72
     1
 10
578.7238779037998
 20
444.3271533687999
 11
577.2669147929
 21
402.6051886993
 72
     4
 94
        3
 73
     1
 74
     0
 95
        8
 96
        4
 40
0.0
 40
0.0
 40
0.0
 40
0.0
 40
1.0
 40
1.0
 40
1.0
 40
1.0
 10
577.2669147929
 20
402.6051886993
 42
1.0
 10
577.2413317337999
 20
401.8725857398
 42
0.9841973380999998
 10
577.0577907937
 20
401.1628855830999
 42
0.9841973380999998
 10
576.7249932787
 20
400.5097336841
 42
1.0
 72
     1
 10
576.7249932787
 20
400.5097336841
 11
563.567426288
 21
374.6865544812
 72
     4
 94
        3
 73
     1
 74
     0
 95
        8
 96
        4
 40
0.0
 40
0.0
 40
0.0
 40
0.0
 40
1.0
 40
1.0
 40
1.0
 40
1.0
 10
563.567426288
 20
374.6865544812
 42
1.0
 10
563.06891012
 20
373.7081614128
 42
0.9106836024999999
 10
562.1479859202
 20
373.1101062447
 42
0.9106836024999999
 10
561.0514145841
 20
373.0526373761
 42
1.0
 72
     1
 10
561.0514145841
 20
373.0526373761
 11
554.1599472625001
 21
372.6914708778
 72
     4
 94
        3
 73
     1
 74
     0
 95
        8
 96
        4
 40
0.0
 40
0.0
 40
0.0
 40
0.0
 40
1.0
 40
1.0
 40
1.0
 40
1.0
 10
551.3242629805001
 20
369.9048516948
 42
1.0
 10
551.4352886251
 20
371.4925923842999
 42
0.8326371471999999
 10
552.570510729
 20
372.6081720388
 42
0.8326371471999999
 10
554.1599472625001
 20
372.6914708778
 42
1.0
 72
     1
 10
550.8900304416
 20
363.6950370792
 11
551.3242629805001
 21
369.9048516948
 72
     4
 94
        3
 73
     1
 74
     0
 95
        8
 96
        4
 40
0.0
 40
0.0
 40
0.0
 40
0.0
 40
1.0
 40
1.0
 40
1.0
 40
1.0
 10
549.4813358516999
 20
361.3565718739
 42
1.0
 10
550.3150078718
 20
361.874888983
 42
0.9269949157999999
 10
550.8215531130999
 20
362.7157656571
 42
0.9269949157999999
 10
550.8900304416
 20
363.6950370792
 42
1.0
 72
     4
 94
        3
 73
     1
 74
     0
 95
        8
 96
        4
 40
0.0
 40
0.0
 40
0.0
 40
0.0
 40
1.0
 40
1.0
 40
1.0
 40
1.0
 10
549.4813358516999
 20
361.3565718739
 42
1.0
 10
548.5974741841
 20
360.8070504634
 42
0.9188511737999998
 10
548.0839541259999
 20
359.9017978035
 42
0.9188511737999998
 10
548.0657903271
 20
358.8611944667
 42
1.0
 72
     1
 10
546.7982421082999
 20
286.2434056444
 11
548.0657903271
 21
358.8611944667
 72
     4
 94
        3
 73
     1
 74
     0
 95
        8
 96
        4
 40
0.0
 40
0.0
 40
0.0
 40
0.0
 40
1.0
 40
1.0
 40
1.0
 40
1.0
 10
545.7983944131999
 20
285.2608580508
 42
1.0
 10
546.3761063478999
 20
285.2608580508
 42
0.8088336328
 10
546.7881596448001
 20
285.665781698
 42
0.8088336328
 10
546.7982421082999
 20
286.2434056444
 42
1.0
 97
        0
 75
     0
 76
     0
 52
45.0
 41
5.945
 77
     0
 78
     1
 53
45.0
 43
0.0
 44
0.0
 45
-4.2037498142
 46
4.2037498142
 79
     0
 98
        1
 10
0.0
 20
0.0
  0
DIMENSION
  5
246
330
213
100
AcDbEntity
  8
ZEICHNUNGSBEMASSUNGEN
  6
Continuous
 62
     7
100
AcDbDimension
  2
*D1
 10
597.7810916762999
 20
526.3031122768627
 30
0.0
 11
505.541982172791
 21
526.3031122768627
 31
0.0
 70
   160
  1
%%c<>
 71
     2
 42
180.0
  3
DIMSTYLE_2
100
AcDbAlignedDimension
 13
417.7810916762999
 23
481.2608580508
 33
0.0
 14
597.7810916762999
 24
481.2608580508
 34
0.0
100
AcDbRotatedDimension
1001
ACAD
1000
DSTYLE
1002
{
1070
    41
1040
5.0
1070
   140
1040
7.0
1070
   147
1040
1.5
1070
   178
1070
   256
1002
}
  0
DIMENSION
  5
247
330
213
100
AcDbEntity
  8
ZEICHNUNGSBEMASSUNGEN
  6
Continuous
 62
     7
100
AcDbDimension
  2
*D2
 10
585.1064878288
 20
515.0858580507999
 30
0.0
 11
504.8644250096
 21
515.0858580507999
 31
0.0
 70
   160
  1
%%c<>
 71
     2
 42
154.6507923051
  3
DIMSTYLE_2
100
AcDbAlignedDimension
 13
430.4556955237
 23
478.2608580508
 33
0.0
 14
585.1064878288
 24
478.2608580508
 34
0.0
100
AcDbRotatedDimension
1001
ACAD
1000
DSTYLE
1002
{
1070
    41
1040
5.0
1070
   140
1040
7.0
1070
   147
1040
1.5
1070
   178
1070
   256
1002
}
  0
DIMENSION
  5
248
330
213
100
AcDbEntity
  8
ZEICHNUNGSBEMASSUNGEN
  6
Continuous
 62
     7
100
AcDbDimension
  2
*D3
 10
407.8513842494
 20
285.2608580508
 30
0.0
 11
407.8513842494
 21
378.1468780692
 31
0.0
 70
   160
 71
     2
 42
196.5
  3
DIMSTYLE_2
100
AcDbAlignedDimension
 13
418.2810916851
 23
481.7608580508
 33
0.0
 14
468.2637889393999
 24
285.2608580508
 34
0.0
 50
270.0
100
AcDbRotatedDimension
1001
ACAD
1000
DSTYLE
1002
{
1070
    41
1040
5.0
1070
   140
1040
7.0
1070
   147
1040
1.5
1070
   178
1070
   256
1002
}
  0
DIMENSION
  5
249
330
213
100
AcDbEntity
  8
ZEICHNUNGSBEMASSUNGEN
  6
Continuous
 62
     7
100
AcDbDimension
  2
*D4
 10
606.3814420951001
 20
358.8611944667
 30
0.0
 11
606.3814420951
 21
319.6025354339
 31
0.0
 70
   160
 71
     2
 42
73.60033641589996
  3
DIMSTYLE_2
100
AcDbAlignedDimension
 13
547.2983944131999
 23
285.2608580508
 33
0.0
 14
549.5657903270999
 24
358.8611944667
 34
0.0
 50
90.0
100
AcDbRotatedDimension
1001
ACAD
1000
DSTYLE
1002
{
1070
    41
1040
5.0
1070
   140
1040
7.0
1070
   147
1040
1.5
1070
   178
1070
   256
1002
}
  0
LINE
  5
24A
330
213
100
AcDbEntity
  8
0
  6
Continuous
 62
     7
100
AcDbLine
 10
532.72875572
 20
291.3105230189
 30
0.0
 11
536.8252048409999
 21
291.5252088203
 31
0.0
  0
LINE
  5
24B
330
213
100
AcDbEntity
  8
0
  6
Continuous
 62
     7
100
AcDbLine
 10
469.7637889394
 20
285.2608580508
 30
0.0
 11
545.7983944131999
 21
285.2608580508
 31
0.0
  0
LINE
  5
24C
330
213
100
AcDbEntity
  8
0
  6
Continuous
 62
     9
100
AcDbLine
 10
483.7810916762999
 20
286.2608580508
 30
0.0
 11
531.7810916763
 21
286.2608580508
 31
0.0
  0
LINE
  5
24D
330
213
100
AcDbEntity
  8
0
  6
Continuous
 62
     9
100
AcDbLine
 10
483.7810916762999
 20
290.3118934841
 30
0.0
 11
531.7810916763
 21
290.3118934841
 31
0.0
  0
LINE
  5
24E
330
213
100
AcDbEntity
  8
0
  6
Continuous
 62
     9
100
AcDbLine
 10
482.8334276325
 20
291.3105230189
 30
0.0
 11
532.72875572
 21
291.3105230189
 31
0.0
  0
LINE
  5
24F
330
213
100
AcDbEntity
  8
0
  6
Continuous
 62
     9
100
AcDbLine
 10
536.8252048409999
 20
291.5252088203
 30
0.0
 11
478.7369785115
 21
291.5252088203
 31
0.0
  0
LINE
  5
250
330
213
100
AcDbEntity
  8
0
  6
Continuous
 62
     7
100
AcDbLine
 10
482.8334276325
 20
291.3105230189
 30
0.0
 11
478.7369785115
 21
291.5252088203
 31
0.0
  0
LINE
  5
251
330
213
100
AcDbEntity
  8
0
  6
Continuous
 62
     9
100
AcDbLine
 10
537.7728688848
 20
292.523838355
 30
0.0
 11
477.7893144676999
 21
292.523838355
 31
0.0
  0
LINE
  5
252
330
213
100
AcDbEntity
  8
0
  6
Continuous
 62
     9
100
AcDbLine
 10
477.7893144676999
 20
297.8708038322
 30
0.0
 11
537.7728688848
 21
297.8708038322
 31
0.0
  0
LINE
  5
253
330
213
100
AcDbEntity
  8
0
  6
Continuous
 62
     9
100
AcDbLine
 10
477.1302305326999
 20
298.8108975704
 30
0.0
 11
538.4319528198
 21
298.8108975704
 31
0.0
  0
LINE
  5
254
330
213
100
AcDbEntity
  8
0
  6
Continuous
 62
     9
100
AcDbLine
 10
540.6220077412999
 20
299.6051001862
 30
0.0
 11
474.9401756113
 21
299.6051001862
 31
0.0
  0
LINE
  5
255
330
213
100
AcDbEntity
  8
0
  6
Continuous
 62
     9
100
AcDbLine
 10
541.2810916763
 20
300.5451939244
 30
0.0
 11
474.2810916763
 21
300.5451939244
 31
0.0
  0
LINE
  5
256
330
213
100
AcDbEntity
  8
0
  6
Continuous
 62
     7
100
AcDbLine
 10
477.1302305326999
 20
298.8108975704
 30
0.0
 11
474.9401756113
 21
299.6051001862
 31
0.0
  0
LINE
  5
257
330
213
100
AcDbEntity
  8
0
  6
Continuous
 62
     7
100
AcDbLine
 10
417.7810916762999
 20
478.7608580508
 30
0.0
 11
417.7810916762999
 21
479.7608580508
 31
0.0
  0
LINE
  5
258
330
213
100
AcDbEntity
  8
0
  6
Continuous
 62
     7
100
AcDbLine
 10
430.9549040745999
 20
462.4653955471999
 30
0.0
 11
430.5568016804
 21
473.865556541
 31
0.0
  0
LINE
  5
259
330
213
100
AcDbEntity
  8
AUSFORMSCHRAEGEN
  6
Continuous
 62
     7
100
AcDbLine
 10
434.6726324741
 20
481.7608580508
 30
0.0
 11
434.7467482662999
 21
482.7608580508
 31
0.0
  0
LINE
  5
25A
330
213
100
AcDbEntity
  8
AUSFORMSCHRAEGEN
  6
Continuous
 62
     7
100
AcDbLine
 10
434.9693003686
 20
481.7608580508
 30
0.0
 11
435.0434161608999
 21
482.7608580508
 31
0.0
  0
LINE
  5
25B
330
213
100
AcDbEntity
  8
0
  6
Continuous
 62
     7
100
AcDbLine
 10
435.3993772161
 20
456.8789583465
 30
0.0
 11
435.6863941894999
 21
448.6598675976999
 31
0.0
  0
LINE
  5
25C
330
213
100
AcDbEntity
  8
0
  6
Continuous
 62
     7
100
AcDbLine
 10
436.8383057378999
 20
444.3271450861
 30
0.0
 11
438.2952685597
 21
402.6051886993
 31
0.0
  0
LINE
  5
25D
330
213
100
AcDbEntity
  8
AUSFORMSCHRAEGEN
  6
Continuous
 62
     9
100
AcDbLine
 10
439.3530743688999
 20
481.7608580508
 30
0.0
 11
439.3498717258
 21
482.7608580508
 31
0.0
  0
LINE
  5
25E
330
213
100
AcDbEntity
  8
0
  6
Continuous
 62
     7
100
AcDbLine
 10
436.7810916763
 20
466.2435553139999
 30
0.0
 11
436.7810916763
 21
475.2781607876999
 31
0.0
  0
LINE
  5
25F
330
213
100
AcDbEntity
  8
AUSFORMSCHRAEGEN
  6
Continuous
 62
     7
100
AcDbLine
 10
442.0518890848
 20
481.7608580508
 30
0.0
 11
442.0518890848
 21
482.7608580508
 31
0.0
  0
LINE
  5
260
330
213
100
AcDbEntity
  8
AUSFORMSCHRAEGEN
  6
Continuous
 62
     9
100
AcDbLine
 10
437.8754948351999
 20
481.7608580508
 30
0.0
 11
437.9125527312999
 21
482.7608580508
 31
0.0
  0
LINE
  5
261
330
213
100
AcDbEntity
  8
0
  6
Continuous
 62
     7
100
AcDbLine
 10
500.5810916763
 20
483.3608580507999
 30
0.0
 11
499.7810916763
 21
482.5608580507999
 31
0.0
  0
LINE
  5
262
330
213
100
AcDbEntity
  8
AUSFORMSCHRAEGEN
  6
Continuous
 62
     7
100
AcDbLine
 10
443.6245176463999
 20
481.7608580508
 30
0.0
 11
443.5504018541999
 21
482.7608580508
 31
0.0
  0
LINE
  5
263
330
213
100
AcDbEntity
  8
0
  6
Continuous
 62
     7
100
AcDbLine
 10
447.8795127098
 20
481.7608580508
 30
0.0
 11
447.8271435685
 21
482.7608580508
 31
0.0
  0
LINE
  5
264
330
213
100
AcDbEntity
  8
AUSFORMSCHRAEGEN
  6
Continuous
 62
     9
100
AcDbLine
 10
441.7725029385
 20
481.7608580508
 30
0.0
 11
441.7202066298999
 21
482.7608580508
 31
0.0
  0
LINE
  5
265
330
213
100
AcDbEntity
  8
0
  6
Continuous
 62
     7
100
AcDbLine
 10
441.7769507854
 20
481.7608580508
 30
0.0
 11
441.7245914165
 21
482.7608580508
 31
0.0
  0
LINE
  5
266
330
213
100
AcDbEntity
  8
AUSFORMSCHRAEGEN
  6
Continuous
 62
     9
100
AcDbLine
 10
447.7951519173999
 20
481.7608580508
 30
0.0
 11
447.7447248330999
 21
482.7608580508
 31
0.0
  0
LINE
  5
267
330
213
100
AcDbEntity
  8
AUSFORMSCHRAEGEN
  6
Continuous
 62
     9
100
AcDbLine
 10
440.9833083374
 20
481.7608580508
 30
0.0
 11
440.9462504412999
 21
482.7608580508
 31
0.0
  0
LINE
  5
268
330
213
100
AcDbEntity
  8
AUSFORMSCHRAEGEN
  6
Continuous
 62
     9
100
AcDbLine
 10
446.9483518098
 20
481.7608580508
 30
0.0
 11
446.9112939137
 21
482.7608580508
 31
0.0
  0
LINE
  5
269
330
213
100
AcDbEntity
  8
0
  6
Continuous
 62
     7
100
AcDbLine
 10
444.0282470249999
 20
403.1448310594
 30
0.0
 11
443.7850603944
 21
464.1765371987
 31
0.0
  0
LINE
  5
26A
330
213
100
AcDbEntity
  8
0
  6
Continuous
 62
     7
100
AcDbLine
 10
443.7810916762999
 20
477.3657407684999
 30
0.0
 11
443.7810916762999
 21
480.7608580508
 31
0.0
  0
LINE
  5
26B
330
213
100
AcDbEntity
  8
AUSFORMSCHRAEGEN
  6
Continuous
 62
     7
100
AcDbLine
 10
445.3843641949999
 20
481.7608580508
 30
0.0
 11
445.3843641949999
 21
482.7608580508
 31
0.0
  0
LINE
  5
26C
330
213
100
AcDbEntity
  8
AUSFORMSCHRAEGEN
  6
Continuous
 62
     7
100
AcDbLine
 10
449.6500469014
 20
481.7608580508
 30
0.0
 11
449.6500469014
 21
482.7608580508
 31
0.0
  0
LINE
  5
26D
330
213
100
AcDbEntity
  8
AUSFORMSCHRAEGEN
  6
Continuous
 62
     7
100
AcDbLine
 10
451.3551674530999
 20
481.7608580508
 30
0.0
 11
451.3551674530999
 21
482.7608580508
 31
0.0
  0
LINE
  5
26E
330
213
100
AcDbEntity
  8
0
  6
Continuous
 62
     7
100
AcDbLine
 10
438.8371900737999
 20
400.5097336841
 30
0.0
 11
451.9947570645999
 21
374.6865544812
 31
0.0
  0
LINE
  5
26F
330
213
100
AcDbEntity
  8
AUSFORMSCHRAEGEN
  6
Continuous
 62
     7
100
AcDbLine
 10
450.5141284397
 20
481.7608580508
 30
0.0
 11
450.4400126474999
 21
482.7608580508
 31
0.0
  0
LINE
  5
270
330
213
100
AcDbEntity
  8
AUSFORMSCHRAEGEN
  6
Continuous
 62
     7
100
AcDbLine
 10
452.2192500028999
 20
481.7608580508
 30
0.0
 11
452.1451342107
 21
482.7608580508
 31
0.0
  0
LINE
  5
271
330
213
100
AcDbEntity
  8
AUSFORMSCHRAEGEN
  6
Continuous
 62
     7
100
AcDbLine
 10
454.7711701991999
 20
481.7608580508
 30
0.0
 11
454.6970544069999
 21
482.7608580508
 31
0.0
  0
LINE
  5
272
330
213
100
AcDbEntity
  8
AUSFORMSCHRAEGEN
  6
Continuous
 62
     7
100
AcDbLine
 10
453.8811663259999
 20
481.7608580508
 30
0.0
 11
453.8656271645999
 21
482.7608580508
 31
0.0
  0
LINE
  5
273
330
213
100
AcDbEntity
  8
AUSFORMSCHRAEGEN
  6
Continuous
 62
     7
100
AcDbLine
 10
457.5592732423999
 20
481.7608580508
 30
0.0
 11
457.5592732423999
 21
482.7608580508
 31
0.0
  0
LINE
  5
274
330
213
100
AcDbEntity
  8
AUSFORMSCHRAEGEN
  6
Continuous
 62
     7
100
AcDbLine
 10
461.3641140462999
 20
481.7608580508
 30
0.0
 11
461.3641140462999
 21
482.7608580508
 31
0.0
  0
LINE
  5
275
330
213
100
AcDbEntity
  8
0
  6
Continuous
 62
     7
100
AcDbLine
 10
455.9779025673
 20
378.9839822278
 30
0.0
 11
444.3552036372
 21
401.7948132502
 31
0.0
  0
LINE
  5
276
330
213
100
AcDbEntity
  8
AUSFORMSCHRAEGEN
  6
Continuous
 62
     7
100
AcDbLine
 10
460.7362143432999
 20
481.7608580508
 30
0.0
 11
460.6620985511
 21
482.7608580508
 31
0.0
  0
LINE
  5
277
330
213
100
AcDbEntity
  8
AUSFORMSCHRAEGEN
  6
Continuous
 62
     7
100
AcDbLine
 10
462.2281945731999
 20
481.7608580508
 30
0.0
 11
462.1540787808999
 21
482.7608580508
 31
0.0
  0
LINE
  5
278
330
213
100
AcDbEntity
  8
AUSFORMSCHRAEGEN
  6
Continuous
 62
     7
100
AcDbLine
 10
464.7801167925
 20
481.7608580508
 30
0.0
 11
464.7060010002999
 21
482.7608580508
 31
0.0
  0
LINE
  5
279
330
213
100
AcDbEntity
  8
0
  6
Continuous
 62
     7
100
AcDbLine
 10
464.6721529108999
 20
363.6950370792
 30
0.0
 11
464.2379203721
 21
369.9048516948
 31
0.0
  0
LINE
  5
27A
330
213
100
AcDbEntity
  8
0
  6
Continuous
 62
     7
100
AcDbLine
 10
468.7639412442
 20
286.2434056444
 30
0.0
 11
467.4963930254
 21
358.8611944667
 31
0.0
  0
LINE
  5
27B
330
213
100
AcDbEntity
  8
AUSFORMSCHRAEGEN
  6
Continuous
 62
     7
100
AcDbLine
 10
463.8901108962
 20
481.7608580508
 30
0.0
 11
463.8745717348
 21
482.7608580508
 31
0.0
  0
LINE
  5
27C
330
213
100
AcDbEntity
  8
AUSFORMSCHRAEGEN
  6
Continuous
 62
     7
100
AcDbLine
 10
464.8694032895
 20
481.7608580508
 30
0.0
 11
464.8694032895
 21
482.7608580508
 31
0.0
  0
LINE
  5
27D
330
213
100
AcDbEntity
  8
AUSFORMSCHRAEGEN
  6
Continuous
 62
     7
100
AcDbLine
 10
465.8198942967
 20
481.7608580508
 30
0.0
 11
465.8198942967
 21
482.7608580508
 31
0.0
  0
LINE
  5
27E
330
213
100
AcDbEntity
  8
AUSFORMSCHRAEGEN
  6
Continuous
 62
     7
100
AcDbLine
 10
468.6483215056999
 20
481.7608580508
 30
0.0
 11
468.6483215056999
 21
482.7608580508
 31
0.0
  0
LINE
  5
27F
330
213
100
AcDbEntity
  8
0
  6
Continuous
 62
     7
100
AcDbLine
 10
470.2810916763
 20
366.847307927
 30
0.0
 11
470.2810916763
 21
376.7847331102
 31
0.0
  0
LINE
  5
280
330
213
100
AcDbEntity
  8
AUSFORMSCHRAEGEN
  6
Continuous
 62
     7
100
AcDbLine
 10
470.7566801761
 20
481.7608580508
 30
0.0
 11
470.7566801761
 21
482.7608580508
 31
0.0
  0
LINE
  5
281
330
213
100
AcDbEntity
  8
AUSFORMSCHRAEGEN
  6
Continuous
 62
     9
100
AcDbLine
 10
469.8119513173999
 20
481.7608580508
 30
0.0
 11
469.8490092134999
 21
482.7608580508
 31
0.0
  0
LINE
  5
282
330
213
100
AcDbEntity
  8
AUSFORMSCHRAEGEN
  6
Continuous
 62
     9
100
AcDbLine
 10
470.6213073962
 20
481.7608580508
 30
0.0
 11
470.6583652924
 21
482.7608580508
 31
0.0
  0
LINE
  5
283
330
213
100
AcDbEntity
  8
AUSFORMSCHRAEGEN
  6
Continuous
 62
     9
100
AcDbLine
 10
470.1863859202999
 20
481.7608580508
 30
0.0
 11
470.2347623499999
 21
482.7608580508
 31
0.0
  0
LINE
  5
284
330
213
100
AcDbEntity
  8
AUSFORMSCHRAEGEN
  6
Continuous
 62
     9
100
AcDbLine
 10
469.9832440549999
 20
481.7608580508
 30
0.0
 11
470.0355526579
 21
482.7608580508
 31
0.0
  0
LINE
  5
285
330
213
100
AcDbEntity
  8
0
  6
Continuous
 62
     7
100
AcDbLine
 10
470.0316732842
 20
482.7608580508
 30
0.0
 11
469.9792135949
 21
481.7608580508
 31
0.0
  0
LINE
  5
286
330
213
100
AcDbEntity
  8
AUSFORMSCHRAEGEN
  6
Continuous
 62
     7
100
AcDbLine
 10
476.2113264376999
 20
482.7244383551
 30
0.0
 11
476.2140257123
 21
482.7608580508
 31
0.0
  0
LINE
  5
287
330
213
100
AcDbEntity
  8
0
  6
Continuous
 62
     7
100
AcDbLine
 10
436.3316842238999
 20
446.3519496357
 30
0.0
 11
436.1930170349999
 21
446.6350677846
 31
0.0
  0
LINE
  5
288
330
213
100
AcDbEntity
  8
AUSFORMSCHRAEGEN
  6
Continuous
 62
     7
100
AcDbLine
 10
469.4634381841999
 20
481.7608580508
 30
0.0
 11
469.3893223918999
 21
482.7608580508
 31
0.0
  0
LINE
  5
289
330
213
100
AcDbEntity
  8
AUSFORMSCHRAEGEN
  6
Continuous
 62
     7
100
AcDbLine
 10
473.5476640405999
 20
481.7608580508
 30
0.0
 11
473.4735482482999
 21
482.7608580508
 31
0.0
  0
LINE
  5
28A
330
213
100
AcDbEntity
  8
AUSFORMSCHRAEGEN
  6
Continuous
 62
     9
100
AcDbLine
 10
475.607058017
 20
481.7608580508
 30
0.0
 11
475.5700001209
 21
482.7608580508
 31
0.0
  0
LINE
  5
28B
330
213
100
AcDbEntity
  8
AUSFORMSCHRAEGEN
  6
Continuous
 62
     9
100
AcDbLine
 10
478.1445787717999
 20
481.7608580508
 30
0.0
 11
478.125516507
 21
482.7608580508
 31
0.0
  0
LINE
  5
28C
330
213
100
AcDbEntity
  8
AUSFORMSCHRAEGEN
  6
Continuous
 62
     9
100
AcDbLine
 10
474.4146239248
 20
481.7608580508
 30
0.0
 11
474.4082114012
 21
482.7608580508
 31
0.0
  0
LINE
  5
28D
330
213
100
AcDbEntity
  8
0
  6
Continuous
 62
     7
100
AcDbLine
 10
474.2810916763
 20
300.5451939244
 30
0.0
 11
474.2810916763
 21
358.6899076866
 31
0.0
  0
LINE
  5
28E
330
213
100
AcDbEntity
  8
0
  6
Continuous
 62
     7
100
AcDbLine
 10
477.7810916763
 20
360.7163949401
 30
0.0
 11
477.7810916763
 21
364.7510004138
 31
0.0
  0
LINE
  5
28F
330
213
100
AcDbEntity
  8
0
  6
Continuous
 62
     7
100
AcDbLine
 10
477.7893144676999
 20
292.523838355
 30
0.0
 11
477.7893144676999
 21
297.8708038322
 31
0.0
  0
LINE
  5
290
330
213
100
AcDbEntity
  8
AUSFORMSCHRAEGEN
  6
Continuous
 62
     9
100
AcDbLine
 10
477.2200099957999
 20
481.7608580508
 30
0.0
 11
477.2313786825
 21
482.7608580508
 31
0.0
  0
LINE
  5
291
330
213
100
AcDbEntity
  8
0
  6
Continuous
 62
     7
100
AcDbLine
 10
476.7985440826999
 20
359.7165472449
 30
0.0
 11
475.2636392698
 21
359.6897553817
 31
0.0
  0
LINE
  5
292
330
213
100
AcDbEntity
  8
0
  6
Continuous
 62
     7
100
AcDbLine
 10
544.2985440826999
 20
365.8474602319
 30
0.0
 11
538.7636392697999
 21
365.750848109
 31
0.0
  0
LINE
  5
293
330
213
100
AcDbEntity
  8
0
  6
Continuous
 62
     9
100
AcDbLine
 10
474.2810916763
 20
358.6899076866
 30
0.0
 11
541.2810916763
 21
358.6899076866
 31
0.0
  0
LINE
  5
294
330
213
100
AcDbEntity
  8
0
  6
Continuous
 62
     9
100
AcDbLine
 10
476.7254603768
 20
359.6897553817
 30
0.0
 11
538.7636392697999
 21
359.6897553817
 31
0.0
  0
LINE
  5
295
330
213
100
AcDbEntity
  8
0
  6
Continuous
 62
     9
100
AcDbLine
 10
476.7985440826999
 20
359.7165472449
 30
0.0
 11
538.7636392697999
 21
359.7165472449
 31
0.0
  0
LINE
  5
296
330
213
100
AcDbEntity
  8
0
  6
Continuous
 62
     9
100
AcDbLine
 10
477.7810916763
 20
360.7163949401
 30
0.0
 11
537.7810916762999
 21
360.7163949401
 31
0.0
  0
LINE
  5
297
330
213
100
AcDbEntity
  8
0
  6
Continuous
 62
     9
100
AcDbLine
 10
537.7810916762999
 20
364.7510004138
 30
0.0
 11
477.7810916763
 21
364.7510004138
 31
0.0
  0
LINE
  5
298
330
213
100
AcDbEntity
  8
0
  6
Continuous
 62
     9
100
AcDbLine
 10
538.7636392697999
 20
365.750848109
 30
0.0
 11
476.7985440826999
 21
365.750848109
 31
0.0
  0
LINE
  5
299
330
213
100
AcDbEntity
  8
0
  6
Continuous
 62
     9
100
AcDbLine
 10
538.9400955548999
 20
365.8474602319
 30
0.0
 11
471.2636392698
 21
365.8474602319
 31
0.0
  0
LINE
  5
29A
330
213
100
AcDbEntity
  8
0
  6
Continuous
 62
     9
100
AcDbLine
 10
545.2810916763
 20
366.847307927
 30
0.0
 11
470.2810916763
 21
366.847307927
 31
0.0
  0
LINE
  5
29B
330
213
100
AcDbEntity
  8
0
  6
Continuous
 62
     7
100
AcDbLine
 10
538.7636392697999
 20
359.7165472449
 30
0.0
 11
540.2985440826999
 21
359.6897553817
 31
0.0
  0
LINE
  5
29C
330
213
100
AcDbEntity
  8
0
  6
Continuous
 62
     7
100
AcDbLine
 10
471.2636392698
 20
365.8474602319
 30
0.0
 11
476.7985440826999
 21
365.750848109
 31
0.0
  0
LINE
  5
29D
330
213
100
AcDbEntity
  8
0
  6
Continuous
 62
     7
100
AcDbLine
 10
476.2618179151999
 20
481.7608580508
 30
0.0
 11
476.2094180505999
 21
482.7608580508
 31
0.0
  0
LINE
  5
29E
330
213
100
AcDbEntity
  8
AUSFORMSCHRAEGEN
  6
Continuous
 62
     9
100
AcDbLine
 10
479.6524197293
 20
481.7608580508
 30
0.0
 11
479.6000171458
 21
482.7608580508
 31
0.0
  0
LINE
  5
29F
330
213
100
AcDbEntity
  8
0
  6
Continuous
 62
     7
100
AcDbLine
 10
479.6526156861999
 20
481.7608580508
 30
0.0
 11
479.6002101823999
 21
482.7608580508
 31
0.0
  0
LINE
  5
2A0
330
213
100
AcDbEntity
  8
AUSFORMSCHRAEGEN
  6
Continuous
 62
     9
100
AcDbLine
 10
478.9913798200999
 20
481.7608580508
 30
0.0
 11
478.9543219239
 21
482.7608580508
 31
0.0
  0
LINE
  5
2A1
330
213
100
AcDbEntity
  8
0
  6
Continuous
 62
     7
100
AcDbLine
 10
483.7810916762999
 20
286.2608580508
 30
0.0
 11
483.7810916762999
 21
290.3118934841
 31
0.0
  0
LINE
  5
2A2
330
213
100
AcDbEntity
  8
0
  6
Continuous
 62
     7
100
AcDbLine
 10
561.0514145841
 20
373.0526373761
 30
0.0
 11
554.1599472625001
 21
372.6914708778
 31
0.0
  0
LINE
  5
2A3
330
213
100
AcDbEntity
  8
0
  6
Continuous
 62
     7
100
AcDbLine
 10
546.2287557199999
 20
377.783362645
 30
0.0
 11
558.7456102173
 21
378.4393431928
 31
0.0
  0
LINE
  5
2A4
330
213
100
AcDbEntity
  8
0
  6
Continuous
 62
     7
100
AcDbLine
 10
461.4022360899999
 20
372.6914708778
 30
0.0
 11
454.5107687683999
 21
373.0526373761
 31
0.0
  0
LINE
  5
2A5
330
213
100
AcDbEntity
  8
0
  6
Continuous
 62
     7
100
AcDbLine
 10
469.3334276325
 20
377.783362645
 30
0.0
 11
456.8165731351999
 21
378.4393431928
 31
0.0
  0
LINE
  5
2A6
330
213
100
AcDbEntity
  8
RUNDUNGEN
  6
Continuous
 62
     9
100
AcDbLine
 10
490.2982562461
 20
406.212724837
 30
0.0
 11
490.3014182609999
 21
403.1448310594
 31
0.0
  0
LINE
  5
2A7
330
213
100
AcDbEntity
  8
RUNDUNGEN
  6
Continuous
 62
     9
100
AcDbLine
 10
491.5383563377999
 20
406.216717715
 30
0.0
 11
491.5415206319
 21
403.1488156226999
 31
0.0
  0
LINE
  5
2A8
330
213
100
AcDbEntity
  8
RUNDUNGEN
  6
Continuous
 62
     9
100
AcDbLine
 10
492.8508536573999
 20
477.3657407684999
 30
0.0
 11
492.8508536573999
 21
480.7608580508
 31
0.0
  0
LINE
  5
2A9
330
213
100
AcDbEntity
  8
RUNDUNGEN
  6
Continuous
 62
     9
100
AcDbLine
 10
493.5834945145999
 20
477.3657416664
 30
0.0
 11
493.5834945145999
 21
480.7608580508
 31
0.0
  0
LINE
  5
2AA
330
213
100
AcDbEntity
  8
RUNDUNGEN
  6
Continuous
 62
     9
100
AcDbLine
 10
495.2863607437999
 20
477.2635906696
 30
0.0
 11
495.2863607437999
 21
480.7608580508
 31
0.0
  0
LINE
  5
2AB
330
213
100
AcDbEntity
  8
RUNDUNGEN
  6
Continuous
 62
     9
100
AcDbLine
 10
496.007669633
 20
401.2435553139999
 30
0.0
 11
496.007669633
 21
405.3118934841
 31
0.0
  0
LINE
  5
2AC
330
213
100
AcDbEntity
  8
RUNDUNGEN
  6
Continuous
 62
     9
100
AcDbLine
 10
496.0875893543
 20
477.2635915620999
 30
0.0
 11
496.0875893543
 21
480.7608580508
 31
0.0
  0
LINE
  5
2AD
330
213
100
AcDbEntity
  8
RUNDUNGEN
  6
Continuous
 62
     9
100
AcDbLine
 10
497.2111228485999
 20
401.2435553139999
 30
0.0
 11
497.2111228485999
 21
405.3118934841
 31
0.0
  0
LINE
  5
2AE
330
213
100
AcDbEntity
  8
RUNDUNGEN
  6
Continuous
 62
     9
100
AcDbLine
 10
492.8457920595
 20
460.7403225862999
 30
0.0
 11
492.8497130438
 21
464.1765371987
 31
0.0
  0
LINE
  5
2AF
330
213
100
AcDbEntity
  8
0
  6
Continuous
 62
     9
100
AcDbLine
 10
470.2810916763
 20
376.7847331102
 30
0.0
 11
545.2810916763
 21
376.7847331102
 31
0.0
  0
LINE
  5
2B0
330
213
100
AcDbEntity
  8
0
  6
Continuous
 62
     9
100
AcDbLine
 10
469.3334276325
 20
377.783362645
 30
0.0
 11
546.2287557199999
 21
377.783362645
 31
0.0
  0
LINE
  5
2B1
330
213
100
AcDbEntity
  8
RUNDUNGEN
  6
Continuous
 62
     9
100
AcDbLine
 10
496.6859512267999
 20
378.2034224565
 30
0.0
 11
518.8762321257
 21
378.2034224565
 31
0.0
  0
LINE
  5
2B2
330
213
100
AcDbEntity
  8
0
  6
Continuous
 62
     9
100
AcDbLine
 10
456.8165731351999
 20
378.4393431928
 30
0.0
 11
493.6261295645
 21
378.439343193
 31
0.0
  0
LINE
  5
2B3
330
213
100
AcDbEntity
  8
0
  6
Continuous
 62
     9
100
AcDbLine
 10
521.936053788
 20
378.439343193
 30
0.0
 11
558.7456102173
 21
378.4393431928
 31
0.0
  0
LINE
  5
2B4
330
213
100
AcDbEntity
  8
0
  6
Continuous
 62
     9
100
AcDbLine
 10
455.9779025673
 20
378.9839822278
 30
0.0
 11
493.3931959384999
 21
378.9839822271
 31
0.0
  0
LINE
  5
2B5
330
213
100
AcDbEntity
  8
0
  6
Continuous
 62
     9
100
AcDbLine
 10
522.1689874141
 20
378.9839822271
 30
0.0
 11
559.5842807852999
 21
378.9839822278
 31
0.0
  0
LINE
  5
2B6
330
213
100
AcDbEntity
  8
RUNDUNGEN
  6
Continuous
 62
     9
100
AcDbLine
 10
496.4640545187999
 20
379.0112429958
 30
0.0
 11
519.0981288748
 21
379.0112429958
 31
0.0
  0
LINE
  5
2B7
330
213
100
AcDbEntity
  8
0
  6
Continuous
 62
     7
100
AcDbLine
 10
499.7810916763
 20
481.7608580508
 30
0.0
 11
499.7810916763
 21
482.5608580507999
 31
0.0
  0
LINE
  5
2B8
330
213
100
AcDbEntity
  8
0
  6
Continuous
 62
     7
100
AcDbLine
 10
499.7810916763
 20
484.4608580508
 30
0.0
 11
499.7810916763
 21
494.4608580508
 31
0.0
  0
LINE
  5
2B9
330
213
100
AcDbEntity
  8
0
  6
Continuous
 62
     7
100
AcDbLine
 10
500.7810916762999
 20
494.4608580508
 30
0.0
 11
500.7810916762999
 21
502.4608580508
 31
0.0
  0
LINE
  5
2BA
330
213
100
AcDbEntity
  8
0
  6
Continuous
 62
     7
100
AcDbLine
 10
501.2810916762999
 20
483.5108580508
 30
0.0
 11
501.2810916762999
 21
484.4608580508
 31
0.0
  0
LINE
  5
2BB
330
213
100
AcDbEntity
  8
0
  6
Continuous
 62
     7
100
AcDbLine
 10
501.9810916762999
 20
483.5108580508
 30
0.0
 11
501.9810916762999
 21
483.3608580507999
 31
0.0
  0
LINE
  5
2BC
330
213
100
AcDbEntity
  8
0
  6
Continuous
 62
     7
100
AcDbLine
 10
507.7810916763
 20
484.3664115502999
 30
0.0
 11
507.7810916763
 21
484.4608580508
 31
0.0
  0
LINE
  5
2BD
330
213
100
AcDbEntity
  8
0
  6
CENTER
100
AcDbLine
 10
507.7810916763
 20
282.2608580508001
 30
0.0
 11
507.7810916763
 21
502.4608580508
 31
0.0
  0
LINE
  5
2BE
330
213
100
AcDbEntity
  8
0
  6
Continuous
 62
     7
100
AcDbLine
 10
513.5810916762999
 20
483.5108580508
 30
0.0
 11
513.5810916762999
 21
483.3608580507999
 31
0.0
  0
LINE
  5
2BF
330
213
100
AcDbEntity
  8
0
  6
Continuous
 62
     7
100
AcDbLine
 10
514.2810916762999
 20
483.5108580508
 30
0.0
 11
514.2810916762999
 21
484.4608580508
 31
0.0
  0
LINE
  5
2C0
330
213
100
AcDbEntity
  8
0
  6
Continuous
 62
     7
100
AcDbLine
 10
514.7810916762999
 20
494.4608580508
 30
0.0
 11
514.7810916762999
 21
502.4608580508
 31
0.0
  0
LINE
  5
2C1
330
213
100
AcDbEntity
  8
0
  6
Continuous
 62
     7
100
AcDbLine
 10
515.7810916763
 20
481.7608580508
 30
0.0
 11
515.7810916763
 21
482.5608580507999
 31
0.0
  0
LINE
  5
2C2
330
213
100
AcDbEntity
  8
0
  6
Continuous
 62
     7
100
AcDbLine
 10
515.7810916763
 20
484.4608580508
 30
0.0
 11
515.7810916763
 21
494.4608580508
 31
0.0
  0
LINE
  5
2C3
330
213
100
AcDbEntity
  8
RUNDUNGEN
  6
Continuous
 62
     9
100
AcDbLine
 10
518.3510605039
 20
405.3118934841
 30
0.0
 11
518.3510605039
 21
401.2435553139999
 31
0.0
  0
LINE
  5
2C4
330
213
100
AcDbEntity
  8
RUNDUNGEN
  6
Continuous
 62
     9
100
AcDbLine
 10
495.4977588531
 20
398.9688334833001
 30
0.0
 11
520.0644244998999
 21
398.9688334833001
 31
0.0
  0
LINE
  5
2C5
330
213
100
AcDbEntity
  8
RUNDUNGEN
  6
Continuous
 62
     9
100
AcDbLine
 10
495.7287329008
 20
400.1594901737999
 30
0.0
 11
519.8334504516999
 21
400.1594901737999
 31
0.0
  0
LINE
  5
2C6
330
213
100
AcDbEntity
  8
RUNDUNGEN
  6
Continuous
 62
     9
100
AcDbLine
 10
518.5844424686999
 20
400.2437076188
 30
0.0
 11
496.9777408837999
 21
400.2437076188
 31
0.0
  0
LINE
  5
2C7
330
213
100
AcDbEntity
  8
RUNDUNGEN
  6
Continuous
 62
     9
100
AcDbLine
 10
519.5545137195999
 20
401.2435553139999
 30
0.0
 11
496.007669633
 21
401.2435553139999
 31
0.0
  0
LINE
  5
2C8
330
213
100
AcDbEntity
  8
0
  6
Continuous
 62
     9
100
AcDbLine
 10
571.2069797153
 20
401.7948132502
 30
0.0
 11
525.1745089219
 21
401.7948132546999
 31
0.0
  0
LINE
  5
2C9
330
213
100
AcDbEntity
  8
0
  6
Continuous
 62
     9
100
AcDbLine
 10
490.3876744306
 20
401.7948132546999
 30
0.0
 11
444.3552036372
 21
401.7948132502
 31
0.0
  0
LINE
  5
2CA
330
213
100
AcDbEntity
  8
0
  6
Continuous
 62
     9
100
AcDbLine
 10
444.0282470249999
 20
403.1448310594
 30
0.0
 11
490.3014182609999
 21
403.1448310594
 31
0.0
  0
LINE
  5
2CB
330
213
100
AcDbEntity
  8
0
  6
Continuous
 62
     9
100
AcDbLine
 10
525.2607650915
 20
403.1448310594
 30
0.0
 11
571.5339363274999
 21
403.1448310594
 31
0.0
  0
LINE
  5
2CC
330
213
100
AcDbEntity
  8
RUNDUNGEN
  6
Continuous
 62
     9
100
AcDbLine
 10
522.7124703087
 20
464.1765371987
 30
0.0
 11
522.716391293
 21
460.7403225858999
 31
0.0
  0
LINE
  5
2CD
330
213
100
AcDbEntity
  8
RUNDUNGEN
  6
Continuous
 62
     9
100
AcDbLine
 10
519.4745939983
 20
480.7608580508
 30
0.0
 11
519.4745939983
 21
477.2635915641
 31
0.0
  0
LINE
  5
2CE
330
213
100
AcDbEntity
  8
RUNDUNGEN
  6
Continuous
 62
     9
100
AcDbLine
 10
519.5545137195999
 20
405.3118934841
 30
0.0
 11
519.5545137195999
 21
401.2435553139999
 31
0.0
  0
LINE
  5
2CF
330
213
100
AcDbEntity
  8
RUNDUNGEN
  6
Continuous
 62
     9
100
AcDbLine
 10
520.2758226088
 20
480.7608580508
 30
0.0
 11
520.2758226088
 21
477.2635904814999
 31
0.0
  0
LINE
  5
2D0
330
213
100
AcDbEntity
  8
RUNDUNGEN
  6
Continuous
 62
     9
100
AcDbLine
 10
521.9786888378999
 20
480.7608580508
 30
0.0
 11
521.9786888378999
 21
477.3657413548999
 31
0.0
  0
LINE
  5
2D1
330
213
100
AcDbEntity
  8
RUNDUNGEN
  6
Continuous
 62
     9
100
AcDbLine
 10
522.7113296951999
 20
480.7608580508
 30
0.0
 11
522.7113296951999
 21
477.3657407684999
 31
0.0
  0
LINE
  5
2D2
330
213
100
AcDbEntity
  8
RUNDUNGEN
  6
Continuous
 62
     9
100
AcDbLine
 10
524.0206627205999
 20
403.1488156226999
 30
0.0
 11
524.0238270148
 21
406.216717715
 31
0.0
  0
LINE
  5
2D3
330
213
100
AcDbEntity
  8
RUNDUNGEN
  6
Continuous
 62
     9
100
AcDbLine
 10
525.2607650915
 20
403.1448310594
 30
0.0
 11
525.2639271064
 21
406.2127248302999
 31
0.0
  0
LINE
  5
2D4
330
213
100
AcDbEntity
  8
RUNDUNGEN
  6
Continuous
 62
     9
100
AcDbLine
 10
519.5545137195999
 20
405.3118934841
 30
0.0
 11
496.007669633
 21
405.3118934841
 31
0.0
  0
LINE
  5
2D5
330
213
100
AcDbEntity
  8
RUNDUNGEN
  6
Continuous
 62
     9
100
AcDbLine
 10
518.5761566702
 20
406.3105230188999
 30
0.0
 11
496.9860266822999
 21
406.3105230188999
 31
0.0
  0
LINE
  5
2D6
330
213
100
AcDbEntity
  8
RUNDUNGEN
  6
Continuous
 62
     9
100
AcDbLine
 10
523.0745604143
 20
407.2212512908999
 30
0.0
 11
492.4876229383
 21
407.2212512908999
 31
0.0
  0
LINE
  5
2D7
330
213
100
AcDbEntity
  8
RUNDUNGEN
  6
Continuous
 62
     9
100
AcDbLine
 10
523.3050045213999
 20
408.2158962623
 30
0.0
 11
492.2571788311
 21
408.2158962623
 31
0.0
  0
LINE
  5
2D8
330
213
100
AcDbEntity
  8
0
  6
Continuous
 62
     7
100
AcDbLine
 10
531.7810916763
 20
286.2608580508
 30
0.0
 11
531.7810916763
 21
290.3118934841
 31
0.0
  0
LINE
  5
2D9
330
213
100
AcDbEntity
  8
0
  6
Continuous
 62
     7
100
AcDbLine
 10
537.7728688848
 20
292.523838355
 30
0.0
 11
537.7728688848
 21
297.8708038322
 31
0.0
  0
LINE
  5
2DA
330
213
100
AcDbEntity
  8
0
  6
Continuous
 62
     7
100
AcDbLine
 10
537.7810916762999
 20
360.7163949401
 30
0.0
 11
537.7810916762999
 21
364.7510004138
 31
0.0
  0
LINE
  5
2DB
330
213
100
AcDbEntity
  8
0
  6
Continuous
 62
     7
100
AcDbLine
 10
541.2810916763
 20
300.5451939244
 30
0.0
 11
541.2810916763
 21
358.6899076866
 31
0.0
  0
LINE
  5
2DC
330
213
100
AcDbEntity
  8
0
  6
Continuous
 62
     7
100
AcDbLine
 10
545.2810916763
 20
366.847307927
 30
0.0
 11
545.2810916763
 21
376.7847331102
 31
0.0
  0
LINE
  5
2DD
330
213
100
AcDbEntity
  8
AUSFORMSCHRAEGEN
  6
Continuous
 62
     7
100
AcDbLine
 10
552.5960852288999
 20
481.7608580508
 30
0.0
 11
552.6702010212
 21
482.7608580508
 31
0.0
  0
LINE
  5
2DE
330
213
100
AcDbEntity
  8
AUSFORMSCHRAEGEN
  6
Continuous
 62
     7
100
AcDbLine
 10
553.4112022867
 20
481.7608580508
 30
0.0
 11
553.4112022867
 21
482.7608580508
 31
0.0
  0
LINE
  5
2DF
330
213
100
AcDbEntity
  8
0
  6
Continuous
 62
     7
100
AcDbLine
 10
546.7982421082999
 20
286.2434056444
 30
0.0
 11
548.0657903271
 21
358.8611944667
 31
0.0
  0
LINE
  5
2E0
330
213
100
AcDbEntity
  8
AUSFORMSCHRAEGEN
  6
Continuous
 62
     9
100
AcDbLine
 10
557.9361096932
 20
481.7608580508
 30
0.0
 11
557.9731675894
 21
482.7608580508
 31
0.0
  0
LINE
  5
2E1
330
213
100
AcDbEntity
  8
0
  6
Continuous
 62
     7
100
AcDbLine
 10
557.3818141908
 20
482.7608580508
 30
0.0
 11
557.3294388109998
 21
481.7608580508
 31
0.0
  0
LINE
  5
2E2
330
213
100
AcDbEntity
  8
AUSFORMSCHRAEGEN
  6
Continuous
 62
     9
100
AcDbLine
 10
557.3327952587999
 20
481.7608580508
 30
0.0
 11
557.3850853221999
 21
482.7608580508
 31
0.0
  0
LINE
  5
2E3
330
213
100
AcDbEntity
  8
0
  6
Continuous
 62
     7
100
AcDbLine
 10
550.8900304416
 20
363.6950370792
 30
0.0
 11
551.3242629805001
 21
369.9048516948
 31
0.0
  0
LINE
  5
2E4
330
213
100
AcDbEntity
  8
AUSFORMSCHRAEGEN
  6
Continuous
 62
     7
100
AcDbLine
 10
555.7989477797
 20
481.7608580508
 30
0.0
 11
555.8730635719
 21
482.7608580508
 31
0.0
  0
LINE
  5
2E5
330
213
100
AcDbEntity
  8
AUSFORMSCHRAEGEN
  6
Continuous
 62
     7
100
AcDbLine
 10
560.0358280883999
 20
481.7608580508
 30
0.0
 11
560.1099438807
 21
482.7608580508
 31
0.0
  0
LINE
  5
2E6
330
213
100
AcDbEntity
  8
0
  6
Continuous
 62
     7
100
AcDbLine
 10
579.3691687714999
 20
446.6350684862
 30
0.0
 11
579.2305015460999
 21
446.3519502219
 31
0.0
  0
LINE
  5
2E7
330
213
100
AcDbEntity
  8
AUSFORMSCHRAEGEN
  6
Continuous
 62
     7
100
AcDbLine
 10
557.3715760885
 20
482.5653818418
 30
0.0
 11
557.3715760885
 21
482.7608580508
 31
0.0
  0
LINE
  5
2E8
330
213
100
AcDbEntity
  8
AUSFORMSCHRAEGEN
  6
Continuous
 62
     7
100
AcDbLine
 10
562.8268109414
 20
481.7608580508
 30
0.0
 11
562.8268109414
 21
482.7608580508
 31
0.0
  0
LINE
  5
2E9
330
213
100
AcDbEntity
  8
AUSFORMSCHRAEGEN
  6
Continuous
 62
     9
100
AcDbLine
 10
564.7076290630999
 20
481.7608580508
 30
0.0
 11
564.7446869592999
 21
482.7608580508
 31
0.0
  0
LINE
  5
2EA
330
213
100
AcDbEntity
  8
AUSFORMSCHRAEGEN
  6
Continuous
 62
     9
100
AcDbLine
 10
568.1236307977999
 20
481.7608580508
 30
0.0
 11
568.1606886938999
 21
482.7608580508
 31
0.0
  0
LINE
  5
2EB
330
213
100
AcDbEntity
  8
AUSFORMSCHRAEGEN
  6
Continuous
 62
     9
100
AcDbLine
 10
564.0624483062
 20
481.7608580508
 30
0.0
 11
564.1144622733999
 21
482.7608580508
 31
0.0
  0
LINE
  5
2EC
330
213
100
AcDbEntity
  8
0
  6
Continuous
 62
     7
100
AcDbLine
 10
567.6002733943
 20
482.7608580508
 30
0.0
 11
567.5480261689
 21
481.7608580508
 31
0.0
  0
LINE
  5
2ED
330
213
100
AcDbEntity
  8
0
  6
Continuous
 62
     7
100
AcDbLine
 10
564.1051417805
 20
482.7608580508
 30
0.0
 11
564.0527217505
 21
481.7608580508
 31
0.0
  0
LINE
  5
2EE
330
213
100
AcDbEntity
  8
0
  6
Continuous
 62
     7
100
AcDbLine
 10
559.5842807852999
 20
378.9839822278
 30
0.0
 11
571.2069797153
 21
401.7948132502
 31
0.0
  0
LINE
  5
2EF
330
213
100
AcDbEntity
  8
AUSFORMSCHRAEGEN
  6
Continuous
 62
     7
100
AcDbLine
 10
563.5468789744
 20
481.7608580508
 30
0.0
 11
563.4727631821
 21
482.7608580508
 31
0.0
  0
LINE
  5
2F0
330
213
100
AcDbEntity
  8
AUSFORMSCHRAEGEN
  6
Continuous
 62
     9
100
AcDbLine
 10
567.6887106376
 20
481.7608580508
 30
0.0
 11
567.6516527415
 21
482.7608580508
 31
0.0
  0
LINE
  5
2F1
330
213
100
AcDbEntity
  8
AUSFORMSCHRAEGEN
  6
Continuous
 62
     9
100
AcDbLine
 10
569.6732173791999
 20
481.7608580508
 30
0.0
 11
569.666090948
 21
482.7608580508
 31
0.0
  0
LINE
  5
2F2
330
213
100
AcDbEntity
  8
AUSFORMSCHRAEGEN
  6
Continuous
 62
     9
100
AcDbLine
 10
566.2024898059
 20
481.7608580508
 30
0.0
 11
566.2008356448
 21
482.7608580508
 31
0.0
  0
LINE
  5
2F3
330
213
100
AcDbEntity
  8
0
  6
Continuous
 62
     7
100
AcDbLine
 10
571.7810916762999
 20
477.3657407684999
 30
0.0
 11
571.7810916762999
 21
480.7608580508
 31
0.0
  0
LINE
  5
2F4
330
213
100
AcDbEntity
  8
0
  6
Continuous
 62
     7
100
AcDbLine
 10
571.5339363274999
 20
403.1448310594
 30
0.0
 11
571.7771229581
 21
464.1765371987
 31
0.0
  0
LINE
  5
2F5
330
213
100
AcDbEntity
  8
0
  6
Continuous
 62
     7
100
AcDbLine
 10
576.7249932787
 20
400.5097336841
 30
0.0
 11
563.567426288
 21
374.6865544812
 31
0.0
  0
LINE
  5
2F6
330
213
100
AcDbEntity
  8
RUNDUNGEN
  6
Continuous
 62
     9
100
AcDbLine
 10
494.3790149162
 20
458.9038717163999
 30
0.0
 11
521.1831684366
 21
458.9038717163999
 31
0.0
  0
LINE
  5
2F7
330
213
100
AcDbEntity
  8
RUNDUNGEN
  6
Continuous
 62
     9
100
AcDbLine
 10
494.3043482038
 20
459.6659315961
 30
0.0
 11
521.2578351487
 21
459.6659315961
 31
0.0
  0
LINE
  5
2F8
330
213
100
AcDbEntity
  8
0
  6
Continuous
 62
     7
100
AcDbLine
 10
573.0124199615
 20
481.7608580508
 30
0.0
 11
572.960917126
 21
482.7608580508
 31
0.0
  0
LINE
  5
2F9
330
213
100
AcDbEntity
  8
AUSFORMSCHRAEGEN
  6
Continuous
 62
     9
100
AcDbLine
 10
571.8391822361
 20
481.7608580508
 30
0.0
 11
571.8021243399999
 21
482.7608580508
 31
0.0
  0
LINE
  5
2FA
330
213
100
AcDbEntity
  8
0
  6
Continuous
 62
     7
100
AcDbLine
 10
578.7810916763
 20
466.2435553139999
 30
0.0
 11
578.7810916763
 21
475.2781607876999
 31
0.0
  0
LINE
  5
2FB
330
213
100
AcDbEntity
  8
0
  6
Continuous
 62
     7
100
AcDbLine
 10
578.7238779037998
 20
444.3271533687999
 30
0.0
 11
577.2669147929
 21
402.6051886993
 31
0.0
  0
LINE
  5
2FC
330
213
100
AcDbEntity
  8
0
  6
Continuous
 62
     7
100
AcDbLine
 10
580.1628061365
 20
456.8789583465
 30
0.0
 11
579.8757894516
 21
448.6598758628
 31
0.0
  0
LINE
  5
2FD
330
213
100
AcDbEntity
  8
0
  6
Continuous
 62
     7
100
AcDbLine
 10
584.6072792779
 20
462.4653955471999
 30
0.0
 11
585.0053816722
 21
473.865556541
 31
0.0
  0
LINE
  5
2FE
330
213
100
AcDbEntity
  8
0
  6
Continuous
 62
     7
100
AcDbLine
 10
573.7220778093
 20
465.1725526353
 30
0.0
 11
577.7985440826999
 21
465.2437076187999
 31
0.0
  0
LINE
  5
2FF
330
213
100
AcDbEntity
  8
RUNDUNGEN
  6
Continuous
 62
     9
100
AcDbLine
 10
493.5823234501
 20
464.1725526353
 30
0.0
 11
493.8625772646999
 21
464.1725526353
 31
0.0
  0
LINE
  5
300
330
213
100
AcDbEntity
  8
RUNDUNGEN
  6
Continuous
 62
     9
100
AcDbLine
 10
521.6996060878
 20
464.1725526353
 30
0.0
 11
521.9798599025
 21
464.1725526353
 31
0.0
  0
LINE
  5
301
330
213
100
AcDbEntity
  8
0
  6
Continuous
 62
     9
100
AcDbLine
 10
571.7771229581
 20
464.1765371987
 30
0.0
 11
522.7124703087
 21
464.1765371987
 31
0.0
  0
LINE
  5
302
330
213
100
AcDbEntity
  8
0
  6
Continuous
 62
     9
100
AcDbLine
 10
492.8497130438
 20
464.1765371987
 30
0.0
 11
443.7850603944
 21
464.1765371987
 31
0.0
  0
LINE
  5
303
330
213
100
AcDbEntity
  8
RUNDUNGEN
  6
Continuous
 62
     9
100
AcDbLine
 10
520.1251136232
 20
464.9611212658999
 30
0.0
 11
495.4370942619
 21
464.9611212658999
 31
0.0
  0
LINE
  5
304
330
213
100
AcDbEntity
  8
0
  6
Continuous
 62
     7
100
AcDbLine
 10
441.8401055432
 20
465.1725526353
 30
0.0
 11
492.8940922394
 21
465.1725526353
 31
0.0
  0
LINE
  5
305
330
213
100
AcDbEntity
  8
RUNDUNGEN
  6
Continuous
 62
     7
100
AcDbLine
 10
492.6163753333
 20
465.1725526353
 30
0.0
 11
492.8940356204
 21
465.1725526353
 31
0.0
  0
LINE
  5
306
330
213
100
AcDbEntity
  8
RUNDUNGEN
  6
Continuous
 62
     7
100
AcDbLine
 10
522.6681477286
 20
465.1725526353
 30
0.0
 11
522.9458079808
 21
465.1725526353
 31
0.0
  0
LINE
  5
307
330
213
100
AcDbEntity
  8
0
  6
Continuous
 62
     7
100
AcDbLine
 10
522.9458079808
 20
465.1725526353
 30
0.0
 11
573.7220778093
 21
465.1725526353
 31
0.0
  0
LINE
  5
308
330
213
100
AcDbEntity
  8
0
  6
Continuous
 62
     9
100
AcDbLine
 10
577.7985440826999
 20
465.2437076187999
 30
0.0
 11
521.4740120373
 21
465.2437076187999
 31
0.0
  0
LINE
  5
309
330
213
100
AcDbEntity
  8
0
  6
Continuous
 62
     9
100
AcDbLine
 10
494.0881724700999
 20
465.2437076187999
 30
0.0
 11
437.7636392698
 21
465.2437076187999
 31
0.0
  0
LINE
  5
30A
330
213
100
AcDbEntity
  8
RUNDUNGEN
  6
Continuous
 62
     9
100
AcDbLine
 10
520.1877968115
 20
465.7271657089999
 30
0.0
 11
495.3745296133999
 21
465.7271657089999
 31
0.0
  0
LINE
  5
30B
330
213
100
AcDbEntity
  8
0
  6
Continuous
 62
     9
100
AcDbLine
 10
578.7810916763
 20
466.2435553139999
 30
0.0
 11
521.6660433711999
 21
466.2435553139999
 31
0.0
  0
LINE
  5
30C
330
213
100
AcDbEntity
  8
0
  6
Continuous
 62
     9
100
AcDbLine
 10
493.8961399526
 20
466.2435553139999
 30
0.0
 11
436.7810916763
 21
466.2435553139999
 31
0.0
  0
LINE
  5
30D
330
213
100
AcDbEntity
  8
0
  6
Continuous
 62
     7
100
AcDbLine
 10
441.8401055432
 20
465.1725526353
 30
0.0
 11
437.7636392698
 21
465.2437076187999
 31
0.0
  0
LINE
  5
30E
330
213
100
AcDbEntity
  8
0
  6
Continuous
 62
     7
100
AcDbLine
 10
514.9810916763
 20
483.3608580507999
 30
0.0
 11
515.7810916763
 21
482.5608580507999
 31
0.0
  0
LINE
  5
30F
330
213
100
AcDbEntity
  8
0
  6
Continuous
 62
     7
100
AcDbLine
 10
437.7636392698
 20
476.2780084829
 30
0.0
 11
442.7985440826999
 21
476.3658930733
 31
0.0
  0
LINE
  5
310
330
213
100
AcDbEntity
  8
0
  6
Continuous
 62
     9
100
AcDbLine
 10
578.7810916763
 20
475.2781607876999
 30
0.0
 11
521.6660434056999
 21
475.2781607876999
 31
0.0
  0
LINE
  5
311
330
213
100
AcDbEntity
  8
0
  6
Continuous
 62
     9
100
AcDbLine
 10
493.8961399491
 20
475.2781607876999
 30
0.0
 11
436.7810916763
 21
475.2781607876999
 31
0.0
  0
LINE
  5
312
330
213
100
AcDbEntity
  8
0
  6
Continuous
 62
     9
100
AcDbLine
 10
437.7636392698
 20
476.2780084829
 30
0.0
 11
494.0879533930999
 21
476.2780084829
 31
0.0
  0
LINE
  5
313
330
213
100
AcDbEntity
  8
0
  6
Continuous
 62
     9
100
AcDbLine
 10
521.4742627451999
 20
476.2780084829
 30
0.0
 11
577.7985440826999
 21
476.2780084829
 31
0.0
  0
LINE
  5
314
330
213
100
AcDbEntity
  8
0
  6
Continuous
 62
     9
100
AcDbLine
 10
442.7985440826999
 20
476.3658930733
 30
0.0
 11
492.6218655191
 21
476.3658930733
 31
0.0
  0
LINE
  5
315
330
213
100
AcDbEntity
  8
0
  6
Continuous
 62
     9
100
AcDbLine
 10
522.9403826582999
 20
476.3658930733
 30
0.0
 11
572.7636392698
 21
476.3658930733
 31
0.0
  0
LINE
  5
316
330
213
100
AcDbEntity
  8
0
  6
Continuous
 62
     7
100
AcDbLine
 10
419.7810916763
 20
476.7608580508
 30
0.0
 11
427.5586291993
 21
476.7608580508
 31
0.0
  0
LINE
  5
317
330
213
100
AcDbEntity
  8
0
  6
Continuous
 62
     7
100
AcDbLine
 10
588.0035541532
 20
476.7608580508
 30
0.0
 11
595.7810916763
 21
476.7608580508
 31
0.0
  0
LINE
  5
318
330
213
100
AcDbEntity
  8
RUNDUNGEN
  6
Continuous
 62
     9
100
AcDbLine
 10
495.2863607437999
 20
477.2635915618
 30
0.0
 11
496.0875893543
 21
477.2635915612
 31
0.0
  0
LINE
  5
319
330
213
100
AcDbEntity
  8
RUNDUNGEN
  6
Continuous
 62
     9
100
AcDbLine
 10
519.4745939983
 20
477.2635915632
 30
0.0
 11
520.2758226088
 21
477.2635915637
 31
0.0
  0
LINE
  5
31A
330
213
100
AcDbEntity
  8
0
  6
Continuous
 62
     9
100
AcDbLine
 10
443.7810916762999
 20
477.3657407684999
 30
0.0
 11
492.8508536573999
 21
477.3657407684999
 31
0.0
  0
LINE
  5
31B
330
213
100
AcDbEntity
  8
RUNDUNGEN
  6
Continuous
 62
     9
100
AcDbLine
 10
492.8508536573999
 20
477.3657407684999
 30
0.0
 11
493.5834945145999
 21
477.3657407684999
 31
0.0
  0
LINE
  5
31C
330
213
100
AcDbEntity
  8
RUNDUNGEN
  6
Continuous
 62
     9
100
AcDbLine
 10
521.9786888378999
 20
477.3657407684999
 30
0.0
 11
522.7113296951999
 21
477.3657407684999
 31
0.0
  0
LINE
  5
31D
330
213
100
AcDbEntity
  8
0
  6
Continuous
 62
     9
100
AcDbLine
 10
522.7113296951999
 20
477.3657407684999
 30
0.0
 11
571.7810916762999
 21
477.3657407684999
 31
0.0
  0
LINE
  5
31E
330
213
100
AcDbEntity
  8
0
  6
Continuous
 62
     7
100
AcDbLine
 10
577.7985440826999
 20
476.2780084829
 30
0.0
 11
572.7636392698
 21
476.3658930733
 31
0.0
  0
LINE
  5
31F
330
213
100
AcDbEntity
  8
0
  6
Continuous
 62
     7
100
AcDbLine
 10
597.7810916762999
 20
478.7608580508
 30
0.0
 11
597.7810916762999
 21
479.7608580508
 31
0.0
  0
LINE
  5
320
330
213
100
AcDbEntity
  8
0
  6
Continuous
 62
     9
100
AcDbLine
 10
571.7810916762999
 20
480.7608580508
 30
0.0
 11
522.7113296951999
 21
480.7608580508
 31
0.0
  0
LINE
  5
321
330
213
100
AcDbEntity
  8
RUNDUNGEN
  6
Continuous
 62
     9
100
AcDbLine
 10
522.7113296951999
 20
480.7608580508
 30
0.0
 11
492.8508536573999
 21
480.7608580508
 31
0.0
  0
LINE
  5
322
330
213
100
AcDbEntity
  8
0
  6
Continuous
 62
     9
100
AcDbLine
 10
492.8508536573999
 20
480.7608580508
 30
0.0
 11
443.7810916762999
 21
480.7608580508
 31
0.0
  0
LINE
  5
323
330
213
100
AcDbEntity
  8
0
  6
Continuous
 62
     7
100
AcDbLine
 10
595.7810916763
 20
481.7608580508
 30
0.0
 11
522.9446146642
 21
481.7608580508
 31
0.0
  0
LINE
  5
324
330
213
100
AcDbEntity
  8
RUNDUNGEN
  6
Continuous
 62
     7
100
AcDbLine
 10
522.9446146642
 20
481.7608580508
 30
0.0
 11
492.6175686883
 21
481.7608580508
 31
0.0
  0
LINE
  5
325
330
213
100
AcDbEntity
  8
0
  6
Continuous
 62
     7
100
AcDbLine
 10
492.6175686883
 20
481.7608580508
 30
0.0
 11
419.7810916763
 21
481.7608580508
 31
0.0
  0
LINE
  5
326
330
213
100
AcDbEntity
  8
0
  6
Continuous
 62
     7
100
AcDbLine
 10
499.7810916763
 20
482.5608580507999
 30
0.0
 11
515.7810916763
 21
482.5608580507999
 31
0.0
  0
LINE
  5
327
330
213
100
AcDbEntity
  8
AUSFORMSCHRAEGEN
  6
Continuous
 62
     7
100
AcDbLine
 10
434.7467482662999
 20
482.7608580508
 30
0.0
 11
469.3893223918999
 21
482.7608580508
 31
0.0
  0
LINE
  5
328
330
213
100
AcDbEntity
  8
AUSFORMSCHRAEGEN
  6
Continuous
 62
     7
100
AcDbLine
 10
469.4490827891999
 20
482.7608580508
 30
0.0
 11
473.4735482482999
 21
482.7608580508
 31
0.0
  0
LINE
  5
329
330
213
100
AcDbEntity
  8
AUSFORMSCHRAEGEN
  6
Continuous
 62
     7
100
AcDbLine
 10
473.5955003345999
 20
482.7608580508
 30
0.0
 11
476.2100225458
 21
482.7608580508
 31
0.0
  0
LINE
  5
32A
330
213
100
AcDbEntity
  8
AUSFORMSCHRAEGEN
  6
Continuous
 62
     7
100
AcDbLine
 10
476.2140257123
 20
482.7608580508
 30
0.0
 11
479.6000171458
 21
482.7608580508
 31
0.0
  0
LINE
  5
32B
330
213
100
AcDbEntity
  8
AUSFORMSCHRAEGEN
  6
Continuous
 62
     7
100
AcDbLine
 10
552.6702010212
 20
482.7608580508
 30
0.0
 11
572.9608174412999
 21
482.7608580508
 31
0.0
  0
LINE
  5
32C
330
213
100
AcDbEntity
  8
0
  6
Continuous
 62
     7
100
AcDbLine
 10
500.5810916763
 20
483.3608580507999
 30
0.0
 11
514.9810916763
 21
483.3608580507999
 31
0.0
  0
LINE
  5
32D
330
213
100
AcDbEntity
  8
0
  6
Continuous
 62
     7
100
AcDbLine
 10
501.2810916762999
 20
483.5108580508
 30
0.0
 11
514.2810916762999
 21
483.5108580508
 31
0.0
  0
LINE
  5
32E
330
213
100
AcDbEntity
  8
0
  6
Continuous
 62
     7
100
AcDbLine
 10
499.7810916763
 20
484.4608580508
 30
0.0
 11
515.7810916763
 21
484.4608580508
 31
0.0
  0
LINE
  5
32F
330
213
100
AcDbEntity
  8
0
  6
Continuous
 62
     7
100
AcDbLine
 10
538.4319528198
 20
298.8108975704
 30
0.0
 11
540.6220077412999
 21
299.6051001862
 31
0.0
  0
LINE
  5
330
330
213
100
AcDbEntity
  8
0
  6
Continuous
 62
     7
100
AcDbLine
 10
499.7810916763
 20
494.4608580508
 30
0.0
 11
515.7810916763
 21
494.4608580508
 31
0.0
  0
LINE
  5
331
330
213
100
AcDbEntity
  8
0
  6
Continuous
 62
     7
100
AcDbLine
 10
500.7810916762999
 20
502.4608580508
 30
0.0
 11
514.7810916762999
 21
502.4608580508
 31
0.0
  0
ARC
  5
332
330
213
100
AcDbEntity
  8
0
  6
Continuous
 62
     7
100
AcDbCircle
 10
443.2922226948
 20
402.7796861827999
 30
0.0
 40
5.0
100
AcDbArc
 50
182.0
 51
207.0
  0
ARC
  5
333
330
213
100
AcDbEntity
  8
0
  6
Continuous
 62
     7
100
AcDbCircle
 10
431.8413515914
 20
444.1526516748
 30
0.0
 40
4.9999999914
100
AcDbArc
 50
1.9999529889
 51
26.0949240824
  0
ARC
  5
334
330
213
100
AcDbEntity
  8
0
  6
Continuous
 62
     7
100
AcDbCircle
 10
440.6833483008999
 20
448.8343691158
 30
0.0
 40
4.999999987899999
100
AcDbArc
 50
182.0000458516
 51
206.0949656606
  0
ARC
  5
335
330
213
100
AcDbEntity
  8
0
  6
Continuous
 62
     7
100
AcDbCircle
 10
427.5586291993
 20
473.7608580508
 30
0.0
 40
3.0
100
AcDbArc
 50
2.0
 51
90.0
  0
ARC
  5
336
330
213
100
AcDbEntity
  8
0
  6
Continuous
 62
     7
100
AcDbCircle
 10
447.0282232098
 20
403.1567847495
 30
0.0
 40
3.0
100
AcDbArc
 50
180.2282992679
 51
207.0
  0
ARC
  5
337
330
213
100
AcDbEntity
  8
0
  6
Continuous
 62
     7
100
AcDbCircle
 10
432.401204735
 20
456.7742598564
 30
0.0
 40
3.0
100
AcDbArc
 50
2.0
 51
75.01030557819999
  0
ARC
  5
338
330
213
100
AcDbEntity
  8
0
  6
Continuous
 62
     7
100
AcDbCircle
 10
461.2452282212999
 20
369.6955822735
 30
0.0
 40
3.0
100
AcDbArc
 50
4.0
 51
87.0
  0
ARC
  5
339
330
213
100
AcDbEntity
  8
0
  6
Continuous
 62
     7
100
AcDbCircle
 10
454.6677766371
 20
376.0485259804
 30
0.0
 40
3.0
100
AcDbArc
 50
207.0
 51
267.0
  0
ARC
  5
33A
330
213
100
AcDbEntity
  8
0
  6
Continuous
 62
     7
100
AcDbCircle
 10
467.6648450616999
 20
363.9043065004
 30
0.0
 40
3.0
100
AcDbArc
 50
184.0
 51
238.1296326317
  0
ARC
  5
33B
330
213
100
AcDbEntity
  8
0
  6
Continuous
 62
     7
100
AcDbCircle
 10
464.4968499398999
 20
358.8088372474
 30
0.0
 40
3.0
100
AcDbArc
 50
1.0
 51
58.1296326317
  0
ARC
  5
33C
330
213
100
AcDbEntity
  8
0
  6
Continuous
 62
     7
100
AcDbCircle
 10
433.9530765556999
 20
462.5700940373
 30
0.0
 40
3.0
100
AcDbArc
 50
182.0
 51
255.0103055782
  0
ARC
  5
33D
330
213
100
AcDbEntity
  8
0
  6
Continuous
 62
     7
100
AcDbCircle
 10
419.7810916763
 20
479.7608580508
 30
0.0
 40
2.0
100
AcDbArc
 50
90.0
 51
180.0
  0
ARC
  5
33E
330
213
100
AcDbEntity
  8
0
  6
Continuous
 62
     7
100
AcDbCircle
 10
419.7810916763
 20
478.7608580508
 30
0.0
 40
2.0
100
AcDbArc
 50
180.0
 51
270.0
  0
ARC
  5
33F
330
213
100
AcDbEntity
  8
0
  6
Continuous
 62
     7
100
AcDbCircle
 10
469.7637889394
 20
286.2608580508
 30
0.0
 40
1.0
100
AcDbArc
 50
181.0
 51
270.0
  0
ARC
  5
340
330
213
100
AcDbEntity
  8
0
  6
Continuous
 62
     7
100
AcDbCircle
 10
471.2810916762999
 20
366.847307927
 30
0.0
 40
1.0
100
AcDbArc
 50
180.0
 51
269.0000000007
  0
ARC
  5
341
330
213
100
AcDbEntity
  8
0
  6
Continuous
 62
     7
100
AcDbCircle
 10
475.2810916762999
 20
358.6899076866
 30
0.0
 40
1.0
100
AcDbArc
 50
90.99999999940001
 51
180.0
  0
ARC
  5
342
330
213
100
AcDbEntity
  8
0
  6
Continuous
 62
     7
100
AcDbCircle
 10
476.7810916762999
 20
364.7510004138
 30
0.0
 40
1.0
100
AcDbArc
 50
0.0
 51
89.0
  0
ARC
  5
343
330
213
100
AcDbEntity
  8
0
  6
Continuous
 62
     7
100
AcDbCircle
 10
476.7810916762999
 20
360.7163949401
 30
0.0
 40
1.0
100
AcDbArc
 50
271.0
 51
360.0
  0
ARC
  5
344
330
213
100
AcDbEntity
  8
0
  6
Continuous
 62
     7
100
AcDbCircle
 10
456.8689090914999
 20
379.4379727276
 30
0.0
 40
1.0
100
AcDbArc
 50
207.0
 51
267.0
  0
ARC
  5
345
330
213
100
AcDbEntity
  8
0
  6
Continuous
 62
     7
100
AcDbCircle
 10
469.2810916763
 20
376.7847331102
 30
0.0
 40
1.0
100
AcDbArc
 50
0.0
 51
87.0
  0
ARC
  5
346
330
213
100
AcDbEntity
  8
0
  6
Continuous
 62
     7
100
AcDbCircle
 10
442.7810916762999
 20
477.3657407684999
 30
0.0
 40
1.0
100
AcDbArc
 50
271.0
 51
360.0
  0
ARC
  5
347
330
213
100
AcDbEntity
  8
0
  6
Continuous
 62
     7
100
AcDbCircle
 10
437.7810916762999
 20
475.2781607876999
 30
0.0
 40
1.0
100
AcDbArc
 50
91.0
 51
180.0
  0
ARC
  5
348
330
213
100
AcDbEntity
  8
0
  6
Continuous
 62
     7
100
AcDbCircle
 10
442.7810916762999
 20
480.7608580508
 30
0.0
 40
1.0
100
AcDbArc
 50
0.0
 51
90.0
  0
ARC
  5
349
330
213
100
AcDbEntity
  8
0
  6
Continuous
 62
     7
100
AcDbCircle
 10
437.7810916762999
 20
466.2435553139999
 30
0.0
 40
1.0
100
AcDbArc
 50
180.0
 51
269.0
  0
ARC
  5
34A
330
213
100
AcDbEntity
  8
0
  6
Continuous
 62
     7
100
AcDbCircle
 10
442.7850683327999
 20
464.1725526353
 30
0.0
 40
1.0
100
AcDbArc
 50
0.2282992679
 51
90.0
  0
ARC
  5
34B
330
213
100
AcDbEntity
  8
0
  6
Continuous
 62
     7
100
AcDbCircle
 10
478.7893144676999
 20
292.523838355
 30
0.0
 40
1.0
100
AcDbArc
 50
180.0
 51
267.0000000004
  0
ARC
  5
34C
330
213
100
AcDbEntity
  8
0
  6
Continuous
 62
     7
100
AcDbCircle
 10
475.2810916762999
 20
300.5451939244
 30
0.0
 40
1.0
100
AcDbArc
 50
180.0
 51
250.0673044801
  0
ARC
  5
34D
330
213
100
AcDbEntity
  8
0
  6
Continuous
 62
     7
100
AcDbCircle
 10
482.7810916763
 20
290.3118934841
 30
0.0
 40
1.0
100
AcDbArc
 50
0.0
 51
87.0
  0
ARC
  5
34E
330
213
100
AcDbEntity
  8
0
  6
Continuous
 62
     7
100
AcDbCircle
 10
482.7810916763
 20
286.2608580508
 30
0.0
 40
1.0
100
AcDbArc
 50
270.0
 51
360.0
  0
ARC
  5
34F
330
213
100
AcDbEntity
  8
0
  6
Continuous
 62
     7
100
AcDbCircle
 10
476.7893144677
 20
297.8708038322
 30
0.0
 40
1.0
100
AcDbArc
 50
0.0
 51
70.06730447949999
  0
ARC
  5
350
330
213
100
AcDbEntity
  8
RUNDUNGEN
  6
Continuous
 62
     9
100
AcDbCircle
 10
492.6162254984999
 20
464.238595762
 30
0.0
 40
0.9339568891999999
100
AcDbArc
 50
83.3398739046
 51
89.9894405705
  0
ARC
  5
351
330
213
100
AcDbEntity
  8
RUNDUNGEN
  6
Continuous
 62
     9
100
AcDbCircle
 10
-278.2965186541
 20
727.6506123314999
 30
0.0
 40
816.7214708641001
100
AcDbArc
 50
340.9246157316
 51
341.1835481745
  0
ARC
  5
352
330
213
100
AcDbEntity
  8
RUNDUNGEN
  6
Continuous
 62
     9
100
AcDbCircle
 10
-179.6246835482
 20
697.0258638024001
 30
0.0
 40
714.5068769824
100
AcDbArc
 50
340.5975753854
 51
340.9199283669
  0
ARC
  5
353
330
213
100
AcDbEntity
  8
0
  6
Continuous
 62
     7
100
AcDbCircle
 10
572.2699606577999
 20
402.7796861827999
 30
0.0
 40
5.0
100
AcDbArc
 50
333.0
 51
358.0
  0
ARC
  5
354
330
213
100
AcDbEntity
  8
0
  6
Continuous
 62
     7
100
AcDbCircle
 10
583.7208316365
 20
444.1526470030999
 30
0.0
 40
4.999999993899999
100
AcDbArc
 50
153.9050089946
 51
178.0000009064
  0
ARC
  5
355
330
213
100
AcDbEntity
  8
0
  6
Continuous
 62
     7
100
AcDbCircle
 10
574.878834928
 20
448.8343644885
 30
0.0
 40
4.999999986999999
100
AcDbArc
 50
333.9051021735
 51
357.9999997816
  0
ARC
  5
356
330
213
100
AcDbEntity
  8
0
  6
Continuous
 62
     7
100
AcDbCircle
 10
588.0035541532
 20
473.7608580508
 30
0.0
 40
3.0
100
AcDbArc
 50
90.0
 51
178.0
  0
ARC
  5
357
330
213
100
AcDbEntity
  8
0
  6
Continuous
 62
     7
100
AcDbCircle
 10
568.5339601426999
 20
403.1567847495
 30
0.0
 40
3.0
100
AcDbArc
 50
333.0
 51
359.7717007321
  0
ARC
  5
358
330
213
100
AcDbEntity
  8
0
  6
Continuous
 62
     7
100
AcDbCircle
 10
583.1609786175
 20
456.7742598564
 30
0.0
 40
3.0
100
AcDbArc
 50
104.9896944218
 51
178.0
  0
ARC
  5
359
330
213
100
AcDbEntity
  8
0
  6
Continuous
 62
     7
100
AcDbCircle
 10
554.3169551313
 20
369.6955822735
 30
0.0
 40
3.0
100
AcDbArc
 50
93.0
 51
176.0
  0
ARC
  5
35A
330
213
100
AcDbEntity
  8
0
  6
Continuous
 62
     7
100
AcDbCircle
 10
560.8944067153999
 20
376.0485259804
 30
0.0
 40
3.0
100
AcDbArc
 50
273.0
 51
333.0
  0
ARC
  5
35B
330
213
100
AcDbEntity
  8
0
  6
Continuous
 62
     7
100
AcDbCircle
 10
547.8973382908999
 20
363.9043065004
 30
0.0
 40
3.0
100
AcDbArc
 50
301.8703673683
 51
356.0
  0
ARC
  5
35C
330
213
100
AcDbEntity
  8
0
  6
Continuous
 62
     7
100
AcDbCircle
 10
551.0653334126
 20
358.8088372474
 30
0.0
 40
3.0
100
AcDbArc
 50
121.8703673683
 51
179.0
  0
ARC
  5
35D
330
213
100
AcDbEntity
  8
0
  6
Continuous
 62
     7
100
AcDbCircle
 10
581.6091067969
 20
462.5700940373
 30
0.0
 40
3.0
100
AcDbArc
 50
284.9896944218
 51
358.0
  0
ARC
  5
35E
330
213
100
AcDbEntity
  8
0
  6
Continuous
 62
     7
100
AcDbCircle
 10
595.7810916763
 20
478.7608580508
 30
0.0
 40
2.0
100
AcDbArc
 50
270.0
 51
360.0
  0
ARC
  5
35F
330
213
100
AcDbEntity
  8
0
  6
Continuous
 62
     7
100
AcDbCircle
 10
595.7810916763
 20
479.7608580508
 30
0.0
 40
2.0
100
AcDbArc
 50
0.0
 51
90.0
  0
ARC
  5
360
330
213
100
AcDbEntity
  8
RUNDUNGEN
  6
Continuous
 62
     9
100
AcDbCircle
 10
495.4977776176
 20
400.9390912381999
 30
0.0
 40
1.9702577549
100
AcDbArc
 50
268.9356347749
 51
269.9994543224
  0
ARC
  5
361
330
213
100
AcDbEntity
  8
RUNDUNGEN
  6
Continuous
 62
     9
100
AcDbCircle
 10
520.0644195741
 20
400.9364374476
 30
0.0
 40
1.9676039643
100
AcDbArc
 50
270.0001434374
 51
271.0641347822
  0
ARC
  5
362
330
213
100
AcDbEntity
  8
0
  6
Continuous
 62
     7
100
AcDbCircle
 10
545.7983944131999
 20
286.2608580508
 30
0.0
 40
1.0
100
AcDbArc
 50
270.0
 51
359.0
  0
ARC
  5
363
330
213
100
AcDbEntity
  8
0
  6
Continuous
 62
     7
100
AcDbCircle
 10
544.2810916763
 20
366.847307927
 30
0.0
 40
1.0
100
AcDbArc
 50
270.9999999993
 51
360.0
  0
ARC
  5
364
330
213
100
AcDbEntity
  8
0
  6
Continuous
 62
     7
100
AcDbCircle
 10
540.2810916763
 20
358.6899076866
 30
0.0
 40
1.0
100
AcDbArc
 50
0.0
 51
89.0000000006
  0
ARC
  5
365
330
213
100
AcDbEntity
  8
0
  6
Continuous
 62
     7
100
AcDbCircle
 10
538.7810916762999
 20
364.7510004138
 30
0.0
 40
1.0
100
AcDbArc
 50
91.0
 51
180.0
  0
ARC
  5
366
330
213
100
AcDbEntity
  8
0
  6
Continuous
 62
     7
100
AcDbCircle
 10
538.7810916762999
 20
360.7163949401
 30
0.0
 40
1.0
100
AcDbArc
 50
180.0
 51
269.0
  0
ARC
  5
367
330
213
100
AcDbEntity
  8
0
  6
Continuous
 62
     7
100
AcDbCircle
 10
558.6932742611
 20
379.4379727276
 30
0.0
 40
1.0
100
AcDbArc
 50
273.0
 51
333.0
  0
ARC
  5
368
330
213
100
AcDbEntity
  8
0
  6
Continuous
 62
     7
100
AcDbCircle
 10
546.2810916762999
 20
376.7847331102
 30
0.0
 40
1.0
100
AcDbArc
 50
93.0
 51
180.0
  0
ARC
  5
369
330
213
100
AcDbEntity
  8
0
  6
Continuous
 62
     7
100
AcDbCircle
 10
572.7810916762999
 20
477.3657407684999
 30
0.0
 40
1.0
100
AcDbArc
 50
180.0
 51
269.0
  0
ARC
  5
36A
330
213
100
AcDbEntity
  8
0
  6
Continuous
 62
     7
100
AcDbCircle
 10
577.7810916763
 20
475.2781607876999
 30
0.0
 40
1.0
100
AcDbArc
 50
0.0
 51
89.0
  0
ARC
  5
36B
330
213
100
AcDbEntity
  8
0
  6
Continuous
 62
     7
100
AcDbCircle
 10
572.7810916762999
 20
480.7608580508
 30
0.0
 40
1.0
100
AcDbArc
 50
90.0
 51
180.0
  0
ARC
  5
36C
330
213
100
AcDbEntity
  8
0
  6
Continuous
 62
     7
100
AcDbCircle
 10
572.7771150196999
 20
464.1725526353
 30
0.0
 40
1.0
100
AcDbArc
 50
90.0
 51
179.7717007321
  0
ARC
  5
36D
330
213
100
AcDbEntity
  8
0
  6
Continuous
 62
     7
100
AcDbCircle
 10
577.7810916763
 20
466.2435553139999
 30
0.0
 40
1.0
100
AcDbArc
 50
271.0
 51
360.0
  0
ARC
  5
36E
330
213
100
AcDbEntity
  8
0
  6
Continuous
 62
     7
100
AcDbCircle
 10
536.7728688848
 20
292.523838355
 30
0.0
 40
1.0
100
AcDbArc
 50
272.9999999996
 51
360.0
  0
ARC
  5
36F
330
213
100
AcDbEntity
  8
0
  6
Continuous
 62
     7
100
AcDbCircle
 10
540.2810916763
 20
300.5451939244
 30
0.0
 40
1.0
100
AcDbArc
 50
289.9326955199
 51
360.0
  0
ARC
  5
370
330
213
100
AcDbEntity
  8
0
  6
Continuous
 62
     7
100
AcDbCircle
 10
532.7810916763
 20
290.3118934841
 30
0.0
 40
1.0
100
AcDbArc
 50
93.0
 51
180.0
  0
ARC
  5
371
330
213
100
AcDbEntity
  8
0
  6
Continuous
 62
     7
100
AcDbCircle
 10
532.7810916763
 20
286.2608580508
 30
0.0
 40
1.0
100
AcDbArc
 50
180.0
 51
270.0
  0
ARC
  5
372
330
213
100
AcDbEntity
  8
0
  6
Continuous
 62
     7
100
AcDbCircle
 10
538.7728688848
 20
297.8708038322
 30
0.0
 40
1.0
100
AcDbArc
 50
109.9326955205
 51
180.0
  0
ARC
  5
373
330
213
100
AcDbEntity
  8
RUNDUNGEN
  6
Continuous
 62
     9
100
AcDbCircle
 10
495.7284162302999
 20
401.1191243523
 30
0.0
 40
0.9596343823000001
100
AcDbArc
 50
268.9443686606
 51
270.0199299921
  0
ARC
  5
374
330
213
100
AcDbEntity
  8
RUNDUNGEN
  6
Continuous
 62
     9
100
AcDbCircle
 10
519.8337624912999
 20
401.1189949361
 30
0.0
 40
0.9595048866999999
100
AcDbArc
 50
269.9803438639
 51
271.0560502598
  0
ARC
  5
375
330
213
100
AcDbEntity
  8
RUNDUNGEN
  6
Continuous
 62
     9
100
AcDbCircle
 10
1265.7877667802
 20
718.0146424285001
 30
0.0
 40
787.0427806386999
100
AcDbArc
 50
198.8115697615
 51
199.0802663352
  0
ARC
  5
376
330
213
100
AcDbEntity
  8
RUNDUNGEN
  6
Continuous
 62
     9
100
AcDbCircle
 10
1184.3612314155
 20
693.2472377971
 30
0.0
 40
703.0407817097999
100
AcDbArc
 50
199.0774429506
 51
199.4050532941999
  0
SPLINE
  5
377
330
213
100
AcDbEntity
  8
0
  6
Continuous
 62
     7
100
AcDbSpline
210
0.0
220
0.0
230
1.0
 70
     8
 71
     3
 72
     9
 73
     5
 74
     0
 42
0.0000000001
 43
0.0000000001
 40
0.0
 40
0.0
 40
0.0
 40
0.0
 40
0.2527133142
 40
1.0
 40
1.0
 40
1.0
 40
1.0
 10
514.2810916762999
 20
484.3664115502999
 30
0.0
 10
514.1198643881999
 20
484.2733269322
 30
0.0
 10
513.4737182712
 20
483.9204667826
 30
0.0
 10
512.7822253347
 20
483.6412883612999
 30
0.0
 10
512.2473872818
 20
483.5108580508
 30
0.0
  0
SPLINE
  5
378
330
213
100
AcDbEntity
  8
0
  6
Continuous
 62
     7
100
AcDbSpline
210
0.0
220
0.0
230
1.0
 70
     8
 71
     3
 72
     9
 73
     5
 74
     0
 42
0.0000000001
 43
0.0000000001
 40
0.0
 40
0.0
 40
0.0
 40
0.0
 40
0.2527133142
 40
1.0
 40
1.0
 40
1.0
 40
1.0
 10
507.7810916763
 20
484.3664115502999
 30
0.0
 10
507.6198643881999
 20
484.2733269322
 30
0.0
 10
506.9737182712
 20
483.9204667826
 30
0.0
 10
506.2822253346999
 20
483.6412883612999
 30
0.0
 10
505.7473872817999
 20
483.5108580508
 30
0.0
  0
SPLINE
  5
379
330
213
100
AcDbEntity
  8
0
  6
Continuous
 62
     7
100
AcDbSpline
210
0.0
220
0.0
230
1.0
 70
     8
 71
     3
 72
     9
 73
     5
 74
     0
 42
0.0000000001
 43
0.0000000001
 40
0.0
 40
0.0
 40
0.0
 40
0.0
 40
0.2477691676
 40
1.0
 40
1.0
 40
1.0
 40
1.0
 10
503.3147960706999
 20
483.5108580508
 30
0.0
 10
503.1373915173
 20
483.5541214851999
 30
0.0
 10
502.4297440707
 20
483.7635204354
 30
0.0
 10
501.7612052698
 20
484.0892178377999
 30
0.0
 10
501.2810916762999
 20
484.3664115502999
 30
0.0
  0
SPLINE
  5
37A
330
213
100
AcDbEntity
  8
0
  6
Continuous
 62
     7
100
AcDbSpline
210
0.0
220
0.0
230
1.0
 70
     8
 71
     3
 72
     9
 73
     5
 74
     0
 42
0.0000000001
 43
0.0000000001
 40
0.0
 40
0.0
 40
0.0
 40
0.0
 40
0.2477691676
 40
1.0
 40
1.0
 40
1.0
 40
1.0
 10
509.8147960707
 20
483.5108580508
 30
0.0
 10
509.6373915173
 20
483.5541214851999
 30
0.0
 10
508.9297440706999
 20
483.7635204354
 30
0.0
 10
508.2612052698
 20
484.0892178377999
 30
0.0
 10
507.7810916763
 20
484.3664115502999
 30
0.0
  0
LINE
  5
37B
330
213
100
AcDbEntity
  8
AUSFORMSCHRAEGEN
  6
Continuous
 62
     7
100
AcDbLine
 10
476.2263168601
 20
481.7608580508
 30
0.0
 11
476.23871796
 21
481.9280895287
 31
0.0
  0
LINE
  5
37C
330
213
100
AcDbEntity
  8
AUSFORMSCHRAEGEN
  6
Continuous
 62
     7
100
AcDbLine
 10
476.23871796
 20
481.9280895287
 30
0.0
 11
476.2471210863999
 21
482.0413053683999
 31
0.0
  0
LINE
  5
37D
330
213
100
AcDbEntity
  8
AUSFORMSCHRAEGEN
  6
Continuous
 62
     7
100
AcDbLine
 10
476.2471210863999
 20
482.0413053683999
 30
0.0
 11
476.288290047
 21
482.5947579035999
 31
0.0
  0
LINE
  5
37E
330
213
100
AcDbEntity
  8
AUSFORMSCHRAEGEN
  6
Continuous
 62
     7
100
AcDbLine
 10
476.288290047
 20
482.5947579035999
 30
0.0
 11
476.300675683
 21
482.7608580508
 31
0.0
  0
SPLINE
  5
37F
330
213
100
AcDbEntity
  8
RUNDUNGEN
  6
Continuous
 62
     9
100
AcDbSpline
210
0.0
220
0.0
230
1.0
 70
     8
 71
     3
 72
    11
 73
     7
 74
     0
 42
0.0000000001
 43
0.0000000001
 40
0.0
 40
0.0
 40
0.0
 40
0.0
 40
0.353458214
 40
0.6597459844
 40
0.8803789773999998
 40
1.0
 40
1.0
 40
1.0
 40
1.0
 10
518.3510605039
 20
405.3118934841
 30
0.0
 10
518.3510605039
 20
405.4355420201
 30
0.0
 10
518.3602022666999
 20
405.6653600091
 30
0.0
 10
518.4054772114
 20
405.9751115051
 30
0.0
 10
518.4620024442999
 20
406.1844106508
 30
0.0
 10
518.5352930722
 20
406.30150692
 30
0.0
 10
518.5761566702
 20
406.3105230188999
 30
0.0
  0
SPLINE
  5
380
330
213
100
AcDbEntity
  8
RUNDUNGEN
  6
Continuous
 62
     9
100
AcDbSpline
210
0.0
220
0.0
230
1.0
 70
     8
 71
     3
 72
    11
 73
     7
 74
     0
 42
0.0000000001
 43
0.0000000001
 40
0.0
 40
0.0
 40
0.0
 40
0.0
 40
0.2533763117999999
 40
0.5054123636
 40
0.7543054463
 40
1.0
 40
1.0
 40
1.0
 40
1.0
 10
519.5545137192
 20
405.3118934841
 30
0.0
 10
519.552240038
 20
405.4418496091
 30
0.0
 10
519.4995690918
 20
405.7030490742
 30
0.0
 10
519.2815130256
 20
406.0339847706
 30
0.0
 10
518.9586286347
 20
406.2571112162
 30
0.0
 10
518.7021921213999
 20
406.3104940634
 30
0.0
 10
518.5761566702
 20
406.3105230188999
 30
0.0
  0
SPLINE
  5
381
330
213
100
AcDbEntity
  8
RUNDUNGEN
  6
Continuous
 62
     9
100
AcDbSpline
210
0.0
220
0.0
230
1.0
 70
     8
 71
     3
 72
    11
 73
     7
 74
     0
 42
0.0000000001
 43
0.0000000001
 40
0.0
 40
0.0
 40
0.0
 40
0.0
 40
0.3529063677000001
 40
0.6586108964000001
 40
0.8791810514999999
 40
1.0
 40
1.0
 40
1.0
 40
1.0
 10
492.2571788253
 20
408.2158962623
 30
0.0
 10
492.257298359
 20
408.0926381282999
 30
0.0
 10
492.2668207761
 20
407.8635061033999
 30
0.0
 10
492.3133533358
 20
407.5551091234999
 30
0.0
 10
492.3712991053999
 20
407.3457576161
 30
0.0
 10
492.4466086708999
 20
407.2301327463
 30
0.0
 10
492.4878613883999
 20
407.2212512908999
 30
0.0
  0
SPLINE
  5
382
330
213
100
AcDbEntity
  8
RUNDUNGEN
  6
Continuous
 62
     9
100
AcDbSpline
210
0.0
220
0.0
230
1.0
 70
     8
 71
     3
 72
    10
 73
     6
 74
     0
 42
0.0000000001
 43
0.0000000001
 40
0.0
 40
0.0
 40
0.0
 40
0.0
 40
0.1799830177
 40
0.4230513965
 40
1.0
 40
1.0
 40
1.0
 40
1.0
 10
520.9555920955999
 20
379.437972728
 30
0.0
 10
520.9918981299999
 20
379.3664848732
 30
0.0
 10
521.1369599231
 20
379.2328096899
 30
0.0
 10
521.5398321543
 20
379.0419021982
 30
0.0
 10
521.9119771908999
 20
378.9818586619
 30
0.0
 10
522.1689874014999
 20
378.9839822194001
 30
0.0
  0
SPLINE
  5
383
330
213
100
AcDbEntity
  8
RUNDUNGEN
  6
Continuous
 62
     9
100
AcDbSpline
210
0.0
220
0.0
230
1.0
 70
     8
 71
     3
 72
    10
 73
     6
 74
     0
 42
0.0000000001
 43
0.0000000001
 40
0.0
 40
0.0
 40
0.0
 40
0.0
 40
0.5770737478
 40
0.8200461122
 40
1.0
 40
1.0
 40
1.0
 40
1.0
 10
525.1745088828999
 20
401.7948133214999
 30
0.0
 10
524.9180386181
 20
401.7930896019
 30
0.0
 10
524.5467892527
 20
401.8532043036
 30
0.0
 10
524.1450945541
 20
402.0441595921
 30
0.0
 10
524.0004579755999
 20
402.1774948776999
 30
0.0
 10
523.9642404658
 20
402.2488037499999
 30
0.0
  0
SPLINE
  5
384
330
213
100
AcDbEntity
  8
RUNDUNGEN
  6
Continuous
 62
     9
100
AcDbSpline
210
0.0
220
0.0
230
1.0
 70
     8
 71
     3
 72
     9
 73
     5
 74
     0
 42
0.0000000001
 43
0.0000000001
 40
0.0
 40
0.0
 40
0.0
 40
0.0
 40
0.6187043516
 40
1.0
 40
1.0
 40
1.0
 40
1.0
 10
525.2607650915
 20
403.1448310594
 30
0.0
 10
525.0050109123999
 20
403.1448141708999
 30
0.0
 10
524.5916496780999
 20
403.1459975973
 30
0.0
 10
524.1782604456999
 20
403.1463890514999
 30
0.0
 10
524.0206627205999
 20
403.1488156226999
 30
0.0
  0
SPLINE
  5
385
330
213
100
AcDbEntity
  8
RUNDUNGEN
  6
Continuous
 62
     9
100
AcDbSpline
210
0.0
220
0.0
230
1.0
 70
     8
 71
     3
 72
     9
 73
     5
 74
     0
 42
0.0000000001
 43
0.0000000001
 40
0.0
 40
0.0
 40
0.0
 40
0.0
 40
0.6187025918
 40
1.0
 40
1.0
 40
1.0
 40
1.0
 10
525.2639264022
 20
406.2127332615999
 30
0.0
 10
525.0081735661
 20
406.2127163465
 30
0.0
 10
524.5948133271
 20
406.2138998082
 30
0.0
 10
524.1814250887999
 20
406.2142912083
 30
0.0
 10
524.0238270164
 20
406.2167178247999
 30
0.0
  0
SPLINE
  5
386
330
213
100
AcDbEntity
  8
RUNDUNGEN
  6
Continuous
 62
     9
100
AcDbSpline
210
0.0
220
0.0
230
1.0
 70
     8
 71
     3
 72
    11
 73
     7
 74
     0
 42
0.0000000001
 43
0.0000000001
 40
0.0
 40
0.0
 40
0.0
 40
0.0
 40
0.2541217503
 40
0.5046036554
 40
0.7522328156999999
 40
1.0
 40
1.0
 40
1.0
 40
1.0
 10
524.0238246812
 20
406.2167178247999
 30
0.0
 10
524.0258376891
 20
406.3463511956999
 30
0.0
 10
523.9815157706999
 20
406.6072283005999
 30
0.0
 10
523.7752595795
 20
406.9422369826999
 30
0.0
 10
523.4567158573001
 20
407.1690010125999
 30
0.0
 10
523.2007289659999
 20
407.2213554979
 30
0.0
 10
523.0743220143999
 20
407.221247365
 30
0.0
  0
SPLINE
  5
387
330
213
100
AcDbEntity
  8
RUNDUNGEN
  6
Continuous
 62
     9
100
AcDbSpline
210
0.0
220
0.0
230
1.0
 70
     8
 71
     3
 72
    11
 73
     7
 74
     0
 42
0.0000000001
 43
0.0000000001
 40
0.0
 40
0.0
 40
0.0
 40
0.0
 40
0.1208189484
 40
0.3413891035
 40
0.6470936323
 40
1.0
 40
1.0
 40
1.0
 40
1.0
 10
523.0743219640999
 20
407.2212512908999
 30
0.0
 10
523.1155746816999
 20
407.2301327463
 30
0.0
 10
523.190884247
 20
407.3457576162
 30
0.0
 10
523.2488300165
 20
407.5551091234999
 30
0.0
 10
523.2953625763
 20
407.8635061034999
 30
0.0
 10
523.3048849933999
 20
408.0926381282999
 30
0.0
 10
523.3050045273
 20
408.2158962623
 30
0.0
  0
SPLINE
  5
388
330
213
100
AcDbEntity
  8
RUNDUNGEN
  6
Continuous
 62
     9
100
AcDbSpline
210
0.0
220
0.0
230
1.0
 70
     8
 71
     3
 72
    11
 73
     7
 74
     0
 42
0.0000000001
 43
0.0000000001
 40
0.0
 40
0.0
 40
0.0
 40
0.0
 40
0.2477670731
 40
0.4953961026
 40
0.7458778386000001
 40
1.0
 40
1.0
 40
1.0
 40
1.0
 10
492.4878613377999
 20
407.2212473371
 30
0.0
 10
492.3614544353999
 20
407.2213554712
 30
0.0
 10
492.1054676498
 20
407.1690010062
 30
0.0
 10
491.7869240774999
 20
406.9422372055
 30
0.0
 10
491.5806673936
 20
406.6072286615
 30
0.0
 10
491.5363456797
 20
406.3463514179
 30
0.0
 10
491.5383583781999
 20
406.2167178246999
 30
0.0
  0
SPLINE
  5
389
330
213
100
AcDbEntity
  8
RUNDUNGEN
  6
Continuous
 62
     9
100
AcDbSpline
210
0.0
220
0.0
230
1.0
 70
     8
 71
     3
 72
     9
 73
     5
 74
     0
 42
0.0000000001
 43
0.0000000001
 40
0.0
 40
0.0
 40
0.0
 40
0.0
 40
0.3812977974
 40
1.0
 40
1.0
 40
1.0
 40
1.0
 10
491.5383583781999
 20
406.2167178246999
 30
0.0
 10
491.3807600152999
 20
406.2142912076
 30
0.0
 10
490.967371437
 20
406.2138998183
 30
0.0
 10
490.554010858
 20
406.2127163594999
 30
0.0
 10
490.2982579725
 20
406.2127332763999
 30
0.0
  0
SPLINE
  5
38A
330
213
100
AcDbEntity
  8
RUNDUNGEN
  6
Continuous
 62
     9
100
AcDbSpline
210
0.0
220
0.0
230
1.0
 70
     8
 71
     3
 72
    11
 73
     7
 74
     0
 42
0.0000000001
 43
0.0000000001
 40
0.0
 40
0.0
 40
0.0
 40
0.0
 40
0.2458432825
 40
0.4943708715
 40
0.7461743503
 40
1.0
 40
1.0
 40
1.0
 40
1.0
 10
496.9777408837999
 20
400.2437076188
 30
0.0
 10
496.8518659711
 20
400.2437167964
 30
0.0
 10
496.5958978230999
 20
400.2966818834999
 30
0.0
 10
496.2742732705999
 20
400.5203478558999
 30
0.0
 10
496.0589202962
 20
400.8522502462999
 30
0.0
 10
496.0087324803
 20
401.1135976726999
 30
0.0
 10
496.0076696333
 20
401.2435553139999
 30
0.0
  0
SPLINE
  5
38B
330
213
100
AcDbEntity
  8
RUNDUNGEN
  6
Continuous
 62
     9
100
AcDbSpline
210
0.0
220
0.0
230
1.0
 70
     8
 71
     3
 72
    12
 73
     8
 74
     0
 42
0.0000000001
 43
0.0000000001
 40
0.0
 40
0.0
 40
0.0
 40
0.0
 40
0.114301874
 40
0.2105663523
 40
0.3329275132
 40
0.6414494718000001
 40
1.0
 40
1.0
 40
1.0
 40
1.0
 10
496.9777408837999
 20
400.2437076188
 30
0.0
 10
497.0179129773
 20
400.2466597267999
 30
0.0
 10
497.0706208719
 20
400.3208678266
 30
0.0
 10
497.1122376461
 20
400.4250208241999
 30
0.0
 10
497.1623208623999
 20
400.6066737912999
 30
0.0
 10
497.2004717795
 20
400.8816442211999
 30
0.0
 10
497.2111228481
 20
401.1172007365
 30
0.0
 10
497.2111228481
 20
401.2435553139999
 30
0.0
  0
SPLINE
  5
38C
330
213
100
AcDbEntity
  8
RUNDUNGEN
  6
Continuous
 62
     9
100
AcDbSpline
210
0.0
220
0.0
230
1.0
 70
     8
 71
     3
 72
    12
 73
     8
 74
     0
 42
0.0000000001
 43
0.0000000001
 40
0.0
 40
0.0
 40
0.0
 40
0.0
 40
0.114301874
 40
0.2105663523
 40
0.3329275131
 40
0.6414494718000001
 40
1.0
 40
1.0
 40
1.0
 40
1.0
 10
518.5844424686999
 20
400.2437076188
 30
0.0
 10
518.5442703751999
 20
400.2466597267999
 30
0.0
 10
518.4915624806999
 20
400.3208678266
 30
0.0
 10
518.4499457063999
 20
400.4250208241999
 30
0.0
 10
518.3998624901001
 20
400.6066737912
 30
0.0
 10
518.3617115732999
 20
400.8816442211999
 30
0.0
 10
518.3510605039
 20
401.1172007365
 30
0.0
 10
518.3510605039
 20
401.2435553139999
 30
0.0
  0
SPLINE
  5
38D
330
213
100
AcDbEntity
  8
RUNDUNGEN
  6
Continuous
 62
     9
100
AcDbSpline
210
0.0
220
0.0
230
1.0
 70
     8
 71
     3
 72
    11
 73
     7
 74
     0
 42
0.0000000001
 43
0.0000000001
 40
0.0
 40
0.0
 40
0.0
 40
0.0
 40
0.2458432646
 40
0.4943708449
 40
0.7461743314
 40
1.0
 40
1.0
 40
1.0
 40
1.0
 10
518.5844424686999
 20
400.2437076188
 30
0.0
 10
518.7103173724
 20
400.2437167971
 30
0.0
 10
518.9662855092
 20
400.2966818743
 30
0.0
 10
519.2879100500999
 20
400.5203478343
 30
0.0
 10
519.5032630777999
 20
400.8522502191
 30
0.0
 10
519.5534508298
 20
401.1135976631999
 30
0.0
 10
519.5545137192
 20
401.2435553139999
 30
0.0
  0
SPLINE
  5
38E
330
213
100
AcDbEntity
  8
RUNDUNGEN
  6
Continuous
 62
     9
100
AcDbSpline
210
0.0
220
0.0
230
1.0
 70
     8
 71
     3
 72
     9
 73
     5
 74
     0
 42
0.0000000001
 43
0.0000000001
 40
0.0
 40
0.0
 40
0.0
 40
0.0
 40
0.2290864016
 40
1.0
 40
1.0
 40
1.0
 40
1.0
 10
521.4204596884
 20
401.1177399331999
 30
0.0
 10
521.3958369205999
 20
401.0797937943
 30
0.0
 10
521.2814710796
 20
400.9186517187
 30
0.0
 10
521.1421471508999
 20
400.7758532808999
 30
0.0
 10
521.0264205160999
 20
400.6769639829
 30
0.0
  0
SPLINE
  5
38F
330
213
100
AcDbEntity
  8
RUNDUNGEN
  6
Continuous
 62
     9
100
AcDbSpline
210
0.0
220
0.0
230
1.0
 70
     8
 71
     3
 72
     9
 73
     5
 74
     0
 42
0.0000000001
 43
0.0000000001
 40
0.0
 40
0.0
 40
0.0
 40
0.0
 40
0.246444618
 40
1.0
 40
1.0
 40
1.0
 40
1.0
 10
521.4204596884
 20
401.1177399331999
 30
0.0
 10
521.4060669969999
 20
401.0345110737
 30
0.0
 10
521.3390488086999
 20
400.6983879100999
 30
0.0
 10
521.2383158078999
 20
400.3685942600999
 30
0.0
 10
521.1411945145999
 20
400.1292846415
 30
0.0
  0
SPLINE
  5
390
330
213
100
AcDbEntity
  8
RUNDUNGEN
  6
Continuous
 62
     9
100
AcDbSpline
210
0.0
220
0.0
230
1.0
 70
     8
 71
     3
 72
    10
 73
     6
 74
     0
 42
0.0000000001
 43
0.0000000001
 40
0.0
 40
0.0
 40
0.0
 40
0.0
 40
0.4186793088
 40
0.6814587963
 40
1.0
 40
1.0
 40
1.0
 40
1.0
 10
521.0264142928999
 20
400.6769673275
 30
0.0
 10
520.8880743744
 20
400.5587684716
 30
0.0
 10
520.6405039823001
 20
400.3901297950999
 30
0.0
 10
520.2415633415
 20
400.2162724598999
 30
0.0
 10
519.9898614582
 20
400.1622099162999
 30
0.0
 10
519.8514465557
 20
400.1596603960999
 30
0.0
  0
SPLINE
  5
391
330
213
100
AcDbEntity
  8
RUNDUNGEN
  6
Continuous
 62
     9
100
AcDbSpline
210
0.0
220
0.0
230
1.0
 70
     8
 71
     3
 72
    13
 73
     9
 74
     0
 42
0.0000000001
 43
0.0000000001
 40
0.0
 40
0.0
 40
0.0
 40
0.0
 40
0.0467963399
 40
0.117456511
 40
0.2167284253
 40
0.3426942768
 40
0.6543256904
 40
1.0
 40
1.0
 40
1.0
 40
1.0
 10
519.8334333195999
 20
400.1594901737999
 30
0.0
 10
519.8529099569999
 20
400.1580711307999
 30
0.0
 10
519.8974734376
 20
400.1278847001
 30
0.0
 10
519.941971179
 20
400.0488558580999
 30
0.0
 10
519.9844033037
 20
399.9323166625
 30
0.0
 10
520.0345501461
 20
399.7136656233999
 30
0.0
 10
520.06941386
 20
399.3876755453
 30
0.0
 10
520.0711349171999
 20
399.1129283301999
 30
0.0
 10
520.0644246377
 20
398.9688334833001
 30
0.0
  0
SPLINE
  5
392
330
213
100
AcDbEntity
  8
RUNDUNGEN
  6
Continuous
 62
     9
100
AcDbSpline
210
0.0
220
0.0
230
1.0
 70
     8
 71
     3
 72
    13
 73
     9
 74
     0
 42
0.0000000001
 43
0.0000000001
 40
0.0
 40
0.0
 40
0.0
 40
0.0
 40
0.0466623291
 40
0.1175570235
 40
0.2171137217
 40
0.3432928704
 40
0.6549490198
 40
1.0
 40
1.0
 40
1.0
 40
1.0
 10
519.8514466562
 20
400.1596530273999
 30
0.0
 10
519.8708968254
 20
400.1581874712
 30
0.0
 10
519.9153895298
 20
400.1277526554
 30
0.0
 10
519.9606550076
 20
400.0489599978
 30
0.0
 10
520.0046672624999
 20
399.9324186267
 30
0.0
 10
520.0580922821
 20
399.7139690152
 30
0.0
 10
520.0983804502
 20
399.3882232457
 30
0.0
 10
520.1050115233
 20
399.113350095
 30
0.0
 10
520.1009485802
 20
398.9691726807
 30
0.0
  0
SPLINE
  5
393
330
213
100
AcDbEntity
  8
RUNDUNGEN
  6
Continuous
 62
     9
100
AcDbSpline
210
0.0
220
0.0
230
1.0
 70
     8
 71
     3
 72
    13
 73
     9
 74
     0
 42
0.0000000001
 43
0.0000000001
 40
0.0
 40
0.0
 40
0.0
 40
0.0
 40
0.3456743096
 40
0.6573057231
 40
0.7832715747
 40
0.882543489
 40
0.9532036600999999
 40
1.0
 40
1.0
 40
1.0
 40
1.0
 10
495.4977587148
 20
398.9688334833001
 30
0.0
 10
495.4910484353
 20
399.1129283301
 30
0.0
 10
495.4927694925999
 20
399.3876755453
 30
0.0
 10
495.5276332064999
 20
399.7136656233999
 30
0.0
 10
495.5777800487999
 20
399.9323166625
 30
0.0
 10
495.6202121736
 20
400.0488558580999
 30
0.0
 10
495.664709915
 20
400.1278847001
 30
0.0
 10
495.7092733955
 20
400.1580711307999
 30
0.0
 10
495.7287500329
 20
400.1594901737999
 30
0.0
  0
SPLINE
  5
394
330
213
100
AcDbEntity
  8
RUNDUNGEN
  6
Continuous
 62
     9
100
AcDbSpline
210
0.0
220
0.0
230
1.0
 70
     8
 71
     3
 72
    10
 73
     6
 74
     0
 42
0.0000000001
 43
0.0000000001
 40
0.0
 40
0.0
 40
0.0
 40
0.0
 40
0.3186571344
 40
0.5813874337
 40
1.0
 40
1.0
 40
1.0
 40
1.0
 10
495.7107368026
 20
400.1596608020999
 30
0.0
 10
495.5722698685
 20
400.1622126073999
 30
0.0
 10
495.3205402653
 20
400.2163100215
 30
0.0
 10
494.9215953187
 20
400.3901671186
 30
0.0
 10
494.6740777820999
 20
400.5587996593
 30
0.0
 10
494.5357560891999
 20
400.676978593
 30
0.0
  0
SPLINE
  5
395
330
213
100
AcDbEntity
  8
RUNDUNGEN
  6
Continuous
 62
     9
100
AcDbSpline
210
0.0
220
0.0
230
1.0
 70
     8
 71
     3
 72
    13
 73
     9
 74
     0
 42
0.0000000001
 43
0.0000000001
 40
0.0
 40
0.0
 40
0.0
 40
0.0
 40
0.0466614507
 40
0.1175566894
 40
0.2171152443
 40
0.3432963529999999
 40
0.6549529828000001
 40
1.0
 40
1.0
 40
1.0
 40
1.0
 10
495.7107368026
 20
400.1596608020999
 30
0.0
 10
495.6912868748
 20
400.1581968116999
 30
0.0
 10
495.6467928401999
 20
400.1277625241
 30
0.0
 10
495.601528423
 20
400.0489685836
 30
0.0
 10
495.5575165801
 20
399.9324250335
 30
0.0
 10
495.5040935202999
 20
399.7139729821
 30
0.0
 10
495.4638080263999
 20
399.3882274213
 30
0.0
 10
495.4571792653999
 20
399.1133555237
 30
0.0
 10
495.4612435001999
 20
398.9691797372
 30
0.0
  0
SPLINE
  5
396
330
213
100
AcDbEntity
  8
RUNDUNGEN
  6
Continuous
 62
     9
100
AcDbSpline
210
0.0
220
0.0
230
1.0
 70
     8
 71
     3
 72
     9
 73
     5
 74
     0
 42
0.0000000001
 43
0.0000000001
 40
0.0
 40
0.0
 40
0.0
 40
0.0
 40
0.2541920084
 40
1.0
 40
1.0
 40
1.0
 40
1.0
 10
494.4209781487
 20
400.1293096648
 30
0.0
 10
494.3882114869
 20
400.2100374323999
 30
0.0
 10
494.2692082356
 20
400.5315864011
 30
0.0
 10
494.185283914
 20
400.8658533825999
 30
0.0
 10
494.1417236641
 20
401.1177399331999
 30
0.0
  0
SPLINE
  5
397
330
213
100
AcDbEntity
  8
RUNDUNGEN
  6
Continuous
 62
     9
100
AcDbSpline
210
0.0
220
0.0
230
1.0
 70
     8
 71
     3
 72
     9
 73
     5
 74
     0
 42
0.0000000001
 43
0.0000000001
 40
0.0
 40
0.0
 40
0.0
 40
0.0
 40
0.2732941237
 40
1.0
 40
1.0
 40
1.0
 40
1.0
 10
494.5357518698999
 20
400.6769763245999
 30
0.0
 10
494.4947274161
 20
400.7120294087
 30
0.0
 10
494.348984519
 20
400.8451965851
 30
0.0
 10
494.2198239441999
 20
400.9973737888
 30
0.0
 10
494.1417236641
 20
401.1177399331999
 30
0.0
  0
SPLINE
  5
398
330
213
100
AcDbEntity
  8
RUNDUNGEN
  6
Continuous
 62
     9
100
AcDbSpline
210
0.0
220
0.0
230
1.0
 70
     8
 71
     3
 72
    11
 73
     7
 74
     0
 42
0.0000000001
 43
0.0000000001
 40
0.0
 40
0.0
 40
0.0
 40
0.0
 40
0.1220953614
 40
0.3373101325
 40
0.6390706525
 40
1.0
 40
1.0
 40
1.0
 40
1.0
 10
518.8762321257
 20
378.2034224565
 30
0.0
 10
518.9104244539
 20
378.2109265454
 30
0.0
 10
518.9762303648
 20
378.2990085948001
 30
0.0
 10
519.0305117958001
 20
378.4685327125
 30
0.0
 10
519.0779768519
 20
378.7189066435
 30
0.0
 10
519.0933447416999
 20
378.9078718481
 30
0.0
 10
519.0981429516999
 20
379.0112429958
 30
0.0
  0
SPLINE
  5
399
330
213
100
AcDbEntity
  8
RUNDUNGEN
  6
Continuous
 62
     9
100
AcDbSpline
210
0.0
220
0.0
230
1.0
 70
     8
 71
     3
 72
    11
 73
     7
 74
     0
 42
0.0000000001
 43
0.0000000001
 40
0.0
 40
0.0
 40
0.0
 40
0.0
 40
0.245720779
 40
0.4945868936
 40
0.7466158590000001
 40
1.0
 40
1.0
 40
1.0
 40
1.0
 10
521.3036200666
 20
378.311298756
 30
0.0
 10
521.1773987185999
 20
378.3111578476
 30
0.0
 10
520.9204878748001
 20
378.3638844611
 30
0.0
 10
520.5967663054
 20
378.5870064191
 30
0.0
 10
520.3785148908
 20
378.9182444398
 30
0.0
 10
520.3248735319999
 20
379.1797823286
 30
0.0
 10
520.3231085909
 20
379.3099282909
 30
0.0
  0
SPLINE
  5
39A
330
213
100
AcDbEntity
  8
RUNDUNGEN
  6
Continuous
 62
     9
100
AcDbSpline
210
0.0
220
0.0
230
1.0
 70
     8
 71
     3
 72
    11
 73
     7
 74
     0
 42
0.0000000001
 43
0.0000000001
 40
0.0
 40
0.0
 40
0.0
 40
0.0
 40
0.2456828245
 40
0.4945705623
 40
0.7466163336000001
 40
1.0
 40
1.0
 40
1.0
 40
1.0
 10
521.9360537889
 20
378.4393431933001
 30
0.0
 10
521.8098540641
 20
378.4390766686
 30
0.0
 10
521.5529239244
 20
378.4920494393
 30
0.0
 10
521.2294078457
 20
378.7150601448999
 30
0.0
 10
521.0102884069999
 20
379.0462354682
 30
0.0
 10
520.9585134874999
 20
379.3078498168
 30
0.0
 10
520.9555920955999
 20
379.437972728
 30
0.0
  0
SPLINE
  5
39B
330
213
100
AcDbEntity
  8
RUNDUNGEN
  6
Continuous
 62
     9
100
AcDbSpline
210
0.0
220
0.0
230
1.0
 70
     8
 71
     3
 72
    10
 73
     6
 74
     0
 42
0.0000000001
 43
0.0000000001
 40
0.0
 40
0.0
 40
0.0
 40
0.0
 40
0.1399881966
 40
0.3523976108
 40
1.0
 40
1.0
 40
1.0
 40
1.0
 10
521.936053788
 20
378.439343193
 30
0.0
 10
521.9641291553
 20
378.4446408086
 30
0.0
 10
522.0240785446
 20
378.4951062601
 30
0.0
 10
522.1149142814
 20
378.6776008863
 30
0.0
 10
522.1504674390001
 20
378.8531141522
 30
0.0
 10
522.1689874129
 20
378.9839822271
 30
0.0
  0
SPLINE
  5
39C
330
213
100
AcDbEntity
  8
RUNDUNGEN
  6
Continuous
 62
     9
100
AcDbSpline
210
0.0
220
0.0
230
1.0
 70
     8
 71
     3
 72
    10
 73
     6
 74
     0
 42
0.0000000001
 43
0.0000000001
 40
0.0
 40
0.0
 40
0.0
 40
0.0
 40
0.1399881966
 40
0.3523976135
 40
1.0
 40
1.0
 40
1.0
 40
1.0
 10
493.6261295636
 20
378.4393431933001
 30
0.0
 10
493.5980541966999
 20
378.4446408087
 30
0.0
 10
493.5381048069
 20
378.4951062579001
 30
0.0
 10
493.4472690701
 20
378.6776008819
 30
0.0
 10
493.4117159246
 20
378.8531141471
 30
0.0
 10
493.3931959510999
 20
378.9839822194001
 30
0.0
  0
SPLINE
  5
39D
330
213
100
AcDbEntity
  8
RUNDUNGEN
  6
Continuous
 62
     9
100
AcDbSpline
210
0.0
220
0.0
230
1.0
 70
     8
 71
     3
 72
    11
 73
     7
 74
     0
 42
0.0000000001
 43
0.0000000001
 40
0.0
 40
0.0
 40
0.0
 40
0.0
 40
0.2456828258
 40
0.4945705643000001
 40
0.7466163350000001
 40
1.0
 40
1.0
 40
1.0
 40
1.0
 10
493.6261295636
 20
378.4393431933001
 30
0.0
 10
493.7523292891
 20
378.4390766683
 30
0.0
 10
494.0092594295999
 20
378.4920494402
 30
0.0
 10
494.3327755094999
 20
378.7150601464
 30
0.0
 10
494.5518949433
 20
379.0462354705001
 30
0.0
 10
494.6036698687999
 20
379.3078498175
 30
0.0
 10
494.6065912569999
 20
379.437972728
 30
0.0
  0
SPLINE
  5
39E
330
213
100
AcDbEntity
  8
RUNDUNGEN
  6
Continuous
 62
     9
100
AcDbSpline
210
0.0
220
0.0
230
1.0
 70
     8
 71
     3
 72
    11
 73
     7
 74
     0
 42
0.0000000001
 43
0.0000000001
 40
0.0
 40
0.0
 40
0.0
 40
0.0
 40
0.2457207719
 40
0.494586868
 40
0.746615836
 40
1.0
 40
1.0
 40
1.0
 40
1.0
 10
494.2585633623
 20
378.3113039764
 30
0.0
 10
494.384784683
 20
378.3111621904
 30
0.0
 10
494.6416958501
 20
378.3638870872
 30
0.0
 10
494.965418656
 20
378.5870072323
 30
0.0
 10
495.1836713512999
 20
378.9182444546
 30
0.0
 10
495.2373130733999
 20
379.17978234
 30
0.0
 10
495.2390780116999
 20
379.3099282909
 30
0.0
  0
SPLINE
  5
39F
330
213
100
AcDbEntity
  8
RUNDUNGEN
  6
Continuous
 62
     9
100
AcDbSpline
210
0.0
220
0.0
230
1.0
 70
     8
 71
     3
 72
    11
 73
     7
 74
     0
 42
0.0000000001
 43
0.0000000001
 40
0.0
 40
0.0
 40
0.0
 40
0.0
 40
0.1220953805
 40
0.3373101502
 40
0.6390706617000001
 40
1.0
 40
1.0
 40
1.0
 40
1.0
 10
496.6859512267999
 20
378.2034224565
 30
0.0
 10
496.6517588919
 20
378.2109265436
 30
0.0
 10
496.5859529559999
 20
378.2990085817
 30
0.0
 10
496.5316715203999
 20
378.4685327117
 30
0.0
 10
496.4842064731
 20
378.7189066419001
 30
0.0
 10
496.4688385998999
 20
378.907871848
 30
0.0
 10
496.4640404008
 20
379.0112429958
 30
0.0
  0
SPLINE
  5
3A0
330
213
100
AcDbEntity
  8
RUNDUNGEN
  6
Continuous
 62
     9
100
AcDbSpline
210
0.0
220
0.0
230
1.0
 70
     8
 71
     3
 72
    11
 73
     7
 74
     0
 42
0.0000000001
 43
0.0000000001
 40
0.0
 40
0.0
 40
0.0
 40
0.0
 40
0.2515965223
 40
0.5023094275
 40
0.7517231406999999
 40
1.0
 40
1.0
 40
1.0
 40
1.0
 10
496.0875893543
 20
477.2635915620999
 30
0.0
 10
496.0876397905
 20
476.9899113433999
 30
0.0
 10
495.9587248228999
 20
476.4360045833999
 30
0.0
 10
495.4369610030999
 20
475.7767972109999
 30
0.0
 10
494.7121664158999
 20
475.368335214
 30
0.0
 10
494.1662091282999
 20
475.2781482748999
 30
0.0
 10
493.8961399491
 20
475.2781607876999
 30
0.0
  0
SPLINE
  5
3A1
330
213
100
AcDbEntity
  8
RUNDUNGEN
  6
Continuous
 62
     9
100
AcDbSpline
210
0.0
220
0.0
230
1.0
 70
     8
 71
     3
 72
    12
 73
     8
 74
     0
 42
0.0000000001
 43
0.0000000001
 40
0.0
 40
0.0
 40
0.0
 40
0.0
 40
0.3591518985
 40
0.6680631970000001
 40
0.7904688411000001
 40
0.8866266887
 40
1.0
 40
1.0
 40
1.0
 40
1.0
 10
522.7113296951999
 20
477.3657407684999
 30
0.0
 10
522.7113296951999
 20
477.2393884382
 30
0.0
 10
522.7217896621
 20
477.0038648244
 30
0.0
 10
522.7592400023
 20
476.7289922919999
 30
0.0
 10
522.8084267768999
 20
476.5472295089
 30
0.0
 10
522.8491994739999
 20
476.4434999417999
 30
0.0
 10
522.9007688818
 20
476.3688691102999
 30
0.0
 10
522.9405432801
 20
476.3658930733
 30
0.0
  0
SPLINE
  5
3A2
330
213
100
AcDbEntity
  8
RUNDUNGEN
  6
Continuous
 62
     9
100
AcDbSpline
210
0.0
220
0.0
230
1.0
 70
     8
 71
     3
 72
    11
 73
     7
 74
     0
 42
0.0000000001
 43
0.0000000001
 40
0.0
 40
0.0
 40
0.0
 40
0.0
 40
0.245896534
 40
0.4943967043
 40
0.7461702605000001
 40
1.0
 40
1.0
 40
1.0
 40
1.0
 10
522.9405432801
 20
476.3658930733
 30
0.0
 10
522.8152827527
 20
476.3669724848
 30
0.0
 10
522.5610707760999
 20
476.4213924328999
 30
0.0
 10
522.2422412673999
 20
476.6455791378
 30
0.0
 10
522.0294868598999
 20
476.9764369176999
 30
0.0
 10
521.9792015712999
 20
477.236435255
 30
0.0
 10
521.9786888378999
 20
477.3657407684999
 30
0.0
  0
SPLINE
  5
3A3
330
213
100
AcDbEntity
  8
RUNDUNGEN
  6
Continuous
 62
     9
100
AcDbSpline
210
0.0
220
0.0
230
1.0
 70
     8
 71
     3
 72
    11
 73
     7
 74
     0
 42
0.0000000001
 43
0.0000000001
 40
0.0
 40
0.0
 40
0.0
 40
0.0
 40
0.2656941125
 40
0.5198669907
 40
0.7630780277
 40
1.0
 40
1.0
 40
1.0
 40
1.0
 10
520.2758255112001
 20
477.2635915637
 30
0.0
 10
520.2752055808
 20
477.1119834157
 30
0.0
 10
520.3613614160999
 20
476.8098590266999
 30
0.0
 10
520.6751186963999
 20
476.4896165351
 30
0.0
 10
521.0628476685
 20
476.3127685086
 30
0.0
 10
521.3387047848
 20
476.2771554252999
 30
0.0
 10
521.4738936394
 20
476.2780108044
 30
0.0
  0
SPLINE
  5
3A4
330
213
100
AcDbEntity
  8
RUNDUNGEN
  6
Continuous
 62
     9
100
AcDbSpline
210
0.0
220
0.0
230
1.0
 70
     8
 71
     3
 72
    12
 73
     8
 74
     0
 42
0.0000000001
 43
0.0000000001
 40
0.0
 40
0.0
 40
0.0
 40
0.0
 40
0.0418833627
 40
0.108117206
 40
0.3253316365
 40
0.6367726158
 40
1.0
 40
1.0
 40
1.0
 40
1.0
 10
521.4738936323999
 20
476.2780084829
 30
0.0
 10
521.4884009322999
 20
476.2767136255
 30
0.0
 10
521.5213694473999
 20
476.2513440435999
 30
0.0
 10
521.5726509126999
 20
476.1508165861
 30
0.0
 10
521.6213538888999
 20
475.9469647563999
 30
0.0
 10
521.6576514795999
 20
475.6394766434
 30
0.0
 10
521.6660432838999
 20
475.4044733916999
 30
0.0
 10
521.6660432891999
 20
475.2781607876999
 30
0.0
  0
SPLINE
  5
3A5
330
213
100
AcDbEntity
  8
RUNDUNGEN
  6
Continuous
 62
     9
100
AcDbSpline
210
0.0
220
0.0
230
1.0
 70
     8
 71
     3
 72
    11
 73
     7
 74
     0
 42
0.0000000001
 43
0.0000000001
 40
0.0
 40
0.0
 40
0.0
 40
0.0
 40
0.2482768026
 40
0.4976902487
 40
0.7484031211
 40
1.0
 40
1.0
 40
1.0
 40
1.0
 10
521.6660434056999
 20
475.2781607876999
 30
0.0
 10
521.3959742879
 20
475.2781482942999
 30
0.0
 10
520.8500174053
 20
475.368335123
 30
0.0
 10
520.1252228388999
 20
475.7767966164
 30
0.0
 10
519.6034594030999
 20
476.4360038679
 30
0.0
 10
519.4745425576
 20
476.9899109572
 30
0.0
 10
519.4745939983
 20
477.2635915641
 30
0.0
  0
SPLINE
  5
3A6
330
213
100
AcDbEntity
  8
RUNDUNGEN
  6
Continuous
 62
     9
100
AcDbSpline
210
0.0
220
0.0
230
1.0
 70
     8
 71
     3
 72
    12
 73
     8
 74
     0
 42
0.0000000001
 43
0.0000000001
 40
0.0
 40
0.0
 40
0.0
 40
0.0
 40
0.3632273842
 40
0.6746683635
 40
0.8918827939999999
 40
0.9581166373
 40
1.0
 40
1.0
 40
1.0
 40
1.0
 10
493.8961400633999
 20
475.2781607876999
 30
0.0
 10
493.8961400688
 20
475.4044733916999
 30
0.0
 10
493.9045318732
 20
475.6394766434
 30
0.0
 10
493.9408294641
 20
475.9469647563999
 30
0.0
 10
493.9895324404
 20
476.1508165861
 30
0.0
 10
494.0408139058
 20
476.2513440435999
 30
0.0
 10
494.0737824209
 20
476.2767136255
 30
0.0
 10
494.0882897207999
 20
476.2780084829
 30
0.0
  0
SPLINE
  5
3A7
330
213
100
AcDbEntity
  8
RUNDUNGEN
  6
Continuous
 62
     9
100
AcDbSpline
210
0.0
220
0.0
230
1.0
 70
     8
 71
     3
 72
    11
 73
     7
 74
     0
 42
0.0000000001
 43
0.0000000001
 40
0.0
 40
0.0
 40
0.0
 40
0.0
 40
0.2538284636
 40
0.5056069811000001
 40
0.7541255825
 40
1.0
 40
1.0
 40
1.0
 40
1.0
 10
493.5834945145999
 20
477.3657407684999
 30
0.0
 10
493.5828054679999
 20
477.2364367458
 30
0.0
 10
493.5328034689
 20
476.9764311894999
 30
0.0
 10
493.3199160433999
 20
476.6455651983999
 30
0.0
 10
493.0010981089
 20
476.4214273462
 30
0.0
 10
492.7468895576999
 20
476.3669435877999
 30
0.0
 10
492.6216400723999
 20
476.3658930733
 30
0.0
  0
SPLINE
  5
3A8
330
213
100
AcDbEntity
  8
RUNDUNGEN
  6
Continuous
 62
     9
100
AcDbSpline
210
0.0
220
0.0
230
1.0
 70
     8
 71
     3
 72
    12
 73
     8
 74
     0
 42
0.0000000001
 43
0.0000000001
 40
0.0
 40
0.0
 40
0.0
 40
0.0
 40
0.1133745977
 40
0.2095327805
 40
0.3319387676
 40
0.64085057
 40
1.0
 40
1.0
 40
1.0
 40
1.0
 10
492.6216400723999
 20
476.3658930733
 30
0.0
 10
492.6614149195
 20
476.3688691438999
 30
0.0
 10
492.7129844478
 20
476.4435009612999
 30
0.0
 10
492.7537570773999
 20
476.5472311935
 30
0.0
 10
492.8029437801999
 20
476.728994438
 30
0.0
 10
492.8403937623
 20
477.0038664133999
 30
0.0
 10
492.8508536573999
 20
477.2393893147
 30
0.0
 10
492.8508536573999
 20
477.3657407684999
 30
0.0
  0
SPLINE
  5
3A9
330
213
100
AcDbEntity
  8
RUNDUNGEN
  6
Continuous
 62
     9
100
AcDbSpline
210
0.0
220
0.0
230
1.0
 70
     8
 71
     3
 72
    11
 73
     7
 74
     0
 42
0.0000000001
 43
0.0000000001
 40
0.0
 40
0.0
 40
0.0
 40
0.0
 40
0.2369220353
 40
0.4801333435
 40
0.7343063048000001
 40
1.0
 40
1.0
 40
1.0
 40
1.0
 10
494.0882897135
 20
476.2780108127
 30
0.0
 10
494.2234786041
 20
476.2771554319
 30
0.0
 10
494.4993359166999
 20
476.3127685389
 30
0.0
 10
494.8870650625
 20
476.4896168208999
 30
0.0
 10
495.2008221023
 20
476.8098595389999
 30
0.0
 10
495.2869777529
 20
477.1119836512
 30
0.0
 10
495.2863579793
 20
477.2635915618
 30
0.0
  0
SPLINE
  5
3AA
330
213
100
AcDbEntity
  8
RUNDUNGEN
  6
Continuous
 62
     9
100
AcDbSpline
210
0.0
220
0.0
230
1.0
 70
     8
 71
     3
 72
    12
 73
     8
 74
     0
 42
0.0000000001
 43
0.0000000001
 40
0.0
 40
0.0
 40
0.0
 40
0.0
 40
0.3618021704999999
 40
0.6718761339000001
 40
0.7939758295999999
 40
0.8891980558
 40
1.0
 40
1.0
 40
1.0
 40
1.0
 10
522.7113296937999
 20
480.7608580508
 30
0.0
 10
522.7113296937999
 20
480.888559021
 30
0.0
 10
522.7220763525999
 20
481.1262154520999
 30
0.0
 10
522.7599788058999
 20
481.4031340177999
 30
0.0
 10
522.8105344591
 20
481.5853361529
 30
0.0
 10
522.8510716846
 20
481.6876935215
 30
0.0
 10
522.9055062317
 20
481.7608580508
 30
0.0
 10
522.9446146642
 20
481.7608580508
 30
0.0
  0
SPLINE
  5
3AB
330
213
100
AcDbEntity
  8
RUNDUNGEN
  6
Continuous
 62
     9
100
AcDbSpline
210
0.0
220
0.0
230
1.0
 70
     8
 71
     3
 72
    11
 73
     7
 74
     0
 42
0.0000000001
 43
0.0000000001
 40
0.0
 40
0.0
 40
0.0
 40
0.0
 40
0.253995084
 40
0.5056598393999999
 40
0.754009138
 40
1.0
 40
1.0
 40
1.0
 40
1.0
 10
521.9786888378999
 20
480.7608580508
 30
0.0
 10
521.9786888378999
 20
480.8907550417999
 30
0.0
 10
522.0283678512999
 20
481.1520549517999
 30
0.0
 10
522.2420480061999
 20
481.4843037698999
 30
0.0
 10
522.5631030988999
 20
481.708168305
 30
0.0
 10
522.8188111555
 20
481.7608580508
 30
0.0
 10
522.9446146642
 20
481.7608580508
 30
0.0
  0
SPLINE
  5
3AC
330
213
100
AcDbEntity
  8
RUNDUNGEN
  6
Continuous
 62
     9
100
AcDbSpline
210
0.0
220
0.0
230
1.0
 70
     8
 71
     3
 72
    11
 73
     7
 74
     0
 42
0.0000000001
 43
0.0000000001
 40
0.0
 40
0.0
 40
0.0
 40
0.0
 40
0.2539963965
 40
0.5056606423
 40
0.7540095291
 40
1.0
 40
1.0
 40
1.0
 40
1.0
 10
520.2758226088
 20
480.7608580508
 30
0.0
 10
520.2758226088
 20
480.8907557141
 30
0.0
 10
520.3255019404999
 20
481.1520560891
 30
0.0
 10
520.5391827714
 20
481.4843046653
 30
0.0
 10
520.8602374897
 20
481.7081684787
 30
0.0
 10
521.1159451251999
 20
481.7608580508
 30
0.0
 10
521.2417484348999
 20
481.7608580508
 30
0.0
  0
SPLINE
  5
3AD
330
213
100
AcDbEntity
  8
RUNDUNGEN
  6
Continuous
 62
     9
100
AcDbSpline
210
0.0
220
0.0
230
1.0
 70
     8
 71
     3
 72
    12
 73
     8
 74
     0
 42
0.0000000001
 43
0.0000000001
 40
0.0
 40
0.0
 40
0.0
 40
0.0
 40
0.3700503259
 40
0.6854682112
 40
0.9012368143999999
 40
0.9638201553
 40
1.0
 40
1.0
 40
1.0
 40
1.0
 10
519.4745939983
 20
480.7608580508
 30
0.0
 10
519.4745939983
 20
480.8884908267
 30
0.0
 10
519.4819465889
 20
481.1253052544
 30
0.0
 10
519.5123603712
 20
481.4338276215
 30
0.0
 10
519.5549386826
 20
481.6371599292
 30
0.0
 10
519.5969368748999
 20
481.7356862441
 30
0.0
 10
519.6268125491999
 20
481.7608580508
 30
0.0
 10
519.6392912141
 20
481.7608580508
 30
0.0
  0
SPLINE
  5
3AE
330
213
100
AcDbEntity
  8
RUNDUNGEN
  6
Continuous
 62
     9
100
AcDbSpline
210
0.0
220
0.0
230
1.0
 70
     8
 71
     3
 72
    12
 73
     8
 74
     0
 42
0.0000000001
 43
0.0000000001
 40
0.0
 40
0.0
 40
0.0
 40
0.0
 40
0.3700503257999999
 40
0.6854682111
 40
0.9012368143999999
 40
0.9638201551999999
 40
1.0
 40
1.0
 40
1.0
 40
1.0
 10
496.0875893541
 20
480.7608580508
 30
0.0
 10
496.0875893541
 20
480.8884908267
 30
0.0
 10
496.0802367637
 20
481.1253052543
 30
0.0
 10
496.0498229813
 20
481.4338276215
 30
0.0
 10
496.0072446699999
 20
481.6371599292
 30
0.0
 10
495.9652464776
 20
481.7356862441999
 30
0.0
 10
495.9353708032
 20
481.7608580508
 30
0.0
 10
495.9228921383
 20
481.7608580508
 30
0.0
  0
SPLINE
  5
3AF
330
213
100
AcDbEntity
  8
RUNDUNGEN
  6
Continuous
 62
     9
100
AcDbSpline
210
0.0
220
0.0
230
1.0
 70
     8
 71
     3
 72
    11
 73
     7
 74
     0
 42
0.0000000001
 43
0.0000000001
 40
0.0
 40
0.0
 40
0.0
 40
0.0
 40
0.2539963967
 40
0.5056606423
 40
0.7540095289000001
 40
1.0
 40
1.0
 40
1.0
 40
1.0
 10
495.2863607437999
 20
480.7608580508
 30
0.0
 10
495.2863607437999
 20
480.8907557141999
 30
0.0
 10
495.2366814119
 20
481.1520560891999
 30
0.0
 10
495.0230005811
 20
481.4843046653
 30
0.0
 10
494.7019458627999
 20
481.7081684787
 30
0.0
 10
494.4462382273
 20
481.7608580508
 30
0.0
 10
494.3204349174999
 20
481.7608580508
 30
0.0
  0
SPLINE
  5
3B0
330
213
100
AcDbEntity
  8
RUNDUNGEN
  6
Continuous
 62
     9
100
AcDbSpline
210
0.0
220
0.0
230
1.0
 70
     8
 71
     3
 72
    11
 73
     7
 74
     0
 42
0.0000000001
 43
0.0000000001
 40
0.0
 40
0.0
 40
0.0
 40
0.0
 40
0.2539950837
 40
0.5056598382000001
 40
0.7540091378
 40
1.0
 40
1.0
 40
1.0
 40
1.0
 10
493.5834945145999
 20
480.7608580508
 30
0.0
 10
493.5834945145999
 20
480.8907550417
 30
0.0
 10
493.5338155012999
 20
481.1520549509999
 30
0.0
 10
493.3201353471
 20
481.4843037693
 30
0.0
 10
492.9990802544
 20
481.7081683047
 30
0.0
 10
492.7433721972
 20
481.7608580508
 30
0.0
 10
492.6175686883
 20
481.7608580508
 30
0.0
  0
SPLINE
  5
3B1
330
213
100
AcDbEntity
  8
RUNDUNGEN
  6
Continuous
 62
     9
100
AcDbSpline
210
0.0
220
0.0
230
1.0
 70
     8
 71
     3
 72
    12
 73
     8
 74
     0
 42
0.0000000001
 43
0.0000000001
 40
0.0
 40
0.0
 40
0.0
 40
0.0
 40
0.361802171
 40
0.6718761353
 40
0.7939758308
 40
0.8891980561
 40
1.0
 40
1.0
 40
1.0
 40
1.0
 10
492.8508536573999
 20
480.7608580508
 30
0.0
 10
492.8508536573999
 20
480.8885590212
 30
0.0
 10
492.8401070006
 20
481.1262154528
 30
0.0
 10
492.8022045462999
 20
481.4031340189
 30
0.0
 10
492.7516488930999
 20
481.5853361539
 30
0.0
 10
492.7111116676
 20
481.6876935219999
 30
0.0
 10
492.6566771206999
 20
481.7608580508
 30
0.0
 10
492.6175686883
 20
481.7608580508
 30
0.0
  0
SPLINE
  5
3B2
330
213
100
AcDbEntity
  8
RUNDUNGEN
  6
Continuous
 62
     9
100
AcDbSpline
210
0.0
220
0.0
230
1.0
 70
     8
 71
     3
 72
    11
 73
     7
 74
     0
 42
0.0000000001
 43
0.0000000001
 40
0.0
 40
0.0
 40
0.0
 40
0.0
 40
0.2460895436
 40
0.4946766662
 40
0.7463120422000001
 40
1.0
 40
1.0
 40
1.0
 40
1.0
 10
492.7245453801999
 20
465.1662499401
 30
0.0
 10
492.8408828251
 20
465.1526756968999
 30
0.0
 10
493.0717538738
 20
465.0800434176999
 30
0.0
 10
493.3541976279
 20
464.8519655369999
 30
0.0
 10
493.5394968594
 20
464.5359634916
 30
0.0
 10
493.5823234501
 20
464.2932958004999
 30
0.0
 10
493.5823234501
 20
464.1725526353
 30
0.0
  0
SPLINE
  5
3B3
330
213
100
AcDbEntity
  8
RUNDUNGEN
  6
Continuous
 62
     9
100
AcDbSpline
210
0.0
220
0.0
230
1.0
 70
     8
 71
     3
 72
     9
 73
     5
 74
     0
 42
0.0000000001
 43
0.0000000001
 40
0.0
 40
0.0
 40
0.0
 40
0.0
 40
0.4511821511
 40
1.0
 40
1.0
 40
1.0
 40
1.0
 10
494.304186972
 20
459.6659315961
 30
0.0
 10
494.3321254507999
 20
459.5540247926999
 30
0.0
 10
494.3675985771999
 20
459.2997478776999
 30
0.0
 10
494.3789001076
 20
459.0441731937
 30
0.0
 10
494.3790172893
 20
458.9038717163999
 30
0.0
  0
SPLINE
  5
3B4
330
213
100
AcDbEntity
  8
RUNDUNGEN
  6
Continuous
 62
     9
100
AcDbSpline
210
0.0
220
0.0
230
1.0
 70
     8
 71
     3
 72
     8
 73
     4
 74
     0
 42
0.0000000001
 43
0.0000000001
 40
0.0
 40
0.0
 40
0.0
 40
0.0
 40
1.0
 40
1.0
 40
1.0
 40
1.0
 10
494.0879533930999
 20
476.2780084829
 30
0.0
 10
493.5992736246999
 20
476.3075721819999
 30
0.0
 10
493.1105801351
 20
476.3369111384999
 30
0.0
 10
492.6218655191
 20
476.3658930733
 30
0.0
  0
SPLINE
  5
3B5
330
213
100
AcDbEntity
  8
RUNDUNGEN
  6
Continuous
 62
     9
100
AcDbSpline
210
0.0
220
0.0
230
1.0
 70
     8
 71
     3
 72
     8
 73
     4
 74
     0
 42
0.0000000001
 43
0.0000000001
 40
0.0
 40
0.0
 40
0.0
 40
0.0
 40
1.0
 40
1.0
 40
1.0
 40
1.0
 10
522.9403826582999
 20
476.3658930733
 30
0.0
 10
522.4516574
 20
476.3369105156999
 30
0.0
 10
521.9629531550999
 20
476.3075728201
 30
0.0
 10
521.4742627451999
 20
476.2780084829
 30
0.0
  0
LINE
  5
3B6
330
213
100
AcDbEntity
  8
RUNDUNGEN
  6
Continuous
 62
     9
100
AcDbLine
 10
493.6261295645
 20
378.439343193
 30
0.0
 11
494.258563286
 21
378.3112987562
 31
0.0
  0
SPLINE
  5
3B7
330
213
100
AcDbEntity
  8
RUNDUNGEN
  6
Continuous
 62
     9
100
AcDbSpline
210
0.0
220
0.0
230
1.0
 70
     8
 71
     3
 72
    11
 73
     7
 74
     0
 42
0.0000000001
 43
0.0000000001
 40
0.0
 40
0.0
 40
0.0
 40
0.0
 40
0.2538578784
 40
0.5054886049000001
 40
0.7537676594000001
 40
1.0
 40
1.0
 40
1.0
 40
1.0
 10
521.6996060878
 20
464.1725526353
 30
0.0
 10
521.699961635
 20
464.3025046955999
 30
0.0
 10
521.7502788038
 20
464.5638153163999
 30
0.0
 10
521.9644831345999
 20
464.8959572130999
 30
0.0
 10
522.2859588947
 20
465.1199942455999
 30
0.0
 10
522.5420421602999
 20
465.1725526353
 30
0.0
 10
522.6680911130999
 20
465.1725526353
 30
0.0
  0
SPLINE
  5
3B8
330
213
100
AcDbEntity
  8
RUNDUNGEN
  6
Continuous
 62
     9
100
AcDbSpline
210
0.0
220
0.0
230
1.0
 70
     8
 71
     3
 72
     9
 73
     5
 74
     0
 42
0.0000000001
 43
0.0000000001
 40
0.0
 40
0.0
 40
0.0
 40
0.0
 40
0.1408941807
 40
1.0
 40
1.0
 40
1.0
 40
1.0
 10
521.9838921253999
 20
460.7363385862999
 30
0.0
 10
522.018289089
 20
460.7369412670999
 30
0.0
 10
522.2624533544999
 20
460.7391794813
 30
0.0
 10
522.5066233077
 20
460.7398567366
 30
0.0
 10
522.7163913335999
 20
460.740323149
 30
0.0
  0
SPLINE
  5
3B9
330
213
100
AcDbEntity
  8
RUNDUNGEN
  6
Continuous
 62
     9
100
AcDbSpline
210
0.0
220
0.0
230
1.0
 70
     8
 71
     3
 72
    11
 73
     7
 74
     0
 42
0.0000000001
 43
0.0000000001
 40
0.0
 40
0.0
 40
0.0
 40
0.0
 40
0.2538018663
 40
0.5054457834
 40
0.7538064220999999
 40
1.0
 40
1.0
 40
1.0
 40
1.0
 10
493.8625772646999
 20
464.1725526353
 30
0.0
 10
493.8624084645
 20
464.3024889786
 30
0.0
 10
493.8122484484999
 20
464.5638913677999
 30
0.0
 10
493.5978391198
 20
464.8959989314
 30
0.0
 10
493.2762450951999
 20
465.1199407887
 30
0.0
 10
493.0201335516001
 20
465.1725526353
 30
0.0
 10
492.8940922394
 20
465.1725526353
 30
0.0
  0
SPLINE
  5
3BA
330
213
100
AcDbEntity
  8
RUNDUNGEN
  6
Continuous
 62
     9
100
AcDbSpline
210
0.0
220
0.0
230
1.0
 70
     8
 71
     3
 72
    10
 73
     6
 74
     0
 42
0.0000000001
 43
0.0000000001
 40
0.0
 40
0.0
 40
0.0
 40
0.0
 40
0.5827835258000001
 40
0.8204818583999999
 40
1.0
 40
1.0
 40
1.0
 40
1.0
 10
492.8497130312
 20
464.1765371987
 30
0.0
 10
492.8495482649999
 20
464.3537671833999
 30
0.0
 10
492.8355800633
 20
464.6042642212
 30
0.0
 10
492.7796377237
 20
464.9032368938
 30
0.0
 10
492.7411495025999
 20
465.0251866288999
 30
0.0
 10
492.7172633289999
 20
465.0742770253
 30
0.0
  0
SPLINE
  5
3BB
330
213
100
AcDbEntity
  8
RUNDUNGEN
  6
Continuous
 62
     9
100
AcDbSpline
210
0.0
220
0.0
230
1.0
 70
     8
 71
     3
 72
     9
 73
     5
 74
     0
 42
0.0000000001
 43
0.0000000001
 40
0.0
 40
0.0
 40
0.0
 40
0.0
 40
0.3403003254999999
 40
1.0
 40
1.0
 40
1.0
 40
1.0
 10
492.7172633289999
 20
465.0742770253
 30
0.0
 10
492.7101277776999
 20
465.0889418705999
 30
0.0
 10
492.6883867489999
 20
465.1295595212999
 30
0.0
 10
492.6480133615
 20
465.1725526353
 30
0.0
 10
492.6163976237999
 20
465.1725526353
 30
0.0
  0
SPLINE
  5
3BC
330
213
100
AcDbEntity
  8
RUNDUNGEN
  6
Continuous
 62
     9
100
AcDbSpline
210
0.0
220
0.0
230
1.0
 70
     8
 71
     3
 72
    11
 73
     7
 74
     0
 42
0.0000000001
 43
0.0000000001
 40
0.0
 40
0.0
 40
0.0
 40
0.0
 40
0.1408838506
 40
0.3660723552
 40
0.6594454774000001
 40
1.0
 40
1.0
 40
1.0
 40
1.0
 10
493.5823234501
 20
464.1725526353
 30
0.0
 10
493.5480200976
 20
464.1751950886
 30
0.0
 10
493.4584562363999
 20
464.1724749246
 30
0.0
 10
493.2975185947999
 20
464.1755224733
 30
0.0
 10
493.0876902751999
 20
464.1765371123
 30
0.0
 10
492.9328464341999
 20
464.1742026594999
 30
0.0
 10
492.8497130312
 20
464.1765371987
 30
0.0
  0
SPLINE
  5
3BD
330
213
100
AcDbEntity
  8
RUNDUNGEN
  6
Continuous
 62
     9
100
AcDbSpline
210
0.0
220
0.0
230
1.0
 70
     8
 71
     3
 72
     9
 73
     5
 74
     0
 42
0.0000000001
 43
0.0000000001
 40
0.0
 40
0.0
 40
0.0
 40
0.0
 40
0.340577965
 40
1.0
 40
1.0
 40
1.0
 40
1.0
 10
492.8457931398999
 20
460.7403231683999
 30
0.0
 10
492.9289517461
 20
460.7401382671
 30
0.0
 10
493.1731162808
 20
460.739208683
 30
0.0
 10
493.4173039284999
 20
460.7391592573001
 30
0.0
 10
493.5782900849999
 20
460.7363385865
 30
0.0
  0
SPLINE
  5
3BE
330
213
100
AcDbEntity
  8
RUNDUNGEN
  6
Continuous
 62
     9
100
AcDbSpline
210
0.0
220
0.0
230
1.0
 70
     8
 71
     3
 72
    13
 73
     9
 74
     0
 42
0.0000000001
 43
0.0000000001
 40
0.0
 40
0.0
 40
0.0
 40
0.0
 40
0.2481749643
 40
0.3748087986
 40
0.5033209911
 40
0.6329271897
 40
0.7606677446
 40
1.0
 40
1.0
 40
1.0
 40
1.0
 10
493.5782900849999
 20
460.7363385865
 30
0.0
 10
493.566609347
 20
460.6102672658
 30
0.0
 10
493.5627757764
 20
460.4175600130999
 30
0.0
 10
493.6028318708999
 20
460.1631894772
 30
0.0
 10
493.6652858276
 20
459.9757762344999
 30
0.0
 10
493.7723572482
 20
459.8071157016999
 30
0.0
 10
493.9795617137
 20
459.6494941368
 30
0.0
 10
494.184609991
 20
459.6412381
 30
0.0
 10
494.3041869136
 20
459.665931639
 30
0.0
  0
SPLINE
  5
3BF
330
213
100
AcDbEntity
  8
RUNDUNGEN
  6
Continuous
 62
     9
100
AcDbSpline
210
0.0
220
0.0
230
1.0
 70
     8
 71
     3
 72
    11
 73
     7
 74
     0
 42
0.0000000001
 43
0.0000000001
 40
0.0
 40
0.0
 40
0.0
 40
0.0
 40
0.1304226807
 40
0.3548889258
 40
0.6542675877000001
 40
1.0
 40
1.0
 40
1.0
 40
1.0
 10
494.8991634371
 20
464.9904817276999
 30
0.0
 10
494.9048015181999
 20
465.0283810074999
 30
0.0
 10
494.9470471226
 20
465.1258909005
 30
0.0
 10
495.0468099257
 20
465.289471325
 30
0.0
 10
495.1948922001999
 20
465.4981301626
 30
0.0
 10
495.3089270535
 20
465.6496245650999
 30
0.0
 10
495.3745327648
 20
465.7271657087999
 30
0.0
  0
SPLINE
  5
3C0
330
213
100
AcDbEntity
  8
RUNDUNGEN
  6
Continuous
 62
     9
100
AcDbSpline
210
0.0
220
0.0
230
1.0
 70
     8
 71
     3
 72
     9
 73
     5
 74
     0
 42
0.0000000001
 43
0.0000000001
 40
0.0
 40
0.0
 40
0.0
 40
0.0
 40
0.4503325567
 40
1.0
 40
1.0
 40
1.0
 40
1.0
 10
495.4369521530999
 20
464.9611212656999
 30
0.0
 10
495.4134046517999
 20
465.0741959455
 30
0.0
 10
495.3838792082
 20
465.3297613654999
 30
0.0
 10
495.3745327648999
 20
465.5861879588999
 30
0.0
 10
495.3745327648
 20
465.7271657087999
 30
0.0
  0
SPLINE
  5
3C1
330
213
100
AcDbEntity
  8
RUNDUNGEN
  6
Continuous
 62
     9
100
AcDbSpline
210
0.0
220
0.0
230
1.0
 70
     8
 71
     3
 72
     9
 73
     5
 74
     0
 42
0.0000000001
 43
0.0000000001
 40
0.0
 40
0.0
 40
0.0
 40
0.0
 40
0.2833061076
 40
1.0
 40
1.0
 40
1.0
 40
1.0
 10
495.4369521530999
 20
464.9611212656999
 30
0.0
 10
495.3873436241999
 20
464.9472369066
 30
0.0
 10
495.2104689636
 20
464.9098001301999
 30
0.0
 10
495.0131619001999
 20
464.9273343079999
 30
0.0
 10
494.8991634371
 20
464.9904817276999
 30
0.0
  0
SPLINE
  5
3C2
330
213
100
AcDbEntity
  8
RUNDUNGEN
  6
Continuous
 62
     9
100
AcDbSpline
210
0.0
220
0.0
230
1.0
 70
     8
 71
     3
 72
     9
 73
     5
 74
     0
 42
0.0000000001
 43
0.0000000001
 40
0.0
 40
0.0
 40
0.0
 40
0.0
 40
0.2469307739
 40
1.0
 40
1.0
 40
1.0
 40
1.0
 10
494.0882897170999
 20
465.2437061268
 30
0.0
 10
494.1588569516
 20
465.2441525929
 30
0.0
 10
494.4439901383
 20
465.2261967914999
 30
0.0
 10
494.7269997144
 20
465.1196208579
 30
0.0
 10
494.8991625719999
 20
464.9904805481999
 30
0.0
  0
SPLINE
  5
3C3
330
213
100
AcDbEntity
  8
RUNDUNGEN
  6
Continuous
 62
     9
100
AcDbSpline
210
0.0
220
0.0
230
1.0
 70
     8
 71
     3
 72
    12
 73
     8
 74
     0
 42
0.0000000001
 43
0.0000000001
 40
0.0
 40
0.0
 40
0.0
 40
0.0
 40
0.3632273858
 40
0.6746683673
 40
0.8918828001000001
 40
0.9581166427999999
 40
1.0
 40
1.0
 40
1.0
 40
1.0
 10
493.8961400633
 20
466.2435553139999
 30
0.0
 10
493.8961400632
 20
466.1172427097
 30
0.0
 10
493.9045318635
 20
465.8822394567
 30
0.0
 10
493.9408294619999
 20
465.5747513435
 30
0.0
 10
493.9895324486999
 20
465.3708995141999
 30
0.0
 10
494.0408139133
 20
465.2703720606999
 30
0.0
 10
494.0737824239
 20
465.2450024761
 30
0.0
 10
494.0882897217999
 20
465.2437076187999
 30
0.0
  0
SPLINE
  5
3C4
330
213
100
AcDbEntity
  8
RUNDUNGEN
  6
Continuous
 62
     9
100
AcDbSpline
210
0.0
220
0.0
230
1.0
 70
     8
 71
     3
 72
     9
 73
     5
 74
     0
 42
0.0000000001
 43
0.0000000001
 40
0.0
 40
0.0
 40
0.0
 40
0.0
 40
0.4702937252
 40
1.0
 40
1.0
 40
1.0
 40
1.0
 10
494.7766501501
 20
464.2273092207999
 30
0.0
 10
494.8126913442999
 20
464.043951464
 30
0.0
 10
495.0502577671
 20
463.6867522309999
 30
0.0
 10
495.4237479486
 20
463.5072629955
 30
0.0
 10
495.6291334364999
 20
463.4612649625999
 30
0.0
  0
SPLINE
  5
3C5
330
213
100
AcDbEntity
  8
RUNDUNGEN
  6
Continuous
 62
     9
100
AcDbSpline
210
0.0
220
0.0
230
1.0
 70
     8
 71
     3
 72
    11
 73
     7
 74
     0
 42
0.0000000001
 43
0.0000000001
 40
0.0
 40
0.0
 40
0.0
 40
0.0
 40
0.2696322
 40
0.511163329
 40
0.752115813
 40
1.0
 40
1.0
 40
1.0
 40
1.0
 10
494.8991673952999
 20
464.9904819837999
 30
0.0
 10
494.9370211029999
 20
464.9280915459999
 30
0.0
 10
494.9763332816
 20
464.7885194673
 30
0.0
 10
494.9509518029
 20
464.5839299548
 30
0.0
 10
494.8810330833
 20
464.3977203333999
 30
0.0
 10
494.8140605745
 20
464.28300026
 30
0.0
 10
494.7766501501
 20
464.2273092207999
 30
0.0
  0
SPLINE
  5
3C6
330
213
100
AcDbEntity
  8
RUNDUNGEN
  6
Continuous
 62
     9
100
AcDbSpline
210
0.0
220
0.0
230
1.0
 70
     8
 71
     3
 72
     9
 73
     5
 74
     0
 42
0.0000000001
 43
0.0000000001
 40
0.0
 40
0.0
 40
0.0
 40
0.0
 40
0.2220584942
 40
1.0
 40
1.0
 40
1.0
 40
1.0
 10
520.6630199164
 20
464.9904817272
 30
0.0
 10
520.6274217367999
 20
464.9712438581
 30
0.0
 10
520.4562462364
 20
464.9042509947999
 30
0.0
 10
520.2611883408999
 20
464.9209846834999
 30
0.0
 10
520.1252312003999
 20
464.9611212656999
 30
0.0
  0
SPLINE
  5
3C7
330
213
100
AcDbEntity
  8
RUNDUNGEN
  6
Continuous
 62
     9
100
AcDbSpline
210
0.0
220
0.0
230
1.0
 70
     8
 71
     3
 72
     9
 73
     5
 74
     0
 42
0.0000000001
 43
0.0000000001
 40
0.0
 40
0.0
 40
0.0
 40
0.0
 40
0.5496693091
 40
1.0
 40
1.0
 40
1.0
 40
1.0
 10
520.1876505887001
 20
465.7271657089999
 30
0.0
 10
520.1876505887001
 20
465.5861874803999
 30
0.0
 10
520.1783041235
 20
465.3297608832
 30
0.0
 10
520.1487786041999
 20
465.0741954771
 30
0.0
 10
520.1252312003999
 20
464.9611212656999
 30
0.0
  0
SPLINE
  5
3C8
330
213
100
AcDbEntity
  8
RUNDUNGEN
  6
Continuous
 62
     9
100
AcDbSpline
210
0.0
220
0.0
230
1.0
 70
     8
 71
     3
 72
    11
 73
     7
 74
     0
 42
0.0000000001
 43
0.0000000001
 40
0.0
 40
0.0
 40
0.0
 40
0.0
 40
0.3457315802
 40
0.6451430049
 40
0.8696463303999999
 40
1.0
 40
1.0
 40
1.0
 40
1.0
 10
520.1876505887001
 20
465.7271657089999
 30
0.0
 10
520.2516791586
 20
465.6483212369
 30
0.0
 10
520.3678441724999
 20
465.4988173651
 30
0.0
 10
520.5161982019999
 20
465.2894818304
 30
0.0
 10
520.6128619648999
 20
465.1255262433
 30
0.0
 10
520.6598340039
 20
465.0286439805999
 30
0.0
 10
520.6630199164
 20
464.9904817272
 30
0.0
  0
SPLINE
  5
3C9
330
213
100
AcDbEntity
  8
RUNDUNGEN
  6
Continuous
 62
     9
100
AcDbSpline
210
0.0
220
0.0
230
1.0
 70
     8
 71
     3
 72
    11
 73
     7
 74
     0
 42
0.0000000001
 43
0.0000000001
 40
0.0
 40
0.0
 40
0.0
 40
0.0
 40
0.2478837079
 40
0.4888363378000001
 40
0.7303666142000001
 40
1.0
 40
1.0
 40
1.0
 40
1.0
 10
520.7855331939
 20
464.2273092212
 30
0.0
 10
520.748122703
 20
464.2830000752
 30
0.0
 10
520.681150593
 20
464.3977202871
 30
0.0
 10
520.6112317469999
 20
464.5839296533999
 30
0.0
 10
520.5858497832
 20
464.7885187022
 30
0.0
 10
520.6251601844999
 20
464.9280923752999
 30
0.0
 10
520.6630158960999
 20
464.9904819891999
 30
0.0
  0
SPLINE
  5
3CA
330
213
100
AcDbEntity
  8
RUNDUNGEN
  6
Continuous
 62
     9
100
AcDbSpline
210
0.0
220
0.0
230
1.0
 70
     8
 71
     3
 72
     9
 73
     5
 74
     0
 42
0.0000000001
 43
0.0000000001
 40
0.0
 40
0.0
 40
0.0
 40
0.0
 40
0.5297062751000001
 40
1.0
 40
1.0
 40
1.0
 40
1.0
 10
519.933049919
 20
463.4612649425999
 30
0.0
 10
520.1384354066999
 20
463.5072629800999
 30
0.0
 10
520.5119255856
 20
463.6867522258
 30
0.0
 10
520.7494920006999
 20
464.0439514636
 30
0.0
 10
520.7855331939
 20
464.2273092212
 30
0.0
  0
SPLINE
  5
3CB
330
213
100
AcDbEntity
  8
RUNDUNGEN
  6
Continuous
 62
     9
100
AcDbSpline
210
0.0
220
0.0
230
1.0
 70
     8
 71
     3
 72
    12
 73
     8
 74
     0
 42
0.0000000001
 43
0.0000000001
 40
0.0
 40
0.0
 40
0.0
 40
0.0
 40
0.0418833575
 40
0.1081172011
 40
0.3253316355
 40
0.6367726165
 40
1.0
 40
1.0
 40
1.0
 40
1.0
 10
521.4738936309999
 20
465.2437076187999
 30
0.0
 10
521.4884009289
 20
465.2450024759999
 30
0.0
 10
521.5213694397
 20
465.2703720612
 30
0.0
 10
521.5726509046
 20
465.3708995155
 30
0.0
 10
521.6213538908999
 20
465.5747513458
 30
0.0
 10
521.6576514892
 20
465.8822394585
 30
0.0
 10
521.6660432892999
 20
466.1172427104999
 30
0.0
 10
521.6660432891999
 20
466.2435553139999
 30
0.0
  0
SPLINE
  5
3CC
330
213
100
AcDbEntity
  8
RUNDUNGEN
  6
Continuous
 62
     9
100
AcDbSpline
210
0.0
220
0.0
230
1.0
 70
     8
 71
     3
 72
     9
 73
     5
 74
     0
 42
0.0000000001
 43
0.0000000001
 40
0.0
 40
0.0
 40
0.0
 40
0.0
 40
0.2577139202
 40
1.0
 40
1.0
 40
1.0
 40
1.0
 10
520.6630198498999
 20
464.990481805
 30
0.0
 10
520.7220092157999
 20
465.0347318896
 30
0.0
 10
520.9676127752
 20
465.1839912344999
 30
0.0
 10
521.2615022250999
 20
465.2450474421
 30
0.0
 10
521.4738936447999
 20
465.2437033577999
 30
0.0
  0
SPLINE
  5
3CD
330
213
100
AcDbEntity
  8
RUNDUNGEN
  6
Continuous
 62
     9
100
AcDbSpline
210
0.0
220
0.0
230
1.0
 70
     8
 71
     3
 72
     9
 73
     5
 74
     0
 42
0.0000000001
 43
0.0000000001
 40
0.0
 40
0.0
 40
0.0
 40
0.0
 40
0.5488178486000001
 40
1.0
 40
1.0
 40
1.0
 40
1.0
 10
521.1831660631999
 20
458.9038717163999
 30
0.0
 10
521.1832832436
 20
459.0441731937
 30
0.0
 10
521.194584773
 20
459.2997478778999
 30
0.0
 10
521.2300579004
 20
459.5540247929
 30
0.0
 10
521.2579963805
 20
459.6659315961
 30
0.0
  0
SPLINE
  5
3CE
330
213
100
AcDbEntity
  8
RUNDUNGEN
  6
Continuous
 62
     9
100
AcDbSpline
210
0.0
220
0.0
230
1.0
 70
     8
 71
     3
 72
    13
 73
     9
 74
     0
 42
0.0000000001
 43
0.0000000001
 40
0.0
 40
0.0
 40
0.0
 40
0.0
 40
0.2393327779
 40
0.3670732266
 40
0.4966792881
 40
0.6251913681
 40
0.7518251264
 40
1.0
 40
1.0
 40
1.0
 40
1.0
 10
521.2579964391998
 20
459.6659316372
 30
0.0
 10
521.377573685
 20
459.6412383573
 30
0.0
 10
521.5826221927999
 20
459.6494942087
 30
0.0
 10
521.789826549
 20
459.8071162155999
 30
0.0
 10
521.8968977685999
 20
459.9757766248
 30
0.0
 10
521.9593515207
 20
460.1631897626
 30
0.0
 10
521.9994075233
 20
460.4175601487999
 30
0.0
 10
521.9955740509
 20
460.6102673199
 30
0.0
 10
521.9838932546999
 20
460.7363385862999
 30
0.0
  0
SPLINE
  5
3CF
330
213
100
AcDbEntity
  8
RUNDUNGEN
  6
Continuous
 62
     9
100
AcDbSpline
210
0.0
220
0.0
230
1.0
 70
     8
 71
     3
 72
     9
 73
     5
 74
     0
 42
0.0000000001
 43
0.0000000001
 40
0.0
 40
0.0
 40
0.0
 40
0.0
 40
0.3405553691
 40
1.0
 40
1.0
 40
1.0
 40
1.0
 10
522.7124703212999
 20
464.1765371987
 30
0.0
 10
522.6293043514
 20
464.1763522271999
 30
0.0
 10
522.3851019919999
 20
464.1754224670999
 30
0.0
 10
522.1408765262
 20
464.1753731548
 30
0.0
 10
521.9798599025
 20
464.1725526353
 30
0.0
  0
SPLINE
  5
3D0
330
213
100
AcDbEntity
  8
RUNDUNGEN
  6
Continuous
 62
     9
100
AcDbSpline
210
0.0
220
0.0
230
1.0
 70
     8
 71
     3
 72
    11
 73
     7
 74
     0
 42
0.0000000001
 43
0.0000000001
 40
0.0
 40
0.0
 40
0.0
 40
0.0
 40
0.2539950701
 40
0.5056598288
 40
0.7540091314000001
 40
1.0
 40
1.0
 40
1.0
 40
1.0
 10
521.9798599025
 20
464.1725526353
 30
0.0
 10
521.9798599025
 20
464.3024496191
 30
0.0
 10
522.029538912
 20
464.5637495232
 30
0.0
 10
522.2432190585
 20
464.8959983430999
 30
0.0
 10
522.5642741544
 20
465.1198628869
 30
0.0
 10
522.8199822166
 20
465.1725526353
 30
0.0
 10
522.9457857287999
 20
465.1725526353
 30
0.0
  0
SPLINE
  5
3D1
330
213
100
AcDbEntity
  8
RUNDUNGEN
  6
Continuous
 62
     9
100
AcDbSpline
210
0.0
220
0.0
230
1.0
 70
     8
 71
     3
 72
     9
 73
     5
 74
     0
 42
0.0000000001
 43
0.0000000001
 40
0.0
 40
0.0
 40
0.0
 40
0.0
 40
0.1838384887
 40
1.0
 40
1.0
 40
1.0
 40
1.0
 10
522.9457857287999
 20
465.1725526353
 30
0.0
 10
522.9368549162
 20
465.1725526353
 30
0.0
 10
522.8882312217999
 20
465.1587570395999
 30
0.0
 10
522.862079004
 20
465.1096115519
 30
0.0
 10
522.8447589726
 20
465.0739457678
 30
0.0
  0
SPLINE
  5
3D2
330
213
100
AcDbEntity
  8
RUNDUNGEN
  6
Continuous
 62
     9
100
AcDbSpline
210
0.0
220
0.0
230
1.0
 70
     8
 71
     3
 72
    10
 73
     6
 74
     0
 42
0.0000000001
 43
0.0000000001
 40
0.0
 40
0.0
 40
0.0
 40
0.0
 40
0.1796208091
 40
0.4173414857
 40
1.0
 40
1.0
 40
1.0
 40
1.0
 10
522.8447589726
 20
465.0739457678
 30
0.0
 10
522.8209066524
 20
465.0248285532
 30
0.0
 10
522.7824634341999
 20
464.9028835093999
 30
0.0
 10
522.7265907055
 20
464.6040203509
 30
0.0
 10
522.7126349861999
 20
464.3536581178
 30
0.0
 10
522.7124703212999
 20
464.1765371987
 30
0.0
  0
SPLINE
  5
3D3
330
213
100
AcDbEntity
  8
RUNDUNGEN
  6
Continuous
 62
     9
100
AcDbSpline
210
0.0
220
0.0
230
1.0
 70
     8
 71
     3
 72
    12
 73
     8
 74
     0
 42
0.0000000001
 43
0.0000000001
 40
0.0
 40
0.0
 40
0.0
 40
0.0
 40
0.0567450239
 40
0.1403815201
 40
0.3770457621
 40
0.6784395675
 40
1.0
 40
1.0
 40
1.0
 40
1.0
 10
494.258563286
 20
378.3112987562
 30
0.0
 10
494.3036369591999
 20
378.3021641944
 30
0.0
 10
494.4165821267
 20
378.2871996034
 30
0.0
 10
494.7207728676999
 20
378.2585554082
 30
0.0
 10
495.2240974645
 20
378.2311506898
 30
0.0
 10
495.9204216805
 20
378.2089960229
 30
0.0
 10
496.4253371714
 20
378.2034298273
 30
0.0
 10
496.6859512267999
 20
378.2034224565
 30
0.0
  0
SPLINE
  5
3D4
330
213
100
AcDbEntity
  8
RUNDUNGEN
  6
Continuous
 62
     9
100
AcDbSpline
210
0.0
220
0.0
230
1.0
 70
     8
 71
     3
 72
    12
 73
     8
 74
     0
 42
0.0000000001
 43
0.0000000001
 40
0.0
 40
0.0
 40
0.0
 40
0.0
 40
0.3215604325
 40
0.6229542384000001
 40
0.8596184843000001
 40
0.9432549689
 40
1.0
 40
1.0
 40
1.0
 40
1.0
 10
518.8762321257
 20
378.2034224565
 30
0.0
 10
519.1368461811
 20
378.2034298064
 30
0.0
 10
519.6417616721999
 20
378.2089960321
 30
0.0
 10
520.3380858923999
 20
378.2311506865
 30
0.0
 10
520.8414104818
 20
378.2585554112
 30
0.0
 10
521.1456012248
 20
378.2871995983
 30
0.0
 10
521.2585463851
 20
378.3021642052
 30
0.0
 10
521.3036200666
 20
378.3112987562
 30
0.0
  0
LINE
  5
3D5
330
213
100
AcDbEntity
  8
RUNDUNGEN
  6
Continuous
 62
     9
100
AcDbLine
 10
521.3036200666
 20
378.3112987562
 30
0.0
 11
521.936053788
 21
378.439343193
 31
0.0
  0
LINE
  5
3D6
330
213
100
AcDbEntity
  8
RUNDUNGEN
  6
Continuous
 62
     9
100
AcDbLine
 10
491.5979428866999
 20
402.2488037499999
 30
0.0
 11
494.6065912569999
 21
379.437972728
 31
0.0
  0
SPLINE
  5
3D7
330
213
100
AcDbEntity
  8
RUNDUNGEN
  6
Continuous
 62
     9
100
AcDbSpline
210
0.0
220
0.0
230
1.0
 70
     8
 71
     3
 72
     9
 73
     5
 74
     0
 42
0.0000000001
 43
0.0000000001
 40
0.0
 40
0.0
 40
0.0
 40
0.0
 40
0.2583617601
 40
1.0
 40
1.0
 40
1.0
 40
1.0
 10
491.5415206319
 20
403.1488156226999
 30
0.0
 10
491.5416006713
 20
403.0711247778
 30
0.0
 10
491.5464914162
 20
402.7704651305
 30
0.0
 10
491.5687812829999
 20
402.4699038715
 30
0.0
 10
491.5979428866999
 20
402.2488037499999
 30
0.0
  0
LINE
  5
3D8
330
213
100
AcDbEntity
  8
RUNDUNGEN
  6
Continuous
 62
     9
100
AcDbLine
 10
496.007669633
 20
405.3118934841
 30
0.0
 11
491.5383563377999
 21
406.216717715
 31
0.0
  0
LINE
  5
3D9
330
213
100
AcDbEntity
  8
RUNDUNGEN
  6
Continuous
 62
     9
100
AcDbLine
 10
496.007669633
 20
401.2435553139999
 30
0.0
 11
494.1417236641
 21
401.1177399331999
 31
0.0
  0
LINE
  5
3DA
330
213
100
AcDbEntity
  8
RUNDUNGEN
  6
Continuous
 62
     9
100
AcDbLine
 10
494.6065912569999
 20
379.437972728
 30
0.0
 11
495.2390879121
 21
379.3099256287
 31
0.0
  0
LINE
  5
3DB
330
213
100
AcDbEntity
  8
RUNDUNGEN
  6
Continuous
 62
     9
100
AcDbLine
 10
520.9555920955999
 20
379.437972728
 30
0.0
 11
523.9642404658
 21
402.2488037499999
 31
0.0
  0
LINE
  5
3DC
330
213
100
AcDbEntity
  8
RUNDUNGEN
  6
Continuous
 62
     9
100
AcDbLine
 10
520.3230954358
 20
379.3099256276999
 30
0.0
 11
520.9555920955999
 21
379.437972728
 31
0.0
  0
LINE
  5
3DD
330
213
100
AcDbEntity
  8
RUNDUNGEN
  6
Continuous
 62
     9
100
AcDbLine
 10
521.4204596884
 20
401.1177399331999
 30
0.0
 11
519.5545137195999
 21
401.2435553139999
 31
0.0
  0
LINE
  5
3DE
330
213
100
AcDbEntity
  8
RUNDUNGEN
  6
Continuous
 62
     9
100
AcDbLine
 10
524.0238270148
 20
406.216717715
 30
0.0
 11
519.5545137195999
 21
405.3118934841
 31
0.0
  0
SPLINE
  5
3DF
330
213
100
AcDbEntity
  8
RUNDUNGEN
  6
Continuous
 62
     9
100
AcDbSpline
210
0.0
220
0.0
230
1.0
 70
     8
 71
     3
 72
     9
 73
     5
 74
     0
 42
0.0000000001
 43
0.0000000001
 40
0.0
 40
0.0
 40
0.0
 40
0.0
 40
0.2385960017
 40
1.0
 40
1.0
 40
1.0
 40
1.0
 10
523.9642404658
 20
402.2488037499999
 30
0.0
 10
523.9736223783999
 20
402.3199363953
 30
0.0
 10
524.0072067123
 20
402.6188088820999
 30
0.0
 10
524.0204268359999
 20
402.9198524180999
 30
0.0
 10
524.0206627205999
 20
403.1488156226999
 30
0.0
  0
LINE
  5
3E0
330
213
100
AcDbEntity
  8
RUNDUNGEN
  6
Continuous
 62
     9
100
AcDbLine
 10
523.0745604143
 20
407.2212512908999
 30
0.0
 11
518.5761566702
 21
406.3105230188999
 31
0.0
  0
LINE
  5
3E1
330
213
100
AcDbEntity
  8
RUNDUNGEN
  6
Continuous
 62
     9
100
AcDbLine
 10
496.9860266822999
 20
406.3105230188999
 30
0.0
 11
492.4876229383
 21
407.2212512908999
 31
0.0
  0
LINE
  5
3E2
330
213
100
AcDbEntity
  8
RUNDUNGEN
  6
Continuous
 62
     9
100
AcDbLine
 10
496.9777408837999
 20
400.2437076188
 30
0.0
 11
495.7287329008
 21
400.1594901737999
 31
0.0
  0
LINE
  5
3E3
330
213
100
AcDbEntity
  8
RUNDUNGEN
  6
Continuous
 62
     9
100
AcDbLine
 10
519.8334504516999
 20
400.1594901737999
 30
0.0
 11
518.5844424686999
 21
400.2437076188
 31
0.0
  0
LINE
  5
3E4
330
213
100
AcDbEntity
  8
RUNDUNGEN
  6
Continuous
 62
     9
100
AcDbLine
 10
496.4640545187999
 20
379.0112429958
 30
0.0
 11
495.4611788794999
 21
398.9691734344999
 31
0.0
  0
LINE
  5
3E5
330
213
100
AcDbEntity
  8
RUNDUNGEN
  6
Continuous
 62
     9
100
AcDbLine
 10
520.1009611039999
 20
398.9691728297001
 30
0.0
 11
519.0981288748
 21
379.0112429958
 31
0.0
  0
SPLINE
  5
3E6
330
213
100
AcDbEntity
  8
RUNDUNGEN
  6
Continuous
 62
     9
100
AcDbSpline
210
0.0
220
0.0
230
1.0
 70
     8
 71
     3
 72
     8
 73
     4
 74
     0
 42
0.0000000001
 43
0.0000000001
 40
0.0
 40
0.0
 40
0.0
 40
0.0
 40
1.0
 40
1.0
 40
1.0
 40
1.0
 10
490.3876744306
 20
401.7948132546999
 30
0.0
 10
491.3896761511
 20
394.1912241557
 30
0.0
 10
492.3915533365
 20
386.5876186421
 30
0.0
 10
493.3931959384999
 20
378.9839822271
 30
0.0
  0
SPLINE
  5
3E7
330
213
100
AcDbEntity
  8
RUNDUNGEN
  6
Continuous
 62
     9
100
AcDbSpline
210
0.0
220
0.0
230
1.0
 70
     8
 71
     3
 72
    11
 73
     7
 74
     0
 42
0.0000000001
 43
0.0000000001
 40
0.0
 40
0.0
 40
0.0
 40
0.0
 40
0.2466409693
 40
0.4948199136
 40
0.7461201765000001
 40
1.0
 40
1.0
 40
1.0
 40
1.0
 10
523.3050045213999
 20
408.2158962623
 30
0.0
 10
523.5593270448
 20
408.2159189533999
 30
0.0
 10
524.0753504714
 20
408.1124877675
 30
0.0
 10
524.7271639707999
 20
407.6675228895999
 30
0.0
 10
525.1629043172
 20
407.0011310585999
 30
0.0
 10
525.2642230830999
 20
406.4745114933
 30
0.0
 10
525.2639271064
 20
406.2127248302999
 30
0.0
  0
SPLINE
  5
3E8
330
213
100
AcDbEntity
  8
RUNDUNGEN
  6
Continuous
 62
     9
100
AcDbSpline
210
0.0
220
0.0
230
1.0
 70
     8
 71
     3
 72
     9
 73
     5
 74
     0
 42
0.0000000001
 43
0.0000000001
 40
0.0
 40
0.0
 40
0.0
 40
0.0
 40
0.2583385846
 40
1.0
 40
1.0
 40
1.0
 40
1.0
 10
490.3014182609999
 20
403.1448310594
 30
0.0
 10
490.3015406954
 20
403.028294733
 30
0.0
 10
490.3090167053999
 20
402.5772671309999
 30
0.0
 10
490.343100063
 20
402.1263936510999
 30
0.0
 10
490.3876744306
 20
401.7948132546999
 30
0.0
  0
SPLINE
  5
3E9
330
213
100
AcDbEntity
  8
RUNDUNGEN
  6
Continuous
 62
     9
100
AcDbSpline
210
0.0
220
0.0
230
1.0
 70
     8
 71
     3
 72
    11
 73
     7
 74
     0
 42
0.0000000001
 43
0.0000000001
 40
0.0
 40
0.0
 40
0.0
 40
0.0
 40
0.2538802408
 40
0.5051803403
 40
0.7533591409999999
 40
1.0
 40
1.0
 40
1.0
 40
1.0
 10
490.2982562461
 20
406.212724837
 30
0.0
 10
490.2979616219999
 20
406.4745119384999
 30
0.0
 10
490.3992781409
 20
407.0011319358999
 30
0.0
 10
490.8350202394
 20
407.6675233672
 30
0.0
 10
491.4868331989
 20
408.1124877266
 30
0.0
 10
492.0028564152
 20
408.2159190162
 30
0.0
 10
492.2571788311
 20
408.2158962623
 30
0.0
  0
SPLINE
  5
3EA
330
213
100
AcDbEntity
  8
RUNDUNGEN
  6
Continuous
 62
     9
100
AcDbSpline
210
0.0
220
0.0
230
1.0
 70
     8
 71
     3
 72
     9
 73
     5
 74
     0
 42
0.0000000001
 43
0.0000000001
 40
0.0
 40
0.0
 40
0.0
 40
0.0
 40
0.2386345104
 40
1.0
 40
1.0
 40
1.0
 40
1.0
 10
525.1745089219
 20
401.7948132546999
 30
0.0
 10
525.1888513283001
 20
401.9015037376
 30
0.0
 10
525.2401897250999
 20
402.3497470278
 30
0.0
 10
525.2604042500999
 20
402.8013723722
 30
0.0
 10
525.2607650915
 20
403.1448310594
 30
0.0
  0
SPLINE
  5
3EB
330
213
100
AcDbEntity
  8
RUNDUNGEN
  6
Continuous
 62
     9
100
AcDbSpline
210
0.0
220
0.0
230
1.0
 70
     8
 71
     3
 72
     8
 73
     4
 74
     0
 42
0.0000000001
 43
0.0000000001
 40
0.0
 40
0.0
 40
0.0
 40
0.0
 40
1.0
 40
1.0
 40
1.0
 40
1.0
 10
521.9786888378999
 20
477.3657413548999
 30
0.0
 10
521.4110426848
 20
477.3320948273999
 30
0.0
 10
520.8434224080999
 20
477.2980101223
 30
0.0
 10
520.2758226088
 20
477.2635904814999
 30
0.0
  0
LINE
  5
3EC
330
213
100
AcDbEntity
  8
RUNDUNGEN
  6
Continuous
 62
     9
100
AcDbLine
 10
521.9798599025
 20
464.1725526353
 30
0.0
 11
521.9838921427999
 21
460.7363210916999
 31
0.0
  0
LINE
  5
3ED
330
213
100
AcDbEntity
  8
RUNDUNGEN
  6
Continuous
 62
     9
100
AcDbLine
 10
520.7855330054
 20
464.227309754
 30
0.0
 11
521.6996060878
 21
464.1725526353
 31
0.0
  0
SPLINE
  5
3EE
330
213
100
AcDbEntity
  8
RUNDUNGEN
  6
Continuous
 62
     9
100
AcDbSpline
210
0.0
220
0.0
230
1.0
 70
     8
 71
     3
 72
     8
 73
     4
 74
     0
 42
0.0000000001
 43
0.0000000001
 40
0.0
 40
0.0
 40
0.0
 40
0.0
 40
1.0
 40
1.0
 40
1.0
 40
1.0
 10
495.2863607437999
 20
477.2635906696
 30
0.0
 10
494.7187609419999
 20
477.2980103114
 30
0.0
 10
494.1511406701
 20
477.3320951379
 30
0.0
 10
493.5834945145999
 20
477.3657416664
 30
0.0
  0
LINE
  5
3EF
330
213
100
AcDbEntity
  8
RUNDUNGEN
  6
Continuous
 62
     9
100
AcDbLine
 10
493.5782912097
 20
460.7363210915
 30
0.0
 11
493.5823234501
 21
464.1725526353
 31
0.0
  0
LINE
  5
3F0
330
213
100
AcDbEntity
  8
RUNDUNGEN
  6
Continuous
 62
     9
100
AcDbLine
 10
493.8625772646999
 20
464.1725526353
 30
0.0
 11
494.7766503522999
 21
464.2273097691
 31
0.0
  0
SPLINE
  5
3F1
330
213
100
AcDbEntity
  8
RUNDUNGEN
  6
Continuous
 62
     9
100
AcDbSpline
210
0.0
220
0.0
230
1.0
 70
     8
 71
     3
 72
    10
 73
     6
 74
     0
 42
0.0000000001
 43
0.0000000001
 40
0.0
 40
0.0
 40
0.0
 40
0.0
 40
0.2727034277
 40
0.5216067888
 40
1.0
 40
1.0
 40
1.0
 40
1.0
 10
495.4370942619
 20
464.9611212658999
 30
0.0
 10
495.5287671785
 20
464.8512808059
 30
0.0
 10
495.6683658763999
 20
464.6083017022
 30
0.0
 10
495.7767487986
 20
464.0891207235999
 30
0.0
 10
495.7111565188999
 20
463.6984594838
 30
0.0
 10
495.6290908399999
 20
463.4612743851
 30
0.0
  0
SPLINE
  5
3F2
330
213
100
AcDbEntity
  8
RUNDUNGEN
  6
Continuous
 62
     9
100
AcDbSpline
210
0.0
220
0.0
230
1.0
 70
     8
 71
     3
 72
    10
 73
     6
 74
     0
 42
0.0000000001
 43
0.0000000001
 40
0.0
 40
0.0
 40
0.0
 40
0.0
 40
0.4783902487
 40
0.7272924256000001
 40
1.0
 40
1.0
 40
1.0
 40
1.0
 10
519.9330925124
 20
463.4612743855
 30
0.0
 10
519.8510258517
 20
463.6984595544999
 30
0.0
 10
519.7854375637
 20
464.089120275
 30
0.0
 10
519.8938132531
 20
464.6083099863999
 30
0.0
 10
520.0334357801
 20
464.8512806422
 30
0.0
 10
520.1251136232
 20
464.9611212658999
 30
0.0
  0
SPLINE
  5
3F3
330
213
100
AcDbEntity
  8
RUNDUNGEN
  6
Continuous
 62
     9
100
AcDbSpline
210
0.0
220
0.0
230
1.0
 70
     8
 71
     3
 72
     8
 73
     4
 74
     0
 42
0.0000000001
 43
0.0000000001
 40
0.0
 40
0.0
 40
0.0
 40
0.0
 40
1.0
 40
1.0
 40
1.0
 40
1.0
 10
522.1689874141
 20
378.9839822271
 30
0.0
 10
523.1706300159999
 20
386.5876186421
 30
0.0
 10
524.1725072013999
 20
394.1912241557
 30
0.0
 10
525.1745089219
 20
401.7948132546999
 30
0.0
  0
SPLINE
  5
3F4
330
213
100
AcDbEntity
  8
RUNDUNGEN
  6
Continuous
 62
     9
100
AcDbSpline
210
0.0
220
0.0
230
1.0
 70
     8
 71
     3
 72
    11
 73
     7
 74
     0
 42
0.0000000001
 43
0.0000000001
 40
0.0
 40
0.0
 40
0.0
 40
0.0
 40
0.2533886875
 40
0.504960914
 40
0.7532254294
 40
1.0
 40
1.0
 40
1.0
 40
1.0
 10
492.8457920595
 20
460.7403225862999
 30
0.0
 10
492.8455683963999
 20
460.5150464405
 30
0.0
 10
492.8971148176
 20
460.0631916244999
 30
0.0
 10
493.1822139924999
 20
459.4395717944999
 30
0.0
 10
493.7101381863
 20
458.9949373426
 30
0.0
 10
494.1596189701
 20
458.9039070472
 30
0.0
 10
494.3790149162
 20
458.9038717163999
 30
0.0
  0
SPLINE
  5
3F5
330
213
100
AcDbEntity
  8
RUNDUNGEN
  6
Continuous
 62
     9
100
AcDbSpline
210
0.0
220
0.0
230
1.0
 70
     8
 71
     3
 72
    11
 73
     7
 74
     0
 42
0.0000000001
 43
0.0000000001
 40
0.0
 40
0.0
 40
0.0
 40
0.0
 40
0.2467749563
 40
0.4950393408
 40
0.7466114398000001
 40
1.0
 40
1.0
 40
1.0
 40
1.0
 10
521.1831684366
 20
458.9038717163999
 30
0.0
 10
521.4025647256
 20
458.9039071618
 30
0.0
 10
521.8520457387
 20
458.9949375309999
 30
0.0
 10
522.3799698796
 20
459.4395723232
 30
0.0
 10
522.6650683151
 20
460.0631920120999
 30
0.0
 10
522.7166151377999
 20
460.5150465534999
 30
0.0
 10
522.716391293
 20
460.7403225858999
 30
0.0
  0
SPLINE
  5
3F6
330
213
100
AcDbEntity
  8
RUNDUNGEN
  6
Continuous
 62
     9
100
AcDbSpline
210
0.0
220
0.0
230
1.0
 70
     8
 71
     3
 72
     8
 73
     4
 74
     0
 42
0.0000000001
 43
0.0000000001
 40
0.0
 40
0.0
 40
0.0
 40
0.0
 40
1.0
 40
1.0
 40
1.0
 40
1.0
 10
492.9031478878999
 20
465.1725526375
 30
0.0
 10
493.2981676651
 20
465.1960772632
 30
0.0
 10
493.6931749969999
 20
465.2198114132
 30
0.0
 10
494.0881724700999
 20
465.2437076187999
 30
0.0
  0
SPLINE
  5
3F7
330
213
100
AcDbEntity
  8
RUNDUNGEN
  6
Continuous
 62
     9
100
AcDbSpline
210
0.0
220
0.0
230
1.0
 70
     8
 71
     3
 72
     8
 73
     4
 74
     0
 42
0.0000000001
 43
0.0000000001
 40
0.0
 40
0.0
 40
0.0
 40
0.0
 40
1.0
 40
1.0
 40
1.0
 40
1.0
 10
521.4740120373
 20
465.2437076187999
 30
0.0
 10
521.8690091244999
 20
465.2198114294
 30
0.0
 10
522.2640160669999
 20
465.1960772396
 30
0.0
 10
522.6590354587
 20
465.1725526379
 30
0.0
  0
SPLINE
  5
3F8
330
213
100
AcDbEntity
  8
RUNDUNGEN
  6
Continuous
 62
     9
100
AcDbSpline
210
0.0
220
0.0
230
1.0
 70
     8
 71
     3
 72
     9
 73
     5
 74
     0
 42
0.0000000001
 43
0.0000000001
 40
0.0
 40
0.0
 40
0.0
 40
0.0
 40
0.5011155111
 40
1.0
 40
1.0
 40
1.0
 40
1.0
 10
520.1877968115
 20
465.7271657089999
 30
0.0
 10
520.3924845963999
 20
465.8962060272
 30
0.0
 10
520.8682568062999
 20
466.1577582130999
 30
0.0
 10
521.4017601534999
 20
466.2435691912
 30
0.0
 10
521.6660433711999
 20
466.2435553139999
 30
0.0
  0
SPLINE
  5
3F9
330
213
100
AcDbEntity
  8
RUNDUNGEN
  6
Continuous
 62
     9
100
AcDbSpline
210
0.0
220
0.0
230
1.0
 70
     8
 71
     3
 72
     9
 73
     5
 74
     0
 42
0.0000000001
 43
0.0000000001
 40
0.0
 40
0.0
 40
0.0
 40
0.0
 40
0.5011187330000001
 40
1.0
 40
1.0
 40
1.0
 40
1.0
 10
495.3745296133999
 20
465.7271657089999
 30
0.0
 10
495.1698173366
 20
465.8962116337999
 30
0.0
 10
494.6939725875999
 20
466.1577121622999
 30
0.0
 10
494.1604421191999
 20
466.2435652059
 30
0.0
 10
493.8961399526
 20
466.2435553139999
 30
0.0
  0
SPLINE
  5
3FA
330
213
100
AcDbEntity
  8
RUNDUNGEN
  6
Continuous
 62
     9
100
AcDbSpline
210
0.0
220
0.0
230
1.0
 70
     8
 71
     3
 72
    11
 73
     7
 74
     0
 42
0.0000000001
 43
0.0000000001
 40
0.0
 40
0.0
 40
0.0
 40
0.0
 40
0.1545628899
 40
0.3869862253
 40
0.6815852835
 40
1.0
 40
1.0
 40
1.0
 40
1.0
 10
495.2390885155999
 20
379.3099136577
 30
0.0
 10
495.2840673852
 20
379.2616878688999
 30
0.0
 10
495.4338952748
 20
379.180676851
 30
0.0
 10
495.7100417492999
 20
379.0927671313
 30
0.0
 10
496.0667476659
 20
379.0292922483
 30
0.0
 10
496.3282011810999
 20
379.0117854154
 30
0.0
 10
496.464054552
 20
379.0112423331
 30
0.0
  0
LINE
  5
3FB
330
213
100
AcDbEntity
  8
RUNDUNGEN
  6
Continuous
 62
     9
100
AcDbLine
 10
495.2390879121
 20
379.3099256287
 30
0.0
 11
494.1417236641
 21
401.1177399331999
 31
0.0
  0
SPLINE
  5
3FC
330
213
100
AcDbEntity
  8
RUNDUNGEN
  6
Continuous
 62
     9
100
AcDbSpline
210
0.0
220
0.0
230
1.0
 70
     8
 71
     3
 72
    10
 73
     6
 74
     0
 42
0.0000000001
 43
0.0000000001
 40
0.0
 40
0.0
 40
0.0
 40
0.0
 40
0.262332517
 40
0.5170190068000001
 40
1.0
 40
1.0
 40
1.0
 40
1.0
 10
495.4611783845
 20
398.9691832648
 30
0.0
 10
495.3198334698
 20
398.9749421436
 30
0.0
 10
495.0549885088999
 20
399.1207656786
 30
0.0
 10
494.7037195257999
 20
399.5279128682
 30
0.0
 10
494.5189341133
 20
399.8879705666
 30
0.0
 10
494.4209830705999
 20
400.1292958534
 30
0.0
  0
SPLINE
  5
3FD
330
213
100
AcDbEntity
  8
RUNDUNGEN
  6
Continuous
 62
     9
100
AcDbSpline
210
0.0
220
0.0
230
1.0
 70
     8
 71
     3
 72
    11
 73
     7
 74
     0
 42
0.0000000001
 43
0.0000000001
 40
0.0
 40
0.0
 40
0.0
 40
0.0
 40
0.3184147174
 40
0.6130137740000001
 40
0.8454371102999999
 40
1.0
 40
1.0
 40
1.0
 40
1.0
 10
519.0981288416
 20
379.0112423351
 30
0.0
 10
519.2339822075
 20
379.011785411
 30
0.0
 10
519.4954357193999
 20
379.0292922533
 30
0.0
 10
519.8521415919
 20
379.0927671509
 30
0.0
 10
520.1282881332
 20
379.1806768092
 30
0.0
 10
520.2781158745999
 20
379.2616879494
 30
0.0
 10
520.3230948320999
 20
379.3099136526
 30
0.0
  0
SPLINE
  5
3FE
330
213
100
AcDbEntity
  8
RUNDUNGEN
  6
Continuous
 62
     9
100
AcDbSpline
210
0.0
220
0.0
230
1.0
 70
     8
 71
     3
 72
    10
 73
     6
 74
     0
 42
0.0000000001
 43
0.0000000001
 40
0.0
 40
0.0
 40
0.0
 40
0.0
 40
0.4830517754
 40
0.7377622081000001
 40
1.0
 40
1.0
 40
1.0
 40
1.0
 10
521.1412006361
 20
400.1292967504999
 30
0.0
 10
521.0432376131
 20
399.8879230154
 30
0.0
 10
520.8582449348999
 20
399.5279474472
 30
0.0
 10
520.5071964465999
 20
399.1205157568
 30
0.0
 10
520.2422610056999
 20
398.9749359511
 30
0.0
 10
520.1009612046999
 20
398.9691748234
 30
0.0
  0
LINE
  5
3FF
330
213
100
AcDbEntity
  8
RUNDUNGEN
  6
Continuous
 62
     9
100
AcDbLine
 10
521.4204596884
 20
401.1177399331999
 30
0.0
 11
520.3230954358
 21
379.3099256276999
 31
0.0
  0
SPLINE
  5
400
330
213
100
AcDbEntity
  8
RUNDUNGEN
  6
Continuous
 62
     9
100
AcDbSpline
210
0.0
220
0.0
230
1.0
 70
     8
 71
     3
 72
    10
 73
     6
 74
     0
 42
0.0000000001
 43
0.0000000001
 40
0.0
 40
0.0
 40
0.0
 40
0.0
 40
0.5770737654
 40
0.8200461243999999
 40
1.0
 40
1.0
 40
1.0
 40
1.0
 10
490.3876744287
 20
401.7948132455
 30
0.0
 10
490.6441447169
 20
401.7930895254
 30
0.0
 10
491.0153941122
 20
401.8532042394999
 30
0.0
 10
491.4170888242
 20
402.0441595623
 30
0.0
 10
491.5617253919
 20
402.1774948708
 30
0.0
 10
491.5979428866999
 20
402.2488037499999
 30
0.0
  0
SPLINE
  5
401
330
213
100
AcDbEntity
  8
RUNDUNGEN
  6
Continuous
 62
     9
100
AcDbSpline
210
0.0
220
0.0
230
1.0
 70
     8
 71
     3
 72
    10
 73
     6
 74
     0
 42
0.0000000001
 43
0.0000000001
 40
0.0
 40
0.0
 40
0.0
 40
0.0
 40
0.5769486034
 40
0.8200169812
 40
1.0
 40
1.0
 40
1.0
 40
1.0
 10
493.3931959510999
 20
378.9839822194001
 30
0.0
 10
493.6502061617
 20
378.9818586619
 30
0.0
 10
494.0223511987
 20
379.0419021955
 30
0.0
 10
494.4252234284999
 20
379.23280969
 30
0.0
 10
494.5702852223
 20
379.3664848728
 30
0.0
 10
494.6065912569999
 20
379.437972728
 30
0.0
  0
SPLINE
  5
402
330
213
100
AcDbEntity
  8
RUNDUNGEN
  6
Continuous
 62
     9
100
AcDbSpline
210
0.0
220
0.0
230
1.0
 70
     8
 71
     3
 72
     9
 73
     5
 74
     0
 42
0.0000000001
 43
0.0000000001
 40
0.0
 40
0.0
 40
0.0
 40
0.0
 40
0.6187043262
 40
1.0
 40
1.0
 40
1.0
 40
1.0
 10
490.3014182978999
 20
403.1448310598999
 30
0.0
 10
490.5571724588999
 20
403.1448141713999
 30
0.0
 10
490.970533681
 20
403.1459975973
 30
0.0
 10
491.3839229010999
 20
403.1463890523999
 30
0.0
 10
491.5415206319
 20
403.1488156226999
 30
0.0
  0
SPLINE
  5
403
330
213
100
AcDbEntity
  8
RUNDUNGEN
  6
Continuous
 62
     9
100
AcDbSpline
210
0.0
220
0.0
230
1.0
 70
     8
 71
     3
 72
    11
 73
     7
 74
     0
 42
0.0000000001
 43
0.0000000001
 40
0.0
 40
0.0
 40
0.0
 40
0.0
 40
0.253376297
 40
0.5054123432999999
 40
0.7543054325
 40
1.0
 40
1.0
 40
1.0
 40
1.0
 10
496.0076696333
 20
405.3118934841
 30
0.0
 10
496.0099432815
 20
405.441849602
 30
0.0
 10
496.0626142777999
 20
405.7030490526999
 30
0.0
 10
496.2806703019
 20
406.0339847544999
 30
0.0
 10
496.6035547025
 20
406.2571112080999
 30
0.0
 10
496.8599912241999
 20
406.3104940651
 30
0.0
 10
496.9860266822999
 20
406.3105230188999
 30
0.0
  0
SPLINE
  5
404
330
213
100
AcDbEntity
  8
RUNDUNGEN
  6
Continuous
 62
     9
100
AcDbSpline
210
0.0
220
0.0
230
1.0
 70
     8
 71
     3
 72
    11
 73
     7
 74
     0
 42
0.0000000001
 43
0.0000000001
 40
0.0
 40
0.0
 40
0.0
 40
0.0
 40
0.353458214
 40
0.6597459839999999
 40
0.8803789776
 40
1.0
 40
1.0
 40
1.0
 40
1.0
 10
497.2111228474999
 20
405.3118934841
 30
0.0
 10
497.2111228474999
 20
405.4355420201
 30
0.0
 10
497.2019810864
 20
405.665360009
 30
0.0
 10
497.1567061411
 20
405.9751115048999
 30
0.0
 10
497.1001809083
 20
406.1844106507
 30
0.0
 10
497.0268902803
 20
406.30150692
 30
0.0
 10
496.9860266822999
 20
406.3105230188999
 30
0.0
  0
LEADER
  5
581
330
213
100
AcDbEntity
  8
ZEICHNUNGSBEMASSUNGEN
  6
Continuous
 62
     7
100
AcDbLeader
  3
DIMSTYLE_2
 74
     0
 76
     3
 10
514.781091514273
 20
498.4608580622142
 30
0.0
 10
530.9196783404729
 20
508.1051021458716
 30
0.0
 10
548.0123084431792
 20
508.0724065674299
 30
0.0
213
8.546107528269942
223
6.697880158863256
233
0.0
1001
ACAD
1000
DSTYLE
1002
{
1070
    41
1040
5.0
1070
   147
1040
1.5
1070
   178
1070
   256
1002
}
  0
LINE
  5
582
330
213
100
AcDbEntity
  8
0
100
AcDbLine
 10
550.3700788124564
 20
504.8265047897916
 30
0.0
 11
559.0092420867908
 21
504.8265047897916
 31
0.0
  0
LINE
  5
583
330
213
100
AcDbEntity
  8
0
100
AcDbLine
 10
551.8652991870358
 20
503.6808778842818
 30
0.0
 11
557.4979329842191
 21
503.6808778842818
 31
0.0
  0
LINE
  5
584
330
213
100
AcDbEntity
  8
0
100
AcDbLine
 10
553.2761106405498
 20
502.7484304555297
 30
0.0
 11
556.280179154003
 21
502.7484304555297
 31
0.0
  0
LINE
  5
585
330
213
100
AcDbEntity
  8
0
100
AcDbLine
 10
554.6423117925747
 20
506.4213104901189
 30
0.0
 11
554.6423117925747
 21
511.862416090045
 31
0.0
  0
ENDSEC
  0
SECTION
  2
OBJECTS
  0
DICTIONARY
  5
C
330
0
100
AcDbDictionary
281
     1
  3
ACAD_COLOR
350
436
  3
ACAD_GROUP
350
D
  3
ACAD_LAYOUT
350
1A
  3
ACAD_MATERIAL
350
409
  3
ACAD_MLEADERSTYLE
350
44B
  3
ACAD_MLINESTYLE
350
17
  3
ACAD_PLOTSETTINGS
350
19
  3
ACAD_PLOTSTYLENAME
350
E
  3
ACAD_SCALELIST
350
439
  3
ACAD_TABLESTYLE
350
437
  3
ACAD_VISUALSTYLE
350
422
  3
ACDB_RECOMPOSE_DATA
350
59B
  3
AcDbVariableDictionary
350
58C
  3
AcmDictionary
350
4A6
  3
AMG
350
450
  3
AMGSNAPSETTINGS
350
4EB
  3
DWGPROPS
350
59C
  0
DICTIONARY
  5
436
102
{ACAD_REACTORS
330
C
102
}
330
C
100
AcDbDictionary
281
     1
  0
DICTIONARY
  5
D
102
{ACAD_REACTORS
330
C
102
}
330
C
100
AcDbDictionary
281
     1
  0
DICTIONARY
  5
1A
102
{ACAD_REACTORS
330
C
102
}
330
C
100
AcDbDictionary
281
     1
  3
Layout1
350
406
  3
Model
350
405
  0
DICTIONARY
  5
409
102
{ACAD_REACTORS
330
C
102
}
330
C
100
AcDbDictionary
281
     1
  3
ByBlock
350
412
  3
ByLayer
350
40A
  3
Global
350
41A
  0
DICTIONARY
  5
44B
102
{ACAD_REACTORS
330
C
102
}
330
C
100
AcDbDictionary
281
     1
  3
Standard
350
44C
  0
DICTIONARY
  5
17
102
{ACAD_REACTORS
330
C
102
}
330
C
100
AcDbDictionary
281
     1
  3
Standard
350
18
  0
DICTIONARY
  5
19
102
{ACAD_REACTORS
330
C
102
}
330
C
100
AcDbDictionary
281
     1
  0
ACDBDICTIONARYWDFLT
  5
E
102
{ACAD_REACTORS
330
C
102
}
330
C
100
AcDbDictionary
281
     1
  3
Normal
350
F
100
AcDbDictionaryWithDefault
340
F
  0
DICTIONARY
  5
439
102
{ACAD_REACTORS
330
C
102
}
330
C
100
AcDbDictionary
281
     1
  3
A0
350
43A
  3
A1
350
43B
  3
A2
350
43C
  3
A3
350
43D
  3
A4
350
43E
  3
A5
350
43F
  3
A6
350
440
  3
A7
350
441
  3
A8
350
442
  3
A9
350
443
  3
B0
350
444
  3
B1
350
445
  3
B2
350
446
  3
B3
350
447
  3
B4
350
448
  3
B5
350
449
  3
B6
350
44A
  0
DICTIONARY
  5
437
102
{ACAD_REACTORS
330
C
102
}
330
C
100
AcDbDictionary
281
     1
  3
Standard
350
438
  0
DICTIONARY
  5
422
102
{ACAD_REACTORS
330
C
102
}
330
C
100
AcDbDictionary
281
     1
  3
2dWireframe
350
428
  3
3D Hidden
350
42A
  3
3dWireframe
350
429
  3
Basic
350
427
  3
Brighten
350
42E
  3
ColorChange
350
432
  3
Conceptual
350
42B
  3
Dim
350
42D
  3
EdgeColorOff
350
435
  3
Facepattern
350
431
  3
Flat
350
423
  3
FlatWithEdges
350
424
  3
Gouraud
350
425
  3
GouraudWithEdges
350
426
  3
JitterOff
350
433
  3
Linepattern
350
430
  3
OverhangOff
350
434
  3
Realistic
350
42C
  3
Thicken
350
42F
  0
XRECORD
  5
59B
102
{ACAD_REACTORS
330
C
102
}
330
C
100
AcDbXrecord
280
     1
 90
        1
330
438
  0
DICTIONARY
  5
58C
102
{ACAD_REACTORS
330
C
102
}
330
C
100
AcDbDictionary
281
     1
  3
CANNOSCALE
350
590
  3
CMLEADERSTYLE
350
58E
  3
CTABLESTYLE
350
58D
  3
DIMASSOC
350
597
  3
HIDETEXT
350
596
  3
INDEXCTL
350
595
  3
LAYEREVAL
350
592
  3
LAYERNOTIFY
350
593
  3
LIGHTINGUNITS
350
591
  3
MSLTSCALE
350
58F
  3
SORTENTS
350
594
  3
XCLIPFRAME
350
598
  0
DICTIONARY
  5
4A6
102
{ACAD_REACTORS
330
C
102
}
330
C
100
AcDbDictionary
281
     1
  3
AcmStdDictionary
350
4B0
  0
DICTIONARY
  5
450
102
{ACAD_REACTORS
330
C
102
}
330
C
100
AcDbDictionary
281
     1
  0
DICTIONARY
  5
4EB
102
{ACAD_REACTORS
330
C
102
}
330
C
100
AcDbDictionary
281
     1
  0
XRECORD
  5
59C
102
{ACAD_REACTORS
330
C
102
}
330
C
100
AcDbXrecord
280
     1
  1
DWGPROPS COOKIE
  2

  3

  4

  6

  7

  8
sheim
  9

300
=
301
=
302
=
303
=
304
=
305
=
306
=
307
=
308
=
309
=
 40
0.0020550925925926
 41
2456324.645117511
 42
2456324.647172245
  1

 90
        0
  0
LAYOUT
  5
406
102
{ACAD_XDICTIONARY
360
59F
102
}
102
{ACAD_REACTORS
330
1A
102
}
330
1A
100
AcDbPlotSettings
  1

  2
none_device
  4
ISO_A0_(1189.00_x_841.00_MM)
  6

 40
0.0
 41
0.0
 42
0.0
 43
0.0
 44
1189.0
 45
841.0
 46
0.0
 47
0.0
 48
0.0
 49
0.0
140
0.0
141
0.0
142
1.0
143
1.0
 70
     0
 72
     1
 73
     0
 74
     0
  7

 75
     0
147
1.0
148
0.0
149
0.0
100
AcDbLayout
  1
Layout1
 70
     1
 71
     1
 10
0.0
 20
0.0
 11
12.0
 21
9.0
 12
0.0
 22
0.0
 32
0.0
 14
1.000000000000000E+20
 24
1.000000000000000E+20
 34
1.000000000000000E+20
 15
-1.000000000000000E+20
 25
-1.000000000000000E+20
 35
-1.000000000000000E+20
146
0.0
 13
0.0
 23
0.0
 33
0.0
 16
1.0
 26
0.0
 36
0.0
 17
0.0
 27
1.0
 37
0.0
 76
     0
330
214
  0
LAYOUT
  5
405
102
{ACAD_XDICTIONARY
360
59D
102
}
102
{ACAD_REACTORS
330
1A
102
}
330
1A
100
AcDbPlotSettings
  1

  2
none_device
  4
ISO_A0_(1189.00_x_841.00_MM)
  6

 40
0.0
 41
0.0
 42
0.0
 43
0.0
 44
1189.0
 45
841.0
 46
0.0
 47
0.0
 48
0.0
 49
0.0
140
0.0
141
0.0
142
1.0
143
1.0
 70
  1024
 72
     1
 73
     0
 74
     0
  7

 75
     0
147
1.0
148
0.0
149
0.0
100
AcDbLayout
  1
Model
 70
     0
 71
     0
 10
0.0
 20
0.0
 11
1189.0
 21
841.0
 12
0.0
 22
0.0
 32
0.0
 14
0.0
 24
0.0
 34
0.0
 15
0.0
 25
0.0
 35
0.0
146
0.0
 13
0.0
 23
0.0
 33
0.0
 16
1.0
 26
0.0
 36
0.0
 17
0.0
 27
1.0
 37
0.0
 76
     0
330
213
331
1F4
  0
MATERIAL
  5
412
102
{ACAD_XDICTIONARY
360
413
102
}
102
{ACAD_REACTORS
330
409
102
}
330
409
100
AcDbMaterial
  1
ByBlock
 72
     0
 43
0.0008202099737533
 43
0.0
 43
0.0
 43
0.0
 43
0.0
 43
0.0008202099737533
 43
0.0
 43
0.0
 43
0.0
 43
0.0
 43
1.0
 43
0.0
 43
0.0
 43
0.0
 43
0.0
 43
1.0
 77
     0
 47
0.0008202099737533
 47
0.0
 47
0.0
 47
0.0
 47
0.0
 47
0.0008202099737533
 47
0.0
 47
0.0
 47
0.0
 47
0.0
 47
1.0
 47
0.0
 47
0.0
 47
0.0
 47
0.0
 47
1.0
171
     0
 49
0.0008202099737533
 49
0.0
 49
0.0
 49
0.0
 49
0.0
 49
0.0008202099737533
 49
0.0
 49
0.0
 49
0.0
 49
0.0
 49
1.0
 49
0.0
 49
0.0
 49
0.0
 49
0.0
 49
1.0
175
     0
142
0.0008202099737533
142
0.0
142
0.0
142
0.0
142
0.0
142
0.0008202099737533
142
0.0
142
0.0
142
0.0
142
0.0
142
1.0
142
0.0
142
0.0
142
0.0
142
0.0
142
1.0
179
     0
144
0.0008202099737533
144
0.0
144
0.0
144
0.0
144
0.0
144
0.0008202099737533
144
0.0
144
0.0
144
0.0
144
0.0
144
1.0
144
0.0
144
0.0
144
0.0
144
0.0
144
1.0
147
0.0008202099737533
147
0.0
147
0.0
147
0.0
147
0.0
147
0.0008202099737533
147
0.0
147
0.0
147
0.0
147
0.0
147
1.0
147
0.0
147
0.0
147
0.0
147
0.0
147
1.0
  0
MATERIAL
  5
40A
102
{ACAD_XDICTIONARY
360
40B
102
}
102
{ACAD_REACTORS
330
409
102
}
330
409
100
AcDbMaterial
  1
ByLayer
 72
     0
 43
0.0008202099737533
 43
0.0
 43
0.0
 43
0.0
 43
0.0
 43
0.0008202099737533
 43
0.0
 43
0.0
 43
0.0
 43
0.0
 43
1.0
 43
0.0
 43
0.0
 43
0.0
 43
0.0
 43
1.0
 77
     0
 47
0.0008202099737533
 47
0.0
 47
0.0
 47
0.0
 47
0.0
 47
0.0008202099737533
 47
0.0
 47
0.0
 47
0.0
 47
0.0
 47
1.0
 47
0.0
 47
0.0
 47
0.0
 47
0.0
 47
1.0
171
     0
 49
0.0008202099737533
 49
0.0
 49
0.0
 49
0.0
 49
0.0
 49
0.0008202099737533
 49
0.0
 49
0.0
 49
0.0
 49
0.0
 49
1.0
 49
0.0
 49
0.0
 49
0.0
 49
0.0
 49
1.0
175
     0
142
0.0008202099737533
142
0.0
142
0.0
142
0.0
142
0.0
142
0.0008202099737533
142
0.0
142
0.0
142
0.0
142
0.0
142
1.0
142
0.0
142
0.0
142
0.0
142
0.0
142
1.0
179
     0
144
0.0008202099737533
144
0.0
144
0.0
144
0.0
144
0.0
144
0.0008202099737533
144
0.0
144
0.0
144
0.0
144
0.0
144
1.0
144
0.0
144
0.0
144
0.0
144
0.0
144
1.0
147
0.0008202099737533
147
0.0
147
0.0
147
0.0
147
0.0
147
0.0008202099737533
147
0.0
147
0.0
147
0.0
147
0.0
147
1.0
147
0.0
147
0.0
147
0.0
147
0.0
147
1.0
  0
MATERIAL
  5
41A
102
{ACAD_XDICTIONARY
360
41B
102
}
102
{ACAD_REACTORS
330
409
102
}
330
409
100
AcDbMaterial
  1
Global
 72
     0
 43
0.0008202099737533
 43
0.0
 43
0.0
 43
0.0
 43
0.0
 43
0.0008202099737533
 43
0.0
 43
0.0
 43
0.0
 43
0.0
 43
1.0
 43
0.0
 43
0.0
 43
0.0
 43
0.0
 43
1.0
 77
     0
 47
0.0008202099737533
 47
0.0
 47
0.0
 47
0.0
 47
0.0
 47
0.0008202099737533
 47
0.0
 47
0.0
 47
0.0
 47
0.0
 47
1.0
 47
0.0
 47
0.0
 47
0.0
 47
0.0
 47
1.0
171
     0
 49
0.0008202099737533
 49
0.0
 49
0.0
 49
0.0
 49
0.0
 49
0.0008202099737533
 49
0.0
 49
0.0
 49
0.0
 49
0.0
 49
1.0
 49
0.0
 49
0.0
 49
0.0
 49
0.0
 49
1.0
175
     0
142
0.0008202099737533
142
0.0
142
0.0
142
0.0
142
0.0
142
0.0008202099737533
142
0.0
142
0.0
142
0.0
142
0.0
142
1.0
142
0.0
142
0.0
142
0.0
142
0.0
142
1.0
179
     0
144
0.0008202099737533
144
0.0
144
0.0
144
0.0
144
0.0
144
0.0008202099737533
144
0.0
144
0.0
144
0.0
144
0.0
144
1.0
144
0.0
144
0.0
144
0.0
144
0.0
144
1.0
147
0.0008202099737533
147
0.0
147
0.0
147
0.0
147
0.0
147
0.0008202099737533
147
0.0
147
0.0
147
0.0
147
0.0
147
1.0
147
0.0
147
0.0
147
0.0
147
0.0
147
1.0
  0
MLEADERSTYLE
  5
44C
102
{ACAD_REACTORS
330
44B
102
}
330
44B
100
AcDbMLeaderStyle
170
     2
171
     1
172
     0
 90
        2
 40
0.0
 41
0.0
173
     1
 91
-1056964608
340
14
 92
       -2
290
     1
 42
2.0
291
     1
 43
0.36
  3
Standard
 44
4.0
300

342
11
174
     1
178
     6
175
     1
176
     0
 93
-1056964608
 45
4.0
292
     0
297
     0
 46
4.0
 94
-1056964608
 47
1.0
 49
1.0
140
1.0
293
     1
141
0.0
294
     1
177
     0
142
1.0
295
     0
296
     0
143
0.125
1001
ACAD_MLEADERVER
1070
     2
  0
MLINESTYLE
  5
18
102
{ACAD_REACTORS
330
17
102
}
330
17
100
AcDbMlineStyle
  2
STANDARD
 70
     0
  3

 62
   256
 51
90.0
 52
90.0
 71
     2
 49
0.5
 62
   256
  6
BYLAYER
 49
-0.5
 62
   256
  6
BYLAYER
  0
ACDBPLACEHOLDER
  5
F
102
{ACAD_REACTORS
330
E
102
}
330
E
  0
SCALE
  5
43A
102
{ACAD_REACTORS
330
439
102
}
330
439
100
AcDbScale
 70
     0
300
1:1
140
1.0
141
1.0
290
     1
  0
SCALE
  5
43B
102
{ACAD_REACTORS
330
439
102
}
330
439
100
AcDbScale
 70
     0
300
1:2
140
1.0
141
2.0
290
     0
  0
SCALE
  5
43C
102
{ACAD_REACTORS
330
439
102
}
330
439
100
AcDbScale
 70
     0
300
1:4
140
1.0
141
4.0
290
     0
  0
SCALE
  5
43D
102
{ACAD_REACTORS
330
439
102
}
330
439
100
AcDbScale
 70
     0
300
1:5
140
1.0
141
5.0
290
     0
  0
SCALE
  5
43E
102
{ACAD_REACTORS
330
439
102
}
330
439
100
AcDbScale
 70
     0
300
1:8
140
1.0
141
8.0
290
     0
  0
SCALE
  5
43F
102
{ACAD_REACTORS
330
439
102
}
330
439
100
AcDbScale
 70
     0
300
1:10
140
1.0
141
10.0
290
     0
  0
SCALE
  5
440
102
{ACAD_REACTORS
330
439
102
}
330
439
100
AcDbScale
 70
     0
300
1:16
140
1.0
141
16.0
290
     0
  0
SCALE
  5
441
102
{ACAD_REACTORS
330
439
102
}
330
439
100
AcDbScale
 70
     0
300
1:20
140
1.0
141
20.0
290
     0
  0
SCALE
  5
442
102
{ACAD_REACTORS
330
439
102
}
330
439
100
AcDbScale
 70
     0
300
1:30
140
1.0
141
30.0
290
     0
  0
SCALE
  5
443
102
{ACAD_REACTORS
330
439
102
}
330
439
100
AcDbScale
 70
     0
300
1:40
140
1.0
141
40.0
290
     0
  0
SCALE
  5
444
102
{ACAD_REACTORS
330
439
102
}
330
439
100
AcDbScale
 70
     0
300
1:50
140
1.0
141
50.0
290
     0
  0
SCALE
  5
445
102
{ACAD_REACTORS
330
439
102
}
330
439
100
AcDbScale
 70
     0
300
1:100
140
1.0
141
100.0
290
     0
  0
SCALE
  5
446
102
{ACAD_REACTORS
330
439
102
}
330
439
100
AcDbScale
 70
     0
300
2:1
140
2.0
141
1.0
290
     0
  0
SCALE
  5
447
102
{ACAD_REACTORS
330
439
102
}
330
439
100
AcDbScale
 70
     0
300
4:1
140
4.0
141
1.0
290
     0
  0
SCALE
  5
448
102
{ACAD_REACTORS
330
439
102
}
330
439
100
AcDbScale
 70
     0
300
8:1
140
8.0
141
1.0
290
     0
  0
SCALE
  5
449
102
{ACAD_REACTORS
330
439
102
}
330
439
100
AcDbScale
 70
     0
300
10:1
140
10.0
141
1.0
290
     0
  0
SCALE
  5
44A
102
{ACAD_REACTORS
330
439
102
}
330
439
100
AcDbScale
 70
     0
300
100:1
140
100.0
141
1.0
290
     0
  0
TABLESTYLE
  5
438
102
{ACAD_XDICTIONARY
360
599
102
}
102
{ACAD_REACTORS
330
437
102
}
330
437
100
AcDbTableStyle
  3
Standard
 70
     0
 71
     0
 40
1.5
 41
1.5
280
     0
281
     0
  7
STANDARD
140
4.5
170
     2
 62
     0
 63
     7
283
     0
274
    -2
284
     1
 64
     0
275
    -2
285
     1
 65
     0
276
    -2
286
     1
 66
     0
277
    -2
287
     1
 67
     0
278
    -2
288
     1
 68
     0
279
    -2
289
     1
 69
     0
  7
STANDARD
140
6.0
170
     5
 62
     0
 63
     7
283
     0
274
    -2
284
     1
 64
     0
275
    -2
285
     1
 65
     0
276
    -2
286
     1
 66
     0
277
    -2
287
     1
 67
     0
278
    -2
288
     1
 68
     0
279
    -2
289
     1
 69
     0
  7
STANDARD
140
4.5
170
     5
 62
     0
 63
     7
283
     0
274
    -2
284
     1
 64
     0
275
    -2
285
     1
 65
     0
276
    -2
286
     1
 66
     0
277
    -2
287
     1
 67
     0
278
    -2
288
     1
 68
     0
279
    -2
289
     1
 69
     0
  0
VISUALSTYLE
  5
428
102
{ACAD_XDICTIONARY
360
5AE
102
}
102
{ACAD_REACTORS
330
422
102
}
330
422
100
AcDbVisualStyle
  2
2dWireframe
 70
     4
 71
     0
 72
     2
 73
     0
 90
        0
 40
-0.6
 41
-30.0
 62
     5
 63
     7
 74
     1
 91
        4
 64
     7
 65
   257
 75
     1
175
     1
 42
1.0
 92
        0
 66
   257
 43
1.0
 76
     1
 77
     6
 78
     2
 67
     7
 79
     5
170
     0
171
     0
290
     0
174
     0
 93
        1
 44
0.0
173
     0
291
     0
 45
0.0
1001
ACAD
1000
AcDbSavedByObjectVersion
1070
     0
  0
VISUALSTYLE
  5
42A
102
{ACAD_XDICTIONARY
360
5B2
102
}
102
{ACAD_REACTORS
330
422
102
}
330
422
100
AcDbVisualStyle
  2
3D Hidden
 70
     6
 71
     1
 72
     2
 73
     2
 90
        0
 40
-0.6
 41
-30.0
 62
     5
 63
     7
 74
     2
 91
        2
 64
     7
 65
   257
 75
     2
175
     1
 42
179.0
 92
        0
 66
   257
 43
1.0
 76
     1
 77
     6
 78
     2
 67
     7
 79
     3
170
     0
171
     0
290
     0
174
     0
 93
        1
 44
0.0
173
     0
291
     0
 45
0.0
1001
ACAD
1000
AcDbSavedByObjectVersion
1070
     0
  0
VISUALSTYLE
  5
429
102
{ACAD_XDICTIONARY
360
5B0
102
}
102
{ACAD_REACTORS
330
422
102
}
330
422
100
AcDbVisualStyle
  2
3dWireframe
 70
     5
 71
     0
 72
     2
 73
     0
 90
        0
 40
-0.6
 41
-30.0
 62
     5
 63
     7
 74
     1
 91
        4
 64
     7
 65
   257
 75
     1
175
     1
 42
1.0
 92
        0
 66
   257
 43
1.0
 76
     1
 77
     6
 78
     2
 67
     7
 79
     5
170
     0
171
     0
290
     0
174
     0
 93
        1
 44
0.0
173
     0
291
     0
 45
0.0
1001
ACAD
1000
AcDbSavedByObjectVersion
1070
     0
  0
VISUALSTYLE
  5
427
102
{ACAD_XDICTIONARY
360
5AC
102
}
102
{ACAD_REACTORS
330
422
102
}
330
422
100
AcDbVisualStyle
  2
Basic
 70
     7
 71
     1
 72
     0
 73
     1
 90
        0
 40
-0.6
 41
-30.0
 62
     5
 63
     7
 74
     0
 91
        4
 64
     7
 65
   257
 75
     1
175
     1
 42
1.0
 92
        8
 66
     7
 43
1.0
 76
     1
 77
     6
 78
     2
 67
     7
 79
     5
170
     0
171
     0
290
     0
174
     0
 93
        1
 44
0.0
173
     0
291
     1
 45
0.0
1001
ACAD
1000
AcDbSavedByObjectVersion
1070
     0
  0
VISUALSTYLE
  5
42E
102
{ACAD_XDICTIONARY
360
5BA
102
}
102
{ACAD_REACTORS
330
422
102
}
330
422
100
AcDbVisualStyle
  2
Brighten
 70
    12
 71
     2
 72
     2
 73
     0
 90
        0
 40
-0.6
 41
-30.0
 62
     5
 63
     7
 74
     1
 91
        4
 64
     7
 65
   257
 75
     1
175
     1
 42
1.0
 92
        8
 66
     7
 43
1.0
 76
     1
 77
     6
 78
     2
 67
     7
 79
     5
170
     0
171
     0
290
     0
174
     0
 93
        1
 44
50.0
173
     0
291
     1
 45
0.0
1001
ACAD
1000
AcDbSavedByObjectVersion
1070
     0
  0
VISUALSTYLE
  5
432
102
{ACAD_XDICTIONARY
360
5C2
102
}
102
{ACAD_REACTORS
330
422
102
}
330
422
100
AcDbVisualStyle
  2
ColorChange
 70
    16
 71
     2
 72
     2
 73
     3
 90
        0
 40
-0.6
 41
-30.0
 62
     5
 63
     8
 74
     1
 91
        4
 64
     7
 65
   257
 75
     1
175
     1
 42
1.0
 92
        8
 66
     8
 43
1.0
 76
     1
 77
     6
 78
     2
 67
     7
 79
     5
170
     0
171
     0
290
     0
174
     0
 93
        1
 44
0.0
173
     0
291
     1
 45
0.0
1001
ACAD
1000
AcDbSavedByObjectVersion
1070
     0
  0
VISUALSTYLE
  5
42B
102
{ACAD_XDICTIONARY
360
5B4
102
}
102
{ACAD_REACTORS
330
422
102
}
330
422
100
AcDbVisualStyle
  2
Conceptual
 70
     9
 71
     3
 72
     2
 73
     0
 90
        0
 40
-0.6
 41
-30.0
 62
     5
 63
     7
 74
     2
 91
        2
 64
     7
 65
   257
 75
     1
175
     1
 42
179.0
 92
        8
 66
     7
 43
1.0
 76
     1
 77
     6
 78
     2
 67
     7
 79
     3
170
     0
171
     0
290
     0
174
     0
 93
        1
 44
0.0
173
     0
291
     0
 45
0.0
1001
ACAD
1000
AcDbSavedByObjectVersion
1070
     0
  0
VISUALSTYLE
  5
42D
102
{ACAD_XDICTIONARY
360
5B8
102
}
102
{ACAD_REACTORS
330
422
102
}
330
422
100
AcDbVisualStyle
  2
Dim
 70
    11
 71
     2
 72
     2
 73
     0
 90
        0
 40
-0.6
 41
-30.0
 62
     5
 63
     7
 74
     1
 91
        4
 64
     7
 65
   257
 75
     1
175
     1
 42
1.0
 92
        8
 66
     7
 43
1.0
 76
     1
 77
     6
 78
     2
 67
     7
 79
     5
170
     0
171
     0
290
     0
174
     0
 93
        1
 44
-50.0
173
     0
291
     1
 45
0.0
1001
ACAD
1000
AcDbSavedByObjectVersion
1070
     0
  0
VISUALSTYLE
  5
435
102
{ACAD_XDICTIONARY
360
5C8
102
}
102
{ACAD_REACTORS
330
422
102
}
330
422
100
AcDbVisualStyle
  2
EdgeColorOff
 70
    22
 71
     2
 72
     2
 73
     0
 90
        0
 40
-0.6
 41
-30.0
 62
     5
 63
     7
 74
     1
 91
        4
 64
     7
 65
   257
 75
     1
175
     1
 42
1.0
 92
        8
 66
     7
 43
1.0
 76
     1
 77
     6
 78
     2
 67
     7
 79
     5
170
     0
171
     0
290
     0
174
     0
 93
        1
 44
0.0
173
     0
291
     1
 45
0.0
1001
ACAD
1000
AcDbSavedByObjectVersion
1070
     0
  0
VISUALSTYLE
  5
431
102
{ACAD_XDICTIONARY
360
5C0
102
}
102
{ACAD_REACTORS
330
422
102
}
330
422
100
AcDbVisualStyle
  2
Facepattern
 70
    15
 71
     2
 72
     2
 73
     0
 90
        0
 40
-0.6
 41
-30.0
 62
     5
 63
     7
 74
     1
 91
        4
 64
     7
 65
   257
 75
     1
175
     1
 42
1.0
 92
        8
 66
     7
 43
1.0
 76
     1
 77
     6
 78
     2
 67
     7
 79
     5
170
     0
171
     0
290
     0
174
     0
 93
        1
 44
0.0
173
     0
291
     1
 45
0.0
1001
ACAD
1000
AcDbSavedByObjectVersion
1070
     0
  0
VISUALSTYLE
  5
423
102
{ACAD_XDICTIONARY
360
5A4
102
}
102
{ACAD_REACTORS
330
422
102
}
330
422
100
AcDbVisualStyle
  2
Flat
 70
     0
 71
     2
 72
     1
 73
     1
 90
        2
 40
-0.6
 41
30.0
 62
     5
 63
     7
 74
     0
 91
        4
 64
     7
 65
   257
 75
     1
175
     1
 42
1.0
 92
        8
 66
     7
 43
1.0
 76
     1
 77
     6
 78
     2
 67
     7
 79
     5
170
     0
171
     0
290
     0
174
     0
 93
       13
 44
0.0
173
     0
291
     1
 45
0.0
1001
ACAD
1000
AcDbSavedByObjectVersion
1070
     0
  0
VISUALSTYLE
  5
424
102
{ACAD_XDICTIONARY
360
5A6
102
}
102
{ACAD_REACTORS
330
422
102
}
330
422
100
AcDbVisualStyle
  2
FlatWithEdges
 70
     1
 71
     2
 72
     1
 73
     1
 90
        2
 40
-0.6
 41
30.0
 62
     5
 63
     7
 74
     1
 91
        4
 64
     7
 65
   257
 75
     1
175
     1
 42
1.0
 92
        0
 66
   257
 43
1.0
 76
     1
 77
     6
 78
     2
 67
     7
 79
     5
170
     0
171
     0
290
     0
174
     0
 93
       13
 44
0.0
173
     0
291
     1
 45
0.0
1001
ACAD
1000
AcDbSavedByObjectVersion
1070
     0
  0
VISUALSTYLE
  5
425
102
{ACAD_XDICTIONARY
360
5A8
102
}
102
{ACAD_REACTORS
330
422
102
}
330
422
100
AcDbVisualStyle
  2
Gouraud
 70
     2
 71
     2
 72
     2
 73
     1
 90
        2
 40
-0.6
 41
30.0
 62
     5
 63
     7
 74
     0
 91
        4
 64
     7
 65
   257
 75
     1
175
     1
 42
1.0
 92
        0
 66
     7
 43
1.0
 76
     1
 77
     6
 78
     2
 67
     7
 79
     5
170
     0
171
     0
290
     0
174
     0
 93
       13
 44
0.0
173
     0
291
     1
 45
0.0
1001
ACAD
1000
AcDbSavedByObjectVersion
1070
     0
  0
VISUALSTYLE
  5
426
102
{ACAD_XDICTIONARY
360
5AA
102
}
102
{ACAD_REACTORS
330
422
102
}
330
422
100
AcDbVisualStyle
  2
GouraudWithEdges
 70
     3
 71
     2
 72
     2
 73
     1
 90
        2
 40
-0.6
 41
30.0
 62
     5
 63
     7
 74
     1
 91
        4
 64
     7
 65
   257
 75
     1
175
     1
 42
1.0
 92
        0
 66
   257
 43
1.0
 76
     1
 77
     6
 78
     2
 67
     7
 79
     5
170
     0
171
     0
290
     0
174
     0
 93
       13
 44
0.0
173
     0
291
     1
 45
0.0
1001
ACAD
1000
AcDbSavedByObjectVersion
1070
     0
  0
VISUALSTYLE
  5
433
102
{ACAD_XDICTIONARY
360
5C4
102
}
102
{ACAD_REACTORS
330
422
102
}
330
422
100
AcDbVisualStyle
  2
JitterOff
 70
    20
 71
     2
 72
     2
 73
     0
 90
        0
 40
-0.6
 41
-30.0
 62
     5
 63
     7
 74
     1
 91
        4
 64
     7
 65
   257
 75
     1
175
     1
 42
1.0
 92
       10
 66
     7
 43
1.0
 76
     1
 77
     6
 78
     2
 67
     7
 79
     5
170
     0
171
     0
290
     0
174
     0
 93
        1
 44
0.0
173
     0
291
     1
 45
0.0
1001
ACAD
1000
AcDbSavedByObjectVersion
1070
     0
  0
VISUALSTYLE
  5
430
102
{ACAD_XDICTIONARY
360
5BE
102
}
102
{ACAD_REACTORS
330
422
102
}
330
422
100
AcDbVisualStyle
  2
Linepattern
 70
    14
 71
     2
 72
     2
 73
     0
 90
        0
 40
-0.6
 41
-30.0
 62
     5
 63
     7
 74
     1
 91
        4
 64
     7
 65
   257
 75
     7
175
     7
 42
1.0
 92
        8
 66
     7
 43
1.0
 76
     1
 77
     6
 78
     2
 67
     7
 79
     5
170
     0
171
     0
290
     0
174
     0
 93
        1
 44
0.0
173
     0
291
     1
 45
0.0
1001
ACAD
1000
AcDbSavedByObjectVersion
1070
     0
  0
VISUALSTYLE
  5
434
102
{ACAD_XDICTIONARY
360
5C6
102
}
102
{ACAD_REACTORS
330
422
102
}
330
422
100
AcDbVisualStyle
  2
OverhangOff
 70
    21
 71
     2
 72
     2
 73
     0
 90
        0
 40
-0.6
 41
-30.0
 62
     5
 63
     7
 74
     1
 91
        4
 64
     7
 65
   257
 75
     1
175
     1
 42
1.0
 92
        9
 66
     7
 43
1.0
 76
     1
 77
     6
 78
     2
 67
     7
 79
     5
170
     0
171
     0
290
     0
174
     0
 93
        1
 44
0.0
173
     0
291
     1
 45
0.0
1001
ACAD
1000
AcDbSavedByObjectVersion
1070
     0
  0
VISUALSTYLE
  5
42C
102
{ACAD_XDICTIONARY
360
5B6
102
}
102
{ACAD_REACTORS
330
422
102
}
330
422
100
AcDbVisualStyle
  2
Realistic
 70
     8
 71
     2
 72
     2
 73
     0
 90
        0
 40
-0.6
 41
-30.0
 62
     5
 63
     7
 74
     1
 91
        0
 64
     7
 65
   257
 75
     1
175
     1
 42
1.0
 92
        8
 66
     8
 43
1.0
 76
     1
 77
     6
 78
     2
 67
     7
 79
     5
170
     0
171
     0
290
     0
174
     0
 93
       13
 44
0.0
173
     0
291
     0
 45
0.0
1001
ACAD
1000
AcDbSavedByObjectVersion
1070
     0
  0
VISUALSTYLE
  5
42F
102
{ACAD_XDICTIONARY
360
5BC
102
}
102
{ACAD_REACTORS
330
422
102
}
330
422
100
AcDbVisualStyle
  2
Thicken
 70
    13
 71
     2
 72
     2
 73
     0
 90
        0
 40
-0.6
 41
-30.0
 62
     5
 63
     7
 74
     1
 91
        4
 64
     7
 65
   257
 75
     1
175
     1
 42
1.0
 92
       12
 66
     7
 43
1.0
 76
     1
 77
     6
 78
     2
 67
     7
 79
     5
170
     0
171
     0
290
     0
174
     0
 93
        1
 44
0.0
173
     0
291
     1
 45
0.0
1001
ACAD
1000
AcDbSavedByObjectVersion
1070
     0
  0
DICTIONARYVAR
  5
590
102
{ACAD_REACTORS
330
58C
102
}
330
58C
100
DictionaryVariables
280
     0
  1
1:1
  0
DICTIONARYVAR
  5
58E
102
{ACAD_REACTORS
330
58C
102
}
330
58C
100
DictionaryVariables
280
     0
  1
STANDARD
  0
DICTIONARYVAR
  5
58D
102
{ACAD_REACTORS
330
58C
102
}
330
58C
100
DictionaryVariables
280
     0
  1
STANDARD
  0
DICTIONARYVAR
  5
597
102
{ACAD_REACTORS
330
58C
102
}
330
58C
100
DictionaryVariables
280
     0
  1
2
  0
DICTIONARYVAR
  5
596
102
{ACAD_REACTORS
330
58C
102
}
330
58C
100
DictionaryVariables
280
     0
  1
1
  0
DICTIONARYVAR
  5
595
102
{ACAD_REACTORS
330
58C
102
}
330
58C
100
DictionaryVariables
280
     0
  1
0
  0
DICTIONARYVAR
  5
592
102
{ACAD_REACTORS
330
58C
102
}
330
58C
100
DictionaryVariables
280
     0
  1
0
  0
DICTIONARYVAR
  5
593
102
{ACAD_REACTORS
330
58C
102
}
330
58C
100
DictionaryVariables
280
     0
  1
0
  0
DICTIONARYVAR
  5
591
102
{ACAD_REACTORS
330
58C
102
}
330
58C
100
DictionaryVariables
280
     0
  1
2
  0
DICTIONARYVAR
  5
58F
102
{ACAD_REACTORS
330
58C
102
}
330
58C
100
DictionaryVariables
280
     0
  1
1
  0
DICTIONARYVAR
  5
594
102
{ACAD_REACTORS
330
58C
102
}
330
58C
100
DictionaryVariables
280
     0
  1
127
  0
DICTIONARYVAR
  5
598
102
{ACAD_REACTORS
330
58C
102
}
330
58C
100
DictionaryVariables
280
     0
  1
2
  0
DICTIONARY
  5
4B0
102
{ACAD_REACTORS
330
4A6
102
}
330
4A6
100
AcDbDictionary
281
     1
  0
DICTIONARY
  5
59F
330
406
100
AcDbDictionary
280
     1
281
     1
  3
ACAD_XREC_ROUNDTRIP
360
5A0
  0
DICTIONARY
  5
59D
330
405
100
AcDbDictionary
280
     1
281
     1
  3
ACAD_XREC_ROUNDTRIP
360
59E
  0
DICTIONARY
  5
413
330
412
100
AcDbDictionary
280
     1
281
     1
  3
ACAD_XREC_ROUNDTRIP
360
5A2
  3
BUMPTILE
360
415
  3
DIFFUSETILE
360
414
  3
OPACITYTILE
360
418
  3
REFLECTIONTILE
360
417
  3
REFRACTIONTILE
360
419
  3
SPECULARTILE
360
416
  0
DICTIONARY
  5
40B
330
40A
100
AcDbDictionary
280
     1
281
     1
  3
ACAD_XREC_ROUNDTRIP
360
5A1
  3
BUMPTILE
360
40D
  3
DIFFUSETILE
360
40C
  3
OPACITYTILE
360
410
  3
REFLECTIONTILE
360
40F
  3
REFRACTIONTILE
360
411
  3
SPECULARTILE
360
40E
  0
DICTIONARY
  5
41B
330
41A
100
AcDbDictionary
280
     1
281
     1
  3
ACAD_XREC_ROUNDTRIP
360
5A3
  3
BUMPTILE
360
41D
  3
DIFFUSETILE
360
41C
  3
OPACITYTILE
360
420
  3
REFLECTIONTILE
360
41F
  3
REFRACTIONTILE
360
421
  3
SPECULARTILE
360
41E
  0
DICTIONARY
  5
599
330
438
100
AcDbDictionary
280
     1
281
     1
  3
ACAD_ROUNDTRIP_2008_TABLESTYLE_CELLSTYLEMAP
360
59A
  3
ACAD_XREC_ROUNDTRIP
360
5CA
  0
DICTIONARY
  5
5AE
330
428
100
AcDbDictionary
280
     1
281
     1
  3
ACAD_XREC_ROUNDTRIP
360
5AF
  0
DICTIONARY
  5
5B2
330
42A
100
AcDbDictionary
280
     1
281
     1
  3
ACAD_XREC_ROUNDTRIP
360
5B3
  0
DICTIONARY
  5
5B0
330
429
100
AcDbDictionary
280
     1
281
     1
  3
ACAD_XREC_ROUNDTRIP
360
5B1
  0
DICTIONARY
  5
5AC
330
427
100
AcDbDictionary
280
     1
281
     1
  3
ACAD_XREC_ROUNDTRIP
360
5AD
  0
DICTIONARY
  5
5BA
330
42E
100
AcDbDictionary
280
     1
281
     1
  3
ACAD_XREC_ROUNDTRIP
360
5BB
  0
DICTIONARY
  5
5C2
330
432
100
AcDbDictionary
280
     1
281
     1
  3
ACAD_XREC_ROUNDTRIP
360
5C3
  0
DICTIONARY
  5
5B4
330
42B
100
AcDbDictionary
280
     1
281
     1
  3
ACAD_XREC_ROUNDTRIP
360
5B5
  0
DICTIONARY
  5
5B8
330
42D
100
AcDbDictionary
280
     1
281
     1
  3
ACAD_XREC_ROUNDTRIP
360
5B9
  0
DICTIONARY
  5
5C8
330
435
100
AcDbDictionary
280
     1
281
     1
  3
ACAD_XREC_ROUNDTRIP
360
5C9
  0
DICTIONARY
  5
5C0
330
431
100
AcDbDictionary
280
     1
281
     1
  3
ACAD_XREC_ROUNDTRIP
360
5C1
  0
DICTIONARY
  5
5A4
330
423
100
AcDbDictionary
280
     1
281
     1
  3
ACAD_XREC_ROUNDTRIP
360
5A5
  0
DICTIONARY
  5
5A6
330
424
100
AcDbDictionary
280
     1
281
     1
  3
ACAD_XREC_ROUNDTRIP
360
5A7
  0
DICTIONARY
  5
5A8
330
425
100
AcDbDictionary
280
     1
281
     1
  3
ACAD_XREC_ROUNDTRIP
360
5A9
  0
DICTIONARY
  5
5AA
330
426
100
AcDbDictionary
280
     1
281
     1
  3
ACAD_XREC_ROUNDTRIP
360
5AB
  0
DICTIONARY
  5
5C4
330
433
100
AcDbDictionary
280
     1
281
     1
  3
ACAD_XREC_ROUNDTRIP
360
5C5
  0
DICTIONARY
  5
5BE
330
430
100
AcDbDictionary
280
     1
281
     1
  3
ACAD_XREC_ROUNDTRIP
360
5BF
  0
DICTIONARY
  5
5C6
330
434
100
AcDbDictionary
280
     1
281
     1
  3
ACAD_XREC_ROUNDTRIP
360
5C7
  0
DICTIONARY
  5
5B6
330
42C
100
AcDbDictionary
280
     1
281
     1
  3
ACAD_XREC_ROUNDTRIP
360
5B7
  0
DICTIONARY
  5
5BC
330
42F
100
AcDbDictionary
280
     1
281
     1
  3
ACAD_XREC_ROUNDTRIP
360
5BD
  0
XRECORD
  5
5A0
102
{ACAD_REACTORS
330
59F
102
}
330
59F
100
AcDbXrecord
280
     1
102
SHADEPLOT
 70
     0
102
SHADEPLOTRESLEVEL
 70
     2
102
SHADEPLOTCUSTOMDPI
 70
   300
  0
XRECORD
  5
59E
102
{ACAD_REACTORS
330
59D
102
}
330
59D
100
AcDbXrecord
280
     1
102
SHADEPLOT
 70
     0
102
SHADEPLOTRESLEVEL
 70
     2
102
SHADEPLOTCUSTOMDPI
 70
   300
  0
XRECORD
  5
5A2
102
{ACAD_REACTORS
330
413
102
}
330
413
100
AcDbXrecord
280
     1
102
MATERIAL
148
0.0
149
0.0
149
0.0
 93
        0
 94
      127
282
     0
 72
     0
 77
     0
171
     0
175
     0
179
     0
273
     0
  0
XRECORD
  5
415
102
{ACAD_REACTORS
330
413
102
}
330
413
100
AcDbXrecord
280
     1
270
     1
271
     1
  0
XRECORD
  5
414
102
{ACAD_REACTORS
330
413
102
}
330
413
100
AcDbXrecord
280
     1
270
     1
271
     1
  0
XRECORD
  5
418
102
{ACAD_REACTORS
330
413
102
}
330
413
100
AcDbXrecord
280
     1
270
     1
271
     1
  0
XRECORD
  5
417
102
{ACAD_REACTORS
330
413
102
}
330
413
100
AcDbXrecord
280
     1
270
     1
271
     1
  0
XRECORD
  5
419
102
{ACAD_REACTORS
330
413
102
}
330
413
100
AcDbXrecord
280
     1
270
     1
271
     1
  0
XRECORD
  5
416
102
{ACAD_REACTORS
330
413
102
}
330
413
100
AcDbXrecord
280
     1
270
     1
271
     1
  0
XRECORD
  5
5A1
102
{ACAD_REACTORS
330
40B
102
}
330
40B
100
AcDbXrecord
280
     1
102
MATERIAL
148
0.0
149
0.0
149
0.0
 93
        0
 94
      127
282
     0
 72
     0
 77
     0
171
     0
175
     0
179
     0
273
     0
  0
XRECORD
  5
40D
102
{ACAD_REACTORS
330
40B
102
}
330
40B
100
AcDbXrecord
280
     1
270
     1
271
     1
  0
XRECORD
  5
40C
102
{ACAD_REACTORS
330
40B
102
}
330
40B
100
AcDbXrecord
280
     1
270
     1
271
     1
  0
XRECORD
  5
410
102
{ACAD_REACTORS
330
40B
102
}
330
40B
100
AcDbXrecord
280
     1
270
     1
271
     1
  0
XRECORD
  5
40F
102
{ACAD_REACTORS
330
40B
102
}
330
40B
100
AcDbXrecord
280
     1
270
     1
271
     1
  0
XRECORD
  5
411
102
{ACAD_REACTORS
330
40B
102
}
330
40B
100
AcDbXrecord
280
     1
270
     1
271
     1
  0
XRECORD
  5
40E
102
{ACAD_REACTORS
330
40B
102
}
330
40B
100
AcDbXrecord
280
     1
270
     1
271
     1
  0
XRECORD
  5
5A3
102
{ACAD_REACTORS
330
41B
102
}
330
41B
100
AcDbXrecord
280
     1
102
MATERIAL
148
0.0
149
0.0
149
0.0
 93
        0
 94
      127
282
     0
 72
     0
 77
     0
171
     0
175
     0
179
     0
273
     0
  0
XRECORD
  5
41D
102
{ACAD_REACTORS
330
41B
102
}
330
41B
100
AcDbXrecord
280
     1
270
     1
271
     1
  0
XRECORD
  5
41C
102
{ACAD_REACTORS
330
41B
102
}
330
41B
100
AcDbXrecord
280
     1
270
     1
271
     1
  0
XRECORD
  5
420
102
{ACAD_REACTORS
330
41B
102
}
330
41B
100
AcDbXrecord
280
     1
270
     1
271
     1
  0
XRECORD
  5
41F
102
{ACAD_REACTORS
330
41B
102
}
330
41B
100
AcDbXrecord
280
     1
270
     1
271
     1
  0
XRECORD
  5
421
102
{ACAD_REACTORS
330
41B
102
}
330
41B
100
AcDbXrecord
280
     1
270
     1
271
     1
  0
XRECORD
  5
41E
102
{ACAD_REACTORS
330
41B
102
}
330
41B
100
AcDbXrecord
280
     1
270
     1
271
     1
  0
CELLSTYLEMAP
  5
59A
102
{ACAD_REACTORS
330
599
102
}
330
599
100
AcDbCellStyleMap
 90
        3
300
CELLSTYLE
  1
TABLEFORMAT_BEGIN
 90
        5
170
     1
 91
        0
 92
    32768
 62
   257
 93
        1
300
CONTENTFORMAT
  1
CONTENTFORMAT_BEGIN
 90
        0
 91
        0
 92
      512
 93
        0
300

 40
0.0
140
1.0
 94
        5
 62
     0
340
11
144
6.0
309
CONTENTFORMAT_END
171
     1
301
MARGIN
  1
CELLMARGIN_BEGIN
 40
1.5
 40
1.5
 40
1.5
 40
1.5
 40
4.5
 40
4.5
309
CELLMARGIN_END
 94
        6
 95
        1
302
GRIDFORMAT
  1
GRIDFORMAT_BEGIN
 90
        0
 91
        1
 62
     0
 92
       -2
340
0
 93
        0
 40
1.125
309
GRIDFORMAT_END
 95
        2
302
GRIDFORMAT
  1
GRIDFORMAT_BEGIN
 90
        0
 91
        1
 62
     0
 92
       -2
340
0
 93
        0
 40
1.125
309
GRIDFORMAT_END
 95
        4
302
GRIDFORMAT
  1
GRIDFORMAT_BEGIN
 90
        0
 91
        1
 62
     0
 92
       -2
340
0
 93
        0
 40
1.125
309
GRIDFORMAT_END
 95
        8
302
GRIDFORMAT
  1
GRIDFORMAT_BEGIN
 90
        0
 91
        1
 62
     0
 92
       -2
340
0
 93
        0
 40
1.125
309
GRIDFORMAT_END
 95
       16
302
GRIDFORMAT
  1
GRIDFORMAT_BEGIN
 90
        0
 91
        1
 62
     0
 92
       -2
340
0
 93
        0
 40
1.125
309
GRIDFORMAT_END
 95
       32
302
GRIDFORMAT
  1
GRIDFORMAT_BEGIN
 90
        0
 91
        1
 62
     0
 92
       -2
340
0
 93
        0
 40
1.125
309
GRIDFORMAT_END
309
TABLEFORMAT_END
  1
CELLSTYLE_BEGIN
 90
        1
 91
        1
300
_TITLE
309
CELLSTYLE_END
300
CELLSTYLE
  1
TABLEFORMAT_BEGIN
 90
        5
170
     1
 91
        0
 92
        0
 62
   257
 93
        1
300
CONTENTFORMAT
  1
CONTENTFORMAT_BEGIN
 90
        0
 91
        0
 92
      512
 93
        0
300

 40
0.0
140
1.0
 94
        5
 62
     0
340
11
144
4.5
309
CONTENTFORMAT_END
171
     1
301
MARGIN
  1
CELLMARGIN_BEGIN
 40
1.5
 40
1.5
 40
1.5
 40
1.5
 40
4.5
 40
4.5
309
CELLMARGIN_END
 94
        6
 95
        1
302
GRIDFORMAT
  1
GRIDFORMAT_BEGIN
 90
        0
 91
        1
 62
     0
 92
       -2
340
0
 93
        0
 40
1.125
309
GRIDFORMAT_END
 95
        2
302
GRIDFORMAT
  1
GRIDFORMAT_BEGIN
 90
        0
 91
        1
 62
     0
 92
       -2
340
0
 93
        0
 40
1.125
309
GRIDFORMAT_END
 95
        4
302
GRIDFORMAT
  1
GRIDFORMAT_BEGIN
 90
        0
 91
        1
 62
     0
 92
       -2
340
0
 93
        0
 40
1.125
309
GRIDFORMAT_END
 95
        8
302
GRIDFORMAT
  1
GRIDFORMAT_BEGIN
 90
        0
 91
        1
 62
     0
 92
       -2
340
0
 93
        0
 40
1.125
309
GRIDFORMAT_END
 95
       16
302
GRIDFORMAT
  1
GRIDFORMAT_BEGIN
 90
        0
 91
        1
 62
     0
 92
       -2
340
0
 93
        0
 40
1.125
309
GRIDFORMAT_END
 95
       32
302
GRIDFORMAT
  1
GRIDFORMAT_BEGIN
 90
        0
 91
        1
 62
     0
 92
       -2
340
0
 93
        0
 40
1.125
309
GRIDFORMAT_END
309
TABLEFORMAT_END
  1
CELLSTYLE_BEGIN
 90
        2
 91
        1
300
_HEADER
309
CELLSTYLE_END
300
CELLSTYLE
  1
TABLEFORMAT_BEGIN
 90
        5
170
     1
 91
        0
 92
        0
 62
   257
 93
        1
300
CONTENTFORMAT
  1
CONTENTFORMAT_BEGIN
 90
        0
 91
        0
 92
      512
 93
        0
300

 40
0.0
140
1.0
 94
        2
 62
     0
340
11
144
4.5
309
CONTENTFORMAT_END
171
     1
301
MARGIN
  1
CELLMARGIN_BEGIN
 40
1.5
 40
1.5
 40
1.5
 40
1.5
 40
4.5
 40
4.5
309
CELLMARGIN_END
 94
        6
 95
        1
302
GRIDFORMAT
  1
GRIDFORMAT_BEGIN
 90
        0
 91
        1
 62
     0
 92
       -2
340
0
 93
        0
 40
1.125
309
GRIDFORMAT_END
 95
        2
302
GRIDFORMAT
  1
GRIDFORMAT_BEGIN
 90
        0
 91
        1
 62
     0
 92
       -2
340
0
 93
        0
 40
1.125
309
GRIDFORMAT_END
 95
        4
302
GRIDFORMAT
  1
GRIDFORMAT_BEGIN
 90
        0
 91
        1
 62
     0
 92
       -2
340
0
 93
        0
 40
1.125
309
GRIDFORMAT_END
 95
        8
302
GRIDFORMAT
  1
GRIDFORMAT_BEGIN
 90
        0
 91
        1
 62
     0
 92
       -2
340
0
 93
        0
 40
1.125
309
GRIDFORMAT_END
 95
       16
302
GRIDFORMAT
  1
GRIDFORMAT_BEGIN
 90
        0
 91
        1
 62
     0
 92
       -2
340
0
 93
        0
 40
1.125
309
GRIDFORMAT_END
 95
       32
302
GRIDFORMAT
  1
GRIDFORMAT_BEGIN
 90
        0
 91
        1
 62
     0
 92
       -2
340
0
 93
        0
 40
1.125
309
GRIDFORMAT_END
309
TABLEFORMAT_END
  1
CELLSTYLE_BEGIN
 90
        3
 91
        2
300
_DATA
309
CELLSTYLE_END
  0
XRECORD
  5
5CA
102
{ACAD_REACTORS
330
599
102
}
330
599
100
AcDbXrecord
280
     1
102
ACAD_ROUNDTRIP_PRE2007_TABLESTYLE
 90
      512
 91
        0
  1

 92
      512
 93
        0
  2

 94
      512
 95
        0
  3

  0
XRECORD
  5
5AF
102
{ACAD_REACTORS
330
5AE
102
}
330
5AE
100
AcDbXrecord
280
     1
102
RTVSPropertyOp0
 70
     1
102
RTVSPropertyOp1
 70
     1
102
RTVSPropertyOp2
 70
     1
102
RTVSPropertyOp3
 70
     1
102
RTVSPropertyOp4
 70
     1
102
RTVSPropertyOp5
 70
     1
102
RTVSPropertyOp6
 70
     1
102
RTVSPropertyOp7
 70
     1
102
RTVSPropertyOp8
 70
     1
102
RTVSPropertyOp9
 70
     1
102
RTVSPropertyOp10
 70
     1
102
RTVSPropertyOp11
 70
     1
102
RTVSPropertyOp12
 70
     1
102
RTVSPropertyOp13
 70
     1
102
RTVSPropertyOp14
 70
     1
102
RTVSPropertyOp15
 70
     1
102
RTVSPropertyOp16
 70
     1
102
RTVSPropertyOp17
 70
     1
102
RTVSPropertyOp18
 70
     1
102
RTVSPropertyOp19
 70
     1
102
RTVSPropertyOp20
 70
     1
102
RTVSPropertyOp21
 70
     1
102
RTVSPropertyOp22
 70
     1
102
RTVSPropertyOp23
 70
     1
102
RTVSPropertyOp24
 70
     1
102
RTVSPropertyOp25
 70
     1
102
RTVSPropertyOp26
 70
     1
102
RTVSPropertyOp27
 70
     1
  0
XRECORD
  5
5B3
102
{ACAD_REACTORS
330
5B2
102
}
330
5B2
100
AcDbXrecord
280
     1
102
RTVSPropertyOp0
 70
     1
102
RTVSPropertyOp1
 70
     1
102
RTVSPropertyOp2
 70
     1
102
RTVSPropertyOp3
 70
     1
102
RTVSPropertyOp4
 70
     1
102
RTVSPropertyOp5
 70
     1
102
RTVSPropertyOp6
 70
     1
102
RTVSPropertyOp7
 70
     1
102
RTVSPropertyOp8
 70
     1
102
RTVSPropertyOp9
 70
     1
102
RTVSPropertyOp10
 70
     1
102
RTVSPropertyOp11
 70
     1
102
RTVSPropertyOp12
 70
     1
102
RTVSPropertyOp13
 70
     1
102
RTVSPropertyOp14
 70
     1
102
RTVSPropertyOp15
 70
     1
102
RTVSPropertyOp16
 70
     1
102
RTVSPropertyOp17
 70
     1
102
RTVSPropertyOp18
 70
     1
102
RTVSPropertyOp19
 70
     1
102
RTVSPropertyOp20
 70
     1
102
RTVSPropertyOp21
 70
     1
102
RTVSPropertyOp22
 70
     1
102
RTVSPropertyOp23
 70
     1
102
RTVSPropertyOp24
 70
     1
102
RTVSPropertyOp25
 70
     1
102
RTVSPropertyOp26
 70
     1
102
RTVSPropertyOp27
 70
     1
  0
XRECORD
  5
5B1
102
{ACAD_REACTORS
330
5B0
102
}
330
5B0
100
AcDbXrecord
280
     1
102
RTVSPropertyOp0
 70
     1
102
RTVSPropertyOp1
 70
     1
102
RTVSPropertyOp2
 70
     1
102
RTVSPropertyOp3
 70
     1
102
RTVSPropertyOp4
 70
     1
102
RTVSPropertyOp5
 70
     1
102
RTVSPropertyOp6
 70
     1
102
RTVSPropertyOp7
 70
     1
102
RTVSPropertyOp8
 70
     1
102
RTVSPropertyOp9
 70
     1
102
RTVSPropertyOp10
 70
     1
102
RTVSPropertyOp11
 70
     1
102
RTVSPropertyOp12
 70
     1
102
RTVSPropertyOp13
 70
     1
102
RTVSPropertyOp14
 70
     1
102
RTVSPropertyOp15
 70
     1
102
RTVSPropertyOp16
 70
     1
102
RTVSPropertyOp17
 70
     1
102
RTVSPropertyOp18
 70
     1
102
RTVSPropertyOp19
 70
     1
102
RTVSPropertyOp20
 70
     1
102
RTVSPropertyOp21
 70
     1
102
RTVSPropertyOp22
 70
     1
102
RTVSPropertyOp23
 70
     1
102
RTVSPropertyOp24
 70
     1
102
RTVSPropertyOp25
 70
     1
102
RTVSPropertyOp26
 70
     1
102
RTVSPropertyOp27
 70
     1
  0
XRECORD
  5
5AD
102
{ACAD_REACTORS
330
5AC
102
}
330
5AC
100
AcDbXrecord
280
     1
102
RTVSPropertyOp0
 70
     1
102
RTVSPropertyOp1
 70
     1
102
RTVSPropertyOp2
 70
     1
102
RTVSPropertyOp3
 70
     1
102
RTVSPropertyOp4
 70
     1
102
RTVSPropertyOp5
 70
     1
102
RTVSPropertyOp6
 70
     1
102
RTVSPropertyOp7
 70
     1
102
RTVSPropertyOp8
 70
     1
102
RTVSPropertyOp9
 70
     1
102
RTVSPropertyOp10
 70
     1
102
RTVSPropertyOp11
 70
     1
102
RTVSPropertyOp12
 70
     1
102
RTVSPropertyOp13
 70
     1
102
RTVSPropertyOp14
 70
     1
102
RTVSPropertyOp15
 70
     1
102
RTVSPropertyOp16
 70
     1
102
RTVSPropertyOp17
 70
     1
102
RTVSPropertyOp18
 70
     1
102
RTVSPropertyOp19
 70
     1
102
RTVSPropertyOp20
 70
     1
102
RTVSPropertyOp21
 70
     1
102
RTVSPropertyOp22
 70
     1
102
RTVSPropertyOp23
 70
     1
102
RTVSPropertyOp24
 70
     1
102
RTVSPropertyOp25
 70
     1
102
RTVSPropertyOp26
 70
     1
102
RTVSPropertyOp27
 70
     1
  0
XRECORD
  5
5BB
102
{ACAD_REACTORS
330
5BA
102
}
330
5BA
100
AcDbXrecord
280
     1
102
RTVSPropertyOp0
 70
     1
102
RTVSPropertyOp1
 70
     1
102
RTVSPropertyOp2
 70
     1
102
RTVSPropertyOp3
 70
     1
102
RTVSPropertyOp4
 70
     1
102
RTVSPropertyOp5
 70
     1
102
RTVSPropertyOp6
 70
     1
102
RTVSPropertyOp7
 70
     1
102
RTVSPropertyOp8
 70
     1
102
RTVSPropertyOp9
 70
     1
102
RTVSPropertyOp10
 70
     1
102
RTVSPropertyOp11
 70
     1
102
RTVSPropertyOp12
 70
     1
102
RTVSPropertyOp13
 70
     1
102
RTVSPropertyOp14
 70
     1
102
RTVSPropertyOp15
 70
     1
102
RTVSPropertyOp16
 70
     1
102
RTVSPropertyOp17
 70
     1
102
RTVSPropertyOp18
 70
     1
102
RTVSPropertyOp19
 70
     1
102
RTVSPropertyOp20
 70
     1
102
RTVSPropertyOp21
 70
     1
102
RTVSPropertyOp22
 70
     1
102
RTVSPropertyOp23
 70
     1
102
RTVSPropertyOp24
 70
     1
102
RTVSPropertyOp25
 70
     1
102
RTVSPropertyOp26
 70
     1
102
RTVSPropertyOp27
 70
     1
  0
XRECORD
  5
5C3
102
{ACAD_REACTORS
330
5C2
102
}
330
5C2
100
AcDbXrecord
280
     1
102
RTVSPropertyOp0
 70
     1
102
RTVSPropertyOp1
 70
     1
102
RTVSPropertyOp2
 70
     1
102
RTVSPropertyOp3
 70
     1
102
RTVSPropertyOp4
 70
     1
102
RTVSPropertyOp5
 70
     1
102
RTVSPropertyOp6
 70
     1
102
RTVSPropertyOp7
 70
     1
102
RTVSPropertyOp8
 70
     1
102
RTVSPropertyOp9
 70
     1
102
RTVSPropertyOp10
 70
     1
102
RTVSPropertyOp11
 70
     1
102
RTVSPropertyOp12
 70
     1
102
RTVSPropertyOp13
 70
     1
102
RTVSPropertyOp14
 70
     1
102
RTVSPropertyOp15
 70
     1
102
RTVSPropertyOp16
 70
     1
102
RTVSPropertyOp17
 70
     1
102
RTVSPropertyOp18
 70
     1
102
RTVSPropertyOp19
 70
     1
102
RTVSPropertyOp20
 70
     1
102
RTVSPropertyOp21
 70
     1
102
RTVSPropertyOp22
 70
     1
102
RTVSPropertyOp23
 70
     1
102
RTVSPropertyOp24
 70
     1
102
RTVSPropertyOp25
 70
     1
102
RTVSPropertyOp26
 70
     1
102
RTVSPropertyOp27
 70
     1
  0
XRECORD
  5
5B5
102
{ACAD_REACTORS
330
5B4
102
}
330
5B4
100
AcDbXrecord
280
     1
102
RTVSPropertyOp0
 70
     1
102
RTVSPropertyOp1
 70
     1
102
RTVSPropertyOp2
 70
     1
102
RTVSPropertyOp3
 70
     1
102
RTVSPropertyOp4
 70
     1
102
RTVSPropertyOp5
 70
     1
102
RTVSPropertyOp6
 70
     1
102
RTVSPropertyOp7
 70
     1
102
RTVSPropertyOp8
 70
     1
102
RTVSPropertyOp9
 70
     1
102
RTVSPropertyOp10
 70
     1
102
RTVSPropertyOp11
 70
     1
102
RTVSPropertyOp12
 70
     1
102
RTVSPropertyOp13
 70
     1
102
RTVSPropertyOp14
 70
     1
102
RTVSPropertyOp15
 70
     1
102
RTVSPropertyOp16
 70
     1
102
RTVSPropertyOp17
 70
     1
102
RTVSPropertyOp18
 70
     1
102
RTVSPropertyOp19
 70
     1
102
RTVSPropertyOp20
 70
     1
102
RTVSPropertyOp21
 70
     1
102
RTVSPropertyOp22
 70
     1
102
RTVSPropertyOp23
 70
     1
102
RTVSPropertyOp24
 70
     1
102
RTVSPropertyOp25
 70
     1
102
RTVSPropertyOp26
 70
     1
102
RTVSPropertyOp27
 70
     1
  0
XRECORD
  5
5B9
102
{ACAD_REACTORS
330
5B8
102
}
330
5B8
100
AcDbXrecord
280
     1
102
RTVSPropertyOp0
 70
     1
102
RTVSPropertyOp1
 70
     1
102
RTVSPropertyOp2
 70
     1
102
RTVSPropertyOp3
 70
     1
102
RTVSPropertyOp4
 70
     1
102
RTVSPropertyOp5
 70
     1
102
RTVSPropertyOp6
 70
     1
102
RTVSPropertyOp7
 70
     1
102
RTVSPropertyOp8
 70
     1
102
RTVSPropertyOp9
 70
     1
102
RTVSPropertyOp10
 70
     1
102
RTVSPropertyOp11
 70
     1
102
RTVSPropertyOp12
 70
     1
102
RTVSPropertyOp13
 70
     1
102
RTVSPropertyOp14
 70
     1
102
RTVSPropertyOp15
 70
     1
102
RTVSPropertyOp16
 70
     1
102
RTVSPropertyOp17
 70
     1
102
RTVSPropertyOp18
 70
     1
102
RTVSPropertyOp19
 70
     1
102
RTVSPropertyOp20
 70
     1
102
RTVSPropertyOp21
 70
     1
102
RTVSPropertyOp22
 70
     1
102
RTVSPropertyOp23
 70
     1
102
RTVSPropertyOp24
 70
     1
102
RTVSPropertyOp25
 70
     1
102
RTVSPropertyOp26
 70
     1
102
RTVSPropertyOp27
 70
     1
  0
XRECORD
  5
5C9
102
{ACAD_REACTORS
330
5C8
102
}
330
5C8
100
AcDbXrecord
280
     1
102
RTVSPropertyOp0
 70
     0
102
RTVSPropertyOp1
 70
     0
102
RTVSPropertyOp2
 70
     0
102
RTVSPropertyOp3
 70
     0
102
RTVSPropertyOp4
 70
     0
102
RTVSPropertyOp5
 70
     0
102
RTVSPropertyOp6
 70
     0
102
RTVSPropertyOp7
 70
     0
102
RTVSPropertyOp8
 70
     0
102
RTVSPropertyOp9
 70
     0
102
RTVSPropertyOp10
 70
     0
102
RTVSPropertyOp11
 70
     0
102
RTVSPropertyOp12
 70
     0
102
RTVSPropertyOp13
 70
     0
102
RTVSPropertyOp14
 70
     2
102
RTVSPropertyOp15
 70
     0
102
RTVSPropertyOp16
 70
     0
102
RTVSPropertyOp17
 70
     0
102
RTVSPropertyOp18
 70
     0
102
RTVSPropertyOp19
 70
     0
102
RTVSPropertyOp20
 70
     0
102
RTVSPropertyOp21
 70
     0
102
RTVSPropertyOp22
 70
     0
102
RTVSPropertyOp23
 70
     0
102
RTVSPropertyOp24
 70
     0
102
RTVSPropertyOp25
 70
     0
102
RTVSPropertyOp26
 70
     0
102
RTVSPropertyOp27
 70
     0
  0
XRECORD
  5
5C1
102
{ACAD_REACTORS
330
5C0
102
}
330
5C0
100
AcDbXrecord
280
     1
102
RTVSPropertyOp0
 70
     1
102
RTVSPropertyOp1
 70
     1
102
RTVSPropertyOp2
 70
     1
102
RTVSPropertyOp3
 70
     1
102
RTVSPropertyOp4
 70
     1
102
RTVSPropertyOp5
 70
     1
102
RTVSPropertyOp6
 70
     1
102
RTVSPropertyOp7
 70
     1
102
RTVSPropertyOp8
 70
     1
102
RTVSPropertyOp9
 70
     1
102
RTVSPropertyOp10
 70
     1
102
RTVSPropertyOp11
 70
     1
102
RTVSPropertyOp12
 70
     1
102
RTVSPropertyOp13
 70
     1
102
RTVSPropertyOp14
 70
     1
102
RTVSPropertyOp15
 70
     1
102
RTVSPropertyOp16
 70
     1
102
RTVSPropertyOp17
 70
     1
102
RTVSPropertyOp18
 70
     1
102
RTVSPropertyOp19
 70
     1
102
RTVSPropertyOp20
 70
     1
102
RTVSPropertyOp21
 70
     1
102
RTVSPropertyOp22
 70
     1
102
RTVSPropertyOp23
 70
     1
102
RTVSPropertyOp24
 70
     1
102
RTVSPropertyOp25
 70
     1
102
RTVSPropertyOp26
 70
     1
102
RTVSPropertyOp27
 70
     1
  0
XRECORD
  5
5A5
102
{ACAD_REACTORS
330
5A4
102
}
330
5A4
100
AcDbXrecord
280
     1
102
RTVSPropertyOp0
 70
     1
102
RTVSPropertyOp1
 70
     1
102
RTVSPropertyOp2
 70
     1
102
RTVSPropertyOp3
 70
     1
102
RTVSPropertyOp4
 70
     1
102
RTVSPropertyOp5
 70
     1
102
RTVSPropertyOp6
 70
     1
102
RTVSPropertyOp7
 70
     1
102
RTVSPropertyOp8
 70
     1
102
RTVSPropertyOp9
 70
     1
102
RTVSPropertyOp10
 70
     1
102
RTVSPropertyOp11
 70
     1
102
RTVSPropertyOp12
 70
     1
102
RTVSPropertyOp13
 70
     1
102
RTVSPropertyOp14
 70
     1
102
RTVSPropertyOp15
 70
     1
102
RTVSPropertyOp16
 70
     1
102
RTVSPropertyOp17
 70
     1
102
RTVSPropertyOp18
 70
     1
102
RTVSPropertyOp19
 70
     1
102
RTVSPropertyOp20
 70
     1
102
RTVSPropertyOp21
 70
     1
102
RTVSPropertyOp22
 70
     1
102
RTVSPropertyOp23
 70
     1
102
RTVSPropertyOp24
 70
     1
102
RTVSPropertyOp25
 70
     1
102
RTVSPropertyOp26
 70
     1
102
RTVSPropertyOp27
 70
     1
  0
XRECORD
  5
5A7
102
{ACAD_REACTORS
330
5A6
102
}
330
5A6
100
AcDbXrecord
280
     1
102
RTVSPropertyOp0
 70
     1
102
RTVSPropertyOp1
 70
     1
102
RTVSPropertyOp2
 70
     1
102
RTVSPropertyOp3
 70
     1
102
RTVSPropertyOp4
 70
     1
102
RTVSPropertyOp5
 70
     1
102
RTVSPropertyOp6
 70
     1
102
RTVSPropertyOp7
 70
     1
102
RTVSPropertyOp8
 70
     1
102
RTVSPropertyOp9
 70
     1
102
RTVSPropertyOp10
 70
     1
102
RTVSPropertyOp11
 70
     1
102
RTVSPropertyOp12
 70
     1
102
RTVSPropertyOp13
 70
     1
102
RTVSPropertyOp14
 70
     1
102
RTVSPropertyOp15
 70
     1
102
RTVSPropertyOp16
 70
     1
102
RTVSPropertyOp17
 70
     1
102
RTVSPropertyOp18
 70
     1
102
RTVSPropertyOp19
 70
     1
102
RTVSPropertyOp20
 70
     1
102
RTVSPropertyOp21
 70
     1
102
RTVSPropertyOp22
 70
     1
102
RTVSPropertyOp23
 70
     1
102
RTVSPropertyOp24
 70
     1
102
RTVSPropertyOp25
 70
     1
102
RTVSPropertyOp26
 70
     1
102
RTVSPropertyOp27
 70
     1
  0
XRECORD
  5
5A9
102
{ACAD_REACTORS
330
5A8
102
}
330
5A8
100
AcDbXrecord
280
     1
102
RTVSPropertyOp0
 70
     1
102
RTVSPropertyOp1
 70
     1
102
RTVSPropertyOp2
 70
     1
102
RTVSPropertyOp3
 70
     1
102
RTVSPropertyOp4
 70
     1
102
RTVSPropertyOp5
 70
     1
102
RTVSPropertyOp6
 70
     1
102
RTVSPropertyOp7
 70
     1
102
RTVSPropertyOp8
 70
     1
102
RTVSPropertyOp9
 70
     1
102
RTVSPropertyOp10
 70
     1
102
RTVSPropertyOp11
 70
     1
102
RTVSPropertyOp12
 70
     1
102
RTVSPropertyOp13
 70
     1
102
RTVSPropertyOp14
 70
     1
102
RTVSPropertyOp15
 70
     1
102
RTVSPropertyOp16
 70
     1
102
RTVSPropertyOp17
 70
     1
102
RTVSPropertyOp18
 70
     1
102
RTVSPropertyOp19
 70
     1
102
RTVSPropertyOp20
 70
     1
102
RTVSPropertyOp21
 70
     1
102
RTVSPropertyOp22
 70
     1
102
RTVSPropertyOp23
 70
     1
102
RTVSPropertyOp24
 70
     1
102
RTVSPropertyOp25
 70
     1
102
RTVSPropertyOp26
 70
     1
102
RTVSPropertyOp27
 70
     1
  0
XRECORD
  5
5AB
102
{ACAD_REACTORS
330
5AA
102
}
330
5AA
100
AcDbXrecord
280
     1
102
RTVSPropertyOp0
 70
     1
102
RTVSPropertyOp1
 70
     1
102
RTVSPropertyOp2
 70
     1
102
RTVSPropertyOp3
 70
     1
102
RTVSPropertyOp4
 70
     1
102
RTVSPropertyOp5
 70
     1
102
RTVSPropertyOp6
 70
     1
102
RTVSPropertyOp7
 70
     1
102
RTVSPropertyOp8
 70
     1
102
RTVSPropertyOp9
 70
     1
102
RTVSPropertyOp10
 70
     1
102
RTVSPropertyOp11
 70
     1
102
RTVSPropertyOp12
 70
     1
102
RTVSPropertyOp13
 70
     1
102
RTVSPropertyOp14
 70
     1
102
RTVSPropertyOp15
 70
     1
102
RTVSPropertyOp16
 70
     1
102
RTVSPropertyOp17
 70
     1
102
RTVSPropertyOp18
 70
     1
102
RTVSPropertyOp19
 70
     1
102
RTVSPropertyOp20
 70
     1
102
RTVSPropertyOp21
 70
     1
102
RTVSPropertyOp22
 70
     1
102
RTVSPropertyOp23
 70
     1
102
RTVSPropertyOp24
 70
     1
102
RTVSPropertyOp25
 70
     1
102
RTVSPropertyOp26
 70
     1
102
RTVSPropertyOp27
 70
     1
  0
XRECORD
  5
5C5
102
{ACAD_REACTORS
330
5C4
102
}
330
5C4
100
AcDbXrecord
280
     1
102
RTVSPropertyOp0
 70
     0
102
RTVSPropertyOp1
 70
     0
102
RTVSPropertyOp2
 70
     0
102
RTVSPropertyOp3
 70
     0
102
RTVSPropertyOp4
 70
     0
102
RTVSPropertyOp5
 70
     0
102
RTVSPropertyOp6
 70
     0
102
RTVSPropertyOp7
 70
     0
102
RTVSPropertyOp8
 70
     0
102
RTVSPropertyOp9
 70
     0
102
RTVSPropertyOp10
 70
     0
102
RTVSPropertyOp11
 70
     0
102
RTVSPropertyOp12
 70
     0
102
RTVSPropertyOp13
 70
     0
102
RTVSPropertyOp14
 70
     2
102
RTVSPropertyOp15
 70
     0
102
RTVSPropertyOp16
 70
     0
102
RTVSPropertyOp17
 70
     0
102
RTVSPropertyOp18
 70
     0
102
RTVSPropertyOp19
 70
     0
102
RTVSPropertyOp20
 70
     0
102
RTVSPropertyOp21
 70
     0
102
RTVSPropertyOp22
 70
     0
102
RTVSPropertyOp23
 70
     0
102
RTVSPropertyOp24
 70
     0
102
RTVSPropertyOp25
 70
     0
102
RTVSPropertyOp26
 70
     0
102
RTVSPropertyOp27
 70
     0
  0
XRECORD
  5
5BF
102
{ACAD_REACTORS
330
5BE
102
}
330
5BE
100
AcDbXrecord
280
     1
102
RTVSPropertyOp0
 70
     1
102
RTVSPropertyOp1
 70
     1
102
RTVSPropertyOp2
 70
     1
102
RTVSPropertyOp3
 70
     1
102
RTVSPropertyOp4
 70
     1
102
RTVSPropertyOp5
 70
     1
102
RTVSPropertyOp6
 70
     1
102
RTVSPropertyOp7
 70
     1
102
RTVSPropertyOp8
 70
     1
102
RTVSPropertyOp9
 70
     1
102
RTVSPropertyOp10
 70
     1
102
RTVSPropertyOp11
 70
     1
102
RTVSPropertyOp12
 70
     1
102
RTVSPropertyOp13
 70
     1
102
RTVSPropertyOp14
 70
     1
102
RTVSPropertyOp15
 70
     1
102
RTVSPropertyOp16
 70
     1
102
RTVSPropertyOp17
 70
     1
102
RTVSPropertyOp18
 70
     1
102
RTVSPropertyOp19
 70
     1
102
RTVSPropertyOp20
 70
     1
102
RTVSPropertyOp21
 70
     1
102
RTVSPropertyOp22
 70
     1
102
RTVSPropertyOp23
 70
     1
102
RTVSPropertyOp24
 70
     1
102
RTVSPropertyOp25
 70
     1
102
RTVSPropertyOp26
 70
     1
102
RTVSPropertyOp27
 70
     1
  0
XRECORD
  5
5C7
102
{ACAD_REACTORS
330
5C6
102
}
330
5C6
100
AcDbXrecord
280
     1
102
RTVSPropertyOp0
 70
     0
102
RTVSPropertyOp1
 70
     0
102
RTVSPropertyOp2
 70
     0
102
RTVSPropertyOp3
 70
     0
102
RTVSPropertyOp4
 70
     0
102
RTVSPropertyOp5
 70
     0
102
RTVSPropertyOp6
 70
     0
102
RTVSPropertyOp7
 70
     0
102
RTVSPropertyOp8
 70
     0
102
RTVSPropertyOp9
 70
     0
102
RTVSPropertyOp10
 70
     0
102
RTVSPropertyOp11
 70
     0
102
RTVSPropertyOp12
 70
     0
102
RTVSPropertyOp13
 70
     0
102
RTVSPropertyOp14
 70
     2
102
RTVSPropertyOp15
 70
     0
102
RTVSPropertyOp16
 70
     0
102
RTVSPropertyOp17
 70
     0
102
RTVSPropertyOp18
 70
     0
102
RTVSPropertyOp19
 70
     0
102
RTVSPropertyOp20
 70
     0
102
RTVSPropertyOp21
 70
     0
102
RTVSPropertyOp22
 70
     0
102
RTVSPropertyOp23
 70
     0
102
RTVSPropertyOp24
 70
     0
102
RTVSPropertyOp25
 70
     0
102
RTVSPropertyOp26
 70
     0
102
RTVSPropertyOp27
 70
     0
  0
XRECORD
  5
5B7
102
{ACAD_REACTORS
330
5B6
102
}
330
5B6
100
AcDbXrecord
280
     1
102
RTVSPropertyOp0
 70
     1
102
RTVSPropertyOp1
 70
     1
102
RTVSPropertyOp2
 70
     1
102
RTVSPropertyOp3
 70
     1
102
RTVSPropertyOp4
 70
     1
102
RTVSPropertyOp5
 70
     1
102
RTVSPropertyOp6
 70
     1
102
RTVSPropertyOp7
 70
     1
102
RTVSPropertyOp8
 70
     1
102
RTVSPropertyOp9
 70
     1
102
RTVSPropertyOp10
 70
     1
102
RTVSPropertyOp11
 70
     1
102
RTVSPropertyOp12
 70
     1
102
RTVSPropertyOp13
 70
     1
102
RTVSPropertyOp14
 70
     1
102
RTVSPropertyOp15
 70
     1
102
RTVSPropertyOp16
 70
     1
102
RTVSPropertyOp17
 70
     1
102
RTVSPropertyOp18
 70
     1
102
RTVSPropertyOp19
 70
     1
102
RTVSPropertyOp20
 70
     1
102
RTVSPropertyOp21
 70
     1
102
RTVSPropertyOp22
 70
     1
102
RTVSPropertyOp23
 70
     1
102
RTVSPropertyOp24
 70
     1
102
RTVSPropertyOp25
 70
     1
102
RTVSPropertyOp26
 70
     1
102
RTVSPropertyOp27
 70
     1
  0
XRECORD
  5
5BD
102
{ACAD_REACTORS
330
5BC
102
}
330
5BC
100
AcDbXrecord
280
     1
102
RTVSPropertyOp0
 70
     1
102
RTVSPropertyOp1
 70
     1
102
RTVSPropertyOp2
 70
     1
102
RTVSPropertyOp3
 70
     1
102
RTVSPropertyOp4
 70
     1
102
RTVSPropertyOp5
 70
     1
102
RTVSPropertyOp6
 70
     1
102
RTVSPropertyOp7
 70
     1
102
RTVSPropertyOp8
 70
     1
102
RTVSPropertyOp9
 70
     1
102
RTVSPropertyOp10
 70
     1
102
RTVSPropertyOp11
 70
     1
102
RTVSPropertyOp12
 70
     1
102
RTVSPropertyOp13
 70
     1
102
RTVSPropertyOp14
 70
     1
102
RTVSPropertyOp15
 70
     1
102
RTVSPropertyOp16
 70
     1
102
RTVSPropertyOp17
 70
     1
102
RTVSPropertyOp18
 70
     1
102
RTVSPropertyOp19
 70
     1
102
RTVSPropertyOp20
 70
     1
102
RTVSPropertyOp21
 70
     1
102
RTVSPropertyOp22
 70
     1
102
RTVSPropertyOp23
 70
     1
102
RTVSPropertyOp24
 70
     1
102
RTVSPropertyOp25
 70
     1
102
RTVSPropertyOp26
 70
     1
102
RTVSPropertyOp27
 70
     1
  0
ENDSEC
  0
EOF
