  0
SECTION
  2
HEADER
  9
$ACADVER
  1
AC1015
  9
$ACADMAINTVER
 70
    20
  9
$DWGCODEPAGE
  3
ANSI_1252
  9
$INSBASE
 10
0.0
 20
0.0
 30
0.0
  9
$EXTMIN
 10
42.66906841037462
 20
32.32576061683449
 30
-0.0015258207003583
  9
$EXTMAX
 10
370.7940683034181
 20
291.7521063982883
 30
0.0000000349246037
  9
$LIMMIN
 10
0.0
 20
0.0
  9
$LIMMAX
 10
420.0
 20
297.0
  9
$ORTHOMODE
 70
     0
  9
$REGENMODE
 70
     1
  9
$FILLMODE
 70
     1
  9
$QTEXTMODE
 70
     0
  9
$MIRRTEXT
 70
     0
  9
$LTSCALE
 40
23.1
  9
$ATTMODE
 70
     1
  9
$TEXTSIZE
 40
0.2
  9
$TRACEWID
 40
0.05
  9
$TEXTSTYLE
  7
STANDARD
  9
$CLAYER
  8
0
  9
$CELTYPE
  6
BYLAYER
  9
$CECOLOR
 62
   256
  9
$CELTSCALE
 40
1.0
  9
$DISPSILH
 70
     0
  9
$DIMSCALE
 40
1.0
  9
$DIMASZ
 40
3.5
  9
$DIMEXO
 40
2.625
  9
$DIMDLI
 40
15.96
  9
$DIMRND
 40
0.0
  9
$DIMDLE
 40
0.0
  9
$DIMEXE
 40
7.559999999999999
  9
$DIMTP
 40
0.005
  9
$DIMTM
 40
0.005
  9
$DIMTXT
 40
3.5
  9
$DIMCEN
 40
3.779999999999999
  9
$DIMTSZ
 40
0.0
  9
$DIMTOL
 70
     1
  9
$DIMLIM
 70
     0
  9
$DIMTIH
 70
     1
  9
$DIMTOH
 70
     1
  9
$DIMSE1
 70
     0
  9
$DIMSE2
 70
     0
  9
$DIMTAD
 70
     0
  9
$DIMZIN
 70
     0
  9
$DIMBLK
  1
_FILLED
  9
$DIMASO
 70
     1
  9
$DIMSHO
 70
     1
  9
$DIMPOST
  1

  9
$DIMAPOST
  1

  9
$DIMALT
 70
     0
  9
$DIMALTD
 70
     2
  9
$DIMALTF
 40
25.4
  9
$DIMLFAC
 40
1.0
  9
$DIMTOFL
 70
     0
  9
$DIMTVP
 40
0.0
  9
$DIMTIX
 70
     0
  9
$DIMSOXD
 70
     0
  9
$DIMSAH
 70
     0
  9
$DIMBLK1
  1

  9
$DIMBLK2
  1

  9
$DIMSTYLE
  2
STANDARD
  9
$DIMCLRD
 70
     0
  9
$DIMCLRE
 70
     0
  9
$DIMCLRT
 70
     0
  9
$DIMTFAC
 40
1.0
  9
$DIMGAP
 40
0.09
  9
$DIMJUST
 70
     0
  9
$DIMSD1
 70
     0
  9
$DIMSD2
 70
     0
  9
$DIMTOLJ
 70
     1
  9
$DIMTZIN
 70
     0
  9
$DIMALTZ
 70
     0
  9
$DIMALTTZ
 70
     0
  9
$DIMUPT
 70
     0
  9
$DIMDEC
 70
     4
  9
$DIMTDEC
 70
     4
  9
$DIMALTU
 70
     2
  9
$DIMALTTD
 70
     2
  9
$DIMTXSTY
  7
STANDARD
  9
$DIMAUNIT
 70
     0
  9
$DIMADEC
 70
     0
  9
$DIMALTRND
 40
0.0
  9
$DIMAZIN
 70
     0
  9
$DIMDSEP
 70
    46
  9
$DIMATFIT
 70
     3
  9
$DIMFRAC
 70
     0
  9
$DIMLDRBLK
  1

  9
$DIMLUNIT
 70
     2
  9
$DIMLWD
 70
    -2
  9
$DIMLWE
 70
    -2
  9
$DIMTMOVE
 70
     0
  9
$LUNITS
 70
     2
  9
$LUPREC
 70
     2
  9
$SKETCHINC
 40
0.1
  9
$FILLETRAD
 40
0.0
  9
$AUNITS
 70
     0
  9
$AUPREC
 70
     0
  9
$MENU
  1
.
  9
$ELEVATION
 40
0.0
  9
$PELEVATION
 40
0.0
  9
$THICKNESS
 40
0.0
  9
$LIMCHECK
 70
     0
  9
$CHAMFERA
 40
0.0
  9
$CHAMFERB
 40
0.0
  9
$CHAMFERC
 40
0.0
  9
$CHAMFERD
 40
0.0
  9
$SKPOLY
 70
     0
  9
$TDCREATE
 40
2456324.623404838
  9
$TDUCREATE
 40
2456324.581738171
  9
$TDUPDATE
 40
2456324.626223252
  9
$TDUUPDATE
 40
2456324.584556586
  9
$TDINDWG
 40
0.0028187847
  9
$TDUSRTIMER
 40
0.0028187847
  9
$USRTIMER
 70
     1
  9
$ANGBASE
 50
0.0
  9
$ANGDIR
 70
     0
  9
$PDMODE
 70
     3
  9
$PDSIZE
 40
0.3125
  9
$PLINEWID
 40
0.0
  9
$SPLFRAME
 70
     0
  9
$SPLINETYPE
 70
     6
  9
$SPLINESEGS
 70
     8
  9
$HANDSEED
  5
685
  9
$SURFTAB1
 70
     6
  9
$SURFTAB2
 70
     6
  9
$SURFTYPE
 70
     6
  9
$SURFU
 70
     6
  9
$SURFV
 70
     6
  9
$UCSBASE
  2

  9
$UCSNAME
  2

  9
$UCSORG
 10
0.0
 20
0.0
 30
0.0
  9
$UCSXDIR
 10
1.0
 20
0.0
 30
0.0
  9
$UCSYDIR
 10
0.0
 20
1.0
 30
0.0
  9
$UCSORTHOREF
  2

  9
$UCSORTHOVIEW
 70
     0
  9
$UCSORGTOP
 10
0.0
 20
0.0
 30
0.0
  9
$UCSORGBOTTOM
 10
0.0
 20
0.0
 30
0.0
  9
$UCSORGLEFT
 10
0.0
 20
0.0
 30
0.0
  9
$UCSORGRIGHT
 10
0.0
 20
0.0
 30
0.0
  9
$UCSORGFRONT
 10
0.0
 20
0.0
 30
0.0
  9
$UCSORGBACK
 10
0.0
 20
0.0
 30
0.0
  9
$PUCSBASE
  2

  9
$PUCSNAME
  2

  9
$PUCSORG
 10
0.0
 20
0.0
 30
0.0
  9
$PUCSXDIR
 10
1.0
 20
0.0
 30
0.0
  9
$PUCSYDIR
 10
0.0
 20
1.0
 30
0.0
  9
$PUCSORTHOREF
  2

  9
$PUCSORTHOVIEW
 70
     0
  9
$PUCSORGTOP
 10
0.0
 20
0.0
 30
0.0
  9
$PUCSORGBOTTOM
 10
0.0
 20
0.0
 30
0.0
  9
$PUCSORGLEFT
 10
0.0
 20
0.0
 30
0.0
  9
$PUCSORGRIGHT
 10
0.0
 20
0.0
 30
0.0
  9
$PUCSORGFRONT
 10
0.0
 20
0.0
 30
0.0
  9
$PUCSORGBACK
 10
0.0
 20
0.0
 30
0.0
  9
$USERI1
 70
     0
  9
$USERI2
 70
     0
  9
$USERI3
 70
     0
  9
$USERI4
 70
     0
  9
$USERI5
 70
     0
  9
$USERR1
 40
0.0
  9
$USERR2
 40
0.0
  9
$USERR3
 40
0.0
  9
$USERR4
 40
0.0
  9
$USERR5
 40
0.0
  9
$WORLDVIEW
 70
     1
  9
$SHADEDGE
 70
     3
  9
$SHADEDIF
 70
    70
  9
$TILEMODE
 70
     1
  9
$MAXACTVP
 70
    64
  9
$PINSBASE
 10
0.0
 20
0.0
 30
0.0
  9
$PLIMCHECK
 70
     0
  9
$PEXTMIN
 10
1.000000000000000E+20
 20
1.000000000000000E+20
 30
1.000000000000000E+20
  9
$PEXTMAX
 10
-1.000000000000000E+20
 20
-1.000000000000000E+20
 30
-1.000000000000000E+20
  9
$PLIMMIN
 10
0.0
 20
0.0
  9
$PLIMMAX
 10
12.0
 20
9.0
  9
$UNITMODE
 70
     0
  9
$VISRETAIN
 70
     1
  9
$PLINEGEN
 70
     0
  9
$PSLTSCALE
 70
     1
  9
$TREEDEPTH
 70
  3020
  9
$CMLSTYLE
  2
Standard
  9
$CMLJUST
 70
     0
  9
$CMLSCALE
 40
1.0
  9
$PROXYGRAPHICS
 70
     1
  9
$MEASUREMENT
 70
     1
  9
$CELWEIGHT
370
    -1
  9
$ENDCAPS
280
     0
  9
$JOINSTYLE
280
     0
  9
$LWDISPLAY
290
     0
  9
$INSUNITS
 70
     4
  9
$HYPERLINKBASE
  1

  9
$STYLESHEET
  1

  9
$XEDIT
290
     1
  9
$CEPSNTYPE
380
     0
  9
$PSTYLEMODE
290
     1
  9
$FINGERPRINTGUID
  2
{3C872299-31FE-4C54-83DD-9941D36A47D2}
  9
$VERSIONGUID
  2
{01E9BABD-E7B6-4A3E-8F5C-30343ADBED4C}
  9
$EXTNAMES
290
     1
  9
$PSVPSCALE
 40
0.0
  9
$OLESTARTUP
290
     0
  0
ENDSEC
  0
SECTION
  2
CLASSES
  0
CLASS
  1
ACDBDICTIONARYWDFLT
  2
AcDbDictionaryWithDefault
  3
ObjectDBX Classes
 90
        0
280
     0
281
     0
  0
CLASS
  1
ACDBPLACEHOLDER
  2
AcDbPlaceHolder
  3
ObjectDBX Classes
 90
        0
280
     0
281
     0
  0
CLASS
  1
LAYOUT
  2
AcDbLayout
  3
ObjectDBX Classes
 90
        0
280
     0
281
     0
  0
CLASS
  1
MATERIAL
  2
AcDbMaterial
  3
ObjectDBX Classes
 90
     1153
280
     0
281
     0
  0
CLASS
  1
VISUALSTYLE
  2
AcDbVisualStyle
  3
ObjectDBX Classes
 90
     4095
280
     0
281
     0
  0
CLASS
  1
TABLESTYLE
  2
AcDbTableStyle
  3
ObjectDBX Classes
 90
     4095
280
     0
281
     0
  0
CLASS
  1
SCALE
  2
AcDbScale
  3
ObjectDBX Classes
 90
     1153
280
     0
281
     0
  0
CLASS
  1
MLEADERSTYLE
  2
AcDbMLeaderStyle
  3
ACDB_MLEADERSTYLE_CLASS
 90
     4095
280
     0
281
     0
  0
CLASS
  1
AMGSETTINGSOBJ
  2
AmgSettingsObj
  3
"AcadM|Product Description: AutoCAD Mechanical|Company: Autodesk, Inc."
 90
     1024
280
     0
281
     0
  0
CLASS
  1
ACME_DOCUMENT
  2
AcMeDbDoc
  3
AcMeServices
 90
     1024
280
     0
281
     0
  0
CLASS
  1
ACMESCOPE
  2
AcMeScope
  3
AcMeServices
 90
     1024
280
     0
281
     0
  0
CLASS
  1
ACMECOMMANDHISTORY
  2
AcMeCommandHistory
  3
AcMeServices
 90
     1024
280
     0
281
     0
  0
CLASS
  1
ACIMSYSVARMAN
  2
AcImSysVarManager
  3
AcMeServices
 90
     1024
280
     0
281
     0
  0
CLASS
  1
ACIMINTSYSVAR
  2
AcImIntSysVar
  3
AcMeServices
 90
     1024
280
     0
281
     0
  0
CLASS
  1
ACMEDRAWINGMAN
  2
AcMeDrawingMan
  3
AcMeServices
 90
     1024
280
     0
281
     0
  0
CLASS
  1
ACMEVIEW
  2
AcMeView
  3
AcMeServices
 90
     1024
280
     0
281
     0
  0
CLASS
  1
ACDBENTITYCACHE
  2
AcMeEntityCache
  3
AcMeServices
 90
     1024
280
     0
281
     0
  0
CLASS
  1
ACMESTATEMGR
  2
AcMeStateMgr
  3
AcMeServices
 90
     1024
280
     0
281
     0
  0
CLASS
  1
ACGREFMASTER
  2
AcGrefMaster
  3
AcAttribServices
 90
     1024
280
     0
281
     0
  0
CLASS
  1
AM_DRAWING_MGR
  2
AcDmDwgMgr
  3
AcMechDwgViewMgmt
 90
     1024
280
     0
281
     0
  0
CLASS
  1
AM_DWG_DOCUMENT
  2
AcDmDwgDocument
  3
AcMechDwgViewMgmt
 90
     1024
280
     0
281
     0
  0
CLASS
  1
AM_DWG_SHEET
  2
AcDmSheet
  3
AcMechDwgViewMgmt
 90
     1024
280
     0
281
     0
  0
CLASS
  1
AM_VIEWDIMPARMAP
  2
AcDmViewDimParMap
  3
AcMechDwgViewMgmt
 90
     1024
280
     0
281
     0
  0
CLASS
  1
AMDTINTERNALREACTOR
  2
AmdtInternalReactor
  3
AcMeServices
 90
     1024
280
     0
281
     0
  0
CLASS
  1
ACIMREALSYSVAR
  2
AcImRealSysVar
  3
AcMeServices
 90
     1024
280
     0
281
     0
  0
CLASS
  1
AM_DWGMGR_NAME
  2
AcDmDwgMgrName
  3
AcMechDwgViewMgmt
 90
     1024
280
     0
281
     0
  0
CLASS
  1
ACME_DATABASE
  2
AcMeDbDatabase
  3
AcMeServices
 90
     1024
280
     0
281
     0
  0
CLASS
  1
ACRFINSADJUSTERMGR
  2
AcRfInsAdjusterMgr
  3
AcMeServices
 90
     1024
280
     0
281
     0
  0
CLASS
  1
ACGREFACADMASTER
  2
AcGrefacadMaster
  3
AcGrefServices
 90
     1024
280
     0
281
     0
  0
CLASS
  1
AMDTMENUSTATEMGR
  2
AmdtMenuStateMgr
  3
McadcomServices
 90
     1024
280
     0
281
     0
  0
CLASS
  1
AMDTMCOMMENUSTATE
  2
AmdtMcomMenuState
  3
McadcomServices
 90
     1024
280
     0
281
     0
  0
CLASS
  1
AMIMASTER
  2
AmiMaster
  3
AmiServices
 90
     1024
280
     0
281
     0
  0
CLASS
  1
MAPIAMMOUDLE
  2
MApiAmModule
  3
MApiAmServices
 90
     1024
280
     0
281
     0
  0
CLASS
  1
ACIMSTRSYSVAR
  2
AcImStrSysVar
  3
AcMeServices
 90
     1024
280
     0
281
     0
  0
CLASS
  1
AMDTADMENUSTATE
  2
AmdtAdMenuState
  3
DesignerServices
 90
     1024
280
     0
281
     0
  0
CLASS
  1
ADAPPL
  2
AcAdAppl
  3
DesignerServices
 90
     1024
280
     0
281
     0
  0
CLASS
  1
DEPMGR
  2
AcAdDepMgr
  3
DesignerServices
 90
     1024
280
     0
281
     0
  0
CLASS
  1
PARAMMGR
  2
AcAdParamMgr
  3
DesignerServices
 90
     1024
280
     0
281
     0
  0
CLASS
  1
PARAMSCOPE
  2
AcAdParamScope
  3
DesignerServices
 90
     1024
280
     0
281
     0
  0
CLASS
  1
NAMEDAPPL
  2
AcAdNamedAppl
  3
DesignerServices
 90
     1024
280
     0
281
     0
  0
CLASS
  1
AMDTDMMENUSTATE
  2
AmdtDmMenuState
  3
AcMechDwgViewMgmt
 90
     1024
280
     0
281
     0
  0
CLASS
  1
AMDTAMMENUSTATE
  2
AmdtAmMenuState
  3
DesignerAssemblies
 90
     1024
280
     0
281
     0
  0
CLASS
  1
ACAMPROJECT
  2
AcAmProject
  3
DesignerAssemblies
 90
     1024
280
     0
281
     0
  0
CLASS
  1
ACAMGRCOMPDEF
  2
AcAmGrCompDef
  3
DesignerAssemblies
 90
     1024
280
     0
281
     0
  0
CLASS
  1
ACAMCOMPDEF
  2
AcAmCompDef
  3
DesignerAssemblies
 90
     1024
280
     0
281
     0
  0
CLASS
  1
ACAMCOMPDEFMGR
  2
AcAmCompDefMgr
  3
DesignerAssemblies
 90
     1024
280
     0
281
     0
  0
CLASS
  1
AMCONTEXTMGR
  2
AcAmContextMgr
  3
DesignerAssemblies
 90
     1024
280
     0
281
     0
  0
CLASS
  1
ACAMCONTEXTMODELER
  2
AcAmContextModeler
  3
DesignerAssemblies
 90
     1024
280
     0
281
     0
  0
CLASS
  1
ACMDATADICTIONARY
  2
AcmDataDictionary
  3
"AcmSymBB|Product Description: AutoCAD Mechanical|Company: Autodesk, Inc."
 90
     1024
280
     0
281
     0
  0
CLASS
  1
CATALOGSTATE
  2
AcAmCatalogState
  3
DesignerAssemblies
 90
     1024
280
     0
281
     0
  0
CLASS
  1
ACAMGRCOMPDEFSET
  2
AcAmGrCompDefSet
  3
DesignerAssemblies
 90
     1024
280
     0
281
     0
  0
CLASS
  1
AMDTBROWSERDBTAB
  2
AmdtBrowserDbTab
  3
McadcomServices
 90
     1024
280
     0
281
     0
  0
CLASS
  1
CBROWSERAPPOBJECT
  2
CBrowserAppObject
  3
McadcomServices
 90
     1024
280
     0
281
     0
  0
CLASS
  1
DM_PLACEHOLDER
  2
AcDmSelsetPlaceholder
  3
AcMechDwgViewMgmt
 90
     1024
280
     0
281
     0
  0
CLASS
  1
ACMSTANDARDDIN
  2
AcmStandardDIN
  3
"Amdt_StdImp|Product Description: AutoCAD Mechanical|Company: Autodesk, Inc."
 90
     1024
280
     0
281
     0
  0
CLASS
  1
AMDTEDGESTANDARDDIN13715
  2
AmdtEdgeStdDIN13715
  3
"Amdt_StdImp|Product Description: AutoCAD Mechanical|Company: Autodesk, Inc."
 90
     1024
280
     0
281
     0
  0
CLASS
  1
ACMSURFSTANDARDDIN2002
  2
AcmSurfTextStdDIN2002
  3
"Amdt_StdImp|Product Description: AutoCAD Mechanical|Company: Autodesk, Inc."
 90
     1024
280
     0
281
     0
  0
CLASS
  1
ACMFCFSTANDARDDIN
  2
AcmFCFStdDIN
  3
"Amdt_StdImp|Product Description: AutoCAD Mechanical|Company: Autodesk, Inc."
 90
     1024
280
     0
281
     0
  0
CLASS
  1
ACMWELDSTANDARDDIN
  2
AcmWeldingStdDIN
  3
"Amdt_StdImp|Product Description: AutoCAD Mechanical|Company: Autodesk, Inc."
 90
     1024
280
     0
281
     0
  0
CLASS
  1
ACMIDSTANDARDDIN
  2
AcmIdStdDIN
  3
"Amdt_StdImp|Product Description: AutoCAD Mechanical|Company: Autodesk, Inc."
 90
     1024
280
     0
281
     0
  0
CLASS
  1
ACMDATUMSTANDARDDIN
  2
AcmDatumStdDIN
  3
"Amdt_StdImp|Product Description: AutoCAD Mechanical|Company: Autodesk, Inc."
 90
     1024
280
     0
281
     0
  0
CLASS
  1
ACMBOMSTANDARDDIN
  2
AcmBOMStdDIN
  3
"Amdt_StdImp|Product Description: AutoCAD Mechanical|Company: Autodesk, Inc."
 90
     1024
280
     0
281
     0
  0
CLASS
  1
ACMDETAILSTANDARDDIN
  2
AmdtDetailSymStdDIN
  3
"Amdt_StdImp|Product Description: AutoCAD Mechanical|Company: Autodesk, Inc."
 90
     1024
280
     0
281
     0
  0
CLASS
  1
ACMSECTIONSTANDARDDIN
  2
AmdtSectionSymStdDIN
  3
"Amdt_StdImp|Product Description: AutoCAD Mechanical|Company: Autodesk, Inc."
 90
     1024
280
     0
281
     0
  0
CLASS
  1
ACMCENTERLINESTANDARDDIN
  2
AmdtCenterLineStdDIN
  3
"Amdt_StdImp|Product Description: AutoCAD Mechanical|Company: Autodesk, Inc."
 90
     1024
280
     0
281
     0
  0
CLASS
  1
ACMTHREADLINESTANDARDDIN
  2
AmdtThreadLineStdDIN
  3
"Amdt_StdImp|Product Description: AutoCAD Mechanical|Company: Autodesk, Inc."
 90
     1024
280
     0
281
     0
  0
CLASS
  1
ACMNOTESTANDARDDIN
  2
AmdtNoteStdDIN
  3
"Amdt_StdImp|Product Description: AutoCAD Mechanical|Company: Autodesk, Inc."
 90
     1024
280
     0
281
     0
  0
CLASS
  1
ACMTAPERSTANDARDDIN
  2
AcmTaperStdDIN
  3
"Amdt_StdImp|Product Description: AutoCAD Mechanical|Company: Autodesk, Inc."
 90
     1024
280
     0
281
     0
  0
CLASS
  1
ACMANOOTATIONVIEWSTANDARDDIN
  2
AmdtAnViewStdDIN
  3
"Amdt_StdImp|Product Description: AutoCAD Mechanical|Company: Autodesk, Inc."
 90
     1024
280
     0
281
     0
  0
CLASS
  1
ACAMGLAYSTD
  2
AcAmgLayStd
  3
"AmgLay|Product Description: AutoCAD Mechanical|Company: Autodesk, Inc."
 90
     1024
280
     0
281
     0
  0
CLASS
  1
ACAMGDIMSTD
  2
AcAmgDimStd
  3
"AmgDim|Product Description: AutoCAD Mechanical|Company: Autodesk, Inc."
 90
     1024
280
     0
281
     0
  0
CLASS
  1
AMGOBJPROPCFG
  2
AmgObjPropCfg
  3
"AmgLay|Product Description: AutoCAD Mechanical|Company: Autodesk, Inc."
 90
     1025
280
     0
281
     0
  0
CLASS
  1
ACAMGHOLECHARTSTDDIN
  2
AcAmgHoleChartStdDIN
  3
AmgDim|Product Description: AutoCAD Mechanical|Company: Autodesk, Inc.
 90
     1024
280
     0
281
     0
  0
CLASS
  1
ACAMGTITLESTD
  2
AcAmgTitleStd
  3
"AmgTitle|Product Description: AutoCAD Mechanical|Company: Autodesk, Inc."
 90
     4095
280
     0
281
     0
  0
CLASS
  1
AMDTNOTETEMPLATEDB
  2
AmdtNoteTemplateDB
  3
AcmSymBB|Product Description: AutoCAD Mechanical|Company: Autodesk, Inc.
 90
     1024
280
     0
281
     0
  0
CLASS
  1
ACAMGFILTERDAT
  2
AcAmgFilterDat
  3
"AcadM|Product Description: AutoCAD Mechanical|Company: Autodesk, Inc."
 90
     1024
280
     0
281
     0
  0
CLASS
  1
DICTIONARYVAR
  2
AcDbDictionaryVar
  3
ObjectDBX Classes
 90
        0
280
     0
281
     0
  0
CLASS
  1
CELLSTYLEMAP
  2
AcDbCellStyleMap
  3
ObjectDBX Classes
 90
     1152
280
     0
281
     0
  0
ENDSEC
  0
SECTION
  2
TABLES
  0
TABLE
  2
VPORT
  5
8
330
0
100
AcDbSymbolTable
 70
     1
  0
VPORT
  5
1F4
330
8
100
AcDbSymbolTableRecord
100
AcDbViewportTableRecord
  2
*ACTIVE
 70
     0
 10
0.0
 20
0.0
 11
1.0
 21
1.0
 12
206.7315683568963
 22
162.0389335075614
 13
0.0
 23
0.0
 14
1.0
 24
1.0
 15
0.0
 25
0.0
 16
0.0
 26
0.0
 36
1.0
 17
0.0
 27
0.0
 37
0.0
 40
261.2597475184252
 41
1.850235849056603
 42
50.0
 43
0.0
 44
0.0
 50
0.0
 51
0.0
 71
     0
 72
   100
 73
     1
 74
     1
 75
     0
 76
     0
 77
     0
 78
     0
281
     0
 65
     0
110
0.0
120
0.0
130
0.0
111
1.0
121
0.0
131
0.0
112
0.0
122
1.0
132
0.0
 79
     0
146
0.0
  0
ENDTAB
  0
TABLE
  2
LTYPE
  5
5
330
0
100
AcDbSymbolTable
 70
    23
  0
LTYPE
  5
14
330
5
100
AcDbSymbolTableRecord
100
AcDbLinetypeTableRecord
  2
BYBLOCK
 70
     0
  3

 72
    65
 73
     0
 40
0.0
  0
LTYPE
  5
15
330
5
100
AcDbSymbolTableRecord
100
AcDbLinetypeTableRecord
  2
BYLAYER
 70
     0
  3

 72
    65
 73
     0
 40
0.0
  0
LTYPE
  5
16
330
5
100
AcDbSymbolTableRecord
100
AcDbLinetypeTableRecord
  2
CONTINUOUS
 70
     0
  3
Solid line
 72
    65
 73
     0
 40
0.0
  0
LTYPE
  5
1F5
330
5
100
AcDbSymbolTableRecord
100
AcDbLinetypeTableRecord
  2
CENTER
 70
     0
  3
____ _ ____ _ ____ _ ____ _ ____ _ ____ _ ____
 72
    65
 73
     4
 40
0.6
 49
0.375
 74
     0
 49
-0.075
 74
     0
 49
0.075
 74
     0
 49
-0.075
 74
     0
  0
LTYPE
  5
1F6
330
5
100
AcDbSymbolTableRecord
100
AcDbLinetypeTableRecord
  2
HIDDEN
 70
     0
  3
- - - - - - - - - - - - - - - - - - - -
 72
    65
 73
     2
 40
0.2
 49
0.1
 74
     0
 49
-0.1
 74
     0
  0
LTYPE
  5
1F7
330
5
100
AcDbSymbolTableRecord
100
AcDbLinetypeTableRecord
  2
PHANTOM
 70
     0
  3
_____ _ _ _____ _ _ _____ _ _ _____
 72
    65
 73
     6
 40
0.8
 49
0.45
 74
     0
 49
-0.05
 74
     0
 49
0.1
 74
     0
 49
-0.05
 74
     0
 49
0.1
 74
     0
 49
-0.05
 74
     0
  0
LTYPE
  5
1F8
330
5
100
AcDbSymbolTableRecord
100
AcDbLinetypeTableRecord
  2
DOT
 70
     0
  3
. . . . . . . . . . . . . . . . . . . .
 72
    65
 73
     2
 40
0.2
 49
0.1
 74
     0
 49
-0.1
 74
     0
  0
LTYPE
  5
1F9
330
5
100
AcDbSymbolTableRecord
100
AcDbLinetypeTableRecord
  2
DASHED
 70
     0
  3
- - - - - - - - - - - - - - - - - - - -
 72
    65
 73
     2
 40
0.2
 49
0.1
 74
     0
 49
-0.1
 74
     0
  0
LTYPE
  5
4BF
330
5
100
AcDbSymbolTableRecord
100
AcDbLinetypeTableRecord
  2
PHANTOM2
 70
     0
  3
Phantom (.5x) ___ _ _ ___ _ _ ___ _ _ ___ _ _
 72
    65
 73
     6
 40
31.75
 49
15.875
 74
     0
 49
-3.174999999999999
 74
     0
 49
3.174999999999999
 74
     0
 49
-3.174999999999999
 74
     0
 49
3.174999999999999
 74
     0
 49
-3.174999999999999
 74
     0
  0
LTYPE
  5
505
330
5
100
AcDbSymbolTableRecord
100
AcDbLinetypeTableRecord
  2
AM_ISO02W050
 70
     0
  3
__ __ __ __ __ __ __ __ __ __ __ __ __ __ __
 72
    65
 73
     2
 40
7.5
 49
6.0
 74
     0
 49
-1.5
 74
     0
  0
LTYPE
  5
506
330
5
100
AcDbSymbolTableRecord
100
AcDbLinetypeTableRecord
  2
AM_ISO08W050
 70
     0
  3
____ . ____ . ____ . ____ . ____ . ____ . ____
 72
    65
 73
     4
 40
18.0
 49
12.0
 74
     0
 49
-1.5
 74
     0
 49
3.0
 74
     0
 49
-1.5
 74
     0
  0
LTYPE
  5
507
330
5
100
AcDbSymbolTableRecord
100
AcDbLinetypeTableRecord
  2
AM_ISO09W050
 70
     0
  3
_____ . . _____ . . _____ . . ____ .. ____
 72
    65
 73
     6
 40
22.5
 49
12.0
 74
     0
 49
-1.5
 74
     0
 49
3.0
 74
     0
 49
-1.5
 74
     0
 49
3.0
 74
     0
 49
-1.5
 74
     0
  0
LTYPE
  5
508
330
5
100
AcDbSymbolTableRecord
100
AcDbLinetypeTableRecord
  2
Amconstr
 70
     0
  3
_______________________
 72
    65
 73
     2
 40
9999.0
 49
9999.0
 74
     0
 49
0.0
 74
     0
  0
LTYPE
  5
509
330
5
100
AcDbSymbolTableRecord
100
AcDbLinetypeTableRecord
  2
AM_ISO08W050x2
 70
     0
  3
__ . __ . __ . __ . __ . __
 72
    65
 73
     4
 40
9.0
 49
6.0
 74
     0
 49
-0.75
 74
     0
 49
1.5
 74
     0
 49
-0.75
 74
     0
  0
LTYPE
  5
50A
330
5
100
AcDbSymbolTableRecord
100
AcDbLinetypeTableRecord
  2
AM_ISO02W050x2
 70
     0
  3
 _ _ _ _ _ _ _ _ _ _ _ _
 72
    65
 73
     2
 40
3.75
 49
3.0
 74
     0
 49
-0.75
 74
     0
  0
LTYPE
  5
50D
330
5
100
AcDbSymbolTableRecord
100
AcDbLinetypeTableRecord
  2
Amzigzag
 70
     0
  3
/\/-/\/-/\/-/\/-/\/-/\/
 72
    65
 73
     2
 40
11.0001
 49
0.0001
 74
     4
 75
   136
340
50C
 46
0.04
 50
0.0
 44
0.0
 45
0.0
 49
-11.0
 74
     0
  0
LTYPE
  5
50E
330
5
100
AcDbSymbolTableRecord
100
AcDbLinetypeTableRecord
  2
AM_DIN_F_W050
 70
     0
  3
__ __ __ __ __ __ __ __ __ __ __ __ __ __ __
 72
    65
 73
     2
 40
6.25
 49
4.75
 74
     0
 49
-1.5
 74
     0
  0
LTYPE
  5
50F
330
5
100
AcDbSymbolTableRecord
100
AcDbLinetypeTableRecord
  2
AM_DIN_G_W050
 70
     0
  3
____ . ____ . ____ . ____ . ____ . ____ . ____
 72
    65
 73
     4
 40
13.75
 49
9.75
 74
     0
 49
-1.5
 74
     0
 49
1.0
 74
     0
 49
-1.5
 74
     0
  0
LTYPE
  5
510
330
5
100
AcDbSymbolTableRecord
100
AcDbLinetypeTableRecord
  2
AM_DIN_K_W050
 70
     0
  3
_____ . . _____ . . _____ . . ____ .. ____
 72
    65
 73
     6
 40
16.25
 49
9.75
 74
     0
 49
-1.5
 74
     0
 49
1.0
 74
     0
 49
-1.5
 74
     0
 49
1.0
 74
     0
 49
-1.5
 74
     0
  0
LTYPE
  5
511
330
5
100
AcDbSymbolTableRecord
100
AcDbLinetypeTableRecord
  2
AM_DIN_G_W050x2
 70
     0
  3
__ . __ . __ . __ . __ . __
 72
    65
 73
     4
 40
6.875
 49
4.75
 74
     0
 49
-0.875
 74
     0
 49
0.375
 74
     0
 49
-0.875
 74
     0
  0
LTYPE
  5
512
330
5
100
AcDbSymbolTableRecord
100
AcDbLinetypeTableRecord
  2
AM_DIN_F_W050x2
 70
     0
  3
 _ _ _ _ _ _ _ _ _ _ _ _
 72
    65
 73
     2
 40
3.125
 49
2.25
 74
     0
 49
-0.875
 74
     0
  0
LTYPE
  5
521
330
5
100
AcDbSymbolTableRecord
100
AcDbLinetypeTableRecord
  2
ACDINWELD
 70
     0
  3
_ _ _ _ _
 72
    65
 73
     2
 40
2.0
 49
2.0
 74
     0
 49
-1.0
 74
     0
  0
LTYPE
  5
522
330
5
100
AcDbSymbolTableRecord
100
AcDbLinetypeTableRecord
  2
ACDINTGB
 70
     0
  3
__ . . __ . .
 72
    65
 73
     6
 40
9.0
 49
4.0
 74
     0
 49
-1.0
 74
     0
 49
1.0
 74
     0
 49
-1.0
 74
     0
 49
1.0
 74
     0
 49
-1.0
 74
     0
  0
LTYPE
  5
523
330
5
100
AcDbSymbolTableRecord
100
AcDbLinetypeTableRecord
  2
ACDINTGL
 70
     0
  3
_ _ _ _ _
 72
    65
 73
     2
 40
3.0
 49
2.0
 74
     0
 49
-1.0
 74
     0
  0
ENDTAB
  0
TABLE
  2
LAYER
  5
2
330
0
100
AcDbSymbolTable
 70
    31
  0
LAYER
  5
10
330
2
100
AcDbSymbolTableRecord
100
AcDbLayerTableRecord
  2
0
 70
     0
 62
     7
  6
CONTINUOUS
370
    -3
390
F
  0
LAYER
  5
1FA
330
2
100
AcDbSymbolTableRecord
100
AcDbLayerTableRecord
  2
DEFAULT_1
 70
     0
 62
     7
  6
CENTER
370
    -3
390
F
  0
LAYER
  5
1FB
330
2
100
AcDbSymbolTableRecord
100
AcDbLayerTableRecord
  2
DEFAULT_2
 70
     0
 62
     8
  6
HIDDEN
370
    -3
390
F
  0
LAYER
  5
1FC
330
2
100
AcDbSymbolTableRecord
100
AcDbLayerTableRecord
  2
DEFAULT_3
 70
     0
 62
     7
  6
PHANTOM
370
    -3
390
F
  0
LAYER
  5
1FD
330
2
100
AcDbSymbolTableRecord
100
AcDbLayerTableRecord
  2
01___PRT_ALL_DTM_PLN
 70
     0
 62
     7
  6
CONTINUOUS
370
    -3
390
F
  0
LAYER
  5
1FE
330
2
100
AcDbSymbolTableRecord
100
AcDbLayerTableRecord
  2
01___PRT_DEF_DTM_PLN
 70
     0
 62
     7
  6
CONTINUOUS
370
    -3
390
F
  0
LAYER
  5
1FF
330
2
100
AcDbSymbolTableRecord
100
AcDbLayerTableRecord
  2
02___PRT_ALL_AXES
 70
     0
 62
     7
  6
CONTINUOUS
370
    -3
390
F
  0
LAYER
  5
200
330
2
100
AcDbSymbolTableRecord
100
AcDbLayerTableRecord
  2
03___PRT_ALL_CURVES
 70
     0
 62
     7
  6
CONTINUOUS
370
    -3
390
F
  0
LAYER
  5
201
330
2
100
AcDbSymbolTableRecord
100
AcDbLayerTableRecord
  2
04___PRT_ALL_DTM_PNT
 70
     0
 62
     7
  6
CONTINUOUS
370
    -3
390
F
  0
LAYER
  5
202
330
2
100
AcDbSymbolTableRecord
100
AcDbLayerTableRecord
  2
05___PRT_ALL_DTM_CSYS
 70
     0
 62
     7
  6
CONTINUOUS
370
    -3
390
F
  0
LAYER
  5
203
330
2
100
AcDbSymbolTableRecord
100
AcDbLayerTableRecord
  2
05___PRT_DEF_DTM_CSYS
 70
     0
 62
     7
  6
CONTINUOUS
370
    -3
390
F
  0
LAYER
  5
204
330
2
100
AcDbSymbolTableRecord
100
AcDbLayerTableRecord
  2
06___PRT_ALL_SURFS
 70
     0
 62
     7
  6
CONTINUOUS
370
    -3
390
F
  0
LAYER
  5
205
330
2
100
AcDbSymbolTableRecord
100
AcDbLayerTableRecord
  2
3D_TEIL_NOTIZ
 70
     0
 62
     7
  6
CONTINUOUS
370
    -3
390
F
  0
LAYER
  5
206
330
2
100
AcDbSymbolTableRecord
100
AcDbLayerTableRecord
  2
ACHSEN
 70
     0
 62
     7
  6
CONTINUOUS
370
    -3
390
F
  0
LAYER
  5
207
330
2
100
AcDbSymbolTableRecord
100
AcDbLayerTableRecord
  2
AUSFORMSCHRAEGEN
 70
     0
 62
     7
  6
CONTINUOUS
370
    -3
390
F
  0
LAYER
  5
208
330
2
100
AcDbSymbolTableRecord
100
AcDbLayerTableRecord
  2
BEZUG
 70
     0
 62
     7
  6
CONTINUOUS
370
    -3
390
F
  0
LAYER
  5
209
330
2
100
AcDbSymbolTableRecord
100
AcDbLayerTableRecord
  2
BEZUGSACHSEN
 70
     0
 62
     7
  6
CONTINUOUS
370
    -3
390
F
  0
LAYER
  5
20A
330
2
100
AcDbSymbolTableRecord
100
AcDbLayerTableRecord
  2
BEZUGSEBENEN
 70
     0
 62
     7
  6
CONTINUOUS
370
    -3
390
F
  0
LAYER
  5
20B
330
2
100
AcDbSymbolTableRecord
100
AcDbLayerTableRecord
  2
BG_STARTBEZUEGE
 70
     0
 62
     7
  6
CONTINUOUS
370
    -3
390
F
  0
LAYER
  5
20C
330
2
100
AcDbSymbolTableRecord
100
AcDbLayerTableRecord
  2
BOHRUNGEN
 70
     0
 62
     7
  6
CONTINUOUS
370
    -3
390
F
  0
LAYER
  5
20D
330
2
100
AcDbSymbolTableRecord
100
AcDbLayerTableRecord
  2
DATUMS
 70
     0
 62
     7
  6
CONTINUOUS
370
    -3
390
F
  0
LAYER
  5
20E
330
2
100
AcDbSymbolTableRecord
100
AcDbLayerTableRecord
  2
DETAILS
 70
     0
 62
     7
  6
CONTINUOUS
370
    -3
390
F
  0
LAYER
  5
20F
330
2
100
AcDbSymbolTableRecord
100
AcDbLayerTableRecord
  2
FASEN
 70
     0
 62
     7
  6
CONTINUOUS
370
    -3
390
F
  0
LAYER
  5
210
330
2
100
AcDbSymbolTableRecord
100
AcDbLayerTableRecord
  2
GEWINDE
 70
     0
 62
     7
  6
CONTINUOUS
370
    -3
390
F
  0
LAYER
  5
211
330
2
100
AcDbSymbolTableRecord
100
AcDbLayerTableRecord
  2
HILFEN
 70
     0
 62
     7
  6
CONTINUOUS
370
    -3
390
F
  0
LAYER
  5
212
330
2
100
AcDbSymbolTableRecord
100
AcDbLayerTableRecord
  2
PLATZIERUNG
 70
     0
 62
     7
  6
CONTINUOUS
370
    -3
390
F
  0
LAYER
  5
213
330
2
100
AcDbSymbolTableRecord
100
AcDbLayerTableRecord
  2
PLAZIERUNG
 70
     0
 62
     7
  6
CONTINUOUS
370
    -3
390
F
  0
LAYER
  5
214
330
2
100
AcDbSymbolTableRecord
100
AcDbLayerTableRecord
  2
RUNDUNGEN
 70
     0
 62
     7
  6
CONTINUOUS
370
    -3
390
F
  0
LAYER
  5
215
330
2
100
AcDbSymbolTableRecord
100
AcDbLayerTableRecord
  2
TEIL_STARTBEZUEGE
 70
     0
 62
     7
  6
CONTINUOUS
370
    -3
390
F
  0
LAYER
  5
216
330
2
100
AcDbSymbolTableRecord
100
AcDbLayerTableRecord
  2
ZEICHNUNGSBEMASSUNGEN
 70
     0
 62
     7
  6
CONTINUOUS
370
    -3
390
F
  0
LAYER
  5
531
330
2
100
AcDbSymbolTableRecord
100
AcDbLayerTableRecord
  2
Defpoints
 70
     0
 62
     7
  6
CONTINUOUS
290
     0
370
    -3
390
F
  0
ENDTAB
  0
TABLE
  2
STYLE
  5
3
330
0
100
AcDbSymbolTable
 70
     6
  0
STYLE
  5
11
330
3
100
AcDbSymbolTableRecord
100
AcDbTextStyleTableRecord
  2
STANDARD
 70
     0
 40
0.0
 41
0.7
 50
0.0
 71
     0
 42
0.2
  3
txt
  4

  0
STYLE
  5
217
330
3
100
AcDbSymbolTableRecord
100
AcDbTextStyleTableRecord
  2
TEXTSTYLE_1
 70
     0
 40
0.0
 41
0.8
 50
0.0
 71
     0
 42
0.2
  3
gdt
  4

  0
STYLE
  5
218
330
3
100
AcDbSymbolTableRecord
100
AcDbTextStyleTableRecord
  2
TEXTSTYLE_2
 70
     0
 40
0.0
 41
0.7
 50
0.0
 71
     0
 42
0.2
  3
gdt
  4

  0
STYLE
  5
50C
330
3
100
AcDbSymbolTableRecord
100
AcDbTextStyleTableRecord
  2

 70
     1
 40
0.0
 41
1.0
 50
0.0
 71
     0
 42
0.2
  3
genltshp.shx
  4

  0
STYLE
  5
51F
330
3
100
AcDbSymbolTableRecord
100
AcDbTextStyleTableRecord
  2
ACDINTS
 70
     0
 40
1.0
 41
1.0
 50
0.0
 71
     0
 42
0.2
  3
isocp.shx
  4

  0
STYLE
  5
520
330
3
100
AcDbSymbolTableRecord
100
AcDbTextStyleTableRecord
  2
ACDINGDT
 70
     0
 40
0.0
 41
1.0
 50
0.0
 71
     0
 42
0.2
  3
amgdt.shx
  4

  0
ENDTAB
  0
TABLE
  2
VIEW
  5
6
330
0
100
AcDbSymbolTable
 70
     0
  0
ENDTAB
  0
TABLE
  2
UCS
  5
7
330
0
100
AcDbSymbolTable
 70
     0
  0
ENDTAB
  0
TABLE
  2
APPID
  5
9
330
0
100
AcDbSymbolTable
 70
    22
  0
APPID
  5
219
330
9
100
AcDbSymbolTableRecord
100
AcDbRegAppTableRecord
  2
ACAD
 70
     0
  0
APPID
  5
494
330
9
100
AcDbSymbolTableRecord
100
AcDbRegAppTableRecord
  2
MCAD_NO_VIS
 70
     0
  0
APPID
  5
495
330
9
100
AcDbSymbolTableRecord
100
AcDbRegAppTableRecord
  2
ACAD_TEMP_GRAPHIC
 70
     0
  0
APPID
  5
4C1
330
9
100
AcDbSymbolTableRecord
100
AcDbRegAppTableRecord
  2
AD_DRAW
 70
     0
  0
APPID
  5
4C4
330
9
100
AcDbSymbolTableRecord
100
AcDbRegAppTableRecord
  2
ACATTRIBSERVICES
 70
     0
  0
APPID
  5
4E4
330
9
100
AcDbSymbolTableRecord
100
AcDbRegAppTableRecord
  2
DESIGNERASSEMBLIES
 70
     0
  0
APPID
  5
4EA
330
9
100
AcDbSymbolTableRecord
100
AcDbRegAppTableRecord
  2
ACADM_DIM_EDIT
 70
     0
  0
APPID
  5
4EB
330
9
100
AcDbSymbolTableRecord
100
AcDbRegAppTableRecord
  2
AMDT_DM_ADJ
 70
     0
  0
APPID
  5
502
330
9
100
AcDbSymbolTableRecord
100
AcDbRegAppTableRecord
  2
ACAD_DSTYLE_DIMJAG
 70
     0
  0
APPID
  5
503
330
9
100
AcDbSymbolTableRecord
100
AcDbRegAppTableRecord
  2
ACAD_DSTYLE_DIMBREAK
 70
     0
  0
APPID
  5
532
330
9
100
AcDbSymbolTableRecord
100
AcDbRegAppTableRecord
  2
AcAecLayerStandard
 70
     0
  0
APPID
  5
533
330
9
100
AcDbSymbolTableRecord
100
AcDbRegAppTableRecord
  2
GENIUS_GENODEF_13
 70
     0
  0
APPID
  5
534
330
9
100
AcDbSymbolTableRecord
100
AcDbRegAppTableRecord
  2
GENIUS_GENOBJ-N-HTC_13
 70
     0
  0
APPID
  5
535
330
9
100
AcDbSymbolTableRecord
100
AcDbRegAppTableRecord
  2
GENIUS_GENHATCH_13
 70
     0
  0
APPID
  5
536
330
9
100
AcDbSymbolTableRecord
100
AcDbRegAppTableRecord
  2
ACAD_EXEMPT_FROM_CAD_STANDARDS
 70
     0
  0
APPID
  5
537
330
9
100
AcDbSymbolTableRecord
100
AcDbRegAppTableRecord
  2
ACAD_MLEADERVER
 70
     0
  0
APPID
  5
538
330
9
100
AcDbSymbolTableRecord
100
AcDbRegAppTableRecord
  2
ACAD_DSTYLE_DIMJOGGED_JOGANGLE_SYMBOL
 70
     0
  0
APPID
  5
539
330
9
100
AcDbSymbolTableRecord
100
AcDbRegAppTableRecord
  2
ACAD_DSTYLE_DIM_LINETYPE
 70
     0
  0
APPID
  5
53A
330
9
100
AcDbSymbolTableRecord
100
AcDbRegAppTableRecord
  2
ACAD_DSTYLE_DIM_EXT1_LINETYPE
 70
     0
  0
APPID
  5
53B
330
9
100
AcDbSymbolTableRecord
100
AcDbRegAppTableRecord
  2
ACAD_DSTYLE_DIM_EXT2_LINETYPE
 70
     0
  0
APPID
  5
53C
330
9
100
AcDbSymbolTableRecord
100
AcDbRegAppTableRecord
  2
ACAD_DSTYLE_DIMINSPECT
 70
     0
  0
APPID
  5
5BE
330
9
100
AcDbSymbolTableRecord
100
AcDbRegAppTableRecord
  2
GENIUS_GENDTOL_13
 70
     0
  0
ENDTAB
  0
TABLE
  2
DIMSTYLE
  5
A
330
0
100
AcDbSymbolTable
 70
    12
100
AcDbDimStyleTable
 71
     2
340
221
340
223
  0
DIMSTYLE
105
221
330
A
100
AcDbSymbolTableRecord
100
AcDbDimStyleTableRecord
  2
STANDARD
 70
     0
 41
3.5
 47
0.005
 48
0.005
 71
     1
 73
     0
 74
     0
 77
     1
 78
     8
140
3.5
178
     5
271
     3
272
     3
284
     8
340
11
341
21C
342
21C
343
21C
344
21C
  0
DIMSTYLE
105
222
330
A
100
AcDbSymbolTableRecord
100
AcDbDimStyleTableRecord
  2
DIMSTYLE_1
 70
     0
 41
3.5
 47
0.5
 48
0.5
 73
     0
 74
     0
 77
     1
 78
     8
140
3.5
178
     5
271
     3
272
     3
284
     8
340
11
341
21C
342
21C
343
21C
344
21C
  0
DIMSTYLE
105
223
102
{ACAD_REACTORS
330
250
330
24F
330
251
330
24E
102
}
330
A
100
AcDbSymbolTableRecord
100
AcDbDimStyleTableRecord
  2
DIMSTYLE_2
 70
     0
 41
3.5
 47
0.5
 48
0.5
 73
     0
 74
     0
 77
     1
 78
     8
140
3.5
178
     5
271
     0
272
     0
284
     8
340
11
341
21C
342
21C
343
21C
344
21C
  0
DIMSTYLE
105
224
330
A
100
AcDbSymbolTableRecord
100
AcDbDimStyleTableRecord
  2
DIMSTYLE_3
 70
     0
 41
3.5
 47
0.3
 48
0.3
 73
     0
 74
     0
 77
     1
 78
     8
140
3.5
178
     5
271
     0
272
     0
284
     8
340
11
341
21C
342
21C
343
21C
344
21C
  0
DIMSTYLE
105
501
102
{ACAD_REACTORS
330
4F0
102
}
330
A
100
AcDbSymbolTableRecord
100
AcDbDimStyleTableRecord
  2
AM_DIN
 70
     0
  4
"
 41
3.5
 42
1.0
 43
10.0
 44
1.0
 47
0.1
 48
0.1
 73
     0
 74
     0
 77
     1
 78
     8
 79
     2
140
3.5
141
0.0
143
0.0393701
146
0.71
147
1.5
172
     1
176
   256
177
   256
178
     2
271
     2
272
     3
274
     4
283
     0
284
     8
340
11
371
    -1
372
    -1
1001
ACAD_DSTYLE_DIMJAG
1070
   388
1040
1.5
1001
ACAD_DSTYLE_DIMBREAK
1070
   391
1040
3.75
1001
ACAD_DSTYLE_DIMJOGGED_JOGANGLE_SYMBOL
1070
   384
1040
1.570796326794896
1001
ACAD_DSTYLE_DIM_LINETYPE
1070
   380
1005
14
1001
ACAD_DSTYLE_DIM_EXT1_LINETYPE
1070
   381
1005
14
1001
ACAD_DSTYLE_DIM_EXT2_LINETYPE
1070
   382
1005
14
  0
DIMSTYLE
105
513
330
A
100
AcDbSymbolTableRecord
100
AcDbDimStyleTableRecord
  2
AM_DIN$3
 70
     0
  4
"
 41
3.5
 42
1.0
 43
10.0
 44
1.0
 47
0.1
 48
0.1
 73
     0
 77
     1
 78
     8
 79
     2
140
3.5
141
0.0
143
0.0393701
146
0.71
147
1.5
176
   256
177
   256
178
     2
271
     2
272
     3
274
     4
283
     0
284
     8
288
     1
289
     0
340
11
371
    -1
372
    -1
1001
ACAD_DSTYLE_DIMBREAK
1070
   391
1040
3.75
1001
ACAD_DSTYLE_DIMJAG
1070
   388
1040
1.5
1001
ACAD_DSTYLE_DIMJOGGED_JOGANGLE_SYMBOL
1070
   384
1040
1.570796326794896
1001
ACAD_DSTYLE_DIM_LINETYPE
1070
   380
1005
14
1001
ACAD_DSTYLE_DIM_EXT1_LINETYPE
1070
   381
1005
14
1001
ACAD_DSTYLE_DIM_EXT2_LINETYPE
1070
   382
1005
14
  0
DIMSTYLE
105
514
330
A
100
AcDbSymbolTableRecord
100
AcDbDimStyleTableRecord
  2
AM_DIN$4
 70
     0
  4
"
 41
3.5
 42
1.0
 43
10.0
 44
1.0
 47
0.1
 48
0.1
 73
     0
 77
     1
 78
     8
 79
     2
140
3.5
141
0.0
143
0.0393701
146
0.71
147
1.5
176
   256
177
   256
178
     2
271
     2
272
     3
274
     4
283
     0
284
     8
288
     1
289
     0
340
11
371
    -1
372
    -1
1001
ACAD_DSTYLE_DIMBREAK
1070
   391
1040
3.75
1001
ACAD_DSTYLE_DIMJAG
1070
   388
1040
1.5
1001
ACAD_DSTYLE_DIMJOGGED_JOGANGLE_SYMBOL
1070
   384
1040
1.570796326794896
1001
ACAD_DSTYLE_DIM_LINETYPE
1070
   380
1005
14
1001
ACAD_DSTYLE_DIM_EXT1_LINETYPE
1070
   381
1005
14
1001
ACAD_DSTYLE_DIM_EXT2_LINETYPE
1070
   382
1005
14
  0
DIMSTYLE
105
515
330
A
100
AcDbSymbolTableRecord
100
AcDbDimStyleTableRecord
  2
AM_DIN$6
 70
     0
  4
"
 41
3.5
 42
1.0
 43
10.0
 44
1.0
 47
0.1
 48
0.1
 73
     0
 74
     0
 78
     8
 79
     2
140
3.5
141
0.0
143
0.0393701
146
0.71
147
1.5
172
     1
176
   256
177
   256
178
     2
271
     2
272
     3
274
     4
283
     0
284
     8
340
11
371
    -1
372
    -1
1001
ACAD_DSTYLE_DIMBREAK
1070
   391
1040
3.75
1001
ACAD_DSTYLE_DIMJAG
1070
   388
1040
1.5
1001
ACAD_DSTYLE_DIMJOGGED_JOGANGLE_SYMBOL
1070
   384
1040
1.570796326794896
1001
ACAD_DSTYLE_DIM_LINETYPE
1070
   380
1005
14
1001
ACAD_DSTYLE_DIM_EXT1_LINETYPE
1070
   381
1005
14
1001
ACAD_DSTYLE_DIM_EXT2_LINETYPE
1070
   382
1005
14
  0
DIMSTYLE
105
516
330
A
100
AcDbSymbolTableRecord
100
AcDbDimStyleTableRecord
  2
AM_DIN$7
 70
     0
  4
"
 41
3.5
 42
1.0
 43
10.0
 44
1.0
 47
0.1
 48
0.1
 73
     0
 74
     0
 77
     1
 78
     8
 79
     2
140
3.5
141
0.0
143
0.0393701
146
0.71
147
1.5
172
     1
176
   256
177
   256
178
     2
271
     2
272
     3
274
     4
283
     0
284
     8
340
11
371
    -1
372
    -1
1001
ACAD_DSTYLE_DIMBREAK
1070
   391
1040
3.75
1001
ACAD_DSTYLE_DIMJAG
1070
   388
1040
1.5
1001
ACAD_DSTYLE_DIMJOGGED_JOGANGLE_SYMBOL
1070
   384
1040
1.570796326794896
1001
ACAD_DSTYLE_DIM_LINETYPE
1070
   380
1005
14
1001
ACAD_DSTYLE_DIM_EXT1_LINETYPE
1070
   381
1005
14
1001
ACAD_DSTYLE_DIM_EXT2_LINETYPE
1070
   382
1005
14
  0
DIMSTYLE
105
517
330
A
100
AcDbSymbolTableRecord
100
AcDbDimStyleTableRecord
  2
AM_DIN$SF
 70
     0
  4
"
 41
3.5
 42
1.0
 43
10.0
 44
1.0
 47
0.1
 48
0.1
 73
     0
 74
     0
 75
     1
 76
     1
 77
     1
 78
     8
 79
     2
140
3.5
141
0.0
143
0.0393701
146
0.71
147
1.5
172
     1
176
   256
177
   256
178
     2
271
     2
272
     3
274
     4
283
     0
284
     8
340
11
371
    -1
372
    -1
1001
ACAD_DSTYLE_DIMBREAK
1070
   391
1040
3.75
1001
ACAD_DSTYLE_DIMJAG
1070
   388
1040
1.5
1001
ACAD_DSTYLE_DIMJOGGED_JOGANGLE_SYMBOL
1070
   384
1040
1.570796326794896
1001
ACAD_DSTYLE_DIM_LINETYPE
1070
   380
1005
14
1001
ACAD_DSTYLE_DIM_EXT1_LINETYPE
1070
   381
1005
14
1001
ACAD_DSTYLE_DIM_EXT2_LINETYPE
1070
   382
1005
14
  0
DIMSTYLE
105
51C
330
A
100
AcDbSymbolTableRecord
100
AcDbDimStyleTableRecord
  2
AM_DIN$SH
 70
     0
  4
"
 41
3.5
 42
1.0
 43
10.0
 44
1.0
 47
0.1
 48
0.1
 73
     0
 74
     0
 75
     1
 76
     1
 77
     1
 78
     8
 79
     2
140
3.5
141
0.0
143
0.0393701
144
2.0
146
0.71
147
1.5
172
     1
173
     1
176
   256
177
   256
178
     2
271
     2
272
     3
274
     4
283
     0
284
     8
340
11
343
518
371
    -1
372
    -1
1001
ACAD_DSTYLE_DIMBREAK
1070
   391
1040
3.75
1001
ACAD_DSTYLE_DIMJAG
1070
   388
1040
1.5
1001
ACAD_DSTYLE_DIMJOGGED_JOGANGLE_SYMBOL
1070
   384
1040
1.570796326794896
1001
ACAD_DSTYLE_DIM_LINETYPE
1070
   380
1005
14
1001
ACAD_DSTYLE_DIM_EXT1_LINETYPE
1070
   381
1005
14
1001
ACAD_DSTYLE_DIM_EXT2_LINETYPE
1070
   382
1005
14
  0
ENDTAB
  0
TABLE
  2
BLOCK_RECORD
  5
1
330
0
100
AcDbSymbolTable
 70
    13
  0
BLOCK_RECORD
  5
21A
330
1
100
AcDbSymbolTableRecord
100
AcDbBlockTableRecord
  2
*Model_Space
340
444
  0
BLOCK_RECORD
  5
21B
330
1
100
AcDbSymbolTableRecord
100
AcDbBlockTableRecord
  2
*Paper_Space
340
445
  0
BLOCK_RECORD
  5
21C
330
1
100
AcDbSymbolTableRecord
100
AcDbBlockTableRecord
  2
_FILLED
340
0
102
{BLKREFS
331
543
331
544
331
559
331
55A
331
56F
331
570
331
579
331
57A
331
585
331
586
331
58F
331
590
331
5AF
331
5B0
331
5C2
331
5C3
102
}
  0
BLOCK_RECORD
  5
21D
330
1
100
AcDbSymbolTableRecord
100
AcDbBlockTableRecord
  2
*D1
340
0
  0
BLOCK_RECORD
  5
21E
330
1
100
AcDbSymbolTableRecord
100
AcDbBlockTableRecord
  2
*D2
340
0
  0
BLOCK_RECORD
  5
21F
330
1
100
AcDbSymbolTableRecord
100
AcDbBlockTableRecord
  2
*D3
340
0
  0
BLOCK_RECORD
  5
220
330
1
100
AcDbSymbolTableRecord
100
AcDbBlockTableRecord
  2
*D4
340
0
  0
BLOCK_RECORD
  5
518
330
1
100
AcDbSymbolTableRecord
100
AcDbBlockTableRecord
  2
GENAXEH
340
0
  0
ENDTAB
  0
ENDSEC
  0
SECTION
  2
BLOCKS
  0
BLOCK
  5
20
330
21A
100
AcDbEntity
  8
0
100
AcDbBlockBegin
  2
*Model_Space
 70
     0
 10
0.0
 20
0.0
 30
0.0
  3
*Model_Space
  1

  0
ENDBLK
  5
21
330
21A
100
AcDbEntity
  8
0
100
AcDbBlockEnd
  0
BLOCK
  5
1C
330
21B
100
AcDbEntity
 67
     1
  8
0
100
AcDbBlockBegin
  2
*Paper_Space
 70
     0
 10
0.0
 20
0.0
 30
0.0
  3
*Paper_Space
  1

  0
ENDBLK
  5
1D
330
21B
100
AcDbEntity
 67
     1
  8
0
100
AcDbBlockEnd
  0
BLOCK
  5
225
330
21C
100
AcDbEntity
  8
0
100
AcDbBlockBegin
  2
_FILLED
 70
     0
 10
0.0
 20
0.0
 30
0.0
  3
_FILLED
  1

  0
SOLID
  5
226
330
21C
100
AcDbEntity
  8
0
  6
ByBlock
 62
     0
100
AcDbTrace
 10
0.0
 20
0.0
 30
0.0
 11
-1.0
 21
0.125
 31
0.0
 12
-1.0
 22
-0.125
 32
0.0
 13
-1.0
 23
-0.125
 33
0.0
  0
ENDBLK
  5
227
330
21C
100
AcDbEntity
  8
0
  6
ByBlock
 62
     0
100
AcDbBlockEnd
  0
BLOCK
  5
228
330
21D
100
AcDbEntity
  8
ZEICHNUNGSBEMASSUNGEN
  6
Continuous
 62
     2
100
AcDbBlockBegin
  2
*D1
 70
     1
 10
0.0
 20
0.0
 30
0.0
  3
*D1
  1

  0
LINE
  5
58C
330
21D
100
AcDbEntity
  8
ZEICHNUNGSBEMASSUNGEN
  6
Continuous
 62
     0
370
    -2
100
AcDbLine
 10
61.66395873959999
 20
231.830515197
 30
0.0
 11
51.00234018470004
 21
231.830515197
 31
0.0
  0
LINE
  5
58D
330
21D
100
AcDbEntity
  8
ZEICHNUNGSBEMASSUNGEN
  6
Continuous
 62
     0
370
    -2
100
AcDbLine
 10
181.7487269456
 20
35.330515197
 30
0.0
 11
51.0023401847
 21
35.33051519700003
 31
0.0
  0
LINE
  5
58E
330
21D
100
AcDbEntity
  8
ZEICHNUNGSBEMASSUNGEN
  6
Continuous
 62
     0
370
    -2
100
AcDbLine
 10
51.18234018470005
 20
226.830515197
 30
0.0
 11
51.1823401847
 21
40.33051519700003
 31
0.0
  0
INSERT
  5
58F
330
21D
100
AcDbEntity
  8
ZEICHNUNGSBEMASSUNGEN
  6
Continuous
 62
     0
370
    -2
100
AcDbBlockReference
  2
_FILLED
 10
51.18234018470005
 20
231.830515197
 30
0.0
 41
5.0
 42
5.0
 43
5.0
 50
90.0
  0
INSERT
  5
590
330
21D
100
AcDbEntity
  8
ZEICHNUNGSBEMASSUNGEN
  6
Continuous
 62
     0
370
    -2
100
AcDbBlockReference
  2
_FILLED
 10
51.1823401847
 20
35.33051519700003
 30
0.0
 41
5.0
 42
5.0
 43
5.0
 50
270.0
  0
MTEXT
  5
591
330
21D
100
AcDbEntity
  8
ZEICHNUNGSBEMASSUNGEN
  6
Continuous
100
AcDbMText
 10
42.6823401847
 20
128.2165352154
 30
0.0
 40
7.0
 41
0.0
 71
     2
 72
     1
  1
\A1;197
 11
0.0000000000000001
 21
1.0
 31
0.0
 73
     1
 44
1.0
1001
ACAD
1000
MTEXTBEGIN
1070
    73
1070
     1
1070
    44
1040
1.0
1070
    74
1070
     0
1000
MTEXTEND
  0
POINT
  5
592
330
21D
100
AcDbEntity
  8
Defpoints
  6
Continuous
 62
     0
100
AcDbPoint
 10
61.7264587396
 20
231.830515197
 30
0.0
  0
POINT
  5
593
330
21D
100
AcDbEntity
  8
Defpoints
  6
Continuous
 62
     0
100
AcDbPoint
 10
181.8112269456
 20
35.330515197
 30
0.0
  0
POINT
  5
594
330
21D
100
AcDbEntity
  8
Defpoints
  6
Continuous
 62
     0
100
AcDbPoint
 10
51.1823401847
 20
35.33051519700003
 30
0.0
  0
ENDBLK
  5
230
330
21D
100
AcDbEntity
  8
0
  6
ByBlock
 62
     0
100
AcDbBlockEnd
  0
BLOCK
  5
231
330
21E
100
AcDbEntity
  8
ZEICHNUNGSBEMASSUNGEN
  6
Continuous
 62
     2
100
AcDbBlockBegin
  2
*D2
 70
     1
 10
0.0
 20
0.0
 30
0.0
  3
*D2
  1

  0
LINE
  5
5AC
330
21E
100
AcDbEntity
  8
ZEICHNUNGSBEMASSUNGEN
  6
Continuous
 62
     0
370
    -2
100
AcDbLine
 10
61.11889848789999
 20
227.9329815658
 30
0.0
 11
61.11889848789999
 21
283.4297080011475
 31
0.0
  0
LINE
  5
5AD
330
21E
100
AcDbEntity
  8
ZEICHNUNGSBEMASSUNGEN
  6
Continuous
 62
     0
370
    -2
100
AcDbLine
 10
361.5381607221
 20
229.393015197
 30
0.0
 11
361.5381607221
 21
283.4297080011475
 31
0.0
  0
LINE
  5
5AE
330
21E
100
AcDbEntity
  8
ZEICHNUNGSBEMASSUNGEN
  6
Continuous
 62
     0
370
    -2
100
AcDbLine
 10
66.11889848789999
 20
283.2497080011475
 30
0.0
 11
356.5381607221
 21
283.2497080011475
 31
0.0
  0
INSERT
  5
5AF
330
21E
100
AcDbEntity
  8
ZEICHNUNGSBEMASSUNGEN
  6
Continuous
 62
     0
370
    -2
100
AcDbBlockReference
  2
_FILLED
 10
61.11889848789999
 20
283.2497080011475
 30
0.0
 41
5.0
 42
5.0
 43
5.0
 50
180.0
  0
INSERT
  5
5B0
330
21E
100
AcDbEntity
  8
ZEICHNUNGSBEMASSUNGEN
  6
Continuous
 62
     0
370
    -2
100
AcDbBlockReference
  2
_FILLED
 10
361.5381607221
 20
283.2497080011475
 30
0.0
 41
5.0
 42
5.0
 43
5.0
  0
MTEXT
  5
5B1
330
21E
100
AcDbEntity
  8
ZEICHNUNGSBEMASSUNGEN
  6
Continuous
100
AcDbMText
 10
209.8368772687363
 20
291.7497080011475
 30
0.0
 40
7.0
 41
0.0
 71
     2
 72
     1
  1
\A1;%%c300
 73
     1
 44
1.0
1001
ACAD
1000
MTEXTBEGIN
1070
    73
1070
     1
1070
    44
1040
1.0
1070
    74
1070
     0
1000
MTEXTEND
  0
POINT
  5
5B2
330
21E
100
AcDbEntity
  8
Defpoints
  6
Continuous
 62
     0
100
AcDbPoint
 10
61.11889848789999
 20
227.8704815658
 30
0.0
  0
POINT
  5
5B3
330
21E
100
AcDbEntity
  8
Defpoints
  6
Continuous
 62
     0
100
AcDbPoint
 10
361.5381607221
 20
229.330515197
 30
0.0
  0
POINT
  5
5B4
330
21E
100
AcDbEntity
  8
Defpoints
  6
Continuous
 62
     0
100
AcDbPoint
 10
361.5381607221
 20
283.2497080011475
 30
0.0
  0
ENDBLK
  5
239
330
21E
100
AcDbEntity
  8
0
  6
ByBlock
 62
     0
100
AcDbBlockEnd
  0
BLOCK
  5
23A
330
21F
100
AcDbEntity
  8
ZEICHNUNGSBEMASSUNGEN
  6
Continuous
 62
     2
100
AcDbBlockBegin
  2
*D3
 70
     1
 10
0.0
 20
0.0
 30
0.0
  3
*D3
  1

  0
LINE
  5
5BF
330
21F
100
AcDbEntity
  8
ZEICHNUNGSBEMASSUNGEN
  6
Continuous
 62
     0
370
    -2
100
AcDbLine
 10
288.5491634491
 20
225.393015197
 30
0.0
 11
288.5491634491
 21
273.0117326193
 31
0.0
  0
LINE
  5
5C0
330
21F
100
AcDbEntity
  8
ZEICHNUNGSBEMASSUNGEN
  6
Continuous
 62
     0
370
    -2
100
AcDbLine
 10
134.1078957609
 20
225.393015197
 30
0.0
 11
134.1078957609
 21
273.0117326193
 31
0.0
  0
LINE
  5
5C1
330
21F
100
AcDbEntity
  8
ZEICHNUNGSBEMASSUNGEN
  6
Continuous
 62
     0
370
    -2
100
AcDbLine
 10
283.5491634491
 20
272.8317326193
 30
0.0
 11
139.1078957609
 21
272.8317326193
 31
0.0
  0
INSERT
  5
5C2
330
21F
100
AcDbEntity
  8
ZEICHNUNGSBEMASSUNGEN
  6
Continuous
 62
     0
370
    -2
100
AcDbBlockReference
  2
_FILLED
 10
288.5491634491
 20
272.8317326193
 30
0.0
 41
5.0
 42
5.0
 43
5.0
  0
INSERT
  5
5C3
330
21F
100
AcDbEntity
  8
ZEICHNUNGSBEMASSUNGEN
  6
Continuous
 62
     0
370
    -2
100
AcDbBlockReference
  2
_FILLED
 10
134.1078957609
 20
272.8317326193
 30
0.0
 41
5.0
 42
5.0
 43
5.0
 50
180.0
  0
MTEXT
  5
5C4
330
21F
100
AcDbEntity
  8
ZEICHNUNGSBEMASSUNGEN
  6
Continuous
100
AcDbMText
 10
208.3493629383
 20
281.3317326193
 30
0.0
 40
7.0
 41
0.0
 71
     2
 72
     1
  1
\A1;%%c155
 73
     1
 44
1.0
1001
ACAD
1000
MTEXTBEGIN
1070
    73
1070
     1
1070
    44
1040
1.0
1070
    74
1070
     0
1000
MTEXTEND
  0
POINT
  5
5C5
330
21F
100
AcDbEntity
  8
Defpoints
  6
Continuous
 62
     0
100
AcDbPoint
 10
288.5491634491
 20
225.330515197
 30
0.0
  0
POINT
  5
5C6
330
21F
100
AcDbEntity
  8
Defpoints
  6
Continuous
 62
     0
100
AcDbPoint
 10
134.1078957609
 20
225.330515197
 30
0.0
  0
POINT
  5
5C7
330
21F
100
AcDbEntity
  8
Defpoints
  6
Continuous
 62
     0
100
AcDbPoint
 10
134.1078957609
 20
272.8317326193
 30
0.0
  0
ENDBLK
  5
242
330
21F
100
AcDbEntity
  8
0
  6
ByBlock
 62
     0
100
AcDbBlockEnd
  0
BLOCK
  5
243
330
220
100
AcDbEntity
  8
ZEICHNUNGSBEMASSUNGEN
  6
Continuous
 62
     2
100
AcDbBlockBegin
  2
*D4
 70
     1
 10
0.0
 20
0.0
 30
0.0
  3
*D4
  1

  0
LINE
  5
576
330
220
100
AcDbEntity
  8
ZEICHNUNGSBEMASSUNGEN
  6
Continuous
 62
     0
370
    -2
100
AcDbLine
 10
240.9083322644
 20
35.330515197
 30
0.0
 11
370.3253631665
 21
35.33051519699996
 31
0.0
  0
LINE
  5
577
330
220
100
AcDbEntity
  8
ZEICHNUNGSBEMASSUNGEN
  6
Continuous
 62
     0
370
    -2
100
AcDbLine
 10
182.5943903991
 20
109.614925552
 30
0.0
 11
370.3253631665
 21
109.6149255519999
 31
0.0
  0
LINE
  5
578
330
220
100
AcDbEntity
  8
ZEICHNUNGSBEMASSUNGEN
  6
Continuous
 62
     0
370
    -2
100
AcDbLine
 10
370.1453631665
 20
40.33051519699996
 30
0.0
 11
370.1453631665
 21
104.6149255519999
 31
0.0
  0
INSERT
  5
579
330
220
100
AcDbEntity
  8
ZEICHNUNGSBEMASSUNGEN
  6
Continuous
 62
     0
370
    -2
100
AcDbBlockReference
  2
_FILLED
 10
370.1453631665
 20
35.33051519699996
 30
0.0
 41
5.0
 42
5.0
 43
5.0
 50
270.0
  0
INSERT
  5
57A
330
220
100
AcDbEntity
  8
ZEICHNUNGSBEMASSUNGEN
  6
Continuous
 62
     0
370
    -2
100
AcDbBlockReference
  2
_FILLED
 10
370.1453631665
 20
109.6149255519999
 30
0.0
 41
5.0
 42
5.0
 43
5.0
 50
90.0
  0
MTEXT
  5
57B
330
220
100
AcDbEntity
  8
ZEICHNUNGSBEMASSUNGEN
  6
Continuous
100
AcDbMText
 10
361.6453631665
 20
70.0142295496
 30
0.0
 40
7.0
 41
0.0
 71
     2
 72
     1
  1
\A1;74
 11
0.0000000000000001
 21
1.0
 31
0.0
 73
     1
 44
1.0
1001
ACAD
1000
MTEXTBEGIN
1070
    73
1070
     1
1070
    44
1040
1.0
1070
    74
1070
     0
1000
MTEXTEND
  0
POINT
  5
57C
330
220
100
AcDbEntity
  8
Defpoints
  6
Continuous
 62
     0
100
AcDbPoint
 10
240.8458322644
 20
35.330515197
 30
0.0
  0
POINT
  5
57D
330
220
100
AcDbEntity
  8
Defpoints
  6
Continuous
 62
     0
100
AcDbPoint
 10
182.5318903991
 20
109.614925552
 30
0.0
  0
POINT
  5
57E
330
220
100
AcDbEntity
  8
Defpoints
  6
Continuous
 62
     0
100
AcDbPoint
 10
370.1453631665
 20
109.6149255519999
 30
0.0
  0
ENDBLK
  5
24B
330
220
100
AcDbEntity
  8
0
  6
ByBlock
 62
     0
100
AcDbBlockEnd
  0
BLOCK
  5
51A
330
518
100
AcDbEntity
  8
0
100
AcDbBlockBegin
  2
GENAXEH
 70
     0
 10
0.0
 20
0.0
 30
0.0
  3
GENAXEH
  1

  0
LINE
  5
519
330
518
100
AcDbEntity
  8
0
100
AcDbLine
 10
-1.0
 20
0.0
 30
0.0
 11
1.0
 21
0.0
 31
0.0
  0
ENDBLK
  5
51B
330
518
100
AcDbEntity
  8
0
100
AcDbBlockEnd
  0
ENDSEC
  0
SECTION
  2
ENTITIES
  0
HATCH
  5
24C
330
21A
100
AcDbEntity
  8
0
  6
Continuous
 62
     1
100
AcDbHatch
 10
0.0
 20
0.0
 30
0.0
210
0.0
220
0.0
230
1.0
  2
DEFAULT__1
 70
     0
 71
     0
 91
        2
 92
        1
 93
       58
 72
     1
 10
239.3458323419
 20
35.330515197
 11
229.828529605
 21
35.330515197
 72
     4
 94
        3
 73
     1
 74
     0
 95
        8
 96
        4
 40
0.0
 40
0.0
 40
0.0
 40
0.0
 40
1.0
 40
1.0
 40
1.0
 40
1.0
 10
229.828529605
 20
35.330515197
 42
1.0
 10
229.2427431674
 20
35.330515197
 42
0.8047378541
 10
228.828529605
 20
35.7447287594
 42
0.8047378541
 10
228.828529605
 20
36.330515197
 42
1.0
 72
     1
 10
228.828529605
 20
40.3815506303
 11
228.828529605
 21
36.330515197
 72
     4
 94
        3
 73
     1
 74
     0
 95
        8
 96
        4
 40
0.0
 40
0.0
 40
0.0
 40
0.0
 40
1.0
 40
1.0
 40
1.0
 40
1.0
 10
228.828529605
 20
40.3815506303
 42
1.0
 10
228.828529605
 20
40.94330105689999
 42
0.8169162473
 10
229.2152130816
 20
41.35078041929999
 42
0.8169162473
 10
229.7761936488
 20
41.3801801651
 42
1.0
 72
     1
 10
233.8808655613
 20
41.5952969047
 11
229.7761936488
 21
41.3801801651
 72
     4
 94
        3
 73
     1
 74
     0
 95
        8
 96
        4
 40
0.0
 40
0.0
 40
0.0
 40
0.0
 40
1.0
 40
1.0
 40
1.0
 40
1.0
 10
234.828529605
 20
42.5939264394
 42
1.0
 10
234.828529605
 20
42.0321760128
 42
0.8169162473
 10
234.4418461284
 20
41.62469665039999
 42
0.8169162473
 10
233.8808655612
 20
41.5952969047
 42
1.0
 72
     1
 10
234.828529605
 20
113.82065756
 11
234.828529605
 21
42.5939264394
 72
     4
 94
        3
 73
     1
 74
     0
 95
        8
 96
        4
 40
0.0
 40
0.0
 40
0.0
 40
0.0
 40
1.0
 40
1.0
 40
1.0
 40
1.0
 10
235.8110771986
 20
114.8205052552
 42
1.0
 10
235.2334532522
 20
114.8104227917
 42
0.8088336328
 10
234.828529605
 20
114.3983694948
 42
0.8088336328
 10
234.828529605
 20
113.82065756
 42
1.0
 72
     1
 10
235.8110771986
 20
114.8205052552
 11
240.5968278679
 21
114.9040408438
 72
     4
 94
        3
 73
     1
 74
     0
 95
        8
 96
        4
 40
0.0
 40
0.0
 40
0.0
 40
0.0
 40
1.0
 40
1.0
 40
1.0
 40
1.0
 10
240.5968278679
 20
114.9040408438
 42
1.0
 10
240.9627637648
 20
114.9104282787
 42
0.9106982579
 10
241.2764881178
 20
115.0989141144
 42
0.9106982579
 10
241.4539525332
 20
115.4190020105
 42
1.0
 72
     4
 94
        3
 73
     1
 74
     0
 95
        8
 96
        4
 40
0.0
 40
0.0
 40
0.0
 40
0.0
 40
1.0
 40
1.0
 40
1.0
 40
1.0
 10
242.3110771986
 20
115.9339631772
 42
1.0
 10
241.9451413017
 20
115.9275757424
 42
0.9106982579
 10
241.6314169486
 20
115.7390899066
 42
0.9106982579
 10
241.4539525332
 20
115.4190020105
 42
1.0
 72
     1
 10
247.8459820114
 20
116.0305753001
 11
242.3110771986
 21
115.9339631772
 72
     4
 94
        3
 73
     1
 74
     0
 95
        8
 96
        4
 40
0.0
 40
0.0
 40
0.0
 40
0.0
 40
1.0
 40
1.0
 40
1.0
 40
1.0
 10
248.828529605
 20
117.0304229952
 42
1.0
 10
248.828529605
 20
116.4527110605
 42
0.8088336328
 10
248.4236059579
 20
116.0406577636
 42
0.8088336328
 10
247.8459820114
 20
116.0305753001
 42
1.0
 72
     1
 10
248.828529605
 20
126.8543902564
 11
248.828529605
 21
117.0304229952
 72
     4
 94
        3
 73
     1
 74
     0
 95
        8
 96
        4
 40
0.0
 40
0.0
 40
0.0
 40
0.0
 40
1.0
 40
1.0
 40
1.0
 40
1.0
 10
248.828529605
 20
126.8543902564
 42
1.0
 10
248.828529605
 20
127.416140683
 42
0.8169162473
 10
249.2152130816
 20
127.8236200454
 42
0.8169162473
 10
249.7761936488
 20
127.8530197912
 42
1.0
 72
     1
 10
262.293048146
 20
128.509000339
 11
249.7761936488
 21
127.8530197912
 72
     4
 94
        3
 73
     1
 74
     0
 95
        8
 96
        4
 40
0.0
 40
0.0
 40
0.0
 40
0.0
 40
1.0
 40
1.0
 40
1.0
 40
1.0
 10
262.293048146
 20
128.509000339
 42
1.0
 10
262.6585719247
 20
128.5281566285
 42
0.9106836024999999
 10
262.965546658
 20
128.7275083512
 42
0.9106836024999999
 10
263.131718714
 20
129.053639374
 42
1.0
 72
     1
 10
263.131718714
 20
129.053639374
 11
274.754417644
 21
151.8644703964
 72
     4
 94
        3
 73
     1
 74
     0
 95
        8
 96
        4
 40
0.0
 40
0.0
 40
0.0
 40
0.0
 40
1.0
 40
1.0
 40
1.0
 40
1.0
 10
274.754417644
 20
151.8644703964
 42
1.0
 10
274.9684994987
 20
152.2846296933
 42
0.9818887202999999
 10
275.0794953123
 20
152.7429361461
 42
0.9818887202999999
 10
275.0813742563
 20
153.2144882056
 42
1.0
 72
     1
 10
275.3245608869
 20
214.2461943449
 11
275.0813742563
 21
153.2144882056
 72
     4
 94
        3
 73
     1
 74
     0
 95
        8
 96
        4
 40
0.0
 40
0.0
 40
0.0
 40
0.0
 40
1.0
 40
1.0
 40
1.0
 40
1.0
 10
276.3245529485
 20
215.2422097815
 42
1.0
 10
275.7406155349
 20
215.2422097815
 42
0.8056760909999999
 10
275.3268876225
 20
214.8301271229
 42
0.8056760909999999
 10
275.3245608869
 20
214.2461943449
 42
1.0
 72
     1
 10
277.2695157381
 20
215.2422097815
 11
276.3245529485
 21
215.2422097815
 72
     1
 10
277.2695157381
 20
215.2422097815
 11
281.3459820114
 21
215.313364765
 72
     4
 94
        3
 73
     1
 74
     0
 95
        8
 96
        4
 40
0.0
 40
0.0
 40
0.0
 40
0.0
 40
1.0
 40
1.0
 40
1.0
 40
1.0
 10
281.3459820114
 20
215.313364765
 42
1.0
 10
281.9236059579
 20
215.3234472285
 42
0.8088336328
 10
282.328529605
 20
215.7355005254
 42
0.8088336328
 10
282.328529605
 20
216.3132124601
 42
1.0
 72
     1
 10
282.328529605
 20
225.3478179339
 11
282.328529605
 21
216.3132124601
 72
     4
 94
        3
 73
     1
 74
     0
 95
        8
 96
        4
 40
0.0
 40
0.0
 40
0.0
 40
0.0
 40
1.0
 40
1.0
 40
1.0
 40
1.0
 10
282.328529605
 20
225.3478179339
 42
1.0
 10
282.328529605
 20
225.9255298686
 42
0.8088336328
 10
281.9236059579
 20
226.3375831656
 42
0.8088336328
 10
281.3459820114
 20
226.3476656291
 42
1.0
 72
     1
 10
281.3459820114
 20
226.3476656291
 11
276.3110771986
 21
226.4355502195
 72
     4
 94
        3
 73
     1
 74
     0
 95
        8
 96
        4
 40
0.0
 40
0.0
 40
0.0
 40
0.0
 40
1.0
 40
1.0
 40
1.0
 40
1.0
 10
275.328529605
 20
227.4353979146
 42
1.0
 10
275.328529605
 20
226.8576859799
 42
0.8088336328
 10
275.7334532522
 20
226.445632683
 42
0.8088336328
 10
276.3110771986
 20
226.4355502195
 42
1.0
 72
     1
 10
275.328529605
 20
227.4353979146
 11
275.328529605
 21
230.830515197
 72
     4
 94
        3
 73
     1
 74
     0
 95
        8
 96
        4
 40
0.0
 40
0.0
 40
0.0
 40
0.0
 40
1.0
 40
1.0
 40
1.0
 40
1.0
 10
276.328529605
 20
231.830515197
 42
1.0
 10
275.7427431674
 20
231.830515197
 42
0.8047378541
 10
275.328529605
 20
231.4163016347
 42
0.8047378541
 10
275.328529605
 20
230.830515197
 42
1.0
 72
     1
 10
276.328529605
 20
231.830515197
 11
359.4306004716
 21
231.830515197
 72
     4
 94
        3
 73
     1
 74
     0
 95
        8
 96
        4
 40
0.0
 40
0.0
 40
0.0
 40
0.0
 40
1.0
 40
1.0
 40
1.0
 40
1.0
 10
359.4306004716
 20
231.830515197
 42
1.0
 10
360.5541013248001
 20
231.830515197
 42
0.8169162473
 10
361.3690600496
 20
231.0571482439
 42
0.8169162473
 10
361.4278595411
 20
229.9351871095
 42
1.0
 72
     1
 10
361.4278595411
 20
229.9351871095
 11
361.5381607221
 21
227.830515197
 72
     1
 10
361.4278595411
 20
225.7258432845
 11
361.5381607221
 21
227.830515197
 72
     4
 94
        3
 73
     1
 74
     0
 95
        8
 96
        4
 40
0.0
 40
0.0
 40
0.0
 40
0.0
 40
1.0
 40
1.0
 40
1.0
 40
1.0
 10
359.4306004716
 20
223.830515197
 42
1.0
 10
360.5541013248001
 20
223.830515197
 42
0.8169162473
 10
361.3690600496
 20
224.6038821502
 42
0.8169162473
 10
361.4278595411
 20
225.7258432845
 42
1.0
 72
     1
 10
290.4805409987
 20
223.830515197
 11
359.4306004716
 21
223.830515197
 72
     4
 94
        3
 73
     1
 74
     0
 95
        8
 96
        4
 40
0.0
 40
0.0
 40
0.0
 40
0.0
 40
1.0
 40
1.0
 40
1.0
 40
1.0
 10
288.4817593447
 20
221.9003141904
 42
1.0
 10
288.521523859
 20
223.0390208957
 42
0.8128932001999999
 10
289.3411402012
 20
223.830515197
 42
0.8128932001999999
 10
290.4805409987
 20
223.830515197
 42
1.0
 72
     1
 10
288.4817593447
 20
221.9003141904
 11
288.1269651179
 21
211.7403368495
 72
     4
 94
        3
 73
     1
 74
     0
 95
        8
 96
        4
 40
0.0
 40
0.0
 40
0.0
 40
0.0
 40
1.0
 40
1.0
 40
1.0
 40
1.0
 10
288.1269651179
 20
211.7403368495
 42
1.0
 10
288.0908218437
 20
210.7053288965
 42
0.8389989303
 10
287.3889185169
 20
209.9438306897
 42
0.8389989303
 10
286.3602766968
 20
209.8236483068
 42
1.0
 72
     4
 94
        3
 73
     1
 74
     0
 95
        8
 96
        4
 40
0.0
 40
0.0
 40
0.0
 40
0.0
 40
1.0
 40
1.0
 40
1.0
 40
1.0
 10
286.3602766968
 20
209.8236483068
 42
1.0
 10
284.8173139667
 20
209.6433747325
 42
0.8389989303
 10
283.7644589764
 20
208.5011274223
 42
0.8389989303
 10
283.7102440652
 20
206.9486154927
 42
1.0
 72
     1
 10
283.4232270917
 20
198.7295247439
 11
283.7102440652
 21
206.9486154927
 72
     4
 94
        3
 73
     1
 74
     0
 95
        8
 96
        4
 40
0.0
 40
0.0
 40
0.0
 40
0.0
 40
1.0
 40
1.0
 40
1.0
 40
1.0
 10
282.9166056451
 20
196.7047242441999
 42
1.0
 10
283.2271938492
 20
197.338855855
 42
0.9853166926
 10
283.3985842182
 20
198.0238472957
 42
0.9853166926
 10
283.4232270197
 20
198.7295247466
 42
1.0
 72
     1
 10
282.7779385373
 20
196.421606057
 11
282.9166057112
 21
196.7047242133
 72
     4
 94
        3
 73
     1
 74
     0
 95
        8
 96
        4
 40
0.0
 40
0.0
 40
0.0
 40
0.0
 40
1.0
 40
1.0
 40
1.0
 40
1.0
 10
282.2713154568999
 20
194.396802235
 42
1.0
 10
282.2959582948
 20
195.1024809593
 42
0.9853166406999999
 10
282.467349221
 20
195.7874735738
 42
0.9853166406999999
 10
282.7779384519
 20
196.4216061003
 42
1.0
 72
     1
 10
280.8143527216
 20
152.6748458455
 11
282.2713155433
 21
194.3968022323
 72
     4
 94
        3
 73
     1
 74
     0
 95
        8
 96
        4
 40
0.0
 40
0.0
 40
0.0
 40
0.0
 40
1.0
 40
1.0
 40
1.0
 40
1.0
 10
280.8143527216
 20
152.6748458455
 42
1.0
 10
280.7887696625
 20
151.942242886
 42
0.9841973380999998
 10
280.6052287224
 20
151.2325427293
 42
0.9841973380999998
 10
280.2724312075
 20
150.5793908303
 42
1.0
 72
     1
 10
267.1148642167
 20
124.7562116274
 11
280.2724312075
 21
150.5793908303
 72
     4
 94
        3
 73
     1
 74
     0
 95
        8
 96
        4
 40
0.0
 40
0.0
 40
0.0
 40
0.0
 40
1.0
 40
1.0
 40
1.0
 40
1.0
 10
264.5988525129
 20
123.1222945223
 42
1.0
 10
265.6954238489
 20
123.1797633909
 42
0.9106836024999999
 10
266.6163480488001
 20
123.777818559
 42
0.9106836024999999
 10
267.1148642167
 20
124.7562116274
 42
1.0
 72
     1
 10
258.7981495894
 20
122.8182925638
 11
264.5988525129
 21
123.1222945223
 72
     4
 94
        3
 73
     1
 74
     0
 95
        8
 96
        4
 40
0.0
 40
0.0
 40
0.0
 40
0.0
 40
1.0
 40
1.0
 40
1.0
 40
1.0
 10
258.7981495894
 20
122.8182925638
 42
1.0
 10
257.2995787718
 20
122.7397557952
 42
0.8477497223
 10
256.1932002171
 20
121.7259466352
 42
0.8477497223
 10
255.9843532519
 20
120.2399232624
 42
1.0
 72
     1
 10
255.9843532519
 20
120.2399232624
 11
255.2620124185
 21
115.1002011673
 72
     4
 94
        3
 73
     1
 74
     0
 95
        8
 96
        4
 40
0.0
 40
0.0
 40
0.0
 40
0.0
 40
1.0
 40
1.0
 40
1.0
 40
1.0
 10
255.2620124185
 20
115.1002011673
 42
1.0
 10
255.1497994705
 20
114.3017645548
 42
0.9492530217
 10
254.7405797612
 20
113.6070473466
 42
0.9492530217
 10
254.0966532817
 20
113.12181394
 42
1.0
 72
     1
 10
254.0966532817
 20
113.12181394
 11
250.5781688889
 21
110.4704457756
 72
     4
 94
        3
 73
     1
 74
     0
 95
        8
 96
        4
 40
0.0
 40
0.0
 40
0.0
 40
0.0
 40
1.0
 40
1.0
 40
1.0
 40
1.0
 10
250.5781688889
 20
110.4704457756
 42
1.0
 10
250.0825682919
 20
110.0969839385
 42
0.9691446337999998
 10
249.4976034614
 20
109.8898370278
 42
0.9691446337999998
 10
248.8774223096
 20
109.8681798247
 42
1.0
 72
     1
 10
248.8774223096
 20
109.8681798247
 11
244.4703282603
 21
109.7142807093
 72
     4
 94
        3
 73
     1
 74
     0
 95
        8
 96
        4
 40
0.0
 40
0.0
 40
0.0
 40
0.0
 40
1.0
 40
1.0
 40
1.0
 40
1.0
 10
241.575483665
 20
106.7684654475
 42
1.0
 10
241.6048953553
 20
108.4534600555
 42
0.8169162473
 10
242.78610359
 20
109.6554662878
 42
0.8169162473
 10
244.4703282603
 20
109.7142807093
 42
1.0
 72
     1
 10
241.575483665
 20
106.7684654475
 11
240.345680037
 21
36.3130627906
 72
     4
 94
        3
 73
     1
 74
     0
 95
        8
 96
        4
 40
0.0
 40
0.0
 40
0.0
 40
0.0
 40
1.0
 40
1.0
 40
1.0
 40
1.0
 10
240.345680037
 20
36.3130627906
 42
1.0
 10
240.3355975736
 20
35.7354388442
 42
0.8088336328
 10
239.9235442766
 20
35.330515197
 42
0.8088336328
 10
239.3458323419
 20
35.330515197
 42
1.0
 97
        0
 92
        1
 93
       58
 72
     1
 10
192.828529605
 20
35.330515197
 11
183.3112268681
 21
35.330515197
 72
     4
 94
        3
 73
     1
 74
     0
 95
        8
 96
        4
 40
0.0
 40
0.0
 40
0.0
 40
0.0
 40
1.0
 40
1.0
 40
1.0
 40
1.0
 10
182.311379173
 20
36.3130627906
 42
1.0
 10
182.3214616365
 20
35.7354388442
 42
0.8088336328
 10
182.7335149334
 20
35.330515197
 42
0.8088336328
 10
183.3112268681
 20
35.330515197
 42
1.0
 72
     1
 10
181.081575545
 20
106.7684654475
 11
182.311379173
 21
36.3130627906
 72
     4
 94
        3
 73
     1
 74
     0
 95
        8
 96
        4
 40
0.0
 40
0.0
 40
0.0
 40
0.0
 40
1.0
 40
1.0
 40
1.0
 40
1.0
 10
181.081575545
 20
106.7684654475
 42
1.0
 10
181.0521638548
 20
108.4534600555
 42
0.8169162473
 10
179.8709556199999
 20
109.6554662878
 42
0.8169162473
 10
178.1867309497
 20
109.7142807093
 42
1.0
 72
     1
 10
173.7796369005
 20
109.8681798247
 11
178.1867309497
 21
109.7142807093
 72
     4
 94
        3
 73
     1
 74
     0
 95
        8
 96
        4
 40
0.0
 40
0.0
 40
0.0
 40
0.0
 40
1.0
 40
1.0
 40
1.0
 40
1.0
 10
172.0788903211
 20
110.4704457756
 42
1.0
 10
172.5744909181
 20
110.0969839385
 42
0.9691446337999998
 10
173.1594557486
 20
109.8898370278
 42
0.9691446337999998
 10
173.7796369005
 20
109.8681798247
 42
1.0
 72
     1
 10
168.5604059283
 20
113.12181394
 11
172.0788903211
 21
110.4704457756
 72
     4
 94
        3
 73
     1
 74
     0
 95
        8
 96
        4
 40
0.0
 40
0.0
 40
0.0
 40
0.0
 40
1.0
 40
1.0
 40
1.0
 40
1.0
 10
167.3950467915
 20
115.1002011673
 42
1.0
 10
167.5072597395
 20
114.3017645548
 42
0.9492530217
 10
167.9164794488
 20
113.6070473466
 42
0.9492530217
 10
168.5604059283
 20
113.12181394
 42
1.0
 72
     1
 10
166.6727059582
 20
120.2399232624
 11
167.3950467915
 21
115.1002011673
 72
     4
 94
        3
 73
     1
 74
     0
 95
        8
 96
        4
 40
0.0
 40
0.0
 40
0.0
 40
0.0
 40
1.0
 40
1.0
 40
1.0
 40
1.0
 10
163.8589096207
 20
122.8182925638
 42
1.0
 10
165.3574804382
 20
122.7397557952
 42
0.8477497223
 10
166.463858993
 20
121.7259466352
 42
0.8477497223
 10
166.6727059582
 20
120.2399232624
 42
1.0
 72
     1
 10
163.8589096207
 20
122.8182925638
 11
158.0582066971
 21
123.1222945223
 72
     4
 94
        3
 73
     1
 74
     0
 95
        8
 96
        4
 40
0.0
 40
0.0
 40
0.0
 40
0.0
 40
1.0
 40
1.0
 40
1.0
 40
1.0
 10
158.0582066971
 20
123.1222945223
 42
1.0
 10
156.9616353611
 20
123.1797633909
 42
0.9106836024999999
 10
156.0407111613
 20
123.777818559
 42
0.9106836024999999
 10
155.5421949933
 20
124.7562116274
 42
1.0
 72
     1
 10
155.5421949933
 20
124.7562116274
 11
142.3846280026
 21
150.5793908303
 72
     4
 94
        3
 73
     1
 74
     0
 95
        8
 96
        4
 40
0.0
 40
0.0
 40
0.0
 40
0.0
 40
1.0
 40
1.0
 40
1.0
 40
1.0
 10
141.8427064884
 20
152.6748458455
 42
1.0
 10
141.8682895475
 20
151.942242886
 42
0.9841973380999998
 10
142.0518304876
 20
151.2325427293
 42
0.9841973380999998
 10
142.3846280026
 20
150.5793908303
 42
1.0
 72
     1
 10
141.8427064884
 20
152.6748458455
 11
140.3857433774
 21
194.396810515
 72
     4
 94
        3
 73
     1
 74
     0
 95
        8
 96
        4
 40
0.0
 40
0.0
 40
0.0
 40
0.0
 40
1.0
 40
1.0
 40
1.0
 40
1.0
 10
139.879123113
 20
196.4216090244
 42
1.0
 10
140.1897120376
 20
195.7874752193
 42
0.9853165993000001
 10
140.3611021938
 20
195.1024813674
 42
0.9853165993000001
 10
140.3857438105
 20
194.3968015863
 42
1.0
 72
     1
 10
139.7404557791
 20
196.7047272337
 11
139.8791230119
 21
196.421608973
 72
     4
 94
        3
 73
     1
 74
     0
 95
        8
 96
        4
 40
0.0
 40
0.0
 40
0.0
 40
0.0
 40
1.0
 40
1.0
 40
1.0
 40
1.0
 10
139.2338322393
 20
198.7295241018
 42
1.0
 10
139.2584762601
 20
198.0238477456
 42
0.9853167356
 10
139.4298673816
 20
197.3388575771
 42
0.9853167356
 10
139.7404558604
 20
196.7047272715
 42
1.0
 72
     1
 10
139.2338318296
 20
198.729533009
 11
138.9468151448
 21
206.9486154927
 72
     4
 94
        3
 73
     1
 74
     0
 95
        8
 96
        4
 40
0.0
 40
0.0
 40
0.0
 40
0.0
 40
1.0
 40
1.0
 40
1.0
 40
1.0
 10
136.2967825132
 20
209.8236483068
 42
1.0
 10
137.8397452433
 20
209.6433747325
 42
0.8389989303
 10
138.8926002336
 20
208.5011274223
 42
0.8389989303
 10
138.9468151448
 20
206.9486154927
 42
1.0
 72
     4
 94
        3
 73
     1
 74
     0
 95
        8
 96
        4
 40
0.0
 40
0.0
 40
0.0
 40
0.0
 40
1.0
 40
1.0
 40
1.0
 40
1.0
 10
134.5300940921
 20
211.7403368495
 42
1.0
 10
134.5662373663
 20
210.7053288965
 42
0.8389989303
 10
135.2681406931
 20
209.9438306897
 42
0.8389989303
 10
136.2967825132
 20
209.8236483068
 42
1.0
 72
     1
 10
134.1752998654
 20
221.9003141904
 11
134.5300940921
 21
211.7403368495
 72
     4
 94
        3
 73
     1
 74
     0
 95
        8
 96
        4
 40
0.0
 40
0.0
 40
0.0
 40
0.0
 40
1.0
 40
1.0
 40
1.0
 40
1.0
 10
134.1752998654
 20
221.9003141904
 42
1.0
 10
134.135535351
 20
223.0390208957
 42
0.8128932001999999
 10
133.3159190088
 20
223.830515197
 42
0.8128932001999999
 10
132.1765182113
 20
223.830515197
 42
1.0
 72
     1
 10
63.22645873839999
 20
223.830515197
 11
132.1765182113
 21
223.830515197
 72
     4
 94
        3
 73
     1
 74
     0
 95
        8
 96
        4
 40
0.0
 40
0.0
 40
0.0
 40
0.0
 40
1.0
 40
1.0
 40
1.0
 40
1.0
 10
63.22645873839999
 20
223.830515197
 42
1.0
 10
62.10295788519999
 20
223.830515197
 42
0.8169162473
 10
61.28799916039999
 20
224.6038821502
 42
0.8169162473
 10
61.2291996689
 20
225.7258432845
 42
1.0
 72
     1
 10
61.2291996689
 20
225.7258432845
 11
61.11889848789999
 21
227.830515197
 72
     1
 10
61.2291996689
 20
229.9351871095
 11
61.11889848789999
 21
227.830515197
 72
     4
 94
        3
 73
     1
 74
     0
 95
        8
 96
        4
 40
0.0
 40
0.0
 40
0.0
 40
0.0
 40
1.0
 40
1.0
 40
1.0
 40
1.0
 10
63.22645873839999
 20
231.830515197
 42
1.0
 10
62.10295788519999
 20
231.830515197
 42
0.8169162473
 10
61.28799916039999
 20
231.0571482439
 42
0.8169162473
 10
61.2291996689
 20
229.9351871095
 42
1.0
 72
     1
 10
63.22645873839999
 20
231.830515197
 11
146.328529605
 21
231.830515197
 72
     4
 94
        3
 73
     1
 74
     0
 95
        8
 96
        4
 40
0.0
 40
0.0
 40
0.0
 40
0.0
 40
1.0
 40
1.0
 40
1.0
 40
1.0
 10
146.328529605
 20
231.830515197
 42
1.0
 10
146.9143160426
 20
231.830515197
 42
0.8047378541
 10
147.328529605
 20
231.4163016347
 42
0.8047378541
 10
147.328529605
 20
230.830515197
 42
1.0
 72
     1
 10
147.328529605
 20
227.4353979146
 11
147.328529605
 21
230.830515197
 72
     4
 94
        3
 73
     1
 74
     0
 95
        8
 96
        4
 40
0.0
 40
0.0
 40
0.0
 40
0.0
 40
1.0
 40
1.0
 40
1.0
 40
1.0
 10
147.328529605
 20
227.4353979146
 42
1.0
 10
147.328529605
 20
226.8576859799
 42
0.8088336328
 10
146.9236059579
 20
226.445632683
 42
0.8088336328
 10
146.3459820114
 20
226.4355502195
 42
1.0
 72
     1
 10
141.3110771986
 20
226.3476656291
 11
146.3459820114
 21
226.4355502195
 72
     4
 94
        3
 73
     1
 74
     0
 95
        8
 96
        4
 40
0.0
 40
0.0
 40
0.0
 40
0.0
 40
1.0
 40
1.0
 40
1.0
 40
1.0
 10
140.328529605
 20
225.3478179339
 42
1.0
 10
140.328529605
 20
225.9255298686
 42
0.8088336328
 10
140.7334532522
 20
226.3375831656
 42
0.8088336328
 10
141.3110771986
 20
226.3476656291
 42
1.0
 72
     1
 10
140.328529605
 20
225.3478179339
 11
140.328529605
 21
216.3132124601
 72
     4
 94
        3
 73
     1
 74
     0
 95
        8
 96
        4
 40
0.0
 40
0.0
 40
0.0
 40
0.0
 40
1.0
 40
1.0
 40
1.0
 40
1.0
 10
141.3110771986
 20
215.313364765
 42
1.0
 10
140.7334532522
 20
215.3234472285
 42
0.8088336328
 10
140.328529605
 20
215.7355005254
 42
0.8088336328
 10
140.328529605
 20
216.3132124601
 42
1.0
 72
     1
 10
145.387543472
 20
215.2422097815
 11
141.3110771986
 21
215.313364765
 72
     1
 10
146.3325062615
 20
215.2422097815
 11
145.387543472
 21
215.2422097815
 72
     4
 94
        3
 73
     1
 74
     0
 95
        8
 96
        4
 40
0.0
 40
0.0
 40
0.0
 40
0.0
 40
1.0
 40
1.0
 40
1.0
 40
1.0
 10
146.3325062615
 20
215.2422097815
 42
1.0
 10
146.9164436751
 20
215.2422097815
 42
0.8056760909999999
 10
147.3301715875
 20
214.8301271229
 42
0.8056760909999999
 10
147.3324983231
 20
214.2461943449
 42
1.0
 72
     1
 10
147.3324983231
 20
214.2461943449
 11
147.5756849538
 21
153.2144882056
 72
     4
 94
        3
 73
     1
 74
     0
 95
        8
 96
        4
 40
0.0
 40
0.0
 40
0.0
 40
0.0
 40
1.0
 40
1.0
 40
1.0
 40
1.0
 10
147.902641566
 20
151.8644703964
 42
1.0
 10
147.6885597114
 20
152.2846296933
 42
0.9818887202999999
 10
147.5775638977
 20
152.7429361461
 42
0.9818887202999999
 10
147.5756849538
 20
153.2144882056
 42
1.0
 72
     1
 10
159.525340496
 20
129.053639374
 11
147.902641566
 21
151.8644703964
 72
     4
 94
        3
 73
     1
 74
     0
 95
        8
 96
        4
 40
0.0
 40
0.0
 40
0.0
 40
0.0
 40
1.0
 40
1.0
 40
1.0
 40
1.0
 10
160.364011064
 20
128.509000339
 42
1.0
 10
159.9984872853
 20
128.5281566285
 42
0.9106836024999999
 10
159.691512552
 20
128.7275083512
 42
0.9106836024999999
 10
159.525340496
 20
129.053639374
 42
1.0
 72
     1
 10
160.364011064
 20
128.509000339
 11
172.8808655613
 21
127.8530197912
 72
     4
 94
        3
 73
     1
 74
     0
 95
        8
 96
        4
 40
0.0
 40
0.0
 40
0.0
 40
0.0
 40
1.0
 40
1.0
 40
1.0
 40
1.0
 10
173.828529605
 20
126.8543902564
 42
1.0
 10
173.828529605
 20
127.416140683
 42
0.8169162473
 10
173.4418461284
 20
127.8236200454
 42
0.8169162473
 10
172.8808655613
 20
127.8530197912
 42
1.0
 72
     1
 10
173.828529605
 20
126.8543902564
 11
173.828529605
 21
117.0304229952
 72
     4
 94
        3
 73
     1
 74
     0
 95
        8
 96
        4
 40
0.0
 40
0.0
 40
0.0
 40
0.0
 40
1.0
 40
1.0
 40
1.0
 40
1.0
 10
173.828529605
 20
117.0304229952
 42
1.0
 10
173.828529605
 20
116.4527110605
 42
0.8088336328
 10
174.2334532522
 20
116.0406577636
 42
0.8088336328
 10
174.8110771986
 20
116.0305753001
 42
1.0
 72
     1
 10
174.8110771986
 20
116.0305753001
 11
180.3459820114
 21
115.9339631772
 72
     4
 94
        3
 73
     1
 74
     0
 95
        8
 96
        4
 40
0.0
 40
0.0
 40
0.0
 40
0.0
 40
1.0
 40
1.0
 40
1.0
 40
1.0
 10
181.2031066768
 20
115.4190020105
 42
1.0
 10
181.0256422614
 20
115.7390899066
 42
0.9106982579
 10
180.7119179084
 20
115.9275757424
 42
0.9106982579
 10
180.3459820114
 20
115.9339631772
 42
1.0
 72
     4
 94
        3
 73
     1
 74
     0
 95
        8
 96
        4
 40
0.0
 40
0.0
 40
0.0
 40
0.0
 40
1.0
 40
1.0
 40
1.0
 40
1.0
 10
182.0602313422
 20
114.9040408438
 42
1.0
 10
181.6942954452
 20
114.9104282787
 42
0.9106982579
 10
181.3805710922
 20
115.0989141144
 42
0.9106982579
 10
181.2031066768
 20
115.4190020105
 42
1.0
 72
     1
 10
186.8459820114
 20
114.8205052552
 11
182.0602313422
 21
114.9040408438
 72
     4
 94
        3
 73
     1
 74
     0
 95
        8
 96
        4
 40
0.0
 40
0.0
 40
0.0
 40
0.0
 40
1.0
 40
1.0
 40
1.0
 40
1.0
 10
187.828529605
 20
113.82065756
 42
1.0
 10
187.828529605
 20
114.3983694948
 42
0.8088336328
 10
187.4236059579
 20
114.8104227917
 42
0.8088336328
 10
186.8459820114
 20
114.8205052552
 42
1.0
 72
     1
 10
187.828529605
 20
113.82065756
 11
187.828529605
 21
42.5939264394
 72
     4
 94
        3
 73
     1
 74
     0
 95
        8
 96
        4
 40
0.0
 40
0.0
 40
0.0
 40
0.0
 40
1.0
 40
1.0
 40
1.0
 40
1.0
 10
187.828529605
 20
42.5939264394
 42
1.0
 10
187.828529605
 20
42.0321760128
 42
0.8169162473
 10
188.2152130816
 20
41.62469665039999
 42
0.8169162473
 10
188.7761936488
 20
41.5952969047
 42
1.0
 72
     1
 10
188.7761936488
 20
41.5952969047
 11
192.8808655613
 21
41.3801801651
 72
     4
 94
        3
 73
     1
 74
     0
 95
        8
 96
        4
 40
0.0
 40
0.0
 40
0.0
 40
0.0
 40
1.0
 40
1.0
 40
1.0
 40
1.0
 10
193.828529605
 20
40.3815506303
 42
1.0
 10
193.828529605
 20
40.94330105689999
 42
0.8169162473
 10
193.4418461284
 20
41.35078041929999
 42
0.8169162473
 10
192.8808655613
 20
41.3801801651
 42
1.0
 72
     1
 10
193.828529605
 20
40.3815506303
 11
193.828529605
 21
36.330515197
 72
     4
 94
        3
 73
     1
 74
     0
 95
        8
 96
        4
 40
0.0
 40
0.0
 40
0.0
 40
0.0
 40
1.0
 40
1.0
 40
1.0
 40
1.0
 10
192.828529605
 20
35.330515197
 42
1.0
 10
193.4143160426
 20
35.330515197
 42
0.8047378541
 10
193.8285296049999
 20
35.7447287594
 42
0.8047378541
 10
193.828529605
 20
36.330515197
 42
1.0
 97
        0
 75
     0
 76
     0
 52
45.0
 41
5.0
 77
     0
 78
     1
 53
45.0
 43
0.0
 44
0.0
 45
-3.535533905899999
 46
3.535533905899999
 79
     0
 98
        1
 10
0.0
 20
0.0
  0
HATCH
  5
24D
330
21A
100
AcDbEntity
  8
0
  6
Continuous
 62
     1
100
AcDbHatch
 10
0.0
 20
0.0
 30
0.0
210
0.0
220
0.0
230
1.0
  2
DEFAULT__2
 70
     0
 71
     0
 91
        2
 92
        1
 93
       14
 72
     1
 10
73.3035976239
 20
238.830515197
 11
134.328529605
 21
238.830515197
 72
     1
 10
134.328529605
 20
238.830515197
 11
133.8648548943
 21
232.1544999492
 72
     1
 10
133.8648548943
 20
232.1544999492
 11
119.9531547967
 21
232.0330943817
 72
     1
 10
119.9531547967
 20
232.0330943817
 11
118.828529605
 21
232.1314863367
 72
     1
 10
117.4546857339
 20
232.0112905726
 11
118.828529605
 21
232.1314863367
 72
     1
 10
117.4546857339
 20
232.0112905726
 11
106.3136733644
 21
231.9140644306
 72
     1
 10
106.3136733644
 20
231.9140644306
 11
103.828529605
 21
232.1314863367
 72
     1
 10
100.7926741503
 20
231.8658834003
 11
103.828529605
 21
232.1314863367
 72
     1
 10
100.7926741503
 20
231.8658834003
 11
95.79219165519999
 21
231.8222448507
 72
     1
 10
95.79219165519999
 20
231.8222448507
 11
88.82852960500001
 21
232.4314863367
 72
     1
 10
80.32170928920001
 20
231.6872359964
 11
88.82852960500001
 21
232.4314863367
 72
     1
 10
80.32170928920001
 20
231.6872359964
 11
76.70649691859999
 21
231.6556865161
 72
     4
 94
        3
 73
     1
 74
     0
 95
        8
 96
        4
 40
0.0
 40
0.0
 40
0.0
 40
0.0
 40
1.0
 40
1.0
 40
1.0
 40
1.0
 10
73.69173321789999
 20
234.394105057
 42
1.0
 10
73.8355239598
 20
232.7505693556001
 42
0.8228816729999998
 10
75.0567459977
 20
231.6412893579
 42
0.8228816729999998
 10
76.70649691859999
 20
231.6556865161
 42
1.0
 72
     1
 10
73.3035976239
 20
238.830515197
 11
73.69173321789999
 21
234.394105057
 97
        0
 92
        1
 93
       14
 72
     1
 10
288.328529605
 20
238.830515197
 11
349.3534615862
 21
238.830515197
 72
     1
 10
349.3534615862
 20
238.830515197
 11
348.9653259922
 21
234.394105057
 72
     4
 94
        3
 73
     1
 74
     0
 95
        8
 96
        4
 40
0.0
 40
0.0
 40
0.0
 40
0.0
 40
1.0
 40
1.0
 40
1.0
 40
1.0
 10
348.9653259922
 20
234.394105057
 42
1.0
 10
348.8215352502
 20
232.7505693556001
 42
0.8228816729999998
 10
347.6003132123
 20
231.6412893579
 42
0.8228816729999998
 10
345.9505622914
 20
231.6556865161
 42
1.0
 72
     1
 10
342.3353499208
 20
231.6872359964
 11
345.9505622914
 21
231.6556865161
 72
     1
 10
342.3353499208
 20
231.6872359964
 11
333.828529605
 21
232.4314863367
 72
     1
 10
326.8648675548
 20
231.8222448507
 11
333.828529605
 21
232.4314863367
 72
     1
 10
321.8643850598
 20
231.8658834003
 11
326.8648675548
 21
231.8222448507
 72
     1
 10
321.8643850598
 20
231.8658834003
 11
318.828529605
 21
232.1314863367
 72
     1
 10
316.3433858456
 20
231.9140644306
 11
318.828529605
 21
232.1314863367
 72
     1
 10
305.2023734761
 20
232.0112905726
 11
316.3433858456
 21
231.9140644306
 72
     1
 10
305.2023734761
 20
232.0112905726
 11
303.828529605
 21
232.1314863367
 72
     1
 10
302.7039044133
 20
232.0330943817
 11
303.828529605
 21
232.1314863367
 72
     1
 10
288.7922043157
 20
232.1544999492
 11
302.7039044133
 21
232.0330943817
 72
     1
 10
288.328529605
 20
238.830515197
 11
288.7922043157
 21
232.1544999492
 97
        0
 75
     0
 76
     0
 52
135.0
 41
5.0
 77
     0
 78
     1
 53
135.0
 43
0.0
 44
0.0
 45
-3.535533905899999
 46
-3.535533905899999
 79
     0
 98
        1
 10
0.0
 20
0.0
  0
DIMENSION
  5
24E
330
21A
100
AcDbEntity
  8
ZEICHNUNGSBEMASSUNGEN
  6
Continuous
 62
     7
100
AcDbDimension
  2
*D1
 10
51.1823401847
 20
35.33051519700003
 30
0.0
 11
51.1823401847
 21
128.2165352154
 31
0.0
 70
   160
 71
     2
 42
196.5
  3
DIMSTYLE_2
100
AcDbAlignedDimension
 13
61.7264587396
 23
231.830515197
 33
0.0
 14
181.8112269456
 24
35.330515197
 34
0.0
 50
270.0
100
AcDbRotatedDimension
1001
ACAD
1000
DSTYLE
1002
{
1070
    41
1040
5.0
1070
   140
1040
7.0
1070
   147
1040
1.5
1070
   178
1070
   256
1002
}
  0
DIMENSION
  5
24F
330
21A
100
AcDbEntity
  8
ZEICHNUNGSBEMASSUNGEN
  6
Continuous
 62
     7
100
AcDbDimension
  2
*D2
 10
361.5381607221
 20
283.2497080011475
 30
0.0
 11
209.8368772687363
 21
283.2497080011475
 31
0.0
 70
   160
  1
%%c<>
 71
     2
 42
300.4192622342
  3
DIMSTYLE_2
100
AcDbAlignedDimension
 13
61.11889848789999
 23
227.8704815658
 33
0.0
 14
361.5381607221
 24
229.330515197
 34
0.0
100
AcDbRotatedDimension
1001
ACAD
1000
DSTYLE
1002
{
1070
    41
1040
5.0
1070
   140
1040
7.0
1070
   147
1040
1.5
1070
   178
1070
   256
1002
}
  0
DIMENSION
  5
250
330
21A
100
AcDbEntity
  8
ZEICHNUNGSBEMASSUNGEN
  6
Continuous
 62
     7
100
AcDbDimension
  2
*D3
 10
134.1078957609
 20
272.8317326193
 30
0.0
 11
208.3493629383
 21
272.8317326193
 31
0.0
 70
   160
  1
%%c155
 71
     2
 42
154.4412676882
  3
DIMSTYLE_2
100
AcDbAlignedDimension
 13
288.5491634491
 23
225.330515197
 33
0.0
 14
134.1078957609
 24
225.330515197
 34
0.0
 50
180.0
100
AcDbRotatedDimension
1001
ACAD
1000
DSTYLE
1002
{
1070
    41
1040
5.0
1070
   140
1040
7.0
1070
   147
1040
1.5
1070
   178
1070
   256
1002
}
1001
ACAD_DSTYLE_DIMINSPECT
1070
   396
1000
100%
1070
   395
1000

1070
   394
1070
    33
1070
   393
1070
     0
  0
DIMENSION
  5
251
330
21A
100
AcDbEntity
  8
ZEICHNUNGSBEMASSUNGEN
  6
Continuous
 62
     7
100
AcDbDimension
  2
*D4
 10
370.1453631665
 20
109.6149255519999
 30
0.0
 11
370.1453631665
 21
70.0142295496
 31
0.0
 70
   160
 71
     2
 42
74.28441035499999
  3
DIMSTYLE_2
100
AcDbAlignedDimension
 13
240.8458322644
 23
35.330515197
 33
0.0
 14
182.5318903991
 24
109.614925552
 34
0.0
 50
90.0
100
AcDbRotatedDimension
1001
ACAD
1000
DSTYLE
1002
{
1070
    41
1040
5.0
1070
   140
1040
7.0
1070
   147
1040
1.5
1070
   178
1070
   256
1002
}
  0
LINE
  5
253
330
21A
100
AcDbEntity
  8
0
  6
Continuous
 62
     7
100
AcDbLine
 10
61.2291996689
 20
229.9351871095
 30
0.0
 11
61.11889848789999
 21
227.830515197
 31
0.0
  0
LINE
  5
254
330
21A
100
AcDbEntity
  8
0
  6
Continuous
 62
     7
100
AcDbLine
 10
61.11889848789999
 20
227.830515197
 30
0.0
 11
61.2291996689
 21
225.7258432845
 31
0.0
  0
LINE
  5
255
330
21A
100
AcDbEntity
  8
0
  6
Continuous
 62
     7
100
AcDbLine
 10
73.3035976239
 20
238.830515197
 30
0.0
 11
73.69173321789999
 21
234.394105057
 31
0.0
  0
LINE
  5
256
330
21A
100
AcDbEntity
  8
0
  6
Continuous
 62
     7
100
AcDbLine
 10
239.3458323419
 20
35.330515197
 30
0.0
 11
183.3112268681
 21
35.330515197
 31
0.0
  0
LINE
  5
257
330
21A
100
AcDbEntity
  8
0
  6
Continuous
 62
     9
100
AcDbLine
 10
228.828529605
 20
36.330515197
 30
0.0
 11
193.828529605
 21
36.330515197
 31
0.0
  0
LINE
  5
258
330
21A
100
AcDbEntity
  8
0
  6
Continuous
 62
     7
100
AcDbLine
 10
106.7718214592
 20
239.830515197
 30
0.0
 11
106.7718214592
 21
240.830515197
 31
0.0
  0
LINE
  5
259
330
21A
100
AcDbEntity
  8
0
  6
Continuous
 62
     7
100
AcDbLine
 10
108.2228779755
 20
240.830515197
 30
0.0
 11
108.2228779755
 21
252.2067326193
 31
0.0
  0
LINE
  5
25A
330
21A
100
AcDbEntity
  8
0
  6
Continuous
 62
     7
100
AcDbLine
 10
109.2228779755
 20
252.2067326193
 30
0.0
 11
109.2228779755
 21
260.2067326193
 31
0.0
  0
LINE
  5
25B
330
21A
100
AcDbEntity
  8
0
  6
Continuous
 62
     7
100
AcDbLine
 10
112.2228779755
 20
231.830515197
 30
0.0
 11
112.2228779755
 21
231.9376736056
 31
0.0
  0
LINE
  5
25C
330
21A
100
AcDbEntity
  8
0
  6
Continuous
 62
     9
100
AcDbLine
 10
112.645177007
 20
239.830515197
 30
0.0
 11
112.645177007
 21
240.830515197
 31
0.0
  0
LINE
  5
25D
330
21A
100
AcDbEntity
  8
0
  6
Continuous
 62
     7
100
AcDbLine
 10
233.8808655613
 20
41.5952969047
 30
0.0
 11
229.7761936488
 21
41.3801801651
 31
0.0
  0
LINE
  5
25E
330
21A
100
AcDbEntity
  8
0
  6
Continuous
 62
     9
100
AcDbLine
 10
228.828529605
 20
40.3815506303
 30
0.0
 11
193.828529605
 21
40.3815506303
 31
0.0
  0
LINE
  5
25F
330
21A
100
AcDbEntity
  8
0
  6
Continuous
 62
     9
100
AcDbLine
 10
229.7761936488
 20
41.3801801651
 30
0.0
 11
192.8808655613
 21
41.3801801651
 31
0.0
  0
LINE
  5
260
330
21A
100
AcDbEntity
  8
0
  6
Continuous
 62
     9
100
AcDbLine
 10
188.7761936488
 20
41.5952969047
 30
0.0
 11
233.8808655613
 21
41.5952969047
 31
0.0
  0
LINE
  5
261
330
21A
100
AcDbEntity
  8
0
  6
Continuous
 62
     9
100
AcDbLine
 10
187.828529605
 20
42.5939264394
 30
0.0
 11
234.828529605
 21
42.5939264394
 31
0.0
  0
LINE
  5
262
330
21A
100
AcDbEntity
  8
0
  6
Continuous
 62
     7
100
AcDbLine
 10
188.7761936488
 20
41.5952969047
 30
0.0
 11
192.8808655613
 21
41.3801801651
 31
0.0
  0
LINE
  5
263
330
21A
100
AcDbEntity
  8
0
  6
Continuous
 62
     2
100
AcDbLine
 10
113.0228779755
 20
231.9452005792
 30
0.0
 11
113.0228779755
 21
231.830515197
 31
0.0
  0
LINE
  5
264
330
21A
100
AcDbEntity
  8
0
  6
Continuous
 62
     9
100
AcDbLine
 10
114.5472900396
 20
239.830515197
 30
0.0
 11
114.5472900396
 21
240.830515197
 31
0.0
  0
LINE
  5
265
330
21A
100
AcDbEntity
  8
0
  6
Continuous
 62
     2
100
AcDbLine
 10
119.4228779755
 20
232.0005958649
 30
0.0
 11
119.4228779755
 21
231.830515197
 31
0.0
  0
LINE
  5
266
330
21A
100
AcDbEntity
  8
0
  6
Continuous
 62
     7
100
AcDbLine
 10
120.2228779755
 20
231.830515197
 30
0.0
 11
120.2228779755
 21
232.0065317111
 31
0.0
  0
LINE
  5
267
330
21A
100
AcDbEntity
  8
0
  6
Continuous
 62
     7
100
AcDbLine
 10
123.2228779755
 20
252.2067326193
 30
0.0
 11
123.2228779755
 21
260.2067326193
 31
0.0
  0
LINE
  5
268
330
21A
100
AcDbEntity
  8
0
  6
Continuous
 62
     7
100
AcDbLine
 10
124.2228779755
 20
240.830515197
 30
0.0
 11
124.2228779755
 21
252.2067326193
 31
0.0
  0
LINE
  5
269
330
21A
100
AcDbEntity
  8
0
  6
Continuous
 62
     7
100
AcDbLine
 10
134.1752998654
 20
221.9003141904
 30
0.0
 11
134.5300940921
 21
211.7403368495
 31
0.0
  0
LINE
  5
26A
330
21A
100
AcDbEntity
  8
0
  6
Continuous
 62
     7
100
AcDbLine
 10
125.6739344918
 20
239.830515197
 30
0.0
 11
125.6739344918
 21
240.830515197
 31
0.0
  0
LINE
  5
26B
330
21A
100
AcDbEntity
  8
0
  6
Continuous
 62
     7
100
AcDbLine
 10
134.328529605
 20
238.830515197
 30
0.0
 11
133.8648548943
 21
232.1544999492
 31
0.0
  0
LINE
  5
26C
330
21A
100
AcDbEntity
  8
0
  6
Continuous
 62
     7
100
AcDbLine
 10
139.2338318296
 20
198.729533009
 30
0.0
 11
138.9468151448
 21
206.9486154927
 31
0.0
  0
LINE
  5
26D
330
21A
100
AcDbEntity
  8
0
  6
Continuous
 62
     7
100
AcDbLine
 10
140.3857433774
 20
194.396810515
 30
0.0
 11
141.8427064884
 21
152.6748458455
 31
0.0
  0
LINE
  5
26E
330
21A
100
AcDbEntity
  8
0
  6
Continuous
 62
     7
100
AcDbLine
 10
147.3324983231
 20
214.2461943449
 30
0.0
 11
147.5756849538
 21
153.2144882056
 31
0.0
  0
LINE
  5
26F
330
21A
100
AcDbEntity
  8
0
  6
Continuous
 62
     7
100
AcDbLine
 10
140.328529605
 20
225.3478179339
 30
0.0
 11
140.328529605
 21
216.3132124601
 31
0.0
  0
LINE
  5
270
330
21A
100
AcDbEntity
  8
0
  6
Continuous
 62
     7
100
AcDbLine
 10
147.328529605
 20
227.4353979146
 30
0.0
 11
147.328529605
 21
230.830515197
 31
0.0
  0
LINE
  5
271
330
21A
100
AcDbEntity
  8
0
  6
Continuous
 62
     7
100
AcDbLine
 10
168.5604059283
 20
113.12181394
 30
0.0
 11
172.0788903211
 21
110.4704457756
 31
0.0
  0
LINE
  5
272
330
21A
100
AcDbEntity
  8
0
  6
Continuous
 62
     7
100
AcDbLine
 10
142.3846280026
 20
150.5793908303
 30
0.0
 11
155.5421949933
 21
124.7562116274
 31
0.0
  0
LINE
  5
273
330
21A
100
AcDbEntity
  8
0
  6
Continuous
 62
     7
100
AcDbLine
 10
159.525340496
 20
129.053639374
 30
0.0
 11
147.902641566
 21
151.8644703964
 31
0.0
  0
LINE
  5
274
330
21A
100
AcDbEntity
  8
0
  6
Continuous
 62
     7
100
AcDbLine
 10
173.828529605
 20
126.8543902564
 30
0.0
 11
173.828529605
 21
117.0304229952
 31
0.0
  0
LINE
  5
275
330
21A
100
AcDbEntity
  8
0
  6
Continuous
 62
     7
100
AcDbLine
 10
248.8774223096
 20
109.8681798247
 30
0.0
 11
244.4703282603
 21
109.7142807093
 31
0.0
  0
LINE
  5
276
330
21A
100
AcDbEntity
  8
0
  6
Continuous
 62
     7
100
AcDbLine
 10
173.7796369005
 20
109.8681798247
 30
0.0
 11
178.1867309497
 21
109.7142807093
 31
0.0
  0
LINE
  5
277
330
21A
100
AcDbEntity
  8
0
  6
Continuous
 62
     7
100
AcDbLine
 10
139.7404557791
 20
196.7047272337
 30
0.0
 11
139.8791230119
 21
196.421608973
 31
0.0
  0
LINE
  5
278
330
21A
100
AcDbEntity
  8
0
  6
Continuous
 62
     7
100
AcDbLine
 10
166.6727059582
 20
120.2399232624
 30
0.0
 11
167.3950467915
 21
115.1002011673
 31
0.0
  0
LINE
  5
279
330
21A
100
AcDbEntity
  8
0
  6
Continuous
 62
     7
100
AcDbLine
 10
181.081575545
 20
106.7684654475
 30
0.0
 11
182.311379173
 21
36.3130627906
 31
0.0
  0
LINE
  5
27A
330
21A
100
AcDbEntity
  8
0
  6
Continuous
 62
     7
100
AcDbLine
 10
181.6151647156
 20
238.830515197
 30
0.0
 11
181.6151647156
 21
239.830515197
 31
0.0
  0
LINE
  5
27B
330
21A
100
AcDbEntity
  8
0
  6
Continuous
 62
     7
100
AcDbLine
 10
181.7884249867
 20
238.830515197
 30
0.0
 11
181.7884249867
 21
239.830515197
 31
0.0
  0
LINE
  5
27C
330
21A
100
AcDbEntity
  8
0
  6
Continuous
 62
     7
100
AcDbLine
 10
183.0012429188
 20
238.830515197
 30
0.0
 11
183.0012429188
 21
239.830515197
 31
0.0
  0
LINE
  5
27D
330
21A
100
AcDbEntity
  8
0
  6
Continuous
 62
     7
100
AcDbLine
 10
183.1745023968
 20
238.830515197
 30
0.0
 11
183.1745023968
 21
239.830515197
 31
0.0
  0
LINE
  5
27E
330
21A
100
AcDbEntity
  8
0
  6
Continuous
 62
     7
100
AcDbLine
 10
184.0069683407
 20
238.830515197
 30
0.0
 11
184.0069683407
 21
239.830515197
 31
0.0
  0
LINE
  5
27F
330
21A
100
AcDbEntity
  8
0
  6
Continuous
 62
     7
100
AcDbLine
 10
184.5976908212
 20
238.830515197
 30
0.0
 11
184.5976908212
 21
239.830515197
 31
0.0
  0
LINE
  5
280
330
21A
100
AcDbEntity
  8
0
  6
Continuous
 62
     7
100
AcDbLine
 10
184.805602512
 20
238.830515197
 30
0.0
 11
184.805602512
 21
239.830515197
 31
0.0
  0
LINE
  5
281
330
21A
100
AcDbEntity
  8
0
  6
Continuous
 62
     7
100
AcDbLine
 10
185.1107029659
 20
238.830515197
 30
0.0
 11
185.1107029659
 21
239.830515197
 31
0.0
  0
LINE
  5
282
330
21A
100
AcDbEntity
  8
0
  6
Continuous
 62
     7
100
AcDbLine
 10
185.498641217
 20
238.830515197
 30
0.0
 11
185.498641217
 21
239.830515197
 31
0.0
  0
LINE
  5
283
330
21A
100
AcDbEntity
  8
0
  6
Continuous
 62
     7
100
AcDbLine
 10
185.671900695
 20
238.830515197
 30
0.0
 11
185.671900695
 21
239.830515197
 31
0.0
  0
LINE
  5
284
330
21A
100
AcDbEntity
  8
0
  6
Continuous
 62
     7
100
AcDbLine
 10
186.3928253237
 20
238.830515197
 30
0.0
 11
186.3928253237
 21
239.830515197
 31
0.0
  0
LINE
  5
285
330
21A
100
AcDbEntity
  8
0
  6
Continuous
 62
     7
100
AcDbLine
 10
186.4342438257
 20
238.830515197
 30
0.0
 11
186.4342438257
 21
239.830515197
 31
0.0
  0
LINE
  5
286
330
21A
100
AcDbEntity
  8
0
  6
Continuous
 62
     7
100
AcDbLine
 10
186.6421555165
 20
238.830515197
 30
0.0
 11
186.6421555165
 21
239.830515197
 31
0.0
  0
LINE
  5
287
330
21A
100
AcDbEntity
  8
0
  6
Continuous
 62
     7
100
AcDbLine
 10
187.0165603961
 20
238.830515197
 30
0.0
 11
187.0165603961
 21
239.830515197
 31
0.0
  0
LINE
  5
288
330
21A
100
AcDbEntity
  8
0
  6
Continuous
 62
     7
100
AcDbLine
 10
187.4881544354
 20
238.830515197
 30
0.0
 11
187.4881544354
 21
239.830515197
 31
0.0
  0
LINE
  5
289
330
21A
100
AcDbEntity
  8
0
  6
Continuous
 62
     7
100
AcDbLine
 10
187.828529605
 20
113.82065756
 30
0.0
 11
187.828529605
 21
42.5939264394
 31
0.0
  0
LINE
  5
28A
330
21A
100
AcDbEntity
  8
0
  6
Continuous
 62
     7
100
AcDbLine
 10
264.5988525129
 20
123.1222945223
 30
0.0
 11
258.7981495894
 21
122.8182925638
 31
0.0
  0
LINE
  5
28B
330
21A
100
AcDbEntity
  8
0
  6
Continuous
 62
     7
100
AcDbLine
 10
235.8110771986
 20
114.8205052552
 30
0.0
 11
240.5968278679
 21
114.9040408438
 31
0.0
  0
LINE
  5
28C
330
21A
100
AcDbEntity
  8
0
  6
Continuous
 62
     7
100
AcDbLine
 10
247.8459820114
 20
116.0305753001
 30
0.0
 11
242.3110771986
 21
115.9339631772
 31
0.0
  0
LINE
  5
28D
330
21A
100
AcDbEntity
  8
0
  6
Continuous
 62
     9
100
AcDbLine
 10
187.828529605
 20
113.82065756
 30
0.0
 11
234.828529605
 21
113.82065756
 31
0.0
  0
LINE
  5
28E
330
21A
100
AcDbEntity
  8
0
  6
Continuous
 62
     9
100
AcDbLine
 10
186.8459820114
 20
114.8205052552
 30
0.0
 11
235.8110771986
 21
114.8205052552
 31
0.0
  0
LINE
  5
28F
330
21A
100
AcDbEntity
  8
0
  6
Continuous
 62
     9
100
AcDbLine
 10
186.8459820114
 20
114.9040408438
 30
0.0
 11
235.8110771986
 21
114.9040408438
 31
0.0
  0
LINE
  5
290
330
21A
100
AcDbEntity
  8
0
  6
Continuous
 62
     9
100
AcDbLine
 10
241.4539525332
 20
115.4190020105
 30
0.0
 11
181.2031066768
 21
115.4190020105
 31
0.0
  0
LINE
  5
291
330
21A
100
AcDbEntity
  8
0
  6
Continuous
 62
     9
100
AcDbLine
 10
242.3110771986
 20
115.9339631772
 30
0.0
 11
180.3459820114
 21
115.9339631772
 31
0.0
  0
LINE
  5
292
330
21A
100
AcDbEntity
  8
0
  6
Continuous
 62
     9
100
AcDbLine
 10
180.3459820114
 20
116.0305753001
 30
0.0
 11
247.8459820114
 21
116.0305753001
 31
0.0
  0
LINE
  5
293
330
21A
100
AcDbEntity
  8
0
  6
Continuous
 62
     9
100
AcDbLine
 10
173.828529605
 20
117.0304229952
 30
0.0
 11
248.828529605
 21
117.0304229952
 31
0.0
  0
LINE
  5
294
330
21A
100
AcDbEntity
  8
0
  6
Continuous
 62
     7
100
AcDbLine
 10
186.8459820114
 20
114.8205052552
 30
0.0
 11
182.0602313422
 21
114.9040408438
 31
0.0
  0
LINE
  5
295
330
21A
100
AcDbEntity
  8
0
  6
Continuous
 62
     7
100
AcDbLine
 10
174.8110771986
 20
116.0305753001
 30
0.0
 11
180.3459820114
 21
115.9339631772
 31
0.0
  0
LINE
  5
296
330
21A
100
AcDbEntity
  8
0
  6
Continuous
 62
     7
100
AcDbLine
 10
163.8589096207
 20
122.8182925638
 30
0.0
 11
158.0582066971
 21
123.1222945223
 31
0.0
  0
LINE
  5
297
330
21A
100
AcDbEntity
  8
RUNDUNGEN
  6
Continuous
 62
     9
100
AcDbLine
 10
193.8456941868
 20
156.2823820181
 30
0.0
 11
193.8488561897
 21
153.2144882056
 31
0.0
  0
LINE
  5
298
330
21A
100
AcDbEntity
  8
RUNDUNGEN
  6
Continuous
 62
     9
100
AcDbLine
 10
195.0857942665
 20
156.2863748689
 30
0.0
 11
195.0889585606
 21
153.2184727689
 31
0.0
  0
LINE
  5
299
330
21A
100
AcDbEntity
  8
0
  6
Continuous
 62
     7
100
AcDbLine
 10
188.0569380309
 20
238.830515197
 30
0.0
 11
188.0569380309
 21
239.830515197
 31
0.0
  0
LINE
  5
29A
330
21A
100
AcDbEntity
  8
0
  6
Continuous
 62
     7
100
AcDbLine
 10
188.3899244084999
 20
238.830515197
 30
0.0
 11
188.3899244084999
 21
239.830515197
 31
0.0
  0
LINE
  5
29B
330
21A
100
AcDbEntity
  8
0
  6
Continuous
 62
     7
100
AcDbLine
 10
188.9865931345
 20
238.830515197
 30
0.0
 11
188.9865931345
 21
239.830515197
 31
0.0
  0
LINE
  5
29C
330
21A
100
AcDbEntity
  8
0
  6
Continuous
 62
     7
100
AcDbLine
 10
189.2732455586999
 20
238.830515197
 30
0.0
 11
189.2732455586999
 21
239.830515197
 31
0.0
  0
LINE
  5
29D
330
21A
100
AcDbEntity
  8
0
  6
Continuous
 62
     7
100
AcDbLine
 10
190.5900196336
 20
238.830515197
 30
0.0
 11
190.5900196336
 21
239.830515197
 31
0.0
  0
LINE
  5
29E
330
21A
100
AcDbEntity
  8
0
  6
Continuous
 62
     7
100
AcDbLine
 10
191.4224855776
 20
238.830515197
 30
0.0
 11
191.4224855776
 21
239.830515197
 31
0.0
  0
LINE
  5
29F
330
21A
100
AcDbEntity
  8
0
  6
Continuous
 62
     7
100
AcDbLine
 10
193.828529605
 20
40.3815506303
 30
0.0
 11
193.828529605
 21
36.330515197
 31
0.0
  0
LINE
  5
2A0
330
21A
100
AcDbEntity
  8
RUNDUNGEN
  6
Continuous
 62
     9
100
AcDbLine
 10
196.3982915861
 20
227.4353979146
 30
0.0
 11
196.3982915861
 21
230.830515197
 31
0.0
  0
LINE
  5
2A1
330
21A
100
AcDbEntity
  8
RUNDUNGEN
  6
Continuous
 62
     9
100
AcDbLine
 10
197.1309324434
 20
227.4353988125
 30
0.0
 11
197.1309324434
 21
230.830515197
 31
0.0
  0
LINE
  5
2A2
330
21A
100
AcDbEntity
  8
0
  6
Continuous
 62
     7
100
AcDbLine
 10
197.8607692475
 20
238.830515197
 30
0.0
 11
197.8607692475
 21
239.830515197
 31
0.0
  0
LINE
  5
2A3
330
21A
100
AcDbEntity
  8
0
  6
Continuous
 62
     7
100
AcDbLine
 10
198.099024191
 20
238.830515197
 30
0.0
 11
198.099024191
 21
239.830515197
 31
0.0
  0
LINE
  5
2A4
330
21A
100
AcDbEntity
  8
RUNDUNGEN
  6
Continuous
 62
     9
100
AcDbLine
 10
198.8337986725
 20
227.3332478065
 30
0.0
 11
198.8337986725
 21
230.830515197
 31
0.0
  0
LINE
  5
2A5
330
21A
100
AcDbEntity
  8
RUNDUNGEN
  6
Continuous
 62
     9
100
AcDbLine
 10
199.4291850275
 20
151.3047221239
 30
0.0
 11
199.4291850275
 21
155.4070423525
 31
0.0
  0
LINE
  5
2A6
330
21A
100
AcDbEntity
  8
RUNDUNGEN
  6
Continuous
 62
     9
100
AcDbLine
 10
199.635027283
 20
227.3332487083
 30
0.0
 11
199.635027283
 21
230.830515197
 31
0.0
  0
LINE
  5
2A7
330
21A
100
AcDbEntity
  8
RUNDUNGEN
  6
Continuous
 62
     9
100
AcDbLine
 10
196.3932299884
 20
210.8099798099
 30
0.0
 11
196.397150973
 21
214.2461943449
 31
0.0
  0
LINE
  5
2A8
330
21A
100
AcDbEntity
  8
0
  6
Continuous
 62
     7
100
AcDbLine
 10
262.293048146
 20
128.509000339
 30
0.0
 11
249.7761936488
 21
127.8530197912
 31
0.0
  0
LINE
  5
2A9
330
21A
100
AcDbEntity
  8
0
  6
Continuous
 62
     9
100
AcDbLine
 10
248.828529605
 20
126.8543902564
 30
0.0
 11
173.828529605
 21
126.8543902564
 31
0.0
  0
LINE
  5
2AA
330
21A
100
AcDbEntity
  8
0
  6
Continuous
 62
     9
100
AcDbLine
 10
249.7761936488
 20
127.8530197912
 30
0.0
 11
172.8808655613
 21
127.8530197912
 31
0.0
  0
LINE
  5
2AB
330
21A
100
AcDbEntity
  8
RUNDUNGEN
  6
Continuous
 62
     9
100
AcDbLine
 10
221.9706665629
 20
128.2730796027
 30
0.0
 11
200.6863926471
 21
128.2730796027
 31
0.0
  0
LINE
  5
2AC
330
21A
100
AcDbEntity
  8
0
  6
Continuous
 62
     9
100
AcDbLine
 10
160.364011064
 20
128.509000339
 30
0.0
 11
197.1735674933
 21
128.5090003392
 31
0.0
  0
LINE
  5
2AD
330
21A
100
AcDbEntity
  8
0
  6
Continuous
 62
     9
100
AcDbLine
 10
225.4834917167
 20
128.5090003392
 30
0.0
 11
262.293048146
 21
128.509000339
 31
0.0
  0
LINE
  5
2AE
330
21A
100
AcDbEntity
  8
0
  6
Continuous
 62
     9
100
AcDbLine
 10
263.131718714
 20
129.053639374
 30
0.0
 11
225.7164253428
 21
129.0536393733
 31
0.0
  0
LINE
  5
2AF
330
21A
100
AcDbEntity
  8
0
  6
Continuous
 62
     9
100
AcDbLine
 10
196.9406338673
 20
129.0536393733
 30
0.0
 11
159.525340496
 21
129.053639374
 31
0.0
  0
LINE
  5
2B0
330
21A
100
AcDbEntity
  8
RUNDUNGEN
  6
Continuous
 62
     9
100
AcDbLine
 10
222.1835492542
 20
129.0809001419
 30
0.0
 11
200.4735099905
 21
129.0809001419
 31
0.0
  0
LINE
  5
2B1
330
21A
100
AcDbEntity
  8
0
  6
Continuous
 62
     7
100
AcDbLine
 10
160.364011064
 20
128.509000339
 30
0.0
 11
172.8808655613
 21
127.8530197912
 31
0.0
  0
LINE
  5
2B2
330
21A
100
AcDbEntity
  8
RUNDUNGEN
  6
Continuous
 62
     9
100
AcDbLine
 10
201.2188495007
 20
151.3132124601
 30
0.0
 11
201.2188495007
 21
155.3815506303
 31
0.0
  0
LINE
  5
2B3
330
21A
100
AcDbEntity
  8
0
  6
Continuous
 62
     7
100
AcDbLine
 10
202.828529605
 20
239.830515197
 30
0.0
 11
202.828529605
 21
240.830515197
 31
0.0
  0
LINE
  5
2B4
330
21A
100
AcDbEntity
  8
0
  6
Continuous
 62
     7
100
AcDbLine
 10
203.328529605
 20
240.830515197
 30
0.0
 11
203.328529605
 21
252.2067326193
 31
0.0
  0
LINE
  5
2B5
330
21A
100
AcDbEntity
  8
0
  6
Continuous
 62
     7
100
AcDbLine
 10
204.328529605
 20
252.2067326193
 30
0.0
 11
204.328529605
 21
260.2067326193
 31
0.0
  0
LINE
  5
2B6
330
21A
100
AcDbEntity
  8
0
  6
Continuous
 62
     7
100
AcDbLine
 10
207.328529605
 20
231.830515197
 30
0.0
 11
207.328529605
 21
231.9919353086
 31
0.0
  0
LINE
  5
2B7
330
21A
100
AcDbEntity
  8
0
  6
Continuous
 62
     2
100
AcDbLine
 10
208.128529605
 20
231.9994342231
 30
0.0
 11
208.128529605
 21
231.830515197
 31
0.0
  0
LINE
  5
2B8
330
21A
100
AcDbEntity
  8
0
  6
CENTER
100
AcDbLine
 10
211.328529605
 20
32.330515197
 30
0.0
 11
211.328529605
 21
260.2067326193
 31
0.0
  0
LINE
  5
2B9
330
21A
100
AcDbEntity
  8
RUNDUNGEN
  6
Continuous
 62
     9
100
AcDbLine
 10
199.472256452
 20
149.0384906294
 30
0.0
 11
223.1848027472
 21
149.0384906294
 31
0.0
  0
LINE
  5
2BA
330
21A
100
AcDbEntity
  8
0
  6
Continuous
 62
     2
100
AcDbLine
 10
214.528529605
 20
231.9994342328
 30
0.0
 11
214.528529605
 21
231.830515197
 31
0.0
  0
LINE
  5
2BB
330
21A
100
AcDbEntity
  8
0
  6
Continuous
 62
     7
100
AcDbLine
 10
215.328529605
 20
231.830515197
 30
0.0
 11
215.328529605
 21
231.9919352917
 31
0.0
  0
LINE
  5
2BC
330
21A
100
AcDbEntity
  8
0
  6
Continuous
 62
     7
100
AcDbLine
 10
218.328529605
 20
252.2067326193
 30
0.0
 11
218.328529605
 21
260.2067326193
 31
0.0
  0
LINE
  5
2BD
330
21A
100
AcDbEntity
  8
0
  6
Continuous
 62
     7
100
AcDbLine
 10
219.328529605
 20
240.830515197
 30
0.0
 11
219.328529605
 21
252.2067326193
 31
0.0
  0
LINE
  5
2BE
330
21A
100
AcDbEntity
  8
0
  6
Continuous
 62
     7
100
AcDbLine
 10
219.828529605
 20
239.830515197
 30
0.0
 11
219.828529605
 21
240.830515197
 31
0.0
  0
LINE
  5
2BF
330
21A
100
AcDbEntity
  8
RUNDUNGEN
  6
Continuous
 62
     9
100
AcDbLine
 10
221.4382097093
 20
155.3815506303
 30
0.0
 11
221.4382097093
 21
151.3132124601
 31
0.0
  0
LINE
  5
2C0
330
21A
100
AcDbEntity
  8
RUNDUNGEN
  6
Continuous
 62
     9
100
AcDbLine
 10
223.022031927
 20
230.830515197
 30
0.0
 11
223.022031927
 21
227.3332487103
 31
0.0
  0
LINE
  5
2C1
330
21A
100
AcDbEntity
  8
RUNDUNGEN
  6
Continuous
 62
     9
100
AcDbLine
 10
223.2278741826
 20
155.4070423525
 30
0.0
 11
223.2278741826
 21
151.3047221239
 31
0.0
  0
LINE
  5
2C2
330
21A
100
AcDbEntity
  8
RUNDUNGEN
  6
Continuous
 62
     9
100
AcDbLine
 10
223.8232605375
 20
230.830515197
 30
0.0
 11
223.8232605375
 21
227.3332475496
 31
0.0
  0
LINE
  5
2C3
330
21A
100
AcDbEntity
  8
RUNDUNGEN
  6
Continuous
 62
     9
100
AcDbLine
 10
199.6952471407
 20
150.22914732
 30
0.0
 11
222.9618120693
 21
150.22914732
 31
0.0
  0
LINE
  5
2C4
330
21A
100
AcDbEntity
  8
RUNDUNGEN
  6
Continuous
 62
     9
100
AcDbLine
 10
221.6614286274
 20
150.313364765
 30
0.0
 11
200.9956305826
 21
150.313364765
 31
0.0
  0
LINE
  5
2C5
330
21A
100
AcDbEntity
  8
RUNDUNGEN
  6
Continuous
 62
     9
100
AcDbLine
 10
221.4382097093
 20
151.3132124601
 30
0.0
 11
201.2188495007
 21
151.3132124601
 31
0.0
  0
LINE
  5
2C6
330
21A
100
AcDbEntity
  8
0
  6
Continuous
 62
     9
100
AcDbLine
 10
147.902641566
 20
151.8644703964
 30
0.0
 11
193.9351123594
 21
151.8644704008
 31
0.0
  0
LINE
  5
2C7
330
21A
100
AcDbEntity
  8
0
  6
Continuous
 62
     9
100
AcDbLine
 10
228.7219468506
 20
151.8644704008
 30
0.0
 11
274.754417644
 21
151.8644703964
 31
0.0
  0
LINE
  5
2C8
330
21A
100
AcDbEntity
  8
0
  6
Continuous
 62
     9
100
AcDbLine
 10
275.0813742563
 20
153.2144882056
 30
0.0
 11
228.8082030203
 21
153.2144882056
 31
0.0
  0
LINE
  5
2C9
330
21A
100
AcDbEntity
  8
0
  6
Continuous
 62
     9
100
AcDbLine
 10
193.8488561897
 20
153.2144882056
 30
0.0
 11
147.5756849538
 21
153.2144882056
 31
0.0
  0
LINE
  5
2CA
330
21A
100
AcDbEntity
  8
RUNDUNGEN
  6
Continuous
 62
     9
100
AcDbLine
 10
221.4382097093
 20
155.3815506303
 30
0.0
 11
201.2188495007
 21
155.3815506303
 31
0.0
  0
LINE
  5
2CB
330
21A
100
AcDbEntity
  8
RUNDUNGEN
  6
Continuous
 62
     9
100
AcDbLine
 10
221.6535036492
 20
156.3801801651
 30
0.0
 11
201.0035555608
 21
156.3801801651
 31
0.0
  0
LINE
  5
2CC
330
21A
100
AcDbEntity
  8
RUNDUNGEN
  6
Continuous
 62
     9
100
AcDbLine
 10
226.6219818862
 20
157.2909084371
 30
0.0
 11
196.0350773238
 21
157.2909084371
 31
0.0
  0
LINE
  5
2CD
330
21A
100
AcDbEntity
  8
RUNDUNGEN
  6
Continuous
 62
     9
100
AcDbLine
 10
226.8524424505
 20
158.2855534085
 30
0.0
 11
195.8046167595
 21
158.2855534085
 31
0.0
  0
LINE
  5
2CE
330
21A
100
AcDbEntity
  8
RUNDUNGEN
  6
Continuous
 62
     9
100
AcDbLine
 10
226.259908237
 20
214.2461943449
 30
0.0
 11
226.2638292217
 21
210.8099798096
 31
0.0
  0
LINE
  5
2CF
330
21A
100
AcDbEntity
  8
RUNDUNGEN
  6
Continuous
 62
     9
100
AcDbLine
 10
225.5261267667
 20
230.830515197
 30
0.0
 11
225.5261267667
 21
227.435398505
 31
0.0
  0
LINE
  5
2D0
330
21A
100
AcDbEntity
  8
RUNDUNGEN
  6
Continuous
 62
     9
100
AcDbLine
 10
226.2587676239
 20
230.830515197
 30
0.0
 11
226.2587676239
 21
227.4353979146
 31
0.0
  0
LINE
  5
2D1
330
21A
100
AcDbEntity
  8
0
  6
Continuous
 62
     7
100
AcDbLine
 10
228.828529605
 20
40.3815506303
 30
0.0
 11
228.828529605
 21
36.330515197
 31
0.0
  0
LINE
  5
2D2
330
21A
100
AcDbEntity
  8
0
  6
Continuous
 62
     7
100
AcDbLine
 10
234.828529605
 20
113.82065756
 30
0.0
 11
234.828529605
 21
42.5939264394
 31
0.0
  0
LINE
  5
2D3
330
21A
100
AcDbEntity
  8
RUNDUNGEN
  6
Continuous
 62
     9
100
AcDbLine
 10
227.5681006494
 20
153.2184727689
 30
0.0
 11
227.5712649435
 21
156.2863748689
 31
0.0
  0
LINE
  5
2D4
330
21A
100
AcDbEntity
  8
RUNDUNGEN
  6
Continuous
 62
     9
100
AcDbLine
 10
228.8082030203
 20
153.2144882056
 30
0.0
 11
228.8113650232
 21
156.2823820176
 31
0.0
  0
LINE
  5
2D5
330
21A
100
AcDbEntity
  8
0
  6
Continuous
 62
     7
100
AcDbLine
 10
248.828529605
 20
126.8543902564
 30
0.0
 11
248.828529605
 21
117.0304229952
 31
0.0
  0
LINE
  5
2D6
330
21A
100
AcDbEntity
  8
0
  6
Continuous
 62
     7
100
AcDbLine
 10
241.575483665
 20
106.7684654475
 30
0.0
 11
240.345680037
 21
36.3130627906
 31
0.0
  0
LINE
  5
2D7
330
21A
100
AcDbEntity
  8
0
  6
Continuous
 62
     7
100
AcDbLine
 10
255.9843532519
 20
120.2399232624
 30
0.0
 11
255.2620124185
 21
115.1002011673
 31
0.0
  0
LINE
  5
2D8
330
21A
100
AcDbEntity
  8
0
  6
Continuous
 62
     7
100
AcDbLine
 10
282.7779385373
 20
196.421606057
 30
0.0
 11
282.9166057112
 21
196.7047242133
 31
0.0
  0
LINE
  5
2D9
330
21A
100
AcDbEntity
  8
0
  6
Continuous
 62
     7
100
AcDbLine
 10
275.328529605
 20
227.4353979146
 30
0.0
 11
275.328529605
 21
230.830515197
 31
0.0
  0
LINE
  5
2DA
330
21A
100
AcDbEntity
  8
0
  6
Continuous
 62
     7
100
AcDbLine
 10
275.3245608869
 20
214.2461943449
 30
0.0
 11
275.0813742563
 21
153.2144882056
 31
0.0
  0
LINE
  5
2DB
330
21A
100
AcDbEntity
  8
0
  6
Continuous
 62
     7
100
AcDbLine
 10
263.131718714
 20
129.053639374
 30
0.0
 11
274.754417644
 21
151.8644703964
 31
0.0
  0
LINE
  5
2DC
330
21A
100
AcDbEntity
  8
0
  6
Continuous
 62
     7
100
AcDbLine
 10
280.2724312075
 20
150.5793908303
 30
0.0
 11
267.1148642167
 21
124.7562116274
 31
0.0
  0
LINE
  5
2DD
330
21A
100
AcDbEntity
  8
0
  6
Continuous
 62
     7
100
AcDbLine
 10
254.0966532817
 20
113.12181394
 30
0.0
 11
250.5781688889
 21
110.4704457756
 31
0.0
  0
LINE
  5
2DE
330
21A
100
AcDbEntity
  8
RUNDUNGEN
  6
Continuous
 62
     9
100
AcDbLine
 10
197.9264533077
 20
208.9735288626
 30
0.0
 11
224.7306059031
 21
208.9735288626
 31
0.0
  0
LINE
  5
2DF
330
21A
100
AcDbEntity
  8
RUNDUNGEN
  6
Continuous
 62
     9
100
AcDbLine
 10
197.8518179314
 20
209.7355887423
 30
0.0
 11
224.8052412794
 21
209.7355887423
 31
0.0
  0
LINE
  5
2E0
330
21A
100
AcDbEntity
  8
0
  6
Continuous
 62
     7
100
AcDbLine
 10
282.328529605
 20
225.3478179339
 30
0.0
 11
282.328529605
 21
216.3132124601
 31
0.0
  0
LINE
  5
2E1
330
21A
100
AcDbEntity
  8
0
  6
Continuous
 62
     7
100
AcDbLine
 10
280.8143527216
 20
152.6748458455
 30
0.0
 11
282.2713155433
 21
194.3968022323
 31
0.0
  0
LINE
  5
2E2
330
21A
100
AcDbEntity
  8
0
  6
Continuous
 62
     7
100
AcDbLine
 10
283.4232270917
 20
198.7295247439
 30
0.0
 11
283.7102440652
 21
206.9486154927
 31
0.0
  0
LINE
  5
2E3
330
21A
100
AcDbEntity
  8
0
  6
Continuous
 62
     7
100
AcDbLine
 10
288.4817593447
 20
221.9003141904
 30
0.0
 11
288.1269651179
 21
211.7403368495
 31
0.0
  0
LINE
  5
2E4
330
21A
100
AcDbEntity
  8
0
  6
Continuous
 62
     7
100
AcDbLine
 10
326.8648675548
 20
231.8222448507
 30
0.0
 11
333.828529605
 21
232.4314863367
 31
0.0
  0
LINE
  5
2E5
330
21A
100
AcDbEntity
  8
0
  6
Continuous
 62
     7
100
AcDbLine
 10
316.3433858456
 20
231.9140644306
 30
0.0
 11
318.828529605
 21
232.1314863367
 31
0.0
  0
LINE
  5
2E6
330
21A
100
AcDbEntity
  8
0
  6
Continuous
 62
     7
100
AcDbLine
 10
302.7039044133
 20
232.0330943817
 30
0.0
 11
303.828529605
 21
232.1314863367
 31
0.0
  0
LINE
  5
2E7
330
21A
100
AcDbEntity
  8
0
  6
Continuous
 62
     7
100
AcDbLine
 10
277.2695157381
 20
215.2422097815
 30
0.0
 11
281.3459820114
 21
215.313364765
 31
0.0
  0
LINE
  5
2E8
330
21A
100
AcDbEntity
  8
RUNDUNGEN
  6
Continuous
 62
     9
100
AcDbLine
 10
197.1297613788
 20
214.2422097815
 30
0.0
 11
197.4100151934
 21
214.2422097815
 31
0.0
  0
LINE
  5
2E9
330
21A
100
AcDbEntity
  8
RUNDUNGEN
  6
Continuous
 62
     9
100
AcDbLine
 10
225.2470440166
 20
214.2422097815
 30
0.0
 11
225.5272978312
 21
214.2422097815
 31
0.0
  0
LINE
  5
2EA
330
21A
100
AcDbEntity
  8
0
  6
Continuous
 62
     9
100
AcDbLine
 10
147.3324983231
 20
214.2461943449
 30
0.0
 11
196.397150973
 21
214.2461943449
 31
0.0
  0
LINE
  5
2EB
330
21A
100
AcDbEntity
  8
0
  6
Continuous
 62
     9
100
AcDbLine
 10
226.259908237
 20
214.2461943449
 30
0.0
 11
275.3245608869
 21
214.2461943449
 31
0.0
  0
LINE
  5
2EC
330
21A
100
AcDbEntity
  8
RUNDUNGEN
  6
Continuous
 62
     9
100
AcDbLine
 10
223.672401245
 20
215.0307784121
 30
0.0
 11
198.9846579666
 21
215.0307784121
 31
0.0
  0
LINE
  5
2ED
330
21A
100
AcDbEntity
  8
0
  6
Continuous
 62
     7
100
AcDbLine
 10
196.1638355525
 20
215.2422097815
 30
0.0
 11
145.387543472
 21
215.2422097815
 31
0.0
  0
LINE
  5
2EE
330
21A
100
AcDbEntity
  8
RUNDUNGEN
  6
Continuous
 62
     7
100
AcDbLine
 10
196.1638217522
 20
215.2422097815
 30
0.0
 11
196.4414768189
 21
215.2422097815
 31
0.0
  0
LINE
  5
2EF
330
21A
100
AcDbEntity
  8
RUNDUNGEN
  6
Continuous
 62
     7
100
AcDbLine
 10
226.2155823866
 20
215.2422097815
 30
0.0
 11
226.4932374327
 21
215.2422097815
 31
0.0
  0
LINE
  5
2F0
330
21A
100
AcDbEntity
  8
0
  6
Continuous
 62
     7
100
AcDbLine
 10
226.2155290418
 20
215.2422097815
 30
0.0
 11
277.2695157381
 21
215.2422097815
 31
0.0
  0
LINE
  5
2F1
330
21A
100
AcDbEntity
  8
0
  6
Continuous
 62
     9
100
AcDbLine
 10
145.387543472
 20
215.313364765
 30
0.0
 11
197.6355958039
 21
215.3133647649
 31
0.0
  0
LINE
  5
2F2
330
21A
100
AcDbEntity
  8
0
  6
Continuous
 62
     9
100
AcDbLine
 10
225.0214343734
 20
215.3133647649
 30
0.0
 11
281.3459820114
 21
215.313364765
 31
0.0
  0
LINE
  5
2F3
330
21A
100
AcDbEntity
  8
RUNDUNGEN
  6
Continuous
 62
     9
100
AcDbLine
 10
223.7351881099
 20
215.7968228552
 30
0.0
 11
198.9218915786
 21
215.7968228552
 31
0.0
  0
LINE
  5
2F4
330
21A
100
AcDbEntity
  8
0
  6
Continuous
 62
     9
100
AcDbLine
 10
140.328529605
 20
216.3132124601
 30
0.0
 11
197.4435778811
 21
216.3132124601
 31
0.0
  0
LINE
  5
2F5
330
21A
100
AcDbEntity
  8
0
  6
Continuous
 62
     9
100
AcDbLine
 10
225.21348132
 20
216.3132124601
 30
0.0
 11
282.328529605
 21
216.3132124601
 31
0.0
  0
LINE
  5
2F6
330
21A
100
AcDbEntity
  8
0
  6
Continuous
 62
     7
100
AcDbLine
 10
63.22645873839999
 20
223.830515197
 30
0.0
 11
132.1765182113
 21
223.830515197
 31
0.0
  0
LINE
  5
2F7
330
21A
100
AcDbEntity
  8
0
  6
Continuous
 62
     7
100
AcDbLine
 10
290.4805409987
 20
223.830515197
 30
0.0
 11
359.4306004716
 21
223.830515197
 31
0.0
  0
LINE
  5
2F8
330
21A
100
AcDbEntity
  8
0
  6
Continuous
 62
     7
100
AcDbLine
 10
145.387543472
 20
215.2422097815
 30
0.0
 11
141.3110771986
 21
215.313364765
 31
0.0
  0
LINE
  5
2F9
330
21A
100
AcDbEntity
  8
0
  6
Continuous
 62
     7
100
AcDbLine
 10
95.79219165519999
 20
231.8222448507
 30
0.0
 11
88.82852960500001
 21
232.4314863367
 31
0.0
  0
LINE
  5
2FA
330
21A
100
AcDbEntity
  8
0
  6
Continuous
 62
     7
100
AcDbLine
 10
106.3136733644
 20
231.9140644306
 30
0.0
 11
103.828529605
 21
232.1314863367
 31
0.0
  0
LINE
  5
2FB
330
21A
100
AcDbEntity
  8
0
  6
Continuous
 62
     7
100
AcDbLine
 10
119.9531547967
 20
232.0330943817
 30
0.0
 11
118.828529605
 21
232.1314863367
 31
0.0
  0
LINE
  5
2FC
330
21A
100
AcDbEntity
  8
0
  6
Continuous
 62
     7
100
AcDbLine
 10
288.328529605
 20
238.830515197
 30
0.0
 11
288.7922043157
 21
232.1544999492
 31
0.0
  0
LINE
  5
2FD
330
21A
100
AcDbEntity
  8
0
  6
Continuous
 62
     7
100
AcDbLine
 10
296.9831247182
 20
239.830515197
 30
0.0
 11
296.9831247182
 21
240.830515197
 31
0.0
  0
LINE
  5
2FE
330
21A
100
AcDbEntity
  8
0
  6
Continuous
 62
     7
100
AcDbLine
 10
298.4341812345
 20
240.830515197
 30
0.0
 11
298.4341812345
 21
252.2067326193
 31
0.0
  0
LINE
  5
2FF
330
21A
100
AcDbEntity
  8
0
  6
Continuous
 62
     7
100
AcDbLine
 10
299.4341812345
 20
252.2067326193
 30
0.0
 11
299.4341812345
 21
260.2067326193
 31
0.0
  0
LINE
  5
300
330
21A
100
AcDbEntity
  8
0
  6
Continuous
 62
     7
100
AcDbLine
 10
141.3110771986
 20
226.3476656291
 30
0.0
 11
146.3459820114
 21
226.4355502195
 31
0.0
  0
LINE
  5
301
330
21A
100
AcDbEntity
  8
0
  6
Continuous
 62
     7
100
AcDbLine
 10
133.8648548943
 20
232.1544999492
 30
0.0
 11
119.9531547967
 21
232.0330943817
 31
0.0
  0
LINE
  5
302
330
21A
100
AcDbEntity
  8
0
  6
Continuous
 62
     7
100
AcDbLine
 10
117.4546857339
 20
232.0112905726
 30
0.0
 11
106.3136733644
 21
231.9140644306
 31
0.0
  0
LINE
  5
303
330
21A
100
AcDbEntity
  8
0
  6
Continuous
 62
     7
100
AcDbLine
 10
100.7926741503
 20
231.8658834003
 30
0.0
 11
95.79219165519999
 21
231.8222448507
 31
0.0
  0
LINE
  5
304
330
21A
100
AcDbEntity
  8
0
  6
Continuous
 62
     7
100
AcDbLine
 10
80.32170928920001
 20
231.6872359964
 30
0.0
 11
76.70649691859999
 21
231.6556865161
 31
0.0
  0
LINE
  5
305
330
21A
100
AcDbEntity
  8
0
  6
Continuous
 62
     7
100
AcDbLine
 10
345.9774636074
 20
231.65573156
 30
0.0
 11
345.9505622914
 21
231.6556865161
 31
0.0
  0
LINE
  5
306
330
21A
100
AcDbEntity
  8
0
  6
Continuous
 62
     9
100
AcDbLine
 10
140.328529605
 20
225.3478179339
 30
0.0
 11
197.4435778761
 21
225.3478179339
 31
0.0
  0
LINE
  5
307
330
21A
100
AcDbEntity
  8
0
  6
Continuous
 62
     9
100
AcDbLine
 10
225.2134813368
 20
225.3478179339
 30
0.0
 11
282.328529605
 21
225.3478179339
 31
0.0
  0
LINE
  5
308
330
21A
100
AcDbEntity
  8
0
  6
Continuous
 62
     9
100
AcDbLine
 10
276.3110771986
 20
226.3476656291
 30
0.0
 11
225.0217236681
 21
226.3476656291
 31
0.0
  0
LINE
  5
309
330
21A
100
AcDbEntity
  8
0
  6
Continuous
 62
     9
100
AcDbLine
 10
197.6353884105
 20
226.3476656291
 30
0.0
 11
141.3110771986
 21
226.3476656291
 31
0.0
  0
LINE
  5
30A
330
21A
100
AcDbEntity
  8
0
  6
Continuous
 62
     9
100
AcDbLine
 10
276.3110771986
 20
226.4355502195
 30
0.0
 11
226.4878205746
 21
226.4355502195
 31
0.0
  0
LINE
  5
30B
330
21A
100
AcDbEntity
  8
0
  6
Continuous
 62
     9
100
AcDbLine
 10
196.1693033347
 20
226.4355502195
 30
0.0
 11
146.3459820114
 21
226.4355502195
 31
0.0
  0
LINE
  5
30C
330
21A
100
AcDbEntity
  8
RUNDUNGEN
  6
Continuous
 62
     9
100
AcDbLine
 10
198.8337986725
 20
227.333248708
 30
0.0
 11
199.635027283
 21
227.3332487074
 31
0.0
  0
LINE
  5
30D
330
21A
100
AcDbEntity
  8
RUNDUNGEN
  6
Continuous
 62
     9
100
AcDbLine
 10
223.022031927
 20
227.3332487094
 30
0.0
 11
223.8232605375
 21
227.33324871
 31
0.0
  0
LINE
  5
30E
330
21A
100
AcDbEntity
  8
0
  6
Continuous
 62
     9
100
AcDbLine
 10
275.328529605
 20
227.4353979146
 30
0.0
 11
226.2587676239
 21
227.4353979146
 31
0.0
  0
LINE
  5
30F
330
21A
100
AcDbEntity
  8
0
  6
Continuous
 62
     9
100
AcDbLine
 10
196.3982915861
 20
227.4353979146
 30
0.0
 11
147.328529605
 21
227.4353979146
 31
0.0
  0
LINE
  5
310
330
21A
100
AcDbEntity
  8
RUNDUNGEN
  6
Continuous
 62
     9
100
AcDbLine
 10
196.3982915861
 20
227.4353979146
 30
0.0
 11
197.1309324434
 21
227.4353979146
 31
0.0
  0
LINE
  5
311
330
21A
100
AcDbEntity
  8
RUNDUNGEN
  6
Continuous
 62
     9
100
AcDbLine
 10
225.5261267667
 20
227.4353979146
 30
0.0
 11
226.2587676239
 21
227.4353979146
 31
0.0
  0
LINE
  5
312
330
21A
100
AcDbEntity
  8
RUNDUNGEN
  6
Continuous
 62
     9
100
AcDbLine
 10
226.2587676239
 20
230.830515197
 30
0.0
 11
196.3982915861
 21
230.830515197
 31
0.0
  0
LINE
  5
313
330
21A
100
AcDbEntity
  8
0
  6
Continuous
 62
     9
100
AcDbLine
 10
147.328529605
 20
230.830515197
 30
0.0
 11
196.3982915861
 21
230.830515197
 31
0.0
  0
LINE
  5
314
330
21A
100
AcDbEntity
  8
0
  6
Continuous
 62
     9
100
AcDbLine
 10
226.2587676239
 20
230.830515197
 30
0.0
 11
275.328529605
 21
230.830515197
 31
0.0
  0
LINE
  5
315
330
21A
100
AcDbEntity
  8
RUNDUNGEN
  6
Continuous
 62
     7
100
AcDbLine
 10
226.4920525929
 20
231.830515197
 30
0.0
 11
196.1650066171
 21
231.830515197
 31
0.0
  0
LINE
  5
316
330
21A
100
AcDbEntity
  8
0
  6
Continuous
 62
     7
100
AcDbLine
 10
63.22645873839999
 20
231.830515197
 30
0.0
 11
196.1650066171
 21
231.830515197
 31
0.0
  0
LINE
  5
317
330
21A
100
AcDbEntity
  8
0
  6
Continuous
 62
     7
100
AcDbLine
 10
226.4920525929
 20
231.830515197
 30
0.0
 11
359.4306004716
 21
231.830515197
 31
0.0
  0
LINE
  5
318
330
21A
100
AcDbEntity
  8
0
  6
Continuous
 62
     7
100
AcDbLine
 10
321.8643850598
 20
231.8658834003
 30
0.0
 11
310.4341812345
 21
231.8658834003
 31
0.0
  0
LINE
  5
319
330
21A
100
AcDbEntity
  8
0
  6
Continuous
 62
     7
100
AcDbLine
 10
302.4341812345
 20
231.8658834003
 30
0.0
 11
215.328529605
 21
231.8658834003
 31
0.0
  0
LINE
  5
31A
330
21A
100
AcDbEntity
  8
0
  6
Continuous
 62
     7
100
AcDbLine
 10
207.328529605
 20
231.8658834003
 30
0.0
 11
120.2228779755
 21
231.8658834003
 31
0.0
  0
LINE
  5
31B
330
21A
100
AcDbEntity
  8
0
  6
Continuous
 62
     7
100
AcDbLine
 10
112.2228779755
 20
231.8658834003
 30
0.0
 11
100.9441596985
 21
231.8658834003
 31
0.0
  0
LINE
  5
31C
330
21A
100
AcDbEntity
  8
0
  6
Continuous
 62
     7
100
AcDbLine
 10
120.2228779755
 20
231.9140644306
 30
0.0
 11
206.328529605
 21
231.9140644306
 31
0.0
  0
LINE
  5
31D
330
21A
100
AcDbEntity
  8
0
  6
Continuous
 62
     7
100
AcDbLine
 10
216.328529605
 20
231.9140644306
 30
0.0
 11
302.4341812345
 21
231.9140644306
 31
0.0
  0
LINE
  5
31E
330
21A
100
AcDbEntity
  8
0
  6
Continuous
 62
     7
100
AcDbLine
 10
119.3980638788
 20
232.0112905726
 30
0.0
 11
119.9531547967
 21
232.0112905726
 31
0.0
  0
LINE
  5
31F
330
21A
100
AcDbEntity
  8
0
  6
Continuous
 62
     7
100
AcDbLine
 10
123.5563947622
 20
232.0112905726
 30
0.0
 11
300.4831247182
 21
232.0112905726
 31
0.0
  0
LINE
  5
320
330
21A
100
AcDbEntity
  8
0
  6
Continuous
 62
     7
100
AcDbLine
 10
302.9423360694
 20
232.0112905726
 30
0.0
 11
304.1956601812
 21
232.0112905726
 31
0.0
  0
LINE
  5
321
330
21A
100
AcDbEntity
  8
0
  6
Continuous
 62
     7
100
AcDbLine
 10
300.4368850639
 20
232.0330943817
 30
0.0
 11
124.4253839646
 21
232.0330943817
 31
0.0
  0
LINE
  5
322
330
21A
100
AcDbEntity
  8
0
  6
Continuous
 62
     7
100
AcDbLine
 10
288.7922043157
 20
232.1544999492
 30
0.0
 11
133.8648548943
 21
232.1544999492
 31
0.0
  0
LINE
  5
323
330
21A
100
AcDbEntity
  8
0
  6
Continuous
 62
     7
100
AcDbLine
 10
76.6795956043
 20
231.6557315589
 30
0.0
 11
76.70649691859999
 21
231.6556865161
 31
0.0
  0
LINE
  5
324
330
21A
100
AcDbEntity
  8
0
  6
Continuous
 62
     7
100
AcDbLine
 10
288.7922043157
 20
232.1544999492
 30
0.0
 11
302.7039044133
 21
232.0330943817
 31
0.0
  0
LINE
  5
325
330
21A
100
AcDbEntity
  8
0
  6
Continuous
 62
     7
100
AcDbLine
 10
305.2023734761
 20
232.0112905726
 30
0.0
 11
316.3433858456
 21
231.9140644306
 31
0.0
  0
LINE
  5
326
330
21A
100
AcDbEntity
  8
0
  6
Continuous
 62
     7
100
AcDbLine
 10
321.8643850598
 20
231.8658834003
 30
0.0
 11
326.8648675548
 21
231.8222448507
 31
0.0
  0
LINE
  5
327
330
21A
100
AcDbEntity
  8
0
  6
Continuous
 62
     7
100
AcDbLine
 10
342.3353499208
 20
231.6872359964
 30
0.0
 11
345.9505622914
 21
231.6556865161
 31
0.0
  0
LINE
  5
328
330
21A
100
AcDbEntity
  8
0
  6
Continuous
 62
     7
100
AcDbLine
 10
281.3459820114
 20
226.3476656291
 30
0.0
 11
276.3110771986
 21
226.4355502195
 31
0.0
  0
LINE
  5
329
330
21A
100
AcDbEntity
  8
0
  6
Continuous
 62
     7
100
AcDbLine
 10
302.4341812345
 20
231.830515197
 30
0.0
 11
302.4341812345
 21
232.0021466107
 31
0.0
  0
LINE
  5
32A
330
21A
100
AcDbEntity
  8
0
  6
Continuous
 62
     2
100
AcDbLine
 10
303.2341812345
 20
231.9966757906
 30
0.0
 11
303.2341812345
 21
231.830515197
 31
0.0
  0
LINE
  5
32B
330
21A
100
AcDbEntity
  8
0
  6
Continuous
 62
     9
100
AcDbLine
 10
308.1097691704
 20
239.830515197
 30
0.0
 11
308.1097691704
 21
240.830515197
 31
0.0
  0
LINE
  5
32C
330
21A
100
AcDbEntity
  8
0
  6
Continuous
 62
     2
100
AcDbLine
 10
309.6341812345
 20
231.9413611087
 30
0.0
 11
309.6341812345
 21
231.830515197
 31
0.0
  0
LINE
  5
32D
330
21A
100
AcDbEntity
  8
0
  6
Continuous
 62
     9
100
AcDbLine
 10
310.011882203
 20
239.830515197
 30
0.0
 11
310.011882203
 21
240.830515197
 31
0.0
  0
LINE
  5
32E
330
21A
100
AcDbEntity
  8
0
  6
Continuous
 62
     7
100
AcDbLine
 10
310.4341812345
 20
231.830515197
 30
0.0
 11
310.4341812345
 21
231.9335089546
 31
0.0
  0
LINE
  5
32F
330
21A
100
AcDbEntity
  8
0
  6
Continuous
 62
     7
100
AcDbLine
 10
117.4546857339
 20
232.0112905726
 30
0.0
 11
118.828529605
 21
232.1314863367
 31
0.0
  0
LINE
  5
330
330
21A
100
AcDbEntity
  8
0
  6
Continuous
 62
     7
100
AcDbLine
 10
100.7926741503
 20
231.8658834003
 30
0.0
 11
103.828529605
 21
232.1314863367
 31
0.0
  0
LINE
  5
331
330
21A
100
AcDbEntity
  8
0
  6
Continuous
 62
     7
100
AcDbLine
 10
80.32170928920001
 20
231.6872359964
 30
0.0
 11
88.82852960500001
 21
232.4314863367
 31
0.0
  0
LINE
  5
332
330
21A
100
AcDbEntity
  8
0
  6
Continuous
 62
     7
100
AcDbLine
 10
73.3035976239
 20
238.830515197
 30
0.0
 11
349.3534615862
 21
238.830515197
 31
0.0
  0
LINE
  5
333
330
21A
100
AcDbEntity
  8
0
  6
Continuous
 62
     9
100
AcDbLine
 10
106.7718214592
 20
239.830515197
 30
0.0
 11
125.6739344918
 21
239.830515197
 31
0.0
  0
LINE
  5
334
330
21A
100
AcDbEntity
  8
0
  6
Continuous
 62
     7
100
AcDbLine
 10
181.6151647156
 20
239.830515197
 30
0.0
 11
198.099024191
 21
239.830515197
 31
0.0
  0
LINE
  5
335
330
21A
100
AcDbEntity
  8
0
  6
Continuous
 62
     9
100
AcDbLine
 10
202.828529605
 20
239.830515197
 30
0.0
 11
219.828529605
 21
239.830515197
 31
0.0
  0
LINE
  5
336
330
21A
100
AcDbEntity
  8
0
  6
Continuous
 62
     9
100
AcDbLine
 10
296.9831247183
 20
239.830515197
 30
0.0
 11
315.8852377508
 21
239.830515197
 31
0.0
  0
LINE
  5
337
330
21A
100
AcDbEntity
  8
0
  6
Continuous
 62
     7
100
AcDbLine
 10
317.5378424357
 20
239.830515197
 30
0.0
 11
333.8363061767
 21
239.830515197
 31
0.0
  0
LINE
  5
338
330
21A
100
AcDbEntity
  8
0
  6
Continuous
 62
     7
100
AcDbLine
 10
106.7716383333
 20
240.830515197
 30
0.0
 11
125.6741176177
 21
240.830515197
 31
0.0
  0
LINE
  5
339
330
21A
100
AcDbEntity
  8
02___PRT_ALL_AXES
  6
Continuous
 62
     7
100
AcDbLine
 10
202.828529605
 20
240.830515197
 30
0.0
 11
219.828529605
 21
240.830515197
 31
0.0
  0
LINE
  5
33A
330
21A
100
AcDbEntity
  8
02___PRT_ALL_AXES
  6
Continuous
 62
     7
100
AcDbLine
 10
296.9829415924
 20
240.830515197
 30
0.0
 11
315.8854208767
 21
240.830515197
 31
0.0
  0
LINE
  5
33B
330
21A
100
AcDbEntity
  8
0
  6
Continuous
 62
     7
100
AcDbLine
 10
108.2228779755
 20
242.2067326193
 30
0.0
 11
124.2228779755
 21
242.2067326193
 31
0.0
  0
LINE
  5
33C
330
21A
100
AcDbEntity
  8
0
  6
Continuous
 62
     7
100
AcDbLine
 10
203.328529605
 20
242.2067326193
 30
0.0
 11
219.328529605
 21
242.2067326193
 31
0.0
  0
LINE
  5
33D
330
21A
100
AcDbEntity
  8
0
  6
Continuous
 62
     7
100
AcDbLine
 10
298.4341812345
 20
242.2067326193
 30
0.0
 11
314.4341812345
 21
242.2067326193
 31
0.0
  0
LINE
  5
33E
330
21A
100
AcDbEntity
  8
0
  6
Continuous
 62
     7
100
AcDbLine
 10
108.2228779755
 20
242.430515197
 30
0.0
 11
124.2228779755
 21
242.430515197
 31
0.0
  0
LINE
  5
33F
330
21A
100
AcDbEntity
  8
0
  6
Continuous
 62
     7
100
AcDbLine
 10
203.328529605
 20
242.430515197
 30
0.0
 11
219.328529605
 21
242.430515197
 31
0.0
  0
LINE
  5
340
330
21A
100
AcDbEntity
  8
0
  6
Continuous
 62
     7
100
AcDbLine
 10
298.4341812345
 20
242.430515197
 30
0.0
 11
314.4341812345
 21
242.430515197
 31
0.0
  0
LINE
  5
341
330
21A
100
AcDbEntity
  8
0
  6
Continuous
 62
     7
100
AcDbLine
 10
305.2023734761
 20
232.0112905726
 30
0.0
 11
303.828529605
 21
232.1314863367
 31
0.0
  0
LINE
  5
342
330
21A
100
AcDbEntity
  8
0
  6
Continuous
 62
     7
100
AcDbLine
 10
321.8643850598
 20
231.8658834003
 30
0.0
 11
318.828529605
 21
232.1314863367
 31
0.0
  0
LINE
  5
343
330
21A
100
AcDbEntity
  8
0
  6
Continuous
 62
     7
100
AcDbLine
 10
342.3353499208
 20
231.6872359964
 30
0.0
 11
333.828529605
 21
232.4314863367
 31
0.0
  0
LINE
  5
344
330
21A
100
AcDbEntity
  8
0
  6
Continuous
 62
     7
100
AcDbLine
 10
313.4341812345
 20
252.2067326193
 30
0.0
 11
313.4341812345
 21
260.2067326193
 31
0.0
  0
LINE
  5
345
330
21A
100
AcDbEntity
  8
0
  6
Continuous
 62
     7
100
AcDbLine
 10
314.4341812345
 20
240.830515197
 30
0.0
 11
314.4341812345
 21
252.2067326193
 31
0.0
  0
LINE
  5
346
330
21A
100
AcDbEntity
  8
0
  6
Continuous
 62
     7
100
AcDbLine
 10
315.8852377508
 20
239.830515197
 30
0.0
 11
315.8852377508
 21
240.830515197
 31
0.0
  0
LINE
  5
347
330
21A
100
AcDbEntity
  8
0
  6
Continuous
 62
     7
100
AcDbLine
 10
317.5378424357
 20
238.830515197
 30
0.0
 11
317.5378424357
 21
239.830515197
 31
0.0
  0
LINE
  5
348
330
21A
100
AcDbEntity
  8
0
  6
Continuous
 62
     7
100
AcDbLine
 10
318.1558764244
 20
238.830515197
 30
0.0
 11
318.1558764244
 21
239.830515197
 31
0.0
  0
LINE
  5
349
330
21A
100
AcDbEntity
  8
0
  6
Continuous
 62
     7
100
AcDbLine
 10
323.8622155222
 20
238.830515197
 30
0.0
 11
323.8622155222
 21
239.830515197
 31
0.0
  0
LINE
  5
34A
330
21A
100
AcDbEntity
  8
0
  6
Continuous
 62
     7
100
AcDbLine
 10
108.2228779755
 20
252.2067326193
 30
0.0
 11
124.2228779755
 21
252.2067326193
 31
0.0
  0
LINE
  5
34B
330
21A
100
AcDbEntity
  8
0
  6
Continuous
 62
     7
100
AcDbLine
 10
203.328529605
 20
252.2067326193
 30
0.0
 11
219.328529605
 21
252.2067326193
 31
0.0
  0
LINE
  5
34C
330
21A
100
AcDbEntity
  8
0
  6
Continuous
 62
     7
100
AcDbLine
 10
298.4341812345
 20
252.2067326193
 30
0.0
 11
314.4341812345
 21
252.2067326193
 31
0.0
  0
LINE
  5
34D
330
21A
100
AcDbEntity
  8
0
  6
Continuous
 62
     7
100
AcDbLine
 10
109.2228779755
 20
260.2067326193
 30
0.0
 11
123.2228779755
 21
260.2067326193
 31
0.0
  0
LINE
  5
34E
330
21A
100
AcDbEntity
  8
0
  6
Continuous
 62
     7
100
AcDbLine
 10
204.328529605
 20
260.2067326193
 30
0.0
 11
218.328529605
 21
260.2067326193
 31
0.0
  0
LINE
  5
34F
330
21A
100
AcDbEntity
  8
0
  6
Continuous
 62
     7
100
AcDbLine
 10
299.4341812345
 20
260.2067326193
 30
0.0
 11
313.4341812345
 21
260.2067326193
 31
0.0
  0
LINE
  5
350
330
21A
100
AcDbEntity
  8
0
  6
Continuous
 62
     7
100
AcDbLine
 10
325.8708259856
 20
238.830515197
 30
0.0
 11
325.8708259856
 21
239.830515197
 31
0.0
  0
LINE
  5
351
330
21A
100
AcDbEntity
  8
0
  6
Continuous
 62
     7
100
AcDbLine
 10
327.7729390182
 20
238.830515197
 30
0.0
 11
327.7729390182
 21
239.830515197
 31
0.0
  0
LINE
  5
352
330
21A
100
AcDbEntity
  8
0
  6
Continuous
 62
     7
100
AcDbLine
 10
328.9025095649
 20
238.830515197
 30
0.0
 11
328.9025095649
 21
239.830515197
 31
0.0
  0
LINE
  5
353
330
21A
100
AcDbEntity
  8
0
  6
Continuous
 62
     7
100
AcDbLine
 10
330.8046225975
 20
238.830515197
 30
0.0
 11
330.8046225975
 21
239.830515197
 31
0.0
  0
LINE
  5
354
330
21A
100
AcDbEntity
  8
0
  6
Continuous
 62
     7
100
AcDbLine
 10
331.9341931441
 20
238.830515197
 30
0.0
 11
331.9341931441
 21
239.830515197
 31
0.0
  0
LINE
  5
355
330
21A
100
AcDbEntity
  8
0
  6
Continuous
 62
     7
100
AcDbLine
 10
333.8363061767
 20
238.830515197
 30
0.0
 11
333.8363061767
 21
239.830515197
 31
0.0
  0
LINE
  5
356
330
21A
100
AcDbEntity
  8
0
  6
Continuous
 62
     7
100
AcDbLine
 10
349.3534615862
 20
238.830515197
 30
0.0
 11
348.9653259922
 21
234.394105057
 31
0.0
  0
LINE
  5
357
330
21A
100
AcDbEntity
  8
0
  6
Continuous
 62
     7
100
AcDbLine
 10
361.4278595411
 20
225.7258432845
 30
0.0
 11
361.5381607221
 21
227.830515197
 31
0.0
  0
LINE
  5
358
330
21A
100
AcDbEntity
  8
0
  6
Continuous
 62
     7
100
AcDbLine
 10
361.4278595411
 20
229.9351871095
 30
0.0
 11
361.5381607221
 21
227.830515197
 31
0.0
  0
ARC
  5
359
330
21A
100
AcDbEntity
  8
0
  6
Continuous
 62
     7
100
AcDbCircle
 10
76.6803173121
 20
234.6555722852
 30
0.0
 40
3.0
100
AcDbArc
 50
185.0
 51
270.5
  0
ARC
  5
35A
330
21A
100
AcDbEntity
  8
0
  6
Continuous
 62
     7
100
AcDbCircle
 10
63.22645873839999
 20
225.830515197
 30
0.0
 40
2.0
100
AcDbArc
 50
183.0
 51
270.0
  0
ARC
  5
35B
330
21A
100
AcDbEntity
  8
0
  6
Continuous
 62
     7
100
AcDbCircle
 10
63.22645873839999
 20
229.830515197
 30
0.0
 40
2.0
100
AcDbArc
 50
90.0
 51
177.0
  0
ARC
  5
35C
330
21A
100
AcDbEntity
  8
0
  6
Continuous
 62
     7
100
AcDbCircle
 10
126.6739344918
 20
239.830515197
 30
0.0
 40
1.0
100
AcDbArc
 50
180.0
 51
269.9988811519
  0
ARC
  5
35D
330
21A
100
AcDbEntity
  8
0
  6
Continuous
 62
     7
100
AcDbCircle
 10
105.7718214592
 20
239.830515197
 30
0.0
 40
1.0
100
AcDbArc
 50
270.0011188481
 51
360.0
  0
ARC
  5
35E
330
21A
100
AcDbEntity
  8
0
  6
Continuous
 62
     7
100
AcDbCircle
 10
163.7019017519
 20
119.8224039596
 30
0.0
 40
3.0
100
AcDbArc
 50
8.0
 51
87.0
  0
ARC
  5
35F
330
21A
100
AcDbEntity
  8
0
  6
Continuous
 62
     7
100
AcDbCircle
 10
158.2152145659
 20
126.1181831266
 30
0.0
 40
3.0
100
AcDbArc
 50
207.0
 51
267.0
  0
ARC
  5
360
330
21A
100
AcDbEntity
  8
0
  6
Continuous
 62
     7
100
AcDbCircle
 10
170.3658509978
 20
115.5177204702
 30
0.0
 40
3.0
100
AcDbArc
 50
188.0
 51
233.0
  0
ARC
  5
361
330
21A
100
AcDbEntity
  8
0
  6
Continuous
 62
     7
100
AcDbCircle
 10
173.8843353906
 20
112.8663523058
 30
0.0
 40
3.0
100
AcDbArc
 50
233.0
 51
268.0
  0
ARC
  5
362
330
21A
100
AcDbEntity
  8
0
  6
Continuous
 62
     7
100
AcDbCircle
 10
178.0820324596
 20
106.7161082282
 30
0.0
 40
3.0
100
AcDbArc
 50
1.0
 51
88.0
  0
ARC
  5
363
330
21A
100
AcDbEntity
  8
0
  6
Continuous
 62
     7
100
AcDbCircle
 10
192.828529605
 20
36.330515197
 30
0.0
 40
1.0
100
AcDbArc
 50
270.0
 51
360.0
  0
ARC
  5
364
330
21A
100
AcDbEntity
  8
0
  6
Continuous
 62
     7
100
AcDbCircle
 10
160.4163470202
 20
129.5076298737
 30
0.0
 40
1.0
100
AcDbArc
 50
207.0
 51
267.0
  0
ARC
  5
365
330
21A
100
AcDbEntity
  8
0
  6
Continuous
 62
     7
100
AcDbCircle
 10
172.828529605
 20
126.8543902564
 30
0.0
 40
1.0
100
AcDbArc
 50
0.0
 51
87.0
  0
ARC
  5
366
330
21A
100
AcDbEntity
  8
0
  6
Continuous
 62
     7
100
AcDbCircle
 10
174.828529605
 20
117.0304229952
 30
0.0
 40
1.0
100
AcDbArc
 50
180.0
 51
269.0000000003
  0
ARC
  5
367
330
21A
100
AcDbEntity
  8
0
  6
Continuous
 62
     7
100
AcDbCircle
 10
180.328529605
 20
114.9341154821
 30
0.0
 40
1.0
100
AcDbArc
 50
29.0050383315
 51
89.00000000030001
  0
ARC
  5
368
330
21A
100
AcDbEntity
  8
0
  6
Continuous
 62
     7
100
AcDbCircle
 10
188.828529605
 20
42.5939264394
 30
0.0
 40
1.0
100
AcDbArc
 50
180.0
 51
267.0000000003
  0
ARC
  5
369
330
21A
100
AcDbEntity
  8
0
  6
Continuous
 62
     7
100
AcDbCircle
 10
192.828529605
 20
40.3815506303
 30
0.0
 40
1.0
100
AcDbArc
 50
0.0
 51
87.0
  0
ARC
  5
36A
330
21A
100
AcDbEntity
  8
0
  6
Continuous
 62
     7
100
AcDbCircle
 10
183.3112268681
 20
36.330515197
 30
0.0
 40
1.0
100
AcDbArc
 50
181.0
 51
270.0
  0
ARC
  5
36B
330
21A
100
AcDbEntity
  8
0
  6
Continuous
 62
     7
100
AcDbCircle
 10
182.0776837486
 20
115.903888539
 30
0.0
 40
1.0
100
AcDbArc
 50
209.0050383316
 51
269.0
  0
ARC
  5
36C
330
21A
100
AcDbEntity
  8
0
  6
Continuous
 62
     7
100
AcDbCircle
 10
186.828529605
 20
113.82065756
 30
0.0
 40
1.0
100
AcDbArc
 50
0.0
 51
89.00000000049999
  0
ARC
  5
36D
330
21A
100
AcDbEntity
  8
0
  6
Continuous
 62
     7
100
AcDbCircle
 10
146.8396606235
 20
152.849343329
 30
0.0
 40
5.0
100
AcDbArc
 50
182.0
 51
207.0
  0
ARC
  5
36E
330
21A
100
AcDbEntity
  8
0
  6
Continuous
 62
     7
100
AcDbCircle
 10
135.3887893717
 20
194.2223130447
 30
0.0
 40
4.9999999915
100
AcDbArc
 50
1.999897474399999
 51
26.094897679
  0
ARC
  5
36F
330
21A
100
AcDbEntity
  8
0
  6
Continuous
 62
     7
100
AcDbCircle
 10
144.2307860526
 20
198.9040304924
 30
0.0
 40
4.999999989199999
100
AcDbArc
 50
182.0001021345
 51
206.0949900877
  0
ARC
  5
370
330
21A
100
AcDbEntity
  8
0
  6
Continuous
 62
     7
100
AcDbCircle
 10
150.5756611385
 20
153.2264418956
 30
0.0
 40
3.0
100
AcDbArc
 50
180.2282992679
 51
207.0
  0
ARC
  5
371
330
21A
100
AcDbEntity
  8
0
  6
Continuous
 62
     7
100
AcDbCircle
 10
135.9486426637
 20
206.8439170026
 30
0.0
 40
3.0
100
AcDbArc
 50
2.0
 51
83.33600404390001
  0
ARC
  5
372
330
21A
100
AcDbEntity
  8
0
  6
Continuous
 62
     7
100
AcDbCircle
 10
132.1765182113
 20
221.830515197
 30
0.0
 40
2.0
100
AcDbArc
 50
2.0
 51
90.0
  0
ARC
  5
373
330
21A
100
AcDbEntity
  8
0
  6
Continuous
 62
     7
100
AcDbCircle
 10
136.5288757462
 20
211.8101358429
 30
0.0
 40
2.0
100
AcDbArc
 50
182.0
 51
263.3360040439
  0
ARC
  5
374
330
21A
100
AcDbEntity
  8
0
  6
Continuous
 62
     7
100
AcDbCircle
 10
146.3325062615
 20
214.2422097815
 30
0.0
 40
1.0
100
AcDbArc
 50
0.2282992679
 51
90.0
  0
ARC
  5
375
330
21A
100
AcDbEntity
  8
0
  6
Continuous
 62
     7
100
AcDbCircle
 10
141.328529605
 20
216.3132124601
 30
0.0
 40
1.0
100
AcDbArc
 50
180.0
 51
269.0
  0
ARC
  5
376
330
21A
100
AcDbEntity
  8
0
  6
Continuous
 62
     7
100
AcDbCircle
 10
146.328529605
 20
227.4353979146
 30
0.0
 40
1.0
100
AcDbArc
 50
271.0
 51
360.0
  0
ARC
  5
377
330
21A
100
AcDbEntity
  8
0
  6
Continuous
 62
     7
100
AcDbCircle
 10
141.328529605
 20
225.3478179339
 30
0.0
 40
1.0
100
AcDbArc
 50
91.0
 51
180.0
  0
ARC
  5
378
330
21A
100
AcDbEntity
  8
0
  6
Continuous
 62
     7
100
AcDbCircle
 10
146.328529605
 20
230.830515197
 30
0.0
 40
1.0
100
AcDbArc
 50
0.0
 51
90.0
  0
ARC
  5
379
330
21A
100
AcDbEntity
  8
RUNDUNGEN
  6
Continuous
 62
     9
100
AcDbCircle
 10
-575.0080292404
 20
477.8085928976999
 30
0.0
 40
816.9950679277
100
AcDbArc
 50
340.9246961636
 51
341.1835423953
  0
ARC
  5
37A
330
21A
100
AcDbEntity
  8
RUNDUNGEN
  6
Continuous
 62
     9
100
AcDbCircle
 10
-477.8068973826999
 20
447.6930868245999
 30
0.0
 40
716.3368414883
100
AcDbArc
 50
340.5984530876
 51
340.9199817168
  0
ARC
  5
37B
330
21A
100
AcDbEntity
  8
0
  6
Continuous
 62
     7
100
AcDbCircle
 10
119.3189705842
 20
489.1456340546
 30
0.0
 40
257.1661810138
100
AcDbArc
 50
270.678524876
 51
270.8587877473
  0
ARC
  5
37C
330
21A
100
AcDbEntity
  8
RUNDUNGEN
  6
Continuous
 62
     9
100
AcDbCircle
 10
199.7007893601
 20
15.3228561003
 30
0.0
 40
134.9062913336
100
AcDbArc
 50
90.00235382479999
 51
90.1847509615
  0
ARC
  5
37D
330
21A
100
AcDbEntity
  8
RUNDUNGEN
  6
Continuous
 62
     9
100
AcDbCircle
 10
222.9615850787
 20
18.5786245541
 30
0.0
 40
131.6505227662
100
AcDbArc
 50
89.81299331139998
 51
89.99990121120001
  0
ARC
  5
37E
330
21A
100
AcDbEntity
  8
0
  6
Continuous
 62
     7
100
AcDbCircle
 10
258.9551574581
 20
119.8224039596
 30
0.0
 40
3.0
100
AcDbArc
 50
93.0
 51
172.0
  0
ARC
  5
37F
330
21A
100
AcDbEntity
  8
0
  6
Continuous
 62
     7
100
AcDbCircle
 10
264.4418446441
 20
126.1181831266
 30
0.0
 40
3.0
100
AcDbArc
 50
273.0
 51
333.0
  0
ARC
  5
380
330
21A
100
AcDbEntity
  8
0
  6
Continuous
 62
     7
100
AcDbCircle
 10
252.2912082123
 20
115.5177204702
 30
0.0
 40
3.0
100
AcDbArc
 50
307.0
 51
352.0
  0
ARC
  5
381
330
21A
100
AcDbEntity
  8
0
  6
Continuous
 62
     7
100
AcDbCircle
 10
248.7727238195
 20
112.8663523058
 30
0.0
 40
3.0
100
AcDbArc
 50
272.0
 51
307.0
  0
ARC
  5
382
330
21A
100
AcDbEntity
  8
0
  6
Continuous
 62
     7
100
AcDbCircle
 10
244.5750267504
 20
106.7161082282
 30
0.0
 40
3.0
100
AcDbArc
 50
92.0
 51
179.0
  0
ARC
  5
383
330
21A
100
AcDbEntity
  8
0
  6
Continuous
 62
     7
100
AcDbCircle
 10
229.828529605
 20
36.330515197
 30
0.0
 40
1.0
100
AcDbArc
 50
180.0
 51
270.0
  0
ARC
  5
384
330
21A
100
AcDbEntity
  8
0
  6
Continuous
 62
     7
100
AcDbCircle
 10
249.828529605
 20
126.8543902564
 30
0.0
 40
1.0
100
AcDbArc
 50
93.0
 51
180.0
  0
ARC
  5
385
330
21A
100
AcDbEntity
  8
0
  6
Continuous
 62
     7
100
AcDbCircle
 10
247.828529605
 20
117.0304229952
 30
0.0
 40
1.0
100
AcDbArc
 50
270.9999999997001
 51
360.0
  0
ARC
  5
386
330
21A
100
AcDbEntity
  8
0
  6
Continuous
 62
     7
100
AcDbCircle
 10
242.328529605
 20
114.9341154821
 30
0.0
 40
1.0
100
AcDbArc
 50
91.0
 51
150.9949616684
  0
ARC
  5
387
330
21A
100
AcDbEntity
  8
0
  6
Continuous
 62
     7
100
AcDbCircle
 10
233.828529605
 20
42.5939264394
 30
0.0
 40
1.0
100
AcDbArc
 50
272.9999999997001
 51
360.0
  0
ARC
  5
388
330
21A
100
AcDbEntity
  8
0
  6
Continuous
 62
     7
100
AcDbCircle
 10
229.828529605
 20
40.3815506303
 30
0.0
 40
1.0
100
AcDbArc
 50
93.0
 51
180.0
  0
ARC
  5
389
330
21A
100
AcDbEntity
  8
0
  6
Continuous
 62
     7
100
AcDbCircle
 10
239.3458323419
 20
36.330515197
 30
0.0
 40
1.0
100
AcDbArc
 50
270.0
 51
359.0
  0
ARC
  5
38A
330
21A
100
AcDbEntity
  8
0
  6
Continuous
 62
     7
100
AcDbCircle
 10
240.5793754614
 20
115.903888539
 30
0.0
 40
1.0
100
AcDbArc
 50
271.0
 51
330.9949616684
  0
ARC
  5
38B
330
21A
100
AcDbEntity
  8
0
  6
Continuous
 62
     7
100
AcDbCircle
 10
235.828529605
 20
113.82065756
 30
0.0
 40
1.0
100
AcDbArc
 50
91.0
 51
180.0
  0
ARC
  5
38C
330
21A
100
AcDbEntity
  8
0
  6
Continuous
 62
     7
100
AcDbCircle
 10
275.8173985865
 20
152.849343329
 30
0.0
 40
5.0
100
AcDbArc
 50
333.0
 51
358.0
  0
ARC
  5
38D
330
21A
100
AcDbEntity
  8
0
  6
Continuous
 62
     7
100
AcDbCircle
 10
278.4262728987
 20
198.9040222443
 30
0.0
 40
4.999999986899999
100
AcDbArc
 50
333.9050765082
 51
357.9999998372
  0
ARC
  5
38E
330
21A
100
AcDbEntity
  8
0
  6
Continuous
 62
     7
100
AcDbCircle
 10
272.0813980715
 20
153.2264418956
 30
0.0
 40
3.0
100
AcDbArc
 50
333.0
 51
359.7717007321
  0
ARC
  5
38F
330
21A
100
AcDbEntity
  8
0
  6
Continuous
 62
     7
100
AcDbCircle
 10
201.828529605
 20
239.830515197
 30
0.0
 40
1.0
100
AcDbArc
 50
281.2495330492
 51
360.0
  0
ARC
  5
390
330
21A
100
AcDbEntity
  8
0
  6
Continuous
 62
     7
100
AcDbCircle
 10
220.828529605
 20
239.830515197
 30
0.0
 40
1.0
100
AcDbArc
 50
180.0
 51
258.7504608997
  0
ARC
  5
391
330
21A
100
AcDbEntity
  8
0
  6
Continuous
 62
     7
100
AcDbCircle
 10
276.3245529485
 20
214.2422097815
 30
0.0
 40
1.0
100
AcDbArc
 50
90.0
 51
179.7717007321
  0
ARC
  5
392
330
21A
100
AcDbEntity
  8
0
  6
Continuous
 62
     7
100
AcDbCircle
 10
262.2407121898
 20
129.5076298737
 30
0.0
 40
1.0
100
AcDbArc
 50
273.0
 51
333.0
  0
ARC
  5
393
330
21A
100
AcDbEntity
  8
0
  6
Continuous
 62
     7
100
AcDbCircle
 10
276.328529605
 20
227.4353979146
 30
0.0
 40
1.0
100
AcDbArc
 50
180.0
 51
269.0
  0
ARC
  5
394
330
21A
100
AcDbEntity
  8
0
  6
Continuous
 62
     7
100
AcDbCircle
 10
276.328529605
 20
230.830515197
 30
0.0
 40
1.0
100
AcDbArc
 50
90.0
 51
180.0
  0
ARC
  5
395
330
21A
100
AcDbEntity
  8
RUNDUNGEN
  6
Continuous
 62
     9
100
AcDbCircle
 10
226.4933958789
 20
214.3082525563
 30
0.0
 40
0.933957241
100
AcDbArc
 50
90.01056532239999
 51
96.66136369889999
  0
ARC
  5
396
330
21A
100
AcDbEntity
  8
0
  6
Continuous
 62
     7
100
AcDbCircle
 10
287.2682695874
 20
194.2223047951
 30
0.0
 40
4.999999993899999
100
AcDbArc
 50
153.9050343772
 51
178.0000005032
  0
ARC
  5
397
330
21A
100
AcDbEntity
  8
0
  6
Continuous
 62
     7
100
AcDbCircle
 10
345.9767418979
 20
234.6555722852
 30
0.0
 40
3.0
100
AcDbArc
 50
270.0137843687
 51
355.0
  0
ARC
  5
398
330
21A
100
AcDbEntity
  8
0
  6
Continuous
 62
     7
100
AcDbCircle
 10
286.7084165463
 20
206.8439170026
 30
0.0
 40
3.0
100
AcDbArc
 50
96.66399595610002
 51
178.0
  0
ARC
  5
399
330
21A
100
AcDbEntity
  8
0
  6
Continuous
 62
     7
100
AcDbCircle
 10
359.4306004716
 20
225.830515197
 30
0.0
 40
2.0
100
AcDbArc
 50
270.0
 51
357.0
  0
ARC
  5
39A
330
21A
100
AcDbEntity
  8
0
  6
Continuous
 62
     7
100
AcDbCircle
 10
359.4306004716
 20
229.830515197
 30
0.0
 40
2.0
100
AcDbArc
 50
3.0
 51
90.0
  0
ARC
  5
39B
330
21A
100
AcDbEntity
  8
0
  6
Continuous
 62
     7
100
AcDbCircle
 10
290.4805409987
 20
221.830515197
 30
0.0
 40
2.0
100
AcDbArc
 50
90.0
 51
178.0
  0
ARC
  5
39C
330
21A
100
AcDbEntity
  8
0
  6
Continuous
 62
     7
100
AcDbCircle
 10
286.1281834638
 20
211.8101358429
 30
0.0
 40
2.0
100
AcDbArc
 50
276.6639959561
 51
358.0
  0
ARC
  5
39D
330
21A
100
AcDbEntity
  8
0
  6
Continuous
 62
     7
100
AcDbCircle
 10
295.9831247182
 20
239.830515197
 30
0.0
 40
1.0
100
AcDbArc
 50
270.0000413079
 51
360.0
  0
ARC
  5
39E
330
21A
100
AcDbEntity
  8
0
  6
Continuous
 62
     7
100
AcDbCircle
 10
316.8852377508
 20
239.830515197
 30
0.0
 40
1.0
100
AcDbArc
 50
180.0
 51
269.9999586921
  0
ARC
  5
39F
330
21A
100
AcDbEntity
  8
0
  6
Continuous
 62
     7
100
AcDbCircle
 10
281.328529605
 20
216.3132124601
 30
0.0
 40
1.0
100
AcDbArc
 50
271.0
 51
360.0
  0
ARC
  5
3A0
330
21A
100
AcDbEntity
  8
0
  6
Continuous
 62
     7
100
AcDbCircle
 10
281.328529605
 20
225.3478179339
 30
0.0
 40
1.0
100
AcDbArc
 50
0.0
 51
89.0
  0
ARC
  5
3A1
330
21A
100
AcDbEntity
  8
RUNDUNGEN
  6
Continuous
 62
     9
100
AcDbCircle
 10
969.9017699624
 20
468.2782394505999
 30
0.0
 40
787.6416195775
100
AcDbArc
 50
198.8116343299
 51
199.0801271229
  0
ARC
  5
3A2
330
21A
100
AcDbEntity
  8
RUNDUNGEN
  6
Continuous
 62
     9
100
AcDbCircle
 10
892.5966473802001
 20
444.947119497
 30
0.0
 40
708.0041145797999
100
AcDbArc
 50
199.0781262013
 51
199.403439014
  0
LINE
  5
3A3
330
21A
100
AcDbEntity
  8
0
  6
Continuous
 62
     7
100
AcDbLine
 10
117.9298268157
 20
231.9887891674
 30
0.0
 11
119.0603532177
 21
231.9978187557
 31
0.0
  0
LINE
  5
3A4
330
21A
100
AcDbEntity
  8
0
  6
Continuous
 62
     7
100
AcDbLine
 10
119.0603532177
 20
231.9978187557
 30
0.0
 11
119.5696216678
 21
232.0017190489
 31
0.0
  0
SPLINE
  5
3A5
330
21A
100
AcDbEntity
  8
0
  6
Continuous
 62
     7
100
AcDbSpline
210
0.0
220
0.0
230
1.0
 70
     8
 71
     3
 72
    18
 73
    14
 74
     0
 42
0.0000000001
 43
0.0000000001
 40
0.0
 40
0.0
 40
0.0
 40
0.0
 40
0.0043831359
 40
0.0168289184
 40
0.0374030662
 40
0.0660614345
 40
0.10274709
 40
0.1473995897
 40
0.260274839
 40
0.4034968207
 40
0.5755983961
 40
0.7750801653
 40
1.0
 40
1.0
 40
1.0
 40
1.0
 10
206.328529605
 20
231.9654541103
 30
0.0
 10
206.328529605
 20
231.9675952649
 30
0.0
 10
206.3409491824
 20
231.9673445878
 30
0.0
 10
206.3550873315
 20
231.970847367
 30
0.0
 10
206.3874293698
 20
231.9719024836
 30
0.0
 10
206.4283524239
 20
231.974363624
 30
0.0
 10
206.4824311283
 20
231.9762689792
 30
0.0
 10
206.5770757309
 20
231.9793260544
 30
0.0
 10
206.7240699117
 20
231.9827631497
 30
0.0
 10
206.9331585271
 20
231.9866329002
 30
0.0
 10
207.1846314913
 20
231.9903149905
 30
0.0
 10
207.4759955775
 20
231.9938023357
 30
0.0
 10
207.6833067287
 20
231.9958439914
 30
0.0
 10
207.7931752057
 20
231.9968376644
 30
0.0
  0
SPLINE
  5
3A6
330
21A
100
AcDbEntity
  8
0
  6
Continuous
 62
     7
100
AcDbSpline
210
0.0
220
0.0
230
1.0
 70
     8
 71
     3
 72
    18
 73
    14
 74
     0
 42
0.0000000001
 43
0.0000000001
 40
0.0
 40
0.0
 40
0.0
 40
0.0
 40
0.2249199689
 40
0.4244017862
 40
0.5965033560000001
 40
0.7397252984
 40
0.8526004932999999
 40
0.8972529676999998
 40
0.9339386015999998
 40
0.9625969527
 40
0.9831710879999999
 40
0.9956168634999999
 40
1.0
 40
1.0
 40
1.0
 40
1.0
 10
214.8639052348
 20
231.9968374725
 30
0.0
 10
214.9737721857
 20
231.9958438017
 30
0.0
 10
215.1810804224
 20
231.9938021519
 30
0.0
 10
215.4724403736
 20
231.9903148213
 30
0.0
 10
215.7239096959
 20
231.9866327504
 30
0.0
 10
215.9329952333
 20
231.9827630242
 30
0.0
 10
216.0799872255
 20
231.9793259509
 30
0.0
 10
216.1746304074
 20
231.9762688989
 30
0.0
 10
216.2287082953
 20
231.9743635545
 30
0.0
 10
216.269630734
 20
231.9719024405
 30
0.0
 10
216.3019722779
 20
231.9708473136
 30
0.0
 10
216.3161102235
 20
231.9673445929
 30
0.0
 10
216.328529605
 20
231.9675952342
 30
0.0
 10
216.328529605
 20
231.9654541103
 30
0.0
  0
SPLINE
  5
3A7
330
21A
100
AcDbEntity
  8
0
  6
Continuous
 62
     7
100
AcDbSpline
210
0.0
220
0.0
230
1.0
 70
     8
 71
     3
 72
     9
 73
     5
 74
     0
 42
0.0000000001
 43
0.0000000001
 40
0.0
 40
0.0
 40
0.0
 40
0.0
 40
0.2396853364
 40
1.0
 40
1.0
 40
1.0
 40
1.0
 10
303.2132163952
 20
231.9968374725
 30
0.0
 10
303.3320766407
 20
231.995984365
 30
0.0
 10
303.8279773784
 20
231.9923609568
 30
0.0
 10
304.3238764057
 20
231.9885051531
 30
0.0
 10
304.7009148575
 20
231.985470456
 30
0.0
  0
LINE
  5
3A8
330
21A
100
AcDbEntity
  8
0
  6
Continuous
 62
     7
100
AcDbLine
 10
304.7009148575
 20
231.985470456
 30
0.0
 11
305.4830950782
 21
231.9790274309
 31
0.0
  0
SPLINE
  5
3A9
330
21A
100
AcDbEntity
  8
0
  6
Continuous
 62
     9
100
AcDbSpline
210
0.0
220
0.0
230
1.0
 70
     8
 71
     3
 72
    12
 73
     8
 74
     0
 42
0.0000000001
 43
0.0000000001
 40
0.0
 40
0.0
 40
0.0
 40
0.0
 40
0.1284430702
 40
0.2260037237
 40
0.3472926329999999
 40
0.6498372073
 40
1.0
 40
1.0
 40
1.0
 40
1.0
 10
112.3361600126
 20
238.830515197
 30
0.0
 10
112.3830389731
 20
238.830515197
 30
0.0
 10
112.455888941
 20
238.8957838787
 30
0.0
 10
112.5134656545
 20
239.0052771465
 30
0.0
 10
112.5798868382
 20
239.1856102843
 30
0.0
 10
112.6310258929
 20
239.4642039713
 30
0.0
 10
112.645177007
 20
239.7027133025
 30
0.0
 10
112.645177007
 20
239.830515197
 30
0.0
  0
LINE
  5
3AA
330
21A
100
AcDbEntity
  8
0
  6
Continuous
 62
     7
100
AcDbLine
 10
207.3213335638
 20
231.9223324781
 30
0.0
 11
207.2353740467
 21
231.9233379652
 31
0.0
  0
SPLINE
  5
3AB
330
21A
100
AcDbEntity
  8
0
  6
Continuous
 62
     7
100
AcDbSpline
210
0.0
220
0.0
230
1.0
 70
     8
 71
     3
 72
    16
 73
    12
 74
     0
 42
0.0000000001
 43
0.0000000001
 40
0.0
 40
0.0
 40
0.0
 40
0.0
 40
0.4294838206
 40
0.6014208254
 40
0.7434929156
 40
0.8548048104999999
 40
0.9348599726999999
 40
0.9630473431999998
 40
0.9832847834
 40
0.995552059
 40
1.0
 40
1.0
 40
1.0
 40
1.0
 10
207.2353740467
 20
231.9233379652
 30
0.0
 10
207.1054389176
 20
231.9249068467
 30
0.0
 10
206.9234669238
 20
231.9273817879
 30
0.0
 10
206.6986035748
 20
231.9316167301
 30
0.0
 10
206.569850611
 20
231.9345856427
 30
0.0
 10
206.4692766927
 20
231.9377255908
 30
0.0
 10
206.4023464747
 20
231.9403046295
 30
0.0
 10
206.3642944505
 20
231.942902798
 30
0.0
 10
206.3447511783
 20
231.9441057099
 30
0.0
 10
206.3358917641
 20
231.9461381881
 30
0.0
 10
206.328529605
 20
231.9466763844
 30
0.0
 10
206.328529605
 20
231.9480221532
 30
0.0
  0
SPLINE
  5
3AC
330
21A
100
AcDbEntity
  8
0
  6
Continuous
 62
     9
100
AcDbSpline
210
0.0
220
0.0
230
1.0
 70
     8
 71
     3
 72
    12
 73
     8
 74
     0
 42
0.0000000001
 43
0.0000000001
 40
0.0
 40
0.0
 40
0.0
 40
0.0
 40
0.1284430688
 40
0.2260037227
 40
0.3472926329999999
 40
0.6498372100000001
 40
1.0
 40
1.0
 40
1.0
 40
1.0
 10
310.3208991974
 20
238.830515197
 30
0.0
 10
310.2740202374
 20
238.830515197
 30
0.0
 10
310.2011702694
 20
238.8957838777
 30
0.0
 10
310.1435935562
 20
239.0052771458
 30
0.0
 10
310.0771723712
 20
239.1856102847
 30
0.0
 10
310.026033317
 20
239.4642039724
 30
0.0
 10
310.011882203
 20
239.7027133035
 30
0.0
 10
310.011882203
 20
239.830515197
 30
0.0
  0
SPLINE
  5
3AD
330
21A
100
AcDbEntity
  8
0
  6
Continuous
 62
     9
100
AcDbSpline
210
0.0
220
0.0
230
1.0
 70
     8
 71
     3
 72
    12
 73
     8
 74
     0
 42
0.0000000001
 43
0.0000000001
 40
0.0
 40
0.0
 40
0.0
 40
0.0
 40
0.1284430702
 40
0.2260037237
 40
0.3472926329999999
 40
0.6498372073
 40
1.0
 40
1.0
 40
1.0
 40
1.0
 10
308.4187861648
 20
238.830515197
 30
0.0
 10
308.3719072044
 20
238.830515197
 30
0.0
 10
308.2990572364
 20
238.8957838787
 30
0.0
 10
308.2414805229
 20
239.0052771465
 30
0.0
 10
308.1750593392
 20
239.1856102843
 30
0.0
 10
308.1239202845
 20
239.4642039713
 30
0.0
 10
308.1097691704
 20
239.7027133025
 30
0.0
 10
308.1097691704
 20
239.830515197
 30
0.0
  0
LINE
  5
3AE
330
21A
100
AcDbEntity
  8
0
  6
Continuous
 62
     7
100
AcDbLine
 10
123.3584703397
 20
232.0112905726
 30
0.0
 11
123.1734062481
 21
232.0083400209
 31
0.0
  0
SPLINE
  5
3AF
330
21A
100
AcDbEntity
  8
0
  6
Continuous
 62
     7
100
AcDbSpline
210
0.0
220
0.0
230
1.0
 70
     8
 71
     3
 72
     9
 73
     5
 74
     0
 42
0.0000000001
 43
0.0000000001
 40
0.0
 40
0.0
 40
0.0
 40
0.0
 40
0.231799243
 40
1.0
 40
1.0
 40
1.0
 40
1.0
 10
122.3643881341
 20
231.9974859197
 30
0.0
 10
122.3038730509
 20
231.9967451464
 30
0.0
 10
122.042805666
 20
231.9935983934
 30
0.0
 10
121.7817361804
 20
231.990627381
 30
0.0
 10
121.5811816614
 20
231.9884144451
 30
0.0
  0
SPLINE
  5
3B0
330
21A
100
AcDbEntity
  8
0
  6
Continuous
 62
     7
100
AcDbSpline
210
0.0
220
0.0
230
1.0
 70
     8
 71
     3
 72
     9
 73
     5
 74
     0
 42
0.0000000001
 43
0.0000000001
 40
0.0
 40
0.0
 40
0.0
 40
0.0
 40
0.235848614
 40
1.0
 40
1.0
 40
1.0
 40
1.0
 10
121.5811816614
 20
231.9884144451
 30
0.0
 10
121.4996768832
 20
231.9875151143
 30
0.0
 10
121.1540954193
 20
231.9837523367
 30
0.0
 10
120.808511948
 20
231.9801750111
 30
0.0
 10
120.544433073
 20
231.9775215876
 30
0.0
  0
SPLINE
  5
3B1
330
21A
100
AcDbEntity
  8
0
  6
Continuous
 62
     7
100
AcDbSpline
210
0.0
220
0.0
230
1.0
 70
     8
 71
     3
 72
     9
 73
     5
 74
     0
 42
0.0000000001
 43
0.0000000001
 40
0.0
 40
0.0
 40
0.0
 40
0.0
 40
0.2314277895
 40
1.0
 40
1.0
 40
1.0
 40
1.0
 10
123.4789352154
 20
232.0331345491
 30
0.0
 10
123.4696618971
 20
232.0313439246
 30
0.0
 10
123.4295667522
 20
232.0237367283
 30
0.0
 10
123.3893835678
 20
232.0165983585
 30
0.0
 10
123.3584703397
 20
232.0112905726
 30
0.0
  0
SPLINE
  5
3B2
330
21A
100
AcDbEntity
  8
0
  6
Continuous
 62
     7
100
AcDbSpline
210
0.0
220
0.0
230
1.0
 70
     8
 71
     3
 72
    17
 73
    13
 74
     0
 42
0.0000000001
 43
0.0000000001
 40
0.0
 40
0.0
 40
0.0
 40
0.0
 40
0.0044270218
 40
0.0167165041
 40
0.0370003423
 40
0.065253015
 40
0.1454819229
 40
0.2570048508
 40
0.3992318182
 40
0.5711734399
 40
0.7717821467000001
 40
1.0
 40
1.0
 40
1.0
 40
1.0
 10
216.328529605
 20
231.9480221532
 30
0.0
 10
216.328529605
 20
231.9465545671
 30
0.0
 10
216.3203946486
 20
231.9461181538
 30
0.0
 10
216.3107243172
 20
231.9438710272
 30
0.0
 10
216.2892255818
 20
231.9426773439
 30
0.0
 10
216.2474527151
 20
231.9399168158
 30
0.0
 10
216.1739491239
 20
231.9372497629
 30
0.0
 10
216.0635768133
 20
231.9339597685
 30
0.0
 10
215.9223759386
 20
231.9308768482
 30
0.0
 10
215.7517917293
 20
231.9278281013
 30
0.0
 10
215.5526401293
 20
231.9249191932
 30
0.0
 10
215.4104955522
 20
231.9231795372
 30
0.0
 10
215.3348447264
 20
231.9223224952
 30
0.0
  0
SPLINE
  5
3B3
330
21A
100
AcDbEntity
  8
0
  6
Continuous
 62
     9
100
AcDbSpline
210
0.0
220
0.0
230
1.0
 70
     8
 71
     3
 72
    12
 73
     8
 74
     0
 42
0.0000000001
 43
0.0000000001
 40
0.0
 40
0.0
 40
0.0
 40
0.0
 40
0.1284430688
 40
0.2260037227
 40
0.3472926329999999
 40
0.6498372100000001
 40
1.0
 40
1.0
 40
1.0
 40
1.0
 10
114.2382730452
 20
238.830515197
 30
0.0
 10
114.2851520052
 20
238.830515197
 30
0.0
 10
114.3580019732
 20
238.8957838777
 30
0.0
 10
114.4155786864
 20
239.0052771458
 30
0.0
 10
114.4819998714
 20
239.1856102847
 30
0.0
 10
114.5331389256
 20
239.4642039724
 30
0.0
 10
114.5472900396
 20
239.7027133035
 30
0.0
 10
114.5472900396
 20
239.830515197
 30
0.0
  0
SPLINE
  5
3B4
330
21A
100
AcDbEntity
  8
RUNDUNGEN
  6
Continuous
 62
     9
100
AcDbSpline
210
0.0
220
0.0
230
1.0
 70
     8
 71
     3
 72
     9
 73
     5
 74
     0
 42
0.0000000001
 43
0.0000000001
 40
0.0
 40
0.0
 40
0.0
 40
0.0
 40
0.4589976216
 40
1.0
 40
1.0
 40
1.0
 40
1.0
 10
224.2104578452
 20
215.0601388734
 30
0.0
 10
224.1370322024
 20
215.0194649503
 30
0.0
 10
223.9518004705
 20
214.976214122
 30
0.0
 10
223.767942558
 20
215.0041112627
 30
0.0
 10
223.6726691291
 20
215.0307784118
 30
0.0
  0
SPLINE
  5
3B5
330
21A
100
AcDbEntity
  8
RUNDUNGEN
  6
Continuous
 62
     9
100
AcDbSpline
210
0.0
220
0.0
230
1.0
 70
     8
 71
     3
 72
     9
 73
     5
 74
     0
 42
0.0000000001
 43
0.0000000001
 40
0.0
 40
0.0
 40
0.0
 40
0.0
 40
0.5496699657999999
 40
1.0
 40
1.0
 40
1.0
 40
1.0
 10
223.7350885174
 20
215.796822855
 30
0.0
 10
223.7350885174
 20
215.655844458
 30
0.0
 10
223.7257420444
 20
215.3994178595
 30
0.0
 10
223.6962164985
 20
215.1438524583
 30
0.0
 10
223.6726691291
 20
215.0307784118
 30
0.0
  0
SPLINE
  5
3B6
330
21A
100
AcDbEntity
  8
RUNDUNGEN
  6
Continuous
 62
     9
100
AcDbSpline
210
0.0
220
0.0
230
1.0
 70
     8
 71
     3
 72
    12
 73
     8
 74
     0
 42
0.0000000001
 43
0.0000000001
 40
0.0
 40
0.0
 40
0.0
 40
0.0
 40
0.345582674
 40
0.6448807182000001
 40
0.869255874
 40
0.9470304181999999
 40
1.0
 40
1.0
 40
1.0
 40
1.0
 10
223.7350885174
 20
215.796822855
 30
0.0
 10
223.8002421666
 20
215.7189073317
 30
0.0
 10
223.9151127433
 20
215.5679167088
 30
0.0
 10
224.0625054495
 20
215.359358448
 30
0.0
 10
224.1550541781
 20
215.2081437416
 30
0.0
 10
224.1979930732
 20
215.1128863976
 30
0.0
 10
224.2084667811
 20
215.0755788005
 30
0.0
 10
224.2104578452
 20
215.0601388734
 30
0.0
  0
SPLINE
  5
3B7
330
21A
100
AcDbEntity
  8
RUNDUNGEN
  6
Continuous
 62
     9
100
AcDbSpline
210
0.0
220
0.0
230
1.0
 70
     8
 71
     3
 72
     9
 73
     5
 74
     0
 42
0.0000000001
 43
0.0000000001
 40
0.0
 40
0.0
 40
0.0
 40
0.0
 40
0.4929738942000001
 40
1.0
 40
1.0
 40
1.0
 40
1.0
 10
197.6357276444
 20
215.3133628308
 30
0.0
 10
197.7771404057
 20
215.3142575763
 30
0.0
 10
198.0657678182
 20
215.2754435589
 30
0.0
 10
198.3302498408
 20
215.1474145459
 30
0.0
 10
198.4466003667
 20
215.0601375134
 30
0.0
  0
SPLINE
  5
3B8
330
21A
100
AcDbEntity
  8
RUNDUNGEN
  6
Continuous
 62
     9
100
AcDbSpline
210
0.0
220
0.0
230
1.0
 70
     8
 71
     3
 72
    15
 73
    11
 74
     0
 42
0.0000000001
 43
0.0000000001
 40
0.0
 40
0.0
 40
0.0
 40
0.0
 40
0.362996402
 40
0.5281070691
 40
0.6743519677
 40
0.7967744245999999
 40
0.8917642187
 40
0.9284630254999999
 40
0.9581432771999999
 40
1.0
 40
1.0
 40
1.0
 40
1.0
 10
197.4435779921
 20
216.3132124601
 30
0.0
 10
197.443577992
 20
216.186899856
 30
0.0
 10
197.4500616262
 20
216.0029836774
 30
0.0
 10
197.4736086645
 20
215.7694495466
 30
0.0
 10
197.496494989
 20
215.6201539704
 30
0.0
 10
197.5243807459
 20
215.4965977074
 30
0.0
 10
197.5521298003
 20
215.4124006488
 30
0.0
 10
197.5778683149
 20
215.3620845547
 30
0.0
 10
197.5990393888
 20
215.3315003283
 30
0.0
 10
197.6212203527
 20
215.3146596223
 30
0.0
 10
197.6357276505
 20
215.3133647649
 30
0.0
  0
SPLINE
  5
3B9
330
21A
100
AcDbEntity
  8
RUNDUNGEN
  6
Continuous
 62
     9
100
AcDbSpline
210
0.0
220
0.0
230
1.0
 70
     8
 71
     3
 72
    11
 73
     7
 74
     0
 42
0.0000000001
 43
0.0000000001
 40
0.0
 40
0.0
 40
0.0
 40
0.0
 40
0.2259611367
 40
0.4715026957
 40
0.7325900231000001
 40
1.0
 40
1.0
 40
1.0
 40
1.0
 10
198.3240880687
 20
214.2969663669
 30
0.0
 10
198.3415842811
 20
214.207955273
 30
0.0
 10
198.4152671679
 20
214.0286176062
 30
0.0
 10
198.6092200656
 20
213.8023639572
 30
0.0
 10
198.8696937364
 20
213.6268670434
 30
0.0
 10
199.0718120868
 20
213.554383992
 30
0.0
 10
199.1765713735
 20
213.5309221584
 30
0.0
  0
SPLINE
  5
3BA
330
21A
100
AcDbEntity
  8
RUNDUNGEN
  6
Continuous
 62
     9
100
AcDbSpline
210
0.0
220
0.0
230
1.0
 70
     8
 71
     3
 72
    11
 73
     7
 74
     0
 42
0.0000000001
 43
0.0000000001
 40
0.0
 40
0.0
 40
0.0
 40
0.0
 40
0.2696339546
 40
0.5111678397999999
 40
0.7521215655
 40
1.0
 40
1.0
 40
1.0
 40
1.0
 10
198.446604346
 20
215.0601390428
 30
0.0
 10
198.4844510425
 20
214.9977439022
 30
0.0
 10
198.5237791131
 20
214.8581770089
 30
0.0
 10
198.4983783789
 20
214.6535858031
 30
0.0
 10
198.4284727358
 20
214.4673739808
 30
0.0
 10
198.361496801
 20
214.3526565669
 30
0.0
 10
198.3240880687
 20
214.2969663669
 30
0.0
  0
SPLINE
  5
3BB
330
21A
100
AcDbEntity
  8
RUNDUNGEN
  6
Continuous
 62
     9
100
AcDbSpline
210
0.0
220
0.0
230
1.0
 70
     8
 71
     3
 72
     9
 73
     5
 74
     0
 42
0.0000000001
 43
0.0000000001
 40
0.0
 40
0.0
 40
0.0
 40
0.0
 40
0.5410340018
 40
1.0
 40
1.0
 40
1.0
 40
1.0
 10
198.9843900817
 20
215.0307784118
 30
0.0
 10
198.8892650982
 20
215.0035699452
 30
0.0
 10
198.7051502135
 20
214.9764061569
 30
0.0
 10
198.5200892547
 20
215.0195916593
 30
0.0
 10
198.4466013657
 20
215.0601388738
 30
0.0
  0
SPLINE
  5
3BC
330
21A
100
AcDbEntity
  8
RUNDUNGEN
  6
Continuous
 62
     9
100
AcDbSpline
210
0.0
220
0.0
230
1.0
 70
     8
 71
     3
 72
    15
 73
    11
 74
     0
 42
0.0000000001
 43
0.0000000001
 40
0.0
 40
0.0
 40
0.0
 40
0.0
 40
0.0532246638
 40
0.1307240974
 40
0.2321410487
 40
0.3551959514
 40
0.4971177670000001
 40
0.6544877707
 40
0.8235356768
 40
1.0
 40
1.0
 40
1.0
 40
1.0
 10
198.4466013657
 20
215.0601388738
 30
0.0
 10
198.4469695313
 20
215.0757806695
 30
0.0
 10
198.4592236599
 20
215.1131532071
 30
0.0
 10
198.4873854098
 20
215.1749155994
 30
0.0
 10
198.5299883931
 20
215.2530609214
 30
0.0
 10
198.5869432614
 20
215.344452283
 30
0.0
 10
198.6564561848
 20
215.4473662133
 30
0.0
 10
198.7365165011
 20
215.5593855763
 30
0.0
 10
198.8262470228
 20
215.6768992111
 30
0.0
 10
198.8898487018
 20
215.7560907608
 30
0.0
 10
198.9219706934
 20
215.796822855
 30
0.0
  0
SPLINE
  5
3BD
330
21A
100
AcDbEntity
  8
RUNDUNGEN
  6
Continuous
 62
     9
100
AcDbSpline
210
0.0
220
0.0
230
1.0
 70
     8
 71
     3
 72
     9
 73
     5
 74
     0
 42
0.0000000001
 43
0.0000000001
 40
0.0
 40
0.0
 40
0.0
 40
0.0
 40
0.4503299493
 40
1.0
 40
1.0
 40
1.0
 40
1.0
 10
198.9843900817
 20
215.0307784118
 30
0.0
 10
198.9608427167
 20
215.143852437
 30
0.0
 10
198.9313171674
 20
215.3994178375
 30
0.0
 10
198.9219706934
 20
215.6558444362
 30
0.0
 10
198.9219706934
 20
215.796822855
 30
0.0
  0
SPLINE
  5
3BE
330
21A
100
AcDbEntity
  8
RUNDUNGEN
  6
Continuous
 62
     9
100
AcDbSpline
210
0.0
220
0.0
230
1.0
 70
     8
 71
     3
 72
    10
 73
     6
 74
     0
 42
0.0000000001
 43
0.0000000001
 40
0.0
 40
0.0
 40
0.0
 40
0.0
 40
0.3928442066
 40
0.6648470067
 40
1.0
 40
1.0
 40
1.0
 40
1.0
 10
226.4932236575
 20
215.2422097815
 30
0.0
 10
226.4740585873
 20
215.2422097815
 30
0.0
 10
226.4429883447
 20
215.2229737389
 30
0.0
 10
226.413854261
 20
215.1844681739
 30
0.0
 10
226.399357549
 20
215.158345226
 30
0.0
 10
226.3922138392
 20
215.1436377832
 30
0.0
  0
SPLINE
  5
3BF
330
21A
100
AcDbEntity
  8
RUNDUNGEN
  6
Continuous
 62
     9
100
AcDbSpline
210
0.0
220
0.0
230
1.0
 70
     8
 71
     3
 72
    11
 73
     7
 74
     0
 42
0.0000000001
 43
0.0000000001
 40
0.0
 40
0.0
 40
0.0
 40
0.0
 40
0.1795438659
 40
0.4171746065
 40
0.6973157965000001
 40
1.0
 40
1.0
 40
1.0
 40
1.0
 10
226.3922138392
 20
215.1436377832
 30
0.0
 10
226.3683579836
 20
215.0945234377
 30
0.0
 10
226.3299346679
 20
214.9725781623
 30
0.0
 10
226.2908043272
 20
214.7640908425
 30
0.0
 10
226.2657789385
 20
214.5155170515
 30
0.0
 10
226.2599938265
 20
214.3382442511
 30
0.0
 10
226.25990825
 20
214.2461943449
 30
0.0
  0
SPLINE
  5
3C0
330
21A
100
AcDbEntity
  8
RUNDUNGEN
  6
Continuous
 62
     9
100
AcDbSpline
210
0.0
220
0.0
230
1.0
 70
     8
 71
     3
 72
     9
 73
     5
 74
     0
 42
0.0000000001
 43
0.0000000001
 40
0.0
 40
0.0
 40
0.0
 40
0.0
 40
0.6339183660000001
 40
1.0
 40
1.0
 40
1.0
 40
1.0
 10
226.25990825
 20
214.2461943449
 30
0.0
 10
226.1051008176
 20
214.2458500339
 30
0.0
 10
225.8608995648
 20
214.2447978718
 30
0.0
 10
225.6166841123
 20
214.2437755562
 30
0.0
 10
225.5272978312
 20
214.2422097815
 30
0.0
  0
SPLINE
  5
3C1
330
21A
100
AcDbEntity
  8
RUNDUNGEN
  6
Continuous
 62
     9
100
AcDbSpline
210
0.0
220
0.0
230
1.0
 70
     8
 71
     3
 72
    11
 73
     7
 74
     0
 42
0.0000000001
 43
0.0000000001
 40
0.0
 40
0.0
 40
0.0
 40
0.0
 40
0.2536871687
 40
0.5053227982000001
 40
0.7539102007
 40
1.0
 40
1.0
 40
1.0
 40
1.0
 10
225.5272978312
 20
214.2422097815
 30
0.0
 10
225.5272978312
 20
214.362950897
 30
0.0
 10
225.5701230898
 20
214.6056148753
 30
0.0
 10
225.7554168569
 20
214.921613841
 30
0.0
 10
226.0378537066
 20
215.1496925242
 30
0.0
 10
226.2687202586
 20
215.2223281676
 30
0.0
 10
226.3850559188
 20
215.2359047439
 30
0.0
  0
SPLINE
  5
3C2
330
21A
100
AcDbEntity
  8
RUNDUNGEN
  6
Continuous
 62
     9
100
AcDbSpline
210
0.0
220
0.0
230
1.0
 70
     8
 71
     3
 72
    11
 73
     7
 74
     0
 42
0.0000000001
 43
0.0000000001
 40
0.0
 40
0.0
 40
0.0
 40
0.0
 40
0.2459904711
 40
0.4943393577000001
 40
0.7460036033
 40
1.0
 40
1.0
 40
1.0
 40
1.0
 10
196.1638355525
 20
215.2422097815
 30
0.0
 10
196.2896388624
 20
215.2422097815
 30
0.0
 10
196.5453464979
 20
215.1895202093
 30
0.0
 10
196.8664012162
 20
214.965656396
 30
0.0
 10
197.080082047
 20
214.6334078198
 30
0.0
 10
197.1297613788
 20
214.3721074448
 30
0.0
 10
197.1297613788
 20
214.2422097815
 30
0.0
  0
SPLINE
  5
3C3
330
21A
100
AcDbEntity
  8
RUNDUNGEN
  6
Continuous
 62
     9
100
AcDbSpline
210
0.0
220
0.0
230
1.0
 70
     8
 71
     3
 72
    11
 73
     7
 74
     0
 42
0.0000000001
 43
0.0000000001
 40
0.0
 40
0.0
 40
0.0
 40
0.0
 40
0.1408914839
 40
0.366082059
 40
0.6594246977
 40
1.0
 40
1.0
 40
1.0
 40
1.0
 10
197.1297613788
 20
214.2422097815
 30
0.0
 10
197.0953983654
 20
214.2439458631
 30
0.0
 10
197.0059316533
 20
214.2426767698
 30
0.0
 10
196.8449401539
 20
214.2449296058
 30
0.0
 10
196.6351309582
 20
214.2462269368
 30
0.0
 10
196.4803079905
 20
214.2446567377
 30
0.0
 10
196.39715096
 20
214.2461943449
 30
0.0
  0
SPLINE
  5
3C4
330
21A
100
AcDbEntity
  8
RUNDUNGEN
  6
Continuous
 62
     9
100
AcDbSpline
210
0.0
220
0.0
230
1.0
 70
     8
 71
     3
 72
    11
 73
     7
 74
     0
 42
0.0000000001
 43
0.0000000001
 40
0.0
 40
0.0
 40
0.0
 40
0.0
 40
0.3027314882
 40
0.5828975122
 40
0.8205154434999998
 40
1.0
 40
1.0
 40
1.0
 40
1.0
 10
196.39715096
 20
214.2461943449
 30
0.0
 10
196.3970653503
 20
214.3382799696
 30
0.0
 10
196.3912760626
 20
214.5156157384
 30
0.0
 10
196.3662330736
 20
214.76426475
 30
0.0
 10
196.3270770885
 20
214.9727819679
 30
0.0
 10
196.2886278736
 20
215.0947300244
 30
0.0
 10
196.2647524795
 20
215.1438288866
 30
0.0
  0
SPLINE
  5
3C5
330
21A
100
AcDbEntity
  8
RUNDUNGEN
  6
Continuous
 62
     9
100
AcDbSpline
210
0.0
220
0.0
230
1.0
 70
     8
 71
     3
 72
    10
 73
     6
 74
     0
 42
0.0000000001
 43
0.0000000001
 40
0.0
 40
0.0
 40
0.0
 40
0.0
 40
0.3350773537
 40
0.6070517406000001
 40
1.0
 40
1.0
 40
1.0
 40
1.0
 10
196.2647524795
 20
215.1438288866
 30
0.0
 10
196.2576140203
 20
215.158508863
 30
0.0
 10
196.2431285295
 20
215.1845830597
 30
0.0
 10
196.2140141916
 20
215.2230197837
 30
0.0
 10
196.1829783648
 20
215.2422097815
 30
0.0
 10
196.1638355525
 20
215.2422097815
 30
0.0
  0
SPLINE
  5
3C6
330
21A
100
AcDbEntity
  8
RUNDUNGEN
  6
Continuous
 62
     9
100
AcDbSpline
210
0.0
220
0.0
230
1.0
 70
     8
 71
     3
 72
     9
 73
     5
 74
     0
 42
0.0000000001
 43
0.0000000001
 40
0.0
 40
0.0
 40
0.0
 40
0.0
 40
0.6339188458000001
 40
1.0
 40
1.0
 40
1.0
 40
1.0
 10
196.3932302168
 20
210.8099803643
 30
0.0
 10
196.5480141509
 20
210.8096360932
 30
0.0
 10
196.79217815
 20
210.8085840062
 30
0.0
 10
197.0363563489
 20
210.8075615563
 30
0.0
 10
197.1257288732
 20
210.8059957964
 30
0.0
  0
SPLINE
  5
3C7
330
21A
100
AcDbEntity
  8
RUNDUNGEN
  6
Continuous
 62
     9
100
AcDbSpline
210
0.0
220
0.0
230
1.0
 70
     8
 71
     3
 72
    14
 73
    10
 74
     0
 42
0.0000000001
 43
0.0000000001
 40
0.0
 40
0.0
 40
0.0
 40
0.0
 40
0.2474123152
 40
0.3736550159
 40
0.5017674242
 40
0.6309638776
 40
0.7582930928
 40
0.8810179683999999
 40
1.0
 40
1.0
 40
1.0
 40
1.0
 10
197.1257288732
 20
210.8059957964
 30
0.0
 10
197.1140440389
 20
210.6799186081
 30
0.0
 10
197.1102188688
 20
210.4872061373
 30
0.0
 10
197.1502797473
 20
210.2328167132
 30
0.0
 10
197.212767748
 20
210.0454422992
 30
0.0
 10
197.3196625856
 20
209.876627728
 30
0.0
 10
197.4789672259
 20
209.7564561418
 30
0.0
 10
197.6671595841
 20
209.7116915567
 30
0.0
 10
197.7919948318
 20
209.7232610114
 30
0.0
 10
197.8516248856
 20
209.7355891405
 30
0.0
  0
SPLINE
  5
3C8
330
21A
100
AcDbEntity
  8
RUNDUNGEN
  6
Continuous
 62
     9
100
AcDbSpline
210
0.0
220
0.0
230
1.0
 70
     8
 71
     3
 72
     9
 73
     5
 74
     0
 42
0.0000000001
 43
0.0000000001
 40
0.0
 40
0.0
 40
0.0
 40
0.0
 40
0.5488179076
 40
1.0
 40
1.0
 40
1.0
 40
1.0
 10
224.7306040029
 20
208.9735288626
 30
0.0
 10
224.730721474
 20
209.1138303464
 30
0.0
 10
224.7420232442
 20
209.3694049909
 30
0.0
 10
224.7774961176
 20
209.6236818928
 30
0.0
 10
224.805434322
 20
209.7355887423
 30
0.0
  0
SPLINE
  5
3C9
330
21A
100
AcDbEntity
  8
RUNDUNGEN
  6
Continuous
 62
     9
100
AcDbSpline
210
0.0
220
0.0
230
1.0
 70
     8
 71
     3
 72
    14
 73
    10
 74
     0
 42
0.0000000001
 43
0.0000000001
 40
0.0
 40
0.0
 40
0.0
 40
0.0
 40
0.1189822637
 40
0.241707511
 40
0.369036611
 40
0.498232916
 40
0.6263451884000001
 40
0.7525878079
 40
1.0
 40
1.0
 40
1.0
 40
1.0
 10
224.8054343251
 20
209.7355891365
 30
0.0
 10
224.865064498
 20
209.7232610033
 30
0.0
 10
224.9899000626
 20
209.7116919026
 30
0.0
 10
225.178092728
 20
209.7564563058
 30
0.0
 10
225.3373971732
 20
209.8766283241
 30
0.0
 10
225.4442916844
 20
210.0454427988
 30
0.0
 10
225.5067795633
 20
210.2328170557
 30
0.0
 10
225.5468402793
 20
210.4872063164
 30
0.0
 10
225.5430152076
 20
210.6799186778
 30
0.0
 10
225.53133033
 20
210.8059957962
 30
0.0
  0
LINE
  5
3CA
330
21A
100
AcDbEntity
  8
RUNDUNGEN
  6
Continuous
 62
     9
100
AcDbLine
 10
225.4834917167
 20
128.5090003392
 30
0.0
 11
224.9809263651
 21
128.4072493143
 31
0.0
  0
SPLINE
  5
3CB
330
21A
100
AcDbEntity
  8
RUNDUNGEN
  6
Continuous
 62
     9
100
AcDbSpline
210
0.0
220
0.0
230
1.0
 70
     8
 71
     3
 72
     8
 73
     4
 74
     0
 42
0.0000000001
 43
0.0000000001
 40
0.0
 40
0.0
 40
0.0
 40
0.0
 40
1.0
 40
1.0
 40
1.0
 40
1.0
 10
225.7164253428
 20
129.0536393733
 30
0.0
 10
226.7180679446
 20
136.6572757883
 30
0.0
 10
227.7199451302
 20
144.2608813019
 30
0.0
 10
228.7219468506
 20
151.8644704008
 30
0.0
  0
SPLINE
  5
3CC
330
21A
100
AcDbEntity
  8
RUNDUNGEN
  6
Continuous
 62
     9
100
AcDbSpline
210
0.0
220
0.0
230
1.0
 70
     8
 71
     3
 72
    13
 73
     9
 74
     0
 42
0.0000000001
 43
0.0000000001
 40
0.0
 40
0.0
 40
0.0
 40
0.0
 40
0.3222434396
 40
0.6229056411000001
 40
0.7510024736
 40
0.8584835501
 40
0.9421995639
 40
1.0
 40
1.0
 40
1.0
 40
1.0
 10
223.184802784
 20
149.0384913582
 30
0.0
 10
223.3803891811
 20
149.0392039017
 30
0.0
 10
223.7584470112
 20
149.0478061118
 30
0.0
 10
224.2136890594
 20
149.073672755
 30
0.0
 10
224.5377711745
 20
149.1038537889
 30
0.0
 10
224.7302022239
 20
149.1276227916
 30
0.0
 10
224.8791275623
 20
149.1529897513
 30
0.0
 10
224.9629598882
 20
149.1731899163
 30
0.0
 10
224.9959243444
 20
149.1851947173
 30
0.0
  0
SPLINE
  5
3CD
330
21A
100
AcDbEntity
  8
RUNDUNGEN
  6
Continuous
 62
     9
100
AcDbSpline
210
0.0
220
0.0
230
1.0
 70
     8
 71
     3
 72
    13
 73
     9
 74
     0
 42
0.0000000001
 43
0.0000000001
 40
0.0
 40
0.0
 40
0.0
 40
0.0
 40
0.0630354468
 40
0.1484303036
 40
0.2553829141
 40
0.3818308525
 40
0.6791563353
 40
1.0
 40
1.0
 40
1.0
 40
1.0
 10
224.0004170109
 20
129.4058721702
 30
0.0
 10
223.9697175273
 20
129.3815819151
 30
0.0
 10
223.8880655675
 20
129.3368155772
 30
0.0
 10
223.7397327095
 20
129.2805301628
 30
0.0
 10
223.5487621536
 20
129.2272560238
 30
0.0
 10
223.2260798617
 20
129.1594766249
 30
0.0
 10
222.7667158178
 20
129.1004814526
 30
0.0
 10
222.3828009749
 20
129.0816831757
 30
0.0
 10
222.183549311
 20
129.0809012731
 30
0.0
  0
SPLINE
  5
3CE
330
21A
100
AcDbEntity
  8
RUNDUNGEN
  6
Continuous
 62
     9
100
AcDbSpline
210
0.0
220
0.0
230
1.0
 70
     8
 71
     3
 72
    11
 73
     7
 74
     0
 42
0.0000000001
 43
0.0000000001
 40
0.0
 40
0.0
 40
0.0
 40
0.0
 40
0.1405721743
 40
0.3787939645
 40
0.6799258889000001
 40
1.0
 40
1.0
 40
1.0
 40
1.0
 10
223.2278741826
 20
155.4070423525
 30
0.0
 10
223.144192721
 20
155.4013750475
 30
0.0
 10
222.9181643773
 20
155.3955758479
 30
0.0
 10
222.5126138474
 20
155.3875987124
 30
0.0
 10
221.9998232587
 20
155.3829015048
 30
0.0
 10
221.6291836639
 20
155.3815507876
 30
0.0
 10
221.4382097093
 20
155.3815506303
 30
0.0
  0
SPLINE
  5
3CF
330
21A
100
AcDbEntity
  8
RUNDUNGEN
  6
Continuous
 62
     9
100
AcDbSpline
210
0.0
220
0.0
230
1.0
 70
     8
 71
     3
 72
    10
 73
     6
 74
     0
 42
0.0000000001
 43
0.0000000001
 40
0.0
 40
0.0
 40
0.0
 40
0.0
 40
0.1405106172
 40
0.3787403265
 40
1.0
 40
1.0
 40
1.0
 40
1.0
 10
223.2278741826
 20
151.3047221239
 30
0.0
 10
223.1440716867
 20
151.3066127993
 30
0.0
 10
222.9181260633
 20
151.3085436966
 30
0.0
 10
222.3215808773
 20
151.3124035996
 30
0.0
 10
221.8088319491
 20
151.3132133429
 30
0.0
 10
221.4382097093
 20
151.3132124601
 30
0.0
  0
SPLINE
  5
3D0
330
21A
100
AcDbEntity
  8
RUNDUNGEN
  6
Continuous
 62
     9
100
AcDbSpline
210
0.0
220
0.0
230
1.0
 70
     8
 71
     3
 72
    11
 73
     7
 74
     0
 42
0.0000000001
 43
0.0000000001
 40
0.0
 40
0.0
 40
0.0
 40
0.0
 40
0.3200741111
 40
0.6212060355000001
 40
0.8594278256999999
 40
1.0
 40
1.0
 40
1.0
 40
1.0
 10
201.2188495007
 20
155.3815506303
 30
0.0
 10
201.0278755461
 20
155.3815507874
 30
0.0
 10
200.6572359513
 20
155.3829015047
 30
0.0
 10
200.1444453626
 20
155.3875987123
 30
0.0
 10
199.7388948328
 20
155.3955758482
 30
0.0
 10
199.512866489
 20
155.4013750471
 30
0.0
 10
199.4291850275
 20
155.4070423525
 30
0.0
  0
SPLINE
  5
3D1
330
21A
100
AcDbEntity
  8
RUNDUNGEN
  6
Continuous
 62
     9
100
AcDbSpline
210
0.0
220
0.0
230
1.0
 70
     8
 71
     3
 72
    10
 73
     6
 74
     0
 42
0.0000000001
 43
0.0000000001
 40
0.0
 40
0.0
 40
0.0
 40
0.0
 40
0.6212596735
 40
0.8594893828
 40
1.0
 40
1.0
 40
1.0
 40
1.0
 10
201.2188495007
 20
151.3132124601
 30
0.0
 10
200.848227261
 20
151.3132133427
 30
0.0
 10
200.3354783327
 20
151.3124035997
 30
0.0
 10
199.7389331467
 20
151.3085436965
 30
0.0
 10
199.5129875233
 20
151.3066127994
 30
0.0
 10
199.4291850275
 20
151.3047221239
 30
0.0
  0
SPLINE
  5
3D2
330
21A
100
AcDbEntity
  8
RUNDUNGEN
  6
Continuous
 62
     9
100
AcDbSpline
210
0.0
220
0.0
230
1.0
 70
     8
 71
     3
 72
    13
 73
     9
 74
     0
 42
0.0000000001
 43
0.0000000001
 40
0.0
 40
0.0
 40
0.0
 40
0.0
 40
0.3208436603
 40
0.6181691418000001
 40
0.7446170808
 40
0.8515696926
 40
0.9369645503
 40
1.0
 40
1.0
 40
1.0
 40
1.0
 10
200.4735099337
 20
129.0809012719
 30
0.0
 10
200.2742582702
 20
129.0816831807
 30
0.0
 10
199.8903434259
 20
129.100481447
 30
0.0
 10
199.4309793806
 20
129.1594766219
 30
0.0
 10
199.1082970818
 20
129.2272560143
 30
0.0
 10
198.9173265263
 20
129.2805301624
 30
0.0
 10
198.7689936523
 20
129.3368155588
 30
0.0
 10
198.6873417024
 20
129.3815819155
 30
0.0
 10
198.6566422094
 20
129.4058721621
 30
0.0
  0
SPLINE
  5
3D3
330
21A
100
AcDbEntity
  8
RUNDUNGEN
  6
Continuous
 62
     9
100
AcDbSpline
210
0.0
220
0.0
230
1.0
 70
     8
 71
     3
 72
    13
 73
     9
 74
     0
 42
0.0000000001
 43
0.0000000001
 40
0.0
 40
0.0
 40
0.0
 40
0.0
 40
0.0578004423
 40
0.1415164952
 40
0.2489975397
 40
0.3770942749
 40
0.6777564125
 40
1.0
 40
1.0
 40
1.0
 40
1.0
 10
197.6611348276
 20
149.185194731
 30
0.0
 10
197.6940992851
 20
149.1731899212999
 30
0.0
 10
197.77793164
 20
149.1529897472999
 30
0.0
 10
197.9268569895
 20
149.1276227947
 30
0.0
 10
198.1192879849
 20
149.1038537734
 30
0.0
 10
198.4433699936
 20
149.0736728022
 30
0.0
 10
198.8986120365
 20
149.0478061005999
 30
0.0
 10
199.2766699250999
 20
149.0392039028
 30
0.0
 10
199.4722564152
 20
149.0384913587
 30
0.0
  0
SPLINE
  5
3D4
330
21A
100
AcDbEntity
  8
RUNDUNGEN
  6
Continuous
 62
     9
100
AcDbSpline
210
0.0
220
0.0
230
1.0
 70
     8
 71
     3
 72
    11
 73
     7
 74
     0
 42
0.0000000001
 43
0.0000000001
 40
0.0
 40
0.0
 40
0.0
 40
0.0
 40
0.2458643953
 40
0.4943788712
 40
0.7461824661
 40
1.0
 40
1.0
 40
1.0
 40
1.0
 10
200.3992602201
 20
150.3048744288
 30
0.0
 10
200.2733747426
 20
150.3049238816
 30
0.0
 10
200.0174093028
 20
150.3577916148
 30
0.0
 10
199.6957235292
 20
150.5815313803
 30
0.0
 10
199.4807165055
 20
150.913440452
 30
0.0
 10
199.4297719924
 20
151.1747658609
 30
0.0
 10
199.4291850274
 20
151.3047221239
 30
0.0
  0
SPLINE
  5
3D5
330
21A
100
AcDbEntity
  8
RUNDUNGEN
  6
Continuous
 62
     9
100
AcDbSpline
210
0.0
220
0.0
230
1.0
 70
     8
 71
     3
 72
    14
 73
    10
 74
     0
 42
0.0000000001
 43
0.0000000001
 40
0.0
 40
0.0
 40
0.0
 40
0.0
 40
0.0464210928
 40
0.11488184
 40
0.2105692174
 40
0.3326303665
 40
0.4777566070000001
 40
0.6412113232
 40
1.0
 40
1.0
 40
1.0
 40
1.0
 10
200.9956305826
 20
150.313364765
 30
0.0
 10
201.0119294447
 20
150.3146170444
 30
0.0
 10
201.0491433697
 20
150.3382396991
 30
0.0
 10
201.0879029378
 20
150.4019012677
 30
0.0
 10
201.1251076088
 20
150.4959990813
 30
0.0
 10
201.1572139215
 20
150.6198723433
 30
0.0
 10
201.183969459
 20
150.7692548163
 30
0.0
 10
201.2112769798
 20
151.0027684955
 30
0.0
 10
201.2188495074
 20
151.186867259
 30
0.0
 10
201.2188494998
 20
151.3132124601
 30
0.0
  0
SPLINE
  5
3D6
330
21A
100
AcDbEntity
  8
RUNDUNGEN
  6
Continuous
 62
     9
100
AcDbSpline
210
0.0
220
0.0
230
1.0
 70
     8
 71
     3
 72
    14
 73
    10
 74
     0
 42
0.0000000001
 43
0.0000000001
 40
0.0
 40
0.0
 40
0.0
 40
0.0
 40
0.0464210854
 40
0.1148818309
 40
0.2105692095
 40
0.332630361
 40
0.4777566039
 40
0.6412113225000001
 40
1.0
 40
1.0
 40
1.0
 40
1.0
 10
221.6614286274
 20
150.313364765
 30
0.0
 10
221.6451297682
 20
150.3146170445
 30
0.0
 10
221.6079158497
 20
150.3382397036
 30
0.0
 10
221.5691562903
 20
150.4019012714
 30
0.0
 10
221.5319516237
 20
150.4959990864
 30
0.0
 10
221.4998453125
 20
150.6198723488
 30
0.0
 10
221.4730897734
 20
150.769254822
 30
0.0
 10
221.4457822463
 20
151.002768499
 30
0.0
 10
221.4382097096
 20
151.1868672605
 30
0.0
 10
221.4382097093
 20
151.3132124601
 30
0.0
  0
SPLINE
  5
3D7
330
21A
100
AcDbEntity
  8
RUNDUNGEN
  6
Continuous
 62
     9
100
AcDbSpline
210
0.0
220
0.0
230
1.0
 70
     8
 71
     3
 72
    11
 73
     7
 74
     0
 42
0.0000000001
 43
0.0000000001
 40
0.0
 40
0.0
 40
0.0
 40
0.0
 40
0.2458643625
 40
0.4943788569
 40
0.7461824736000001
 40
1.0
 40
1.0
 40
1.0
 40
1.0
 10
222.2577989899
 20
150.3048744299
 30
0.0
 10
222.3836836399
 20
150.3049244938
 30
0.0
 10
222.6396471928
 20
150.3577936027
 30
0.0
 10
222.9613290026
 20
150.5815346781
 30
0.0
 10
223.1763322168
 20
150.9134430272
 30
0.0
 10
223.2272756542
 20
151.1747667014
 30
0.0
 10
223.2278626132
 20
151.3047221239
 30
0.0
  0
SPLINE
  5
3D8
330
21A
100
AcDbEntity
  8
RUNDUNGEN
  6
Continuous
 62
     9
100
AcDbSpline
210
0.0
220
0.0
230
1.0
 70
     8
 71
     3
 72
    15
 73
    11
 74
     0
 42
0.0000000001
 43
0.0000000001
 40
0.0
 40
0.0
 40
0.0
 40
0.0
 40
0.3465147799
 40
0.5106824821
 40
0.6589307332
 40
0.7849709832
 40
0.8840581664
 40
0.9227531212999998
 40
0.9543521525
 40
1.0
 40
1.0
 40
1.0
 40
1.0
 10
199.4722873764
 20
149.0384906294
 30
0.0
 10
199.4658101464
 20
149.1825914043
 30
0.0
 10
199.4669146723
 20
149.3956696719
 30
0.0
 10
199.4896351273
 20
149.6691151117
 30
0.0
 10
199.5156837344
 20
149.8499288225
 30
0.0
 10
199.549838786
 20
150.0017275301
 30
0.0
 10
199.5852844825
 20
150.1060788443
 30
0.0
 10
199.6187705157
 20
150.168624394
 30
0.0
 10
199.6469419324
 20
150.2072188156
 30
0.0
 10
199.6762988773
 20
150.227717043
 30
0.0
 10
199.6952471407
 20
150.22914732
 30
0.0
  0
SPLINE
  5
3D9
330
21A
100
AcDbEntity
  8
RUNDUNGEN
  6
Continuous
 62
     9
100
AcDbSpline
210
0.0
220
0.0
230
1.0
 70
     8
 71
     3
 72
    15
 73
    11
 74
     0
 42
0.0000000001
 43
0.0000000001
 40
0.0
 40
0.0
 40
0.0
 40
0.0
 40
0.346514775
 40
0.5106824765
 40
0.6589307277000001
 40
0.7849709790999999
 40
0.8840581642
 40
0.9227531199999999
 40
0.9543521520999998
 40
1.0
 40
1.0
 40
1.0
 40
1.0
 10
223.1847718336
 20
149.0384906294
 30
0.0
 10
223.1912490627
 20
149.1825914021
 30
0.0
 10
223.1901445358
 20
149.395669667
 30
0.0
 10
223.1674240808001
 20
149.6691151041
 30
0.0
 10
223.141375474
 20
149.849928815
 30
0.0
 10
223.1072204229
 20
150.001727524
 30
0.0
 10
223.071774727
 20
150.1060788399
 30
0.0
 10
223.0382886942
 20
150.1686243915
 30
0.0
 10
223.0101172777
 20
150.2072188142
 30
0.0
 10
222.9807603329
 20
150.227717043
 30
0.0
 10
222.9618120693
 20
150.22914732
 30
0.0
  0
SPLINE
  5
3DA
330
21A
100
AcDbEntity
  8
RUNDUNGEN
  6
Continuous
 62
     9
100
AcDbSpline
210
0.0
220
0.0
230
1.0
 70
     8
 71
     3
 72
    11
 73
     7
 74
     0
 42
0.0000000001
 43
0.0000000001
 40
0.0
 40
0.0
 40
0.0
 40
0.0
 40
0.3066199096
 40
0.5813069656000001
 40
0.8134268181999999
 40
1.0
 40
1.0
 40
1.0
 40
1.0
 10
224.2675070294
 20
149.7071870046
 30
0.0
 10
224.34605849
 20
149.65921554
 30
0.0
 10
224.4959430251
 20
149.569918657
 30
0.0
 10
224.7040250217
 20
149.4418955256
 30
0.0
 10
224.8729646668
 20
149.3201357626
 30
0.0
 10
224.9632780024
 20
149.2306946373
 30
0.0
 10
224.9959427947
 20
149.1852013625
 30
0.0
  0
SPLINE
  5
3DB
330
21A
100
AcDbEntity
  8
RUNDUNGEN
  6
Continuous
 62
     9
100
AcDbSpline
210
0.0
220
0.0
230
1.0
 70
     8
 71
     3
 72
     9
 73
     5
 74
     0
 42
0.0000000001
 43
0.0000000001
 40
0.0
 40
0.0
 40
0.0
 40
0.0
 40
0.2398007149
 40
1.0
 40
1.0
 40
1.0
 40
1.0
 10
224.8421044484
 20
150.19589399
 30
0.0
 10
224.8576706808
 20
150.1156705784
 30
0.0
 10
224.9171055543
 20
149.7800563999
 30
0.0
 10
224.9616550311
 20
149.4420841332
 30
0.0
 10
224.9959296218
 20
149.1852995503
 30
0.0
  0
SPLINE
  5
3DC
330
21A
100
AcDbEntity
  8
RUNDUNGEN
  6
Continuous
 62
     9
100
AcDbSpline
210
0.0
220
0.0
230
1.0
 70
     8
 71
     3
 72
    11
 73
     7
 74
     0
 42
0.0000000001
 43
0.0000000001
 40
0.0
 40
0.0
 40
0.0
 40
0.0
 40
0.253817613
 40
0.5056212443
 40
0.7541356772
 40
1.0
 40
1.0
 40
1.0
 40
1.0
 10
224.3613428118
 20
151.2282955873
 30
0.0
 10
224.3607564234
 20
151.0983375219
 30
0.0
 10
224.3098116565
 20
150.837008212
 30
0.0
 10
224.0948002453
 20
150.5050951947
 30
0.0
 10
223.773107458
 20
150.2813556323
 30
0.0
 10
223.5171372825
 20
150.2284919548
 30
0.0
 10
223.3912501369
 20
150.2284453933
 30
0.0
  0
SPLINE
  5
3DD
330
21A
100
AcDbEntity
  8
RUNDUNGEN
  6
Continuous
 62
     9
100
AcDbSpline
210
0.0
220
0.0
230
1.0
 70
     8
 71
     3
 72
    12
 73
     8
 74
     0
 42
0.0000000001
 43
0.0000000001
 40
0.0
 40
0.0
 40
0.0
 40
0.0
 40
0.181627598
 40
0.2968298043
 40
0.4258022021000001
 40
0.7088057616
 40
1.0
 40
1.0
 40
1.0
 40
1.0
 10
223.3912501369
 20
150.2284453933
 30
0.0
 10
223.4532495765
 20
150.2260144129
 30
0.0
 10
223.5504580014
 20
150.182729917
 30
0.0
 10
223.6725870023
 20
150.1056908282
 30
0.0
 10
223.8205470059
 20
150.0023526982
 30
0.0
 10
224.0164269868
 20
149.8635768604
 30
0.0
 10
224.1827629527
 20
149.7593341229
 30
0.0
 10
224.2674895927
 20
149.7072087722
 30
0.0
  0
SPLINE
  5
3DE
330
21A
100
AcDbEntity
  8
RUNDUNGEN
  6
Continuous
 62
     9
100
AcDbSpline
210
0.0
220
0.0
230
1.0
 70
     8
 71
     3
 72
    11
 73
     7
 74
     0
 42
0.0000000001
 43
0.0000000001
 40
0.0
 40
0.0
 40
0.0
 40
0.0
 40
0.2458643227
 40
0.4943787557000001
 40
0.7461823870000001
 40
1.0
 40
1.0
 40
1.0
 40
1.0
 10
199.2658090251
 20
150.2284453851
 30
0.0
 10
199.1399218829
 20
150.2284919526
 30
0.0
 10
198.8839517171
 20
150.2813556395
 30
0.0
 10
198.5622589459
 20
150.5050952052
 30
0.0
 10
198.3472475469
 20
150.8370082168
 30
0.0
 10
198.2963027828
 20
151.0983375194
 30
0.0
 10
198.2957163942
 20
151.2282955812
 30
0.0
  0
SPLINE
  5
3DF
330
21A
100
AcDbEntity
  8
RUNDUNGEN
  6
Continuous
 62
     9
100
AcDbSpline
210
0.0
220
0.0
230
1.0
 70
     8
 71
     3
 72
    12
 73
     8
 74
     0
 42
0.0000000001
 43
0.0000000001
 40
0.0
 40
0.0
 40
0.0
 40
0.0
 40
0.2911937117
 40
0.5741976441
 40
0.7031700268000001
 40
0.8183724284
 40
1.0
 40
1.0
 40
1.0
 40
1.0
 10
198.3895696004
 20
149.7072085946
 30
0.0
 10
198.4742979842
 20
149.7593307625
 30
0.0
 10
198.6406284985
 20
149.8635820583
 30
0.0
 10
198.8365116216
 20
150.0023529732
 30
0.0
 10
198.98447211
 20
150.10569075
 30
0.0
 10
199.1066010862
 20
150.1827299567
 30
0.0
 10
199.2038095958
 20
150.2260144116
 30
0.0
 10
199.2658090251
 20
150.2284453851
 30
0.0
  0
SPLINE
  5
3E0
330
21A
100
AcDbEntity
  8
RUNDUNGEN
  6
Continuous
 62
     9
100
AcDbSpline
210
0.0
220
0.0
230
1.0
 70
     8
 71
     3
 72
    11
 73
     7
 74
     0
 42
0.0000000001
 43
0.0000000001
 40
0.0
 40
0.0
 40
0.0
 40
0.0
 40
0.1865726719
 40
0.4186923873
 40
0.6933795627000001
 40
1.0
 40
1.0
 40
1.0
 40
1.0
 10
197.6611164153
 20
149.1852013625
 30
0.0
 10
197.693781174
 20
149.230694484
 30
0.0
 10
197.784094855
 20
149.320134988
 30
0.0
 10
197.9530336934
 20
149.4418955377
 30
0.0
 10
198.1611158293
 20
149.5699189062
 30
0.0
 10
198.3110009335
 20
149.6592152552
 30
0.0
 10
198.3895523751
 20
149.7071870829
 30
0.0
  0
SPLINE
  5
3E1
330
21A
100
AcDbEntity
  8
RUNDUNGEN
  6
Continuous
 62
     9
100
AcDbSpline
210
0.0
220
0.0
230
1.0
 70
     8
 71
     3
 72
     9
 73
     5
 74
     0
 42
0.0000000001
 43
0.0000000001
 40
0.0
 40
0.0
 40
0.0
 40
0.0
 40
0.2570031173
 40
1.0
 40
1.0
 40
1.0
 40
1.0
 10
197.661129561
 20
149.185299348
 30
0.0
 10
197.6727166653
 20
149.2721065103
 30
0.0
 10
197.7178000318
 20
149.6098360447
 30
0.0
 10
197.7667273548
 20
149.9473440382
 30
0.0
 10
197.8149547624
 20
150.19589399
 30
0.0
  0
SPLINE
  5
3E2
330
21A
100
AcDbEntity
  8
RUNDUNGEN
  6
Continuous
 62
     9
100
AcDbSpline
210
0.0
220
0.0
230
1.0
 70
     8
 71
     3
 72
    11
 73
     7
 74
     0
 42
0.0000000001
 43
0.0000000001
 40
0.0
 40
0.0
 40
0.0
 40
0.0
 40
0.2930344842
 40
0.5779172582
 40
0.8204527403
 40
1.0
 40
1.0
 40
1.0
 40
1.0
 10
225.7164253386
 20
129.0536393673
 30
0.0
 10
225.5855932108
 20
129.0525583612
 30
0.0
 10
225.3270693328
 20
129.0744624963
 30
0.0
 10
224.9700831578
 20
129.1667510084
 30
0.0
 10
224.6843927325
 20
129.3026191697
 30
0.0
 10
224.5393301801
 20
129.4361535945
 30
0.0
 10
224.5030300242
 20
129.5076298742
 30
0.0
  0
SPLINE
  5
3E3
330
21A
100
AcDbEntity
  8
RUNDUNGEN
  6
Continuous
 62
     9
100
AcDbSpline
210
0.0
220
0.0
230
1.0
 70
     8
 71
     3
 72
    11
 73
     7
 74
     0
 42
0.0000000001
 43
0.0000000001
 40
0.0
 40
0.0
 40
0.0
 40
0.0
 40
0.2932061447
 40
0.5780269334
 40
0.8204630587999998
 40
1.0
 40
1.0
 40
1.0
 40
1.0
 10
228.7219468117
 20
151.8644704677
 30
0.0
 10
228.5913417033
 20
151.8635926795
 30
0.0
 10
228.3334154214
 20
151.8858225789
 30
0.0
 10
227.9773191744
 20
151.9781101192
 30
0.0
 10
227.6924820561
 20
152.113901523
 30
0.0
 10
227.5478937346
 20
152.2471562958
 30
0.0
 10
227.5116783945
 20
152.3184608962
 30
0.0
  0
SPLINE
  5
3E4
330
21A
100
AcDbEntity
  8
RUNDUNGEN
  6
Continuous
 62
     9
100
AcDbSpline
210
0.0
220
0.0
230
1.0
 70
     8
 71
     3
 72
     9
 73
     5
 74
     0
 42
0.0000000001
 43
0.0000000001
 40
0.0
 40
0.0
 40
0.0
 40
0.0
 40
0.6187024149
 40
1.0
 40
1.0
 40
1.0
 40
1.0
 10
228.8082030203
 20
153.2144882056
 30
0.0
 10
228.5524496418
 20
153.2144713171
 30
0.0
 10
228.1390884075
 20
153.2156547885
 30
0.0
 10
227.7256991748
 20
153.2160461854
 30
0.0
 10
227.5681006494
 20
153.2184727689
 30
0.0
  0
SPLINE
  5
3E5
330
21A
100
AcDbEntity
  8
RUNDUNGEN
  6
Continuous
 62
     9
100
AcDbSpline
210
0.0
220
0.0
230
1.0
 70
     8
 71
     3
 72
     9
 73
     5
 74
     0
 42
0.0000000001
 43
0.0000000001
 40
0.0
 40
0.0
 40
0.0
 40
0.0
 40
0.6187025897
 40
1.0
 40
1.0
 40
1.0
 40
1.0
 10
228.8113643309
 20
156.2823904076
 30
0.0
 10
228.5556114958
 20
156.2823735007
 30
0.0
 10
228.1422512567
 20
156.2835569649
 30
0.0
 10
227.7288630185
 20
156.2839483649
 30
0.0
 10
227.5712649451
 20
156.2863749709
 30
0.0
  0
SPLINE
  5
3E6
330
21A
100
AcDbEntity
  8
RUNDUNGEN
  6
Continuous
 62
     9
100
AcDbSpline
210
0.0
220
0.0
230
1.0
 70
     8
 71
     3
 72
    13
 73
     9
 74
     0
 42
0.0000000001
 43
0.0000000001
 40
0.0
 40
0.0
 40
0.0
 40
0.0
 40
0.3518526743999999
 40
0.6566444421000001
 40
0.7791025235
 40
0.8769734979
 40
0.9493081768999999
 40
1.0
 40
1.0
 40
1.0
 40
1.0
 10
195.8046167537
 20
158.2855534085
 30
0.0
 10
195.8047362845
 20
158.1622952739
 30
0.0
 10
195.815103042
 20
157.932217227
 30
0.0
 10
195.8537247838
 20
157.6611741982
 30
0.0
 10
195.9015808076
 20
157.4833205688
 30
0.0
 10
195.9399729289
 20
157.387780543
 30
0.0
 10
195.9808145397
 20
157.3217034999
 30
0.0
 10
196.0179391434
 20
157.294645975
 30
0.0
 10
196.035299317
 20
157.2909084371
 30
0.0
  0
SPLINE
  5
3E7
330
21A
100
AcDbEntity
  8
RUNDUNGEN
  6
Continuous
 62
     9
100
AcDbSpline
210
0.0
220
0.0
230
1.0
 70
     8
 71
     3
 72
    11
 73
     7
 74
     0
 42
0.0000000001
 43
0.0000000001
 40
0.0
 40
0.0
 40
0.0
 40
0.0
 40
0.2533646807999999
 40
0.5054030742000001
 40
0.7542858282
 40
1.0
 40
1.0
 40
1.0
 40
1.0
 10
199.4291850275
 20
155.4070423525
 30
0.0
 10
199.4309473855
 20
155.5370009047
 30
0.0
 10
199.4844351453
 20
155.7981725608
 30
0.0
 10
199.7021177593
 20
156.1291094808
 30
0.0
 10
200.0250704895
 20
156.3523677696
 30
0.0
 10
200.2815080262
 20
156.405523583
 30
0.0
 10
200.4075538975
 20
156.4056718873
 30
0.0
  0
SPLINE
  5
3E8
330
21A
100
AcDbEntity
  8
RUNDUNGEN
  6
Continuous
 62
     9
100
AcDbSpline
210
0.0
220
0.0
230
1.0
 70
     8
 71
     3
 72
    13
 73
     9
 74
     0
 42
0.0000000001
 43
0.0000000001
 40
0.0
 40
0.0
 40
0.0
 40
0.0
 40
0.3537375244
 40
0.6599912652000001
 40
0.7826857163
 40
0.8802523745999998
 40
0.9514944772999999
 40
1.0
 40
1.0
 40
1.0
 40
1.0
 10
201.2188495007
 20
155.3815506303
 30
0.0
 10
201.218849504
 20
155.5051902844
 30
0.0
 10
201.2093329139
 20
155.7359164614999
 30
0.0
 10
201.173390316
 20
156.0078860666
 30
0.0
 10
201.1287376907
 20
156.186585166
 30
0.0
 10
201.0928713109
 20
156.282447427
 30
0.0
 10
201.0551422407
 20
156.348462618
 30
0.0
 10
201.0200755308
 20
156.376369265
 30
0.0
 10
201.0035555608
 20
156.3801801651
 30
0.0
  0
SPLINE
  5
3E9
330
21A
100
AcDbEntity
  8
RUNDUNGEN
  6
Continuous
 62
     9
100
AcDbSpline
210
0.0
220
0.0
230
1.0
 70
     8
 71
     3
 72
    13
 73
     9
 74
     0
 42
0.0000000001
 43
0.0000000001
 40
0.0
 40
0.0
 40
0.0
 40
0.0
 40
0.3537375205
 40
0.6599912630000001
 40
0.7826857158000001
 40
0.8802523757999999
 40
0.9514944793999999
 40
1.0
 40
1.0
 40
1.0
 40
1.0
 10
221.4382097093
 20
155.3815506303
 30
0.0
 10
221.4382097092
 20
155.5051902824
 30
0.0
 10
221.4477263039
 20
155.7359164571
 30
0.0
 10
221.4836689034
 20
156.0078860603
 30
0.0
 10
221.5283215277
 20
156.1865851605
 30
0.0
 10
221.5641879054
 20
156.2824474235
 30
0.0
 10
221.6019169728
 20
156.3484626152
 30
0.0
 10
221.6369836801
 20
156.3763692648
 30
0.0
 10
221.6535036492
 20
156.3801801651
 30
0.0
  0
SPLINE
  5
3EA
330
21A
100
AcDbEntity
  8
RUNDUNGEN
  6
Continuous
 62
     9
100
AcDbSpline
210
0.0
220
0.0
230
1.0
 70
     8
 71
     3
 72
    11
 73
     7
 74
     0
 42
0.0000000001
 43
0.0000000001
 40
0.0
 40
0.0
 40
0.0
 40
0.0
 40
0.2533646683
 40
0.5054030732000001
 40
0.7542858467000001
 40
1.0
 40
1.0
 40
1.0
 40
1.0
 10
223.2278638361
 20
155.4070423525
 30
0.0
 10
223.2261014921
 20
155.5370001506
 30
0.0
 10
223.1726147164
 20
155.7981702596
 30
0.0
 10
222.954935503
 20
156.1291065457
 30
0.0
 10
222.6319862999
 20
156.352365994
 30
0.0
 10
222.3755504485
 20
156.4055230334
 30
0.0
 10
222.2495053125
 20
156.4056718842
 30
0.0
  0
SPLINE
  5
3EB
330
21A
100
AcDbEntity
  8
RUNDUNGEN
  6
Continuous
 62
     9
100
AcDbSpline
210
0.0
220
0.0
230
1.0
 70
     8
 71
     3
 72
    11
 73
     7
 74
     0
 42
0.0000000001
 43
0.0000000001
 40
0.0
 40
0.0
 40
0.0
 40
0.0
 40
0.2932061566
 40
0.5780269513000001
 40
0.8204630711
 40
1.0
 40
1.0
 40
1.0
 40
1.0
 10
193.9351123574
 20
151.8644703917
 30
0.0
 10
194.0657174791
 20
151.8635926032
 30
0.0
 10
194.3236437848
 20
151.8858225077
 30
0.0
 10
194.6797400564
 20
151.9781100672
 30
0.0
 10
194.9645771797
 20
152.1139014932
 30
0.0
 10
195.1091654904
 20
152.2471562889
 30
0.0
 10
195.1453808155
 20
152.3184608962
 30
0.0
  0
SPLINE
  5
3EC
330
21A
100
AcDbEntity
  8
RUNDUNGEN
  6
Continuous
 62
     9
100
AcDbSpline
210
0.0
220
0.0
230
1.0
 70
     8
 71
     3
 72
    11
 73
     7
 74
     0
 42
0.0000000001
 43
0.0000000001
 40
0.0
 40
0.0
 40
0.0
 40
0.0
 40
0.1795472594
 40
0.4220827419
 40
0.7069655161
 40
1.0
 40
1.0
 40
1.0
 40
1.0
 10
198.1540291858
 20
129.5076298742
 30
0.0
 10
198.11772903
 20
129.4361535946
 30
0.0
 10
197.9726664786999
 20
129.3026191685
 30
0.0
 10
197.6869760521
 20
129.1667510088
 30
0.0
 10
197.3299898775
 20
129.0744624941
 30
0.0
 10
197.0714659991999
 20
129.0525583612
 30
0.0
 10
196.9406338715
 20
129.0536393673
 30
0.0
  0
SPLINE
  5
3ED
330
21A
100
AcDbEntity
  8
RUNDUNGEN
  6
Continuous
 62
     9
100
AcDbSpline
210
0.0
220
0.0
230
1.0
 70
     8
 71
     3
 72
     9
 73
     5
 74
     0
 42
0.0000000001
 43
0.0000000001
 40
0.0
 40
0.0
 40
0.0
 40
0.0
 40
0.6187023896000001
 40
1.0
 40
1.0
 40
1.0
 40
1.0
 10
193.8488562266
 20
153.2144882061
 30
0.0
 10
194.104609587
 20
153.2144713177
 30
0.0
 10
194.517970809
 20
153.2156547885
 30
0.0
 10
194.9313600294
 20
153.2160461862
 30
0.0
 10
195.0889585606
 20
153.2184727689
 30
0.0
  0
SPLINE
  5
3EE
330
21A
100
AcDbEntity
  8
RUNDUNGEN
  6
Continuous
 62
     9
100
AcDbSpline
210
0.0
220
0.0
230
1.0
 70
     8
 71
     3
 72
    11
 73
     7
 74
     0
 42
0.0000000001
 43
0.0000000001
 40
0.0
 40
0.0
 40
0.0
 40
0.0
 40
0.2477684935
 40
0.4953960582
 40
0.7458799211000001
 40
1.0
 40
1.0
 40
1.0
 40
1.0
 10
196.0352992531
 20
157.2909034406
 30
0.0
 10
195.9088916363
 20
157.2910116323
 30
0.0
 10
195.6529047858
 20
157.2386574831
 30
0.0
 10
195.3343602234999
 20
157.0118932947
 30
0.0
 10
195.1281048216
 20
156.6768844644
 30
0.0
 10
195.0837836687
 20
156.4160075002
 30
0.0
 10
195.0857957762
 20
156.2863749709
 30
0.0
  0
SPLINE
  5
3EF
330
21A
100
AcDbEntity
  8
RUNDUNGEN
  6
Continuous
 62
     9
100
AcDbSpline
210
0.0
220
0.0
230
1.0
 70
     8
 71
     3
 72
     9
 73
     5
 74
     0
 42
0.0000000001
 43
0.0000000001
 40
0.0
 40
0.0
 40
0.0
 40
0.0
 40
0.3812976993
 40
1.0
 40
1.0
 40
1.0
 40
1.0
 10
195.0857957762
 20
156.2863749709
 30
0.0
 10
194.9281974875
 20
156.2839483626
 30
0.0
 10
194.514808998
 20
156.2835569705
 30
0.0
 10
194.1014485077
 20
156.2823735088
 30
0.0
 10
193.8456956365
 20
156.2823904187
 30
0.0
  0
SPLINE
  5
3F0
330
21A
100
AcDbEntity
  8
RUNDUNGEN
  6
Continuous
 62
     9
100
AcDbSpline
210
0.0
220
0.0
230
1.0
 70
     8
 71
     3
 72
    11
 73
     7
 74
     0
 42
0.0000000001
 43
0.0000000001
 40
0.0
 40
0.0
 40
0.0
 40
0.0
 40
0.2541199936
 40
0.5046038167
 40
0.7522313315000001
 40
1.0
 40
1.0
 40
1.0
 40
1.0
 10
227.5712634258
 20
156.2863749709
 30
0.0
 10
227.5732755374
 20
156.4160074609
 30
0.0
 10
227.5289543958
 20
156.6768843675
 30
0.0
 10
227.3226990767
 20
157.0118931481
 30
0.0
 10
227.0041545781
 20
157.2386574796
 30
0.0
 10
226.748167665
 20
157.2910117936
 30
0.0
 10
226.6217599548
 20
157.2909036108
 30
0.0
  0
SPLINE
  5
3F1
330
21A
100
AcDbEntity
  8
RUNDUNGEN
  6
Continuous
 62
     9
100
AcDbSpline
210
0.0
220
0.0
230
1.0
 70
     8
 71
     3
 72
    13
 73
     9
 74
     0
 42
0.0000000001
 43
0.0000000001
 40
0.0
 40
0.0
 40
0.0
 40
0.0
 40
0.0506918229
 40
0.1230265019
 40
0.2208974764
 40
0.3433555579
 40
0.6481473257000001
 40
1.0
 40
1.0
 40
1.0
 40
1.0
 10
226.621759893
 20
157.2909084371
 30
0.0
 10
226.6391200665
 20
157.294645975
 30
0.0
 10
226.67624467
 20
157.3217035001
 30
0.0
 10
226.7170862805
 20
157.3877805433
 30
0.0
 10
226.7554784016
 20
157.4833205692
 30
0.0
 10
226.8033344251
 20
157.6611741986
 30
0.0
 10
226.841956167
 20
157.9322172272
 30
0.0
 10
226.8523229251
 20
158.162295274
 30
0.0
 10
226.8524424563
 20
158.2855534085
 30
0.0
  0
SPLINE
  5
3F2
330
21A
100
AcDbEntity
  8
RUNDUNGEN
  6
Continuous
 62
     9
100
AcDbSpline
210
0.0
220
0.0
230
1.0
 70
     8
 71
     3
 72
    12
 73
     8
 74
     0
 42
0.0000000001
 43
0.0000000001
 40
0.0
 40
0.0
 40
0.0
 40
0.0
 40
0.3570742795
 40
0.6476802243000001
 40
0.7639949036
 40
0.8602709248
 40
1.0
 40
1.0
 40
1.0
 40
1.0
 10
225.7164253386
 20
129.0536393673
 30
0.0
 10
225.7061949637
 20
128.9813482578
 30
0.0
 10
225.6822168923
 20
128.8508814041
 30
0.0
 10
225.636856966
 20
128.7008562161
 30
0.0
 10
225.5917420627
 20
128.6077109861
 30
0.0
 10
225.5523069237
 20
128.5482745887
 30
0.0
 10
225.5115668532
 20
128.5142979112
 30
0.0
 10
225.4834917176
 20
128.5090003394
 30
0.0
  0
SPLINE
  5
3F3
330
21A
100
AcDbEntity
  8
RUNDUNGEN
  6
Continuous
 62
     9
100
AcDbSpline
210
0.0
220
0.0
230
1.0
 70
     8
 71
     3
 72
    12
 73
     8
 74
     0
 42
0.0000000001
 43
0.0000000001
 40
0.0
 40
0.0
 40
0.0
 40
0.0
 40
0.1270952516
 40
0.2542160111
 40
0.5059770821000001
 40
0.7545813084999999
 40
1.0
 40
1.0
 40
1.0
 40
1.0
 10
224.5030300242
 20
129.5076298742
 30
0.0
 10
224.5043530627
 20
129.4422849783
 30
0.0
 10
224.5181404536
 20
129.311373147
 30
0.0
 10
224.594781362
 20
129.06138637
 30
0.0
 10
224.7767128406
 20
128.7844455847
 30
0.0
 10
225.1003795426
 20
128.5617340746
 30
0.0
 10
225.3572862307
 20
128.5087667591
 30
0.0
 10
225.4834917176
 20
128.5090003394
 30
0.0
  0
SPLINE
  5
3F4
330
21A
100
AcDbEntity
  8
RUNDUNGEN
  6
Continuous
 62
     9
100
AcDbSpline
210
0.0
220
0.0
230
1.0
 70
     8
 71
     3
 72
    11
 73
     7
 74
     0
 42
0.0000000001
 43
0.0000000001
 40
0.0
 40
0.0
 40
0.0
 40
0.0
 40
0.253372267
 40
0.5054129767000001
 40
0.7542907886
 40
1.0
 40
1.0
 40
1.0
 40
1.0
 10
224.0004212582
 20
129.4058788491
 30
0.0
 10
224.0021861086
 20
129.2757398207
 30
0.0
 10
224.0558203844
 20
129.0142018119
 30
0.0
 10
224.2740817777
 20
128.68296606
 30
0.0
 10
224.5978008337
 20
128.4598333721
 30
0.0
 10
224.8547117045
 20
128.4071132786
 30
0.0
 10
224.9809263011
 20
128.4072536942
 30
0.0
  0
SPLINE
  5
3F5
330
21A
100
AcDbEntity
  8
RUNDUNGEN
  6
Continuous
 62
     9
100
AcDbSpline
210
0.0
220
0.0
230
1.0
 70
     8
 71
     3
 72
    13
 73
     9
 74
     0
 42
0.0000000001
 43
0.0000000001
 40
0.0
 40
0.0
 40
0.0
 40
0.0
 40
0.3613811813
 40
0.6632064747
 40
0.7826771931000001
 40
0.8780152165999998
 40
0.9490949818999999
 40
1.0
 40
1.0
 40
1.0
 40
1.0
 10
222.1835169917
 20
129.0809001419
 30
0.0
 10
222.178915919
 20
128.9775564103
 30
0.0
 10
222.1634908501
 20
128.7881758578
 30
0.0
 10
222.1251396303
 20
128.5667633462999
 30
0.0
 10
222.0824850474
 20
128.4249670186
 30
0.0
 10
222.049678951
 20
128.3496306889
 30
0.0
 10
222.0151510772
 20
128.2975122682
 30
0.0
 10
221.9848711421
 20
128.276329738
 30
0.0
 10
221.9706665629
 20
128.2730796027
 30
0.0
  0
SPLINE
  5
3F6
330
21A
100
AcDbEntity
  8
RUNDUNGEN
  6
Continuous
 62
     9
100
AcDbSpline
210
0.0
220
0.0
230
1.0
 70
     8
 71
     3
 72
    13
 73
     9
 74
     0
 42
0.0000000001
 43
0.0000000001
 40
0.0
 40
0.0
 40
0.0
 40
0.0
 40
0.3613811715999999
 40
0.6632064619
 40
0.7826771811
 40
0.8780152066999999
 40
0.9490949760999999
 40
1.0
 40
1.0
 40
1.0
 40
1.0
 10
200.4735422183
 20
129.0809001419
 30
0.0
 10
200.4781432873
 20
128.9775564122
 30
0.0
 10
200.4935683507
 20
128.7881758615
 30
0.0
 10
200.5319195669
 20
128.566763351
 30
0.0
 10
200.5745741502
 20
128.4249670224
 30
0.0
 10
200.6073802485
 20
128.3496306907
 30
0.0
 10
200.6419081273
 20
128.2975122683
 30
0.0
 10
200.6721880661
 20
128.2763297379
 30
0.0
 10
200.6863926471
 20
128.2730796027
 30
0.0
  0
SPLINE
  5
3F7
330
21A
100
AcDbEntity
  8
RUNDUNGEN
  6
Continuous
 62
     9
100
AcDbSpline
210
0.0
220
0.0
230
1.0
 70
     8
 71
     3
 72
    11
 73
     7
 74
     0
 42
0.0000000001
 43
0.0000000001
 40
0.0
 40
0.0
 40
0.0
 40
0.0
 40
0.2533722424
 40
0.5054129482000001
 40
0.7542907787000001
 40
1.0
 40
1.0
 40
1.0
 40
1.0
 10
198.6566336939
 20
129.4058788491
 30
0.0
 10
198.6548688408
 20
129.2757399429
 30
0.0
 10
198.6012349675
 20
129.0142021995
 30
0.0
 10
198.3829750535
 20
128.682966008
 30
0.0
 10
198.0592575897
 20
128.4598317191
 30
0.0
 10
197.8023473415
 20
128.407109857
 30
0.0
 10
197.6761328449
 20
128.4072493142
 30
0.0
  0
SPLINE
  5
3F8
330
21A
100
AcDbEntity
  8
RUNDUNGEN
  6
Continuous
 62
     9
100
AcDbSpline
210
0.0
220
0.0
230
1.0
 70
     8
 71
     3
 72
    12
 73
     8
 74
     0
 42
0.0000000001
 43
0.0000000001
 40
0.0
 40
0.0
 40
0.0
 40
0.0
 40
0.1270952515
 40
0.2542160107
 40
0.5059770815000001
 40
0.7545813081000001
 40
1.0
 40
1.0
 40
1.0
 40
1.0
 10
198.1540291858
 20
129.5076298742
 30
0.0
 10
198.152706148
 20
129.4422849784
 30
0.0
 10
198.1389187569
 20
129.3113731472
 30
0.0
 10
198.0622778477999
 20
129.0613863709
 30
0.0
 10
197.8803463702
 20
128.7844455852
 30
0.0
 10
197.5566796679
 20
128.5617340749
 30
0.0
 10
197.2997729796
 20
128.508766759
 30
0.0
 10
197.1735674924
 20
128.5090003394
 30
0.0
  0
SPLINE
  5
3F9
330
21A
100
AcDbEntity
  8
RUNDUNGEN
  6
Continuous
 62
     9
100
AcDbSpline
210
0.0
220
0.0
230
1.0
 70
     8
 71
     3
 72
    12
 73
     8
 74
     0
 42
0.0000000001
 43
0.0000000001
 40
0.0
 40
0.0
 40
0.0
 40
0.0
 40
0.357074281
 40
0.6476802244
 40
0.7639949043000001
 40
0.8602709251999998
 40
1.0
 40
1.0
 40
1.0
 40
1.0
 10
196.9406338683
 20
129.0536393733
 30
0.0
 10
196.9508642434
 20
128.9813482629
 30
0.0
 10
196.9748423215
 20
128.8508814091
 30
0.0
 10
197.0202022448
 20
128.7008562187
 30
0.0
 10
197.0653171484
 20
128.6077109878
 30
0.0
 10
197.1047522874
 20
128.5482745899
 30
0.0
 10
197.1454923575999
 20
128.514297911
 30
0.0
 10
197.1735674933
 20
128.5090003392
 30
0.0
  0
SPLINE
  5
3FA
330
21A
100
AcDbEntity
  8
RUNDUNGEN
  6
Continuous
 62
     9
100
AcDbSpline
210
0.0
220
0.0
230
1.0
 70
     8
 71
     3
 72
     8
 73
     4
 74
     0
 42
0.0000000001
 43
0.0000000001
 40
0.0
 40
0.0
 40
0.0
 40
0.0
 40
1.0
 40
1.0
 40
1.0
 40
1.0
 10
225.0214343734
 20
215.3133647649
 30
0.0
 10
225.4164366397
 20
215.2894682662
 30
0.0
 10
225.8114488169
 20
215.2657346942
 30
0.0
 10
226.2064733877
 20
215.242209784
 30
0.0
  0
SPLINE
  5
3FB
330
21A
100
AcDbEntity
  8
RUNDUNGEN
  6
Continuous
 62
     9
100
AcDbSpline
210
0.0
220
0.0
230
1.0
 70
     8
 71
     3
 72
     8
 73
     4
 74
     0
 42
0.0000000001
 43
0.0000000001
 40
0.0
 40
0.0
 40
0.0
 40
0.0
 40
1.0
 40
1.0
 40
1.0
 40
1.0
 10
193.9351123594
 20
151.8644704008
 30
0.0
 10
194.9371140798
 20
144.2608813019
 30
0.0
 10
195.9389912654
 20
136.6572757883
 30
0.0
 10
196.9406338673
 20
129.0536393733
 30
0.0
  0
SPLINE
  5
3FC
330
21A
100
AcDbEntity
  8
RUNDUNGEN
  6
Continuous
 62
     9
100
AcDbSpline
210
0.0
220
0.0
230
1.0
 70
     8
 71
     3
 72
     9
 73
     5
 74
     0
 42
0.0000000001
 43
0.0000000001
 40
0.0
 40
0.0
 40
0.0
 40
0.0
 40
0.2386345104
 40
1.0
 40
1.0
 40
1.0
 40
1.0
 10
228.7219468506
 20
151.8644704008
 30
0.0
 10
228.7362892571
 20
151.9711608838
 30
0.0
 10
228.7876276539
 20
152.419404174
 30
0.0
 10
228.8078421789
 20
152.8710295183
 30
0.0
 10
228.8082030203
 20
153.2144882056
 30
0.0
  0
SPLINE
  5
3FD
330
21A
100
AcDbEntity
  8
RUNDUNGEN
  6
Continuous
 62
     9
100
AcDbSpline
210
0.0
220
0.0
230
1.0
 70
     8
 71
     3
 72
     9
 73
     5
 74
     0
 42
0.0000000001
 43
0.0000000001
 40
0.0
 40
0.0
 40
0.0
 40
0.0
 40
0.2583385846
 40
1.0
 40
1.0
 40
1.0
 40
1.0
 10
193.8488561897
 20
153.2144882056
 30
0.0
 10
193.8489786241
 20
153.0979518792
 30
0.0
 10
193.8564546342
 20
152.6469242772
 30
0.0
 10
193.8905379918
 20
152.1960507973
 30
0.0
 10
193.9351123594
 20
151.8644704008
 30
0.0
  0
LINE
  5
3FE
330
21A
100
AcDbEntity
  8
RUNDUNGEN
  6
Continuous
 62
     9
100
AcDbLine
 10
197.1257291297
 20
210.8059708068
 30
0.0
 11
197.1297613788
 21
214.2422097815
 31
0.0
  0
LINE
  5
3FF
330
21A
100
AcDbEntity
  8
RUNDUNGEN
  6
Continuous
 62
     9
100
AcDbLine
 10
197.4100151934
 20
214.2422097815
 30
0.0
 11
198.3240883164
 21
214.2969670188
 31
0.0
  0
SPLINE
  5
400
330
21A
100
AcDbEntity
  8
RUNDUNGEN
  6
Continuous
 62
     9
100
AcDbSpline
210
0.0
220
0.0
230
1.0
 70
     8
 71
     3
 72
    14
 73
    10
 74
     0
 42
0.0000000001
 43
0.0000000001
 40
0.0
 40
0.0
 40
0.0
 40
0.0
 40
0.357936392
 40
0.5210567254999999
 40
0.6659586756
 40
0.7879501788
 40
0.8837826337999999
 40
0.9526997031
 40
1.0
 40
1.0
 40
1.0
 40
1.0
 10
226.2587676239
 20
227.4353979146
 30
0.0
 10
226.2587676239
 20
227.3090456886
 30
0.0
 10
226.2665461317
 20
227.1249074544
 30
0.0
 10
226.2945919701
 20
226.8914003157
 30
0.0
 10
226.3220660297
 20
226.7419944488
 30
0.0
 10
226.3550761445
 20
226.6180728646
 30
0.0
 10
226.393272769
 20
226.5239150975
 30
0.0
 10
226.4333304887
 20
226.4601146605
 30
0.0
 10
226.471330658
 20
226.4367960625
 30
0.0
 10
226.4879812089
 20
226.4355502195
 30
0.0
  0
SPLINE
  5
401
330
21A
100
AcDbEntity
  8
RUNDUNGEN
  6
Continuous
 62
     9
100
AcDbSpline
210
0.0
220
0.0
230
1.0
 70
     8
 71
     3
 72
    11
 73
     7
 74
     0
 42
0.0000000001
 43
0.0000000001
 40
0.0
 40
0.0
 40
0.0
 40
0.0
 40
0.2458850839
 40
0.4943968138
 40
0.7461819897
 40
1.0
 40
1.0
 40
1.0
 40
1.0
 10
226.4879812089
 20
226.4355502195
 30
0.0
 10
226.3627265739
 20
226.4366295791
 30
0.0
 10
226.1085128082
 20
226.4910427683
 30
0.0
 10
225.7896836539
 20
226.7152409188
 30
0.0
 10
225.5769181454
 20
227.046098523
 30
0.0
 10
225.5266394603
 20
227.306098438
 30
0.0
 10
225.5261267667
 20
227.4353979146
 30
0.0
  0
SPLINE
  5
402
330
21A
100
AcDbEntity
  8
RUNDUNGEN
  6
Continuous
 62
     9
100
AcDbSpline
210
0.0
220
0.0
230
1.0
 70
     8
 71
     3
 72
    12
 73
     8
 74
     0
 42
0.0000000001
 43
0.0000000001
 40
0.0
 40
0.0
 40
0.0
 40
0.0
 40
0.1348203687
 40
0.2674755762999999
 40
0.5210345877
 40
0.7636568881999999
 40
1.0
 40
1.0
 40
1.0
 40
1.0
 10
223.8232633342
 20
227.33324871
 30
0.0
 10
223.822948065
 20
227.2561316998
 30
0.0
 10
223.8440579619
 20
227.1021858538
 30
0.0
 10
223.9633849245
 20
226.8258024836
 30
0.0
 10
224.2225565302
 20
226.5586306116
 30
0.0
 10
224.6102918318
 20
226.3825996344
 30
0.0
 10
224.8861453053
 20
226.3468123065
 30
0.0
 10
225.0213315671
 20
226.3476676423
 30
0.0
  0
SPLINE
  5
403
330
21A
100
AcDbEntity
  8
RUNDUNGEN
  6
Continuous
 62
     9
100
AcDbSpline
210
0.0
220
0.0
230
1.0
 70
     8
 71
     3
 72
    15
 73
    11
 74
     0
 42
0.0000000001
 43
0.0000000001
 40
0.0
 40
0.0
 40
0.0
 40
0.0
 40
0.0418567276
 40
0.0715369798
 40
0.1082357866
 40
0.2032255797
 40
0.3256480354
 40
0.4718929329
 40
0.6370035990999999
 40
1.0
 40
1.0
 40
1.0
 40
1.0
 10
225.0213315612
 20
226.3476656291
 30
0.0
 10
225.0358388608
 20
226.3463707717
 30
0.0
 10
225.0580198279
 20
226.329530067
 30
0.0
 10
225.0791909036
 20
226.298945839
 30
0.0
 10
225.1049294178
 20
226.2486297449
 30
0.0
 10
225.1326784696
 20
226.1644326858
 30
0.0
 10
225.1605642222
 20
226.0408764228
 30
0.0
 10
225.1834505427
 20
225.8915808467
 30
0.0
 10
225.2069975773
 20
225.658046716
 30
0.0
 10
225.2134812138
 20
225.474130538
 30
0.0
 10
225.2134812179
 20
225.3478179339
 30
0.0
  0
SPLINE
  5
404
330
21A
100
AcDbEntity
  8
RUNDUNGEN
  6
Continuous
 62
     9
100
AcDbSpline
210
0.0
220
0.0
230
1.0
 70
     8
 71
     3
 72
    15
 73
    11
 74
     0
 42
0.0000000001
 43
0.0000000001
 40
0.0
 40
0.0
 40
0.0
 40
0.0
 40
0.3629964009
 40
0.5281070671000001
 40
0.6743519646
 40
0.7967744203000001
 40
0.8917642133999999
 40
0.9284630201999998
 40
0.9581432723999999
 40
1.0
 40
1.0
 40
1.0
 40
1.0
 10
197.4435779921
 20
225.3478179339
 30
0.0
 10
197.4435779963
 20
225.474130538
 30
0.0
 10
197.4500616329
 20
225.658046716
 30
0.0
 10
197.4736086677
 20
225.8915808467
 30
0.0
 10
197.4964949883
 20
226.0408764228
 30
0.0
 10
197.524380741
 20
226.1644326858
 30
0.0
 10
197.5521297929
 20
226.2486297449
 30
0.0
 10
197.5778683071
 20
226.298945839
 30
0.0
 10
197.5990393828
 20
226.329530067
 30
0.0
 10
197.6212203499
 20
226.3463707717
 30
0.0
 10
197.6357276495
 20
226.3476656291
 30
0.0
  0
SPLINE
  5
405
330
21A
100
AcDbEntity
  8
RUNDUNGEN
  6
Continuous
 62
     9
100
AcDbSpline
210
0.0
220
0.0
230
1.0
 70
     8
 71
     3
 72
    12
 73
     8
 74
     0
 42
0.0000000001
 43
0.0000000001
 40
0.0
 40
0.0
 40
0.0
 40
0.0
 40
0.2363431113
 40
0.4789654121
 40
0.7325244231
 40
0.8651796323999999
 40
1.0
 40
1.0
 40
1.0
 40
1.0
 10
197.6357276434
 20
226.3476676439
 30
0.0
 10
197.7709139048
 20
226.3468123076
 30
0.0
 10
198.0467673783
 20
226.3825996327
 30
0.0
 10
198.4345026813
 20
226.5586306089
 30
0.0
 10
198.6936742841999
 20
226.8258024829
 30
0.0
 10
198.813001253
 20
227.102185851
 30
0.0
 10
198.8341111454
 20
227.2561316984
 30
0.0
 10
198.833795875
 20
227.333248708
 30
0.0
  0
SPLINE
  5
406
330
21A
100
AcDbEntity
  8
RUNDUNGEN
  6
Continuous
 62
     9
100
AcDbSpline
210
0.0
220
0.0
230
1.0
 70
     8
 71
     3
 72
    11
 73
     7
 74
     0
 42
0.0000000001
 43
0.0000000001
 40
0.0
 40
0.0
 40
0.0
 40
0.0
 40
0.253817659
 40
0.5056045588
 40
0.7541220335
 40
1.0
 40
1.0
 40
1.0
 40
1.0
 10
197.1309324434
 20
227.4353979146
 30
0.0
 10
197.1303043175
 20
227.3060991563
 30
0.0
 10
197.0802021513
 20
227.0460969793
 30
0.0
 10
196.8673595409
 20
226.7152351995
 30
0.0
 10
196.5485436154
 20
226.4910594369
 30
0.0
 10
196.2943291615
 20
226.4366084209
 30
0.0
 10
196.1690780011999
 20
226.4355502195
 30
0.0
  0
SPLINE
  5
407
330
21A
100
AcDbEntity
  8
RUNDUNGEN
  6
Continuous
 62
     9
100
AcDbSpline
210
0.0
220
0.0
230
1.0
 70
     8
 71
     3
 72
    14
 73
    10
 74
     0
 42
0.0000000001
 43
0.0000000001
 40
0.0
 40
0.0
 40
0.0
 40
0.0
 40
0.0473007004
 40
0.1162180975
 40
0.2120507741
 40
0.3340424624
 40
0.4789444158
 40
0.6420649217000002
 40
1.0
 40
1.0
 40
1.0
 40
1.0
 10
196.1690780011999
 20
226.4355502195
 30
0.0
 10
196.1857286931
 20
226.436796073
 30
0.0
 10
196.2237289507
 20
226.4601151399
 30
0.0
 10
196.2637868802
 20
226.523915726
 30
0.0
 10
196.3019833174
 20
226.6180739033
 30
0.0
 10
196.3349934593
 20
226.7419955883
 30
0.0
 10
196.3624674454
 20
226.8914016036
 30
0.0
 10
196.390513102
 20
227.1249083402
 30
0.0
 10
196.3982915861
 20
227.3090461593
 30
0.0
 10
196.3982915861
 20
227.4353979146
 30
0.0
  0
SPLINE
  5
408
330
21A
100
AcDbEntity
  8
RUNDUNGEN
  6
Continuous
 62
     9
100
AcDbSpline
210
0.0
220
0.0
230
1.0
 70
     8
 71
     3
 72
     8
 73
     4
 74
     0
 42
0.0000000001
 43
0.0000000001
 40
0.0
 40
0.0
 40
0.0
 40
0.0
 40
1.0
 40
1.0
 40
1.0
 40
1.0
 10
198.8337986725
 20
227.3332478065
 30
0.0
 10
198.2661988705
 20
227.3676674483
 30
0.0
 10
197.698578599
 20
227.4017522841
 30
0.0
 10
197.1309324434
 20
227.4353988125
 30
0.0
  0
LINE
  5
409
330
21A
100
AcDbEntity
  8
RUNDUNGEN
  6
Continuous
 62
     9
100
AcDbLine
 10
225.5272978312
 20
214.2422097815
 30
0.0
 11
225.5313300803
 21
210.8059708071
 31
0.0
  0
SPLINE
  5
40A
330
21A
100
AcDbEntity
  8
RUNDUNGEN
  6
Continuous
 62
     9
100
AcDbSpline
210
0.0
220
0.0
230
1.0
 70
     8
 71
     3
 72
    13
 73
     9
 74
     0
 42
0.0000000001
 43
0.0000000001
 40
0.0
 40
0.0
 40
0.0
 40
0.0
 40
0.3617438784
 40
0.5262401585000001
 40
0.6719302507
 40
0.7940098261000001
 40
0.8892163087999998
 40
1.0
 40
1.0
 40
1.0
 40
1.0
 10
226.2587676235
 20
230.830515197
 30
0.0
 10
226.2587676235
 20
230.9582164906
 30
0.0
 10
226.2666153108
 20
231.1440998027
 30
0.0
 10
226.2954676113
 20
231.3799153601
 30
0.0
 10
226.3229941407
 20
231.5294503306
 30
0.0
 10
226.3580058432
 20
231.655016734
 30
0.0
 10
226.3984996814
 20
231.757343856
 30
0.0
 10
226.452944203
 20
231.830515197
 30
0.0
 10
226.4920525929
 20
231.830515197
 30
0.0
  0
SPLINE
  5
40B
330
21A
100
AcDbEntity
  8
RUNDUNGEN
  6
Continuous
 62
     9
100
AcDbSpline
210
0.0
220
0.0
230
1.0
 70
     8
 71
     3
 72
    11
 73
     7
 74
     0
 42
0.0000000001
 43
0.0000000001
 40
0.0
 40
0.0
 40
0.0
 40
0.0
 40
0.253995751
 40
0.5056602350000001
 40
0.7540093307
 40
1.0
 40
1.0
 40
1.0
 40
1.0
 10
225.5261267667
 20
230.830515197
 30
0.0
 10
225.5261267667
 20
230.9604125288
 30
0.0
 10
225.5758059618
 20
231.2217126628
 30
0.0
 10
225.7894864408
 20
231.5539613572
 30
0.0
 10
226.1105413352
 20
231.7778255373
 30
0.0
 10
226.366249183
 20
231.830515197
 30
0.0
 10
226.4920525929
 20
231.830515197
 30
0.0
  0
SPLINE
  5
40C
330
21A
100
AcDbEntity
  8
RUNDUNGEN
  6
Continuous
 62
     9
100
AcDbSpline
210
0.0
220
0.0
230
1.0
 70
     8
 71
     3
 72
    11
 73
     7
 74
     0
 42
0.0000000001
 43
0.0000000001
 40
0.0
 40
0.0
 40
0.0
 40
0.0
 40
0.2539963966
 40
0.5056606423
 40
0.7540095291
 40
1.0
 40
1.0
 40
1.0
 40
1.0
 10
223.8232605375
 20
230.830515197
 30
0.0
 10
223.8232605375
 20
230.9604128603
 30
0.0
 10
223.8729398693
 20
231.2217132353
 30
0.0
 10
224.0866207001
 20
231.5539618115
 30
0.0
 10
224.4076754185
 20
231.7778256248
 30
0.0
 10
224.6633830539
 20
231.830515197
 30
0.0
 10
224.7891863637
 20
231.830515197
 30
0.0
  0
SPLINE
  5
40D
330
21A
100
AcDbEntity
  8
RUNDUNGEN
  6
Continuous
 62
     9
100
AcDbSpline
210
0.0
220
0.0
230
1.0
 70
     8
 71
     3
 72
    15
 73
    11
 74
     0
 42
0.0000000001
 43
0.0000000001
 40
0.0
 40
0.0
 40
0.0
 40
0.0
 40
0.3698546245
 40
0.5374815721
 40
0.6851906851999999
 40
0.8077101934999999
 40
0.9011143776
 40
0.9362681090999998
 40
0.9638392890999998
 40
1.0
 40
1.0
 40
1.0
 40
1.0
 10
223.022031927
 20
230.830515197
 30
0.0
 10
223.022031927
 20
230.9581479729
 30
0.0
 10
223.0275819056
 20
231.143736655
 30
0.0
 10
223.0478470537
 20
231.3793691199
 30
0.0
 10
223.0674462419
 20
231.529253994
 30
0.0
 10
223.0913678316
 20
231.652568728
 30
0.0
 10
223.1149141327
 20
231.7360418502
 30
0.0
 10
223.1372028535
 20
231.7856096433
 30
0.0
 10
223.1544898129
 20
231.8141632198
 30
0.0
 10
223.1742504779
 20
231.830515197
 30
0.0
 10
223.1867291428
 20
231.830515197
 30
0.0
  0
SPLINE
  5
40E
330
21A
100
AcDbEntity
  8
RUNDUNGEN
  6
Continuous
 62
     9
100
AcDbSpline
210
0.0
220
0.0
230
1.0
 70
     8
 71
     3
 72
    15
 73
    11
 74
     0
 42
0.0000000001
 43
0.0000000001
 40
0.0
 40
0.0
 40
0.0
 40
0.0
 40
0.3698546244
 40
0.537481572
 40
0.6851906851000001
 40
0.8077101933999999
 40
0.9011143775
 40
0.936268109
 40
0.963839289
 40
1.0
 40
1.0
 40
1.0
 40
1.0
 10
199.6350272829
 20
230.830515197
 30
0.0
 10
199.6350272829
 20
230.9581479729
 30
0.0
 10
199.6294773045
 20
231.143736655
 30
0.0
 10
199.6092121563
 20
231.3793691199
 30
0.0
 10
199.5896129682
 20
231.529253994
 30
0.0
 10
199.5656913784
 20
231.652568728
 30
0.0
 10
199.5421450774
 20
231.7360418503
 30
0.0
 10
199.5198563565
 20
231.7856096433
 30
0.0
 10
199.502569397
 20
231.8141632199
 30
0.0
 10
199.4828087319
 20
231.830515197
 30
0.0
 10
199.470330067
 20
231.830515197
 30
0.0
  0
SPLINE
  5
40F
330
21A
100
AcDbEntity
  8
RUNDUNGEN
  6
Continuous
 62
     9
100
AcDbSpline
210
0.0
220
0.0
230
1.0
 70
     8
 71
     3
 72
    11
 73
     7
 74
     0
 42
0.0000000001
 43
0.0000000001
 40
0.0
 40
0.0
 40
0.0
 40
0.0
 40
0.2539963967
 40
0.5056606423
 40
0.7540095289000001
 40
1.0
 40
1.0
 40
1.0
 40
1.0
 10
198.8337986725
 20
230.830515197
 30
0.0
 10
198.8337986725
 20
230.9604128603
 30
0.0
 10
198.7841193407
 20
231.2217132354
 30
0.0
 10
198.5704385099
 20
231.5539618115
 30
0.0
 10
198.2493837916
 20
231.7778256249
 30
0.0
 10
197.9936761561
 20
231.830515197
 30
0.0
 10
197.8678728462
 20
231.830515197
 30
0.0
  0
SPLINE
  5
410
330
21A
100
AcDbEntity
  8
RUNDUNGEN
  6
Continuous
 62
     9
100
AcDbSpline
210
0.0
220
0.0
230
1.0
 70
     8
 71
     3
 72
    11
 73
     7
 74
     0
 42
0.0000000001
 43
0.0000000001
 40
0.0
 40
0.0
 40
0.0
 40
0.0
 40
0.2539957511
 40
0.5056602351000001
 40
0.7540093306
 40
1.0
 40
1.0
 40
1.0
 40
1.0
 10
197.1309324434
 20
230.830515197
 30
0.0
 10
197.1309324434
 20
230.9604125288
 30
0.0
 10
197.0812532481
 20
231.2217126629
 30
0.0
 10
196.8675727691
 20
231.5539613572
 30
0.0
 10
196.5465178748
 20
231.7778255373
 30
0.0
 10
196.290810027
 20
231.830515197
 30
0.0
 10
196.1650066171
 20
231.830515197
 30
0.0
  0
LINE
  5
411
330
21A
100
AcDbEntity
  8
RUNDUNGEN
  6
Continuous
 62
     9
100
AcDbLine
 10
224.3329709496
 20
214.296966855
 30
0.0
 11
225.2470440166
 21
214.2422097815
 31
0.0
  0
SPLINE
  5
412
330
21A
100
AcDbEntity
  8
RUNDUNGEN
  6
Continuous
 62
     9
100
AcDbSpline
210
0.0
220
0.0
230
1.0
 70
     8
 71
     3
 72
    13
 73
     9
 74
     0
 42
0.0000000001
 43
0.0000000001
 40
0.0
 40
0.0
 40
0.0
 40
0.0
 40
0.3617438784
 40
0.5262401586
 40
0.6719302507
 40
0.7940098261000001
 40
0.8892163089
 40
1.0
 40
1.0
 40
1.0
 40
1.0
 10
196.3982915861
 20
230.830515197
 30
0.0
 10
196.3982915861
 20
230.9582164906
 30
0.0
 10
196.3904438994
 20
231.1440998027
 30
0.0
 10
196.3615915986
 20
231.3799153601
 30
0.0
 10
196.3340650693
 20
231.5294503307
 30
0.0
 10
196.2990533667
 20
231.655016734
 30
0.0
 10
196.2585595286
 20
231.757343856
 30
0.0
 10
196.204115007
 20
231.830515197
 30
0.0
 10
196.1650066171
 20
231.830515197
 30
0.0
  0
SPLINE
  5
413
330
21A
100
AcDbEntity
  8
RUNDUNGEN
  6
Continuous
 62
     9
100
AcDbSpline
210
0.0
220
0.0
230
1.0
 70
     8
 71
     3
 72
     8
 73
     4
 74
     0
 42
0.0000000001
 43
0.0000000001
 40
0.0
 40
0.0
 40
0.0
 40
0.0
 40
1.0
 40
1.0
 40
1.0
 40
1.0
 10
225.5261267667
 20
227.435398505
 30
0.0
 10
224.9584806119
 20
227.4017519774
 30
0.0
 10
224.3908603385
 20
227.3676671908
 30
0.0
 10
223.8232605375
 20
227.3332475496
 30
0.0
  0
SPLINE
  5
414
330
21A
100
AcDbEntity
  8
RUNDUNGEN
  6
Continuous
 62
     9
100
AcDbSpline
210
0.0
220
0.0
230
1.0
 70
     8
 71
     3
 72
    11
 73
     7
 74
     0
 42
0.0000000001
 43
0.0000000001
 40
0.0
 40
0.0
 40
0.0
 40
0.0
 40
0.239782653
 40
0.4797028542000001
 40
0.7279834867
 40
1.0
 40
1.0
 40
1.0
 40
1.0
 10
223.4805330326
 20
213.5309321151
 30
0.0
 10
223.4393002879
 20
213.6501107398
 30
0.0
 10
223.3765600807
 20
213.8961605787
 30
0.0
 10
223.3588172181
 20
214.2817953758
 30
0.0
 10
223.4411852742
 20
214.6780604346
 30
0.0
 10
223.58075091
 20
214.9209278397
 30
0.0
 10
223.672401245
 20
215.0307784121
 30
0.0
  0
SPLINE
  5
415
330
21A
100
AcDbEntity
  8
RUNDUNGEN
  6
Continuous
 62
     9
100
AcDbSpline
210
0.0
220
0.0
230
1.0
 70
     8
 71
     3
 72
    11
 73
     7
 74
     0
 42
0.0000000001
 43
0.0000000001
 40
0.0
 40
0.0
 40
0.0
 40
0.0
 40
0.2720165127
 40
0.5202971455
 40
0.7602173464000001
 40
1.0
 40
1.0
 40
1.0
 40
1.0
 10
198.9846579666
 20
215.0307784121
 30
0.0
 10
199.0763083032
 20
214.9209278416
 30
0.0
 10
199.2158739312
 20
214.6780604327
 30
0.0
 10
199.2982419968
 20
214.2817953751
 30
0.0
 10
199.2804991172
 20
213.8961605823
 30
0.0
 10
199.2177589459999
 20
213.6501107313
 30
0.0
 10
199.1765261773
 20
213.5309321146
 30
0.0
  0
SPLINE
  5
416
330
21A
100
AcDbEntity
  8
RUNDUNGEN
  6
Continuous
 62
     9
100
AcDbSpline
210
0.0
220
0.0
230
1.0
 70
     8
 71
     3
 72
    13
 73
     9
 74
     0
 42
0.0000000001
 43
0.0000000001
 40
0.0
 40
0.0
 40
0.0
 40
0.0
 40
0.2525581217
 40
0.5032955217000001
 40
0.6282405574000001
 40
0.7524852899
 40
0.8762862640999999
 40
1.0
 40
1.0
 40
1.0
 40
1.0
 10
196.3932299884
 20
210.8099798099
 30
0.0
 10
196.3929914941
 20
210.5846920453
 30
0.0
 10
196.4440406586
 20
210.1330071488
 30
0.0
 10
196.6847214667
 20
209.6104633045
 30
0.0
 10
196.9945152539
 20
209.2843308301
 30
0.0
 10
197.2774423355
 20
209.1028309536
 30
0.0
 10
197.5944580436
 20
208.9956068757
 30
0.0
 10
197.8160976936
 20
208.9735342147
 30
0.0
 10
197.9264533077
 20
208.9735288626
 30
0.0
  0
SPLINE
  5
417
330
21A
100
AcDbEntity
  8
RUNDUNGEN
  6
Continuous
 62
     9
100
AcDbSpline
210
0.0
220
0.0
230
1.0
 70
     8
 71
     3
 72
    13
 73
     9
 74
     0
 42
0.0000000001
 43
0.0000000001
 40
0.0
 40
0.0
 40
0.0
 40
0.0
 40
0.1237138348
 40
0.2475151673
 40
0.3717597706
 40
0.4967047729
 40
0.7474420234
 40
1.0
 40
1.0
 40
1.0
 40
1.0
 10
224.7306059031
 20
208.9735288626
 30
0.0
 10
224.8409616055
 20
208.9735341735
 30
0.0
 10
225.0626016
 20
208.995607255
 30
0.0
 10
225.3796177682
 20
209.1028309684
 30
0.0
 10
225.6625446191
 20
209.2843315802
 30
0.0
 10
225.9723381838
 20
209.6104638247
 30
0.0
 10
226.2130184201
 20
210.133007591
 30
0.0
 10
226.2640678956
 20
210.5846921743
 30
0.0
 10
226.2638292217
 20
210.8099798096
 30
0.0
  0
SPLINE
  5
418
330
21A
100
AcDbEntity
  8
RUNDUNGEN
  6
Continuous
 62
     9
100
AcDbSpline
210
0.0
220
0.0
230
1.0
 70
     8
 71
     3
 72
     8
 73
     4
 74
     0
 42
0.0000000001
 43
0.0000000001
 40
0.0
 40
0.0
 40
0.0
 40
0.0
 40
1.0
 40
1.0
 40
1.0
 40
1.0
 10
196.4505858157
 20
215.2422097836
 30
0.0
 10
196.8456007456
 20
215.2657341206
 30
0.0
 10
197.2406031779
 20
215.2894688517
 30
0.0
 10
197.6355958039
 20
215.3133647649
 30
0.0
  0
SPLINE
  5
419
330
21A
100
AcDbEntity
  8
RUNDUNGEN
  6
Continuous
 62
     9
100
AcDbSpline
210
0.0
220
0.0
230
1.0
 70
     8
 71
     3
 72
    11
 73
     7
 74
     0
 42
0.0000000001
 43
0.0000000001
 40
0.0
 40
0.0
 40
0.0
 40
0.0
 40
0.2466424042
 40
0.4948197394
 40
0.7461218966
 40
1.0
 40
1.0
 40
1.0
 40
1.0
 10
226.8524424505
 20
158.2855534085
 30
0.0
 10
227.1067664548
 20
158.28557748
 30
0.0
 10
227.6227895219
 20
158.1821424342
 30
0.0
 10
228.2746043556
 20
157.737178822
 30
0.0
 10
228.710344872
 20
157.0707863611
 30
0.0
 10
228.8116571809
 20
156.5441669129
 30
0.0
 10
228.8113650232
 20
156.2823820176
 30
0.0
  0
SPLINE
  5
41A
330
21A
100
AcDbEntity
  8
RUNDUNGEN
  6
Continuous
 62
     9
100
AcDbSpline
210
0.0
220
0.0
230
1.0
 70
     8
 71
     3
 72
    11
 73
     7
 74
     0
 42
0.0000000001
 43
0.0000000001
 40
0.0
 40
0.0
 40
0.0
 40
0.0
 40
0.2538781887
 40
0.5051803842
 40
0.7533577611000001
 40
1.0
 40
1.0
 40
1.0
 40
1.0
 10
193.8456941868
 20
156.2823820181
 30
0.0
 10
193.8454020681
 20
156.5441669991
 30
0.0
 10
193.9467143503
 20
157.0707865601
 30
0.0
 10
194.3824550726
 20
157.7371791928
 30
0.0
 10
195.0342700600999
 20
158.1821422353
 30
0.0
 10
195.550292928
 20
158.2855776996
 30
0.0
 10
195.8046167595
 20
158.2855534085
 30
0.0
  0
SPLINE
  5
41B
330
21A
100
AcDbEntity
  8
RUNDUNGEN
  6
Continuous
 62
     9
100
AcDbSpline
210
0.0
220
0.0
230
1.0
 70
     8
 71
     3
 72
     8
 73
     4
 74
     0
 42
0.0000000001
 43
0.0000000001
 40
0.0
 40
0.0
 40
0.0
 40
0.0
 40
1.0
 40
1.0
 40
1.0
 40
1.0
 10
226.4878205746
 20
226.4355502195
 30
0.0
 10
225.999102958
 20
226.4065681151
 30
0.0
 10
225.5104064371
 20
226.3772295003
 30
0.0
 10
225.0217236681
 20
226.3476656291
 30
0.0
  0
LINE
  5
41C
330
21A
100
AcDbEntity
  8
RUNDUNGEN
  6
Continuous
 62
     9
100
AcDbLine
 10
197.6761328449
 20
128.4072493143
 30
0.0
 11
197.1735674933
 21
128.5090003392
 31
0.0
  0
SPLINE
  5
41D
330
21A
100
AcDbEntity
  8
RUNDUNGEN
  6
Continuous
 62
     9
100
AcDbSpline
210
0.0
220
0.0
230
1.0
 70
     8
 71
     3
 72
    13
 73
     9
 74
     0
 42
0.0000000001
 43
0.0000000001
 40
0.0
 40
0.0
 40
0.0
 40
0.0
 40
0.3222046939
 40
0.623418003
 40
0.7519525389
 40
0.859713855
 40
0.9432459135
 40
1.0
 40
1.0
 40
1.0
 40
1.0
 10
200.6863926471
 20
128.2730796027
 30
0.0
 10
200.3625455908
 20
128.2730726989
 30
0.0
 10
199.7359437827
 20
128.2801628215
 30
0.0
 10
198.9804431925
 20
128.3037626034
 30
0.0
 10
198.4409159687
 20
128.3317330798
 30
0.0
 10
198.1201585656
 20
128.3537776118
 30
0.0
 10
197.8720063246
 20
128.3773338598
 30
0.0
 10
197.7320410884999
 20
128.3959261006
 30
0.0
 10
197.6761328449
 20
128.4072493143
 30
0.0
  0
SPLINE
  5
41E
330
21A
100
AcDbEntity
  8
RUNDUNGEN
  6
Continuous
 62
     9
100
AcDbSpline
210
0.0
220
0.0
230
1.0
 70
     8
 71
     3
 72
     8
 73
     4
 74
     0
 42
0.0000000001
 43
0.0000000001
 40
0.0
 40
0.0
 40
0.0
 40
0.0
 40
1.0
 40
1.0
 40
1.0
 40
1.0
 10
197.6353884105
 20
226.3476656291
 30
0.0
 10
197.1467095713
 20
226.3772292704
 30
0.0
 10
196.6580170211999
 20
226.4065683398
 30
0.0
 10
196.1693033347
 20
226.4355502195
 30
0.0
  0
LINE
  5
41F
330
21A
100
AcDbEntity
  8
RUNDUNGEN
  6
Continuous
 62
     9
100
AcDbLine
 10
195.1453808155
 20
152.3184608962
 30
0.0
 11
198.1540291858
 21
129.5076298742
 31
0.0
  0
SPLINE
  5
420
330
21A
100
AcDbEntity
  8
RUNDUNGEN
  6
Continuous
 62
     9
100
AcDbSpline
210
0.0
220
0.0
230
1.0
 70
     8
 71
     3
 72
     9
 73
     5
 74
     0
 42
0.0000000001
 43
0.0000000001
 40
0.0
 40
0.0
 40
0.0
 40
0.0
 40
0.2583617601
 40
1.0
 40
1.0
 40
1.0
 40
1.0
 10
195.0889585606
 20
153.2184727689
 30
0.0
 10
195.0890386
 20
153.140781924
 30
0.0
 10
195.093929345
 20
152.8401222766
 30
0.0
 10
195.1162192117
 20
152.5395610177
 30
0.0
 10
195.1453808155
 20
152.3184608962
 30
0.0
  0
LINE
  5
421
330
21A
100
AcDbEntity
  8
RUNDUNGEN
  6
Continuous
 62
     9
100
AcDbLine
 10
199.4291850275
 20
155.4070423525
 30
0.0
 11
195.0857942665
 21
156.2863748689
 31
0.0
  0
LINE
  5
422
330
21A
100
AcDbEntity
  8
RUNDUNGEN
  6
Continuous
 62
     9
100
AcDbLine
 10
199.4291850275
 20
151.3047221239
 30
0.0
 11
198.2957133869
 21
151.2282959036
 31
0.0
  0
SPLINE
  5
423
330
21A
100
AcDbEntity
  8
RUNDUNGEN
  6
Continuous
 62
     9
100
AcDbSpline
210
0.0
220
0.0
230
1.0
 70
     8
 71
     3
 72
    14
 73
    10
 74
     0
 42
0.0000000001
 43
0.0000000001
 40
0.0
 40
0.0
 40
0.0
 40
0.0
 40
0.0629438299
 40
0.1395347073
 40
0.2355199009
 40
0.3524213231
 40
0.4895371153000001
 40
0.6449623158
 40
1.0
 40
1.0
 40
1.0
 40
1.0
 10
198.2957133869
 20
151.2282959036
 30
0.0
 10
198.2709134458
 20
151.2266318964
 30
0.0
 10
198.2168729686
 20
151.207223014
 30
0.0
 10
198.147021198
 20
151.1439709006
 30
0.0
 10
198.0810216813
 20
151.0499557624
 30
0.0
 10
198.0187079591
 20
150.9262272675
 30
0.0
 10
197.9603682736
 20
150.7752468711
 30
0.0
 10
197.8852755093
 20
150.5306483354
 30
0.0
 10
197.8416654166
 20
150.3335258203
 30
0.0
 10
197.8149547624
 20
150.19589399
 30
0.0
  0
LINE
  5
424
330
21A
100
AcDbEntity
  8
RUNDUNGEN
  6
Continuous
 62
     9
100
AcDbLine
 10
198.6566419568
 20
129.4058771763
 30
0.0
 11
197.661129561
 21
149.185299348
 31
0.0
  0
LINE
  5
425
330
21A
100
AcDbEntity
  8
RUNDUNGEN
  6
Continuous
 62
     9
100
AcDbLine
 10
198.6566419568
 20
129.4058771763
 30
0.0
 11
198.1540291858
 21
129.5076298742
 31
0.0
  0
LINE
  5
426
330
21A
100
AcDbEntity
  8
RUNDUNGEN
  6
Continuous
 62
     9
100
AcDbLine
 10
224.5030300242
 20
129.5076298742
 30
0.0
 11
227.5116783945
 21
152.3184608962
 31
0.0
  0
LINE
  5
427
330
21A
100
AcDbEntity
  8
RUNDUNGEN
  6
Continuous
 62
     9
100
AcDbLine
 10
224.5030300242
 20
129.5076298742
 30
0.0
 11
224.0004172632
 21
129.4058771783
 31
0.0
  0
LINE
  5
428
330
21A
100
AcDbEntity
  8
RUNDUNGEN
  6
Continuous
 62
     9
100
AcDbLine
 10
224.9959296218
 20
149.1852995503
 30
0.0
 11
224.0004172632
 21
129.4058771783
 31
0.0
  0
SPLINE
  5
429
330
21A
100
AcDbEntity
  8
RUNDUNGEN
  6
Continuous
 62
     9
100
AcDbSpline
210
0.0
220
0.0
230
1.0
 70
     8
 71
     3
 72
    14
 73
    10
 74
     0
 42
0.0000000001
 43
0.0000000001
 40
0.0
 40
0.0
 40
0.0
 40
0.0
 40
0.355037373
 40
0.5104627520000001
 40
0.6475788948
 40
0.7644802491
 40
0.8604652951
 40
0.9370561933999999
 40
1.0
 40
1.0
 40
1.0
 40
1.0
 10
224.8421044484
 20
150.19589399
 30
0.0
 10
224.8153938193
 20
150.3335256944
 30
0.0
 10
224.7717838123
 20
150.530648177
 30
0.0
 10
224.6966907657
 20
150.7752467023
 30
0.0
 10
224.6383512107
 20
150.9262273276
 30
0.0
 10
224.5760375155
 20
151.0499559139
 30
0.0
 10
224.5100378829
 20
151.1439708514
 30
0.0
 10
224.440186261
 20
151.2072230304
 30
0.0
 10
224.3861457708
 20
151.226631901
 30
0.0
 10
224.3613458394
 20
151.2282959025
 30
0.0
  0
LINE
  5
42A
330
21A
100
AcDbEntity
  8
RUNDUNGEN
  6
Continuous
 62
     9
100
AcDbLine
 10
224.3613458394
 20
151.2282959025
 30
0.0
 11
223.2278741826
 21
151.3047221239
 31
0.0
  0
LINE
  5
42B
330
21A
100
AcDbEntity
  8
RUNDUNGEN
  6
Continuous
 62
     9
100
AcDbLine
 10
227.5712649435
 20
156.2863748689
 30
0.0
 11
223.2278741826
 21
155.4070423525
 31
0.0
  0
SPLINE
  5
42C
330
21A
100
AcDbEntity
  8
RUNDUNGEN
  6
Continuous
 62
     9
100
AcDbSpline
210
0.0
220
0.0
230
1.0
 70
     8
 71
     3
 72
     9
 73
     5
 74
     0
 42
0.0000000001
 43
0.0000000001
 40
0.0
 40
0.0
 40
0.0
 40
0.0
 40
0.2385960017
 40
1.0
 40
1.0
 40
1.0
 40
1.0
 10
227.5116783945
 20
152.3184608962
 30
0.0
 10
227.5210603072
 20
152.3895935415
 30
0.0
 10
227.554644641
 20
152.6884660283
 30
0.0
 10
227.5678647648
 20
152.9895095643
 30
0.0
 10
227.5681006494
 20
153.2184727689
 30
0.0
  0
LINE
  5
42D
330
21A
100
AcDbEntity
  8
RUNDUNGEN
  6
Continuous
 62
     9
100
AcDbLine
 10
226.6219818862
 20
157.2909084371
 30
0.0
 11
222.2495053125
 21
156.4056718873
 31
0.0
  0
SPLINE
  5
42E
330
21A
100
AcDbEntity
  8
RUNDUNGEN
  6
Continuous
 62
     9
100
AcDbSpline
210
0.0
220
0.0
230
1.0
 70
     8
 71
     3
 72
    11
 73
     7
 74
     0
 42
0.0000000001
 43
0.0000000001
 40
0.0
 40
0.0
 40
0.0
 40
0.0
 40
0.1410804322
 40
0.3791496482
 40
0.680060625
 40
1.0
 40
1.0
 40
1.0
 40
1.0
 10
222.2495053125
 20
156.4056718873
 30
0.0
 10
222.2219930399
 20
156.4001012422
 30
0.0
 10
222.1465241904
 20
156.3941683918
 30
0.0
 10
222.011589844
 20
156.3862637159
 30
0.0
 10
221.8406739114
 20
156.3815247186
 30
0.0
 10
221.7171615383
 20
156.3801801696
 30
0.0
 10
221.6535036492
 20
156.3801801651
 30
0.0
  0
SPLINE
  5
42F
330
21A
100
AcDbEntity
  8
RUNDUNGEN
  6
Continuous
 62
     9
100
AcDbSpline
210
0.0
220
0.0
230
1.0
 70
     8
 71
     3
 72
    11
 73
     7
 74
     0
 42
0.0000000001
 43
0.0000000001
 40
0.0
 40
0.0
 40
0.0
 40
0.0
 40
0.3199393751000001
 40
0.6208503518000001
 40
0.8589195677999999
 40
1.0
 40
1.0
 40
1.0
 40
1.0
 10
201.0035555608
 20
156.3801801651
 30
0.0
 10
200.9398976717
 20
156.3801801695
 30
0.0
 10
200.8163852986
 20
156.3815247186
 30
0.0
 10
200.645469366
 20
156.3862637159
 30
0.0
 10
200.5105350196
 20
156.3941683917
 30
0.0
 10
200.4350661701
 20
156.4001012422
 30
0.0
 10
200.4075538975
 20
156.4056718873
 30
0.0
  0
LINE
  5
430
330
21A
100
AcDbEntity
  8
RUNDUNGEN
  6
Continuous
 62
     9
100
AcDbLine
 10
200.4075538975
 20
156.4056718873
 30
0.0
 11
196.0350773238
 21
157.2909084371
 31
0.0
  0
LINE
  5
431
330
21A
100
AcDbEntity
  8
RUNDUNGEN
  6
Continuous
 62
     9
100
AcDbLine
 10
200.3992602201
 20
150.3048744288
 30
0.0
 11
199.2657830811
 21
150.2284460917
 31
0.0
  0
SPLINE
  5
432
330
21A
100
AcDbEntity
  8
RUNDUNGEN
  6
Continuous
 62
     9
100
AcDbSpline
210
0.0
220
0.0
230
1.0
 70
     8
 71
     3
 72
    10
 73
     6
 74
     0
 42
0.0000000001
 43
0.0000000001
 40
0.0
 40
0.0
 40
0.0
 40
0.0
 40
0.6212459317
 40
0.8594398465000001
 40
1.0
 40
1.0
 40
1.0
 40
1.0
 10
200.9956305826
 20
150.313364765
 30
0.0
 10
200.8721126749
 20
150.3133650332
 30
0.0
 10
200.7012158238
 20
150.3125491119
 30
0.0
 10
200.5024536568
 20
150.3087024893
 30
0.0
 10
200.4271434803
 20
150.3067545507
 30
0.0
 10
200.3992602201
 20
150.3048744288
 30
0.0
  0
SPLINE
  5
433
330
21A
100
AcDbEntity
  8
RUNDUNGEN
  6
Continuous
 62
     9
100
AcDbSpline
210
0.0
220
0.0
230
1.0
 70
     8
 71
     3
 72
    10
 73
     6
 74
     0
 42
0.0000000001
 43
0.0000000001
 40
0.0
 40
0.0
 40
0.0
 40
0.0
 40
0.1405601534
 40
0.3787540684
 40
1.0
 40
1.0
 40
1.0
 40
1.0
 10
222.2577989899
 20
150.3048744288
 30
0.0
 10
222.2299157297
 20
150.3067545507
 30
0.0
 10
222.1546055532
 20
150.3087024893
 30
0.0
 10
221.9558433863
 20
150.312549112
 30
0.0
 10
221.7849465351
 20
150.3133650332
 30
0.0
 10
221.6614286274
 20
150.313364765
 30
0.0
  0
LINE
  5
434
330
21A
100
AcDbEntity
  8
RUNDUNGEN
  6
Continuous
 62
     9
100
AcDbLine
 10
223.3912761452
 20
150.228446089
 30
0.0
 11
222.2577989899
 21
150.3048744288
 31
0.0
  0
LINE
  5
435
330
21A
100
AcDbEntity
  8
RUNDUNGEN
  6
Continuous
 62
     9
100
AcDbLine
 10
223.1848027472
 20
149.0384906294
 30
0.0
 11
222.1835492542
 21
129.0809001419
 31
0.0
  0
LINE
  5
436
330
21A
100
AcDbEntity
  8
RUNDUNGEN
  6
Continuous
 62
     9
100
AcDbLine
 10
200.4735099905
 20
129.0809001419
 30
0.0
 11
199.472256452
 21
149.0384906294
 31
0.0
  0
SPLINE
  5
437
330
21A
100
AcDbEntity
  8
RUNDUNGEN
  6
Continuous
 62
     9
100
AcDbSpline
210
0.0
220
0.0
230
1.0
 70
     8
 71
     3
 72
    13
 73
     9
 74
     0
 42
0.0000000001
 43
0.0000000001
 40
0.0
 40
0.0
 40
0.0
 40
0.0
 40
0.1263166805
 40
0.252455302
 40
0.3783072135
 40
0.5037794155
 40
0.7524600345999999
 40
1.0
 40
1.0
 40
1.0
 40
1.0
 10
199.635027283
 20
227.3332487083
 30
0.0
 10
199.6350527699
 20
227.1954387002
 30
0.0
 10
199.6033669818
 20
226.9189904405
 30
0.0
 10
199.4645421284999
 20
226.5268580161
 30
0.0
 10
199.2445438500999
 20
226.174913174
 30
0.0
 10
198.8642245673
 20
225.7792559055
 30
0.0
 10
198.2593164883
 20
225.4376422758
 30
0.0
 10
197.7136410621
 20
225.3478059096
 30
0.0
 10
197.4435778761
 20
225.3478179339
 30
0.0
  0
SPLINE
  5
438
330
21A
100
AcDbEntity
  8
RUNDUNGEN
  6
Continuous
 62
     9
100
AcDbSpline
210
0.0
220
0.0
230
1.0
 70
     8
 71
     3
 72
    13
 73
     9
 74
     0
 42
0.0000000001
 43
0.0000000001
 40
0.0
 40
0.0
 40
0.0
 40
0.0
 40
0.2475399656
 40
0.4962205847
 40
0.6216927864000001
 40
0.7475446986
 40
0.873683319
 40
1.0
 40
1.0
 40
1.0
 40
1.0
 10
225.2134813368
 20
225.3478179339
 30
0.0
 10
224.9434181504
 20
225.3478059187
 30
0.0
 10
224.3977427239
 20
225.4376422692
 30
0.0
 10
223.7928346419
 20
225.7792559044
 30
0.0
 10
223.412515366
 20
226.1749131773
 30
0.0
 10
223.1925170694
 20
226.5268580097
 30
0.0
 10
223.0536922476
 20
226.9189904468
 30
0.0
 10
223.0220064497
 20
227.1954387016
 30
0.0
 10
223.022031927
 20
227.3332487103
 30
0.0
  0
SPLINE
  5
439
330
21A
100
AcDbEntity
  8
RUNDUNGEN
  6
Continuous
 62
     9
100
AcDbSpline
210
0.0
220
0.0
230
1.0
 70
     8
 71
     3
 72
    13
 73
     9
 74
     0
 42
0.0000000001
 43
0.0000000001
 40
0.0
 40
0.0
 40
0.0
 40
0.0
 40
0.0567540847
 40
0.1402861457
 40
0.2480474606
 40
0.3765819968
 40
0.6777953059000001
 40
1.0
 40
1.0
 40
1.0
 40
1.0
 10
224.9809263651
 20
128.4072493143
 30
0.0
 10
224.9250181229
 20
128.3959261027
 30
0.0
 10
224.7850528869
 20
128.3773338574
 30
0.0
 10
224.5369006458
 20
128.3537776133
 30
0.0
 10
224.2161432414
 20
128.3317330792
 30
0.0
 10
223.6766160184
 20
128.3037626042
 30
0.0
 10
222.9211154278
 20
128.2801628195999
 30
0.0
 10
222.2945136194
 20
128.2730727023
 30
0.0
 10
221.9706665629
 20
128.2730796027
 30
0.0
  0
SPLINE
  5
43A
330
21A
100
AcDbEntity
  8
RUNDUNGEN
  6
Continuous
 62
     9
100
AcDbSpline
210
0.0
220
0.0
230
1.0
 70
     8
 71
     3
 72
     9
 73
     5
 74
     0
 42
0.0000000001
 43
0.0000000001
 40
0.0
 40
0.0
 40
0.0
 40
0.0
 40
0.5011140273
 40
1.0
 40
1.0
 40
1.0
 40
1.0
 10
223.7351881099
 20
215.7968228552
 30
0.0
 10
223.9398874316
 20
215.9658582645
 30
0.0
 10
224.4156783287
 20
216.227396589
 30
0.0
 10
224.9491907892
 20
216.3132236646
 30
0.0
 10
225.21348132
 20
216.3132124601
 30
0.0
  0
SPLINE
  5
43B
330
21A
100
AcDbEntity
  8
RUNDUNGEN
  6
Continuous
 62
     9
100
AcDbSpline
210
0.0
220
0.0
230
1.0
 70
     8
 71
     3
 72
    11
 73
     7
 74
     0
 42
0.0000000001
 43
0.0000000001
 40
0.0
 40
0.0
 40
0.0
 40
0.0
 40
0.2538018663
 40
0.5054457834
 40
0.7538064220999999
 40
1.0
 40
1.0
 40
1.0
 40
1.0
 10
197.4100151934
 20
214.2422097815
 30
0.0
 10
197.4098463932
 20
214.3721461248
 30
0.0
 10
197.3596863773
 20
214.6335485139
 30
0.0
 10
197.1452770485
 20
214.9656560775
 30
0.0
 10
196.8236830239
 20
215.1895979349
 30
0.0
 10
196.5675714803
 20
215.2422097815
 30
0.0
 10
196.4415301682
 20
215.2422097815
 30
0.0
  0
SPLINE
  5
43C
330
21A
100
AcDbEntity
  8
RUNDUNGEN
  6
Continuous
 62
     9
100
AcDbSpline
210
0.0
220
0.0
230
1.0
 70
     8
 71
     3
 72
     9
 73
     5
 74
     0
 42
0.0000000001
 43
0.0000000001
 40
0.0
 40
0.0
 40
0.0
 40
0.0
 40
0.5011145371
 40
1.0
 40
1.0
 40
1.0
 40
1.0
 10
198.9218915786
 20
215.7968228552
 30
0.0
 10
198.7171895082
 20
215.9658600693
 30
0.0
 10
198.2413873641
 20
216.2273903908
 30
0.0
 10
197.707871127
 20
216.3132232031
 30
0.0
 10
197.4435778811
 20
216.3132124601
 30
0.0
  0
SPLINE
  5
43D
330
21A
100
AcDbEntity
  8
RUNDUNGEN
  6
Continuous
 62
     9
100
AcDbSpline
210
0.0
220
0.0
230
1.0
 70
     8
 71
     3
 72
     9
 73
     5
 74
     0
 42
0.0000000001
 43
0.0000000001
 40
0.0
 40
0.0
 40
0.0
 40
0.0
 40
0.4511820921
 40
1.0
 40
1.0
 40
1.0
 40
1.0
 10
197.851624888
 20
209.7355887423
 30
0.0
 10
197.8795630908
 20
209.6236818926
 30
0.0
 10
197.9150359628
 20
209.3694049907
 30
0.0
 10
197.9263377344
 20
209.1138303464
 30
0.0
 10
197.9264552071
 20
208.9735288626
 30
0.0
  0
SPLINE
  5
43E
330
21A
100
AcDbEntity
  8
RUNDUNGEN
  6
Continuous
 62
     9
100
AcDbSpline
210
0.0
220
0.0
230
1.0
 70
     8
 71
     3
 72
     9
 73
     5
 74
     0
 42
0.0000000001
 43
0.0000000001
 40
0.0
 40
0.0
 40
0.0
 40
0.0
 40
0.3660812900999999
 40
1.0
 40
1.0
 40
1.0
 40
1.0
 10
225.5313300541
 20
210.8059957962
 30
0.0
 10
225.6207026788
 20
210.8075615638
 30
0.0
 10
225.8648810619
 20
210.8085839961
 30
0.0
 10
226.1090452448
 20
210.8096360877
 30
0.0
 10
226.2638292623
 20
210.8099803595
 30
0.0
  0
SPLINE
  5
43F
330
21A
100
AcDbEntity
  8
RUNDUNGEN
  6
Continuous
 62
     9
100
AcDbSpline
210
0.0
220
0.0
230
1.0
 70
     8
 71
     3
 72
    11
 73
     7
 74
     0
 42
0.0000000001
 43
0.0000000001
 40
0.0
 40
0.0
 40
0.0
 40
0.0
 40
0.2538578784
 40
0.5054886049000001
 40
0.7537676594000001
 40
1.0
 40
1.0
 40
1.0
 40
1.0
 10
225.2470440166
 20
214.2422097815
 30
0.0
 10
225.2473995637
 20
214.3721618418
 30
0.0
 10
225.2977167325
 20
214.6334724625
 30
0.0
 10
225.5119210633
 20
214.9656143593
 30
0.0
 10
225.8333968235
 20
215.1896513918
 30
0.0
 10
226.0894800891
 20
215.2422097815
 30
0.0
 10
226.2155290418
 20
215.2422097815
 30
0.0
  0
SPLINE
  5
440
330
21A
100
AcDbEntity
  8
RUNDUNGEN
  6
Continuous
 62
     9
100
AcDbSpline
210
0.0
220
0.0
230
1.0
 70
     8
 71
     3
 72
    15
 73
    11
 74
     0
 42
0.0000000001
 43
0.0000000001
 40
0.0
 40
0.0
 40
0.0
 40
0.0
 40
0.0418567227
 40
0.0715369742
 40
0.1082357809
 40
0.2032255748
 40
0.3256480316
 40
0.4718929302000001
 40
0.6370035974000001
 40
1.0
 40
1.0
 40
1.0
 40
1.0
 10
225.0213315597
 20
215.3133647649
 30
0.0
 10
225.0358388575
 20
215.3146596222
 30
0.0
 10
225.0580198214
 20
215.3315003281
 30
0.0
 10
225.0791908953
 20
215.3620845544
 30
0.0
 10
225.1049294098
 20
215.4124006483
 30
0.0
 10
225.1326784641
 20
215.4965977067
 30
0.0
 10
225.160564221
 20
215.6201539697
 30
0.0
 10
225.1834505456
 20
215.7694495459
 30
0.0
 10
225.2069975839
 20
216.002983677
 30
0.0
 10
225.2134812181
 20
216.1868998558
 30
0.0
 10
225.2134812179
 20
216.3132124601
 30
0.0
  0
SPLINE
  5
441
330
21A
100
AcDbEntity
  8
RUNDUNGEN
  6
Continuous
 62
     9
100
AcDbSpline
210
0.0
220
0.0
230
1.0
 70
     8
 71
     3
 72
     9
 73
     5
 74
     0
 42
0.0000000001
 43
0.0000000001
 40
0.0
 40
0.0
 40
0.0
 40
0.0
 40
0.5070266540999999
 40
1.0
 40
1.0
 40
1.0
 40
1.0
 10
224.2104585677
 20
215.0601378877
 30
0.0
 10
224.326808307
 20
215.1474162922
 30
0.0
 10
224.5912919725
 20
215.2754431434
 30
0.0
 10
224.8799189242
 20
215.3142578992
 30
0.0
 10
225.0213315644
 20
215.3133632171
 30
0.0
  0
SPLINE
  5
442
330
21A
100
AcDbEntity
  8
RUNDUNGEN
  6
Continuous
 62
     9
100
AcDbSpline
210
0.0
220
0.0
230
1.0
 70
     8
 71
     3
 72
    11
 73
     7
 74
     0
 42
0.0000000001
 43
0.0000000001
 40
0.0
 40
0.0
 40
0.0
 40
0.0
 40
0.2478784291
 40
0.4888321605
 40
0.7303660471
 40
1.0
 40
1.0
 40
1.0
 40
1.0
 10
224.3329711404
 20
214.2969663674
 30
0.0
 10
224.2955624124
 20
214.3526565686
 30
0.0
 10
224.2285864737
 20
214.4673739759
 30
0.0
 10
224.1586808208
 20
214.6535858107
 30
0.0
 10
224.1332801387
 20
214.858176981
 30
0.0
 10
224.1726080512
 20
214.9977439723
 30
0.0
 10
224.2104548629
 20
215.0601390426
 30
0.0
  0
SPLINE
  5
443
330
21A
100
AcDbEntity
  8
RUNDUNGEN
  6
Continuous
 62
     9
100
AcDbSpline
210
0.0
220
0.0
230
1.0
 70
     8
 71
     3
 72
    11
 73
     7
 74
     0
 42
0.0000000001
 43
0.0000000001
 40
0.0
 40
0.0
 40
0.0
 40
0.0
 40
0.267409977
 40
0.5284973044
 40
0.7740388633
 40
1.0
 40
1.0
 40
1.0
 40
1.0
 10
223.4804878366
 20
213.5309221571
 30
0.0
 10
223.5852471233
 20
213.554383991
 30
0.0
 10
223.7873654736
 20
213.6268670427
 30
0.0
 10
224.0478391442
 20
213.8023639571
 30
0.0
 10
224.2417920414
 20
214.0286176065
 30
0.0
 10
224.315474928
 20
214.2079552734
 30
0.0
 10
224.3329711404
 20
214.2969663674
 30
0.0
  0
LEADER
  5
5A1
330
21A
100
AcDbEntity
  8
ZEICHNUNGSBEMASSUNGEN
  6
Continuous
 62
     7
100
AcDbLeader
  3
DIMSTYLE_2
 74
     0
 76
     3
 10
218.328529442973
 20
256.2067326307143
 30
0.0
 10
234.4671162691729
 20
265.8509767143716
 30
0.0
 10
251.5597463718792
 20
265.8182811359299
 30
0.0
213
8.546107528269942
223
6.697880158863256
233
0.0
1001
ACAD
1000
DSTYLE
1002
{
1070
    41
1040
5.0
1070
   147
1040
1.5
1070
   178
1070
   256
1002
}
  0
LINE
  5
5A2
330
21A
100
AcDbEntity
  8
0
100
AcDbLine
 10
253.9175167411564
 20
262.5723793582916
 30
0.0
 11
262.556680015491
 21
262.5723793582916
 31
0.0
  0
LINE
  5
5A3
330
21A
100
AcDbEntity
  8
0
100
AcDbLine
 10
255.4127371157358
 20
261.4267524527818
 30
0.0
 11
261.0453709129191
 21
261.4267524527818
 31
0.0
  0
LINE
  5
5A4
330
21A
100
AcDbEntity
  8
0
100
AcDbLine
 10
256.8235485692499
 20
260.4943050240298
 30
0.0
 11
259.8276170827031
 21
260.4943050240298
 31
0.0
  0
LINE
  5
5A5
330
21A
100
AcDbEntity
  8
0
100
AcDbLine
 10
258.1897497212748
 20
264.1671850586189
 30
0.0
 11
258.1897497212748
 21
269.608290658545
 31
0.0
  0
ENDSEC
  0
SECTION
  2
OBJECTS
  0
DICTIONARY
  5
C
330
0
100
AcDbDictionary
281
     1
  3
ACAD_COLOR
350
475
  3
ACAD_GROUP
350
D
  3
ACAD_LAYOUT
350
1A
  3
ACAD_MATERIAL
350
448
  3
ACAD_MLEADERSTYLE
350
48A
  3
ACAD_MLINESTYLE
350
17
  3
ACAD_PLOTSETTINGS
350
19
  3
ACAD_PLOTSTYLENAME
350
E
  3
ACAD_SCALELIST
350
478
  3
ACAD_TABLESTYLE
350
476
  3
ACAD_VISUALSTYLE
350
461
  3
ACDB_RECOMPOSE_DATA
350
655
  3
AcDbVariableDictionary
350
646
  3
AcmDictionary
350
4E5
  3
AMG
350
48F
  3
AMGSNAPSETTINGS
350
52A
  3
DWGPROPS
350
656
  0
DICTIONARY
  5
475
102
{ACAD_REACTORS
330
C
102
}
330
C
100
AcDbDictionary
281
     1
  0
DICTIONARY
  5
D
102
{ACAD_REACTORS
330
C
102
}
330
C
100
AcDbDictionary
281
     1
  0
DICTIONARY
  5
1A
102
{ACAD_REACTORS
330
C
102
}
330
C
100
AcDbDictionary
281
     1
  3
Layout1
350
445
  3
Model
350
444
  0
DICTIONARY
  5
448
102
{ACAD_REACTORS
330
C
102
}
330
C
100
AcDbDictionary
281
     1
  3
ByBlock
350
451
  3
ByLayer
350
449
  3
Global
350
459
  0
DICTIONARY
  5
48A
102
{ACAD_REACTORS
330
C
102
}
330
C
100
AcDbDictionary
281
     1
  3
Standard
350
48B
  0
DICTIONARY
  5
17
102
{ACAD_REACTORS
330
C
102
}
330
C
100
AcDbDictionary
281
     1
  3
Standard
350
18
  0
DICTIONARY
  5
19
102
{ACAD_REACTORS
330
C
102
}
330
C
100
AcDbDictionary
281
     1
  0
ACDBDICTIONARYWDFLT
  5
E
102
{ACAD_REACTORS
330
C
102
}
330
C
100
AcDbDictionary
281
     1
  3
Normal
350
F
100
AcDbDictionaryWithDefault
340
F
  0
DICTIONARY
  5
478
102
{ACAD_REACTORS
330
C
102
}
330
C
100
AcDbDictionary
281
     1
  3
A0
350
479
  3
A1
350
47A
  3
A2
350
47B
  3
A3
350
47C
  3
A4
350
47D
  3
A5
350
47E
  3
A6
350
47F
  3
A7
350
480
  3
A8
350
481
  3
A9
350
482
  3
B0
350
483
  3
B1
350
484
  3
B2
350
485
  3
B3
350
486
  3
B4
350
487
  3
B5
350
488
  3
B6
350
489
  0
DICTIONARY
  5
476
102
{ACAD_REACTORS
330
C
102
}
330
C
100
AcDbDictionary
281
     1
  3
Standard
350
477
  0
DICTIONARY
  5
461
102
{ACAD_REACTORS
330
C
102
}
330
C
100
AcDbDictionary
281
     1
  3
2dWireframe
350
467
  3
3D Hidden
350
469
  3
3dWireframe
350
468
  3
Basic
350
466
  3
Brighten
350
46D
  3
ColorChange
350
471
  3
Conceptual
350
46A
  3
Dim
350
46C
  3
EdgeColorOff
350
474
  3
Facepattern
350
470
  3
Flat
350
462
  3
FlatWithEdges
350
463
  3
Gouraud
350
464
  3
GouraudWithEdges
350
465
  3
JitterOff
350
472
  3
Linepattern
350
46F
  3
OverhangOff
350
473
  3
Realistic
350
46B
  3
Thicken
350
46E
  0
XRECORD
  5
655
102
{ACAD_REACTORS
330
C
102
}
330
C
100
AcDbXrecord
280
     1
 90
        1
330
477
  0
DICTIONARY
  5
646
102
{ACAD_REACTORS
330
C
102
}
330
C
100
AcDbDictionary
281
     1
  3
CANNOSCALE
350
64A
  3
CMLEADERSTYLE
350
648
  3
CTABLESTYLE
350
647
  3
DIMASSOC
350
651
  3
HIDETEXT
350
650
  3
INDEXCTL
350
64F
  3
LAYEREVAL
350
64C
  3
LAYERNOTIFY
350
64D
  3
LIGHTINGUNITS
350
64B
  3
MSLTSCALE
350
649
  3
SORTENTS
350
64E
  3
XCLIPFRAME
350
652
  0
DICTIONARY
  5
4E5
102
{ACAD_REACTORS
330
C
102
}
330
C
100
AcDbDictionary
281
     1
  3
AcmStdDictionary
350
4EF
  0
DICTIONARY
  5
48F
102
{ACAD_REACTORS
330
C
102
}
330
C
100
AcDbDictionary
281
     1
  0
DICTIONARY
  5
52A
102
{ACAD_REACTORS
330
C
102
}
330
C
100
AcDbDictionary
281
     1
  0
XRECORD
  5
656
102
{ACAD_REACTORS
330
C
102
}
330
C
100
AcDbXrecord
280
     1
  1
DWGPROPS COOKIE
  2

  3

  4

  6

  7

  8
sheim
  9

300
=
301
=
302
=
303
=
304
=
305
=
306
=
307
=
308
=
309
=
 40
0.002818599537037
 41
2456324.623404838
 42
2456324.626223252
  1

 90
        0
  0
LAYOUT
  5
445
102
{ACAD_XDICTIONARY
360
659
102
}
102
{ACAD_REACTORS
330
1A
102
}
330
1A
100
AcDbPlotSettings
  1

  2
none_device
  4
ISO_A3_(420.00_x_297.00_MM)
  6

 40
0.0
 41
0.0
 42
0.0
 43
0.0
 44
420.0
 45
297.0
 46
0.0
 47
0.0
 48
0.0
 49
0.0
140
0.0
141
0.0
142
1.0
143
1.0
 70
     0
 72
     1
 73
     0
 74
     0
  7

 75
     0
147
1.0
148
0.0
149
0.0
100
AcDbLayout
  1
Layout1
 70
     1
 71
     1
 10
0.0
 20
0.0
 11
12.0
 21
9.0
 12
0.0
 22
0.0
 32
0.0
 14
1.000000000000000E+20
 24
1.000000000000000E+20
 34
1.000000000000000E+20
 15
-1.000000000000000E+20
 25
-1.000000000000000E+20
 35
-1.000000000000000E+20
146
0.0
 13
0.0
 23
0.0
 33
0.0
 16
1.0
 26
0.0
 36
0.0
 17
0.0
 27
1.0
 37
0.0
 76
     0
330
21B
  0
LAYOUT
  5
444
102
{ACAD_XDICTIONARY
360
657
102
}
102
{ACAD_REACTORS
330
1A
102
}
330
1A
100
AcDbPlotSettings
  1

  2
none_device
  4
ISO_A3_(420.00_x_297.00_MM)
  6

 40
0.0
 41
0.0
 42
0.0
 43
0.0
 44
420.0
 45
297.0
 46
0.0
 47
0.0
 48
0.0
 49
0.0
140
0.0
141
0.0
142
1.0
143
1.0
 70
  1024
 72
     1
 73
     0
 74
     0
  7

 75
     0
147
1.0
148
0.0
149
0.0
100
AcDbLayout
  1
Model
 70
     0
 71
     0
 10
0.0
 20
0.0
 11
420.0
 21
297.0
 12
0.0
 22
0.0
 32
0.0
 14
0.0
 24
0.0
 34
0.0
 15
0.0
 25
0.0
 35
0.0
146
0.0
 13
0.0
 23
0.0
 33
0.0
 16
1.0
 26
0.0
 36
0.0
 17
0.0
 27
1.0
 37
0.0
 76
     0
330
21A
331
1F4
  0
MATERIAL
  5
451
102
{ACAD_XDICTIONARY
360
452
102
}
102
{ACAD_REACTORS
330
448
102
}
330
448
100
AcDbMaterial
  1
ByBlock
 72
     0
 43
0.0008202099737533
 43
0.0
 43
0.0
 43
0.0
 43
0.0
 43
0.0008202099737533
 43
0.0
 43
0.0
 43
0.0
 43
0.0
 43
1.0
 43
0.0
 43
0.0
 43
0.0
 43
0.0
 43
1.0
 77
     0
 47
0.0008202099737533
 47
0.0
 47
0.0
 47
0.0
 47
0.0
 47
0.0008202099737533
 47
0.0
 47
0.0
 47
0.0
 47
0.0
 47
1.0
 47
0.0
 47
0.0
 47
0.0
 47
0.0
 47
1.0
171
     0
 49
0.0008202099737533
 49
0.0
 49
0.0
 49
0.0
 49
0.0
 49
0.0008202099737533
 49
0.0
 49
0.0
 49
0.0
 49
0.0
 49
1.0
 49
0.0
 49
0.0
 49
0.0
 49
0.0
 49
1.0
175
     0
142
0.0008202099737533
142
0.0
142
0.0
142
0.0
142
0.0
142
0.0008202099737533
142
0.0
142
0.0
142
0.0
142
0.0
142
1.0
142
0.0
142
0.0
142
0.0
142
0.0
142
1.0
179
     0
144
0.0008202099737533
144
0.0
144
0.0
144
0.0
144
0.0
144
0.0008202099737533
144
0.0
144
0.0
144
0.0
144
0.0
144
1.0
144
0.0
144
0.0
144
0.0
144
0.0
144
1.0
147
0.0008202099737533
147
0.0
147
0.0
147
0.0
147
0.0
147
0.0008202099737533
147
0.0
147
0.0
147
0.0
147
0.0
147
1.0
147
0.0
147
0.0
147
0.0
147
0.0
147
1.0
  0
MATERIAL
  5
449
102
{ACAD_XDICTIONARY
360
44A
102
}
102
{ACAD_REACTORS
330
448
102
}
330
448
100
AcDbMaterial
  1
ByLayer
 72
     0
 43
0.0008202099737533
 43
0.0
 43
0.0
 43
0.0
 43
0.0
 43
0.0008202099737533
 43
0.0
 43
0.0
 43
0.0
 43
0.0
 43
1.0
 43
0.0
 43
0.0
 43
0.0
 43
0.0
 43
1.0
 77
     0
 47
0.0008202099737533
 47
0.0
 47
0.0
 47
0.0
 47
0.0
 47
0.0008202099737533
 47
0.0
 47
0.0
 47
0.0
 47
0.0
 47
1.0
 47
0.0
 47
0.0
 47
0.0
 47
0.0
 47
1.0
171
     0
 49
0.0008202099737533
 49
0.0
 49
0.0
 49
0.0
 49
0.0
 49
0.0008202099737533
 49
0.0
 49
0.0
 49
0.0
 49
0.0
 49
1.0
 49
0.0
 49
0.0
 49
0.0
 49
0.0
 49
1.0
175
     0
142
0.0008202099737533
142
0.0
142
0.0
142
0.0
142
0.0
142
0.0008202099737533
142
0.0
142
0.0
142
0.0
142
0.0
142
1.0
142
0.0
142
0.0
142
0.0
142
0.0
142
1.0
179
     0
144
0.0008202099737533
144
0.0
144
0.0
144
0.0
144
0.0
144
0.0008202099737533
144
0.0
144
0.0
144
0.0
144
0.0
144
1.0
144
0.0
144
0.0
144
0.0
144
0.0
144
1.0
147
0.0008202099737533
147
0.0
147
0.0
147
0.0
147
0.0
147
0.0008202099737533
147
0.0
147
0.0
147
0.0
147
0.0
147
1.0
147
0.0
147
0.0
147
0.0
147
0.0
147
1.0
  0
MATERIAL
  5
459
102
{ACAD_XDICTIONARY
360
45A
102
}
102
{ACAD_REACTORS
330
448
102
}
330
448
100
AcDbMaterial
  1
Global
 72
     0
 43
0.0008202099737533
 43
0.0
 43
0.0
 43
0.0
 43
0.0
 43
0.0008202099737533
 43
0.0
 43
0.0
 43
0.0
 43
0.0
 43
1.0
 43
0.0
 43
0.0
 43
0.0
 43
0.0
 43
1.0
 77
     0
 47
0.0008202099737533
 47
0.0
 47
0.0
 47
0.0
 47
0.0
 47
0.0008202099737533
 47
0.0
 47
0.0
 47
0.0
 47
0.0
 47
1.0
 47
0.0
 47
0.0
 47
0.0
 47
0.0
 47
1.0
171
     0
 49
0.0008202099737533
 49
0.0
 49
0.0
 49
0.0
 49
0.0
 49
0.0008202099737533
 49
0.0
 49
0.0
 49
0.0
 49
0.0
 49
1.0
 49
0.0
 49
0.0
 49
0.0
 49
0.0
 49
1.0
175
     0
142
0.0008202099737533
142
0.0
142
0.0
142
0.0
142
0.0
142
0.0008202099737533
142
0.0
142
0.0
142
0.0
142
0.0
142
1.0
142
0.0
142
0.0
142
0.0
142
0.0
142
1.0
179
     0
144
0.0008202099737533
144
0.0
144
0.0
144
0.0
144
0.0
144
0.0008202099737533
144
0.0
144
0.0
144
0.0
144
0.0
144
1.0
144
0.0
144
0.0
144
0.0
144
0.0
144
1.0
147
0.0008202099737533
147
0.0
147
0.0
147
0.0
147
0.0
147
0.0008202099737533
147
0.0
147
0.0
147
0.0
147
0.0
147
1.0
147
0.0
147
0.0
147
0.0
147
0.0
147
1.0
  0
MLEADERSTYLE
  5
48B
102
{ACAD_REACTORS
330
48A
102
}
330
48A
100
AcDbMLeaderStyle
170
     2
171
     1
172
     0
 90
        2
 40
0.0
 41
0.0
173
     1
 91
-1056964608
340
14
 92
       -2
290
     1
 42
2.0
291
     1
 43
0.36
  3
Standard
 44
4.0
300

342
11
174
     1
178
     6
175
     1
176
     0
 93
-1056964608
 45
4.0
292
     0
297
     0
 46
4.0
 94
-1056964608
 47
1.0
 49
1.0
140
1.0
293
     1
141
0.0
294
     1
177
     0
142
1.0
295
     0
296
     0
143
0.125
1001
ACAD_MLEADERVER
1070
     2
  0
MLINESTYLE
  5
18
102
{ACAD_REACTORS
330
17
102
}
330
17
100
AcDbMlineStyle
  2
STANDARD
 70
     0
  3

 62
   256
 51
90.0
 52
90.0
 71
     2
 49
0.5
 62
   256
  6
BYLAYER
 49
-0.5
 62
   256
  6
BYLAYER
  0
ACDBPLACEHOLDER
  5
F
102
{ACAD_REACTORS
330
E
102
}
330
E
  0
SCALE
  5
479
102
{ACAD_REACTORS
330
478
102
}
330
478
100
AcDbScale
 70
     0
300
1:1
140
1.0
141
1.0
290
     1
  0
SCALE
  5
47A
102
{ACAD_REACTORS
330
478
102
}
330
478
100
AcDbScale
 70
     0
300
1:2
140
1.0
141
2.0
290
     0
  0
SCALE
  5
47B
102
{ACAD_REACTORS
330
478
102
}
330
478
100
AcDbScale
 70
     0
300
1:4
140
1.0
141
4.0
290
     0
  0
SCALE
  5
47C
102
{ACAD_REACTORS
330
478
102
}
330
478
100
AcDbScale
 70
     0
300
1:5
140
1.0
141
5.0
290
     0
  0
SCALE
  5
47D
102
{ACAD_REACTORS
330
478
102
}
330
478
100
AcDbScale
 70
     0
300
1:8
140
1.0
141
8.0
290
     0
  0
SCALE
  5
47E
102
{ACAD_REACTORS
330
478
102
}
330
478
100
AcDbScale
 70
     0
300
1:10
140
1.0
141
10.0
290
     0
  0
SCALE
  5
47F
102
{ACAD_REACTORS
330
478
102
}
330
478
100
AcDbScale
 70
     0
300
1:16
140
1.0
141
16.0
290
     0
  0
SCALE
  5
480
102
{ACAD_REACTORS
330
478
102
}
330
478
100
AcDbScale
 70
     0
300
1:20
140
1.0
141
20.0
290
     0
  0
SCALE
  5
481
102
{ACAD_REACTORS
330
478
102
}
330
478
100
AcDbScale
 70
     0
300
1:30
140
1.0
141
30.0
290
     0
  0
SCALE
  5
482
102
{ACAD_REACTORS
330
478
102
}
330
478
100
AcDbScale
 70
     0
300
1:40
140
1.0
141
40.0
290
     0
  0
SCALE
  5
483
102
{ACAD_REACTORS
330
478
102
}
330
478
100
AcDbScale
 70
     0
300
1:50
140
1.0
141
50.0
290
     0
  0
SCALE
  5
484
102
{ACAD_REACTORS
330
478
102
}
330
478
100
AcDbScale
 70
     0
300
1:100
140
1.0
141
100.0
290
     0
  0
SCALE
  5
485
102
{ACAD_REACTORS
330
478
102
}
330
478
100
AcDbScale
 70
     0
300
2:1
140
2.0
141
1.0
290
     0
  0
SCALE
  5
486
102
{ACAD_REACTORS
330
478
102
}
330
478
100
AcDbScale
 70
     0
300
4:1
140
4.0
141
1.0
290
     0
  0
SCALE
  5
487
102
{ACAD_REACTORS
330
478
102
}
330
478
100
AcDbScale
 70
     0
300
8:1
140
8.0
141
1.0
290
     0
  0
SCALE
  5
488
102
{ACAD_REACTORS
330
478
102
}
330
478
100
AcDbScale
 70
     0
300
10:1
140
10.0
141
1.0
290
     0
  0
SCALE
  5
489
102
{ACAD_REACTORS
330
478
102
}
330
478
100
AcDbScale
 70
     0
300
100:1
140
100.0
141
1.0
290
     0
  0
TABLESTYLE
  5
477
102
{ACAD_XDICTIONARY
360
653
102
}
102
{ACAD_REACTORS
330
476
102
}
330
476
100
AcDbTableStyle
  3
Standard
 70
     0
 71
     0
 40
1.5
 41
1.5
280
     0
281
     0
  7
STANDARD
140
4.5
170
     2
 62
     0
 63
     7
283
     0
274
    -2
284
     1
 64
     0
275
    -2
285
     1
 65
     0
276
    -2
286
     1
 66
     0
277
    -2
287
     1
 67
     0
278
    -2
288
     1
 68
     0
279
    -2
289
     1
 69
     0
  7
STANDARD
140
6.0
170
     5
 62
     0
 63
     7
283
     0
274
    -2
284
     1
 64
     0
275
    -2
285
     1
 65
     0
276
    -2
286
     1
 66
     0
277
    -2
287
     1
 67
     0
278
    -2
288
     1
 68
     0
279
    -2
289
     1
 69
     0
  7
STANDARD
140
4.5
170
     5
 62
     0
 63
     7
283
     0
274
    -2
284
     1
 64
     0
275
    -2
285
     1
 65
     0
276
    -2
286
     1
 66
     0
277
    -2
287
     1
 67
     0
278
    -2
288
     1
 68
     0
279
    -2
289
     1
 69
     0
  0
VISUALSTYLE
  5
467
102
{ACAD_XDICTIONARY
360
668
102
}
102
{ACAD_REACTORS
330
461
102
}
330
461
100
AcDbVisualStyle
  2
2dWireframe
 70
     4
 71
     0
 72
     2
 73
     0
 90
        0
 40
-0.6
 41
-30.0
 62
     5
 63
     7
 74
     1
 91
        4
 64
     7
 65
   257
 75
     1
175
     1
 42
1.0
 92
        0
 66
   257
 43
1.0
 76
     1
 77
     6
 78
     2
 67
     7
 79
     5
170
     0
171
     0
290
     0
174
     0
 93
        1
 44
0.0
173
     0
291
     0
 45
0.0
1001
ACAD
1000
AcDbSavedByObjectVersion
1070
     0
  0
VISUALSTYLE
  5
469
102
{ACAD_XDICTIONARY
360
66C
102
}
102
{ACAD_REACTORS
330
461
102
}
330
461
100
AcDbVisualStyle
  2
3D Hidden
 70
     6
 71
     1
 72
     2
 73
     2
 90
        0
 40
-0.6
 41
-30.0
 62
     5
 63
     7
 74
     2
 91
        2
 64
     7
 65
   257
 75
     2
175
     1
 42
179.0
 92
        0
 66
   257
 43
1.0
 76
     1
 77
     6
 78
     2
 67
     7
 79
     3
170
     0
171
     0
290
     0
174
     0
 93
        1
 44
0.0
173
     0
291
     0
 45
0.0
1001
ACAD
1000
AcDbSavedByObjectVersion
1070
     0
  0
VISUALSTYLE
  5
468
102
{ACAD_XDICTIONARY
360
66A
102
}
102
{ACAD_REACTORS
330
461
102
}
330
461
100
AcDbVisualStyle
  2
3dWireframe
 70
     5
 71
     0
 72
     2
 73
     0
 90
        0
 40
-0.6
 41
-30.0
 62
     5
 63
     7
 74
     1
 91
        4
 64
     7
 65
   257
 75
     1
175
     1
 42
1.0
 92
        0
 66
   257
 43
1.0
 76
     1
 77
     6
 78
     2
 67
     7
 79
     5
170
     0
171
     0
290
     0
174
     0
 93
        1
 44
0.0
173
     0
291
     0
 45
0.0
1001
ACAD
1000
AcDbSavedByObjectVersion
1070
     0
  0
VISUALSTYLE
  5
466
102
{ACAD_XDICTIONARY
360
666
102
}
102
{ACAD_REACTORS
330
461
102
}
330
461
100
AcDbVisualStyle
  2
Basic
 70
     7
 71
     1
 72
     0
 73
     1
 90
        0
 40
-0.6
 41
-30.0
 62
     5
 63
     7
 74
     0
 91
        4
 64
     7
 65
   257
 75
     1
175
     1
 42
1.0
 92
        8
 66
     7
 43
1.0
 76
     1
 77
     6
 78
     2
 67
     7
 79
     5
170
     0
171
     0
290
     0
174
     0
 93
        1
 44
0.0
173
     0
291
     1
 45
0.0
1001
ACAD
1000
AcDbSavedByObjectVersion
1070
     0
  0
VISUALSTYLE
  5
46D
102
{ACAD_XDICTIONARY
360
674
102
}
102
{ACAD_REACTORS
330
461
102
}
330
461
100
AcDbVisualStyle
  2
Brighten
 70
    12
 71
     2
 72
     2
 73
     0
 90
        0
 40
-0.6
 41
-30.0
 62
     5
 63
     7
 74
     1
 91
        4
 64
     7
 65
   257
 75
     1
175
     1
 42
1.0
 92
        8
 66
     7
 43
1.0
 76
     1
 77
     6
 78
     2
 67
     7
 79
     5
170
     0
171
     0
290
     0
174
     0
 93
        1
 44
50.0
173
     0
291
     1
 45
0.0
1001
ACAD
1000
AcDbSavedByObjectVersion
1070
     0
  0
VISUALSTYLE
  5
471
102
{ACAD_XDICTIONARY
360
67C
102
}
102
{ACAD_REACTORS
330
461
102
}
330
461
100
AcDbVisualStyle
  2
ColorChange
 70
    16
 71
     2
 72
     2
 73
     3
 90
        0
 40
-0.6
 41
-30.0
 62
     5
 63
     8
 74
     1
 91
        4
 64
     7
 65
   257
 75
     1
175
     1
 42
1.0
 92
        8
 66
     8
 43
1.0
 76
     1
 77
     6
 78
     2
 67
     7
 79
     5
170
     0
171
     0
290
     0
174
     0
 93
        1
 44
0.0
173
     0
291
     1
 45
0.0
1001
ACAD
1000
AcDbSavedByObjectVersion
1070
     0
  0
VISUALSTYLE
  5
46A
102
{ACAD_XDICTIONARY
360
66E
102
}
102
{ACAD_REACTORS
330
461
102
}
330
461
100
AcDbVisualStyle
  2
Conceptual
 70
     9
 71
     3
 72
     2
 73
     0
 90
        0
 40
-0.6
 41
-30.0
 62
     5
 63
     7
 74
     2
 91
        2
 64
     7
 65
   257
 75
     1
175
     1
 42
179.0
 92
        8
 66
     7
 43
1.0
 76
     1
 77
     6
 78
     2
 67
     7
 79
     3
170
     0
171
     0
290
     0
174
     0
 93
        1
 44
0.0
173
     0
291
     0
 45
0.0
1001
ACAD
1000
AcDbSavedByObjectVersion
1070
     0
  0
VISUALSTYLE
  5
46C
102
{ACAD_XDICTIONARY
360
672
102
}
102
{ACAD_REACTORS
330
461
102
}
330
461
100
AcDbVisualStyle
  2
Dim
 70
    11
 71
     2
 72
     2
 73
     0
 90
        0
 40
-0.6
 41
-30.0
 62
     5
 63
     7
 74
     1
 91
        4
 64
     7
 65
   257
 75
     1
175
     1
 42
1.0
 92
        8
 66
     7
 43
1.0
 76
     1
 77
     6
 78
     2
 67
     7
 79
     5
170
     0
171
     0
290
     0
174
     0
 93
        1
 44
-50.0
173
     0
291
     1
 45
0.0
1001
ACAD
1000
AcDbSavedByObjectVersion
1070
     0
  0
VISUALSTYLE
  5
474
102
{ACAD_XDICTIONARY
360
682
102
}
102
{ACAD_REACTORS
330
461
102
}
330
461
100
AcDbVisualStyle
  2
EdgeColorOff
 70
    22
 71
     2
 72
     2
 73
     0
 90
        0
 40
-0.6
 41
-30.0
 62
     5
 63
     7
 74
     1
 91
        4
 64
     7
 65
   257
 75
     1
175
     1
 42
1.0
 92
        8
 66
     7
 43
1.0
 76
     1
 77
     6
 78
     2
 67
     7
 79
     5
170
     0
171
     0
290
     0
174
     0
 93
        1
 44
0.0
173
     0
291
     1
 45
0.0
1001
ACAD
1000
AcDbSavedByObjectVersion
1070
     0
  0
VISUALSTYLE
  5
470
102
{ACAD_XDICTIONARY
360
67A
102
}
102
{ACAD_REACTORS
330
461
102
}
330
461
100
AcDbVisualStyle
  2
Facepattern
 70
    15
 71
     2
 72
     2
 73
     0
 90
        0
 40
-0.6
 41
-30.0
 62
     5
 63
     7
 74
     1
 91
        4
 64
     7
 65
   257
 75
     1
175
     1
 42
1.0
 92
        8
 66
     7
 43
1.0
 76
     1
 77
     6
 78
     2
 67
     7
 79
     5
170
     0
171
     0
290
     0
174
     0
 93
        1
 44
0.0
173
     0
291
     1
 45
0.0
1001
ACAD
1000
AcDbSavedByObjectVersion
1070
     0
  0
VISUALSTYLE
  5
462
102
{ACAD_XDICTIONARY
360
65E
102
}
102
{ACAD_REACTORS
330
461
102
}
330
461
100
AcDbVisualStyle
  2
Flat
 70
     0
 71
     2
 72
     1
 73
     1
 90
        2
 40
-0.6
 41
30.0
 62
     5
 63
     7
 74
     0
 91
        4
 64
     7
 65
   257
 75
     1
175
     1
 42
1.0
 92
        8
 66
     7
 43
1.0
 76
     1
 77
     6
 78
     2
 67
     7
 79
     5
170
     0
171
     0
290
     0
174
     0
 93
       13
 44
0.0
173
     0
291
     1
 45
0.0
1001
ACAD
1000
AcDbSavedByObjectVersion
1070
     0
  0
VISUALSTYLE
  5
463
102
{ACAD_XDICTIONARY
360
660
102
}
102
{ACAD_REACTORS
330
461
102
}
330
461
100
AcDbVisualStyle
  2
FlatWithEdges
 70
     1
 71
     2
 72
     1
 73
     1
 90
        2
 40
-0.6
 41
30.0
 62
     5
 63
     7
 74
     1
 91
        4
 64
     7
 65
   257
 75
     1
175
     1
 42
1.0
 92
        0
 66
   257
 43
1.0
 76
     1
 77
     6
 78
     2
 67
     7
 79
     5
170
     0
171
     0
290
     0
174
     0
 93
       13
 44
0.0
173
     0
291
     1
 45
0.0
1001
ACAD
1000
AcDbSavedByObjectVersion
1070
     0
  0
VISUALSTYLE
  5
464
102
{ACAD_XDICTIONARY
360
662
102
}
102
{ACAD_REACTORS
330
461
102
}
330
461
100
AcDbVisualStyle
  2
Gouraud
 70
     2
 71
     2
 72
     2
 73
     1
 90
        2
 40
-0.6
 41
30.0
 62
     5
 63
     7
 74
     0
 91
        4
 64
     7
 65
   257
 75
     1
175
     1
 42
1.0
 92
        0
 66
     7
 43
1.0
 76
     1
 77
     6
 78
     2
 67
     7
 79
     5
170
     0
171
     0
290
     0
174
     0
 93
       13
 44
0.0
173
     0
291
     1
 45
0.0
1001
ACAD
1000
AcDbSavedByObjectVersion
1070
     0
  0
VISUALSTYLE
  5
465
102
{ACAD_XDICTIONARY
360
664
102
}
102
{ACAD_REACTORS
330
461
102
}
330
461
100
AcDbVisualStyle
  2
GouraudWithEdges
 70
     3
 71
     2
 72
     2
 73
     1
 90
        2
 40
-0.6
 41
30.0
 62
     5
 63
     7
 74
     1
 91
        4
 64
     7
 65
   257
 75
     1
175
     1
 42
1.0
 92
        0
 66
   257
 43
1.0
 76
     1
 77
     6
 78
     2
 67
     7
 79
     5
170
     0
171
     0
290
     0
174
     0
 93
       13
 44
0.0
173
     0
291
     1
 45
0.0
1001
ACAD
1000
AcDbSavedByObjectVersion
1070
     0
  0
VISUALSTYLE
  5
472
102
{ACAD_XDICTIONARY
360
67E
102
}
102
{ACAD_REACTORS
330
461
102
}
330
461
100
AcDbVisualStyle
  2
JitterOff
 70
    20
 71
     2
 72
     2
 73
     0
 90
        0
 40
-0.6
 41
-30.0
 62
     5
 63
     7
 74
     1
 91
        4
 64
     7
 65
   257
 75
     1
175
     1
 42
1.0
 92
       10
 66
     7
 43
1.0
 76
     1
 77
     6
 78
     2
 67
     7
 79
     5
170
     0
171
     0
290
     0
174
     0
 93
        1
 44
0.0
173
     0
291
     1
 45
0.0
1001
ACAD
1000
AcDbSavedByObjectVersion
1070
     0
  0
VISUALSTYLE
  5
46F
102
{ACAD_XDICTIONARY
360
678
102
}
102
{ACAD_REACTORS
330
461
102
}
330
461
100
AcDbVisualStyle
  2
Linepattern
 70
    14
 71
     2
 72
     2
 73
     0
 90
        0
 40
-0.6
 41
-30.0
 62
     5
 63
     7
 74
     1
 91
        4
 64
     7
 65
   257
 75
     7
175
     7
 42
1.0
 92
        8
 66
     7
 43
1.0
 76
     1
 77
     6
 78
     2
 67
     7
 79
     5
170
     0
171
     0
290
     0
174
     0
 93
        1
 44
0.0
173
     0
291
     1
 45
0.0
1001
ACAD
1000
AcDbSavedByObjectVersion
1070
     0
  0
VISUALSTYLE
  5
473
102
{ACAD_XDICTIONARY
360
680
102
}
102
{ACAD_REACTORS
330
461
102
}
330
461
100
AcDbVisualStyle
  2
OverhangOff
 70
    21
 71
     2
 72
     2
 73
     0
 90
        0
 40
-0.6
 41
-30.0
 62
     5
 63
     7
 74
     1
 91
        4
 64
     7
 65
   257
 75
     1
175
     1
 42
1.0
 92
        9
 66
     7
 43
1.0
 76
     1
 77
     6
 78
     2
 67
     7
 79
     5
170
     0
171
     0
290
     0
174
     0
 93
        1
 44
0.0
173
     0
291
     1
 45
0.0
1001
ACAD
1000
AcDbSavedByObjectVersion
1070
     0
  0
VISUALSTYLE
  5
46B
102
{ACAD_XDICTIONARY
360
670
102
}
102
{ACAD_REACTORS
330
461
102
}
330
461
100
AcDbVisualStyle
  2
Realistic
 70
     8
 71
     2
 72
     2
 73
     0
 90
        0
 40
-0.6
 41
-30.0
 62
     5
 63
     7
 74
     1
 91
        0
 64
     7
 65
   257
 75
     1
175
     1
 42
1.0
 92
        8
 66
     8
 43
1.0
 76
     1
 77
     6
 78
     2
 67
     7
 79
     5
170
     0
171
     0
290
     0
174
     0
 93
       13
 44
0.0
173
     0
291
     0
 45
0.0
1001
ACAD
1000
AcDbSavedByObjectVersion
1070
     0
  0
VISUALSTYLE
  5
46E
102
{ACAD_XDICTIONARY
360
676
102
}
102
{ACAD_REACTORS
330
461
102
}
330
461
100
AcDbVisualStyle
  2
Thicken
 70
    13
 71
     2
 72
     2
 73
     0
 90
        0
 40
-0.6
 41
-30.0
 62
     5
 63
     7
 74
     1
 91
        4
 64
     7
 65
   257
 75
     1
175
     1
 42
1.0
 92
       12
 66
     7
 43
1.0
 76
     1
 77
     6
 78
     2
 67
     7
 79
     5
170
     0
171
     0
290
     0
174
     0
 93
        1
 44
0.0
173
     0
291
     1
 45
0.0
1001
ACAD
1000
AcDbSavedByObjectVersion
1070
     0
  0
DICTIONARYVAR
  5
64A
102
{ACAD_REACTORS
330
646
102
}
330
646
100
DictionaryVariables
280
     0
  1
1:1
  0
DICTIONARYVAR
  5
648
102
{ACAD_REACTORS
330
646
102
}
330
646
100
DictionaryVariables
280
     0
  1
STANDARD
  0
DICTIONARYVAR
  5
647
102
{ACAD_REACTORS
330
646
102
}
330
646
100
DictionaryVariables
280
     0
  1
STANDARD
  0
DICTIONARYVAR
  5
651
102
{ACAD_REACTORS
330
646
102
}
330
646
100
DictionaryVariables
280
     0
  1
2
  0
DICTIONARYVAR
  5
650
102
{ACAD_REACTORS
330
646
102
}
330
646
100
DictionaryVariables
280
     0
  1
1
  0
DICTIONARYVAR
  5
64F
102
{ACAD_REACTORS
330
646
102
}
330
646
100
DictionaryVariables
280
     0
  1
0
  0
DICTIONARYVAR
  5
64C
102
{ACAD_REACTORS
330
646
102
}
330
646
100
DictionaryVariables
280
     0
  1
0
  0
DICTIONARYVAR
  5
64D
102
{ACAD_REACTORS
330
646
102
}
330
646
100
DictionaryVariables
280
     0
  1
0
  0
DICTIONARYVAR
  5
64B
102
{ACAD_REACTORS
330
646
102
}
330
646
100
DictionaryVariables
280
     0
  1
2
  0
DICTIONARYVAR
  5
649
102
{ACAD_REACTORS
330
646
102
}
330
646
100
DictionaryVariables
280
     0
  1
1
  0
DICTIONARYVAR
  5
64E
102
{ACAD_REACTORS
330
646
102
}
330
646
100
DictionaryVariables
280
     0
  1
127
  0
DICTIONARYVAR
  5
652
102
{ACAD_REACTORS
330
646
102
}
330
646
100
DictionaryVariables
280
     0
  1
2
  0
DICTIONARY
  5
4EF
102
{ACAD_REACTORS
330
4E5
102
}
330
4E5
100
AcDbDictionary
281
     1
  0
DICTIONARY
  5
659
330
445
100
AcDbDictionary
280
     1
281
     1
  3
ACAD_XREC_ROUNDTRIP
360
65A
  0
DICTIONARY
  5
657
330
444
100
AcDbDictionary
280
     1
281
     1
  3
ACAD_XREC_ROUNDTRIP
360
658
  0
DICTIONARY
  5
452
330
451
100
AcDbDictionary
280
     1
281
     1
  3
ACAD_XREC_ROUNDTRIP
360
65C
  3
BUMPTILE
360
454
  3
DIFFUSETILE
360
453
  3
OPACITYTILE
360
457
  3
REFLECTIONTILE
360
456
  3
REFRACTIONTILE
360
458
  3
SPECULARTILE
360
455
  0
DICTIONARY
  5
44A
330
449
100
AcDbDictionary
280
     1
281
     1
  3
ACAD_XREC_ROUNDTRIP
360
65B
  3
BUMPTILE
360
44C
  3
DIFFUSETILE
360
44B
  3
OPACITYTILE
360
44F
  3
REFLECTIONTILE
360
44E
  3
REFRACTIONTILE
360
450
  3
SPECULARTILE
360
44D
  0
DICTIONARY
  5
45A
330
459
100
AcDbDictionary
280
     1
281
     1
  3
ACAD_XREC_ROUNDTRIP
360
65D
  3
BUMPTILE
360
45C
  3
DIFFUSETILE
360
45B
  3
OPACITYTILE
360
45F
  3
REFLECTIONTILE
360
45E
  3
REFRACTIONTILE
360
460
  3
SPECULARTILE
360
45D
  0
DICTIONARY
  5
653
330
477
100
AcDbDictionary
280
     1
281
     1
  3
ACAD_ROUNDTRIP_2008_TABLESTYLE_CELLSTYLEMAP
360
654
  3
ACAD_XREC_ROUNDTRIP
360
684
  0
DICTIONARY
  5
668
330
467
100
AcDbDictionary
280
     1
281
     1
  3
ACAD_XREC_ROUNDTRIP
360
669
  0
DICTIONARY
  5
66C
330
469
100
AcDbDictionary
280
     1
281
     1
  3
ACAD_XREC_ROUNDTRIP
360
66D
  0
DICTIONARY
  5
66A
330
468
100
AcDbDictionary
280
     1
281
     1
  3
ACAD_XREC_ROUNDTRIP
360
66B
  0
DICTIONARY
  5
666
330
466
100
AcDbDictionary
280
     1
281
     1
  3
ACAD_XREC_ROUNDTRIP
360
667
  0
DICTIONARY
  5
674
330
46D
100
AcDbDictionary
280
     1
281
     1
  3
ACAD_XREC_ROUNDTRIP
360
675
  0
DICTIONARY
  5
67C
330
471
100
AcDbDictionary
280
     1
281
     1
  3
ACAD_XREC_ROUNDTRIP
360
67D
  0
DICTIONARY
  5
66E
330
46A
100
AcDbDictionary
280
     1
281
     1
  3
ACAD_XREC_ROUNDTRIP
360
66F
  0
DICTIONARY
  5
672
330
46C
100
AcDbDictionary
280
     1
281
     1
  3
ACAD_XREC_ROUNDTRIP
360
673
  0
DICTIONARY
  5
682
330
474
100
AcDbDictionary
280
     1
281
     1
  3
ACAD_XREC_ROUNDTRIP
360
683
  0
DICTIONARY
  5
67A
330
470
100
AcDbDictionary
280
     1
281
     1
  3
ACAD_XREC_ROUNDTRIP
360
67B
  0
DICTIONARY
  5
65E
330
462
100
AcDbDictionary
280
     1
281
     1
  3
ACAD_XREC_ROUNDTRIP
360
65F
  0
DICTIONARY
  5
660
330
463
100
AcDbDictionary
280
     1
281
     1
  3
ACAD_XREC_ROUNDTRIP
360
661
  0
DICTIONARY
  5
662
330
464
100
AcDbDictionary
280
     1
281
     1
  3
ACAD_XREC_ROUNDTRIP
360
663
  0
DICTIONARY
  5
664
330
465
100
AcDbDictionary
280
     1
281
     1
  3
ACAD_XREC_ROUNDTRIP
360
665
  0
DICTIONARY
  5
67E
330
472
100
AcDbDictionary
280
     1
281
     1
  3
ACAD_XREC_ROUNDTRIP
360
67F
  0
DICTIONARY
  5
678
330
46F
100
AcDbDictionary
280
     1
281
     1
  3
ACAD_XREC_ROUNDTRIP
360
679
  0
DICTIONARY
  5
680
330
473
100
AcDbDictionary
280
     1
281
     1
  3
ACAD_XREC_ROUNDTRIP
360
681
  0
DICTIONARY
  5
670
330
46B
100
AcDbDictionary
280
     1
281
     1
  3
ACAD_XREC_ROUNDTRIP
360
671
  0
DICTIONARY
  5
676
330
46E
100
AcDbDictionary
280
     1
281
     1
  3
ACAD_XREC_ROUNDTRIP
360
677
  0
XRECORD
  5
65A
102
{ACAD_REACTORS
330
659
102
}
330
659
100
AcDbXrecord
280
     1
102
SHADEPLOT
 70
     0
102
SHADEPLOTRESLEVEL
 70
     2
102
SHADEPLOTCUSTOMDPI
 70
   300
  0
XRECORD
  5
658
102
{ACAD_REACTORS
330
657
102
}
330
657
100
AcDbXrecord
280
     1
102
SHADEPLOT
 70
     0
102
SHADEPLOTRESLEVEL
 70
     2
102
SHADEPLOTCUSTOMDPI
 70
   300
  0
XRECORD
  5
65C
102
{ACAD_REACTORS
330
452
102
}
330
452
100
AcDbXrecord
280
     1
102
MATERIAL
148
0.0
149
0.0
149
0.0
 93
        0
 94
      127
282
     0
 72
     0
 77
     0
171
     0
175
     0
179
     0
273
     0
  0
XRECORD
  5
454
102
{ACAD_REACTORS
330
452
102
}
330
452
100
AcDbXrecord
280
     1
270
     1
271
     1
  0
XRECORD
  5
453
102
{ACAD_REACTORS
330
452
102
}
330
452
100
AcDbXrecord
280
     1
270
     1
271
     1
  0
XRECORD
  5
457
102
{ACAD_REACTORS
330
452
102
}
330
452
100
AcDbXrecord
280
     1
270
     1
271
     1
  0
XRECORD
  5
456
102
{ACAD_REACTORS
330
452
102
}
330
452
100
AcDbXrecord
280
     1
270
     1
271
     1
  0
XRECORD
  5
458
102
{ACAD_REACTORS
330
452
102
}
330
452
100
AcDbXrecord
280
     1
270
     1
271
     1
  0
XRECORD
  5
455
102
{ACAD_REACTORS
330
452
102
}
330
452
100
AcDbXrecord
280
     1
270
     1
271
     1
  0
XRECORD
  5
65B
102
{ACAD_REACTORS
330
44A
102
}
330
44A
100
AcDbXrecord
280
     1
102
MATERIAL
148
0.0
149
0.0
149
0.0
 93
        0
 94
      127
282
     0
 72
     0
 77
     0
171
     0
175
     0
179
     0
273
     0
  0
XRECORD
  5
44C
102
{ACAD_REACTORS
330
44A
102
}
330
44A
100
AcDbXrecord
280
     1
270
     1
271
     1
  0
XRECORD
  5
44B
102
{ACAD_REACTORS
330
44A
102
}
330
44A
100
AcDbXrecord
280
     1
270
     1
271
     1
  0
XRECORD
  5
44F
102
{ACAD_REACTORS
330
44A
102
}
330
44A
100
AcDbXrecord
280
     1
270
     1
271
     1
  0
XRECORD
  5
44E
102
{ACAD_REACTORS
330
44A
102
}
330
44A
100
AcDbXrecord
280
     1
270
     1
271
     1
  0
XRECORD
  5
450
102
{ACAD_REACTORS
330
44A
102
}
330
44A
100
AcDbXrecord
280
     1
270
     1
271
     1
  0
XRECORD
  5
44D
102
{ACAD_REACTORS
330
44A
102
}
330
44A
100
AcDbXrecord
280
     1
270
     1
271
     1
  0
XRECORD
  5
65D
102
{ACAD_REACTORS
330
45A
102
}
330
45A
100
AcDbXrecord
280
     1
102
MATERIAL
148
0.0
149
0.0
149
0.0
 93
        0
 94
      127
282
     0
 72
     0
 77
     0
171
     0
175
     0
179
     0
273
     0
  0
XRECORD
  5
45C
102
{ACAD_REACTORS
330
45A
102
}
330
45A
100
AcDbXrecord
280
     1
270
     1
271
     1
  0
XRECORD
  5
45B
102
{ACAD_REACTORS
330
45A
102
}
330
45A
100
AcDbXrecord
280
     1
270
     1
271
     1
  0
XRECORD
  5
45F
102
{ACAD_REACTORS
330
45A
102
}
330
45A
100
AcDbXrecord
280
     1
270
     1
271
     1
  0
XRECORD
  5
45E
102
{ACAD_REACTORS
330
45A
102
}
330
45A
100
AcDbXrecord
280
     1
270
     1
271
     1
  0
XRECORD
  5
460
102
{ACAD_REACTORS
330
45A
102
}
330
45A
100
AcDbXrecord
280
     1
270
     1
271
     1
  0
XRECORD
  5
45D
102
{ACAD_REACTORS
330
45A
102
}
330
45A
100
AcDbXrecord
280
     1
270
     1
271
     1
  0
CELLSTYLEMAP
  5
654
102
{ACAD_REACTORS
330
653
102
}
330
653
100
AcDbCellStyleMap
 90
        3
300
CELLSTYLE
  1
TABLEFORMAT_BEGIN
 90
        5
170
     1
 91
        0
 92
    32768
 62
   257
 93
        1
300
CONTENTFORMAT
  1
CONTENTFORMAT_BEGIN
 90
        0
 91
        0
 92
      512
 93
        0
300

 40
0.0
140
1.0
 94
        5
 62
     0
340
11
144
6.0
309
CONTENTFORMAT_END
171
     1
301
MARGIN
  1
CELLMARGIN_BEGIN
 40
1.5
 40
1.5
 40
1.5
 40
1.5
 40
4.5
 40
4.5
309
CELLMARGIN_END
 94
        6
 95
        1
302
GRIDFORMAT
  1
GRIDFORMAT_BEGIN
 90
        0
 91
        1
 62
     0
 92
       -2
340
0
 93
        0
 40
1.125
309
GRIDFORMAT_END
 95
        2
302
GRIDFORMAT
  1
GRIDFORMAT_BEGIN
 90
        0
 91
        1
 62
     0
 92
       -2
340
0
 93
        0
 40
1.125
309
GRIDFORMAT_END
 95
        4
302
GRIDFORMAT
  1
GRIDFORMAT_BEGIN
 90
        0
 91
        1
 62
     0
 92
       -2
340
0
 93
        0
 40
1.125
309
GRIDFORMAT_END
 95
        8
302
GRIDFORMAT
  1
GRIDFORMAT_BEGIN
 90
        0
 91
        1
 62
     0
 92
       -2
340
0
 93
        0
 40
1.125
309
GRIDFORMAT_END
 95
       16
302
GRIDFORMAT
  1
GRIDFORMAT_BEGIN
 90
        0
 91
        1
 62
     0
 92
       -2
340
0
 93
        0
 40
1.125
309
GRIDFORMAT_END
 95
       32
302
GRIDFORMAT
  1
GRIDFORMAT_BEGIN
 90
        0
 91
        1
 62
     0
 92
       -2
340
0
 93
        0
 40
1.125
309
GRIDFORMAT_END
309
TABLEFORMAT_END
  1
CELLSTYLE_BEGIN
 90
        1
 91
        1
300
_TITLE
309
CELLSTYLE_END
300
CELLSTYLE
  1
TABLEFORMAT_BEGIN
 90
        5
170
     1
 91
        0
 92
        0
 62
   257
 93
        1
300
CONTENTFORMAT
  1
CONTENTFORMAT_BEGIN
 90
        0
 91
        0
 92
      512
 93
        0
300

 40
0.0
140
1.0
 94
        5
 62
     0
340
11
144
4.5
309
CONTENTFORMAT_END
171
     1
301
MARGIN
  1
CELLMARGIN_BEGIN
 40
1.5
 40
1.5
 40
1.5
 40
1.5
 40
4.5
 40
4.5
309
CELLMARGIN_END
 94
        6
 95
        1
302
GRIDFORMAT
  1
GRIDFORMAT_BEGIN
 90
        0
 91
        1
 62
     0
 92
       -2
340
0
 93
        0
 40
1.125
309
GRIDFORMAT_END
 95
        2
302
GRIDFORMAT
  1
GRIDFORMAT_BEGIN
 90
        0
 91
        1
 62
     0
 92
       -2
340
0
 93
        0
 40
1.125
309
GRIDFORMAT_END
 95
        4
302
GRIDFORMAT
  1
GRIDFORMAT_BEGIN
 90
        0
 91
        1
 62
     0
 92
       -2
340
0
 93
        0
 40
1.125
309
GRIDFORMAT_END
 95
        8
302
GRIDFORMAT
  1
GRIDFORMAT_BEGIN
 90
        0
 91
        1
 62
     0
 92
       -2
340
0
 93
        0
 40
1.125
309
GRIDFORMAT_END
 95
       16
302
GRIDFORMAT
  1
GRIDFORMAT_BEGIN
 90
        0
 91
        1
 62
     0
 92
       -2
340
0
 93
        0
 40
1.125
309
GRIDFORMAT_END
 95
       32
302
GRIDFORMAT
  1
GRIDFORMAT_BEGIN
 90
        0
 91
        1
 62
     0
 92
       -2
340
0
 93
        0
 40
1.125
309
GRIDFORMAT_END
309
TABLEFORMAT_END
  1
CELLSTYLE_BEGIN
 90
        2
 91
        1
300
_HEADER
309
CELLSTYLE_END
300
CELLSTYLE
  1
TABLEFORMAT_BEGIN
 90
        5
170
     1
 91
        0
 92
        0
 62
   257
 93
        1
300
CONTENTFORMAT
  1
CONTENTFORMAT_BEGIN
 90
        0
 91
        0
 92
      512
 93
        0
300

 40
0.0
140
1.0
 94
        2
 62
     0
340
11
144
4.5
309
CONTENTFORMAT_END
171
     1
301
MARGIN
  1
CELLMARGIN_BEGIN
 40
1.5
 40
1.5
 40
1.5
 40
1.5
 40
4.5
 40
4.5
309
CELLMARGIN_END
 94
        6
 95
        1
302
GRIDFORMAT
  1
GRIDFORMAT_BEGIN
 90
        0
 91
        1
 62
     0
 92
       -2
340
0
 93
        0
 40
1.125
309
GRIDFORMAT_END
 95
        2
302
GRIDFORMAT
  1
GRIDFORMAT_BEGIN
 90
        0
 91
        1
 62
     0
 92
       -2
340
0
 93
        0
 40
1.125
309
GRIDFORMAT_END
 95
        4
302
GRIDFORMAT
  1
GRIDFORMAT_BEGIN
 90
        0
 91
        1
 62
     0
 92
       -2
340
0
 93
        0
 40
1.125
309
GRIDFORMAT_END
 95
        8
302
GRIDFORMAT
  1
GRIDFORMAT_BEGIN
 90
        0
 91
        1
 62
     0
 92
       -2
340
0
 93
        0
 40
1.125
309
GRIDFORMAT_END
 95
       16
302
GRIDFORMAT
  1
GRIDFORMAT_BEGIN
 90
        0
 91
        1
 62
     0
 92
       -2
340
0
 93
        0
 40
1.125
309
GRIDFORMAT_END
 95
       32
302
GRIDFORMAT
  1
GRIDFORMAT_BEGIN
 90
        0
 91
        1
 62
     0
 92
       -2
340
0
 93
        0
 40
1.125
309
GRIDFORMAT_END
309
TABLEFORMAT_END
  1
CELLSTYLE_BEGIN
 90
        3
 91
        2
300
_DATA
309
CELLSTYLE_END
  0
XRECORD
  5
684
102
{ACAD_REACTORS
330
653
102
}
330
653
100
AcDbXrecord
280
     1
102
ACAD_ROUNDTRIP_PRE2007_TABLESTYLE
 90
      512
 91
        0
  1

 92
      512
 93
        0
  2

 94
      512
 95
        0
  3

  0
XRECORD
  5
669
102
{ACAD_REACTORS
330
668
102
}
330
668
100
AcDbXrecord
280
     1
102
RTVSPropertyOp0
 70
     1
102
RTVSPropertyOp1
 70
     1
102
RTVSPropertyOp2
 70
     1
102
RTVSPropertyOp3
 70
     1
102
RTVSPropertyOp4
 70
     1
102
RTVSPropertyOp5
 70
     1
102
RTVSPropertyOp6
 70
     1
102
RTVSPropertyOp7
 70
     1
102
RTVSPropertyOp8
 70
     1
102
RTVSPropertyOp9
 70
     1
102
RTVSPropertyOp10
 70
     1
102
RTVSPropertyOp11
 70
     1
102
RTVSPropertyOp12
 70
     1
102
RTVSPropertyOp13
 70
     1
102
RTVSPropertyOp14
 70
     1
102
RTVSPropertyOp15
 70
     1
102
RTVSPropertyOp16
 70
     1
102
RTVSPropertyOp17
 70
     1
102
RTVSPropertyOp18
 70
     1
102
RTVSPropertyOp19
 70
     1
102
RTVSPropertyOp20
 70
     1
102
RTVSPropertyOp21
 70
     1
102
RTVSPropertyOp22
 70
     1
102
RTVSPropertyOp23
 70
     1
102
RTVSPropertyOp24
 70
     1
102
RTVSPropertyOp25
 70
     1
102
RTVSPropertyOp26
 70
     1
102
RTVSPropertyOp27
 70
     1
  0
XRECORD
  5
66D
102
{ACAD_REACTORS
330
66C
102
}
330
66C
100
AcDbXrecord
280
     1
102
RTVSPropertyOp0
 70
     1
102
RTVSPropertyOp1
 70
     1
102
RTVSPropertyOp2
 70
     1
102
RTVSPropertyOp3
 70
     1
102
RTVSPropertyOp4
 70
     1
102
RTVSPropertyOp5
 70
     1
102
RTVSPropertyOp6
 70
     1
102
RTVSPropertyOp7
 70
     1
102
RTVSPropertyOp8
 70
     1
102
RTVSPropertyOp9
 70
     1
102
RTVSPropertyOp10
 70
     1
102
RTVSPropertyOp11
 70
     1
102
RTVSPropertyOp12
 70
     1
102
RTVSPropertyOp13
 70
     1
102
RTVSPropertyOp14
 70
     1
102
RTVSPropertyOp15
 70
     1
102
RTVSPropertyOp16
 70
     1
102
RTVSPropertyOp17
 70
     1
102
RTVSPropertyOp18
 70
     1
102
RTVSPropertyOp19
 70
     1
102
RTVSPropertyOp20
 70
     1
102
RTVSPropertyOp21
 70
     1
102
RTVSPropertyOp22
 70
     1
102
RTVSPropertyOp23
 70
     1
102
RTVSPropertyOp24
 70
     1
102
RTVSPropertyOp25
 70
     1
102
RTVSPropertyOp26
 70
     1
102
RTVSPropertyOp27
 70
     1
  0
XRECORD
  5
66B
102
{ACAD_REACTORS
330
66A
102
}
330
66A
100
AcDbXrecord
280
     1
102
RTVSPropertyOp0
 70
     1
102
RTVSPropertyOp1
 70
     1
102
RTVSPropertyOp2
 70
     1
102
RTVSPropertyOp3
 70
     1
102
RTVSPropertyOp4
 70
     1
102
RTVSPropertyOp5
 70
     1
102
RTVSPropertyOp6
 70
     1
102
RTVSPropertyOp7
 70
     1
102
RTVSPropertyOp8
 70
     1
102
RTVSPropertyOp9
 70
     1
102
RTVSPropertyOp10
 70
     1
102
RTVSPropertyOp11
 70
     1
102
RTVSPropertyOp12
 70
     1
102
RTVSPropertyOp13
 70
     1
102
RTVSPropertyOp14
 70
     1
102
RTVSPropertyOp15
 70
     1
102
RTVSPropertyOp16
 70
     1
102
RTVSPropertyOp17
 70
     1
102
RTVSPropertyOp18
 70
     1
102
RTVSPropertyOp19
 70
     1
102
RTVSPropertyOp20
 70
     1
102
RTVSPropertyOp21
 70
     1
102
RTVSPropertyOp22
 70
     1
102
RTVSPropertyOp23
 70
     1
102
RTVSPropertyOp24
 70
     1
102
RTVSPropertyOp25
 70
     1
102
RTVSPropertyOp26
 70
     1
102
RTVSPropertyOp27
 70
     1
  0
XRECORD
  5
667
102
{ACAD_REACTORS
330
666
102
}
330
666
100
AcDbXrecord
280
     1
102
RTVSPropertyOp0
 70
     1
102
RTVSPropertyOp1
 70
     1
102
RTVSPropertyOp2
 70
     1
102
RTVSPropertyOp3
 70
     1
102
RTVSPropertyOp4
 70
     1
102
RTVSPropertyOp5
 70
     1
102
RTVSPropertyOp6
 70
     1
102
RTVSPropertyOp7
 70
     1
102
RTVSPropertyOp8
 70
     1
102
RTVSPropertyOp9
 70
     1
102
RTVSPropertyOp10
 70
     1
102
RTVSPropertyOp11
 70
     1
102
RTVSPropertyOp12
 70
     1
102
RTVSPropertyOp13
 70
     1
102
RTVSPropertyOp14
 70
     1
102
RTVSPropertyOp15
 70
     1
102
RTVSPropertyOp16
 70
     1
102
RTVSPropertyOp17
 70
     1
102
RTVSPropertyOp18
 70
     1
102
RTVSPropertyOp19
 70
     1
102
RTVSPropertyOp20
 70
     1
102
RTVSPropertyOp21
 70
     1
102
RTVSPropertyOp22
 70
     1
102
RTVSPropertyOp23
 70
     1
102
RTVSPropertyOp24
 70
     1
102
RTVSPropertyOp25
 70
     1
102
RTVSPropertyOp26
 70
     1
102
RTVSPropertyOp27
 70
     1
  0
XRECORD
  5
675
102
{ACAD_REACTORS
330
674
102
}
330
674
100
AcDbXrecord
280
     1
102
RTVSPropertyOp0
 70
     1
102
RTVSPropertyOp1
 70
     1
102
RTVSPropertyOp2
 70
     1
102
RTVSPropertyOp3
 70
     1
102
RTVSPropertyOp4
 70
     1
102
RTVSPropertyOp5
 70
     1
102
RTVSPropertyOp6
 70
     1
102
RTVSPropertyOp7
 70
     1
102
RTVSPropertyOp8
 70
     1
102
RTVSPropertyOp9
 70
     1
102
RTVSPropertyOp10
 70
     1
102
RTVSPropertyOp11
 70
     1
102
RTVSPropertyOp12
 70
     1
102
RTVSPropertyOp13
 70
     1
102
RTVSPropertyOp14
 70
     1
102
RTVSPropertyOp15
 70
     1
102
RTVSPropertyOp16
 70
     1
102
RTVSPropertyOp17
 70
     1
102
RTVSPropertyOp18
 70
     1
102
RTVSPropertyOp19
 70
     1
102
RTVSPropertyOp20
 70
     1
102
RTVSPropertyOp21
 70
     1
102
RTVSPropertyOp22
 70
     1
102
RTVSPropertyOp23
 70
     1
102
RTVSPropertyOp24
 70
     1
102
RTVSPropertyOp25
 70
     1
102
RTVSPropertyOp26
 70
     1
102
RTVSPropertyOp27
 70
     1
  0
XRECORD
  5
67D
102
{ACAD_REACTORS
330
67C
102
}
330
67C
100
AcDbXrecord
280
     1
102
RTVSPropertyOp0
 70
     1
102
RTVSPropertyOp1
 70
     1
102
RTVSPropertyOp2
 70
     1
102
RTVSPropertyOp3
 70
     1
102
RTVSPropertyOp4
 70
     1
102
RTVSPropertyOp5
 70
     1
102
RTVSPropertyOp6
 70
     1
102
RTVSPropertyOp7
 70
     1
102
RTVSPropertyOp8
 70
     1
102
RTVSPropertyOp9
 70
     1
102
RTVSPropertyOp10
 70
     1
102
RTVSPropertyOp11
 70
     1
102
RTVSPropertyOp12
 70
     1
102
RTVSPropertyOp13
 70
     1
102
RTVSPropertyOp14
 70
     1
102
RTVSPropertyOp15
 70
     1
102
RTVSPropertyOp16
 70
     1
102
RTVSPropertyOp17
 70
     1
102
RTVSPropertyOp18
 70
     1
102
RTVSPropertyOp19
 70
     1
102
RTVSPropertyOp20
 70
     1
102
RTVSPropertyOp21
 70
     1
102
RTVSPropertyOp22
 70
     1
102
RTVSPropertyOp23
 70
     1
102
RTVSPropertyOp24
 70
     1
102
RTVSPropertyOp25
 70
     1
102
RTVSPropertyOp26
 70
     1
102
RTVSPropertyOp27
 70
     1
  0
XRECORD
  5
66F
102
{ACAD_REACTORS
330
66E
102
}
330
66E
100
AcDbXrecord
280
     1
102
RTVSPropertyOp0
 70
     1
102
RTVSPropertyOp1
 70
     1
102
RTVSPropertyOp2
 70
     1
102
RTVSPropertyOp3
 70
     1
102
RTVSPropertyOp4
 70
     1
102
RTVSPropertyOp5
 70
     1
102
RTVSPropertyOp6
 70
     1
102
RTVSPropertyOp7
 70
     1
102
RTVSPropertyOp8
 70
     1
102
RTVSPropertyOp9
 70
     1
102
RTVSPropertyOp10
 70
     1
102
RTVSPropertyOp11
 70
     1
102
RTVSPropertyOp12
 70
     1
102
RTVSPropertyOp13
 70
     1
102
RTVSPropertyOp14
 70
     1
102
RTVSPropertyOp15
 70
     1
102
RTVSPropertyOp16
 70
     1
102
RTVSPropertyOp17
 70
     1
102
RTVSPropertyOp18
 70
     1
102
RTVSPropertyOp19
 70
     1
102
RTVSPropertyOp20
 70
     1
102
RTVSPropertyOp21
 70
     1
102
RTVSPropertyOp22
 70
     1
102
RTVSPropertyOp23
 70
     1
102
RTVSPropertyOp24
 70
     1
102
RTVSPropertyOp25
 70
     1
102
RTVSPropertyOp26
 70
     1
102
RTVSPropertyOp27
 70
     1
  0
XRECORD
  5
673
102
{ACAD_REACTORS
330
672
102
}
330
672
100
AcDbXrecord
280
     1
102
RTVSPropertyOp0
 70
     1
102
RTVSPropertyOp1
 70
     1
102
RTVSPropertyOp2
 70
     1
102
RTVSPropertyOp3
 70
     1
102
RTVSPropertyOp4
 70
     1
102
RTVSPropertyOp5
 70
     1
102
RTVSPropertyOp6
 70
     1
102
RTVSPropertyOp7
 70
     1
102
RTVSPropertyOp8
 70
     1
102
RTVSPropertyOp9
 70
     1
102
RTVSPropertyOp10
 70
     1
102
RTVSPropertyOp11
 70
     1
102
RTVSPropertyOp12
 70
     1
102
RTVSPropertyOp13
 70
     1
102
RTVSPropertyOp14
 70
     1
102
RTVSPropertyOp15
 70
     1
102
RTVSPropertyOp16
 70
     1
102
RTVSPropertyOp17
 70
     1
102
RTVSPropertyOp18
 70
     1
102
RTVSPropertyOp19
 70
     1
102
RTVSPropertyOp20
 70
     1
102
RTVSPropertyOp21
 70
     1
102
RTVSPropertyOp22
 70
     1
102
RTVSPropertyOp23
 70
     1
102
RTVSPropertyOp24
 70
     1
102
RTVSPropertyOp25
 70
     1
102
RTVSPropertyOp26
 70
     1
102
RTVSPropertyOp27
 70
     1
  0
XRECORD
  5
683
102
{ACAD_REACTORS
330
682
102
}
330
682
100
AcDbXrecord
280
     1
102
RTVSPropertyOp0
 70
     0
102
RTVSPropertyOp1
 70
     0
102
RTVSPropertyOp2
 70
     0
102
RTVSPropertyOp3
 70
     0
102
RTVSPropertyOp4
 70
     0
102
RTVSPropertyOp5
 70
     0
102
RTVSPropertyOp6
 70
     0
102
RTVSPropertyOp7
 70
     0
102
RTVSPropertyOp8
 70
     0
102
RTVSPropertyOp9
 70
     0
102
RTVSPropertyOp10
 70
     0
102
RTVSPropertyOp11
 70
     0
102
RTVSPropertyOp12
 70
     0
102
RTVSPropertyOp13
 70
     0
102
RTVSPropertyOp14
 70
     2
102
RTVSPropertyOp15
 70
     0
102
RTVSPropertyOp16
 70
     0
102
RTVSPropertyOp17
 70
     0
102
RTVSPropertyOp18
 70
     0
102
RTVSPropertyOp19
 70
     0
102
RTVSPropertyOp20
 70
     0
102
RTVSPropertyOp21
 70
     0
102
RTVSPropertyOp22
 70
     0
102
RTVSPropertyOp23
 70
     0
102
RTVSPropertyOp24
 70
     0
102
RTVSPropertyOp25
 70
     0
102
RTVSPropertyOp26
 70
     0
102
RTVSPropertyOp27
 70
     0
  0
XRECORD
  5
67B
102
{ACAD_REACTORS
330
67A
102
}
330
67A
100
AcDbXrecord
280
     1
102
RTVSPropertyOp0
 70
     1
102
RTVSPropertyOp1
 70
     1
102
RTVSPropertyOp2
 70
     1
102
RTVSPropertyOp3
 70
     1
102
RTVSPropertyOp4
 70
     1
102
RTVSPropertyOp5
 70
     1
102
RTVSPropertyOp6
 70
     1
102
RTVSPropertyOp7
 70
     1
102
RTVSPropertyOp8
 70
     1
102
RTVSPropertyOp9
 70
     1
102
RTVSPropertyOp10
 70
     1
102
RTVSPropertyOp11
 70
     1
102
RTVSPropertyOp12
 70
     1
102
RTVSPropertyOp13
 70
     1
102
RTVSPropertyOp14
 70
     1
102
RTVSPropertyOp15
 70
     1
102
RTVSPropertyOp16
 70
     1
102
RTVSPropertyOp17
 70
     1
102
RTVSPropertyOp18
 70
     1
102
RTVSPropertyOp19
 70
     1
102
RTVSPropertyOp20
 70
     1
102
RTVSPropertyOp21
 70
     1
102
RTVSPropertyOp22
 70
     1
102
RTVSPropertyOp23
 70
     1
102
RTVSPropertyOp24
 70
     1
102
RTVSPropertyOp25
 70
     1
102
RTVSPropertyOp26
 70
     1
102
RTVSPropertyOp27
 70
     1
  0
XRECORD
  5
65F
102
{ACAD_REACTORS
330
65E
102
}
330
65E
100
AcDbXrecord
280
     1
102
RTVSPropertyOp0
 70
     1
102
RTVSPropertyOp1
 70
     1
102
RTVSPropertyOp2
 70
     1
102
RTVSPropertyOp3
 70
     1
102
RTVSPropertyOp4
 70
     1
102
RTVSPropertyOp5
 70
     1
102
RTVSPropertyOp6
 70
     1
102
RTVSPropertyOp7
 70
     1
102
RTVSPropertyOp8
 70
     1
102
RTVSPropertyOp9
 70
     1
102
RTVSPropertyOp10
 70
     1
102
RTVSPropertyOp11
 70
     1
102
RTVSPropertyOp12
 70
     1
102
RTVSPropertyOp13
 70
     1
102
RTVSPropertyOp14
 70
     1
102
RTVSPropertyOp15
 70
     1
102
RTVSPropertyOp16
 70
     1
102
RTVSPropertyOp17
 70
     1
102
RTVSPropertyOp18
 70
     1
102
RTVSPropertyOp19
 70
     1
102
RTVSPropertyOp20
 70
     1
102
RTVSPropertyOp21
 70
     1
102
RTVSPropertyOp22
 70
     1
102
RTVSPropertyOp23
 70
     1
102
RTVSPropertyOp24
 70
     1
102
RTVSPropertyOp25
 70
     1
102
RTVSPropertyOp26
 70
     1
102
RTVSPropertyOp27
 70
     1
  0
XRECORD
  5
661
102
{ACAD_REACTORS
330
660
102
}
330
660
100
AcDbXrecord
280
     1
102
RTVSPropertyOp0
 70
     1
102
RTVSPropertyOp1
 70
     1
102
RTVSPropertyOp2
 70
     1
102
RTVSPropertyOp3
 70
     1
102
RTVSPropertyOp4
 70
     1
102
RTVSPropertyOp5
 70
     1
102
RTVSPropertyOp6
 70
     1
102
RTVSPropertyOp7
 70
     1
102
RTVSPropertyOp8
 70
     1
102
RTVSPropertyOp9
 70
     1
102
RTVSPropertyOp10
 70
     1
102
RTVSPropertyOp11
 70
     1
102
RTVSPropertyOp12
 70
     1
102
RTVSPropertyOp13
 70
     1
102
RTVSPropertyOp14
 70
     1
102
RTVSPropertyOp15
 70
     1
102
RTVSPropertyOp16
 70
     1
102
RTVSPropertyOp17
 70
     1
102
RTVSPropertyOp18
 70
     1
102
RTVSPropertyOp19
 70
     1
102
RTVSPropertyOp20
 70
     1
102
RTVSPropertyOp21
 70
     1
102
RTVSPropertyOp22
 70
     1
102
RTVSPropertyOp23
 70
     1
102
RTVSPropertyOp24
 70
     1
102
RTVSPropertyOp25
 70
     1
102
RTVSPropertyOp26
 70
     1
102
RTVSPropertyOp27
 70
     1
  0
XRECORD
  5
663
102
{ACAD_REACTORS
330
662
102
}
330
662
100
AcDbXrecord
280
     1
102
RTVSPropertyOp0
 70
     1
102
RTVSPropertyOp1
 70
     1
102
RTVSPropertyOp2
 70
     1
102
RTVSPropertyOp3
 70
     1
102
RTVSPropertyOp4
 70
     1
102
RTVSPropertyOp5
 70
     1
102
RTVSPropertyOp6
 70
     1
102
RTVSPropertyOp7
 70
     1
102
RTVSPropertyOp8
 70
     1
102
RTVSPropertyOp9
 70
     1
102
RTVSPropertyOp10
 70
     1
102
RTVSPropertyOp11
 70
     1
102
RTVSPropertyOp12
 70
     1
102
RTVSPropertyOp13
 70
     1
102
RTVSPropertyOp14
 70
     1
102
RTVSPropertyOp15
 70
     1
102
RTVSPropertyOp16
 70
     1
102
RTVSPropertyOp17
 70
     1
102
RTVSPropertyOp18
 70
     1
102
RTVSPropertyOp19
 70
     1
102
RTVSPropertyOp20
 70
     1
102
RTVSPropertyOp21
 70
     1
102
RTVSPropertyOp22
 70
     1
102
RTVSPropertyOp23
 70
     1
102
RTVSPropertyOp24
 70
     1
102
RTVSPropertyOp25
 70
     1
102
RTVSPropertyOp26
 70
     1
102
RTVSPropertyOp27
 70
     1
  0
XRECORD
  5
665
102
{ACAD_REACTORS
330
664
102
}
330
664
100
AcDbXrecord
280
     1
102
RTVSPropertyOp0
 70
     1
102
RTVSPropertyOp1
 70
     1
102
RTVSPropertyOp2
 70
     1
102
RTVSPropertyOp3
 70
     1
102
RTVSPropertyOp4
 70
     1
102
RTVSPropertyOp5
 70
     1
102
RTVSPropertyOp6
 70
     1
102
RTVSPropertyOp7
 70
     1
102
RTVSPropertyOp8
 70
     1
102
RTVSPropertyOp9
 70
     1
102
RTVSPropertyOp10
 70
     1
102
RTVSPropertyOp11
 70
     1
102
RTVSPropertyOp12
 70
     1
102
RTVSPropertyOp13
 70
     1
102
RTVSPropertyOp14
 70
     1
102
RTVSPropertyOp15
 70
     1
102
RTVSPropertyOp16
 70
     1
102
RTVSPropertyOp17
 70
     1
102
RTVSPropertyOp18
 70
     1
102
RTVSPropertyOp19
 70
     1
102
RTVSPropertyOp20
 70
     1
102
RTVSPropertyOp21
 70
     1
102
RTVSPropertyOp22
 70
     1
102
RTVSPropertyOp23
 70
     1
102
RTVSPropertyOp24
 70
     1
102
RTVSPropertyOp25
 70
     1
102
RTVSPropertyOp26
 70
     1
102
RTVSPropertyOp27
 70
     1
  0
XRECORD
  5
67F
102
{ACAD_REACTORS
330
67E
102
}
330
67E
100
AcDbXrecord
280
     1
102
RTVSPropertyOp0
 70
     0
102
RTVSPropertyOp1
 70
     0
102
RTVSPropertyOp2
 70
     0
102
RTVSPropertyOp3
 70
     0
102
RTVSPropertyOp4
 70
     0
102
RTVSPropertyOp5
 70
     0
102
RTVSPropertyOp6
 70
     0
102
RTVSPropertyOp7
 70
     0
102
RTVSPropertyOp8
 70
     0
102
RTVSPropertyOp9
 70
     0
102
RTVSPropertyOp10
 70
     0
102
RTVSPropertyOp11
 70
     0
102
RTVSPropertyOp12
 70
     0
102
RTVSPropertyOp13
 70
     0
102
RTVSPropertyOp14
 70
     2
102
RTVSPropertyOp15
 70
     0
102
RTVSPropertyOp16
 70
     0
102
RTVSPropertyOp17
 70
     0
102
RTVSPropertyOp18
 70
     0
102
RTVSPropertyOp19
 70
     0
102
RTVSPropertyOp20
 70
     0
102
RTVSPropertyOp21
 70
     0
102
RTVSPropertyOp22
 70
     0
102
RTVSPropertyOp23
 70
     0
102
RTVSPropertyOp24
 70
     0
102
RTVSPropertyOp25
 70
     0
102
RTVSPropertyOp26
 70
     0
102
RTVSPropertyOp27
 70
     0
  0
XRECORD
  5
679
102
{ACAD_REACTORS
330
678
102
}
330
678
100
AcDbXrecord
280
     1
102
RTVSPropertyOp0
 70
     1
102
RTVSPropertyOp1
 70
     1
102
RTVSPropertyOp2
 70
     1
102
RTVSPropertyOp3
 70
     1
102
RTVSPropertyOp4
 70
     1
102
RTVSPropertyOp5
 70
     1
102
RTVSPropertyOp6
 70
     1
102
RTVSPropertyOp7
 70
     1
102
RTVSPropertyOp8
 70
     1
102
RTVSPropertyOp9
 70
     1
102
RTVSPropertyOp10
 70
     1
102
RTVSPropertyOp11
 70
     1
102
RTVSPropertyOp12
 70
     1
102
RTVSPropertyOp13
 70
     1
102
RTVSPropertyOp14
 70
     1
102
RTVSPropertyOp15
 70
     1
102
RTVSPropertyOp16
 70
     1
102
RTVSPropertyOp17
 70
     1
102
RTVSPropertyOp18
 70
     1
102
RTVSPropertyOp19
 70
     1
102
RTVSPropertyOp20
 70
     1
102
RTVSPropertyOp21
 70
     1
102
RTVSPropertyOp22
 70
     1
102
RTVSPropertyOp23
 70
     1
102
RTVSPropertyOp24
 70
     1
102
RTVSPropertyOp25
 70
     1
102
RTVSPropertyOp26
 70
     1
102
RTVSPropertyOp27
 70
     1
  0
XRECORD
  5
681
102
{ACAD_REACTORS
330
680
102
}
330
680
100
AcDbXrecord
280
     1
102
RTVSPropertyOp0
 70
     0
102
RTVSPropertyOp1
 70
     0
102
RTVSPropertyOp2
 70
     0
102
RTVSPropertyOp3
 70
     0
102
RTVSPropertyOp4
 70
     0
102
RTVSPropertyOp5
 70
     0
102
RTVSPropertyOp6
 70
     0
102
RTVSPropertyOp7
 70
     0
102
RTVSPropertyOp8
 70
     0
102
RTVSPropertyOp9
 70
     0
102
RTVSPropertyOp10
 70
     0
102
RTVSPropertyOp11
 70
     0
102
RTVSPropertyOp12
 70
     0
102
RTVSPropertyOp13
 70
     0
102
RTVSPropertyOp14
 70
     2
102
RTVSPropertyOp15
 70
     0
102
RTVSPropertyOp16
 70
     0
102
RTVSPropertyOp17
 70
     0
102
RTVSPropertyOp18
 70
     0
102
RTVSPropertyOp19
 70
     0
102
RTVSPropertyOp20
 70
     0
102
RTVSPropertyOp21
 70
     0
102
RTVSPropertyOp22
 70
     0
102
RTVSPropertyOp23
 70
     0
102
RTVSPropertyOp24
 70
     0
102
RTVSPropertyOp25
 70
     0
102
RTVSPropertyOp26
 70
     0
102
RTVSPropertyOp27
 70
     0
  0
XRECORD
  5
671
102
{ACAD_REACTORS
330
670
102
}
330
670
100
AcDbXrecord
280
     1
102
RTVSPropertyOp0
 70
     1
102
RTVSPropertyOp1
 70
     1
102
RTVSPropertyOp2
 70
     1
102
RTVSPropertyOp3
 70
     1
102
RTVSPropertyOp4
 70
     1
102
RTVSPropertyOp5
 70
     1
102
RTVSPropertyOp6
 70
     1
102
RTVSPropertyOp7
 70
     1
102
RTVSPropertyOp8
 70
     1
102
RTVSPropertyOp9
 70
     1
102
RTVSPropertyOp10
 70
     1
102
RTVSPropertyOp11
 70
     1
102
RTVSPropertyOp12
 70
     1
102
RTVSPropertyOp13
 70
     1
102
RTVSPropertyOp14
 70
     1
102
RTVSPropertyOp15
 70
     1
102
RTVSPropertyOp16
 70
     1
102
RTVSPropertyOp17
 70
     1
102
RTVSPropertyOp18
 70
     1
102
RTVSPropertyOp19
 70
     1
102
RTVSPropertyOp20
 70
     1
102
RTVSPropertyOp21
 70
     1
102
RTVSPropertyOp22
 70
     1
102
RTVSPropertyOp23
 70
     1
102
RTVSPropertyOp24
 70
     1
102
RTVSPropertyOp25
 70
     1
102
RTVSPropertyOp26
 70
     1
102
RTVSPropertyOp27
 70
     1
  0
XRECORD
  5
677
102
{ACAD_REACTORS
330
676
102
}
330
676
100
AcDbXrecord
280
     1
102
RTVSPropertyOp0
 70
     1
102
RTVSPropertyOp1
 70
     1
102
RTVSPropertyOp2
 70
     1
102
RTVSPropertyOp3
 70
     1
102
RTVSPropertyOp4
 70
     1
102
RTVSPropertyOp5
 70
     1
102
RTVSPropertyOp6
 70
     1
102
RTVSPropertyOp7
 70
     1
102
RTVSPropertyOp8
 70
     1
102
RTVSPropertyOp9
 70
     1
102
RTVSPropertyOp10
 70
     1
102
RTVSPropertyOp11
 70
     1
102
RTVSPropertyOp12
 70
     1
102
RTVSPropertyOp13
 70
     1
102
RTVSPropertyOp14
 70
     1
102
RTVSPropertyOp15
 70
     1
102
RTVSPropertyOp16
 70
     1
102
RTVSPropertyOp17
 70
     1
102
RTVSPropertyOp18
 70
     1
102
RTVSPropertyOp19
 70
     1
102
RTVSPropertyOp20
 70
     1
102
RTVSPropertyOp21
 70
     1
102
RTVSPropertyOp22
 70
     1
102
RTVSPropertyOp23
 70
     1
102
RTVSPropertyOp24
 70
     1
102
RTVSPropertyOp25
 70
     1
102
RTVSPropertyOp26
 70
     1
102
RTVSPropertyOp27
 70
     1
  0
ENDSEC
  0
EOF
