  0
SECTION
  2
HEADER
  9
$ACADVER
  1
AC1015
  9
$ACADMAINTVER
 70
    20
  9
$DWGCODEPAGE
  3
ANSI_1252
  9
$INSBASE
 10
0.0
 20
0.0
 30
0.0
  9
$EXTMIN
 10
11.90734962456327
 20
56.00473098131442
 30
-0.0015258207003583
  9
$EXTMAX
 10
400.8828744907898
 20
268.9115301998234
 30
0.0000000349246037
  9
$LIMMIN
 10
0.0
 20
0.0
  9
$LIMMAX
 10
420.0
 20
297.0
  9
$ORTHOMODE
 70
     1
  9
$REGENMODE
 70
     1
  9
$FILLMODE
 70
     1
  9
$QTEXTMODE
 70
     0
  9
$MIRRTEXT
 70
     0
  9
$LTSCALE
 40
23.1
  9
$ATTMODE
 70
     1
  9
$TEXTSIZE
 40
0.2
  9
$TRACEWID
 40
0.05
  9
$TEXTSTYLE
  7
STANDARD
  9
$CLAYER
  8
0
  9
$CELTYPE
  6
BYLAYER
  9
$CECOLOR
 62
   256
  9
$CELTSCALE
 40
1.0
  9
$DISPSILH
 70
     0
  9
$DIMSCALE
 40
1.0
  9
$DIMASZ
 40
3.5
  9
$DIMEXO
 40
2.625
  9
$DIMDLI
 40
15.96
  9
$DIMRND
 40
0.0
  9
$DIMDLE
 40
0.0
  9
$DIMEXE
 40
7.559999999999999
  9
$DIMTP
 40
0.005
  9
$DIMTM
 40
0.005
  9
$DIMTXT
 40
3.5
  9
$DIMCEN
 40
3.779999999999999
  9
$DIMTSZ
 40
0.0
  9
$DIMTOL
 70
     1
  9
$DIMLIM
 70
     0
  9
$DIMTIH
 70
     1
  9
$DIMTOH
 70
     1
  9
$DIMSE1
 70
     0
  9
$DIMSE2
 70
     0
  9
$DIMTAD
 70
     0
  9
$DIMZIN
 70
     0
  9
$DIMBLK
  1
_FILLED
  9
$DIMASO
 70
     1
  9
$DIMSHO
 70
     1
  9
$DIMPOST
  1

  9
$DIMAPOST
  1

  9
$DIMALT
 70
     0
  9
$DIMALTD
 70
     2
  9
$DIMALTF
 40
25.4
  9
$DIMLFAC
 40
1.0
  9
$DIMTOFL
 70
     0
  9
$DIMTVP
 40
0.0
  9
$DIMTIX
 70
     0
  9
$DIMSOXD
 70
     0
  9
$DIMSAH
 70
     0
  9
$DIMBLK1
  1

  9
$DIMBLK2
  1

  9
$DIMSTYLE
  2
STANDARD
  9
$DIMCLRD
 70
     0
  9
$DIMCLRE
 70
     0
  9
$DIMCLRT
 70
     0
  9
$DIMTFAC
 40
1.0
  9
$DIMGAP
 40
0.09
  9
$DIMJUST
 70
     0
  9
$DIMSD1
 70
     0
  9
$DIMSD2
 70
     0
  9
$DIMTOLJ
 70
     1
  9
$DIMTZIN
 70
     0
  9
$DIMALTZ
 70
     0
  9
$DIMALTTZ
 70
     0
  9
$DIMUPT
 70
     0
  9
$DIMDEC
 70
     4
  9
$DIMTDEC
 70
     4
  9
$DIMALTU
 70
     2
  9
$DIMALTTD
 70
     2
  9
$DIMTXSTY
  7
STANDARD
  9
$DIMAUNIT
 70
     0
  9
$DIMADEC
 70
     0
  9
$DIMALTRND
 40
0.0
  9
$DIMAZIN
 70
     0
  9
$DIMDSEP
 70
    46
  9
$DIMATFIT
 70
     3
  9
$DIMFRAC
 70
     0
  9
$DIMLDRBLK
  1

  9
$DIMLUNIT
 70
     2
  9
$DIMLWD
 70
    -2
  9
$DIMLWE
 70
    -2
  9
$DIMTMOVE
 70
     0
  9
$LUNITS
 70
     2
  9
$LUPREC
 70
     2
  9
$SKETCHINC
 40
0.1
  9
$FILLETRAD
 40
0.0
  9
$AUNITS
 70
     0
  9
$AUPREC
 70
     0
  9
$MENU
  1
.
  9
$ELEVATION
 40
0.0
  9
$PELEVATION
 40
0.0
  9
$THICKNESS
 40
0.0
  9
$LIMCHECK
 70
     0
  9
$CHAMFERA
 40
0.0
  9
$CHAMFERB
 40
0.0
  9
$CHAMFERC
 40
0.0
  9
$CHAMFERD
 40
0.0
  9
$SKPOLY
 70
     0
  9
$TDCREATE
 40
2456324.632700671
  9
$TDUCREATE
 40
2456324.591034005
  9
$TDUPDATE
 40
2456324.633978831
  9
$TDUUPDATE
 40
2456324.592312164
  9
$TDINDWG
 40
0.0012787037
  9
$TDUSRTIMER
 40
0.0012787037
  9
$USRTIMER
 70
     1
  9
$ANGBASE
 50
0.0
  9
$ANGDIR
 70
     0
  9
$PDMODE
 70
     3
  9
$PDSIZE
 40
0.3125
  9
$PLINEWID
 40
0.0
  9
$SPLFRAME
 70
     0
  9
$SPLINETYPE
 70
     6
  9
$SPLINESEGS
 70
     8
  9
$HANDSEED
  5
62E
  9
$SURFTAB1
 70
     6
  9
$SURFTAB2
 70
     6
  9
$SURFTYPE
 70
     6
  9
$SURFU
 70
     6
  9
$SURFV
 70
     6
  9
$UCSBASE
  2

  9
$UCSNAME
  2

  9
$UCSORG
 10
0.0
 20
0.0
 30
0.0
  9
$UCSXDIR
 10
1.0
 20
0.0
 30
0.0
  9
$UCSYDIR
 10
0.0
 20
1.0
 30
0.0
  9
$UCSORTHOREF
  2

  9
$UCSORTHOVIEW
 70
     0
  9
$UCSORGTOP
 10
0.0
 20
0.0
 30
0.0
  9
$UCSORGBOTTOM
 10
0.0
 20
0.0
 30
0.0
  9
$UCSORGLEFT
 10
0.0
 20
0.0
 30
0.0
  9
$UCSORGRIGHT
 10
0.0
 20
0.0
 30
0.0
  9
$UCSORGFRONT
 10
0.0
 20
0.0
 30
0.0
  9
$UCSORGBACK
 10
0.0
 20
0.0
 30
0.0
  9
$PUCSBASE
  2

  9
$PUCSNAME
  2

  9
$PUCSORG
 10
0.0
 20
0.0
 30
0.0
  9
$PUCSXDIR
 10
1.0
 20
0.0
 30
0.0
  9
$PUCSYDIR
 10
0.0
 20
1.0
 30
0.0
  9
$PUCSORTHOREF
  2

  9
$PUCSORTHOVIEW
 70
     0
  9
$PUCSORGTOP
 10
0.0
 20
0.0
 30
0.0
  9
$PUCSORGBOTTOM
 10
0.0
 20
0.0
 30
0.0
  9
$PUCSORGLEFT
 10
0.0
 20
0.0
 30
0.0
  9
$PUCSORGRIGHT
 10
0.0
 20
0.0
 30
0.0
  9
$PUCSORGFRONT
 10
0.0
 20
0.0
 30
0.0
  9
$PUCSORGBACK
 10
0.0
 20
0.0
 30
0.0
  9
$USERI1
 70
     0
  9
$USERI2
 70
     0
  9
$USERI3
 70
     0
  9
$USERI4
 70
     0
  9
$USERI5
 70
     0
  9
$USERR1
 40
0.0
  9
$USERR2
 40
0.0
  9
$USERR3
 40
0.0
  9
$USERR4
 40
0.0
  9
$USERR5
 40
0.0
  9
$WORLDVIEW
 70
     1
  9
$SHADEDGE
 70
     3
  9
$SHADEDIF
 70
    70
  9
$TILEMODE
 70
     1
  9
$MAXACTVP
 70
    64
  9
$PINSBASE
 10
0.0
 20
0.0
 30
0.0
  9
$PLIMCHECK
 70
     0
  9
$PEXTMIN
 10
1.000000000000000E+20
 20
1.000000000000000E+20
 30
1.000000000000000E+20
  9
$PEXTMAX
 10
-1.000000000000000E+20
 20
-1.000000000000000E+20
 30
-1.000000000000000E+20
  9
$PLIMMIN
 10
0.0
 20
0.0
  9
$PLIMMAX
 10
12.0
 20
9.0
  9
$UNITMODE
 70
     0
  9
$VISRETAIN
 70
     1
  9
$PLINEGEN
 70
     0
  9
$PSLTSCALE
 70
     1
  9
$TREEDEPTH
 70
  3020
  9
$CMLSTYLE
  2
Standard
  9
$CMLJUST
 70
     0
  9
$CMLSCALE
 40
1.0
  9
$PROXYGRAPHICS
 70
     1
  9
$MEASUREMENT
 70
     1
  9
$CELWEIGHT
370
    -1
  9
$ENDCAPS
280
     0
  9
$JOINSTYLE
280
     0
  9
$LWDISPLAY
290
     0
  9
$INSUNITS
 70
     4
  9
$HYPERLINKBASE
  1

  9
$STYLESHEET
  1

  9
$XEDIT
290
     1
  9
$CEPSNTYPE
380
     0
  9
$PSTYLEMODE
290
     1
  9
$FINGERPRINTGUID
  2
{570D71C0-9D9C-4063-8BAE-6C164EEB9910}
  9
$VERSIONGUID
  2
{B46A5FBE-6524-4F85-8F88-35D52BA76567}
  9
$EXTNAMES
290
     1
  9
$PSVPSCALE
 40
0.0
  9
$OLESTARTUP
290
     0
  0
ENDSEC
  0
SECTION
  2
CLASSES
  0
CLASS
  1
ACDBDICTIONARYWDFLT
  2
AcDbDictionaryWithDefault
  3
ObjectDBX Classes
 90
        0
280
     0
281
     0
  0
CLASS
  1
ACDBPLACEHOLDER
  2
AcDbPlaceHolder
  3
ObjectDBX Classes
 90
        0
280
     0
281
     0
  0
CLASS
  1
LAYOUT
  2
AcDbLayout
  3
ObjectDBX Classes
 90
        0
280
     0
281
     0
  0
CLASS
  1
MATERIAL
  2
AcDbMaterial
  3
ObjectDBX Classes
 90
     1153
280
     0
281
     0
  0
CLASS
  1
VISUALSTYLE
  2
AcDbVisualStyle
  3
ObjectDBX Classes
 90
     4095
280
     0
281
     0
  0
CLASS
  1
TABLESTYLE
  2
AcDbTableStyle
  3
ObjectDBX Classes
 90
     4095
280
     0
281
     0
  0
CLASS
  1
SCALE
  2
AcDbScale
  3
ObjectDBX Classes
 90
     1153
280
     0
281
     0
  0
CLASS
  1
MLEADERSTYLE
  2
AcDbMLeaderStyle
  3
ACDB_MLEADERSTYLE_CLASS
 90
     4095
280
     0
281
     0
  0
CLASS
  1
AMGSETTINGSOBJ
  2
AmgSettingsObj
  3
"AcadM|Product Description: AutoCAD Mechanical|Company: Autodesk, Inc."
 90
     1024
280
     0
281
     0
  0
CLASS
  1
ACME_DOCUMENT
  2
AcMeDbDoc
  3
AcMeServices
 90
     1024
280
     0
281
     0
  0
CLASS
  1
ACMESCOPE
  2
AcMeScope
  3
AcMeServices
 90
     1024
280
     0
281
     0
  0
CLASS
  1
ACMECOMMANDHISTORY
  2
AcMeCommandHistory
  3
AcMeServices
 90
     1024
280
     0
281
     0
  0
CLASS
  1
ACIMSYSVARMAN
  2
AcImSysVarManager
  3
AcMeServices
 90
     1024
280
     0
281
     0
  0
CLASS
  1
ACIMINTSYSVAR
  2
AcImIntSysVar
  3
AcMeServices
 90
     1024
280
     0
281
     0
  0
CLASS
  1
ACMEDRAWINGMAN
  2
AcMeDrawingMan
  3
AcMeServices
 90
     1024
280
     0
281
     0
  0
CLASS
  1
ACMEVIEW
  2
AcMeView
  3
AcMeServices
 90
     1024
280
     0
281
     0
  0
CLASS
  1
ACDBENTITYCACHE
  2
AcMeEntityCache
  3
AcMeServices
 90
     1024
280
     0
281
     0
  0
CLASS
  1
ACMESTATEMGR
  2
AcMeStateMgr
  3
AcMeServices
 90
     1024
280
     0
281
     0
  0
CLASS
  1
ACGREFMASTER
  2
AcGrefMaster
  3
AcAttribServices
 90
     1024
280
     0
281
     0
  0
CLASS
  1
AM_DRAWING_MGR
  2
AcDmDwgMgr
  3
AcMechDwgViewMgmt
 90
     1024
280
     0
281
     0
  0
CLASS
  1
AM_DWG_DOCUMENT
  2
AcDmDwgDocument
  3
AcMechDwgViewMgmt
 90
     1024
280
     0
281
     0
  0
CLASS
  1
AM_DWG_SHEET
  2
AcDmSheet
  3
AcMechDwgViewMgmt
 90
     1024
280
     0
281
     0
  0
CLASS
  1
AM_VIEWDIMPARMAP
  2
AcDmViewDimParMap
  3
AcMechDwgViewMgmt
 90
     1024
280
     0
281
     0
  0
CLASS
  1
AMDTINTERNALREACTOR
  2
AmdtInternalReactor
  3
AcMeServices
 90
     1024
280
     0
281
     0
  0
CLASS
  1
ACIMREALSYSVAR
  2
AcImRealSysVar
  3
AcMeServices
 90
     1024
280
     0
281
     0
  0
CLASS
  1
AM_DWGMGR_NAME
  2
AcDmDwgMgrName
  3
AcMechDwgViewMgmt
 90
     1024
280
     0
281
     0
  0
CLASS
  1
ACME_DATABASE
  2
AcMeDbDatabase
  3
AcMeServices
 90
     1024
280
     0
281
     0
  0
CLASS
  1
ACRFINSADJUSTERMGR
  2
AcRfInsAdjusterMgr
  3
AcMeServices
 90
     1024
280
     0
281
     0
  0
CLASS
  1
ACGREFACADMASTER
  2
AcGrefacadMaster
  3
AcGrefServices
 90
     1024
280
     0
281
     0
  0
CLASS
  1
AMDTMENUSTATEMGR
  2
AmdtMenuStateMgr
  3
McadcomServices
 90
     1024
280
     0
281
     0
  0
CLASS
  1
AMDTMCOMMENUSTATE
  2
AmdtMcomMenuState
  3
McadcomServices
 90
     1024
280
     0
281
     0
  0
CLASS
  1
AMIMASTER
  2
AmiMaster
  3
AmiServices
 90
     1024
280
     0
281
     0
  0
CLASS
  1
MAPIAMMOUDLE
  2
MApiAmModule
  3
MApiAmServices
 90
     1024
280
     0
281
     0
  0
CLASS
  1
ACIMSTRSYSVAR
  2
AcImStrSysVar
  3
AcMeServices
 90
     1024
280
     0
281
     0
  0
CLASS
  1
AMDTADMENUSTATE
  2
AmdtAdMenuState
  3
DesignerServices
 90
     1024
280
     0
281
     0
  0
CLASS
  1
ADAPPL
  2
AcAdAppl
  3
DesignerServices
 90
     1024
280
     0
281
     0
  0
CLASS
  1
DEPMGR
  2
AcAdDepMgr
  3
DesignerServices
 90
     1024
280
     0
281
     0
  0
CLASS
  1
PARAMMGR
  2
AcAdParamMgr
  3
DesignerServices
 90
     1024
280
     0
281
     0
  0
CLASS
  1
PARAMSCOPE
  2
AcAdParamScope
  3
DesignerServices
 90
     1024
280
     0
281
     0
  0
CLASS
  1
NAMEDAPPL
  2
AcAdNamedAppl
  3
DesignerServices
 90
     1024
280
     0
281
     0
  0
CLASS
  1
AMDTDMMENUSTATE
  2
AmdtDmMenuState
  3
AcMechDwgViewMgmt
 90
     1024
280
     0
281
     0
  0
CLASS
  1
AMDTAMMENUSTATE
  2
AmdtAmMenuState
  3
DesignerAssemblies
 90
     1024
280
     0
281
     0
  0
CLASS
  1
ACAMPROJECT
  2
AcAmProject
  3
DesignerAssemblies
 90
     1024
280
     0
281
     0
  0
CLASS
  1
ACAMGRCOMPDEF
  2
AcAmGrCompDef
  3
DesignerAssemblies
 90
     1024
280
     0
281
     0
  0
CLASS
  1
ACAMCOMPDEF
  2
AcAmCompDef
  3
DesignerAssemblies
 90
     1024
280
     0
281
     0
  0
CLASS
  1
ACAMCOMPDEFMGR
  2
AcAmCompDefMgr
  3
DesignerAssemblies
 90
     1024
280
     0
281
     0
  0
CLASS
  1
AMCONTEXTMGR
  2
AcAmContextMgr
  3
DesignerAssemblies
 90
     1024
280
     0
281
     0
  0
CLASS
  1
ACAMCONTEXTMODELER
  2
AcAmContextModeler
  3
DesignerAssemblies
 90
     1024
280
     0
281
     0
  0
CLASS
  1
ACMDATADICTIONARY
  2
AcmDataDictionary
  3
"AcmSymBB|Product Description: AutoCAD Mechanical|Company: Autodesk, Inc."
 90
     1024
280
     0
281
     0
  0
CLASS
  1
CATALOGSTATE
  2
AcAmCatalogState
  3
DesignerAssemblies
 90
     1024
280
     0
281
     0
  0
CLASS
  1
ACAMGRCOMPDEFSET
  2
AcAmGrCompDefSet
  3
DesignerAssemblies
 90
     1024
280
     0
281
     0
  0
CLASS
  1
AMDTBROWSERDBTAB
  2
AmdtBrowserDbTab
  3
McadcomServices
 90
     1024
280
     0
281
     0
  0
CLASS
  1
CBROWSERAPPOBJECT
  2
CBrowserAppObject
  3
McadcomServices
 90
     1024
280
     0
281
     0
  0
CLASS
  1
DM_PLACEHOLDER
  2
AcDmSelsetPlaceholder
  3
AcMechDwgViewMgmt
 90
     1024
280
     0
281
     0
  0
CLASS
  1
ACMSTANDARDDIN
  2
AcmStandardDIN
  3
"Amdt_StdImp|Product Description: AutoCAD Mechanical|Company: Autodesk, Inc."
 90
     1024
280
     0
281
     0
  0
CLASS
  1
AMDTEDGESTANDARDDIN13715
  2
AmdtEdgeStdDIN13715
  3
"Amdt_StdImp|Product Description: AutoCAD Mechanical|Company: Autodesk, Inc."
 90
     1024
280
     0
281
     0
  0
CLASS
  1
ACMSURFSTANDARDDIN2002
  2
AcmSurfTextStdDIN2002
  3
"Amdt_StdImp|Product Description: AutoCAD Mechanical|Company: Autodesk, Inc."
 90
     1024
280
     0
281
     0
  0
CLASS
  1
ACMFCFSTANDARDDIN
  2
AcmFCFStdDIN
  3
"Amdt_StdImp|Product Description: AutoCAD Mechanical|Company: Autodesk, Inc."
 90
     1024
280
     0
281
     0
  0
CLASS
  1
ACMWELDSTANDARDDIN
  2
AcmWeldingStdDIN
  3
"Amdt_StdImp|Product Description: AutoCAD Mechanical|Company: Autodesk, Inc."
 90
     1024
280
     0
281
     0
  0
CLASS
  1
ACMIDSTANDARDDIN
  2
AcmIdStdDIN
  3
"Amdt_StdImp|Product Description: AutoCAD Mechanical|Company: Autodesk, Inc."
 90
     1024
280
     0
281
     0
  0
CLASS
  1
ACMDATUMSTANDARDDIN
  2
AcmDatumStdDIN
  3
"Amdt_StdImp|Product Description: AutoCAD Mechanical|Company: Autodesk, Inc."
 90
     1024
280
     0
281
     0
  0
CLASS
  1
ACMBOMSTANDARDDIN
  2
AcmBOMStdDIN
  3
"Amdt_StdImp|Product Description: AutoCAD Mechanical|Company: Autodesk, Inc."
 90
     1024
280
     0
281
     0
  0
CLASS
  1
ACMDETAILSTANDARDDIN
  2
AmdtDetailSymStdDIN
  3
"Amdt_StdImp|Product Description: AutoCAD Mechanical|Company: Autodesk, Inc."
 90
     1024
280
     0
281
     0
  0
CLASS
  1
ACMSECTIONSTANDARDDIN
  2
AmdtSectionSymStdDIN
  3
"Amdt_StdImp|Product Description: AutoCAD Mechanical|Company: Autodesk, Inc."
 90
     1024
280
     0
281
     0
  0
CLASS
  1
ACMCENTERLINESTANDARDDIN
  2
AmdtCenterLineStdDIN
  3
"Amdt_StdImp|Product Description: AutoCAD Mechanical|Company: Autodesk, Inc."
 90
     1024
280
     0
281
     0
  0
CLASS
  1
ACMTHREADLINESTANDARDDIN
  2
AmdtThreadLineStdDIN
  3
"Amdt_StdImp|Product Description: AutoCAD Mechanical|Company: Autodesk, Inc."
 90
     1024
280
     0
281
     0
  0
CLASS
  1
ACMNOTESTANDARDDIN
  2
AmdtNoteStdDIN
  3
"Amdt_StdImp|Product Description: AutoCAD Mechanical|Company: Autodesk, Inc."
 90
     1024
280
     0
281
     0
  0
CLASS
  1
ACMTAPERSTANDARDDIN
  2
AcmTaperStdDIN
  3
"Amdt_StdImp|Product Description: AutoCAD Mechanical|Company: Autodesk, Inc."
 90
     1024
280
     0
281
     0
  0
CLASS
  1
ACMANOOTATIONVIEWSTANDARDDIN
  2
AmdtAnViewStdDIN
  3
"Amdt_StdImp|Product Description: AutoCAD Mechanical|Company: Autodesk, Inc."
 90
     1024
280
     0
281
     0
  0
CLASS
  1
ACAMGLAYSTD
  2
AcAmgLayStd
  3
"AmgLay|Product Description: AutoCAD Mechanical|Company: Autodesk, Inc."
 90
     1024
280
     0
281
     0
  0
CLASS
  1
ACAMGDIMSTD
  2
AcAmgDimStd
  3
"AmgDim|Product Description: AutoCAD Mechanical|Company: Autodesk, Inc."
 90
     1024
280
     0
281
     0
  0
CLASS
  1
AMGOBJPROPCFG
  2
AmgObjPropCfg
  3
"AmgLay|Product Description: AutoCAD Mechanical|Company: Autodesk, Inc."
 90
     1025
280
     0
281
     0
  0
CLASS
  1
ACAMGHOLECHARTSTDDIN
  2
AcAmgHoleChartStdDIN
  3
AmgDim|Product Description: AutoCAD Mechanical|Company: Autodesk, Inc.
 90
     1024
280
     0
281
     0
  0
CLASS
  1
ACAMGTITLESTD
  2
AcAmgTitleStd
  3
"AmgTitle|Product Description: AutoCAD Mechanical|Company: Autodesk, Inc."
 90
     4095
280
     0
281
     0
  0
CLASS
  1
AMDTNOTETEMPLATEDB
  2
AmdtNoteTemplateDB
  3
AcmSymBB|Product Description: AutoCAD Mechanical|Company: Autodesk, Inc.
 90
     1024
280
     0
281
     0
  0
CLASS
  1
ACAMGFILTERDAT
  2
AcAmgFilterDat
  3
"AcadM|Product Description: AutoCAD Mechanical|Company: Autodesk, Inc."
 90
     1024
280
     0
281
     0
  0
CLASS
  1
DICTIONARYVAR
  2
AcDbDictionaryVar
  3
ObjectDBX Classes
 90
        0
280
     0
281
     0
  0
CLASS
  1
CELLSTYLEMAP
  2
AcDbCellStyleMap
  3
ObjectDBX Classes
 90
     1152
280
     0
281
     0
  0
ENDSEC
  0
SECTION
  2
TABLES
  0
TABLE
  2
VPORT
  5
8
330
0
100
AcDbSymbolTable
 70
     1
  0
VPORT
  5
1F4
330
8
100
AcDbSymbolTableRecord
100
AcDbViewportTableRecord
  2
*ACTIVE
 70
     0
 10
0.0
 20
0.0
 11
1.0
 21
1.0
 12
206.3951120576766
 22
162.4581305905689
 13
0.0
 23
0.0
 14
1.0
 24
1.0
 15
0.0
 25
0.0
 16
0.0
 26
0.0
 36
1.0
 17
0.0
 27
0.0
 37
0.0
 40
214.4114409090991
 41
1.850235849056603
 42
50.0
 43
0.0
 44
0.0
 50
0.0
 51
0.0
 71
     0
 72
   100
 73
     1
 74
     1
 75
     0
 76
     0
 77
     0
 78
     0
281
     0
 65
     0
110
0.0
120
0.0
130
0.0
111
1.0
121
0.0
131
0.0
112
0.0
122
1.0
132
0.0
 79
     0
146
0.0
  0
ENDTAB
  0
TABLE
  2
LTYPE
  5
5
330
0
100
AcDbSymbolTable
 70
    23
  0
LTYPE
  5
14
330
5
100
AcDbSymbolTableRecord
100
AcDbLinetypeTableRecord
  2
BYBLOCK
 70
     0
  3

 72
    65
 73
     0
 40
0.0
  0
LTYPE
  5
15
330
5
100
AcDbSymbolTableRecord
100
AcDbLinetypeTableRecord
  2
BYLAYER
 70
     0
  3

 72
    65
 73
     0
 40
0.0
  0
LTYPE
  5
16
330
5
100
AcDbSymbolTableRecord
100
AcDbLinetypeTableRecord
  2
CONTINUOUS
 70
     0
  3
Solid line
 72
    65
 73
     0
 40
0.0
  0
LTYPE
  5
1F5
330
5
100
AcDbSymbolTableRecord
100
AcDbLinetypeTableRecord
  2
CENTER
 70
     0
  3
____ _ ____ _ ____ _ ____ _ ____ _ ____ _ ____
 72
    65
 73
     4
 40
0.6
 49
0.375
 74
     0
 49
-0.075
 74
     0
 49
0.075
 74
     0
 49
-0.075
 74
     0
  0
LTYPE
  5
1F6
330
5
100
AcDbSymbolTableRecord
100
AcDbLinetypeTableRecord
  2
HIDDEN
 70
     0
  3
- - - - - - - - - - - - - - - - - - - -
 72
    65
 73
     2
 40
0.2
 49
0.1
 74
     0
 49
-0.1
 74
     0
  0
LTYPE
  5
1F7
330
5
100
AcDbSymbolTableRecord
100
AcDbLinetypeTableRecord
  2
PHANTOM
 70
     0
  3
_____ _ _ _____ _ _ _____ _ _ _____
 72
    65
 73
     6
 40
0.8
 49
0.45
 74
     0
 49
-0.05
 74
     0
 49
0.1
 74
     0
 49
-0.05
 74
     0
 49
0.1
 74
     0
 49
-0.05
 74
     0
  0
LTYPE
  5
1F8
330
5
100
AcDbSymbolTableRecord
100
AcDbLinetypeTableRecord
  2
DOT
 70
     0
  3
. . . . . . . . . . . . . . . . . . . .
 72
    65
 73
     2
 40
0.2
 49
0.1
 74
     0
 49
-0.1
 74
     0
  0
LTYPE
  5
1F9
330
5
100
AcDbSymbolTableRecord
100
AcDbLinetypeTableRecord
  2
DASHED
 70
     0
  3
- - - - - - - - - - - - - - - - - - - -
 72
    65
 73
     2
 40
0.2
 49
0.1
 74
     0
 49
-0.1
 74
     0
  0
LTYPE
  5
4A4
330
5
100
AcDbSymbolTableRecord
100
AcDbLinetypeTableRecord
  2
PHANTOM2
 70
     0
  3
Phantom (.5x) ___ _ _ ___ _ _ ___ _ _ ___ _ _
 72
    65
 73
     6
 40
31.75
 49
15.875
 74
     0
 49
-3.174999999999999
 74
     0
 49
3.174999999999999
 74
     0
 49
-3.174999999999999
 74
     0
 49
3.174999999999999
 74
     0
 49
-3.174999999999999
 74
     0
  0
LTYPE
  5
4EA
330
5
100
AcDbSymbolTableRecord
100
AcDbLinetypeTableRecord
  2
AM_ISO02W050
 70
     0
  3
__ __ __ __ __ __ __ __ __ __ __ __ __ __ __
 72
    65
 73
     2
 40
7.5
 49
6.0
 74
     0
 49
-1.5
 74
     0
  0
LTYPE
  5
4EB
330
5
100
AcDbSymbolTableRecord
100
AcDbLinetypeTableRecord
  2
AM_ISO08W050
 70
     0
  3
____ . ____ . ____ . ____ . ____ . ____ . ____
 72
    65
 73
     4
 40
18.0
 49
12.0
 74
     0
 49
-1.5
 74
     0
 49
3.0
 74
     0
 49
-1.5
 74
     0
  0
LTYPE
  5
4EC
330
5
100
AcDbSymbolTableRecord
100
AcDbLinetypeTableRecord
  2
AM_ISO09W050
 70
     0
  3
_____ . . _____ . . _____ . . ____ .. ____
 72
    65
 73
     6
 40
22.5
 49
12.0
 74
     0
 49
-1.5
 74
     0
 49
3.0
 74
     0
 49
-1.5
 74
     0
 49
3.0
 74
     0
 49
-1.5
 74
     0
  0
LTYPE
  5
4ED
330
5
100
AcDbSymbolTableRecord
100
AcDbLinetypeTableRecord
  2
Amconstr
 70
     0
  3
_______________________
 72
    65
 73
     2
 40
9999.0
 49
9999.0
 74
     0
 49
0.0
 74
     0
  0
LTYPE
  5
4EE
330
5
100
AcDbSymbolTableRecord
100
AcDbLinetypeTableRecord
  2
AM_ISO08W050x2
 70
     0
  3
__ . __ . __ . __ . __ . __
 72
    65
 73
     4
 40
9.0
 49
6.0
 74
     0
 49
-0.75
 74
     0
 49
1.5
 74
     0
 49
-0.75
 74
     0
  0
LTYPE
  5
4EF
330
5
100
AcDbSymbolTableRecord
100
AcDbLinetypeTableRecord
  2
AM_ISO02W050x2
 70
     0
  3
 _ _ _ _ _ _ _ _ _ _ _ _
 72
    65
 73
     2
 40
3.75
 49
3.0
 74
     0
 49
-0.75
 74
     0
  0
LTYPE
  5
4F2
330
5
100
AcDbSymbolTableRecord
100
AcDbLinetypeTableRecord
  2
Amzigzag
 70
     0
  3
/\/-/\/-/\/-/\/-/\/-/\/
 72
    65
 73
     2
 40
11.0001
 49
0.0001
 74
     4
 75
   136
340
4F1
 46
0.04
 50
0.0
 44
0.0
 45
0.0
 49
-11.0
 74
     0
  0
LTYPE
  5
4F3
330
5
100
AcDbSymbolTableRecord
100
AcDbLinetypeTableRecord
  2
AM_DIN_F_W050
 70
     0
  3
__ __ __ __ __ __ __ __ __ __ __ __ __ __ __
 72
    65
 73
     2
 40
6.25
 49
4.75
 74
     0
 49
-1.5
 74
     0
  0
LTYPE
  5
4F4
330
5
100
AcDbSymbolTableRecord
100
AcDbLinetypeTableRecord
  2
AM_DIN_G_W050
 70
     0
  3
____ . ____ . ____ . ____ . ____ . ____ . ____
 72
    65
 73
     4
 40
13.75
 49
9.75
 74
     0
 49
-1.5
 74
     0
 49
1.0
 74
     0
 49
-1.5
 74
     0
  0
LTYPE
  5
4F5
330
5
100
AcDbSymbolTableRecord
100
AcDbLinetypeTableRecord
  2
AM_DIN_K_W050
 70
     0
  3
_____ . . _____ . . _____ . . ____ .. ____
 72
    65
 73
     6
 40
16.25
 49
9.75
 74
     0
 49
-1.5
 74
     0
 49
1.0
 74
     0
 49
-1.5
 74
     0
 49
1.0
 74
     0
 49
-1.5
 74
     0
  0
LTYPE
  5
4F6
330
5
100
AcDbSymbolTableRecord
100
AcDbLinetypeTableRecord
  2
AM_DIN_G_W050x2
 70
     0
  3
__ . __ . __ . __ . __ . __
 72
    65
 73
     4
 40
6.875
 49
4.75
 74
     0
 49
-0.875
 74
     0
 49
0.375
 74
     0
 49
-0.875
 74
     0
  0
LTYPE
  5
4F7
330
5
100
AcDbSymbolTableRecord
100
AcDbLinetypeTableRecord
  2
AM_DIN_F_W050x2
 70
     0
  3
 _ _ _ _ _ _ _ _ _ _ _ _
 72
    65
 73
     2
 40
3.125
 49
2.25
 74
     0
 49
-0.875
 74
     0
  0
LTYPE
  5
506
330
5
100
AcDbSymbolTableRecord
100
AcDbLinetypeTableRecord
  2
ACDINWELD
 70
     0
  3
_ _ _ _ _
 72
    65
 73
     2
 40
2.0
 49
2.0
 74
     0
 49
-1.0
 74
     0
  0
LTYPE
  5
507
330
5
100
AcDbSymbolTableRecord
100
AcDbLinetypeTableRecord
  2
ACDINTGB
 70
     0
  3
__ . . __ . .
 72
    65
 73
     6
 40
9.0
 49
4.0
 74
     0
 49
-1.0
 74
     0
 49
1.0
 74
     0
 49
-1.0
 74
     0
 49
1.0
 74
     0
 49
-1.0
 74
     0
  0
LTYPE
  5
508
330
5
100
AcDbSymbolTableRecord
100
AcDbLinetypeTableRecord
  2
ACDINTGL
 70
     0
  3
_ _ _ _ _
 72
    65
 73
     2
 40
3.0
 49
2.0
 74
     0
 49
-1.0
 74
     0
  0
ENDTAB
  0
TABLE
  2
LAYER
  5
2
330
0
100
AcDbSymbolTable
 70
    26
  0
LAYER
  5
10
330
2
100
AcDbSymbolTableRecord
100
AcDbLayerTableRecord
  2
0
 70
     0
 62
     7
  6
CONTINUOUS
370
    -3
390
F
  0
LAYER
  5
1FA
330
2
100
AcDbSymbolTableRecord
100
AcDbLayerTableRecord
  2
DEFAULT_1
 70
     0
 62
     7
  6
CENTER
370
    -3
390
F
  0
LAYER
  5
1FB
330
2
100
AcDbSymbolTableRecord
100
AcDbLayerTableRecord
  2
DEFAULT_2
 70
     0
 62
     8
  6
HIDDEN
370
    -3
390
F
  0
LAYER
  5
1FC
330
2
100
AcDbSymbolTableRecord
100
AcDbLayerTableRecord
  2
DEFAULT_3
 70
     0
 62
     7
  6
PHANTOM
370
    -3
390
F
  0
LAYER
  5
1FD
330
2
100
AcDbSymbolTableRecord
100
AcDbLayerTableRecord
  2
3D_TEIL_NOTIZ
 70
     0
 62
     7
  6
CONTINUOUS
370
    -3
390
F
  0
LAYER
  5
1FE
330
2
100
AcDbSymbolTableRecord
100
AcDbLayerTableRecord
  2
ACHSEN
 70
     0
 62
     7
  6
CONTINUOUS
370
    -3
390
F
  0
LAYER
  5
1FF
330
2
100
AcDbSymbolTableRecord
100
AcDbLayerTableRecord
  2
AUSFORMSCHRAEGEN
 70
     0
 62
     7
  6
CONTINUOUS
370
    -3
390
F
  0
LAYER
  5
200
330
2
100
AcDbSymbolTableRecord
100
AcDbLayerTableRecord
  2
BEZUG
 70
     0
 62
     7
  6
CONTINUOUS
370
    -3
390
F
  0
LAYER
  5
201
330
2
100
AcDbSymbolTableRecord
100
AcDbLayerTableRecord
  2
BEZUGSACHSEN
 70
     0
 62
     7
  6
CONTINUOUS
370
    -3
390
F
  0
LAYER
  5
202
330
2
100
AcDbSymbolTableRecord
100
AcDbLayerTableRecord
  2
BEZUGSEBENEN
 70
     0
 62
     7
  6
CONTINUOUS
370
    -3
390
F
  0
LAYER
  5
203
330
2
100
AcDbSymbolTableRecord
100
AcDbLayerTableRecord
  2
BG_STARTBEZUEGE
 70
     0
 62
     7
  6
CONTINUOUS
370
    -3
390
F
  0
LAYER
  5
204
330
2
100
AcDbSymbolTableRecord
100
AcDbLayerTableRecord
  2
BOHRUNGEN
 70
     0
 62
     7
  6
CONTINUOUS
370
    -3
390
F
  0
LAYER
  5
205
330
2
100
AcDbSymbolTableRecord
100
AcDbLayerTableRecord
  2
DATUMS
 70
     0
 62
     7
  6
CONTINUOUS
370
    -3
390
F
  0
LAYER
  5
206
330
2
100
AcDbSymbolTableRecord
100
AcDbLayerTableRecord
  2
DETAILS
 70
     0
 62
     7
  6
CONTINUOUS
370
    -3
390
F
  0
LAYER
  5
207
330
2
100
AcDbSymbolTableRecord
100
AcDbLayerTableRecord
  2
FASEN
 70
     0
 62
     7
  6
CONTINUOUS
370
    -3
390
F
  0
LAYER
  5
208
330
2
100
AcDbSymbolTableRecord
100
AcDbLayerTableRecord
  2
FLAECHEN
 70
     0
 62
     7
  6
CONTINUOUS
370
    -3
390
F
  0
LAYER
  5
209
330
2
100
AcDbSymbolTableRecord
100
AcDbLayerTableRecord
  2
GEWINDE
 70
     0
 62
     7
  6
CONTINUOUS
370
    -3
390
F
  0
LAYER
  5
20A
330
2
100
AcDbSymbolTableRecord
100
AcDbLayerTableRecord
  2
HILFEN
 70
     0
 62
     7
  6
CONTINUOUS
370
    -3
390
F
  0
LAYER
  5
20B
330
2
100
AcDbSymbolTableRecord
100
AcDbLayerTableRecord
  2
KURVEN
 70
     0
 62
     7
  6
CONTINUOUS
370
    -3
390
F
  0
LAYER
  5
20C
330
2
100
AcDbSymbolTableRecord
100
AcDbLayerTableRecord
  2
LAY0001
 70
     0
 62
     7
  6
CONTINUOUS
370
    -3
390
F
  0
LAYER
  5
20D
330
2
100
AcDbSymbolTableRecord
100
AcDbLayerTableRecord
  2
PLATZIERUNG
 70
     0
 62
     7
  6
CONTINUOUS
370
    -3
390
F
  0
LAYER
  5
20E
330
2
100
AcDbSymbolTableRecord
100
AcDbLayerTableRecord
  2
PLAZIERUNG
 70
     0
 62
     7
  6
CONTINUOUS
370
    -3
390
F
  0
LAYER
  5
20F
330
2
100
AcDbSymbolTableRecord
100
AcDbLayerTableRecord
  2
RUNDUNGEN
 70
     0
 62
     7
  6
CONTINUOUS
370
    -3
390
F
  0
LAYER
  5
210
330
2
100
AcDbSymbolTableRecord
100
AcDbLayerTableRecord
  2
TEIL_STARTBEZUEGE
 70
     0
 62
     7
  6
CONTINUOUS
370
    -3
390
F
  0
LAYER
  5
211
330
2
100
AcDbSymbolTableRecord
100
AcDbLayerTableRecord
  2
ZEICHNUNGSBEMASSUNGEN
 70
     0
 62
     7
  6
CONTINUOUS
370
    -3
390
F
  0
LAYER
  5
516
330
2
100
AcDbSymbolTableRecord
100
AcDbLayerTableRecord
  2
Defpoints
 70
     0
 62
     7
  6
CONTINUOUS
290
     0
370
    -3
390
F
  0
ENDTAB
  0
TABLE
  2
STYLE
  5
3
330
0
100
AcDbSymbolTable
 70
     6
  0
STYLE
  5
11
330
3
100
AcDbSymbolTableRecord
100
AcDbTextStyleTableRecord
  2
STANDARD
 70
     0
 40
0.0
 41
0.7
 50
0.0
 71
     0
 42
0.2
  3
txt
  4

  0
STYLE
  5
212
330
3
100
AcDbSymbolTableRecord
100
AcDbTextStyleTableRecord
  2
TEXTSTYLE_1
 70
     0
 40
0.0
 41
0.8
 50
0.0
 71
     0
 42
0.2
  3
gdt
  4

  0
STYLE
  5
213
330
3
100
AcDbSymbolTableRecord
100
AcDbTextStyleTableRecord
  2
TEXTSTYLE_2
 70
     0
 40
0.0
 41
0.7
 50
0.0
 71
     0
 42
0.2
  3
gdt
  4

  0
STYLE
  5
4F1
330
3
100
AcDbSymbolTableRecord
100
AcDbTextStyleTableRecord
  2

 70
     1
 40
0.0
 41
1.0
 50
0.0
 71
     0
 42
0.2
  3
genltshp.shx
  4

  0
STYLE
  5
504
330
3
100
AcDbSymbolTableRecord
100
AcDbTextStyleTableRecord
  2
ACDINTS
 70
     0
 40
1.0
 41
1.0
 50
0.0
 71
     0
 42
0.2
  3
isocp.shx
  4

  0
STYLE
  5
505
330
3
100
AcDbSymbolTableRecord
100
AcDbTextStyleTableRecord
  2
ACDINGDT
 70
     0
 40
0.0
 41
1.0
 50
0.0
 71
     0
 42
0.2
  3
amgdt.shx
  4

  0
ENDTAB
  0
TABLE
  2
VIEW
  5
6
330
0
100
AcDbSymbolTable
 70
     0
  0
ENDTAB
  0
TABLE
  2
UCS
  5
7
330
0
100
AcDbSymbolTable
 70
     0
  0
ENDTAB
  0
TABLE
  2
APPID
  5
9
330
0
100
AcDbSymbolTable
 70
    21
  0
APPID
  5
214
330
9
100
AcDbSymbolTableRecord
100
AcDbRegAppTableRecord
  2
ACAD
 70
     0
  0
APPID
  5
479
330
9
100
AcDbSymbolTableRecord
100
AcDbRegAppTableRecord
  2
MCAD_NO_VIS
 70
     0
  0
APPID
  5
47A
330
9
100
AcDbSymbolTableRecord
100
AcDbRegAppTableRecord
  2
ACAD_TEMP_GRAPHIC
 70
     0
  0
APPID
  5
4A6
330
9
100
AcDbSymbolTableRecord
100
AcDbRegAppTableRecord
  2
AD_DRAW
 70
     0
  0
APPID
  5
4A9
330
9
100
AcDbSymbolTableRecord
100
AcDbRegAppTableRecord
  2
ACATTRIBSERVICES
 70
     0
  0
APPID
  5
4C9
330
9
100
AcDbSymbolTableRecord
100
AcDbRegAppTableRecord
  2
DESIGNERASSEMBLIES
 70
     0
  0
APPID
  5
4CF
330
9
100
AcDbSymbolTableRecord
100
AcDbRegAppTableRecord
  2
ACADM_DIM_EDIT
 70
     0
  0
APPID
  5
4D0
330
9
100
AcDbSymbolTableRecord
100
AcDbRegAppTableRecord
  2
AMDT_DM_ADJ
 70
     0
  0
APPID
  5
4E7
330
9
100
AcDbSymbolTableRecord
100
AcDbRegAppTableRecord
  2
ACAD_DSTYLE_DIMJAG
 70
     0
  0
APPID
  5
4E8
330
9
100
AcDbSymbolTableRecord
100
AcDbRegAppTableRecord
  2
ACAD_DSTYLE_DIMBREAK
 70
     0
  0
APPID
  5
517
330
9
100
AcDbSymbolTableRecord
100
AcDbRegAppTableRecord
  2
AcAecLayerStandard
 70
     0
  0
APPID
  5
518
330
9
100
AcDbSymbolTableRecord
100
AcDbRegAppTableRecord
  2
GENIUS_GENODEF_13
 70
     0
  0
APPID
  5
519
330
9
100
AcDbSymbolTableRecord
100
AcDbRegAppTableRecord
  2
GENIUS_GENOBJ-N-HTC_13
 70
     0
  0
APPID
  5
51A
330
9
100
AcDbSymbolTableRecord
100
AcDbRegAppTableRecord
  2
GENIUS_GENHATCH_13
 70
     0
  0
APPID
  5
51B
330
9
100
AcDbSymbolTableRecord
100
AcDbRegAppTableRecord
  2
ACAD_EXEMPT_FROM_CAD_STANDARDS
 70
     0
  0
APPID
  5
51C
330
9
100
AcDbSymbolTableRecord
100
AcDbRegAppTableRecord
  2
ACAD_MLEADERVER
 70
     0
  0
APPID
  5
51D
330
9
100
AcDbSymbolTableRecord
100
AcDbRegAppTableRecord
  2
ACAD_DSTYLE_DIMJOGGED_JOGANGLE_SYMBOL
 70
     0
  0
APPID
  5
51E
330
9
100
AcDbSymbolTableRecord
100
AcDbRegAppTableRecord
  2
ACAD_DSTYLE_DIM_LINETYPE
 70
     0
  0
APPID
  5
51F
330
9
100
AcDbSymbolTableRecord
100
AcDbRegAppTableRecord
  2
ACAD_DSTYLE_DIM_EXT1_LINETYPE
 70
     0
  0
APPID
  5
520
330
9
100
AcDbSymbolTableRecord
100
AcDbRegAppTableRecord
  2
ACAD_DSTYLE_DIM_EXT2_LINETYPE
 70
     0
  0
APPID
  5
521
330
9
100
AcDbSymbolTableRecord
100
AcDbRegAppTableRecord
  2
ACAD_DSTYLE_DIMINSPECT
 70
     0
  0
ENDTAB
  0
TABLE
  2
DIMSTYLE
  5
A
330
0
100
AcDbSymbolTable
 70
    13
100
AcDbDimStyleTable
 71
     2
340
21D
340
21F
  0
DIMSTYLE
105
21D
330
A
100
AcDbSymbolTableRecord
100
AcDbDimStyleTableRecord
  2
STANDARD
 70
     0
 41
3.5
 47
0.005
 48
0.005
 71
     1
 73
     0
 74
     0
 77
     1
 78
     8
140
3.5
178
     5
271
     3
272
     3
284
     8
340
11
341
217
342
217
343
217
344
217
  0
DIMSTYLE
105
21E
330
A
100
AcDbSymbolTableRecord
100
AcDbDimStyleTableRecord
  2
DIMSTYLE_1
 70
     0
 41
3.5
 47
0.5
 48
0.5
 73
     0
 74
     0
 77
     1
 78
     8
140
3.5
178
     5
271
     3
272
     3
284
     8
340
11
341
217
342
217
343
217
344
217
  0
DIMSTYLE
105
21F
102
{ACAD_REACTORS
330
257
330
255
330
254
330
253
330
256
102
}
330
A
100
AcDbSymbolTableRecord
100
AcDbDimStyleTableRecord
  2
DIMSTYLE_2
 70
     0
 41
3.5
 47
0.3
 48
0.3
 73
     0
 74
     0
 77
     1
 78
     8
140
3.5
178
     5
271
     1
272
     1
284
     8
340
11
341
217
342
217
343
217
344
217
  0
DIMSTYLE
105
220
330
A
100
AcDbSymbolTableRecord
100
AcDbDimStyleTableRecord
  2
DIMSTYLE_3
 70
     0
 41
3.5
 47
0.5
 48
0.5
 73
     0
 74
     0
 77
     1
 78
     8
140
3.5
178
     5
271
     1
272
     1
284
     8
340
11
341
217
342
217
343
217
344
217
  0
DIMSTYLE
105
221
330
A
100
AcDbSymbolTableRecord
100
AcDbDimStyleTableRecord
  2
DIMSTYLE_4
 70
     0
 41
3.5
 47
0.5
 48
0.5
 73
     0
 74
     0
 77
     1
 78
     8
140
3.5
178
     5
271
     0
272
     0
284
     8
340
11
341
217
342
217
343
217
344
217
  0
DIMSTYLE
105
4E6
102
{ACAD_REACTORS
330
4D5
102
}
330
A
100
AcDbSymbolTableRecord
100
AcDbDimStyleTableRecord
  2
AM_DIN
 70
     0
  4
"
 41
3.5
 42
1.0
 43
10.0
 44
1.0
 47
0.1
 48
0.1
 73
     0
 74
     0
 77
     1
 78
     8
 79
     2
140
3.5
141
0.0
143
0.0393701
146
0.71
147
1.5
172
     1
176
   256
177
   256
178
     2
271
     2
272
     3
274
     4
283
     0
284
     8
340
11
371
    -1
372
    -1
1001
ACAD_DSTYLE_DIMJAG
1070
   388
1040
1.5
1001
ACAD_DSTYLE_DIMBREAK
1070
   391
1040
3.75
1001
ACAD_DSTYLE_DIMJOGGED_JOGANGLE_SYMBOL
1070
   384
1040
1.570796326794896
1001
ACAD_DSTYLE_DIM_LINETYPE
1070
   380
1005
14
1001
ACAD_DSTYLE_DIM_EXT1_LINETYPE
1070
   381
1005
14
1001
ACAD_DSTYLE_DIM_EXT2_LINETYPE
1070
   382
1005
14
  0
DIMSTYLE
105
4F8
330
A
100
AcDbSymbolTableRecord
100
AcDbDimStyleTableRecord
  2
AM_DIN$3
 70
     0
  4
"
 41
3.5
 42
1.0
 43
10.0
 44
1.0
 47
0.1
 48
0.1
 73
     0
 77
     1
 78
     8
 79
     2
140
3.5
141
0.0
143
0.0393701
146
0.71
147
1.5
176
   256
177
   256
178
     2
271
     2
272
     3
274
     4
283
     0
284
     8
288
     1
289
     0
340
11
371
    -1
372
    -1
1001
ACAD_DSTYLE_DIMBREAK
1070
   391
1040
3.75
1001
ACAD_DSTYLE_DIMJAG
1070
   388
1040
1.5
1001
ACAD_DSTYLE_DIMJOGGED_JOGANGLE_SYMBOL
1070
   384
1040
1.570796326794896
1001
ACAD_DSTYLE_DIM_LINETYPE
1070
   380
1005
14
1001
ACAD_DSTYLE_DIM_EXT1_LINETYPE
1070
   381
1005
14
1001
ACAD_DSTYLE_DIM_EXT2_LINETYPE
1070
   382
1005
14
  0
DIMSTYLE
105
4F9
330
A
100
AcDbSymbolTableRecord
100
AcDbDimStyleTableRecord
  2
AM_DIN$4
 70
     0
  4
"
 41
3.5
 42
1.0
 43
10.0
 44
1.0
 47
0.1
 48
0.1
 73
     0
 77
     1
 78
     8
 79
     2
140
3.5
141
0.0
143
0.0393701
146
0.71
147
1.5
176
   256
177
   256
178
     2
271
     2
272
     3
274
     4
283
     0
284
     8
288
     1
289
     0
340
11
371
    -1
372
    -1
1001
ACAD_DSTYLE_DIMBREAK
1070
   391
1040
3.75
1001
ACAD_DSTYLE_DIMJAG
1070
   388
1040
1.5
1001
ACAD_DSTYLE_DIMJOGGED_JOGANGLE_SYMBOL
1070
   384
1040
1.570796326794896
1001
ACAD_DSTYLE_DIM_LINETYPE
1070
   380
1005
14
1001
ACAD_DSTYLE_DIM_EXT1_LINETYPE
1070
   381
1005
14
1001
ACAD_DSTYLE_DIM_EXT2_LINETYPE
1070
   382
1005
14
  0
DIMSTYLE
105
4FA
330
A
100
AcDbSymbolTableRecord
100
AcDbDimStyleTableRecord
  2
AM_DIN$6
 70
     0
  4
"
 41
3.5
 42
1.0
 43
10.0
 44
1.0
 47
0.1
 48
0.1
 73
     0
 74
     0
 78
     8
 79
     2
140
3.5
141
0.0
143
0.0393701
146
0.71
147
1.5
172
     1
176
   256
177
   256
178
     2
271
     2
272
     3
274
     4
283
     0
284
     8
340
11
371
    -1
372
    -1
1001
ACAD_DSTYLE_DIMBREAK
1070
   391
1040
3.75
1001
ACAD_DSTYLE_DIMJAG
1070
   388
1040
1.5
1001
ACAD_DSTYLE_DIMJOGGED_JOGANGLE_SYMBOL
1070
   384
1040
1.570796326794896
1001
ACAD_DSTYLE_DIM_LINETYPE
1070
   380
1005
14
1001
ACAD_DSTYLE_DIM_EXT1_LINETYPE
1070
   381
1005
14
1001
ACAD_DSTYLE_DIM_EXT2_LINETYPE
1070
   382
1005
14
  0
DIMSTYLE
105
4FB
330
A
100
AcDbSymbolTableRecord
100
AcDbDimStyleTableRecord
  2
AM_DIN$7
 70
     0
  4
"
 41
3.5
 42
1.0
 43
10.0
 44
1.0
 47
0.1
 48
0.1
 73
     0
 74
     0
 77
     1
 78
     8
 79
     2
140
3.5
141
0.0
143
0.0393701
146
0.71
147
1.5
172
     1
176
   256
177
   256
178
     2
271
     2
272
     3
274
     4
283
     0
284
     8
340
11
371
    -1
372
    -1
1001
ACAD_DSTYLE_DIMBREAK
1070
   391
1040
3.75
1001
ACAD_DSTYLE_DIMJAG
1070
   388
1040
1.5
1001
ACAD_DSTYLE_DIMJOGGED_JOGANGLE_SYMBOL
1070
   384
1040
1.570796326794896
1001
ACAD_DSTYLE_DIM_LINETYPE
1070
   380
1005
14
1001
ACAD_DSTYLE_DIM_EXT1_LINETYPE
1070
   381
1005
14
1001
ACAD_DSTYLE_DIM_EXT2_LINETYPE
1070
   382
1005
14
  0
DIMSTYLE
105
4FC
330
A
100
AcDbSymbolTableRecord
100
AcDbDimStyleTableRecord
  2
AM_DIN$SF
 70
     0
  4
"
 41
3.5
 42
1.0
 43
10.0
 44
1.0
 47
0.1
 48
0.1
 73
     0
 74
     0
 75
     1
 76
     1
 77
     1
 78
     8
 79
     2
140
3.5
141
0.0
143
0.0393701
146
0.71
147
1.5
172
     1
176
   256
177
   256
178
     2
271
     2
272
     3
274
     4
283
     0
284
     8
340
11
371
    -1
372
    -1
1001
ACAD_DSTYLE_DIMBREAK
1070
   391
1040
3.75
1001
ACAD_DSTYLE_DIMJAG
1070
   388
1040
1.5
1001
ACAD_DSTYLE_DIMJOGGED_JOGANGLE_SYMBOL
1070
   384
1040
1.570796326794896
1001
ACAD_DSTYLE_DIM_LINETYPE
1070
   380
1005
14
1001
ACAD_DSTYLE_DIM_EXT1_LINETYPE
1070
   381
1005
14
1001
ACAD_DSTYLE_DIM_EXT2_LINETYPE
1070
   382
1005
14
  0
DIMSTYLE
105
501
330
A
100
AcDbSymbolTableRecord
100
AcDbDimStyleTableRecord
  2
AM_DIN$SH
 70
     0
  4
"
 41
3.5
 42
1.0
 43
10.0
 44
1.0
 47
0.1
 48
0.1
 73
     0
 74
     0
 75
     1
 76
     1
 77
     1
 78
     8
 79
     2
140
3.5
141
0.0
143
0.0393701
144
2.0
146
0.71
147
1.5
172
     1
173
     1
176
   256
177
   256
178
     2
271
     2
272
     3
274
     4
283
     0
284
     8
340
11
343
4FD
371
    -1
372
    -1
1001
ACAD_DSTYLE_DIMBREAK
1070
   391
1040
3.75
1001
ACAD_DSTYLE_DIMJAG
1070
   388
1040
1.5
1001
ACAD_DSTYLE_DIMJOGGED_JOGANGLE_SYMBOL
1070
   384
1040
1.570796326794896
1001
ACAD_DSTYLE_DIM_LINETYPE
1070
   380
1005
14
1001
ACAD_DSTYLE_DIM_EXT1_LINETYPE
1070
   381
1005
14
1001
ACAD_DSTYLE_DIM_EXT2_LINETYPE
1070
   382
1005
14
  0
ENDTAB
  0
TABLE
  2
BLOCK_RECORD
  5
1
330
0
100
AcDbSymbolTable
 70
    15
  0
BLOCK_RECORD
  5
215
330
1
100
AcDbSymbolTableRecord
100
AcDbBlockTableRecord
  2
*Model_Space
340
429
  0
BLOCK_RECORD
  5
216
330
1
100
AcDbSymbolTableRecord
100
AcDbBlockTableRecord
  2
*Paper_Space
340
42A
  0
BLOCK_RECORD
  5
217
330
1
100
AcDbSymbolTableRecord
100
AcDbBlockTableRecord
  2
_FILLED
340
0
102
{BLKREFS
331
528
331
529
331
53E
331
53F
331
554
331
555
331
56A
331
56B
331
580
331
581
331
599
331
59A
331
5AB
331
5AC
331
5B4
331
5B5
331
5C6
331
5C7
331
5D8
331
5D9
102
}
  0
BLOCK_RECORD
  5
218
330
1
100
AcDbSymbolTableRecord
100
AcDbBlockTableRecord
  2
*D1
340
0
  0
BLOCK_RECORD
  5
219
330
1
100
AcDbSymbolTableRecord
100
AcDbBlockTableRecord
  2
*D2
340
0
  0
BLOCK_RECORD
  5
21A
330
1
100
AcDbSymbolTableRecord
100
AcDbBlockTableRecord
  2
*D3
340
0
  0
BLOCK_RECORD
  5
21B
330
1
100
AcDbSymbolTableRecord
100
AcDbBlockTableRecord
  2
*D4
340
0
  0
BLOCK_RECORD
  5
21C
330
1
100
AcDbSymbolTableRecord
100
AcDbBlockTableRecord
  2
*D5
340
0
  0
BLOCK_RECORD
  5
4FD
330
1
100
AcDbSymbolTableRecord
100
AcDbBlockTableRecord
  2
GENAXEH
340
0
  0
ENDTAB
  0
ENDSEC
  0
SECTION
  2
BLOCKS
  0
BLOCK
  5
20
330
215
100
AcDbEntity
  8
0
100
AcDbBlockBegin
  2
*Model_Space
 70
     0
 10
0.0
 20
0.0
 30
0.0
  3
*Model_Space
  1

  0
ENDBLK
  5
21
330
215
100
AcDbEntity
  8
0
100
AcDbBlockEnd
  0
BLOCK
  5
1C
330
216
100
AcDbEntity
 67
     1
  8
0
100
AcDbBlockBegin
  2
*Paper_Space
 70
     0
 10
0.0
 20
0.0
 30
0.0
  3
*Paper_Space
  1

  0
ENDBLK
  5
1D
330
216
100
AcDbEntity
 67
     1
  8
0
100
AcDbBlockEnd
  0
BLOCK
  5
222
330
217
100
AcDbEntity
  8
0
100
AcDbBlockBegin
  2
_FILLED
 70
     0
 10
0.0
 20
0.0
 30
0.0
  3
_FILLED
  1

  0
SOLID
  5
223
330
217
100
AcDbEntity
  8
0
  6
ByBlock
 62
     0
100
AcDbTrace
 10
0.0
 20
0.0
 30
0.0
 11
-1.0
 21
0.125
 31
0.0
 12
-1.0
 22
-0.125
 32
0.0
 13
-1.0
 23
-0.125
 33
0.0
  0
ENDBLK
  5
224
330
217
100
AcDbEntity
  8
0
  6
ByBlock
 62
     0
100
AcDbBlockEnd
  0
BLOCK
  5
225
330
218
100
AcDbEntity
  8
ZEICHNUNGSBEMASSUNGEN
  6
Continuous
 62
     2
100
AcDbBlockBegin
  2
*D1
 70
     1
 10
0.0
 20
0.0
 30
0.0
  3
*D1
  1

  0
LINE
  5
596
330
218
100
AcDbEntity
  8
ZEICHNUNGSBEMASSUNGEN
  6
Continuous
 62
     0
370
    -2
100
AcDbLine
 10
210.3474264706
 20
63.9510778691
 30
0.0
 11
210.3474264706
 21
56.46642755388501
 31
0.0
  0
LINE
  5
597
330
218
100
AcDbEntity
  8
ZEICHNUNGSBEMASSUNGEN
  6
Continuous
 62
     0
370
    -2
100
AcDbLine
 10
365.3474264706
 20
67.0710828941
 30
0.0
 11
365.3474264706
 21
56.46642755388501
 31
0.0
  0
LINE
  5
598
330
218
100
AcDbEntity
  8
ZEICHNUNGSBEMASSUNGEN
  6
Continuous
 62
     0
370
    -2
100
AcDbLine
 10
215.3474264706
 20
56.64642755388502
 30
0.0
 11
360.3474264706
 21
56.64642755388502
 31
0.0
  0
INSERT
  5
599
330
218
100
AcDbEntity
  8
ZEICHNUNGSBEMASSUNGEN
  6
Continuous
 62
     0
370
    -2
100
AcDbBlockReference
  2
_FILLED
 10
210.3474264706
 20
56.64642755388502
 30
0.0
 41
5.0
 42
5.0
 43
5.0
 50
180.0
  0
INSERT
  5
59A
330
218
100
AcDbEntity
  8
ZEICHNUNGSBEMASSUNGEN
  6
Continuous
 62
     0
370
    -2
100
AcDbBlockReference
  2
_FILLED
 10
365.3474264706
 20
56.64642755388502
 30
0.0
 41
5.0
 42
5.0
 43
5.0
  0
MTEXT
  5
59B
330
218
100
AcDbEntity
  8
ZEICHNUNGSBEMASSUNGEN
  6
Continuous
100
AcDbMText
 10
284.3474264706
 20
65.14642755388502
 30
0.0
 40
7.0
 41
0.0
 71
     2
 72
     1
  1
\A1;155
 73
     1
 44
1.0
1001
ACAD
1000
MTEXTBEGIN
1070
    73
1070
     1
1070
    44
1040
1.0
1070
    74
1070
     0
1000
MTEXTEND
  0
POINT
  5
59C
330
218
100
AcDbEntity
  8
Defpoints
  6
Continuous
 62
     0
100
AcDbPoint
 10
210.3474264706
 20
64.01357786910001
 30
0.0
  0
POINT
  5
59D
330
218
100
AcDbEntity
  8
Defpoints
  6
Continuous
 62
     0
100
AcDbPoint
 10
365.3474264706
 20
67.1335828941
 30
0.0
  0
POINT
  5
59E
330
218
100
AcDbEntity
  8
Defpoints
  6
Continuous
 62
     0
100
AcDbPoint
 10
365.3474264706
 20
56.64642755388502
 30
0.0
  0
ENDBLK
  5
22D
330
218
100
AcDbEntity
  8
0
  6
ByBlock
 62
     0
100
AcDbBlockEnd
  0
BLOCK
  5
22E
330
219
100
AcDbEntity
  8
ZEICHNUNGSBEMASSUNGEN
  6
Continuous
 62
     2
100
AcDbBlockBegin
  2
*D2
 70
     1
 10
0.0
 20
0.0
 30
0.0
  3
*D2
  1

  0
LINE
  5
5A8
330
219
100
AcDbEntity
  8
ZEICHNUNGSBEMASSUNGEN
  6
Continuous
 62
     0
370
    -2
100
AcDbLine
 10
369.9099264706
 20
97.6335828941
 30
0.0
 11
400.4228405613
 21
97.6335828941
 31
0.0
  0
LINE
  5
5A9
330
219
100
AcDbEntity
  8
ZEICHNUNGSBEMASSUNGEN
  6
Continuous
 62
     0
370
    -2
100
AcDbLine
 10
276.9306296527
 20
216.1405539855
 30
0.0
 11
400.4228405613
 21
216.1405539855
 31
0.0
  0
LINE
  5
5AA
330
219
100
AcDbEntity
  8
ZEICHNUNGSBEMASSUNGEN
  6
Continuous
 62
     0
370
    -2
100
AcDbLine
 10
400.2428405613
 20
102.6335828941
 30
0.0
 11
400.2428405613001
 21
211.1405539855
 31
0.0
  0
INSERT
  5
5AB
330
219
100
AcDbEntity
  8
ZEICHNUNGSBEMASSUNGEN
  6
Continuous
 62
     0
370
    -2
100
AcDbBlockReference
  2
_FILLED
 10
400.2428405613
 20
97.6335828941
 30
0.0
 41
5.0
 42
5.0
 43
5.0
 50
270.0
  0
INSERT
  5
5AC
330
219
100
AcDbEntity
  8
ZEICHNUNGSBEMASSUNGEN
  6
Continuous
 62
     0
370
    -2
100
AcDbBlockReference
  2
_FILLED
 10
400.2428405613001
 20
216.1405539855
 30
0.0
 41
5.0
 42
5.0
 43
5.0
 50
90.0
  0
MTEXT
  5
5AD
330
219
100
AcDbEntity
  8
ZEICHNUNGSBEMASSUNGEN
  6
Continuous
100
AcDbMText
 10
391.7428405613
 20
151.858337207
 30
0.0
 40
7.0
 41
0.0
 71
     2
 72
     1
  1
\A1;119
 11
0.0000000000000001
 21
1.0
 31
0.0
 73
     1
 44
1.0
1001
ACAD
1000
MTEXTBEGIN
1070
    73
1070
     1
1070
    44
1040
1.0
1070
    74
1070
     0
1000
MTEXTEND
  0
POINT
  5
5AE
330
219
100
AcDbEntity
  8
Defpoints
  6
Continuous
 62
     0
100
AcDbPoint
 10
369.8474264706
 20
97.6335828941
 30
0.0
  0
POINT
  5
5AF
330
219
100
AcDbEntity
  8
Defpoints
  6
Continuous
 62
     0
100
AcDbPoint
 10
276.8681296527
 20
216.1405539855
 30
0.0
  0
POINT
  5
5B0
330
219
100
AcDbEntity
  8
Defpoints
  6
Continuous
 62
     0
100
AcDbPoint
 10
400.2428405613001
 20
216.1405539855
 30
0.0
  0
ENDBLK
  5
236
330
219
100
AcDbEntity
  8
0
  6
ByBlock
 62
     0
100
AcDbBlockEnd
  0
BLOCK
  5
237
330
21A
100
AcDbEntity
  8
ZEICHNUNGSBEMASSUNGEN
  6
Continuous
 62
     2
100
AcDbBlockBegin
  2
*D3
 70
     1
 10
0.0
 20
0.0
 30
0.0
  3
*D3
  1

  0
LINE
  5
5B1
330
21A
100
AcDbEntity
  8
ZEICHNUNGSBEMASSUNGEN
  6
Continuous
 62
     0
370
    -2
100
AcDbLine
 10
30.3474264706
 20
213.7306883679
 30
0.0
 11
30.3474264706
 21
260.5890757956768
 31
0.0
  0
LINE
  5
5B2
330
21A
100
AcDbEntity
  8
ZEICHNUNGSBEMASSUNGEN
  6
Continuous
 62
     0
370
    -2
100
AcDbLine
 10
390.3474264706
 20
213.7306883679
 30
0.0
 11
390.3474264706
 21
260.5890757956768
 31
0.0
  0
LINE
  5
5B3
330
21A
100
AcDbEntity
  8
ZEICHNUNGSBEMASSUNGEN
  6
Continuous
 62
     0
370
    -2
100
AcDbLine
 10
35.3474264706
 20
260.4090757956768
 30
0.0
 11
385.3474264706
 21
260.4090757956768
 31
0.0
  0
INSERT
  5
5B4
330
21A
100
AcDbEntity
  8
ZEICHNUNGSBEMASSUNGEN
  6
Continuous
 62
     0
370
    -2
100
AcDbBlockReference
  2
_FILLED
 10
30.3474264706
 20
260.4090757956768
 30
0.0
 41
5.0
 42
5.0
 43
5.0
 50
180.0
  0
INSERT
  5
5B5
330
21A
100
AcDbEntity
  8
ZEICHNUNGSBEMASSUNGEN
  6
Continuous
 62
     0
370
    -2
100
AcDbBlockReference
  2
_FILLED
 10
390.3474264706
 20
260.4090757956768
 30
0.0
 41
5.0
 42
5.0
 43
5.0
  0
MTEXT
  5
5B6
330
21A
100
AcDbEntity
  8
ZEICHNUNGSBEMASSUNGEN
  6
Continuous
100
AcDbMText
 10
207.1807598039
 20
268.9090757956768
 30
0.0
 40
7.0
 41
0.0
 71
     2
 72
     1
  1
\A1;%%c360
 73
     1
 44
1.0
1001
ACAD
1000
MTEXTBEGIN
1070
    73
1070
     1
1070
    44
1040
1.0
1070
    74
1070
     0
1000
MTEXTEND
  0
POINT
  5
5B7
330
21A
100
AcDbEntity
  8
Defpoints
  6
Continuous
 62
     0
100
AcDbPoint
 10
30.3474264706
 20
213.6681883679
 30
0.0
  0
POINT
  5
5B8
330
21A
100
AcDbEntity
  8
Defpoints
  6
Continuous
 62
     0
100
AcDbPoint
 10
390.3474264706
 20
213.6681883679
 30
0.0
  0
POINT
  5
5B9
330
21A
100
AcDbEntity
  8
Defpoints
  6
Continuous
 62
     0
100
AcDbPoint
 10
390.3474264706
 20
260.4090757956768
 30
0.0
  0
ENDBLK
  5
23F
330
21A
100
AcDbEntity
  8
0
  6
ByBlock
 62
     0
100
AcDbBlockEnd
  0
BLOCK
  5
240
330
21B
100
AcDbEntity
  8
ZEICHNUNGSBEMASSUNGEN
  6
Continuous
 62
     2
100
AcDbBlockBegin
  2
*D4
 70
     1
 10
0.0
 20
0.0
 30
0.0
  3
*D4
  1

  0
LINE
  5
5D5
330
21B
100
AcDbEntity
  8
ZEICHNUNGSBEMASSUNGEN
  6
Continuous
 62
     0
370
    -2
100
AcDbLine
 10
143.7642233655
 20
216.1405539868
 30
0.0
 11
20.23086816740004
 21
216.1405539868
 31
0.0
  0
LINE
  5
5D6
330
21B
100
AcDbEntity
  8
ZEICHNUNGSBEMASSUNGEN
  6
Continuous
 62
     0
370
    -2
100
AcDbLine
 10
173.2849264706
 20
68.6335828941
 30
0.0
 11
20.23086816740001
 21
68.63358289410006
 31
0.0
  0
LINE
  5
5D7
330
21B
100
AcDbEntity
  8
ZEICHNUNGSBEMASSUNGEN
  6
Continuous
 62
     0
370
    -2
100
AcDbLine
 10
20.41086816740004
 20
211.1405539868
 30
0.0
 11
20.41086816740001
 21
73.63358289410006
 31
0.0
  0
INSERT
  5
5D8
330
21B
100
AcDbEntity
  8
ZEICHNUNGSBEMASSUNGEN
  6
Continuous
 62
     0
370
    -2
100
AcDbBlockReference
  2
_FILLED
 10
20.41086816740004
 20
216.1405539868
 30
0.0
 41
5.0
 42
5.0
 43
5.0
 50
90.0
  0
INSERT
  5
5D9
330
21B
100
AcDbEntity
  8
ZEICHNUNGSBEMASSUNGEN
  6
Continuous
 62
     0
370
    -2
100
AcDbBlockReference
  2
_FILLED
 10
20.41086816740001
 20
68.63358289410006
 30
0.0
 41
5.0
 42
5.0
 43
5.0
 50
270.0
  0
MTEXT
  5
5DA
330
21B
100
AcDbEntity
  8
ZEICHNUNGSBEMASSUNGEN
  6
Continuous
100
AcDbMText
 10
11.9108681674
 20
137.0230884589
 30
0.0
 40
7.0
 41
0.0
 71
     2
 72
     1
  1
\A1;148
 11
0.0000000000000001
 21
1.0
 31
0.0
 73
     1
 44
1.0
1001
ACAD
1000
MTEXTBEGIN
1070
    73
1070
     1
1070
    44
1040
1.0
1070
    74
1070
     0
1000
MTEXTEND
  0
POINT
  5
5DB
330
21B
100
AcDbEntity
  8
Defpoints
  6
Continuous
 62
     0
100
AcDbPoint
 10
143.8267233655
 20
216.1405539868
 30
0.0
  0
POINT
  5
5DC
330
21B
100
AcDbEntity
  8
Defpoints
  6
Continuous
 62
     0
100
AcDbPoint
 10
173.3474264706
 20
68.6335828941
 30
0.0
  0
POINT
  5
5DD
330
21B
100
AcDbEntity
  8
Defpoints
  6
Continuous
 62
     0
100
AcDbPoint
 10
20.41086816740001
 20
68.63358289410006
 30
0.0
  0
ENDBLK
  5
248
330
21B
100
AcDbEntity
  8
0
  6
ByBlock
 62
     0
100
AcDbBlockEnd
  0
BLOCK
  5
249
330
21C
100
AcDbEntity
  8
ZEICHNUNGSBEMASSUNGEN
  6
Continuous
 62
     2
100
AcDbBlockBegin
  2
*D5
 70
     1
 10
0.0
 20
0.0
 30
0.0
  3
*D5
  1

  0
LINE
  5
5C3
330
21C
100
AcDbEntity
  8
ZEICHNUNGSBEMASSUNGEN
  6
Continuous
 62
     0
370
    -2
100
AcDbLine
 10
133.0846532089
 20
208.9027979309
 30
0.0
 11
133.0846532089
 21
248.8148003164
 31
0.0
  0
LINE
  5
5C4
330
21C
100
AcDbEntity
  8
ZEICHNUNGSBEMASSUNGEN
  6
Continuous
 62
     0
370
    -2
100
AcDbLine
 10
287.6101997323
 20
208.9027979309
 30
0.0
 11
287.6101997323
 21
248.8148003164
 31
0.0
  0
LINE
  5
5C5
330
21C
100
AcDbEntity
  8
ZEICHNUNGSBEMASSUNGEN
  6
Continuous
 62
     0
370
    -2
100
AcDbLine
 10
138.0846532089
 20
248.6348003164
 30
0.0
 11
282.6101997323
 21
248.6348003164
 31
0.0
  0
INSERT
  5
5C6
330
21C
100
AcDbEntity
  8
ZEICHNUNGSBEMASSUNGEN
  6
Continuous
 62
     0
370
    -2
100
AcDbBlockReference
  2
_FILLED
 10
133.0846532089
 20
248.6348003164
 30
0.0
 41
5.0
 42
5.0
 43
5.0
 50
180.0
  0
INSERT
  5
5C7
330
21C
100
AcDbEntity
  8
ZEICHNUNGSBEMASSUNGEN
  6
Continuous
 62
     0
370
    -2
100
AcDbBlockReference
  2
_FILLED
 10
287.6101997323
 20
248.6348003164
 30
0.0
 41
5.0
 42
5.0
 43
5.0
  0
MTEXT
  5
5C8
330
21C
100
AcDbEntity
  8
ZEICHNUNGSBEMASSUNGEN
  6
Continuous
100
AcDbMText
 10
207.4307598039
 20
257.1348003164
 30
0.0
 40
7.0
 41
0.0
 71
     2
 72
     1
  1
\A1;%%c155
 73
     1
 44
1.0
1001
ACAD
1000
MTEXTBEGIN
1070
    73
1070
     1
1070
    44
1040
1.0
1070
    74
1070
     0
1000
MTEXTEND
  0
POINT
  5
5C9
330
21C
100
AcDbEntity
  8
Defpoints
  6
Continuous
 62
     0
100
AcDbPoint
 10
133.0846532089
 20
208.8402979309
 30
0.0
  0
POINT
  5
5CA
330
21C
100
AcDbEntity
  8
Defpoints
  6
Continuous
 62
     0
100
AcDbPoint
 10
287.6101997323
 20
208.8402979309
 30
0.0
  0
POINT
  5
5CB
330
21C
100
AcDbEntity
  8
Defpoints
  6
Continuous
 62
     0
100
AcDbPoint
 10
287.6101997323
 20
248.6348003164
 30
0.0
  0
ENDBLK
  5
251
330
21C
100
AcDbEntity
  8
0
  6
ByBlock
 62
     0
100
AcDbBlockEnd
  0
BLOCK
  5
4FF
330
4FD
100
AcDbEntity
  8
0
100
AcDbBlockBegin
  2
GENAXEH
 70
     0
 10
0.0
 20
0.0
 30
0.0
  3
GENAXEH
  1

  0
LINE
  5
4FE
330
4FD
100
AcDbEntity
  8
0
100
AcDbLine
 10
-1.0
 20
0.0
 30
0.0
 11
1.0
 21
0.0
 31
0.0
  0
ENDBLK
  5
500
330
4FD
100
AcDbEntity
  8
0
100
AcDbBlockEnd
  0
ENDSEC
  0
SECTION
  2
ENTITIES
  0
HATCH
  5
252
330
215
100
AcDbEntity
  8
0
  6
Continuous
 62
     1
100
AcDbHatch
 10
0.0
 20
0.0
 30
0.0
210
0.0
220
0.0
230
1.0
  2
DEFAULT__1
 70
     0
 71
     0
 91
        2
 92
        1
 93
       54
 72
     1
 10
174.8474264706
 20
68.6335828941
 11
268.3474264706
 21
68.6335828941
 72
     4
 94
        3
 73
     1
 74
     0
 95
        8
 96
        4
 40
0.0
 40
0.0
 40
0.0
 40
0.0
 40
1.0
 40
1.0
 40
1.0
 40
1.0
 10
174.8474264706
 20
68.6335828941
 42
1.0
 10
168.9895620943
 20
68.6335828941
 42
0.8047378541
 10
164.8474264706
 20
72.7757185179
 42
0.8047378541
 10
164.8474264706
 20
78.6335828941
 42
1.0
 72
     1
 10
164.8474264706
 20
78.6335828941
 11
164.8474264706
 21
102.1712431514
 72
     4
 94
        3
 73
     1
 74
     0
 95
        8
 96
        4
 40
0.0
 40
0.0
 40
0.0
 40
0.0
 40
1.0
 40
1.0
 40
1.0
 40
1.0
 10
162.0044343393
 20
105.1671317556
 42
1.0
 10
163.6873760409
 20
105.0789325184
 42
0.8169162473
 10
164.8474264706
 20
103.8564944312
 42
0.8169162473
 10
164.8474264706
 20
102.1712431514
 42
1.0
 72
     1
 10
157.1297928918
 20
105.4226008887
 11
162.0044343393
 21
105.1671317556
 72
     4
 94
        3
 73
     1
 74
     0
 95
        8
 96
        4
 40
0.0
 40
0.0
 40
0.0
 40
0.0
 40
1.0
 40
1.0
 40
1.0
 40
1.0
 10
154.5790449075
 20
107.1269562025
 42
1.0
 10
155.0648098974
 20
106.1085287222
 42
0.906270941
 10
156.0029943736
 20
105.4816538967
 42
0.906270941
 10
157.1297928918
 20
105.4226008887
 42
1.0
 72
     1
 10
141.0960200995
 20
135.3947055599
 11
154.5790449075
 21
107.1269562025
 72
     4
 94
        3
 73
     1
 74
     0
 95
        8
 96
        4
 40
0.0
 40
0.0
 40
0.0
 40
0.0
 40
1.0
 40
1.0
 40
1.0
 40
1.0
 10
140.8056034715
 20
136.5815403602
 42
1.0
 10
140.8200188389
 20
136.1687382486
 42
0.986030315
 10
140.918195884
 20
135.7675217808
 42
0.986030315
 10
141.0960200995
 20
135.3947055599
 42
1.0
 72
     1
 10
139.4046408013
 20
176.6998622262
 11
140.8056034715
 21
136.5815403602
 72
     4
 94
        3
 73
     1
 74
     0
 95
        8
 96
        4
 40
0.0
 40
0.0
 40
0.0
 40
0.0
 40
1.0
 40
1.0
 40
1.0
 40
1.0
 10
139.40464063
 20
176.699869485
 42
1.0
 10
139.3799979605
 20
177.4055435784
 42
0.9853168299
 10
139.2086090968
 20
178.0905319321
 42
0.9853168299
 10
138.8980236345
 20
178.7246611444
 42
1.0
 72
     1
 10
138.8980234827
 20
178.7246612032
 11
138.7593489399
 21
179.0077956138
 72
     4
 94
        3
 73
     1
 74
     0
 95
        8
 96
        4
 40
0.0
 40
0.0
 40
0.0
 40
0.0
 40
1.0
 40
1.0
 40
1.0
 40
1.0
 10
138.7593490977
 20
179.0077956898
 42
1.0
 10
138.4487623133
 20
179.6419253947
 42
0.985316788
 10
138.2773724656999
 20
180.3269145578
 42
0.985316788
 10
138.2527292153
 20
181.0325896557
 42
1.0
 72
     1
 10
137.9585823829
 20
189.4558490089
 11
138.2527289492
 21
181.0325934346
 72
     4
 94
        3
 73
     1
 74
     0
 95
        8
 96
        4
 40
0.0
 40
0.0
 40
0.0
 40
0.0
 40
1.0
 40
1.0
 40
1.0
 40
1.0
 10
135.7363458121
 20
192.2490676093
 42
1.0
 10
137.0585978185
 20
191.8950261435
 42
0.8692022420999998
 10
137.9108109028
 20
190.8238452127
 42
0.8692022420999998
 10
137.9585823829
 20
189.4558490089
 42
1.0
 72
     4
 94
        3
 73
     1
 74
     0
 95
        8
 96
        4
 40
0.0
 40
0.0
 40
0.0
 40
0.0
 40
1.0
 40
1.0
 40
1.0
 40
1.0
 10
135.7363458121
 20
192.2490676093
 42
1.0
 10
134.4140938058
 20
192.603109075
 42
0.8692022420999998
 10
133.5618807215
 20
193.6742900059
 42
0.8692022420999998
 10
133.5141092414
 20
195.0422862095999
 42
1.0
 72
     1
 10
133.5141092414
 20
195.0422862095999
 11
133.1840083662
 21
204.4951384814
 72
     4
 94
        3
 73
     1
 74
     0
 95
        8
 96
        4
 40
0.0
 40
0.0
 40
0.0
 40
0.0
 40
1.0
 40
1.0
 40
1.0
 40
1.0
 10
130.2381931044
 20
207.3899830768
 42
1.0
 10
131.9231877124
 20
207.3605713865
 42
0.8169162473
 10
133.1251939447
 20
206.1793631518
 42
0.8169162473
 10
133.1840083662
 20
204.4951384814
 42
1.0
 72
     1
 10
130.2381931044
 20
207.3899830768
 11
32.3125216577
 21
209.09928203
 72
     4
 94
        3
 73
     1
 74
     0
 95
        8
 96
        4
 40
0.0
 40
0.0
 40
0.0
 40
0.0
 40
1.0
 40
1.0
 40
1.0
 40
1.0
 10
32.3125216577
 20
209.09928203
 42
1.0
 10
31.1572737649
 20
209.119446957
 42
0.8088336328
 10
30.3474264706
 20
209.9435535509
 42
0.8088336328
 10
30.3474264706
 20
211.0989774204
 42
1.0
 72
     1
 10
30.3474264706
 20
211.0989774204
 11
30.3474264706
 21
212.1681883679
 72
     4
 94
        3
 73
     1
 74
     0
 95
        8
 96
        4
 40
0.0
 40
0.0
 40
0.0
 40
0.0
 40
1.0
 40
1.0
 40
1.0
 40
1.0
 10
30.3474264706
 20
212.1681883679
 42
1.0
 10
30.3474264706
 20
213.3236122374
 42
0.8088336328
 10
31.1572737649
 20
214.1477188312
 42
0.8088336328
 10
32.3125216577
 20
214.1678837582
 42
1.0
 72
     1
 10
32.3125216577
 20
214.1678837582
 11
145.3267199629
 21
216.1405539274
 72
     4
 94
        3
 73
     1
 74
     0
 95
        8
 96
        4
 40
0.0
 40
0.0
 40
0.0
 40
0.0
 40
1.0
 40
1.0
 40
1.0
 40
1.0
 10
145.3267199629
 20
216.1405539274
 42
1.0
 10
145.9190458401
 20
216.1508930141
 42
0.8013725279999999
 10
146.3422560898
 20
215.7363451568
 42
0.8013725279999999
 10
146.3441671661
 20
215.1439321342
 42
1.0
 72
     1
 10
146.3474264706
 20
214.1335828941
 11
146.3441671661
 21
215.1439321342
 72
     1
 10
146.3474264706
 20
209.1162801572
 11
146.3474264706
 21
214.1335828941
 72
     4
 94
        3
 73
     1
 74
     0
 95
        8
 96
        4
 40
0.0
 40
0.0
 40
0.0
 40
0.0
 40
1.0
 40
1.0
 40
1.0
 40
1.0
 10
146.3474264706
 20
209.1162801572
 42
1.0
 10
146.3474264706
 20
208.5385682225
 42
0.8088336328
 10
145.9425028234
 20
208.1265149256
 42
0.8088336328
 10
145.364878877
 20
208.1164324621
 42
1.0
 72
     1
 10
140.3299740642
 20
208.0285478717
 11
145.364878877
 21
208.1164324621
 72
     4
 94
        3
 73
     1
 74
     0
 95
        8
 96
        4
 40
0.0
 40
0.0
 40
0.0
 40
0.0
 40
1.0
 40
1.0
 40
1.0
 40
1.0
 10
139.3474264706
 20
207.0287001765
 42
1.0
 10
139.3474264706
 20
207.6064121112
 42
0.8088336328
 10
139.7523501177
 20
208.0184654082
 42
0.8088336328
 10
140.3299740642
 20
208.0285478717
 42
1.0
 72
     1
 10
139.3474264706
 20
197.9940947027
 11
139.3474264706
 21
207.0287001765
 72
     4
 94
        3
 73
     1
 74
     0
 95
        8
 96
        4
 40
0.0
 40
0.0
 40
0.0
 40
0.0
 40
1.0
 40
1.0
 40
1.0
 40
1.0
 10
140.3299740642
 20
196.9942470076
 42
1.0
 10
139.7523501177
 20
197.0043294711
 42
0.8088336328
 10
139.3474264706
 20
197.416382768
 42
0.8088336328
 10
139.3474264706
 20
197.9940947027
 42
1.0
 72
     1
 10
145.4236760249
 20
196.9053361091
 11
140.3299740642
 21
196.9942470076
 72
     4
 94
        3
 73
     1
 74
     0
 95
        8
 96
        4
 40
0.0
 40
0.0
 40
0.0
 40
0.0
 40
1.0
 40
1.0
 40
1.0
 40
1.0
 10
145.4236760249
 20
196.9053361091
 42
1.0
 10
145.9998147169
 20
196.8952795709
 42
0.8095867034000001
 10
146.4043595652
 20
196.4849377716999
 42
0.8095867034000001
 10
146.4062184153
 20
195.9087143159
 42
1.0
 72
     1
 10
146.5952530323
 20
137.3100224056
 11
146.4062184153
 21
195.9087143159
 72
     4
 94
        3
 73
     1
 74
     0
 95
        8
 96
        4
 40
0.0
 40
0.0
 40
0.0
 40
0.0
 40
1.0
 40
1.0
 40
1.0
 40
1.0
 10
146.8874815695
 20
136.028166821
 42
1.0
 10
146.695703791
 20
136.4302372951
 42
0.9837980176
 10
146.5966900598
 20
136.8645593685
 42
0.9837980176
 10
146.5952530323
 20
137.3100224056
 42
1.0
 72
     1
 10
156.0827290568
 20
116.7499295595
 11
146.8874815695
 21
136.028166821
 72
     4
 94
        3
 73
     1
 74
     0
 95
        8
 96
        4
 40
0.0
 40
0.0
 40
0.0
 40
0.0
 40
1.0
 40
1.0
 40
1.0
 40
1.0
 10
156.9329783849
 20
116.1818111216
 42
1.0
 10
156.5573788788999
 20
116.2014954576
 42
0.906270941
 10
156.2446507201
 20
116.4104537328
 42
0.906270941
 10
156.0827290568
 20
116.7499295595
 42
1.0
 72
     1
 10
171.8997624268
 20
115.397435207
 11
156.9329783849
 21
116.1818111216
 72
     4
 94
        3
 73
     1
 74
     0
 95
        8
 96
        4
 40
0.0
 40
0.0
 40
0.0
 40
0.0
 40
1.0
 40
1.0
 40
1.0
 40
1.0
 10
171.8997624268
 20
115.397435207
 42
1.0
 10
172.460742994
 20
115.3680354612
 42
0.8169162473
 10
172.8474264706
 20
114.9605560988
 42
0.8169162473
 10
172.8474264706
 20
114.3988056722
 42
1.0
 72
     1
 10
172.8474264706
 20
104.330467502
 11
172.8474264706
 21
114.3988056722
 72
     4
 94
        3
 73
     1
 74
     0
 95
        8
 96
        4
 40
0.0
 40
0.0
 40
0.0
 40
0.0
 40
1.0
 40
1.0
 40
1.0
 40
1.0
 10
173.8299740641999
 20
103.3306198069
 42
1.0
 10
173.2523501177
 20
103.3407022704
 42
0.8088336328
 10
172.8474264706
 20
103.7527555673
 42
0.8088336328
 10
172.8474264706
 20
104.330467502
 42
1.0
 72
     1
 10
179.364878877
 20
103.234007684
 11
173.8299740641999
 21
103.3306198069
 72
     4
 94
        3
 73
     1
 74
     0
 95
        8
 96
        4
 40
0.0
 40
0.0
 40
0.0
 40
0.0
 40
1.0
 40
1.0
 40
1.0
 40
1.0
 10
179.364878877
 20
103.234007684
 42
1.0
 10
179.9425028234
 20
103.2239252205
 42
0.8088336328
 10
180.3474264706
 20
102.8118719236
 42
0.8088336328
 10
180.3474264706
 20
102.2341599888
 42
1.0
 72
     1
 10
180.3474264706
 20
98.11700953669999
 11
180.3474264706
 21
102.2341599888
 72
     2
 10
179.3473458079
 20
98.11692003170001
 40
1.000071826899999
 50
270.0049065209
 51
360.0051234105
 73
     1
 72
     1
 10
171.3474303754999
 20
97.116857252
 11
179.3474313815
 21
97.116857252
 72
     2
 10
171.3475148508
 20
96.1167864081
 40
1.0000793393
 50
90.0048465689
 51
180.0046645254
 73
     1
 72
     1
 10
170.3474264706
 20
78.6335828941
 11
170.3474264706
 21
96.11670498590001
 72
     4
 94
        3
 73
     1
 74
     0
 95
        8
 96
        4
 40
0.0
 40
0.0
 40
0.0
 40
0.0
 40
1.0
 40
1.0
 40
1.0
 40
1.0
 10
174.8474264706
 20
74.1335828941
 42
1.0
 10
172.2113875013
 20
74.1335828941
 42
0.8047378541
 10
170.3474264706
 20
75.9975439248
 42
0.8047378541
 10
170.3474264706
 20
78.6335828941
 42
1.0
 72
     1
 10
174.8474264706
 20
74.1335828941
 11
286.3474264706
 21
74.1335828941
 72
     1
 10
286.3474264706
 20
74.1335828941
 11
300.3474264706
 21
74.1335828941
 72
     1
 10
300.3474264706
 20
74.1335828941
 11
365.3474264706
 21
74.1335828941
 72
     1
 10
365.3474264706
 20
74.1335828941
 11
365.3474264706
 21
68.6335828941
 72
     1
 10
300.3474264706
 20
68.6335828941
 11
365.3474264706
 21
68.6335828941
 72
     1
 10
300.3474264706
 20
68.6335828941
 11
268.3474264706
 21
68.6335828941
 97
        0
 92
        1
 93
       52
 72
     1
 10
365.3474264706
 20
126.6335828941
 11
365.3474264706
 21
121.1335828941
 72
     1
 10
300.3474264706
 20
121.1335828941
 11
365.3474264706
 21
121.1335828941
 72
     4
 94
        3
 73
     0
 74
     0
 95
       14
 96
       10
 40
0.0
 40
0.0
 40
0.0
 40
0.0
 40
0.1575936829
 40
0.3152035159
 40
0.4728133489000001
 40
0.630423182
 40
0.788033015
 40
0.9456428479999999
 40
1.0
 40
1.0
 40
1.0
 40
1.0
 10
300.3470381344
 20
121.1335828933
 10
299.0839047371
 20
121.133577738
 10
296.4989302207
 20
121.0832607879
 10
292.4739486144
 20
120.9298993179
 10
288.3260463846
 20
120.7790516607
 10
284.0757264112
 20
120.7176402645
 10
279.7402118623
 20
120.8395888909
 10
276.2983791437
 20
121.1581043662
 10
274.3109918354
 20
121.4603267217
 10
273.8007333763
 20
121.5464892982
 72
     4
 94
        3
 73
     1
 74
     0
 95
        8
 96
        4
 40
0.0
 40
0.0
 40
0.0
 40
0.0
 40
1.0
 40
1.0
 40
1.0
 40
1.0
 10
273.8007333717
 20
121.5464892834
 42
1.0
 10
273.3431772013
 20
121.6237525173
 42
0.8654607064
 10
272.9314162466
 20
121.4097895
 42
0.8654607064
 10
272.7316445913
 20
120.990959531
 42
1.0
 72
     1
 10
272.7316447044
 20
120.9909594766
 11
265.6042786196
 21
106.0481257333
 72
     2
 10
264.7058484447
 20
106.4762102726
 40
0.9951903058999999
 50
272.9765572419
 51
334.5231068077
 73
     1
 72
     1
 10
264.7575268648
 20
105.4823469677
 11
256.7991339461
 21
105.0652652682
 72
     2
 10
256.8520372655
 20
104.0647977216
 40
1.001878342899999
 50
93.02690147419999
 51
179.9731538073
 73
     1
 72
     1
 10
255.8501711626
 20
104.0652671464
 11
255.8501711626
 21
98.11426899510001
 72
     4
 94
        3
 73
     0
 74
     0
 95
       15
 96
       11
 40
0.0
 40
0.0
 40
0.0
 40
0.0
 40
0.125
 40
0.25
 40
0.375
 40
0.5
 40
0.625
 40
0.75
 40
0.875
 40
1.0
 40
1.0
 40
1.0
 40
1.0
 10
255.850162809
 20
98.1142689952
 10
255.8501713693
 20
98.04817633040002
 10
255.8373203421
 20
97.91895263850001
 10
255.7802437662
 20
97.7305812522
 10
255.6880218048
 20
97.55793156420001
 10
255.5622836153
 20
97.4045379954
 10
255.408301652
 20
97.27883682499999
 10
255.2350050425
 20
97.18667008410001
 10
255.0456209885
 20
97.12947522410001
 10
254.9154380857
 20
97.1165511665
 10
254.8487980524
 20
97.1165602377
 72
     1
 10
254.8487980525
 20
97.11655259590001
 11
241.3474264572
 21
97.11655259590001
 72
     4
 94
        3
 73
     1
 74
     0
 95
        8
 96
        4
 40
0.0
 40
0.0
 40
0.0
 40
0.0
 40
1.0
 40
1.0
 40
1.0
 40
1.0
 10
241.3474264053
 20
97.1165526064
 42
1.0
 10
240.7616400579
 20
97.11655264459999
 42
0.8047379015
 10
240.3474265448
 20
97.53076612860001
 42
0.8047379015
 10
240.3474264652
 20
98.11655247590001
 42
1.0
 72
     1
 10
240.3474264706
 20
98.11655259590001
 11
240.3474264706
 21
102.2341599888
 72
     4
 94
        3
 73
     1
 74
     0
 95
        8
 96
        4
 40
0.0
 40
0.0
 40
0.0
 40
0.0
 40
1.0
 40
1.0
 40
1.0
 40
1.0
 10
241.3299740642
 20
103.234007684
 42
1.0
 10
240.7523501177
 20
103.2239252205
 42
0.8088336328
 10
240.3474264706
 20
102.8118719236
 42
0.8088336328
 10
240.3474264706
 20
102.2341599888
 42
1.0
 72
     1
 10
241.3299740642
 20
103.234007684
 11
246.864878877
 21
103.3306198069
 72
     4
 94
        3
 73
     1
 74
     0
 95
        8
 96
        4
 40
0.0
 40
0.0
 40
0.0
 40
0.0
 40
1.0
 40
1.0
 40
1.0
 40
1.0
 10
246.864878877
 20
103.3306198069
 42
1.0
 10
247.4425028234
 20
103.3407022704
 42
0.8088336328
 10
247.8474264706
 20
103.7527555673
 42
0.8088336328
 10
247.8474264706
 20
104.330467502
 42
1.0
 72
     1
 10
247.8474264706
 20
104.330467502
 11
247.8474264706
 21
114.3988056722
 72
     4
 94
        3
 73
     1
 74
     0
 95
        8
 96
        4
 40
0.0
 40
0.0
 40
0.0
 40
0.0
 40
1.0
 40
1.0
 40
1.0
 40
1.0
 10
248.7950905143
 20
115.397435207
 42
1.0
 10
248.2341099472
 20
115.3680354612
 42
0.8169162473
 10
247.8474264706
 20
114.9605560988
 42
0.8169162473
 10
247.8474264706
 20
114.3988056722
 42
1.0
 72
     1
 10
248.7950905143
 20
115.397435207
 11
263.7618745563
 21
116.1818111216
 72
     4
 94
        3
 73
     1
 74
     0
 95
        8
 96
        4
 40
0.0
 40
0.0
 40
0.0
 40
0.0
 40
1.0
 40
1.0
 40
1.0
 40
1.0
 10
263.7618745563
 20
116.1818111216
 42
1.0
 10
264.1374740623
 20
116.2014954576
 42
0.906270941
 10
264.4502022211
 20
116.4104537328
 42
0.906270941
 10
264.6121238844
 20
116.7499295595
 42
1.0
 72
     1
 10
264.6121238844
 20
116.7499295595
 11
273.8073713716
 21
136.028166821
 72
     4
 94
        3
 73
     1
 74
     0
 95
        8
 96
        4
 40
0.0
 40
0.0
 40
0.0
 40
0.0
 40
1.0
 40
1.0
 40
1.0
 40
1.0
 10
273.8073713716
 20
136.028166821
 42
1.0
 10
273.9991491502
 20
136.4302372951
 42
0.9837980176
 10
274.0981628813
 20
136.8645593685
 42
0.9837980176
 10
274.0995999089
 20
137.3100224056
 42
1.0
 72
     1
 10
274.0995999089
 20
137.3100224056
 11
274.2886345259
 21
195.9087143159
 72
     4
 94
        3
 73
     1
 74
     0
 95
        8
 96
        4
 40
0.0
 40
0.0
 40
0.0
 40
0.0
 40
1.0
 40
1.0
 40
1.0
 40
1.0
 10
275.2711769163
 20
196.9053361091
 42
1.0
 10
274.6950382243
 20
196.8952795709
 42
0.8095867034000001
 10
274.290493376
 20
196.4849377716999
 42
0.8095867034000001
 10
274.2886345259
 20
195.9087143159
 42
1.0
 72
     1
 10
275.2711769162
 20
196.9053361091
 11
280.364878877
 21
196.9942470076
 72
     4
 94
        3
 73
     1
 74
     0
 95
        8
 96
        4
 40
0.0
 40
0.0
 40
0.0
 40
0.0
 40
1.0
 40
1.0
 40
1.0
 40
1.0
 10
280.364878877
 20
196.9942470076
 42
1.0
 10
280.9425028234
 20
197.0043294711
 42
0.8088336328
 10
281.3474264706
 20
197.416382768
 42
0.8088336328
 10
281.3474264706
 20
197.9940947027
 42
1.0
 72
     1
 10
281.3474264706
 20
197.9940947027
 11
281.3474264706
 21
207.0287001765
 72
     4
 94
        3
 73
     1
 74
     0
 95
        8
 96
        4
 40
0.0
 40
0.0
 40
0.0
 40
0.0
 40
1.0
 40
1.0
 40
1.0
 40
1.0
 10
281.3474264706
 20
207.0287001765
 42
1.0
 10
281.3474264706
 20
207.6064121112
 42
0.8088336328
 10
280.9425028234
 20
208.0184654082
 42
0.8088336328
 10
280.364878877
 20
208.0285478717
 42
1.0
 72
     1
 10
280.364878877
 20
208.0285478717
 11
275.3299740642
 21
208.1164324621
 72
     4
 94
        3
 73
     1
 74
     0
 95
        8
 96
        4
 40
0.0
 40
0.0
 40
0.0
 40
0.0
 40
1.0
 40
1.0
 40
1.0
 40
1.0
 10
274.3474264706
 20
209.1162801572
 42
1.0
 10
274.3474264706
 20
208.5385682225
 42
0.8088336328
 10
274.7523501177
 20
208.1265149256
 42
0.8088336328
 10
275.3299740642
 20
208.1164324621
 42
1.0
 72
     1
 10
274.3474264706
 20
209.1162801572
 11
274.3474264706
 21
214.1335828941
 72
     1
 10
274.3474264706
 20
214.1335828941
 11
274.3506857751
 21
215.1439321342
 72
     4
 94
        3
 73
     1
 74
     0
 95
        8
 96
        4
 40
0.0
 40
0.0
 40
0.0
 40
0.0
 40
1.0
 40
1.0
 40
1.0
 40
1.0
 10
275.3681329783
 20
216.1405539274
 42
1.0
 10
274.7758071011
 20
216.1508930141
 42
0.8013725279999999
 10
274.3525968514
 20
215.7363451568
 42
0.8013725279999999
 10
274.3506857751
 20
215.1439321342
 42
1.0
 72
     1
 10
388.3823312835
 20
214.1678837582
 11
275.3681329783
 21
216.1405539274
 72
     4
 94
        3
 73
     1
 74
     0
 95
        8
 96
        4
 40
0.0
 40
0.0
 40
0.0
 40
0.0
 40
1.0
 40
1.0
 40
1.0
 40
1.0
 10
390.3474264706
 20
212.1681883679
 42
1.0
 10
390.3474264705999
 20
213.3236122374
 42
0.8088336328
 10
389.5375791762999
 20
214.1477188312
 42
0.8088336328
 10
388.3823312835
 20
214.1678837582
 42
1.0
 72
     1
 10
390.3474264706
 20
211.0989774204
 11
390.3474264706
 21
212.1681883679
 72
     4
 94
        3
 73
     1
 74
     0
 95
        8
 96
        4
 40
0.0
 40
0.0
 40
0.0
 40
0.0
 40
1.0
 40
1.0
 40
1.0
 40
1.0
 10
388.3823312835
 20
209.09928203
 42
1.0
 10
389.5375791762999
 20
209.119446957
 42
0.8088336328
 10
390.3474264705999
 20
209.9435535509
 42
0.8088336328
 10
390.3474264706
 20
211.0989774204
 42
1.0
 72
     1
 10
290.4566598367
 20
207.3899830768
 11
388.3823312835
 21
209.09928203
 72
     4
 94
        3
 73
     1
 74
     0
 95
        8
 96
        4
 40
0.0
 40
0.0
 40
0.0
 40
0.0
 40
1.0
 40
1.0
 40
1.0
 40
1.0
 10
290.4566598367
 20
207.3899830768
 42
1.0
 10
288.7716652288
 20
207.3605713865
 42
0.8169162473
 10
287.5696589965
 20
206.1793631518
 42
0.8169162473
 10
287.510844575
 20
204.4951384814
 42
1.0
 72
     1
 10
287.1807436998
 20
195.0422862095999
 11
287.510844575
 21
204.4951384814
 72
     4
 94
        3
 73
     1
 74
     0
 95
        8
 96
        4
 40
0.0
 40
0.0
 40
0.0
 40
0.0
 40
1.0
 40
1.0
 40
1.0
 40
1.0
 10
284.958507129
 20
192.2490676093
 42
1.0
 10
286.2807591354
 20
192.603109075
 42
0.8692022420999998
 10
287.1329722197
 20
193.6742900059
 42
0.8692022420999998
 10
287.1807436998
 20
195.0422862095999
 42
1.0
 72
     4
 94
        3
 73
     1
 74
     0
 95
        8
 96
        4
 40
0.0
 40
0.0
 40
0.0
 40
0.0
 40
1.0
 40
1.0
 40
1.0
 40
1.0
 10
284.958507129
 20
192.2490676093
 42
1.0
 10
283.6362551227
 20
191.8950261435
 42
0.8692022420999998
 10
282.7840420384
 20
190.8238452127
 42
0.8692022420999998
 10
282.7362705583
 20
189.4558490089
 42
1.0
 72
     1
 10
282.7362705583
 20
189.4558490089
 11
282.4421248656
 21
181.0326184517
 72
     4
 94
        3
 73
     1
 74
     0
 95
        8
 96
        4
 40
0.0
 40
0.0
 40
0.0
 40
0.0
 40
1.0
 40
1.0
 40
1.0
 40
1.0
 10
282.4421245221
 20
181.0326150627
 42
1.0
 10
282.4174818302
 20
180.3269399982
 42
0.9853167902999999
 10
282.2460925474
 20
179.6419507482
 42
0.9853167902999999
 10
281.935506308
 20
179.007820835
 42
1.0
 72
     1
 10
281.9355064292
 20
179.0078207771
 11
281.7968330346
 21
178.72468866
 72
     4
 94
        3
 73
     1
 74
     0
 95
        8
 96
        4
 40
0.0
 40
0.0
 40
0.0
 40
0.0
 40
1.0
 40
1.0
 40
1.0
 40
1.0
 10
281.7968343277
 20
178.7246916354
 42
1.0
 10
281.4862467769
 20
178.090561393
 42
0.9853167544999999
 10
281.3148564564
 20
177.4055715031
 42
0.9853167544999999
 10
281.2902130649
 20
176.69989559
 42
1.0
 72
     1
 10
281.2902133048
 20
176.6998955827
 11
279.8892494696
 21
136.5815403602
 72
     4
 94
        3
 73
     1
 74
     0
 95
        8
 96
        4
 40
0.0
 40
0.0
 40
0.0
 40
0.0
 40
1.0
 40
1.0
 40
1.0
 40
1.0
 10
279.8892494696
 20
136.5815403602
 42
1.0
 10
279.8748341023
 20
136.1687382486
 42
0.986030315
 10
279.7766570572
 20
135.7675217808
 42
0.986030315
 10
279.5988328416
 20
135.3947055599
 42
1.0
 72
     1
 10
279.5988328416
 20
135.3947055599
 11
277.347564236
 21
130.6748227749
 72
     4
 94
        3
 73
     1
 74
     0
 95
        8
 96
        4
 40
0.0
 40
0.0
 40
0.0
 40
0.0
 40
1.0
 40
1.0
 40
1.0
 40
1.0
 10
277.3475641919
 20
130.6748227925
 42
1.0
 10
276.3385930714
 20
128.5594726715
 42
0.7068498311
 10
277.5254509905
 20
126.5385577459
 42
0.7068498311
 10
279.8643551505
 20
126.3893726713
 42
1.0
 72
     4
 94
        3
 73
     0
 74
     0
 95
        8
 96
        4
 40
0.0
 40
0.0
 40
0.0
 40
0.0
 40
1.0
 40
1.0
 40
1.0
 40
1.0
 10
279.8643550392
 20
126.3893735956
 10
286.6192149772
 20
125.9585194605
 10
293.6020571205
 20
126.6335738926
 10
300.3472915554
 20
126.633582894
 72
     1
 10
300.3474264706
 20
126.6335828941
 11
365.3474264706
 21
126.6335828941
 97
        0
 75
     0
 76
     0
 52
45.0
 41
5.0
 77
     0
 78
     1
 53
45.0
 43
0.0
 44
0.0
 45
-3.535533905899999
 46
3.535533905899999
 79
     0
 98
        1
 10
0.0
 20
0.0
  0
DIMENSION
  5
253
330
215
100
AcDbEntity
  8
ZEICHNUNGSBEMASSUNGEN
  6
Continuous
 62
     7
100
AcDbDimension
  2
*D1
 10
365.3474264706
 20
56.64642755388502
 30
0.0
 11
284.3474264706
 21
56.64642755388502
 31
0.0
 70
   160
 71
     2
 42
155.0
  3
DIMSTYLE_2
100
AcDbAlignedDimension
 13
210.3474264706
 23
64.01357786910001
 33
0.0
 14
365.3474264706
 24
67.1335828941
 34
0.0
100
AcDbRotatedDimension
1001
ACAD
1000
DSTYLE
1002
{
1070
    41
1040
5.0
1070
   140
1040
7.0
1070
   147
1040
1.5
1070
   178
1070
   256
1002
}
  0
DIMENSION
  5
254
330
215
100
AcDbEntity
  8
ZEICHNUNGSBEMASSUNGEN
  6
Continuous
 62
     7
100
AcDbDimension
  2
*D2
 10
400.2428405613001
 20
216.1405539855
 30
0.0
 11
400.2428405613
 21
151.858337207
 31
0.0
 70
   160
 71
     2
 42
118.5069710913999
  3
DIMSTYLE_2
100
AcDbAlignedDimension
 13
369.8474264706
 23
97.6335828941
 33
0.0
 14
276.8681296527
 24
216.1405539855
 34
0.0
 50
90.0
100
AcDbRotatedDimension
1001
ACAD_DSTYLE_DIMINSPECT
1070
   396
1000
100%
1070
   395
1000

1070
   394
1070
    33
1070
   393
1070
     0
1001
ACAD
1000
DSTYLE
1002
{
1070
    41
1040
5.0
1070
   140
1040
7.0
1070
   147
1040
1.5
1070
   178
1070
   256
1070
   271
1070
     0
1002
}
  0
DIMENSION
  5
255
330
215
100
AcDbEntity
  8
ZEICHNUNGSBEMASSUNGEN
  6
Continuous
 62
     7
100
AcDbDimension
  2
*D3
 10
390.3474264706
 20
260.4090757956768
 30
0.0
 11
207.1807598039
 21
260.4090757956768
 31
0.0
 70
   160
  1
%%c<>
 71
     2
 42
360.0
  3
DIMSTYLE_2
100
AcDbAlignedDimension
 13
30.3474264706
 23
213.6681883679
 33
0.0
 14
390.3474264706
 24
213.6681883679
 34
0.0
100
AcDbRotatedDimension
1001
ACAD
1000
DSTYLE
1002
{
1070
    41
1040
5.0
1070
   140
1040
7.0
1070
   147
1040
1.5
1070
   178
1070
   256
1002
}
  0
DIMENSION
  5
256
330
215
100
AcDbEntity
  8
ZEICHNUNGSBEMASSUNGEN
  6
Continuous
 62
     7
100
AcDbDimension
  2
*D4
 10
20.41086816740001
 20
68.63358289410006
 30
0.0
 11
20.4108681674
 21
137.0230884589
 31
0.0
 70
   160
 71
     2
 42
147.5069710927
  3
DIMSTYLE_2
100
AcDbAlignedDimension
 13
143.8267233655
 23
216.1405539868
 33
0.0
 14
173.3474264706
 24
68.6335828941
 34
0.0
 50
270.0
100
AcDbRotatedDimension
1001
ACAD_DSTYLE_DIMINSPECT
1070
   396
1000
100%
1070
   395
1000

1070
   394
1070
    33
1070
   393
1070
     0
1001
ACAD
1000
DSTYLE
1002
{
1070
    41
1040
5.0
1070
   140
1040
7.0
1070
   147
1040
1.5
1070
   178
1070
   256
1070
   271
1070
     0
1002
}
  0
DIMENSION
  5
257
330
215
100
AcDbEntity
  8
ZEICHNUNGSBEMASSUNGEN
  6
Continuous
 62
     7
100
AcDbDimension
  2
*D5
 10
287.6101997323
 20
248.6348003164
 30
0.0
 11
207.4307598039
 21
248.6348003164
 31
0.0
 70
   160
  1
%%c<>
 71
     2
 42
154.5255465233999
  3
DIMSTYLE_2
100
AcDbAlignedDimension
 13
133.0846532089
 23
208.8402979309
 33
0.0
 14
287.6101997323
 24
208.8402979309
 34
0.0
100
AcDbRotatedDimension
1001
ACAD_DSTYLE_DIMINSPECT
1070
   396
1000
100%
1070
   395
1000

1070
   394
1070
    33
1070
   393
1070
     0
1001
ACAD
1000
DSTYLE
1002
{
1070
    41
1040
5.0
1070
   140
1040
7.0
1070
   147
1040
1.5
1070
   178
1070
   256
1070
   271
1070
     0
1002
}
  0
LINE
  5
259
330
215
100
AcDbEntity
  8
0
  6
Continuous
 62
     7
100
AcDbLine
 10
30.3474264706
 20
211.0989774204
 30
0.0
 11
30.3474264706
 21
212.1681883679
 31
0.0
  0
LINE
  5
25A
330
215
100
AcDbEntity
  8
0
  6
Continuous
 62
     7
100
AcDbLine
 10
174.8474264706
 20
68.6335828941
 30
0.0
 11
268.3474264706
 21
68.6335828941
 31
0.0
  0
LINE
  5
25B
330
215
100
AcDbEntity
  8
0
  6
Continuous
 62
     7
100
AcDbLine
 10
300.3474264706
 20
68.6335828941
 30
0.0
 11
365.3474264706
 21
68.6335828941
 31
0.0
  0
LINE
  5
25C
330
215
100
AcDbEntity
  8
0
  6
Continuous
 62
     7
100
AcDbLine
 10
174.8474264706
 20
74.1335828941
 30
0.0
 11
365.3474264706
 21
74.1335828941
 31
0.0
  0
LINE
  5
25D
330
215
100
AcDbEntity
  8
0
  6
Continuous
 62
     7
100
AcDbLine
 10
133.5141092414
 20
195.0422862095999
 30
0.0
 11
133.1840083662
 21
204.4951384814
 31
0.0
  0
LINE
  5
25E
330
215
100
AcDbEntity
  8
0
  6
Continuous
 62
     7
100
AcDbLine
 10
137.9585823829
 20
189.4558490089
 30
0.0
 11
138.2527289492
 21
181.0325934346
 31
0.0
  0
LINE
  5
25F
330
215
100
AcDbEntity
  8
0
  6
Continuous
 62
     7
100
AcDbLine
 10
139.4046408013
 20
176.6998622262
 30
0.0
 11
140.8056034715
 21
136.5815403602
 31
0.0
  0
LINE
  5
260
330
215
100
AcDbEntity
  8
0
  6
Continuous
 62
     7
100
AcDbLine
 10
139.3474264706
 20
197.9940947027
 30
0.0
 11
139.3474264706
 21
207.0287001765
 31
0.0
  0
LINE
  5
264
330
215
100
AcDbEntity
  8
0
  6
Continuous
 62
     7
100
AcDbLine
 10
141.0960200995
 20
135.3947055599
 30
0.0
 11
154.5790449075
 21
107.1269562025
 31
0.0
  0
LINE
  5
265
330
215
100
AcDbEntity
  8
0
  6
Continuous
 62
     7
100
AcDbLine
 10
146.5952530323
 20
137.3100224056
 30
0.0
 11
146.4062184153
 21
195.9087143159
 31
0.0
  0
LINE
  5
266
330
215
100
AcDbEntity
  8
0
  6
Continuous
 62
     7
100
AcDbLine
 10
146.3474264706
 20
214.1335828941
 30
0.0
 11
146.3441671661
 21
215.1439321342
 31
0.0
  0
LINE
  5
267
330
215
100
AcDbEntity
  8
0
  6
Continuous
 62
     7
100
AcDbLine
 10
146.3474264706
 20
209.1162801572
 30
0.0
 11
146.3474264706
 21
214.1335828941
 31
0.0
  0
LINE
  5
268
330
215
100
AcDbEntity
  8
RUNDUNGEN
  6
Continuous
 62
     9
100
AcDbLine
 10
210.3474264706
 20
95.43595739169999
 30
0.0
 11
230.3473883059
 21
95.43595739169999
 31
0.0
  0
LINE
  5
269
330
215
100
AcDbEntity
  8
RUNDUNGEN
  6
Continuous
 62
     9
100
AcDbLine
 10
210.3474264706
 20
96.4358050869
 30
0.0
 11
230.3473883059
 21
96.4358050869
 31
0.0
  0
LINE
  5
26A
330
215
100
AcDbEntity
  8
0
  6
Continuous
 62
     7
100
AcDbLine
 10
254.8487980525
 20
97.11655259590001
 30
0.0
 11
241.3474264572
 21
97.11655259590001
 31
0.0
  0
LINE
  5
26B
330
215
100
AcDbEntity
  8
0
  6
Continuous
 62
     7
100
AcDbLine
 10
171.3474303754999
 20
97.116857252
 30
0.0
 11
179.3474313815
 21
97.116857252
 31
0.0
  0
LINE
  5
26C
330
215
100
AcDbEntity
  8
0
  6
CENTER
100
AcDbLine
 10
368.3474264706
 20
97.6335828941
 30
0.0
 11
210.3474264706
 21
97.6335828941
 31
0.0
  0
LINE
  5
26D
330
215
100
AcDbEntity
  8
RUNDUNGEN
  6
Continuous
 62
     9
100
AcDbLine
 10
258.8809855149
 20
97.4831758224
 30
0.0
 11
257.744802279
 21
97.4841513606
 31
0.0
  0
LINE
  5
26E
330
215
100
AcDbEntity
  8
0
  6
Continuous
 62
     7
100
AcDbLine
 10
138.8980234827
 20
178.7246612032
 30
0.0
 11
138.7593489399
 21
179.0077956138
 31
0.0
  0
LINE
  5
26F
330
215
100
AcDbEntity
  8
0
  6
Continuous
 62
     7
100
AcDbLine
 10
156.0827290568
 20
116.7499295595
 30
0.0
 11
146.8874815695
 21
136.028166821
 31
0.0
  0
LINE
  5
270
330
215
100
AcDbEntity
  8
0
  6
Continuous
 62
     7
100
AcDbLine
 10
164.8474264706
 20
78.6335828941
 30
0.0
 11
164.8474264706
 21
102.1712431514
 31
0.0
  0
LINE
  5
271
330
215
100
AcDbEntity
  8
0
  6
Continuous
 62
     7
100
AcDbLine
 10
170.3474264706
 20
78.6335828941
 30
0.0
 11
170.3474264706
 21
96.11670498590001
 31
0.0
  0
LINE
  5
272
330
215
100
AcDbEntity
  8
0
  6
Continuous
 62
     7
100
AcDbLine
 10
264.7575268648
 20
105.4823469677
 30
0.0
 11
256.7991339461
 21
105.0652652682
 31
0.0
  0
LINE
  5
273
330
215
100
AcDbEntity
  8
0
  6
Continuous
 62
     7
100
AcDbLine
 10
248.7950905143
 20
115.397435207
 30
0.0
 11
263.7618745563
 21
116.1818111216
 31
0.0
  0
LINE
  5
274
330
215
100
AcDbEntity
  8
0
  6
Continuous
 62
     7
100
AcDbLine
 10
241.3299740642
 20
103.234007684
 30
0.0
 11
246.864878877
 21
103.3306198069
 31
0.0
  0
LINE
  5
275
330
215
100
AcDbEntity
  8
0
  6
Continuous
 62
     9
100
AcDbLine
 10
180.3474264706
 20
102.2341599888
 30
0.0
 11
240.3474264706
 21
102.2341599888
 31
0.0
  0
LINE
  5
276
330
215
100
AcDbEntity
  8
0
  6
Continuous
 62
     9
100
AcDbLine
 10
179.364878877
 20
103.234007684
 30
0.0
 11
241.3299740642
 21
103.234007684
 31
0.0
  0
LINE
  5
277
330
215
100
AcDbEntity
  8
0
  6
Continuous
 62
     9
100
AcDbLine
 10
173.8299740641999
 20
103.3306198069
 30
0.0
 11
246.864878877
 21
103.3306198069
 31
0.0
  0
LINE
  5
278
330
215
100
AcDbEntity
  8
0
  6
Continuous
 62
     9
100
AcDbLine
 10
172.8474264706
 20
104.330467502
 30
0.0
 11
247.8474264706
 21
104.330467502
 31
0.0
  0
LINE
  5
279
330
215
100
AcDbEntity
  8
RUNDUNGEN
  6
Continuous
 62
     9
100
AcDbLine
 10
258.8821067977999
 20
102.2691564878
 30
0.0
 11
257.745010599
 21
102.2697327075
 31
0.0
  0
LINE
  5
27A
330
215
100
AcDbEntity
  8
0
  6
Continuous
 62
     7
100
AcDbLine
 10
179.364878877
 20
103.234007684
 30
0.0
 11
173.8299740641999
 21
103.3306198069
 31
0.0
  0
LINE
  5
27B
330
215
100
AcDbEntity
  8
0
  6
Continuous
 62
     7
100
AcDbLine
 10
157.1297928918
 20
105.4226008887
 30
0.0
 11
162.0044343393
 21
105.1671317556
 31
0.0
  0
LINE
  5
27C
330
215
100
AcDbEntity
  8
0
  6
Continuous
 62
     7
100
AcDbLine
 10
171.8997624268
 20
115.397435207
 30
0.0
 11
156.9329783849
 21
116.1818111216
 31
0.0
  0
LINE
  5
27D
330
215
100
AcDbEntity
  8
RUNDUNGEN
  6
Continuous
 62
     9
100
AcDbLine
 10
256.7569714349001
 20
96.48070702680001
 30
0.0
 11
254.8487980502
 21
97.1162479862
 31
0.0
  0
LINE
  5
27E
330
215
100
AcDbEntity
  8
0
  6
Continuous
 62
     7
100
AcDbLine
 10
172.8474264706
 20
104.330467502
 30
0.0
 11
172.8474264706
 21
114.3988056722
 31
0.0
  0
LINE
  5
27F
330
215
100
AcDbEntity
  8
0
  6
Continuous
 62
     7
100
AcDbLine
 10
180.3474264706
 20
98.11700953669999
 30
0.0
 11
180.3474264706
 21
102.2341599888
 31
0.0
  0
LINE
  5
280
330
215
100
AcDbEntity
  8
0
  6
Continuous
 62
     9
100
AcDbLine
 10
247.8474264706
 20
114.3988056722
 30
0.0
 11
172.8474264706
 21
114.3988056722
 31
0.0
  0
LINE
  5
281
330
215
100
AcDbEntity
  8
0
  6
Continuous
 62
     9
100
AcDbLine
 10
248.7950905143
 20
115.397435207
 30
0.0
 11
171.8997624268
 21
115.397435207
 31
0.0
  0
LINE
  5
282
330
215
100
AcDbEntity
  8
RUNDUNGEN
  6
Continuous
 62
     9
100
AcDbLine
 10
199.2400539523
 20
115.8199789413
 30
0.0
 11
221.4547989888
 21
115.8199789413
 31
0.0
  0
LINE
  5
283
330
215
100
AcDbEntity
  8
0
  6
Continuous
 62
     9
100
AcDbLine
 10
156.9329783849
 20
116.1818111216
 30
0.0
 11
195.558304556
 21
116.1818111217
 31
0.0
  0
LINE
  5
284
330
215
100
AcDbEntity
  8
0
  6
Continuous
 62
     9
100
AcDbLine
 10
225.1365483852
 20
116.1818111217
 30
0.0
 11
263.7618745563
 21
116.1818111216
 31
0.0
  0
LINE
  5
285
330
215
100
AcDbEntity
  8
RUNDUNGEN
  6
Continuous
 62
     9
100
AcDbLine
 10
199.0181407995
 20
116.6277994806
 30
0.0
 11
221.6767121674
 21
116.6277994806
 31
0.0
  0
LINE
  5
286
330
215
100
AcDbEntity
  8
0
  6
Continuous
 62
     9
100
AcDbLine
 10
156.0827290568
 20
116.7499295595
 30
0.0
 11
195.3228918275
 21
116.7499295594
 31
0.0
  0
LINE
  5
287
330
215
100
AcDbEntity
  8
0
  6
Continuous
 62
     9
100
AcDbLine
 10
225.3719643438
 20
116.7499295594
 30
0.0
 11
264.6121238844
 21
116.7499295595
 31
0.0
  0
LINE
  5
288
330
215
100
AcDbEntity
  8
0
  6
Continuous
 62
     7
100
AcDbLine
 10
300.3474264706
 20
121.1335828941
 30
0.0
 11
365.3474264706
 21
121.1335828941
 31
0.0
  0
LINE
  5
289
330
215
100
AcDbEntity
  8
0
  6
Continuous
 62
     7
100
AcDbLine
 10
300.3474264706
 20
126.6335828941
 30
0.0
 11
365.3474264706
 21
126.6335828941
 31
0.0
  0
LINE
  5
28A
330
215
100
AcDbEntity
  8
RUNDUNGEN
  6
Continuous
 62
     9
100
AcDbLine
 10
257.744802279
 20
97.4841513606
 30
0.0
 11
255.8529120931
 21
98.11426899750001
 31
0.0
  0
LINE
  5
28B
330
215
100
AcDbEntity
  8
RUNDUNGEN
  6
Continuous
 62
     9
100
AcDbLine
 10
192.8679265936
 20
137.3100224056
 30
0.0
 11
192.8610193045999
 21
145.5896852745
 31
0.0
  0
LINE
  5
28C
330
215
100
AcDbEntity
  8
RUNDUNGEN
  6
Continuous
 62
     9
100
AcDbLine
 10
194.1027887141
 20
143.5898278366
 30
0.0
 11
194.108029879
 21
137.3132483076
 31
0.0
  0
LINE
  5
28D
330
215
100
AcDbEntity
  8
RUNDUNGEN
  6
Continuous
 62
     9
100
AcDbLine
 10
195.4171884517
 20
209.1162801572
 30
0.0
 11
195.4171884517
 21
214.1335828941
 31
0.0
  0
LINE
  5
28E
330
215
100
AcDbEntity
  8
RUNDUNGEN
  6
Continuous
 62
     9
100
AcDbLine
 10
196.1498293089
 20
209.1162810551
 30
0.0
 11
196.1498293089
 21
214.1319699627
 31
0.0
  0
LINE
  5
28F
330
215
100
AcDbEntity
  8
RUNDUNGEN
  6
Continuous
 62
     9
100
AcDbLine
 10
197.8526955381
 20
209.0141300459
 30
0.0
 11
197.8527100282
 21
215.0386129392
 31
0.0
  0
LINE
  5
290
330
215
100
AcDbEntity
  8
RUNDUNGEN
  6
Continuous
 62
     9
100
AcDbLine
 10
198.5740044273
 20
138.6162801572
 30
0.0
 11
198.5740044273
 21
142.6846183273999
 31
0.0
  0
LINE
  5
291
330
215
100
AcDbEntity
  8
RUNDUNGEN
  6
Continuous
 62
     9
100
AcDbLine
 10
198.6539241486
 20
209.0141309509
 30
0.0
 11
198.6538800825
 21
215.0185775783
 31
0.0
  0
LINE
  5
292
330
215
100
AcDbEntity
  8
RUNDUNGEN
  6
Continuous
 62
     9
100
AcDbLine
 10
195.3971481623
 20
192.4455806283
 30
0.0
 11
195.4003480969
 21
195.9087143159
 31
0.0
  0
LINE
  5
293
330
215
100
AcDbEntity
  8
RUNDUNGEN
  6
Continuous
 62
     9
100
AcDbLine
 10
195.4171857478
 20
214.1335828941
 30
0.0
 11
195.4181190851
 21
215.1439321342
 31
0.0
  0
LINE
  5
294
330
215
100
AcDbEntity
  8
RUNDUNGEN
  6
Continuous
 62
     9
100
AcDbLine
 10
196.1498293089
 20
214.1319699627
 30
0.0
 11
196.1507875763
 21
215.1407062323
 31
0.0
  0
LINE
  5
295
330
215
100
AcDbEntity
  8
0
  6
Continuous
 62
     9
100
AcDbLine
 10
273.8073713716
 20
136.028166821
 30
0.0
 11
227.7498325006
 21
136.0281668226
 31
0.0
  0
LINE
  5
296
330
215
100
AcDbEntity
  8
0
  6
Continuous
 62
     9
100
AcDbLine
 10
192.9450204406
 20
136.0281668226
 30
0.0
 11
146.8874815695
 21
136.028166821
 31
0.0
  0
LINE
  5
297
330
215
100
AcDbEntity
  8
RUNDUNGEN
  6
Continuous
 62
     9
100
AcDbLine
 10
198.0640935846
 20
136.3415583266
 30
0.0
 11
222.6307593569
 21
136.3415583266
 31
0.0
  0
LINE
  5
298
330
215
100
AcDbEntity
  8
0
  6
Continuous
 62
     9
100
AcDbLine
 10
146.5952530323
 20
137.3100224056
 30
0.0
 11
192.8679265936
 21
137.3100224056
 31
0.0
  0
LINE
  5
299
330
215
100
AcDbEntity
  8
0
  6
Continuous
 62
     9
100
AcDbLine
 10
227.8269263476
 20
137.3100224056
 30
0.0
 11
274.0995999089
 21
137.3100224056
 31
0.0
  0
LINE
  5
29A
330
215
100
AcDbEntity
  8
RUNDUNGEN
  6
Continuous
 62
     9
100
AcDbLine
 10
198.2950676952
 20
137.5322150171
 30
0.0
 11
222.399785246
 21
137.5322150171
 31
0.0
  0
LINE
  5
29B
330
215
100
AcDbEntity
  8
RUNDUNGEN
  6
Continuous
 62
     9
100
AcDbLine
 10
221.1507772631
 20
137.6164324621
 30
0.0
 11
199.5440756781
 21
137.6164324621
 31
0.0
  0
LINE
  5
29C
330
215
100
AcDbEntity
  8
RUNDUNGEN
  6
Continuous
 62
     9
100
AcDbLine
 10
222.1208485139
 20
138.6162801572
 30
0.0
 11
198.5740044273
 21
138.6162801572
 31
0.0
  0
LINE
  5
29D
330
215
100
AcDbEntity
  8
RUNDUNGEN
  6
Continuous
 62
     9
100
AcDbLine
 10
199.777457643
 20
138.6162801572
 30
0.0
 11
199.777457643
 21
142.6846183273999
 31
0.0
  0
LINE
  5
29E
330
215
100
AcDbEntity
  8
0
  6
Continuous
 62
     7
100
AcDbLine
 10
202.3474264706
 20
217.5098003164
 30
0.0
 11
202.3474264706
 21
216.0185775783
 31
0.0
  0
LINE
  5
29F
330
215
100
AcDbEntity
  8
0
  6
Continuous
 62
     7
100
AcDbLine
 10
202.3474264706
 20
218.0098003164
 30
0.0
 11
202.3474264706
 21
228.0098003164
 31
0.0
  0
LINE
  5
2A0
330
215
100
AcDbEntity
  8
0
  6
Continuous
 62
     7
100
AcDbLine
 10
203.3474264706
 20
228.0098003164
 30
0.0
 11
203.3474264706
 21
236.0098003164
 31
0.0
  0
LINE
  5
2A1
330
215
100
AcDbEntity
  8
0
  6
Continuous
 62
     7
100
AcDbLine
 10
203.8474264706
 20
218.0098003164
 30
0.0
 11
203.8474264706
 21
217.6598003164
 31
0.0
  0
LINE
  5
2A2
330
215
100
AcDbEntity
  8
0
  6
Continuous
 62
     7
100
AcDbLine
 10
204.5474264706
 20
217.6598003164
 30
0.0
 11
204.5474264706
 21
217.5098003164
 31
0.0
  0
LINE
  5
2A3
330
215
100
AcDbEntity
  8
RUNDUNGEN
  6
Continuous
 62
     9
100
AcDbLine
 10
210.3474264706
 20
78.7625745437
 30
0.0
 11
210.3474264706
 21
96.4358050869
 31
0.0
  0
LINE
  5
2A4
330
215
100
AcDbEntity
  8
0
  6
CENTER
100
AcDbLine
 10
210.3474264706
 20
65.5135778691
 30
0.0
 11
210.3474264706
 21
240.5680147059
 31
0.0
  0
LINE
  5
2A5
330
215
100
AcDbEntity
  8
RUNDUNGEN
  6
Continuous
 62
     9
100
AcDbLine
 10
222.1208485139
 20
142.6846183273999
 30
0.0
 11
198.5740044273
 21
142.6846183273999
 31
0.0
  0
LINE
  5
2A6
330
215
100
AcDbEntity
  8
RUNDUNGEN
  6
Continuous
 62
     9
100
AcDbLine
 10
221.1424914645
 20
143.6832478622
 30
0.0
 11
199.5523614766
 21
143.6832478622
 31
0.0
  0
LINE
  5
2A7
330
215
100
AcDbEntity
  8
RUNDUNGEN
  6
Continuous
 62
     9
100
AcDbLine
 10
195.0496899597
 20
144.5942816416
 30
0.0
 11
225.6451629815
 21
144.5942816416
 31
0.0
  0
LINE
  5
2A8
330
215
100
AcDbEntity
  8
RUNDUNGEN
  6
Continuous
 62
     9
100
AcDbLine
 10
192.8610193045999
 20
145.5896852745
 30
0.0
 11
227.8338336366
 21
145.5896852745
 31
0.0
  0
LINE
  5
2A9
330
215
100
AcDbEntity
  8
RUNDUNGEN
  6
Continuous
 62
     9
100
AcDbLine
 10
257.745010599
 20
102.2697327075
 30
0.0
 11
255.8529120931
 21
104.0652671464
 31
0.0
  0
LINE
  5
2AA
330
215
100
AcDbEntity
  8
RUNDUNGEN
  6
Continuous
 62
     9
100
AcDbLine
 10
258.6913759021
 20
103.2669936552
 30
0.0
 11
256.7992773962
 21
105.0625280941
 31
0.0
  0
LINE
  5
2AB
330
215
100
AcDbEntity
  8
RUNDUNGEN
  6
Continuous
 62
     9
100
AcDbLine
 10
224.5440653649
 20
215.1407062323
 30
0.0
 11
224.5450236322
 21
214.1319699627
 31
0.0
  0
LINE
  5
2AC
330
215
100
AcDbEntity
  8
RUNDUNGEN
  6
Continuous
 62
     9
100
AcDbLine
 10
225.276733856
 20
215.1439321342
 30
0.0
 11
225.2776671933
 21
214.1335828941
 31
0.0
  0
LINE
  5
2AD
330
215
100
AcDbEntity
  8
RUNDUNGEN
  6
Continuous
 62
     9
100
AcDbLine
 10
225.2945048443
 20
195.9087143159
 30
0.0
 11
225.2977047789
 21
192.445580628
 31
0.0
  0
LINE
  5
2AE
330
215
100
AcDbEntity
  8
0
  6
Continuous
 62
     7
100
AcDbLine
 10
216.1474264706
 20
217.6598003164
 30
0.0
 11
216.1474264706
 21
217.5098003164
 31
0.0
  0
LINE
  5
2AF
330
215
100
AcDbEntity
  8
0
  6
Continuous
 62
     7
100
AcDbLine
 10
216.8474264706
 20
217.6598003164
 30
0.0
 11
216.8474264706
 21
218.0098003164
 31
0.0
  0
LINE
  5
2B0
330
215
100
AcDbEntity
  8
0
  6
Continuous
 62
     7
100
AcDbLine
 10
217.3474264706
 20
228.0098003164
 30
0.0
 11
217.3474264706
 21
236.0098003164
 31
0.0
  0
LINE
  5
2B1
330
215
100
AcDbEntity
  8
0
  6
Continuous
 62
     7
100
AcDbLine
 10
218.3474264706
 20
217.5098003164
 30
0.0
 11
218.3474264706
 21
216.0185775783
 31
0.0
  0
LINE
  5
2B2
330
215
100
AcDbEntity
  8
0
  6
Continuous
 62
     7
100
AcDbLine
 10
218.3474264706
 20
218.0098003164
 30
0.0
 11
218.3474264706
 21
228.0098003164
 31
0.0
  0
LINE
  5
2B3
330
215
100
AcDbEntity
  8
RUNDUNGEN
  6
Continuous
 62
     9
100
AcDbLine
 10
220.9173952982
 20
142.6846183273999
 30
0.0
 11
220.9173952982
 21
138.6162801572
 31
0.0
  0
LINE
  5
2B4
330
215
100
AcDbEntity
  8
RUNDUNGEN
  6
Continuous
 62
     9
100
AcDbLine
 10
222.0409726382
 20
215.0185775783
 30
0.0
 11
222.0409287926
 21
209.0141309529
 31
0.0
  0
LINE
  5
2B5
330
215
100
AcDbEntity
  8
RUNDUNGEN
  6
Continuous
 62
     9
100
AcDbLine
 10
222.1208485139
 20
142.6846183273999
 30
0.0
 11
222.1208485139
 21
138.6162801572
 31
0.0
  0
LINE
  5
2B6
330
215
100
AcDbEntity
  8
RUNDUNGEN
  6
Continuous
 62
     9
100
AcDbLine
 10
222.8421424653
 20
215.0386129121
 30
0.0
 11
222.8421574031
 21
209.0141298233
 31
0.0
  0
LINE
  5
2B7
330
215
100
AcDbEntity
  8
RUNDUNGEN
  6
Continuous
 62
     9
100
AcDbLine
 10
224.5450236322
 20
214.1319699627
 30
0.0
 11
224.5450236322
 21
209.1162807137
 31
0.0
  0
LINE
  5
2B8
330
215
100
AcDbEntity
  8
RUNDUNGEN
  6
Continuous
 62
     9
100
AcDbLine
 10
225.2776644895
 20
214.1335828941
 30
0.0
 11
225.2776644895
 21
209.1162801572
 31
0.0
  0
LINE
  5
2B9
330
215
100
AcDbEntity
  8
RUNDUNGEN
  6
Continuous
 62
     9
100
AcDbLine
 10
230.3473883059
 20
95.43595739169999
 30
0.0
 11
230.3473883059
 21
96.4358050869
 31
0.0
  0
LINE
  5
2BA
330
215
100
AcDbEntity
  8
RUNDUNGEN
  6
Continuous
 62
     9
100
AcDbLine
 10
226.5868230622
 20
137.3132483076
 30
0.0
 11
226.5920642271
 21
143.5898278366
 31
0.0
  0
LINE
  5
2BB
330
215
100
AcDbEntity
  8
RUNDUNGEN
  6
Continuous
 62
     9
100
AcDbLine
 10
227.8338336366
 20
145.5896852745
 30
0.0
 11
227.8269263476
 21
137.3100224056
 31
0.0
  0
LINE
  5
2BC
330
215
100
AcDbEntity
  8
RUNDUNGEN
  6
Continuous
 62
     9
100
AcDbLine
 10
264.7576758483
 20
105.4796100836
 30
0.0
 11
265.9437787203
 21
103.7102013196
 31
0.0
  0
LINE
  5
2BD
330
215
100
AcDbEntity
  8
RUNDUNGEN
  6
Continuous
 62
     9
100
AcDbLine
 10
265.606761843
 20
106.04694264
 30
0.0
 11
266.7745491554
 21
104.3048567268
 31
0.0
  0
LINE
  5
2BE
330
215
100
AcDbEntity
  8
0
  6
Continuous
 62
     7
100
AcDbLine
 10
240.3474264706
 20
98.11655259590001
 30
0.0
 11
240.3474264706
 21
102.2341599888
 31
0.0
  0
LINE
  5
2BF
330
215
100
AcDbEntity
  8
0
  6
Continuous
 62
     7
100
AcDbLine
 10
247.8474264706
 20
104.330467502
 30
0.0
 11
247.8474264706
 21
114.3988056722
 31
0.0
  0
LINE
  5
2C0
330
215
100
AcDbEntity
  8
0
  6
Continuous
 62
     9
100
AcDbLine
 10
241.3474264706
 20
97.11655259590001
 30
0.0
 11
241.3473822564
 21
97.1162479862
 31
0.0
  0
LINE
  5
2C1
330
215
100
AcDbEntity
  8
RUNDUNGEN
  6
Continuous
 62
     9
100
AcDbLine
 10
196.9304369562
 20
190.6109412318
 30
0.0
 11
223.764415986
 21
190.6109412318
 31
0.0
  0
LINE
  5
2C2
330
215
100
AcDbEntity
  8
RUNDUNGEN
  6
Continuous
 62
     9
100
AcDbLine
 10
196.8556800495
 20
191.373759773
 30
0.0
 11
223.8391728927
 21
191.373759773
 31
0.0
  0
LINE
  5
2C3
330
215
100
AcDbEntity
  8
0
  6
Continuous
 62
     9
100
AcDbLine
 10
254.8487980524
 20
97.11655259590001
 30
0.0
 11
254.8487980512
 21
97.1162479862
 31
0.0
  0
LINE
  5
2C4
330
215
100
AcDbEntity
  8
0
  6
Continuous
 62
     7
100
AcDbLine
 10
255.8501711626
 20
104.0652671464
 30
0.0
 11
255.8501711626
 21
98.11426899510001
 31
0.0
  0
LINE
  5
2C5
330
215
100
AcDbEntity
  8
0
  6
Continuous
 62
     7
100
AcDbLine
 10
281.9355064292
 20
179.0078207771
 30
0.0
 11
281.7968330346
 21
178.72468866
 31
0.0
  0
LINE
  5
2C6
330
215
100
AcDbEntity
  8
0
  6
Continuous
 62
     7
100
AcDbLine
 10
275.2711769162
 20
196.9053361091
 30
0.0
 11
280.364878877
 21
196.9942470076
 31
0.0
  0
LINE
  5
2C7
330
215
100
AcDbEntity
  8
0
  6
Continuous
 62
     7
100
AcDbLine
 10
290.4566598367
 20
207.3899830768
 30
0.0
 11
388.3823312835
 21
209.09928203
 31
0.0
  0
LINE
  5
2C8
330
215
100
AcDbEntity
  8
0
  6
Continuous
 62
     9
100
AcDbLine
 10
274.2886345259
 20
195.9087143159
 30
0.0
 11
225.2945048443
 21
195.9087143159
 31
0.0
  0
LINE
  5
2C9
330
215
100
AcDbEntity
  8
0
  6
Continuous
 62
     9
100
AcDbLine
 10
195.4003480969
 20
195.9087143159
 30
0.0
 11
146.4062184153
 21
195.9087143159
 31
0.0
  0
LINE
  5
2CA
330
215
100
AcDbEntity
  8
RUNDUNGEN
  6
Continuous
 62
     9
100
AcDbLine
 10
222.6912797119
 20
196.7116606547
 30
0.0
 11
198.0035732302
 21
196.7116606547
 31
0.0
  0
LINE
  5
2CB
330
215
100
AcDbEntity
  8
0
  6
Continuous
 62
     9
100
AcDbLine
 10
145.4236760249
 20
196.9053361091
 30
0.0
 11
195.1709002593
 21
196.9053361091
 31
0.0
  0
LINE
  5
2CC
330
215
100
AcDbEntity
  8
0
  6
Continuous
 62
     9
100
AcDbLine
 10
225.5239526819
 20
196.9053361091
 30
0.0
 11
275.2711769162
 21
196.9053361091
 31
0.0
  0
LINE
  5
2CD
330
215
100
AcDbEntity
  8
0
  6
Continuous
 62
     9
100
AcDbLine
 10
280.364878877
 20
196.9942470076
 30
0.0
 11
224.0405320785
 21
196.9942470076
 31
0.0
  0
LINE
  5
2CE
330
215
100
AcDbEntity
  8
0
  6
Continuous
 62
     9
100
AcDbLine
 10
196.6543208821
 20
196.9942470076
 30
0.0
 11
140.3299740642
 21
196.9942470076
 31
0.0
  0
LINE
  5
2CF
330
215
100
AcDbEntity
  8
RUNDUNGEN
  6
Continuous
 62
     9
100
AcDbLine
 10
222.7540849677
 20
197.4777050978
 30
0.0
 11
197.9407884511999
 21
197.4777050978
 31
0.0
  0
LINE
  5
2D0
330
215
100
AcDbEntity
  8
0
  6
Continuous
 62
     9
100
AcDbLine
 10
139.3474264706
 20
197.9940947027
 30
0.0
 11
196.4624747373
 21
197.9940947027
 31
0.0
  0
LINE
  5
2D1
330
215
100
AcDbEntity
  8
0
  6
Continuous
 62
     9
100
AcDbLine
 10
224.2323782039
 20
197.9940947027
 30
0.0
 11
281.3474264706
 21
197.9940947027
 31
0.0
  0
LINE
  5
2D2
330
215
100
AcDbEntity
  8
0
  6
Continuous
 62
     9
100
AcDbLine
 10
139.3474264706
 20
207.0287001765
 30
0.0
 11
196.4624747288
 21
207.0287001765
 31
0.0
  0
LINE
  5
2D3
330
215
100
AcDbEntity
  8
0
  6
Continuous
 62
     9
100
AcDbLine
 10
224.2323782152
 20
207.0287001765
 30
0.0
 11
281.3474264706
 21
207.0287001765
 31
0.0
  0
LINE
  5
2D4
330
215
100
AcDbEntity
  8
0
  6
Continuous
 62
     7
100
AcDbLine
 10
145.4236760249
 20
196.9053361091
 30
0.0
 11
140.3299740642
 21
196.9942470076
 31
0.0
  0
LINE
  5
2D5
330
215
100
AcDbEntity
  8
0
  6
Continuous
 62
     7
100
AcDbLine
 10
130.2381931044
 20
207.3899830768
 30
0.0
 11
32.3125216577
 21
209.09928203
 31
0.0
  0
LINE
  5
2D6
330
215
100
AcDbEntity
  8
0
  6
Continuous
 62
     7
100
AcDbLine
 10
274.3474264706
 20
209.1162801572
 30
0.0
 11
274.3474264706
 21
214.1335828941
 31
0.0
  0
LINE
  5
2D7
330
215
100
AcDbEntity
  8
0
  6
Continuous
 62
     7
100
AcDbLine
 10
274.0995999089
 20
137.3100224056
 30
0.0
 11
274.2886345259
 21
195.9087143159
 31
0.0
  0
LINE
  5
2D8
330
215
100
AcDbEntity
  8
0
  6
Continuous
 62
     7
100
AcDbLine
 10
274.3474264706
 20
214.1335828941
 30
0.0
 11
274.3506857751
 21
215.1439321342
 31
0.0
  0
LINE
  5
2D9
330
215
100
AcDbEntity
  8
0
  6
Continuous
 62
     7
100
AcDbLine
 10
264.6121238844
 20
116.7499295595
 30
0.0
 11
273.8073713716
 21
136.028166821
 31
0.0
  0
LINE
  5
2DA
330
215
100
AcDbEntity
  8
RUNDUNGEN
  6
Continuous
 62
     7
100
AcDbLine
 10
223.7475542719
 20
216.0367728419
 30
0.0
 11
223.7478426947
 21
216.0367902844
 31
0.0
  0
LINE
  5
2DB
330
215
100
AcDbEntity
  8
0
  6
Continuous
 62
     7
100
AcDbLine
 10
225.4508203761
 20
216.1389541057
 30
0.0
 11
223.7475538163
 21
216.0367802293
 31
0.0
  0
LWPOLYLINE
  5
2DC
330
215
100
AcDbEntity
  8
0
  6
Continuous
 62
     7
100
AcDbPolyline
 90
        5
 70
     0
 43
0.0
 10
223.7478426947
 20
216.0367902844
 10
223.7456077103
 20
216.0366580728
 10
223.7329303076
 20
216.0359714824
 10
223.715842159
 20
216.0351554062
 10
223.6952302005
 20
216.0342831634
  0
LINE
  5
2DD
330
215
100
AcDbEntity
  8
RUNDUNGEN
  6
Continuous
 62
     7
100
AcDbLine
 10
225.4508395133
 20
216.1389551607
 30
0.0
 11
225.4509733316
 21
216.1389630664
 31
0.0
  0
LINE
  5
2DE
330
215
100
AcDbEntity
  8
0
  6
Continuous
 62
     7
100
AcDbLine
 10
223.6952302005
 20
216.0342831634
 30
0.0
 11
223.6430435939
 21
216.0324274508
 31
0.0
  0
LINE
  5
2DF
330
215
100
AcDbEntity
  8
0
  6
Continuous
 62
     7
100
AcDbLine
 10
225.5100393425
 20
216.140706211
 30
0.0
 11
225.4509733316
 21
216.1389630664
 31
0.0
  0
LINE
  5
2E0
330
215
100
AcDbEntity
  8
0
  6
Continuous
 62
     7
100
AcDbLine
 10
223.6430435939
 20
216.0324274508
 30
0.0
 11
223.5769939143
 21
216.0305180336
 31
0.0
  0
LINE
  5
2E1
330
215
100
AcDbEntity
  8
0
  6
Continuous
 62
     7
100
AcDbLine
 10
223.5769939143
 20
216.0305180336
 30
0.0
 11
223.4976156895
 21
216.0286401316
 31
0.0
  0
LINE
  5
2E2
330
215
100
AcDbEntity
  8
0
  6
Continuous
 62
     7
100
AcDbLine
 10
140.3299740642
 20
208.0285478717
 30
0.0
 11
145.364878877
 21
208.1164324621
 31
0.0
  0
LINE
  5
2E3
330
215
100
AcDbEntity
  8
0
  6
Continuous
 62
     7
100
AcDbLine
 10
32.3125216577
 20
214.1678837582
 30
0.0
 11
145.3267199629
 21
216.1405539274
 31
0.0
  0
LINE
  5
2E4
330
215
100
AcDbEntity
  8
0
  6
Continuous
 62
     7
100
AcDbLine
 10
223.4976156895
 20
216.0286401316
 30
0.0
 11
223.3537559121
 21
216.0259690633
 31
0.0
  0
LINE
  5
2E5
330
215
100
AcDbEntity
  8
0
  6
Continuous
 62
     7
100
AcDbLine
 10
223.3537559121
 20
216.0259690633
 30
0.0
 11
223.117702311
 21
216.0228612796
 31
0.0
  0
LINE
  5
2E6
330
215
100
AcDbEntity
  8
0
  6
Continuous
 62
     7
100
AcDbLine
 10
145.3267199629
 20
216.1405539274
 30
0.0
 11
145.3441723693
 21
216.1407062323
 31
0.0
  0
LINE
  5
2E7
330
215
100
AcDbEntity
  8
0
  6
Continuous
 62
     7
100
AcDbLine
 10
223.117702311
 20
216.0228612796
 30
0.0
 11
222.7581329113
 21
216.0200150717
 31
0.0
  0
LINE
  5
2E8
330
215
100
AcDbEntity
  8
0
  6
Continuous
 62
     7
100
AcDbLine
 10
222.7581329113
 20
216.0200150717
 30
0.0
 11
222.3409276878
 21
216.0186587585
 31
0.0
  0
LINE
  5
2E9
330
215
100
AcDbEntity
  8
0
  6
Continuous
 62
     9
100
AcDbLine
 10
140.3299740642
 20
208.0285478717
 30
0.0
 11
196.6542843409
 21
208.0285478717
 31
0.0
  0
LINE
  5
2EA
330
215
100
AcDbEntity
  8
0
  6
Continuous
 62
     9
100
AcDbLine
 10
224.0406109146
 20
208.0285478717
 30
0.0
 11
280.364878877
 21
208.0285478717
 31
0.0
  0
LINE
  5
2EB
330
215
100
AcDbEntity
  8
0
  6
Continuous
 62
     9
100
AcDbLine
 10
145.364878877
 20
208.1164324621
 30
0.0
 11
195.1882001621
 21
208.1164324621
 31
0.0
  0
LINE
  5
2EC
330
215
100
AcDbEntity
  8
0
  6
Continuous
 62
     9
100
AcDbLine
 10
225.5067240698
 20
208.1164324621
 30
0.0
 11
275.3299740642
 21
208.1164324621
 31
0.0
  0
LINE
  5
2ED
330
215
100
AcDbEntity
  8
RUNDUNGEN
  6
Continuous
 62
     9
100
AcDbLine
 10
198.6539241486
 20
209.0141309508
 30
0.0
 11
197.8526955381
 21
209.0141309509
 31
0.0
  0
LINE
  5
2EE
330
215
100
AcDbEntity
  8
RUNDUNGEN
  6
Continuous
 62
     9
100
AcDbLine
 10
222.0409287926
 20
209.0141309528
 30
0.0
 11
222.8421574031
 21
209.0141309529
 31
0.0
  0
LINE
  5
2EF
330
215
100
AcDbEntity
  8
0
  6
Continuous
 62
     9
100
AcDbLine
 10
146.3474264706
 20
209.1162801572
 30
0.0
 11
195.4171884517
 21
209.1162801572
 31
0.0
  0
LINE
  5
2F0
330
215
100
AcDbEntity
  8
RUNDUNGEN
  6
Continuous
 62
     9
100
AcDbLine
 10
195.4171884517
 20
209.1162801572
 30
0.0
 11
196.1498293089
 21
209.1162801572
 31
0.0
  0
LINE
  5
2F1
330
215
100
AcDbEntity
  8
RUNDUNGEN
  6
Continuous
 62
     9
100
AcDbLine
 10
224.5450236322
 20
209.1162801572
 30
0.0
 11
225.2776644895
 21
209.1162801572
 31
0.0
  0
LINE
  5
2F2
330
215
100
AcDbEntity
  8
0
  6
Continuous
 62
     9
100
AcDbLine
 10
225.2776644895
 20
209.1162801572
 30
0.0
 11
274.3474264706
 21
209.1162801572
 31
0.0
  0
LINE
  5
2F3
330
215
100
AcDbEntity
  8
0
  6
Continuous
 62
     7
100
AcDbLine
 10
274.3474264706
 20
214.1335828941
 30
0.0
 11
225.2776644895
 21
214.1335828941
 31
0.0
  0
LINE
  5
2F4
330
215
100
AcDbEntity
  8
RUNDUNGEN
  6
Continuous
 62
     9
100
AcDbLine
 10
225.2776644895
 20
214.1335828941
 30
0.0
 11
224.5450236322
 21
214.1335828941
 31
0.0
  0
LINE
  5
2F5
330
215
100
AcDbEntity
  8
0
  6
Continuous
 62
     7
100
AcDbLine
 10
195.4171884517
 20
214.1335828941
 30
0.0
 11
146.3474264706
 21
214.1335828941
 31
0.0
  0
LINE
  5
2F6
330
215
100
AcDbEntity
  8
RUNDUNGEN
  6
Continuous
 62
     9
100
AcDbLine
 10
222.0409726382
 20
215.0185775783
 30
0.0
 11
198.6538800825
 21
215.0185775783
 31
0.0
  0
LINE
  5
2F7
330
215
100
AcDbEntity
  8
0
  6
Continuous
 62
     9
100
AcDbLine
 10
274.3506857751
 20
215.1439321342
 30
0.0
 11
225.276733856
 21
215.1439321342
 31
0.0
  0
LINE
  5
2F8
330
215
100
AcDbEntity
  8
0
  6
Continuous
 62
     9
100
AcDbLine
 10
195.4181190851
 20
215.1439321342
 30
0.0
 11
146.3441671661
 21
215.1439321342
 31
0.0
  0
LINE
  5
2F9
330
215
100
AcDbEntity
  8
0
  6
Continuous
 62
     7
100
AcDbLine
 10
222.3409276878
 20
216.0186587585
 30
0.0
 11
198.4892269326
 21
216.0185775783
 31
0.0
  0
LINE
  5
2FA
330
215
100
AcDbEntity
  8
0
  6
Continuous
 62
     7
100
AcDbLine
 10
275.3059656083
 20
216.1407062323
 30
0.0
 11
225.5099911912
 21
216.1407062323
 31
0.0
  0
LINE
  5
2FB
330
215
100
AcDbEntity
  8
0
  6
Continuous
 62
     7
100
AcDbLine
 10
195.18486175
 20
216.1407062323
 30
0.0
 11
145.3441723693
 21
216.1407062323
 31
0.0
  0
LINE
  5
2FC
330
215
100
AcDbEntity
  8
0
  6
Continuous
 62
     7
100
AcDbLine
 10
218.3474264706
 20
217.5098003164
 30
0.0
 11
202.3474264706
 21
217.5098003164
 31
0.0
  0
LINE
  5
2FD
330
215
100
AcDbEntity
  8
0
  6
Continuous
 62
     7
100
AcDbLine
 10
203.8474264706
 20
217.6598003164
 30
0.0
 11
216.8474264706
 21
217.6598003164
 31
0.0
  0
LINE
  5
2FE
330
215
100
AcDbEntity
  8
0
  6
Continuous
 62
     7
100
AcDbLine
 10
202.3474264706
 20
218.0098003164
 30
0.0
 11
218.3474264706
 21
218.0098003164
 31
0.0
  0
LINE
  5
2FF
330
215
100
AcDbEntity
  8
0
  6
Continuous
 62
     7
100
AcDbLine
 10
198.4892295485
 20
216.0185754817
 30
0.0
 11
198.0728407062
 21
216.0193772662
 31
0.0
  0
LINE
  5
300
330
215
100
AcDbEntity
  8
0
  6
Continuous
 62
     7
100
AcDbLine
 10
275.3681329783
 20
216.1405539274
 30
0.0
 11
275.3504838199
 21
216.1406794116
 31
0.0
  0
LINE
  5
301
330
215
100
AcDbEntity
  8
0
  6
Continuous
 62
     7
100
AcDbLine
 10
198.0728407062
 20
216.0193772662
 30
0.0
 11
197.697885108
 21
216.0216957499
 31
0.0
  0
LINE
  5
302
330
215
100
AcDbEntity
  8
0
  6
Continuous
 62
     7
100
AcDbLine
 10
197.697885108
 20
216.0216957499
 30
0.0
 11
197.4616585375
 21
216.0242262619
 31
0.0
  0
LINE
  5
303
330
215
100
AcDbEntity
  8
0
  6
Continuous
 62
     7
100
AcDbLine
 10
280.364878877
 20
208.0285478717
 30
0.0
 11
275.3299740642
 21
208.1164324621
 31
0.0
  0
LINE
  5
304
330
215
100
AcDbEntity
  8
0
  6
Continuous
 62
     7
100
AcDbLine
 10
388.3823312835
 20
214.1678837582
 30
0.0
 11
275.3681329783
 21
216.1405539274
 31
0.0
  0
LINE
  5
305
330
215
100
AcDbEntity
  8
0
  6
Continuous
 62
     7
100
AcDbLine
 10
197.4616585375
 20
216.0242262619
 30
0.0
 11
197.2672862497
 21
216.0272480649
 31
0.0
  0
LINE
  5
306
330
215
100
AcDbEntity
  8
0
  6
Continuous
 62
     7
100
AcDbLine
 10
197.2672862497
 20
216.0272480649
 30
0.0
 11
197.1616031621
 21
216.0294361996
 31
0.0
  0
LINE
  5
307
330
215
100
AcDbEntity
  8
0
  6
Continuous
 62
     7
100
AcDbLine
 10
197.1616031621
 20
216.0294361996
 30
0.0
 11
197.0753176423
 21
216.0317040692
 31
0.0
  0
LINE
  5
308
330
215
100
AcDbEntity
  8
0
  6
Continuous
 62
     7
100
AcDbLine
 10
195.1848135987
 20
216.140706211
 30
0.0
 11
195.2438795966
 21
216.1389630672
 31
0.0
  0
LWPOLYLINE
  5
309
330
215
100
AcDbEntity
  8
0
  6
Continuous
 62
     7
100
AcDbPolyline
 90
        5
 70
     0
 43
0.0
 10
197.0753176423
 20
216.0317040692
 10
197.008572703
 20
216.0339332997
 10
196.9827578196
 20
216.0349884984
 10
196.962512547
 20
216.03594164
 10
196.958106513
 20
216.0361693275
  0
LINE
  5
30A
330
215
100
AcDbEntity
  8
0
  6
Continuous
 62
     7
100
AcDbLine
 10
196.958106513
 20
216.0361693275
 30
0.0
 11
196.9467848463
 21
216.0368045497
 31
0.0
  0
LINE
  5
30B
330
215
100
AcDbEntity
  8
RUNDUNGEN
  6
Continuous
 62
     7
100
AcDbLine
 10
195.2440134232
 20
216.1389551609
 30
0.0
 11
195.2438795966
 21
216.1389630672
 31
0.0
  0
LINE
  5
30C
330
215
100
AcDbEntity
  8
RUNDUNGEN
  6
Continuous
 62
     7
100
AcDbLine
 10
196.9472991206
 20
216.0367802295
 30
0.0
 11
196.9467852558
 21
216.0368112483
 31
0.0
  0
LINE
  5
30D
330
215
100
AcDbEntity
  8
0
  6
Continuous
 62
     7
100
AcDbLine
 10
196.9472991206
 20
216.0367802295
 30
0.0
 11
195.2440325604
 21
216.138954106
 31
0.0
  0
LINE
  5
30E
330
215
100
AcDbEntity
  8
0
  6
Continuous
 62
     7
100
AcDbLine
 10
281.3474264706
 20
197.9940947027
 30
0.0
 11
281.3474264706
 21
207.0287001765
 31
0.0
  0
LINE
  5
30F
330
215
100
AcDbEntity
  8
0
  6
Continuous
 62
     7
100
AcDbLine
 10
281.2902133048
 20
176.6998955827
 30
0.0
 11
279.8892494696
 21
136.5815403602
 31
0.0
  0
LINE
  5
310
330
215
100
AcDbEntity
  8
0
  6
Continuous
 62
     7
100
AcDbLine
 10
282.7362705583
 20
189.4558490089
 30
0.0
 11
282.4421248656
 21
181.0326184517
 31
0.0
  0
LINE
  5
311
330
215
100
AcDbEntity
  8
0
  6
Continuous
 62
     7
100
AcDbLine
 10
287.1807436998
 20
195.0422862095999
 30
0.0
 11
287.510844575
 21
204.4951384814
 31
0.0
  0
LINE
  5
312
330
215
100
AcDbEntity
  8
0
  6
Continuous
 62
     7
100
AcDbLine
 10
279.5988328416
 20
135.3947055599
 30
0.0
 11
277.347564236
 21
130.6748227749
 31
0.0
  0
LINE
  5
313
330
215
100
AcDbEntity
  8
0
  6
Continuous
 62
     7
100
AcDbLine
 10
272.7316447044
 20
120.9909594766
 30
0.0
 11
265.6042786196
 21
106.0481257333
 31
0.0
  0
LINE
  5
314
330
215
100
AcDbEntity
  8
0
  6
Continuous
 62
     7
100
AcDbLine
 10
202.3474264706
 20
228.0098003164
 30
0.0
 11
218.3474264706
 21
228.0098003164
 31
0.0
  0
LINE
  5
317
330
215
100
AcDbEntity
  8
0
  6
Continuous
 62
     7
100
AcDbLine
 10
203.3474264706
 20
236.0098003164
 30
0.0
 11
217.3474264706
 21
236.0098003164
 31
0.0
  0
LINE
  5
318
330
215
100
AcDbEntity
  8
0
  6
Continuous
 62
     7
100
AcDbLine
 10
365.3474264706
 20
68.6335828941
 30
0.0
 11
365.3474264706
 21
126.6335828941
 31
0.0
  0
LINE
  5
319
330
215
100
AcDbEntity
  8
0
  6
Continuous
 62
     7
100
AcDbLine
 10
390.3474264706
 20
211.0989774204
 30
0.0
 11
390.3474264706
 21
212.1681883679
 31
0.0
  0
ARC
  5
31A
330
215
100
AcDbEntity
  8
RUNDUNGEN
  6
Continuous
 62
     9
100
AcDbCircle
 10
102.25145362
 20
2722.5805647315
 30
0.0
 40
2623.9811656439
100
AcDbArc
 50
273.4257442517
 51
273.5766161005
  0
ARC
  5
31B
330
215
100
AcDbEntity
  8
RUNDUNGEN
  6
Continuous
 62
     9
100
AcDbCircle
 10
-575.1227222743
 20
459.1933155131
 30
0.0
 40
816.0794390681999
100
AcDbArc
 50
340.9211597129
 51
341.1836043124
  0
ARC
  5
31C
330
215
100
AcDbEntity
  8
RUNDUNGEN
  6
Continuous
 62
     9
100
AcDbCircle
 10
-477.9644737276999
 20
429.0831746862
 30
0.0
 40
715.463490251
100
AcDbArc
 50
340.5948843544
 51
340.9204315105
  0
ARC
  5
31D
330
215
100
AcDbEntity
  8
0
  6
Continuous
 62
     7
100
AcDbCircle
 10
174.8474264706
 20
78.6335828941
 30
0.0
 40
10.0
100
AcDbArc
 50
180.0
 51
270.0
  0
ARC
  5
31E
330
215
100
AcDbEntity
  8
0
  6
Continuous
 62
     7
100
AcDbCircle
 10
134.4076864974
 20
176.5253720931
 30
0.0
 40
4.9999999942
100
AcDbArc
 50
1.9999989338
 51
26.0948092794
  0
ARC
  5
31F
330
215
100
AcDbEntity
  8
0
  6
Continuous
 62
     7
100
AcDbCircle
 10
143.2496832026
 20
181.2070909118
 30
0.0
 40
4.999999985499999
100
AcDbArc
 50
182.0000432396
 51
206.0948880702
  0
ARC
  5
320
330
215
100
AcDbEntity
  8
0
  6
Continuous
 62
     7
100
AcDbCircle
 10
174.8474264706
 20
78.6335828941
 30
0.0
 40
4.5
100
AcDbArc
 50
180.0
 51
270.0
  0
ARC
  5
321
330
215
100
AcDbEntity
  8
0
  6
Continuous
 62
     7
100
AcDbCircle
 10
161.8474264706
 20
102.1712431514
 30
0.0
 40
3.0
100
AcDbArc
 50
0.0
 51
87.0
  0
ARC
  5
322
330
215
100
AcDbEntity
  8
0
  6
Continuous
 62
     7
100
AcDbCircle
 10
157.2868007605
 20
108.4184894929
 30
0.0
 40
3.0
100
AcDbArc
 50
205.5
 51
267.0
  0
ARC
  5
323
330
215
100
AcDbEntity
  8
0
  6
Continuous
 62
     7
100
AcDbCircle
 10
134.9604099018
 20
189.3511505188
 30
0.0
 40
3.0
100
AcDbArc
 50
2.0
 51
75.01030557819999
  0
ARC
  5
324
330
215
100
AcDbEntity
  8
0
  6
Continuous
 62
     7
100
AcDbCircle
 10
136.5122817225
 20
195.1469846997
 30
0.0
 40
3.0
100
AcDbArc
 50
182.0
 51
255.0103055782
  0
ARC
  5
325
330
215
100
AcDbEntity
  8
0
  6
Continuous
 62
     7
100
AcDbCircle
 10
130.1858358851
 20
204.3904399913
 30
0.0
 40
3.0
100
AcDbArc
 50
2.0
 51
89.0
  0
ARC
  5
326
330
215
100
AcDbEntity
  8
0
  6
Continuous
 62
     7
100
AcDbCircle
 10
143.8037759526
 20
136.6862388503
 30
0.0
 40
3.0
100
AcDbArc
 50
182.0
 51
205.5000000003
  0
ARC
  5
327
330
215
100
AcDbEntity
  8
0
  6
Continuous
 62
     7
100
AcDbCircle
 10
149.5952374226
 20
137.3197001114
 30
0.0
 40
3.0
100
AcDbArc
 50
180.1848308864
 51
205.5
  0
ARC
  5
328
330
215
100
AcDbEntity
  8
0
  6
Continuous
 62
     7
100
AcDbCircle
 10
32.3474264706
 20
211.0989774204
 30
0.0
 40
2.0
100
AcDbArc
 50
180.0
 51
269.0
  0
ARC
  5
329
330
215
100
AcDbEntity
  8
0
  6
Continuous
 62
     7
100
AcDbCircle
 10
32.3474264706
 20
212.1681883679
 30
0.0
 40
2.0
100
AcDbArc
 50
91.0
 51
180.0
  0
ARC
  5
32A
330
215
100
AcDbEntity
  8
0
  6
Continuous
 62
     7
100
AcDbCircle
 10
171.3475115201
 20
96.1167830153
 30
0.0
 40
1.000079370299999
100
AcDbArc
 50
90.00465572899999
 51
180.0044701662
  0
ARC
  5
32B
330
215
100
AcDbEntity
  8
0
  6
Continuous
 62
     7
100
AcDbCircle
 10
179.3473493991
 20
98.1169235884
 30
0.0
 40
1.0000718092
100
AcDbArc
 50
270.0047007575
 51
0.0049196622
  0
ARC
  5
32C
330
215
100
AcDbEntity
  8
0
  6
Continuous
 62
     7
100
AcDbCircle
 10
145.3441723693
 20
215.1407062323
 30
0.0
 40
1.0
100
AcDbArc
 50
0.1848308864
 51
89.98872664530001
  0
ARC
  5
32D
330
215
100
AcDbEntity
  8
0
  6
Continuous
 62
     7
100
AcDbCircle
 10
140.3474264706
 20
207.0287001765
 30
0.0
 40
1.0
100
AcDbArc
 50
91.0
 51
180.0
  0
ARC
  5
32E
330
215
100
AcDbEntity
  8
0
  6
Continuous
 62
     7
100
AcDbCircle
 10
145.3474264706
 20
209.1162801572
 30
0.0
 40
1.0
100
AcDbArc
 50
271.0
 51
360.0
  0
ARC
  5
32F
330
215
100
AcDbEntity
  8
0
  6
Continuous
 62
     7
100
AcDbCircle
 10
145.4062236185
 20
195.905488414
 30
0.0
 40
1.0
100
AcDbArc
 50
0.1848308864
 51
89.0
  0
ARC
  5
330
330
215
100
AcDbEntity
  8
0
  6
Continuous
 62
     7
100
AcDbCircle
 10
140.3474264706
 20
197.9940947027
 30
0.0
 40
1.0
100
AcDbArc
 50
180.0
 51
269.0
  0
ARC
  5
331
330
215
100
AcDbEntity
  8
0
  6
Continuous
 62
     7
100
AcDbCircle
 10
156.9853143412
 20
117.1804406564
 30
0.0
 40
1.0
100
AcDbArc
 50
205.5
 51
267.0
  0
ARC
  5
332
330
215
100
AcDbEntity
  8
0
  6
Continuous
 62
     7
100
AcDbCircle
 10
171.8474264706
 20
114.3988056722
 30
0.0
 40
1.0
100
AcDbArc
 50
0.0
 51
87.0
  0
ARC
  5
333
330
215
100
AcDbEntity
  8
0
  6
Continuous
 62
     7
100
AcDbCircle
 10
179.3474264706
 20
102.2341599888
 30
0.0
 40
1.0
100
AcDbArc
 50
0.0
 51
89.0
  0
ARC
  5
334
330
215
100
AcDbEntity
  8
0
  6
Continuous
 62
     7
100
AcDbCircle
 10
173.8474264706
 20
104.330467502
 30
0.0
 40
1.0
100
AcDbArc
 50
180.0
 51
269.0
  0
ARC
  5
335
330
215
100
AcDbEntity
  8
RUNDUNGEN
  6
Continuous
 62
     9
100
AcDbCircle
 10
195.1885757518
 20
215.2049967909
 30
0.0
 40
0.9355925343999999
100
AcDbArc
 50
83.80739183420001
 51
86.60350256459999
  0
ARC
  5
336
330
215
100
AcDbEntity
  8
0
  6
Continuous
 62
     7
100
AcDbCircle
 10
276.8910769886
 20
136.6862388503
 30
0.0
 40
3.0
100
AcDbArc
 50
334.4999999997
 51
358.0
  0
ARC
  5
337
330
215
100
AcDbEntity
  8
0
  6
Continuous
 62
     7
100
AcDbCircle
 10
271.0996155186
 20
137.3197001114
 30
0.0
 40
3.0
100
AcDbArc
 50
334.5
 51
359.8151691136
  0
ARC
  5
338
330
215
100
AcDbEntity
  8
0
  6
Continuous
 62
     7
100
AcDbCircle
 10
280.0553196108
 20
129.383288596
 30
0.0
 40
2.999999998199999
100
AcDbArc
 50
154.4999808103
 51
266.3503799547001
  0
ARC
  5
339
330
215
100
AcDbEntity
  8
RUNDUNGEN
  6
Continuous
 62
     9
100
AcDbCircle
 10
265.9200413457
 20
105.0390908918
 30
0.0
 40
2.178062386999999
100
AcDbArc
 50
312.7776108699
 51
334.5181035234
  0
ARC
  5
33A
330
215
100
AcDbEntity
  8
RUNDUNGEN
  6
Continuous
 62
     9
100
AcDbCircle
 10
198.0640981444
 20
138.3087831545
 30
0.0
 40
1.967224827899999
100
AcDbArc
 50
268.9360364988
 51
269.9998671947
  0
ARC
  5
33B
330
215
100
AcDbEntity
  8
RUNDUNGEN
  6
Continuous
 62
     9
100
AcDbCircle
 10
222.630757589
 20
138.3084824701
 30
0.0
 40
1.966924143499999
100
AcDbArc
 50
270.0000514962
 51
271.0640448181
  0
ARC
  5
33C
330
215
100
AcDbEntity
  8
RUNDUNGEN
  6
Continuous
 62
     9
100
AcDbCircle
 10
258.746849493
 20
102.2666871393
 30
0.0
 40
1.001848385099999
100
AcDbArc
 50
93.1741773727
 51
179.8258226273
  0
ARC
  5
33D
330
215
100
AcDbEntity
  8
0
  6
Continuous
 62
     7
100
AcDbCircle
 10
256.8520001603
 20
104.0648329409
 30
0.0
 40
1.001826722
100
AcDbArc
 50
93.0248886915
 51
179.9751670586
  0
ARC
  5
33E
330
215
100
AcDbEntity
  8
RUNDUNGEN
  6
Continuous
 62
     9
100
AcDbCircle
 10
274.0808884002
 20
120.1779659738
 30
0.0
 40
1.001401269899999
100
AcDbArc
 50
77.0719977968
 51
154.4003960296
  0
ARC
  5
33F
330
215
100
AcDbEntity
  8
0
  6
Continuous
 62
     7
100
AcDbCircle
 10
273.6342346892
 20
120.5604391914
 30
0.0
 40
1.000008297599999
100
AcDbArc
 50
80.41577310550001
 51
154.4996407751
  0
ARC
  5
340
330
215
100
AcDbEntity
  8
0
  6
Continuous
 62
     7
100
AcDbCircle
 10
241.3474264705
 20
98.11655261170001
 30
0.0
 40
1.000000005299999
100
AcDbArc
 50
180.0000077795
 51
269.9999962625
  0
ARC
  5
341
330
215
100
AcDbEntity
  8
0
  6
Continuous
 62
     7
100
AcDbCircle
 10
263.7095386
 20
117.1804406564
 30
0.0
 40
1.0
100
AcDbArc
 50
273.0
 51
334.5
  0
ARC
  5
342
330
215
100
AcDbEntity
  8
0
  6
Continuous
 62
     7
100
AcDbCircle
 10
248.8474264706
 20
114.3988056722
 30
0.0
 40
1.0
100
AcDbArc
 50
93.0
 51
180.0
  0
ARC
  5
343
330
215
100
AcDbEntity
  8
0
  6
Continuous
 62
     7
100
AcDbCircle
 10
241.3474264706
 20
102.2341599888
 30
0.0
 40
1.0
100
AcDbArc
 50
91.0
 51
180.0
  0
ARC
  5
344
330
215
100
AcDbEntity
  8
0
  6
Continuous
 62
     7
100
AcDbCircle
 10
246.8474264706
 20
104.330467502
 30
0.0
 40
1.0
100
AcDbArc
 50
271.0
 51
360.0
  0
ARC
  5
345
330
215
100
AcDbEntity
  8
0
  6
Continuous
 62
     7
100
AcDbCircle
 10
264.7058633469
 20
106.4761879687
 30
0.0
 40
0.9951771439999999
100
AcDbArc
 50
272.9757671087
 51
334.5238969957
  0
ARC
  5
346
330
215
100
AcDbEntity
  8
RUNDUNGEN
  6
Continuous
 62
     9
100
AcDbCircle
 10
198.2947510281
 20
138.491848191
 30
0.0
 40
0.9596333782999998
100
AcDbArc
 50
268.9443673244
 51
270.0199298135
  0
ARC
  5
347
330
215
100
AcDbEntity
  8
RUNDUNGEN
  6
Continuous
 62
     9
100
AcDbCircle
 10
222.4000972757
 20
138.4917199338
 30
0.0
 40
0.9595050415999999
100
AcDbArc
 50
269.9803444573
 51
271.056050677
  0
ARC
  5
348
330
215
100
AcDbEntity
  8
RUNDUNGEN
  6
Continuous
 62
     9
100
AcDbCircle
 10
212.0176301691
 20
176.0257632152
 30
0.0
 40
34.3002497445
100
AcDbArc
 50
295.6811801482
 51
297.4587858120001
  0
ARC
  5
349
330
215
100
AcDbEntity
  8
RUNDUNGEN
  6
Continuous
 62
     9
100
AcDbCircle
 10
208.2579347754
 20
175.1873676376
 30
0.0
 40
33.3629706004
100
AcDbArc
 50
242.5162426047
 51
244.3437914408
  0
ARC
  5
34A
330
215
100
AcDbEntity
  8
0
  6
Continuous
 62
     7
100
AcDbCircle
 10
277.4451703646
 20
181.2071123748
 30
0.0
 40
5.000000016399999
100
AcDbArc
 50
333.9051591063
 51
358.0000019780001
  0
ARC
  5
34B
330
215
100
AcDbEntity
  8
0
  6
Continuous
 62
     7
100
AcDbCircle
 10
286.2871670233
 20
176.52539354
 30
0.0
 40
4.9999999831
100
AcDbArc
 50
153.9050752724
 51
177.9999476387
  0
ARC
  5
34C
330
215
100
AcDbEntity
  8
0
  6
Continuous
 62
     7
100
AcDbCircle
 10
285.7344430394
 20
189.3511505188
 30
0.0
 40
3.0
100
AcDbArc
 50
104.9896944219
 51
178.0
  0
ARC
  5
34D
330
215
100
AcDbEntity
  8
0
  6
Continuous
 62
     7
100
AcDbCircle
 10
284.1825712187
 20
195.1469846997
 30
0.0
 40
3.0
100
AcDbArc
 50
284.9896944218
 51
358.0
  0
ARC
  5
34E
330
215
100
AcDbEntity
  8
0
  6
Continuous
 62
     7
100
AcDbCircle
 10
290.5090170561
 20
204.3904399913
 30
0.0
 40
3.0
100
AcDbArc
 50
91.0
 51
178.0
  0
ARC
  5
34F
330
215
100
AcDbEntity
  8
0
  6
Continuous
 62
     7
100
AcDbCircle
 10
275.3506805719
 20
215.1407062323
 30
0.0
 40
1.0
100
AcDbArc
 50
90.01127335840001
 51
179.8151691136
  0
ARC
  5
350
330
215
100
AcDbEntity
  8
0
  6
Continuous
 62
     7
100
AcDbCircle
 10
280.3474264706
 20
207.0287001765
 30
0.0
 40
1.0
100
AcDbArc
 50
0.0
 51
89.0
  0
ARC
  5
351
330
215
100
AcDbEntity
  8
0
  6
Continuous
 62
     7
100
AcDbCircle
 10
275.3474264706
 20
209.1162801572
 30
0.0
 40
1.0
100
AcDbArc
 50
180.0
 51
269.0
  0
ARC
  5
352
330
215
100
AcDbEntity
  8
0
  6
Continuous
 62
     7
100
AcDbCircle
 10
275.2886293227
 20
195.905488414
 30
0.0
 40
1.0
100
AcDbArc
 50
91.0
 51
179.8151691136
  0
ARC
  5
353
330
215
100
AcDbEntity
  8
0
  6
Continuous
 62
     7
100
AcDbCircle
 10
280.3474264706
 20
197.9940947027
 30
0.0
 40
1.0
100
AcDbArc
 50
271.0
 51
360.0
  0
ARC
  5
354
330
215
100
AcDbEntity
  8
RUNDUNGEN
  6
Continuous
 62
     9
100
AcDbCircle
 10
196.8903448027
 20
215.1016433585
 30
0.0
 40
0.9368604927999999
100
AcDbArc
 50
77.09964372379999
 51
85.8530276998
  0
ARC
  5
355
330
215
100
AcDbEntity
  8
RUNDUNGEN
  6
Continuous
 62
     9
100
AcDbCircle
 10
225.5062771935
 20
215.2049967652
 30
0.0
 40
0.9355925601
100
AcDbArc
 50
93.3964978803
 51
96.1926415839
  0
ARC
  5
356
330
215
100
AcDbEntity
  8
RUNDUNGEN
  6
Continuous
 62
     9
100
AcDbCircle
 10
196.8905356004
 20
215.1036761739
 30
0.0
 40
0.9348192029999999
100
AcDbArc
 50
85.855681273
 51
86.5188157539
  0
ARC
  5
357
330
215
100
AcDbEntity
  8
0
  6
Continuous
 62
     7
100
AcDbCircle
 10
388.3474264706
 20
211.0989774204
 30
0.0
 40
2.0
100
AcDbArc
 50
271.0
 51
360.0
  0
ARC
  5
358
330
215
100
AcDbEntity
  8
0
  6
Continuous
 62
     7
100
AcDbCircle
 10
388.3474264706
 20
212.1681883679
 30
0.0
 40
2.0
100
AcDbArc
 50
0.0
 51
89.0
  0
ARC
  5
359
330
215
100
AcDbEntity
  8
RUNDUNGEN
  6
Continuous
 62
     9
100
AcDbCircle
 10
967.8348821599
 20
449.5867086257
 30
0.0
 40
786.4937458614
100
AcDbArc
 50
198.811459465
 51
199.0837765134
  0
ARC
  5
35A
330
215
100
AcDbEntity
  8
RUNDUNGEN
  6
Continuous
 62
     9
100
AcDbCircle
 10
892.5612620041
 20
426.9545497492
 30
0.0
 40
709.0046128703
100
AcDbArc
 50
199.0780856674
 51
199.4065984953
  0
ARC
  5
35B
330
215
100
AcDbEntity
  8
RUNDUNGEN
  6
Continuous
 62
     9
100
AcDbCircle
 10
227.9854710022
 20
9622.6155808358
 30
0.0
 40
9527.1799162198
100
AcDbArc
 50
270.0142044021
 51
270.1738691266
  0
ARC
  5
35C
330
215
100
AcDbEntity
  8
RUNDUNGEN
  6
Continuous
 62
     9
100
AcDbCircle
 10
228.221376091
 20
9113.4436553475
 30
0.0
 40
9017.0081008941
100
AcDbArc
 50
270.0135090849
 51
270.1813208871
  0
SPLINE
  5
35D
330
215
100
AcDbEntity
  8
0
  6
Continuous
 62
     7
100
AcDbSpline
210
0.0
220
0.0
230
1.0
 70
     8
 71
     3
 72
     9
 73
     5
 74
     0
 42
0.0000000001
 43
0.0000000001
 40
0.0
 40
0.0
 40
0.0
 40
0.0
 40
0.2514165847
 40
1.0
 40
1.0
 40
1.0
 40
1.0
 10
215.8447739066
 20
218.0086557594
 30
0.0
 10
215.7608584248
 20
217.9727483506
 30
0.0
 10
215.4246612627
 20
217.8357791994
 30
0.0
 10
215.0777525276
 20
217.7241891039
 30
0.0
 10
214.8137220761
 20
217.6598003164
 30
0.0
  0
SPLINE
  5
35E
330
215
100
AcDbEntity
  8
0
  6
Continuous
 62
     7
100
AcDbSpline
210
0.0
220
0.0
230
1.0
 70
     8
 71
     3
 72
     9
 73
     5
 74
     0
 42
0.0000000001
 43
0.0000000001
 40
0.0
 40
0.0
 40
0.0
 40
0.0
 40
0.2514165847
 40
1.0
 40
1.0
 40
1.0
 40
1.0
 10
209.3447739066
 20
218.0086557594
 30
0.0
 10
209.2608584248
 20
217.9727483506
 30
0.0
 10
208.9246612627
 20
217.8357791994
 30
0.0
 10
208.5777525276
 20
217.7241891039
 30
0.0
 10
208.3137220761
 20
217.6598003164
 30
0.0
  0
SPLINE
  5
35F
330
215
100
AcDbEntity
  8
0
  6
Continuous
 62
     7
100
AcDbSpline
210
0.0
220
0.0
230
1.0
 70
     8
 71
     3
 72
     9
 73
     5
 74
     0
 42
0.0000000001
 43
0.0000000001
 40
0.0
 40
0.0
 40
0.0
 40
0.0
 40
0.2487607902
 40
1.0
 40
1.0
 40
1.0
 40
1.0
 10
205.8811308651
 20
217.6598003164
 30
0.0
 10
205.7933912426
 20
217.6811972722
 30
0.0
 10
205.4427552327
 20
217.7756649922
 30
0.0
 10
205.1008868605
 20
217.9013376471
 30
0.0
 10
204.8501442664
 20
218.0086276422
 30
0.0
  0
SPLINE
  5
360
330
215
100
AcDbEntity
  8
0
  6
Continuous
 62
     7
100
AcDbSpline
210
0.0
220
0.0
230
1.0
 70
     8
 71
     3
 72
     9
 73
     5
 74
     0
 42
0.0000000001
 43
0.0000000001
 40
0.0
 40
0.0
 40
0.0
 40
0.0
 40
0.2487607902
 40
1.0
 40
1.0
 40
1.0
 40
1.0
 10
212.3811308651
 20
217.6598003164
 30
0.0
 10
212.2933912426
 20
217.6811972722
 30
0.0
 10
211.9427552327
 20
217.7756649922
 30
0.0
 10
211.6008868605
 20
217.9013376471
 30
0.0
 10
211.3501442664
 20
218.0086276422
 30
0.0
  0
SPLINE
  5
361
330
215
100
AcDbEntity
  8
0
  6
Continuous
 62
     7
100
AcDbSpline
210
0.0
220
0.0
230
1.0
 70
     8
 71
     3
 72
    11
 73
     7
 74
     0
 42
0.0000000001
 43
0.0000000001
 40
0.0
 40
0.0
 40
0.0
 40
0.0
 40
0.2490758785
 40
0.5001467282000001
 40
0.7512402999
 40
1.0
 40
1.0
 40
1.0
 40
1.0
 10
279.8643550393
 20
126.3893735956
 30
0.0
 10
281.5621174839
 20
126.2810829757
 30
0.0
 10
284.9803582322
 20
126.2047755135
 30
0.0
 10
290.1101385379
 20
126.3365536685
 30
0.0
 10
295.2344666022
 20
126.5481658408
 30
0.0
 10
298.648238524
 20
126.6335806267
 30
0.0
 10
300.3472915554
 20
126.633582894
 30
0.0
  0
LINE
  5
362
330
215
100
AcDbEntity
  8
0
  6
Continuous
 62
     7
100
AcDbLine
 10
300.3474264706
 20
68.6335828941
 30
0.0
 11
268.3649303941
 21
68.6335828941
 31
0.0
  0
LINE
  5
363
330
215
100
AcDbEntity
  8
0
  6
Continuous
 62
     7
100
AcDbLine
 10
268.3649303941
 20
68.6335828941
 30
0.0
 11
268.3474264706
 21
68.6335828941
 31
0.0
  0
SPLINE
  5
364
330
215
100
AcDbEntity
  8
0
  6
Continuous
 62
     7
100
AcDbSpline
210
0.0
220
0.0
230
1.0
 70
     8
 71
     3
 72
    11
 73
     7
 74
     0
 42
0.0000000001
 43
0.0000000001
 40
0.0
 40
0.0
 40
0.0
 40
0.0
 40
0.2337636684
 40
0.4802518824
 40
0.7360829537000001
 40
1.0
 40
1.0
 40
1.0
 40
1.0
 10
300.3470381343
 20
121.1335828933
 30
0.0
 10
298.2752531461
 20
121.1335744376
 30
0.0
 10
294.0198863994
 20
120.9983350588
 30
0.0
 10
287.5018799129
 20
120.730209055
 30
0.0
 10
280.7076049763
 20
120.726355268
 30
0.0
 10
276.1071089141
 20
121.1570332193
 30
0.0
 10
273.8007333763
 20
121.5464892982
 30
0.0
  0
SPLINE
  5
365
330
215
100
AcDbEntity
  8
0
  6
Continuous
 62
     7
100
AcDbSpline
210
0.0
220
0.0
230
1.0
 70
     8
 71
     3
 72
    11
 73
     7
 74
     0
 42
0.0000000001
 43
0.0000000001
 40
0.0
 40
0.0
 40
0.0
 40
0.0
 40
0.2499869415
 40
0.4999793893000001
 40
0.7499836396
 40
1.0
 40
1.0
 40
1.0
 40
1.0
 10
255.850162809
 20
98.1142689952
 30
0.0
 10
255.8501796477
 20
97.9842596091
 30
0.0
 10
255.7979607576
 20
97.7213590038
 30
0.0
 10
255.5746564488
 20
97.38956775680001
 30
0.0
 10
255.2416954783
 20
97.16814285739999
 30
0.0
 10
254.9788227382
 20
97.11654253849999
 30
0.0
 10
254.8487980524
 20
97.1165602377
 30
0.0
  0
SPLINE
  5
366
330
215
100
AcDbEntity
  8
RUNDUNGEN
  6
Continuous
 62
     9
100
AcDbSpline
210
0.0
220
0.0
230
1.0
 70
     8
 71
     3
 72
     9
 73
     5
 74
     0
 42
0.0000000001
 43
0.0000000001
 40
0.0
 40
0.0
 40
0.0
 40
0.0
 40
0.5094660163000001
 40
1.0
 40
1.0
 40
1.0
 40
1.0
 10
265.9437787203
 20
103.7102013196
 30
0.0
 10
266.0589571487
 20
103.718265058
 30
0.0
 10
266.2840650345
 20
103.7757475484
 30
0.0
 10
266.474551963
 20
103.9074366815
 30
0.0
 10
266.5541949293
 20
103.9849977529
 30
0.0
  0
SPLINE
  5
367
330
215
100
AcDbEntity
  8
RUNDUNGEN
  6
Continuous
 62
     9
100
AcDbSpline
210
0.0
220
0.0
230
1.0
 70
     8
 71
     3
 72
     9
 73
     5
 74
     0
 42
0.0000000001
 43
0.0000000001
 40
0.0
 40
0.0
 40
0.0
 40
0.0
 40
0.2550907302
 40
1.0
 40
1.0
 40
1.0
 40
1.0
 10
266.5541949293
 20
103.9849977529
 30
0.0
 10
266.5779386066
 20
104.0081252879
 30
0.0
 10
266.6664238672
 20
104.1034266203
 30
0.0
 10
266.7358471154
 20
104.2161394525
 30
0.0
 10
266.7745491554
 20
104.3048567268
 30
0.0
  0
SPLINE
  5
368
330
215
100
AcDbEntity
  8
RUNDUNGEN
  6
Continuous
 62
     9
100
AcDbSpline
210
0.0
220
0.0
230
1.0
 70
     8
 71
     3
 72
    11
 73
     7
 74
     0
 42
0.0000000001
 43
0.0000000001
 40
0.0
 40
0.0
 40
0.0
 40
0.0
 40
0.2472071309
 40
0.4959229704000001
 40
0.7470206040999999
 40
1.0
 40
1.0
 40
1.0
 40
1.0
 10
256.7569714349001
 20
96.48070702680001
 30
0.0
 10
256.8849528044
 20
96.4812146633
 30
0.0
 10
257.1442818576
 20
96.53396845679999
 30
0.0
 10
257.472400152
 20
96.75646378540001
 30
0.0
 10
257.6931897809
 20
97.08933165170002
 30
0.0
 10
257.744907554
 20
97.3531806493
 30
0.0
 10
257.744802279
 20
97.4841513606
 30
0.0
  0
SPLINE
  5
369
330
215
100
AcDbEntity
  8
RUNDUNGEN
  6
Continuous
 62
     9
100
AcDbSpline
210
0.0
220
0.0
230
1.0
 70
     8
 71
     3
 72
    10
 73
     6
 74
     0
 42
0.0000000001
 43
0.0000000001
 40
0.0
 40
0.0
 40
0.0
 40
0.0
 40
0.5420663999000001
 40
0.7787786052
 40
1.0
 40
1.0
 40
1.0
 40
1.0
 10
274.3049247571
 20
121.1539675866
 30
0.0
 10
274.2317084492
 20
121.2461758627
 30
0.0
 10
274.1253791499
 20
121.3804919637
 30
0.0
 10
273.945304295
 20
121.5055730886
 30
0.0
 10
273.8494465317
 20
121.5379749074
 30
0.0
 10
273.8021130391
 20
121.546248164
 30
0.0
  0
SPLINE
  5
36B
330
215
100
AcDbEntity
  8
RUNDUNGEN
  6
Continuous
 62
     9
100
AcDbSpline
210
0.0
220
0.0
230
1.0
 70
     8
 71
     3
 72
    10
 73
     6
 74
     0
 42
0.0000000001
 43
0.0000000001
 40
0.0
 40
0.0
 40
0.0
 40
0.0
 40
0.5633321365999999
 40
0.8043030118
 40
1.0
 40
1.0
 40
1.0
 40
1.0
 10
195.4181190852
 20
215.1439321342
 30
0.0
 10
195.4179997645
 20
215.3025034799
 30
0.0
 10
195.4062874503
 20
215.5294550888
 30
0.0
 10
195.3616669091
 20
215.807526903
 30
0.0
 10
195.3306988476
 20
215.9269270712
 30
0.0
 10
195.3121159685
 20
215.978784461
 30
0.0
  0
SPLINE
  5
36C
330
215
100
AcDbEntity
  8
RUNDUNGEN
  6
Continuous
 62
     9
100
AcDbSpline
210
0.0
220
0.0
230
1.0
 70
     8
 71
     3
 72
     9
 73
     5
 74
     0
 42
0.0000000001
 43
0.0000000001
 40
0.0
 40
0.0
 40
0.0
 40
0.0
 40
0.6131548779
 40
1.0
 40
1.0
 40
1.0
 40
1.0
 10
195.3121159685
 20
215.978784461
 30
0.0
 10
195.2986296365
 20
216.0164194242
 30
0.0
 10
195.2740767618
 20
216.075866412
 30
0.0
 10
195.2276815367
 20
216.1290177318
 30
0.0
 10
195.2038809235
 20
216.1373674221
 30
0.0
  0
SPLINE
  5
36D
330
215
100
AcDbEntity
  8
RUNDUNGEN
  6
Continuous
 62
     9
100
AcDbSpline
210
0.0
220
0.0
230
1.0
 70
     8
 71
     3
 72
     8
 73
     4
 74
     0
 42
0.0000000001
 43
0.0000000001
 40
0.0
 40
0.0
 40
0.0
 40
0.0
 40
1.0
 40
1.0
 40
1.0
 40
1.0
 10
195.2038809235
 20
216.1373674221
 30
0.0
 10
195.1978072056
 20
216.1394981933
 30
0.0
 10
195.1912983523
 20
216.1407029702
 30
0.0
 10
195.1848617205
 20
216.1407053903
 30
0.0
  0
SPLINE
  5
36E
330
215
100
AcDbEntity
  8
RUNDUNGEN
  6
Continuous
 62
     9
100
AcDbSpline
210
0.0
220
0.0
230
1.0
 70
     8
 71
     3
 72
    11
 73
     7
 74
     0
 42
0.0000000001
 43
0.0000000001
 40
0.0
 40
0.0
 40
0.0
 40
0.0
 40
0.2538846142
 40
0.5054395666
 40
0.7538850936000001
 40
1.0
 40
1.0
 40
1.0
 40
1.0
 10
196.1507875762
 20
215.1407062323
 30
0.0
 10
196.1511741455
 20
215.2619934808
 30
0.0
 10
196.1090784491999
 20
215.5058392294
 30
0.0
 10
195.9230005149
 20
215.8231606877
 30
0.0
 10
195.6386701204
 20
216.0511367272
 30
0.0
 10
195.4063891065
 20
216.1224467523
 30
0.0
 10
195.2894991454
 20
216.1351300389
 30
0.0
  0
SPLINE
  5
36F
330
215
100
AcDbEntity
  8
RUNDUNGEN
  6
Continuous
 62
     9
100
AcDbSpline
210
0.0
220
0.0
230
1.0
 70
     8
 71
     3
 72
    11
 73
     7
 74
     0
 42
0.0000000001
 43
0.0000000001
 40
0.0
 40
0.0
 40
0.0
 40
0.0
 40
0.2535785195
 40
0.5050982823
 40
0.7537716034000001
 40
1.0
 40
1.0
 40
1.0
 40
1.0
 10
197.8526955381
 20
215.0386138148
 30
0.0
 10
197.8531505872
 20
215.1506355001
 30
0.0
 10
197.8172797431
 20
215.3756518027
 30
0.0
 10
197.6582128785
 20
215.6750077138
 30
0.0
 10
197.4116769032
 20
215.9032451498
 30
0.0
 10
197.2055304636
 20
215.9905537999
 30
0.0
 10
197.099504695
 20
216.0148573107
 30
0.0
  0
SPLINE
  5
370
330
215
100
AcDbEntity
  8
RUNDUNGEN
  6
Continuous
 62
     9
100
AcDbSpline
210
0.0
220
0.0
230
1.0
 70
     8
 71
     3
 72
    15
 73
    11
 74
     0
 42
0.0000000001
 43
0.0000000001
 40
0.0
 40
0.0
 40
0.0
 40
0.0
 40
0.3698457244
 40
0.5374674273000001
 40
0.6851755011
 40
0.80769567
 40
0.9011033214000001
 40
0.9362571852
 40
0.9638311324
 40
1.0
 40
1.0
 40
1.0
 40
1.0
 10
198.6539241486
 20
215.0185775783
 30
0.0
 10
198.6539241483
 20
215.1462069613
 30
0.0
 10
198.6483746400999
 20
215.3317903561
 30
0.0
 10
198.6281101966
 20
215.5674168817
 30
0.0
 10
198.6085125102
 20
215.7172999075
 30
0.0
 10
198.5845915969
 20
215.8406146783
 30
0.0
 10
198.5610478694
 20
215.9240915729
 30
0.0
 10
198.5387579453
 20
215.973658772
 30
0.0
 10
198.5214752515
 20
216.002223701
 30
0.0
 10
198.5017109926
 20
216.0185661714
 30
0.0
 10
198.4892295486
 20
216.0185764449
 30
0.0
  0
SPLINE
  5
371
330
215
100
AcDbEntity
  8
RUNDUNGEN
  6
Continuous
 62
     9
100
AcDbSpline
210
0.0
220
0.0
230
1.0
 70
     8
 71
     3
 72
    15
 73
    11
 74
     0
 42
0.0000000001
 43
0.0000000001
 40
0.0
 40
0.0
 40
0.0
 40
0.0
 40
0.3698464195
 40
0.5374683473
 40
0.6851765086000001
 40
0.8076965997
 40
0.9011039990999998
 40
0.9362576805999999
 40
0.9638314237000001
 40
1.0
 40
1.0
 40
1.0
 40
1.0
 10
222.0409287926
 20
215.0185775783
 30
0.0
 10
222.0409287926
 20
215.1462072785
 30
0.0
 10
222.0464783251
 20
215.3317911047
 30
0.0
 10
222.0667428709
 20
215.5674181141
 30
0.0
 10
222.0863406428
 20
215.7173013051
 30
0.0
 10
222.1102616631
 20
215.8406160448
 30
0.0
 10
222.1338054668
 20
215.9240927993
 30
0.0
 10
222.156095511
 20
215.973659741
 30
0.0
 10
222.1733782226
 20
216.0022244134
 30
0.0
 10
222.1931427174
 20
216.0185664848
 30
0.0
 10
222.2056240687
 20
216.0185764455
 30
0.0
  0
SPLINE
  5
372
330
215
100
AcDbEntity
  8
RUNDUNGEN
  6
Continuous
 62
     9
100
AcDbSpline
210
0.0
220
0.0
230
1.0
 70
     8
 71
     3
 72
    11
 73
     7
 74
     0
 42
0.0000000001
 43
0.0000000001
 40
0.0
 40
0.0
 40
0.0
 40
0.0
 40
0.2539860356
 40
0.5055177999
 40
0.7538488658000001
 40
1.0
 40
1.0
 40
1.0
 40
1.0
 10
222.842153169
 20
215.0386138147
 30
0.0
 10
222.8416453128
 20
215.1636332067
 30
0.0
 10
222.8865787336
 20
215.4150791753
 30
0.0
 10
223.0839738497
 20
215.7392049246
 30
0.0
 10
223.3840179938
 20
215.965894189
 30
0.0
 10
223.6266145393
 20
216.0294071649
 30
0.0
 10
223.747554867
 20
216.0367630543
 30
0.0
  0
SPLINE
  5
373
330
215
100
AcDbEntity
  8
RUNDUNGEN
  6
Continuous
 62
     9
100
AcDbSpline
210
0.0
220
0.0
230
1.0
 70
     8
 71
     3
 72
    11
 73
     7
 74
     0
 42
0.0000000001
 43
0.0000000001
 40
0.0
 40
0.0
 40
0.0
 40
0.0
 40
0.2538846082
 40
0.5054395588000001
 40
0.7538850887000001
 40
1.0
 40
1.0
 40
1.0
 40
1.0
 10
224.544065365
 20
215.1407062323
 30
0.0
 10
224.5436787909
 20
215.2619934326
 30
0.0
 10
224.5857744608
 20
215.5058390845
 30
0.0
 10
224.7718522497
 20
215.8231604568
 30
0.0
 10
225.056182453
 20
216.0511365126
 30
0.0
 10
225.2884633422
 20
216.1224466297
 30
0.0
 10
225.4053532547
 20
216.13512998
 30
0.0
  0
SPLINE
  5
374
330
215
100
AcDbEntity
  8
RUNDUNGEN
  6
Continuous
 62
     9
100
AcDbSpline
210
0.0
220
0.0
230
1.0
 70
     8
 71
     3
 72
    10
 73
     6
 74
     0
 42
0.0000000001
 43
0.0000000001
 40
0.0
 40
0.0
 40
0.0
 40
0.0
 40
0.5633321368000001
 40
0.8043030118999999
 40
1.0
 40
1.0
 40
1.0
 40
1.0
 10
225.2767338557
 20
215.1439321342
 30
0.0
 10
225.2768531763
 20
215.3025034801
 30
0.0
 10
225.2885654909
 20
215.5294550892
 30
0.0
 10
225.3331860322
 20
215.8075269036
 30
0.0
 10
225.3641540937
 20
215.9269270718
 30
0.0
 10
225.382736973
 20
215.9787844616
 30
0.0
  0
SPLINE
  5
375
330
215
100
AcDbEntity
  8
RUNDUNGEN
  6
Continuous
 62
     9
100
AcDbSpline
210
0.0
220
0.0
230
1.0
 70
     8
 71
     3
 72
     9
 73
     5
 74
     0
 42
0.0000000001
 43
0.0000000001
 40
0.0
 40
0.0
 40
0.0
 40
0.0
 40
0.6131785441
 40
1.0
 40
1.0
 40
1.0
 40
1.0
 10
225.382736973
 20
215.9787844616
 30
0.0
 10
225.3962252531
 20
216.0164248614
 30
0.0
 10
225.4207792155
 20
216.0758777058
 30
0.0
 10
225.4671883018
 20
216.1290328279
 30
0.0
 10
225.4909928419
 20
216.1373747236
 30
0.0
  0
SPLINE
  5
376
330
215
100
AcDbEntity
  8
RUNDUNGEN
  6
Continuous
 62
     9
100
AcDbSpline
210
0.0
220
0.0
230
1.0
 70
     8
 71
     3
 72
     8
 73
     4
 74
     0
 42
0.0000000001
 43
0.0000000001
 40
0.0
 40
0.0
 40
0.0
 40
0.0
 40
1.0
 40
1.0
 40
1.0
 40
1.0
 10
225.4909928419
 20
216.1373747236
 30
0.0
 10
225.4970631088
 20
216.1395019452
 30
0.0
 10
225.5035676277
 20
216.1407039957
 30
0.0
 10
225.5099998287
 20
216.1407053928
 30
0.0
  0
SPLINE
  5
377
330
215
100
AcDbEntity
  8
RUNDUNGEN
  6
Continuous
 62
     9
100
AcDbSpline
210
0.0
220
0.0
230
1.0
 70
     8
 71
     3
 72
    14
 73
    10
 74
     0
 42
0.0000000001
 43
0.0000000001
 40
0.0
 40
0.0
 40
0.0
 40
0.0
 40
0.3579267157
 40
0.5210618637
 40
0.6659600092
 40
0.7879528134
 40
0.8837851467
 40
0.9526966294999999
 40
1.0
 40
1.0
 40
1.0
 40
1.0
 10
225.2776644895
 20
209.1162801572
 30
0.0
 10
225.2776644895
 20
208.989931079
 30
0.0
 10
225.2854457403
 20
208.8057911308
 30
0.0
 10
225.3134848745
 20
208.5722818471
 30
0.0
 10
225.3409644908
 20
208.422872762
 30
0.0
 10
225.3739681574
 20
208.2989490954
 30
0.0
 10
225.4121736801
 20
208.204797857
 30
0.0
 10
225.4522238507
 20
208.1409918002
 30
0.0
 10
225.4902264063
 20
208.1176783887
 30
0.0
 10
225.5068780744
 20
208.1164324621
 30
0.0
  0
SPLINE
  5
378
330
215
100
AcDbEntity
  8
RUNDUNGEN
  6
Continuous
 62
     9
100
AcDbSpline
210
0.0
220
0.0
230
1.0
 70
     8
 71
     3
 72
    11
 73
     7
 74
     0
 42
0.0000000001
 43
0.0000000001
 40
0.0
 40
0.0
 40
0.0
 40
0.0
 40
0.2458850584
 40
0.4943967868
 40
0.7461819768000001
 40
1.0
 40
1.0
 40
1.0
 40
1.0
 10
225.5068780744
 20
208.1164324621
 30
0.0
 10
225.3816234566
 20
208.1175118229
 30
0.0
 10
225.1274097148
 20
208.1719250226
 30
0.0
 10
224.8085805893
 20
208.3961231758
 30
0.0
 10
224.5958150724
 20
208.7269807685
 30
0.0
 10
224.5455363465
 20
208.9869806783
 30
0.0
 10
224.5450236322
 20
209.1162801572
 30
0.0
  0
SPLINE
  5
379
330
215
100
AcDbEntity
  8
RUNDUNGEN
  6
Continuous
 62
     9
100
AcDbSpline
210
0.0
220
0.0
230
1.0
 70
     8
 71
     3
 72
    15
 73
    11
 74
     0
 42
0.0000000001
 43
0.0000000001
 40
0.0
 40
0.0
 40
0.0
 40
0.0
 40
0.0418590496
 40
0.0715366549
 40
0.1082328774
 40
0.2032221291
 40
0.3256461015
 40
0.4718872105
 40
0.6370130687
 40
1.0
 40
1.0
 40
1.0
 40
1.0
 10
224.0402284268
 20
208.0285478717
 30
0.0
 10
224.0547365534
 20
208.0272529403
 30
0.0
 10
224.0769210772
 20
208.0104165648
 30
0.0
 10
224.0980849016
 20
207.9798276221
 30
0.0
 10
224.1238261808
 20
207.9295160419
 30
0.0
 10
224.1515781694
 20
207.8453194273
 30
0.0
 10
224.1794601164
 20
207.7217634146
 30
0.0
 10
224.202350591
 20
207.5724636576
 30
0.0
 10
224.2258922161
 20
207.3389278634
 30
0.0
 10
224.232378083
 20
207.1550096787
 30
0.0
 10
224.2323780835
 20
207.0287001765
 30
0.0
  0
SPLINE
  5
37A
330
215
100
AcDbEntity
  8
RUNDUNGEN
  6
Continuous
 62
     9
100
AcDbSpline
210
0.0
220
0.0
230
1.0
 70
     8
 71
     3
 72
    12
 73
     8
 74
     0
 42
0.0000000001
 43
0.0000000001
 40
0.0
 40
0.0
 40
0.0
 40
0.0
 40
0.1347999699
 40
0.2674468697
 40
0.5209976824
 40
0.763636473
 40
1.0
 40
1.0
 40
1.0
 40
1.0
 10
222.8421582078
 20
209.0141309529
 30
0.0
 10
222.8418444383
 20
208.9370254872
 30
0.0
 10
222.8629482434
 20
208.7830971176
 30
0.0
 10
222.9822428382
 20
208.5067218436
 30
0.0
 10
223.2414116844
 20
208.2395437571
 30
0.0
 10
223.6291548577
 20
208.063491097
 30
0.0
 10
223.9050302821
 20
208.0276933956
 30
0.0
 10
224.0402284285
 20
208.0285486548
 30
0.0
  0
LINE
  5
37B
330
215
100
AcDbEntity
  8
0
  6
Continuous
 62
     9
100
AcDbLine
 10
286.3474264706
 20
74.1335828941
 30
0.0
 11
286.3474264706
 21
74.17479873249999
 31
0.0
  0
SPLINE
  5
37C
330
215
100
AcDbEntity
  8
RUNDUNGEN
  6
Continuous
 62
     9
100
AcDbSpline
210
0.0
220
0.0
230
1.0
 70
     8
 71
     3
 72
     9
 73
     5
 74
     0
 42
0.0000000001
 43
0.0000000001
 40
0.0
 40
0.0
 40
0.0
 40
0.0
 40
0.6339302889000001
 40
1.0
 40
1.0
 40
1.0
 40
1.0
 10
225.2767338557
 20
215.1439321342
 30
0.0
 10
225.1219120556
 20
215.1436533974
 30
0.0
 10
224.8776906823
 20
215.1428013433
 30
0.0
 10
224.6334599977
 20
215.1419739566
 30
0.0
 10
224.544065365
 20
215.1407062323
 30
0.0
  0
SPLINE
  5
37E
330
215
100
AcDbEntity
  8
RUNDUNGEN
  6
Continuous
 62
     9
100
AcDbSpline
210
0.0
220
0.0
230
1.0
 70
     8
 71
     3
 72
    11
 73
     7
 74
     0
 42
0.0000000001
 43
0.0000000001
 40
0.0
 40
0.0
 40
0.0
 40
0.0
 40
0.1403014234
 40
0.3668033457
 40
0.6613159170000001
 40
1.0
 40
1.0
 40
1.0
 40
1.0
 10
222.8421424637
 20
215.0386120825
 30
0.0
 10
222.8049259339
 20
215.0340955662
 30
0.0
 10
222.7069406523
 20
215.0288563658
 30
0.0
 10
222.5303860693
 20
215.0228851948
 30
0.0
 10
222.3006596347
 20
215.0194008358
 30
0.0
 10
222.1314715476
 20
215.0185774003
 30
0.0
 10
222.040972638
 20
215.0185777003
 30
0.0
  0
SPLINE
  5
37F
330
215
100
AcDbEntity
  8
RUNDUNGEN
  6
Continuous
 62
     9
100
AcDbSpline
210
0.0
220
0.0
230
1.0
 70
     8
 71
     3
 72
    14
 73
    10
 74
     0
 42
0.0000000001
 43
0.0000000001
 40
0.0
 40
0.0
 40
0.0
 40
0.0
 40
0.0473036847
 40
0.1162154333
 40
0.2120479118
 40
0.3340408945
 40
0.4789390545
 40
0.642074284
 40
1.0
 40
1.0
 40
1.0
 40
1.0
 10
195.1879748667
 20
208.1164324621
 30
0.0
 10
195.2046266452
 20
208.1176783969
 30
0.0
 10
195.2426293248
 20
208.1409920878
 30
0.0
 10
195.28267955
 20
208.2047983629
 30
0.0
 10
195.320885018
 20
208.298949866
 30
0.0
 10
195.3538886506
 20
208.4228736515
 30
0.0
 10
195.3813682172
 20
208.5722828449
 30
0.0
 10
195.4094072255
 20
208.8057918159
 30
0.0
 10
195.4171884517
 20
208.9899314343
 30
0.0
 10
195.4171884517
 20
209.1162801572
 30
0.0
  0
SPLINE
  5
380
330
215
100
AcDbEntity
  8
RUNDUNGEN
  6
Continuous
 62
     9
100
AcDbSpline
210
0.0
220
0.0
230
1.0
 70
     8
 71
     3
 72
    11
 73
     7
 74
     0
 42
0.0000000001
 43
0.0000000001
 40
0.0
 40
0.0
 40
0.0
 40
0.0
 40
0.2538176591
 40
0.505604559
 40
0.7541220337000001
 40
1.0
 40
1.0
 40
1.0
 40
1.0
 10
196.1498293089
 20
209.1162801572
 30
0.0
 10
196.1492011829
 20
208.9869813989
 30
0.0
 10
196.0990990165
 20
208.7269792219
 30
0.0
 10
195.8862564061
 20
208.3961174422
 30
0.0
 10
195.5674404808
 20
208.1719416796
 30
0.0
 10
195.313226027
 20
208.1174906635
 30
0.0
 10
195.1879748667
 20
208.1164324621
 30
0.0
  0
SPLINE
  5
381
330
215
100
AcDbEntity
  8
RUNDUNGEN
  6
Continuous
 62
     9
100
AcDbSpline
210
0.0
220
0.0
230
1.0
 70
     8
 71
     3
 72
    12
 73
     8
 74
     0
 42
0.0000000001
 43
0.0000000001
 40
0.0
 40
0.0
 40
0.0
 40
0.0
 40
0.2363635268
 40
0.4790023175
 40
0.7325531303
 40
0.8652000303000001
 40
1.0
 40
1.0
 40
1.0
 40
1.0
 10
196.6546245131
 20
208.028548655
 30
0.0
 10
196.7898226593
 20
208.0276933957
 30
0.0
 10
197.0656980837
 20
208.0634910952
 30
0.0
 10
197.4534412568
 20
208.2395437554
 30
0.0
 10
197.7126101041999
 20
208.5067218413
 30
0.0
 10
197.8319046974
 20
208.7830971159
 30
0.0
 10
197.8530085031
 20
208.9370254854
 30
0.0
 10
197.8526947331
 20
209.0141309509
 30
0.0
  0
SPLINE
  5
382
330
215
100
AcDbEntity
  8
RUNDUNGEN
  6
Continuous
 62
     9
100
AcDbSpline
210
0.0
220
0.0
230
1.0
 70
     8
 71
     3
 72
    15
 73
    11
 74
     0
 42
0.0000000001
 43
0.0000000001
 40
0.0
 40
0.0
 40
0.0
 40
0.0
 40
0.3629869313
 40
0.5281127895000001
 40
0.6743538984999999
 40
0.7967778709000001
 40
0.8917671225999999
 40
0.9284633451000001
 40
0.9581409503999999
 40
1.0
 40
1.0
 40
1.0
 40
1.0
 10
196.4624748577
 20
207.0287001765
 30
0.0
 10
196.4624748582
 20
207.1550096787
 30
0.0
 10
196.4689607252999
 20
207.3389278635
 30
0.0
 10
196.4925023505
 20
207.5724636576
 30
0.0
 10
196.5153928253
 20
207.7217634146
 30
0.0
 10
196.5432747723
 20
207.8453194273
 30
0.0
 10
196.5710267609999
 20
207.9295160419
 30
0.0
 10
196.5967680402
 20
207.9798276221
 30
0.0
 10
196.6179318647
 20
208.0104165648
 30
0.0
 10
196.6401163885
 20
208.0272529403
 30
0.0
 10
196.654624515
 20
208.0285478717
 30
0.0
  0
SPLINE
  5
383
330
215
100
AcDbEntity
  8
RUNDUNGEN
  6
Continuous
 62
     9
100
AcDbSpline
210
0.0
220
0.0
230
1.0
 70
     8
 71
     3
 72
    11
 73
     7
 74
     0
 42
0.0000000001
 43
0.0000000001
 40
0.0
 40
0.0
 40
0.0
 40
0.0
 40
0.3386842708
 40
0.6331970499000001
 40
0.8596991824999999
 40
1.0
 40
1.0
 40
1.0
 40
1.0
 10
198.6538800827
 20
215.0185777009
 30
0.0
 10
198.5633810968
 20
215.0185773994
 30
0.0
 10
198.3941928487
 20
215.0194007885
 30
0.0
 10
198.1644662096
 20
215.0228853528
 30
0.0
 10
197.9879115672
 20
215.0288560065
 30
0.0
 10
197.8899264582
 20
215.0340960376
 30
0.0
 10
197.8527100297
 20
215.0386121342
 30
0.0
  0
SPLINE
  5
384
330
215
100
AcDbEntity
  8
RUNDUNGEN
  6
Continuous
 62
     9
100
AcDbSpline
210
0.0
220
0.0
230
1.0
 70
     8
 71
     3
 72
     9
 73
     5
 74
     0
 42
0.0000000001
 43
0.0000000001
 40
0.0
 40
0.0
 40
0.0
 40
0.0
 40
0.6339192545000002
 40
1.0
 40
1.0
 40
1.0
 40
1.0
 10
195.4171884517
 20
214.1335828941
 30
0.0
 10
195.5720013841
 20
214.1332986726
 30
0.0
 10
195.8162128132
 20
214.1324373962
 30
0.0
 10
196.0604342815
 20
214.1316438596
 30
0.0
 10
196.1498277767
 20
214.1303569922
 30
0.0
  0
SPLINE
  5
385
330
215
100
AcDbEntity
  8
RUNDUNGEN
  6
Continuous
 62
     9
100
AcDbSpline
210
0.0
220
0.0
230
1.0
 70
     8
 71
     3
 72
     9
 73
     5
 74
     0
 42
0.0000000001
 43
0.0000000001
 40
0.0
 40
0.0
 40
0.0
 40
0.0
 40
0.3660697111
 40
1.0
 40
1.0
 40
1.0
 40
1.0
 10
196.1507875762
 20
215.1407062323
 30
0.0
 10
196.0613929434
 20
215.1419739566
 30
0.0
 10
195.8171622588
 20
215.1428013433
 30
0.0
 10
195.5729408855
 20
215.1436533974
 30
0.0
 10
195.4181190855
 20
215.1439321342
 30
0.0
  0
SPLINE
  5
386
330
215
100
AcDbEntity
  8
RUNDUNGEN
  6
Continuous
 62
     9
100
AcDbSpline
210
0.0
220
0.0
230
1.0
 70
     8
 71
     3
 72
    14
 73
    10
 74
     0
 42
0.0000000001
 43
0.0000000001
 40
0.0
 40
0.0
 40
0.0
 40
0.0
 40
0.3580350243999999
 40
0.5211093386
 40
0.6659401516
 40
0.7878641979000001
 40
0.8836605225999999
 40
0.9526001124
 40
1.0
 40
1.0
 40
1.0
 40
1.0
 10
195.4003480916
 20
195.9087143159
 30
0.0
 10
195.4002530546
 20
196.0347414287
 30
0.0
 10
195.3923616937
 20
196.2183689284
 30
0.0
 10
195.3641892094
 20
196.451180317
 30
0.0
 10
195.3366521072999
 20
196.6000688493999
 30
0.0
 10
195.3035949811999
 20
196.7235382877
 30
0.0
 10
195.2653767294
 20
196.8173424558
 30
0.0
 10
195.2252715007
 20
196.8809104653
 30
0.0
 10
195.1873044766
 20
196.9040937289
 30
0.0
 10
195.1706661922
 20
196.9053361091
 30
0.0
  0
SPLINE
  5
387
330
215
100
AcDbEntity
  8
RUNDUNGEN
  6
Continuous
 62
     9
100
AcDbSpline
210
0.0
220
0.0
230
1.0
 70
     8
 71
     3
 72
    11
 73
     7
 74
     0
 42
0.0000000001
 43
0.0000000001
 40
0.0
 40
0.0
 40
0.0
 40
0.0
 40
0.1408961
 40
0.3660783299
 40
0.659413397
 40
1.0
 40
1.0
 40
1.0
 40
1.0
 10
196.1325122944
 20
195.905488414
 30
0.0
 10
196.0981646847
 20
195.9071294062
 30
0.0
 10
196.0087583502
 20
195.9056652067
 30
0.0
 10
195.8478641651
 20
195.9077467929
 30
0.0
 10
195.6381853645
 20
195.9088482541
 30
0.0
 10
195.483457725
 20
195.9072345801
 30
0.0
 10
195.4003480916
 20
195.9087143159
 30
0.0
  0
SPLINE
  5
388
330
215
100
AcDbEntity
  8
RUNDUNGEN
  6
Continuous
 62
     9
100
AcDbSpline
210
0.0
220
0.0
230
1.0
 70
     8
 71
     3
 72
    11
 73
     7
 74
     0
 42
0.0000000001
 43
0.0000000001
 40
0.0
 40
0.0
 40
0.0
 40
0.0
 40
0.245885411
 40
0.494397135
 40
0.7461821147
 40
1.0
 40
1.0
 40
1.0
 40
1.0
 10
195.1706661922
 20
196.9053361091
 30
0.0
 10
195.2959204078
 20
196.9042557919
 30
0.0
 10
195.5501327439
 20
196.8498412781
 30
0.0
 10
195.868959428
 20
196.6256427141
 30
0.0
 10
196.0817225467
 20
196.2947859418
 30
0.0
 10
196.1319999775
 20
196.0347872322
 30
0.0
 10
196.1325122944
 20
195.905488414
 30
0.0
  0
SPLINE
  5
389
330
215
100
AcDbEntity
  8
RUNDUNGEN
  6
Continuous
 62
     9
100
AcDbSpline
210
0.0
220
0.0
230
1.0
 70
     8
 71
     3
 72
    15
 73
    11
 74
     0
 42
0.0000000001
 43
0.0000000001
 40
0.0
 40
0.0
 40
0.0
 40
0.0
 40
0.3629869311
 40
0.5281127893999999
 40
0.6743538987000001
 40
0.7967778717
 40
0.891767124
 40
0.9284633466999999
 40
0.9581409520000001
 40
1.0
 40
1.0
 40
1.0
 40
1.0
 10
196.4624748577
 20
197.9940947027
 30
0.0
 10
196.4624748577
 20
197.8677852008
 30
0.0
 10
196.468960725
 20
197.6838670163
 30
0.0
 10
196.492502352
 20
197.4503312226
 30
0.0
 10
196.5153928281999
 20
197.3010314657
 30
0.0
 10
196.5432747766
 20
197.177475453
 30
0.0
 10
196.5710267659
 20
197.0932788382
 30
0.0
 10
196.5967680451
 20
197.0429672578
 30
0.0
 10
196.6179318688
 20
197.0123783154
 30
0.0
 10
196.6401163913
 20
196.9955419391
 30
0.0
 10
196.6546245172
 20
196.9942470076
 30
0.0
  0
SPLINE
  5
38A
330
215
100
AcDbEntity
  8
RUNDUNGEN
  6
Continuous
 62
     9
100
AcDbSpline
210
0.0
220
0.0
230
1.0
 70
     8
 71
     3
 72
     9
 73
     5
 74
     0
 42
0.0000000001
 43
0.0000000001
 40
0.0
 40
0.0
 40
0.0
 40
0.0
 40
0.4929738951
 40
1.0
 40
1.0
 40
1.0
 40
1.0
 10
196.6546245104
 20
196.9942450723
 30
0.0
 10
196.796037273
 20
196.9951398186
 30
0.0
 10
197.0846645322
 20
196.9563256062
 30
0.0
 10
197.3491470369
 20
196.8282972265
 30
0.0
 10
197.4654972374
 20
196.741019759
 30
0.0
  0
SPLINE
  5
38B
330
215
100
AcDbEntity
  8
RUNDUNGEN
  6
Continuous
 62
     9
100
AcDbSpline
210
0.0
220
0.0
230
1.0
 70
     8
 71
     3
 72
    11
 73
     7
 74
     0
 42
0.0000000001
 43
0.0000000001
 40
0.0
 40
0.0
 40
0.0
 40
0.0
 40
0.269633971
 40
0.5111670928000001
 40
0.7521208511000001
 40
1.0
 40
1.0
 40
1.0
 40
1.0
 10
197.4655008452
 20
196.7410212597
 30
0.0
 10
197.5033451164
 20
196.6786245862
 30
0.0
 10
197.542678358
 20
196.5390604144
 30
0.0
 10
197.5172755681
 20
196.3344682979
 30
0.0
 10
197.4473698258
 20
196.1482567869
 30
0.0
 10
197.3803934734
 20
196.0335392298
 30
0.0
 10
197.3429849497
 20
195.9778486032
 30
0.0
  0
SPLINE
  5
38C
330
215
100
AcDbEntity
  8
RUNDUNGEN
  6
Continuous
 62
     9
100
AcDbSpline
210
0.0
220
0.0
230
1.0
 70
     8
 71
     3
 72
    11
 73
     7
 74
     0
 42
0.0000000001
 43
0.0000000001
 40
0.0
 40
0.0
 40
0.0
 40
0.0
 40
0.22596112
 40
0.471502663
 40
0.7325899674
 40
1.0
 40
1.0
 40
1.0
 40
1.0
 10
197.3429849497
 20
195.9778486032
 30
0.0
 10
197.3604811609
 20
195.8888375167
 30
0.0
 10
197.4341640391999
 20
195.7094998638
 30
0.0
 10
197.6281169131
 20
195.4832462294
 30
0.0
 10
197.8885905748
 20
195.3077492964
 30
0.0
 10
198.090708936
 20
195.2352662383
 30
0.0
 10
198.1954682432
 20
195.2118043988
 30
0.0
  0
SPLINE
  5
38D
330
215
100
AcDbEntity
  8
RUNDUNGEN
  6
Continuous
 62
     9
100
AcDbSpline
210
0.0
220
0.0
230
1.0
 70
     8
 71
     3
 72
     9
 73
     5
 74
     0
 42
0.0000000001
 43
0.0000000001
 40
0.0
 40
0.0
 40
0.0
 40
0.0
 40
0.4503299493
 40
1.0
 40
1.0
 40
1.0
 40
1.0
 10
198.0032869543
 20
196.7116606544
 30
0.0
 10
197.9797395893
 20
196.8247346797
 30
0.0
 10
197.95021404
 20
197.0803000801
 30
0.0
 10
197.940867566
 20
197.3367266788
 30
0.0
 10
197.940867566
 20
197.4777050975
 30
0.0
  0
SPLINE
  5
38E
330
215
100
AcDbEntity
  8
RUNDUNGEN
  6
Continuous
 62
     9
100
AcDbSpline
210
0.0
220
0.0
230
1.0
 70
     8
 71
     3
 72
    15
 73
    11
 74
     0
 42
0.0000000001
 43
0.0000000001
 40
0.0
 40
0.0
 40
0.0
 40
0.0
 40
0.0532247045
 40
0.1307241537
 40
0.2321411076
 40
0.3551960046
 40
0.4971178095
 40
0.6544877997000001
 40
0.8235356909999998
 40
1.0
 40
1.0
 40
1.0
 40
1.0
 10
197.4654982364
 20
196.7410211194
 30
0.0
 10
197.4658663718
 20
196.7566629288
 30
0.0
 10
197.4781204452
 20
196.7940355082
 30
0.0
 10
197.5062821574
 20
196.8557979419
 30
0.0
 10
197.5488851145
 20
196.9339432893
 30
0.0
 10
197.6058399761
 20
197.0253346587
 30
0.0
 10
197.6753529109999
 20
197.1282485801
 30
0.0
 10
197.7554132577
 20
197.240267918
 30
0.0
 10
197.8451438281
 20
197.3577815116
 30
0.0
 10
197.9087455501
 20
197.4369730239
 30
0.0
 10
197.940867566
 20
197.4777050975
 30
0.0
  0
SPLINE
  5
38F
330
215
100
AcDbEntity
  8
RUNDUNGEN
  6
Continuous
 62
     9
100
AcDbSpline
210
0.0
220
0.0
230
1.0
 70
     8
 71
     3
 72
     9
 73
     5
 74
     0
 42
0.0000000001
 43
0.0000000001
 40
0.0
 40
0.0
 40
0.0
 40
0.0
 40
0.5410341113000001
 40
1.0
 40
1.0
 40
1.0
 40
1.0
 10
198.0032869543
 20
196.7116606544
 30
0.0
 10
197.9081619411
 20
196.6844522333
 30
0.0
 10
197.7240470726
 20
196.6572884952999
 30
0.0
 10
197.5389861154
 20
196.7004739352
 30
0.0
 10
197.4654982364
 20
196.7410211194
 30
0.0
  0
SPLINE
  5
390
330
215
100
AcDbEntity
  8
RUNDUNGEN
  6
Continuous
 62
     9
100
AcDbSpline
210
0.0
220
0.0
230
1.0
 70
     8
 71
     3
 72
    14
 73
    10
 74
     0
 42
0.0000000001
 43
0.0000000001
 40
0.0
 40
0.0
 40
0.0
 40
0.0
 40
0.2474838765
 40
0.3737637829
 40
0.5019052896
 40
0.6311011426
 40
0.7583847417000001
 40
0.8810546103
 40
1.0
 40
1.0
 40
1.0
 40
1.0
 10
196.1292210603
 20
192.4423549897
 30
0.0
 10
196.1175739111
 20
192.3163520111
 30
0.0
 10
196.1138205582
 20
192.1237485679
 30
0.0
 10
196.1540649189
 20
191.8695471666
 30
0.0
 10
196.2167447149
 20
191.682381309
 30
0.0
 10
196.3238684505
 20
191.5139177712
 30
0.0
 10
196.483255808
 20
191.3942544384
 30
0.0
 10
196.6712487093
 20
191.3498314258
 30
0.0
 10
196.7959088149
 20
191.3614382967
 30
0.0
 10
196.8554650703
 20
191.3737601611
 30
0.0
  0
SPLINE
  5
391
330
215
100
AcDbEntity
  8
RUNDUNGEN
  6
Continuous
 62
     9
100
AcDbSpline
210
0.0
220
0.0
230
1.0
 70
     8
 71
     3
 72
     9
 73
     5
 74
     0
 42
0.0000000001
 43
0.0000000001
 40
0.0
 40
0.0
 40
0.0
 40
0.0
 40
0.6339224438000001
 40
1.0
 40
1.0
 40
1.0
 40
1.0
 10
195.3971485151
 20
192.4455808967
 30
0.0
 10
195.5518424724
 20
192.4453020473
 30
0.0
 10
195.7958652008
 20
192.4444503267
 30
0.0
 10
196.0398972324
 20
192.4436222787
 30
0.0
 10
196.1292210603
 20
192.4423549897
 30
0.0
  0
SPLINE
  5
392
330
215
100
AcDbEntity
  8
RUNDUNGEN
  6
Continuous
 62
     9
100
AcDbSpline
210
0.0
220
0.0
230
1.0
 70
     8
 71
     3
 72
     9
 73
     5
 74
     0
 42
0.0000000001
 43
0.0000000001
 40
0.0
 40
0.0
 40
0.0
 40
0.0
 40
0.6339219822
 40
1.0
 40
1.0
 40
1.0
 40
1.0
 10
225.2945048496
 20
195.9087143159
 30
0.0
 10
225.1397916375
 20
195.9084353959
 30
0.0
 10
224.8957383566
 20
195.9075835991
 30
0.0
 10
224.6516757736
 20
195.9067556529
 30
0.0
 10
224.5623406468
 20
195.905488414
 30
0.0
  0
SPLINE
  5
393
330
215
100
AcDbEntity
  8
RUNDUNGEN
  6
Continuous
 62
     9
100
AcDbSpline
210
0.0
220
0.0
230
1.0
 70
     8
 71
     3
 72
    14
 73
    10
 74
     0
 42
0.0000000001
 43
0.0000000001
 40
0.0
 40
0.0
 40
0.0
 40
0.0
 40
0.0474002867
 40
0.1163401994
 40
0.2121367417
 40
0.3340609694999999
 40
0.4788917849
 40
0.6419662684000001
 40
1.0
 40
1.0
 40
1.0
 40
1.0
 10
225.524186749
 20
196.9053361091
 30
0.0
 10
225.5075483254
 20
196.9040937184999
 30
0.0
 10
225.4695812137
 20
196.8809099937
 30
0.0
 10
225.4294757781
 20
196.8173418379
 30
0.0
 10
225.3912577112
 20
196.7235372666
 30
0.0
 10
225.3582005583
 20
196.6000677303
 30
0.0
 10
225.3306635289
 20
196.4511790527
 30
0.0
 10
225.3024912235
 20
196.2183680591
 30
0.0
 10
225.2945998863
 20
196.0347409668
 30
0.0
 10
225.2945048496
 20
195.9087143159
 30
0.0
  0
SPLINE
  5
394
330
215
100
AcDbEntity
  8
RUNDUNGEN
  6
Continuous
 62
     9
100
AcDbSpline
210
0.0
220
0.0
230
1.0
 70
     8
 71
     3
 72
    11
 73
     7
 74
     0
 42
0.0000000001
 43
0.0000000001
 40
0.0
 40
0.0
 40
0.0
 40
0.0
 40
0.2538176474
 40
0.5056045077000001
 40
0.7541219586
 40
1.0
 40
1.0
 40
1.0
 40
1.0
 10
224.5623406468
 20
195.905488414
 30
0.0
 10
224.562970863
 20
196.0347865218
 30
0.0
 10
224.6130687221
 20
196.2947875052
 30
0.0
 10
224.8259104993
 20
196.6256482678
 30
0.0
 10
225.1447232944
 20
196.8498245083
 30
0.0
 10
225.3989361734
 20
196.9042769229
 30
0.0
 10
225.524186749
 20
196.9053361091
 30
0.0
  0
SPLINE
  5
395
330
215
100
AcDbEntity
  8
RUNDUNGEN
  6
Continuous
 62
     9
100
AcDbSpline
210
0.0
220
0.0
230
1.0
 70
     8
 71
     3
 72
     9
 73
     5
 74
     0
 42
0.0000000001
 43
0.0000000001
 40
0.0
 40
0.0
 40
0.0
 40
0.0
 40
0.5488035186
 40
1.0
 40
1.0
 40
1.0
 40
1.0
 10
223.7644140519
 20
190.6109412318
 30
0.0
 10
223.764509489
 20
190.7513810375
 30
0.0
 10
223.7758141236
 20
191.0072156282
 30
0.0
 10
223.8113702115
 20
191.2617486651
 30
0.0
 10
223.8393878652
 20
191.373759773
 30
0.0
  0
SPLINE
  5
396
330
215
100
AcDbEntity
  8
RUNDUNGEN
  6
Continuous
 62
     9
100
AcDbSpline
210
0.0
220
0.0
230
1.0
 70
     8
 71
     3
 72
    14
 73
    10
 74
     0
 42
0.0000000001
 43
0.0000000001
 40
0.0
 40
0.0
 40
0.0
 40
0.0
 40
0.1189455913
 40
0.2416158538
 40
0.3688993373
 40
0.4980950447
 40
0.626236419
 40
0.7525162448
 40
1.0
 40
1.0
 40
1.0
 40
1.0
 10
223.8393878716
 20
191.3737601566
 30
0.0
 10
223.898944228
 20
191.3614382781999
 30
0.0
 10
224.0236046484
 20
191.3498318128
 30
0.0
 10
224.2115978626
 20
191.3942545756
 30
0.0
 10
224.3709850362
 20
191.513918361
 30
0.0
 10
224.4781084493
 20
191.6823817997
 30
0.0
 10
224.5407881266
 20
191.8695475041999
 30
0.0
 10
224.5810323193
 20
192.1237487454
 30
0.0
 10
224.5772790686
 20
192.3163520802
 30
0.0
 10
224.5656318735
 20
192.4423549895
 30
0.0
  0
SPLINE
  5
397
330
215
100
AcDbEntity
  8
RUNDUNGEN
  6
Continuous
 62
     9
100
AcDbSpline
210
0.0
220
0.0
230
1.0
 70
     8
 71
     3
 72
    15
 73
    11
 74
     0
 42
0.0000000001
 43
0.0000000001
 40
0.0
 40
0.0
 40
0.0
 40
0.0
 40
0.041859048
 40
0.0715366532
 40
0.1082328758
 40
0.203222128
 40
0.3256461009
 40
0.4718872103000001
 40
0.6370130686
 40
1.0
 40
1.0
 40
1.0
 40
1.0
 10
224.0402284239
 20
196.9942470076
 30
0.0
 10
224.0547365499
 20
196.9955419391
 30
0.0
 10
224.0769210724
 20
197.0123783154
 30
0.0
 10
224.098084896
 20
197.0429672577
 30
0.0
 10
224.1238261752
 20
197.093278838
 30
0.0
 10
224.1515781645
 20
197.1774754527
 30
0.0
 10
224.1794601129
 20
197.3010314653
 30
0.0
 10
224.2023505891
 20
197.4503312222
 30
0.0
 10
224.2258922162
 20
197.6838670161
 30
0.0
 10
224.2323780834
 20
197.8677852007
 30
0.0
 10
224.2323780835
 20
197.9940947027
 30
0.0
  0
SPLINE
  5
398
330
215
100
AcDbEntity
  8
RUNDUNGEN
  6
Continuous
 62
     9
100
AcDbSpline
210
0.0
220
0.0
230
1.0
 70
     8
 71
     3
 72
     9
 73
     5
 74
     0
 42
0.0000000001
 43
0.0000000001
 40
0.0
 40
0.0
 40
0.0
 40
0.0
 40
0.5070266535
 40
1.0
 40
1.0
 40
1.0
 40
1.0
 10
223.2293554272
 20
196.7410201336
 30
0.0
 10
223.3457048413
 20
196.8282989732
 30
0.0
 10
223.6101889893
 20
196.9563251909
 30
0.0
 10
223.8988157881
 20
196.9951401405
 30
0.0
 10
224.0402284294
 20
196.9942454573
 30
0.0
  0
SPLINE
  5
399
330
215
100
AcDbEntity
  8
RUNDUNGEN
  6
Continuous
 62
     9
100
AcDbSpline
210
0.0
220
0.0
230
1.0
 70
     8
 71
     3
 72
    11
 73
     7
 74
     0
 42
0.0000000001
 43
0.0000000001
 40
0.0
 40
0.0
 40
0.0
 40
0.0
 40
0.2478791423
 40
0.4888329071000001
 40
0.7303660303
 40
1.0
 40
1.0
 40
1.0
 40
1.0
 10
223.3518679904
 20
195.9778486032
 30
0.0
 10
223.3144594718
 20
196.0335392312
 30
0.0
 10
223.2474831148
 20
196.1482567812
 30
0.0
 10
223.1775773632
 20
196.3344683049
 30
0.0
 10
223.1521746245
 20
196.5390603863
 30
0.0
 10
223.1915077086
 20
196.678624656
 30
0.0
 10
223.2293520941
 20
196.7410212598
 30
0.0
  0
SPLINE
  5
39A
330
215
100
AcDbEntity
  8
RUNDUNGEN
  6
Continuous
 62
     9
100
AcDbSpline
210
0.0
220
0.0
230
1.0
 70
     8
 71
     3
 72
    11
 73
     7
 74
     0
 42
0.0000000001
 43
0.0000000001
 40
0.0
 40
0.0
 40
0.0
 40
0.0
 40
0.2674100327
 40
0.5284973371000001
 40
0.77403888
 40
1.0
 40
1.0
 40
1.0
 40
1.0
 10
222.4993846983
 20
195.2118043963
 30
0.0
 10
222.6041440055
 20
195.2352662361
 30
0.0
 10
222.8062623666
 20
195.3077492948
 30
0.0
 10
223.0667360279
 20
195.4832462286
 30
0.0
 10
223.2606889012
 20
195.7094998636
 30
0.0
 10
223.3343717793
 20
195.8888375167
 30
0.0
 10
223.3518679904
 20
195.9778486032
 30
0.0
  0
SPLINE
  5
39B
330
215
100
AcDbEntity
  8
RUNDUNGEN
  6
Continuous
 62
     9
100
AcDbSpline
210
0.0
220
0.0
230
1.0
 70
     8
 71
     3
 72
    12
 73
     8
 74
     0
 42
0.0000000001
 43
0.0000000001
 40
0.0
 40
0.0
 40
0.0
 40
0.0
 40
0.3455826451
 40
0.644880665
 40
0.8692558172
 40
0.9470303779000001
 40
1.0
 40
1.0
 40
1.0
 40
1.0
 10
222.7539853752
 20
197.4777050976
 30
0.0
 10
222.819139071
 20
197.3997896166
 30
0.0
 10
222.934009722
 20
197.2487990536
 30
0.0
 10
223.0814024737
 20
197.0402408278
 30
0.0
 10
223.1739511874
 20
196.889026097
 30
0.0
 10
223.2168900152
 20
196.7937686979
 30
0.0
 10
223.2273636743
 20
196.7564610636
 30
0.0
 10
223.2293547047
 20
196.7410211194
 30
0.0
  0
SPLINE
  5
39C
330
215
100
AcDbEntity
  8
RUNDUNGEN
  6
Continuous
 62
     9
100
AcDbSpline
210
0.0
220
0.0
230
1.0
 70
     8
 71
     3
 72
     9
 73
     5
 74
     0
 42
0.0000000001
 43
0.0000000001
 40
0.0
 40
0.0
 40
0.0
 40
0.0
 40
0.5496699657999999
 40
1.0
 40
1.0
 40
1.0
 40
1.0
 10
222.7539853752
 20
197.4777050976
 30
0.0
 10
222.7539853751
 20
197.3367267006
 30
0.0
 10
222.7446389021
 20
197.0803001021
 30
0.0
 10
222.7151133563
 20
196.824734701
 30
0.0
 10
222.6915659869
 20
196.7116606544
 30
0.0
  0
SPLINE
  5
39D
330
215
100
AcDbEntity
  8
RUNDUNGEN
  6
Continuous
 62
     9
100
AcDbSpline
210
0.0
220
0.0
230
1.0
 70
     8
 71
     3
 72
     9
 73
     5
 74
     0
 42
0.0000000001
 43
0.0000000001
 40
0.0
 40
0.0
 40
0.0
 40
0.0
 40
0.4589975114
 40
1.0
 40
1.0
 40
1.0
 40
1.0
 10
223.2293547047
 20
196.7410211194
 30
0.0
 10
223.1559290721
 20
196.7003472265
 30
0.0
 10
222.9706973424
 20
196.6570964639
 30
0.0
 10
222.7868394441
 20
196.6849935468
 30
0.0
 10
222.6915659869
 20
196.7116606544
 30
0.0
  0
SPLINE
  5
39E
330
215
100
AcDbEntity
  8
RUNDUNGEN
  6
Continuous
 62
     9
100
AcDbSpline
210
0.0
220
0.0
230
1.0
 70
     8
 71
     3
 72
     9
 73
     5
 74
     0
 42
0.0000000001
 43
0.0000000001
 40
0.0
 40
0.0
 40
0.0
 40
0.0
 40
0.3660777413
 40
1.0
 40
1.0
 40
1.0
 40
1.0
 10
224.5656314994
 20
192.4423549895
 30
0.0
 10
224.6549554643
 20
192.4436222877
 30
0.0
 10
224.8989877475
 20
192.4444503152
 30
0.0
 10
225.1430107272
 20
192.4453020412
 30
0.0
 10
225.2977047986
 20
192.4455808913
 30
0.0
  0
SPLINE
  5
39F
330
215
100
AcDbEntity
  8
RUNDUNGEN
  6
Continuous
 62
     9
100
AcDbSpline
210
0.0
220
0.0
230
1.0
 70
     8
 71
     3
 72
     9
 73
     5
 74
     0
 42
0.0000000001
 43
0.0000000001
 40
0.0
 40
0.0
 40
0.0
 40
0.0
 40
0.4511964811000001
 40
1.0
 40
1.0
 40
1.0
 40
1.0
 10
196.8554650759
 20
191.373759773
 30
0.0
 10
196.8834827283
 20
191.2617486649
 30
0.0
 10
196.919038815
 20
191.0072156281
 30
0.0
 10
196.9303434507
 20
190.7513810375999
 30
0.0
 10
196.9304388892
 20
190.6109412318
 30
0.0
  0
SPLINE
  5
3A3
330
215
100
AcDbEntity
  8
RUNDUNGEN
  6
Continuous
 62
     9
100
AcDbSpline
210
0.0
220
0.0
230
1.0
 70
     8
 71
     3
 72
     9
 73
     5
 74
     0
 42
0.0000000001
 43
0.0000000001
 40
0.0
 40
0.0
 40
0.0
 40
0.0
 40
0.2732938413
 40
1.0
 40
1.0
 40
1.0
 40
1.0
 10
197.1020967425
 20
138.0496928464
 30
0.0
 10
197.0610713111
 20
138.0847465216
 30
0.0
 10
196.9153238936
 20
138.2179153459
 30
0.0
 10
196.7861628708
 20
138.3700974973
 30
0.0
 10
196.7080584584
 20
138.4904647768
 30
0.0
  0
SPLINE
  5
3A4
330
215
100
AcDbEntity
  8
RUNDUNGEN
  6
Continuous
 62
     9
100
AcDbSpline
210
0.0
220
0.0
230
1.0
 70
     8
 71
     3
 72
     9
 73
     5
 74
     0
 42
0.0000000001
 43
0.0000000001
 40
0.0
 40
0.0
 40
0.0
 40
0.0
 40
0.2541916106
 40
1.0
 40
1.0
 40
1.0
 40
1.0
 10
196.9873206096
 20
137.5020155981
 30
0.0
 10
196.9545532241
 20
137.5827447845999
 30
0.0
 10
196.8355461356999
 20
137.9042995355
 30
0.0
 10
196.7516192801
 20
138.2385730555
 30
0.0
 10
196.7080584584
 20
138.4904647768
 30
0.0
  0
SPLINE
  5
3A5
330
215
100
AcDbEntity
  8
RUNDUNGEN
  6
Continuous
 62
     9
100
AcDbSpline
210
0.0
220
0.0
230
1.0
 70
     8
 71
     3
 72
    15
 73
    11
 74
     0
 42
0.0000000001
 43
0.0000000001
 40
0.0
 40
0.0
 40
0.0
 40
0.0
 40
0.0466477169
 40
0.0786798323
 40
0.1177237564
 40
0.2172438569
 40
0.3433788209
 40
0.4914116418
 40
0.6550906396000001
 40
1.0
 40
1.0
 40
1.0
 40
1.0
 10
198.277071536
 20
137.5323812137
 30
0.0
 10
198.2576201259
 20
137.5309162237
 30
0.0
 10
198.2274062259999
 20
137.5105487466
 30
0.0
 10
198.1977335221
 20
137.4718385263
 30
0.0
 10
198.1623977015
 20
137.4093774589
 30
0.0
 10
198.1242031505
 20
137.3050628727
 30
0.0
 10
198.0865132543
 20
137.1532363228
 30
0.0
 10
198.0566010116
 20
136.9724341736
 30
0.0
 10
198.0284695136
 20
136.6992083939
 30
0.0
 10
198.0235109414
 20
136.4860727535
 30
0.0
 10
198.0275732709
 20
136.3419005255
 30
0.0
  0
SPLINE
  5
3A6
330
215
100
AcDbEntity
  8
RUNDUNGEN
  6
Continuous
 62
     9
100
AcDbSpline
210
0.0
220
0.0
230
1.0
 70
     8
 71
     3
 72
    10
 73
     6
 74
     0
 42
0.0000000001
 43
0.0000000001
 40
0.0
 40
0.0
 40
0.0
 40
0.0
 40
0.3185263893
 40
0.5813005058
 40
1.0
 40
1.0
 40
1.0
 40
1.0
 10
198.277071536
 20
137.5323812137
 30
0.0
 10
198.1386624164
 20
137.5349239681
 30
0.0
 10
197.8869720757
 20
137.5890046947
 30
0.0
 10
197.4880177568
 20
137.7628324717
 30
0.0
 10
197.240453293
 20
137.9314957988
 30
0.0
 10
197.102101604
 20
138.0496954597
 30
0.0
  0
SPLINE
  5
3A7
330
215
100
AcDbEntity
  8
RUNDUNGEN
  6
Continuous
 62
     9
100
AcDbSpline
210
0.0
220
0.0
230
1.0
 70
     8
 71
     3
 72
    15
 73
    11
 74
     0
 42
0.0000000001
 43
0.0000000001
 40
0.0
 40
0.0
 40
0.0
 40
0.0
 40
0.3455289032
 40
0.5092726767000001
 40
0.6572162357
 40
0.7831353444
 40
0.8823686105
 40
0.9212789109999999
 40
0.9532182473999998
 40
1.0
 40
1.0
 40
1.0
 40
1.0
 10
198.0640935091
 20
136.3415583266
 30
0.0
 10
198.0573834407
 20
136.485648641
 30
0.0
 10
198.0585296634
 20
136.6987815118
 30
0.0
 10
198.082070254
 20
136.9722309671
 30
0.0
 10
198.1090720864
 20
137.1530866574
 30
0.0
 10
198.1444684096
 20
137.3049409855999
 30
0.0
 10
198.1812475762
 20
137.40931668
 30
0.0
 10
198.2158987759
 20
137.4717752233
 30
0.0
 10
198.2452971248
 20
137.5105809305
 30
0.0
 10
198.2756066801
 20
137.5307958641
 30
0.0
 10
198.2950848272
 20
137.5322150171
 30
0.0
  0
SPLINE
  5
3A8
330
215
100
AcDbEntity
  8
RUNDUNGEN
  6
Continuous
 62
     9
100
AcDbSpline
210
0.0
220
0.0
230
1.0
 70
     8
 71
     3
 72
    15
 73
    11
 74
     0
 42
0.0000000001
 43
0.0000000001
 40
0.0
 40
0.0
 40
0.0
 40
0.0
 40
0.0466483803
 40
0.078680585
 40
0.1177243844
 40
0.2172437774
 40
0.3433778838
 40
0.4914101854
 40
0.6550892448
 40
1.0
 40
1.0
 40
1.0
 40
1.0
 10
222.4177814505
 20
137.5323778703
 30
0.0
 10
222.4372330984
 20
137.5309122028
 30
0.0
 10
222.4674468988
 20
137.510544545
 30
0.0
 10
222.4971201492
 20
137.4718343066
 30
0.0
 10
222.5324563713
 20
137.409373809
 30
0.0
 10
222.570651703
 20
137.3050601797
 30
0.0
 10
222.6083424704
 20
137.153234647
 30
0.0
 10
222.6382555218
 20
136.9724330764
 30
0.0
 10
222.6663877813
 20
136.6992068208
 30
0.0
 10
222.6713461941
 20
136.4860704009
 30
0.0
 10
222.6672833743
 20
136.3418975235
 30
0.0
  0
SPLINE
  5
3A9
330
215
100
AcDbEntity
  8
RUNDUNGEN
  6
Continuous
 62
     9
100
AcDbSpline
210
0.0
220
0.0
230
1.0
 70
     8
 71
     3
 72
    15
 73
    11
 74
     0
 42
0.0000000001
 43
0.0000000001
 40
0.0
 40
0.0
 40
0.0
 40
0.0
 40
0.0467817526
 40
0.078721089
 40
0.1176313895
 40
0.2168646556
 40
0.3427837643
 40
0.4907273233
 40
0.6544710968000001
 40
1.0
 40
1.0
 40
1.0
 40
1.0
 10
222.3997681139
 20
137.5322150171
 30
0.0
 10
222.419246261
 20
137.5307958641
 30
0.0
 10
222.4495558164
 20
137.5105809305
 30
0.0
 10
222.4789541653
 20
137.4717752233
 30
0.0
 10
222.513605365
 20
137.40931668
 30
0.0
 10
222.5503845316
 20
137.3049409855999
 30
0.0
 10
222.5857808548
 20
137.1530866574
 30
0.0
 10
222.6127826872
 20
136.9722309671
 30
0.0
 10
222.6363232777
 20
136.6987815118
 30
0.0
 10
222.6374695005
 20
136.485648641
 30
0.0
 10
222.6307594321
 20
136.3415583266
 30
0.0
  0
SPLINE
  5
3AA
330
215
100
AcDbEntity
  8
RUNDUNGEN
  6
Continuous
 62
     9
100
AcDbSpline
210
0.0
220
0.0
230
1.0
 70
     8
 71
     3
 72
    10
 73
     6
 74
     0
 42
0.0000000001
 43
0.0000000001
 40
0.0
 40
0.0
 40
0.0
 40
0.0
 40
0.4186962103000001
 40
0.6814726762000002
 40
1.0
 40
1.0
 40
1.0
 40
1.0
 10
223.5927484415
 20
138.0496925179
 30
0.0
 10
223.4544014348
 20
137.9314905404
 30
0.0
 10
223.2068321155
 20
137.7628358246
 30
0.0
 10
222.8078815684
 20
137.5890052729
 30
0.0
 10
222.5561904633
 20
137.5349233048
 30
0.0
 10
222.4177814114
 20
137.5323807577
 30
0.0
  0
SPLINE
  5
3AB
330
215
100
AcDbEntity
  8
RUNDUNGEN
  6
Continuous
 62
     9
100
AcDbSpline
210
0.0
220
0.0
230
1.0
 70
     8
 71
     3
 72
     9
 73
     5
 74
     0
 42
0.0000000001
 43
0.0000000001
 40
0.0
 40
0.0
 40
0.0
 40
0.0
 40
0.2464454231
 40
1.0
 40
1.0
 40
1.0
 40
1.0
 10
223.9867944828
 20
138.4904647768
 30
0.0
 10
223.9724018532
 20
138.4072356174
 30
0.0
 10
223.9053842576
 20
138.0711122748
 30
0.0
 10
223.8046502458
 20
137.7413189117
 30
0.0
 10
223.707529387
 20
137.5020093849
 30
0.0
  0
SPLINE
  5
3AC
330
215
100
AcDbEntity
  8
RUNDUNGEN
  6
Continuous
 62
     9
100
AcDbSpline
210
0.0
220
0.0
230
1.0
 70
     8
 71
     3
 72
     9
 73
     5
 74
     0
 42
0.0000000001
 43
0.0000000001
 40
0.0
 40
0.0
 40
0.0
 40
0.0
 40
0.2290858073
 40
1.0
 40
1.0
 40
1.0
 40
1.0
 10
223.9867944828
 20
138.4904647768
 30
0.0
 10
223.9621708873
 20
138.4525193112
 30
0.0
 10
223.8478063386
 20
138.2913764723
 30
0.0
 10
223.7084820295
 20
138.1485779911
 30
0.0
 10
223.5927549469
 20
138.0496890213
 30
0.0
  0
SPLINE
  5
3AD
330
215
100
AcDbEntity
  8
RUNDUNGEN
  6
Continuous
 62
     9
100
AcDbSpline
210
0.0
220
0.0
230
1.0
 70
     8
 71
     3
 72
    11
 73
     7
 74
     0
 42
0.0000000001
 43
0.0000000001
 40
0.0
 40
0.0
 40
0.0
 40
0.0
 40
0.245853807
 40
0.4943762024
 40
0.7461835523999999
 40
1.0
 40
1.0
 40
1.0
 40
1.0
 10
221.1507772631
 20
137.6164324621
 30
0.0
 10
221.2766571189
 20
137.6164528573
 30
0.0
 10
221.5326288183
 20
137.6693744073
 30
0.0
 10
221.8542680821
 20
137.8930845581
 30
0.0
 10
222.0694840942
 20
138.224993745
 30
0.0
 10
222.1199433059
 20
138.4863264927
 30
0.0
 10
222.1208485137
 20
138.6162801573
 30
0.0
  0
SPLINE
  5
3AE
330
215
100
AcDbEntity
  8
RUNDUNGEN
  6
Continuous
 62
     9
100
AcDbSpline
210
0.0
220
0.0
230
1.0
 70
     8
 71
     3
 72
    14
 73
    10
 74
     0
 42
0.0000000001
 43
0.0000000001
 40
0.0
 40
0.0
 40
0.0
 40
0.0
 40
0.0479149876
 40
0.1171479478
 40
0.213084341
 40
0.3350303006
 40
0.4797723657
 40
0.6426740667999999
 40
1.0
 40
1.0
 40
1.0
 40
1.0
 10
221.1507772631
 20
137.6164324621
 30
0.0
 10
221.1338797671
 20
137.6176742005
 30
0.0
 10
221.0953354914
 20
137.6407833394
 30
0.0
 10
221.0543817788
 20
137.7046775068
 30
0.0
 10
221.0154840206
 20
137.7988730722
 30
0.0
 10
220.9818516384
 20
137.9228302508
 30
0.0
 10
220.9538719466
 20
138.0722567262
 30
0.0
 10
220.9253199392
 20
138.3057603253
 30
0.0
 10
220.9173952982
 20
138.4899273177
 30
0.0
 10
220.9173952982
 20
138.6162801572
 30
0.0
  0
SPLINE
  5
3AF
330
215
100
AcDbEntity
  8
RUNDUNGEN
  6
Continuous
 62
     9
100
AcDbSpline
210
0.0
220
0.0
230
1.0
 70
     8
 71
     3
 72
    14
 73
    10
 74
     0
 42
0.0000000001
 43
0.0000000001
 40
0.0
 40
0.0
 40
0.0
 40
0.0
 40
0.0479149876
 40
0.1171479478
 40
0.213084341
 40
0.3350303005
 40
0.4797723656000001
 40
0.6426740667000001
 40
1.0
 40
1.0
 40
1.0
 40
1.0
 10
199.5440756781
 20
137.6164324621
 30
0.0
 10
199.5609731741
 20
137.6176742005
 30
0.0
 10
199.5995174497
 20
137.6407833394
 30
0.0
 10
199.6404711624
 20
137.7046775068
 30
0.0
 10
199.6793689205
 20
137.7988730721
 30
0.0
 10
199.7130013028
 20
137.9228302507
 30
0.0
 10
199.7409809945
 20
138.0722567262
 30
0.0
 10
199.769533002
 20
138.3057603252
 30
0.0
 10
199.777457643
 20
138.4899273177
 30
0.0
 10
199.777457643
 20
138.6162801572
 30
0.0
  0
SPLINE
  5
3B0
330
215
100
AcDbEntity
  8
RUNDUNGEN
  6
Continuous
 62
     9
100
AcDbSpline
210
0.0
220
0.0
230
1.0
 70
     8
 71
     3
 72
    11
 73
     7
 74
     0
 42
0.0000000001
 43
0.0000000001
 40
0.0
 40
0.0
 40
0.0
 40
0.0
 40
0.2458538137
 40
0.4943762122
 40
0.7461835596
 40
1.0
 40
1.0
 40
1.0
 40
1.0
 10
199.5440756781
 20
137.6164324621
 30
0.0
 10
199.4181958189
 20
137.616452857
 30
0.0
 10
199.1622241153
 20
137.6693744109
 30
0.0
 10
198.8405848479
 20
137.8930845668
 30
0.0
 10
198.6253688533
 20
138.2249937547999
 30
0.0
 10
198.5749096204
 20
138.4863264963
 30
0.0
 10
198.5740044275
 20
138.6162801573
 30
0.0
  0
SPLINE
  5
3B1
330
215
100
AcDbEntity
  8
RUNDUNGEN
  6
Continuous
 62
     9
100
AcDbSpline
210
0.0
220
0.0
230
1.0
 70
     8
 71
     3
 72
     9
 73
     5
 74
     0
 42
0.0000000001
 43
0.0000000001
 40
0.0
 40
0.0
 40
0.0
 40
0.0
 40
0.2494308536
 40
1.0
 40
1.0
 40
1.0
 40
1.0
 10
227.8338336366
 20
145.5896852745
 30
0.0
 10
227.7945716234
 20
145.5093553277
 30
0.0
 10
227.6347165022
 20
145.1885100132
 30
0.0
 10
227.4664888157
 20
144.8717960058
 30
0.0
 10
227.3344709527
 20
144.6373617944
 30
0.0
  0
SPLINE
  5
3B2
330
215
100
AcDbEntity
  8
RUNDUNGEN
  6
Continuous
 62
     9
100
AcDbSpline
210
0.0
220
0.0
230
1.0
 70
     8
 71
     3
 72
    13
 73
     9
 74
     0
 42
0.0000000001
 43
0.0000000001
 40
0.0
 40
0.0
 40
0.0
 40
0.0
 40
0.2816911365
 40
0.5581325543000001
 40
0.69083522
 40
0.8153137027999999
 40
0.9235583268999999
 40
1.0
 40
1.0
 40
1.0
 40
1.0
 10
226.8820922452
 20
145.1137121715
 30
0.0
 10
226.7683569712
 20
145.0591605868
 30
0.0
 10
226.5423144892
 20
144.9525247685
 30
0.0
 10
226.2603173656
 20
144.8252069645
 30
0.0
 10
226.0405133786
 20
144.7315497466
 30
0.0
 10
225.8886851206
 20
144.6701886569
 30
0.0
 10
225.7586305869
 20
144.6234436507
 30
0.0
 10
225.6790475677
 20
144.5989243039
 30
0.0
 10
225.6451337561
 20
144.5942785184
 30
0.0
  0
SPLINE
  5
3B3
330
215
100
AcDbEntity
  8
RUNDUNGEN
  6
Continuous
 62
     9
100
AcDbSpline
210
0.0
220
0.0
230
1.0
 70
     8
 71
     3
 72
    11
 73
     7
 74
     0
 42
0.0000000001
 43
0.0000000001
 40
0.0
 40
0.0
 40
0.0
 40
0.0
 40
0.243713118
 40
0.4919373554
 40
0.744865361
 40
1.0
 40
1.0
 40
1.0
 40
1.0
 10
225.6451629428
 20
144.5942846713
 30
0.0
 10
225.769084676
 20
144.5937986908
 30
0.0
 10
226.0217711053
 20
144.5397439964
 30
0.0
 10
226.3389906144
 20
144.3158702498
 30
0.0
 10
226.5527654897
 20
143.985557183
 30
0.0
 10
226.6058003396
 20
143.725542987
 30
0.0
 10
226.6079377823
 20
143.5958303216
 30
0.0
  0
SPLINE
  5
3B4
330
215
100
AcDbEntity
  8
RUNDUNGEN
  6
Continuous
 62
     9
100
AcDbSpline
210
0.0
220
0.0
230
1.0
 70
     8
 71
     3
 72
    11
 73
     7
 74
     0
 42
0.0000000001
 43
0.0000000001
 40
0.0
 40
0.0
 40
0.0
 40
0.0
 40
0.2551346401
 40
0.5080626465
 40
0.7562868843000001
 40
1.0
 40
1.0
 40
1.0
 40
1.0
 10
194.0869153071
 20
143.5958303129
 30
0.0
 10
194.0890527672
 20
143.7255429633
 30
0.0
 10
194.1420876074
 20
143.9855571245
 30
0.0
 10
194.3558624404
 20
144.3158701634
 30
0.0
 10
194.6730818858
 20
144.5397439166
 30
0.0
 10
194.9257682803
 20
144.5937986302
 30
0.0
 10
195.0496899978
 20
144.5942846202
 30
0.0
  0
SPLINE
  5
3B5
330
215
100
AcDbEntity
  8
RUNDUNGEN
  6
Continuous
 62
     9
100
AcDbSpline
210
0.0
220
0.0
230
1.0
 70
     8
 71
     3
 72
    13
 73
     9
 74
     0
 42
0.0000000001
 43
0.0000000001
 40
0.0
 40
0.0
 40
0.0
 40
0.0
 40
0.0764362033
 40
0.1846819031
 40
0.3091536919
 40
0.4418554631000001
 40
0.7183027749999999
 40
1.0
 40
1.0
 40
1.0
 40
1.0
 10
195.0497451799
 20
144.5942757405999
 30
0.0
 10
195.0158331603
 20
144.5989213405
 30
0.0
 10
194.9362482413
 20
144.6234308157
 30
0.0
 10
194.8061933582
 20
144.6701699587
 30
0.0
 10
194.6543709654
 20
144.731545872
 30
0.0
 10
194.434566915
 20
144.8252126268
 30
0.0
 10
194.1525666503
 20
144.952548641
 30
0.0
 10
193.9264917623
 20
145.0591399631
 30
0.0
 10
193.8127607043
 20
145.1137121674
 30
0.0
  0
SPLINE
  5
3B6
330
215
100
AcDbEntity
  8
RUNDUNGEN
  6
Continuous
 62
     9
100
AcDbSpline
210
0.0
220
0.0
230
1.0
 70
     8
 71
     3
 72
     9
 73
     5
 74
     0
 42
0.0000000001
 43
0.0000000001
 40
0.0
 40
0.0
 40
0.0
 40
0.0
 40
0.7505690771
 40
1.0
 40
1.0
 40
1.0
 40
1.0
 10
193.36038293
 20
144.6373635146
 30
0.0
 10
193.2283535316
 20
144.8717908901
 30
0.0
 10
193.0601485554
 20
145.1885165507
 30
0.0
 10
192.9002747058
 20
145.509352169
 30
0.0
 10
192.8610193045999
 20
145.5896852745
 30
0.0
  0
SPLINE
  5
3B7
330
215
100
AcDbEntity
  8
RUNDUNGEN
  6
Continuous
 62
     9
100
AcDbSpline
210
0.0
220
0.0
230
1.0
 70
     8
 71
     3
 72
    11
 73
     7
 74
     0
 42
0.0000000001
 43
0.0000000001
 40
0.0
 40
0.0
 40
0.0
 40
0.0
 40
0.2533656516
 40
0.5054043981000001
 40
0.7542865284999999
 40
1.0
 40
1.0
 40
1.0
 40
1.0
 10
194.1027875684
 20
143.5898278367
 30
0.0
 10
194.1045504572
 20
143.7198112368
 30
0.0
 10
194.1580589123
 20
143.9810333147
 30
0.0
 10
194.3758220486
 20
144.3120110048
 30
0.0
 10
194.6988808964
 20
144.5352514426
 30
0.0
 10
194.9553838323
 20
144.5883468906
 30
0.0
 10
195.0814530044
 20
144.5884552478
 30
0.0
  0
SPLINE
  5
3B8
330
215
100
AcDbEntity
  8
RUNDUNGEN
  6
Continuous
 62
     9
100
AcDbSpline
210
0.0
220
0.0
230
1.0
 70
     8
 71
     3
 72
    11
 73
     7
 74
     0
 42
0.0000000001
 43
0.0000000001
 40
0.0
 40
0.0
 40
0.0
 40
0.0
 40
0.2533645866
 40
0.5054060348000001
 40
0.7542959162000001
 40
1.0
 40
1.0
 40
1.0
 40
1.0
 10
198.5740044274
 20
142.6846183273999
 30
0.0
 10
198.5761134868
 20
142.8145707935
 30
0.0
 10
198.6290708847
 20
143.0757520733
 30
0.0
 10
198.8469801416
 20
143.4066945925
 30
0.0
 10
199.1698795623
 20
143.6298856031
 30
0.0
 10
199.4263215552999
 20
143.6831858244
 30
0.0
 10
199.5523614766
 20
143.6832478622
 30
0.0
  0
SPLINE
  5
3B9
330
215
100
AcDbEntity
  8
RUNDUNGEN
  6
Continuous
 62
     9
100
AcDbSpline
210
0.0
220
0.0
230
1.0
 70
     8
 71
     3
 72
    13
 73
     9
 74
     0
 42
0.0000000001
 43
0.0000000001
 40
0.0
 40
0.0
 40
0.0
 40
0.0
 40
0.3524184341
 40
0.6578015082000001
 40
0.7803912984
 40
0.8781838975999999
 40
0.9501265104000001
 40
1.0
 40
1.0
 40
1.0
 40
1.0
 10
199.7774576423
 20
142.6846183273999
 30
0.0
 10
199.7774576423
 20
142.808267799
 30
0.0
 10
199.767498475
 20
143.039116675
 30
0.0
 10
199.7298967275
 20
143.3111596737999
 30
0.0
 10
199.6831793208
 20
143.4898254365
 30
0.0
 10
199.645662189
 20
143.5857657784
 30
0.0
 10
199.605905698
 20
143.6520243109
 30
0.0
 10
199.5694490974
 20
143.6794776685
 30
0.0
 10
199.5523614766
 20
143.6832478622
 30
0.0
  0
SPLINE
  5
3BA
330
215
100
AcDbEntity
  8
RUNDUNGEN
  6
Continuous
 62
     9
100
AcDbSpline
210
0.0
220
0.0
230
1.0
 70
     8
 71
     3
 72
    13
 73
     9
 74
     0
 42
0.0000000001
 43
0.0000000001
 40
0.0
 40
0.0
 40
0.0
 40
0.0
 40
0.3524184349
 40
0.6578015096000001
 40
0.7803912995000001
 40
0.8781838983
 40
0.9501265107
 40
1.0
 40
1.0
 40
1.0
 40
1.0
 10
220.9173952982
 20
142.6846183273999
 30
0.0
 10
220.9173952982
 20
142.8082677992
 30
0.0
 10
220.9273544666
 20
143.0391166758
 30
0.0
 10
220.9649562139
 20
143.311159675
 30
0.0
 10
221.0116736207
 20
143.4898254376
 30
0.0
 10
221.0491907526
 20
143.5857657791
 30
0.0
 10
221.0889472434
 20
143.6520243112
 30
0.0
 10
221.1254038439
 20
143.6794776685
 30
0.0
 10
221.1424914645
 20
143.6832478622
 30
0.0
  0
SPLINE
  5
3BB
330
215
100
AcDbEntity
  8
RUNDUNGEN
  6
Continuous
 62
     9
100
AcDbSpline
210
0.0
220
0.0
230
1.0
 70
     8
 71
     3
 72
    11
 73
     7
 74
     0
 42
0.0000000001
 43
0.0000000001
 40
0.0
 40
0.0
 40
0.0
 40
0.0
 40
0.2533645915
 40
0.5054060414000001
 40
0.7542959206999999
 40
1.0
 40
1.0
 40
1.0
 40
1.0
 10
222.1208485137
 20
142.6846183273999
 30
0.0
 10
222.1187394441
 20
142.8145707959
 30
0.0
 10
222.0657820609
 20
143.07575208
 30
0.0
 10
221.8478727919
 20
143.4066945983
 30
0.0
 10
221.5249733738
 20
143.6298856059
 30
0.0
 10
221.2685313836
 20
143.6831858238
 30
0.0
 10
221.1424914645
 20
143.6832478622
 30
0.0
  0
SPLINE
  5
3BC
330
215
100
AcDbEntity
  8
RUNDUNGEN
  6
Continuous
 62
     9
100
AcDbSpline
210
0.0
220
0.0
230
1.0
 70
     8
 71
     3
 72
    11
 73
     7
 74
     0
 42
0.0000000001
 43
0.0000000001
 40
0.0
 40
0.0
 40
0.0
 40
0.0
 40
0.2533656429
 40
0.5054043891
 40
0.7542865267000001
 40
1.0
 40
1.0
 40
1.0
 40
1.0
 10
226.5920642271
 20
143.5898278366
 30
0.0
 10
226.5903013386
 20
143.7198112597
 30
0.0
 10
226.5367930286
 20
143.9810333763
 30
0.0
 10
226.3190303825
 20
144.3120114391
 30
0.0
 10
225.9959719689
 20
144.5352526191
 30
0.0
 10
225.7394691089
 20
144.5883487048
 30
0.0
 10
225.6133999096
 20
144.5884573714
 30
0.0
  0
SPLINE
  5
3BD
330
215
100
AcDbEntity
  8
RUNDUNGEN
  6
Continuous
 62
     9
100
AcDbSpline
210
0.0
220
0.0
230
1.0
 70
     8
 71
     3
 72
    12
 73
     8
 74
     0
 42
0.0000000001
 43
0.0000000001
 40
0.0
 40
0.0
 40
0.0
 40
0.0
 40
0.1383817181
 40
0.2345829655
 40
0.3511251187
 40
0.6425759074000001
 40
1.0
 40
1.0
 40
1.0
 40
1.0
 10
225.1365483851
 20
116.1818111217
 30
0.0
 10
225.1654020787
 20
116.1872726419
 30
0.0
 10
225.2070582563
 20
116.2230489877
 30
0.0
 10
225.247021306
 20
116.2849832014
 30
0.0
 10
225.2928063113
 20
116.3824087788
 30
0.0
 10
225.3383506841
 20
116.5388503894
 30
0.0
 10
225.3620305105
 20
116.6747333659
 30
0.0
 10
225.371961113
 20
116.7499295594
 30
0.0
  0
SPLINE
  5
3BF
330
215
100
AcDbEntity
  8
RUNDUNGEN
  6
Continuous
 62
     9
100
AcDbSpline
210
0.0
220
0.0
230
1.0
 70
     8
 71
     3
 72
    12
 73
     8
 74
     0
 42
0.0000000001
 43
0.0000000001
 40
0.0
 40
0.0
 40
0.0
 40
0.0
 40
0.2454189801
 40
0.4940231468
 40
0.7457839865000002
 40
0.8729046443999999
 40
1.0
 40
1.0
 40
1.0
 40
1.0
 10
225.1365483857
 20
116.1818111219
 30
0.0
 10
225.0103463914
 20
116.1815853566
 30
0.0
 10
224.753449702
 20
116.2345593665
 30
0.0
 10
224.4297996548
 20
116.4572744327
 30
0.0
 10
224.247878581
 20
116.734211023
 30
0.0
 10
224.1712441903
 20
116.9841890676
 30
0.0
 10
224.1574410134
 20
117.1150973172
 30
0.0
 10
224.156132045
 20
117.1804406566
 30
0.0
  0
SPLINE
  5
3C0
330
215
100
AcDbEntity
  8
RUNDUNGEN
  6
Continuous
 62
     9
100
AcDbSpline
210
0.0
220
0.0
230
1.0
 70
     8
 71
     3
 72
    11
 73
     7
 74
     0
 42
0.0000000001
 43
0.0000000001
 40
0.0
 40
0.0
 40
0.0
 40
0.0
 40
0.2457091995
 40
0.4945870052
 40
0.7466277202000001
 40
1.0
 40
1.0
 40
1.0
 40
1.0
 10
223.8822234623
 20
115.9278552409
 30
0.0
 10
223.7560082039
 20
115.9277144768
 30
0.0
 10
223.499095817
 20
115.9804343665
 30
0.0
 10
223.1753748937
 20
116.2035680934
 30
0.0
 10
222.9571123778
 20
116.534805647
 30
0.0
 10
222.9034778571
 20
116.7963450515
 30
0.0
 10
222.9017129998
 20
116.9264847757
 30
0.0
  0
SPLINE
  5
3C1
330
215
100
AcDbEntity
  8
RUNDUNGEN
  6
Continuous
 62
     9
100
AcDbSpline
210
0.0
220
0.0
230
1.0
 70
     8
 71
     3
 72
    13
 73
     9
 74
     0
 42
0.0000000001
 43
0.0000000001
 40
0.0
 40
0.0
 40
0.0
 40
0.0
 40
0.0522863276
 40
0.124130789
 40
0.2197529983
 40
0.3391562577
 40
0.6400997019
 40
1.0
 40
1.0
 40
1.0
 40
1.0
 10
221.4547989888
 20
115.8199789413
 30
0.0
 10
221.4694829908
 20
115.82320133
 30
0.0
 10
221.5008605664
 20
115.8440684795
 30
0.0
 10
221.5370889243
 20
115.8963096182
 30
0.0
 10
221.5713259093
 20
115.971717502
 30
0.0
 10
221.6158158984
 20
116.1134606221
 30
0.0
 10
221.6558325799
 20
116.3349271849
 30
0.0
 10
221.6719296417
 20
116.5244318852
 30
0.0
 10
221.6767280786
 20
116.6277994805
 30
0.0
  0
SPLINE
  5
3C2
330
215
100
AcDbEntity
  8
RUNDUNGEN
  6
Continuous
 62
     9
100
AcDbSpline
210
0.0
220
0.0
230
1.0
 70
     8
 71
     3
 72
    13
 73
     9
 74
     0
 42
0.0000000001
 43
0.0000000001
 40
0.0
 40
0.0
 40
0.0
 40
0.0
 40
0.0522863374
 40
0.1241308024
 40
0.219753012
 40
0.3391562695000001
 40
0.6400997076000001
 40
1.0
 40
1.0
 40
1.0
 40
1.0
 10
199.2400539523
 20
115.8199789413
 30
0.0
 10
199.2253699472
 20
115.8232013297
 30
0.0
 10
199.1939923645
 20
115.8440684762
 30
0.0
 10
199.1577639979
 20
115.896309616
 30
0.0
 10
199.1235270082
 20
115.9717174997
 30
0.0
 10
199.079037017
 20
116.1134606196
 30
0.0
 10
199.0390203419
 20
116.3349271837
 30
0.0
 10
199.0229232916
 20
116.5244318847
 30
0.0
 10
199.0181248626
 20
116.6277994805
 30
0.0
  0
SPLINE
  5
3C3
330
215
100
AcDbEntity
  8
RUNDUNGEN
  6
Continuous
 62
     9
100
AcDbSpline
210
0.0
220
0.0
230
1.0
 70
     8
 71
     3
 72
    11
 73
     7
 74
     0
 42
0.0000000001
 43
0.0000000001
 40
0.0
 40
0.0
 40
0.0
 40
0.0
 40
0.2457091974
 40
0.4945869966
 40
0.7466277122000001
 40
1.0
 40
1.0
 40
1.0
 40
1.0
 10
196.8126295073
 20
115.9278571806
 30
0.0
 10
196.9388447518
 20
115.9277161017
 30
0.0
 10
197.1957572458
 20
115.9804353679
 30
0.0
 10
197.5194786123
 20
116.2035684203
 30
0.0
 10
197.7377415966
 20
116.5348056659
 30
0.0
 10
197.7913762513
 20
116.7963450602
 30
0.0
 10
197.7931411077
 20
116.9264847757
 30
0.0
  0
SPLINE
  5
3C4
330
215
100
AcDbEntity
  8
RUNDUNGEN
  6
Continuous
 62
     9
100
AcDbSpline
210
0.0
220
0.0
230
1.0
 70
     8
 71
     3
 72
    12
 73
     8
 74
     0
 42
0.0000000001
 43
0.0000000001
 40
0.0
 40
0.0
 40
0.0
 40
0.0
 40
0.2454189801
 40
0.4940231467000001
 40
0.7457839865000002
 40
0.8729046442999999
 40
1.0
 40
1.0
 40
1.0
 40
1.0
 10
195.5583045555
 20
116.1818111219
 30
0.0
 10
195.6845065498
 20
116.1815853566
 30
0.0
 10
195.9414032391
 20
116.2345593665
 30
0.0
 10
196.2650532863
 20
116.4572744327
 30
0.0
 10
196.4469743602
 20
116.734211023
 30
0.0
 10
196.5236087508
 20
116.9841890676
 30
0.0
 10
196.5374119278
 20
117.1150973172
 30
0.0
 10
196.5387208961999
 20
117.1804406566
 30
0.0
  0
SPLINE
  5
3C5
330
215
100
AcDbEntity
  8
RUNDUNGEN
  6
Continuous
 62
     9
100
AcDbSpline
210
0.0
220
0.0
230
1.0
 70
     8
 71
     3
 72
    12
 73
     8
 74
     0
 42
0.0000000001
 43
0.0000000001
 40
0.0
 40
0.0
 40
0.0
 40
0.0
 40
0.1383817186
 40
0.2345829665
 40
0.351125119
 40
0.6425759094
 40
1.0
 40
1.0
 40
1.0
 40
1.0
 10
195.5583045555
 20
116.1818111219
 30
0.0
 10
195.529450862
 20
116.187272642
 30
0.0
 10
195.4877946841
 20
116.2230489871
 30
0.0
 10
195.4478316344
 20
116.2849832004
 30
0.0
 10
195.4020466296
 20
116.3824087775
 30
0.0
 10
195.3565022529
 20
116.538850386
 30
0.0
 10
195.3328224353
 20
116.6747333632
 30
0.0
 10
195.3228918329
 20
116.7499295558
 30
0.0
  0
SPLINE
  5
3C7
330
215
100
AcDbEntity
  8
RUNDUNGEN
  6
Continuous
 62
     9
100
AcDbSpline
210
0.0
220
0.0
230
1.0
 70
     8
 71
     3
 72
    12
 73
     8
 74
     0
 42
0.0000000001
 43
0.0000000001
 40
0.0
 40
0.0
 40
0.0
 40
0.0
 40
0.0677387019
 40
0.1551210374
 40
0.3873907572
 40
0.6817955928
 40
1.0
 40
1.0
 40
1.0
 40
1.0
 10
197.7931501014
 20
116.9264739663
 30
0.0
 10
197.8128832259
 20
116.9053307793
 30
0.0
 10
197.8661774243
 20
116.8647127918
 30
0.0
 10
198.0131613071
 20
116.7882402506
 30
0.0
 10
198.2650448651
 20
116.7094642768
 30
0.0
 10
198.6205039737
 20
116.6457814373
 30
0.0
 10
198.8822842219
 20
116.6283423897
 30
0.0
 10
199.018140837
 20
116.6277987328
 30
0.0
  0
SPLINE
  5
3C8
330
215
100
AcDbEntity
  8
RUNDUNGEN
  6
Continuous
 62
     9
100
AcDbSpline
210
0.0
220
0.0
230
1.0
 70
     8
 71
     3
 72
    12
 73
     8
 74
     0
 42
0.0000000001
 43
0.0000000001
 40
0.0
 40
0.0
 40
0.0
 40
0.0
 40
0.2618337803
 40
0.3908218657
 40
0.5167079481
 40
0.7615147835
 40
1.0
 40
1.0
 40
1.0
 40
1.0
 10
198.0275695358
 20
136.3418974983
 30
0.0
 10
197.8862973859
 20
136.347733515
 30
0.0
 10
197.6842827147
 20
136.4584609783
 30
0.0
 10
197.4862652928
 20
136.6521657781
 30
0.0
 10
197.3162273014
 20
136.8631180534
 30
0.0
 10
197.1450234815
 20
137.1451381894
 30
0.0
 10
197.0357561952
 20
137.3826832635
 30
0.0
 10
196.9873213797
 20
137.5020123877
 30
0.0
  0
LINE
  5
3C9
330
215
100
AcDbEntity
  8
RUNDUNGEN
  6
Continuous
 62
     9
100
AcDbLine
 10
197.7931496558
 20
116.926482809
 30
0.0
 11
196.7080584584
 21
138.4904647768
 31
0.0
  0
SPLINE
  5
3CA
330
215
100
AcDbEntity
  8
RUNDUNGEN
  6
Continuous
 62
     9
100
AcDbSpline
210
0.0
220
0.0
230
1.0
 70
     8
 71
     3
 72
    12
 73
     8
 74
     0
 42
0.0000000001
 43
0.0000000001
 40
0.0
 40
0.0
 40
0.0
 40
0.0
 40
0.3182044104
 40
0.6126092461
 40
0.8448789654
 40
0.9322612903999999
 40
1.0
 40
1.0
 40
1.0
 40
1.0
 10
221.6767121299
 20
116.627798734
 30
0.0
 10
221.8125687447
 20
116.6283423866
 30
0.0
 10
222.0743489843
 20
116.6457814521
 30
0.0
 10
222.4298081149
 20
116.7094642536
 30
0.0
 10
222.6816916031
 20
116.7882403212
 30
0.0
 10
222.8286755648
 20
116.8647127462
 30
0.0
 10
222.8819696899
 20
116.9053308097
 30
0.0
 10
222.9017028452
 20
116.9264739721
 30
0.0
  0
LINE
  5
3CB
330
215
100
AcDbEntity
  8
RUNDUNGEN
  6
Continuous
 62
     9
100
AcDbLine
 10
223.9867944828
 20
138.4904647768
 30
0.0
 11
222.9017032906
 21
116.92648281
 31
0.0
  0
SPLINE
  5
3CC
330
215
100
AcDbEntity
  8
RUNDUNGEN
  6
Continuous
 62
     9
100
AcDbSpline
210
0.0
220
0.0
230
1.0
 70
     8
 71
     3
 72
    12
 73
     8
 74
     0
 42
0.0000000001
 43
0.0000000001
 40
0.0
 40
0.0
 40
0.0
 40
0.0
 40
0.2384858932
 40
0.4832933699000001
 40
0.6091803822000001
 40
0.7381697100000001
 40
1.0
 40
1.0
 40
1.0
 40
1.0
 10
223.7075314102
 20
137.5020120283
 30
0.0
 10
223.6590997636
 20
137.3826823096
 30
0.0
 10
223.5498260048
 20
137.1451415381
 30
0.0
 10
223.3786170519
 20
136.8631250448
 30
0.0
 10
223.2085648194
 20
136.6521859192
 30
0.0
 10
223.0105610488
 20
136.4584713522
 30
0.0
 10
222.8085521386
 20
136.3477437806
 30
0.0
 10
222.6672834054
 20
136.3418974983
 30
0.0
  0
SPLINE
  5
3CD
330
215
100
AcDbEntity
  8
RUNDUNGEN
  6
Continuous
 62
     9
100
AcDbSpline
210
0.0
220
0.0
230
1.0
 70
     8
 71
     3
 72
    12
 73
     8
 74
     0
 42
0.0000000001
 43
0.0000000001
 40
0.0
 40
0.0
 40
0.0
 40
0.0
 40
0.0803209334
 40
0.1774392225
 40
0.4193549121000001
 40
0.7052890492000001
 40
1.0
 40
1.0
 40
1.0
 40
1.0
 10
224.156132045
 20
117.1804406566
 30
0.0
 10
224.173134385
 20
117.1491016775
 30
0.0
 10
224.223440055
 20
117.086831385
 30
0.0
 10
224.370776869
 20
116.971695605
 30
0.0
 10
224.6269531409
 20
116.8565833789
 30
0.0
 10
224.9827304138
 20
116.7698909081
 30
0.0
 10
225.2411441863
 20
116.7489389345
 30
0.0
 10
225.3719611083
 20
116.7499295558
 30
0.0
  0
SPLINE
  5
3CE
330
215
100
AcDbEntity
  8
RUNDUNGEN
  6
Continuous
 62
     9
100
AcDbSpline
210
0.0
220
0.0
230
1.0
 70
     8
 71
     3
 72
    12
 73
     8
 74
     0
 42
0.0000000001
 43
0.0000000001
 40
0.0
 40
0.0
 40
0.0
 40
0.0
 40
0.2948513955
 40
0.5807396587
 40
0.8225834318
 40
0.9197034964
 40
1.0
 40
1.0
 40
1.0
 40
1.0
 10
227.7498324353
 20
136.0281669342
 30
0.0
 10
227.6191883471
 20
136.0273236991
 30
0.0
 10
227.3612242738
 20
136.0484811436
 30
0.0
 10
227.0061347598
 20
136.1352131437
 30
0.0
 10
226.7505254093
 20
136.2502575226
 30
0.0
 10
226.6035964507
 20
136.3652812938
 30
0.0
 10
226.5533608958
 20
136.4274053569
 30
0.0
 10
226.5363937647
 20
136.4586779178
 30
0.0
  0
SPLINE
  5
3CF
330
215
100
AcDbEntity
  8
RUNDUNGEN
  6
Continuous
 62
     9
100
AcDbSpline
210
0.0
220
0.0
230
1.0
 70
     8
 71
     3
 72
     8
 73
     4
 74
     0
 42
0.0000000001
 43
0.0000000001
 40
0.0
 40
0.0
 40
0.0
 40
0.0
 40
1.0
 40
1.0
 40
1.0
 40
1.0
 10
226.6079495571
 20
143.5958269087
 30
0.0
 10
226.6025991497
 20
143.5939802648
 30
0.0
 10
226.597287964
 20
143.5920071773
 30
0.0
 10
226.5920642271
 20
143.5898278366
 30
0.0
  0
SPLINE
  5
3D0
330
215
100
AcDbEntity
  8
RUNDUNGEN
  6
Continuous
 62
     9
100
AcDbSpline
210
0.0
220
0.0
230
1.0
 70
     8
 71
     3
 72
     9
 73
     5
 74
     0
 42
0.0000000001
 43
0.0000000001
 40
0.0
 40
0.0
 40
0.0
 40
0.0
 40
0.6187035897
 40
1.0
 40
1.0
 40
1.0
 40
1.0
 10
227.8269263476
 20
137.3100224056
 30
0.0
 10
227.5711729614
 20
137.3100087325
 30
0.0
 10
227.1578092789
 20
137.3109669206
 30
0.0
 10
226.744427243
 20
137.3112836807
 30
0.0
 10
226.5868230622
 20
137.3132483076
 30
0.0
  0
SPLINE
  5
3D1
330
215
100
AcDbEntity
  8
RUNDUNGEN
  6
Continuous
 62
     9
100
AcDbSpline
210
0.0
220
0.0
230
1.0
 70
     8
 71
     3
 72
    15
 73
    11
 74
     0
 42
0.0000000001
 43
0.0000000001
 40
0.0
 40
0.0
 40
0.0
 40
0.0
 40
0.029543233
 40
0.0695011291
 40
0.1727128674
 40
0.2950902431
 40
0.4278947513000001
 40
0.5666952404
 40
0.7091319696
 40
1.0
 40
1.0
 40
1.0
 40
1.0
 10
226.6079495571
 20
143.5958269087
 30
0.0
 10
226.6198532013
 20
143.5999136824
 30
0.0
 10
226.6452785325
 20
143.6161306183
 30
0.0
 10
226.7001431891
 20
143.6650420091
 30
0.0
 10
226.7737281347
 20
143.751619675
 30
0.0
 10
226.8647247
 20
143.8741174883
 30
0.0
 10
226.9590229048
 20
144.0130550569
 30
0.0
 10
227.0540883641
 20
144.161631455
 30
0.0
 10
227.1812160935
 20
144.3695892626
 30
0.0
 10
227.273658143
 20
144.5293997549
 30
0.0
 10
227.334470861
 20
144.6373627271
 30
0.0
  0
SPLINE
  5
3D2
330
215
100
AcDbEntity
  8
RUNDUNGEN
  6
Continuous
 62
     9
100
AcDbSpline
210
0.0
220
0.0
230
1.0
 70
     8
 71
     3
 72
     8
 73
     4
 74
     0
 42
0.0000000001
 43
0.0000000001
 40
0.0
 40
0.0
 40
0.0
 40
0.0
 40
1.0
 40
1.0
 40
1.0
 40
1.0
 10
194.1027887141
 20
143.5898278366
 30
0.0
 10
194.0975649809
 20
143.59200718
 30
0.0
 10
194.0922537961
 20
143.5939802641
 30
0.0
 10
194.0869033907
 20
143.5958269064
 30
0.0
  0
SPLINE
  5
3D3
330
215
100
AcDbEntity
  8
RUNDUNGEN
  6
Continuous
 62
     9
100
AcDbSpline
210
0.0
220
0.0
230
1.0
 70
     8
 71
     3
 72
    15
 73
    11
 74
     0
 42
0.0000000001
 43
0.0000000001
 40
0.0
 40
0.0
 40
0.0
 40
0.0
 40
0.2908668503
 40
0.4333009403000001
 40
0.5720954449
 40
0.704894948
 40
0.8272924553000001
 40
0.9305123615000001
 40
0.9704578351
 40
1.0
 40
1.0
 40
1.0
 40
1.0
 10
193.360382085
 20
144.637362719
 30
0.0
 10
193.4211878746
 20
144.5293965724
 30
0.0
 10
193.5136312004999
 20
144.3695884624
 30
0.0
 10
193.6407857749
 20
144.1616522524
 30
0.0
 10
193.7358727221
 20
144.0130965191
 30
0.0
 10
193.8301973061
 20
143.8741729713
 30
0.0
 10
193.9211256741
 20
143.7516160751
 30
0.0
 10
193.9946769679
 20
143.6649939273
 30
0.0
 10
194.0495826178
 20
143.6161267514
 30
0.0
 10
194.0750037844
 20
143.5999239843
 30
0.0
 10
194.0869033907
 20
143.5958269064
 30
0.0
  0
SPLINE
  5
3D4
330
215
100
AcDbEntity
  8
RUNDUNGEN
  6
Continuous
 62
     9
100
AcDbSpline
210
0.0
220
0.0
230
1.0
 70
     8
 71
     3
 72
     9
 73
     5
 74
     0
 42
0.0000000001
 43
0.0000000001
 40
0.0
 40
0.0
 40
0.0
 40
0.0
 40
0.6187035448
 40
1.0
 40
1.0
 40
1.0
 40
1.0
 10
192.867926659
 20
137.3100224064
 30
0.0
 10
193.1236800131
 20
137.3100087334
 30
0.0
 10
193.5370436738
 20
137.3109669206
 30
0.0
 10
193.9504256879
 20
137.311283682
 30
0.0
 10
194.108029879
 20
137.3132483076
 30
0.0
  0
SPLINE
  5
3D5
330
215
100
AcDbEntity
  8
RUNDUNGEN
  6
Continuous
 62
     9
100
AcDbSpline
210
0.0
220
0.0
230
1.0
 70
     8
 71
     3
 72
    12
 73
     8
 74
     0
 42
0.0000000001
 43
0.0000000001
 40
0.0
 40
0.0
 40
0.0
 40
0.0
 40
0.2948514152
 40
0.5807396882
 40
0.8225834518
 40
0.9197035063999999
 40
1.0
 40
1.0
 40
1.0
 40
1.0
 10
192.9450204394
 20
136.0281668186
 30
0.0
 10
193.0756645488
 20
136.0273235831
 30
0.0
 10
193.3336286601999
 20
136.0484810355
 30
0.0
 10
193.6887182127
 20
136.1352130638
 30
0.0
 10
193.944327575
 20
136.2502574762
 30
0.0
 10
194.091256518
 20
136.3652812761
 30
0.0
 10
194.1414920563
 20
136.4274053522
 30
0.0
 10
194.1584591765
 20
136.4586779178
 30
0.0
  0
SPLINE
  5
3D6
330
215
100
AcDbEntity
  8
RUNDUNGEN
  6
Continuous
 62
     9
100
AcDbSpline
210
0.0
220
0.0
230
1.0
 70
     8
 71
     3
 72
    12
 73
     8
 74
     0
 42
0.0000000001
 43
0.0000000001
 40
0.0
 40
0.0
 40
0.0
 40
0.0
 40
0.2947109513
 40
0.5806450875
 40
0.8225607766999999
 40
0.919679063
 40
1.0
 40
1.0
 40
1.0
 40
1.0
 10
195.3228918329
 20
116.7499295558
 30
0.0
 10
195.4537087559
 20
116.7489390333
 30
0.0
 10
195.7121225261
 20
116.7698908661
 30
0.0
 10
196.0678998036
 20
116.8565833848
 30
0.0
 10
196.3240760638
 20
116.9716956121
 30
0.0
 10
196.4714128918999
 20
117.0868313776
 30
0.0
 10
196.5217185554
 20
117.1491016761
 30
0.0
 10
196.5387208961999
 20
117.1804406566
 30
0.0
  0
LINE
  5
3D7
330
215
100
AcDbEntity
  8
RUNDUNGEN
  6
Continuous
 62
     9
100
AcDbLine
 10
199.0181407995
 20
116.6277994806
 30
0.0
 11
198.0275695354
 21
136.3418974984
 31
0.0
  0
LINE
  5
3D8
330
215
100
AcDbEntity
  8
RUNDUNGEN
  6
Continuous
 62
     9
100
AcDbLine
 10
222.6672834058
 20
136.3418974984
 30
0.0
 11
221.6767121674
 21
116.6277994806
 31
0.0
  0
LINE
  5
3D9
330
215
100
AcDbEntity
  8
RUNDUNGEN
  6
Continuous
 62
     9
100
AcDbLine
 10
222.399785246
 20
137.5322150171
 30
0.0
 11
221.1507772631
 21
137.6164324621
 31
0.0
  0
LINE
  5
3DA
330
215
100
AcDbEntity
  8
RUNDUNGEN
  6
Continuous
 62
     9
100
AcDbLine
 10
199.5440756781
 20
137.6164324621
 30
0.0
 11
198.2950676952
 21
137.5322150171
 31
0.0
  0
SPLINE
  5
3DB
330
215
100
AcDbEntity
  8
RUNDUNGEN
  6
Continuous
 62
     9
100
AcDbSpline
210
0.0
220
0.0
230
1.0
 70
     8
 71
     3
 72
     9
 73
     5
 74
     0
 42
0.0000000001
 43
0.0000000001
 40
0.0
 40
0.0
 40
0.0
 40
0.0
 40
0.2330581097
 40
1.0
 40
1.0
 40
1.0
 40
1.0
 10
195.0814530316
 20
144.5884573714
 30
0.0
 10
195.078994255
 20
144.5889556496
 30
0.0
 10
195.0684327133
 20
144.5910369371
 30
0.0
 10
195.0578323036
 20
144.5929179115
 30
0.0
 10
195.0496899597
 20
144.5942816416
 30
0.0
  0
LINE
  5
3DD
330
215
100
AcDbEntity
  8
RUNDUNGEN
  6
Continuous
 62
     9
100
AcDbLine
 10
199.5523614766
 20
143.6832478622
 30
0.0
 11
195.0814530316
 21
144.5884573714
 31
0.0
  0
LINE
  5
3DE
330
215
100
AcDbEntity
  8
RUNDUNGEN
  6
Continuous
 62
     9
100
AcDbLine
 10
258.8821067977999
 20
102.2691564878
 30
0.0
 11
259.2372876623
 21
102.2904792293
 31
0.0
  0
LINE
  5
3DF
330
215
100
AcDbEntity
  8
RUNDUNGEN
  6
Continuous
 62
     9
100
AcDbLine
 10
225.6133999096
 20
144.5884573714
 30
0.0
 11
221.1424914645
 21
143.6832478622
 31
0.0
  0
SPLINE
  5
3E0
330
215
100
AcDbEntity
  8
RUNDUNGEN
  6
Continuous
 62
     9
100
AcDbSpline
210
0.0
220
0.0
230
1.0
 70
     8
 71
     3
 72
     9
 73
     5
 74
     0
 42
0.0000000001
 43
0.0000000001
 40
0.0
 40
0.0
 40
0.0
 40
0.0
 40
0.2669010841
 40
1.0
 40
1.0
 40
1.0
 40
1.0
 10
225.6451629815
 20
144.5942816416
 30
0.0
 10
225.6423293967
 20
144.5938070561
 30
0.0
 10
225.6317192146
 20
144.5919913234
 30
0.0
 10
225.6211341264
 20
144.5900247296
 30
0.0
 10
225.6133999096
 20
144.5884573714
 30
0.0
  0
LINE
  5
3E1
330
215
100
AcDbEntity
  8
RUNDUNGEN
  6
Continuous
 62
     9
100
AcDbLine
 10
223.9867944828
 20
138.4904647768
 30
0.0
 11
222.1208485139
 21
138.6162801572
 31
0.0
  0
LINE
  5
3E2
330
215
100
AcDbEntity
  8
RUNDUNGEN
  6
Continuous
 62
     9
100
AcDbLine
 10
222.9017032906
 20
116.92648281
 30
0.0
 11
224.156132045
 21
117.1804406566
 31
0.0
  0
LINE
  5
3E3
330
215
100
AcDbEntity
  8
RUNDUNGEN
  6
Continuous
 62
     9
100
AcDbLine
 10
224.156132045
 20
117.1804406566
 30
0.0
 11
226.5363937647
 21
136.4586779178
 31
0.0
  0
SPLINE
  5
3E4
330
215
100
AcDbEntity
  8
RUNDUNGEN
  6
Continuous
 62
     9
100
AcDbSpline
210
0.0
220
0.0
230
1.0
 70
     8
 71
     3
 72
     9
 73
     5
 74
     0
 42
0.0000000001
 43
0.0000000001
 40
0.0
 40
0.0
 40
0.0
 40
0.0
 40
0.2398401366
 40
1.0
 40
1.0
 40
1.0
 40
1.0
 10
226.5363937647
 20
136.4586779178
 30
0.0
 10
226.5447830073
 20
136.5266247835
 30
0.0
 10
226.5747408264
 20
136.8105330997
 30
0.0
 10
226.5866421655
 20
137.0962593553
 30
0.0
 10
226.5868230622
 20
137.3132483076
 30
0.0
  0
LINE
  5
3E5
330
215
100
AcDbEntity
  8
RUNDUNGEN
  6
Continuous
 62
     9
100
AcDbLine
 10
226.5920642271
 20
143.5898278366
 30
0.0
 11
222.1208485139
 21
142.6846183273999
 31
0.0
  0
SPLINE
  5
3E6
330
215
100
AcDbEntity
  8
RUNDUNGEN
  6
Continuous
 62
     9
100
AcDbSpline
210
0.0
220
0.0
230
1.0
 70
     8
 71
     3
 72
     9
 73
     5
 74
     0
 42
0.0000000001
 43
0.0000000001
 40
0.0
 40
0.0
 40
0.0
 40
0.0
 40
0.2574377726
 40
1.0
 40
1.0
 40
1.0
 40
1.0
 10
194.108029879
 20
137.3132483076
 30
0.0
 10
194.1080911409
 20
137.2397634344
 30
0.0
 10
194.1124361725
 20
136.9543521443
 30
0.0
 10
194.1324859001
 20
136.669042882
 30
0.0
 10
194.1584591765
 20
136.4586779178
 30
0.0
  0
LINE
  5
3E7
330
215
100
AcDbEntity
  8
RUNDUNGEN
  6
Continuous
 62
     9
100
AcDbLine
 10
194.1584591765
 20
136.4586779178
 30
0.0
 11
196.5387208961999
 21
117.1804406566
 31
0.0
  0
LINE
  5
3E8
330
215
100
AcDbEntity
  8
RUNDUNGEN
  6
Continuous
 62
     9
100
AcDbLine
 10
196.5387208961999
 20
117.1804406566
 30
0.0
 11
197.7931496558
 21
116.926482809
 31
0.0
  0
LINE
  5
3E9
330
215
100
AcDbEntity
  8
RUNDUNGEN
  6
Continuous
 62
     9
100
AcDbLine
 10
198.5740044273
 20
138.6162801572
 30
0.0
 11
196.7080584584
 21
138.4904647768
 31
0.0
  0
LINE
  5
3EA
330
215
100
AcDbEntity
  8
RUNDUNGEN
  6
Continuous
 62
     9
100
AcDbLine
 10
198.5740044273
 20
142.6846183273999
 30
0.0
 11
194.1027887141
 21
143.5898278366
 31
0.0
  0
SPLINE
  5
3EB
330
215
100
AcDbEntity
  8
0
  6
Continuous
 62
     9
100
AcDbSpline
210
0.0
220
0.0
230
1.0
 70
     8
 71
     3
 72
    29
 73
    25
 74
     0
 42
0.0000000001
 43
0.0000000001
 40
0.0
 40
0.0
 40
0.0
 40
0.0
 40
0.000517197
 40
0.0015066582
 40
0.0030600572
 40
0.005197173
 40
0.0112418436
 40
0.0196512436
 40
0.0304129837
 40
0.0435048468
 40
0.0588969877
 40
0.076553976
 40
0.0964335724
 40
0.1184889677
 40
0.1689100317
 40
0.2273340529
 40
0.2931998756
 40
0.3658741404
 40
0.4446574954
 40
0.5287914570000001
 40
0.6174658376
 40
0.7098262783
 40
0.8049834491
 40
1.0
 40
1.0
 40
1.0
 40
1.0
 10
171.3474303754999
 20
97.116857252
 30
0.0
 10
171.3472592376
 20
97.1101309379
 30
0.0
 10
171.3637974937999
 20
97.09392559930002
 30
0.0
 10
171.3998895899
 20
97.0807496872
 30
0.0
 10
171.4592206243
 20
97.06390616670001
 30
0.0
 10
171.5833013486
 20
97.0402002277
 30
0.0
 10
171.7976560468
 20
97.0117197581
 30
0.0
 10
172.1240543988
 20
96.9800772882
 30
0.0
 10
172.5426490054999
 20
96.94822965649999
 30
0.0
 10
173.0522251114
 20
96.91657003190002
 30
0.0
 10
173.6516932713
 20
96.88522952360001
 30
0.0
 10
174.3395809456
 20
96.85435389700002
 30
0.0
 10
175.1142557387
 20
96.8240360585
 30
0.0
 10
176.3150537895
 20
96.7826218739
 30
0.0
 10
178.0173250272
 20
96.7339227204
 30
0.0
 10
180.2896250466
 20
96.6811005679
 30
0.0
 10
182.8515763609999
 20
96.63225530360001
 30
0.0
 10
185.6785086014
 20
96.5878950869
 30
0.0
 10
188.743194798
 20
96.5484962865
 30
0.0
 10
192.0161106225
 20
96.51446184420001
 30
0.0
 10
195.4657181948
 20
96.48613879190001
 30
0.0
 10
199.0587793426
 20
96.4638089896
 30
0.0
 10
204.0353240645
 20
96.44216156620002
 30
0.0
 10
207.8103526908
 20
96.4358054272
 30
0.0
 10
210.3474264706
 20
96.4358050869
 30
0.0
  0
SPLINE
  5
3EC
330
215
100
AcDbEntity
  8
RUNDUNGEN
  6
Continuous
 62
     9
100
AcDbSpline
210
0.0
220
0.0
230
1.0
 70
     8
 71
     3
 72
    29
 73
    25
 74
     0
 42
0.0000000001
 43
0.0000000001
 40
0.0
 40
0.0
 40
0.0
 40
0.0
 40
0.000547374
 40
0.0015817864
 40
0.0031813529
 40
0.0053638304
 40
0.0114953313
 40
0.0199848484
 40
0.0308198853
 40
0.0439775577
 40
0.0594285226
 40
0.0771366272
 40
0.0970601621
 40
0.1191518992
 40
0.1696238726
 40
0.2280702598
 40
0.2939311749
 40
0.3665749711
 40
0.4453045239000001
 40
0.5293639537
 40
0.617945994
 40
0.7101994826000002
 40
0.8052385665
 40
1.0
 40
1.0
 40
1.0
 40
1.0
 10
241.3473822564
 20
97.1162479862
 30
0.0
 10
241.3468339346
 20
97.110614454
 30
0.0
 10
241.3323613473
 20
97.09842312100001
 30
0.0
 10
241.3025632739
 20
97.0875106267
 30
0.0
 10
241.2538473466
 20
97.07433910360002
 30
0.0
 10
241.1533944932
 20
97.0554084235
 30
0.0
 10
240.9807649757
 20
97.0328878756
 30
0.0
 10
240.7188480584
 20
97.00771416969999
 30
0.0
 10
240.383848579
 20
96.98245144860001
 30
0.0
 10
239.976763863
 20
96.95731926290001
 30
0.0
 10
239.4984568514
 20
96.93245470450001
 30
0.0
 10
238.9500982727
 20
96.90795743850001
 30
0.0
 10
238.3329902378
 20
96.88390720940001
 30
0.0
 10
237.3771820479
 20
96.85106313270001
 30
0.0
 10
236.0230039539
 20
96.8124403356
 30
0.0
 10
234.2161684034
 20
96.77054637559999
 30
0.0
 10
232.1799470972
 20
96.7318108447
 30
0.0
 10
229.9338950982
 20
96.69663526069999
 30
0.0
 10
227.4995858528
 20
96.66539616620001
 30
0.0
 10
224.9004063793
 20
96.638412086
 30
0.0
 10
222.1613341546
 20
96.61595737110001
 30
0.0
 10
219.3086891095
 20
96.59825484329999
 30
0.0
 10
215.3580723311
 20
96.58109417959998
 30
0.0
 10
212.3613688376
 20
96.57605487129998
 30
0.0
 10
210.3474264706
 20
96.57605487209998
 30
0.0
  0
SPLINE
  5
3ED
330
215
100
AcDbEntity
  8
0
  6
Continuous
 62
     9
100
AcDbSpline
210
0.0
220
0.0
230
1.0
 70
     8
 71
     3
 72
    29
 73
    25
 74
     0
 42
0.0000000001
 43
0.0000000001
 40
0.0
 40
0.0
 40
0.0
 40
0.0
 40
0.1948958306
 40
0.2899972799
 40
0.3823071611
 40
0.4709378048
 40
0.5550364562
 40
0.633794353
 40
0.7064542074000001
 40
0.7723177297000001
 40
0.8307523935999999
 40
0.8811976312
 40
0.9032702071999999
 40
0.9231706754000001
 40
0.9408517752999999
 40
0.9562718475
 40
0.9693947877999999
 40
0.9801913177999999
 40
0.9886385668
 40
0.9947243858
 40
0.9968829670999998
 40
0.9984582434
 40
0.9994689536999999
 40
1.0
 40
1.0
 40
1.0
 40
1.0
 10
210.3474264706
 20
96.57605487209998
 30
0.0
 10
208.332058432
 20
96.57605565430001
 30
0.0
 10
205.3332668328
 20
96.58110105090001
 30
0.0
 10
201.3799618846
 20
96.59828621329999
 30
0.0
 10
198.5255354534
 20
96.616013403
 30
0.0
 10
195.7849232714
 20
96.63849893770001
 30
0.0
 10
193.1844964858
 20
96.6655193543
 30
0.0
 10
190.7492795467
 20
96.6967995018
 30
0.0
 10
188.5027020131
 20
96.7320199405
 30
0.0
 10
186.4663734750999
 20
96.7708029583
 30
0.0
 10
184.6598776434
 20
96.81274589799999
 30
0.0
 10
183.3062727057
 20
96.85141424700001
 30
0.0
 10
182.3511623505
 20
96.8842980399
 30
0.0
 10
181.7347607438
 20
96.9083735334
 30
0.0
 10
181.1872314150999
 20
96.93289489580001
 30
0.0
 10
180.7098764177
 20
96.9577836852
 30
0.0
 10
180.3038637301
 20
96.9829341996
 30
0.0
 10
179.9700594388
 20
97.00822321790001
 30
0.0
 10
179.709446204
 20
97.03338681600001
 30
0.0
 10
179.5379941084
 20
97.0559674893
 30
0.0
 10
179.4385083559
 20
97.0748547478
 30
0.0
 10
179.3905999194
 20
97.088138335
 30
0.0
 10
179.3614117844
 20
97.0988209018
 30
0.0
 10
179.3476094141
 20
97.1113687238
 30
0.0
 10
179.3474313851
 20
97.11685725129999
 30
0.0
  0
SPLINE
  5
3F0
330
215
100
AcDbEntity
  8
RUNDUNGEN
  6
Continuous
 62
     9
100
AcDbSpline
210
0.0
220
0.0
230
1.0
 70
     8
 71
     3
 72
    11
 73
     7
 74
     0
 42
0.0000000001
 43
0.0000000001
 40
0.0
 40
0.0
 40
0.0
 40
0.0
 40
0.272012752
 40
0.5202939766
 40
0.7602154620000001
 40
1.0
 40
1.0
 40
1.0
 40
1.0
 10
198.0035732302
 20
196.7116606547
 30
0.0
 10
198.0952165111
 20
196.6018076382
 30
0.0
 10
198.2347729849
 20
196.3589397548
 30
0.0
 10
198.3171388427
 20
195.9626785871
 30
0.0
 10
198.2994035095
 20
195.5770416174999
 30
0.0
 10
198.2366457406
 20
195.3309957833
 30
0.0
 10
198.1954139174
 20
195.21181641
 30
0.0
  0
SPLINE
  5
3F1
330
215
100
AcDbEntity
  8
RUNDUNGEN
  6
Continuous
 62
     9
100
AcDbSpline
210
0.0
220
0.0
230
1.0
 70
     8
 71
     3
 72
    11
 73
     7
 74
     0
 42
0.0000000001
 43
0.0000000001
 40
0.0
 40
0.0
 40
0.0
 40
0.0
 40
0.2397845375
 40
0.4797060233
 40
0.7279872476000002
 40
1.0
 40
1.0
 40
1.0
 40
1.0
 10
222.4994390237
 20
195.21181641
 30
0.0
 10
222.4582072258
 20
195.3309957917
 30
0.0
 10
222.3954494204
 20
195.5770416134999
 30
0.0
 10
222.3777141043
 20
195.9626785874
 30
0.0
 10
222.4600799516
 20
196.3589397565
 30
0.0
 10
222.5996364336
 20
196.6018076357
 30
0.0
 10
222.6912797119
 20
196.7116606547
 30
0.0
  0
SPLINE
  5
3F3
330
215
100
AcDbEntity
  8
RUNDUNGEN
  6
Continuous
 62
     9
100
AcDbSpline
210
0.0
220
0.0
230
1.0
 70
     8
 71
     3
 72
     8
 73
     4
 74
     0
 42
0.0000000001
 43
0.0000000001
 40
0.0
 40
0.0
 40
0.0
 40
0.0
 40
1.0
 40
1.0
 40
1.0
 40
1.0
 10
224.5450236322
 20
209.1162807137
 30
0.0
 10
223.9773774788
 20
209.0826341862
 30
0.0
 10
223.4097572028
 20
209.0485494645
 30
0.0
 10
222.8421574031
 20
209.0141298233
 30
0.0
  0
SPLINE
  5
3F4
330
215
100
AcDbEntity
  8
RUNDUNGEN
  6
Continuous
 62
     9
100
AcDbSpline
210
0.0
220
0.0
230
1.0
 70
     8
 71
     3
 72
     8
 73
     4
 74
     0
 42
0.0000000001
 43
0.0000000001
 40
0.0
 40
0.0
 40
0.0
 40
0.0
 40
1.0
 40
1.0
 40
1.0
 40
1.0
 10
224.5440653649
 20
215.1407062323
 30
0.0
 10
223.9767337162
 20
215.1070778625
 30
0.0
 10
223.4094278163
 20
215.0730134561
 30
0.0
 10
222.8421424653
 20
215.0386129121
 30
0.0
  0
SPLINE
  5
3F5
330
215
100
AcDbEntity
  8
RUNDUNGEN
  6
Continuous
 62
     9
100
AcDbSpline
210
0.0
220
0.0
230
1.0
 70
     8
 71
     3
 72
     8
 73
     4
 74
     0
 42
0.0000000001
 43
0.0000000001
 40
0.0
 40
0.0
 40
0.0
 40
0.0
 40
1.0
 40
1.0
 40
1.0
 40
1.0
 10
223.3518678037
 20
195.9778491311
 30
0.0
 10
223.755346967
 20
195.9535323882
 30
0.0
 10
224.1588372231
 20
195.9293986883
 30
0.0
 10
224.5623406473
 20
195.9054878984
 30
0.0
  0
LINE
  5
3F6
330
215
100
AcDbEntity
  8
RUNDUNGEN
  6
Continuous
 62
     9
100
AcDbLine
 10
224.5623406473
 20
195.9054878984
 30
0.0
 11
224.5656315251
 21
192.4423263425
 31
0.0
  0
LINE
  5
3F7
330
215
100
AcDbEntity
  8
RUNDUNGEN
  6
Continuous
 62
     9
100
AcDbLine
 10
192.9450204406
 20
136.0281668226
 30
0.0
 11
195.3228918275
 21
116.7499295594
 31
0.0
  0
SPLINE
  5
3F8
330
215
100
AcDbEntity
  8
RUNDUNGEN
  6
Continuous
 62
     9
100
AcDbSpline
210
0.0
220
0.0
230
1.0
 70
     8
 71
     3
 72
    11
 73
     7
 74
     0
 42
0.0000000001
 43
0.0000000001
 40
0.0
 40
0.0
 40
0.0
 40
0.0
 40
0.2488706966
 40
0.4984235453000001
 40
0.7489055568000001
 40
1.0
 40
1.0
 40
1.0
 40
1.0
 10
256.8964994066
 20
95.47953119010001
 30
0.0
 10
257.1545677845
 20
95.4801875957
 30
0.0
 10
257.6768067444
 20
95.58566688879999
 30
0.0
 10
258.3361190288
 20
96.03193742260001
 30
0.0
 10
258.7775556385
 20
96.6970960263
 30
0.0
 10
258.8809210105
 20
97.22280067920001
 30
0.0
 10
258.8809855133
 20
97.4831758224
 30
0.0
  0
LINE
  5
3F9
330
215
100
AcDbEntity
  8
RUNDUNGEN
  6
Continuous
 62
     9
100
AcDbLine
 10
225.3719643438
 20
116.7499295594
 30
0.0
 11
227.7498325006
 21
136.0281668226
 31
0.0
  0
LINE
  5
3FA
330
215
100
AcDbEntity
  8
RUNDUNGEN
  6
Continuous
 62
     9
100
AcDbLine
 10
258.8809855133
 20
97.4831758224
 30
0.0
 11
258.8821067977999
 21
102.2691564878
 31
0.0
  0
SPLINE
  5
3FB
330
215
100
AcDbEntity
  8
RUNDUNGEN
  6
Continuous
 62
     9
100
AcDbSpline
210
0.0
220
0.0
230
1.0
 70
     8
 71
     3
 72
     8
 73
     4
 74
     0
 42
0.0000000001
 43
0.0000000001
 40
0.0
 40
0.0
 40
0.0
 40
0.0
 40
1.0
 40
1.0
 40
1.0
 40
1.0
 10
197.8526955381
 20
209.0141300459
 30
0.0
 10
197.2850957361
 20
209.048549688
 30
0.0
 10
196.7174754647
 20
209.0826345267
 30
0.0
 10
196.1498293089
 20
209.1162810551
 30
0.0
  0
SPLINE
  5
3FC
330
215
100
AcDbEntity
  8
RUNDUNGEN
  6
Continuous
 62
     9
100
AcDbSpline
210
0.0
220
0.0
230
1.0
 70
     8
 71
     3
 72
     9
 73
     5
 74
     0
 42
0.0000000001
 43
0.0000000001
 40
0.0
 40
0.0
 40
0.0
 40
0.0
 40
0.5020752065
 40
1.0
 40
1.0
 40
1.0
 40
1.0
 10
266.1644492424
 20
102.8633895311
 30
0.0
 10
266.3953462093
 20
102.8820980684
 30
0.0
 10
266.8518471908
 20
103.0060522594
 30
0.0
 10
267.2359863704
 20
103.2789463442
 30
0.0
 10
267.3993109216
 20
103.4405166313
 30
0.0
  0
SPLINE
  5
3FD
330
215
100
AcDbEntity
  8
RUNDUNGEN
  6
Continuous
 62
     9
100
AcDbSpline
210
0.0
220
0.0
230
1.0
 70
     8
 71
     3
 72
    13
 73
     9
 74
     0
 42
0.0000000001
 43
0.0000000001
 40
0.0
 40
0.0
 40
0.0
 40
0.0
 40
0.2525807615
 40
0.5033164831
 40
0.6282536288000001
 40
0.7524903667000001
 40
0.8762862869999999
 40
1.0
 40
1.0
 40
1.0
 40
1.0
 10
195.3971481623
 20
192.4455806283
 30
0.0
 10
195.3969611699
 20
192.2204035891
 30
0.0
 10
195.4481318049
 20
191.7689630651
 30
0.0
 10
195.6890525926
 20
191.2468626463
 30
0.0
 10
195.9989140096
 20
190.9211787367
 30
0.0
 10
196.2817818644
 20
190.7399931666
 30
0.0
 10
196.5986415167
 20
190.6329755168
 30
0.0
 10
196.8201455112
 20
190.6109467650999
 30
0.0
 10
196.9304369562
 20
190.6109412318
 30
0.0
  0
SPLINE
  5
3FE
330
215
100
AcDbEntity
  8
RUNDUNGEN
  6
Continuous
 62
     9
100
AcDbSpline
210
0.0
220
0.0
230
1.0
 70
     8
 71
     3
 72
    13
 73
     9
 74
     0
 42
0.0000000001
 43
0.0000000001
 40
0.0
 40
0.0
 40
0.0
 40
0.0
 40
0.123713782
 40
0.247510083
 40
0.3717466908
 40
0.4966838063
 40
0.7474193822000001
 40
1.0
 40
1.0
 40
1.0
 40
1.0
 10
223.764415986
 20
190.6109412318
 30
0.0
 10
223.8747074924
 20
190.6109466988
 30
0.0
 10
224.0962118171
 20
190.6329759429
 30
0.0
 10
224.41307194
 20
190.7399931514
 30
0.0
 10
224.6959395779
 20
190.9211794858
 30
0.0
 10
225.0058007886
 20
191.2468631514
 30
0.0
 10
225.2467210093
 20
191.7689635042
 30
0.0
 10
225.297891948
 20
192.2204037173
 30
0.0
 10
225.2977047789
 20
192.445580628
 30
0.0
  0
SPLINE
  5
401
330
215
100
AcDbEntity
  8
RUNDUNGEN
  6
Continuous
 62
     9
100
AcDbSpline
210
0.0
220
0.0
230
1.0
 70
     8
 71
     3
 72
    10
 73
     6
 74
     0
 42
0.0000000001
 43
0.0000000001
 40
0.0
 40
0.0
 40
0.0
 40
0.0
 40
0.2507913999
 40
0.5009425919
 40
1.0
 40
1.0
 40
1.0
 40
1.0
 10
259.2372876164
 20
102.2904793067
 30
0.0
 10
259.8163907384
 20
102.3382264142
 30
0.0
 10
260.9729433521
 20
102.435711207
 30
0.0
 10
263.2818614005
 20
102.6283237307
 30
0.0
 10
265.0119408044
 20
102.7700104341
 30
0.0
 10
266.1644492424
 20
102.8633895311
 30
0.0
  0
SPLINE
  5
402
330
215
100
AcDbEntity
  8
RUNDUNGEN
  6
Continuous
 62
     9
100
AcDbSpline
210
0.0
220
0.0
230
1.0
 70
     8
 71
     3
 72
     8
 73
     4
 74
     0
 42
0.0000000001
 43
0.0000000001
 40
0.0
 40
0.0
 40
0.0
 40
0.0
 40
1.0
 40
1.0
 40
1.0
 40
1.0
 10
197.8527100282
 20
215.0386129392
 30
0.0
 10
197.2854248264
 20
215.0730134737
 30
0.0
 10
196.7181190758
 20
215.1070778716
 30
0.0
 10
196.1507875763
 20
215.1407062323
 30
0.0
  0
SPLINE
  5
403
330
215
100
AcDbEntity
  8
RUNDUNGEN
  6
Continuous
 62
     9
100
AcDbSpline
210
0.0
220
0.0
230
1.0
 70
     8
 71
     3
 72
     8
 73
     4
 74
     0
 42
0.0000000001
 43
0.0000000001
 40
0.0
 40
0.0
 40
0.0
 40
0.0
 40
1.0
 40
1.0
 40
1.0
 40
1.0
 10
196.1325122939
 20
195.9054878984
 30
0.0
 10
196.5360157189
 20
195.9293986884
 30
0.0
 10
196.9395059754
 20
195.9535323942
 30
0.0
 10
197.3429851396
 20
195.9778491372
 30
0.0
  0
LINE
  5
404
330
215
100
AcDbEntity
  8
RUNDUNGEN
  6
Continuous
 62
     9
100
AcDbLine
 10
196.1292214161
 20
192.4423263422
 30
0.0
 11
196.1325122939
 21
195.9054878984
 31
0.0
  0
SPLINE
  5
406
330
215
100
AcDbEntity
  8
RUNDUNGEN
  6
Continuous
 62
     9
100
AcDbSpline
210
0.0
220
0.0
230
1.0
 70
     8
 71
     3
 72
     9
 73
     5
 74
     0
 42
0.0000000001
 43
0.0000000001
 40
0.0
 40
0.0
 40
0.0
 40
0.0
 40
0.2574172974
 40
1.0
 40
1.0
 40
1.0
 40
1.0
 10
192.8679265936
 20
137.3100224056
 30
0.0
 10
192.8680203308
 20
137.1997950519
 30
0.0
 10
192.8746620884
 20
136.7716458871
 30
0.0
 10
192.9053190765
 20
136.3436562973
 30
0.0
 10
192.9450204405
 20
136.0281668226
 30
0.0
  0
SPLINE
  5
407
330
215
100
AcDbEntity
  8
RUNDUNGEN
  6
Continuous
 62
     9
100
AcDbSpline
210
0.0
220
0.0
230
1.0
 70
     8
 71
     3
 72
     9
 73
     5
 74
     0
 42
0.0000000001
 43
0.0000000001
 40
0.0
 40
0.0
 40
0.0
 40
0.0
 40
0.2398741485
 40
1.0
 40
1.0
 40
1.0
 40
1.0
 10
227.7498325006
 20
136.0281668226
 30
0.0
 10
227.7626573219
 20
136.1300800997
 30
0.0
 10
227.8084523336
 20
136.5558876985
 30
0.0
 10
227.8266495469
 20
136.9845273229
 30
0.0
 10
227.8269263476
 20
137.3100224056
 30
0.0
  0
SPLINE
  5
409
330
215
100
AcDbEntity
  8
0
  6
Continuous
 62
     9
100
AcDbSpline
210
0.0
220
0.0
230
1.0
 70
     8
 71
     3
 72
    29
 73
    25
 74
     0
 42
0.0000000001
 43
0.0000000001
 40
0.0
 40
0.0
 40
0.0
 40
0.0
 40
0.1949552476
 40
0.2900839747
 40
0.3824182897
 40
0.4710696507
 40
0.5551845168999999
 40
0.6339534213000001
 40
0.7066184766000001
 40
0.7724809092
 40
0.8309078401999999
 40
0.8813384983
 40
0.9034012048999999
 40
0.9232901004999998
 40
0.9409579607999999
 40
0.9563631879
 40
0.9694697770999999
 40
0.9802486101000001
 40
0.9886771043000001
 40
0.9947437467
 40
0.9968931022999999
 40
0.9984600676000001
 40
0.9994650759
 40
1.0
 40
1.0
 40
1.0
 40
1.0
 10
210.3474264706
 20
97.5759025672
 30
0.0
 10
208.3963699262
 20
97.5759029133
 30
0.0
 10
205.4932883218
 20
97.58095238260001
 30
0.0
 10
201.6661921499
 20
97.5981498041
 30
0.0
 10
198.9029729124
 20
97.6158895026
 30
0.0
 10
196.2500156606
 20
97.6383906332
 30
0.0
 10
193.7328666032
 20
97.6654294118
 30
0.0
 10
191.3757660002
 20
97.69673027209998
 30
0.0
 10
189.2014077186999
 20
97.73197330100002
 30
0.0
 10
187.23072092
 20
97.7707802005
 30
0.0
 10
185.4826707179
 20
97.81274774049999
 30
0.0
 10
184.1730177506
 20
97.85143886469999
 30
0.0
 10
183.2490655712
 20
97.88434238709999
 30
0.0
 10
182.6528940968
 20
97.9084304949
 30
0.0
 10
182.1234316077
 20
97.93296404110002
 30
0.0
 10
181.6619389028
 20
97.9578647073
 30
0.0
 10
181.2695414013
 20
97.98302561760001
 30
0.0
 10
180.9470858149
 20
98.008325614
 30
0.0
 10
180.6954882693
 20
98.03349318249999
 30
0.0
 10
180.5301606646
 20
98.05609014179999
 30
0.0
 10
180.4343215453
 20
98.07497890200002
 30
0.0
 10
180.3883958948
 20
98.08828908530001
 30
0.0
 10
180.3602362275
 20
98.09896886860002
 30
0.0
 10
180.3474269041999
 20
98.1116562118
 30
0.0
 10
180.3474264706
 20
98.11700958000001
 30
0.0
  0
LINE
  5
40A
330
215
100
AcDbEntity
  8
RUNDUNGEN
  6
Continuous
 62
     9
100
AcDbLine
 10
195.558304556
 20
116.1818111217
 30
0.0
 11
196.8126294789
 21
115.9278552409
 31
0.0
  0
SPLINE
  5
40B
330
215
100
AcDbEntity
  8
RUNDUNGEN
  6
Continuous
 62
     9
100
AcDbSpline
210
0.0
220
0.0
230
1.0
 70
     8
 71
     3
 72
    13
 73
     9
 74
     0
 42
0.0000000001
 43
0.0000000001
 40
0.0
 40
0.0
 40
0.0
 40
0.0
 40
0.0567444145
 40
0.1403785333
 40
0.2483171896
 40
0.3770513965
 40
0.6784437772000001
 40
1.0
 40
1.0
 40
1.0
 40
1.0
 10
196.8126294789
 20
115.9278552409
 30
0.0
 10
196.8577041937
 20
115.9187225978
 30
0.0
 10
196.970651203
 20
115.9037678482
 30
0.0
 10
197.1709772148
 20
115.8848107551
 30
0.0
 10
197.4300218277
 20
115.8670876493
 30
0.0
 10
197.865539118
 20
115.8446169588
 30
0.0
 10
198.4745407508
 20
115.8256777276
 30
0.0
 10
198.979436885
 20
115.8199858046
 30
0.0
 10
199.2400539523
 20
115.8199789413
 30
0.0
  0
SPLINE
  5
40C
330
215
100
AcDbEntity
  8
RUNDUNGEN
  6
Continuous
 62
     9
100
AcDbSpline
210
0.0
220
0.0
230
1.0
 70
     8
 71
     3
 72
    13
 73
     9
 74
     0
 42
0.0000000001
 43
0.0000000001
 40
0.0
 40
0.0
 40
0.0
 40
0.0
 40
0.321556223
 40
0.6229486038000001
 40
0.7516828098000001
 40
0.8596214679
 40
0.9432555831999998
 40
1.0
 40
1.0
 40
1.0
 40
1.0
 10
221.4547989888
 20
115.8199789413
 30
0.0
 10
221.7154160564
 20
115.8199857941
 30
0.0
 10
222.2203121909
 20
115.8256777313
 30
0.0
 10
222.8293138229
 20
115.8446169594
 30
0.0
 10
223.2648311145
 20
115.8670876479
 30
0.0
 10
223.5238757241
 20
115.8848107593
 30
0.0
 10
223.7242017394
 20
115.9037678373
 30
0.0
 10
223.8371487425
 20
115.9187226131
 30
0.0
 10
223.8822234623
 20
115.9278552409
 30
0.0
  0
LINE
  5
40D
330
215
100
AcDbEntity
  8
RUNDUNGEN
  6
Continuous
 62
     9
100
AcDbLine
 10
223.8822234623
 20
115.9278552409
 30
0.0
 11
225.1365483852
 21
116.1818111217
 31
0.0
  0
LINE
  5
40E
330
215
100
AcDbEntity
  8
RUNDUNGEN
  6
Continuous
 62
     9
100
AcDbLine
 10
257.744802279
 20
97.4841513606
 30
0.0
 11
257.745010599
 21
102.2697327075
 31
0.0
  0
LINE
  5
40F
330
215
100
AcDbEntity
  8
RUNDUNGEN
  6
Continuous
 62
     9
100
AcDbLine
 10
258.6913759021
 20
103.2669936552
 30
0.0
 11
259.0471822218
 21
103.2882448203
 31
0.0
  0
SPLINE
  5
410
330
215
100
AcDbEntity
  8
RUNDUNGEN
  6
Continuous
 62
     9
100
AcDbSpline
210
0.0
220
0.0
230
1.0
 70
     8
 71
     3
 72
    11
 73
     7
 74
     0
 42
0.0000000001
 43
0.0000000001
 40
0.0
 40
0.0
 40
0.0
 40
0.0
 40
0.2719865944
 40
0.526501549
 40
0.7641971098
 40
1.0
 40
1.0
 40
1.0
 40
1.0
 10
273.1777848929
 20
120.6106529994
 30
0.0
 10
273.148066467
 20
120.6564567287
 30
0.0
 10
273.0918676795
 20
120.7460837013
 30
0.0
 10
272.9918643717
 20
120.8635396569
 30
0.0
 10
272.8730428185
 20
120.9517783852
 30
0.0
 10
272.780923206
 20
120.9819778754
 30
0.0
 10
272.7342926738
 20
120.9901217805
 30
0.0
  0
SPLINE
  5
411
330
215
100
AcDbEntity
  8
RUNDUNGEN
  6
Continuous
 62
     9
100
AcDbSpline
210
0.0
220
0.0
230
1.0
 70
     8
 71
     3
 72
    22
 73
    18
 74
     0
 42
0.0000000001
 43
0.0000000001
 40
0.0
 40
0.0
 40
0.0
 40
0.0
 40
0.203961639
 40
0.3897034368
 40
0.5552506947
 40
0.6299923686
 40
0.6989907338
 40
0.7619995483
 40
0.8186414519999999
 40
0.8684515205
 40
0.9109536248999999
 40
0.9455971687000001
 40
0.9721221981999999
 40
0.9822197940999998
 40
0.9901060587999999
 40
0.9959021907
 40
1.0
 40
1.0
 40
1.0
 40
1.0
 10
266.7745491554
 20
104.3048567268
 30
0.0
 10
267.271323947
 20
105.3914126758
 30
0.0
 10
268.2081886583
 20
107.4731185142
 30
0.0
 10
269.5082316193
 20
110.4545290542
 30
0.0
 10
270.4775931124
 20
112.7541917807
 30
0.0
 10
271.1626777021
 20
114.4313779566
 30
0.0
 10
271.6110859482
 20
115.5563845676
 30
0.0
 10
272.0101635522
 20
116.5868642027
 30
0.0
 10
272.3574962316
 20
117.5167938491
 30
0.0
 10
272.649892548
 20
118.338888315
 30
0.0
 10
272.8845044913
 20
119.0447109053
 30
0.0
 10
273.0574235279
 20
119.6268439524
 30
0.0
 10
273.1576053649
 20
120.0326458994
 30
0.0
 10
273.2005339244
 20
120.2898162945
 30
0.0
 10
273.2125865323
 20
120.4290942428
 30
0.0
 10
273.2069442104
 20
120.5330004419
 30
0.0
 10
273.190853124
 20
120.5905187259
 30
0.0
 10
273.1777848929
 20
120.6106529994
 30
0.0
  0
SPLINE
  5
412
330
215
100
AcDbEntity
  8
RUNDUNGEN
  6
Continuous
 62
     9
100
AcDbSpline
210
0.0
220
0.0
230
1.0
 70
     8
 71
     3
 72
    13
 73
     9
 74
     0
 42
0.0000000001
 43
0.0000000001
 40
0.0
 40
0.0
 40
0.0
 40
0.0
 40
0.3697544439
 40
0.6857679419
 40
0.8090026707999999
 40
0.9031674440999999
 40
0.9659834775
 40
1.0
 40
1.0
 40
1.0
 40
1.0
 10
256.8964987993
 20
95.47953119589999
 30
0.0
 10
256.8962174307
 20
95.60595407180001
 30
0.0
 10
256.8896993404
 20
95.84032835169999
 30
0.0
 10
256.8660107909
 20
96.11657065560001
 30
0.0
 10
256.8374603793
 20
96.2962573783
 30
0.0
 10
256.8140296901
 20
96.3904198532
 30
0.0
 10
256.7928229524
 20
96.44990694409999
 30
0.0
 10
256.7685138889
 20
96.4792800166
 30
0.0
 10
256.7569714350999
 20
96.48070946490001
 30
0.0
  0
SPLINE
  5
413
330
215
100
AcDbEntity
  8
RUNDUNGEN
  6
Continuous
 62
     9
100
AcDbSpline
210
0.0
220
0.0
230
1.0
 70
     8
 71
     3
 72
    14
 73
    10
 74
     0
 42
0.0000000001
 43
0.0000000001
 40
0.0
 40
0.0
 40
0.0
 40
0.0
 40
0.1846879698
 40
0.3631572308
 40
0.6763125115000001
 40
0.8001727527999999
 40
0.8964529112999999
 40
0.9627213430999999
 40
1.0
 40
1.0
 40
1.0
 40
1.0
 10
258.8821067977999
 20
102.2691564878
 30
0.0
 10
258.8792194148
 20
102.332369474
 30
0.0
 10
258.8694092876
 20
102.4564690479
 30
0.0
 10
258.8466815331
 20
102.6870017595
 30
0.0
 10
258.8175554271
 20
102.8963362735
 30
0.0
 10
258.7797066907
 20
103.0747613378
 30
0.0
 10
258.7523450035
 20
103.1699585227
 30
0.0
 10
258.7268560494
 20
103.2318516767
 30
0.0
 10
258.7034976411
 20
103.2629682783
 30
0.0
 10
258.6913759014
 20
103.2669936552
 30
0.0
  0
SPLINE
  5
414
330
215
100
AcDbEntity
  8
RUNDUNGEN
  6
Continuous
 62
     9
100
AcDbSpline
210
0.0
220
0.0
230
1.0
 70
     8
 71
     3
 72
    14
 73
    10
 74
     0
 42
0.0000000001
 43
0.0000000001
 40
0.0
 40
0.0
 40
0.0
 40
0.0
 40
0.3631726813
 40
0.5290096645000001
 40
0.6764152617
 40
0.8002757551
 40
0.8965521215999999
 40
0.962760807
 40
1.0
 40
1.0
 40
1.0
 40
1.0
 10
259.2372876043
 20
102.2904793063
 30
0.0
 10
259.2300217478
 20
102.4146690917
 30
0.0
 10
259.2149926382
 20
102.5953945952
 30
0.0
 10
259.1855442306
 20
102.8252004529
 30
0.0
 10
259.1611763918
 20
102.9730891518
 30
0.0
 10
259.1351887169
 20
103.0959932099
 30
0.0
 10
259.1078457547
 20
103.1912298041
 30
0.0
 10
259.0825438992
 20
103.2529623879
 30
0.0
 10
259.0593397596
 20
103.2843834522
 30
0.0
 10
259.0471822218
 20
103.2882448203
 30
0.0
  0
SPLINE
  5
415
330
215
100
AcDbEntity
  8
RUNDUNGEN
  6
Continuous
 62
     9
100
AcDbSpline
210
0.0
220
0.0
230
1.0
 70
     8
 71
     3
 72
    12
 73
     8
 74
     0
 42
0.0000000001
 43
0.0000000001
 40
0.0
 40
0.0
 40
0.0
 40
0.0
 40
0.3663680914
 40
0.6736317275000001
 40
0.8888911225000001
 40
0.9565504763999999
 40
1.0
 40
1.0
 40
1.0
 40
1.0
 10
266.1644489892
 20
102.8633893049
 30
0.0
 10
266.1549693267
 20
102.9718511936
 30
0.0
 10
266.1317775356
 20
103.1710977967
 30
0.0
 10
266.0820099372
 20
103.4299930953
 30
0.0
 10
266.030668179
 20
103.5999540353
 30
0.0
 10
265.9831646226
 20
103.6839874575
 30
0.0
 10
265.9563591525
 20
103.7072946866
 30
0.0
 10
265.9437786716
 20
103.7102022495
 30
0.0
  0
SPLINE
  5
416
330
215
100
AcDbEntity
  8
RUNDUNGEN
  6
Continuous
 62
     9
100
AcDbSpline
210
0.0
220
0.0
230
1.0
 70
     8
 71
     3
 72
    13
 73
     9
 74
     0
 42
0.0000000001
 43
0.0000000001
 40
0.0
 40
0.0
 40
0.0
 40
0.0
 40
0.3493742088
 40
0.6519126016
 40
0.7740814126000001
 40
0.8725669345999998
 40
0.9466174537999998
 40
1.0
 40
1.0
 40
1.0
 40
1.0
 10
267.3993666917
 20
103.4404905978
 30
0.0
 10
267.3161302764
 20
103.5278466095
 30
0.0
 10
267.153297539
 20
103.6837770239
 30
0.0
 10
266.9417755146
 20
103.8487527725
 30
0.0
 10
266.7861593531
 20
103.9410784888
 30
0.0
 10
266.692561154
 20
103.9821426558
 30
0.0
 10
266.6163045138
 20
104.0004905386
 30
0.0
 10
266.5702150791
 20
103.9941220192
 30
0.0
 10
266.5541941692
 20
103.9849985862
 30
0.0
  0
SPLINE
  5
417
330
215
100
AcDbEntity
  8
RUNDUNGEN
  6
Continuous
 62
     9
100
AcDbSpline
210
0.0
220
0.0
230
1.0
 70
     8
 71
     3
 72
    14
 73
    10
 74
     0
 42
0.0000000001
 43
0.0000000001
 40
0.0
 40
0.0
 40
0.0
 40
0.0
 40
0.3397392952
 40
0.4985661586
 40
0.6422966307
 40
0.7661421712000001
 40
0.8667675152999999
 40
0.9433023273999999
 40
1.0
 40
1.0
 40
1.0
 40
1.0
 10
267.8862245889
 20
104.1020320731
 30
0.0
 10
267.7670517919
 20
104.1607149814
 30
0.0
 10
267.5869466751
 20
104.2369587173
 30
0.0
 10
267.3472635604
 20
104.3124236649
 30
0.0
 10
267.1847683365001
 20
104.3505763377
 30
0.0
 10
267.041900736
 20
104.3704375456
 30
0.0
 10
266.9236920751
 20
104.3709860681
 30
0.0
 10
266.8331395356
 20
104.3535875269
 30
0.0
 10
266.7872995368
 20
104.322991773
 30
0.0
 10
266.7745491554
 20
104.3048567268
 30
0.0
  0
SPLINE
  5
418
330
215
100
AcDbEntity
  8
RUNDUNGEN
  6
Continuous
 62
     9
100
AcDbSpline
210
0.0
220
0.0
230
1.0
 70
     8
 71
     3
 72
     9
 73
     5
 74
     0
 42
0.0000000001
 43
0.0000000001
 40
0.0
 40
0.0
 40
0.0
 40
0.0
 40
0.5011145371
 40
1.0
 40
1.0
 40
1.0
 40
1.0
 10
197.9407884511999
 20
197.4777050978
 30
0.0
 10
197.7360863791
 20
197.6467423141999
 30
0.0
 10
197.2602842293
 20
197.9082726381
 30
0.0
 10
196.7267679859
 20
197.9941054472
 30
0.0
 10
196.4624747373
 20
197.9940947027
 30
0.0
  0
SPLINE
  5
419
330
215
100
AcDbEntity
  8
RUNDUNGEN
  6
Continuous
 62
     9
100
AcDbSpline
210
0.0
220
0.0
230
1.0
 70
     8
 71
     3
 72
     9
 73
     5
 74
     0
 42
0.0000000001
 43
0.0000000001
 40
0.0
 40
0.0
 40
0.0
 40
0.0
 40
0.5011140272
 40
1.0
 40
1.0
 40
1.0
 40
1.0
 10
222.7540849677
 20
197.4777050978
 30
0.0
 10
222.9587842923
 20
197.6467405104
 30
0.0
 10
223.4345751987
 20
197.9082788379
 30
0.0
 10
223.9680876688
 20
197.994105909
 30
0.0
 10
224.2323782039
 20
197.9940947027
 30
0.0
  0
SPLINE
  5
41B
330
215
100
AcDbEntity
  8
RUNDUNGEN
  6
Continuous
 62
     9
100
AcDbSpline
210
0.0
220
0.0
230
1.0
 70
     8
 71
     3
 72
    29
 73
    25
 74
     0
 42
0.0000000001
 43
0.0000000001
 40
0.0
 40
0.0
 40
0.0
 40
0.0
 40
0.0005585068
 40
0.0015988425
 40
0.0032022248
 40
0.0053874361
 40
0.0115225585
 40
0.0200144044
 40
0.0308510499
 40
0.0440097865
 40
0.0594613707
 40
0.0771697547
 40
0.0970932946
 40
0.1191847908
 40
0.1696556566
 40
0.2281002667
 40
0.2939588696
 40
0.3665999296
 40
0.4453264136
 40
0.529382519
 40
0.6179610434000001
 40
0.7102108781
 40
0.8052462134999998
 40
1.0
 40
1.0
 40
1.0
 40
1.0
 10
240.3473836827
 20
98.1160956813
 30
0.0
 10
240.3468610715
 20
98.1105309456
 30
0.0
 10
240.3330363917
 20
98.0983443999
 30
0.0
 10
240.3040252013
 20
98.08735909079999
 30
0.0
 10
240.2569123663
 20
98.07419984870001
 30
0.0
 10
240.1596767436
 20
98.05525670709998
 30
0.0
 10
239.992633297
 20
98.03274191879999
 30
0.0
 10
239.7391463672
 20
98.0075627425
 30
0.0
 10
239.4149538295
 20
97.98230097280001
 30
0.0
 10
239.0209993859
 20
97.95716806080001
 30
0.0
 10
238.5581238673
 20
97.93230356629999
 30
0.0
 10
238.0274571599
 20
97.90780621459999
 30
0.0
 10
237.4302594995
 20
97.88375601600002
 30
0.0
 10
236.5052930554
 20
97.85091207349999
 30
0.0
 10
235.1948067152
 20
97.8122892784
 30
0.0
 10
233.4462621511
 20
97.77039522370001
 30
0.0
 10
231.4757301933
 20
97.73165957139999
 30
0.0
 10
229.3021342074
 20
97.69648384280001
 30
0.0
 10
226.9463509686
 20
97.66524458110001
 30
0.0
 10
224.4310127027
 20
97.6382603238
 30
0.0
 10
221.7802910854
 20
97.6158054359
 30
0.0
 10
219.0196572304
 20
97.5981027543
 30
0.0
 10
215.1964631973
 20
97.58094192700001
 30
0.0
 10
212.2964128132
 20
97.5759025672
 30
0.0
 10
210.3474264706
 20
97.5759025672
 30
0.0
  0
SPLINE
  5
41C
330
215
100
AcDbEntity
  8
RUNDUNGEN
  6
Continuous
 62
     9
100
AcDbSpline
210
0.0
220
0.0
230
1.0
 70
     8
 71
     3
 72
    13
 73
     9
 74
     0
 42
0.0000000001
 43
0.0000000001
 40
0.0
 40
0.0
 40
0.0
 40
0.0
 40
0.2475454925
 40
0.4962283658
 40
0.6216988782000001
 40
0.7475478324
 40
0.8736871623999999
 40
1.0
 40
1.0
 40
1.0
 40
1.0
 10
224.2323782152
 20
207.0287001765
 30
0.0
 10
223.9623085863
 20
207.0286907645
 30
0.0
 10
223.4166237377
 20
207.1185293398
 30
0.0
 10
222.8117123909
 20
207.4601532407
 30
0.0
 10
222.4313943814
 20
207.8558085632
 30
0.0
 10
222.2113943847
 20
208.2077477087
 30
0.0
 10
222.0725782239
 20
208.5998799565
 30
0.0
 10
222.0409130841
 20
208.8763249252
 30
0.0
 10
222.0409287926
 20
209.0141309529
 30
0.0
  0
SPLINE
  5
41D
330
215
100
AcDbEntity
  8
RUNDUNGEN
  6
Continuous
 62
     9
100
AcDbSpline
210
0.0
220
0.0
230
1.0
 70
     8
 71
     3
 72
    13
 73
     9
 74
     0
 42
0.0000000001
 43
0.0000000001
 40
0.0
 40
0.0
 40
0.0
 40
0.0
 40
0.1263128375
 40
0.2524521676
 40
0.3783011217999999
 40
0.5037716342000001
 40
0.7524545075
 40
1.0
 40
1.0
 40
1.0
 40
1.0
 10
198.6539241486
 20
209.0141309509
 30
0.0
 10
198.6539398618
 20
208.8763249235
 30
0.0
 10
198.6222747157
 20
208.599879955
 30
0.0
 10
198.483458558
 20
208.2077477074
 30
0.0
 10
198.2634585598
 20
207.855808563
 30
0.0
 10
197.8831405522
 20
207.4601532391
 30
0.0
 10
197.2782292053
 20
207.1185293432
 30
0.0
 10
196.7325443574
 20
207.0286907568
 30
0.0
 10
196.4624747288
 20
207.0287001765
 30
0.0
  0
SPLINE
  5
41E
330
215
100
AcDbEntity
  8
RUNDUNGEN
  6
Continuous
 62
     9
100
AcDbSpline
210
0.0
220
0.0
230
1.0
 70
     8
 71
     3
 72
     8
 73
     4
 74
     0
 42
0.0000000001
 43
0.0000000001
 40
0.0
 40
0.0
 40
0.0
 40
0.0
 40
1.0
 40
1.0
 40
1.0
 40
1.0
 10
224.0405320785
 20
196.9942470076
 30
0.0
 10
224.5349889784
 20
196.9643337966999
 30
0.0
 10
225.0294600609
 20
196.9346528946
 30
0.0
 10
225.5239526819
 20
196.9053361091
 30
0.0
  0
SPLINE
  5
41F
330
215
100
AcDbEntity
  8
RUNDUNGEN
  6
Continuous
 62
     9
100
AcDbSpline
210
0.0
220
0.0
230
1.0
 70
     8
 71
     3
 72
     8
 73
     4
 74
     0
 42
0.0000000001
 43
0.0000000001
 40
0.0
 40
0.0
 40
0.0
 40
0.0
 40
1.0
 40
1.0
 40
1.0
 40
1.0
 10
195.1709002593
 20
196.9053361091
 30
0.0
 10
195.6653928867
 20
196.934652895
 30
0.0
 10
196.1598639756
 20
196.9643337986
 30
0.0
 10
196.6543208821
 20
196.9942470076
 30
0.0
  0
SPLINE
  5
420
330
215
100
AcDbEntity
  8
RUNDUNGEN
  6
Continuous
 62
     9
100
AcDbSpline
210
0.0
220
0.0
230
1.0
 70
     8
 71
     3
 72
     8
 73
     4
 74
     0
 42
0.0000000001
 43
0.0000000001
 40
0.0
 40
0.0
 40
0.0
 40
0.0
 40
1.0
 40
1.0
 40
1.0
 40
1.0
 10
225.5067240698
 20
208.1164324621
 30
0.0
 10
225.0180010561
 20
208.0874500385
 30
0.0
 10
224.5292990806
 20
208.0581120635
 30
0.0
 10
224.0406109146
 20
208.0285478717
 30
0.0
  0
SPLINE
  5
421
330
215
100
AcDbEntity
  8
RUNDUNGEN
  6
Continuous
 62
     9
100
AcDbSpline
210
0.0
220
0.0
230
1.0
 70
     8
 71
     3
 72
     8
 73
     4
 74
     0
 42
0.0000000001
 43
0.0000000001
 40
0.0
 40
0.0
 40
0.0
 40
0.0
 40
1.0
 40
1.0
 40
1.0
 40
1.0
 10
196.6542843409
 20
208.0285478717
 30
0.0
 10
196.1656057992
 20
208.0581114879
 30
0.0
 10
195.6769135507
 20
208.0874506
 30
0.0
 10
195.1882001621
 20
208.1164324621
 30
0.0
  0
SPLINE
  5
422
330
215
100
AcDbEntity
  8
0
  6
Continuous
 62
     9
100
AcDbSpline
210
0.0
220
0.0
230
1.0
 70
     8
 71
     3
 72
    30
 73
    26
 74
     0
 42
0.0000000001
 43
0.0000000001
 40
0.0
 40
0.0
 40
0.0
 40
0.0
 40
0.0005145306
 40
0.0015088874
 40
0.0030691615
 40
0.0052138128
 40
0.0112739862
 40
0.0196984585
 40
0.0304743879
 40
0.0435793344
 40
0.058983331
 40
0.0766508754
 40
0.0965396842
 40
0.118602921
 40
0.1427874353
 40
0.1690355866
 40
0.2274656566
 40
0.2933322091
 40
0.3660021723
 40
0.444776585
 40
0.5288974462000001
 40
0.6175551312
 40
0.7098959150000001
 40
0.8050311524999999
 40
1.0
 40
1.0
 40
1.0
 40
1.0
 10
170.3474264706
 20
96.11670498590001
 30
0.0
 10
170.3474271871
 20
96.10983982440002
 30
0.0
 10
170.3649782107
 20
96.09378378229999
 30
0.0
 10
170.4020754832
 20
96.0805982605
 30
0.0
 10
170.4634012296
 20
96.0637837214
 30
0.0
 10
170.5911222588
 20
96.0400773585
 30
0.0
 10
170.8116072601
 20
96.01161426780002
 30
0.0
 10
171.147019548
 20
95.9799748646
 30
0.0
 10
171.5769644603
 20
95.94813844159999
 30
0.0
 10
172.1001559388
 20
95.91648905579999
 30
0.0
 10
172.7154870609999
 20
95.88516056819999
 30
0.0
 10
173.4214418952999
 20
95.8542965392
 30
0.0
 10
174.2163473247
 20
95.82399383969999
 30
0.0
 10
175.0982832008
 20
95.79434929260001
 30
0.0
 10
176.0651348819
 20
95.7654411689
 30
0.0
 10
177.5171259138
 20
95.7265877809
 30
0.0
 10
179.5252744955
 20
95.68113347549999
 30
0.0
 10
182.1528667032
 20
95.63229886010001
 30
0.0
 10
185.0520189746
 20
95.58796533579998
 30
0.0
 10
188.1948217662
 20
95.54858599239999
 30
0.0
 10
191.5510157131
 20
95.51457026999999
 30
0.0
 10
195.0882785755
 20
95.48626269649998
 30
0.0
 10
198.7725471474
 20
95.46394541069998
 30
0.0
 10
203.8753013491
 20
95.4423103172
 30
0.0
 10
207.7460405885
 20
95.43595773360001
 30
0.0
 10
210.3474264706
 20
95.43595739169999
 30
0.0
  0
SPLINE
  5
426
330
215
100
AcDbEntity
  8
RUNDUNGEN
  6
Continuous
 62
     9
100
AcDbSpline
210
0.0
220
0.0
230
1.0
 70
     8
 71
     3
 72
    21
 73
    17
 74
     0
 42
0.0000000001
 43
0.0000000001
 40
0.0
 40
0.0
 40
0.0
 40
0.0
 40
0.2035375188
 40
0.3891124234
 40
0.5546445368999999
 40
0.6984046572000001
 40
0.7614064302
 40
0.8180234306999999
 40
0.8677915743000001
 40
0.9102465151
 40
0.9448644940999999
 40
0.97141906
 40
0.9815784068999999
 40
0.9895833601999999
 40
0.9955751416
 40
1.0
 40
1.0
 40
1.0
 40
1.0
 10
267.8862245815
 20
104.1020320651
 30
0.0
 10
268.4198362001
 20
105.2237274922
 30
0.0
 10
269.4098932549
 20
107.3824907534
 30
0.0
 10
270.7574701711
 20
110.4877818464
 30
0.0
 10
271.9044412778
 20
113.2818106751
 30
0.0
 10
272.7213807542
 20
115.4021646756
 30
0.0
 10
273.2684694226
 20
116.9136029915
 30
0.0
 10
273.6039439043
 20
117.8914610252
 30
0.0
 10
273.8814356799
 20
118.7564343102
 30
0.0
 10
274.0984609511
 20
119.4996802414
 30
0.0
 10
274.2520135686
 20
120.1132147147
 30
0.0
 10
274.3346333518
 20
120.5413489534
 30
0.0
 10
274.3618272537
 20
120.8130218761
 30
0.0
 10
274.3628936299
 20
120.9609731248
 30
0.0
 10
274.346853086
 20
121.072364475
 30
0.0
 10
274.3219693993
 20
121.1330229766
 30
0.0
 10
274.3049319642
 20
121.1539740434
 30
0.0
  0
LEADER
  5
5EA
330
215
100
AcDbEntity
  8
ZEICHNUNGSBEMASSUNGEN
  6
Continuous
 62
     7
100
AcDbLeader
  3
DIMSTYLE_2
 74
     0
 76
     3
 10
217.3474263085731
 20
232.0098003278143
 30
0.0
 10
233.486013134773
 20
241.6540444114716
 30
0.0
 10
250.5786432374793
 20
241.6213488330299
 30
0.0
213
8.546107528269942
223
6.697880158863256
233
0.0
1001
ACAD
1000
DSTYLE
1002
{
1070
    41
1040
5.0
1070
   147
1040
1.5
1070
   178
1070
   256
1002
}
  0
LINE
  5
5EB
330
215
100
AcDbEntity
  8
0
100
AcDbLine
 10
252.9364136067565
 20
238.3754470553916
 30
0.0
 11
261.575576881091
 21
238.3754470553916
 31
0.0
  0
LINE
  5
5EC
330
215
100
AcDbEntity
  8
0
100
AcDbLine
 10
254.4316339813358
 20
237.2298201498818
 30
0.0
 11
260.0642677785192
 21
237.2298201498818
 31
0.0
  0
LINE
  5
5ED
330
215
100
AcDbEntity
  8
0
100
AcDbLine
 10
255.8424454348499
 20
236.2973727211298
 30
0.0
 11
258.8465139483032
 21
236.2973727211298
 31
0.0
  0
LINE
  5
5EE
330
215
100
AcDbEntity
  8
0
100
AcDbLine
 10
257.2086465868748
 20
239.9702527557189
 30
0.0
 11
257.2086465868748
 21
245.411358355645
 31
0.0
  0
ENDSEC
  0
SECTION
  2
OBJECTS
  0
DICTIONARY
  5
C
330
0
100
AcDbDictionary
281
     1
  3
ACAD_COLOR
350
45A
  3
ACAD_GROUP
350
D
  3
ACAD_LAYOUT
350
1A
  3
ACAD_MATERIAL
350
42D
  3
ACAD_MLEADERSTYLE
350
46F
  3
ACAD_MLINESTYLE
350
17
  3
ACAD_PLOTSETTINGS
350
19
  3
ACAD_PLOTSTYLENAME
350
E
  3
ACAD_SCALELIST
350
45D
  3
ACAD_TABLESTYLE
350
45B
  3
ACAD_VISUALSTYLE
350
446
  3
ACDB_RECOMPOSE_DATA
350
5FE
  3
AcDbVariableDictionary
350
5EF
  3
AcmDictionary
350
4CA
  3
AMG
350
474
  3
AMGSNAPSETTINGS
350
50F
  3
DWGPROPS
350
5FF
  0
DICTIONARY
  5
45A
102
{ACAD_REACTORS
330
C
102
}
330
C
100
AcDbDictionary
281
     1
  0
DICTIONARY
  5
D
102
{ACAD_REACTORS
330
C
102
}
330
C
100
AcDbDictionary
281
     1
  0
DICTIONARY
  5
1A
102
{ACAD_REACTORS
330
C
102
}
330
C
100
AcDbDictionary
281
     1
  3
Layout1
350
42A
  3
Model
350
429
  0
DICTIONARY
  5
42D
102
{ACAD_REACTORS
330
C
102
}
330
C
100
AcDbDictionary
281
     1
  3
ByBlock
350
436
  3
ByLayer
350
42E
  3
Global
350
43E
  0
DICTIONARY
  5
46F
102
{ACAD_REACTORS
330
C
102
}
330
C
100
AcDbDictionary
281
     1
  3
Standard
350
470
  0
DICTIONARY
  5
17
102
{ACAD_REACTORS
330
C
102
}
330
C
100
AcDbDictionary
281
     1
  3
Standard
350
18
  0
DICTIONARY
  5
19
102
{ACAD_REACTORS
330
C
102
}
330
C
100
AcDbDictionary
281
     1
  0
ACDBDICTIONARYWDFLT
  5
E
102
{ACAD_REACTORS
330
C
102
}
330
C
100
AcDbDictionary
281
     1
  3
Normal
350
F
100
AcDbDictionaryWithDefault
340
F
  0
DICTIONARY
  5
45D
102
{ACAD_REACTORS
330
C
102
}
330
C
100
AcDbDictionary
281
     1
  3
A0
350
45E
  3
A1
350
45F
  3
A2
350
460
  3
A3
350
461
  3
A4
350
462
  3
A5
350
463
  3
A6
350
464
  3
A7
350
465
  3
A8
350
466
  3
A9
350
467
  3
B0
350
468
  3
B1
350
469
  3
B2
350
46A
  3
B3
350
46B
  3
B4
350
46C
  3
B5
350
46D
  3
B6
350
46E
  0
DICTIONARY
  5
45B
102
{ACAD_REACTORS
330
C
102
}
330
C
100
AcDbDictionary
281
     1
  3
Standard
350
45C
  0
DICTIONARY
  5
446
102
{ACAD_REACTORS
330
C
102
}
330
C
100
AcDbDictionary
281
     1
  3
2dWireframe
350
44C
  3
3D Hidden
350
44E
  3
3dWireframe
350
44D
  3
Basic
350
44B
  3
Brighten
350
452
  3
ColorChange
350
456
  3
Conceptual
350
44F
  3
Dim
350
451
  3
EdgeColorOff
350
459
  3
Facepattern
350
455
  3
Flat
350
447
  3
FlatWithEdges
350
448
  3
Gouraud
350
449
  3
GouraudWithEdges
350
44A
  3
JitterOff
350
457
  3
Linepattern
350
454
  3
OverhangOff
350
458
  3
Realistic
350
450
  3
Thicken
350
453
  0
XRECORD
  5
5FE
102
{ACAD_REACTORS
330
C
102
}
330
C
100
AcDbXrecord
280
     1
 90
        1
330
45C
  0
DICTIONARY
  5
5EF
102
{ACAD_REACTORS
330
C
102
}
330
C
100
AcDbDictionary
281
     1
  3
CANNOSCALE
350
5F3
  3
CMLEADERSTYLE
350
5F1
  3
CTABLESTYLE
350
5F0
  3
DIMASSOC
350
5FA
  3
HIDETEXT
350
5F9
  3
INDEXCTL
350
5F8
  3
LAYEREVAL
350
5F5
  3
LAYERNOTIFY
350
5F6
  3
LIGHTINGUNITS
350
5F4
  3
MSLTSCALE
350
5F2
  3
SORTENTS
350
5F7
  3
XCLIPFRAME
350
5FB
  0
DICTIONARY
  5
4CA
102
{ACAD_REACTORS
330
C
102
}
330
C
100
AcDbDictionary
281
     1
  3
AcmStdDictionary
350
4D4
  0
DICTIONARY
  5
474
102
{ACAD_REACTORS
330
C
102
}
330
C
100
AcDbDictionary
281
     1
  0
DICTIONARY
  5
50F
102
{ACAD_REACTORS
330
C
102
}
330
C
100
AcDbDictionary
281
     1
  0
XRECORD
  5
5FF
102
{ACAD_REACTORS
330
C
102
}
330
C
100
AcDbXrecord
280
     1
  1
DWGPROPS COOKIE
  2

  3

  4

  6

  7

  8
sheim
  9

300
=
301
=
302
=
303
=
304
=
305
=
306
=
307
=
308
=
309
=
 40
0.0012785300925926
 41
2456324.632700671
 42
2456324.633978831
  1

 90
        0
  0
LAYOUT
  5
42A
102
{ACAD_XDICTIONARY
360
602
102
}
102
{ACAD_REACTORS
330
1A
102
}
330
1A
100
AcDbPlotSettings
  1

  2
none_device
  4
ISO_A3_(420.00_x_297.00_MM)
  6

 40
0.0
 41
0.0
 42
0.0
 43
0.0
 44
420.0
 45
297.0
 46
0.0
 47
0.0
 48
0.0
 49
0.0
140
0.0
141
0.0
142
1.0
143
1.0
 70
     0
 72
     1
 73
     0
 74
     0
  7

 75
     0
147
1.0
148
0.0
149
0.0
100
AcDbLayout
  1
Layout1
 70
     1
 71
     1
 10
0.0
 20
0.0
 11
12.0
 21
9.0
 12
0.0
 22
0.0
 32
0.0
 14
1.000000000000000E+20
 24
1.000000000000000E+20
 34
1.000000000000000E+20
 15
-1.000000000000000E+20
 25
-1.000000000000000E+20
 35
-1.000000000000000E+20
146
0.0
 13
0.0
 23
0.0
 33
0.0
 16
1.0
 26
0.0
 36
0.0
 17
0.0
 27
1.0
 37
0.0
 76
     0
330
216
  0
LAYOUT
  5
429
102
{ACAD_XDICTIONARY
360
600
102
}
102
{ACAD_REACTORS
330
1A
102
}
330
1A
100
AcDbPlotSettings
  1

  2
none_device
  4
ISO_A3_(420.00_x_297.00_MM)
  6

 40
0.0
 41
0.0
 42
0.0
 43
0.0
 44
420.0
 45
297.0
 46
0.0
 47
0.0
 48
0.0
 49
0.0
140
0.0
141
0.0
142
1.0
143
1.0
 70
  1024
 72
     1
 73
     0
 74
     0
  7

 75
     0
147
1.0
148
0.0
149
0.0
100
AcDbLayout
  1
Model
 70
     0
 71
     0
 10
0.0
 20
0.0
 11
420.0
 21
297.0
 12
0.0
 22
0.0
 32
0.0
 14
0.0
 24
0.0
 34
0.0
 15
0.0
 25
0.0
 35
0.0
146
0.0
 13
0.0
 23
0.0
 33
0.0
 16
1.0
 26
0.0
 36
0.0
 17
0.0
 27
1.0
 37
0.0
 76
     0
330
215
331
1F4
  0
MATERIAL
  5
436
102
{ACAD_XDICTIONARY
360
437
102
}
102
{ACAD_REACTORS
330
42D
102
}
330
42D
100
AcDbMaterial
  1
ByBlock
 72
     0
 43
0.0008202099737533
 43
0.0
 43
0.0
 43
0.0
 43
0.0
 43
0.0008202099737533
 43
0.0
 43
0.0
 43
0.0
 43
0.0
 43
1.0
 43
0.0
 43
0.0
 43
0.0
 43
0.0
 43
1.0
 77
     0
 47
0.0008202099737533
 47
0.0
 47
0.0
 47
0.0
 47
0.0
 47
0.0008202099737533
 47
0.0
 47
0.0
 47
0.0
 47
0.0
 47
1.0
 47
0.0
 47
0.0
 47
0.0
 47
0.0
 47
1.0
171
     0
 49
0.0008202099737533
 49
0.0
 49
0.0
 49
0.0
 49
0.0
 49
0.0008202099737533
 49
0.0
 49
0.0
 49
0.0
 49
0.0
 49
1.0
 49
0.0
 49
0.0
 49
0.0
 49
0.0
 49
1.0
175
     0
142
0.0008202099737533
142
0.0
142
0.0
142
0.0
142
0.0
142
0.0008202099737533
142
0.0
142
0.0
142
0.0
142
0.0
142
1.0
142
0.0
142
0.0
142
0.0
142
0.0
142
1.0
179
     0
144
0.0008202099737533
144
0.0
144
0.0
144
0.0
144
0.0
144
0.0008202099737533
144
0.0
144
0.0
144
0.0
144
0.0
144
1.0
144
0.0
144
0.0
144
0.0
144
0.0
144
1.0
147
0.0008202099737533
147
0.0
147
0.0
147
0.0
147
0.0
147
0.0008202099737533
147
0.0
147
0.0
147
0.0
147
0.0
147
1.0
147
0.0
147
0.0
147
0.0
147
0.0
147
1.0
  0
MATERIAL
  5
42E
102
{ACAD_XDICTIONARY
360
42F
102
}
102
{ACAD_REACTORS
330
42D
102
}
330
42D
100
AcDbMaterial
  1
ByLayer
 72
     0
 43
0.0008202099737533
 43
0.0
 43
0.0
 43
0.0
 43
0.0
 43
0.0008202099737533
 43
0.0
 43
0.0
 43
0.0
 43
0.0
 43
1.0
 43
0.0
 43
0.0
 43
0.0
 43
0.0
 43
1.0
 77
     0
 47
0.0008202099737533
 47
0.0
 47
0.0
 47
0.0
 47
0.0
 47
0.0008202099737533
 47
0.0
 47
0.0
 47
0.0
 47
0.0
 47
1.0
 47
0.0
 47
0.0
 47
0.0
 47
0.0
 47
1.0
171
     0
 49
0.0008202099737533
 49
0.0
 49
0.0
 49
0.0
 49
0.0
 49
0.0008202099737533
 49
0.0
 49
0.0
 49
0.0
 49
0.0
 49
1.0
 49
0.0
 49
0.0
 49
0.0
 49
0.0
 49
1.0
175
     0
142
0.0008202099737533
142
0.0
142
0.0
142
0.0
142
0.0
142
0.0008202099737533
142
0.0
142
0.0
142
0.0
142
0.0
142
1.0
142
0.0
142
0.0
142
0.0
142
0.0
142
1.0
179
     0
144
0.0008202099737533
144
0.0
144
0.0
144
0.0
144
0.0
144
0.0008202099737533
144
0.0
144
0.0
144
0.0
144
0.0
144
1.0
144
0.0
144
0.0
144
0.0
144
0.0
144
1.0
147
0.0008202099737533
147
0.0
147
0.0
147
0.0
147
0.0
147
0.0008202099737533
147
0.0
147
0.0
147
0.0
147
0.0
147
1.0
147
0.0
147
0.0
147
0.0
147
0.0
147
1.0
  0
MATERIAL
  5
43E
102
{ACAD_XDICTIONARY
360
43F
102
}
102
{ACAD_REACTORS
330
42D
102
}
330
42D
100
AcDbMaterial
  1
Global
 72
     0
 43
0.0008202099737533
 43
0.0
 43
0.0
 43
0.0
 43
0.0
 43
0.0008202099737533
 43
0.0
 43
0.0
 43
0.0
 43
0.0
 43
1.0
 43
0.0
 43
0.0
 43
0.0
 43
0.0
 43
1.0
 77
     0
 47
0.0008202099737533
 47
0.0
 47
0.0
 47
0.0
 47
0.0
 47
0.0008202099737533
 47
0.0
 47
0.0
 47
0.0
 47
0.0
 47
1.0
 47
0.0
 47
0.0
 47
0.0
 47
0.0
 47
1.0
171
     0
 49
0.0008202099737533
 49
0.0
 49
0.0
 49
0.0
 49
0.0
 49
0.0008202099737533
 49
0.0
 49
0.0
 49
0.0
 49
0.0
 49
1.0
 49
0.0
 49
0.0
 49
0.0
 49
0.0
 49
1.0
175
     0
142
0.0008202099737533
142
0.0
142
0.0
142
0.0
142
0.0
142
0.0008202099737533
142
0.0
142
0.0
142
0.0
142
0.0
142
1.0
142
0.0
142
0.0
142
0.0
142
0.0
142
1.0
179
     0
144
0.0008202099737533
144
0.0
144
0.0
144
0.0
144
0.0
144
0.0008202099737533
144
0.0
144
0.0
144
0.0
144
0.0
144
1.0
144
0.0
144
0.0
144
0.0
144
0.0
144
1.0
147
0.0008202099737533
147
0.0
147
0.0
147
0.0
147
0.0
147
0.0008202099737533
147
0.0
147
0.0
147
0.0
147
0.0
147
1.0
147
0.0
147
0.0
147
0.0
147
0.0
147
1.0
  0
MLEADERSTYLE
  5
470
102
{ACAD_REACTORS
330
46F
102
}
330
46F
100
AcDbMLeaderStyle
170
     2
171
     1
172
     0
 90
        2
 40
0.0
 41
0.0
173
     1
 91
-1056964608
340
14
 92
       -2
290
     1
 42
2.0
291
     1
 43
0.36
  3
Standard
 44
4.0
300

342
11
174
     1
178
     6
175
     1
176
     0
 93
-1056964608
 45
4.0
292
     0
297
     0
 46
4.0
 94
-1056964608
 47
1.0
 49
1.0
140
1.0
293
     1
141
0.0
294
     1
177
     0
142
1.0
295
     0
296
     0
143
0.125
1001
ACAD_MLEADERVER
1070
     2
  0
MLINESTYLE
  5
18
102
{ACAD_REACTORS
330
17
102
}
330
17
100
AcDbMlineStyle
  2
STANDARD
 70
     0
  3

 62
   256
 51
90.0
 52
90.0
 71
     2
 49
0.5
 62
   256
  6
BYLAYER
 49
-0.5
 62
   256
  6
BYLAYER
  0
ACDBPLACEHOLDER
  5
F
102
{ACAD_REACTORS
330
E
102
}
330
E
  0
SCALE
  5
45E
102
{ACAD_REACTORS
330
45D
102
}
330
45D
100
AcDbScale
 70
     0
300
1:1
140
1.0
141
1.0
290
     1
  0
SCALE
  5
45F
102
{ACAD_REACTORS
330
45D
102
}
330
45D
100
AcDbScale
 70
     0
300
1:2
140
1.0
141
2.0
290
     0
  0
SCALE
  5
460
102
{ACAD_REACTORS
330
45D
102
}
330
45D
100
AcDbScale
 70
     0
300
1:4
140
1.0
141
4.0
290
     0
  0
SCALE
  5
461
102
{ACAD_REACTORS
330
45D
102
}
330
45D
100
AcDbScale
 70
     0
300
1:5
140
1.0
141
5.0
290
     0
  0
SCALE
  5
462
102
{ACAD_REACTORS
330
45D
102
}
330
45D
100
AcDbScale
 70
     0
300
1:8
140
1.0
141
8.0
290
     0
  0
SCALE
  5
463
102
{ACAD_REACTORS
330
45D
102
}
330
45D
100
AcDbScale
 70
     0
300
1:10
140
1.0
141
10.0
290
     0
  0
SCALE
  5
464
102
{ACAD_REACTORS
330
45D
102
}
330
45D
100
AcDbScale
 70
     0
300
1:16
140
1.0
141
16.0
290
     0
  0
SCALE
  5
465
102
{ACAD_REACTORS
330
45D
102
}
330
45D
100
AcDbScale
 70
     0
300
1:20
140
1.0
141
20.0
290
     0
  0
SCALE
  5
466
102
{ACAD_REACTORS
330
45D
102
}
330
45D
100
AcDbScale
 70
     0
300
1:30
140
1.0
141
30.0
290
     0
  0
SCALE
  5
467
102
{ACAD_REACTORS
330
45D
102
}
330
45D
100
AcDbScale
 70
     0
300
1:40
140
1.0
141
40.0
290
     0
  0
SCALE
  5
468
102
{ACAD_REACTORS
330
45D
102
}
330
45D
100
AcDbScale
 70
     0
300
1:50
140
1.0
141
50.0
290
     0
  0
SCALE
  5
469
102
{ACAD_REACTORS
330
45D
102
}
330
45D
100
AcDbScale
 70
     0
300
1:100
140
1.0
141
100.0
290
     0
  0
SCALE
  5
46A
102
{ACAD_REACTORS
330
45D
102
}
330
45D
100
AcDbScale
 70
     0
300
2:1
140
2.0
141
1.0
290
     0
  0
SCALE
  5
46B
102
{ACAD_REACTORS
330
45D
102
}
330
45D
100
AcDbScale
 70
     0
300
4:1
140
4.0
141
1.0
290
     0
  0
SCALE
  5
46C
102
{ACAD_REACTORS
330
45D
102
}
330
45D
100
AcDbScale
 70
     0
300
8:1
140
8.0
141
1.0
290
     0
  0
SCALE
  5
46D
102
{ACAD_REACTORS
330
45D
102
}
330
45D
100
AcDbScale
 70
     0
300
10:1
140
10.0
141
1.0
290
     0
  0
SCALE
  5
46E
102
{ACAD_REACTORS
330
45D
102
}
330
45D
100
AcDbScale
 70
     0
300
100:1
140
100.0
141
1.0
290
     0
  0
TABLESTYLE
  5
45C
102
{ACAD_XDICTIONARY
360
5FC
102
}
102
{ACAD_REACTORS
330
45B
102
}
330
45B
100
AcDbTableStyle
  3
Standard
 70
     0
 71
     0
 40
1.5
 41
1.5
280
     0
281
     0
  7
STANDARD
140
4.5
170
     2
 62
     0
 63
     7
283
     0
274
    -2
284
     1
 64
     0
275
    -2
285
     1
 65
     0
276
    -2
286
     1
 66
     0
277
    -2
287
     1
 67
     0
278
    -2
288
     1
 68
     0
279
    -2
289
     1
 69
     0
  7
STANDARD
140
6.0
170
     5
 62
     0
 63
     7
283
     0
274
    -2
284
     1
 64
     0
275
    -2
285
     1
 65
     0
276
    -2
286
     1
 66
     0
277
    -2
287
     1
 67
     0
278
    -2
288
     1
 68
     0
279
    -2
289
     1
 69
     0
  7
STANDARD
140
4.5
170
     5
 62
     0
 63
     7
283
     0
274
    -2
284
     1
 64
     0
275
    -2
285
     1
 65
     0
276
    -2
286
     1
 66
     0
277
    -2
287
     1
 67
     0
278
    -2
288
     1
 68
     0
279
    -2
289
     1
 69
     0
  0
VISUALSTYLE
  5
44C
102
{ACAD_XDICTIONARY
360
611
102
}
102
{ACAD_REACTORS
330
446
102
}
330
446
100
AcDbVisualStyle
  2
2dWireframe
 70
     4
 71
     0
 72
     2
 73
     0
 90
        0
 40
-0.6
 41
-30.0
 62
     5
 63
     7
 74
     1
 91
        4
 64
     7
 65
   257
 75
     1
175
     1
 42
1.0
 92
        0
 66
   257
 43
1.0
 76
     1
 77
     6
 78
     2
 67
     7
 79
     5
170
     0
171
     0
290
     0
174
     0
 93
        1
 44
0.0
173
     0
291
     0
 45
0.0
1001
ACAD
1000
AcDbSavedByObjectVersion
1070
     0
  0
VISUALSTYLE
  5
44E
102
{ACAD_XDICTIONARY
360
615
102
}
102
{ACAD_REACTORS
330
446
102
}
330
446
100
AcDbVisualStyle
  2
3D Hidden
 70
     6
 71
     1
 72
     2
 73
     2
 90
        0
 40
-0.6
 41
-30.0
 62
     5
 63
     7
 74
     2
 91
        2
 64
     7
 65
   257
 75
     2
175
     1
 42
179.0
 92
        0
 66
   257
 43
1.0
 76
     1
 77
     6
 78
     2
 67
     7
 79
     3
170
     0
171
     0
290
     0
174
     0
 93
        1
 44
0.0
173
     0
291
     0
 45
0.0
1001
ACAD
1000
AcDbSavedByObjectVersion
1070
     0
  0
VISUALSTYLE
  5
44D
102
{ACAD_XDICTIONARY
360
613
102
}
102
{ACAD_REACTORS
330
446
102
}
330
446
100
AcDbVisualStyle
  2
3dWireframe
 70
     5
 71
     0
 72
     2
 73
     0
 90
        0
 40
-0.6
 41
-30.0
 62
     5
 63
     7
 74
     1
 91
        4
 64
     7
 65
   257
 75
     1
175
     1
 42
1.0
 92
        0
 66
   257
 43
1.0
 76
     1
 77
     6
 78
     2
 67
     7
 79
     5
170
     0
171
     0
290
     0
174
     0
 93
        1
 44
0.0
173
     0
291
     0
 45
0.0
1001
ACAD
1000
AcDbSavedByObjectVersion
1070
     0
  0
VISUALSTYLE
  5
44B
102
{ACAD_XDICTIONARY
360
60F
102
}
102
{ACAD_REACTORS
330
446
102
}
330
446
100
AcDbVisualStyle
  2
Basic
 70
     7
 71
     1
 72
     0
 73
     1
 90
        0
 40
-0.6
 41
-30.0
 62
     5
 63
     7
 74
     0
 91
        4
 64
     7
 65
   257
 75
     1
175
     1
 42
1.0
 92
        8
 66
     7
 43
1.0
 76
     1
 77
     6
 78
     2
 67
     7
 79
     5
170
     0
171
     0
290
     0
174
     0
 93
        1
 44
0.0
173
     0
291
     1
 45
0.0
1001
ACAD
1000
AcDbSavedByObjectVersion
1070
     0
  0
VISUALSTYLE
  5
452
102
{ACAD_XDICTIONARY
360
61D
102
}
102
{ACAD_REACTORS
330
446
102
}
330
446
100
AcDbVisualStyle
  2
Brighten
 70
    12
 71
     2
 72
     2
 73
     0
 90
        0
 40
-0.6
 41
-30.0
 62
     5
 63
     7
 74
     1
 91
        4
 64
     7
 65
   257
 75
     1
175
     1
 42
1.0
 92
        8
 66
     7
 43
1.0
 76
     1
 77
     6
 78
     2
 67
     7
 79
     5
170
     0
171
     0
290
     0
174
     0
 93
        1
 44
50.0
173
     0
291
     1
 45
0.0
1001
ACAD
1000
AcDbSavedByObjectVersion
1070
     0
  0
VISUALSTYLE
  5
456
102
{ACAD_XDICTIONARY
360
625
102
}
102
{ACAD_REACTORS
330
446
102
}
330
446
100
AcDbVisualStyle
  2
ColorChange
 70
    16
 71
     2
 72
     2
 73
     3
 90
        0
 40
-0.6
 41
-30.0
 62
     5
 63
     8
 74
     1
 91
        4
 64
     7
 65
   257
 75
     1
175
     1
 42
1.0
 92
        8
 66
     8
 43
1.0
 76
     1
 77
     6
 78
     2
 67
     7
 79
     5
170
     0
171
     0
290
     0
174
     0
 93
        1
 44
0.0
173
     0
291
     1
 45
0.0
1001
ACAD
1000
AcDbSavedByObjectVersion
1070
     0
  0
VISUALSTYLE
  5
44F
102
{ACAD_XDICTIONARY
360
617
102
}
102
{ACAD_REACTORS
330
446
102
}
330
446
100
AcDbVisualStyle
  2
Conceptual
 70
     9
 71
     3
 72
     2
 73
     0
 90
        0
 40
-0.6
 41
-30.0
 62
     5
 63
     7
 74
     2
 91
        2
 64
     7
 65
   257
 75
     1
175
     1
 42
179.0
 92
        8
 66
     7
 43
1.0
 76
     1
 77
     6
 78
     2
 67
     7
 79
     3
170
     0
171
     0
290
     0
174
     0
 93
        1
 44
0.0
173
     0
291
     0
 45
0.0
1001
ACAD
1000
AcDbSavedByObjectVersion
1070
     0
  0
VISUALSTYLE
  5
451
102
{ACAD_XDICTIONARY
360
61B
102
}
102
{ACAD_REACTORS
330
446
102
}
330
446
100
AcDbVisualStyle
  2
Dim
 70
    11
 71
     2
 72
     2
 73
     0
 90
        0
 40
-0.6
 41
-30.0
 62
     5
 63
     7
 74
     1
 91
        4
 64
     7
 65
   257
 75
     1
175
     1
 42
1.0
 92
        8
 66
     7
 43
1.0
 76
     1
 77
     6
 78
     2
 67
     7
 79
     5
170
     0
171
     0
290
     0
174
     0
 93
        1
 44
-50.0
173
     0
291
     1
 45
0.0
1001
ACAD
1000
AcDbSavedByObjectVersion
1070
     0
  0
VISUALSTYLE
  5
459
102
{ACAD_XDICTIONARY
360
62B
102
}
102
{ACAD_REACTORS
330
446
102
}
330
446
100
AcDbVisualStyle
  2
EdgeColorOff
 70
    22
 71
     2
 72
     2
 73
     0
 90
        0
 40
-0.6
 41
-30.0
 62
     5
 63
     7
 74
     1
 91
        4
 64
     7
 65
   257
 75
     1
175
     1
 42
1.0
 92
        8
 66
     7
 43
1.0
 76
     1
 77
     6
 78
     2
 67
     7
 79
     5
170
     0
171
     0
290
     0
174
     0
 93
        1
 44
0.0
173
     0
291
     1
 45
0.0
1001
ACAD
1000
AcDbSavedByObjectVersion
1070
     0
  0
VISUALSTYLE
  5
455
102
{ACAD_XDICTIONARY
360
623
102
}
102
{ACAD_REACTORS
330
446
102
}
330
446
100
AcDbVisualStyle
  2
Facepattern
 70
    15
 71
     2
 72
     2
 73
     0
 90
        0
 40
-0.6
 41
-30.0
 62
     5
 63
     7
 74
     1
 91
        4
 64
     7
 65
   257
 75
     1
175
     1
 42
1.0
 92
        8
 66
     7
 43
1.0
 76
     1
 77
     6
 78
     2
 67
     7
 79
     5
170
     0
171
     0
290
     0
174
     0
 93
        1
 44
0.0
173
     0
291
     1
 45
0.0
1001
ACAD
1000
AcDbSavedByObjectVersion
1070
     0
  0
VISUALSTYLE
  5
447
102
{ACAD_XDICTIONARY
360
607
102
}
102
{ACAD_REACTORS
330
446
102
}
330
446
100
AcDbVisualStyle
  2
Flat
 70
     0
 71
     2
 72
     1
 73
     1
 90
        2
 40
-0.6
 41
30.0
 62
     5
 63
     7
 74
     0
 91
        4
 64
     7
 65
   257
 75
     1
175
     1
 42
1.0
 92
        8
 66
     7
 43
1.0
 76
     1
 77
     6
 78
     2
 67
     7
 79
     5
170
     0
171
     0
290
     0
174
     0
 93
       13
 44
0.0
173
     0
291
     1
 45
0.0
1001
ACAD
1000
AcDbSavedByObjectVersion
1070
     0
  0
VISUALSTYLE
  5
448
102
{ACAD_XDICTIONARY
360
609
102
}
102
{ACAD_REACTORS
330
446
102
}
330
446
100
AcDbVisualStyle
  2
FlatWithEdges
 70
     1
 71
     2
 72
     1
 73
     1
 90
        2
 40
-0.6
 41
30.0
 62
     5
 63
     7
 74
     1
 91
        4
 64
     7
 65
   257
 75
     1
175
     1
 42
1.0
 92
        0
 66
   257
 43
1.0
 76
     1
 77
     6
 78
     2
 67
     7
 79
     5
170
     0
171
     0
290
     0
174
     0
 93
       13
 44
0.0
173
     0
291
     1
 45
0.0
1001
ACAD
1000
AcDbSavedByObjectVersion
1070
     0
  0
VISUALSTYLE
  5
449
102
{ACAD_XDICTIONARY
360
60B
102
}
102
{ACAD_REACTORS
330
446
102
}
330
446
100
AcDbVisualStyle
  2
Gouraud
 70
     2
 71
     2
 72
     2
 73
     1
 90
        2
 40
-0.6
 41
30.0
 62
     5
 63
     7
 74
     0
 91
        4
 64
     7
 65
   257
 75
     1
175
     1
 42
1.0
 92
        0
 66
     7
 43
1.0
 76
     1
 77
     6
 78
     2
 67
     7
 79
     5
170
     0
171
     0
290
     0
174
     0
 93
       13
 44
0.0
173
     0
291
     1
 45
0.0
1001
ACAD
1000
AcDbSavedByObjectVersion
1070
     0
  0
VISUALSTYLE
  5
44A
102
{ACAD_XDICTIONARY
360
60D
102
}
102
{ACAD_REACTORS
330
446
102
}
330
446
100
AcDbVisualStyle
  2
GouraudWithEdges
 70
     3
 71
     2
 72
     2
 73
     1
 90
        2
 40
-0.6
 41
30.0
 62
     5
 63
     7
 74
     1
 91
        4
 64
     7
 65
   257
 75
     1
175
     1
 42
1.0
 92
        0
 66
   257
 43
1.0
 76
     1
 77
     6
 78
     2
 67
     7
 79
     5
170
     0
171
     0
290
     0
174
     0
 93
       13
 44
0.0
173
     0
291
     1
 45
0.0
1001
ACAD
1000
AcDbSavedByObjectVersion
1070
     0
  0
VISUALSTYLE
  5
457
102
{ACAD_XDICTIONARY
360
627
102
}
102
{ACAD_REACTORS
330
446
102
}
330
446
100
AcDbVisualStyle
  2
JitterOff
 70
    20
 71
     2
 72
     2
 73
     0
 90
        0
 40
-0.6
 41
-30.0
 62
     5
 63
     7
 74
     1
 91
        4
 64
     7
 65
   257
 75
     1
175
     1
 42
1.0
 92
       10
 66
     7
 43
1.0
 76
     1
 77
     6
 78
     2
 67
     7
 79
     5
170
     0
171
     0
290
     0
174
     0
 93
        1
 44
0.0
173
     0
291
     1
 45
0.0
1001
ACAD
1000
AcDbSavedByObjectVersion
1070
     0
  0
VISUALSTYLE
  5
454
102
{ACAD_XDICTIONARY
360
621
102
}
102
{ACAD_REACTORS
330
446
102
}
330
446
100
AcDbVisualStyle
  2
Linepattern
 70
    14
 71
     2
 72
     2
 73
     0
 90
        0
 40
-0.6
 41
-30.0
 62
     5
 63
     7
 74
     1
 91
        4
 64
     7
 65
   257
 75
     7
175
     7
 42
1.0
 92
        8
 66
     7
 43
1.0
 76
     1
 77
     6
 78
     2
 67
     7
 79
     5
170
     0
171
     0
290
     0
174
     0
 93
        1
 44
0.0
173
     0
291
     1
 45
0.0
1001
ACAD
1000
AcDbSavedByObjectVersion
1070
     0
  0
VISUALSTYLE
  5
458
102
{ACAD_XDICTIONARY
360
629
102
}
102
{ACAD_REACTORS
330
446
102
}
330
446
100
AcDbVisualStyle
  2
OverhangOff
 70
    21
 71
     2
 72
     2
 73
     0
 90
        0
 40
-0.6
 41
-30.0
 62
     5
 63
     7
 74
     1
 91
        4
 64
     7
 65
   257
 75
     1
175
     1
 42
1.0
 92
        9
 66
     7
 43
1.0
 76
     1
 77
     6
 78
     2
 67
     7
 79
     5
170
     0
171
     0
290
     0
174
     0
 93
        1
 44
0.0
173
     0
291
     1
 45
0.0
1001
ACAD
1000
AcDbSavedByObjectVersion
1070
     0
  0
VISUALSTYLE
  5
450
102
{ACAD_XDICTIONARY
360
619
102
}
102
{ACAD_REACTORS
330
446
102
}
330
446
100
AcDbVisualStyle
  2
Realistic
 70
     8
 71
     2
 72
     2
 73
     0
 90
        0
 40
-0.6
 41
-30.0
 62
     5
 63
     7
 74
     1
 91
        0
 64
     7
 65
   257
 75
     1
175
     1
 42
1.0
 92
        8
 66
     8
 43
1.0
 76
     1
 77
     6
 78
     2
 67
     7
 79
     5
170
     0
171
     0
290
     0
174
     0
 93
       13
 44
0.0
173
     0
291
     0
 45
0.0
1001
ACAD
1000
AcDbSavedByObjectVersion
1070
     0
  0
VISUALSTYLE
  5
453
102
{ACAD_XDICTIONARY
360
61F
102
}
102
{ACAD_REACTORS
330
446
102
}
330
446
100
AcDbVisualStyle
  2
Thicken
 70
    13
 71
     2
 72
     2
 73
     0
 90
        0
 40
-0.6
 41
-30.0
 62
     5
 63
     7
 74
     1
 91
        4
 64
     7
 65
   257
 75
     1
175
     1
 42
1.0
 92
       12
 66
     7
 43
1.0
 76
     1
 77
     6
 78
     2
 67
     7
 79
     5
170
     0
171
     0
290
     0
174
     0
 93
        1
 44
0.0
173
     0
291
     1
 45
0.0
1001
ACAD
1000
AcDbSavedByObjectVersion
1070
     0
  0
DICTIONARYVAR
  5
5F3
102
{ACAD_REACTORS
330
5EF
102
}
330
5EF
100
DictionaryVariables
280
     0
  1
1:1
  0
DICTIONARYVAR
  5
5F1
102
{ACAD_REACTORS
330
5EF
102
}
330
5EF
100
DictionaryVariables
280
     0
  1
STANDARD
  0
DICTIONARYVAR
  5
5F0
102
{ACAD_REACTORS
330
5EF
102
}
330
5EF
100
DictionaryVariables
280
     0
  1
STANDARD
  0
DICTIONARYVAR
  5
5FA
102
{ACAD_REACTORS
330
5EF
102
}
330
5EF
100
DictionaryVariables
280
     0
  1
2
  0
DICTIONARYVAR
  5
5F9
102
{ACAD_REACTORS
330
5EF
102
}
330
5EF
100
DictionaryVariables
280
     0
  1
1
  0
DICTIONARYVAR
  5
5F8
102
{ACAD_REACTORS
330
5EF
102
}
330
5EF
100
DictionaryVariables
280
     0
  1
0
  0
DICTIONARYVAR
  5
5F5
102
{ACAD_REACTORS
330
5EF
102
}
330
5EF
100
DictionaryVariables
280
     0
  1
0
  0
DICTIONARYVAR
  5
5F6
102
{ACAD_REACTORS
330
5EF
102
}
330
5EF
100
DictionaryVariables
280
     0
  1
0
  0
DICTIONARYVAR
  5
5F4
102
{ACAD_REACTORS
330
5EF
102
}
330
5EF
100
DictionaryVariables
280
     0
  1
2
  0
DICTIONARYVAR
  5
5F2
102
{ACAD_REACTORS
330
5EF
102
}
330
5EF
100
DictionaryVariables
280
     0
  1
1
  0
DICTIONARYVAR
  5
5F7
102
{ACAD_REACTORS
330
5EF
102
}
330
5EF
100
DictionaryVariables
280
     0
  1
127
  0
DICTIONARYVAR
  5
5FB
102
{ACAD_REACTORS
330
5EF
102
}
330
5EF
100
DictionaryVariables
280
     0
  1
2
  0
DICTIONARY
  5
4D4
102
{ACAD_REACTORS
330
4CA
102
}
330
4CA
100
AcDbDictionary
281
     1
  0
DICTIONARY
  5
602
330
42A
100
AcDbDictionary
280
     1
281
     1
  3
ACAD_XREC_ROUNDTRIP
360
603
  0
DICTIONARY
  5
600
330
429
100
AcDbDictionary
280
     1
281
     1
  3
ACAD_XREC_ROUNDTRIP
360
601
  0
DICTIONARY
  5
437
330
436
100
AcDbDictionary
280
     1
281
     1
  3
ACAD_XREC_ROUNDTRIP
360
605
  3
BUMPTILE
360
439
  3
DIFFUSETILE
360
438
  3
OPACITYTILE
360
43C
  3
REFLECTIONTILE
360
43B
  3
REFRACTIONTILE
360
43D
  3
SPECULARTILE
360
43A
  0
DICTIONARY
  5
42F
330
42E
100
AcDbDictionary
280
     1
281
     1
  3
ACAD_XREC_ROUNDTRIP
360
604
  3
BUMPTILE
360
431
  3
DIFFUSETILE
360
430
  3
OPACITYTILE
360
434
  3
REFLECTIONTILE
360
433
  3
REFRACTIONTILE
360
435
  3
SPECULARTILE
360
432
  0
DICTIONARY
  5
43F
330
43E
100
AcDbDictionary
280
     1
281
     1
  3
ACAD_XREC_ROUNDTRIP
360
606
  3
BUMPTILE
360
441
  3
DIFFUSETILE
360
440
  3
OPACITYTILE
360
444
  3
REFLECTIONTILE
360
443
  3
REFRACTIONTILE
360
445
  3
SPECULARTILE
360
442
  0
DICTIONARY
  5
5FC
330
45C
100
AcDbDictionary
280
     1
281
     1
  3
ACAD_ROUNDTRIP_2008_TABLESTYLE_CELLSTYLEMAP
360
5FD
  3
ACAD_XREC_ROUNDTRIP
360
62D
  0
DICTIONARY
  5
611
330
44C
100
AcDbDictionary
280
     1
281
     1
  3
ACAD_XREC_ROUNDTRIP
360
612
  0
DICTIONARY
  5
615
330
44E
100
AcDbDictionary
280
     1
281
     1
  3
ACAD_XREC_ROUNDTRIP
360
616
  0
DICTIONARY
  5
613
330
44D
100
AcDbDictionary
280
     1
281
     1
  3
ACAD_XREC_ROUNDTRIP
360
614
  0
DICTIONARY
  5
60F
330
44B
100
AcDbDictionary
280
     1
281
     1
  3
ACAD_XREC_ROUNDTRIP
360
610
  0
DICTIONARY
  5
61D
330
452
100
AcDbDictionary
280
     1
281
     1
  3
ACAD_XREC_ROUNDTRIP
360
61E
  0
DICTIONARY
  5
625
330
456
100
AcDbDictionary
280
     1
281
     1
  3
ACAD_XREC_ROUNDTRIP
360
626
  0
DICTIONARY
  5
617
330
44F
100
AcDbDictionary
280
     1
281
     1
  3
ACAD_XREC_ROUNDTRIP
360
618
  0
DICTIONARY
  5
61B
330
451
100
AcDbDictionary
280
     1
281
     1
  3
ACAD_XREC_ROUNDTRIP
360
61C
  0
DICTIONARY
  5
62B
330
459
100
AcDbDictionary
280
     1
281
     1
  3
ACAD_XREC_ROUNDTRIP
360
62C
  0
DICTIONARY
  5
623
330
455
100
AcDbDictionary
280
     1
281
     1
  3
ACAD_XREC_ROUNDTRIP
360
624
  0
DICTIONARY
  5
607
330
447
100
AcDbDictionary
280
     1
281
     1
  3
ACAD_XREC_ROUNDTRIP
360
608
  0
DICTIONARY
  5
609
330
448
100
AcDbDictionary
280
     1
281
     1
  3
ACAD_XREC_ROUNDTRIP
360
60A
  0
DICTIONARY
  5
60B
330
449
100
AcDbDictionary
280
     1
281
     1
  3
ACAD_XREC_ROUNDTRIP
360
60C
  0
DICTIONARY
  5
60D
330
44A
100
AcDbDictionary
280
     1
281
     1
  3
ACAD_XREC_ROUNDTRIP
360
60E
  0
DICTIONARY
  5
627
330
457
100
AcDbDictionary
280
     1
281
     1
  3
ACAD_XREC_ROUNDTRIP
360
628
  0
DICTIONARY
  5
621
330
454
100
AcDbDictionary
280
     1
281
     1
  3
ACAD_XREC_ROUNDTRIP
360
622
  0
DICTIONARY
  5
629
330
458
100
AcDbDictionary
280
     1
281
     1
  3
ACAD_XREC_ROUNDTRIP
360
62A
  0
DICTIONARY
  5
619
330
450
100
AcDbDictionary
280
     1
281
     1
  3
ACAD_XREC_ROUNDTRIP
360
61A
  0
DICTIONARY
  5
61F
330
453
100
AcDbDictionary
280
     1
281
     1
  3
ACAD_XREC_ROUNDTRIP
360
620
  0
XRECORD
  5
603
102
{ACAD_REACTORS
330
602
102
}
330
602
100
AcDbXrecord
280
     1
102
SHADEPLOT
 70
     0
102
SHADEPLOTRESLEVEL
 70
     2
102
SHADEPLOTCUSTOMDPI
 70
   300
  0
XRECORD
  5
601
102
{ACAD_REACTORS
330
600
102
}
330
600
100
AcDbXrecord
280
     1
102
SHADEPLOT
 70
     0
102
SHADEPLOTRESLEVEL
 70
     2
102
SHADEPLOTCUSTOMDPI
 70
   300
  0
XRECORD
  5
605
102
{ACAD_REACTORS
330
437
102
}
330
437
100
AcDbXrecord
280
     1
102
MATERIAL
148
0.0
149
0.0
149
0.0
 93
        0
 94
      127
282
     0
 72
     0
 77
     0
171
     0
175
     0
179
     0
273
     0
  0
XRECORD
  5
439
102
{ACAD_REACTORS
330
437
102
}
330
437
100
AcDbXrecord
280
     1
270
     1
271
     1
  0
XRECORD
  5
438
102
{ACAD_REACTORS
330
437
102
}
330
437
100
AcDbXrecord
280
     1
270
     1
271
     1
  0
XRECORD
  5
43C
102
{ACAD_REACTORS
330
437
102
}
330
437
100
AcDbXrecord
280
     1
270
     1
271
     1
  0
XRECORD
  5
43B
102
{ACAD_REACTORS
330
437
102
}
330
437
100
AcDbXrecord
280
     1
270
     1
271
     1
  0
XRECORD
  5
43D
102
{ACAD_REACTORS
330
437
102
}
330
437
100
AcDbXrecord
280
     1
270
     1
271
     1
  0
XRECORD
  5
43A
102
{ACAD_REACTORS
330
437
102
}
330
437
100
AcDbXrecord
280
     1
270
     1
271
     1
  0
XRECORD
  5
604
102
{ACAD_REACTORS
330
42F
102
}
330
42F
100
AcDbXrecord
280
     1
102
MATERIAL
148
0.0
149
0.0
149
0.0
 93
        0
 94
      127
282
     0
 72
     0
 77
     0
171
     0
175
     0
179
     0
273
     0
  0
XRECORD
  5
431
102
{ACAD_REACTORS
330
42F
102
}
330
42F
100
AcDbXrecord
280
     1
270
     1
271
     1
  0
XRECORD
  5
430
102
{ACAD_REACTORS
330
42F
102
}
330
42F
100
AcDbXrecord
280
     1
270
     1
271
     1
  0
XRECORD
  5
434
102
{ACAD_REACTORS
330
42F
102
}
330
42F
100
AcDbXrecord
280
     1
270
     1
271
     1
  0
XRECORD
  5
433
102
{ACAD_REACTORS
330
42F
102
}
330
42F
100
AcDbXrecord
280
     1
270
     1
271
     1
  0
XRECORD
  5
435
102
{ACAD_REACTORS
330
42F
102
}
330
42F
100
AcDbXrecord
280
     1
270
     1
271
     1
  0
XRECORD
  5
432
102
{ACAD_REACTORS
330
42F
102
}
330
42F
100
AcDbXrecord
280
     1
270
     1
271
     1
  0
XRECORD
  5
606
102
{ACAD_REACTORS
330
43F
102
}
330
43F
100
AcDbXrecord
280
     1
102
MATERIAL
148
0.0
149
0.0
149
0.0
 93
        0
 94
      127
282
     0
 72
     0
 77
     0
171
     0
175
     0
179
     0
273
     0
  0
XRECORD
  5
441
102
{ACAD_REACTORS
330
43F
102
}
330
43F
100
AcDbXrecord
280
     1
270
     1
271
     1
  0
XRECORD
  5
440
102
{ACAD_REACTORS
330
43F
102
}
330
43F
100
AcDbXrecord
280
     1
270
     1
271
     1
  0
XRECORD
  5
444
102
{ACAD_REACTORS
330
43F
102
}
330
43F
100
AcDbXrecord
280
     1
270
     1
271
     1
  0
XRECORD
  5
443
102
{ACAD_REACTORS
330
43F
102
}
330
43F
100
AcDbXrecord
280
     1
270
     1
271
     1
  0
XRECORD
  5
445
102
{ACAD_REACTORS
330
43F
102
}
330
43F
100
AcDbXrecord
280
     1
270
     1
271
     1
  0
XRECORD
  5
442
102
{ACAD_REACTORS
330
43F
102
}
330
43F
100
AcDbXrecord
280
     1
270
     1
271
     1
  0
CELLSTYLEMAP
  5
5FD
102
{ACAD_REACTORS
330
5FC
102
}
330
5FC
100
AcDbCellStyleMap
 90
        3
300
CELLSTYLE
  1
TABLEFORMAT_BEGIN
 90
        5
170
     1
 91
        0
 92
    32768
 62
   257
 93
        1
300
CONTENTFORMAT
  1
CONTENTFORMAT_BEGIN
 90
        0
 91
        0
 92
      512
 93
        0
300

 40
0.0
140
1.0
 94
        5
 62
     0
340
11
144
6.0
309
CONTENTFORMAT_END
171
     1
301
MARGIN
  1
CELLMARGIN_BEGIN
 40
1.5
 40
1.5
 40
1.5
 40
1.5
 40
4.5
 40
4.5
309
CELLMARGIN_END
 94
        6
 95
        1
302
GRIDFORMAT
  1
GRIDFORMAT_BEGIN
 90
        0
 91
        1
 62
     0
 92
       -2
340
0
 93
        0
 40
1.125
309
GRIDFORMAT_END
 95
        2
302
GRIDFORMAT
  1
GRIDFORMAT_BEGIN
 90
        0
 91
        1
 62
     0
 92
       -2
340
0
 93
        0
 40
1.125
309
GRIDFORMAT_END
 95
        4
302
GRIDFORMAT
  1
GRIDFORMAT_BEGIN
 90
        0
 91
        1
 62
     0
 92
       -2
340
0
 93
        0
 40
1.125
309
GRIDFORMAT_END
 95
        8
302
GRIDFORMAT
  1
GRIDFORMAT_BEGIN
 90
        0
 91
        1
 62
     0
 92
       -2
340
0
 93
        0
 40
1.125
309
GRIDFORMAT_END
 95
       16
302
GRIDFORMAT
  1
GRIDFORMAT_BEGIN
 90
        0
 91
        1
 62
     0
 92
       -2
340
0
 93
        0
 40
1.125
309
GRIDFORMAT_END
 95
       32
302
GRIDFORMAT
  1
GRIDFORMAT_BEGIN
 90
        0
 91
        1
 62
     0
 92
       -2
340
0
 93
        0
 40
1.125
309
GRIDFORMAT_END
309
TABLEFORMAT_END
  1
CELLSTYLE_BEGIN
 90
        1
 91
        1
300
_TITLE
309
CELLSTYLE_END
300
CELLSTYLE
  1
TABLEFORMAT_BEGIN
 90
        5
170
     1
 91
        0
 92
        0
 62
   257
 93
        1
300
CONTENTFORMAT
  1
CONTENTFORMAT_BEGIN
 90
        0
 91
        0
 92
      512
 93
        0
300

 40
0.0
140
1.0
 94
        5
 62
     0
340
11
144
4.5
309
CONTENTFORMAT_END
171
     1
301
MARGIN
  1
CELLMARGIN_BEGIN
 40
1.5
 40
1.5
 40
1.5
 40
1.5
 40
4.5
 40
4.5
309
CELLMARGIN_END
 94
        6
 95
        1
302
GRIDFORMAT
  1
GRIDFORMAT_BEGIN
 90
        0
 91
        1
 62
     0
 92
       -2
340
0
 93
        0
 40
1.125
309
GRIDFORMAT_END
 95
        2
302
GRIDFORMAT
  1
GRIDFORMAT_BEGIN
 90
        0
 91
        1
 62
     0
 92
       -2
340
0
 93
        0
 40
1.125
309
GRIDFORMAT_END
 95
        4
302
GRIDFORMAT
  1
GRIDFORMAT_BEGIN
 90
        0
 91
        1
 62
     0
 92
       -2
340
0
 93
        0
 40
1.125
309
GRIDFORMAT_END
 95
        8
302
GRIDFORMAT
  1
GRIDFORMAT_BEGIN
 90
        0
 91
        1
 62
     0
 92
       -2
340
0
 93
        0
 40
1.125
309
GRIDFORMAT_END
 95
       16
302
GRIDFORMAT
  1
GRIDFORMAT_BEGIN
 90
        0
 91
        1
 62
     0
 92
       -2
340
0
 93
        0
 40
1.125
309
GRIDFORMAT_END
 95
       32
302
GRIDFORMAT
  1
GRIDFORMAT_BEGIN
 90
        0
 91
        1
 62
     0
 92
       -2
340
0
 93
        0
 40
1.125
309
GRIDFORMAT_END
309
TABLEFORMAT_END
  1
CELLSTYLE_BEGIN
 90
        2
 91
        1
300
_HEADER
309
CELLSTYLE_END
300
CELLSTYLE
  1
TABLEFORMAT_BEGIN
 90
        5
170
     1
 91
        0
 92
        0
 62
   257
 93
        1
300
CONTENTFORMAT
  1
CONTENTFORMAT_BEGIN
 90
        0
 91
        0
 92
      512
 93
        0
300

 40
0.0
140
1.0
 94
        2
 62
     0
340
11
144
4.5
309
CONTENTFORMAT_END
171
     1
301
MARGIN
  1
CELLMARGIN_BEGIN
 40
1.5
 40
1.5
 40
1.5
 40
1.5
 40
4.5
 40
4.5
309
CELLMARGIN_END
 94
        6
 95
        1
302
GRIDFORMAT
  1
GRIDFORMAT_BEGIN
 90
        0
 91
        1
 62
     0
 92
       -2
340
0
 93
        0
 40
1.125
309
GRIDFORMAT_END
 95
        2
302
GRIDFORMAT
  1
GRIDFORMAT_BEGIN
 90
        0
 91
        1
 62
     0
 92
       -2
340
0
 93
        0
 40
1.125
309
GRIDFORMAT_END
 95
        4
302
GRIDFORMAT
  1
GRIDFORMAT_BEGIN
 90
        0
 91
        1
 62
     0
 92
       -2
340
0
 93
        0
 40
1.125
309
GRIDFORMAT_END
 95
        8
302
GRIDFORMAT
  1
GRIDFORMAT_BEGIN
 90
        0
 91
        1
 62
     0
 92
       -2
340
0
 93
        0
 40
1.125
309
GRIDFORMAT_END
 95
       16
302
GRIDFORMAT
  1
GRIDFORMAT_BEGIN
 90
        0
 91
        1
 62
     0
 92
       -2
340
0
 93
        0
 40
1.125
309
GRIDFORMAT_END
 95
       32
302
GRIDFORMAT
  1
GRIDFORMAT_BEGIN
 90
        0
 91
        1
 62
     0
 92
       -2
340
0
 93
        0
 40
1.125
309
GRIDFORMAT_END
309
TABLEFORMAT_END
  1
CELLSTYLE_BEGIN
 90
        3
 91
        2
300
_DATA
309
CELLSTYLE_END
  0
XRECORD
  5
62D
102
{ACAD_REACTORS
330
5FC
102
}
330
5FC
100
AcDbXrecord
280
     1
102
ACAD_ROUNDTRIP_PRE2007_TABLESTYLE
 90
      512
 91
        0
  1

 92
      512
 93
        0
  2

 94
      512
 95
        0
  3

  0
XRECORD
  5
612
102
{ACAD_REACTORS
330
611
102
}
330
611
100
AcDbXrecord
280
     1
102
RTVSPropertyOp0
 70
     1
102
RTVSPropertyOp1
 70
     1
102
RTVSPropertyOp2
 70
     1
102
RTVSPropertyOp3
 70
     1
102
RTVSPropertyOp4
 70
     1
102
RTVSPropertyOp5
 70
     1
102
RTVSPropertyOp6
 70
     1
102
RTVSPropertyOp7
 70
     1
102
RTVSPropertyOp8
 70
     1
102
RTVSPropertyOp9
 70
     1
102
RTVSPropertyOp10
 70
     1
102
RTVSPropertyOp11
 70
     1
102
RTVSPropertyOp12
 70
     1
102
RTVSPropertyOp13
 70
     1
102
RTVSPropertyOp14
 70
     1
102
RTVSPropertyOp15
 70
     1
102
RTVSPropertyOp16
 70
     1
102
RTVSPropertyOp17
 70
     1
102
RTVSPropertyOp18
 70
     1
102
RTVSPropertyOp19
 70
     1
102
RTVSPropertyOp20
 70
     1
102
RTVSPropertyOp21
 70
     1
102
RTVSPropertyOp22
 70
     1
102
RTVSPropertyOp23
 70
     1
102
RTVSPropertyOp24
 70
     1
102
RTVSPropertyOp25
 70
     1
102
RTVSPropertyOp26
 70
     1
102
RTVSPropertyOp27
 70
     1
  0
XRECORD
  5
616
102
{ACAD_REACTORS
330
615
102
}
330
615
100
AcDbXrecord
280
     1
102
RTVSPropertyOp0
 70
     1
102
RTVSPropertyOp1
 70
     1
102
RTVSPropertyOp2
 70
     1
102
RTVSPropertyOp3
 70
     1
102
RTVSPropertyOp4
 70
     1
102
RTVSPropertyOp5
 70
     1
102
RTVSPropertyOp6
 70
     1
102
RTVSPropertyOp7
 70
     1
102
RTVSPropertyOp8
 70
     1
102
RTVSPropertyOp9
 70
     1
102
RTVSPropertyOp10
 70
     1
102
RTVSPropertyOp11
 70
     1
102
RTVSPropertyOp12
 70
     1
102
RTVSPropertyOp13
 70
     1
102
RTVSPropertyOp14
 70
     1
102
RTVSPropertyOp15
 70
     1
102
RTVSPropertyOp16
 70
     1
102
RTVSPropertyOp17
 70
     1
102
RTVSPropertyOp18
 70
     1
102
RTVSPropertyOp19
 70
     1
102
RTVSPropertyOp20
 70
     1
102
RTVSPropertyOp21
 70
     1
102
RTVSPropertyOp22
 70
     1
102
RTVSPropertyOp23
 70
     1
102
RTVSPropertyOp24
 70
     1
102
RTVSPropertyOp25
 70
     1
102
RTVSPropertyOp26
 70
     1
102
RTVSPropertyOp27
 70
     1
  0
XRECORD
  5
614
102
{ACAD_REACTORS
330
613
102
}
330
613
100
AcDbXrecord
280
     1
102
RTVSPropertyOp0
 70
     1
102
RTVSPropertyOp1
 70
     1
102
RTVSPropertyOp2
 70
     1
102
RTVSPropertyOp3
 70
     1
102
RTVSPropertyOp4
 70
     1
102
RTVSPropertyOp5
 70
     1
102
RTVSPropertyOp6
 70
     1
102
RTVSPropertyOp7
 70
     1
102
RTVSPropertyOp8
 70
     1
102
RTVSPropertyOp9
 70
     1
102
RTVSPropertyOp10
 70
     1
102
RTVSPropertyOp11
 70
     1
102
RTVSPropertyOp12
 70
     1
102
RTVSPropertyOp13
 70
     1
102
RTVSPropertyOp14
 70
     1
102
RTVSPropertyOp15
 70
     1
102
RTVSPropertyOp16
 70
     1
102
RTVSPropertyOp17
 70
     1
102
RTVSPropertyOp18
 70
     1
102
RTVSPropertyOp19
 70
     1
102
RTVSPropertyOp20
 70
     1
102
RTVSPropertyOp21
 70
     1
102
RTVSPropertyOp22
 70
     1
102
RTVSPropertyOp23
 70
     1
102
RTVSPropertyOp24
 70
     1
102
RTVSPropertyOp25
 70
     1
102
RTVSPropertyOp26
 70
     1
102
RTVSPropertyOp27
 70
     1
  0
XRECORD
  5
610
102
{ACAD_REACTORS
330
60F
102
}
330
60F
100
AcDbXrecord
280
     1
102
RTVSPropertyOp0
 70
     1
102
RTVSPropertyOp1
 70
     1
102
RTVSPropertyOp2
 70
     1
102
RTVSPropertyOp3
 70
     1
102
RTVSPropertyOp4
 70
     1
102
RTVSPropertyOp5
 70
     1
102
RTVSPropertyOp6
 70
     1
102
RTVSPropertyOp7
 70
     1
102
RTVSPropertyOp8
 70
     1
102
RTVSPropertyOp9
 70
     1
102
RTVSPropertyOp10
 70
     1
102
RTVSPropertyOp11
 70
     1
102
RTVSPropertyOp12
 70
     1
102
RTVSPropertyOp13
 70
     1
102
RTVSPropertyOp14
 70
     1
102
RTVSPropertyOp15
 70
     1
102
RTVSPropertyOp16
 70
     1
102
RTVSPropertyOp17
 70
     1
102
RTVSPropertyOp18
 70
     1
102
RTVSPropertyOp19
 70
     1
102
RTVSPropertyOp20
 70
     1
102
RTVSPropertyOp21
 70
     1
102
RTVSPropertyOp22
 70
     1
102
RTVSPropertyOp23
 70
     1
102
RTVSPropertyOp24
 70
     1
102
RTVSPropertyOp25
 70
     1
102
RTVSPropertyOp26
 70
     1
102
RTVSPropertyOp27
 70
     1
  0
XRECORD
  5
61E
102
{ACAD_REACTORS
330
61D
102
}
330
61D
100
AcDbXrecord
280
     1
102
RTVSPropertyOp0
 70
     1
102
RTVSPropertyOp1
 70
     1
102
RTVSPropertyOp2
 70
     1
102
RTVSPropertyOp3
 70
     1
102
RTVSPropertyOp4
 70
     1
102
RTVSPropertyOp5
 70
     1
102
RTVSPropertyOp6
 70
     1
102
RTVSPropertyOp7
 70
     1
102
RTVSPropertyOp8
 70
     1
102
RTVSPropertyOp9
 70
     1
102
RTVSPropertyOp10
 70
     1
102
RTVSPropertyOp11
 70
     1
102
RTVSPropertyOp12
 70
     1
102
RTVSPropertyOp13
 70
     1
102
RTVSPropertyOp14
 70
     1
102
RTVSPropertyOp15
 70
     1
102
RTVSPropertyOp16
 70
     1
102
RTVSPropertyOp17
 70
     1
102
RTVSPropertyOp18
 70
     1
102
RTVSPropertyOp19
 70
     1
102
RTVSPropertyOp20
 70
     1
102
RTVSPropertyOp21
 70
     1
102
RTVSPropertyOp22
 70
     1
102
RTVSPropertyOp23
 70
     1
102
RTVSPropertyOp24
 70
     1
102
RTVSPropertyOp25
 70
     1
102
RTVSPropertyOp26
 70
     1
102
RTVSPropertyOp27
 70
     1
  0
XRECORD
  5
626
102
{ACAD_REACTORS
330
625
102
}
330
625
100
AcDbXrecord
280
     1
102
RTVSPropertyOp0
 70
     1
102
RTVSPropertyOp1
 70
     1
102
RTVSPropertyOp2
 70
     1
102
RTVSPropertyOp3
 70
     1
102
RTVSPropertyOp4
 70
     1
102
RTVSPropertyOp5
 70
     1
102
RTVSPropertyOp6
 70
     1
102
RTVSPropertyOp7
 70
     1
102
RTVSPropertyOp8
 70
     1
102
RTVSPropertyOp9
 70
     1
102
RTVSPropertyOp10
 70
     1
102
RTVSPropertyOp11
 70
     1
102
RTVSPropertyOp12
 70
     1
102
RTVSPropertyOp13
 70
     1
102
RTVSPropertyOp14
 70
     1
102
RTVSPropertyOp15
 70
     1
102
RTVSPropertyOp16
 70
     1
102
RTVSPropertyOp17
 70
     1
102
RTVSPropertyOp18
 70
     1
102
RTVSPropertyOp19
 70
     1
102
RTVSPropertyOp20
 70
     1
102
RTVSPropertyOp21
 70
     1
102
RTVSPropertyOp22
 70
     1
102
RTVSPropertyOp23
 70
     1
102
RTVSPropertyOp24
 70
     1
102
RTVSPropertyOp25
 70
     1
102
RTVSPropertyOp26
 70
     1
102
RTVSPropertyOp27
 70
     1
  0
XRECORD
  5
618
102
{ACAD_REACTORS
330
617
102
}
330
617
100
AcDbXrecord
280
     1
102
RTVSPropertyOp0
 70
     1
102
RTVSPropertyOp1
 70
     1
102
RTVSPropertyOp2
 70
     1
102
RTVSPropertyOp3
 70
     1
102
RTVSPropertyOp4
 70
     1
102
RTVSPropertyOp5
 70
     1
102
RTVSPropertyOp6
 70
     1
102
RTVSPropertyOp7
 70
     1
102
RTVSPropertyOp8
 70
     1
102
RTVSPropertyOp9
 70
     1
102
RTVSPropertyOp10
 70
     1
102
RTVSPropertyOp11
 70
     1
102
RTVSPropertyOp12
 70
     1
102
RTVSPropertyOp13
 70
     1
102
RTVSPropertyOp14
 70
     1
102
RTVSPropertyOp15
 70
     1
102
RTVSPropertyOp16
 70
     1
102
RTVSPropertyOp17
 70
     1
102
RTVSPropertyOp18
 70
     1
102
RTVSPropertyOp19
 70
     1
102
RTVSPropertyOp20
 70
     1
102
RTVSPropertyOp21
 70
     1
102
RTVSPropertyOp22
 70
     1
102
RTVSPropertyOp23
 70
     1
102
RTVSPropertyOp24
 70
     1
102
RTVSPropertyOp25
 70
     1
102
RTVSPropertyOp26
 70
     1
102
RTVSPropertyOp27
 70
     1
  0
XRECORD
  5
61C
102
{ACAD_REACTORS
330
61B
102
}
330
61B
100
AcDbXrecord
280
     1
102
RTVSPropertyOp0
 70
     1
102
RTVSPropertyOp1
 70
     1
102
RTVSPropertyOp2
 70
     1
102
RTVSPropertyOp3
 70
     1
102
RTVSPropertyOp4
 70
     1
102
RTVSPropertyOp5
 70
     1
102
RTVSPropertyOp6
 70
     1
102
RTVSPropertyOp7
 70
     1
102
RTVSPropertyOp8
 70
     1
102
RTVSPropertyOp9
 70
     1
102
RTVSPropertyOp10
 70
     1
102
RTVSPropertyOp11
 70
     1
102
RTVSPropertyOp12
 70
     1
102
RTVSPropertyOp13
 70
     1
102
RTVSPropertyOp14
 70
     1
102
RTVSPropertyOp15
 70
     1
102
RTVSPropertyOp16
 70
     1
102
RTVSPropertyOp17
 70
     1
102
RTVSPropertyOp18
 70
     1
102
RTVSPropertyOp19
 70
     1
102
RTVSPropertyOp20
 70
     1
102
RTVSPropertyOp21
 70
     1
102
RTVSPropertyOp22
 70
     1
102
RTVSPropertyOp23
 70
     1
102
RTVSPropertyOp24
 70
     1
102
RTVSPropertyOp25
 70
     1
102
RTVSPropertyOp26
 70
     1
102
RTVSPropertyOp27
 70
     1
  0
XRECORD
  5
62C
102
{ACAD_REACTORS
330
62B
102
}
330
62B
100
AcDbXrecord
280
     1
102
RTVSPropertyOp0
 70
     0
102
RTVSPropertyOp1
 70
     0
102
RTVSPropertyOp2
 70
     0
102
RTVSPropertyOp3
 70
     0
102
RTVSPropertyOp4
 70
     0
102
RTVSPropertyOp5
 70
     0
102
RTVSPropertyOp6
 70
     0
102
RTVSPropertyOp7
 70
     0
102
RTVSPropertyOp8
 70
     0
102
RTVSPropertyOp9
 70
     0
102
RTVSPropertyOp10
 70
     0
102
RTVSPropertyOp11
 70
     0
102
RTVSPropertyOp12
 70
     0
102
RTVSPropertyOp13
 70
     0
102
RTVSPropertyOp14
 70
     2
102
RTVSPropertyOp15
 70
     0
102
RTVSPropertyOp16
 70
     0
102
RTVSPropertyOp17
 70
     0
102
RTVSPropertyOp18
 70
     0
102
RTVSPropertyOp19
 70
     0
102
RTVSPropertyOp20
 70
     0
102
RTVSPropertyOp21
 70
     0
102
RTVSPropertyOp22
 70
     0
102
RTVSPropertyOp23
 70
     0
102
RTVSPropertyOp24
 70
     0
102
RTVSPropertyOp25
 70
     0
102
RTVSPropertyOp26
 70
     0
102
RTVSPropertyOp27
 70
     0
  0
XRECORD
  5
624
102
{ACAD_REACTORS
330
623
102
}
330
623
100
AcDbXrecord
280
     1
102
RTVSPropertyOp0
 70
     1
102
RTVSPropertyOp1
 70
     1
102
RTVSPropertyOp2
 70
     1
102
RTVSPropertyOp3
 70
     1
102
RTVSPropertyOp4
 70
     1
102
RTVSPropertyOp5
 70
     1
102
RTVSPropertyOp6
 70
     1
102
RTVSPropertyOp7
 70
     1
102
RTVSPropertyOp8
 70
     1
102
RTVSPropertyOp9
 70
     1
102
RTVSPropertyOp10
 70
     1
102
RTVSPropertyOp11
 70
     1
102
RTVSPropertyOp12
 70
     1
102
RTVSPropertyOp13
 70
     1
102
RTVSPropertyOp14
 70
     1
102
RTVSPropertyOp15
 70
     1
102
RTVSPropertyOp16
 70
     1
102
RTVSPropertyOp17
 70
     1
102
RTVSPropertyOp18
 70
     1
102
RTVSPropertyOp19
 70
     1
102
RTVSPropertyOp20
 70
     1
102
RTVSPropertyOp21
 70
     1
102
RTVSPropertyOp22
 70
     1
102
RTVSPropertyOp23
 70
     1
102
RTVSPropertyOp24
 70
     1
102
RTVSPropertyOp25
 70
     1
102
RTVSPropertyOp26
 70
     1
102
RTVSPropertyOp27
 70
     1
  0
XRECORD
  5
608
102
{ACAD_REACTORS
330
607
102
}
330
607
100
AcDbXrecord
280
     1
102
RTVSPropertyOp0
 70
     1
102
RTVSPropertyOp1
 70
     1
102
RTVSPropertyOp2
 70
     1
102
RTVSPropertyOp3
 70
     1
102
RTVSPropertyOp4
 70
     1
102
RTVSPropertyOp5
 70
     1
102
RTVSPropertyOp6
 70
     1
102
RTVSPropertyOp7
 70
     1
102
RTVSPropertyOp8
 70
     1
102
RTVSPropertyOp9
 70
     1
102
RTVSPropertyOp10
 70
     1
102
RTVSPropertyOp11
 70
     1
102
RTVSPropertyOp12
 70
     1
102
RTVSPropertyOp13
 70
     1
102
RTVSPropertyOp14
 70
     1
102
RTVSPropertyOp15
 70
     1
102
RTVSPropertyOp16
 70
     1
102
RTVSPropertyOp17
 70
     1
102
RTVSPropertyOp18
 70
     1
102
RTVSPropertyOp19
 70
     1
102
RTVSPropertyOp20
 70
     1
102
RTVSPropertyOp21
 70
     1
102
RTVSPropertyOp22
 70
     1
102
RTVSPropertyOp23
 70
     1
102
RTVSPropertyOp24
 70
     1
102
RTVSPropertyOp25
 70
     1
102
RTVSPropertyOp26
 70
     1
102
RTVSPropertyOp27
 70
     1
  0
XRECORD
  5
60A
102
{ACAD_REACTORS
330
609
102
}
330
609
100
AcDbXrecord
280
     1
102
RTVSPropertyOp0
 70
     1
102
RTVSPropertyOp1
 70
     1
102
RTVSPropertyOp2
 70
     1
102
RTVSPropertyOp3
 70
     1
102
RTVSPropertyOp4
 70
     1
102
RTVSPropertyOp5
 70
     1
102
RTVSPropertyOp6
 70
     1
102
RTVSPropertyOp7
 70
     1
102
RTVSPropertyOp8
 70
     1
102
RTVSPropertyOp9
 70
     1
102
RTVSPropertyOp10
 70
     1
102
RTVSPropertyOp11
 70
     1
102
RTVSPropertyOp12
 70
     1
102
RTVSPropertyOp13
 70
     1
102
RTVSPropertyOp14
 70
     1
102
RTVSPropertyOp15
 70
     1
102
RTVSPropertyOp16
 70
     1
102
RTVSPropertyOp17
 70
     1
102
RTVSPropertyOp18
 70
     1
102
RTVSPropertyOp19
 70
     1
102
RTVSPropertyOp20
 70
     1
102
RTVSPropertyOp21
 70
     1
102
RTVSPropertyOp22
 70
     1
102
RTVSPropertyOp23
 70
     1
102
RTVSPropertyOp24
 70
     1
102
RTVSPropertyOp25
 70
     1
102
RTVSPropertyOp26
 70
     1
102
RTVSPropertyOp27
 70
     1
  0
XRECORD
  5
60C
102
{ACAD_REACTORS
330
60B
102
}
330
60B
100
AcDbXrecord
280
     1
102
RTVSPropertyOp0
 70
     1
102
RTVSPropertyOp1
 70
     1
102
RTVSPropertyOp2
 70
     1
102
RTVSPropertyOp3
 70
     1
102
RTVSPropertyOp4
 70
     1
102
RTVSPropertyOp5
 70
     1
102
RTVSPropertyOp6
 70
     1
102
RTVSPropertyOp7
 70
     1
102
RTVSPropertyOp8
 70
     1
102
RTVSPropertyOp9
 70
     1
102
RTVSPropertyOp10
 70
     1
102
RTVSPropertyOp11
 70
     1
102
RTVSPropertyOp12
 70
     1
102
RTVSPropertyOp13
 70
     1
102
RTVSPropertyOp14
 70
     1
102
RTVSPropertyOp15
 70
     1
102
RTVSPropertyOp16
 70
     1
102
RTVSPropertyOp17
 70
     1
102
RTVSPropertyOp18
 70
     1
102
RTVSPropertyOp19
 70
     1
102
RTVSPropertyOp20
 70
     1
102
RTVSPropertyOp21
 70
     1
102
RTVSPropertyOp22
 70
     1
102
RTVSPropertyOp23
 70
     1
102
RTVSPropertyOp24
 70
     1
102
RTVSPropertyOp25
 70
     1
102
RTVSPropertyOp26
 70
     1
102
RTVSPropertyOp27
 70
     1
  0
XRECORD
  5
60E
102
{ACAD_REACTORS
330
60D
102
}
330
60D
100
AcDbXrecord
280
     1
102
RTVSPropertyOp0
 70
     1
102
RTVSPropertyOp1
 70
     1
102
RTVSPropertyOp2
 70
     1
102
RTVSPropertyOp3
 70
     1
102
RTVSPropertyOp4
 70
     1
102
RTVSPropertyOp5
 70
     1
102
RTVSPropertyOp6
 70
     1
102
RTVSPropertyOp7
 70
     1
102
RTVSPropertyOp8
 70
     1
102
RTVSPropertyOp9
 70
     1
102
RTVSPropertyOp10
 70
     1
102
RTVSPropertyOp11
 70
     1
102
RTVSPropertyOp12
 70
     1
102
RTVSPropertyOp13
 70
     1
102
RTVSPropertyOp14
 70
     1
102
RTVSPropertyOp15
 70
     1
102
RTVSPropertyOp16
 70
     1
102
RTVSPropertyOp17
 70
     1
102
RTVSPropertyOp18
 70
     1
102
RTVSPropertyOp19
 70
     1
102
RTVSPropertyOp20
 70
     1
102
RTVSPropertyOp21
 70
     1
102
RTVSPropertyOp22
 70
     1
102
RTVSPropertyOp23
 70
     1
102
RTVSPropertyOp24
 70
     1
102
RTVSPropertyOp25
 70
     1
102
RTVSPropertyOp26
 70
     1
102
RTVSPropertyOp27
 70
     1
  0
XRECORD
  5
628
102
{ACAD_REACTORS
330
627
102
}
330
627
100
AcDbXrecord
280
     1
102
RTVSPropertyOp0
 70
     0
102
RTVSPropertyOp1
 70
     0
102
RTVSPropertyOp2
 70
     0
102
RTVSPropertyOp3
 70
     0
102
RTVSPropertyOp4
 70
     0
102
RTVSPropertyOp5
 70
     0
102
RTVSPropertyOp6
 70
     0
102
RTVSPropertyOp7
 70
     0
102
RTVSPropertyOp8
 70
     0
102
RTVSPropertyOp9
 70
     0
102
RTVSPropertyOp10
 70
     0
102
RTVSPropertyOp11
 70
     0
102
RTVSPropertyOp12
 70
     0
102
RTVSPropertyOp13
 70
     0
102
RTVSPropertyOp14
 70
     2
102
RTVSPropertyOp15
 70
     0
102
RTVSPropertyOp16
 70
     0
102
RTVSPropertyOp17
 70
     0
102
RTVSPropertyOp18
 70
     0
102
RTVSPropertyOp19
 70
     0
102
RTVSPropertyOp20
 70
     0
102
RTVSPropertyOp21
 70
     0
102
RTVSPropertyOp22
 70
     0
102
RTVSPropertyOp23
 70
     0
102
RTVSPropertyOp24
 70
     0
102
RTVSPropertyOp25
 70
     0
102
RTVSPropertyOp26
 70
     0
102
RTVSPropertyOp27
 70
     0
  0
XRECORD
  5
622
102
{ACAD_REACTORS
330
621
102
}
330
621
100
AcDbXrecord
280
     1
102
RTVSPropertyOp0
 70
     1
102
RTVSPropertyOp1
 70
     1
102
RTVSPropertyOp2
 70
     1
102
RTVSPropertyOp3
 70
     1
102
RTVSPropertyOp4
 70
     1
102
RTVSPropertyOp5
 70
     1
102
RTVSPropertyOp6
 70
     1
102
RTVSPropertyOp7
 70
     1
102
RTVSPropertyOp8
 70
     1
102
RTVSPropertyOp9
 70
     1
102
RTVSPropertyOp10
 70
     1
102
RTVSPropertyOp11
 70
     1
102
RTVSPropertyOp12
 70
     1
102
RTVSPropertyOp13
 70
     1
102
RTVSPropertyOp14
 70
     1
102
RTVSPropertyOp15
 70
     1
102
RTVSPropertyOp16
 70
     1
102
RTVSPropertyOp17
 70
     1
102
RTVSPropertyOp18
 70
     1
102
RTVSPropertyOp19
 70
     1
102
RTVSPropertyOp20
 70
     1
102
RTVSPropertyOp21
 70
     1
102
RTVSPropertyOp22
 70
     1
102
RTVSPropertyOp23
 70
     1
102
RTVSPropertyOp24
 70
     1
102
RTVSPropertyOp25
 70
     1
102
RTVSPropertyOp26
 70
     1
102
RTVSPropertyOp27
 70
     1
  0
XRECORD
  5
62A
102
{ACAD_REACTORS
330
629
102
}
330
629
100
AcDbXrecord
280
     1
102
RTVSPropertyOp0
 70
     0
102
RTVSPropertyOp1
 70
     0
102
RTVSPropertyOp2
 70
     0
102
RTVSPropertyOp3
 70
     0
102
RTVSPropertyOp4
 70
     0
102
RTVSPropertyOp5
 70
     0
102
RTVSPropertyOp6
 70
     0
102
RTVSPropertyOp7
 70
     0
102
RTVSPropertyOp8
 70
     0
102
RTVSPropertyOp9
 70
     0
102
RTVSPropertyOp10
 70
     0
102
RTVSPropertyOp11
 70
     0
102
RTVSPropertyOp12
 70
     0
102
RTVSPropertyOp13
 70
     0
102
RTVSPropertyOp14
 70
     2
102
RTVSPropertyOp15
 70
     0
102
RTVSPropertyOp16
 70
     0
102
RTVSPropertyOp17
 70
     0
102
RTVSPropertyOp18
 70
     0
102
RTVSPropertyOp19
 70
     0
102
RTVSPropertyOp20
 70
     0
102
RTVSPropertyOp21
 70
     0
102
RTVSPropertyOp22
 70
     0
102
RTVSPropertyOp23
 70
     0
102
RTVSPropertyOp24
 70
     0
102
RTVSPropertyOp25
 70
     0
102
RTVSPropertyOp26
 70
     0
102
RTVSPropertyOp27
 70
     0
  0
XRECORD
  5
61A
102
{ACAD_REACTORS
330
619
102
}
330
619
100
AcDbXrecord
280
     1
102
RTVSPropertyOp0
 70
     1
102
RTVSPropertyOp1
 70
     1
102
RTVSPropertyOp2
 70
     1
102
RTVSPropertyOp3
 70
     1
102
RTVSPropertyOp4
 70
     1
102
RTVSPropertyOp5
 70
     1
102
RTVSPropertyOp6
 70
     1
102
RTVSPropertyOp7
 70
     1
102
RTVSPropertyOp8
 70
     1
102
RTVSPropertyOp9
 70
     1
102
RTVSPropertyOp10
 70
     1
102
RTVSPropertyOp11
 70
     1
102
RTVSPropertyOp12
 70
     1
102
RTVSPropertyOp13
 70
     1
102
RTVSPropertyOp14
 70
     1
102
RTVSPropertyOp15
 70
     1
102
RTVSPropertyOp16
 70
     1
102
RTVSPropertyOp17
 70
     1
102
RTVSPropertyOp18
 70
     1
102
RTVSPropertyOp19
 70
     1
102
RTVSPropertyOp20
 70
     1
102
RTVSPropertyOp21
 70
     1
102
RTVSPropertyOp22
 70
     1
102
RTVSPropertyOp23
 70
     1
102
RTVSPropertyOp24
 70
     1
102
RTVSPropertyOp25
 70
     1
102
RTVSPropertyOp26
 70
     1
102
RTVSPropertyOp27
 70
     1
  0
XRECORD
  5
620
102
{ACAD_REACTORS
330
61F
102
}
330
61F
100
AcDbXrecord
280
     1
102
RTVSPropertyOp0
 70
     1
102
RTVSPropertyOp1
 70
     1
102
RTVSPropertyOp2
 70
     1
102
RTVSPropertyOp3
 70
     1
102
RTVSPropertyOp4
 70
     1
102
RTVSPropertyOp5
 70
     1
102
RTVSPropertyOp6
 70
     1
102
RTVSPropertyOp7
 70
     1
102
RTVSPropertyOp8
 70
     1
102
RTVSPropertyOp9
 70
     1
102
RTVSPropertyOp10
 70
     1
102
RTVSPropertyOp11
 70
     1
102
RTVSPropertyOp12
 70
     1
102
RTVSPropertyOp13
 70
     1
102
RTVSPropertyOp14
 70
     1
102
RTVSPropertyOp15
 70
     1
102
RTVSPropertyOp16
 70
     1
102
RTVSPropertyOp17
 70
     1
102
RTVSPropertyOp18
 70
     1
102
RTVSPropertyOp19
 70
     1
102
RTVSPropertyOp20
 70
     1
102
RTVSPropertyOp21
 70
     1
102
RTVSPropertyOp22
 70
     1
102
RTVSPropertyOp23
 70
     1
102
RTVSPropertyOp24
 70
     1
102
RTVSPropertyOp25
 70
     1
102
RTVSPropertyOp26
 70
     1
102
RTVSPropertyOp27
 70
     1
  0
ENDSEC
  0
EOF
