  0
SECTION
  2
HEADER
  9
$ACADVER
  1
AC1015
  9
$ACADMAINTVER
 70
    20
  9
$DWGCODEPAGE
  3
ANSI_1252
  9
$INSBASE
 10
0.0
 20
0.0
 30
0.0
  9
$EXTMIN
 10
19.72595314929026
 20
36.35911633442049
 30
-0.0015258207003583
  9
$EXTMAX
 10
407.8683481317344
 20
289.3275611073798
 30
0.0000000349246037
  9
$LIMMIN
 10
0.0
 20
0.0
  9
$LIMMAX
 10
420.0
 20
297.0
  9
$ORTHOMODE
 70
     0
  9
$REGENMODE
 70
     1
  9
$FILLMODE
 70
     1
  9
$QTEXTMODE
 70
     0
  9
$MIRRTEXT
 70
     0
  9
$LTSCALE
 40
23.1
  9
$ATTMODE
 70
     1
  9
$TEXTSIZE
 40
0.2
  9
$TRACEWID
 40
0.05
  9
$TEXTSTYLE
  7
STANDARD
  9
$CLAYER
  8
0
  9
$CELTYPE
  6
BYLAYER
  9
$CECOLOR
 62
   256
  9
$CELTSCALE
 40
1.0
  9
$DISPSILH
 70
     0
  9
$DIMSCALE
 40
1.0
  9
$DIMASZ
 40
3.5
  9
$DIMEXO
 40
2.625
  9
$DIMDLI
 40
15.96
  9
$DIMRND
 40
0.0
  9
$DIMDLE
 40
0.0
  9
$DIMEXE
 40
7.559999999999999
  9
$DIMTP
 40
0.005
  9
$DIMTM
 40
0.005
  9
$DIMTXT
 40
3.5
  9
$DIMCEN
 40
3.779999999999999
  9
$DIMTSZ
 40
0.0
  9
$DIMTOL
 70
     1
  9
$DIMLIM
 70
     0
  9
$DIMTIH
 70
     1
  9
$DIMTOH
 70
     1
  9
$DIMSE1
 70
     0
  9
$DIMSE2
 70
     0
  9
$DIMTAD
 70
     0
  9
$DIMZIN
 70
     0
  9
$DIMBLK
  1
_FILLED
  9
$DIMASO
 70
     1
  9
$DIMSHO
 70
     1
  9
$DIMPOST
  1

  9
$DIMAPOST
  1

  9
$DIMALT
 70
     0
  9
$DIMALTD
 70
     2
  9
$DIMALTF
 40
25.4
  9
$DIMLFAC
 40
1.0
  9
$DIMTOFL
 70
     0
  9
$DIMTVP
 40
0.0
  9
$DIMTIX
 70
     0
  9
$DIMSOXD
 70
     0
  9
$DIMSAH
 70
     0
  9
$DIMBLK1
  1

  9
$DIMBLK2
  1

  9
$DIMSTYLE
  2
STANDARD
  9
$DIMCLRD
 70
     0
  9
$DIMCLRE
 70
     0
  9
$DIMCLRT
 70
     0
  9
$DIMTFAC
 40
1.0
  9
$DIMGAP
 40
0.09
  9
$DIMJUST
 70
     0
  9
$DIMSD1
 70
     0
  9
$DIMSD2
 70
     0
  9
$DIMTOLJ
 70
     1
  9
$DIMTZIN
 70
     0
  9
$DIMALTZ
 70
     0
  9
$DIMALTTZ
 70
     0
  9
$DIMUPT
 70
     0
  9
$DIMDEC
 70
     4
  9
$DIMTDEC
 70
     4
  9
$DIMALTU
 70
     2
  9
$DIMALTTD
 70
     2
  9
$DIMTXSTY
  7
STANDARD
  9
$DIMAUNIT
 70
     0
  9
$DIMADEC
 70
     0
  9
$DIMALTRND
 40
0.0
  9
$DIMAZIN
 70
     0
  9
$DIMDSEP
 70
    46
  9
$DIMATFIT
 70
     3
  9
$DIMFRAC
 70
     0
  9
$DIMLDRBLK
  1

  9
$DIMLUNIT
 70
     2
  9
$DIMLWD
 70
    -2
  9
$DIMLWE
 70
    -2
  9
$DIMTMOVE
 70
     0
  9
$LUNITS
 70
     2
  9
$LUPREC
 70
     2
  9
$SKETCHINC
 40
0.1
  9
$FILLETRAD
 40
0.0
  9
$AUNITS
 70
     0
  9
$AUPREC
 70
     0
  9
$MENU
  1
.
  9
$ELEVATION
 40
0.0
  9
$PELEVATION
 40
0.0
  9
$THICKNESS
 40
0.0
  9
$LIMCHECK
 70
     0
  9
$CHAMFERA
 40
0.0
  9
$CHAMFERB
 40
0.0
  9
$CHAMFERC
 40
0.0
  9
$CHAMFERD
 40
0.0
  9
$SKPOLY
 70
     0
  9
$TDCREATE
 40
2456324.617573832
  9
$TDUCREATE
 40
2456324.575907164
  9
$TDUPDATE
 40
2456324.621902882
  9
$TDUUPDATE
 40
2456324.580236215
  9
$TDINDWG
 40
0.0043292361
  9
$TDUSRTIMER
 40
0.0043292361
  9
$USRTIMER
 70
     1
  9
$ANGBASE
 50
0.0
  9
$ANGDIR
 70
     0
  9
$PDMODE
 70
     3
  9
$PDSIZE
 40
0.3125
  9
$PLINEWID
 40
0.0
  9
$SPLFRAME
 70
     0
  9
$SPLINETYPE
 70
     6
  9
$SPLINESEGS
 70
     8
  9
$HANDSEED
  5
5A2
  9
$SURFTAB1
 70
     6
  9
$SURFTAB2
 70
     6
  9
$SURFTYPE
 70
     6
  9
$SURFU
 70
     6
  9
$SURFV
 70
     6
  9
$UCSBASE
  2

  9
$UCSNAME
  2

  9
$UCSORG
 10
0.0
 20
0.0
 30
0.0
  9
$UCSXDIR
 10
1.0
 20
0.0
 30
0.0
  9
$UCSYDIR
 10
0.0
 20
1.0
 30
0.0
  9
$UCSORTHOREF
  2

  9
$UCSORTHOVIEW
 70
     0
  9
$UCSORGTOP
 10
0.0
 20
0.0
 30
0.0
  9
$UCSORGBOTTOM
 10
0.0
 20
0.0
 30
0.0
  9
$UCSORGLEFT
 10
0.0
 20
0.0
 30
0.0
  9
$UCSORGRIGHT
 10
0.0
 20
0.0
 30
0.0
  9
$UCSORGFRONT
 10
0.0
 20
0.0
 30
0.0
  9
$UCSORGBACK
 10
0.0
 20
0.0
 30
0.0
  9
$PUCSBASE
  2

  9
$PUCSNAME
  2

  9
$PUCSORG
 10
0.0
 20
0.0
 30
0.0
  9
$PUCSXDIR
 10
1.0
 20
0.0
 30
0.0
  9
$PUCSYDIR
 10
0.0
 20
1.0
 30
0.0
  9
$PUCSORTHOREF
  2

  9
$PUCSORTHOVIEW
 70
     0
  9
$PUCSORGTOP
 10
0.0
 20
0.0
 30
0.0
  9
$PUCSORGBOTTOM
 10
0.0
 20
0.0
 30
0.0
  9
$PUCSORGLEFT
 10
0.0
 20
0.0
 30
0.0
  9
$PUCSORGRIGHT
 10
0.0
 20
0.0
 30
0.0
  9
$PUCSORGFRONT
 10
0.0
 20
0.0
 30
0.0
  9
$PUCSORGBACK
 10
0.0
 20
0.0
 30
0.0
  9
$USERI1
 70
     0
  9
$USERI2
 70
     0
  9
$USERI3
 70
     0
  9
$USERI4
 70
     0
  9
$USERI5
 70
     0
  9
$USERR1
 40
0.0
  9
$USERR2
 40
0.0
  9
$USERR3
 40
0.0
  9
$USERR4
 40
0.0
  9
$USERR5
 40
0.0
  9
$WORLDVIEW
 70
     1
  9
$SHADEDGE
 70
     3
  9
$SHADEDIF
 70
    70
  9
$TILEMODE
 70
     1
  9
$MAXACTVP
 70
    64
  9
$PINSBASE
 10
0.0
 20
0.0
 30
0.0
  9
$PLIMCHECK
 70
     0
  9
$PEXTMIN
 10
1.000000000000000E+20
 20
1.000000000000000E+20
 30
1.000000000000000E+20
  9
$PEXTMAX
 10
-1.000000000000000E+20
 20
-1.000000000000000E+20
 30
-1.000000000000000E+20
  9
$PLIMMIN
 10
0.0
 20
0.0
  9
$PLIMMAX
 10
12.0
 20
9.0
  9
$UNITMODE
 70
     0
  9
$VISRETAIN
 70
     1
  9
$PLINEGEN
 70
     0
  9
$PSLTSCALE
 70
     1
  9
$TREEDEPTH
 70
  3020
  9
$CMLSTYLE
  2
Standard
  9
$CMLJUST
 70
     0
  9
$CMLSCALE
 40
1.0
  9
$PROXYGRAPHICS
 70
     1
  9
$MEASUREMENT
 70
     1
  9
$CELWEIGHT
370
    -1
  9
$ENDCAPS
280
     0
  9
$JOINSTYLE
280
     0
  9
$LWDISPLAY
290
     0
  9
$INSUNITS
 70
     4
  9
$HYPERLINKBASE
  1

  9
$STYLESHEET
  1

  9
$XEDIT
290
     1
  9
$CEPSNTYPE
380
     0
  9
$PSTYLEMODE
290
     1
  9
$FINGERPRINTGUID
  2
{F04A9DEF-C17F-415C-807C-BDC56A5969C6}
  9
$VERSIONGUID
  2
{BA3ABEBC-4C8A-4AA8-BAEF-5FE78B78B199}
  9
$EXTNAMES
290
     1
  9
$PSVPSCALE
 40
0.0
  9
$OLESTARTUP
290
     0
  0
ENDSEC
  0
SECTION
  2
CLASSES
  0
CLASS
  1
ACDBDICTIONARYWDFLT
  2
AcDbDictionaryWithDefault
  3
ObjectDBX Classes
 90
        0
280
     0
281
     0
  0
CLASS
  1
ACDBPLACEHOLDER
  2
AcDbPlaceHolder
  3
ObjectDBX Classes
 90
        0
280
     0
281
     0
  0
CLASS
  1
LAYOUT
  2
AcDbLayout
  3
ObjectDBX Classes
 90
        0
280
     0
281
     0
  0
CLASS
  1
MATERIAL
  2
AcDbMaterial
  3
ObjectDBX Classes
 90
     1153
280
     0
281
     0
  0
CLASS
  1
VISUALSTYLE
  2
AcDbVisualStyle
  3
ObjectDBX Classes
 90
     4095
280
     0
281
     0
  0
CLASS
  1
TABLESTYLE
  2
AcDbTableStyle
  3
ObjectDBX Classes
 90
     4095
280
     0
281
     0
  0
CLASS
  1
SCALE
  2
AcDbScale
  3
ObjectDBX Classes
 90
     1153
280
     0
281
     0
  0
CLASS
  1
MLEADERSTYLE
  2
AcDbMLeaderStyle
  3
ACDB_MLEADERSTYLE_CLASS
 90
     4095
280
     0
281
     0
  0
CLASS
  1
AMGSETTINGSOBJ
  2
AmgSettingsObj
  3
"AcadM|Product Description: AutoCAD Mechanical|Company: Autodesk, Inc."
 90
     1024
280
     0
281
     0
  0
CLASS
  1
ACME_DOCUMENT
  2
AcMeDbDoc
  3
AcMeServices
 90
     1024
280
     0
281
     0
  0
CLASS
  1
ACMESCOPE
  2
AcMeScope
  3
AcMeServices
 90
     1024
280
     0
281
     0
  0
CLASS
  1
ACMECOMMANDHISTORY
  2
AcMeCommandHistory
  3
AcMeServices
 90
     1024
280
     0
281
     0
  0
CLASS
  1
ACIMSYSVARMAN
  2
AcImSysVarManager
  3
AcMeServices
 90
     1024
280
     0
281
     0
  0
CLASS
  1
ACIMINTSYSVAR
  2
AcImIntSysVar
  3
AcMeServices
 90
     1024
280
     0
281
     0
  0
CLASS
  1
ACMEDRAWINGMAN
  2
AcMeDrawingMan
  3
AcMeServices
 90
     1024
280
     0
281
     0
  0
CLASS
  1
ACMEVIEW
  2
AcMeView
  3
AcMeServices
 90
     1024
280
     0
281
     0
  0
CLASS
  1
ACDBENTITYCACHE
  2
AcMeEntityCache
  3
AcMeServices
 90
     1024
280
     0
281
     0
  0
CLASS
  1
ACMESTATEMGR
  2
AcMeStateMgr
  3
AcMeServices
 90
     1024
280
     0
281
     0
  0
CLASS
  1
ACGREFMASTER
  2
AcGrefMaster
  3
AcAttribServices
 90
     1024
280
     0
281
     0
  0
CLASS
  1
AM_DRAWING_MGR
  2
AcDmDwgMgr
  3
AcMechDwgViewMgmt
 90
     1024
280
     0
281
     0
  0
CLASS
  1
AM_DWG_DOCUMENT
  2
AcDmDwgDocument
  3
AcMechDwgViewMgmt
 90
     1024
280
     0
281
     0
  0
CLASS
  1
AM_DWG_SHEET
  2
AcDmSheet
  3
AcMechDwgViewMgmt
 90
     1024
280
     0
281
     0
  0
CLASS
  1
AM_VIEWDIMPARMAP
  2
AcDmViewDimParMap
  3
AcMechDwgViewMgmt
 90
     1024
280
     0
281
     0
  0
CLASS
  1
AMDTINTERNALREACTOR
  2
AmdtInternalReactor
  3
AcMeServices
 90
     1024
280
     0
281
     0
  0
CLASS
  1
ACIMREALSYSVAR
  2
AcImRealSysVar
  3
AcMeServices
 90
     1024
280
     0
281
     0
  0
CLASS
  1
AM_DWGMGR_NAME
  2
AcDmDwgMgrName
  3
AcMechDwgViewMgmt
 90
     1024
280
     0
281
     0
  0
CLASS
  1
ACME_DATABASE
  2
AcMeDbDatabase
  3
AcMeServices
 90
     1024
280
     0
281
     0
  0
CLASS
  1
ACRFINSADJUSTERMGR
  2
AcRfInsAdjusterMgr
  3
AcMeServices
 90
     1024
280
     0
281
     0
  0
CLASS
  1
ACGREFACADMASTER
  2
AcGrefacadMaster
  3
AcGrefServices
 90
     1024
280
     0
281
     0
  0
CLASS
  1
AMDTMENUSTATEMGR
  2
AmdtMenuStateMgr
  3
McadcomServices
 90
     1024
280
     0
281
     0
  0
CLASS
  1
AMDTMCOMMENUSTATE
  2
AmdtMcomMenuState
  3
McadcomServices
 90
     1024
280
     0
281
     0
  0
CLASS
  1
AMIMASTER
  2
AmiMaster
  3
AmiServices
 90
     1024
280
     0
281
     0
  0
CLASS
  1
MAPIAMMOUDLE
  2
MApiAmModule
  3
MApiAmServices
 90
     1024
280
     0
281
     0
  0
CLASS
  1
ACIMSTRSYSVAR
  2
AcImStrSysVar
  3
AcMeServices
 90
     1024
280
     0
281
     0
  0
CLASS
  1
AMDTADMENUSTATE
  2
AmdtAdMenuState
  3
DesignerServices
 90
     1024
280
     0
281
     0
  0
CLASS
  1
ADAPPL
  2
AcAdAppl
  3
DesignerServices
 90
     1024
280
     0
281
     0
  0
CLASS
  1
DEPMGR
  2
AcAdDepMgr
  3
DesignerServices
 90
     1024
280
     0
281
     0
  0
CLASS
  1
PARAMMGR
  2
AcAdParamMgr
  3
DesignerServices
 90
     1024
280
     0
281
     0
  0
CLASS
  1
PARAMSCOPE
  2
AcAdParamScope
  3
DesignerServices
 90
     1024
280
     0
281
     0
  0
CLASS
  1
NAMEDAPPL
  2
AcAdNamedAppl
  3
DesignerServices
 90
     1024
280
     0
281
     0
  0
CLASS
  1
AMDTDMMENUSTATE
  2
AmdtDmMenuState
  3
AcMechDwgViewMgmt
 90
     1024
280
     0
281
     0
  0
CLASS
  1
AMDTAMMENUSTATE
  2
AmdtAmMenuState
  3
DesignerAssemblies
 90
     1024
280
     0
281
     0
  0
CLASS
  1
ACAMPROJECT
  2
AcAmProject
  3
DesignerAssemblies
 90
     1024
280
     0
281
     0
  0
CLASS
  1
ACAMGRCOMPDEF
  2
AcAmGrCompDef
  3
DesignerAssemblies
 90
     1024
280
     0
281
     0
  0
CLASS
  1
ACAMCOMPDEF
  2
AcAmCompDef
  3
DesignerAssemblies
 90
     1024
280
     0
281
     0
  0
CLASS
  1
ACAMCOMPDEFMGR
  2
AcAmCompDefMgr
  3
DesignerAssemblies
 90
     1024
280
     0
281
     0
  0
CLASS
  1
AMCONTEXTMGR
  2
AcAmContextMgr
  3
DesignerAssemblies
 90
     1024
280
     0
281
     0
  0
CLASS
  1
ACAMCONTEXTMODELER
  2
AcAmContextModeler
  3
DesignerAssemblies
 90
     1024
280
     0
281
     0
  0
CLASS
  1
ACMDATADICTIONARY
  2
AcmDataDictionary
  3
"AcmSymBB|Product Description: AutoCAD Mechanical|Company: Autodesk, Inc."
 90
     1024
280
     0
281
     0
  0
CLASS
  1
CATALOGSTATE
  2
AcAmCatalogState
  3
DesignerAssemblies
 90
     1024
280
     0
281
     0
  0
CLASS
  1
ACAMGRCOMPDEFSET
  2
AcAmGrCompDefSet
  3
DesignerAssemblies
 90
     1024
280
     0
281
     0
  0
CLASS
  1
AMDTBROWSERDBTAB
  2
AmdtBrowserDbTab
  3
McadcomServices
 90
     1024
280
     0
281
     0
  0
CLASS
  1
CBROWSERAPPOBJECT
  2
CBrowserAppObject
  3
McadcomServices
 90
     1024
280
     0
281
     0
  0
CLASS
  1
DM_PLACEHOLDER
  2
AcDmSelsetPlaceholder
  3
AcMechDwgViewMgmt
 90
     1024
280
     0
281
     0
  0
CLASS
  1
ACMSTANDARDDIN
  2
AcmStandardDIN
  3
"Amdt_StdImp|Product Description: AutoCAD Mechanical|Company: Autodesk, Inc."
 90
     1024
280
     0
281
     0
  0
CLASS
  1
AMDTEDGESTANDARDDIN13715
  2
AmdtEdgeStdDIN13715
  3
"Amdt_StdImp|Product Description: AutoCAD Mechanical|Company: Autodesk, Inc."
 90
     1024
280
     0
281
     0
  0
CLASS
  1
ACMSURFSTANDARDDIN2002
  2
AcmSurfTextStdDIN2002
  3
"Amdt_StdImp|Product Description: AutoCAD Mechanical|Company: Autodesk, Inc."
 90
     1024
280
     0
281
     0
  0
CLASS
  1
ACMFCFSTANDARDDIN
  2
AcmFCFStdDIN
  3
"Amdt_StdImp|Product Description: AutoCAD Mechanical|Company: Autodesk, Inc."
 90
     1024
280
     0
281
     0
  0
CLASS
  1
ACMWELDSTANDARDDIN
  2
AcmWeldingStdDIN
  3
"Amdt_StdImp|Product Description: AutoCAD Mechanical|Company: Autodesk, Inc."
 90
     1024
280
     0
281
     0
  0
CLASS
  1
ACMIDSTANDARDDIN
  2
AcmIdStdDIN
  3
"Amdt_StdImp|Product Description: AutoCAD Mechanical|Company: Autodesk, Inc."
 90
     1024
280
     0
281
     0
  0
CLASS
  1
ACMDATUMSTANDARDDIN
  2
AcmDatumStdDIN
  3
"Amdt_StdImp|Product Description: AutoCAD Mechanical|Company: Autodesk, Inc."
 90
     1024
280
     0
281
     0
  0
CLASS
  1
ACMBOMSTANDARDDIN
  2
AcmBOMStdDIN
  3
"Amdt_StdImp|Product Description: AutoCAD Mechanical|Company: Autodesk, Inc."
 90
     1024
280
     0
281
     0
  0
CLASS
  1
ACMDETAILSTANDARDDIN
  2
AmdtDetailSymStdDIN
  3
"Amdt_StdImp|Product Description: AutoCAD Mechanical|Company: Autodesk, Inc."
 90
     1024
280
     0
281
     0
  0
CLASS
  1
ACMSECTIONSTANDARDDIN
  2
AmdtSectionSymStdDIN
  3
"Amdt_StdImp|Product Description: AutoCAD Mechanical|Company: Autodesk, Inc."
 90
     1024
280
     0
281
     0
  0
CLASS
  1
ACMCENTERLINESTANDARDDIN
  2
AmdtCenterLineStdDIN
  3
"Amdt_StdImp|Product Description: AutoCAD Mechanical|Company: Autodesk, Inc."
 90
     1024
280
     0
281
     0
  0
CLASS
  1
ACMTHREADLINESTANDARDDIN
  2
AmdtThreadLineStdDIN
  3
"Amdt_StdImp|Product Description: AutoCAD Mechanical|Company: Autodesk, Inc."
 90
     1024
280
     0
281
     0
  0
CLASS
  1
ACMNOTESTANDARDDIN
  2
AmdtNoteStdDIN
  3
"Amdt_StdImp|Product Description: AutoCAD Mechanical|Company: Autodesk, Inc."
 90
     1024
280
     0
281
     0
  0
CLASS
  1
ACMTAPERSTANDARDDIN
  2
AcmTaperStdDIN
  3
"Amdt_StdImp|Product Description: AutoCAD Mechanical|Company: Autodesk, Inc."
 90
     1024
280
     0
281
     0
  0
CLASS
  1
ACMANOOTATIONVIEWSTANDARDDIN
  2
AmdtAnViewStdDIN
  3
"Amdt_StdImp|Product Description: AutoCAD Mechanical|Company: Autodesk, Inc."
 90
     1024
280
     0
281
     0
  0
CLASS
  1
ACAMGLAYSTD
  2
AcAmgLayStd
  3
"AmgLay|Product Description: AutoCAD Mechanical|Company: Autodesk, Inc."
 90
     1024
280
     0
281
     0
  0
CLASS
  1
ACAMGDIMSTD
  2
AcAmgDimStd
  3
"AmgDim|Product Description: AutoCAD Mechanical|Company: Autodesk, Inc."
 90
     1024
280
     0
281
     0
  0
CLASS
  1
AMGOBJPROPCFG
  2
AmgObjPropCfg
  3
"AmgLay|Product Description: AutoCAD Mechanical|Company: Autodesk, Inc."
 90
     1025
280
     0
281
     0
  0
CLASS
  1
ACAMGHOLECHARTSTDDIN
  2
AcAmgHoleChartStdDIN
  3
AmgDim|Product Description: AutoCAD Mechanical|Company: Autodesk, Inc.
 90
     1024
280
     0
281
     0
  0
CLASS
  1
ACAMGTITLESTD
  2
AcAmgTitleStd
  3
"AmgTitle|Product Description: AutoCAD Mechanical|Company: Autodesk, Inc."
 90
     4095
280
     0
281
     0
  0
CLASS
  1
AMDTNOTETEMPLATEDB
  2
AmdtNoteTemplateDB
  3
AcmSymBB|Product Description: AutoCAD Mechanical|Company: Autodesk, Inc.
 90
     1024
280
     0
281
     0
  0
CLASS
  1
ACAMGFILTERDAT
  2
AcAmgFilterDat
  3
"AcadM|Product Description: AutoCAD Mechanical|Company: Autodesk, Inc."
 90
     1024
280
     0
281
     0
  0
CLASS
  1
DICTIONARYVAR
  2
AcDbDictionaryVar
  3
ObjectDBX Classes
 90
        0
280
     0
281
     0
  0
CLASS
  1
CELLSTYLEMAP
  2
AcDbCellStyleMap
  3
ObjectDBX Classes
 90
     1152
280
     0
281
     0
  0
ENDSEC
  0
SECTION
  2
TABLES
  0
TABLE
  2
VPORT
  5
8
330
0
100
AcDbSymbolTable
 70
     1
  0
VPORT
  5
1F4
330
8
100
AcDbSymbolTableRecord
100
AcDbViewportTableRecord
  2
*ACTIVE
 70
     0
 10
0.0
 20
0.0
 11
1.0
 21
1.0
 12
213.7971506405123
 22
162.8433387209001
 13
0.0
 23
0.0
 14
1.0
 24
1.0
 15
0.0
 25
0.0
 16
0.0
 26
0.0
 36
1.0
 17
0.0
 27
0.0
 37
0.0
 40
254.7562076335456
 41
1.850235849056603
 42
50.0
 43
0.0
 44
0.0
 50
0.0
 51
0.0
 71
     0
 72
   100
 73
     1
 74
     1
 75
     0
 76
     0
 77
     0
 78
     0
281
     0
 65
     0
110
0.0
120
0.0
130
0.0
111
1.0
121
0.0
131
0.0
112
0.0
122
1.0
132
0.0
 79
     0
146
0.0
  0
ENDTAB
  0
TABLE
  2
LTYPE
  5
5
330
0
100
AcDbSymbolTable
 70
    22
  0
LTYPE
  5
14
330
5
100
AcDbSymbolTableRecord
100
AcDbLinetypeTableRecord
  2
BYBLOCK
 70
     0
  3

 72
    65
 73
     0
 40
0.0
  0
LTYPE
  5
15
330
5
100
AcDbSymbolTableRecord
100
AcDbLinetypeTableRecord
  2
BYLAYER
 70
     0
  3

 72
    65
 73
     0
 40
0.0
  0
LTYPE
  5
16
330
5
100
AcDbSymbolTableRecord
100
AcDbLinetypeTableRecord
  2
CONTINUOUS
 70
     0
  3
Solid line
 72
    65
 73
     0
 40
0.0
  0
LTYPE
  5
1F5
330
5
100
AcDbSymbolTableRecord
100
AcDbLinetypeTableRecord
  2
CENTER
 70
     0
  3
____ _ ____ _ ____ _ ____ _ ____ _ ____ _ ____
 72
    65
 73
     4
 40
0.6
 49
0.375
 74
     0
 49
-0.075
 74
     0
 49
0.075
 74
     0
 49
-0.075
 74
     0
  0
LTYPE
  5
1F6
330
5
100
AcDbSymbolTableRecord
100
AcDbLinetypeTableRecord
  2
HIDDEN
 70
     0
  3
- - - - - - - - - - - - - - - - - - - -
 72
    65
 73
     2
 40
0.2
 49
0.1
 74
     0
 49
-0.1
 74
     0
  0
LTYPE
  5
1F7
330
5
100
AcDbSymbolTableRecord
100
AcDbLinetypeTableRecord
  2
PHANTOM
 70
     0
  3
_____ _ _ _____ _ _ _____ _ _ _____
 72
    65
 73
     6
 40
0.8
 49
0.45
 74
     0
 49
-0.05
 74
     0
 49
0.1
 74
     0
 49
-0.05
 74
     0
 49
0.1
 74
     0
 49
-0.05
 74
     0
  0
LTYPE
  5
1F8
330
5
100
AcDbSymbolTableRecord
100
AcDbLinetypeTableRecord
  2
DOT
 70
     0
  3
. . . . . . . . . . . . . . . . . . . .
 72
    65
 73
     2
 40
0.2
 49
0.1
 74
     0
 49
-0.1
 74
     0
  0
LTYPE
  5
1F9
330
5
100
AcDbSymbolTableRecord
100
AcDbLinetypeTableRecord
  2
DASHED
 70
     0
  3
- - - - - - - - - - - - - - - - - - - -
 72
    65
 73
     2
 40
0.2
 49
0.1
 74
     0
 49
-0.1
 74
     0
  0
LTYPE
  5
434
330
5
100
AcDbSymbolTableRecord
100
AcDbLinetypeTableRecord
  2
PHANTOM2
 70
     0
  3
Phantom (.5x) ___ _ _ ___ _ _ ___ _ _ ___ _ _
 72
    65
 73
     6
 40
31.75
 49
15.875
 74
     0
 49
-3.174999999999999
 74
     0
 49
3.174999999999999
 74
     0
 49
-3.174999999999999
 74
     0
 49
3.174999999999999
 74
     0
 49
-3.174999999999999
 74
     0
  0
LTYPE
  5
47A
330
5
100
AcDbSymbolTableRecord
100
AcDbLinetypeTableRecord
  2
AM_ISO02W050
 70
     0
  3
__ __ __ __ __ __ __ __ __ __ __ __ __ __ __
 72
    65
 73
     2
 40
7.5
 49
6.0
 74
     0
 49
-1.5
 74
     0
  0
LTYPE
  5
47B
330
5
100
AcDbSymbolTableRecord
100
AcDbLinetypeTableRecord
  2
AM_ISO08W050
 70
     0
  3
____ . ____ . ____ . ____ . ____ . ____ . ____
 72
    65
 73
     4
 40
18.0
 49
12.0
 74
     0
 49
-1.5
 74
     0
 49
3.0
 74
     0
 49
-1.5
 74
     0
  0
LTYPE
  5
47C
330
5
100
AcDbSymbolTableRecord
100
AcDbLinetypeTableRecord
  2
AM_ISO09W050
 70
     0
  3
_____ . . _____ . . _____ . . ____ .. ____
 72
    65
 73
     6
 40
22.5
 49
12.0
 74
     0
 49
-1.5
 74
     0
 49
3.0
 74
     0
 49
-1.5
 74
     0
 49
3.0
 74
     0
 49
-1.5
 74
     0
  0
LTYPE
  5
47D
330
5
100
AcDbSymbolTableRecord
100
AcDbLinetypeTableRecord
  2
Amconstr
 70
     0
  3
_______________________
 72
    65
 73
     2
 40
9999.0
 49
9999.0
 74
     0
 49
0.0
 74
     0
  0
LTYPE
  5
47E
330
5
100
AcDbSymbolTableRecord
100
AcDbLinetypeTableRecord
  2
AM_ISO08W050x2
 70
     0
  3
__ . __ . __ . __ . __ . __
 72
    65
 73
     4
 40
9.0
 49
6.0
 74
     0
 49
-0.75
 74
     0
 49
1.5
 74
     0
 49
-0.75
 74
     0
  0
LTYPE
  5
47F
330
5
100
AcDbSymbolTableRecord
100
AcDbLinetypeTableRecord
  2
AM_ISO02W050x2
 70
     0
  3
 _ _ _ _ _ _ _ _ _ _ _ _
 72
    65
 73
     2
 40
3.75
 49
3.0
 74
     0
 49
-0.75
 74
     0
  0
LTYPE
  5
482
330
5
100
AcDbSymbolTableRecord
100
AcDbLinetypeTableRecord
  2
Amzigzag
 70
     0
  3
/\/-/\/-/\/-/\/-/\/-/\/
 72
    65
 73
     2
 40
11.0001
 49
0.0001
 74
     4
 75
   136
340
481
 46
0.04
 50
0.0
 44
0.0
 45
0.0
 49
-11.0
 74
     0
  0
LTYPE
  5
483
330
5
100
AcDbSymbolTableRecord
100
AcDbLinetypeTableRecord
  2
AM_DIN_F_W050
 70
     0
  3
__ __ __ __ __ __ __ __ __ __ __ __ __ __ __
 72
    65
 73
     2
 40
6.25
 49
4.75
 74
     0
 49
-1.5
 74
     0
  0
LTYPE
  5
484
330
5
100
AcDbSymbolTableRecord
100
AcDbLinetypeTableRecord
  2
AM_DIN_G_W050
 70
     0
  3
____ . ____ . ____ . ____ . ____ . ____ . ____
 72
    65
 73
     4
 40
13.75
 49
9.75
 74
     0
 49
-1.5
 74
     0
 49
1.0
 74
     0
 49
-1.5
 74
     0
  0
LTYPE
  5
485
330
5
100
AcDbSymbolTableRecord
100
AcDbLinetypeTableRecord
  2
AM_DIN_K_W050
 70
     0
  3
_____ . . _____ . . _____ . . ____ .. ____
 72
    65
 73
     6
 40
16.25
 49
9.75
 74
     0
 49
-1.5
 74
     0
 49
1.0
 74
     0
 49
-1.5
 74
     0
 49
1.0
 74
     0
 49
-1.5
 74
     0
  0
LTYPE
  5
486
330
5
100
AcDbSymbolTableRecord
100
AcDbLinetypeTableRecord
  2
AM_DIN_G_W050x2
 70
     0
  3
__ . __ . __ . __ . __ . __
 72
    65
 73
     4
 40
6.875
 49
4.75
 74
     0
 49
-0.875
 74
     0
 49
0.375
 74
     0
 49
-0.875
 74
     0
  0
LTYPE
  5
487
330
5
100
AcDbSymbolTableRecord
100
AcDbLinetypeTableRecord
  2
AM_DIN_F_W050x2
 70
     0
  3
 _ _ _ _ _ _ _ _ _ _ _ _
 72
    65
 73
     2
 40
3.125
 49
2.25
 74
     0
 49
-0.875
 74
     0
  0
LTYPE
  5
496
330
5
100
AcDbSymbolTableRecord
100
AcDbLinetypeTableRecord
  2
ACDINWELD
 70
     0
  3
_ _ _ _ _
 72
    65
 73
     2
 40
2.0
 49
2.0
 74
     0
 49
-1.0
 74
     0
  0
LTYPE
  5
497
330
5
100
AcDbSymbolTableRecord
100
AcDbLinetypeTableRecord
  2
ACDINTGB
 70
     0
  3
__ . . __ . .
 72
    65
 73
     6
 40
9.0
 49
4.0
 74
     0
 49
-1.0
 74
     0
 49
1.0
 74
     0
 49
-1.0
 74
     0
 49
1.0
 74
     0
 49
-1.0
 74
     0
  0
LTYPE
  5
498
330
5
100
AcDbSymbolTableRecord
100
AcDbLinetypeTableRecord
  2
ACDINTGL
 70
     0
  3
_ _ _ _ _
 72
    65
 73
     2
 40
3.0
 49
2.0
 74
     0
 49
-1.0
 74
     0
  0
ENDTAB
  0
TABLE
  2
LAYER
  5
2
330
0
100
AcDbSymbolTable
 70
    24
  0
LAYER
  5
10
330
2
100
AcDbSymbolTableRecord
100
AcDbLayerTableRecord
  2
0
 70
     0
 62
     7
  6
CONTINUOUS
370
    -3
390
F
  0
LAYER
  5
1FA
330
2
100
AcDbSymbolTableRecord
100
AcDbLayerTableRecord
  2
DEFAULT_1
 70
     0
 62
     7
  6
CENTER
370
    -3
390
F
  0
LAYER
  5
1FB
330
2
100
AcDbSymbolTableRecord
100
AcDbLayerTableRecord
  2
DEFAULT_2
 70
     0
 62
     8
  6
HIDDEN
370
    -3
390
F
  0
LAYER
  5
1FC
330
2
100
AcDbSymbolTableRecord
100
AcDbLayerTableRecord
  2
DEFAULT_3
 70
     0
 62
     7
  6
PHANTOM
370
    -3
390
F
  0
LAYER
  5
1FD
330
2
100
AcDbSymbolTableRecord
100
AcDbLayerTableRecord
  2
3D_TEIL_NOTIZ
 70
     0
 62
     7
  6
CONTINUOUS
370
    -3
390
F
  0
LAYER
  5
1FE
330
2
100
AcDbSymbolTableRecord
100
AcDbLayerTableRecord
  2
ACHSEN
 70
     0
 62
     7
  6
CONTINUOUS
370
    -3
390
F
  0
LAYER
  5
1FF
330
2
100
AcDbSymbolTableRecord
100
AcDbLayerTableRecord
  2
AUSFORMSCHRAEGEN
 70
     0
 62
     7
  6
CONTINUOUS
370
    -3
390
F
  0
LAYER
  5
200
330
2
100
AcDbSymbolTableRecord
100
AcDbLayerTableRecord
  2
BEZUG
 70
     0
 62
     7
  6
CONTINUOUS
370
    -3
390
F
  0
LAYER
  5
201
330
2
100
AcDbSymbolTableRecord
100
AcDbLayerTableRecord
  2
BEZUGSACHSEN
 70
     0
 62
     7
  6
CONTINUOUS
370
    -3
390
F
  0
LAYER
  5
202
330
2
100
AcDbSymbolTableRecord
100
AcDbLayerTableRecord
  2
BEZUGSEBENEN
 70
     0
 62
     7
  6
CONTINUOUS
370
    -3
390
F
  0
LAYER
  5
203
330
2
100
AcDbSymbolTableRecord
100
AcDbLayerTableRecord
  2
BG_STARTBEZUEGE
 70
     0
 62
     7
  6
CONTINUOUS
370
    -3
390
F
  0
LAYER
  5
204
330
2
100
AcDbSymbolTableRecord
100
AcDbLayerTableRecord
  2
BOHRUNGEN
 70
     0
 62
     7
  6
CONTINUOUS
370
    -3
390
F
  0
LAYER
  5
205
330
2
100
AcDbSymbolTableRecord
100
AcDbLayerTableRecord
  2
DATUMS
 70
     0
 62
     7
  6
CONTINUOUS
370
    -3
390
F
  0
LAYER
  5
206
330
2
100
AcDbSymbolTableRecord
100
AcDbLayerTableRecord
  2
DETAILS
 70
     0
 62
     7
  6
CONTINUOUS
370
    -3
390
F
  0
LAYER
  5
207
330
2
100
AcDbSymbolTableRecord
100
AcDbLayerTableRecord
  2
FASEN
 70
     0
 62
     7
  6
CONTINUOUS
370
    -3
390
F
  0
LAYER
  5
208
330
2
100
AcDbSymbolTableRecord
100
AcDbLayerTableRecord
  2
GEWINDE
 70
     0
 62
     7
  6
CONTINUOUS
370
    -3
390
F
  0
LAYER
  5
209
330
2
100
AcDbSymbolTableRecord
100
AcDbLayerTableRecord
  2
HILFEN
 70
     0
 62
     7
  6
CONTINUOUS
370
    -3
390
F
  0
LAYER
  5
20A
330
2
100
AcDbSymbolTableRecord
100
AcDbLayerTableRecord
  2
KURVEN
 70
     0
 62
     7
  6
CONTINUOUS
370
    -3
390
F
  0
LAYER
  5
20B
330
2
100
AcDbSymbolTableRecord
100
AcDbLayerTableRecord
  2
PLATZIERUNG
 70
     0
 62
     7
  6
CONTINUOUS
370
    -3
390
F
  0
LAYER
  5
20C
330
2
100
AcDbSymbolTableRecord
100
AcDbLayerTableRecord
  2
PLAZIERUNG
 70
     0
 62
     7
  6
CONTINUOUS
370
    -3
390
F
  0
LAYER
  5
20D
330
2
100
AcDbSymbolTableRecord
100
AcDbLayerTableRecord
  2
RUNDUNGEN
 70
     0
 62
     7
  6
CONTINUOUS
370
    -3
390
F
  0
LAYER
  5
20E
330
2
100
AcDbSymbolTableRecord
100
AcDbLayerTableRecord
  2
TEIL_STARTBEZUEGE
 70
     0
 62
     7
  6
CONTINUOUS
370
    -3
390
F
  0
LAYER
  5
20F
330
2
100
AcDbSymbolTableRecord
100
AcDbLayerTableRecord
  2
ZEICHNUNGSBEMASSUNGEN
 70
     0
 62
     7
  6
CONTINUOUS
370
    -3
390
F
  0
LAYER
  5
4A6
330
2
100
AcDbSymbolTableRecord
100
AcDbLayerTableRecord
  2
Defpoints
 70
     0
 62
     7
  6
CONTINUOUS
290
     0
370
    -3
390
F
  0
ENDTAB
  0
TABLE
  2
STYLE
  5
3
330
0
100
AcDbSymbolTable
 70
     6
  0
STYLE
  5
11
330
3
100
AcDbSymbolTableRecord
100
AcDbTextStyleTableRecord
  2
STANDARD
 70
     0
 40
0.0
 41
0.7
 50
0.0
 71
     0
 42
0.2
  3
txt
  4

  0
STYLE
  5
210
330
3
100
AcDbSymbolTableRecord
100
AcDbTextStyleTableRecord
  2
TEXTSTYLE_1
 70
     0
 40
0.0
 41
0.8
 50
0.0
 71
     0
 42
0.2
  3
gdt
  4

  0
STYLE
  5
211
330
3
100
AcDbSymbolTableRecord
100
AcDbTextStyleTableRecord
  2
TEXTSTYLE_2
 70
     0
 40
0.0
 41
0.7
 50
0.0
 71
     0
 42
0.2
  3
gdt
  4

  0
STYLE
  5
481
330
3
100
AcDbSymbolTableRecord
100
AcDbTextStyleTableRecord
  2

 70
     1
 40
0.0
 41
1.0
 50
0.0
 71
     0
 42
0.2
  3
genltshp.shx
  4

  0
STYLE
  5
494
330
3
100
AcDbSymbolTableRecord
100
AcDbTextStyleTableRecord
  2
ACDINTS
 70
     0
 40
1.0
 41
1.0
 50
0.0
 71
     0
 42
0.2
  3
isocp.shx
  4

  0
STYLE
  5
495
330
3
100
AcDbSymbolTableRecord
100
AcDbTextStyleTableRecord
  2
ACDINGDT
 70
     0
 40
0.0
 41
1.0
 50
0.0
 71
     0
 42
0.2
  3
amgdt.shx
  4

  0
ENDTAB
  0
TABLE
  2
VIEW
  5
6
330
0
100
AcDbSymbolTable
 70
     0
  0
ENDTAB
  0
TABLE
  2
UCS
  5
7
330
0
100
AcDbSymbolTable
 70
     0
  0
ENDTAB
  0
TABLE
  2
APPID
  5
9
330
0
100
AcDbSymbolTable
 70
    21
  0
APPID
  5
212
330
9
100
AcDbSymbolTableRecord
100
AcDbRegAppTableRecord
  2
ACAD
 70
     0
  0
APPID
  5
409
330
9
100
AcDbSymbolTableRecord
100
AcDbRegAppTableRecord
  2
MCAD_NO_VIS
 70
     0
  0
APPID
  5
40A
330
9
100
AcDbSymbolTableRecord
100
AcDbRegAppTableRecord
  2
ACAD_TEMP_GRAPHIC
 70
     0
  0
APPID
  5
436
330
9
100
AcDbSymbolTableRecord
100
AcDbRegAppTableRecord
  2
AD_DRAW
 70
     0
  0
APPID
  5
439
330
9
100
AcDbSymbolTableRecord
100
AcDbRegAppTableRecord
  2
ACATTRIBSERVICES
 70
     0
  0
APPID
  5
459
330
9
100
AcDbSymbolTableRecord
100
AcDbRegAppTableRecord
  2
DESIGNERASSEMBLIES
 70
     0
  0
APPID
  5
45F
330
9
100
AcDbSymbolTableRecord
100
AcDbRegAppTableRecord
  2
ACADM_DIM_EDIT
 70
     0
  0
APPID
  5
460
330
9
100
AcDbSymbolTableRecord
100
AcDbRegAppTableRecord
  2
AMDT_DM_ADJ
 70
     0
  0
APPID
  5
477
330
9
100
AcDbSymbolTableRecord
100
AcDbRegAppTableRecord
  2
ACAD_DSTYLE_DIMJAG
 70
     0
  0
APPID
  5
478
330
9
100
AcDbSymbolTableRecord
100
AcDbRegAppTableRecord
  2
ACAD_DSTYLE_DIMBREAK
 70
     0
  0
APPID
  5
4A7
330
9
100
AcDbSymbolTableRecord
100
AcDbRegAppTableRecord
  2
AcAecLayerStandard
 70
     0
  0
APPID
  5
4A8
330
9
100
AcDbSymbolTableRecord
100
AcDbRegAppTableRecord
  2
GENIUS_GENODEF_13
 70
     0
  0
APPID
  5
4A9
330
9
100
AcDbSymbolTableRecord
100
AcDbRegAppTableRecord
  2
GENIUS_GENOBJ-N-HTC_13
 70
     0
  0
APPID
  5
4AA
330
9
100
AcDbSymbolTableRecord
100
AcDbRegAppTableRecord
  2
GENIUS_GENHATCH_13
 70
     0
  0
APPID
  5
4AB
330
9
100
AcDbSymbolTableRecord
100
AcDbRegAppTableRecord
  2
ACAD_EXEMPT_FROM_CAD_STANDARDS
 70
     0
  0
APPID
  5
4AC
330
9
100
AcDbSymbolTableRecord
100
AcDbRegAppTableRecord
  2
ACAD_MLEADERVER
 70
     0
  0
APPID
  5
4AD
330
9
100
AcDbSymbolTableRecord
100
AcDbRegAppTableRecord
  2
ACAD_DSTYLE_DIMJOGGED_JOGANGLE_SYMBOL
 70
     0
  0
APPID
  5
4AE
330
9
100
AcDbSymbolTableRecord
100
AcDbRegAppTableRecord
  2
ACAD_DSTYLE_DIM_LINETYPE
 70
     0
  0
APPID
  5
4AF
330
9
100
AcDbSymbolTableRecord
100
AcDbRegAppTableRecord
  2
ACAD_DSTYLE_DIM_EXT1_LINETYPE
 70
     0
  0
APPID
  5
4B0
330
9
100
AcDbSymbolTableRecord
100
AcDbRegAppTableRecord
  2
ACAD_DSTYLE_DIM_EXT2_LINETYPE
 70
     0
  0
APPID
  5
4B1
330
9
100
AcDbSymbolTableRecord
100
AcDbRegAppTableRecord
  2
ACAD_DSTYLE_DIMINSPECT
 70
     0
  0
ENDTAB
  0
TABLE
  2
DIMSTYLE
  5
A
330
0
100
AcDbSymbolTable
 70
    11
100
AcDbDimStyleTable
 71
     1
340
21C
  0
DIMSTYLE
105
21A
330
A
100
AcDbSymbolTableRecord
100
AcDbDimStyleTableRecord
  2
STANDARD
 70
     0
 41
3.5
 47
0.005
 48
0.005
 71
     1
 73
     0
 74
     0
 77
     1
 78
     8
140
3.5
178
     5
271
     3
272
     3
284
     8
340
11
341
215
342
215
343
215
344
215
  0
DIMSTYLE
105
21B
330
A
100
AcDbSymbolTableRecord
100
AcDbDimStyleTableRecord
  2
DIMSTYLE_1
 70
     0
 41
3.5
 47
0.5
 48
0.5
 73
     0
 74
     0
 77
     1
 78
     8
140
3.5
178
     5
271
     0
272
     0
284
     8
340
11
341
215
342
215
343
215
344
215
  0
DIMSTYLE
105
21C
102
{ACAD_REACTORS
330
249
330
248
330
24B
330
24A
102
}
330
A
100
AcDbSymbolTableRecord
100
AcDbDimStyleTableRecord
  2
DIMSTYLE_2
 70
     0
 41
3.5
 47
0.5
 48
0.5
 73
     0
 74
     0
 77
     1
 78
     8
140
3.5
178
     5
271
     3
272
     3
284
     8
340
11
341
215
342
215
343
215
344
215
  0
DIMSTYLE
105
21D
330
A
100
AcDbSymbolTableRecord
100
AcDbDimStyleTableRecord
  2
DIMSTYLE_3
 70
     0
 41
3.5
 47
0.3
 48
0.3
 73
     0
 74
     0
 77
     1
 78
     8
140
3.5
178
     5
271
     0
272
     0
284
     8
340
11
341
215
342
215
343
215
344
215
  0
DIMSTYLE
105
476
102
{ACAD_REACTORS
330
465
102
}
330
A
100
AcDbSymbolTableRecord
100
AcDbDimStyleTableRecord
  2
AM_DIN
 70
     0
  4
"
 41
3.5
 42
1.0
 43
10.0
 44
1.0
 47
0.1
 48
0.1
 73
     0
 74
     0
 77
     1
 78
     8
 79
     2
140
3.5
141
0.0
143
0.0393701
146
0.71
147
1.5
172
     1
176
   256
177
   256
178
     2
271
     2
272
     3
274
     4
283
     0
284
     8
340
11
371
    -1
372
    -1
1001
ACAD_DSTYLE_DIMJAG
1070
   388
1040
1.5
1001
ACAD_DSTYLE_DIMBREAK
1070
   391
1040
3.75
1001
ACAD_DSTYLE_DIMJOGGED_JOGANGLE_SYMBOL
1070
   384
1040
1.570796326794896
1001
ACAD_DSTYLE_DIM_LINETYPE
1070
   380
1005
14
1001
ACAD_DSTYLE_DIM_EXT1_LINETYPE
1070
   381
1005
14
1001
ACAD_DSTYLE_DIM_EXT2_LINETYPE
1070
   382
1005
14
  0
DIMSTYLE
105
488
330
A
100
AcDbSymbolTableRecord
100
AcDbDimStyleTableRecord
  2
AM_DIN$3
 70
     0
  4
"
 41
3.5
 42
1.0
 43
10.0
 44
1.0
 47
0.1
 48
0.1
 73
     0
 77
     1
 78
     8
 79
     2
140
3.5
141
0.0
143
0.0393701
146
0.71
147
1.5
176
   256
177
   256
178
     2
271
     2
272
     3
274
     4
283
     0
284
     8
288
     1
289
     0
340
11
371
    -1
372
    -1
1001
ACAD_DSTYLE_DIMBREAK
1070
   391
1040
3.75
1001
ACAD_DSTYLE_DIMJAG
1070
   388
1040
1.5
1001
ACAD_DSTYLE_DIMJOGGED_JOGANGLE_SYMBOL
1070
   384
1040
1.570796326794896
1001
ACAD_DSTYLE_DIM_LINETYPE
1070
   380
1005
14
1001
ACAD_DSTYLE_DIM_EXT1_LINETYPE
1070
   381
1005
14
1001
ACAD_DSTYLE_DIM_EXT2_LINETYPE
1070
   382
1005
14
  0
DIMSTYLE
105
489
330
A
100
AcDbSymbolTableRecord
100
AcDbDimStyleTableRecord
  2
AM_DIN$4
 70
     0
  4
"
 41
3.5
 42
1.0
 43
10.0
 44
1.0
 47
0.1
 48
0.1
 73
     0
 77
     1
 78
     8
 79
     2
140
3.5
141
0.0
143
0.0393701
146
0.71
147
1.5
176
   256
177
   256
178
     2
271
     2
272
     3
274
     4
283
     0
284
     8
288
     1
289
     0
340
11
371
    -1
372
    -1
1001
ACAD_DSTYLE_DIMBREAK
1070
   391
1040
3.75
1001
ACAD_DSTYLE_DIMJAG
1070
   388
1040
1.5
1001
ACAD_DSTYLE_DIMJOGGED_JOGANGLE_SYMBOL
1070
   384
1040
1.570796326794896
1001
ACAD_DSTYLE_DIM_LINETYPE
1070
   380
1005
14
1001
ACAD_DSTYLE_DIM_EXT1_LINETYPE
1070
   381
1005
14
1001
ACAD_DSTYLE_DIM_EXT2_LINETYPE
1070
   382
1005
14
  0
DIMSTYLE
105
48A
330
A
100
AcDbSymbolTableRecord
100
AcDbDimStyleTableRecord
  2
AM_DIN$6
 70
     0
  4
"
 41
3.5
 42
1.0
 43
10.0
 44
1.0
 47
0.1
 48
0.1
 73
     0
 74
     0
 78
     8
 79
     2
140
3.5
141
0.0
143
0.0393701
146
0.71
147
1.5
172
     1
176
   256
177
   256
178
     2
271
     2
272
     3
274
     4
283
     0
284
     8
340
11
371
    -1
372
    -1
1001
ACAD_DSTYLE_DIMBREAK
1070
   391
1040
3.75
1001
ACAD_DSTYLE_DIMJAG
1070
   388
1040
1.5
1001
ACAD_DSTYLE_DIMJOGGED_JOGANGLE_SYMBOL
1070
   384
1040
1.570796326794896
1001
ACAD_DSTYLE_DIM_LINETYPE
1070
   380
1005
14
1001
ACAD_DSTYLE_DIM_EXT1_LINETYPE
1070
   381
1005
14
1001
ACAD_DSTYLE_DIM_EXT2_LINETYPE
1070
   382
1005
14
  0
DIMSTYLE
105
48B
330
A
100
AcDbSymbolTableRecord
100
AcDbDimStyleTableRecord
  2
AM_DIN$7
 70
     0
  4
"
 41
3.5
 42
1.0
 43
10.0
 44
1.0
 47
0.1
 48
0.1
 73
     0
 74
     0
 77
     1
 78
     8
 79
     2
140
3.5
141
0.0
143
0.0393701
146
0.71
147
1.5
172
     1
176
   256
177
   256
178
     2
271
     2
272
     3
274
     4
283
     0
284
     8
340
11
371
    -1
372
    -1
1001
ACAD_DSTYLE_DIMBREAK
1070
   391
1040
3.75
1001
ACAD_DSTYLE_DIMJAG
1070
   388
1040
1.5
1001
ACAD_DSTYLE_DIMJOGGED_JOGANGLE_SYMBOL
1070
   384
1040
1.570796326794896
1001
ACAD_DSTYLE_DIM_LINETYPE
1070
   380
1005
14
1001
ACAD_DSTYLE_DIM_EXT1_LINETYPE
1070
   381
1005
14
1001
ACAD_DSTYLE_DIM_EXT2_LINETYPE
1070
   382
1005
14
  0
DIMSTYLE
105
48C
330
A
100
AcDbSymbolTableRecord
100
AcDbDimStyleTableRecord
  2
AM_DIN$SF
 70
     0
  4
"
 41
3.5
 42
1.0
 43
10.0
 44
1.0
 47
0.1
 48
0.1
 73
     0
 74
     0
 75
     1
 76
     1
 77
     1
 78
     8
 79
     2
140
3.5
141
0.0
143
0.0393701
146
0.71
147
1.5
172
     1
176
   256
177
   256
178
     2
271
     2
272
     3
274
     4
283
     0
284
     8
340
11
371
    -1
372
    -1
1001
ACAD_DSTYLE_DIMBREAK
1070
   391
1040
3.75
1001
ACAD_DSTYLE_DIMJAG
1070
   388
1040
1.5
1001
ACAD_DSTYLE_DIMJOGGED_JOGANGLE_SYMBOL
1070
   384
1040
1.570796326794896
1001
ACAD_DSTYLE_DIM_LINETYPE
1070
   380
1005
14
1001
ACAD_DSTYLE_DIM_EXT1_LINETYPE
1070
   381
1005
14
1001
ACAD_DSTYLE_DIM_EXT2_LINETYPE
1070
   382
1005
14
  0
DIMSTYLE
105
491
330
A
100
AcDbSymbolTableRecord
100
AcDbDimStyleTableRecord
  2
AM_DIN$SH
 70
     0
  4
"
 41
3.5
 42
1.0
 43
10.0
 44
1.0
 47
0.1
 48
0.1
 73
     0
 74
     0
 75
     1
 76
     1
 77
     1
 78
     8
 79
     2
140
3.5
141
0.0
143
0.0393701
144
2.0
146
0.71
147
1.5
172
     1
173
     1
176
   256
177
   256
178
     2
271
     2
272
     3
274
     4
283
     0
284
     8
340
11
343
48D
371
    -1
372
    -1
1001
ACAD_DSTYLE_DIMBREAK
1070
   391
1040
3.75
1001
ACAD_DSTYLE_DIMJAG
1070
   388
1040
1.5
1001
ACAD_DSTYLE_DIMJOGGED_JOGANGLE_SYMBOL
1070
   384
1040
1.570796326794896
1001
ACAD_DSTYLE_DIM_LINETYPE
1070
   380
1005
14
1001
ACAD_DSTYLE_DIM_EXT1_LINETYPE
1070
   381
1005
14
1001
ACAD_DSTYLE_DIM_EXT2_LINETYPE
1070
   382
1005
14
  0
ENDTAB
  0
TABLE
  2
BLOCK_RECORD
  5
1
330
0
100
AcDbSymbolTable
 70
    12
  0
BLOCK_RECORD
  5
213
330
1
100
AcDbSymbolTableRecord
100
AcDbBlockTableRecord
  2
*Model_Space
340
3B9
  0
BLOCK_RECORD
  5
214
330
1
100
AcDbSymbolTableRecord
100
AcDbBlockTableRecord
  2
*Paper_Space
340
3BA
  0
BLOCK_RECORD
  5
215
330
1
100
AcDbSymbolTableRecord
100
AcDbBlockTableRecord
  2
_FILLED
340
0
102
{BLKREFS
331
4B8
331
4B9
331
4C2
331
4C3
331
4CE
331
4CF
331
4E4
331
4E5
331
4FA
331
4FB
331
516
331
517
331
528
331
529
331
54C
331
54D
102
}
  0
BLOCK_RECORD
  5
216
330
1
100
AcDbSymbolTableRecord
100
AcDbBlockTableRecord
  2
*D1
340
0
  0
BLOCK_RECORD
  5
217
330
1
100
AcDbSymbolTableRecord
100
AcDbBlockTableRecord
  2
*D2
340
0
  0
BLOCK_RECORD
  5
218
330
1
100
AcDbSymbolTableRecord
100
AcDbBlockTableRecord
  2
*D3
340
0
  0
BLOCK_RECORD
  5
219
330
1
100
AcDbSymbolTableRecord
100
AcDbBlockTableRecord
  2
*D4
340
0
  0
BLOCK_RECORD
  5
48D
330
1
100
AcDbSymbolTableRecord
100
AcDbBlockTableRecord
  2
GENAXEH
340
0
  0
ENDTAB
  0
ENDSEC
  0
SECTION
  2
BLOCKS
  0
BLOCK
  5
20
330
213
100
AcDbEntity
  8
0
100
AcDbBlockBegin
  2
*Model_Space
 70
     0
 10
0.0
 20
0.0
 30
0.0
  3
*Model_Space
  1

  0
ENDBLK
  5
21
330
213
100
AcDbEntity
  8
0
100
AcDbBlockEnd
  0
BLOCK
  5
1C
330
214
100
AcDbEntity
 67
     1
  8
0
100
AcDbBlockBegin
  2
*Paper_Space
 70
     0
 10
0.0
 20
0.0
 30
0.0
  3
*Paper_Space
  1

  0
ENDBLK
  5
1D
330
214
100
AcDbEntity
 67
     1
  8
0
100
AcDbBlockEnd
  0
BLOCK
  5
21E
330
215
100
AcDbEntity
  8
0
100
AcDbBlockBegin
  2
_FILLED
 70
     0
 10
0.0
 20
0.0
 30
0.0
  3
_FILLED
  1

  0
SOLID
  5
21F
330
215
100
AcDbEntity
  8
0
  6
ByBlock
 62
     0
100
AcDbTrace
 10
0.0
 20
0.0
 30
0.0
 11
-1.0
 21
0.125
 31
0.0
 12
-1.0
 22
-0.125
 32
0.0
 13
-1.0
 23
-0.125
 33
0.0
  0
ENDBLK
  5
220
330
215
100
AcDbEntity
  8
0
  6
ByBlock
 62
     0
100
AcDbBlockEnd
  0
BLOCK
  5
221
330
216
100
AcDbEntity
  8
ZEICHNUNGSBEMASSUNGEN
  6
Continuous
 62
     2
100
AcDbBlockBegin
  2
*D1
 70
     1
 10
0.0
 20
0.0
 30
0.0
  3
*D1
  1

  0
LINE
  5
549
330
216
100
AcDbEntity
  8
ZEICHNUNGSBEMASSUNGEN
  6
Continuous
 62
     0
370
    -2
100
AcDbLine
 10
38.1865085888
 20
233.4295383477
 30
0.0
 11
38.1865085888
 21
281.0037043224874
 31
0.0
  0
LINE
  5
54A
330
216
100
AcDbEntity
  8
ZEICHNUNGSBEMASSUNGEN
  6
Continuous
 62
     0
370
    -2
100
AcDbLine
 10
398.6057708230001
 20
233.4295383477
 30
0.0
 11
398.6057708230001
 21
281.0037043224874
 31
0.0
  0
LINE
  5
54B
330
216
100
AcDbEntity
  8
ZEICHNUNGSBEMASSUNGEN
  6
Continuous
 62
     0
370
    -2
100
AcDbLine
 10
43.1865085888
 20
280.8237043224874
 30
0.0
 11
393.6057708230001
 21
280.8237043224874
 31
0.0
  0
INSERT
  5
54C
330
216
100
AcDbEntity
  8
ZEICHNUNGSBEMASSUNGEN
  6
Continuous
 62
     0
370
    -2
100
AcDbBlockReference
  2
_FILLED
 10
38.1865085888
 20
280.8237043224874
 30
0.0
 41
5.0
 42
5.0
 43
5.0
 50
180.0
  0
INSERT
  5
54D
330
216
100
AcDbEntity
  8
ZEICHNUNGSBEMASSUNGEN
  6
Continuous
 62
     0
370
    -2
100
AcDbBlockReference
  2
_FILLED
 10
398.6057708230001
 20
280.8237043224874
 30
0.0
 41
5.0
 42
5.0
 43
5.0
  0
MTEXT
  5
54E
330
216
100
AcDbEntity
  8
ZEICHNUNGSBEMASSUNGEN
  6
Continuous
100
AcDbMText
 10
217.4605529652644
 20
289.3237043224874
 30
0.0
 40
7.0
 41
0.0
 71
     2
 72
     1
  1
\A1;%%c360
 73
     1
 44
1.0
1001
ACAD
1000
MTEXTBEGIN
1070
    73
1070
     1
1070
    44
1040
1.0
1070
    74
1070
     0
1000
MTEXTEND
  0
POINT
  5
54F
330
216
100
AcDbEntity
  8
Defpoints
  6
Continuous
 62
     0
100
AcDbPoint
 10
38.1865085888
 20
233.3670383477
 30
0.0
  0
POINT
  5
550
330
216
100
AcDbEntity
  8
Defpoints
  6
Continuous
 62
     0
100
AcDbPoint
 10
398.6057708230001
 20
233.3670383477
 30
0.0
  0
POINT
  5
551
330
216
100
AcDbEntity
  8
Defpoints
  6
Continuous
 62
     0
100
AcDbPoint
 10
398.6057708230001
 20
280.8237043224874
 30
0.0
  0
ENDBLK
  5
229
330
216
100
AcDbEntity
  8
0
  6
ByBlock
 62
     0
100
AcDbBlockEnd
  0
BLOCK
  5
22A
330
217
100
AcDbEntity
  8
ZEICHNUNGSBEMASSUNGEN
  6
Continuous
 62
     2
100
AcDbBlockBegin
  2
*D2
 70
     1
 10
0.0
 20
0.0
 30
0.0
  3
*D2
  1

  0
LINE
  5
4BF
330
217
100
AcDbEntity
  8
ZEICHNUNGSBEMASSUNGEN
  6
Continuous
 62
     0
370
    -2
100
AcDbLine
 10
141.1755058618
 20
229.4295383477
 30
0.0
 11
141.1755058618
 21
269.04825577
 31
0.0
  0
LINE
  5
4C0
330
217
100
AcDbEntity
  8
ZEICHNUNGSBEMASSUNGEN
  6
Continuous
 62
     0
370
    -2
100
AcDbLine
 10
295.6167735499
 20
229.4295383477
 30
0.0
 11
295.6167735499
 21
269.04825577
 31
0.0
  0
LINE
  5
4C1
330
217
100
AcDbEntity
  8
ZEICHNUNGSBEMASSUNGEN
  6
Continuous
 62
     0
370
    -2
100
AcDbLine
 10
146.1755058618
 20
268.86825577
 30
0.0
 11
290.6167735499
 21
268.86825577
 31
0.0
  0
INSERT
  5
4C2
330
217
100
AcDbEntity
  8
ZEICHNUNGSBEMASSUNGEN
  6
Continuous
 62
     0
370
    -2
100
AcDbBlockReference
  2
_FILLED
 10
141.1755058618
 20
268.86825577
 30
0.0
 41
5.0
 42
5.0
 43
5.0
 50
180.0
  0
INSERT
  5
4C3
330
217
100
AcDbEntity
  8
ZEICHNUNGSBEMASSUNGEN
  6
Continuous
 62
     0
370
    -2
100
AcDbBlockReference
  2
_FILLED
 10
295.6167735499
 20
268.86825577
 30
0.0
 41
5.0
 42
5.0
 43
5.0
  0
MTEXT
  5
4C4
330
217
100
AcDbEntity
  8
ZEICHNUNGSBEMASSUNGEN
  6
Continuous
100
AcDbMText
 10
215.4794730392
 20
277.36825577
 30
0.0
 40
7.0
 41
0.0
 71
     2
 72
     1
  1
\A1;%%c155
 73
     1
 44
1.0
1001
ACAD
1000
MTEXTBEGIN
1070
    73
1070
     1
1070
    44
1040
1.0
1070
    74
1070
     0
1000
MTEXTEND
  0
POINT
  5
4C5
330
217
100
AcDbEntity
  8
Defpoints
  6
Continuous
 62
     0
100
AcDbPoint
 10
141.1755058618
 20
229.3670383477
 30
0.0
  0
POINT
  5
4C6
330
217
100
AcDbEntity
  8
Defpoints
  6
Continuous
 62
     0
100
AcDbPoint
 10
295.6167735499
 20
229.3670383477
 30
0.0
  0
POINT
  5
4C7
330
217
100
AcDbEntity
  8
Defpoints
  6
Continuous
 62
     0
100
AcDbPoint
 10
295.6167735499
 20
268.86825577
 30
0.0
  0
ENDBLK
  5
234
330
217
100
AcDbEntity
  8
0
  6
ByBlock
 62
     0
100
AcDbBlockEnd
  0
BLOCK
  5
235
330
218
100
AcDbEntity
  8
ZEICHNUNGSBEMASSUNGEN
  6
Continuous
 62
     2
100
AcDbBlockBegin
  2
*D3
 70
     1
 10
0.0
 20
0.0
 30
0.0
  3
*D3
  1

  0
LINE
  5
525
330
218
100
AcDbEntity
  8
ZEICHNUNGSBEMASSUNGEN
  6
Continuous
 62
     0
370
    -2
100
AcDbLine
 10
38.7315688393
 20
235.8670383477
 30
0.0
 11
28.06995028550005
 21
235.8670383477
 31
0.0
  0
LINE
  5
526
330
218
100
AcDbEntity
  8
ZEICHNUNGSBEMASSUNGEN
  6
Continuous
 62
     0
370
    -2
100
AcDbLine
 10
188.816336969
 20
39.3670383477
 30
0.0
 11
28.06995028550001
 21
39.36703834770005
 31
0.0
  0
LINE
  5
527
330
218
100
AcDbEntity
  8
ZEICHNUNGSBEMASSUNGEN
  6
Continuous
 62
     0
370
    -2
100
AcDbLine
 10
28.24995028550004
 20
230.8670383477
 30
0.0
 11
28.24995028550001
 21
44.36703834770004
 31
0.0
  0
INSERT
  5
528
330
218
100
AcDbEntity
  8
ZEICHNUNGSBEMASSUNGEN
  6
Continuous
 62
     0
370
    -2
100
AcDbBlockReference
  2
_FILLED
 10
28.24995028550005
 20
235.8670383477
 30
0.0
 41
5.0
 42
5.0
 43
5.0
 50
90.0
  0
INSERT
  5
529
330
218
100
AcDbEntity
  8
ZEICHNUNGSBEMASSUNGEN
  6
Continuous
 62
     0
370
    -2
100
AcDbBlockReference
  2
_FILLED
 10
28.2499502855
 20
39.36703834770005
 30
0.0
 41
5.0
 42
5.0
 43
5.0
 50
270.0
  0
MTEXT
  5
52A
330
218
100
AcDbEntity
  8
ZEICHNUNGSBEMASSUNGEN
  6
Continuous
100
AcDbMText
 10
19.7499502855
 20
132.2530583661
 30
0.0
 40
7.0
 41
0.0
 71
     2
 72
     1
  1
\A1;197
 11
0.0000000000000001
 21
1.0
 31
0.0
 73
     1
 44
1.0
1001
ACAD
1000
MTEXTBEGIN
1070
    73
1070
     1
1070
    44
1040
1.0
1070
    74
1070
     0
1000
MTEXTEND
  0
POINT
  5
52B
330
218
100
AcDbEntity
  8
Defpoints
  6
Continuous
 62
     0
100
AcDbPoint
 10
38.7940688393
 20
235.8670383477
 30
0.0
  0
POINT
  5
52C
330
218
100
AcDbEntity
  8
Defpoints
  6
Continuous
 62
     0
100
AcDbPoint
 10
188.878836969
 20
39.3670383477
 30
0.0
  0
POINT
  5
52D
330
218
100
AcDbEntity
  8
Defpoints
  6
Continuous
 62
     0
100
AcDbPoint
 10
28.2499502855
 20
39.36703834770005
 30
0.0
  0
ENDBLK
  5
23D
330
218
100
AcDbEntity
  8
0
  6
ByBlock
 62
     0
100
AcDbBlockEnd
  0
BLOCK
  5
23E
330
219
100
AcDbEntity
  8
ZEICHNUNGSBEMASSUNGEN
  6
Continuous
 62
     2
100
AcDbBlockBegin
  2
*D4
 70
     1
 10
0.0
 20
0.0
 30
0.0
  3
*D4
  1

  0
LINE
  5
513
330
219
100
AcDbEntity
  8
ZEICHNUNGSBEMASSUNGEN
  6
Continuous
 62
     0
370
    -2
100
AcDbLine
 10
247.9759424428
 20
39.3670383477
 30
0.0
 11
407.3929732674
 21
39.36703834769996
 31
0.0
  0
LINE
  5
514
330
219
100
AcDbEntity
  8
ZEICHNUNGSBEMASSUNGEN
  6
Continuous
 62
     0
370
    -2
100
AcDbLine
 10
250.2552789118
 20
113.6514487026
 30
0.0
 11
407.3929732674
 21
113.6514487025999
 31
0.0
  0
LINE
  5
515
330
219
100
AcDbEntity
  8
ZEICHNUNGSBEMASSUNGEN
  6
Continuous
 62
     0
370
    -2
100
AcDbLine
 10
407.2129732674
 20
44.36703834769995
 30
0.0
 11
407.2129732674
 21
108.6514487025999
 31
0.0
  0
INSERT
  5
516
330
219
100
AcDbEntity
  8
ZEICHNUNGSBEMASSUNGEN
  6
Continuous
 62
     0
370
    -2
100
AcDbBlockReference
  2
_FILLED
 10
407.2129732674
 20
39.36703834769996
 30
0.0
 41
5.0
 42
5.0
 43
5.0
 50
270.0
  0
INSERT
  5
517
330
219
100
AcDbEntity
  8
ZEICHNUNGSBEMASSUNGEN
  6
Continuous
 62
     0
370
    -2
100
AcDbBlockReference
  2
_FILLED
 10
407.2129732674
 20
113.6514487025999
 30
0.0
 41
5.0
 42
5.0
 43
5.0
 50
90.0
  0
MTEXT
  5
518
330
219
100
AcDbEntity
  8
ZEICHNUNGSBEMASSUNGEN
  6
Continuous
100
AcDbMText
 10
398.7129732674
 20
74.0507527003
 30
0.0
 40
7.0
 41
0.0
 71
     2
 72
     1
  1
\A1;74
 11
0.0000000000000001
 21
1.0
 31
0.0
 73
     1
 44
1.0
1001
ACAD
1000
MTEXTBEGIN
1070
    73
1070
     1
1070
    44
1040
1.0
1070
    74
1070
     0
1000
MTEXTEND
  0
POINT
  5
519
330
219
100
AcDbEntity
  8
Defpoints
  6
Continuous
 62
     0
100
AcDbPoint
 10
247.9134424428
 20
39.3670383477
 30
0.0
  0
POINT
  5
51A
330
219
100
AcDbEntity
  8
Defpoints
  6
Continuous
 62
     0
100
AcDbPoint
 10
250.1927789118
 20
113.6514487026
 30
0.0
  0
POINT
  5
51B
330
219
100
AcDbEntity
  8
Defpoints
  6
Continuous
 62
     0
100
AcDbPoint
 10
407.2129732674
 20
113.6514487025999
 30
0.0
  0
ENDBLK
  5
246
330
219
100
AcDbEntity
  8
0
  6
ByBlock
 62
     0
100
AcDbBlockEnd
  0
BLOCK
  5
48F
330
48D
100
AcDbEntity
  8
0
100
AcDbBlockBegin
  2
GENAXEH
 70
     0
 10
0.0
 20
0.0
 30
0.0
  3
GENAXEH
  1

  0
LINE
  5
48E
330
48D
100
AcDbEntity
  8
0
100
AcDbLine
 10
-1.0
 20
0.0
 30
0.0
 11
1.0
 21
0.0
 31
0.0
  0
ENDBLK
  5
490
330
48D
100
AcDbEntity
  8
0
100
AcDbBlockEnd
  0
ENDSEC
  0
SECTION
  2
ENTITIES
  0
HATCH
  5
247
330
213
100
AcDbEntity
  8
0
  6
Continuous
 62
     1
100
AcDbHatch
 10
0.0
 20
0.0
 30
0.0
210
0.0
220
0.0
230
1.0
  2
DEFAULT__1
 70
     0
 71
     0
 91
        2
 92
        1
 93
       58
 72
     1
 10
190.378836969
 20
39.3670383477
 11
199.8961397059
 21
39.3670383477
 72
     4
 94
        3
 73
     1
 74
     0
 95
        8
 96
        4
 40
0.0
 40
0.0
 40
0.0
 40
0.0
 40
1.0
 40
1.0
 40
1.0
 40
1.0
 10
190.378836969
 20
39.3670383477
 42
1.0
 10
189.8011250343
 20
39.3670383477
 42
0.8088336328
 10
189.3890717373
 20
39.7719619948
 42
0.8088336328
 10
189.3789892738
 20
40.34958594119999
 42
1.0
 72
     1
 10
189.3789892738
 20
40.34958594119999
 11
188.1326239306
 21
111.7538086329999
 72
     4
 94
        3
 73
     1
 74
     0
 95
        8
 96
        4
 40
0.0
 40
0.0
 40
0.0
 40
0.0
 40
1.0
 40
1.0
 40
1.0
 40
1.0
 10
186.2027275337
 20
113.7176854742
 42
1.0
 10
187.3255439806
 20
113.6784758599
 42
0.8169162473
 10
188.1130161371
 20
112.8771383716
 42
0.8169162473
 10
188.1326239306
 20
111.753808633
 42
1.0
 72
     1
 10
186.2027275337
 20
113.7176854742
 11
180.8472470013
 21
113.9047029754
 72
     4
 94
        3
 73
     1
 74
     0
 95
        8
 96
        4
 40
0.0
 40
0.0
 40
0.0
 40
0.0
 40
1.0
 40
1.0
 40
1.0
 40
1.0
 10
180.8472470013
 20
113.9047029754
 42
1.0
 10
180.2270658495
 20
113.9263601784
 42
0.9691446337999998
 10
179.642101019
 20
114.1335070892
 42
0.9691446337999998
 10
179.146500422
 20
114.5069689263
 42
1.0
 72
     1
 10
179.146500422
 20
114.5069689263
 11
175.6280160292
 21
117.1583370907
 72
     4
 94
        3
 73
     1
 74
     0
 95
        8
 96
        4
 40
0.0
 40
0.0
 40
0.0
 40
0.0
 40
1.0
 40
1.0
 40
1.0
 40
1.0
 10
175.6280160292
 20
117.1583370907
 42
1.0
 10
174.9840895497
 20
117.6435704973
 42
0.9492530217
 10
174.5748698404
 20
118.3382877055
 42
0.9492530217
 10
174.4626568924
 20
119.136724318
 42
1.0
 72
     1
 10
174.4626568924
 20
119.136724318
 11
173.740316059
 21
124.2764464131
 72
     4
 94
        3
 73
     1
 74
     0
 95
        8
 96
        4
 40
0.0
 40
0.0
 40
0.0
 40
0.0
 40
1.0
 40
1.0
 40
1.0
 40
1.0
 10
173.740316059
 20
124.2764464131
 42
1.0
 10
173.5314690938
 20
125.7624697858
 42
0.8477497223
 10
172.4250905391
 20
126.7762789458
 42
0.8477497223
 10
170.9265197215
 20
126.8548157145
 42
1.0
 72
     1
 10
165.125816798
 20
127.158817673
 11
170.9265197215
 21
126.8548157145
 72
     4
 94
        3
 73
     1
 74
     0
 95
        8
 96
        4
 40
0.0
 40
0.0
 40
0.0
 40
0.0
 40
1.0
 40
1.0
 40
1.0
 40
1.0
 10
162.6098050942
 20
128.792734778
 42
1.0
 10
163.1083212621
 20
127.8143417096
 42
0.9106836024999999
 10
164.0292454619
 20
127.2162865415
 42
0.9106836024999999
 10
165.125816798
 20
127.158817673
 42
1.0
 72
     1
 10
149.4522381034
 20
154.615913981
 11
162.6098050942
 21
128.792734778
 72
     4
 94
        3
 73
     1
 74
     0
 95
        8
 96
        4
 40
0.0
 40
0.0
 40
0.0
 40
0.0
 40
1.0
 40
1.0
 40
1.0
 40
1.0
 10
148.9103165893
 20
156.7113689961
 42
1.0
 10
148.9358996483
 20
155.9787660367
 42
0.9841973380999998
 10
149.1194405885
 20
155.26906588
 42
0.9841973380999998
 10
149.4522381034
 20
154.615913981
 42
1.0
 72
     1
 10
147.4533537675
 20
198.433325383
 11
148.9103165893
 21
156.7113689961
 72
     4
 94
        3
 73
     1
 74
     0
 95
        8
 96
        4
 40
0.0
 40
0.0
 40
0.0
 40
0.0
 40
1.0
 40
1.0
 40
1.0
 40
1.0
 10
147.4533538611
 20
198.4333253855
 42
1.0
 10
147.4287115839
 20
199.1390042496
 42
0.9853166357999999
 10
147.2573211529
 20
199.8239971117
 42
0.9853166357999999
 10
146.9467323322
 20
200.4581299729
 42
1.0
 72
     1
 10
146.9467322535
 20
200.4581299325
 11
146.8080650645999
 21
200.7412480814
 72
     4
 94
        3
 73
     1
 74
     0
 95
        8
 96
        4
 40
0.0
 40
0.0
 40
0.0
 40
0.0
 40
1.0
 40
1.0
 40
1.0
 40
1.0
 10
146.8080651537
 20
200.7412481232
 42
1.0
 10
146.4974765424
 20
201.3753793984
 42
0.9853166976
 10
146.3260856805
 20
202.0603705896
 42
0.9853166976
 10
146.3014423195
 20
202.7660478986
 42
1.0
 72
     1
 10
146.0144252457
 20
210.9851386434
 11
146.3014422191
 21
202.7660478946
 72
     4
 94
        3
 73
     1
 74
     0
 95
        8
 96
        4
 40
0.0
 40
0.0
 40
0.0
 40
0.0
 40
1.0
 40
1.0
 40
1.0
 40
1.0
 10
146.0144252457
 20
210.9851386434
 42
1.0
 10
145.9602103344
 20
212.5376505729999
 42
0.8389989303
 10
144.9073553442
 20
213.6798978832
 42
0.8389989303
 10
143.3643926141
 20
213.8601714575
 42
1.0
 72
     4
 94
        3
 73
     1
 74
     0
 95
        8
 96
        4
 40
0.0
 40
0.0
 40
0.0
 40
0.0
 40
1.0
 40
1.0
 40
1.0
 40
1.0
 10
143.3643926141
 20
213.8601714575
 42
1.0
 10
142.335750794
 20
213.9803538403
 42
0.8389989303
 10
141.6338474672
 20
214.7418520471
 42
0.8389989303
 10
141.597704193
 20
215.7768600002
 42
1.0
 72
     1
 10
141.597704193
 20
215.7768600002
 11
141.2429099662
 21
225.9368373411
 72
     4
 94
        3
 73
     1
 74
     0
 95
        8
 96
        4
 40
0.0
 40
0.0
 40
0.0
 40
0.0
 40
1.0
 40
1.0
 40
1.0
 40
1.0
 10
139.2441283122
 20
227.8670383477
 42
1.0
 10
140.3835291097
 20
227.8670383477
 42
0.8128932001999999
 10
141.2031454519
 20
227.0755440464
 42
0.8128932001999999
 10
141.2429099662
 20
225.9368373411
 42
1.0
 72
     1
 10
40.2940688393
 20
227.8670383477
 11
139.2441283122
 21
227.8670383477
 72
     4
 94
        3
 73
     1
 74
     0
 95
        8
 96
        4
 40
0.0
 40
0.0
 40
0.0
 40
0.0
 40
1.0
 40
1.0
 40
1.0
 40
1.0
 10
40.2940688393
 20
227.8670383477
 42
1.0
 10
39.1705679861
 20
227.8670383477
 42
0.8169162473
 10
38.3556092613
 20
228.6404053008
 42
0.8169162473
 10
38.2968097698
 20
229.7623664352
 42
1.0
 72
     1
 10
38.2968097698
 20
229.7623664352
 11
38.1865085888
 21
231.8670383477
 72
     1
 10
38.1865085888
 20
231.8670383477
 11
38.2968097698
 21
233.9717102602
 72
     4
 94
        3
 73
     1
 74
     0
 95
        8
 96
        4
 40
0.0
 40
0.0
 40
0.0
 40
0.0
 40
1.0
 40
1.0
 40
1.0
 40
1.0
 10
38.2968097698
 20
233.9717102602
 42
1.0
 10
38.3556092613
 20
235.0936713946
 42
0.8169162473
 10
39.1705679861
 20
235.8670383477
 42
0.8169162473
 10
40.2940688393
 20
235.8670383477
 42
1.0
 72
     1
 10
153.3961397059
 20
235.8670383477
 11
40.2940688393
 21
235.8670383477
 72
     4
 94
        3
 73
     1
 74
     0
 95
        8
 96
        4
 40
0.0
 40
0.0
 40
0.0
 40
0.0
 40
1.0
 40
1.0
 40
1.0
 40
1.0
 10
153.3961397059
 20
235.8670383477
 42
1.0
 10
153.9819261435
 20
235.8670383477
 42
0.8047378541
 10
154.3961397059
 20
235.4528247853
 42
0.8047378541
 10
154.3961397059
 20
234.8670383477
 42
1.0
 72
     1
 10
154.3961397059
 20
231.4719210653
 11
154.3961397059
 21
234.8670383477
 72
     4
 94
        3
 73
     1
 74
     0
 95
        8
 96
        4
 40
0.0
 40
0.0
 40
0.0
 40
0.0
 40
1.0
 40
1.0
 40
1.0
 40
1.0
 10
154.3961397059
 20
231.4719210653
 42
1.0
 10
154.3961397059
 20
230.8942091306
 42
0.8088336328
 10
153.9912160587
 20
230.4821558336
 42
0.8088336328
 10
153.4135921123
 20
230.4720733701
 42
1.0
 72
     1
 10
148.3786872994
 20
230.3841887797
 11
153.4135921123
 21
230.4720733701
 72
     4
 94
        3
 73
     1
 74
     0
 95
        8
 96
        4
 40
0.0
 40
0.0
 40
0.0
 40
0.0
 40
1.0
 40
1.0
 40
1.0
 40
1.0
 10
147.3961397059
 20
229.3843410846
 42
1.0
 10
147.3961397059
 20
229.9620530193
 42
0.8088336328
 10
147.801063353
 20
230.3741063162
 42
0.8088336328
 10
148.3786872994
 20
230.3841887797
 42
1.0
 72
     1
 10
147.3961397059
 20
220.3497356108
 11
147.3961397059
 21
229.3843410846
 72
     4
 94
        3
 73
     1
 74
     0
 95
        8
 96
        4
 40
0.0
 40
0.0
 40
0.0
 40
0.0
 40
1.0
 40
1.0
 40
1.0
 40
1.0
 10
148.3786872994
 20
219.3498879156
 42
1.0
 10
147.801063353
 20
219.3599703791
 42
0.8088336328
 10
147.3961397059
 20
219.7720236761
 42
0.8088336328
 10
147.3961397059
 20
220.3497356108
 42
1.0
 72
     1
 10
152.4551535728
 20
219.2787329322
 11
148.3786872994
 21
219.3498879156
 72
     1
 10
152.4551535728
 20
219.2787329322
 11
153.4001163624
 21
219.2787329322
 72
     4
 94
        3
 73
     1
 74
     0
 95
        8
 96
        4
 40
0.0
 40
0.0
 40
0.0
 40
0.0
 40
1.0
 40
1.0
 40
1.0
 40
1.0
 10
153.4001163624
 20
219.2787329322
 42
1.0
 10
153.984053776
 20
219.2787329322
 42
0.8056760909999999
 10
154.3977816884
 20
218.8666502736
 42
0.8056760909999999
 10
154.400108424
 20
218.2827174955
 42
1.0
 72
     1
 10
154.6432950546
 20
157.2510113562
 11
154.400108424
 21
218.2827174955
 72
     4
 94
        3
 73
     1
 74
     0
 95
        8
 96
        4
 40
0.0
 40
0.0
 40
0.0
 40
0.0
 40
1.0
 40
1.0
 40
1.0
 40
1.0
 10
154.9702516669
 20
155.9009935471
 42
1.0
 10
154.7561698122
 20
156.321152844
 42
0.9818887202999999
 10
154.6451739986
 20
156.7794592967
 42
0.9818887202999999
 10
154.6432950546
 20
157.2510113562
 42
1.0
 72
     1
 10
166.5929505969
 20
133.0901625247
 11
154.9702516669
 21
155.9009935471
 72
     4
 94
        3
 73
     1
 74
     0
 95
        8
 96
        4
 40
0.0
 40
0.0
 40
0.0
 40
0.0
 40
1.0
 40
1.0
 40
1.0
 40
1.0
 10
167.4316211648
 20
132.5455234896
 42
1.0
 10
167.0660973862
 20
132.5646797792
 42
0.9106836024999999
 10
166.7591226529
 20
132.7640315019
 42
0.9106836024999999
 10
166.5929505969
 20
133.0901625247
 42
1.0
 72
     1
 10
179.9484756621
 20
131.8895429418
 11
167.4316211648
 21
132.5455234896
 72
     4
 94
        3
 73
     1
 74
     0
 95
        8
 96
        4
 40
0.0
 40
0.0
 40
0.0
 40
0.0
 40
1.0
 40
1.0
 40
1.0
 40
1.0
 10
179.9484756621
 20
131.8895429418
 42
1.0
 10
180.5094562293
 20
131.8601431961
 42
0.8169162473
 10
180.8961397059
 20
131.4526638337
 42
0.8169162473
 10
180.8961397059
 20
130.8909134071
 42
1.0
 72
     1
 10
180.8961397059
 20
121.0669461459
 11
180.8961397059
 21
130.8909134071
 72
     4
 94
        3
 73
     1
 74
     0
 95
        8
 96
        4
 40
0.0
 40
0.0
 40
0.0
 40
0.0
 40
1.0
 40
1.0
 40
1.0
 40
1.0
 10
181.8786872994
 20
120.0670984507
 42
1.0
 10
181.301063353
 20
120.0771809142
 42
0.8088336328
 10
180.8961397059
 20
120.4892342112
 42
0.8088336328
 10
180.8961397059
 20
121.0669461459
 42
1.0
 72
     1
 10
187.4135921123
 20
119.9704863279
 11
181.8786872994
 21
120.0670984507
 72
     4
 94
        3
 73
     1
 74
     0
 95
        8
 96
        4
 40
0.0
 40
0.0
 40
0.0
 40
0.0
 40
1.0
 40
1.0
 40
1.0
 40
1.0
 10
187.4135921123
 20
119.9704863279
 42
1.0
 10
187.7795280092
 20
119.964098893
 42
0.9106982579
 10
188.0932523623
 20
119.7756130573
 42
0.9106982579
 10
188.2707167777
 20
119.4555251612
 42
1.0
 72
     4
 94
        3
 73
     1
 74
     0
 95
        8
 96
        4
 40
0.0
 40
0.0
 40
0.0
 40
0.0
 40
1.0
 40
1.0
 40
1.0
 40
1.0
 10
189.127841443
 20
118.9405639945
 42
1.0
 10
188.7619055461
 20
118.9469514293
 42
0.9106982579
 10
188.4481811931
 20
119.1354372651
 42
0.9106982579
 10
188.2707167777
 20
119.4555251612
 42
1.0
 72
     1
 10
193.9135921123
 20
118.8570284058
 11
189.127841443
 21
118.9405639945
 72
     4
 94
        3
 73
     1
 74
     0
 95
        8
 96
        4
 40
0.0
 40
0.0
 40
0.0
 40
0.0
 40
1.0
 40
1.0
 40
1.0
 40
1.0
 10
193.9135921123
 20
118.8570284058
 42
1.0
 10
194.4912160587
 20
118.8469459423
 42
0.8088336328
 10
194.8961397059
 20
118.4348926454
 42
0.8088336328
 10
194.8961397059
 20
117.8571807107
 42
1.0
 72
     1
 10
194.8961397059
 20
46.6304495901
 11
194.8961397059
 21
117.8571807107
 72
     4
 94
        3
 73
     1
 74
     0
 95
        8
 96
        4
 40
0.0
 40
0.0
 40
0.0
 40
0.0
 40
1.0
 40
1.0
 40
1.0
 40
1.0
 10
195.8438037496
 20
45.63182005529999
 42
1.0
 10
195.2828231824
 20
45.6612198011
 42
0.8169162473
 10
194.8961397059
 20
46.0686991635
 42
0.8169162473
 10
194.8961397059
 20
46.6304495901
 42
1.0
 72
     1
 10
199.9484756621
 20
45.41670331569999
 11
195.8438037496
 21
45.63182005529999
 72
     4
 94
        3
 73
     1
 74
     0
 95
        8
 96
        4
 40
0.0
 40
0.0
 40
0.0
 40
0.0
 40
1.0
 40
1.0
 40
1.0
 40
1.0
 10
199.9484756621
 20
45.41670331569999
 42
1.0
 10
200.5094562293
 20
45.38730357000001
 42
0.8169162473
 10
200.8961397059
 20
44.9798242076
 42
0.8169162473
 10
200.8961397059
 20
44.418073781
 42
1.0
 72
     1
 10
200.8961397059
 20
40.3670383477
 11
200.8961397059
 21
44.418073781
 72
     4
 94
        3
 73
     1
 74
     0
 95
        8
 96
        4
 40
0.0
 40
0.0
 40
0.0
 40
0.0
 40
1.0
 40
1.0
 40
1.0
 40
1.0
 10
200.8961397059
 20
40.3670383477
 42
1.0
 10
200.8961397059
 20
39.78125191010001
 42
0.8047378541
 10
200.4819261435
 20
39.3670383477
 42
0.8047378541
 10
199.8961397059
 20
39.3670383477
 42
1.0
 97
        0
 92
        1
 93
       58
 72
     1
 10
236.8961397059
 20
39.3670383477
 11
246.4134424428
 21
39.3670383477
 72
     4
 94
        3
 73
     1
 74
     0
 95
        8
 96
        4
 40
0.0
 40
0.0
 40
0.0
 40
0.0
 40
1.0
 40
1.0
 40
1.0
 40
1.0
 10
235.8961397059
 20
40.3670383477
 42
1.0
 10
235.8961397059
 20
39.78125191010001
 42
0.8047378541
 10
236.3103532683
 20
39.3670383477
 42
0.8047378541
 10
236.8961397059
 20
39.3670383477
 42
1.0
 72
     1
 10
235.8961397059
 20
40.3670383477
 11
235.8961397059
 21
44.418073781
 72
     4
 94
        3
 73
     1
 74
     0
 95
        8
 96
        4
 40
0.0
 40
0.0
 40
0.0
 40
0.0
 40
1.0
 40
1.0
 40
1.0
 40
1.0
 10
236.8438037496
 20
45.41670331569999
 42
1.0
 10
236.2828231824
 20
45.38730357000001
 42
0.8169162473
 10
235.8961397059
 20
44.9798242076
 42
0.8169162473
 10
235.8961397059
 20
44.418073781
 42
1.0
 72
     1
 10
236.8438037496
 20
45.41670331569999
 11
240.9484756621
 21
45.63182005529999
 72
     4
 94
        3
 73
     1
 74
     0
 95
        8
 96
        4
 40
0.0
 40
0.0
 40
0.0
 40
0.0
 40
1.0
 40
1.0
 40
1.0
 40
1.0
 10
240.9484756621
 20
45.63182005529999
 42
1.0
 10
241.5094562293
 20
45.6612198011
 42
0.8169162473
 10
241.8961397059
 20
46.0686991635
 42
0.8169162473
 10
241.8961397059
 20
46.6304495901
 42
1.0
 72
     1
 10
241.8961397059
 20
46.6304495901
 11
241.8961397059
 21
117.8571807107
 72
     4
 94
        3
 73
     1
 74
     0
 95
        8
 96
        4
 40
0.0
 40
0.0
 40
0.0
 40
0.0
 40
1.0
 40
1.0
 40
1.0
 40
1.0
 10
242.8786872994
 20
118.8570284058
 42
1.0
 10
242.301063353
 20
118.8469459423
 42
0.8088336328
 10
241.8961397059
 20
118.4348926454
 42
0.8088336328
 10
241.8961397059
 20
117.8571807107
 42
1.0
 72
     1
 10
242.8786872994
 20
118.8570284058
 11
247.6644379687
 21
118.9405639945
 72
     4
 94
        3
 73
     1
 74
     0
 95
        8
 96
        4
 40
0.0
 40
0.0
 40
0.0
 40
0.0
 40
1.0
 40
1.0
 40
1.0
 40
1.0
 10
247.6644379687
 20
118.9405639945
 42
1.0
 10
248.0303738656
 20
118.9469514293
 42
0.9106982579
 10
248.3440982187
 20
119.1354372651
 42
0.9106982579
 10
248.5215626341
 20
119.4555251612
 42
1.0
 72
     4
 94
        3
 73
     1
 74
     0
 95
        8
 96
        4
 40
0.0
 40
0.0
 40
0.0
 40
0.0
 40
1.0
 40
1.0
 40
1.0
 40
1.0
 10
249.3786872995
 20
119.9704863279
 42
1.0
 10
249.0127514025
 20
119.964098893
 42
0.9106982579
 10
248.6990270495
 20
119.7756130573
 42
0.9106982579
 10
248.5215626341
 20
119.4555251612
 42
1.0
 72
     1
 10
249.3786872994
 20
119.9704863279
 11
254.9135921123
 21
120.0670984507
 72
     4
 94
        3
 73
     1
 74
     0
 95
        8
 96
        4
 40
0.0
 40
0.0
 40
0.0
 40
0.0
 40
1.0
 40
1.0
 40
1.0
 40
1.0
 10
254.9135921123
 20
120.0670984507
 42
1.0
 10
255.4912160587
 20
120.0771809142
 42
0.8088336328
 10
255.8961397059
 20
120.4892342112
 42
0.8088336328
 10
255.8961397059
 20
121.0669461459
 42
1.0
 72
     1
 10
255.8961397059
 20
121.0669461459
 11
255.8961397059
 21
130.8909134071
 72
     4
 94
        3
 73
     1
 74
     0
 95
        8
 96
        4
 40
0.0
 40
0.0
 40
0.0
 40
0.0
 40
1.0
 40
1.0
 40
1.0
 40
1.0
 10
256.8438037496
 20
131.8895429418
 42
1.0
 10
256.2828231825
 20
131.8601431961
 42
0.8169162473
 10
255.8961397059
 20
131.4526638337
 42
0.8169162473
 10
255.8961397059
 20
130.8909134071
 42
1.0
 72
     1
 10
256.8438037496
 20
131.8895429418
 11
269.3606582469
 21
132.5455234896
 72
     4
 94
        3
 73
     1
 74
     0
 95
        8
 96
        4
 40
0.0
 40
0.0
 40
0.0
 40
0.0
 40
1.0
 40
1.0
 40
1.0
 40
1.0
 10
269.3606582469
 20
132.5455234896
 42
1.0
 10
269.7261820256
 20
132.5646797792
 42
0.9106836024999999
 10
270.0331567589
 20
132.7640315019
 42
0.9106836024999999
 10
270.1993288149
 20
133.0901625247
 42
1.0
 72
     1
 10
270.1993288149
 20
133.0901625247
 11
281.8220277449
 21
155.9009935471
 72
     4
 94
        3
 73
     1
 74
     0
 95
        8
 96
        4
 40
0.0
 40
0.0
 40
0.0
 40
0.0
 40
1.0
 40
1.0
 40
1.0
 40
1.0
 10
281.8220277449
 20
155.9009935471
 42
1.0
 10
282.0361095995
 20
156.321152844
 42
0.9818887202999999
 10
282.1471054132
 20
156.7794592967
 42
0.9818887202999999
 10
282.1489843571
 20
157.2510113562
 42
1.0
 72
     1
 10
282.1489843571
 20
157.2510113562
 11
282.3921709878
 21
218.2827174955
 72
     4
 94
        3
 73
     1
 74
     0
 95
        8
 96
        4
 40
0.0
 40
0.0
 40
0.0
 40
0.0
 40
1.0
 40
1.0
 40
1.0
 40
1.0
 10
283.3921630494
 20
219.2787329322
 42
1.0
 10
282.8082256358
 20
219.2787329322
 42
0.8056760909999999
 10
282.3944977234
 20
218.8666502736
 42
0.8056760909999999
 10
282.3921709878
 20
218.2827174955
 42
1.0
 72
     1
 10
283.3921630494
 20
219.2787329322
 11
284.3371258389
 21
219.2787329322
 72
     1
 10
284.3371258389
 20
219.2787329322
 11
288.4135921123
 21
219.3498879156
 72
     4
 94
        3
 73
     1
 74
     0
 95
        8
 96
        4
 40
0.0
 40
0.0
 40
0.0
 40
0.0
 40
1.0
 40
1.0
 40
1.0
 40
1.0
 10
288.4135921123
 20
219.3498879156
 42
1.0
 10
288.9912160587
 20
219.3599703791
 42
0.8088336328
 10
289.3961397059
 20
219.7720236761
 42
0.8088336328
 10
289.3961397059
 20
220.3497356108
 42
1.0
 72
     1
 10
289.3961397059
 20
220.3497356108
 11
289.3961397059
 21
229.3843410846
 72
     4
 94
        3
 73
     1
 74
     0
 95
        8
 96
        4
 40
0.0
 40
0.0
 40
0.0
 40
0.0
 40
1.0
 40
1.0
 40
1.0
 40
1.0
 10
289.3961397059
 20
229.3843410846
 42
1.0
 10
289.3961397059
 20
229.9620530193
 42
0.8088336328
 10
288.9912160587
 20
230.3741063162
 42
0.8088336328
 10
288.4135921123
 20
230.3841887797
 42
1.0
 72
     1
 10
288.4135921123
 20
230.3841887797
 11
283.3786872994
 21
230.4720733701
 72
     4
 94
        3
 73
     1
 74
     0
 95
        8
 96
        4
 40
0.0
 40
0.0
 40
0.0
 40
0.0
 40
1.0
 40
1.0
 40
1.0
 40
1.0
 10
282.3961397059
 20
231.4719210653
 42
1.0
 10
282.3961397059
 20
230.8942091306
 42
0.8088336328
 10
282.801063353
 20
230.4821558336
 42
0.8088336328
 10
283.3786872994
 20
230.4720733701
 42
1.0
 72
     1
 10
282.3961397059
 20
231.4719210653
 11
282.3961397059
 21
234.8670383477
 72
     4
 94
        3
 73
     1
 74
     0
 95
        8
 96
        4
 40
0.0
 40
0.0
 40
0.0
 40
0.0
 40
1.0
 40
1.0
 40
1.0
 40
1.0
 10
283.3961397059
 20
235.8670383477
 42
1.0
 10
282.8103532683
 20
235.8670383477
 42
0.8047378541
 10
282.3961397059
 20
235.4528247853
 42
0.8047378541
 10
282.3961397059
 20
234.8670383477
 42
1.0
 72
     1
 10
396.4982105725
 20
235.8670383477
 11
283.3961397059
 21
235.8670383477
 72
     4
 94
        3
 73
     1
 74
     0
 95
        8
 96
        4
 40
0.0
 40
0.0
 40
0.0
 40
0.0
 40
1.0
 40
1.0
 40
1.0
 40
1.0
 10
398.495469642
 20
233.9717102602
 42
1.0
 10
398.4366701505
 20
235.0936713946
 42
0.8169162473
 10
397.6217114257
 20
235.8670383477
 42
0.8169162473
 10
396.4982105725
 20
235.8670383477
 42
1.0
 72
     1
 10
398.6057708230001
 20
231.8670383477
 11
398.495469642
 21
233.9717102602
 72
     1
 10
398.495469642
 20
229.7623664352
 11
398.6057708230001
 21
231.8670383477
 72
     4
 94
        3
 73
     1
 74
     0
 95
        8
 96
        4
 40
0.0
 40
0.0
 40
0.0
 40
0.0
 40
1.0
 40
1.0
 40
1.0
 40
1.0
 10
396.4982105725
 20
227.8670383477
 42
1.0
 10
397.6217114257
 20
227.8670383477
 42
0.8169162473
 10
398.4366701505
 20
228.6404053008
 42
0.8169162473
 10
398.495469642
 20
229.7623664352
 42
1.0
 72
     1
 10
297.5481510996
 20
227.8670383477
 11
396.4982105725
 21
227.8670383477
 72
     4
 94
        3
 73
     1
 74
     0
 95
        8
 96
        4
 40
0.0
 40
0.0
 40
0.0
 40
0.0
 40
1.0
 40
1.0
 40
1.0
 40
1.0
 10
297.5481510996
 20
227.8670383477
 42
1.0
 10
296.4087503021
 20
227.8670383477
 42
0.8128932001999999
 10
295.5891339599
 20
227.0755440464
 42
0.8128932001999999
 10
295.5493694455
 20
225.9368373411
 42
1.0
 72
     1
 10
295.1945752188
 20
215.7768600002
 11
295.5493694455
 21
225.9368373411
 72
     4
 94
        3
 73
     1
 74
     0
 95
        8
 96
        4
 40
0.0
 40
0.0
 40
0.0
 40
0.0
 40
1.0
 40
1.0
 40
1.0
 40
1.0
 10
293.4278867977
 20
213.8601714575
 42
1.0
 10
294.4565286178
 20
213.9803538403
 42
0.8389989303
 10
295.1584319446
 20
214.7418520471
 42
0.8389989303
 10
295.1945752188
 20
215.7768600002
 42
1.0
 72
     4
 94
        3
 73
     1
 74
     0
 95
        8
 96
        4
 40
0.0
 40
0.0
 40
0.0
 40
0.0
 40
1.0
 40
1.0
 40
1.0
 40
1.0
 10
290.7778541661
 20
210.9851386434
 42
1.0
 10
290.8320690773
 20
212.5376505729999
 42
0.8389989303
 10
291.8849240676
 20
213.6798978832
 42
0.8389989303
 10
293.4278867977
 20
213.8601714575
 42
1.0
 72
     1
 10
290.7778541661
 20
210.9851386434
 11
290.4908374812
 21
202.7660561596
 72
     4
 94
        3
 73
     1
 74
     0
 95
        8
 96
        4
 40
0.0
 40
0.0
 40
0.0
 40
0.0
 40
1.0
 40
1.0
 40
1.0
 40
1.0
 10
290.4908370986
 20
202.7660472509
 42
1.0
 10
290.4661943237
 20
202.0603705835
 42
0.9853167245999999
 10
290.2948043018
 20
201.3753798641
 42
0.9853167245999999
 10
289.9842167336
 20
200.7412488148
 42
1.0
 72
     1
 10
289.9842168011
 20
200.741248783
 11
289.8455495757
 21
200.4581305188
 72
     4
 94
        3
 73
     1
 74
     0
 95
        8
 96
        4
 40
0.0
 40
0.0
 40
0.0
 40
0.0
 40
1.0
 40
1.0
 40
1.0
 40
1.0
 10
289.8455495174
 20
200.4581305487
 42
1.0
 10
289.534959682
 20
199.823997494
 42
0.9853166104999999
 10
289.3635684236
 20
199.1390041996
 42
0.9853166104999999
 10
289.338925556
 20
198.4333247355
 42
1.0
 72
     1
 10
289.3389259335
 20
198.4333336657
 11
287.8819628225
 21
156.7113689961
 72
     4
 94
        3
 73
     1
 74
     0
 95
        8
 96
        4
 40
0.0
 40
0.0
 40
0.0
 40
0.0
 40
1.0
 40
1.0
 40
1.0
 40
1.0
 10
287.8819628225
 20
156.7113689961
 42
1.0
 10
287.8563797634
 20
155.9787660367
 42
0.9841973380999998
 10
287.6728388233
 20
155.26906588
 42
0.9841973380999998
 10
287.3400413083
 20
154.615913981
 42
1.0
 72
     1
 10
287.3400413083
 20
154.615913981
 11
274.1824743176
 21
128.792734778
 72
     4
 94
        3
 73
     1
 74
     0
 95
        8
 96
        4
 40
0.0
 40
0.0
 40
0.0
 40
0.0
 40
1.0
 40
1.0
 40
1.0
 40
1.0
 10
274.1824743176
 20
128.792734778
 42
1.0
 10
273.6839581496
 20
127.8143417096
 42
0.9106836024999999
 10
272.7630339498
 20
127.2162865415
 42
0.9106836024999999
 10
271.6664626137
 20
127.158817673
 42
1.0
 72
     1
 10
271.6664626137
 20
127.158817673
 11
265.8657596902
 21
126.8548157145
 72
     4
 94
        3
 73
     1
 74
     0
 95
        8
 96
        4
 40
0.0
 40
0.0
 40
0.0
 40
0.0
 40
1.0
 40
1.0
 40
1.0
 40
1.0
 10
263.0519633527
 20
124.2764464131
 42
1.0
 10
263.2608103179
 20
125.7624697858
 42
0.8477497223
 10
264.3671888727
 20
126.7762789458
 42
0.8477497223
 10
265.8657596902
 20
126.8548157145
 42
1.0
 72
     1
 10
262.3296225193
 20
119.136724318
 11
263.0519633527
 21
124.2764464131
 72
     4
 94
        3
 73
     1
 74
     0
 95
        8
 96
        4
 40
0.0
 40
0.0
 40
0.0
 40
0.0
 40
1.0
 40
1.0
 40
1.0
 40
1.0
 10
261.1642633826
 20
117.1583370907
 42
1.0
 10
261.8081898621
 20
117.6435704973
 42
0.9492530217
 10
262.2174095714
 20
118.3382877055
 42
0.9492530217
 10
262.3296225193
 20
119.136724318
 42
1.0
 72
     1
 10
257.6457789898
 20
114.5069689263
 11
261.1642633826
 21
117.1583370907
 72
     4
 94
        3
 73
     1
 74
     0
 95
        8
 96
        4
 40
0.0
 40
0.0
 40
0.0
 40
0.0
 40
1.0
 40
1.0
 40
1.0
 40
1.0
 10
255.9450324104
 20
113.9047029754
 42
1.0
 10
256.5652135623
 20
113.9263601784
 42
0.9691446337999998
 10
257.1501783928
 20
114.1335070892
 42
0.9691446337999998
 10
257.6457789898
 20
114.5069689263
 42
1.0
 72
     1
 10
250.5895518781
 20
113.7176854742
 11
255.9450324104
 21
113.9047029754
 72
     4
 94
        3
 73
     1
 74
     0
 95
        8
 96
        4
 40
0.0
 40
0.0
 40
0.0
 40
0.0
 40
1.0
 40
1.0
 40
1.0
 40
1.0
 10
250.5895518781
 20
113.7176854742
 42
1.0
 10
249.4667354311999
 20
113.6784758599
 42
0.8169162473
 10
248.6792632747
 20
112.8771383716
 42
0.8169162473
 10
248.6596554812
 20
111.753808633
 42
1.0
 72
     1
 10
247.4132901379
 20
40.34958594119999
 11
248.6596554812
 21
111.7538086329999
 72
     4
 94
        3
 73
     1
 74
     0
 95
        8
 96
        4
 40
0.0
 40
0.0
 40
0.0
 40
0.0
 40
1.0
 40
1.0
 40
1.0
 40
1.0
 10
246.4134424428
 20
39.3670383477
 42
1.0
 10
246.9911543775
 20
39.3670383477
 42
0.8088336328
 10
247.4032076744
 20
39.7719619948
 42
0.8088336328
 10
247.4132901379
 20
40.34958594119999
 42
1.0
 97
        0
 75
     0
 76
     0
 52
45.0
 41
5.0
 77
     0
 78
     1
 53
45.0
 43
0.0
 44
0.0
 45
-3.535533905899999
 46
3.535533905899999
 79
     0
 98
        1
 10
0.0
 20
0.0
  0
DIMENSION
  5
248
330
213
100
AcDbEntity
  8
ZEICHNUNGSBEMASSUNGEN
  6
Continuous
 62
     7
100
AcDbDimension
  2
*D1
 10
398.6057708230001
 20
280.8237043224874
 30
0.0
 11
217.4605529652644
 21
280.8237043224874
 31
0.0
 70
   160
  1
%%c<>
 71
     2
 42
360.4192622342001
  3
DIMSTYLE_2
100
AcDbAlignedDimension
 13
38.1865085888
 23
233.3670383477
 33
0.0
 14
398.6057708230001
 24
233.3670383477
 34
0.0
100
AcDbRotatedDimension
1001
ACAD_DSTYLE_DIMINSPECT
1070
   396
1000
100%
1070
   395
1000

1070
   394
1070
    33
1070
   393
1070
     0
1001
ACAD
1000
DSTYLE
1002
{
1070
    41
1040
5.0
1070
   140
1040
7.0
1070
   147
1040
1.5
1070
   178
1070
   256
1070
   271
1070
     0
1002
}
  0
DIMENSION
  5
249
330
213
100
AcDbEntity
  8
ZEICHNUNGSBEMASSUNGEN
  6
Continuous
 62
     7
100
AcDbDimension
  2
*D2
 10
295.6167735499
 20
268.86825577
 30
0.0
 11
215.4794730392
 21
268.86825577
 31
0.0
 70
   160
  1
%%c155
 71
     2
 42
154.4412676881
  3
DIMSTYLE_2
100
AcDbAlignedDimension
 13
141.1755058618
 23
229.3670383477
 33
0.0
 14
295.6167735499
 24
229.3670383477
 34
0.0
100
AcDbRotatedDimension
1001
ACAD
1000
DSTYLE
1002
{
1070
    41
1040
5.0
1070
   140
1040
7.0
1070
   147
1040
1.5
1070
   178
1070
   256
1002
}
  0
DIMENSION
  5
24A
330
213
100
AcDbEntity
  8
ZEICHNUNGSBEMASSUNGEN
  6
Continuous
 62
     7
100
AcDbDimension
  2
*D3
 10
28.2499502855
 20
39.36703834770005
 30
0.0
 11
28.2499502855
 21
132.2530583661
 31
0.0
 70
   160
 71
     2
 42
196.4999999999999
  3
DIMSTYLE_2
100
AcDbAlignedDimension
 13
38.7940688393
 23
235.8670383477
 33
0.0
 14
188.878836969
 24
39.3670383477
 34
0.0
 50
270.0
100
AcDbRotatedDimension
1001
ACAD_DSTYLE_DIMINSPECT
1070
   396
1000
100%
1070
   395
1000

1070
   394
1070
    33
1070
   393
1070
     0
1001
ACAD
1000
DSTYLE
1002
{
1070
    41
1040
5.0
1070
   140
1040
7.0
1070
   147
1040
1.5
1070
   178
1070
   256
1070
   271
1070
     0
1002
}
  0
DIMENSION
  5
24B
330
213
100
AcDbEntity
  8
ZEICHNUNGSBEMASSUNGEN
  6
Continuous
 62
     7
100
AcDbDimension
  2
*D4
 10
407.2129732674
 20
113.6514487025999
 30
0.0
 11
407.2129732674
 21
74.0507527003
 31
0.0
 70
   160
 71
     2
 42
74.2844103549
  3
DIMSTYLE_2
100
AcDbAlignedDimension
 13
247.9134424428
 23
39.3670383477
 33
0.0
 14
250.1927789118
 24
113.6514487026
 34
0.0
 50
90.0
100
AcDbRotatedDimension
1001
ACAD_DSTYLE_DIMINSPECT
1070
   396
1000
100%
1070
   395
1000

1070
   394
1070
    33
1070
   393
1070
     0
1001
ACAD
1000
DSTYLE
1002
{
1070
    41
1040
5.0
1070
   140
1040
7.0
1070
   147
1040
1.5
1070
   178
1070
   256
1070
   271
1070
     0
1002
}
  0
LINE
  5
24F
330
213
100
AcDbEntity
  8
0
  6
Continuous
 62
     7
100
AcDbLine
 10
38.1865085888
 20
231.8670383477
 30
0.0
 11
38.2968097698
 21
233.9717102602
 31
0.0
  0
LINE
  5
250
330
213
100
AcDbEntity
  8
0
  6
Continuous
 62
     7
100
AcDbLine
 10
38.2968097698
 20
229.7623664352
 30
0.0
 11
38.1865085888
 21
231.8670383477
 31
0.0
  0
LINE
  5
251
330
213
100
AcDbEntity
  8
0
  6
Continuous
 62
     7
100
AcDbLine
 10
236.8438037496
 20
45.41670331569999
 30
0.0
 11
240.9484756621
 21
45.63182005529999
 31
0.0
  0
LINE
  5
252
330
213
100
AcDbEntity
  8
0
  6
Continuous
 62
     7
100
AcDbLine
 10
190.378836969
 20
39.3670383477
 30
0.0
 11
246.4134424428
 21
39.3670383477
 31
0.0
  0
LINE
  5
253
330
213
100
AcDbEntity
  8
0
  6
Continuous
 62
     9
100
AcDbLine
 10
200.8961397059
 20
40.3670383477
 30
0.0
 11
235.8961397059
 21
40.3670383477
 31
0.0
  0
LINE
  5
254
330
213
100
AcDbEntity
  8
0
  6
Continuous
 62
     9
100
AcDbLine
 10
200.8961397059
 20
44.418073781
 30
0.0
 11
235.8961397059
 21
44.418073781
 31
0.0
  0
LINE
  5
255
330
213
100
AcDbEntity
  8
0
  6
Continuous
 62
     9
100
AcDbLine
 10
199.9484756621
 20
45.41670331569999
 30
0.0
 11
236.8438037496
 21
45.41670331569999
 31
0.0
  0
LINE
  5
256
330
213
100
AcDbEntity
  8
0
  6
Continuous
 62
     9
100
AcDbLine
 10
240.9484756621
 20
45.63182005529999
 30
0.0
 11
195.8438037496
 21
45.63182005529999
 31
0.0
  0
LINE
  5
257
330
213
100
AcDbEntity
  8
0
  6
Continuous
 62
     9
100
AcDbLine
 10
241.8961397059
 20
46.6304495901
 30
0.0
 11
194.8961397059
 21
46.6304495901
 31
0.0
  0
LINE
  5
258
330
213
100
AcDbEntity
  8
0
  6
Continuous
 62
     7
100
AcDbLine
 10
199.9484756621
 20
45.41670331569999
 30
0.0
 11
195.8438037496
 21
45.63182005529999
 31
0.0
  0
LINE
  5
259
330
213
100
AcDbEntity
  8
0
  6
Continuous
 62
     7
100
AcDbLine
 10
141.597704193
 20
215.7768600002
 30
0.0
 11
141.2429099662
 21
225.9368373411
 31
0.0
  0
LINE
  5
25A
330
213
100
AcDbEntity
  8
0
  6
Continuous
 62
     7
100
AcDbLine
 10
146.0144252457
 20
210.9851386434
 30
0.0
 11
146.3014422191
 21
202.7660478946
 31
0.0
  0
LINE
  5
25B
330
213
100
AcDbEntity
  8
0
  6
Continuous
 62
     7
100
AcDbLine
 10
147.4533537675
 20
198.433325383
 30
0.0
 11
148.9103165893
 21
156.7113689961
 31
0.0
  0
LINE
  5
25C
330
213
100
AcDbEntity
  8
0
  6
Continuous
 62
     7
100
AcDbLine
 10
147.3961397059
 20
220.3497356108
 30
0.0
 11
147.3961397059
 21
229.3843410846
 31
0.0
  0
LINE
  5
25D
330
213
100
AcDbEntity
  8
0
  6
Continuous
 62
     7
100
AcDbLine
 10
154.6432950546
 20
157.2510113562
 30
0.0
 11
154.400108424
 21
218.2827174955
 31
0.0
  0
LINE
  5
25E
330
213
100
AcDbEntity
  8
0
  6
Continuous
 62
     7
100
AcDbLine
 10
154.3961397059
 20
231.4719210653
 30
0.0
 11
154.3961397059
 21
234.8670383477
 31
0.0
  0
LINE
  5
25F
330
213
100
AcDbEntity
  8
0
  6
Continuous
 62
     7
100
AcDbLine
 10
149.4522381034
 20
154.615913981
 30
0.0
 11
162.6098050942
 21
128.792734778
 31
0.0
  0
LINE
  5
260
330
213
100
AcDbEntity
  8
0
  6
Continuous
 62
     7
100
AcDbLine
 10
179.146500422
 20
114.5069689263
 30
0.0
 11
175.6280160292
 21
117.1583370907
 31
0.0
  0
LINE
  5
261
330
213
100
AcDbEntity
  8
0
  6
Continuous
 62
     7
100
AcDbLine
 10
166.5929505969
 20
133.0901625247
 30
0.0
 11
154.9702516669
 21
155.9009935471
 31
0.0
  0
LINE
  5
262
330
213
100
AcDbEntity
  8
0
  6
Continuous
 62
     7
100
AcDbLine
 10
146.9467322535
 20
200.4581299325
 30
0.0
 11
146.8080650645999
 21
200.7412480814
 31
0.0
  0
LINE
  5
263
330
213
100
AcDbEntity
  8
0
  6
Continuous
 62
     7
100
AcDbLine
 10
174.4626568924
 20
119.136724318
 30
0.0
 11
173.740316059
 21
124.2764464131
 31
0.0
  0
LINE
  5
264
330
213
100
AcDbEntity
  8
0
  6
Continuous
 62
     7
100
AcDbLine
 10
189.3789892738
 20
40.34958594119999
 30
0.0
 11
188.1326239306
 21
111.753808633
 31
0.0
  0
LINE
  5
265
330
213
100
AcDbEntity
  8
0
  6
Continuous
 62
     7
100
AcDbLine
 10
180.8961397059
 20
121.0669461459
 30
0.0
 11
180.8961397059
 21
130.8909134071
 31
0.0
  0
LINE
  5
266
330
213
100
AcDbEntity
  8
0
  6
Continuous
 62
     7
100
AcDbLine
 10
250.5895518781
 20
113.7176854742
 30
0.0
 11
255.9450324104
 21
113.9047029754
 31
0.0
  0
LINE
  5
267
330
213
100
AcDbEntity
  8
0
  6
Continuous
 62
     7
100
AcDbLine
 10
242.8786872994
 20
118.8570284058
 30
0.0
 11
247.6644379687
 21
118.9405639945
 31
0.0
  0
LINE
  5
268
330
213
100
AcDbEntity
  8
0
  6
Continuous
 62
     7
100
AcDbLine
 10
249.3786872994
 20
119.9704863279
 30
0.0
 11
254.9135921123
 21
120.0670984507
 31
0.0
  0
LINE
  5
269
330
213
100
AcDbEntity
  8
0
  6
Continuous
 62
     9
100
AcDbLine
 10
241.8961397059
 20
117.8571807107
 30
0.0
 11
194.8961397059
 21
117.8571807107
 31
0.0
  0
LINE
  5
26A
330
213
100
AcDbEntity
  8
0
  6
Continuous
 62
     9
100
AcDbLine
 10
193.9135921123
 20
118.8570284058
 30
0.0
 11
242.8786872994
 21
118.8570284058
 31
0.0
  0
LINE
  5
26B
330
213
100
AcDbEntity
  8
0
  6
Continuous
 62
     9
100
AcDbLine
 10
193.9135921123
 20
118.9405639945
 30
0.0
 11
247.6644379687
 21
118.9405639945
 31
0.0
  0
LINE
  5
26C
330
213
100
AcDbEntity
  8
0
  6
Continuous
 62
     9
100
AcDbLine
 10
188.2707167777
 20
119.4555251612
 30
0.0
 11
248.5215626341
 21
119.4555251612
 31
0.0
  0
LINE
  5
26D
330
213
100
AcDbEntity
  8
0
  6
Continuous
 62
     9
100
AcDbLine
 10
187.4135921123
 20
119.9704863279
 30
0.0
 11
249.3786872994
 21
119.9704863279
 31
0.0
  0
LINE
  5
26E
330
213
100
AcDbEntity
  8
0
  6
Continuous
 62
     9
100
AcDbLine
 10
249.3786872994
 20
120.0670984507
 30
0.0
 11
181.8786872994
 21
120.0670984507
 31
0.0
  0
LINE
  5
26F
330
213
100
AcDbEntity
  8
0
  6
Continuous
 62
     9
100
AcDbLine
 10
255.8961397059
 20
121.0669461459
 30
0.0
 11
180.8961397059
 21
121.0669461459
 31
0.0
  0
LINE
  5
270
330
213
100
AcDbEntity
  8
0
  6
Continuous
 62
     7
100
AcDbLine
 10
193.9135921123
 20
118.8570284058
 30
0.0
 11
189.127841443
 21
118.9405639945
 31
0.0
  0
LINE
  5
271
330
213
100
AcDbEntity
  8
0
  6
Continuous
 62
     7
100
AcDbLine
 10
187.4135921123
 20
119.9704863279
 30
0.0
 11
181.8786872994
 21
120.0670984507
 31
0.0
  0
LINE
  5
272
330
213
100
AcDbEntity
  8
0
  6
Continuous
 62
     7
100
AcDbLine
 10
186.2027275337
 20
113.7176854742
 30
0.0
 11
180.8472470013
 21
113.9047029754
 31
0.0
  0
LINE
  5
273
330
213
100
AcDbEntity
  8
RUNDUNGEN
  6
Continuous
 62
     9
100
AcDbLine
 10
200.9133042769
 20
160.3189040761
 30
0.0
 11
200.9164662906
 21
157.2510113562
 31
0.0
  0
LINE
  5
274
330
213
100
AcDbEntity
  8
RUNDUNGEN
  6
Continuous
 62
     9
100
AcDbLine
 10
202.1534043674
 20
160.3228980118
 30
0.0
 11
202.1565686615
 21
157.2549959196
 31
0.0
  0
LINE
  5
275
330
213
100
AcDbEntity
  8
0
  6
Continuous
 62
     7
100
AcDbLine
 10
194.8961397059
 20
46.6304495901
 30
0.0
 11
194.8961397059
 21
117.8571807107
 31
0.0
  0
LINE
  5
276
330
213
100
AcDbEntity
  8
0
  6
Continuous
 62
     7
100
AcDbLine
 10
200.8961397059
 20
40.3670383477
 30
0.0
 11
200.8961397059
 21
44.418073781
 31
0.0
  0
LINE
  5
277
330
213
100
AcDbEntity
  8
RUNDUNGEN
  6
Continuous
 62
     9
100
AcDbLine
 10
203.465901687
 20
231.4719210653
 30
0.0
 11
203.465901687
 21
234.8670383477
 31
0.0
  0
LINE
  5
278
330
213
100
AcDbEntity
  8
RUNDUNGEN
  6
Continuous
 62
     9
100
AcDbLine
 10
204.1985425442
 20
231.4719219632
 30
0.0
 11
204.1985425442
 21
234.8670383477
 31
0.0
  0
LINE
  5
279
330
213
100
AcDbEntity
  8
RUNDUNGEN
  6
Continuous
 62
     9
100
AcDbLine
 10
205.9014087734
 20
231.3697709539
 30
0.0
 11
205.9014087734
 21
234.8670383477
 31
0.0
  0
LINE
  5
27A
330
213
100
AcDbEntity
  8
RUNDUNGEN
  6
Continuous
 62
     9
100
AcDbLine
 10
203.4608400892
 20
214.8465029714
 30
0.0
 11
203.4647610735
 21
218.2827174955
 31
0.0
  0
LINE
  5
27B
330
213
100
AcDbEntity
  8
0
  6
Continuous
 62
     7
100
AcDbLine
 10
271.6664626137
 20
127.158817673
 30
0.0
 11
265.8657596902
 21
126.8548157145
 31
0.0
  0
LINE
  5
27C
330
213
100
AcDbEntity
  8
0
  6
Continuous
 62
     7
100
AcDbLine
 10
256.8438037496
 20
131.8895429418
 30
0.0
 11
269.3606582469
 21
132.5455234896
 31
0.0
  0
LINE
  5
27D
330
213
100
AcDbEntity
  8
0
  6
Continuous
 62
     9
100
AcDbLine
 10
180.8961397059
 20
130.8909134071
 30
0.0
 11
255.8961397059
 21
130.8909134071
 31
0.0
  0
LINE
  5
27E
330
213
100
AcDbEntity
  8
0
  6
Continuous
 62
     9
100
AcDbLine
 10
179.9484756621
 20
131.8895429418
 30
0.0
 11
256.8438037496
 21
131.8895429418
 31
0.0
  0
LINE
  5
27F
330
213
100
AcDbEntity
  8
RUNDUNGEN
  6
Continuous
 62
     9
100
AcDbLine
 10
229.4912801553
 20
132.3096027534
 30
0.0
 11
207.3009992564
 21
132.3096027534
 31
0.0
  0
LINE
  5
280
330
213
100
AcDbEntity
  8
0
  6
Continuous
 62
     9
100
AcDbLine
 10
269.3606582469
 20
132.5455234896
 30
0.0
 11
232.5511018177
 21
132.5455234899
 31
0.0
  0
LINE
  5
281
330
213
100
AcDbEntity
  8
0
  6
Continuous
 62
     9
100
AcDbLine
 10
204.2411775941
 20
132.5455234899
 30
0.0
 11
167.4316211648
 21
132.5455234896
 31
0.0
  0
LINE
  5
282
330
213
100
AcDbEntity
  8
0
  6
Continuous
 62
     9
100
AcDbLine
 10
166.5929505969
 20
133.0901625247
 30
0.0
 11
204.0082439681
 21
133.090162524
 31
0.0
  0
LINE
  5
283
330
213
100
AcDbEntity
  8
0
  6
Continuous
 62
     9
100
AcDbLine
 10
232.7840354437
 20
133.090162524
 30
0.0
 11
270.1993288149
 21
133.0901625247
 31
0.0
  0
LINE
  5
284
330
213
100
AcDbEntity
  8
RUNDUNGEN
  6
Continuous
 62
     9
100
AcDbLine
 10
229.713240537
 20
133.1174232926
 30
0.0
 11
207.0790350071
 21
133.1174232926
 31
0.0
  0
LINE
  5
285
330
213
100
AcDbEntity
  8
0
  6
Continuous
 62
     7
100
AcDbLine
 10
165.125816798
 20
127.158817673
 30
0.0
 11
170.9265197215
 21
126.8548157145
 31
0.0
  0
LINE
  5
286
330
213
100
AcDbEntity
  8
0
  6
Continuous
 62
     7
100
AcDbLine
 10
179.9484756621
 20
131.8895429418
 30
0.0
 11
167.4316211648
 21
132.5455234896
 31
0.0
  0
LINE
  5
287
330
213
100
AcDbEntity
  8
RUNDUNGEN
  6
Continuous
 62
     9
100
AcDbLine
 10
206.6227176626
 20
155.3497356108
 30
0.0
 11
206.6227176626
 21
159.418073781
 31
0.0
  0
LINE
  5
288
330
213
100
AcDbEntity
  8
RUNDUNGEN
  6
Continuous
 62
     9
100
AcDbLine
 10
206.7026373839
 20
231.369771859
 30
0.0
 11
206.7026373839
 21
234.8670383477
 31
0.0
  0
LINE
  5
289
330
213
100
AcDbEntity
  8
RUNDUNGEN
  6
Continuous
 62
     9
100
AcDbLine
 10
207.8261708783
 20
155.3497356108
 30
0.0
 11
207.8261708783
 21
159.418073781
 31
0.0
  0
LINE
  5
28A
330
213
100
AcDbEntity
  8
0
  6
Continuous
 62
     7
100
AcDbLine
 10
210.3961397059
 20
235.8670383477
 30
0.0
 11
210.3961397059
 21
237.4670383477
 31
0.0
  0
LINE
  5
28B
330
213
100
AcDbEntity
  8
0
  6
Continuous
 62
     7
100
AcDbLine
 10
210.3961397059
 20
238.24325577
 30
0.0
 11
210.3961397059
 21
248.24325577
 31
0.0
  0
LINE
  5
28C
330
213
100
AcDbEntity
  8
0
  6
Continuous
 62
     7
100
AcDbLine
 10
211.3961397059
 20
248.24325577
 30
0.0
 11
211.3961397059
 21
256.24325577
 31
0.0
  0
LINE
  5
28D
330
213
100
AcDbEntity
  8
0
  6
Continuous
 62
     7
100
AcDbLine
 10
211.8961397059
 20
238.24325577
 30
0.0
 11
211.8961397059
 21
237.6170383477
 31
0.0
  0
LINE
  5
28E
330
213
100
AcDbEntity
  8
0
  6
Continuous
 62
     7
100
AcDbLine
 10
212.5961397059
 20
237.6170383477
 30
0.0
 11
212.5961397059
 21
237.4670383477
 31
0.0
  0
LINE
  5
28F
330
213
100
AcDbEntity
  8
0
  6
CENTER
100
AcDbLine
 10
218.3961397059
 20
36.3670383477
 30
0.0
 11
218.3961397059
 21
261.1439698897001
 31
0.0
  0
LINE
  5
290
330
213
100
AcDbEntity
  8
RUNDUNGEN
  6
Continuous
 62
     9
100
AcDbLine
 10
233.3275183383
 20
218.2827174955
 30
0.0
 11
233.3314393225
 21
214.8465029711
 31
0.0
  0
LINE
  5
291
330
213
100
AcDbEntity
  8
0
  6
Continuous
 62
     7
100
AcDbLine
 10
224.1961397059
 20
237.6170383477
 30
0.0
 11
224.1961397059
 21
237.4670383477
 31
0.0
  0
LINE
  5
292
330
213
100
AcDbEntity
  8
0
  6
Continuous
 62
     7
100
AcDbLine
 10
224.8961397059
 20
237.6170383477
 30
0.0
 11
224.8961397059
 21
238.24325577
 31
0.0
  0
LINE
  5
293
330
213
100
AcDbEntity
  8
0
  6
Continuous
 62
     7
100
AcDbLine
 10
225.3961397059
 20
248.24325577
 30
0.0
 11
225.3961397059
 21
256.24325577
 31
0.0
  0
LINE
  5
294
330
213
100
AcDbEntity
  8
0
  6
Continuous
 62
     7
100
AcDbLine
 10
226.3961397059
 20
235.8670383477
 30
0.0
 11
226.3961397059
 21
237.4670383477
 31
0.0
  0
LINE
  5
295
330
213
100
AcDbEntity
  8
0
  6
Continuous
 62
     7
100
AcDbLine
 10
226.3961397059
 20
238.24325577
 30
0.0
 11
226.3961397059
 21
248.24325577
 31
0.0
  0
LINE
  5
296
330
213
100
AcDbEntity
  8
RUNDUNGEN
  6
Continuous
 62
     9
100
AcDbLine
 10
228.9661085335
 20
159.418073781
 30
0.0
 11
228.9661085335
 21
155.3497356108
 31
0.0
  0
LINE
  5
297
330
213
100
AcDbEntity
  8
RUNDUNGEN
  6
Continuous
 62
     9
100
AcDbLine
 10
230.0896420279
 20
234.8670383477
 30
0.0
 11
230.0896420279
 21
231.3697718609
 31
0.0
  0
LINE
  5
298
330
213
100
AcDbEntity
  8
RUNDUNGEN
  6
Continuous
 62
     9
100
AcDbLine
 10
230.1695617492
 20
159.418073781
 30
0.0
 11
230.1695617492
 21
155.3497356108
 31
0.0
  0
LINE
  5
299
330
213
100
AcDbEntity
  8
RUNDUNGEN
  6
Continuous
 62
     9
100
AcDbLine
 10
230.8908706384
 20
234.8670383477
 30
0.0
 11
230.8908706384
 21
231.3697707956
 31
0.0
  0
LINE
  5
29A
330
213
100
AcDbEntity
  8
RUNDUNGEN
  6
Continuous
 62
     9
100
AcDbLine
 10
232.5937368675
 20
234.8670383477
 30
0.0
 11
232.5937368675
 21
231.4719215532
 31
0.0
  0
LINE
  5
29B
330
213
100
AcDbEntity
  8
RUNDUNGEN
  6
Continuous
 62
     9
100
AcDbLine
 10
233.3263777248
 20
234.8670383477
 30
0.0
 11
233.3263777248
 21
231.4719210653
 31
0.0
  0
LINE
  5
29C
330
213
100
AcDbEntity
  8
RUNDUNGEN
  6
Continuous
 62
     9
100
AcDbLine
 10
206.1128068827
 20
153.0750137802
 30
0.0
 11
230.6794725295
 21
153.0750137802
 31
0.0
  0
LINE
  5
29D
330
213
100
AcDbEntity
  8
RUNDUNGEN
  6
Continuous
 62
     9
100
AcDbLine
 10
206.3437809305
 20
154.2656704707
 30
0.0
 11
230.4484984813
 21
154.2656704707
 31
0.0
  0
LINE
  5
29E
330
213
100
AcDbEntity
  8
RUNDUNGEN
  6
Continuous
 62
     9
100
AcDbLine
 10
229.1994904983
 20
154.3498879156
 30
0.0
 11
207.5927889134
 21
154.3498879156
 31
0.0
  0
LINE
  5
29F
330
213
100
AcDbEntity
  8
RUNDUNGEN
  6
Continuous
 62
     9
100
AcDbLine
 10
230.1695617492
 20
155.3497356108
 30
0.0
 11
206.6227176626
 21
155.3497356108
 31
0.0
  0
LINE
  5
2A0
330
213
100
AcDbEntity
  8
0
  6
Continuous
 62
     9
100
AcDbLine
 10
281.8220277449
 20
155.9009935471
 30
0.0
 11
235.7895569515
 21
155.9009935515
 31
0.0
  0
LINE
  5
2A1
330
213
100
AcDbEntity
  8
0
  6
Continuous
 62
     9
100
AcDbLine
 10
201.0027224603
 20
155.9009935515
 30
0.0
 11
154.9702516669
 21
155.9009935471
 31
0.0
  0
LINE
  5
2A2
330
213
100
AcDbEntity
  8
0
  6
Continuous
 62
     9
100
AcDbLine
 10
154.6432950546
 20
157.2510113562
 30
0.0
 11
200.9164662906
 21
157.2510113562
 31
0.0
  0
LINE
  5
2A3
330
213
100
AcDbEntity
  8
0
  6
Continuous
 62
     9
100
AcDbLine
 10
235.8758131211
 20
157.2510113562
 30
0.0
 11
282.1489843571
 21
157.2510113562
 31
0.0
  0
LINE
  5
2A4
330
213
100
AcDbEntity
  8
RUNDUNGEN
  6
Continuous
 62
     9
100
AcDbLine
 10
230.1695617492
 20
159.418073781
 30
0.0
 11
206.6227176626
 21
159.418073781
 31
0.0
  0
LINE
  5
2A5
330
213
100
AcDbEntity
  8
RUNDUNGEN
  6
Continuous
 62
     9
100
AcDbLine
 10
229.1912046998
 20
160.4167033157
 30
0.0
 11
207.6010747119
 21
160.4167033157
 31
0.0
  0
LINE
  5
2A6
330
213
100
AcDbEntity
  8
RUNDUNGEN
  6
Continuous
 62
     9
100
AcDbLine
 10
233.6896084437
 20
161.3274315877
 30
0.0
 11
203.1026709681
 21
161.3274315877
 31
0.0
  0
LINE
  5
2A7
330
213
100
AcDbEntity
  8
RUNDUNGEN
  6
Continuous
 62
     9
100
AcDbLine
 10
233.9200525505
 20
162.3220765591
 30
0.0
 11
202.8722268613
 21
162.3220765591
 31
0.0
  0
LINE
  5
2A8
330
213
100
AcDbEntity
  8
0
  6
Continuous
 62
     7
100
AcDbLine
 10
235.8961397059
 20
40.3670383477
 30
0.0
 11
235.8961397059
 21
44.418073781
 31
0.0
  0
LINE
  5
2A9
330
213
100
AcDbEntity
  8
0
  6
Continuous
 62
     7
100
AcDbLine
 10
241.8961397059
 20
46.6304495901
 30
0.0
 11
241.8961397059
 21
117.8571807107
 31
0.0
  0
LINE
  5
2AA
330
213
100
AcDbEntity
  8
RUNDUNGEN
  6
Continuous
 62
     9
100
AcDbLine
 10
234.6357107503
 20
157.2549959196
 30
0.0
 11
234.6388750444
 21
160.3228980118
 31
0.0
  0
LINE
  5
2AB
330
213
100
AcDbEntity
  8
RUNDUNGEN
  6
Continuous
 62
     9
100
AcDbLine
 10
235.8758131211
 20
157.2510113562
 30
0.0
 11
235.8789751349
 21
160.3189040754
 31
0.0
  0
LINE
  5
2AC
330
213
100
AcDbEntity
  8
0
  6
Continuous
 62
     7
100
AcDbLine
 10
255.8961397059
 20
121.0669461459
 30
0.0
 11
255.8961397059
 21
130.8909134071
 31
0.0
  0
LINE
  5
2AD
330
213
100
AcDbEntity
  8
0
  6
Continuous
 62
     7
100
AcDbLine
 10
247.4132901379
 20
40.34958594119999
 30
0.0
 11
248.6596554812
 21
111.753808633
 31
0.0
  0
LINE
  5
2AE
330
213
100
AcDbEntity
  8
0
  6
Continuous
 62
     7
100
AcDbLine
 10
289.9842168011
 20
200.741248783
 30
0.0
 11
289.8455495757
 21
200.4581305188
 31
0.0
  0
LINE
  5
2AF
330
213
100
AcDbEntity
  8
0
  6
Continuous
 62
     7
100
AcDbLine
 10
262.3296225193
 20
119.136724318
 30
0.0
 11
263.0519633527
 21
124.2764464131
 31
0.0
  0
LINE
  5
2B0
330
213
100
AcDbEntity
  8
0
  6
Continuous
 62
     7
100
AcDbLine
 10
270.1993288149
 20
133.0901625247
 30
0.0
 11
281.8220277449
 21
155.9009935471
 31
0.0
  0
LINE
  5
2B1
330
213
100
AcDbEntity
  8
0
  6
Continuous
 62
     7
100
AcDbLine
 10
257.6457789898
 20
114.5069689263
 30
0.0
 11
261.1642633826
 21
117.1583370907
 31
0.0
  0
LINE
  5
2B2
330
213
100
AcDbEntity
  8
0
  6
Continuous
 62
     7
100
AcDbLine
 10
282.3961397059
 20
231.4719210653
 30
0.0
 11
282.3961397059
 21
234.8670383477
 31
0.0
  0
LINE
  5
2B3
330
213
100
AcDbEntity
  8
0
  6
Continuous
 62
     7
100
AcDbLine
 10
289.3961397059
 20
220.3497356108
 30
0.0
 11
289.3961397059
 21
229.3843410846
 31
0.0
  0
LINE
  5
2B4
330
213
100
AcDbEntity
  8
0
  6
Continuous
 62
     7
100
AcDbLine
 10
282.1489843571
 20
157.2510113562
 30
0.0
 11
282.3921709878
 21
218.2827174955
 31
0.0
  0
LINE
  5
2B5
330
213
100
AcDbEntity
  8
0
  6
Continuous
 62
     7
100
AcDbLine
 10
289.3389259335
 20
198.4333336657
 30
0.0
 11
287.8819628225
 21
156.7113689961
 31
0.0
  0
LINE
  5
2B6
330
213
100
AcDbEntity
  8
0
  6
Continuous
 62
     7
100
AcDbLine
 10
290.7778541661
 20
210.9851386434
 30
0.0
 11
290.4908374812
 21
202.7660561596
 31
0.0
  0
LINE
  5
2B7
330
213
100
AcDbEntity
  8
0
  6
Continuous
 62
     7
100
AcDbLine
 10
287.3400413083
 20
154.615913981
 30
0.0
 11
274.1824743176
 21
128.792734778
 31
0.0
  0
LINE
  5
2B8
330
213
100
AcDbEntity
  8
0
  6
Continuous
 62
     7
100
AcDbLine
 10
284.3371258389
 20
219.2787329322
 30
0.0
 11
288.4135921123
 21
219.3498879156
 31
0.0
  0
LINE
  5
2B9
330
213
100
AcDbEntity
  8
RUNDUNGEN
  6
Continuous
 62
     9
100
AcDbLine
 10
204.9940634174
 20
213.0100520132
 30
0.0
 11
231.7982159953
 21
213.0100520132
 31
0.0
  0
LINE
  5
2BA
330
213
100
AcDbEntity
  8
RUNDUNGEN
  6
Continuous
 62
     9
100
AcDbLine
 10
204.9194507608
 20
213.772111893
 30
0.0
 11
231.8728286521
 21
213.772111893
 31
0.0
  0
LINE
  5
2BB
330
213
100
AcDbEntity
  8
RUNDUNGEN
  6
Continuous
 62
     9
100
AcDbLine
 10
204.1973714797
 20
218.2787329322
 30
0.0
 11
204.4776252943
 21
218.2787329322
 31
0.0
  0
LINE
  5
2BC
330
213
100
AcDbEntity
  8
RUNDUNGEN
  6
Continuous
 62
     9
100
AcDbLine
 10
232.3146541174
 20
218.2787329322
 30
0.0
 11
232.5949079321
 21
218.2787329322
 31
0.0
  0
LINE
  5
2BD
330
213
100
AcDbEntity
  8
0
  6
Continuous
 62
     9
100
AcDbLine
 10
282.3921709878
 20
218.2827174955
 30
0.0
 11
233.3275183383
 21
218.2827174955
 31
0.0
  0
LINE
  5
2BE
330
213
100
AcDbEntity
  8
0
  6
Continuous
 62
     9
100
AcDbLine
 10
203.4647610735
 20
218.2827174955
 30
0.0
 11
154.400108424
 21
218.2827174955
 31
0.0
  0
LINE
  5
2BF
330
213
100
AcDbEntity
  8
RUNDUNGEN
  6
Continuous
 62
     9
100
AcDbLine
 10
230.7399885329
 20
219.0673015627
 30
0.0
 11
206.0522908809
 21
219.0673015627
 31
0.0
  0
LINE
  5
2C0
330
213
100
AcDbEntity
  8
0
  6
Continuous
 62
     7
100
AcDbLine
 10
152.4551535728
 20
219.2787329322
 30
0.0
 11
203.231454716
 21
219.2787329322
 31
0.0
  0
LINE
  5
2C1
330
213
100
AcDbEntity
  8
RUNDUNGEN
  6
Continuous
 62
     7
100
AcDbLine
 10
203.231454716
 20
219.2787329322
 30
0.0
 11
203.5090898938
 21
219.2787329322
 31
0.0
  0
LINE
  5
2C2
330
213
100
AcDbEntity
  8
RUNDUNGEN
  6
Continuous
 62
     7
100
AcDbLine
 10
233.2831895248
 20
219.2787329322
 30
0.0
 11
233.5608246829
 21
219.2787329322
 31
0.0
  0
LINE
  5
2C3
330
213
100
AcDbEntity
  8
0
  6
Continuous
 62
     7
100
AcDbLine
 10
233.5608337584
 20
219.2787329322
 30
0.0
 11
284.3371258389
 21
219.2787329322
 31
0.0
  0
LINE
  5
2C4
330
213
100
AcDbEntity
  8
0
  6
Continuous
 62
     9
100
AcDbLine
 10
284.3371258389
 20
219.3498879156
 30
0.0
 11
232.0890588102
 21
219.3498879156
 31
0.0
  0
LINE
  5
2C5
330
213
100
AcDbEntity
  8
0
  6
Continuous
 62
     9
100
AcDbLine
 10
204.7032226007
 20
219.3498879156
 30
0.0
 11
148.3786872994
 21
219.3498879156
 31
0.0
  0
LINE
  5
2C6
330
213
100
AcDbEntity
  8
0
  6
Continuous
 62
     7
100
AcDbLine
 10
152.4551535728
 20
219.2787329322
 30
0.0
 11
148.3786872994
 21
219.3498879156
 31
0.0
  0
LINE
  5
2C7
330
213
100
AcDbEntity
  8
0
  6
Continuous
 62
     7
100
AcDbLine
 10
295.1945752188
 20
215.7768600002
 30
0.0
 11
295.5493694455
 21
225.9368373411
 31
0.0
  0
LINE
  5
2C8
330
213
100
AcDbEntity
  8
0
  6
Continuous
 62
     7
100
AcDbLine
 10
148.3786872994
 20
230.3841887797
 30
0.0
 11
153.4135921123
 21
230.4720733701
 31
0.0
  0
LINE
  5
2C9
330
213
100
AcDbEntity
  8
RUNDUNGEN
  6
Continuous
 62
     9
100
AcDbLine
 10
230.8027982108
 20
219.8333460058
 30
0.0
 11
205.9895016796
 21
219.8333460058
 31
0.0
  0
LINE
  5
2CA
330
213
100
AcDbEntity
  8
0
  6
Continuous
 62
     9
100
AcDbLine
 10
289.3961397059
 20
220.3497356108
 30
0.0
 11
232.2810914211
 21
220.3497356108
 31
0.0
  0
LINE
  5
2CB
330
213
100
AcDbEntity
  8
0
  6
Continuous
 62
     9
100
AcDbLine
 10
204.5111879841
 20
220.3497356108
 30
0.0
 11
147.3961397059
 21
220.3497356108
 31
0.0
  0
LINE
  5
2CC
330
213
100
AcDbEntity
  8
0
  6
Continuous
 62
     7
100
AcDbLine
 10
40.2940688393
 20
227.8670383477
 30
0.0
 11
139.2441283122
 21
227.8670383477
 31
0.0
  0
LINE
  5
2CD
330
213
100
AcDbEntity
  8
0
  6
Continuous
 62
     7
100
AcDbLine
 10
297.5481510996
 20
227.8670383477
 30
0.0
 11
396.4982105725
 21
227.8670383477
 31
0.0
  0
LINE
  5
2CE
330
213
100
AcDbEntity
  8
0
  6
Continuous
 62
     9
100
AcDbLine
 10
289.3961397059
 20
229.3843410846
 30
0.0
 11
232.2810914498
 21
229.3843410846
 31
0.0
  0
LINE
  5
2CF
330
213
100
AcDbEntity
  8
0
  6
Continuous
 62
     9
100
AcDbLine
 10
204.5111879641
 20
229.3843410846
 30
0.0
 11
147.3961397059
 21
229.3843410846
 31
0.0
  0
LINE
  5
2D0
330
213
100
AcDbEntity
  8
0
  6
Continuous
 62
     9
100
AcDbLine
 10
148.3786872994
 20
230.3841887797
 30
0.0
 11
204.7029975757
 21
230.3841887797
 31
0.0
  0
LINE
  5
2D1
330
213
100
AcDbEntity
  8
0
  6
Continuous
 62
     9
100
AcDbLine
 10
232.0893044074
 20
230.3841887797
 30
0.0
 11
288.4135921123
 21
230.3841887797
 31
0.0
  0
LINE
  5
2D2
330
213
100
AcDbEntity
  8
0
  6
Continuous
 62
     9
100
AcDbLine
 10
153.4135921123
 20
230.4720733701
 30
0.0
 11
203.2369133972
 21
230.4720733701
 31
0.0
  0
LINE
  5
2D3
330
213
100
AcDbEntity
  8
0
  6
Continuous
 62
     9
100
AcDbLine
 10
233.555450678
 20
230.4720733701
 30
0.0
 11
283.3786872994
 21
230.4720733701
 31
0.0
  0
LINE
  5
2D4
330
213
100
AcDbEntity
  8
RUNDUNGEN
  6
Continuous
 62
     9
100
AcDbLine
 10
205.9014087734
 20
231.369771859
 30
0.0
 11
206.7026373839
 21
231.3697718589
 31
0.0
  0
LINE
  5
2D5
330
213
100
AcDbEntity
  8
RUNDUNGEN
  6
Continuous
 62
     9
100
AcDbLine
 10
230.0896420279
 20
231.3697718608
 30
0.0
 11
230.8908706384
 21
231.3697718609
 31
0.0
  0
LINE
  5
2D6
330
213
100
AcDbEntity
  8
0
  6
Continuous
 62
     9
100
AcDbLine
 10
154.3961397059
 20
231.4719210653
 30
0.0
 11
203.465901687
 21
231.4719210653
 31
0.0
  0
LINE
  5
2D7
330
213
100
AcDbEntity
  8
RUNDUNGEN
  6
Continuous
 62
     9
100
AcDbLine
 10
203.465901687
 20
231.4719210653
 30
0.0
 11
204.1985425442
 21
231.4719210653
 31
0.0
  0
LINE
  5
2D8
330
213
100
AcDbEntity
  8
RUNDUNGEN
  6
Continuous
 62
     9
100
AcDbLine
 10
232.5937368675
 20
231.4719210653
 30
0.0
 11
233.3263777248
 21
231.4719210653
 31
0.0
  0
LINE
  5
2D9
330
213
100
AcDbEntity
  8
0
  6
Continuous
 62
     9
100
AcDbLine
 10
233.3263777248
 20
231.4719210653
 30
0.0
 11
282.3961397059
 21
231.4719210653
 31
0.0
  0
LINE
  5
2DA
330
213
100
AcDbEntity
  8
0
  6
Continuous
 62
     7
100
AcDbLine
 10
288.4135921123
 20
230.3841887797
 30
0.0
 11
283.3786872994
 21
230.4720733701
 31
0.0
  0
LINE
  5
2DB
330
213
100
AcDbEntity
  8
0
  6
Continuous
 62
     9
100
AcDbLine
 10
154.3961397059
 20
234.8670383477
 30
0.0
 11
203.465901687
 21
234.8670383477
 31
0.0
  0
LINE
  5
2DC
330
213
100
AcDbEntity
  8
RUNDUNGEN
  6
Continuous
 62
     9
100
AcDbLine
 10
203.465901687
 20
234.8670383477
 30
0.0
 11
233.3263777248
 21
234.8670383477
 31
0.0
  0
LINE
  5
2DD
330
213
100
AcDbEntity
  8
0
  6
Continuous
 62
     9
100
AcDbLine
 10
233.3263777248
 20
234.8670383477
 30
0.0
 11
282.3961397059
 21
234.8670383477
 31
0.0
  0
LINE
  5
2DE
330
213
100
AcDbEntity
  8
0
  6
Continuous
 62
     7
100
AcDbLine
 10
40.2940688393
 20
235.8670383477
 30
0.0
 11
204.9354829471
 21
235.8670383477
 31
0.0
  0
LINE
  5
2DF
330
213
100
AcDbEntity
  8
RUNDUNGEN
  6
Continuous
 62
     7
100
AcDbLine
 10
203.2326167179
 20
235.8670383477
 30
0.0
 11
233.5596626938
 21
235.8670383477
 31
0.0
  0
LINE
  5
2E0
330
213
100
AcDbEntity
  8
0
  6
Continuous
 62
     7
100
AcDbLine
 10
233.5596626938
 20
235.8670383477
 30
0.0
 11
396.4982105725
 21
235.8670383477
 31
0.0
  0
LINE
  5
2E1
330
213
100
AcDbEntity
  8
0
  6
Continuous
 62
     7
100
AcDbLine
 10
210.3961397059
 20
237.4670383477
 30
0.0
 11
226.3961397059
 21
237.4670383477
 31
0.0
  0
LINE
  5
2E2
330
213
100
AcDbEntity
  8
0
  6
Continuous
 62
     7
100
AcDbLine
 10
211.8961397059
 20
237.6170383477
 30
0.0
 11
224.8961397059
 21
237.6170383477
 31
0.0
  0
LINE
  5
2E3
330
213
100
AcDbEntity
  8
0
  6
Continuous
 62
     7
100
AcDbLine
 10
210.3961397059
 20
238.24325577
 30
0.0
 11
226.3961397059
 21
238.24325577
 31
0.0
  0
LINE
  5
2E4
330
213
100
AcDbEntity
  8
0
  6
Continuous
 62
     7
100
AcDbLine
 10
210.3961397059
 20
248.24325577
 30
0.0
 11
226.3961397059
 21
248.24325577
 31
0.0
  0
LINE
  5
2E5
330
213
100
AcDbEntity
  8
0
  6
Continuous
 62
     7
100
AcDbLine
 10
211.3961397059
 20
256.24325577
 30
0.0
 11
225.3961397059
 21
256.24325577
 31
0.0
  0
LINE
  5
2E6
330
213
100
AcDbEntity
  8
0
  6
Continuous
 62
     7
100
AcDbLine
 10
398.495469642
 20
229.7623664352
 30
0.0
 11
398.6057708230001
 21
231.8670383477
 31
0.0
  0
LINE
  5
2E7
330
213
100
AcDbEntity
  8
0
  6
Continuous
 62
     7
100
AcDbLine
 10
398.6057708230001
 20
231.8670383477
 30
0.0
 11
398.495469642
 21
233.9717102602
 31
0.0
  0
ARC
  5
2ED
330
213
100
AcDbEntity
  8
0
  6
Continuous
 62
     7
100
AcDbCircle
 10
153.9072707244
 20
156.8858664797
 30
0.0
 40
5.0
100
AcDbArc
 50
182.0
 51
207.0
  0
ARC
  5
2EE
330
213
100
AcDbEntity
  8
0
  6
Continuous
 62
     7
100
AcDbCircle
 10
142.4563995913
 20
198.2588319462
 30
0.0
 40
4.999999993399999
100
AcDbArc
 50
1.999953630099999
 51
26.0949237879
  0
ARC
  5
2EF
330
213
100
AcDbEntity
  8
0
  6
Continuous
 62
     7
100
AcDbCircle
 10
151.2983963011
 20
202.9405493875
 30
0.0
 40
4.999999986499999
100
AcDbArc
 50
182.0000459297
 51
206.0949651389
  0
ARC
  5
2F0
330
213
100
AcDbEntity
  8
0
  6
Continuous
 62
     7
100
AcDbCircle
 10
157.6432712394
 20
157.2629650463
 30
0.0
 40
3.0
100
AcDbArc
 50
180.2282992679
 51
207.0
  0
ARC
  5
2F1
330
213
100
AcDbEntity
  8
0
  6
Continuous
 62
     7
100
AcDbCircle
 10
143.0162527646
 20
210.8804401533
 30
0.0
 40
3.0
100
AcDbArc
 50
2.0
 51
83.33600404390001
  0
ARC
  5
2F2
330
213
100
AcDbEntity
  8
0
  6
Continuous
 62
     7
100
AcDbCircle
 10
170.7695118528
 20
123.8589271102
 30
0.0
 40
3.0
100
AcDbArc
 50
8.0
 51
87.0
  0
ARC
  5
2F3
330
213
100
AcDbEntity
  8
0
  6
Continuous
 62
     7
100
AcDbCircle
 10
165.2828246667
 20
130.1547062772
 30
0.0
 40
3.0
100
AcDbArc
 50
207.0
 51
267.0
  0
ARC
  5
2F4
330
213
100
AcDbEntity
  8
0
  6
Continuous
 62
     7
100
AcDbCircle
 10
177.4334610986
 20
119.5542436208
 30
0.0
 40
3.0
100
AcDbArc
 50
188.0
 51
233.0
  0
ARC
  5
2F5
330
213
100
AcDbEntity
  8
0
  6
Continuous
 62
     7
100
AcDbCircle
 10
180.9519454914
 20
116.9028754564
 30
0.0
 40
3.0
100
AcDbArc
 50
233.0
 51
268.0
  0
ARC
  5
2F6
330
213
100
AcDbEntity
  8
0
  6
Continuous
 62
     7
100
AcDbCircle
 10
139.2441283122
 20
225.8670383477
 30
0.0
 40
2.0
100
AcDbArc
 50
2.0
 51
90.0
  0
ARC
  5
2F7
330
213
100
AcDbEntity
  8
0
  6
Continuous
 62
     7
100
AcDbCircle
 10
40.2940688393
 20
229.8670383477
 30
0.0
 40
2.0
100
AcDbArc
 50
183.0
 51
270.0
  0
ARC
  5
2F8
330
213
100
AcDbEntity
  8
0
  6
Continuous
 62
     7
100
AcDbCircle
 10
40.2940688393
 20
233.8670383477
 30
0.0
 40
2.0
100
AcDbArc
 50
90.0
 51
177.0
  0
ARC
  5
2F9
330
213
100
AcDbEntity
  8
0
  6
Continuous
 62
     7
100
AcDbCircle
 10
186.1329285403
 20
111.7189038201
 30
0.0
 40
2.0
100
AcDbArc
 50
1.0
 51
88.0
  0
ARC
  5
2FA
330
213
100
AcDbEntity
  8
0
  6
Continuous
 62
     7
100
AcDbCircle
 10
143.596485847
 20
215.8466589936
 30
0.0
 40
2.0
100
AcDbArc
 50
182.0
 51
263.3360040439
  0
ARC
  5
2FB
330
213
100
AcDbEntity
  8
0
  6
Continuous
 62
     7
100
AcDbCircle
 10
190.378836969
 20
40.3670383477
 30
0.0
 40
1.0
100
AcDbArc
 50
181.0
 51
270.0
  0
ARC
  5
2FC
330
213
100
AcDbEntity
  8
0
  6
Continuous
 62
     7
100
AcDbCircle
 10
199.8961397059
 20
44.418073781
 30
0.0
 40
1.0
100
AcDbArc
 50
0.0
 51
87.0
  0
ARC
  5
2FD
330
213
100
AcDbEntity
  8
0
  6
Continuous
 62
     7
100
AcDbCircle
 10
199.8961397059
 20
40.3670383477
 30
0.0
 40
1.0
100
AcDbArc
 50
270.0
 51
360.0
  0
ARC
  5
2FE
330
213
100
AcDbEntity
  8
0
  6
Continuous
 62
     7
100
AcDbCircle
 10
195.8961397059
 20
46.6304495901
 30
0.0
 40
1.0
100
AcDbArc
 50
180.0
 51
267.0
  0
ARC
  5
2FF
330
213
100
AcDbEntity
  8
0
  6
Continuous
 62
     7
100
AcDbCircle
 10
167.4839571211
 20
133.5441530244
 30
0.0
 40
1.0
100
AcDbArc
 50
207.0
 51
267.0
  0
ARC
  5
300
330
213
100
AcDbEntity
  8
0
  6
Continuous
 62
     7
100
AcDbCircle
 10
179.8961397059
 20
130.8909134071
 30
0.0
 40
1.0
100
AcDbArc
 50
0.0
 51
87.0000000003
  0
ARC
  5
301
330
213
100
AcDbEntity
  8
0
  6
Continuous
 62
     7
100
AcDbCircle
 10
148.3961397059
 20
229.3843410846
 30
0.0
 40
1.0
100
AcDbArc
 50
91.0
 51
180.0
  0
ARC
  5
302
330
213
100
AcDbEntity
  8
0
  6
Continuous
 62
     7
100
AcDbCircle
 10
153.3961397059
 20
231.4719210653
 30
0.0
 40
1.0
100
AcDbArc
 50
271.0
 51
360.0
  0
ARC
  5
303
330
213
100
AcDbEntity
  8
0
  6
Continuous
 62
     7
100
AcDbCircle
 10
153.4001163624
 20
218.2787329322
 30
0.0
 40
1.0
100
AcDbArc
 50
0.2282992679
 51
90.0
  0
ARC
  5
304
330
213
100
AcDbEntity
  8
0
  6
Continuous
 62
     7
100
AcDbCircle
 10
148.3961397059
 20
220.3497356108
 30
0.0
 40
1.0
100
AcDbArc
 50
180.0
 51
269.0
  0
ARC
  5
305
330
213
100
AcDbEntity
  8
0
  6
Continuous
 62
     7
100
AcDbCircle
 10
181.8961397059
 20
121.0669461459
 30
0.0
 40
1.0
100
AcDbArc
 50
180.0
 51
269.0000000001
  0
ARC
  5
306
330
213
100
AcDbEntity
  8
0
  6
Continuous
 62
     7
100
AcDbCircle
 10
187.3961397059
 20
118.9706386327
 30
0.0
 40
1.0
100
AcDbArc
 50
29.0050383316
 51
89.0
  0
ARC
  5
307
330
213
100
AcDbEntity
  8
0
  6
Continuous
 62
     7
100
AcDbCircle
 10
189.1452938495
 20
119.9404116896
 30
0.0
 40
1.0
100
AcDbArc
 50
209.0050383316
 51
269.0
  0
ARC
  5
308
330
213
100
AcDbEntity
  8
0
  6
Continuous
 62
     7
100
AcDbCircle
 10
193.8961397059
 20
117.8571807107
 30
0.0
 40
1.0
100
AcDbArc
 50
0.0
 51
89.0
  0
ARC
  5
309
330
213
100
AcDbEntity
  8
0
  6
Continuous
 62
     7
100
AcDbCircle
 10
153.3961397059
 20
234.8670383477
 30
0.0
 40
1.0
100
AcDbArc
 50
0.0
 51
90.0
  0
ARC
  5
30A
330
213
100
AcDbEntity
  8
RUNDUNGEN
  6
Continuous
 62
     9
100
AcDbCircle
 10
-568.0715210459999
 20
481.8898361202999
 30
0.0
 40
817.1335872141
100
AcDbArc
 50
340.9247366558
 51
341.1835392449
  0
ARC
  5
30B
330
213
100
AcDbEntity
  8
RUNDUNGEN
  6
Continuous
 62
     9
100
AcDbCircle
 10
-471.3765175955999
 20
451.9468280492
 30
0.0
 40
717.0100642469
100
AcDbArc
 50
340.5989967793
 51
340.9202228606
  0
ARC
  5
30C
330
213
100
AcDbEntity
  8
0
  6
Continuous
 62
     7
100
AcDbCircle
 10
266.022767559
 20
123.8589271102
 30
0.0
 40
3.0
100
AcDbArc
 50
93.0
 51
172.0
  0
ARC
  5
30D
330
213
100
AcDbEntity
  8
0
  6
Continuous
 62
     7
100
AcDbCircle
 10
271.509454745
 20
130.1547062772
 30
0.0
 40
3.0
100
AcDbArc
 50
273.0
 51
333.0
  0
ARC
  5
30E
330
213
100
AcDbEntity
  8
0
  6
Continuous
 62
     7
100
AcDbCircle
 10
259.3588183131
 20
119.5542436208
 30
0.0
 40
3.0
100
AcDbArc
 50
307.0
 51
352.0
  0
ARC
  5
30F
330
213
100
AcDbEntity
  8
0
  6
Continuous
 62
     7
100
AcDbCircle
 10
255.8403339203
 20
116.9028754564
 30
0.0
 40
3.0
100
AcDbArc
 50
272.0
 51
307.0
  0
ARC
  5
310
330
213
100
AcDbEntity
  8
0
  6
Continuous
 62
     7
100
AcDbCircle
 10
250.6593508715
 20
111.7189038201
 30
0.0
 40
2.0
100
AcDbArc
 50
92.0
 51
179.0
  0
ARC
  5
311
330
213
100
AcDbEntity
  8
0
  6
Continuous
 62
     7
100
AcDbCircle
 10
246.4134424428
 20
40.3670383477
 30
0.0
 40
1.0
100
AcDbArc
 50
270.0
 51
359.0
  0
ARC
  5
312
330
213
100
AcDbEntity
  8
0
  6
Continuous
 62
     7
100
AcDbCircle
 10
236.8961397059
 20
44.418073781
 30
0.0
 40
1.0
100
AcDbArc
 50
93.0
 51
180.0
  0
ARC
  5
313
330
213
100
AcDbEntity
  8
0
  6
Continuous
 62
     7
100
AcDbCircle
 10
236.8961397059
 20
40.3670383477
 30
0.0
 40
1.0
100
AcDbArc
 50
180.0
 51
270.0
  0
ARC
  5
314
330
213
100
AcDbEntity
  8
0
  6
Continuous
 62
     7
100
AcDbCircle
 10
240.8961397059
 20
46.6304495901
 30
0.0
 40
1.0
100
AcDbArc
 50
273.0
 51
360.0
  0
ARC
  5
315
330
213
100
AcDbEntity
  8
0
  6
Continuous
 62
     7
100
AcDbCircle
 10
269.3083222907
 20
133.5441530244
 30
0.0
 40
1.0
100
AcDbArc
 50
273.0
 51
333.0
  0
ARC
  5
316
330
213
100
AcDbEntity
  8
0
  6
Continuous
 62
     7
100
AcDbCircle
 10
256.8961397059
 20
130.8909134071
 30
0.0
 40
1.0
100
AcDbArc
 50
92.99999999969999
 51
180.0
  0
ARC
  5
317
330
213
100
AcDbEntity
  8
0
  6
Continuous
 62
     7
100
AcDbCircle
 10
254.8961397059
 20
121.0669461459
 30
0.0
 40
1.0
100
AcDbArc
 50
270.9999999999
 51
360.0
  0
ARC
  5
318
330
213
100
AcDbEntity
  8
0
  6
Continuous
 62
     7
100
AcDbCircle
 10
249.3961397059
 20
118.9706386327
 30
0.0
 40
1.0
100
AcDbArc
 50
90.9999999997
 51
150.9949616685
  0
ARC
  5
319
330
213
100
AcDbEntity
  8
0
  6
Continuous
 62
     7
100
AcDbCircle
 10
247.6469855623
 20
119.9404116896
 30
0.0
 40
1.0
100
AcDbArc
 50
270.9999999997001
 51
330.9949616684
  0
ARC
  5
31A
330
213
100
AcDbEntity
  8
0
  6
Continuous
 62
     7
100
AcDbCircle
 10
242.8961397059
 20
117.8571807107
 30
0.0
 40
1.0
100
AcDbArc
 50
90.99999999979999
 51
180.0
  0
ARC
  5
31B
330
213
100
AcDbEntity
  8
0
  6
Continuous
 62
     7
100
AcDbCircle
 10
282.8850086874
 20
156.8858664797
 30
0.0
 40
5.0
100
AcDbArc
 50
333.0
 51
358.0
  0
ARC
  5
31C
330
213
100
AcDbEntity
  8
0
  6
Continuous
 62
     7
100
AcDbCircle
 10
294.3358796866
 20
198.2588272676
 30
0.0
 40
4.9999999954
100
AcDbArc
 50
153.9050091721
 51
178.0000001829
  0
ARC
  5
31D
330
213
100
AcDbEntity
  8
0
  6
Continuous
 62
     7
100
AcDbCircle
 10
285.4938829773
 20
202.9405447529
 30
0.0
 40
4.999999986799999
100
AcDbArc
 50
333.9051028183
 51
357.9999997897
  0
ARC
  5
31E
330
213
100
AcDbEntity
  8
0
  6
Continuous
 62
     7
100
AcDbCircle
 10
279.1490081723
 20
157.2629650463
 30
0.0
 40
3.0
100
AcDbArc
 50
333.0
 51
359.7717007321
  0
ARC
  5
31F
330
213
100
AcDbEntity
  8
0
  6
Continuous
 62
     7
100
AcDbCircle
 10
293.7760266471
 20
210.8804401533
 30
0.0
 40
3.0
100
AcDbArc
 50
96.66399595610002
 51
178.0
  0
ARC
  5
320
330
213
100
AcDbEntity
  8
0
  6
Continuous
 62
     7
100
AcDbCircle
 10
297.5481510996
 20
225.8670383477
 30
0.0
 40
2.0
100
AcDbArc
 50
90.0
 51
178.0
  0
ARC
  5
321
330
213
100
AcDbEntity
  8
0
  6
Continuous
 62
     7
100
AcDbCircle
 10
293.1957935647
 20
215.8466589936
 30
0.0
 40
2.0
100
AcDbArc
 50
276.6639959561
 51
358.0
  0
ARC
  5
322
330
213
100
AcDbEntity
  8
RUNDUNGEN
  6
Continuous
 62
     9
100
AcDbCircle
 10
206.112811447
 20
155.0422425061
 30
0.0
 40
1.9672287259
100
AcDbArc
 50
268.9360366443
 51
269.9998670652
  0
ARC
  5
323
330
213
100
AcDbEntity
  8
RUNDUNGEN
  6
Continuous
 62
     9
100
AcDbCircle
 10
230.6794707645
 20
155.0419410186
 30
0.0
 40
1.9669272384
100
AcDbArc
 50
270.0000514137
 51
271.0640448887
  0
ARC
  5
324
330
213
100
AcDbEntity
  8
0
  6
Continuous
 62
     7
100
AcDbCircle
 10
283.3921630494
 20
218.2787329322
 30
0.0
 40
1.0
100
AcDbArc
 50
90.0
 51
179.7717007321
  0
ARC
  5
325
330
213
100
AcDbEntity
  8
0
  6
Continuous
 62
     7
100
AcDbCircle
 10
283.3961397059
 20
231.4719210653
 30
0.0
 40
1.0
100
AcDbArc
 50
180.0
 51
269.0
  0
ARC
  5
326
330
213
100
AcDbEntity
  8
0
  6
Continuous
 62
     7
100
AcDbCircle
 10
288.3961397059
 20
229.3843410846
 30
0.0
 40
1.0
100
AcDbArc
 50
0.0
 51
89.0
  0
ARC
  5
327
330
213
100
AcDbEntity
  8
0
  6
Continuous
 62
     7
100
AcDbCircle
 10
288.3961397059
 20
220.3497356108
 30
0.0
 40
1.0
100
AcDbArc
 50
271.0
 51
360.0
  0
ARC
  5
328
330
213
100
AcDbEntity
  8
0
  6
Continuous
 62
     7
100
AcDbCircle
 10
283.3961397059
 20
234.8670383477
 30
0.0
 40
1.0
100
AcDbArc
 50
90.0
 51
180.0
  0
ARC
  5
329
330
213
100
AcDbEntity
  8
RUNDUNGEN
  6
Continuous
 62
     9
100
AcDbCircle
 10
206.3434642601
 20
155.2253038787
 30
0.0
 40
0.959633612
100
AcDbArc
 50
268.9443677684
 51
270.0199299979
  0
ARC
  5
32A
330
213
100
AcDbEntity
  8
RUNDUNGEN
  6
Continuous
 62
     9
100
AcDbCircle
 10
230.448810521
 20
155.225175233
 30
0.0
 40
0.9595048868000001
100
AcDbArc
 50
269.9803438639
 51
271.0560502598
  0
ARC
  5
32B
330
213
100
AcDbEntity
  8
0
  6
Continuous
 62
     7
100
AcDbCircle
 10
396.4982105725
 20
229.8670383477
 30
0.0
 40
2.0
100
AcDbArc
 50
270.0
 51
357.0
  0
ARC
  5
32C
330
213
100
AcDbEntity
  8
0
  6
Continuous
 62
     7
100
AcDbCircle
 10
396.4982105725
 20
233.8670383477
 30
0.0
 40
2.0
100
AcDbArc
 50
3.0
 51
90.0
  0
ARC
  5
32D
330
213
100
AcDbEntity
  8
RUNDUNGEN
  6
Continuous
 62
     9
100
AcDbCircle
 10
977.2593276806
 20
472.4140199469999
 30
0.0
 40
787.9480856121999
100
AcDbArc
 50
198.8116677406999
 51
199.0800563625
  0
ARC
  5
32E
330
213
100
AcDbEntity
  8
RUNDUNGEN
  6
Continuous
 62
     9
100
AcDbCircle
 10
902.7576064696001
 20
450.0581741191999
 30
0.0
 40
711.2787697588999
100
AcDbArc
 50
199.0784829741
 51
199.4022974163
  0
SPLINE
  5
32F
330
213
100
AcDbEntity
  8
0
  6
Continuous
 62
     7
100
AcDbSpline
210
0.0
220
0.0
230
1.0
 70
     8
 71
     3
 72
     9
 73
     5
 74
     0
 42
0.0000000001
 43
0.0000000001
 40
0.0
 40
0.0
 40
0.0
 40
0.0
 40
0.252146761
 40
1.0
 40
1.0
 40
1.0
 40
1.0
 10
224.4741007401
 20
238.2411205293
 30
0.0
 10
224.344985718
 20
238.1741767338
 30
0.0
 10
223.8272549524
 20
237.9202871636
 30
0.0
 10
223.2815140368
 20
237.7192385707
 30
0.0
 10
222.8624353114
 20
237.6170383477
 30
0.0
  0
SPLINE
  5
330
330
213
100
AcDbEntity
  8
0
  6
Continuous
 62
     7
100
AcDbSpline
210
0.0
220
0.0
230
1.0
 70
     8
 71
     3
 72
     9
 73
     5
 74
     0
 42
0.0000000001
 43
0.0000000001
 40
0.0
 40
0.0
 40
0.0
 40
0.0
 40
0.252146761
 40
1.0
 40
1.0
 40
1.0
 40
1.0
 10
217.9741007401
 20
238.2411205293
 30
0.0
 10
217.844985718
 20
238.1741767338
 30
0.0
 10
217.3272549524
 20
237.9202871636
 30
0.0
 10
216.7815140368
 20
237.7192385707
 30
0.0
 10
216.3624353114
 20
237.6170383477
 30
0.0
  0
SPLINE
  5
331
330
213
100
AcDbEntity
  8
0
  6
Continuous
 62
     7
100
AcDbSpline
210
0.0
220
0.0
230
1.0
 70
     8
 71
     3
 72
     9
 73
     5
 74
     0
 42
0.0000000001
 43
0.0000000001
 40
0.0
 40
0.0
 40
0.0
 40
0.0
 40
0.2481774778
 40
1.0
 40
1.0
 40
1.0
 40
1.0
 10
213.9298441004
 20
237.6170383477
 30
0.0
 10
213.7907490615
 20
237.6509592869
 30
0.0
 10
213.2354582642
 20
237.8089652396
 30
0.0
 10
212.7033210429
 20
238.0414365797
 30
0.0
 10
212.3182762535
 20
238.2410698889
 30
0.0
  0
SPLINE
  5
332
330
213
100
AcDbEntity
  8
0
  6
Continuous
 62
     7
100
AcDbSpline
210
0.0
220
0.0
230
1.0
 70
     8
 71
     3
 72
     9
 73
     5
 74
     0
 42
0.0000000001
 43
0.0000000001
 40
0.0
 40
0.0
 40
0.0
 40
0.0
 40
0.2481774778
 40
1.0
 40
1.0
 40
1.0
 40
1.0
 10
220.4298441004
 20
237.6170383477
 30
0.0
 10
220.2907490615
 20
237.6509592869
 30
0.0
 10
219.7354582642
 20
237.8089652396
 30
0.0
 10
219.2033210429
 20
238.0414365797
 30
0.0
 10
218.8182762535
 20
238.2410698889
 30
0.0
  0
SPLINE
  5
333
330
213
100
AcDbEntity
  8
RUNDUNGEN
  6
Continuous
 62
     9
100
AcDbSpline
210
0.0
220
0.0
230
1.0
 70
     8
 71
     3
 72
    12
 73
     8
 74
     0
 42
0.0000000001
 43
0.0000000001
 40
0.0
 40
0.0
 40
0.0
 40
0.0
 40
0.3181964689
 40
0.6125947349000001
 40
0.8448697154999999
 40
0.9322550328
 40
1.0
 40
1.0
 40
1.0
 40
1.0
 10
207.0790348923
 20
133.1174255697
 30
0.0
 10
206.9431908293
 20
133.1179589954
 30
0.0
 10
206.6814364
 20
133.1354294158
 30
0.0
 10
206.3260021983
 20
133.1990934177
 30
0.0
 10
206.0741417241
 20
133.2778738861
 30
0.0
 10
205.9271523122
 20
133.3543322754
 30
0.0
 10
205.8738702937
 20
133.3949618129
 30
0.0
 10
205.8541308118
 20
133.4161000438
 30
0.0
  0
LINE
  5
334
330
213
100
AcDbEntity
  8
RUNDUNGEN
  6
Continuous
 62
     9
100
AcDbLine
 10
205.8541304596
 20
133.4161070353
 30
0.0
 11
204.7567716937
 21
155.2239202301
 31
0.0
  0
SPLINE
  5
335
330
213
100
AcDbEntity
  8
RUNDUNGEN
  6
Continuous
 62
     9
100
AcDbSpline
210
0.0
220
0.0
230
1.0
 70
     8
 71
     3
 72
    12
 73
     8
 74
     0
 42
0.0000000001
 43
0.0000000001
 40
0.0
 40
0.0
 40
0.0
 40
0.0
 40
0.2618318917
 40
0.3908203654
 40
0.5167067600000001
 40
0.7615141606
 40
1.0
 40
1.0
 40
1.0
 40
1.0
 10
206.076282771
 20
153.0753529524
 30
0.0
 10
205.935011747
 20
153.0811907372
 30
0.0
 10
205.7329980962
 20
153.1919159014
 30
0.0
 10
205.5349807849
 20
153.3856201629
 30
0.0
 10
205.364941522
 20
153.5965721238
 30
0.0
 10
205.1937369023
 20
153.8785927589
 30
0.0
 10
205.0844695515
 20
154.11613843
 30
0.0
 10
205.0360346165
 20
154.2354678373
 30
0.0
  0
SPLINE
  5
336
330
213
100
AcDbEntity
  8
RUNDUNGEN
  6
Continuous
 62
     9
100
AcDbSpline
210
0.0
220
0.0
230
1.0
 70
     8
 71
     3
 72
    12
 73
     8
 74
     0
 42
0.0000000001
 43
0.0000000001
 40
0.0
 40
0.0
 40
0.0
 40
0.0
 40
0.2384864963
 40
0.4832945319000001
 40
0.6091818533
 40
0.7381715691
 40
1.0
 40
1.0
 40
1.0
 40
1.0
 10
231.7562446442
 20
154.2354674784
 30
0.0
 10
231.7078129062
 20
154.116137468
 30
0.0
 10
231.5985389724
 20
153.8785961499
 30
0.0
 10
231.4273292319
 20
153.5965791309
 30
0.0
 10
231.2572757089
 20
153.3856403591
 30
0.0
 10
231.0592725396
 20
153.1919257187
 30
0.0
 10
230.8572642727
 20
153.0812010068
 30
0.0
 10
230.7159966407
 20
153.0753529524
 30
0.0
  0
LINE
  5
337
330
213
100
AcDbEntity
  8
RUNDUNGEN
  6
Continuous
 62
     9
100
AcDbLine
 10
232.035507718
 20
155.2239202301
 30
0.0
 11
230.9381488785
 21
133.4161070204
 31
0.0
  0
SPLINE
  5
338
330
213
100
AcDbEntity
  8
RUNDUNGEN
  6
Continuous
 62
     9
100
AcDbSpline
210
0.0
220
0.0
230
1.0
 70
     8
 71
     3
 72
    12
 73
     8
 74
     0
 42
0.0000000001
 43
0.0000000001
 40
0.0
 40
0.0
 40
0.0
 40
0.0
 40
0.067744935
 40
0.1551302117
 40
0.387405075
 40
0.6818030807
 40
1.0
 40
1.0
 40
1.0
 40
1.0
 10
230.9381485229
 20
133.4160999617
 30
0.0
 10
230.9184091127
 20
133.3949615674
 30
0.0
 10
230.865126745
 20
133.3543321424
 30
0.0
 10
230.7181370795
 20
133.2778734954
 30
0.0
 10
230.466275804
 20
133.1990934166
 30
0.0
 10
230.1108405843
 20
133.1354290696
 30
0.0
 10
229.8490852923
 20
133.1179592593
 30
0.0
 10
229.7132406433
 20
133.1174254033
 30
0.0
  0
SPLINE
  5
339
330
213
100
AcDbEntity
  8
RUNDUNGEN
  6
Continuous
 62
     9
100
AcDbSpline
210
0.0
220
0.0
230
1.0
 70
     8
 71
     3
 72
    11
 73
     7
 74
     0
 42
0.0000000001
 43
0.0000000001
 40
0.0
 40
0.0
 40
0.0
 40
0.0
 40
0.2932061566
 40
0.5780269512000001
 40
0.8204630711
 40
1.0
 40
1.0
 40
1.0
 40
1.0
 10
201.0027224583
 20
155.9009935422
 30
0.0
 10
201.13332758
 20
155.9001157536
 30
0.0
 10
201.3912538857
 20
155.9223456582
 30
0.0
 10
201.7473501573
 20
156.0146332178
 30
0.0
 10
202.0321872805
 20
156.1504246438
 30
0.0
 10
202.1767755912
 20
156.2836794395
 30
0.0
 10
202.2129909163
 20
156.3549840468
 30
0.0
  0
SPLINE
  5
33A
330
213
100
AcDbEntity
  8
RUNDUNGEN
  6
Continuous
 62
     9
100
AcDbSpline
210
0.0
220
0.0
230
1.0
 70
     8
 71
     3
 72
    11
 73
     7
 74
     0
 42
0.0000000001
 43
0.0000000001
 40
0.0
 40
0.0
 40
0.0
 40
0.0
 40
0.1795472594
 40
0.422082742
 40
0.7069655161
 40
1.0
 40
1.0
 40
1.0
 40
1.0
 10
205.2216392866
 20
133.5441530248
 30
0.0
 10
205.1853391308
 20
133.4726767453
 30
0.0
 10
205.0402765795
 20
133.3391423191
 30
0.0
 10
204.7545861529
 20
133.2032741594
 30
0.0
 10
204.3975999783
 20
133.1109856447
 30
0.0
 10
204.1390761
 20
133.0890815117
 30
0.0
 10
204.0082439723
 20
133.0901625178
 30
0.0
  0
SPLINE
  5
33B
330
213
100
AcDbEntity
  8
RUNDUNGEN
  6
Continuous
 62
     9
100
AcDbSpline
210
0.0
220
0.0
230
1.0
 70
     8
 71
     3
 72
     9
 73
     5
 74
     0
 42
0.0000000001
 43
0.0000000001
 40
0.0
 40
0.0
 40
0.0
 40
0.0
 40
0.6187012662
 40
1.0
 40
1.0
 40
1.0
 40
1.0
 10
200.9164679285
 20
157.2510113802
 30
0.0
 10
201.1722204943
 20
157.250994495
 30
0.0
 10
201.585581183
 20
157.2521779412
 30
0.0
 10
201.9989698687
 20
157.2525693783
 30
0.0
 10
202.1565686615
 20
157.2549959196
 30
0.0
  0
SPLINE
  5
33C
330
213
100
AcDbEntity
  8
RUNDUNGEN
  6
Continuous
 62
     9
100
AcDbSpline
210
0.0
220
0.0
230
1.0
 70
     8
 71
     3
 72
    11
 73
     7
 74
     0
 42
0.0000000001
 43
0.0000000001
 40
0.0
 40
0.0
 40
0.0
 40
0.0
 40
0.2533645866
 40
0.5054060348000001
 40
0.7542959162000001
 40
1.0
 40
1.0
 40
1.0
 40
1.0
 10
206.6227176627
 20
159.4180737809
 30
0.0
 10
206.6248267221
 20
159.548026247
 30
0.0
 10
206.67778412
 20
159.8092075268
 30
0.0
 10
206.8956933769
 20
160.1401500461
 30
0.0
 10
207.2185927976
 20
160.3633410567
 30
0.0
 10
207.4750347906
 20
160.416641278
 30
0.0
 10
207.6010747119
 20
160.4167033157
 30
0.0
  0
SPLINE
  5
33D
330
213
100
AcDbEntity
  8
RUNDUNGEN
  6
Continuous
 62
     9
100
AcDbSpline
210
0.0
220
0.0
230
1.0
 70
     8
 71
     3
 72
    13
 73
     9
 74
     0
 42
0.0000000001
 43
0.0000000001
 40
0.0
 40
0.0
 40
0.0
 40
0.0
 40
0.3524184341
 40
0.6578015082000001
 40
0.7803912984
 40
0.8781838975999999
 40
0.9501265104000001
 40
1.0
 40
1.0
 40
1.0
 40
1.0
 10
207.8261708776
 20
159.418073781
 30
0.0
 10
207.8261708776
 20
159.5417232525
 30
0.0
 10
207.8162117103
 20
159.7725721286
 30
0.0
 10
207.7786099628
 20
160.0446151274
 30
0.0
 10
207.7318925561
 20
160.22328089
 30
0.0
 10
207.6943754243
 20
160.319221232
 30
0.0
 10
207.6546189333
 20
160.3854797645
 30
0.0
 10
207.6181623327
 20
160.4129331221
 30
0.0
 10
207.6010747119
 20
160.4167033157
 30
0.0
  0
SPLINE
  5
33E
330
213
100
AcDbEntity
  8
RUNDUNGEN
  6
Continuous
 62
     9
100
AcDbSpline
210
0.0
220
0.0
230
1.0
 70
     8
 71
     3
 72
    13
 73
     9
 74
     0
 42
0.0000000001
 43
0.0000000001
 40
0.0
 40
0.0
 40
0.0
 40
0.0
 40
0.3524184349
 40
0.6578015096000001
 40
0.7803912995000001
 40
0.8781838983
 40
0.9501265107
 40
1.0
 40
1.0
 40
1.0
 40
1.0
 10
228.9661085335
 20
159.418073781
 30
0.0
 10
228.9661085335
 20
159.5417232528
 30
0.0
 10
228.9760677019
 20
159.7725721294
 30
0.0
 10
229.0136694492
 20
160.0446151285
 30
0.0
 10
229.060386856
 20
160.2232808912
 30
0.0
 10
229.0979039878
 20
160.3192212327
 30
0.0
 10
229.1376604787
 20
160.3854797648
 30
0.0
 10
229.1741170792
 20
160.4129331221
 30
0.0
 10
229.1912046998
 20
160.4167033157
 30
0.0
  0
SPLINE
  5
33F
330
213
100
AcDbEntity
  8
RUNDUNGEN
  6
Continuous
 62
     9
100
AcDbSpline
210
0.0
220
0.0
230
1.0
 70
     8
 71
     3
 72
    11
 73
     7
 74
     0
 42
0.0000000001
 43
0.0000000001
 40
0.0
 40
0.0
 40
0.0
 40
0.0
 40
0.2533645915
 40
0.5054060414000001
 40
0.7542959206999999
 40
1.0
 40
1.0
 40
1.0
 40
1.0
 10
230.169561749
 20
159.4180737809
 30
0.0
 10
230.1674526794
 20
159.5480262494
 30
0.0
 10
230.1144952962
 20
159.8092075336
 30
0.0
 10
229.8965860272
 20
160.1401500518
 30
0.0
 10
229.5736866091
 20
160.3633410595
 30
0.0
 10
229.3172446189
 20
160.4166412773
 30
0.0
 10
229.1912046998
 20
160.4167033157
 30
0.0
  0
SPLINE
  5
340
330
213
100
AcDbEntity
  8
RUNDUNGEN
  6
Continuous
 62
     9
100
AcDbSpline
210
0.0
220
0.0
230
1.0
 70
     8
 71
     3
 72
    13
 73
     9
 74
     0
 42
0.0000000001
 43
0.0000000001
 40
0.0
 40
0.0
 40
0.0
 40
0.0
 40
0.351852676
 40
0.6566444478
 40
0.7791025313
 40
0.8769735062999998
 40
0.9493081835999999
 40
1.0
 40
1.0
 40
1.0
 40
1.0
 10
202.8722268553
 20
162.3220765591
 30
0.0
 10
202.8723463979
 20
162.1988184259
 30
0.0
 10
202.8827131709
 20
161.9687403815
 30
0.0
 10
202.9213349164
 20
161.6976973554
 30
0.0
 10
202.9691909346
 20
161.5198437253
 30
0.0
 10
203.0075830489
 20
161.4243036979
 30
0.0
 10
203.0484246502
 20
161.3582266545
 30
0.0
 10
203.0855492474
 20
161.331169126
 30
0.0
 10
203.1029094182
 20
161.3274315877
 30
0.0
  0
SPLINE
  5
341
330
213
100
AcDbEntity
  8
RUNDUNGEN
  6
Continuous
 62
     9
100
AcDbSpline
210
0.0
220
0.0
230
1.0
 70
     8
 71
     3
 72
    11
 73
     7
 74
     0
 42
0.0000000001
 43
0.0000000001
 40
0.0
 40
0.0
 40
0.0
 40
0.0
 40
0.2930344842
 40
0.5779172582
 40
0.8204527403
 40
1.0
 40
1.0
 40
1.0
 40
1.0
 10
232.7840354395
 20
133.0901625178
 30
0.0
 10
232.6532033117
 20
133.0890815117
 30
0.0
 10
232.3946794338
 20
133.1109856469
 30
0.0
 10
232.0376932587
 20
133.203274159
 30
0.0
 10
231.7520028334
 20
133.3391423204
 30
0.0
 10
231.606940281
 20
133.4726767452
 30
0.0
 10
231.5706401252
 20
133.5441530248
 30
0.0
  0
SPLINE
  5
342
330
213
100
AcDbEntity
  8
RUNDUNGEN
  6
Continuous
 62
     9
100
AcDbSpline
210
0.0
220
0.0
230
1.0
 70
     8
 71
     3
 72
    11
 73
     7
 74
     0
 42
0.0000000001
 43
0.0000000001
 40
0.0
 40
0.0
 40
0.0
 40
0.0
 40
0.2932057424
 40
0.5780263252000001
 40
0.8204626359
 40
1.0
 40
1.0
 40
1.0
 40
1.0
 10
235.7895555337
 20
155.90099618
 30
0.0
 10
235.658950874
 20
155.9001183999
 30
0.0
 10
235.4010253999
 20
155.92234813
 30
0.0
 10
235.044929989
 20
156.0146350256
 30
0.0
 10
234.7600930392
 20
156.1504256862
 30
0.0
 10
234.6155043539
 20
156.2836796836
 30
0.0
 10
234.5792884954
 20
156.3549840468
 30
0.0
  0
SPLINE
  5
343
330
213
100
AcDbEntity
  8
RUNDUNGEN
  6
Continuous
 62
     9
100
AcDbSpline
210
0.0
220
0.0
230
1.0
 70
     8
 71
     3
 72
     9
 73
     5
 74
     0
 42
0.0000000001
 43
0.0000000001
 40
0.0
 40
0.0
 40
0.0
 40
0.0
 40
0.6187024149
 40
1.0
 40
1.0
 40
1.0
 40
1.0
 10
235.8758131211
 20
157.2510113564
 30
0.0
 10
235.6200597426
 20
157.2509944681
 30
0.0
 10
235.2066985084
 20
157.2521779393
 30
0.0
 10
234.7933092757
 20
157.252569336
 30
0.0
 10
234.6357107503
 20
157.2549959196
 30
0.0
  0
SPLINE
  5
344
330
213
100
AcDbEntity
  8
RUNDUNGEN
  6
Continuous
 62
     9
100
AcDbSpline
210
0.0
220
0.0
230
1.0
 70
     8
 71
     3
 72
     9
 73
     5
 74
     0
 42
0.0000000001
 43
0.0000000001
 40
0.0
 40
0.0
 40
0.0
 40
0.0
 40
0.6187045228
 40
1.0
 40
1.0
 40
1.0
 40
1.0
 10
235.8789744318
 20
160.318913558
 30
0.0
 10
235.6232207976
 20
160.3188966707
 30
0.0
 10
235.2098605582
 20
160.3200800955
 30
0.0
 10
234.7964723209
 20
160.3204715542
 30
0.0
 10
234.638875046
 20
160.3228981214
 30
0.0
  0
SPLINE
  5
345
330
213
100
AcDbEntity
  8
RUNDUNGEN
  6
Continuous
 62
     9
100
AcDbSpline
210
0.0
220
0.0
230
1.0
 70
     8
 71
     3
 72
    11
 73
     7
 74
     0
 42
0.0000000001
 43
0.0000000001
 40
0.0
 40
0.0
 40
0.0
 40
0.0
 40
0.2541230044
 40
0.5046068578
 40
0.7522336413
 40
1.0
 40
1.0
 40
1.0
 40
1.0
 10
234.6388749336
 20
160.3228981214
 30
0.0
 10
234.6408846444
 20
160.4525324865
 30
0.0
 10
234.5965650084
 20
160.7134108956
 30
0.0
 10
234.3903095895
 20
161.0484235722999
 30
0.0
 10
234.0717618176
 20
161.2751819371
 30
0.0
 10
233.8157768463
 20
161.3275375114
 30
0.0
 10
233.6893700203
 20
161.3274295038
 30
0.0
  0
SPLINE
  5
346
330
213
100
AcDbEntity
  8
RUNDUNGEN
  6
Continuous
 62
     9
100
AcDbSpline
210
0.0
220
0.0
230
1.0
 70
     8
 71
     3
 72
    13
 73
     9
 74
     0
 42
0.0000000001
 43
0.0000000001
 40
0.0
 40
0.0
 40
0.0
 40
0.0
 40
0.0506918163
 40
0.1230264935
 40
0.2208974686
 40
0.3433555521
 40
0.6481473239
 40
1.0
 40
1.0
 40
1.0
 40
1.0
 10
233.6893699935
 20
161.3274315877
 30
0.0
 10
233.7067301643
 20
161.331169126
 30
0.0
 10
233.7438547613
 20
161.3582266546
 30
0.0
 10
233.7846963623
 20
161.4243036981
 30
0.0
 10
233.8230884764
 20
161.5198437255
 30
0.0
 10
233.8709444944
 20
161.6976973556
 30
0.0
 10
233.9095662401
 20
161.9687403817
 30
0.0
 10
233.9199330135
 20
162.1988184259
 30
0.0
 10
233.9200525564
 20
162.3220765591
 30
0.0
  0
SPLINE
  5
347
330
213
100
AcDbEntity
  8
RUNDUNGEN
  6
Continuous
 62
     9
100
AcDbSpline
210
0.0
220
0.0
230
1.0
 70
     8
 71
     3
 72
    11
 73
     7
 74
     0
 42
0.0000000001
 43
0.0000000001
 40
0.0
 40
0.0
 40
0.0
 40
0.0
 40
0.2477662037
 40
0.4953930319000001
 40
0.7458769229000001
 40
1.0
 40
1.0
 40
1.0
 40
1.0
 10
203.1029093901
 20
161.3274293973
 30
0.0
 10
202.9765026453
 20
161.3275374149
 30
0.0
 10
202.7205177271
 20
161.2751819655
 30
0.0
 10
202.4019699083
 20
161.0484237097
 30
0.0
 10
202.1957144149
 20
160.7134109839
 30
0.0
 10
202.1513947718
 20
160.4525325215
 30
0.0
 10
202.1534044746
 20
160.3228981214
 30
0.0
  0
SPLINE
  5
348
330
213
100
AcDbEntity
  8
RUNDUNGEN
  6
Continuous
 62
     9
100
AcDbSpline
210
0.0
220
0.0
230
1.0
 70
     8
 71
     3
 72
     9
 73
     5
 74
     0
 42
0.0000000001
 43
0.0000000001
 40
0.0
 40
0.0
 40
0.0
 40
0.0
 40
0.3812954986
 40
1.0
 40
1.0
 40
1.0
 40
1.0
 10
202.1534044746
 20
160.3228981214
 30
0.0
 10
201.995807184
 20
160.3204715541
 30
0.0
 10
201.5824189287
 20
160.3200800959
 30
0.0
 10
201.1690586713
 20
160.3188966713
 30
0.0
 10
200.9133050348
 20
160.3189135588
 30
0.0
  0
SPLINE
  5
349
330
213
100
AcDbEntity
  8
RUNDUNGEN
  6
Continuous
 62
     9
100
AcDbSpline
210
0.0
220
0.0
230
1.0
 70
     8
 71
     3
 72
    11
 73
     7
 74
     0
 42
0.0000000001
 43
0.0000000001
 40
0.0
 40
0.0
 40
0.0
 40
0.0
 40
0.2458538137
 40
0.4943762122
 40
0.7461835596
 40
1.0
 40
1.0
 40
1.0
 40
1.0
 10
207.5927889134
 20
154.3498879156
 30
0.0
 10
207.4669090542
 20
154.3499083105
 30
0.0
 10
207.2109373506
 20
154.4028298644
 30
0.0
 10
206.8892980832
 20
154.6265400204
 30
0.0
 10
206.6740820886
 20
154.9584492083
 30
0.0
 10
206.6236228557
 20
155.2197819499
 30
0.0
 10
206.6227176628
 20
155.3497356108
 30
0.0
  0
SPLINE
  5
34A
330
213
100
AcDbEntity
  8
RUNDUNGEN
  6
Continuous
 62
     9
100
AcDbSpline
210
0.0
220
0.0
230
1.0
 70
     8
 71
     3
 72
    14
 73
    10
 74
     0
 42
0.0000000001
 43
0.0000000001
 40
0.0
 40
0.0
 40
0.0
 40
0.0
 40
0.0479149876
 40
0.1171479478
 40
0.213084341
 40
0.3350303005
 40
0.4797723656000001
 40
0.6426740667000001
 40
1.0
 40
1.0
 40
1.0
 40
1.0
 10
207.5927889134
 20
154.3498879156
 30
0.0
 10
207.6096864094
 20
154.3511296541
 30
0.0
 10
207.648230685
 20
154.374238793
 30
0.0
 10
207.6891843977
 20
154.4381329603
 30
0.0
 10
207.7280821558
 20
154.5323285257
 30
0.0
 10
207.761714538
 20
154.6562857043
 30
0.0
 10
207.7896942298
 20
154.8057121798
 30
0.0
 10
207.8182462373
 20
155.0392157788
 30
0.0
 10
207.8261708783
 20
155.2233827712
 30
0.0
 10
207.8261708783
 20
155.3497356108
 30
0.0
  0
SPLINE
  5
34B
330
213
100
AcDbEntity
  8
RUNDUNGEN
  6
Continuous
 62
     9
100
AcDbSpline
210
0.0
220
0.0
230
1.0
 70
     8
 71
     3
 72
    14
 73
    10
 74
     0
 42
0.0000000001
 43
0.0000000001
 40
0.0
 40
0.0
 40
0.0
 40
0.0
 40
0.0479149876
 40
0.1171479478
 40
0.213084341
 40
0.3350303006
 40
0.4797723657
 40
0.6426740667999999
 40
1.0
 40
1.0
 40
1.0
 40
1.0
 10
229.1994904983
 20
154.3498879156
 30
0.0
 10
229.1825930024
 20
154.3511296541
 30
0.0
 10
229.1440487267
 20
154.374238793
 30
0.0
 10
229.1030950141
 20
154.4381329603
 30
0.0
 10
229.0641972559
 20
154.5323285257
 30
0.0
 10
229.0305648737
 20
154.6562857044
 30
0.0
 10
229.0025851819
 20
154.8057121798
 30
0.0
 10
228.9740331745
 20
155.0392157788
 30
0.0
 10
228.9661085335
 20
155.2233827712
 30
0.0
 10
228.9661085335
 20
155.3497356108
 30
0.0
  0
SPLINE
  5
34C
330
213
100
AcDbEntity
  8
RUNDUNGEN
  6
Continuous
 62
     9
100
AcDbSpline
210
0.0
220
0.0
230
1.0
 70
     8
 71
     3
 72
    11
 73
     7
 74
     0
 42
0.0000000001
 43
0.0000000001
 40
0.0
 40
0.0
 40
0.0
 40
0.0
 40
0.245853807
 40
0.4943762024
 40
0.7461835523999999
 40
1.0
 40
1.0
 40
1.0
 40
1.0
 10
229.1994904983
 20
154.3498879156
 30
0.0
 10
229.3253703542
 20
154.3499083108
 30
0.0
 10
229.5813420536
 20
154.4028298608
 30
0.0
 10
229.9029813174
 20
154.6265400117
 30
0.0
 10
230.1181973295
 20
154.9584491986
 30
0.0
 10
230.1686565412
 20
155.2197819463
 30
0.0
 10
230.169561749
 20
155.3497356108
 30
0.0
  0
SPLINE
  5
34D
330
213
100
AcDbEntity
  8
RUNDUNGEN
  6
Continuous
 62
     9
100
AcDbSpline
210
0.0
220
0.0
230
1.0
 70
     8
 71
     3
 72
     9
 73
     5
 74
     0
 42
0.0000000001
 43
0.0000000001
 40
0.0
 40
0.0
 40
0.0
 40
0.0
 40
0.2290857683
 40
1.0
 40
1.0
 40
1.0
 40
1.0
 10
232.035507718
 20
155.2239202301
 30
0.0
 10
232.0108840694
 20
155.1859748081
 30
0.0
 10
231.8965196039
 20
155.0248319194
 30
0.0
 10
231.75719526
 20
154.8820334483
 30
0.0
 10
231.6414681591
 20
154.7831444873
 30
0.0
  0
SPLINE
  5
34E
330
213
100
AcDbEntity
  8
RUNDUNGEN
  6
Continuous
 62
     9
100
AcDbSpline
210
0.0
220
0.0
230
1.0
 70
     8
 71
     3
 72
     9
 73
     5
 74
     0
 42
0.0000000001
 43
0.0000000001
 40
0.0
 40
0.0
 40
0.0
 40
0.0
 40
0.2464454752
 40
1.0
 40
1.0
 40
1.0
 40
1.0
 10
232.035507718
 20
155.2239202301
 30
0.0
 10
232.0211150924
 20
155.1406910518
 30
0.0
 10
231.9540975376
 20
154.8045676986
 30
0.0
 10
231.8533634411
 20
154.4747743633
 30
0.0
 10
231.7562426236
 20
154.2354648386
 30
0.0
  0
SPLINE
  5
34F
330
213
100
AcDbEntity
  8
RUNDUNGEN
  6
Continuous
 62
     9
100
AcDbSpline
210
0.0
220
0.0
230
1.0
 70
     8
 71
     3
 72
    10
 73
     6
 74
     0
 42
0.0000000001
 43
0.0000000001
 40
0.0
 40
0.0
 40
0.0
 40
0.0
 40
0.4186971556000001
 40
0.6814744756000001
 40
1.0
 40
1.0
 40
1.0
 40
1.0
 10
231.6414616994
 20
154.7831479593
 30
0.0
 10
231.5031144253
 20
154.6649456584
 30
0.0
 10
231.2555442531
 20
154.496290751
 30
0.0
 10
230.8565936294
 20
154.3224603603
 30
0.0
 10
230.6049029202
 20
154.2683786464
 30
0.0
 10
230.4664946478
 20
154.2658361343
 30
0.0
  0
SPLINE
  5
350
330
213
100
AcDbEntity
  8
RUNDUNGEN
  6
Continuous
 62
     9
100
AcDbSpline
210
0.0
220
0.0
230
1.0
 70
     8
 71
     3
 72
    15
 73
    11
 74
     0
 42
0.0000000001
 43
0.0000000001
 40
0.0
 40
0.0
 40
0.0
 40
0.0
 40
0.0467817526
 40
0.0787210891
 40
0.1176313895
 40
0.2168646557
 40
0.3427837643
 40
0.4907273233
 40
0.6544710968000001
 40
1.0
 40
1.0
 40
1.0
 40
1.0
 10
230.4484813493
 20
154.2656704707
 30
0.0
 10
230.4679594964
 20
154.2642513176
 30
0.0
 10
230.4982690517
 20
154.244036384
 30
0.0
 10
230.5276674006
 20
154.2052306768
 30
0.0
 10
230.5623186003
 20
154.1427721335
 30
0.0
 10
230.5990977669
 20
154.0383964391
 30
0.0
 10
230.6344940901
 20
153.886542111
 30
0.0
 10
230.6614959225
 20
153.7056864206
 30
0.0
 10
230.685036513
 20
153.4322369654
 30
0.0
 10
230.6861827358
 20
153.2191040946
 30
0.0
 10
230.6794726674
 20
153.0750137802
 30
0.0
  0
SPLINE
  5
351
330
213
100
AcDbEntity
  8
RUNDUNGEN
  6
Continuous
 62
     9
100
AcDbSpline
210
0.0
220
0.0
230
1.0
 70
     8
 71
     3
 72
    15
 73
    11
 74
     0
 42
0.0000000001
 43
0.0000000001
 40
0.0
 40
0.0
 40
0.0
 40
0.0
 40
0.0466483803
 40
0.0786805851
 40
0.1177243844
 40
0.2172437774
 40
0.3433778839
 40
0.4914101854
 40
0.6550892448
 40
1.0
 40
1.0
 40
1.0
 40
1.0
 10
230.4664946859
 20
154.2658333242
 30
0.0
 10
230.4859463338
 20
154.2643676566
 30
0.0
 10
230.5161601342
 20
154.2439999988
 30
0.0
 10
230.5458333846
 20
154.2052897604
 30
0.0
 10
230.5811696067
 20
154.1428292628
 30
0.0
 10
230.6193649383
 20
154.0385156336
 30
0.0
 10
230.6570557058
 20
153.8866901009
 30
0.0
 10
230.6869687572
 20
153.7058885304
 30
0.0
 10
230.7151010167
 20
153.4326622748
 30
0.0
 10
230.7200594295
 20
153.219525855
 30
0.0
 10
230.7159966098
 20
153.0753529775
 30
0.0
  0
SPLINE
  5
352
330
213
100
AcDbEntity
  8
RUNDUNGEN
  6
Continuous
 62
     9
100
AcDbSpline
210
0.0
220
0.0
230
1.0
 70
     8
 71
     3
 72
    15
 73
    11
 74
     0
 42
0.0000000001
 43
0.0000000001
 40
0.0
 40
0.0
 40
0.0
 40
0.0
 40
0.3455289032
 40
0.5092726766000001
 40
0.6572162357
 40
0.7831353443000002
 40
0.8823686105
 40
0.9212789109
 40
0.9532182473999998
 40
1.0
 40
1.0
 40
1.0
 40
1.0
 10
206.1128067444
 20
153.0750137802
 30
0.0
 10
206.106096676
 20
153.2191040946
 30
0.0
 10
206.1072428987
 20
153.4322369654
 30
0.0
 10
206.1307834893
 20
153.7056864206
 30
0.0
 10
206.1577853216
 20
153.886542111
 30
0.0
 10
206.1931816449
 20
154.0383964391
 30
0.0
 10
206.2299608114
 20
154.1427721335
 30
0.0
 10
206.2646120111
 20
154.2052306768
 30
0.0
 10
206.29401036
 20
154.244036384
 30
0.0
 10
206.3243199154
 20
154.2642513176
 30
0.0
 10
206.3437980625
 20
154.2656704707
 30
0.0
  0
SPLINE
  5
353
330
213
100
AcDbEntity
  8
RUNDUNGEN
  6
Continuous
 62
     9
100
AcDbSpline
210
0.0
220
0.0
230
1.0
 70
     8
 71
     3
 72
    10
 73
     6
 74
     0
 42
0.0000000001
 43
0.0000000001
 40
0.0
 40
0.0
 40
0.0
 40
0.0
 40
0.3185246273
 40
0.5812995653000001
 40
1.0
 40
1.0
 40
1.0
 40
1.0
 10
206.3257847701
 20
154.2658365861
 30
0.0
 10
206.1873764129
 20
154.2683792823
 30
0.0
 10
205.9356864713
 20
154.3224598164
 30
0.0
 10
205.5367320669
 20
154.4962873879
 30
0.0
 10
205.2891667442
 20
154.6649508884
 30
0.0
 10
205.1508148122
 20
154.7831508987
 30
0.0
  0
SPLINE
  5
354
330
213
100
AcDbEntity
  8
RUNDUNGEN
  6
Continuous
 62
     9
100
AcDbSpline
210
0.0
220
0.0
230
1.0
 70
     8
 71
     3
 72
    15
 73
    11
 74
     0
 42
0.0000000001
 43
0.0000000001
 40
0.0
 40
0.0
 40
0.0
 40
0.0
 40
0.046647727
 40
0.0786798423
 40
0.1177237616
 40
0.2172438435
 40
0.3433787874
 40
0.4914115979
 40
0.6550906002
 40
1.0
 40
1.0
 40
1.0
 40
1.0
 10
206.3257847701
 20
154.2658365861
 30
0.0
 10
206.3063333571
 20
154.2643715797
 30
0.0
 10
206.2761194646
 20
154.2440040971
 30
0.0
 10
206.2464467555
 20
154.2052938768
 30
0.0
 10
206.2111109341
 20
154.1428328222
 30
0.0
 10
206.172916375
 20
154.0385182588
 30
0.0
 10
206.1352264669
 20
153.8866917337
 30
0.0
 10
206.1053142083
 20
153.7058895991
 30
0.0
 10
206.0771826857
 20
153.4326638091
 30
0.0
 10
206.0722240979
 20
153.2195281516
 30
0.0
 10
206.0762864171
 20
153.0753559075
 30
0.0
  0
SPLINE
  5
355
330
213
100
AcDbEntity
  8
RUNDUNGEN
  6
Continuous
 62
     9
100
AcDbSpline
210
0.0
220
0.0
230
1.0
 70
     8
 71
     3
 72
     9
 73
     5
 74
     0
 42
0.0000000001
 43
0.0000000001
 40
0.0
 40
0.0
 40
0.0
 40
0.0
 40
0.2541915771
 40
1.0
 40
1.0
 40
1.0
 40
1.0
 10
205.0360338443
 20
154.2354710517
 30
0.0
 10
205.0032664757
 20
154.3162002326
 30
0.0
 10
204.8842593809
 20
154.6377549786
 30
0.0
 10
204.8003324968
 20
154.9720284943
 30
0.0
 10
204.7567716937
 20
155.2239202301
 30
0.0
  0
SPLINE
  5
356
330
213
100
AcDbEntity
  8
RUNDUNGEN
  6
Continuous
 62
     9
100
AcDbSpline
210
0.0
220
0.0
230
1.0
 70
     8
 71
     3
 72
     9
 73
     5
 74
     0
 42
0.0000000001
 43
0.0000000001
 40
0.0
 40
0.0
 40
0.0
 40
0.0
 40
0.2732937875
 40
1.0
 40
1.0
 40
1.0
 40
1.0
 10
205.1508099914
 20
154.7831483072
 30
0.0
 10
205.109784568
 20
154.818201976
 30
0.0
 10
204.9640371086
 20
154.9513707695
 30
0.0
 10
204.8348762751
 20
155.1035530466
 30
0.0
 10
204.7567716937
 20
155.2239202301
 30
0.0
  0
SPLINE
  5
357
330
213
100
AcDbEntity
  8
RUNDUNGEN
  6
Continuous
 62
     9
100
AcDbSpline
210
0.0
220
0.0
230
1.0
 70
     8
 71
     3
 72
    12
 73
     8
 74
     0
 42
0.0000000001
 43
0.0000000001
 40
0.0
 40
0.0
 40
0.0
 40
0.0
 40
0.3570742795
 40
0.6476802242000001
 40
0.7639949036
 40
0.8602709246999999
 40
1.0
 40
1.0
 40
1.0
 40
1.0
 10
232.7840354395
 20
133.0901625178
 30
0.0
 10
232.7738050646
 20
133.0178714084
 30
0.0
 10
232.7498269932
 20
132.8874045547
 30
0.0
 10
232.7044670669
 20
132.7373793667
 30
0.0
 10
232.6593521637
 20
132.6442341367
 30
0.0
 10
232.6199170247
 20
132.5847977394
 30
0.0
 10
232.5791769541
 20
132.5508210619
 30
0.0
 10
232.5511018186
 20
132.5455234901
 30
0.0
  0
SPLINE
  5
358
330
213
100
AcDbEntity
  8
RUNDUNGEN
  6
Continuous
 62
     9
100
AcDbSpline
210
0.0
220
0.0
230
1.0
 70
     8
 71
     3
 72
    12
 73
     8
 74
     0
 42
0.0000000001
 43
0.0000000001
 40
0.0
 40
0.0
 40
0.0
 40
0.0
 40
0.1270952516
 40
0.2542160111
 40
0.5059770821000001
 40
0.7545813084999999
 40
1.0
 40
1.0
 40
1.0
 40
1.0
 10
231.5706401252
 20
133.5441530248
 30
0.0
 10
231.5719631636
 20
133.478808129
 30
0.0
 10
231.5857505545
 20
133.3478962976
 30
0.0
 10
231.662391463
 20
133.0979095207
 30
0.0
 10
231.8443229415
 20
132.8209687354
 30
0.0
 10
232.1679896436
 20
132.5982572253
 30
0.0
 10
232.4248963316
 20
132.5452899098
 30
0.0
 10
232.5511018186
 20
132.5455234901
 30
0.0
  0
SPLINE
  5
359
330
213
100
AcDbEntity
  8
RUNDUNGEN
  6
Continuous
 62
     9
100
AcDbSpline
210
0.0
220
0.0
230
1.0
 70
     8
 71
     3
 72
    11
 73
     7
 74
     0
 42
0.0000000001
 43
0.0000000001
 40
0.0
 40
0.0
 40
0.0
 40
0.0
 40
0.2533722865
 40
0.5054130026000001
 40
0.7542908035
 40
1.0
 40
1.0
 40
1.0
 40
1.0
 10
230.9381562132
 20
133.4161085878
 30
0.0
 10
230.9399210708
 20
133.2859687823
 30
0.0
 10
230.993555708
 20
133.0244292098
 30
0.0
 10
231.2118186652
 20
132.6931916287
 30
0.0
 10
231.5355401077
 20
132.4700582062
 30
0.0
 10
231.7924527537
 20
132.4173387451
 30
0.0
 10
231.9186680859
 20
132.4174797568
 30
0.0
  0
SPLINE
  5
35A
330
213
100
AcDbEntity
  8
RUNDUNGEN
  6
Continuous
 62
     9
100
AcDbSpline
210
0.0
220
0.0
230
1.0
 70
     8
 71
     3
 72
    13
 73
     9
 74
     0
 42
0.0000000001
 43
0.0000000001
 40
0.0
 40
0.0
 40
0.0
 40
0.0
 40
0.3599032929999999
 40
0.6608485122
 40
0.7802519006000001
 40
0.8758735272999999
 40
0.9477164400999999
 40
1.0
 40
1.0
 40
1.0
 40
1.0
 10
229.7131909813
 20
133.1174232927
 30
0.0
 10
229.7083929495
 20
133.0140557459
 30
0.0
 10
229.6922972523
 20
132.8245512993
 30
0.0
 10
229.6522839326
 20
132.6030848459
 30
0.0
 10
229.6077976325
 20
132.4613416136
 30
0.0
 10
229.5735635276
 20
132.3859338756
 30
0.0
 10
229.5373385853
 20
132.3336929605
 30
0.0
 10
229.505963193
 20
132.3128251947
 30
0.0
 10
229.4912801553
 20
132.3096027534
 30
0.0
  0
SPLINE
  5
35B
330
213
100
AcDbEntity
  8
RUNDUNGEN
  6
Continuous
 62
     9
100
AcDbSpline
210
0.0
220
0.0
230
1.0
 70
     8
 71
     3
 72
    13
 73
     9
 74
     0
 42
0.0000000001
 43
0.0000000001
 40
0.0
 40
0.0
 40
0.0
 40
0.0
 40
0.359903283
 40
0.6608484972
 40
0.7802518854000001
 40
0.8758735138
 40
0.9477164314000001
 40
1.0
 40
1.0
 40
1.0
 40
1.0
 10
207.0790884304
 20
133.1174232927
 30
0.0
 10
207.0838864562
 20
133.0140557472
 30
0.0
 10
207.0999821444
 20
132.8245513018
 30
0.0
 10
207.1399954586
 20
132.6030848487
 30
0.0
 10
207.1844817599
 20
132.4613416157
 30
0.0
 10
207.2187158681
 20
132.3859338761
 30
0.0
 10
207.2549408178
 20
132.3336929592
 30
0.0
 10
207.286316216
 20
132.3128251945
 30
0.0
 10
207.3009992564
 20
132.3096027534
 30
0.0
  0
SPLINE
  5
35C
330
213
100
AcDbEntity
  8
RUNDUNGEN
  6
Continuous
 62
     9
100
AcDbSpline
210
0.0
220
0.0
230
1.0
 70
     8
 71
     3
 72
    11
 73
     7
 74
     0
 42
0.0000000001
 43
0.0000000001
 40
0.0
 40
0.0
 40
0.0
 40
0.0
 40
0.2533722837
 40
0.5054129997
 40
0.7542908028000001
 40
1.0
 40
1.0
 40
1.0
 40
1.0
 10
205.8541227913
 20
133.4161085878
 30
0.0
 10
205.8523579336
 20
133.2859687774
 30
0.0
 10
205.7987233447
 20
133.0244291978
 30
0.0
 10
205.5804605546
 20
132.6931915006
 30
0.0
 10
205.2567392666
 20
132.4700578329
 30
0.0
 10
204.9998266543
 20
132.4173381511
 30
0.0
 10
204.8736113156
 20
132.4174790529
 30
0.0
  0
SPLINE
  5
35D
330
213
100
AcDbEntity
  8
RUNDUNGEN
  6
Continuous
 62
     9
100
AcDbSpline
210
0.0
220
0.0
230
1.0
 70
     8
 71
     3
 72
    12
 73
     8
 74
     0
 42
0.0000000001
 43
0.0000000001
 40
0.0
 40
0.0
 40
0.0
 40
0.0
 40
0.1270952515
 40
0.2542160107
 40
0.5059770815000001
 40
0.7545813081000001
 40
1.0
 40
1.0
 40
1.0
 40
1.0
 10
205.2216392866
 20
133.5441530248
 30
0.0
 10
205.2203162488
 20
133.478808129
 30
0.0
 10
205.2065288577
 20
133.3478962978
 30
0.0
 10
205.1298879486
 20
133.0979095216
 30
0.0
 10
204.947956471
 20
132.8209687359
 30
0.0
 10
204.6242897687
 20
132.5982572256
 30
0.0
 10
204.3673830804
 20
132.5452899097
 30
0.0
 10
204.2411775932
 20
132.5455234901
 30
0.0
  0
SPLINE
  5
35E
330
213
100
AcDbEntity
  8
RUNDUNGEN
  6
Continuous
 62
     9
100
AcDbSpline
210
0.0
220
0.0
230
1.0
 70
     8
 71
     3
 72
    12
 73
     8
 74
     0
 42
0.0000000001
 43
0.0000000001
 40
0.0
 40
0.0
 40
0.0
 40
0.0
 40
0.357074281
 40
0.6476802243000001
 40
0.7639949043000001
 40
0.8602709251999998
 40
1.0
 40
1.0
 40
1.0
 40
1.0
 10
204.0082439692
 20
133.090162524
 30
0.0
 10
204.0184743443
 20
133.0178714136
 30
0.0
 10
204.0424524223
 20
132.8874045598
 30
0.0
 10
204.0878123456
 20
132.7373793694
 30
0.0
 10
204.1329272492
 20
132.6442341385
 30
0.0
 10
204.1723623883
 20
132.5847977406
 30
0.0
 10
204.2131024584
 20
132.5508210617
 30
0.0
 10
204.2411775941999
 20
132.5455234899
 30
0.0
  0
SPLINE
  5
35F
330
213
100
AcDbEntity
  8
RUNDUNGEN
  6
Continuous
 62
     9
100
AcDbSpline
210
0.0
220
0.0
230
1.0
 70
     8
 71
     3
 72
    13
 73
     9
 74
     0
 42
0.0000000001
 43
0.0000000001
 40
0.0
 40
0.0
 40
0.0
 40
0.0
 40
0.2475454925
 40
0.4962283658
 40
0.6216988782000001
 40
0.7475478324
 40
0.8736871623999999
 40
1.0
 40
1.0
 40
1.0
 40
1.0
 10
232.2810914498
 20
229.3843410846
 30
0.0
 10
232.0110218209
 20
229.3843316725
 30
0.0
 10
231.4653369725
 20
229.474170248
 30
0.0
 10
230.8604256259
 20
229.815794149
 30
0.0
 10
230.4801076165
 20
230.2114494714
 30
0.0
 10
230.2601076199
 20
230.5633886169
 30
0.0
 10
230.1212914591
 20
230.9555208646
 30
0.0
 10
230.0896263194
 20
231.2319658333
 30
0.0
 10
230.0896420279
 20
231.3697718609
 30
0.0
  0
SPLINE
  5
360
330
213
100
AcDbEntity
  8
RUNDUNGEN
  6
Continuous
 62
     9
100
AcDbSpline
210
0.0
220
0.0
230
1.0
 70
     8
 71
     3
 72
     8
 73
     4
 74
     0
 42
0.0000000001
 43
0.0000000001
 40
0.0
 40
0.0
 40
0.0
 40
0.0
 40
1.0
 40
1.0
 40
1.0
 40
1.0
 10
233.555450678
 20
230.4720733701
 30
0.0
 10
233.0667166648
 20
230.4430902959
 30
0.0
 10
232.5780035719
 20
230.413753639
 30
0.0
 10
232.0893044074
 20
230.3841887797
 30
0.0
  0
SPLINE
  5
361
330
213
100
AcDbEntity
  8
RUNDUNGEN
  6
Continuous
 62
     9
100
AcDbSpline
210
0.0
220
0.0
230
1.0
 70
     8
 71
     3
 72
    13
 73
     9
 74
     0
 42
0.0000000001
 43
0.0000000001
 40
0.0
 40
0.0
 40
0.0
 40
0.0
 40
0.0567475159
 40
0.1403830495
 40
0.2483225818
 40
0.3770566204
 40
0.678445688
 40
1.0
 40
1.0
 40
1.0
 40
1.0
 10
231.9186680962
 20
132.417479053
 30
0.0
 10
231.873591364
 20
132.4083471866
 30
0.0
 10
231.7606427467
 20
132.3933906384
 30
0.0
 10
231.5603151845
 20
132.3744344562999
 30
0.0
 10
231.3012728282
 20
132.3567112518
 30
0.0
 10
230.8657641829
 20
132.3342393922
 30
0.0
 10
230.2567760871
 20
132.3153113425
 30
0.0
 10
229.7518917602
 20
132.3095870004
 30
0.0
 10
229.4912801553
 20
132.3096027534
 30
0.0
  0
SPLINE
  5
362
330
213
100
AcDbEntity
  8
RUNDUNGEN
  6
Continuous
 62
     9
100
AcDbSpline
210
0.0
220
0.0
230
1.0
 70
     8
 71
     3
 72
    14
 73
    10
 74
     0
 42
0.0000000001
 43
0.0000000001
 40
0.0
 40
0.0
 40
0.0
 40
0.0
 40
0.3579267157
 40
0.5210618637
 40
0.6659600092
 40
0.7879528134
 40
0.8837851467
 40
0.9526966294999999
 40
1.0
 40
1.0
 40
1.0
 40
1.0
 10
233.3263777248
 20
231.4719210653
 30
0.0
 10
233.3263777248
 20
231.345571987
 30
0.0
 10
233.3341589756
 20
231.1614320389
 30
0.0
 10
233.3621981098
 20
230.9279227552
 30
0.0
 10
233.3896777261
 20
230.7785136701
 30
0.0
 10
233.4226813926
 20
230.6545900034
 30
0.0
 10
233.4608869154
 20
230.5604387651
 30
0.0
 10
233.5009370859
 20
230.4966327082
 30
0.0
 10
233.5389396416
 20
230.4733192967
 30
0.0
 10
233.5555913097
 20
230.4720733701
 30
0.0
  0
SPLINE
  5
363
330
213
100
AcDbEntity
  8
RUNDUNGEN
  6
Continuous
 62
     9
100
AcDbSpline
210
0.0
220
0.0
230
1.0
 70
     8
 71
     3
 72
    11
 73
     7
 74
     0
 42
0.0000000001
 43
0.0000000001
 40
0.0
 40
0.0
 40
0.0
 40
0.0
 40
0.2458850068
 40
0.4943967323
 40
0.7461819508
 40
1.0
 40
1.0
 40
1.0
 40
1.0
 10
233.5555913097
 20
230.4720733701
 30
0.0
 10
233.4303367264
 20
230.4731527335
 30
0.0
 10
233.176123033
 20
230.5275659542
 30
0.0
 10
232.8572939653
 20
230.7517641129
 30
0.0
 10
232.6445284315
 20
231.0826216825
 30
0.0
 10
232.5942496232
 20
231.3426215818
 30
0.0
 10
232.5937368675
 20
231.4719210653
 30
0.0
  0
SPLINE
  5
364
330
213
100
AcDbEntity
  8
RUNDUNGEN
  6
Continuous
 62
     9
100
AcDbSpline
210
0.0
220
0.0
230
1.0
 70
     8
 71
     3
 72
    12
 73
     8
 74
     0
 42
0.0000000001
 43
0.0000000001
 40
0.0
 40
0.0
 40
0.0
 40
0.0
 40
0.1347999699
 40
0.2674468697
 40
0.5209976824
 40
0.763636473
 40
1.0
 40
1.0
 40
1.0
 40
1.0
 10
230.8908714431
 20
231.3697718609
 30
0.0
 10
230.8905576736
 20
231.2926663952
 30
0.0
 10
230.9116614787
 20
231.1387380256
 30
0.0
 10
231.0309560735
 20
230.8623627516
 30
0.0
 10
231.2901249197
 20
230.5951846651
 30
0.0
 10
231.677868093
 20
230.4191320049
 30
0.0
 10
231.9537435174
 20
230.3833343036
 30
0.0
 10
232.0889416638
 20
230.3841895628
 30
0.0
  0
SPLINE
  5
365
330
213
100
AcDbEntity
  8
RUNDUNGEN
  6
Continuous
 62
     9
100
AcDbSpline
210
0.0
220
0.0
230
1.0
 70
     8
 71
     3
 72
    15
 73
    11
 74
     0
 42
0.0000000001
 43
0.0000000001
 40
0.0
 40
0.0
 40
0.0
 40
0.0
 40
0.0418590496
 40
0.0715366549
 40
0.1082328774
 40
0.2032221291
 40
0.3256461015
 40
0.4718872105
 40
0.6370130687
 40
1.0
 40
1.0
 40
1.0
 40
1.0
 10
232.0889416621
 20
230.3841887797
 30
0.0
 10
232.1034497887
 20
230.3828938484
 30
0.0
 10
232.1256343125
 20
230.3660574729
 30
0.0
 10
232.1467981369
 20
230.3354685301
 30
0.0
 10
232.1725394161
 20
230.28515695
 30
0.0
 10
232.2002914047
 20
230.2009603353
 30
0.0
 10
232.2281733517
 20
230.0774043227
 30
0.0
 10
232.2510638263
 20
229.9281045657
 30
0.0
 10
232.2746054514
 20
229.6945687715
 30
0.0
 10
232.2810913183
 20
229.5106505868
 30
0.0
 10
232.2810913188
 20
229.3843410846
 30
0.0
  0
SPLINE
  5
366
330
213
100
AcDbEntity
  8
RUNDUNGEN
  6
Continuous
 62
     9
100
AcDbSpline
210
0.0
220
0.0
230
1.0
 70
     8
 71
     3
 72
    15
 73
    11
 74
     0
 42
0.0000000001
 43
0.0000000001
 40
0.0
 40
0.0
 40
0.0
 40
0.0
 40
0.3629869313
 40
0.5281127895000001
 40
0.6743538984999999
 40
0.7967778709000001
 40
0.8917671225999999
 40
0.9284633451000001
 40
0.9581409503999999
 40
1.0
 40
1.0
 40
1.0
 40
1.0
 10
204.511188093
 20
229.3843410846
 30
0.0
 10
204.5111880935
 20
229.5106505868
 30
0.0
 10
204.5176739606
 20
229.6945687715
 30
0.0
 10
204.5412155858
 20
229.9281045657
 30
0.0
 10
204.5641060606
 20
230.0774043227
 30
0.0
 10
204.5919880076
 20
230.2009603353
 30
0.0
 10
204.6197399963
 20
230.28515695
 30
0.0
 10
204.6454812755
 20
230.3354685301
 30
0.0
 10
204.6666451
 20
230.3660574728
 30
0.0
 10
204.6888296237
 20
230.3828938484
 30
0.0
 10
204.7033377503
 20
230.3841887797
 30
0.0
  0
SPLINE
  5
367
330
213
100
AcDbEntity
  8
RUNDUNGEN
  6
Continuous
 62
     9
100
AcDbSpline
210
0.0
220
0.0
230
1.0
 70
     8
 71
     3
 72
    12
 73
     8
 74
     0
 42
0.0000000001
 43
0.0000000001
 40
0.0
 40
0.0
 40
0.0
 40
0.0
 40
0.2363635268
 40
0.4790023175
 40
0.7325531303
 40
0.8652000303000001
 40
1.0
 40
1.0
 40
1.0
 40
1.0
 10
204.7033377484
 20
230.384189563
 30
0.0
 10
204.8385358946
 20
230.3833343038
 30
0.0
 10
205.114411319
 20
230.4191320033
 30
0.0
 10
205.502154492
 20
230.5951846635
 30
0.0
 10
205.7613233395
 20
230.8623627494
 30
0.0
 10
205.8806179327
 20
231.138738024
 30
0.0
 10
205.9017217384
 20
231.2926663934
 30
0.0
 10
205.9014079684
 20
231.369771859
 30
0.0
  0
SPLINE
  5
368
330
213
100
AcDbEntity
  8
RUNDUNGEN
  6
Continuous
 62
     9
100
AcDbSpline
210
0.0
220
0.0
230
1.0
 70
     8
 71
     3
 72
    11
 73
     7
 74
     0
 42
0.0000000001
 43
0.0000000001
 40
0.0
 40
0.0
 40
0.0
 40
0.0
 40
0.2538176591
 40
0.505604559
 40
0.7541220337000001
 40
1.0
 40
1.0
 40
1.0
 40
1.0
 10
204.1985425442
 20
231.4719210653
 30
0.0
 10
204.1979144182
 20
231.3426223069
 30
0.0
 10
204.1478122518
 20
231.08262013
 30
0.0
 10
203.9349696414
 20
230.7517583502
 30
0.0
 10
203.616153716
 20
230.5275825876
 30
0.0
 10
203.3619392623
 20
230.4731315716
 30
0.0
 10
203.236688102
 20
230.4720733701
 30
0.0
  0
SPLINE
  5
369
330
213
100
AcDbEntity
  8
RUNDUNGEN
  6
Continuous
 62
     9
100
AcDbSpline
210
0.0
220
0.0
230
1.0
 70
     8
 71
     3
 72
    14
 73
    10
 74
     0
 42
0.0000000001
 43
0.0000000001
 40
0.0
 40
0.0
 40
0.0
 40
0.0
 40
0.0473036847
 40
0.1162154333
 40
0.2120479118
 40
0.3340408945
 40
0.4789390545
 40
0.642074284
 40
1.0
 40
1.0
 40
1.0
 40
1.0
 10
203.236688102
 20
230.4720733701
 30
0.0
 10
203.2533398805
 20
230.473319305
 30
0.0
 10
203.2913425601
 20
230.4966329959
 30
0.0
 10
203.3313927852
 20
230.5604392709
 30
0.0
 10
203.3695982533
 20
230.6545907741
 30
0.0
 10
203.4026018859
 20
230.7785145595
 30
0.0
 10
203.4300814525
 20
230.9279237529
 30
0.0
 10
203.4581204608
 20
231.1614327239
 30
0.0
 10
203.465901687
 20
231.3455723423
 30
0.0
 10
203.465901687
 20
231.4719210653
 30
0.0
  0
LINE
  5
36A
330
213
100
AcDbEntity
  8
RUNDUNGEN
  6
Continuous
 62
     9
100
AcDbLine
 10
232.5511018177
 20
132.5455234899
 30
0.0
 11
231.9186680962
 21
132.417479053
 31
0.0
  0
SPLINE
  5
36B
330
213
100
AcDbEntity
  8
RUNDUNGEN
  6
Continuous
 62
     9
100
AcDbSpline
210
0.0
220
0.0
230
1.0
 70
     8
 71
     3
 72
    11
 73
     7
 74
     0
 42
0.0000000001
 43
0.0000000001
 40
0.0
 40
0.0
 40
0.0
 40
0.0
 40
0.253852195
 40
0.5054914269
 40
0.7537874775
 40
1.0
 40
1.0
 40
1.0
 40
1.0
 10
232.3146541174
 20
218.2787329322
 30
0.0
 10
232.3150099811
 20
218.4086818771
 30
0.0
 10
232.365328089
 20
218.669991265
 30
0.0
 10
232.5795287783
 20
219.0021513874
 30
0.0
 10
232.9010247742
 20
219.2261642361
 30
0.0
 10
233.1571005339
 20
219.2787329322
 30
0.0
 10
233.2831391427
 20
219.2787329322
 30
0.0
  0
SPLINE
  5
36C
330
213
100
AcDbEntity
  8
RUNDUNGEN
  6
Continuous
 62
     9
100
AcDbSpline
210
0.0
220
0.0
230
1.0
 70
     8
 71
     3
 72
     9
 73
     5
 74
     0
 42
0.0000000001
 43
0.0000000001
 40
0.0
 40
0.0
 40
0.0
 40
0.0
 40
0.3660812905
 40
1.0
 40
1.0
 40
1.0
 40
1.0
 10
232.598940155
 20
214.8425189515
 30
0.0
 10
232.6883127793
 20
214.8440847441
 30
0.0
 10
232.9324911629
 20
214.845107179
 30
0.0
 10
233.1766553457
 20
214.8461592607
 30
0.0
 10
233.3314393632
 20
214.8465035147
 30
0.0
  0
SPLINE
  5
36D
330
213
100
AcDbEntity
  8
RUNDUNGEN
  6
Continuous
 62
     9
100
AcDbSpline
210
0.0
220
0.0
230
1.0
 70
     8
 71
     3
 72
     9
 73
     5
 74
     0
 42
0.0000000001
 43
0.0000000001
 40
0.0
 40
0.0
 40
0.0
 40
0.0
 40
0.4511820951
 40
1.0
 40
1.0
 40
1.0
 40
1.0
 10
204.9192349877
 20
213.772111893
 30
0.0
 10
204.9471732053
 20
213.6602050457
 30
0.0
 10
204.9826460912
 20
213.4059281432
 30
0.0
 10
204.9939478503
 20
213.1503534968
 30
0.0
 10
204.9940653077
 20
213.0100520132
 30
0.0
  0
SPLINE
  5
36E
330
213
100
AcDbEntity
  8
RUNDUNGEN
  6
Continuous
 62
     9
100
AcDbSpline
210
0.0
220
0.0
230
1.0
 70
     8
 71
     3
 72
    11
 73
     7
 74
     0
 42
0.0000000001
 43
0.0000000001
 40
0.0
 40
0.0
 40
0.0
 40
0.0
 40
0.2537962011
 40
0.50544844
 40
0.7538258185
 40
1.0
 40
1.0
 40
1.0
 40
1.0
 10
204.4776252943
 20
218.2787329322
 30
0.0
 10
204.4774588561
 20
218.4086661653
 30
0.0
 10
204.4272932608
 20
218.6700670317
 30
0.0
 10
204.2128900725
 20
219.0021929548
 30
0.0
 10
203.8912755194
 20
219.2261109642
 30
0.0
 10
203.6351714446
 20
219.2787329322
 30
0.0
 10
203.5091402691
 20
219.2787329322
 30
0.0
  0
SPLINE
  5
36F
330
213
100
AcDbEntity
  8
RUNDUNGEN
  6
Continuous
 62
     9
100
AcDbSpline
210
0.0
220
0.0
230
1.0
 70
     8
 71
     3
 72
    11
 73
     7
 74
     0
 42
0.0000000001
 43
0.0000000001
 40
0.0
 40
0.0
 40
0.0
 40
0.0
 40
0.1408914839
 40
0.366082059
 40
0.6594246977
 40
1.0
 40
1.0
 40
1.0
 40
1.0
 10
204.1973714797
 20
218.2787329322
 30
0.0
 10
204.1630084662
 20
218.2804690137
 30
0.0
 10
204.0735417542
 20
218.2791999205
 30
0.0
 10
203.9125502548
 20
218.2814527565
 30
0.0
 10
203.7027410591
 20
218.2827500875
 30
0.0
 10
203.5479180914
 20
218.2811798883
 30
0.0
 10
203.4647610608
 20
218.2827174955
 30
0.0
  0
SPLINE
  5
370
330
213
100
AcDbEntity
  8
RUNDUNGEN
  6
Continuous
 62
     9
100
AcDbSpline
210
0.0
220
0.0
230
1.0
 70
     8
 71
     3
 72
    11
 73
     7
 74
     0
 42
0.0000000001
 43
0.0000000001
 40
0.0
 40
0.0
 40
0.0
 40
0.0
 40
0.3087916226
 40
0.5922770481000001
 40
0.8282043694
 40
1.0
 40
1.0
 40
1.0
 40
1.0
 10
203.4647610608
 20
218.2827174955
 30
0.0
 10
203.4646712898
 20
218.3792792265
 30
0.0
 10
203.4583409445
 20
218.5645057251
 30
0.0
 10
203.4310608691999
 20
218.82249008
 30
0.0
 10
203.3886293387
 20
219.0343676688
 30
0.0
 10
203.3468742976
 20
219.1563798366
 30
0.0
 10
203.3204323882
 20
219.2031438636
 30
0.0
  0
SPLINE
  5
371
330
213
100
AcDbEntity
  8
RUNDUNGEN
  6
Continuous
 62
     9
100
AcDbSpline
210
0.0
220
0.0
230
1.0
 70
     8
 71
     3
 72
     9
 73
     5
 74
     0
 42
0.0000000001
 43
0.0000000001
 40
0.0
 40
0.0
 40
0.0
 40
0.0
 40
0.3293276614
 40
1.0
 40
1.0
 40
1.0
 40
1.0
 10
203.3204323882
 20
219.2031438636
 30
0.0
 10
203.3139951255
 20
219.2145285303
 30
0.0
 10
203.293650864
 20
219.2473079053
 30
0.0
 10
203.258080024
 20
219.2787329322
 30
0.0
 10
203.2314456534
 20
219.2787329322
 30
0.0
  0
SPLINE
  5
372
330
213
100
AcDbEntity
  8
RUNDUNGEN
  6
Continuous
 62
     9
100
AcDbSpline
210
0.0
220
0.0
230
1.0
 70
     8
 71
     3
 72
    11
 73
     7
 74
     0
 42
0.0000000001
 43
0.0000000001
 40
0.0
 40
0.0
 40
0.0
 40
0.0
 40
0.2459838565
 40
0.4943392643
 40
0.7460104053
 40
1.0
 40
1.0
 40
1.0
 40
1.0
 10
203.2314456534
 20
219.2787329322
 30
0.0
 10
203.357245703
 20
219.2787329322
 30
0.0
 10
203.6129516994
 20
219.2260424101
 30
0.0
 10
203.9340182922
 20
219.0021862464
 30
0.0
 10
204.1476909825
 20
218.6699260883
 30
0.0
 10
204.1973714797
 20
218.4086272434
 30
0.0
 10
204.1973714797
 20
218.2787329322
 30
0.0
  0
SPLINE
  5
373
330
213
100
AcDbEntity
  8
RUNDUNGEN
  6
Continuous
 62
     9
100
AcDbSpline
210
0.0
220
0.0
230
1.0
 70
     8
 71
     3
 72
     9
 73
     5
 74
     0
 42
0.0000000001
 43
0.0000000001
 40
0.0
 40
0.0
 40
0.0
 40
0.0
 40
0.6339189088000001
 40
1.0
 40
1.0
 40
1.0
 40
1.0
 10
203.460840449
 20
214.8465035218
 30
0.0
 10
203.6156243436
 20
214.8461592682
 30
0.0
 10
203.8597882561
 20
214.8451071918
 30
0.0
 10
204.1039663688
 20
214.8440847347
 30
0.0
 10
204.1933388457
 20
214.8425189517
 30
0.0
  0
SPLINE
  5
374
330
213
100
AcDbEntity
  8
RUNDUNGEN
  6
Continuous
 62
     9
100
AcDbSpline
210
0.0
220
0.0
230
1.0
 70
     8
 71
     3
 72
    14
 73
    10
 74
     0
 42
0.0000000001
 43
0.0000000001
 40
0.0
 40
0.0
 40
0.0
 40
0.0
 40
0.2474178635
 40
0.3736620822
 40
0.5017750637000001
 40
0.6309701631
 40
0.7582957582
 40
0.8810179617999999
 40
1.0
 40
1.0
 40
1.0
 40
1.0
 10
204.1933388457
 20
214.8425189517
 30
0.0
 10
204.1816544847
 20
214.7164388633
 30
0.0
 10
204.1778270769
 20
214.5237225484
 30
0.0
 10
204.2178934241
 20
214.2693299506
 30
0.0
 10
204.2803831484
 20
214.0819556364
 30
0.0
 10
204.3872801046
 20
213.9131452598
 30
0.0
 10
204.5465814355
 20
213.7929763569
 30
0.0
 10
204.7347712583
 20
213.7482143132
 30
0.0
 10
204.8596048446
 20
213.7597845337
 30
0.0
 10
204.9192349836
 20
213.7721122784
 30
0.0
  0
SPLINE
  5
375
330
213
100
AcDbEntity
  8
RUNDUNGEN
  6
Continuous
 62
     9
100
AcDbSpline
210
0.0
220
0.0
230
1.0
 70
     8
 71
     3
 72
     9
 73
     5
 74
     0
 42
0.0000000001
 43
0.0000000001
 40
0.0
 40
0.0
 40
0.0
 40
0.0
 40
0.541034143
 40
1.0
 40
1.0
 40
1.0
 40
1.0
 10
206.0520001828
 20
219.0673015625
 30
0.0
 10
205.9568751618
 20
219.0400931532
 30
0.0
 10
205.7727602988
 20
219.0129294278
 30
0.0
 10
205.5876993424
 20
219.0561148491
 30
0.0
 10
205.5142114667
 20
219.0966620245
 30
0.0
  0
SPLINE
  5
376
330
213
100
AcDbEntity
  8
RUNDUNGEN
  6
Continuous
 62
     9
100
AcDbSpline
210
0.0
220
0.0
230
1.0
 70
     8
 71
     3
 72
    15
 73
    11
 74
     0
 42
0.0000000001
 43
0.0000000001
 40
0.0
 40
0.0
 40
0.0
 40
0.0
 40
0.053224711
 40
0.1307241624
 40
0.2321411164
 40
0.3551960124
 40
0.4971178155
 40
0.6544878038000001
 40
0.823535693
 40
1.0
 40
1.0
 40
1.0
 40
1.0
 10
205.5142114667
 20
219.0966620245
 30
0.0
 10
205.5145795962
 20
219.1123038362
 30
0.0
 10
205.5268336593
 20
219.1496764229
 30
0.0
 10
205.5549953643
 20
219.2114388639
 30
0.0
 10
205.5975983163
 20
219.289584216
 30
0.0
 10
205.6545531763
 20
219.3809755872
 30
0.0
 10
205.7240661131
 20
219.4838895076
 30
0.0
 10
205.8041264652
 20
219.5959088419
 30
0.0
 10
205.8938570445
 20
219.713422429
 30
0.0
 10
205.9574587742
 20
219.7926139352
 30
0.0
 10
205.9895807945
 20
219.8333460056
 30
0.0
  0
SPLINE
  5
377
330
213
100
AcDbEntity
  8
RUNDUNGEN
  6
Continuous
 62
     9
100
AcDbSpline
210
0.0
220
0.0
230
1.0
 70
     8
 71
     3
 72
     9
 73
     5
 74
     0
 42
0.0000000001
 43
0.0000000001
 40
0.0
 40
0.0
 40
0.0
 40
0.0
 40
0.4503299493
 40
1.0
 40
1.0
 40
1.0
 40
1.0
 10
206.0520001828
 20
219.0673015625
 30
0.0
 10
206.0284528178
 20
219.1803755877
 30
0.0
 10
205.9989272685
 20
219.4359409882
 30
0.0
 10
205.9895807945
 20
219.6923675868
 30
0.0
 10
205.9895807945
 20
219.8333460056
 30
0.0
  0
SPLINE
  5
378
330
213
100
AcDbEntity
  8
RUNDUNGEN
  6
Continuous
 62
     9
100
AcDbSpline
210
0.0
220
0.0
230
1.0
 70
     8
 71
     3
 72
    11
 73
     7
 74
     0
 42
0.0000000001
 43
0.0000000001
 40
0.0
 40
0.0
 40
0.0
 40
0.0
 40
0.2259611258
 40
0.4715026738000001
 40
0.7325899859
 40
1.0
 40
1.0
 40
1.0
 40
1.0
 10
205.3916981935
 20
218.3334895177
 30
0.0
 10
205.4091944042
 20
218.2444784284
 30
0.0
 10
205.4828772825
 20
218.0651407699
 30
0.0
 10
205.6768301594
 20
217.8388871264
 30
0.0
 10
205.9373038199
 20
217.6633901936
 30
0.0
 10
206.1394221757
 20
217.5909071326
 30
0.0
 10
206.2441814755
 20
217.5674452923
 30
0.0
  0
SPLINE
  5
379
330
213
100
AcDbEntity
  8
RUNDUNGEN
  6
Continuous
 62
     9
100
AcDbSpline
210
0.0
220
0.0
230
1.0
 70
     8
 71
     3
 72
    11
 73
     7
 74
     0
 42
0.0000000001
 43
0.0000000001
 40
0.0
 40
0.0
 40
0.0
 40
0.0
 40
0.2696340017
 40
0.5111669278000001
 40
0.7521206838
 40
1.0
 40
1.0
 40
1.0
 40
1.0
 10
205.514213975
 20
219.0966621573
 30
0.0
 10
205.5520576391
 20
219.0342650927
 30
0.0
 10
205.591392185
 20
218.8947016026
 30
0.0
 10
205.565988892
 20
218.6901092536
 30
0.0
 10
205.4960831214
 20
218.5038978311
 30
0.0
 10
205.4291066643
 20
218.389180247
 30
0.0
 10
205.3916981935
 20
218.3334895177
 30
0.0
  0
SPLINE
  5
37A
330
213
100
AcDbEntity
  8
RUNDUNGEN
  6
Continuous
 62
     9
100
AcDbSpline
210
0.0
220
0.0
230
1.0
 70
     8
 71
     3
 72
     9
 73
     5
 74
     0
 42
0.0000000001
 43
0.0000000001
 40
0.0
 40
0.0
 40
0.0
 40
0.0
 40
0.4929738972
 40
1.0
 40
1.0
 40
1.0
 40
1.0
 10
204.7033377452
 20
219.3498859818
 30
0.0
 10
204.8447505079
 20
219.3507807273
 30
0.0
 10
205.1333777274
 20
219.3119664611
 30
0.0
 10
205.3978603473
 20
219.1839382366
 30
0.0
 10
205.5142104677
 20
219.0966606641
 30
0.0
  0
SPLINE
  5
37B
330
213
100
AcDbEntity
  8
RUNDUNGEN
  6
Continuous
 62
     9
100
AcDbSpline
210
0.0
220
0.0
230
1.0
 70
     8
 71
     3
 72
    15
 73
    11
 74
     0
 42
0.0000000001
 43
0.0000000001
 40
0.0
 40
0.0
 40
0.0
 40
0.0
 40
0.3629869319
 40
0.5281127904
 40
0.6743538999
 40
0.7967778728
 40
0.8917671248000001
 40
0.9284633472999999
 40
0.9581409523999999
 40
1.0
 40
1.0
 40
1.0
 40
1.0
 10
204.511188093
 20
220.3497356108
 30
0.0
 10
204.5111880929
 20
220.2234261086
 30
0.0
 10
204.5176739599
 20
220.0395079237
 30
0.0
 10
204.5412155867
 20
219.8059721295
 30
0.0
 10
204.5641060628
 20
219.6566723724
 30
0.0
 10
204.5919880111
 20
219.5331163597
 30
0.0
 10
204.6197400003
 20
219.4489197451
 30
0.0
 10
204.6454812794
 20
219.3986081649
 30
0.0
 10
204.666645103
 20
219.3680192228
 30
0.0
 10
204.6888296255
 20
219.3511828468
 30
0.0
 10
204.7033377514
 20
219.3498879156
 30
0.0
  0
SPLINE
  5
37C
330
213
100
AcDbEntity
  8
RUNDUNGEN
  6
Continuous
 62
     9
100
AcDbSpline
210
0.0
220
0.0
230
1.0
 70
     8
 71
     3
 72
     9
 73
     5
 74
     0
 42
0.0000000001
 43
0.0000000001
 40
0.0
 40
0.0
 40
0.0
 40
0.0
 40
0.5488179046
 40
1.0
 40
1.0
 40
1.0
 40
1.0
 10
231.798214104
 20
213.0100520132
 30
0.0
 10
231.79833156
 20
213.1503534967
 30
0.0
 10
231.809633318
 20
213.4059281433
 30
0.0
 10
231.8451062051
 20
213.660205046
 30
0.0
 10
231.873044424
 20
213.772111893
 30
0.0
  0
SPLINE
  5
37D
330
213
100
AcDbEntity
  8
RUNDUNGEN
  6
Continuous
 62
     9
100
AcDbSpline
210
0.0
220
0.0
230
1.0
 70
     8
 71
     3
 72
    14
 73
    10
 74
     0
 42
0.0000000001
 43
0.0000000001
 40
0.0
 40
0.0
 40
0.0
 40
0.0
 40
0.1189822502
 40
0.2417048613
 40
0.369030334
 40
0.4982252810000001
 40
0.6263381263000002
 40
0.7525822623999999
 40
1.0
 40
1.0
 40
1.0
 40
1.0
 10
231.873044429
 20
213.7721122737
 30
0.0
 10
231.9326746737
 20
213.7597845123
 30
0.0
 10
232.057508589
 20
213.7482147194
 30
0.0
 10
232.245698733
 20
213.7929765086
 30
0.0
 10
232.4049998757
 20
213.9131458716
 30
0.0
 10
232.5118964939
 20
214.0819561459
 30
0.0
 10
232.5743860969
 20
214.2693303001
 30
0.0
 10
232.6144522688
 20
214.5237227329
 30
0.0
 10
232.6106249662
 20
214.7164389353
 30
0.0
 10
232.5989405583
 20
214.8425189515
 30
0.0
  0
SPLINE
  5
37E
330
213
100
AcDbEntity
  8
RUNDUNGEN
  6
Continuous
 62
     9
100
AcDbSpline
210
0.0
220
0.0
230
1.0
 70
     8
 71
     3
 72
     9
 73
     5
 74
     0
 42
0.0000000001
 43
0.0000000001
 40
0.0
 40
0.0
 40
0.0
 40
0.0
 40
0.6339183660000001
 40
1.0
 40
1.0
 40
1.0
 40
1.0
 10
233.3275183509
 20
218.2827174955
 30
0.0
 10
233.1727109184
 20
218.2823731845
 30
0.0
 10
232.9285096657
 20
218.2813210224
 30
0.0
 10
232.6842942132
 20
218.2802987068
 30
0.0
 10
232.5949079321
 20
218.2787329322
 30
0.0
  0
SPLINE
  5
37F
330
213
100
AcDbEntity
  8
RUNDUNGEN
  6
Continuous
 62
     9
100
AcDbSpline
210
0.0
220
0.0
230
1.0
 70
     8
 71
     3
 72
    11
 73
     7
 74
     0
 42
0.0000000001
 43
0.0000000001
 40
0.0
 40
0.0
 40
0.0
 40
0.0
 40
0.2539890971
 40
0.5056604107
 40
0.7540159911
 40
1.0
 40
1.0
 40
1.0
 40
1.0
 10
232.5949079321
 20
218.2787329322
 30
0.0
 10
232.5949079321
 20
218.4086269886
 30
0.0
 10
232.6445883096
 20
218.6699256462
 30
0.0
 10
232.8582607315
 20
219.0021858983
 30
0.0
 10
233.1793274633
 20
219.2260423456
 30
0.0
 10
233.4350336311
 20
219.2787329322
 30
0.0
 10
233.5608337584
 20
219.2787329322
 30
0.0
  0
SPLINE
  5
380
330
213
100
AcDbEntity
  8
RUNDUNGEN
  6
Continuous
 62
     9
100
AcDbSpline
210
0.0
220
0.0
230
1.0
 70
     8
 71
     3
 72
     9
 73
     5
 74
     0
 42
0.0000000001
 43
0.0000000001
 40
0.0
 40
0.0
 40
0.0
 40
0.0
 40
0.4589974792
 40
1.0
 40
1.0
 40
1.0
 40
1.0
 10
231.2780679461
 20
219.0966620241
 30
0.0
 10
231.2046423169
 20
219.0559881398
 30
0.0
 10
231.019410588
 20
219.0127373967
 30
0.0
 10
230.8355526946
 20
219.0406344655
 30
0.0
 10
230.74027923
 20
219.0673015625
 30
0.0
  0
SPLINE
  5
381
330
213
100
AcDbEntity
  8
RUNDUNGEN
  6
Continuous
 62
     9
100
AcDbSpline
210
0.0
220
0.0
230
1.0
 70
     8
 71
     3
 72
     9
 73
     5
 74
     0
 42
0.0000000001
 43
0.0000000001
 40
0.0
 40
0.0
 40
0.0
 40
0.0
 40
0.5496699657999999
 40
1.0
 40
1.0
 40
1.0
 40
1.0
 10
230.8026986183
 20
219.8333460057
 30
0.0
 10
230.8026986183
 20
219.6923676086
 30
0.0
 10
230.7933521453
 20
219.4359410101
 30
0.0
 10
230.7638265994
 20
219.180375609
 30
0.0
 10
230.74027923
 20
219.0673015625
 30
0.0
  0
SPLINE
  5
382
330
213
100
AcDbEntity
  8
RUNDUNGEN
  6
Continuous
 62
     9
100
AcDbSpline
210
0.0
220
0.0
230
1.0
 70
     8
 71
     3
 72
    12
 73
     8
 74
     0
 42
0.0000000001
 43
0.0000000001
 40
0.0
 40
0.0
 40
0.0
 40
0.0
 40
0.3455826415
 40
0.6448806578000001
 40
0.8692558089
 40
0.9470303718
 40
1.0
 40
1.0
 40
1.0
 40
1.0
 10
230.8026986183
 20
219.8333460057
 30
0.0
 10
230.8678523228
 20
219.7554305315
 30
0.0
 10
230.9827229871
 20
219.6044399779
 30
0.0
 10
231.130115747
 20
219.3958817567
 30
0.0
 10
231.2226644575
 20
219.2446670208
 30
0.0
 10
231.2656032723
 20
219.1494096119
 30
0.0
 10
231.2760769222
 20
219.1121019712
 30
0.0
 10
231.2780679461
 20
219.0966620241
 30
0.0
  0
SPLINE
  5
383
330
213
100
AcDbEntity
  8
RUNDUNGEN
  6
Continuous
 62
     9
100
AcDbSpline
210
0.0
220
0.0
230
1.0
 70
     8
 71
     3
 72
    11
 73
     7
 74
     0
 42
0.0000000001
 43
0.0000000001
 40
0.0
 40
0.0
 40
0.0
 40
0.0
 40
0.2478793099
 40
0.4888330724000001
 40
0.7303659997
 40
1.0
 40
1.0
 40
1.0
 40
1.0
 10
231.400581217
 20
218.3334895181
 30
0.0
 10
231.3631727516
 20
218.3891802489
 30
0.0
 10
231.2961962896
 20
218.5038978258
 30
0.0
 10
231.2262905098
 20
218.690109261
 30
0.0
 10
231.2008872682
 20
218.8947015748
 30
0.0
 10
231.2402216576
 20
219.0342651621
 30
0.0
 10
231.278065436
 20
219.096662157
 30
0.0
  0
SPLINE
  5
384
330
213
100
AcDbEntity
  8
RUNDUNGEN
  6
Continuous
 62
     9
100
AcDbSpline
210
0.0
220
0.0
230
1.0
 70
     8
 71
     3
 72
    11
 73
     7
 74
     0
 42
0.0000000001
 43
0.0000000001
 40
0.0
 40
0.0
 40
0.0
 40
0.0
 40
0.2674100142
 40
0.5284973262000001
 40
0.7740388742000001
 40
1.0
 40
1.0
 40
1.0
 40
1.0
 10
230.5480979365
 20
217.56744529
 30
0.0
 10
230.6528572363
 20
217.5909071306
 30
0.0
 10
230.854975592
 20
217.6633901922
 30
0.0
 10
231.1154492521
 20
217.8388871259
 30
0.0
 10
231.3094021283
 20
218.0651407701
 30
0.0
 10
231.3830850063
 20
218.2444784288
 30
0.0
 10
231.400581217
 20
218.3334895181
 30
0.0
  0
SPLINE
  5
385
330
213
100
AcDbEntity
  8
RUNDUNGEN
  6
Continuous
 62
     9
100
AcDbSpline
210
0.0
220
0.0
230
1.0
 70
     8
 71
     3
 72
    15
 73
    11
 74
     0
 42
0.0000000001
 43
0.0000000001
 40
0.0
 40
0.0
 40
0.0
 40
0.0
 40
0.0418590475
 40
0.0715366524
 40
0.1082328748
 40
0.2032221267
 40
0.3256460995
 40
0.471887209
 40
0.6370130677
 40
1.0
 40
1.0
 40
1.0
 40
1.0
 10
232.0889416606
 20
219.3498879156
 30
0.0
 10
232.1034497864
 20
219.3511828468
 30
0.0
 10
232.125634309
 20
219.3680192226
 30
0.0
 10
232.1467981325
 20
219.3986081646
 30
0.0
 10
232.1725394116
 20
219.4489197447
 30
0.0
 10
232.2002914007
 20
219.5331163592
 30
0.0
 10
232.228173349
 20
219.6566723718
 30
0.0
 10
232.2510638251
 20
219.8059721289
 30
0.0
 10
232.2746054519
 20
220.0395079233
 30
0.0
 10
232.2810913189
 20
220.2234261084
 30
0.0
 10
232.2810913188
 20
220.3497356108
 30
0.0
  0
SPLINE
  5
386
330
213
100
AcDbEntity
  8
RUNDUNGEN
  6
Continuous
 62
     9
100
AcDbSpline
210
0.0
220
0.0
230
1.0
 70
     8
 71
     3
 72
     9
 73
     5
 74
     0
 42
0.0000000001
 43
0.0000000001
 40
0.0
 40
0.0
 40
0.0
 40
0.0
 40
0.5070266511
 40
1.0
 40
1.0
 40
1.0
 40
1.0
 10
231.2780686686
 20
219.0966610383
 30
0.0
 10
231.3944180024
 20
219.1839399827
 30
0.0
 10
231.6589022651
 20
219.3119660454
 30
0.0
 10
231.9475290239
 20
219.3507810498
 30
0.0
 10
232.0889416653
 20
219.3498863677
 30
0.0
  0
SPLINE
  5
387
330
213
100
AcDbEntity
  8
RUNDUNGEN
  6
Continuous
 62
     9
100
AcDbSpline
210
0.0
220
0.0
230
1.0
 70
     8
 71
     3
 72
     8
 73
     4
 74
     0
 42
0.0000000001
 43
0.0000000001
 40
0.0
 40
0.0
 40
0.0
 40
0.0
 40
1.0
 40
1.0
 40
1.0
 40
1.0
 10
201.0027224603
 20
155.9009935515
 30
0.0
 10
202.0047241807
 20
148.2974044526
 30
0.0
 10
203.0066013661
 20
140.693798939
 30
0.0
 10
204.0082439681
 20
133.090162524
 30
0.0
  0
SPLINE
  5
388
330
213
100
AcDbEntity
  8
RUNDUNGEN
  6
Continuous
 62
     9
100
AcDbSpline
210
0.0
220
0.0
230
1.0
 70
     8
 71
     3
 72
     8
 73
     4
 74
     0
 42
0.0000000001
 43
0.0000000001
 40
0.0
 40
0.0
 40
0.0
 40
0.0
 40
1.0
 40
1.0
 40
1.0
 40
1.0
 10
232.7840354437
 20
133.090162524
 30
0.0
 10
233.7856780457
 20
140.693798939
 30
0.0
 10
234.7875552311
 20
148.2974044526
 30
0.0
 10
235.7895569515
 20
155.9009935515
 30
0.0
  0
SPLINE
  5
389
330
213
100
AcDbEntity
  8
RUNDUNGEN
  6
Continuous
 62
     9
100
AcDbSpline
210
0.0
220
0.0
230
1.0
 70
     8
 71
     3
 72
    15
 73
    11
 74
     0
 42
0.0000000001
 43
0.0000000001
 40
0.0
 40
0.0
 40
0.0
 40
0.0
 40
0.0361624877
 40
0.0637318892
 40
0.0988829393
 40
0.1922859927
 40
0.314807235
 40
0.4625123662
 40
0.6301552313000001
 40
1.0
 40
1.0
 40
1.0
 40
1.0
 10
206.5379401681
 20
235.8670383477
 30
0.0
 10
206.5504194659
 20
235.8670383477
 30
0.0
 10
206.5701837502
 20
235.8506905296
 30
0.0
 10
206.5874635264
 20
235.8221325784
 30
0.0
 10
206.6097553772
 20
235.772569215
 30
0.0
 10
206.6333039391
 20
235.6890963051
 30
0.0
 10
206.6572222014
 20
235.565782287
 30
0.0
 10
206.6768250677
 20
235.4158928161
 30
0.0
 10
206.6970854137
 20
235.1802588004
 30
0.0
 10
206.7026373839
 20
234.9946679252
 30
0.0
 10
206.7026373839
 20
234.8670383477
 30
0.0
  0
SPLINE
  5
38A
330
213
100
AcDbEntity
  8
RUNDUNGEN
  6
Continuous
 62
     9
100
AcDbSpline
210
0.0
220
0.0
230
1.0
 70
     8
 71
     3
 72
    15
 73
    11
 74
     0
 42
0.0000000001
 43
0.0000000001
 40
0.0
 40
0.0
 40
0.0
 40
0.0
 40
0.0361624877
 40
0.0637318892
 40
0.0988829393
 40
0.1922859927
 40
0.314807235
 40
0.4625123662
 40
0.6301552313000001
 40
1.0
 40
1.0
 40
1.0
 40
1.0
 10
230.2543392438
 20
235.8670383477
 30
0.0
 10
230.2418599459
 20
235.8670383477
 30
0.0
 10
230.2220956616
 20
235.8506905297
 30
0.0
 10
230.2048158853
 20
235.8221325784
 30
0.0
 10
230.1825240345
 20
235.772569215
 30
0.0
 10
230.1589754727
 20
235.6890963051
 30
0.0
 10
230.1350572104
 20
235.565782287
 30
0.0
 10
230.1154543441
 20
235.4158928161
 30
0.0
 10
230.095193998
 20
235.1802588004
 30
0.0
 10
230.0896420279
 20
234.9946679252
 30
0.0
 10
230.0896420279
 20
234.8670383477
 30
0.0
  0
SPLINE
  5
38B
330
213
100
AcDbEntity
  8
RUNDUNGEN
  6
Continuous
 62
     9
100
AcDbSpline
210
0.0
220
0.0
230
1.0
 70
     8
 71
     3
 72
    11
 73
     7
 74
     0
 42
0.0000000001
 43
0.0000000001
 40
0.0
 40
0.0
 40
0.0
 40
0.0
 40
0.2459838565
 40
0.4943392643
 40
0.7460104053
 40
1.0
 40
1.0
 40
1.0
 40
1.0
 10
231.8567964647
 20
235.8670383477
 30
0.0
 10
231.7309964151
 20
235.8670383477
 30
0.0
 10
231.4752904187
 20
235.8143478256
 30
0.0
 10
231.1542238259
 20
235.590491662
 30
0.0
 10
230.9405511355
 20
235.2582315039
 30
0.0
 10
230.8908706384
 20
234.9969326589
 30
0.0
 10
230.8908706384
 20
234.8670383477
 30
0.0
  0
SPLINE
  5
38C
330
213
100
AcDbEntity
  8
RUNDUNGEN
  6
Continuous
 62
     9
100
AcDbSpline
210
0.0
220
0.0
230
1.0
 70
     8
 71
     3
 72
    11
 73
     7
 74
     0
 42
0.0000000001
 43
0.0000000001
 40
0.0
 40
0.0
 40
0.0
 40
0.0
 40
0.2459840052
 40
0.4943395832000001
 40
0.7460108952
 40
1.0
 40
1.0
 40
1.0
 40
1.0
 10
233.5596626938
 20
235.8670383477
 30
0.0
 10
233.4338625684
 20
235.8670383477
 30
0.0
 10
233.1781564039
 20
235.8143477625
 30
0.0
 10
232.8570896737
 20
235.5904913203
 30
0.0
 10
232.643417247
 20
235.2582310691
 30
0.0
 10
232.5937368675
 20
234.9969324081
 30
0.0
 10
232.5937368675
 20
234.8670383477
 30
0.0
  0
SPLINE
  5
38D
330
213
100
AcDbEntity
  8
RUNDUNGEN
  6
Continuous
 62
     9
100
AcDbSpline
210
0.0
220
0.0
230
1.0
 70
     8
 71
     3
 72
    11
 73
     7
 74
     0
 42
0.0000000001
 43
0.0000000001
 40
0.0
 40
0.0
 40
0.0
 40
0.0
 40
0.2466426606
 40
0.4948201017000001
 40
0.7461213729000001
 40
1.0
 40
1.0
 40
1.0
 40
1.0
 10
233.9200525505
 20
162.3220765591
 30
0.0
 10
234.1743773623
 20
162.3220957537
 30
0.0
 10
234.6904020112
 20
162.218670075
 30
0.0
 10
235.3422206132
 20
161.7737078283
 30
0.0
 10
235.7779633162
 20
161.107310268
 30
0.0
 10
235.8792557506
 20
160.5806900819
 30
0.0
 10
235.8789751349
 20
160.3189040754
 30
0.0
  0
SPLINE
  5
38E
330
213
100
AcDbEntity
  8
RUNDUNGEN
  6
Continuous
 62
     9
100
AcDbSpline
210
0.0
220
0.0
230
1.0
 70
     8
 71
     3
 72
    13
 73
     9
 74
     0
 42
0.0000000001
 43
0.0000000001
 40
0.0
 40
0.0
 40
0.0
 40
0.0
 40
0.1107797826
 40
0.2059859806
 40
0.3280671437
 40
0.4737535166
 40
0.6382652826
 40
1.0
 40
1.0
 40
1.0
 40
1.0
 10
233.5596626938
 20
235.8670383477
 30
0.0
 10
233.5205556504
 20
235.8670383477
 30
0.0
 10
233.4661130888
 20
235.7938690063
 30
0.0
 10
233.4256118101
 20
235.691545656
 30
0.0
 10
233.3906057035
 20
235.5659781915
 30
0.0
 10
233.3630737356
 20
235.4164395425
 30
0.0
 10
233.3342282257
 20
235.180621761
 30
0.0
 10
233.3263777248
 20
234.9947365158
 30
0.0
 10
233.3263777248
 20
234.8670383477
 30
0.0
  0
SPLINE
  5
38F
330
213
100
AcDbEntity
  8
RUNDUNGEN
  6
Continuous
 62
     9
100
AcDbSpline
210
0.0
220
0.0
230
1.0
 70
     8
 71
     3
 72
    13
 73
     9
 74
     0
 42
0.0000000001
 43
0.0000000001
 40
0.0
 40
0.0
 40
0.0
 40
0.0
 40
0.1107797827
 40
0.2059859806
 40
0.3280671438
 40
0.4737535167000001
 40
0.6382652825
 40
1.0
 40
1.0
 40
1.0
 40
1.0
 10
203.2326167179
 20
235.8670383477
 30
0.0
 10
203.2717237614
 20
235.8670383477
 30
0.0
 10
203.326166323
 20
235.7938690062
 30
0.0
 10
203.3666676017
 20
235.691545656
 30
0.0
 10
203.4016737083
 20
235.5659781915
 30
0.0
 10
203.4292056762
 20
235.4164395424
 30
0.0
 10
203.4580511859
 20
235.180621761
 30
0.0
 10
203.4659016876
 20
234.9947365158
 30
0.0
 10
203.4659016876
 20
234.8670383477
 30
0.0
  0
SPLINE
  5
390
330
213
100
AcDbEntity
  8
RUNDUNGEN
  6
Continuous
 62
     9
100
AcDbSpline
210
0.0
220
0.0
230
1.0
 70
     8
 71
     3
 72
    11
 73
     7
 74
     0
 42
0.0000000001
 43
0.0000000001
 40
0.0
 40
0.0
 40
0.0
 40
0.0
 40
0.2538786995
 40
0.5051800084
 40
0.7533574889
 40
1.0
 40
1.0
 40
1.0
 40
1.0
 10
200.9133042769
 20
160.3189040761
 30
0.0
 10
200.9130237064
 20
160.5806901568
 30
0.0
 10
201.0143161135
 20
161.1073104413
 30
0.0
 10
201.4500589989
 20
161.773708177
 30
0.0
 10
202.1018777082
 20
162.2186699079
 30
0.0
 10
202.6179022041
 20
162.3220961031
 30
0.0
 10
202.8722268613
 20
162.3220765591
 30
0.0
  0
SPLINE
  5
391
330
213
100
AcDbEntity
  8
RUNDUNGEN
  6
Continuous
 62
     9
100
AcDbSpline
210
0.0
220
0.0
230
1.0
 70
     8
 71
     3
 72
     9
 73
     5
 74
     0
 42
0.0000000001
 43
0.0000000001
 40
0.0
 40
0.0
 40
0.0
 40
0.0
 40
0.25833837
 40
1.0
 40
1.0
 40
1.0
 40
1.0
 10
200.9164662906
 20
157.2510113562
 30
0.0
 10
200.9165891891
 20
157.1344751272
 30
0.0
 10
200.9240637345
 20
156.6834474765
 30
0.0
 10
200.9581501581
 20
156.232574323
 30
0.0
 10
201.0027224602
 20
155.9009935515
 30
0.0
  0
SPLINE
  5
392
330
213
100
AcDbEntity
  8
RUNDUNGEN
  6
Continuous
 62
     9
100
AcDbSpline
210
0.0
220
0.0
230
1.0
 70
     8
 71
     3
 72
     9
 73
     5
 74
     0
 42
0.0000000001
 43
0.0000000001
 40
0.0
 40
0.0
 40
0.0
 40
0.0
 40
0.2386342692
 40
1.0
 40
1.0
 40
1.0
 40
1.0
 10
235.7895569515
 20
155.9009935515
 30
0.0
 10
235.8038986747
 20
156.0076840166
 30
0.0
 10
235.8552390781
 20
156.4559270669
 30
0.0
 10
235.8754509114
 20
156.9075525614
 30
0.0
 10
235.8758131211
 20
157.2510113562
 30
0.0
  0
LINE
  5
393
330
213
100
AcDbEntity
  8
RUNDUNGEN
  6
Continuous
 62
     9
100
AcDbLine
 10
204.1933392263
 20
214.8424902395
 30
0.0
 11
204.1973714797
 21
218.2787329322
 31
0.0
  0
LINE
  5
394
330
213
100
AcDbEntity
  8
RUNDUNGEN
  6
Continuous
 62
     9
100
AcDbLine
 10
204.4776252943
 20
218.2787329322
 30
0.0
 11
205.3916983717
 21
218.3334900361
 31
0.0
  0
SPLINE
  5
395
330
213
100
AcDbEntity
  8
RUNDUNGEN
  6
Continuous
 62
     9
100
AcDbSpline
210
0.0
220
0.0
230
1.0
 70
     8
 71
     3
 72
     8
 73
     4
 74
     0
 42
0.0000000001
 43
0.0000000001
 40
0.0
 40
0.0
 40
0.0
 40
0.0
 40
1.0
 40
1.0
 40
1.0
 40
1.0
 10
205.9014087734
 20
231.3697709539
 30
0.0
 10
205.3338089714
 20
231.4041905961
 30
0.0
 10
204.7661887
 20
231.4382754347
 30
0.0
 10
204.1985425442
 20
231.4719219632
 30
0.0
  0
LINE
  5
396
330
213
100
AcDbEntity
  8
RUNDUNGEN
  6
Continuous
 62
     9
100
AcDbLine
 10
231.4005810448
 20
218.3334900222
 30
0.0
 11
232.3146541174
 21
218.2787329322
 31
0.0
  0
LINE
  5
397
330
213
100
AcDbEntity
  8
RUNDUNGEN
  6
Continuous
 62
     9
100
AcDbLine
 10
232.5949079321
 20
218.2787329322
 30
0.0
 11
232.5989401855
 21
214.8424902399
 31
0.0
  0
SPLINE
  5
398
330
213
100
AcDbEntity
  8
RUNDUNGEN
  6
Continuous
 62
     9
100
AcDbSpline
210
0.0
220
0.0
230
1.0
 70
     8
 71
     3
 72
     8
 73
     4
 74
     0
 42
0.0000000001
 43
0.0000000001
 40
0.0
 40
0.0
 40
0.0
 40
0.0
 40
1.0
 40
1.0
 40
1.0
 40
1.0
 10
232.5937368675
 20
231.4719215532
 30
0.0
 10
232.0260907167
 20
231.438275026
 30
0.0
 10
231.4584704354
 20
231.4041904366
 30
0.0
 10
230.8908706384
 20
231.3697707956
 30
0.0
  0
SPLINE
  5
399
330
213
100
AcDbEntity
  8
RUNDUNGEN
  6
Continuous
 62
     9
100
AcDbSpline
210
0.0
220
0.0
230
1.0
 70
     8
 71
     3
 72
    11
 73
     7
 74
     0
 42
0.0000000001
 43
0.0000000001
 40
0.0
 40
0.0
 40
0.0
 40
0.0
 40
0.2397848648
 40
0.4797066543
 40
0.7279880867000001
 40
1.0
 40
1.0
 40
1.0
 40
1.0
 10
230.5481490962
 20
217.5674566112
 30
0.0
 10
230.5069175551
 20
217.6866360943
 30
0.0
 10
230.4441644852
 20
217.9326830055
 30
0.0
 10
230.4264262557
 20
218.3183195038
 30
0.0
 10
230.5087930469
 20
218.7145799508
 30
0.0
 10
230.6483468606
 20
218.9574480155
 30
0.0
 10
230.7399885329
 20
219.0673015627
 30
0.0
  0
SPLINE
  5
39A
330
213
100
AcDbEntity
  8
RUNDUNGEN
  6
Continuous
 62
     9
100
AcDbSpline
210
0.0
220
0.0
230
1.0
 70
     8
 71
     3
 72
    11
 73
     7
 74
     0
 42
0.0000000001
 43
0.0000000001
 40
0.0
 40
0.0
 40
0.0
 40
0.0
 40
0.2720119127
 40
0.5202933454
 40
0.7602151346
 40
1.0
 40
1.0
 40
1.0
 40
1.0
 10
206.0522908809
 20
219.0673015627
 30
0.0
 10
206.1439325555
 20
218.957448018
 30
0.0
 10
206.2834863601
 20
218.7145799486
 30
0.0
 10
206.3658531613
 20
218.3183195031
 30
0.0
 10
206.3481149149
 20
217.9326830092
 30
0.0
 10
206.285361882
 20
217.6866360854
 30
0.0
 10
206.2441303155
 20
217.5674566108
 30
0.0
  0
SPLINE
  5
39B
330
213
100
AcDbEntity
  8
RUNDUNGEN
  6
Continuous
 62
     9
100
AcDbSpline
210
0.0
220
0.0
230
1.0
 70
     8
 71
     3
 72
    13
 73
     9
 74
     0
 42
0.0000000001
 43
0.0000000001
 40
0.0
 40
0.0
 40
0.0
 40
0.0
 40
0.2525637865
 40
0.5033012853
 40
0.6282444263000001
 40
0.7524873364
 40
0.8762866155999999
 40
1.0
 40
1.0
 40
1.0
 40
1.0
 10
203.4608400892
 20
214.8465029714
 30
0.0
 10
203.4606047395
 20
214.6212101123
 30
0.0
 10
203.5116477834
 20
214.169518841
 30
0.0
 10
203.7523409215
 20
213.6469758826
 30
0.0
 10
204.0621332299
 20
213.3208468896
 30
0.0
 10
204.3450578008
 20
213.1393520427
 30
0.0
 10
204.6620701034
 20
213.0321287231
 30
0.0
 10
204.8837080983
 20
213.0100577916
 30
0.0
 10
204.9940634174
 20
213.0100520132
 30
0.0
  0
SPLINE
  5
39C
330
213
100
AcDbEntity
  8
RUNDUNGEN
  6
Continuous
 62
     9
100
AcDbSpline
210
0.0
220
0.0
230
1.0
 70
     8
 71
     3
 72
    13
 73
     9
 74
     0
 42
0.0000000001
 43
0.0000000001
 40
0.0
 40
0.0
 40
0.0
 40
0.0
 40
0.123713456
 40
0.2475131303
 40
0.3717559062
 40
0.4966990159000001
 40
0.7474363632
 40
1.0
 40
1.0
 40
1.0
 40
1.0
 10
231.7982159953
 20
213.0100520132
 30
0.0
 10
231.9085713781
 20
213.0100577184
 30
0.0
 10
232.1302097157
 20
213.0321291694
 30
0.0
 10
232.4472225074
 20
213.1393520293
 30
0.0
 10
232.7301468545
 20
213.3208476686
 30
0.0
 10
233.0399389486
 20
213.6469764089
 30
0.0
 10
233.2806314983
 20
214.1695192982
 30
0.0
 10
233.3316748512
 20
214.6212102459
 30
0.0
 10
233.3314393225
 20
214.8465029711
 30
0.0
  0
SPLINE
  5
39D
330
213
100
AcDbEntity
  8
RUNDUNGEN
  6
Continuous
 62
     9
100
AcDbSpline
210
0.0
220
0.0
230
1.0
 70
     8
 71
     3
 72
     8
 73
     4
 74
     0
 42
0.0000000001
 43
0.0000000001
 40
0.0
 40
0.0
 40
0.0
 40
0.0
 40
1.0
 40
1.0
 40
1.0
 40
1.0
 10
203.518195918
 20
219.2787329343
 30
0.0
 10
203.9132163929
 20
219.3022576016
 30
0.0
 10
204.3082244301
 20
219.3259916656
 30
0.0
 10
204.7032226007
 20
219.3498879156
 30
0.0
  0
LINE
  5
39E
330
213
100
AcDbEntity
  8
RUNDUNGEN
  6
Continuous
 62
     9
100
AcDbLine
 10
204.8736113156
 20
132.417479053
 30
0.0
 11
204.2411775941
 21
132.5455234899
 31
0.0
  0
SPLINE
  5
39F
330
213
100
AcDbEntity
  8
RUNDUNGEN
  6
Continuous
 62
     9
100
AcDbSpline
210
0.0
220
0.0
230
1.0
 70
     8
 71
     3
 72
     8
 73
     4
 74
     0
 42
0.0000000001
 43
0.0000000001
 40
0.0
 40
0.0
 40
0.0
 40
0.0
 40
1.0
 40
1.0
 40
1.0
 40
1.0
 10
232.0890588102
 20
219.3498879156
 30
0.0
 10
232.4840563149
 20
219.3259917061
 30
0.0
 10
232.8790636788
 20
219.3022575613
 30
0.0
 10
233.2740834878
 20
219.2787329347
 30
0.0
  0
SPLINE
  5
3A0
330
213
100
AcDbEntity
  8
RUNDUNGEN
  6
Continuous
 62
     9
100
AcDbSpline
210
0.0
220
0.0
230
1.0
 70
     8
 71
     3
 72
    13
 73
     9
 74
     0
 42
0.0000000001
 43
0.0000000001
 40
0.0
 40
0.0
 40
0.0
 40
0.0
 40
0.3215536193
 40
0.6229430301
 40
0.7516771978
 40
0.8596168531
 40
0.9432524479999999
 40
1.0
 40
1.0
 40
1.0
 40
1.0
 10
207.3009992564
 20
132.3096027534
 30
0.0
 10
207.040388213
 20
132.3095857531
 30
0.0
 10
206.5355041686
 20
132.3153118771
 30
0.0
 10
205.9265162519
 20
132.3342392941
 30
0.0
 10
205.4910071218
 20
132.3567112165
 30
0.0
 10
205.2319645159
 20
132.3744344432
 30
0.0
 10
205.0316367638
 20
132.3933905798
 30
0.0
 10
204.9186880878
 20
132.4083472369
 30
0.0
 10
204.8736113156
 20
132.417479053
 30
0.0
  0
SPLINE
  5
3A1
330
213
100
AcDbEntity
  8
RUNDUNGEN
  6
Continuous
 62
     9
100
AcDbSpline
210
0.0
220
0.0
230
1.0
 70
     8
 71
     3
 72
     8
 73
     4
 74
     0
 42
0.0000000001
 43
0.0000000001
 40
0.0
 40
0.0
 40
0.0
 40
0.0
 40
1.0
 40
1.0
 40
1.0
 40
1.0
 10
204.7029975757
 20
230.3841887797
 30
0.0
 10
204.2143190341
 20
230.413752396
 30
0.0
 10
203.7256267857
 20
230.4430915081
 30
0.0
 10
203.2369133972
 20
230.4720733701
 30
0.0
  0
SPLINE
  5
3A2
330
213
100
AcDbEntity
  8
RUNDUNGEN
  6
Continuous
 62
     9
100
AcDbSpline
210
0.0
220
0.0
230
1.0
 70
     8
 71
     3
 72
     9
 73
     5
 74
     0
 42
0.0000000001
 43
0.0000000001
 40
0.0
 40
0.0
 40
0.0
 40
0.0
 40
0.5011140273
 40
1.0
 40
1.0
 40
1.0
 40
1.0
 10
230.8027982108
 20
219.8333460058
 30
0.0
 10
231.0074975325
 20
220.0023814152
 30
0.0
 10
231.4832884297
 20
220.2639197396
 30
0.0
 10
232.0168008903
 20
220.3497468153
 30
0.0
 10
232.2810914211
 20
220.3497356108
 30
0.0
  0
SPLINE
  5
3A3
330
213
100
AcDbEntity
  8
RUNDUNGEN
  6
Continuous
 62
     9
100
AcDbSpline
210
0.0
220
0.0
230
1.0
 70
     8
 71
     3
 72
    11
 73
     7
 74
     0
 42
0.0000000001
 43
0.0000000001
 40
0.0
 40
0.0
 40
0.0
 40
0.0
 40
0.2459838564
 40
0.4943392643
 40
0.7460104054000001
 40
1.0
 40
1.0
 40
1.0
 40
1.0
 10
204.9354829471
 20
235.8670383477
 30
0.0
 10
205.0612829967
 20
235.8670383477
 30
0.0
 10
205.3169889931
 20
235.8143478256
 30
0.0
 10
205.6380555859
 20
235.590491662
 30
0.0
 10
205.8517282762
 20
235.2582315038
 30
0.0
 10
205.9014087734
 20
234.9969326589
 30
0.0
 10
205.9014087734
 20
234.8670383477
 30
0.0
  0
LINE
  5
3A4
330
213
100
AcDbEntity
  8
RUNDUNGEN
  6
Continuous
 62
     9
100
AcDbLine
 10
202.2129909163
 20
156.3549840468
 30
0.0
 11
205.2216392866
 21
133.5441530248
 31
0.0
  0
SPLINE
  5
3A5
330
213
100
AcDbEntity
  8
RUNDUNGEN
  6
Continuous
 62
     9
100
AcDbSpline
210
0.0
220
0.0
230
1.0
 70
     8
 71
     3
 72
     9
 73
     5
 74
     0
 42
0.0000000001
 43
0.0000000001
 40
0.0
 40
0.0
 40
0.0
 40
0.0
 40
0.2583612889
 40
1.0
 40
1.0
 40
1.0
 40
1.0
 10
202.1565686615
 20
157.2549959196
 30
0.0
 10
202.156649384
 20
157.1773052167
 30
0.0
 10
202.1615378328
 20
156.8766455037
 30
0.0
 10
202.1838318686
 20
156.5760846493
 30
0.0
 10
202.2129909163
 20
156.3549840468
 30
0.0
  0
LINE
  5
3A6
330
213
100
AcDbEntity
  8
RUNDUNGEN
  6
Continuous
 62
     9
100
AcDbLine
 10
206.6227176626
 20
159.418073781
 30
0.0
 11
202.1534043674
 21
160.3228980118
 31
0.0
  0
LINE
  5
3A7
330
213
100
AcDbEntity
  8
RUNDUNGEN
  6
Continuous
 62
     9
100
AcDbLine
 10
206.6227176626
 20
155.3497356108
 30
0.0
 11
204.7567716937
 21
155.2239202301
 31
0.0
  0
LINE
  5
3A8
330
213
100
AcDbEntity
  8
RUNDUNGEN
  6
Continuous
 62
     9
100
AcDbLine
 10
205.8541304596
 20
133.4161070353
 30
0.0
 11
205.2216392866
 21
133.5441530248
 31
0.0
  0
LINE
  5
3A9
330
213
100
AcDbEntity
  8
RUNDUNGEN
  6
Continuous
 62
     9
100
AcDbLine
 10
231.5706401252
 20
133.5441530248
 30
0.0
 11
234.5792884954
 21
156.3549840468
 31
0.0
  0
LINE
  5
3AA
330
213
100
AcDbEntity
  8
RUNDUNGEN
  6
Continuous
 62
     9
100
AcDbLine
 10
231.5706401252
 20
133.5441530248
 30
0.0
 11
230.9381488785
 21
133.4161070204
 31
0.0
  0
LINE
  5
3AB
330
213
100
AcDbEntity
  8
RUNDUNGEN
  6
Continuous
 62
     9
100
AcDbLine
 10
232.035507718
 20
155.2239202301
 30
0.0
 11
230.1695617492
 21
155.3497356108
 31
0.0
  0
LINE
  5
3AC
330
213
100
AcDbEntity
  8
RUNDUNGEN
  6
Continuous
 62
     9
100
AcDbLine
 10
234.6388750444
 20
160.3228980118
 30
0.0
 11
230.1695617492
 21
159.418073781
 31
0.0
  0
SPLINE
  5
3AD
330
213
100
AcDbEntity
  8
RUNDUNGEN
  6
Continuous
 62
     9
100
AcDbSpline
210
0.0
220
0.0
230
1.0
 70
     8
 71
     3
 72
     9
 73
     5
 74
     0
 42
0.0000000001
 43
0.0000000001
 40
0.0
 40
0.0
 40
0.0
 40
0.0
 40
0.238595374
 40
1.0
 40
1.0
 40
1.0
 40
1.0
 10
234.5792884954
 20
156.3549840468
 30
0.0
 10
234.5886695551
 20
156.4261166147
 30
0.0
 10
234.6222565994
 20
156.7249887921
 30
0.0
 10
234.6354728517
 20
157.026032527
 30
0.0
 10
234.6357107503
 20
157.2549959196
 30
0.0
  0
LINE
  5
3AE
330
213
100
AcDbEntity
  8
RUNDUNGEN
  6
Continuous
 62
     9
100
AcDbLine
 10
233.6896084437
 20
161.3274315877
 30
0.0
 11
229.1912046998
 21
160.4167033157
 31
0.0
  0
LINE
  5
3AF
330
213
100
AcDbEntity
  8
RUNDUNGEN
  6
Continuous
 62
     9
100
AcDbLine
 10
207.6010747119
 20
160.4167033157
 30
0.0
 11
203.1026709681
 21
161.3274315877
 31
0.0
  0
LINE
  5
3B0
330
213
100
AcDbEntity
  8
RUNDUNGEN
  6
Continuous
 62
     9
100
AcDbLine
 10
207.5927889134
 20
154.3498879156
 30
0.0
 11
206.3437809305
 21
154.2656704707
 31
0.0
  0
LINE
  5
3B1
330
213
100
AcDbEntity
  8
RUNDUNGEN
  6
Continuous
 62
     9
100
AcDbLine
 10
230.4484984813
 20
154.2656704707
 30
0.0
 11
229.1994904983
 21
154.3498879156
 31
0.0
  0
LINE
  5
3B2
330
213
100
AcDbEntity
  8
RUNDUNGEN
  6
Continuous
 62
     9
100
AcDbLine
 10
207.0790350071
 20
133.1174232926
 30
0.0
 11
206.0762827706
 21
153.0753529525
 31
0.0
  0
LINE
  5
3B3
330
213
100
AcDbEntity
  8
RUNDUNGEN
  6
Continuous
 62
     9
100
AcDbLine
 10
230.7159966411
 20
153.0753529525
 30
0.0
 11
229.713240537
 21
133.1174232926
 31
0.0
  0
SPLINE
  5
3B4
330
213
100
AcDbEntity
  8
RUNDUNGEN
  6
Continuous
 62
     9
100
AcDbSpline
210
0.0
220
0.0
230
1.0
 70
     8
 71
     3
 72
    11
 73
     7
 74
     0
 42
0.0000000001
 43
0.0000000001
 40
0.0
 40
0.0
 40
0.0
 40
0.0
 40
0.2459840053
 40
0.4943395832000001
 40
0.7460108952
 40
1.0
 40
1.0
 40
1.0
 40
1.0
 10
203.2326167179
 20
235.8670383477
 30
0.0
 10
203.3584168434
 20
235.8670383477
 30
0.0
 10
203.6141230079
 20
235.8143477625
 30
0.0
 10
203.935189738
 20
235.5904913203
 30
0.0
 10
204.1488621648
 20
235.2582310692
 30
0.0
 10
204.1985425442
 20
234.9969324081
 30
0.0
 10
204.1985425442
 20
234.8670383477
 30
0.0
  0
SPLINE
  5
3B5
330
213
100
AcDbEntity
  8
RUNDUNGEN
  6
Continuous
 62
     9
100
AcDbSpline
210
0.0
220
0.0
230
1.0
 70
     8
 71
     3
 72
     9
 73
     5
 74
     0
 42
0.0000000001
 43
0.0000000001
 40
0.0
 40
0.0
 40
0.0
 40
0.0
 40
0.5011145371
 40
1.0
 40
1.0
 40
1.0
 40
1.0
 10
205.9895016796
 20
219.8333460058
 30
0.0
 10
205.7847996095
 20
220.0023832198
 30
0.0
 10
205.3089974662
 20
220.2639135412
 30
0.0
 10
204.7754812297
 20
220.3497463538
 30
0.0
 10
204.5111879841
 20
220.3497356108
 30
0.0
  0
SPLINE
  5
3B6
330
213
100
AcDbEntity
  8
RUNDUNGEN
  6
Continuous
 62
     9
100
AcDbSpline
210
0.0
220
0.0
230
1.0
 70
     8
 71
     3
 72
    10
 73
     6
 74
     0
 42
0.0000000001
 43
0.0000000001
 40
0.0
 40
0.0
 40
0.0
 40
0.0
 40
0.1916095709
 40
0.5371951213
 40
1.0
 40
1.0
 40
1.0
 40
1.0
 10
233.5608337584
 20
219.2787329322
 30
0.0
 10
233.5530661946
 20
219.2787329322
 30
0.0
 10
233.5311529038
 20
219.2736834802
 30
0.0
 10
233.4990834856
 20
219.2468087608
 30
0.0
 10
233.4809719441
 20
219.219303231
 30
0.0
 10
233.4717468114
 20
219.2029665373
 30
0.0
  0
SPLINE
  5
3B7
330
213
100
AcDbEntity
  8
RUNDUNGEN
  6
Continuous
 62
     9
100
AcDbSpline
210
0.0
220
0.0
230
1.0
 70
     8
 71
     3
 72
    11
 73
     7
 74
     0
 42
0.0000000001
 43
0.0000000001
 40
0.0
 40
0.0
 40
0.0
 40
0.0
 40
0.1718613854
 40
0.4078036323
 40
0.6912612498000001
 40
1.0
 40
1.0
 40
1.0
 40
1.0
 10
233.4717468114
 20
219.2029665373
 30
0.0
 10
233.445326893
 20
219.1561797722
 30
0.0
 10
233.4035993774
 20
219.0341656554
 30
0.0
 10
233.3611950577
 20
218.822311738
 30
0.0
 10
233.3339338765
 20
218.5644033833
 30
0.0
 10
233.3276080872
 20
218.3792418824
 30
0.0
 10
233.3275183509
 20
218.2827174955
 30
0.0
  0
SPLINE
  5
3B8
330
213
100
AcDbEntity
  8
RUNDUNGEN
  6
Continuous
 62
     9
100
AcDbSpline
210
0.0
220
0.0
230
1.0
 70
     8
 71
     3
 72
    13
 73
     9
 74
     0
 42
0.0000000001
 43
0.0000000001
 40
0.0
 40
0.0
 40
0.0
 40
0.0
 40
0.1263128375
 40
0.2524521676
 40
0.3783011217999999
 40
0.5037716342000001
 40
0.7524545075
 40
1.0
 40
1.0
 40
1.0
 40
1.0
 10
206.7026373839
 20
231.369771859
 30
0.0
 10
206.7026530971
 20
231.2319658315
 30
0.0
 10
206.670987951
 20
230.955520863
 30
0.0
 10
206.5321717933
 20
230.5633886155
 30
0.0
 10
206.312171795
 20
230.211449471
 30
0.0
 10
205.9318537875
 20
229.8157941472
 30
0.0
 10
205.3269424406
 20
229.4741702512
 30
0.0
 10
204.7812575927
 20
229.3843316648
 30
0.0
 10
204.5111879641
 20
229.3843410846
 30
0.0
  0
LEADER
  5
55E
330
213
100
AcDbEntity
  8
ZEICHNUNGSBEMASSUNGEN
  6
Continuous
 62
     7
100
AcDbLeader
  3
DIMSTYLE_2
 74
     0
 76
     3
 10
225.396139543873
 20
252.2432557814143
 30
0.0
 10
241.5347263700729
 20
261.8874998650716
 30
0.0
 10
258.6273564727792
 20
261.8548042866299
 30
0.0
213
8.546107528269942
223
6.697880158863256
233
0.0
1001
ACAD
1000
DSTYLE
1002
{
1070
    41
1040
5.0
1070
   147
1040
1.5
1070
   178
1070
   256
1002
}
  0
LINE
  5
55F
330
213
100
AcDbEntity
  8
0
100
AcDbLine
 10
260.9851268420564
 20
258.6089025089917
 30
0.0
 11
269.6242901163909
 21
258.6089025089917
 31
0.0
  0
LINE
  5
560
330
213
100
AcDbEntity
  8
0
100
AcDbLine
 10
262.4803472166358
 20
257.4632756034819
 30
0.0
 11
268.1129810138191
 21
257.4632756034819
 31
0.0
  0
LINE
  5
561
330
213
100
AcDbEntity
  8
0
100
AcDbLine
 10
263.8911586701499
 20
256.5308281747298
 30
0.0
 11
266.8952271836031
 21
256.5308281747298
 31
0.0
  0
LINE
  5
562
330
213
100
AcDbEntity
  8
0
100
AcDbLine
 10
265.2573598221747
 20
260.2037082093189
 30
0.0
 11
265.2573598221747
 21
265.644813809245
 31
0.0
  0
ENDSEC
  0
SECTION
  2
OBJECTS
  0
DICTIONARY
  5
C
330
0
100
AcDbDictionary
281
     1
  3
ACAD_COLOR
350
3EC
  3
ACAD_GROUP
350
D
  3
ACAD_LAYOUT
350
1A
  3
ACAD_MATERIAL
350
3BF
  3
ACAD_MLEADERSTYLE
350
401
  3
ACAD_MLINESTYLE
350
17
  3
ACAD_PLOTSETTINGS
350
19
  3
ACAD_PLOTSTYLENAME
350
E
  3
ACAD_SCALELIST
350
3EF
  3
ACAD_TABLESTYLE
350
3ED
  3
ACAD_VISUALSTYLE
350
3D8
  3
ACDB_RECOMPOSE_DATA
350
572
  3
AcDbVariableDictionary
350
563
  3
AcmDictionary
350
45A
  3
AMG
350
404
  3
AMGSNAPSETTINGS
350
49F
  3
DWGPROPS
350
573
  0
DICTIONARY
  5
3EC
102
{ACAD_REACTORS
330
C
102
}
330
C
100
AcDbDictionary
281
     1
  0
DICTIONARY
  5
D
102
{ACAD_REACTORS
330
C
102
}
330
C
100
AcDbDictionary
281
     1
  0
DICTIONARY
  5
1A
102
{ACAD_REACTORS
330
C
102
}
330
C
100
AcDbDictionary
281
     1
  3
Layout1
350
3BA
  3
Model
350
3B9
  0
DICTIONARY
  5
3BF
102
{ACAD_REACTORS
330
C
102
}
330
C
100
AcDbDictionary
281
     1
  3
ByBlock
350
3C8
  3
ByLayer
350
3C0
  3
Global
350
3D0
  0
DICTIONARY
  5
401
102
{ACAD_REACTORS
330
C
102
}
330
C
100
AcDbDictionary
281
     1
  3
Standard
350
402
  0
DICTIONARY
  5
17
102
{ACAD_REACTORS
330
C
102
}
330
C
100
AcDbDictionary
281
     1
  3
Standard
350
18
  0
DICTIONARY
  5
19
102
{ACAD_REACTORS
330
C
102
}
330
C
100
AcDbDictionary
281
     1
  0
ACDBDICTIONARYWDFLT
  5
E
102
{ACAD_REACTORS
330
C
102
}
330
C
100
AcDbDictionary
281
     1
  3
Normal
350
F
100
AcDbDictionaryWithDefault
340
F
  0
DICTIONARY
  5
3EF
102
{ACAD_REACTORS
330
C
102
}
330
C
100
AcDbDictionary
281
     1
  3
A0
350
3F0
  3
A1
350
3F1
  3
A2
350
3F2
  3
A3
350
3F3
  3
A4
350
3F4
  3
A5
350
3F5
  3
A6
350
3F6
  3
A7
350
3F7
  3
A8
350
3F8
  3
A9
350
3F9
  3
B0
350
3FA
  3
B1
350
3FB
  3
B2
350
3FC
  3
B3
350
3FD
  3
B4
350
3FE
  3
B5
350
3FF
  3
B6
350
400
  0
DICTIONARY
  5
3ED
102
{ACAD_REACTORS
330
C
102
}
330
C
100
AcDbDictionary
281
     1
  3
Standard
350
3EE
  0
DICTIONARY
  5
3D8
102
{ACAD_REACTORS
330
C
102
}
330
C
100
AcDbDictionary
281
     1
  3
2dWireframe
350
3DE
  3
3D Hidden
350
3E0
  3
3dWireframe
350
3DF
  3
Basic
350
3DD
  3
Brighten
350
3E4
  3
ColorChange
350
3E8
  3
Conceptual
350
3E1
  3
Dim
350
3E3
  3
EdgeColorOff
350
3EB
  3
Facepattern
350
3E7
  3
Flat
350
3D9
  3
FlatWithEdges
350
3DA
  3
Gouraud
350
3DB
  3
GouraudWithEdges
350
3DC
  3
JitterOff
350
3E9
  3
Linepattern
350
3E6
  3
OverhangOff
350
3EA
  3
Realistic
350
3E2
  3
Thicken
350
3E5
  0
XRECORD
  5
572
102
{ACAD_REACTORS
330
C
102
}
330
C
100
AcDbXrecord
280
     1
 90
        1
330
3EE
  0
DICTIONARY
  5
563
102
{ACAD_REACTORS
330
C
102
}
330
C
100
AcDbDictionary
281
     1
  3
CANNOSCALE
350
567
  3
CMLEADERSTYLE
350
565
  3
CTABLESTYLE
350
564
  3
DIMASSOC
350
56E
  3
HIDETEXT
350
56D
  3
INDEXCTL
350
56C
  3
LAYEREVAL
350
569
  3
LAYERNOTIFY
350
56A
  3
LIGHTINGUNITS
350
568
  3
MSLTSCALE
350
566
  3
SORTENTS
350
56B
  3
XCLIPFRAME
350
56F
  0
DICTIONARY
  5
45A
102
{ACAD_REACTORS
330
C
102
}
330
C
100
AcDbDictionary
281
     1
  3
AcmStdDictionary
350
464
  0
DICTIONARY
  5
404
102
{ACAD_REACTORS
330
C
102
}
330
C
100
AcDbDictionary
281
     1
  0
DICTIONARY
  5
49F
102
{ACAD_REACTORS
330
C
102
}
330
C
100
AcDbDictionary
281
     1
  0
XRECORD
  5
573
102
{ACAD_REACTORS
330
C
102
}
330
C
100
AcDbXrecord
280
     1
  1
DWGPROPS COOKIE
  2

  3

  4

  6

  7

  8
sheim
  9

300
=
301
=
302
=
303
=
304
=
305
=
306
=
307
=
308
=
309
=
 40
0.0043292361111111
 41
2456324.617573832
 42
2456324.621902882
  1

 90
        0
  0
LAYOUT
  5
3BA
102
{ACAD_XDICTIONARY
360
576
102
}
102
{ACAD_REACTORS
330
1A
102
}
330
1A
100
AcDbPlotSettings
  1

  2
none_device
  4
ISO_A3_(420.00_x_297.00_MM)
  6

 40
0.0
 41
0.0
 42
0.0
 43
0.0
 44
420.0
 45
297.0
 46
0.0
 47
0.0
 48
0.0
 49
0.0
140
0.0
141
0.0
142
1.0
143
1.0
 70
     0
 72
     1
 73
     0
 74
     0
  7

 75
     0
147
1.0
148
0.0
149
0.0
100
AcDbLayout
  1
Layout1
 70
     1
 71
     1
 10
0.0
 20
0.0
 11
12.0
 21
9.0
 12
0.0
 22
0.0
 32
0.0
 14
1.000000000000000E+20
 24
1.000000000000000E+20
 34
1.000000000000000E+20
 15
-1.000000000000000E+20
 25
-1.000000000000000E+20
 35
-1.000000000000000E+20
146
0.0
 13
0.0
 23
0.0
 33
0.0
 16
1.0
 26
0.0
 36
0.0
 17
0.0
 27
1.0
 37
0.0
 76
     0
330
214
  0
LAYOUT
  5
3B9
102
{ACAD_XDICTIONARY
360
574
102
}
102
{ACAD_REACTORS
330
1A
102
}
330
1A
100
AcDbPlotSettings
  1

  2
none_device
  4
ISO_A3_(420.00_x_297.00_MM)
  6

 40
0.0
 41
0.0
 42
0.0
 43
0.0
 44
420.0
 45
297.0
 46
0.0
 47
0.0
 48
0.0
 49
0.0
140
0.0
141
0.0
142
1.0
143
1.0
 70
  1024
 72
     1
 73
     0
 74
     0
  7

 75
     0
147
1.0
148
0.0
149
0.0
100
AcDbLayout
  1
Model
 70
     0
 71
     0
 10
0.0
 20
0.0
 11
420.0
 21
297.0
 12
0.0
 22
0.0
 32
0.0
 14
0.0
 24
0.0
 34
0.0
 15
0.0
 25
0.0
 35
0.0
146
0.0
 13
0.0
 23
0.0
 33
0.0
 16
1.0
 26
0.0
 36
0.0
 17
0.0
 27
1.0
 37
0.0
 76
     0
330
213
331
1F4
  0
MATERIAL
  5
3C8
102
{ACAD_XDICTIONARY
360
3C9
102
}
102
{ACAD_REACTORS
330
3BF
102
}
330
3BF
100
AcDbMaterial
  1
ByBlock
 72
     0
 43
0.0008202099737533
 43
0.0
 43
0.0
 43
0.0
 43
0.0
 43
0.0008202099737533
 43
0.0
 43
0.0
 43
0.0
 43
0.0
 43
1.0
 43
0.0
 43
0.0
 43
0.0
 43
0.0
 43
1.0
 77
     0
 47
0.0008202099737533
 47
0.0
 47
0.0
 47
0.0
 47
0.0
 47
0.0008202099737533
 47
0.0
 47
0.0
 47
0.0
 47
0.0
 47
1.0
 47
0.0
 47
0.0
 47
0.0
 47
0.0
 47
1.0
171
     0
 49
0.0008202099737533
 49
0.0
 49
0.0
 49
0.0
 49
0.0
 49
0.0008202099737533
 49
0.0
 49
0.0
 49
0.0
 49
0.0
 49
1.0
 49
0.0
 49
0.0
 49
0.0
 49
0.0
 49
1.0
175
     0
142
0.0008202099737533
142
0.0
142
0.0
142
0.0
142
0.0
142
0.0008202099737533
142
0.0
142
0.0
142
0.0
142
0.0
142
1.0
142
0.0
142
0.0
142
0.0
142
0.0
142
1.0
179
     0
144
0.0008202099737533
144
0.0
144
0.0
144
0.0
144
0.0
144
0.0008202099737533
144
0.0
144
0.0
144
0.0
144
0.0
144
1.0
144
0.0
144
0.0
144
0.0
144
0.0
144
1.0
147
0.0008202099737533
147
0.0
147
0.0
147
0.0
147
0.0
147
0.0008202099737533
147
0.0
147
0.0
147
0.0
147
0.0
147
1.0
147
0.0
147
0.0
147
0.0
147
0.0
147
1.0
  0
MATERIAL
  5
3C0
102
{ACAD_XDICTIONARY
360
3C1
102
}
102
{ACAD_REACTORS
330
3BF
102
}
330
3BF
100
AcDbMaterial
  1
ByLayer
 72
     0
 43
0.0008202099737533
 43
0.0
 43
0.0
 43
0.0
 43
0.0
 43
0.0008202099737533
 43
0.0
 43
0.0
 43
0.0
 43
0.0
 43
1.0
 43
0.0
 43
0.0
 43
0.0
 43
0.0
 43
1.0
 77
     0
 47
0.0008202099737533
 47
0.0
 47
0.0
 47
0.0
 47
0.0
 47
0.0008202099737533
 47
0.0
 47
0.0
 47
0.0
 47
0.0
 47
1.0
 47
0.0
 47
0.0
 47
0.0
 47
0.0
 47
1.0
171
     0
 49
0.0008202099737533
 49
0.0
 49
0.0
 49
0.0
 49
0.0
 49
0.0008202099737533
 49
0.0
 49
0.0
 49
0.0
 49
0.0
 49
1.0
 49
0.0
 49
0.0
 49
0.0
 49
0.0
 49
1.0
175
     0
142
0.0008202099737533
142
0.0
142
0.0
142
0.0
142
0.0
142
0.0008202099737533
142
0.0
142
0.0
142
0.0
142
0.0
142
1.0
142
0.0
142
0.0
142
0.0
142
0.0
142
1.0
179
     0
144
0.0008202099737533
144
0.0
144
0.0
144
0.0
144
0.0
144
0.0008202099737533
144
0.0
144
0.0
144
0.0
144
0.0
144
1.0
144
0.0
144
0.0
144
0.0
144
0.0
144
1.0
147
0.0008202099737533
147
0.0
147
0.0
147
0.0
147
0.0
147
0.0008202099737533
147
0.0
147
0.0
147
0.0
147
0.0
147
1.0
147
0.0
147
0.0
147
0.0
147
0.0
147
1.0
  0
MATERIAL
  5
3D0
102
{ACAD_XDICTIONARY
360
3D1
102
}
102
{ACAD_REACTORS
330
3BF
102
}
330
3BF
100
AcDbMaterial
  1
Global
 72
     0
 43
0.0008202099737533
 43
0.0
 43
0.0
 43
0.0
 43
0.0
 43
0.0008202099737533
 43
0.0
 43
0.0
 43
0.0
 43
0.0
 43
1.0
 43
0.0
 43
0.0
 43
0.0
 43
0.0
 43
1.0
 77
     0
 47
0.0008202099737533
 47
0.0
 47
0.0
 47
0.0
 47
0.0
 47
0.0008202099737533
 47
0.0
 47
0.0
 47
0.0
 47
0.0
 47
1.0
 47
0.0
 47
0.0
 47
0.0
 47
0.0
 47
1.0
171
     0
 49
0.0008202099737533
 49
0.0
 49
0.0
 49
0.0
 49
0.0
 49
0.0008202099737533
 49
0.0
 49
0.0
 49
0.0
 49
0.0
 49
1.0
 49
0.0
 49
0.0
 49
0.0
 49
0.0
 49
1.0
175
     0
142
0.0008202099737533
142
0.0
142
0.0
142
0.0
142
0.0
142
0.0008202099737533
142
0.0
142
0.0
142
0.0
142
0.0
142
1.0
142
0.0
142
0.0
142
0.0
142
0.0
142
1.0
179
     0
144
0.0008202099737533
144
0.0
144
0.0
144
0.0
144
0.0
144
0.0008202099737533
144
0.0
144
0.0
144
0.0
144
0.0
144
1.0
144
0.0
144
0.0
144
0.0
144
0.0
144
1.0
147
0.0008202099737533
147
0.0
147
0.0
147
0.0
147
0.0
147
0.0008202099737533
147
0.0
147
0.0
147
0.0
147
0.0
147
1.0
147
0.0
147
0.0
147
0.0
147
0.0
147
1.0
  0
MLEADERSTYLE
  5
402
102
{ACAD_REACTORS
330
401
102
}
330
401
100
AcDbMLeaderStyle
170
     2
171
     1
172
     0
 90
        2
 40
0.0
 41
0.0
173
     1
 91
-1056964608
340
14
 92
       -2
290
     1
 42
2.0
291
     1
 43
0.36
  3
Standard
 44
4.0
300

342
11
174
     1
178
     6
175
     1
176
     0
 93
-1056964608
 45
4.0
292
     0
297
     0
 46
4.0
 94
-1056964608
 47
1.0
 49
1.0
140
1.0
293
     1
141
0.0
294
     1
177
     0
142
1.0
295
     0
296
     0
143
0.125
1001
ACAD_MLEADERVER
1070
     2
  0
MLINESTYLE
  5
18
102
{ACAD_REACTORS
330
17
102
}
330
17
100
AcDbMlineStyle
  2
STANDARD
 70
     0
  3

 62
   256
 51
90.0
 52
90.0
 71
     2
 49
0.5
 62
   256
  6
BYLAYER
 49
-0.5
 62
   256
  6
BYLAYER
  0
ACDBPLACEHOLDER
  5
F
102
{ACAD_REACTORS
330
E
102
}
330
E
  0
SCALE
  5
3F0
102
{ACAD_REACTORS
330
3EF
102
}
330
3EF
100
AcDbScale
 70
     0
300
1:1
140
1.0
141
1.0
290
     1
  0
SCALE
  5
3F1
102
{ACAD_REACTORS
330
3EF
102
}
330
3EF
100
AcDbScale
 70
     0
300
1:2
140
1.0
141
2.0
290
     0
  0
SCALE
  5
3F2
102
{ACAD_REACTORS
330
3EF
102
}
330
3EF
100
AcDbScale
 70
     0
300
1:4
140
1.0
141
4.0
290
     0
  0
SCALE
  5
3F3
102
{ACAD_REACTORS
330
3EF
102
}
330
3EF
100
AcDbScale
 70
     0
300
1:5
140
1.0
141
5.0
290
     0
  0
SCALE
  5
3F4
102
{ACAD_REACTORS
330
3EF
102
}
330
3EF
100
AcDbScale
 70
     0
300
1:8
140
1.0
141
8.0
290
     0
  0
SCALE
  5
3F5
102
{ACAD_REACTORS
330
3EF
102
}
330
3EF
100
AcDbScale
 70
     0
300
1:10
140
1.0
141
10.0
290
     0
  0
SCALE
  5
3F6
102
{ACAD_REACTORS
330
3EF
102
}
330
3EF
100
AcDbScale
 70
     0
300
1:16
140
1.0
141
16.0
290
     0
  0
SCALE
  5
3F7
102
{ACAD_REACTORS
330
3EF
102
}
330
3EF
100
AcDbScale
 70
     0
300
1:20
140
1.0
141
20.0
290
     0
  0
SCALE
  5
3F8
102
{ACAD_REACTORS
330
3EF
102
}
330
3EF
100
AcDbScale
 70
     0
300
1:30
140
1.0
141
30.0
290
     0
  0
SCALE
  5
3F9
102
{ACAD_REACTORS
330
3EF
102
}
330
3EF
100
AcDbScale
 70
     0
300
1:40
140
1.0
141
40.0
290
     0
  0
SCALE
  5
3FA
102
{ACAD_REACTORS
330
3EF
102
}
330
3EF
100
AcDbScale
 70
     0
300
1:50
140
1.0
141
50.0
290
     0
  0
SCALE
  5
3FB
102
{ACAD_REACTORS
330
3EF
102
}
330
3EF
100
AcDbScale
 70
     0
300
1:100
140
1.0
141
100.0
290
     0
  0
SCALE
  5
3FC
102
{ACAD_REACTORS
330
3EF
102
}
330
3EF
100
AcDbScale
 70
     0
300
2:1
140
2.0
141
1.0
290
     0
  0
SCALE
  5
3FD
102
{ACAD_REACTORS
330
3EF
102
}
330
3EF
100
AcDbScale
 70
     0
300
4:1
140
4.0
141
1.0
290
     0
  0
SCALE
  5
3FE
102
{ACAD_REACTORS
330
3EF
102
}
330
3EF
100
AcDbScale
 70
     0
300
8:1
140
8.0
141
1.0
290
     0
  0
SCALE
  5
3FF
102
{ACAD_REACTORS
330
3EF
102
}
330
3EF
100
AcDbScale
 70
     0
300
10:1
140
10.0
141
1.0
290
     0
  0
SCALE
  5
400
102
{ACAD_REACTORS
330
3EF
102
}
330
3EF
100
AcDbScale
 70
     0
300
100:1
140
100.0
141
1.0
290
     0
  0
TABLESTYLE
  5
3EE
102
{ACAD_XDICTIONARY
360
570
102
}
102
{ACAD_REACTORS
330
3ED
102
}
330
3ED
100
AcDbTableStyle
  3
Standard
 70
     0
 71
     0
 40
1.5
 41
1.5
280
     0
281
     0
  7
STANDARD
140
4.5
170
     2
 62
     0
 63
     7
283
     0
274
    -2
284
     1
 64
     0
275
    -2
285
     1
 65
     0
276
    -2
286
     1
 66
     0
277
    -2
287
     1
 67
     0
278
    -2
288
     1
 68
     0
279
    -2
289
     1
 69
     0
  7
STANDARD
140
6.0
170
     5
 62
     0
 63
     7
283
     0
274
    -2
284
     1
 64
     0
275
    -2
285
     1
 65
     0
276
    -2
286
     1
 66
     0
277
    -2
287
     1
 67
     0
278
    -2
288
     1
 68
     0
279
    -2
289
     1
 69
     0
  7
STANDARD
140
4.5
170
     5
 62
     0
 63
     7
283
     0
274
    -2
284
     1
 64
     0
275
    -2
285
     1
 65
     0
276
    -2
286
     1
 66
     0
277
    -2
287
     1
 67
     0
278
    -2
288
     1
 68
     0
279
    -2
289
     1
 69
     0
  0
VISUALSTYLE
  5
3DE
102
{ACAD_XDICTIONARY
360
585
102
}
102
{ACAD_REACTORS
330
3D8
102
}
330
3D8
100
AcDbVisualStyle
  2
2dWireframe
 70
     4
 71
     0
 72
     2
 73
     0
 90
        0
 40
-0.6
 41
-30.0
 62
     5
 63
     7
 74
     1
 91
        4
 64
     7
 65
   257
 75
     1
175
     1
 42
1.0
 92
        0
 66
   257
 43
1.0
 76
     1
 77
     6
 78
     2
 67
     7
 79
     5
170
     0
171
     0
290
     0
174
     0
 93
        1
 44
0.0
173
     0
291
     0
 45
0.0
1001
ACAD
1000
AcDbSavedByObjectVersion
1070
     0
  0
VISUALSTYLE
  5
3E0
102
{ACAD_XDICTIONARY
360
589
102
}
102
{ACAD_REACTORS
330
3D8
102
}
330
3D8
100
AcDbVisualStyle
  2
3D Hidden
 70
     6
 71
     1
 72
     2
 73
     2
 90
        0
 40
-0.6
 41
-30.0
 62
     5
 63
     7
 74
     2
 91
        2
 64
     7
 65
   257
 75
     2
175
     1
 42
179.0
 92
        0
 66
   257
 43
1.0
 76
     1
 77
     6
 78
     2
 67
     7
 79
     3
170
     0
171
     0
290
     0
174
     0
 93
        1
 44
0.0
173
     0
291
     0
 45
0.0
1001
ACAD
1000
AcDbSavedByObjectVersion
1070
     0
  0
VISUALSTYLE
  5
3DF
102
{ACAD_XDICTIONARY
360
587
102
}
102
{ACAD_REACTORS
330
3D8
102
}
330
3D8
100
AcDbVisualStyle
  2
3dWireframe
 70
     5
 71
     0
 72
     2
 73
     0
 90
        0
 40
-0.6
 41
-30.0
 62
     5
 63
     7
 74
     1
 91
        4
 64
     7
 65
   257
 75
     1
175
     1
 42
1.0
 92
        0
 66
   257
 43
1.0
 76
     1
 77
     6
 78
     2
 67
     7
 79
     5
170
     0
171
     0
290
     0
174
     0
 93
        1
 44
0.0
173
     0
291
     0
 45
0.0
1001
ACAD
1000
AcDbSavedByObjectVersion
1070
     0
  0
VISUALSTYLE
  5
3DD
102
{ACAD_XDICTIONARY
360
583
102
}
102
{ACAD_REACTORS
330
3D8
102
}
330
3D8
100
AcDbVisualStyle
  2
Basic
 70
     7
 71
     1
 72
     0
 73
     1
 90
        0
 40
-0.6
 41
-30.0
 62
     5
 63
     7
 74
     0
 91
        4
 64
     7
 65
   257
 75
     1
175
     1
 42
1.0
 92
        8
 66
     7
 43
1.0
 76
     1
 77
     6
 78
     2
 67
     7
 79
     5
170
     0
171
     0
290
     0
174
     0
 93
        1
 44
0.0
173
     0
291
     1
 45
0.0
1001
ACAD
1000
AcDbSavedByObjectVersion
1070
     0
  0
VISUALSTYLE
  5
3E4
102
{ACAD_XDICTIONARY
360
591
102
}
102
{ACAD_REACTORS
330
3D8
102
}
330
3D8
100
AcDbVisualStyle
  2
Brighten
 70
    12
 71
     2
 72
     2
 73
     0
 90
        0
 40
-0.6
 41
-30.0
 62
     5
 63
     7
 74
     1
 91
        4
 64
     7
 65
   257
 75
     1
175
     1
 42
1.0
 92
        8
 66
     7
 43
1.0
 76
     1
 77
     6
 78
     2
 67
     7
 79
     5
170
     0
171
     0
290
     0
174
     0
 93
        1
 44
50.0
173
     0
291
     1
 45
0.0
1001
ACAD
1000
AcDbSavedByObjectVersion
1070
     0
  0
VISUALSTYLE
  5
3E8
102
{ACAD_XDICTIONARY
360
599
102
}
102
{ACAD_REACTORS
330
3D8
102
}
330
3D8
100
AcDbVisualStyle
  2
ColorChange
 70
    16
 71
     2
 72
     2
 73
     3
 90
        0
 40
-0.6
 41
-30.0
 62
     5
 63
     8
 74
     1
 91
        4
 64
     7
 65
   257
 75
     1
175
     1
 42
1.0
 92
        8
 66
     8
 43
1.0
 76
     1
 77
     6
 78
     2
 67
     7
 79
     5
170
     0
171
     0
290
     0
174
     0
 93
        1
 44
0.0
173
     0
291
     1
 45
0.0
1001
ACAD
1000
AcDbSavedByObjectVersion
1070
     0
  0
VISUALSTYLE
  5
3E1
102
{ACAD_XDICTIONARY
360
58B
102
}
102
{ACAD_REACTORS
330
3D8
102
}
330
3D8
100
AcDbVisualStyle
  2
Conceptual
 70
     9
 71
     3
 72
     2
 73
     0
 90
        0
 40
-0.6
 41
-30.0
 62
     5
 63
     7
 74
     2
 91
        2
 64
     7
 65
   257
 75
     1
175
     1
 42
179.0
 92
        8
 66
     7
 43
1.0
 76
     1
 77
     6
 78
     2
 67
     7
 79
     3
170
     0
171
     0
290
     0
174
     0
 93
        1
 44
0.0
173
     0
291
     0
 45
0.0
1001
ACAD
1000
AcDbSavedByObjectVersion
1070
     0
  0
VISUALSTYLE
  5
3E3
102
{ACAD_XDICTIONARY
360
58F
102
}
102
{ACAD_REACTORS
330
3D8
102
}
330
3D8
100
AcDbVisualStyle
  2
Dim
 70
    11
 71
     2
 72
     2
 73
     0
 90
        0
 40
-0.6
 41
-30.0
 62
     5
 63
     7
 74
     1
 91
        4
 64
     7
 65
   257
 75
     1
175
     1
 42
1.0
 92
        8
 66
     7
 43
1.0
 76
     1
 77
     6
 78
     2
 67
     7
 79
     5
170
     0
171
     0
290
     0
174
     0
 93
        1
 44
-50.0
173
     0
291
     1
 45
0.0
1001
ACAD
1000
AcDbSavedByObjectVersion
1070
     0
  0
VISUALSTYLE
  5
3EB
102
{ACAD_XDICTIONARY
360
59F
102
}
102
{ACAD_REACTORS
330
3D8
102
}
330
3D8
100
AcDbVisualStyle
  2
EdgeColorOff
 70
    22
 71
     2
 72
     2
 73
     0
 90
        0
 40
-0.6
 41
-30.0
 62
     5
 63
     7
 74
     1
 91
        4
 64
     7
 65
   257
 75
     1
175
     1
 42
1.0
 92
        8
 66
     7
 43
1.0
 76
     1
 77
     6
 78
     2
 67
     7
 79
     5
170
     0
171
     0
290
     0
174
     0
 93
        1
 44
0.0
173
     0
291
     1
 45
0.0
1001
ACAD
1000
AcDbSavedByObjectVersion
1070
     0
  0
VISUALSTYLE
  5
3E7
102
{ACAD_XDICTIONARY
360
597
102
}
102
{ACAD_REACTORS
330
3D8
102
}
330
3D8
100
AcDbVisualStyle
  2
Facepattern
 70
    15
 71
     2
 72
     2
 73
     0
 90
        0
 40
-0.6
 41
-30.0
 62
     5
 63
     7
 74
     1
 91
        4
 64
     7
 65
   257
 75
     1
175
     1
 42
1.0
 92
        8
 66
     7
 43
1.0
 76
     1
 77
     6
 78
     2
 67
     7
 79
     5
170
     0
171
     0
290
     0
174
     0
 93
        1
 44
0.0
173
     0
291
     1
 45
0.0
1001
ACAD
1000
AcDbSavedByObjectVersion
1070
     0
  0
VISUALSTYLE
  5
3D9
102
{ACAD_XDICTIONARY
360
57B
102
}
102
{ACAD_REACTORS
330
3D8
102
}
330
3D8
100
AcDbVisualStyle
  2
Flat
 70
     0
 71
     2
 72
     1
 73
     1
 90
        2
 40
-0.6
 41
30.0
 62
     5
 63
     7
 74
     0
 91
        4
 64
     7
 65
   257
 75
     1
175
     1
 42
1.0
 92
        8
 66
     7
 43
1.0
 76
     1
 77
     6
 78
     2
 67
     7
 79
     5
170
     0
171
     0
290
     0
174
     0
 93
       13
 44
0.0
173
     0
291
     1
 45
0.0
1001
ACAD
1000
AcDbSavedByObjectVersion
1070
     0
  0
VISUALSTYLE
  5
3DA
102
{ACAD_XDICTIONARY
360
57D
102
}
102
{ACAD_REACTORS
330
3D8
102
}
330
3D8
100
AcDbVisualStyle
  2
FlatWithEdges
 70
     1
 71
     2
 72
     1
 73
     1
 90
        2
 40
-0.6
 41
30.0
 62
     5
 63
     7
 74
     1
 91
        4
 64
     7
 65
   257
 75
     1
175
     1
 42
1.0
 92
        0
 66
   257
 43
1.0
 76
     1
 77
     6
 78
     2
 67
     7
 79
     5
170
     0
171
     0
290
     0
174
     0
 93
       13
 44
0.0
173
     0
291
     1
 45
0.0
1001
ACAD
1000
AcDbSavedByObjectVersion
1070
     0
  0
VISUALSTYLE
  5
3DB
102
{ACAD_XDICTIONARY
360
57F
102
}
102
{ACAD_REACTORS
330
3D8
102
}
330
3D8
100
AcDbVisualStyle
  2
Gouraud
 70
     2
 71
     2
 72
     2
 73
     1
 90
        2
 40
-0.6
 41
30.0
 62
     5
 63
     7
 74
     0
 91
        4
 64
     7
 65
   257
 75
     1
175
     1
 42
1.0
 92
        0
 66
     7
 43
1.0
 76
     1
 77
     6
 78
     2
 67
     7
 79
     5
170
     0
171
     0
290
     0
174
     0
 93
       13
 44
0.0
173
     0
291
     1
 45
0.0
1001
ACAD
1000
AcDbSavedByObjectVersion
1070
     0
  0
VISUALSTYLE
  5
3DC
102
{ACAD_XDICTIONARY
360
581
102
}
102
{ACAD_REACTORS
330
3D8
102
}
330
3D8
100
AcDbVisualStyle
  2
GouraudWithEdges
 70
     3
 71
     2
 72
     2
 73
     1
 90
        2
 40
-0.6
 41
30.0
 62
     5
 63
     7
 74
     1
 91
        4
 64
     7
 65
   257
 75
     1
175
     1
 42
1.0
 92
        0
 66
   257
 43
1.0
 76
     1
 77
     6
 78
     2
 67
     7
 79
     5
170
     0
171
     0
290
     0
174
     0
 93
       13
 44
0.0
173
     0
291
     1
 45
0.0
1001
ACAD
1000
AcDbSavedByObjectVersion
1070
     0
  0
VISUALSTYLE
  5
3E9
102
{ACAD_XDICTIONARY
360
59B
102
}
102
{ACAD_REACTORS
330
3D8
102
}
330
3D8
100
AcDbVisualStyle
  2
JitterOff
 70
    20
 71
     2
 72
     2
 73
     0
 90
        0
 40
-0.6
 41
-30.0
 62
     5
 63
     7
 74
     1
 91
        4
 64
     7
 65
   257
 75
     1
175
     1
 42
1.0
 92
       10
 66
     7
 43
1.0
 76
     1
 77
     6
 78
     2
 67
     7
 79
     5
170
     0
171
     0
290
     0
174
     0
 93
        1
 44
0.0
173
     0
291
     1
 45
0.0
1001
ACAD
1000
AcDbSavedByObjectVersion
1070
     0
  0
VISUALSTYLE
  5
3E6
102
{ACAD_XDICTIONARY
360
595
102
}
102
{ACAD_REACTORS
330
3D8
102
}
330
3D8
100
AcDbVisualStyle
  2
Linepattern
 70
    14
 71
     2
 72
     2
 73
     0
 90
        0
 40
-0.6
 41
-30.0
 62
     5
 63
     7
 74
     1
 91
        4
 64
     7
 65
   257
 75
     7
175
     7
 42
1.0
 92
        8
 66
     7
 43
1.0
 76
     1
 77
     6
 78
     2
 67
     7
 79
     5
170
     0
171
     0
290
     0
174
     0
 93
        1
 44
0.0
173
     0
291
     1
 45
0.0
1001
ACAD
1000
AcDbSavedByObjectVersion
1070
     0
  0
VISUALSTYLE
  5
3EA
102
{ACAD_XDICTIONARY
360
59D
102
}
102
{ACAD_REACTORS
330
3D8
102
}
330
3D8
100
AcDbVisualStyle
  2
OverhangOff
 70
    21
 71
     2
 72
     2
 73
     0
 90
        0
 40
-0.6
 41
-30.0
 62
     5
 63
     7
 74
     1
 91
        4
 64
     7
 65
   257
 75
     1
175
     1
 42
1.0
 92
        9
 66
     7
 43
1.0
 76
     1
 77
     6
 78
     2
 67
     7
 79
     5
170
     0
171
     0
290
     0
174
     0
 93
        1
 44
0.0
173
     0
291
     1
 45
0.0
1001
ACAD
1000
AcDbSavedByObjectVersion
1070
     0
  0
VISUALSTYLE
  5
3E2
102
{ACAD_XDICTIONARY
360
58D
102
}
102
{ACAD_REACTORS
330
3D8
102
}
330
3D8
100
AcDbVisualStyle
  2
Realistic
 70
     8
 71
     2
 72
     2
 73
     0
 90
        0
 40
-0.6
 41
-30.0
 62
     5
 63
     7
 74
     1
 91
        0
 64
     7
 65
   257
 75
     1
175
     1
 42
1.0
 92
        8
 66
     8
 43
1.0
 76
     1
 77
     6
 78
     2
 67
     7
 79
     5
170
     0
171
     0
290
     0
174
     0
 93
       13
 44
0.0
173
     0
291
     0
 45
0.0
1001
ACAD
1000
AcDbSavedByObjectVersion
1070
     0
  0
VISUALSTYLE
  5
3E5
102
{ACAD_XDICTIONARY
360
593
102
}
102
{ACAD_REACTORS
330
3D8
102
}
330
3D8
100
AcDbVisualStyle
  2
Thicken
 70
    13
 71
     2
 72
     2
 73
     0
 90
        0
 40
-0.6
 41
-30.0
 62
     5
 63
     7
 74
     1
 91
        4
 64
     7
 65
   257
 75
     1
175
     1
 42
1.0
 92
       12
 66
     7
 43
1.0
 76
     1
 77
     6
 78
     2
 67
     7
 79
     5
170
     0
171
     0
290
     0
174
     0
 93
        1
 44
0.0
173
     0
291
     1
 45
0.0
1001
ACAD
1000
AcDbSavedByObjectVersion
1070
     0
  0
DICTIONARYVAR
  5
567
102
{ACAD_REACTORS
330
563
102
}
330
563
100
DictionaryVariables
280
     0
  1
1:1
  0
DICTIONARYVAR
  5
565
102
{ACAD_REACTORS
330
563
102
}
330
563
100
DictionaryVariables
280
     0
  1
STANDARD
  0
DICTIONARYVAR
  5
564
102
{ACAD_REACTORS
330
563
102
}
330
563
100
DictionaryVariables
280
     0
  1
STANDARD
  0
DICTIONARYVAR
  5
56E
102
{ACAD_REACTORS
330
563
102
}
330
563
100
DictionaryVariables
280
     0
  1
2
  0
DICTIONARYVAR
  5
56D
102
{ACAD_REACTORS
330
563
102
}
330
563
100
DictionaryVariables
280
     0
  1
1
  0
DICTIONARYVAR
  5
56C
102
{ACAD_REACTORS
330
563
102
}
330
563
100
DictionaryVariables
280
     0
  1
0
  0
DICTIONARYVAR
  5
569
102
{ACAD_REACTORS
330
563
102
}
330
563
100
DictionaryVariables
280
     0
  1
0
  0
DICTIONARYVAR
  5
56A
102
{ACAD_REACTORS
330
563
102
}
330
563
100
DictionaryVariables
280
     0
  1
0
  0
DICTIONARYVAR
  5
568
102
{ACAD_REACTORS
330
563
102
}
330
563
100
DictionaryVariables
280
     0
  1
2
  0
DICTIONARYVAR
  5
566
102
{ACAD_REACTORS
330
563
102
}
330
563
100
DictionaryVariables
280
     0
  1
1
  0
DICTIONARYVAR
  5
56B
102
{ACAD_REACTORS
330
563
102
}
330
563
100
DictionaryVariables
280
     0
  1
127
  0
DICTIONARYVAR
  5
56F
102
{ACAD_REACTORS
330
563
102
}
330
563
100
DictionaryVariables
280
     0
  1
2
  0
DICTIONARY
  5
464
102
{ACAD_REACTORS
330
45A
102
}
330
45A
100
AcDbDictionary
281
     1
  0
DICTIONARY
  5
576
330
3BA
100
AcDbDictionary
280
     1
281
     1
  3
ACAD_XREC_ROUNDTRIP
360
577
  0
DICTIONARY
  5
574
330
3B9
100
AcDbDictionary
280
     1
281
     1
  3
ACAD_XREC_ROUNDTRIP
360
575
  0
DICTIONARY
  5
3C9
330
3C8
100
AcDbDictionary
280
     1
281
     1
  3
ACAD_XREC_ROUNDTRIP
360
579
  3
BUMPTILE
360
3CB
  3
DIFFUSETILE
360
3CA
  3
OPACITYTILE
360
3CE
  3
REFLECTIONTILE
360
3CD
  3
REFRACTIONTILE
360
3CF
  3
SPECULARTILE
360
3CC
  0
DICTIONARY
  5
3C1
330
3C0
100
AcDbDictionary
280
     1
281
     1
  3
ACAD_XREC_ROUNDTRIP
360
578
  3
BUMPTILE
360
3C3
  3
DIFFUSETILE
360
3C2
  3
OPACITYTILE
360
3C6
  3
REFLECTIONTILE
360
3C5
  3
REFRACTIONTILE
360
3C7
  3
SPECULARTILE
360
3C4
  0
DICTIONARY
  5
3D1
330
3D0
100
AcDbDictionary
280
     1
281
     1
  3
ACAD_XREC_ROUNDTRIP
360
57A
  3
BUMPTILE
360
3D3
  3
DIFFUSETILE
360
3D2
  3
OPACITYTILE
360
3D6
  3
REFLECTIONTILE
360
3D5
  3
REFRACTIONTILE
360
3D7
  3
SPECULARTILE
360
3D4
  0
DICTIONARY
  5
570
330
3EE
100
AcDbDictionary
280
     1
281
     1
  3
ACAD_ROUNDTRIP_2008_TABLESTYLE_CELLSTYLEMAP
360
571
  3
ACAD_XREC_ROUNDTRIP
360
5A1
  0
DICTIONARY
  5
585
330
3DE
100
AcDbDictionary
280
     1
281
     1
  3
ACAD_XREC_ROUNDTRIP
360
586
  0
DICTIONARY
  5
589
330
3E0
100
AcDbDictionary
280
     1
281
     1
  3
ACAD_XREC_ROUNDTRIP
360
58A
  0
DICTIONARY
  5
587
330
3DF
100
AcDbDictionary
280
     1
281
     1
  3
ACAD_XREC_ROUNDTRIP
360
588
  0
DICTIONARY
  5
583
330
3DD
100
AcDbDictionary
280
     1
281
     1
  3
ACAD_XREC_ROUNDTRIP
360
584
  0
DICTIONARY
  5
591
330
3E4
100
AcDbDictionary
280
     1
281
     1
  3
ACAD_XREC_ROUNDTRIP
360
592
  0
DICTIONARY
  5
599
330
3E8
100
AcDbDictionary
280
     1
281
     1
  3
ACAD_XREC_ROUNDTRIP
360
59A
  0
DICTIONARY
  5
58B
330
3E1
100
AcDbDictionary
280
     1
281
     1
  3
ACAD_XREC_ROUNDTRIP
360
58C
  0
DICTIONARY
  5
58F
330
3E3
100
AcDbDictionary
280
     1
281
     1
  3
ACAD_XREC_ROUNDTRIP
360
590
  0
DICTIONARY
  5
59F
330
3EB
100
AcDbDictionary
280
     1
281
     1
  3
ACAD_XREC_ROUNDTRIP
360
5A0
  0
DICTIONARY
  5
597
330
3E7
100
AcDbDictionary
280
     1
281
     1
  3
ACAD_XREC_ROUNDTRIP
360
598
  0
DICTIONARY
  5
57B
330
3D9
100
AcDbDictionary
280
     1
281
     1
  3
ACAD_XREC_ROUNDTRIP
360
57C
  0
DICTIONARY
  5
57D
330
3DA
100
AcDbDictionary
280
     1
281
     1
  3
ACAD_XREC_ROUNDTRIP
360
57E
  0
DICTIONARY
  5
57F
330
3DB
100
AcDbDictionary
280
     1
281
     1
  3
ACAD_XREC_ROUNDTRIP
360
580
  0
DICTIONARY
  5
581
330
3DC
100
AcDbDictionary
280
     1
281
     1
  3
ACAD_XREC_ROUNDTRIP
360
582
  0
DICTIONARY
  5
59B
330
3E9
100
AcDbDictionary
280
     1
281
     1
  3
ACAD_XREC_ROUNDTRIP
360
59C
  0
DICTIONARY
  5
595
330
3E6
100
AcDbDictionary
280
     1
281
     1
  3
ACAD_XREC_ROUNDTRIP
360
596
  0
DICTIONARY
  5
59D
330
3EA
100
AcDbDictionary
280
     1
281
     1
  3
ACAD_XREC_ROUNDTRIP
360
59E
  0
DICTIONARY
  5
58D
330
3E2
100
AcDbDictionary
280
     1
281
     1
  3
ACAD_XREC_ROUNDTRIP
360
58E
  0
DICTIONARY
  5
593
330
3E5
100
AcDbDictionary
280
     1
281
     1
  3
ACAD_XREC_ROUNDTRIP
360
594
  0
XRECORD
  5
577
102
{ACAD_REACTORS
330
576
102
}
330
576
100
AcDbXrecord
280
     1
102
SHADEPLOT
 70
     0
102
SHADEPLOTRESLEVEL
 70
     2
102
SHADEPLOTCUSTOMDPI
 70
   300
  0
XRECORD
  5
575
102
{ACAD_REACTORS
330
574
102
}
330
574
100
AcDbXrecord
280
     1
102
SHADEPLOT
 70
     0
102
SHADEPLOTRESLEVEL
 70
     2
102
SHADEPLOTCUSTOMDPI
 70
   300
  0
XRECORD
  5
579
102
{ACAD_REACTORS
330
3C9
102
}
330
3C9
100
AcDbXrecord
280
     1
102
MATERIAL
148
0.0
149
0.0
149
0.0
 93
        0
 94
      127
282
     0
 72
     0
 77
     0
171
     0
175
     0
179
     0
273
     0
  0
XRECORD
  5
3CB
102
{ACAD_REACTORS
330
3C9
102
}
330
3C9
100
AcDbXrecord
280
     1
270
     1
271
     1
  0
XRECORD
  5
3CA
102
{ACAD_REACTORS
330
3C9
102
}
330
3C9
100
AcDbXrecord
280
     1
270
     1
271
     1
  0
XRECORD
  5
3CE
102
{ACAD_REACTORS
330
3C9
102
}
330
3C9
100
AcDbXrecord
280
     1
270
     1
271
     1
  0
XRECORD
  5
3CD
102
{ACAD_REACTORS
330
3C9
102
}
330
3C9
100
AcDbXrecord
280
     1
270
     1
271
     1
  0
XRECORD
  5
3CF
102
{ACAD_REACTORS
330
3C9
102
}
330
3C9
100
AcDbXrecord
280
     1
270
     1
271
     1
  0
XRECORD
  5
3CC
102
{ACAD_REACTORS
330
3C9
102
}
330
3C9
100
AcDbXrecord
280
     1
270
     1
271
     1
  0
XRECORD
  5
578
102
{ACAD_REACTORS
330
3C1
102
}
330
3C1
100
AcDbXrecord
280
     1
102
MATERIAL
148
0.0
149
0.0
149
0.0
 93
        0
 94
      127
282
     0
 72
     0
 77
     0
171
     0
175
     0
179
     0
273
     0
  0
XRECORD
  5
3C3
102
{ACAD_REACTORS
330
3C1
102
}
330
3C1
100
AcDbXrecord
280
     1
270
     1
271
     1
  0
XRECORD
  5
3C2
102
{ACAD_REACTORS
330
3C1
102
}
330
3C1
100
AcDbXrecord
280
     1
270
     1
271
     1
  0
XRECORD
  5
3C6
102
{ACAD_REACTORS
330
3C1
102
}
330
3C1
100
AcDbXrecord
280
     1
270
     1
271
     1
  0
XRECORD
  5
3C5
102
{ACAD_REACTORS
330
3C1
102
}
330
3C1
100
AcDbXrecord
280
     1
270
     1
271
     1
  0
XRECORD
  5
3C7
102
{ACAD_REACTORS
330
3C1
102
}
330
3C1
100
AcDbXrecord
280
     1
270
     1
271
     1
  0
XRECORD
  5
3C4
102
{ACAD_REACTORS
330
3C1
102
}
330
3C1
100
AcDbXrecord
280
     1
270
     1
271
     1
  0
XRECORD
  5
57A
102
{ACAD_REACTORS
330
3D1
102
}
330
3D1
100
AcDbXrecord
280
     1
102
MATERIAL
148
0.0
149
0.0
149
0.0
 93
        0
 94
      127
282
     0
 72
     0
 77
     0
171
     0
175
     0
179
     0
273
     0
  0
XRECORD
  5
3D3
102
{ACAD_REACTORS
330
3D1
102
}
330
3D1
100
AcDbXrecord
280
     1
270
     1
271
     1
  0
XRECORD
  5
3D2
102
{ACAD_REACTORS
330
3D1
102
}
330
3D1
100
AcDbXrecord
280
     1
270
     1
271
     1
  0
XRECORD
  5
3D6
102
{ACAD_REACTORS
330
3D1
102
}
330
3D1
100
AcDbXrecord
280
     1
270
     1
271
     1
  0
XRECORD
  5
3D5
102
{ACAD_REACTORS
330
3D1
102
}
330
3D1
100
AcDbXrecord
280
     1
270
     1
271
     1
  0
XRECORD
  5
3D7
102
{ACAD_REACTORS
330
3D1
102
}
330
3D1
100
AcDbXrecord
280
     1
270
     1
271
     1
  0
XRECORD
  5
3D4
102
{ACAD_REACTORS
330
3D1
102
}
330
3D1
100
AcDbXrecord
280
     1
270
     1
271
     1
  0
CELLSTYLEMAP
  5
571
102
{ACAD_REACTORS
330
570
102
}
330
570
100
AcDbCellStyleMap
 90
        3
300
CELLSTYLE
  1
TABLEFORMAT_BEGIN
 90
        5
170
     1
 91
        0
 92
    32768
 62
   257
 93
        1
300
CONTENTFORMAT
  1
CONTENTFORMAT_BEGIN
 90
        0
 91
        0
 92
      512
 93
        0
300

 40
0.0
140
1.0
 94
        5
 62
     0
340
11
144
6.0
309
CONTENTFORMAT_END
171
     1
301
MARGIN
  1
CELLMARGIN_BEGIN
 40
1.5
 40
1.5
 40
1.5
 40
1.5
 40
4.5
 40
4.5
309
CELLMARGIN_END
 94
        6
 95
        1
302
GRIDFORMAT
  1
GRIDFORMAT_BEGIN
 90
        0
 91
        1
 62
     0
 92
       -2
340
0
 93
        0
 40
1.125
309
GRIDFORMAT_END
 95
        2
302
GRIDFORMAT
  1
GRIDFORMAT_BEGIN
 90
        0
 91
        1
 62
     0
 92
       -2
340
0
 93
        0
 40
1.125
309
GRIDFORMAT_END
 95
        4
302
GRIDFORMAT
  1
GRIDFORMAT_BEGIN
 90
        0
 91
        1
 62
     0
 92
       -2
340
0
 93
        0
 40
1.125
309
GRIDFORMAT_END
 95
        8
302
GRIDFORMAT
  1
GRIDFORMAT_BEGIN
 90
        0
 91
        1
 62
     0
 92
       -2
340
0
 93
        0
 40
1.125
309
GRIDFORMAT_END
 95
       16
302
GRIDFORMAT
  1
GRIDFORMAT_BEGIN
 90
        0
 91
        1
 62
     0
 92
       -2
340
0
 93
        0
 40
1.125
309
GRIDFORMAT_END
 95
       32
302
GRIDFORMAT
  1
GRIDFORMAT_BEGIN
 90
        0
 91
        1
 62
     0
 92
       -2
340
0
 93
        0
 40
1.125
309
GRIDFORMAT_END
309
TABLEFORMAT_END
  1
CELLSTYLE_BEGIN
 90
        1
 91
        1
300
_TITLE
309
CELLSTYLE_END
300
CELLSTYLE
  1
TABLEFORMAT_BEGIN
 90
        5
170
     1
 91
        0
 92
        0
 62
   257
 93
        1
300
CONTENTFORMAT
  1
CONTENTFORMAT_BEGIN
 90
        0
 91
        0
 92
      512
 93
        0
300

 40
0.0
140
1.0
 94
        5
 62
     0
340
11
144
4.5
309
CONTENTFORMAT_END
171
     1
301
MARGIN
  1
CELLMARGIN_BEGIN
 40
1.5
 40
1.5
 40
1.5
 40
1.5
 40
4.5
 40
4.5
309
CELLMARGIN_END
 94
        6
 95
        1
302
GRIDFORMAT
  1
GRIDFORMAT_BEGIN
 90
        0
 91
        1
 62
     0
 92
       -2
340
0
 93
        0
 40
1.125
309
GRIDFORMAT_END
 95
        2
302
GRIDFORMAT
  1
GRIDFORMAT_BEGIN
 90
        0
 91
        1
 62
     0
 92
       -2
340
0
 93
        0
 40
1.125
309
GRIDFORMAT_END
 95
        4
302
GRIDFORMAT
  1
GRIDFORMAT_BEGIN
 90
        0
 91
        1
 62
     0
 92
       -2
340
0
 93
        0
 40
1.125
309
GRIDFORMAT_END
 95
        8
302
GRIDFORMAT
  1
GRIDFORMAT_BEGIN
 90
        0
 91
        1
 62
     0
 92
       -2
340
0
 93
        0
 40
1.125
309
GRIDFORMAT_END
 95
       16
302
GRIDFORMAT
  1
GRIDFORMAT_BEGIN
 90
        0
 91
        1
 62
     0
 92
       -2
340
0
 93
        0
 40
1.125
309
GRIDFORMAT_END
 95
       32
302
GRIDFORMAT
  1
GRIDFORMAT_BEGIN
 90
        0
 91
        1
 62
     0
 92
       -2
340
0
 93
        0
 40
1.125
309
GRIDFORMAT_END
309
TABLEFORMAT_END
  1
CELLSTYLE_BEGIN
 90
        2
 91
        1
300
_HEADER
309
CELLSTYLE_END
300
CELLSTYLE
  1
TABLEFORMAT_BEGIN
 90
        5
170
     1
 91
        0
 92
        0
 62
   257
 93
        1
300
CONTENTFORMAT
  1
CONTENTFORMAT_BEGIN
 90
        0
 91
        0
 92
      512
 93
        0
300

 40
0.0
140
1.0
 94
        2
 62
     0
340
11
144
4.5
309
CONTENTFORMAT_END
171
     1
301
MARGIN
  1
CELLMARGIN_BEGIN
 40
1.5
 40
1.5
 40
1.5
 40
1.5
 40
4.5
 40
4.5
309
CELLMARGIN_END
 94
        6
 95
        1
302
GRIDFORMAT
  1
GRIDFORMAT_BEGIN
 90
        0
 91
        1
 62
     0
 92
       -2
340
0
 93
        0
 40
1.125
309
GRIDFORMAT_END
 95
        2
302
GRIDFORMAT
  1
GRIDFORMAT_BEGIN
 90
        0
 91
        1
 62
     0
 92
       -2
340
0
 93
        0
 40
1.125
309
GRIDFORMAT_END
 95
        4
302
GRIDFORMAT
  1
GRIDFORMAT_BEGIN
 90
        0
 91
        1
 62
     0
 92
       -2
340
0
 93
        0
 40
1.125
309
GRIDFORMAT_END
 95
        8
302
GRIDFORMAT
  1
GRIDFORMAT_BEGIN
 90
        0
 91
        1
 62
     0
 92
       -2
340
0
 93
        0
 40
1.125
309
GRIDFORMAT_END
 95
       16
302
GRIDFORMAT
  1
GRIDFORMAT_BEGIN
 90
        0
 91
        1
 62
     0
 92
       -2
340
0
 93
        0
 40
1.125
309
GRIDFORMAT_END
 95
       32
302
GRIDFORMAT
  1
GRIDFORMAT_BEGIN
 90
        0
 91
        1
 62
     0
 92
       -2
340
0
 93
        0
 40
1.125
309
GRIDFORMAT_END
309
TABLEFORMAT_END
  1
CELLSTYLE_BEGIN
 90
        3
 91
        2
300
_DATA
309
CELLSTYLE_END
  0
XRECORD
  5
5A1
102
{ACAD_REACTORS
330
570
102
}
330
570
100
AcDbXrecord
280
     1
102
ACAD_ROUNDTRIP_PRE2007_TABLESTYLE
 90
      512
 91
        0
  1

 92
      512
 93
        0
  2

 94
      512
 95
        0
  3

  0
XRECORD
  5
586
102
{ACAD_REACTORS
330
585
102
}
330
585
100
AcDbXrecord
280
     1
102
RTVSPropertyOp0
 70
     1
102
RTVSPropertyOp1
 70
     1
102
RTVSPropertyOp2
 70
     1
102
RTVSPropertyOp3
 70
     1
102
RTVSPropertyOp4
 70
     1
102
RTVSPropertyOp5
 70
     1
102
RTVSPropertyOp6
 70
     1
102
RTVSPropertyOp7
 70
     1
102
RTVSPropertyOp8
 70
     1
102
RTVSPropertyOp9
 70
     1
102
RTVSPropertyOp10
 70
     1
102
RTVSPropertyOp11
 70
     1
102
RTVSPropertyOp12
 70
     1
102
RTVSPropertyOp13
 70
     1
102
RTVSPropertyOp14
 70
     1
102
RTVSPropertyOp15
 70
     1
102
RTVSPropertyOp16
 70
     1
102
RTVSPropertyOp17
 70
     1
102
RTVSPropertyOp18
 70
     1
102
RTVSPropertyOp19
 70
     1
102
RTVSPropertyOp20
 70
     1
102
RTVSPropertyOp21
 70
     1
102
RTVSPropertyOp22
 70
     1
102
RTVSPropertyOp23
 70
     1
102
RTVSPropertyOp24
 70
     1
102
RTVSPropertyOp25
 70
     1
102
RTVSPropertyOp26
 70
     1
102
RTVSPropertyOp27
 70
     1
  0
XRECORD
  5
58A
102
{ACAD_REACTORS
330
589
102
}
330
589
100
AcDbXrecord
280
     1
102
RTVSPropertyOp0
 70
     1
102
RTVSPropertyOp1
 70
     1
102
RTVSPropertyOp2
 70
     1
102
RTVSPropertyOp3
 70
     1
102
RTVSPropertyOp4
 70
     1
102
RTVSPropertyOp5
 70
     1
102
RTVSPropertyOp6
 70
     1
102
RTVSPropertyOp7
 70
     1
102
RTVSPropertyOp8
 70
     1
102
RTVSPropertyOp9
 70
     1
102
RTVSPropertyOp10
 70
     1
102
RTVSPropertyOp11
 70
     1
102
RTVSPropertyOp12
 70
     1
102
RTVSPropertyOp13
 70
     1
102
RTVSPropertyOp14
 70
     1
102
RTVSPropertyOp15
 70
     1
102
RTVSPropertyOp16
 70
     1
102
RTVSPropertyOp17
 70
     1
102
RTVSPropertyOp18
 70
     1
102
RTVSPropertyOp19
 70
     1
102
RTVSPropertyOp20
 70
     1
102
RTVSPropertyOp21
 70
     1
102
RTVSPropertyOp22
 70
     1
102
RTVSPropertyOp23
 70
     1
102
RTVSPropertyOp24
 70
     1
102
RTVSPropertyOp25
 70
     1
102
RTVSPropertyOp26
 70
     1
102
RTVSPropertyOp27
 70
     1
  0
XRECORD
  5
588
102
{ACAD_REACTORS
330
587
102
}
330
587
100
AcDbXrecord
280
     1
102
RTVSPropertyOp0
 70
     1
102
RTVSPropertyOp1
 70
     1
102
RTVSPropertyOp2
 70
     1
102
RTVSPropertyOp3
 70
     1
102
RTVSPropertyOp4
 70
     1
102
RTVSPropertyOp5
 70
     1
102
RTVSPropertyOp6
 70
     1
102
RTVSPropertyOp7
 70
     1
102
RTVSPropertyOp8
 70
     1
102
RTVSPropertyOp9
 70
     1
102
RTVSPropertyOp10
 70
     1
102
RTVSPropertyOp11
 70
     1
102
RTVSPropertyOp12
 70
     1
102
RTVSPropertyOp13
 70
     1
102
RTVSPropertyOp14
 70
     1
102
RTVSPropertyOp15
 70
     1
102
RTVSPropertyOp16
 70
     1
102
RTVSPropertyOp17
 70
     1
102
RTVSPropertyOp18
 70
     1
102
RTVSPropertyOp19
 70
     1
102
RTVSPropertyOp20
 70
     1
102
RTVSPropertyOp21
 70
     1
102
RTVSPropertyOp22
 70
     1
102
RTVSPropertyOp23
 70
     1
102
RTVSPropertyOp24
 70
     1
102
RTVSPropertyOp25
 70
     1
102
RTVSPropertyOp26
 70
     1
102
RTVSPropertyOp27
 70
     1
  0
XRECORD
  5
584
102
{ACAD_REACTORS
330
583
102
}
330
583
100
AcDbXrecord
280
     1
102
RTVSPropertyOp0
 70
     1
102
RTVSPropertyOp1
 70
     1
102
RTVSPropertyOp2
 70
     1
102
RTVSPropertyOp3
 70
     1
102
RTVSPropertyOp4
 70
     1
102
RTVSPropertyOp5
 70
     1
102
RTVSPropertyOp6
 70
     1
102
RTVSPropertyOp7
 70
     1
102
RTVSPropertyOp8
 70
     1
102
RTVSPropertyOp9
 70
     1
102
RTVSPropertyOp10
 70
     1
102
RTVSPropertyOp11
 70
     1
102
RTVSPropertyOp12
 70
     1
102
RTVSPropertyOp13
 70
     1
102
RTVSPropertyOp14
 70
     1
102
RTVSPropertyOp15
 70
     1
102
RTVSPropertyOp16
 70
     1
102
RTVSPropertyOp17
 70
     1
102
RTVSPropertyOp18
 70
     1
102
RTVSPropertyOp19
 70
     1
102
RTVSPropertyOp20
 70
     1
102
RTVSPropertyOp21
 70
     1
102
RTVSPropertyOp22
 70
     1
102
RTVSPropertyOp23
 70
     1
102
RTVSPropertyOp24
 70
     1
102
RTVSPropertyOp25
 70
     1
102
RTVSPropertyOp26
 70
     1
102
RTVSPropertyOp27
 70
     1
  0
XRECORD
  5
592
102
{ACAD_REACTORS
330
591
102
}
330
591
100
AcDbXrecord
280
     1
102
RTVSPropertyOp0
 70
     1
102
RTVSPropertyOp1
 70
     1
102
RTVSPropertyOp2
 70
     1
102
RTVSPropertyOp3
 70
     1
102
RTVSPropertyOp4
 70
     1
102
RTVSPropertyOp5
 70
     1
102
RTVSPropertyOp6
 70
     1
102
RTVSPropertyOp7
 70
     1
102
RTVSPropertyOp8
 70
     1
102
RTVSPropertyOp9
 70
     1
102
RTVSPropertyOp10
 70
     1
102
RTVSPropertyOp11
 70
     1
102
RTVSPropertyOp12
 70
     1
102
RTVSPropertyOp13
 70
     1
102
RTVSPropertyOp14
 70
     1
102
RTVSPropertyOp15
 70
     1
102
RTVSPropertyOp16
 70
     1
102
RTVSPropertyOp17
 70
     1
102
RTVSPropertyOp18
 70
     1
102
RTVSPropertyOp19
 70
     1
102
RTVSPropertyOp20
 70
     1
102
RTVSPropertyOp21
 70
     1
102
RTVSPropertyOp22
 70
     1
102
RTVSPropertyOp23
 70
     1
102
RTVSPropertyOp24
 70
     1
102
RTVSPropertyOp25
 70
     1
102
RTVSPropertyOp26
 70
     1
102
RTVSPropertyOp27
 70
     1
  0
XRECORD
  5
59A
102
{ACAD_REACTORS
330
599
102
}
330
599
100
AcDbXrecord
280
     1
102
RTVSPropertyOp0
 70
     1
102
RTVSPropertyOp1
 70
     1
102
RTVSPropertyOp2
 70
     1
102
RTVSPropertyOp3
 70
     1
102
RTVSPropertyOp4
 70
     1
102
RTVSPropertyOp5
 70
     1
102
RTVSPropertyOp6
 70
     1
102
RTVSPropertyOp7
 70
     1
102
RTVSPropertyOp8
 70
     1
102
RTVSPropertyOp9
 70
     1
102
RTVSPropertyOp10
 70
     1
102
RTVSPropertyOp11
 70
     1
102
RTVSPropertyOp12
 70
     1
102
RTVSPropertyOp13
 70
     1
102
RTVSPropertyOp14
 70
     1
102
RTVSPropertyOp15
 70
     1
102
RTVSPropertyOp16
 70
     1
102
RTVSPropertyOp17
 70
     1
102
RTVSPropertyOp18
 70
     1
102
RTVSPropertyOp19
 70
     1
102
RTVSPropertyOp20
 70
     1
102
RTVSPropertyOp21
 70
     1
102
RTVSPropertyOp22
 70
     1
102
RTVSPropertyOp23
 70
     1
102
RTVSPropertyOp24
 70
     1
102
RTVSPropertyOp25
 70
     1
102
RTVSPropertyOp26
 70
     1
102
RTVSPropertyOp27
 70
     1
  0
XRECORD
  5
58C
102
{ACAD_REACTORS
330
58B
102
}
330
58B
100
AcDbXrecord
280
     1
102
RTVSPropertyOp0
 70
     1
102
RTVSPropertyOp1
 70
     1
102
RTVSPropertyOp2
 70
     1
102
RTVSPropertyOp3
 70
     1
102
RTVSPropertyOp4
 70
     1
102
RTVSPropertyOp5
 70
     1
102
RTVSPropertyOp6
 70
     1
102
RTVSPropertyOp7
 70
     1
102
RTVSPropertyOp8
 70
     1
102
RTVSPropertyOp9
 70
     1
102
RTVSPropertyOp10
 70
     1
102
RTVSPropertyOp11
 70
     1
102
RTVSPropertyOp12
 70
     1
102
RTVSPropertyOp13
 70
     1
102
RTVSPropertyOp14
 70
     1
102
RTVSPropertyOp15
 70
     1
102
RTVSPropertyOp16
 70
     1
102
RTVSPropertyOp17
 70
     1
102
RTVSPropertyOp18
 70
     1
102
RTVSPropertyOp19
 70
     1
102
RTVSPropertyOp20
 70
     1
102
RTVSPropertyOp21
 70
     1
102
RTVSPropertyOp22
 70
     1
102
RTVSPropertyOp23
 70
     1
102
RTVSPropertyOp24
 70
     1
102
RTVSPropertyOp25
 70
     1
102
RTVSPropertyOp26
 70
     1
102
RTVSPropertyOp27
 70
     1
  0
XRECORD
  5
590
102
{ACAD_REACTORS
330
58F
102
}
330
58F
100
AcDbXrecord
280
     1
102
RTVSPropertyOp0
 70
     1
102
RTVSPropertyOp1
 70
     1
102
RTVSPropertyOp2
 70
     1
102
RTVSPropertyOp3
 70
     1
102
RTVSPropertyOp4
 70
     1
102
RTVSPropertyOp5
 70
     1
102
RTVSPropertyOp6
 70
     1
102
RTVSPropertyOp7
 70
     1
102
RTVSPropertyOp8
 70
     1
102
RTVSPropertyOp9
 70
     1
102
RTVSPropertyOp10
 70
     1
102
RTVSPropertyOp11
 70
     1
102
RTVSPropertyOp12
 70
     1
102
RTVSPropertyOp13
 70
     1
102
RTVSPropertyOp14
 70
     1
102
RTVSPropertyOp15
 70
     1
102
RTVSPropertyOp16
 70
     1
102
RTVSPropertyOp17
 70
     1
102
RTVSPropertyOp18
 70
     1
102
RTVSPropertyOp19
 70
     1
102
RTVSPropertyOp20
 70
     1
102
RTVSPropertyOp21
 70
     1
102
RTVSPropertyOp22
 70
     1
102
RTVSPropertyOp23
 70
     1
102
RTVSPropertyOp24
 70
     1
102
RTVSPropertyOp25
 70
     1
102
RTVSPropertyOp26
 70
     1
102
RTVSPropertyOp27
 70
     1
  0
XRECORD
  5
5A0
102
{ACAD_REACTORS
330
59F
102
}
330
59F
100
AcDbXrecord
280
     1
102
RTVSPropertyOp0
 70
     0
102
RTVSPropertyOp1
 70
     0
102
RTVSPropertyOp2
 70
     0
102
RTVSPropertyOp3
 70
     0
102
RTVSPropertyOp4
 70
     0
102
RTVSPropertyOp5
 70
     0
102
RTVSPropertyOp6
 70
     0
102
RTVSPropertyOp7
 70
     0
102
RTVSPropertyOp8
 70
     0
102
RTVSPropertyOp9
 70
     0
102
RTVSPropertyOp10
 70
     0
102
RTVSPropertyOp11
 70
     0
102
RTVSPropertyOp12
 70
     0
102
RTVSPropertyOp13
 70
     0
102
RTVSPropertyOp14
 70
     2
102
RTVSPropertyOp15
 70
     0
102
RTVSPropertyOp16
 70
     0
102
RTVSPropertyOp17
 70
     0
102
RTVSPropertyOp18
 70
     0
102
RTVSPropertyOp19
 70
     0
102
RTVSPropertyOp20
 70
     0
102
RTVSPropertyOp21
 70
     0
102
RTVSPropertyOp22
 70
     0
102
RTVSPropertyOp23
 70
     0
102
RTVSPropertyOp24
 70
     0
102
RTVSPropertyOp25
 70
     0
102
RTVSPropertyOp26
 70
     0
102
RTVSPropertyOp27
 70
     0
  0
XRECORD
  5
598
102
{ACAD_REACTORS
330
597
102
}
330
597
100
AcDbXrecord
280
     1
102
RTVSPropertyOp0
 70
     1
102
RTVSPropertyOp1
 70
     1
102
RTVSPropertyOp2
 70
     1
102
RTVSPropertyOp3
 70
     1
102
RTVSPropertyOp4
 70
     1
102
RTVSPropertyOp5
 70
     1
102
RTVSPropertyOp6
 70
     1
102
RTVSPropertyOp7
 70
     1
102
RTVSPropertyOp8
 70
     1
102
RTVSPropertyOp9
 70
     1
102
RTVSPropertyOp10
 70
     1
102
RTVSPropertyOp11
 70
     1
102
RTVSPropertyOp12
 70
     1
102
RTVSPropertyOp13
 70
     1
102
RTVSPropertyOp14
 70
     1
102
RTVSPropertyOp15
 70
     1
102
RTVSPropertyOp16
 70
     1
102
RTVSPropertyOp17
 70
     1
102
RTVSPropertyOp18
 70
     1
102
RTVSPropertyOp19
 70
     1
102
RTVSPropertyOp20
 70
     1
102
RTVSPropertyOp21
 70
     1
102
RTVSPropertyOp22
 70
     1
102
RTVSPropertyOp23
 70
     1
102
RTVSPropertyOp24
 70
     1
102
RTVSPropertyOp25
 70
     1
102
RTVSPropertyOp26
 70
     1
102
RTVSPropertyOp27
 70
     1
  0
XRECORD
  5
57C
102
{ACAD_REACTORS
330
57B
102
}
330
57B
100
AcDbXrecord
280
     1
102
RTVSPropertyOp0
 70
     1
102
RTVSPropertyOp1
 70
     1
102
RTVSPropertyOp2
 70
     1
102
RTVSPropertyOp3
 70
     1
102
RTVSPropertyOp4
 70
     1
102
RTVSPropertyOp5
 70
     1
102
RTVSPropertyOp6
 70
     1
102
RTVSPropertyOp7
 70
     1
102
RTVSPropertyOp8
 70
     1
102
RTVSPropertyOp9
 70
     1
102
RTVSPropertyOp10
 70
     1
102
RTVSPropertyOp11
 70
     1
102
RTVSPropertyOp12
 70
     1
102
RTVSPropertyOp13
 70
     1
102
RTVSPropertyOp14
 70
     1
102
RTVSPropertyOp15
 70
     1
102
RTVSPropertyOp16
 70
     1
102
RTVSPropertyOp17
 70
     1
102
RTVSPropertyOp18
 70
     1
102
RTVSPropertyOp19
 70
     1
102
RTVSPropertyOp20
 70
     1
102
RTVSPropertyOp21
 70
     1
102
RTVSPropertyOp22
 70
     1
102
RTVSPropertyOp23
 70
     1
102
RTVSPropertyOp24
 70
     1
102
RTVSPropertyOp25
 70
     1
102
RTVSPropertyOp26
 70
     1
102
RTVSPropertyOp27
 70
     1
  0
XRECORD
  5
57E
102
{ACAD_REACTORS
330
57D
102
}
330
57D
100
AcDbXrecord
280
     1
102
RTVSPropertyOp0
 70
     1
102
RTVSPropertyOp1
 70
     1
102
RTVSPropertyOp2
 70
     1
102
RTVSPropertyOp3
 70
     1
102
RTVSPropertyOp4
 70
     1
102
RTVSPropertyOp5
 70
     1
102
RTVSPropertyOp6
 70
     1
102
RTVSPropertyOp7
 70
     1
102
RTVSPropertyOp8
 70
     1
102
RTVSPropertyOp9
 70
     1
102
RTVSPropertyOp10
 70
     1
102
RTVSPropertyOp11
 70
     1
102
RTVSPropertyOp12
 70
     1
102
RTVSPropertyOp13
 70
     1
102
RTVSPropertyOp14
 70
     1
102
RTVSPropertyOp15
 70
     1
102
RTVSPropertyOp16
 70
     1
102
RTVSPropertyOp17
 70
     1
102
RTVSPropertyOp18
 70
     1
102
RTVSPropertyOp19
 70
     1
102
RTVSPropertyOp20
 70
     1
102
RTVSPropertyOp21
 70
     1
102
RTVSPropertyOp22
 70
     1
102
RTVSPropertyOp23
 70
     1
102
RTVSPropertyOp24
 70
     1
102
RTVSPropertyOp25
 70
     1
102
RTVSPropertyOp26
 70
     1
102
RTVSPropertyOp27
 70
     1
  0
XRECORD
  5
580
102
{ACAD_REACTORS
330
57F
102
}
330
57F
100
AcDbXrecord
280
     1
102
RTVSPropertyOp0
 70
     1
102
RTVSPropertyOp1
 70
     1
102
RTVSPropertyOp2
 70
     1
102
RTVSPropertyOp3
 70
     1
102
RTVSPropertyOp4
 70
     1
102
RTVSPropertyOp5
 70
     1
102
RTVSPropertyOp6
 70
     1
102
RTVSPropertyOp7
 70
     1
102
RTVSPropertyOp8
 70
     1
102
RTVSPropertyOp9
 70
     1
102
RTVSPropertyOp10
 70
     1
102
RTVSPropertyOp11
 70
     1
102
RTVSPropertyOp12
 70
     1
102
RTVSPropertyOp13
 70
     1
102
RTVSPropertyOp14
 70
     1
102
RTVSPropertyOp15
 70
     1
102
RTVSPropertyOp16
 70
     1
102
RTVSPropertyOp17
 70
     1
102
RTVSPropertyOp18
 70
     1
102
RTVSPropertyOp19
 70
     1
102
RTVSPropertyOp20
 70
     1
102
RTVSPropertyOp21
 70
     1
102
RTVSPropertyOp22
 70
     1
102
RTVSPropertyOp23
 70
     1
102
RTVSPropertyOp24
 70
     1
102
RTVSPropertyOp25
 70
     1
102
RTVSPropertyOp26
 70
     1
102
RTVSPropertyOp27
 70
     1
  0
XRECORD
  5
582
102
{ACAD_REACTORS
330
581
102
}
330
581
100
AcDbXrecord
280
     1
102
RTVSPropertyOp0
 70
     1
102
RTVSPropertyOp1
 70
     1
102
RTVSPropertyOp2
 70
     1
102
RTVSPropertyOp3
 70
     1
102
RTVSPropertyOp4
 70
     1
102
RTVSPropertyOp5
 70
     1
102
RTVSPropertyOp6
 70
     1
102
RTVSPropertyOp7
 70
     1
102
RTVSPropertyOp8
 70
     1
102
RTVSPropertyOp9
 70
     1
102
RTVSPropertyOp10
 70
     1
102
RTVSPropertyOp11
 70
     1
102
RTVSPropertyOp12
 70
     1
102
RTVSPropertyOp13
 70
     1
102
RTVSPropertyOp14
 70
     1
102
RTVSPropertyOp15
 70
     1
102
RTVSPropertyOp16
 70
     1
102
RTVSPropertyOp17
 70
     1
102
RTVSPropertyOp18
 70
     1
102
RTVSPropertyOp19
 70
     1
102
RTVSPropertyOp20
 70
     1
102
RTVSPropertyOp21
 70
     1
102
RTVSPropertyOp22
 70
     1
102
RTVSPropertyOp23
 70
     1
102
RTVSPropertyOp24
 70
     1
102
RTVSPropertyOp25
 70
     1
102
RTVSPropertyOp26
 70
     1
102
RTVSPropertyOp27
 70
     1
  0
XRECORD
  5
59C
102
{ACAD_REACTORS
330
59B
102
}
330
59B
100
AcDbXrecord
280
     1
102
RTVSPropertyOp0
 70
     0
102
RTVSPropertyOp1
 70
     0
102
RTVSPropertyOp2
 70
     0
102
RTVSPropertyOp3
 70
     0
102
RTVSPropertyOp4
 70
     0
102
RTVSPropertyOp5
 70
     0
102
RTVSPropertyOp6
 70
     0
102
RTVSPropertyOp7
 70
     0
102
RTVSPropertyOp8
 70
     0
102
RTVSPropertyOp9
 70
     0
102
RTVSPropertyOp10
 70
     0
102
RTVSPropertyOp11
 70
     0
102
RTVSPropertyOp12
 70
     0
102
RTVSPropertyOp13
 70
     0
102
RTVSPropertyOp14
 70
     2
102
RTVSPropertyOp15
 70
     0
102
RTVSPropertyOp16
 70
     0
102
RTVSPropertyOp17
 70
     0
102
RTVSPropertyOp18
 70
     0
102
RTVSPropertyOp19
 70
     0
102
RTVSPropertyOp20
 70
     0
102
RTVSPropertyOp21
 70
     0
102
RTVSPropertyOp22
 70
     0
102
RTVSPropertyOp23
 70
     0
102
RTVSPropertyOp24
 70
     0
102
RTVSPropertyOp25
 70
     0
102
RTVSPropertyOp26
 70
     0
102
RTVSPropertyOp27
 70
     0
  0
XRECORD
  5
596
102
{ACAD_REACTORS
330
595
102
}
330
595
100
AcDbXrecord
280
     1
102
RTVSPropertyOp0
 70
     1
102
RTVSPropertyOp1
 70
     1
102
RTVSPropertyOp2
 70
     1
102
RTVSPropertyOp3
 70
     1
102
RTVSPropertyOp4
 70
     1
102
RTVSPropertyOp5
 70
     1
102
RTVSPropertyOp6
 70
     1
102
RTVSPropertyOp7
 70
     1
102
RTVSPropertyOp8
 70
     1
102
RTVSPropertyOp9
 70
     1
102
RTVSPropertyOp10
 70
     1
102
RTVSPropertyOp11
 70
     1
102
RTVSPropertyOp12
 70
     1
102
RTVSPropertyOp13
 70
     1
102
RTVSPropertyOp14
 70
     1
102
RTVSPropertyOp15
 70
     1
102
RTVSPropertyOp16
 70
     1
102
RTVSPropertyOp17
 70
     1
102
RTVSPropertyOp18
 70
     1
102
RTVSPropertyOp19
 70
     1
102
RTVSPropertyOp20
 70
     1
102
RTVSPropertyOp21
 70
     1
102
RTVSPropertyOp22
 70
     1
102
RTVSPropertyOp23
 70
     1
102
RTVSPropertyOp24
 70
     1
102
RTVSPropertyOp25
 70
     1
102
RTVSPropertyOp26
 70
     1
102
RTVSPropertyOp27
 70
     1
  0
XRECORD
  5
59E
102
{ACAD_REACTORS
330
59D
102
}
330
59D
100
AcDbXrecord
280
     1
102
RTVSPropertyOp0
 70
     0
102
RTVSPropertyOp1
 70
     0
102
RTVSPropertyOp2
 70
     0
102
RTVSPropertyOp3
 70
     0
102
RTVSPropertyOp4
 70
     0
102
RTVSPropertyOp5
 70
     0
102
RTVSPropertyOp6
 70
     0
102
RTVSPropertyOp7
 70
     0
102
RTVSPropertyOp8
 70
     0
102
RTVSPropertyOp9
 70
     0
102
RTVSPropertyOp10
 70
     0
102
RTVSPropertyOp11
 70
     0
102
RTVSPropertyOp12
 70
     0
102
RTVSPropertyOp13
 70
     0
102
RTVSPropertyOp14
 70
     2
102
RTVSPropertyOp15
 70
     0
102
RTVSPropertyOp16
 70
     0
102
RTVSPropertyOp17
 70
     0
102
RTVSPropertyOp18
 70
     0
102
RTVSPropertyOp19
 70
     0
102
RTVSPropertyOp20
 70
     0
102
RTVSPropertyOp21
 70
     0
102
RTVSPropertyOp22
 70
     0
102
RTVSPropertyOp23
 70
     0
102
RTVSPropertyOp24
 70
     0
102
RTVSPropertyOp25
 70
     0
102
RTVSPropertyOp26
 70
     0
102
RTVSPropertyOp27
 70
     0
  0
XRECORD
  5
58E
102
{ACAD_REACTORS
330
58D
102
}
330
58D
100
AcDbXrecord
280
     1
102
RTVSPropertyOp0
 70
     1
102
RTVSPropertyOp1
 70
     1
102
RTVSPropertyOp2
 70
     1
102
RTVSPropertyOp3
 70
     1
102
RTVSPropertyOp4
 70
     1
102
RTVSPropertyOp5
 70
     1
102
RTVSPropertyOp6
 70
     1
102
RTVSPropertyOp7
 70
     1
102
RTVSPropertyOp8
 70
     1
102
RTVSPropertyOp9
 70
     1
102
RTVSPropertyOp10
 70
     1
102
RTVSPropertyOp11
 70
     1
102
RTVSPropertyOp12
 70
     1
102
RTVSPropertyOp13
 70
     1
102
RTVSPropertyOp14
 70
     1
102
RTVSPropertyOp15
 70
     1
102
RTVSPropertyOp16
 70
     1
102
RTVSPropertyOp17
 70
     1
102
RTVSPropertyOp18
 70
     1
102
RTVSPropertyOp19
 70
     1
102
RTVSPropertyOp20
 70
     1
102
RTVSPropertyOp21
 70
     1
102
RTVSPropertyOp22
 70
     1
102
RTVSPropertyOp23
 70
     1
102
RTVSPropertyOp24
 70
     1
102
RTVSPropertyOp25
 70
     1
102
RTVSPropertyOp26
 70
     1
102
RTVSPropertyOp27
 70
     1
  0
XRECORD
  5
594
102
{ACAD_REACTORS
330
593
102
}
330
593
100
AcDbXrecord
280
     1
102
RTVSPropertyOp0
 70
     1
102
RTVSPropertyOp1
 70
     1
102
RTVSPropertyOp2
 70
     1
102
RTVSPropertyOp3
 70
     1
102
RTVSPropertyOp4
 70
     1
102
RTVSPropertyOp5
 70
     1
102
RTVSPropertyOp6
 70
     1
102
RTVSPropertyOp7
 70
     1
102
RTVSPropertyOp8
 70
     1
102
RTVSPropertyOp9
 70
     1
102
RTVSPropertyOp10
 70
     1
102
RTVSPropertyOp11
 70
     1
102
RTVSPropertyOp12
 70
     1
102
RTVSPropertyOp13
 70
     1
102
RTVSPropertyOp14
 70
     1
102
RTVSPropertyOp15
 70
     1
102
RTVSPropertyOp16
 70
     1
102
RTVSPropertyOp17
 70
     1
102
RTVSPropertyOp18
 70
     1
102
RTVSPropertyOp19
 70
     1
102
RTVSPropertyOp20
 70
     1
102
RTVSPropertyOp21
 70
     1
102
RTVSPropertyOp22
 70
     1
102
RTVSPropertyOp23
 70
     1
102
RTVSPropertyOp24
 70
     1
102
RTVSPropertyOp25
 70
     1
102
RTVSPropertyOp26
 70
     1
102
RTVSPropertyOp27
 70
     1
  0
ENDSEC
  0
EOF
