  0
SECTION
  2
HEADER
  9
$ACADVER
  1
AC1015
  9
$ACADMAINTVER
 70
    20
  9
$DWGCODEPAGE
  3
ANSI_1252
  9
$INSBASE
 10
0.0
 20
0.0
 30
0.0
  9
$EXTMIN
 10
61.31836042427266
 20
55.91409377417767
 30
-0.0015258207003583
  9
$EXTMAX
 10
335.2899178714608
 20
267.4613348856351
 30
0.0000000349246037
  9
$LIMMIN
 10
0.0
 20
0.0
  9
$LIMMAX
 10
420.0
 20
297.0
  9
$ORTHOMODE
 70
     1
  9
$REGENMODE
 70
     1
  9
$FILLMODE
 70
     1
  9
$QTEXTMODE
 70
     0
  9
$MIRRTEXT
 70
     0
  9
$LTSCALE
 40
23.1
  9
$ATTMODE
 70
     1
  9
$TEXTSIZE
 40
0.2
  9
$TRACEWID
 40
0.05
  9
$TEXTSTYLE
  7
STANDARD
  9
$CLAYER
  8
0
  9
$CELTYPE
  6
BYLAYER
  9
$CECOLOR
 62
   256
  9
$CELTSCALE
 40
1.0
  9
$DISPSILH
 70
     0
  9
$DIMSCALE
 40
1.0
  9
$DIMASZ
 40
3.5
  9
$DIMEXO
 40
2.625
  9
$DIMDLI
 40
15.96
  9
$DIMRND
 40
0.0
  9
$DIMDLE
 40
0.0
  9
$DIMEXE
 40
7.559999999999999
  9
$DIMTP
 40
0.005
  9
$DIMTM
 40
0.005
  9
$DIMTXT
 40
3.5
  9
$DIMCEN
 40
3.779999999999999
  9
$DIMTSZ
 40
0.0
  9
$DIMTOL
 70
     1
  9
$DIMLIM
 70
     0
  9
$DIMTIH
 70
     1
  9
$DIMTOH
 70
     1
  9
$DIMSE1
 70
     0
  9
$DIMSE2
 70
     0
  9
$DIMTAD
 70
     0
  9
$DIMZIN
 70
     0
  9
$DIMBLK
  1
_FILLED
  9
$DIMASO
 70
     1
  9
$DIMSHO
 70
     1
  9
$DIMPOST
  1

  9
$DIMAPOST
  1

  9
$DIMALT
 70
     0
  9
$DIMALTD
 70
     2
  9
$DIMALTF
 40
25.4
  9
$DIMLFAC
 40
1.0
  9
$DIMTOFL
 70
     0
  9
$DIMTVP
 40
0.0
  9
$DIMTIX
 70
     0
  9
$DIMSOXD
 70
     0
  9
$DIMSAH
 70
     0
  9
$DIMBLK1
  1

  9
$DIMBLK2
  1

  9
$DIMSTYLE
  2
STANDARD
  9
$DIMCLRD
 70
     0
  9
$DIMCLRE
 70
     0
  9
$DIMCLRT
 70
     0
  9
$DIMTFAC
 40
1.0
  9
$DIMGAP
 40
0.09
  9
$DIMJUST
 70
     0
  9
$DIMSD1
 70
     0
  9
$DIMSD2
 70
     0
  9
$DIMTOLJ
 70
     1
  9
$DIMTZIN
 70
     0
  9
$DIMALTZ
 70
     0
  9
$DIMALTTZ
 70
     0
  9
$DIMUPT
 70
     0
  9
$DIMDEC
 70
     4
  9
$DIMTDEC
 70
     4
  9
$DIMALTU
 70
     2
  9
$DIMALTTD
 70
     2
  9
$DIMTXSTY
  7
STANDARD
  9
$DIMAUNIT
 70
     0
  9
$DIMADEC
 70
     0
  9
$DIMALTRND
 40
0.0
  9
$DIMAZIN
 70
     0
  9
$DIMDSEP
 70
    46
  9
$DIMATFIT
 70
     3
  9
$DIMFRAC
 70
     0
  9
$DIMLDRBLK
  1

  9
$DIMLUNIT
 70
     2
  9
$DIMLWD
 70
    -2
  9
$DIMLWE
 70
    -2
  9
$DIMTMOVE
 70
     0
  9
$LUNITS
 70
     2
  9
$LUPREC
 70
     2
  9
$SKETCHINC
 40
0.1
  9
$FILLETRAD
 40
0.0
  9
$AUNITS
 70
     0
  9
$AUPREC
 70
     0
  9
$MENU
  1
.
  9
$ELEVATION
 40
0.0
  9
$PELEVATION
 40
0.0
  9
$THICKNESS
 40
0.0
  9
$LIMCHECK
 70
     0
  9
$CHAMFERA
 40
0.0
  9
$CHAMFERB
 40
0.0
  9
$CHAMFERC
 40
0.0
  9
$CHAMFERD
 40
0.0
  9
$SKPOLY
 70
     0
  9
$TDCREATE
 40
2456324.617442465
  9
$TDUCREATE
 40
2456324.575775798
  9
$TDUPDATE
 40
2456324.621640625
  9
$TDUUPDATE
 40
2456324.579973959
  9
$TDINDWG
 40
0.0041987037
  9
$TDUSRTIMER
 40
0.0041987037
  9
$USRTIMER
 70
     1
  9
$ANGBASE
 50
0.0
  9
$ANGDIR
 70
     0
  9
$PDMODE
 70
     3
  9
$PDSIZE
 40
0.3125
  9
$PLINEWID
 40
0.0
  9
$SPLFRAME
 70
     0
  9
$SPLINETYPE
 70
     6
  9
$SPLINESEGS
 70
     8
  9
$HANDSEED
  5
626
  9
$SURFTAB1
 70
     6
  9
$SURFTAB2
 70
     6
  9
$SURFTYPE
 70
     6
  9
$SURFU
 70
     6
  9
$SURFV
 70
     6
  9
$UCSBASE
  2

  9
$UCSNAME
  2

  9
$UCSORG
 10
0.0
 20
0.0
 30
0.0
  9
$UCSXDIR
 10
1.0
 20
0.0
 30
0.0
  9
$UCSYDIR
 10
0.0
 20
1.0
 30
0.0
  9
$UCSORTHOREF
  2

  9
$UCSORTHOVIEW
 70
     0
  9
$UCSORGTOP
 10
0.0
 20
0.0
 30
0.0
  9
$UCSORGBOTTOM
 10
0.0
 20
0.0
 30
0.0
  9
$UCSORGLEFT
 10
0.0
 20
0.0
 30
0.0
  9
$UCSORGRIGHT
 10
0.0
 20
0.0
 30
0.0
  9
$UCSORGFRONT
 10
0.0
 20
0.0
 30
0.0
  9
$UCSORGBACK
 10
0.0
 20
0.0
 30
0.0
  9
$PUCSBASE
  2

  9
$PUCSNAME
  2

  9
$PUCSORG
 10
0.0
 20
0.0
 30
0.0
  9
$PUCSXDIR
 10
1.0
 20
0.0
 30
0.0
  9
$PUCSYDIR
 10
0.0
 20
1.0
 30
0.0
  9
$PUCSORTHOREF
  2

  9
$PUCSORTHOVIEW
 70
     0
  9
$PUCSORGTOP
 10
0.0
 20
0.0
 30
0.0
  9
$PUCSORGBOTTOM
 10
0.0
 20
0.0
 30
0.0
  9
$PUCSORGLEFT
 10
0.0
 20
0.0
 30
0.0
  9
$PUCSORGRIGHT
 10
0.0
 20
0.0
 30
0.0
  9
$PUCSORGFRONT
 10
0.0
 20
0.0
 30
0.0
  9
$PUCSORGBACK
 10
0.0
 20
0.0
 30
0.0
  9
$USERI1
 70
     0
  9
$USERI2
 70
     0
  9
$USERI3
 70
     0
  9
$USERI4
 70
     0
  9
$USERI5
 70
     0
  9
$USERR1
 40
0.0
  9
$USERR2
 40
0.0
  9
$USERR3
 40
0.0
  9
$USERR4
 40
0.0
  9
$USERR5
 40
0.0
  9
$WORLDVIEW
 70
     1
  9
$SHADEDGE
 70
     3
  9
$SHADEDIF
 70
    70
  9
$TILEMODE
 70
     1
  9
$MAXACTVP
 70
    64
  9
$PINSBASE
 10
0.0
 20
0.0
 30
0.0
  9
$PLIMCHECK
 70
     0
  9
$PEXTMIN
 10
1.000000000000000E+20
 20
1.000000000000000E+20
 30
1.000000000000000E+20
  9
$PEXTMAX
 10
-1.000000000000000E+20
 20
-1.000000000000000E+20
 30
-1.000000000000000E+20
  9
$PLIMMIN
 10
0.0
 20
0.0
  9
$PLIMMAX
 10
12.0
 20
9.0
  9
$UNITMODE
 70
     0
  9
$VISRETAIN
 70
     1
  9
$PLINEGEN
 70
     0
  9
$PSLTSCALE
 70
     1
  9
$TREEDEPTH
 70
  3020
  9
$CMLSTYLE
  2
Standard
  9
$CMLJUST
 70
     0
  9
$CMLSCALE
 40
1.0
  9
$PROXYGRAPHICS
 70
     1
  9
$MEASUREMENT
 70
     1
  9
$CELWEIGHT
370
    -1
  9
$ENDCAPS
280
     0
  9
$JOINSTYLE
280
     0
  9
$LWDISPLAY
290
     0
  9
$INSUNITS
 70
     4
  9
$HYPERLINKBASE
  1

  9
$STYLESHEET
  1

  9
$XEDIT
290
     1
  9
$CEPSNTYPE
380
     0
  9
$PSTYLEMODE
290
     1
  9
$FINGERPRINTGUID
  2
{FE9A0E25-E8DC-4DF7-BDF0-01A1D7CEAF0F}
  9
$VERSIONGUID
  2
{09D21F22-238F-4B33-93D7-423C9FAE0B4F}
  9
$EXTNAMES
290
     1
  9
$PSVPSCALE
 40
0.0
  9
$OLESTARTUP
290
     0
  0
ENDSEC
  0
SECTION
  2
CLASSES
  0
CLASS
  1
ACDBDICTIONARYWDFLT
  2
AcDbDictionaryWithDefault
  3
ObjectDBX Classes
 90
        0
280
     0
281
     0
  0
CLASS
  1
ACDBPLACEHOLDER
  2
AcDbPlaceHolder
  3
ObjectDBX Classes
 90
        0
280
     0
281
     0
  0
CLASS
  1
LAYOUT
  2
AcDbLayout
  3
ObjectDBX Classes
 90
        0
280
     0
281
     0
  0
CLASS
  1
MATERIAL
  2
AcDbMaterial
  3
ObjectDBX Classes
 90
     1153
280
     0
281
     0
  0
CLASS
  1
VISUALSTYLE
  2
AcDbVisualStyle
  3
ObjectDBX Classes
 90
     4095
280
     0
281
     0
  0
CLASS
  1
TABLESTYLE
  2
AcDbTableStyle
  3
ObjectDBX Classes
 90
     4095
280
     0
281
     0
  0
CLASS
  1
SCALE
  2
AcDbScale
  3
ObjectDBX Classes
 90
     1153
280
     0
281
     0
  0
CLASS
  1
MLEADERSTYLE
  2
AcDbMLeaderStyle
  3
ACDB_MLEADERSTYLE_CLASS
 90
     4095
280
     0
281
     0
  0
CLASS
  1
AMGSETTINGSOBJ
  2
AmgSettingsObj
  3
"AcadM|Product Description: AutoCAD Mechanical|Company: Autodesk, Inc."
 90
     1024
280
     0
281
     0
  0
CLASS
  1
ACME_DOCUMENT
  2
AcMeDbDoc
  3
AcMeServices
 90
     1024
280
     0
281
     0
  0
CLASS
  1
ACMESCOPE
  2
AcMeScope
  3
AcMeServices
 90
     1024
280
     0
281
     0
  0
CLASS
  1
ACMECOMMANDHISTORY
  2
AcMeCommandHistory
  3
AcMeServices
 90
     1024
280
     0
281
     0
  0
CLASS
  1
ACIMSYSVARMAN
  2
AcImSysVarManager
  3
AcMeServices
 90
     1024
280
     0
281
     0
  0
CLASS
  1
ACIMINTSYSVAR
  2
AcImIntSysVar
  3
AcMeServices
 90
     1024
280
     0
281
     0
  0
CLASS
  1
ACMEDRAWINGMAN
  2
AcMeDrawingMan
  3
AcMeServices
 90
     1024
280
     0
281
     0
  0
CLASS
  1
ACMEVIEW
  2
AcMeView
  3
AcMeServices
 90
     1024
280
     0
281
     0
  0
CLASS
  1
ACDBENTITYCACHE
  2
AcMeEntityCache
  3
AcMeServices
 90
     1024
280
     0
281
     0
  0
CLASS
  1
ACMESTATEMGR
  2
AcMeStateMgr
  3
AcMeServices
 90
     1024
280
     0
281
     0
  0
CLASS
  1
ACGREFMASTER
  2
AcGrefMaster
  3
AcAttribServices
 90
     1024
280
     0
281
     0
  0
CLASS
  1
AM_DRAWING_MGR
  2
AcDmDwgMgr
  3
AcMechDwgViewMgmt
 90
     1024
280
     0
281
     0
  0
CLASS
  1
AM_DWG_DOCUMENT
  2
AcDmDwgDocument
  3
AcMechDwgViewMgmt
 90
     1024
280
     0
281
     0
  0
CLASS
  1
AM_DWG_SHEET
  2
AcDmSheet
  3
AcMechDwgViewMgmt
 90
     1024
280
     0
281
     0
  0
CLASS
  1
AM_VIEWDIMPARMAP
  2
AcDmViewDimParMap
  3
AcMechDwgViewMgmt
 90
     1024
280
     0
281
     0
  0
CLASS
  1
AMDTINTERNALREACTOR
  2
AmdtInternalReactor
  3
AcMeServices
 90
     1024
280
     0
281
     0
  0
CLASS
  1
ACIMREALSYSVAR
  2
AcImRealSysVar
  3
AcMeServices
 90
     1024
280
     0
281
     0
  0
CLASS
  1
AM_DWGMGR_NAME
  2
AcDmDwgMgrName
  3
AcMechDwgViewMgmt
 90
     1024
280
     0
281
     0
  0
CLASS
  1
ACME_DATABASE
  2
AcMeDbDatabase
  3
AcMeServices
 90
     1024
280
     0
281
     0
  0
CLASS
  1
ACRFINSADJUSTERMGR
  2
AcRfInsAdjusterMgr
  3
AcMeServices
 90
     1024
280
     0
281
     0
  0
CLASS
  1
ACGREFACADMASTER
  2
AcGrefacadMaster
  3
AcGrefServices
 90
     1024
280
     0
281
     0
  0
CLASS
  1
AMDTMENUSTATEMGR
  2
AmdtMenuStateMgr
  3
McadcomServices
 90
     1024
280
     0
281
     0
  0
CLASS
  1
AMDTMCOMMENUSTATE
  2
AmdtMcomMenuState
  3
McadcomServices
 90
     1024
280
     0
281
     0
  0
CLASS
  1
AMIMASTER
  2
AmiMaster
  3
AmiServices
 90
     1024
280
     0
281
     0
  0
CLASS
  1
MAPIAMMOUDLE
  2
MApiAmModule
  3
MApiAmServices
 90
     1024
280
     0
281
     0
  0
CLASS
  1
ACIMSTRSYSVAR
  2
AcImStrSysVar
  3
AcMeServices
 90
     1024
280
     0
281
     0
  0
CLASS
  1
AMDTADMENUSTATE
  2
AmdtAdMenuState
  3
DesignerServices
 90
     1024
280
     0
281
     0
  0
CLASS
  1
ADAPPL
  2
AcAdAppl
  3
DesignerServices
 90
     1024
280
     0
281
     0
  0
CLASS
  1
DEPMGR
  2
AcAdDepMgr
  3
DesignerServices
 90
     1024
280
     0
281
     0
  0
CLASS
  1
PARAMMGR
  2
AcAdParamMgr
  3
DesignerServices
 90
     1024
280
     0
281
     0
  0
CLASS
  1
PARAMSCOPE
  2
AcAdParamScope
  3
DesignerServices
 90
     1024
280
     0
281
     0
  0
CLASS
  1
NAMEDAPPL
  2
AcAdNamedAppl
  3
DesignerServices
 90
     1024
280
     0
281
     0
  0
CLASS
  1
AMDTDMMENUSTATE
  2
AmdtDmMenuState
  3
AcMechDwgViewMgmt
 90
     1024
280
     0
281
     0
  0
CLASS
  1
AMDTAMMENUSTATE
  2
AmdtAmMenuState
  3
DesignerAssemblies
 90
     1024
280
     0
281
     0
  0
CLASS
  1
ACAMPROJECT
  2
AcAmProject
  3
DesignerAssemblies
 90
     1024
280
     0
281
     0
  0
CLASS
  1
ACAMGRCOMPDEF
  2
AcAmGrCompDef
  3
DesignerAssemblies
 90
     1024
280
     0
281
     0
  0
CLASS
  1
ACAMCOMPDEF
  2
AcAmCompDef
  3
DesignerAssemblies
 90
     1024
280
     0
281
     0
  0
CLASS
  1
ACAMCOMPDEFMGR
  2
AcAmCompDefMgr
  3
DesignerAssemblies
 90
     1024
280
     0
281
     0
  0
CLASS
  1
AMCONTEXTMGR
  2
AcAmContextMgr
  3
DesignerAssemblies
 90
     1024
280
     0
281
     0
  0
CLASS
  1
ACAMCONTEXTMODELER
  2
AcAmContextModeler
  3
DesignerAssemblies
 90
     1024
280
     0
281
     0
  0
CLASS
  1
ACMDATADICTIONARY
  2
AcmDataDictionary
  3
"AcmSymBB|Product Description: AutoCAD Mechanical|Company: Autodesk, Inc."
 90
     1024
280
     0
281
     0
  0
CLASS
  1
CATALOGSTATE
  2
AcAmCatalogState
  3
DesignerAssemblies
 90
     1024
280
     0
281
     0
  0
CLASS
  1
ACAMGRCOMPDEFSET
  2
AcAmGrCompDefSet
  3
DesignerAssemblies
 90
     1024
280
     0
281
     0
  0
CLASS
  1
AMDTBROWSERDBTAB
  2
AmdtBrowserDbTab
  3
McadcomServices
 90
     1024
280
     0
281
     0
  0
CLASS
  1
CBROWSERAPPOBJECT
  2
CBrowserAppObject
  3
McadcomServices
 90
     1024
280
     0
281
     0
  0
CLASS
  1
DM_PLACEHOLDER
  2
AcDmSelsetPlaceholder
  3
AcMechDwgViewMgmt
 90
     1024
280
     0
281
     0
  0
CLASS
  1
ACMSTANDARDDIN
  2
AcmStandardDIN
  3
"Amdt_StdImp|Product Description: AutoCAD Mechanical|Company: Autodesk, Inc."
 90
     1024
280
     0
281
     0
  0
CLASS
  1
AMDTEDGESTANDARDDIN13715
  2
AmdtEdgeStdDIN13715
  3
"Amdt_StdImp|Product Description: AutoCAD Mechanical|Company: Autodesk, Inc."
 90
     1024
280
     0
281
     0
  0
CLASS
  1
ACMSURFSTANDARDDIN2002
  2
AcmSurfTextStdDIN2002
  3
"Amdt_StdImp|Product Description: AutoCAD Mechanical|Company: Autodesk, Inc."
 90
     1024
280
     0
281
     0
  0
CLASS
  1
ACMFCFSTANDARDDIN
  2
AcmFCFStdDIN
  3
"Amdt_StdImp|Product Description: AutoCAD Mechanical|Company: Autodesk, Inc."
 90
     1024
280
     0
281
     0
  0
CLASS
  1
ACMWELDSTANDARDDIN
  2
AcmWeldingStdDIN
  3
"Amdt_StdImp|Product Description: AutoCAD Mechanical|Company: Autodesk, Inc."
 90
     1024
280
     0
281
     0
  0
CLASS
  1
ACMIDSTANDARDDIN
  2
AcmIdStdDIN
  3
"Amdt_StdImp|Product Description: AutoCAD Mechanical|Company: Autodesk, Inc."
 90
     1024
280
     0
281
     0
  0
CLASS
  1
ACMDATUMSTANDARDDIN
  2
AcmDatumStdDIN
  3
"Amdt_StdImp|Product Description: AutoCAD Mechanical|Company: Autodesk, Inc."
 90
     1024
280
     0
281
     0
  0
CLASS
  1
ACMBOMSTANDARDDIN
  2
AcmBOMStdDIN
  3
"Amdt_StdImp|Product Description: AutoCAD Mechanical|Company: Autodesk, Inc."
 90
     1024
280
     0
281
     0
  0
CLASS
  1
ACMDETAILSTANDARDDIN
  2
AmdtDetailSymStdDIN
  3
"Amdt_StdImp|Product Description: AutoCAD Mechanical|Company: Autodesk, Inc."
 90
     1024
280
     0
281
     0
  0
CLASS
  1
ACMSECTIONSTANDARDDIN
  2
AmdtSectionSymStdDIN
  3
"Amdt_StdImp|Product Description: AutoCAD Mechanical|Company: Autodesk, Inc."
 90
     1024
280
     0
281
     0
  0
CLASS
  1
ACMCENTERLINESTANDARDDIN
  2
AmdtCenterLineStdDIN
  3
"Amdt_StdImp|Product Description: AutoCAD Mechanical|Company: Autodesk, Inc."
 90
     1024
280
     0
281
     0
  0
CLASS
  1
ACMTHREADLINESTANDARDDIN
  2
AmdtThreadLineStdDIN
  3
"Amdt_StdImp|Product Description: AutoCAD Mechanical|Company: Autodesk, Inc."
 90
     1024
280
     0
281
     0
  0
CLASS
  1
ACMNOTESTANDARDDIN
  2
AmdtNoteStdDIN
  3
"Amdt_StdImp|Product Description: AutoCAD Mechanical|Company: Autodesk, Inc."
 90
     1024
280
     0
281
     0
  0
CLASS
  1
ACMTAPERSTANDARDDIN
  2
AcmTaperStdDIN
  3
"Amdt_StdImp|Product Description: AutoCAD Mechanical|Company: Autodesk, Inc."
 90
     1024
280
     0
281
     0
  0
CLASS
  1
ACMANOOTATIONVIEWSTANDARDDIN
  2
AmdtAnViewStdDIN
  3
"Amdt_StdImp|Product Description: AutoCAD Mechanical|Company: Autodesk, Inc."
 90
     1024
280
     0
281
     0
  0
CLASS
  1
ACAMGLAYSTD
  2
AcAmgLayStd
  3
"AmgLay|Product Description: AutoCAD Mechanical|Company: Autodesk, Inc."
 90
     1024
280
     0
281
     0
  0
CLASS
  1
ACAMGDIMSTD
  2
AcAmgDimStd
  3
"AmgDim|Product Description: AutoCAD Mechanical|Company: Autodesk, Inc."
 90
     1024
280
     0
281
     0
  0
CLASS
  1
AMGOBJPROPCFG
  2
AmgObjPropCfg
  3
"AmgLay|Product Description: AutoCAD Mechanical|Company: Autodesk, Inc."
 90
     1025
280
     0
281
     0
  0
CLASS
  1
ACAMGHOLECHARTSTDDIN
  2
AcAmgHoleChartStdDIN
  3
AmgDim|Product Description: AutoCAD Mechanical|Company: Autodesk, Inc.
 90
     1024
280
     0
281
     0
  0
CLASS
  1
ACAMGTITLESTD
  2
AcAmgTitleStd
  3
"AmgTitle|Product Description: AutoCAD Mechanical|Company: Autodesk, Inc."
 90
     4095
280
     0
281
     0
  0
CLASS
  1
AMDTNOTETEMPLATEDB
  2
AmdtNoteTemplateDB
  3
AcmSymBB|Product Description: AutoCAD Mechanical|Company: Autodesk, Inc.
 90
     1024
280
     0
281
     0
  0
CLASS
  1
ACAMGFILTERDAT
  2
AcAmgFilterDat
  3
"AcadM|Product Description: AutoCAD Mechanical|Company: Autodesk, Inc."
 90
     1024
280
     0
281
     0
  0
CLASS
  1
DICTIONARYVAR
  2
AcDbDictionaryVar
  3
ObjectDBX Classes
 90
        0
280
     0
281
     0
  0
CLASS
  1
CELLSTYLEMAP
  2
AcDbCellStyleMap
  3
ObjectDBX Classes
 90
     1152
280
     0
281
     0
  0
ENDSEC
  0
SECTION
  2
TABLES
  0
TABLE
  2
VPORT
  5
8
330
0
100
AcDbSymbolTable
 70
     1
  0
VPORT
  5
1F4
330
8
100
AcDbSymbolTableRecord
100
AcDbViewportTableRecord
  2
*ACTIVE
 70
     0
 10
0.0
 20
0.0
 11
1.0
 21
1.0
 12
198.3041391478667
 22
161.6877143299064
 13
0.0
 23
0.0
 14
1.0
 24
1.0
 15
0.0
 25
0.0
 16
0.0
 26
0.0
 36
1.0
 17
0.0
 27
0.0
 37
0.0
 40
213.0422746175455
 41
1.850235849056603
 42
50.0
 43
0.0
 44
0.0
 50
0.0
 51
0.0
 71
     0
 72
   100
 73
     1
 74
     1
 75
     0
 76
     0
 77
     0
 78
     0
281
     0
 65
     0
110
0.0
120
0.0
130
0.0
111
1.0
121
0.0
131
0.0
112
0.0
122
1.0
132
0.0
 79
     0
146
0.0
  0
ENDTAB
  0
TABLE
  2
LTYPE
  5
5
330
0
100
AcDbSymbolTable
 70
    23
  0
LTYPE
  5
14
330
5
100
AcDbSymbolTableRecord
100
AcDbLinetypeTableRecord
  2
BYBLOCK
 70
     0
  3

 72
    65
 73
     0
 40
0.0
  0
LTYPE
  5
15
330
5
100
AcDbSymbolTableRecord
100
AcDbLinetypeTableRecord
  2
BYLAYER
 70
     0
  3

 72
    65
 73
     0
 40
0.0
  0
LTYPE
  5
16
330
5
100
AcDbSymbolTableRecord
100
AcDbLinetypeTableRecord
  2
CONTINUOUS
 70
     0
  3
Solid line
 72
    65
 73
     0
 40
0.0
  0
LTYPE
  5
1F5
330
5
100
AcDbSymbolTableRecord
100
AcDbLinetypeTableRecord
  2
CENTER
 70
     0
  3
____ _ ____ _ ____ _ ____ _ ____ _ ____ _ ____
 72
    65
 73
     4
 40
0.6
 49
0.375
 74
     0
 49
-0.075
 74
     0
 49
0.075
 74
     0
 49
-0.075
 74
     0
  0
LTYPE
  5
1F6
330
5
100
AcDbSymbolTableRecord
100
AcDbLinetypeTableRecord
  2
HIDDEN
 70
     0
  3
- - - - - - - - - - - - - - - - - - - -
 72
    65
 73
     2
 40
0.2
 49
0.1
 74
     0
 49
-0.1
 74
     0
  0
LTYPE
  5
1F7
330
5
100
AcDbSymbolTableRecord
100
AcDbLinetypeTableRecord
  2
PHANTOM
 70
     0
  3
_____ _ _ _____ _ _ _____ _ _ _____
 72
    65
 73
     6
 40
0.8
 49
0.45
 74
     0
 49
-0.05
 74
     0
 49
0.1
 74
     0
 49
-0.05
 74
     0
 49
0.1
 74
     0
 49
-0.05
 74
     0
  0
LTYPE
  5
1F8
330
5
100
AcDbSymbolTableRecord
100
AcDbLinetypeTableRecord
  2
DOT
 70
     0
  3
. . . . . . . . . . . . . . . . . . . .
 72
    65
 73
     2
 40
0.2
 49
0.1
 74
     0
 49
-0.1
 74
     0
  0
LTYPE
  5
1F9
330
5
100
AcDbSymbolTableRecord
100
AcDbLinetypeTableRecord
  2
DASHED
 70
     0
  3
- - - - - - - - - - - - - - - - - - - -
 72
    65
 73
     2
 40
0.2
 49
0.1
 74
     0
 49
-0.1
 74
     0
  0
LTYPE
  5
49C
330
5
100
AcDbSymbolTableRecord
100
AcDbLinetypeTableRecord
  2
PHANTOM2
 70
     0
  3
Phantom (.5x) ___ _ _ ___ _ _ ___ _ _ ___ _ _
 72
    65
 73
     6
 40
31.75
 49
15.875
 74
     0
 49
-3.174999999999999
 74
     0
 49
3.174999999999999
 74
     0
 49
-3.174999999999999
 74
     0
 49
3.174999999999999
 74
     0
 49
-3.174999999999999
 74
     0
  0
LTYPE
  5
4E2
330
5
100
AcDbSymbolTableRecord
100
AcDbLinetypeTableRecord
  2
AM_ISO02W050
 70
     0
  3
__ __ __ __ __ __ __ __ __ __ __ __ __ __ __
 72
    65
 73
     2
 40
7.5
 49
6.0
 74
     0
 49
-1.5
 74
     0
  0
LTYPE
  5
4E3
330
5
100
AcDbSymbolTableRecord
100
AcDbLinetypeTableRecord
  2
AM_ISO08W050
 70
     0
  3
____ . ____ . ____ . ____ . ____ . ____ . ____
 72
    65
 73
     4
 40
18.0
 49
12.0
 74
     0
 49
-1.5
 74
     0
 49
3.0
 74
     0
 49
-1.5
 74
     0
  0
LTYPE
  5
4E4
330
5
100
AcDbSymbolTableRecord
100
AcDbLinetypeTableRecord
  2
AM_ISO09W050
 70
     0
  3
_____ . . _____ . . _____ . . ____ .. ____
 72
    65
 73
     6
 40
22.5
 49
12.0
 74
     0
 49
-1.5
 74
     0
 49
3.0
 74
     0
 49
-1.5
 74
     0
 49
3.0
 74
     0
 49
-1.5
 74
     0
  0
LTYPE
  5
4E5
330
5
100
AcDbSymbolTableRecord
100
AcDbLinetypeTableRecord
  2
Amconstr
 70
     0
  3
_______________________
 72
    65
 73
     2
 40
9999.0
 49
9999.0
 74
     0
 49
0.0
 74
     0
  0
LTYPE
  5
4E6
330
5
100
AcDbSymbolTableRecord
100
AcDbLinetypeTableRecord
  2
AM_ISO08W050x2
 70
     0
  3
__ . __ . __ . __ . __ . __
 72
    65
 73
     4
 40
9.0
 49
6.0
 74
     0
 49
-0.75
 74
     0
 49
1.5
 74
     0
 49
-0.75
 74
     0
  0
LTYPE
  5
4E7
330
5
100
AcDbSymbolTableRecord
100
AcDbLinetypeTableRecord
  2
AM_ISO02W050x2
 70
     0
  3
 _ _ _ _ _ _ _ _ _ _ _ _
 72
    65
 73
     2
 40
3.75
 49
3.0
 74
     0
 49
-0.75
 74
     0
  0
LTYPE
  5
4EA
330
5
100
AcDbSymbolTableRecord
100
AcDbLinetypeTableRecord
  2
Amzigzag
 70
     0
  3
/\/-/\/-/\/-/\/-/\/-/\/
 72
    65
 73
     2
 40
11.0001
 49
0.0001
 74
     4
 75
   136
340
4E9
 46
0.04
 50
0.0
 44
0.0
 45
0.0
 49
-11.0
 74
     0
  0
LTYPE
  5
4EB
330
5
100
AcDbSymbolTableRecord
100
AcDbLinetypeTableRecord
  2
AM_DIN_F_W050
 70
     0
  3
__ __ __ __ __ __ __ __ __ __ __ __ __ __ __
 72
    65
 73
     2
 40
6.25
 49
4.75
 74
     0
 49
-1.5
 74
     0
  0
LTYPE
  5
4EC
330
5
100
AcDbSymbolTableRecord
100
AcDbLinetypeTableRecord
  2
AM_DIN_G_W050
 70
     0
  3
____ . ____ . ____ . ____ . ____ . ____ . ____
 72
    65
 73
     4
 40
13.75
 49
9.75
 74
     0
 49
-1.5
 74
     0
 49
1.0
 74
     0
 49
-1.5
 74
     0
  0
LTYPE
  5
4ED
330
5
100
AcDbSymbolTableRecord
100
AcDbLinetypeTableRecord
  2
AM_DIN_K_W050
 70
     0
  3
_____ . . _____ . . _____ . . ____ .. ____
 72
    65
 73
     6
 40
16.25
 49
9.75
 74
     0
 49
-1.5
 74
     0
 49
1.0
 74
     0
 49
-1.5
 74
     0
 49
1.0
 74
     0
 49
-1.5
 74
     0
  0
LTYPE
  5
4EE
330
5
100
AcDbSymbolTableRecord
100
AcDbLinetypeTableRecord
  2
AM_DIN_G_W050x2
 70
     0
  3
__ . __ . __ . __ . __ . __
 72
    65
 73
     4
 40
6.875
 49
4.75
 74
     0
 49
-0.875
 74
     0
 49
0.375
 74
     0
 49
-0.875
 74
     0
  0
LTYPE
  5
4EF
330
5
100
AcDbSymbolTableRecord
100
AcDbLinetypeTableRecord
  2
AM_DIN_F_W050x2
 70
     0
  3
 _ _ _ _ _ _ _ _ _ _ _ _
 72
    65
 73
     2
 40
3.125
 49
2.25
 74
     0
 49
-0.875
 74
     0
  0
LTYPE
  5
4FE
330
5
100
AcDbSymbolTableRecord
100
AcDbLinetypeTableRecord
  2
ACDINWELD
 70
     0
  3
_ _ _ _ _
 72
    65
 73
     2
 40
2.0
 49
2.0
 74
     0
 49
-1.0
 74
     0
  0
LTYPE
  5
4FF
330
5
100
AcDbSymbolTableRecord
100
AcDbLinetypeTableRecord
  2
ACDINTGB
 70
     0
  3
__ . . __ . .
 72
    65
 73
     6
 40
9.0
 49
4.0
 74
     0
 49
-1.0
 74
     0
 49
1.0
 74
     0
 49
-1.0
 74
     0
 49
1.0
 74
     0
 49
-1.0
 74
     0
  0
LTYPE
  5
500
330
5
100
AcDbSymbolTableRecord
100
AcDbLinetypeTableRecord
  2
ACDINTGL
 70
     0
  3
_ _ _ _ _
 72
    65
 73
     2
 40
3.0
 49
2.0
 74
     0
 49
-1.0
 74
     0
  0
ENDTAB
  0
TABLE
  2
LAYER
  5
2
330
0
100
AcDbSymbolTable
 70
    26
  0
LAYER
  5
10
330
2
100
AcDbSymbolTableRecord
100
AcDbLayerTableRecord
  2
0
 70
     0
 62
     7
  6
CONTINUOUS
370
    -3
390
F
  0
LAYER
  5
1FA
330
2
100
AcDbSymbolTableRecord
100
AcDbLayerTableRecord
  2
DEFAULT_1
 70
     0
 62
     7
  6
CENTER
370
    -3
390
F
  0
LAYER
  5
1FB
330
2
100
AcDbSymbolTableRecord
100
AcDbLayerTableRecord
  2
DEFAULT_2
 70
     0
 62
     8
  6
HIDDEN
370
    -3
390
F
  0
LAYER
  5
1FC
330
2
100
AcDbSymbolTableRecord
100
AcDbLayerTableRecord
  2
DEFAULT_3
 70
     0
 62
     7
  6
PHANTOM
370
    -3
390
F
  0
LAYER
  5
1FD
330
2
100
AcDbSymbolTableRecord
100
AcDbLayerTableRecord
  2
3D_TEIL_NOTIZ
 70
     0
 62
     7
  6
CONTINUOUS
370
    -3
390
F
  0
LAYER
  5
1FE
330
2
100
AcDbSymbolTableRecord
100
AcDbLayerTableRecord
  2
ACHSEN
 70
     0
 62
     7
  6
CONTINUOUS
370
    -3
390
F
  0
LAYER
  5
1FF
330
2
100
AcDbSymbolTableRecord
100
AcDbLayerTableRecord
  2
AUSFORMSCHRAEGEN
 70
     0
 62
     7
  6
CONTINUOUS
370
    -3
390
F
  0
LAYER
  5
200
330
2
100
AcDbSymbolTableRecord
100
AcDbLayerTableRecord
  2
BEZUG
 70
     0
 62
     7
  6
CONTINUOUS
370
    -3
390
F
  0
LAYER
  5
201
330
2
100
AcDbSymbolTableRecord
100
AcDbLayerTableRecord
  2
BEZUGSACHSEN
 70
     0
 62
     7
  6
CONTINUOUS
370
    -3
390
F
  0
LAYER
  5
202
330
2
100
AcDbSymbolTableRecord
100
AcDbLayerTableRecord
  2
BEZUGSEBENEN
 70
     0
 62
     7
  6
CONTINUOUS
370
    -3
390
F
  0
LAYER
  5
203
330
2
100
AcDbSymbolTableRecord
100
AcDbLayerTableRecord
  2
BG_STARTBEZUEGE
 70
     0
 62
     7
  6
CONTINUOUS
370
    -3
390
F
  0
LAYER
  5
204
330
2
100
AcDbSymbolTableRecord
100
AcDbLayerTableRecord
  2
BOHRUNGEN
 70
     0
 62
     7
  6
CONTINUOUS
370
    -3
390
F
  0
LAYER
  5
205
330
2
100
AcDbSymbolTableRecord
100
AcDbLayerTableRecord
  2
DATUMS
 70
     0
 62
     7
  6
CONTINUOUS
370
    -3
390
F
  0
LAYER
  5
206
330
2
100
AcDbSymbolTableRecord
100
AcDbLayerTableRecord
  2
DETAILS
 70
     0
 62
     7
  6
CONTINUOUS
370
    -3
390
F
  0
LAYER
  5
207
330
2
100
AcDbSymbolTableRecord
100
AcDbLayerTableRecord
  2
FASEN
 70
     0
 62
     7
  6
CONTINUOUS
370
    -3
390
F
  0
LAYER
  5
208
330
2
100
AcDbSymbolTableRecord
100
AcDbLayerTableRecord
  2
FLAECHEN
 70
     0
 62
     7
  6
CONTINUOUS
370
    -3
390
F
  0
LAYER
  5
209
330
2
100
AcDbSymbolTableRecord
100
AcDbLayerTableRecord
  2
GEWINDE
 70
     0
 62
     7
  6
CONTINUOUS
370
    -3
390
F
  0
LAYER
  5
20A
330
2
100
AcDbSymbolTableRecord
100
AcDbLayerTableRecord
  2
HILFEN
 70
     0
 62
     7
  6
CONTINUOUS
370
    -3
390
F
  0
LAYER
  5
20B
330
2
100
AcDbSymbolTableRecord
100
AcDbLayerTableRecord
  2
KURVEN
 70
     0
 62
     7
  6
CONTINUOUS
370
    -3
390
F
  0
LAYER
  5
20C
330
2
100
AcDbSymbolTableRecord
100
AcDbLayerTableRecord
  2
PLATZIERUNG
 70
     0
 62
     7
  6
CONTINUOUS
370
    -3
390
F
  0
LAYER
  5
20D
330
2
100
AcDbSymbolTableRecord
100
AcDbLayerTableRecord
  2
PLAZIERUNG
 70
     0
 62
     7
  6
CONTINUOUS
370
    -3
390
F
  0
LAYER
  5
20E
330
2
100
AcDbSymbolTableRecord
100
AcDbLayerTableRecord
  2
RUNDUNGEN
 70
     0
 62
     7
  6
CONTINUOUS
370
    -3
390
F
  0
LAYER
  5
20F
330
2
100
AcDbSymbolTableRecord
100
AcDbLayerTableRecord
  2
SKIZZEN
 70
     0
 62
     7
  6
CONTINUOUS
370
    -3
390
F
  0
LAYER
  5
210
330
2
100
AcDbSymbolTableRecord
100
AcDbLayerTableRecord
  2
TEIL_STARTBEZUEGE
 70
     0
 62
     7
  6
CONTINUOUS
370
    -3
390
F
  0
LAYER
  5
211
330
2
100
AcDbSymbolTableRecord
100
AcDbLayerTableRecord
  2
ZEICHNUNGSBEMASSUNGEN
 70
     0
 62
     7
  6
CONTINUOUS
370
    -3
390
F
  0
LAYER
  5
515
330
2
100
AcDbSymbolTableRecord
100
AcDbLayerTableRecord
  2
Defpoints
 70
     0
 62
     7
  6
CONTINUOUS
290
     0
370
    -3
390
F
  0
ENDTAB
  0
TABLE
  2
STYLE
  5
3
330
0
100
AcDbSymbolTable
 70
     6
  0
STYLE
  5
11
330
3
100
AcDbSymbolTableRecord
100
AcDbTextStyleTableRecord
  2
STANDARD
 70
     0
 40
0.0
 41
0.7
 50
0.0
 71
     0
 42
0.2
  3
txt
  4

  0
STYLE
  5
212
330
3
100
AcDbSymbolTableRecord
100
AcDbTextStyleTableRecord
  2
TEXTSTYLE_1
 70
     0
 40
0.0
 41
0.8
 50
0.0
 71
     0
 42
0.2
  3
gdt
  4

  0
STYLE
  5
213
330
3
100
AcDbSymbolTableRecord
100
AcDbTextStyleTableRecord
  2
TEXTSTYLE_2
 70
     0
 40
0.0
 41
0.7
 50
0.0
 71
     0
 42
0.2
  3
gdt
  4

  0
STYLE
  5
4E9
330
3
100
AcDbSymbolTableRecord
100
AcDbTextStyleTableRecord
  2

 70
     1
 40
0.0
 41
1.0
 50
0.0
 71
     0
 42
0.2
  3
genltshp.shx
  4

  0
STYLE
  5
4FC
330
3
100
AcDbSymbolTableRecord
100
AcDbTextStyleTableRecord
  2
ACDINTS
 70
     0
 40
1.0
 41
1.0
 50
0.0
 71
     0
 42
0.2
  3
isocp.shx
  4

  0
STYLE
  5
4FD
330
3
100
AcDbSymbolTableRecord
100
AcDbTextStyleTableRecord
  2
ACDINGDT
 70
     0
 40
0.0
 41
1.0
 50
0.0
 71
     0
 42
0.2
  3
amgdt.shx
  4

  0
ENDTAB
  0
TABLE
  2
VIEW
  5
6
330
0
100
AcDbSymbolTable
 70
     0
  0
ENDTAB
  0
TABLE
  2
UCS
  5
7
330
0
100
AcDbSymbolTable
 70
     0
  0
ENDTAB
  0
TABLE
  2
APPID
  5
9
330
0
100
AcDbSymbolTable
 70
    21
  0
APPID
  5
214
330
9
100
AcDbSymbolTableRecord
100
AcDbRegAppTableRecord
  2
ACAD
 70
     0
  0
APPID
  5
471
330
9
100
AcDbSymbolTableRecord
100
AcDbRegAppTableRecord
  2
MCAD_NO_VIS
 70
     0
  0
APPID
  5
472
330
9
100
AcDbSymbolTableRecord
100
AcDbRegAppTableRecord
  2
ACAD_TEMP_GRAPHIC
 70
     0
  0
APPID
  5
49E
330
9
100
AcDbSymbolTableRecord
100
AcDbRegAppTableRecord
  2
AD_DRAW
 70
     0
  0
APPID
  5
4A1
330
9
100
AcDbSymbolTableRecord
100
AcDbRegAppTableRecord
  2
ACATTRIBSERVICES
 70
     0
  0
APPID
  5
4C1
330
9
100
AcDbSymbolTableRecord
100
AcDbRegAppTableRecord
  2
DESIGNERASSEMBLIES
 70
     0
  0
APPID
  5
4C7
330
9
100
AcDbSymbolTableRecord
100
AcDbRegAppTableRecord
  2
ACADM_DIM_EDIT
 70
     0
  0
APPID
  5
4C8
330
9
100
AcDbSymbolTableRecord
100
AcDbRegAppTableRecord
  2
AMDT_DM_ADJ
 70
     0
  0
APPID
  5
4DF
330
9
100
AcDbSymbolTableRecord
100
AcDbRegAppTableRecord
  2
ACAD_DSTYLE_DIMJAG
 70
     0
  0
APPID
  5
4E0
330
9
100
AcDbSymbolTableRecord
100
AcDbRegAppTableRecord
  2
ACAD_DSTYLE_DIMBREAK
 70
     0
  0
APPID
  5
50E
330
9
100
AcDbSymbolTableRecord
100
AcDbRegAppTableRecord
  2
ACAD_EXEMPT_FROM_CAD_STANDARDS
 70
     0
  0
APPID
  5
516
330
9
100
AcDbSymbolTableRecord
100
AcDbRegAppTableRecord
  2
AcAecLayerStandard
 70
     0
  0
APPID
  5
517
330
9
100
AcDbSymbolTableRecord
100
AcDbRegAppTableRecord
  2
GENIUS_GENODEF_13
 70
     0
  0
APPID
  5
518
330
9
100
AcDbSymbolTableRecord
100
AcDbRegAppTableRecord
  2
GENIUS_GENOBJ-N-HTC_13
 70
     0
  0
APPID
  5
519
330
9
100
AcDbSymbolTableRecord
100
AcDbRegAppTableRecord
  2
GENIUS_GENHATCH_13
 70
     0
  0
APPID
  5
51A
330
9
100
AcDbSymbolTableRecord
100
AcDbRegAppTableRecord
  2
ACAD_MLEADERVER
 70
     0
  0
APPID
  5
51B
330
9
100
AcDbSymbolTableRecord
100
AcDbRegAppTableRecord
  2
ACAD_DSTYLE_DIMJOGGED_JOGANGLE_SYMBOL
 70
     0
  0
APPID
  5
51C
330
9
100
AcDbSymbolTableRecord
100
AcDbRegAppTableRecord
  2
ACAD_DSTYLE_DIM_LINETYPE
 70
     0
  0
APPID
  5
51D
330
9
100
AcDbSymbolTableRecord
100
AcDbRegAppTableRecord
  2
ACAD_DSTYLE_DIM_EXT1_LINETYPE
 70
     0
  0
APPID
  5
51E
330
9
100
AcDbSymbolTableRecord
100
AcDbRegAppTableRecord
  2
ACAD_DSTYLE_DIM_EXT2_LINETYPE
 70
     0
  0
APPID
  5
51F
330
9
100
AcDbSymbolTableRecord
100
AcDbRegAppTableRecord
  2
ACAD_DSTYLE_DIMINSPECT
 70
     0
  0
ENDTAB
  0
TABLE
  2
DIMSTYLE
  5
A
330
0
100
AcDbSymbolTable
 70
    12
100
AcDbDimStyleTable
 71
     2
340
21F
340
21D
  0
DIMSTYLE
105
21D
330
A
100
AcDbSymbolTableRecord
100
AcDbDimStyleTableRecord
  2
STANDARD
 70
     0
 41
3.5
 47
0.005
 48
0.005
 71
     1
 73
     0
 74
     0
 77
     1
 78
     8
140
3.5
178
     5
271
     3
272
     3
284
     8
340
11
341
217
342
217
343
217
344
217
  0
DIMSTYLE
105
21E
330
A
100
AcDbSymbolTableRecord
100
AcDbDimStyleTableRecord
  2
DIMSTYLE_1
 70
     0
 41
3.5
 47
0.3
 48
0.3
 73
     0
 74
     0
 77
     1
 78
     8
140
3.5
178
     5
271
     0
272
     0
284
     8
340
11
341
217
342
217
343
217
344
217
  0
DIMSTYLE
105
21F
102
{ACAD_REACTORS
330
252
330
255
330
254
330
256
330
253
102
}
330
A
100
AcDbSymbolTableRecord
100
AcDbDimStyleTableRecord
  2
DIMSTYLE_2
 70
     0
 41
3.5
 47
0.5
 48
0.5
 73
     0
 74
     0
 77
     1
 78
     8
140
3.5
178
     5
271
     3
272
     3
284
     8
340
11
341
217
342
217
343
217
344
217
  0
DIMSTYLE
105
220
330
A
100
AcDbSymbolTableRecord
100
AcDbDimStyleTableRecord
  2
DIMSTYLE_3
 70
     0
 41
3.5
 47
0.5
 48
0.5
 73
     0
 74
     0
 77
     1
 78
     8
140
3.5
178
     5
271
     0
272
     0
284
     8
340
11
341
217
342
217
343
217
344
217
  0
DIMSTYLE
105
4DE
102
{ACAD_REACTORS
330
4CD
102
}
330
A
100
AcDbSymbolTableRecord
100
AcDbDimStyleTableRecord
  2
AM_DIN
 70
     0
  4
"
 41
3.5
 42
1.0
 43
10.0
 44
1.0
 47
0.1
 48
0.1
 73
     0
 74
     0
 77
     1
 78
     8
 79
     2
140
3.5
141
0.0
143
0.0393701
146
0.71
147
1.5
172
     1
176
   256
177
   256
178
     2
271
     2
272
     3
274
     4
283
     0
284
     8
340
11
371
    -1
372
    -1
1001
ACAD_DSTYLE_DIMJAG
1070
   388
1040
1.5
1001
ACAD_DSTYLE_DIMBREAK
1070
   391
1040
3.75
1001
ACAD_DSTYLE_DIMJOGGED_JOGANGLE_SYMBOL
1070
   384
1040
1.570796326794896
1001
ACAD_DSTYLE_DIM_LINETYPE
1070
   380
1005
14
1001
ACAD_DSTYLE_DIM_EXT1_LINETYPE
1070
   381
1005
14
1001
ACAD_DSTYLE_DIM_EXT2_LINETYPE
1070
   382
1005
14
  0
DIMSTYLE
105
4F0
330
A
100
AcDbSymbolTableRecord
100
AcDbDimStyleTableRecord
  2
AM_DIN$3
 70
     0
  4
"
 41
3.5
 42
1.0
 43
10.0
 44
1.0
 47
0.1
 48
0.1
 73
     0
 77
     1
 78
     8
 79
     2
140
3.5
141
0.0
143
0.0393701
146
0.71
147
1.5
176
   256
177
   256
178
     2
271
     2
272
     3
274
     4
283
     0
284
     8
288
     1
289
     0
340
11
371
    -1
372
    -1
1001
ACAD_DSTYLE_DIMBREAK
1070
   391
1040
3.75
1001
ACAD_DSTYLE_DIMJAG
1070
   388
1040
1.5
1001
ACAD_DSTYLE_DIMJOGGED_JOGANGLE_SYMBOL
1070
   384
1040
1.570796326794896
1001
ACAD_DSTYLE_DIM_LINETYPE
1070
   380
1005
14
1001
ACAD_DSTYLE_DIM_EXT1_LINETYPE
1070
   381
1005
14
1001
ACAD_DSTYLE_DIM_EXT2_LINETYPE
1070
   382
1005
14
  0
DIMSTYLE
105
4F1
330
A
100
AcDbSymbolTableRecord
100
AcDbDimStyleTableRecord
  2
AM_DIN$4
 70
     0
  4
"
 41
3.5
 42
1.0
 43
10.0
 44
1.0
 47
0.1
 48
0.1
 73
     0
 77
     1
 78
     8
 79
     2
140
3.5
141
0.0
143
0.0393701
146
0.71
147
1.5
176
   256
177
   256
178
     2
271
     2
272
     3
274
     4
283
     0
284
     8
288
     1
289
     0
340
11
371
    -1
372
    -1
1001
ACAD_DSTYLE_DIMBREAK
1070
   391
1040
3.75
1001
ACAD_DSTYLE_DIMJAG
1070
   388
1040
1.5
1001
ACAD_DSTYLE_DIMJOGGED_JOGANGLE_SYMBOL
1070
   384
1040
1.570796326794896
1001
ACAD_DSTYLE_DIM_LINETYPE
1070
   380
1005
14
1001
ACAD_DSTYLE_DIM_EXT1_LINETYPE
1070
   381
1005
14
1001
ACAD_DSTYLE_DIM_EXT2_LINETYPE
1070
   382
1005
14
  0
DIMSTYLE
105
4F2
330
A
100
AcDbSymbolTableRecord
100
AcDbDimStyleTableRecord
  2
AM_DIN$6
 70
     0
  4
"
 41
3.5
 42
1.0
 43
10.0
 44
1.0
 47
0.1
 48
0.1
 73
     0
 74
     0
 78
     8
 79
     2
140
3.5
141
0.0
143
0.0393701
146
0.71
147
1.5
172
     1
176
   256
177
   256
178
     2
271
     2
272
     3
274
     4
283
     0
284
     8
340
11
371
    -1
372
    -1
1001
ACAD_DSTYLE_DIMBREAK
1070
   391
1040
3.75
1001
ACAD_DSTYLE_DIMJAG
1070
   388
1040
1.5
1001
ACAD_DSTYLE_DIMJOGGED_JOGANGLE_SYMBOL
1070
   384
1040
1.570796326794896
1001
ACAD_DSTYLE_DIM_LINETYPE
1070
   380
1005
14
1001
ACAD_DSTYLE_DIM_EXT1_LINETYPE
1070
   381
1005
14
1001
ACAD_DSTYLE_DIM_EXT2_LINETYPE
1070
   382
1005
14
  0
DIMSTYLE
105
4F3
330
A
100
AcDbSymbolTableRecord
100
AcDbDimStyleTableRecord
  2
AM_DIN$7
 70
     0
  4
"
 41
3.5
 42
1.0
 43
10.0
 44
1.0
 47
0.1
 48
0.1
 73
     0
 74
     0
 77
     1
 78
     8
 79
     2
140
3.5
141
0.0
143
0.0393701
146
0.71
147
1.5
172
     1
176
   256
177
   256
178
     2
271
     2
272
     3
274
     4
283
     0
284
     8
340
11
371
    -1
372
    -1
1001
ACAD_DSTYLE_DIMBREAK
1070
   391
1040
3.75
1001
ACAD_DSTYLE_DIMJAG
1070
   388
1040
1.5
1001
ACAD_DSTYLE_DIMJOGGED_JOGANGLE_SYMBOL
1070
   384
1040
1.570796326794896
1001
ACAD_DSTYLE_DIM_LINETYPE
1070
   380
1005
14
1001
ACAD_DSTYLE_DIM_EXT1_LINETYPE
1070
   381
1005
14
1001
ACAD_DSTYLE_DIM_EXT2_LINETYPE
1070
   382
1005
14
  0
DIMSTYLE
105
4F4
330
A
100
AcDbSymbolTableRecord
100
AcDbDimStyleTableRecord
  2
AM_DIN$SF
 70
     0
  4
"
 41
3.5
 42
1.0
 43
10.0
 44
1.0
 47
0.1
 48
0.1
 73
     0
 74
     0
 75
     1
 76
     1
 77
     1
 78
     8
 79
     2
140
3.5
141
0.0
143
0.0393701
146
0.71
147
1.5
172
     1
176
   256
177
   256
178
     2
271
     2
272
     3
274
     4
283
     0
284
     8
340
11
371
    -1
372
    -1
1001
ACAD_DSTYLE_DIMBREAK
1070
   391
1040
3.75
1001
ACAD_DSTYLE_DIMJAG
1070
   388
1040
1.5
1001
ACAD_DSTYLE_DIMJOGGED_JOGANGLE_SYMBOL
1070
   384
1040
1.570796326794896
1001
ACAD_DSTYLE_DIM_LINETYPE
1070
   380
1005
14
1001
ACAD_DSTYLE_DIM_EXT1_LINETYPE
1070
   381
1005
14
1001
ACAD_DSTYLE_DIM_EXT2_LINETYPE
1070
   382
1005
14
  0
DIMSTYLE
105
4F9
330
A
100
AcDbSymbolTableRecord
100
AcDbDimStyleTableRecord
  2
AM_DIN$SH
 70
     0
  4
"
 41
3.5
 42
1.0
 43
10.0
 44
1.0
 47
0.1
 48
0.1
 73
     0
 74
     0
 75
     1
 76
     1
 77
     1
 78
     8
 79
     2
140
3.5
141
0.0
143
0.0393701
144
2.0
146
0.71
147
1.5
172
     1
173
     1
176
   256
177
   256
178
     2
271
     2
272
     3
274
     4
283
     0
284
     8
340
11
343
4F5
371
    -1
372
    -1
1001
ACAD_DSTYLE_DIMBREAK
1070
   391
1040
3.75
1001
ACAD_DSTYLE_DIMJAG
1070
   388
1040
1.5
1001
ACAD_DSTYLE_DIMJOGGED_JOGANGLE_SYMBOL
1070
   384
1040
1.570796326794896
1001
ACAD_DSTYLE_DIM_LINETYPE
1070
   380
1005
14
1001
ACAD_DSTYLE_DIM_EXT1_LINETYPE
1070
   381
1005
14
1001
ACAD_DSTYLE_DIM_EXT2_LINETYPE
1070
   382
1005
14
  0
ENDTAB
  0
TABLE
  2
BLOCK_RECORD
  5
1
330
0
100
AcDbSymbolTable
 70
    15
  0
BLOCK_RECORD
  5
215
330
1
100
AcDbSymbolTableRecord
100
AcDbBlockTableRecord
  2
*Model_Space
340
421
  0
BLOCK_RECORD
  5
216
330
1
100
AcDbSymbolTableRecord
100
AcDbBlockTableRecord
  2
*Paper_Space
340
422
  0
BLOCK_RECORD
  5
217
330
1
100
AcDbSymbolTableRecord
100
AcDbBlockTableRecord
  2
_FILLED
340
0
102
{BLKREFS
331
526
331
527
331
53C
331
53D
331
552
331
553
331
568
331
569
331
57E
331
57F
331
591
331
592
331
5A3
331
5A4
331
5B5
331
5B6
331
5BE
331
5BF
331
5D0
331
5D1
102
}
  0
BLOCK_RECORD
  5
218
330
1
100
AcDbSymbolTableRecord
100
AcDbBlockTableRecord
  2
*D1
340
0
  0
BLOCK_RECORD
  5
219
330
1
100
AcDbSymbolTableRecord
100
AcDbBlockTableRecord
  2
*D2
340
0
  0
BLOCK_RECORD
  5
21A
330
1
100
AcDbSymbolTableRecord
100
AcDbBlockTableRecord
  2
*D3
340
0
  0
BLOCK_RECORD
  5
21B
330
1
100
AcDbSymbolTableRecord
100
AcDbBlockTableRecord
  2
*D4
340
0
  0
BLOCK_RECORD
  5
21C
330
1
100
AcDbSymbolTableRecord
100
AcDbBlockTableRecord
  2
*D5
340
0
  0
BLOCK_RECORD
  5
4F5
330
1
100
AcDbSymbolTableRecord
100
AcDbBlockTableRecord
  2
GENAXEH
340
0
  0
BLOCK_RECORD
  5
5D7
330
1
100
AcDbSymbolTableRecord
100
AcDbBlockTableRecord
  2
A$C14154A02
340
0
1001
ACAD
1000
DesignCenter Data
1002
{
1070
     1
1070
     4
1002
}
  0
ENDTAB
  0
ENDSEC
  0
SECTION
  2
BLOCKS
  0
BLOCK
  5
20
330
215
100
AcDbEntity
  8
0
100
AcDbBlockBegin
  2
*Model_Space
 70
     0
 10
0.0
 20
0.0
 30
0.0
  3
*Model_Space
  1

  0
ENDBLK
  5
21
330
215
100
AcDbEntity
  8
0
100
AcDbBlockEnd
  0
BLOCK
  5
1C
330
216
100
AcDbEntity
 67
     1
  8
0
100
AcDbBlockBegin
  2
*Paper_Space
 70
     0
 10
0.0
 20
0.0
 30
0.0
  3
*Paper_Space
  1

  0
ENDBLK
  5
1D
330
216
100
AcDbEntity
 67
     1
  8
0
100
AcDbBlockEnd
  0
BLOCK
  5
221
330
217
100
AcDbEntity
  8
0
100
AcDbBlockBegin
  2
_FILLED
 70
     0
 10
0.0
 20
0.0
 30
0.0
  3
_FILLED
  1

  0
SOLID
  5
222
330
217
100
AcDbEntity
  8
0
  6
ByBlock
 62
     0
100
AcDbTrace
 10
0.0
 20
0.0
 30
0.0
 11
-1.0
 21
0.125
 31
0.0
 12
-1.0
 22
-0.125
 32
0.0
 13
-1.0
 23
-0.125
 33
0.0
  0
ENDBLK
  5
223
330
217
100
AcDbEntity
  8
0
  6
ByBlock
 62
     0
100
AcDbBlockEnd
  0
BLOCK
  5
224
330
218
100
AcDbEntity
  8
ZEICHNUNGSBEMASSUNGEN
  6
Continuous
 62
     2
100
AcDbBlockBegin
  2
*D1
 70
     1
 10
0.0
 20
0.0
 30
0.0
  3
*D1
  1

  0
LINE
  5
5A0
330
218
100
AcDbEntity
  8
ZEICHNUNGSBEMASSUNGEN
  6
Continuous
 62
     0
370
    -2
100
AcDbLine
 10
330.3387338372
 20
98.2493917176
 30
0.0
 11
334.8434822916
 21
98.2493917176
 31
0.0
  0
LINE
  5
5A1
330
218
100
AcDbEntity
  8
ZEICHNUNGSBEMASSUNGEN
  6
Continuous
 62
     0
370
    -2
100
AcDbLine
 10
237.3749147539
 20
216.1449590319
 30
0.0
 11
334.8434822916001
 21
216.1449590319
 31
0.0
  0
LINE
  5
5A2
330
218
100
AcDbEntity
  8
ZEICHNUNGSBEMASSUNGEN
  6
Continuous
 62
     0
370
    -2
100
AcDbLine
 10
334.6634822916
 20
103.2493917176
 30
0.0
 11
334.6634822916001
 21
211.1449590319
 31
0.0
  0
INSERT
  5
5A3
330
218
100
AcDbEntity
  8
ZEICHNUNGSBEMASSUNGEN
  6
Continuous
 62
     0
370
    -2
100
AcDbBlockReference
  2
_FILLED
 10
334.6634822916
 20
98.2493917176
 30
0.0
 41
5.0
 42
5.0
 43
5.0
 50
270.0
  0
INSERT
  5
5A4
330
218
100
AcDbEntity
  8
ZEICHNUNGSBEMASSUNGEN
  6
Continuous
 62
     0
370
    -2
100
AcDbBlockReference
  2
_FILLED
 10
334.6634822916001
 20
216.1449590319
 30
0.0
 41
5.0
 42
5.0
 43
5.0
 50
90.0
  0
MTEXT
  5
5A5
330
218
100
AcDbEntity
  8
ZEICHNUNGSBEMASSUNGEN
  6
Continuous
100
AcDbMText
 10
326.1634822916
 20
154.1799366351
 30
0.0
 40
7.0
 41
0.0
 71
     2
 72
     1
  1
\A1;118
 11
0.0000000000000001
 21
1.0
 31
0.0
 73
     1
 44
1.0
1001
ACAD
1000
MTEXTBEGIN
1070
    73
1070
     1
1070
    44
1040
1.0
1070
    74
1070
     0
1000
MTEXTEND
  0
POINT
  5
5A6
330
218
100
AcDbEntity
  8
Defpoints
  6
Continuous
 62
     0
100
AcDbPoint
 10
330.2762338372001
 20
98.2493917176
 30
0.0
  0
POINT
  5
5A7
330
218
100
AcDbEntity
  8
Defpoints
  6
Continuous
 62
     0
100
AcDbPoint
 10
237.3124147539
 20
216.1449590319
 30
0.0
  0
POINT
  5
5A8
330
218
100
AcDbEntity
  8
Defpoints
  6
Continuous
 62
     0
100
AcDbPoint
 10
334.6634822916001
 20
216.1449590319
 30
0.0
  0
ENDBLK
  5
22C
330
218
100
AcDbEntity
  8
0
  6
ByBlock
 62
     0
100
AcDbBlockEnd
  0
BLOCK
  5
22D
330
219
100
AcDbEntity
  8
ZEICHNUNGSBEMASSUNGEN
  6
Continuous
 62
     2
100
AcDbBlockBegin
  2
*D2
 70
     1
 10
0.0
 20
0.0
 30
0.0
  3
*D2
  1

  0
LINE
  5
58E
330
219
100
AcDbEntity
  8
ZEICHNUNGSBEMASSUNGEN
  6
Continuous
 62
     0
370
    -2
100
AcDbLine
 10
170.7762338371999
 20
64.5668866926
 30
0.0
 11
170.7762338371999
 21
56.36171748756084
 31
0.0
  0
LINE
  5
58F
330
219
100
AcDbEntity
  8
ZEICHNUNGSBEMASSUNGEN
  6
Continuous
 62
     0
370
    -2
100
AcDbLine
 10
325.7762338372
 20
67.68689171760001
 30
0.0
 11
325.7762338372
 21
56.36171748756084
 31
0.0
  0
LINE
  5
590
330
219
100
AcDbEntity
  8
ZEICHNUNGSBEMASSUNGEN
  6
Continuous
 62
     0
370
    -2
100
AcDbLine
 10
175.7762338372
 20
56.54171748756084
 30
0.0
 11
320.7762338372
 21
56.54171748756084
 31
0.0
  0
INSERT
  5
591
330
219
100
AcDbEntity
  8
ZEICHNUNGSBEMASSUNGEN
  6
Continuous
 62
     0
370
    -2
100
AcDbBlockReference
  2
_FILLED
 10
170.7762338371999
 20
56.54171748756084
 30
0.0
 41
5.0
 42
5.0
 43
5.0
 50
180.0
  0
INSERT
  5
592
330
219
100
AcDbEntity
  8
ZEICHNUNGSBEMASSUNGEN
  6
Continuous
 62
     0
370
    -2
100
AcDbBlockReference
  2
_FILLED
 10
325.7762338372
 20
56.54171748756084
 30
0.0
 41
5.0
 42
5.0
 43
5.0
  0
MTEXT
  5
593
330
219
100
AcDbEntity
  8
ZEICHNUNGSBEMASSUNGEN
  6
Continuous
100
AcDbMText
 10
244.7762338372
 20
65.04171748756085
 30
0.0
 40
7.0
 41
0.0
 71
     2
 72
     1
  1
\A1;155
 73
     1
 44
1.0
1001
ACAD
1000
MTEXTBEGIN
1070
    73
1070
     1
1070
    44
1040
1.0
1070
    74
1070
     0
1000
MTEXTEND
  0
POINT
  5
594
330
219
100
AcDbEntity
  8
Defpoints
  6
Continuous
 62
     0
100
AcDbPoint
 10
170.7762338371999
 20
64.62938669260001
 30
0.0
  0
POINT
  5
595
330
219
100
AcDbEntity
  8
Defpoints
  6
Continuous
 62
     0
100
AcDbPoint
 10
325.7762338372
 20
67.7493917176
 30
0.0
  0
POINT
  5
596
330
219
100
AcDbEntity
  8
Defpoints
  6
Continuous
 62
     0
100
AcDbPoint
 10
325.7762338372
 20
56.54171748756084
 30
0.0
  0
ENDBLK
  5
235
330
219
100
AcDbEntity
  8
0
  6
ByBlock
 62
     0
100
AcDbBlockEnd
  0
BLOCK
  5
236
330
21A
100
AcDbEntity
  8
ZEICHNUNGSBEMASSUNGEN
  6
Continuous
 62
     2
100
AcDbBlockBegin
  2
*D3
 70
     1
 10
0.0
 20
0.0
 30
0.0
  3
*D3
  1

  0
LINE
  5
5BB
330
21A
100
AcDbEntity
  8
ZEICHNUNGSBEMASSUNGEN
  6
Continuous
 62
     0
370
    -2
100
AcDbLine
 10
80.7762338372
 20
214.9043257104
 30
0.0
 11
80.7762338372
 21
259.1409736735363
 31
0.0
  0
LINE
  5
5BC
330
21A
100
AcDbEntity
  8
ZEICHNUNGSBEMASSUNGEN
  6
Continuous
 62
     0
370
    -2
100
AcDbLine
 10
260.7762338372
 20
214.9043257104
 30
0.0
 11
260.7762338372
 21
259.1409736735363
 31
0.0
  0
LINE
  5
5BD
330
21A
100
AcDbEntity
  8
ZEICHNUNGSBEMASSUNGEN
  6
Continuous
 62
     0
370
    -2
100
AcDbLine
 10
85.7762338372
 20
258.9609736735363
 30
0.0
 11
255.7762338372
 21
258.9609736735363
 31
0.0
  0
INSERT
  5
5BE
330
21A
100
AcDbEntity
  8
ZEICHNUNGSBEMASSUNGEN
  6
Continuous
 62
     0
370
    -2
100
AcDbBlockReference
  2
_FILLED
 10
80.7762338372
 20
258.9609736735363
 30
0.0
 41
5.0
 42
5.0
 43
5.0
 50
180.0
  0
INSERT
  5
5BF
330
21A
100
AcDbEntity
  8
ZEICHNUNGSBEMASSUNGEN
  6
Continuous
 62
     0
370
    -2
100
AcDbBlockReference
  2
_FILLED
 10
260.7762338372
 20
258.9609736735363
 30
0.0
 41
5.0
 42
5.0
 43
5.0
  0
MTEXT
  5
5C0
330
21A
100
AcDbEntity
  8
ZEICHNUNGSBEMASSUNGEN
  6
Continuous
100
AcDbMText
 10
167.7345671705
 20
267.4609736735363
 30
0.0
 40
7.0
 41
0.0
 71
     2
 72
     1
  1
\A1;%%c180
 73
     1
 44
1.0
1001
ACAD
1000
MTEXTBEGIN
1070
    73
1070
     1
1070
    44
1040
1.0
1070
    74
1070
     0
1000
MTEXTEND
  0
POINT
  5
5C1
330
21A
100
AcDbEntity
  8
Defpoints
  6
Continuous
 62
     0
100
AcDbPoint
 10
80.7762338372
 20
214.8418257104
 30
0.0
  0
POINT
  5
5C2
330
21A
100
AcDbEntity
  8
Defpoints
  6
Continuous
 62
     0
100
AcDbPoint
 10
260.7762338372
 20
214.8418257104
 30
0.0
  0
POINT
  5
5C3
330
21A
100
AcDbEntity
  8
Defpoints
  6
Continuous
 62
     0
100
AcDbPoint
 10
260.7762338372
 20
258.9609736735363
 30
0.0
  0
ENDBLK
  5
23E
330
21A
100
AcDbEntity
  8
0
  6
ByBlock
 62
     0
100
AcDbBlockEnd
  0
BLOCK
  5
23F
330
21B
100
AcDbEntity
  8
ZEICHNUNGSBEMASSUNGEN
  6
Continuous
 62
     2
100
AcDbBlockBegin
  2
*D4
 70
     1
 10
0.0
 20
0.0
 30
0.0
  3
*D4
  1

  0
LINE
  5
5CD
330
21B
100
AcDbEntity
  8
ZEICHNUNGSBEMASSUNGEN
  6
Continuous
 62
     0
370
    -2
100
AcDbLine
 10
248.0338860038
 20
209.3719577778
 30
0.0
 11
248.0338860038
 21
248.4306091399
 31
0.0
  0
LINE
  5
5CE
330
21B
100
AcDbEntity
  8
ZEICHNUNGSBEMASSUNGEN
  6
Continuous
 62
     0
370
    -2
100
AcDbLine
 10
93.51858167059999
 20
209.3719577778
 30
0.0
 11
93.51858167059999
 21
248.4306091399
 31
0.0
  0
LINE
  5
5CF
330
21B
100
AcDbEntity
  8
ZEICHNUNGSBEMASSUNGEN
  6
Continuous
 62
     0
370
    -2
100
AcDbLine
 10
243.0338860038
 20
248.2506091399
 30
0.0
 11
98.51858167060001
 21
248.2506091399
 31
0.0
  0
INSERT
  5
5D0
330
21B
100
AcDbEntity
  8
ZEICHNUNGSBEMASSUNGEN
  6
Continuous
 62
     0
370
    -2
100
AcDbBlockReference
  2
_FILLED
 10
248.0338860038
 20
248.2506091399
 30
0.0
 41
5.0
 42
5.0
 43
5.0
  0
INSERT
  5
5D1
330
21B
100
AcDbEntity
  8
ZEICHNUNGSBEMASSUNGEN
  6
Continuous
 62
     0
370
    -2
100
AcDbBlockReference
  2
_FILLED
 10
93.51858167059999
 20
248.2506091399
 30
0.0
 41
5.0
 42
5.0
 43
5.0
 50
180.0
  0
MTEXT
  5
5D2
330
21B
100
AcDbEntity
  8
ZEICHNUNGSBEMASSUNGEN
  6
Continuous
100
AcDbMText
 10
167.8595671705
 20
256.7506091399
 30
0.0
 40
7.0
 41
0.0
 71
     2
 72
     1
  1
\A1;%%c155
 73
     1
 44
1.0
1001
ACAD
1000
MTEXTBEGIN
1070
    73
1070
     1
1070
    44
1040
1.0
1070
    74
1070
     0
1000
MTEXTEND
  0
POINT
  5
5D3
330
21B
100
AcDbEntity
  8
Defpoints
  6
Continuous
 62
     0
100
AcDbPoint
 10
248.0338860038
 20
209.3094577778
 30
0.0
  0
POINT
  5
5D4
330
21B
100
AcDbEntity
  8
Defpoints
  6
Continuous
 62
     0
100
AcDbPoint
 10
93.51858167059999
 20
209.3094577778
 30
0.0
  0
POINT
  5
5D5
330
21B
100
AcDbEntity
  8
Defpoints
  6
Continuous
 62
     0
100
AcDbPoint
 10
93.51858167059999
 20
248.2506091399
 30
0.0
  0
ENDBLK
  5
247
330
21B
100
AcDbEntity
  8
0
  6
ByBlock
 62
     0
100
AcDbBlockEnd
  0
BLOCK
  5
248
330
21C
100
AcDbEntity
  8
ZEICHNUNGSBEMASSUNGEN
  6
Continuous
 62
     2
100
AcDbBlockBegin
  2
*D5
 70
     1
 10
0.0
 20
0.0
 30
0.0
  3
*D5
  1

  0
LINE
  5
5B2
330
21C
100
AcDbEntity
  8
ZEICHNUNGSBEMASSUNGEN
  6
Continuous
 62
     0
370
    -2
100
AcDbLine
 10
104.1775531198
 20
216.1449590388
 30
0.0
 11
69.66521869390003
 21
216.1449590388
 31
0.0
  0
LINE
  5
5B3
330
21C
100
AcDbEntity
  8
ZEICHNUNGSBEMASSUNGEN
  6
Continuous
 62
     0
370
    -2
100
AcDbLine
 10
133.7137338371999
 20
69.24939171760001
 30
0.0
 11
69.6652186939
 21
69.24939171760001
 31
0.0
  0
LINE
  5
5B4
330
21C
100
AcDbEntity
  8
ZEICHNUNGSBEMASSUNGEN
  6
Continuous
 62
     0
370
    -2
100
AcDbLine
 10
69.84521869390004
 20
211.1449590388
 30
0.0
 11
69.8452186939
 21
74.24939171760001
 31
0.0
  0
INSERT
  5
5B5
330
21C
100
AcDbEntity
  8
ZEICHNUNGSBEMASSUNGEN
  6
Continuous
 62
     0
370
    -2
100
AcDbBlockReference
  2
_FILLED
 10
69.84521869390004
 20
216.1449590388
 30
0.0
 41
5.0
 42
5.0
 43
5.0
 50
90.0
  0
INSERT
  5
5B6
330
21C
100
AcDbEntity
  8
ZEICHNUNGSBEMASSUNGEN
  6
Continuous
 62
     0
370
    -2
100
AcDbBlockReference
  2
_FILLED
 10
69.8452186939
 20
69.24939171760001
 30
0.0
 41
5.0
 42
5.0
 43
5.0
 50
270.0
  0
MTEXT
  5
5B7
330
21C
100
AcDbEntity
  8
ZEICHNUNGSBEMASSUNGEN
  6
Continuous
100
AcDbMText
 10
61.34521869390001
 20
139.3446878897
 30
0.0
 40
7.0
 41
0.0
 71
     2
 72
     1
  1
\A1;147
 11
0.0000000000000001
 21
1.0
 31
0.0
 73
     1
 44
1.0
1001
ACAD
1000
MTEXTBEGIN
1070
    73
1070
     1
1070
    44
1040
1.0
1070
    74
1070
     0
1000
MTEXTEND
  0
POINT
  5
5B8
330
21C
100
AcDbEntity
  8
Defpoints
  6
Continuous
 62
     0
100
AcDbPoint
 10
104.2400531198
 20
216.1449590388
 30
0.0
  0
POINT
  5
5B9
330
21C
100
AcDbEntity
  8
Defpoints
  6
Continuous
 62
     0
100
AcDbPoint
 10
133.7762338372
 20
69.24939171760001
 30
0.0
  0
POINT
  5
5BA
330
21C
100
AcDbEntity
  8
Defpoints
  6
Continuous
 62
     0
100
AcDbPoint
 10
69.8452186939
 20
69.24939171760001
 30
0.0
  0
ENDBLK
  5
250
330
21C
100
AcDbEntity
  8
0
  6
ByBlock
 62
     0
100
AcDbBlockEnd
  0
BLOCK
  5
4F7
330
4F5
100
AcDbEntity
  8
0
100
AcDbBlockBegin
  2
GENAXEH
 70
     0
 10
0.0
 20
0.0
 30
0.0
  3
GENAXEH
  1

  0
LINE
  5
4F6
330
4F5
100
AcDbEntity
  8
0
100
AcDbLine
 10
-1.0
 20
0.0
 30
0.0
 11
1.0
 21
0.0
 31
0.0
  0
ENDBLK
  5
4F8
330
4F5
100
AcDbEntity
  8
0
100
AcDbBlockEnd
  0
BLOCK
  5
5DD
330
5D7
100
AcDbEntity
  8
0
100
AcDbBlockBegin
  2
A$C14154A02
 70
     0
 10
0.0
 20
0.0
 30
0.0
  3
A$C14154A02
  1

  0
LEADER
  5
5D8
330
5D7
100
AcDbEntity
  8
ZEICHNUNGSBEMASSUNGEN
  6
Continuous
 62
     7
100
AcDbLeader
  3
DIMSTYLE_2
 74
     0
 76
     3
 10
-0.0000001620269359
 20
0.0000000114142722
 30
0.0
 10
16.13858666417295
 20
9.644244095071599
 30
0.0
 10
33.23121676687924
 20
9.611548516629909
 30
0.0
213
8.546107528269942
223
6.697880158863256
233
0.0
1001
ACAD
1000
DSTYLE
1002
{
1070
    41
1040
5.0
1070
   147
1040
1.5
1070
   178
1070
   256
1002
}
  0
LINE
  5
5D9
330
5D7
100
AcDbEntity
  8
0
100
AcDbLine
 10
35.58898713615645
 20
6.365646738991642
 30
0.0
 11
44.22815041049097
 21
6.365646738991642
 31
0.0
  0
LINE
  5
5DA
330
5D7
100
AcDbEntity
  8
0
100
AcDbLine
 10
37.08420751073578
 20
5.220019833481842
 30
0.0
 11
42.71684130791913
 21
5.220019833481842
 31
0.0
  0
LINE
  5
5DB
330
5D7
100
AcDbEntity
  8
0
100
AcDbLine
 10
38.49501896424988
 20
4.287572404729758
 30
0.0
 11
41.49908747770308
 21
4.287572404729758
 31
0.0
  0
LINE
  5
5DC
330
5D7
100
AcDbEntity
  8
0
100
AcDbLine
 10
39.86122011627475
 20
7.960452439318885
 30
0.0
 11
39.86122011627475
 21
13.401558039245
 31
0.0
  0
ENDBLK
  5
5DE
330
5D7
100
AcDbEntity
  8
0
100
AcDbBlockEnd
  0
ENDSEC
  0
SECTION
  2
ENTITIES
  0
HATCH
  5
251
330
215
100
AcDbEntity
  8
0
  6
Continuous
 62
     1
100
AcDbHatch
 10
0.0
 20
0.0
 30
0.0
210
0.0
220
0.0
230
1.0
  2
DEFAULT__1
 70
     0
 71
     0
 91
        2
 92
        1
 93
       54
 72
     1
 10
135.2762338371999
 20
69.24939171760001
 11
228.7762338372
 21
69.24939171760001
 72
     4
 94
        3
 73
     1
 74
     0
 95
        8
 96
        4
 40
0.0
 40
0.0
 40
0.0
 40
0.0
 40
1.0
 40
1.0
 40
1.0
 40
1.0
 10
135.2762338371999
 20
69.24939171760001
 42
1.0
 10
129.4183694609
 20
69.24939171760001
 42
0.8047378541
 10
125.2762338372
 20
73.3915273414
 42
0.8047378541
 10
125.2762338372
 20
79.24939171760001
 42
1.0
 72
     1
 10
125.2762338372
 20
79.24939171760001
 11
125.2762338372
 21
102.7870519749
 72
     4
 94
        3
 73
     1
 74
     0
 95
        8
 96
        4
 40
0.0
 40
0.0
 40
0.0
 40
0.0
 40
1.0
 40
1.0
 40
1.0
 40
1.0
 10
122.4332417059
 20
105.7829405791
 42
1.0
 10
124.1161834075
 20
105.6947413419
 42
0.8169162473
 10
125.2762338372
 20
104.4723032548
 42
0.8169162473
 10
125.2762338372
 20
102.7870519749
 42
1.0
 72
     1
 10
117.5586002584
 20
106.0384097122
 11
122.4332417059
 21
105.7829405791
 72
     4
 94
        3
 73
     1
 74
     0
 95
        8
 96
        4
 40
0.0
 40
0.0
 40
0.0
 40
0.0
 40
1.0
 40
1.0
 40
1.0
 40
1.0
 10
115.007852274
 20
107.7427650261
 42
1.0
 10
115.493617264
 20
106.7243375457
 42
0.906270941
 10
116.4318017402
 20
106.0974627202
 42
0.906270941
 10
117.5586002584
 20
106.0384097122
 42
1.0
 72
     1
 10
101.5248274661
 20
136.0105143835
 11
115.007852274
 21
107.7427650261
 72
     4
 94
        3
 73
     1
 74
     0
 95
        8
 96
        4
 40
0.0
 40
0.0
 40
0.0
 40
0.0
 40
1.0
 40
1.0
 40
1.0
 40
1.0
 10
101.2344108381
 20
137.1973491838
 42
1.0
 10
101.2488262055
 20
136.7845470721
 42
0.986030315
 10
101.3470032506
 20
136.3833306043
 42
0.986030315
 10
101.5248274661
 20
136.0105143834
 42
1.0
 72
     1
 10
99.8334481678
 20
177.3156710497
 11
101.2344108381
 21
137.1973491838
 72
     4
 94
        3
 73
     1
 74
     0
 95
        8
 96
        4
 40
0.0
 40
0.0
 40
0.0
 40
0.0
 40
1.0
 40
1.0
 40
1.0
 40
1.0
 10
99.83344799780001
 20
177.3156782731
 42
1.0
 10
99.80880533250001
 20
178.0213523895
 42
0.9853168289
 10
99.6374164636
 20
178.7063407654
 42
0.9853168289
 10
99.3268309872
 20
179.3404699963
 42
1.0
 72
     1
 10
99.3268308492
 20
179.3404700267
 11
99.1881563065
 21
179.6236044373
 72
     4
 94
        3
 73
     1
 74
     0
 95
        8
 96
        4
 40
0.0
 40
0.0
 40
0.0
 40
0.0
 40
1.0
 40
1.0
 40
1.0
 40
1.0
 10
99.18815648
 20
179.6236044811
 42
1.0
 10
98.87756968110002
 20
180.2577342043
 42
0.9853167871
 10
98.70617982769999
 20
180.9427233894
 42
0.9853167871
 10
98.6815365808
 20
181.6483985102
 42
1.0
 72
     1
 10
98.3873897494
 20
190.0716578325
 11
98.68153631570001
 21
181.6484022582
 72
     4
 94
        3
 73
     1
 74
     0
 95
        8
 96
        4
 40
0.0
 40
0.0
 40
0.0
 40
0.0
 40
1.0
 40
1.0
 40
1.0
 40
1.0
 10
96.16515317870002
 20
192.8648764327999
 42
1.0
 10
97.48740518510002
 20
192.5108349670999
 42
0.8692022420999998
 10
98.33961826940001
 20
191.4396540362
 42
0.8692022420999998
 10
98.3873897494
 20
190.0716578325
 42
1.0
 72
     4
 94
        3
 73
     1
 74
     0
 95
        8
 96
        4
 40
0.0
 40
0.0
 40
0.0
 40
0.0
 40
1.0
 40
1.0
 40
1.0
 40
1.0
 10
96.16515317870002
 20
192.8648764327999
 42
1.0
 10
94.84290117239998
 20
193.2189178985
 42
0.8692022420999998
 10
93.9906880881
 20
194.2900988294
 42
0.8692022420999998
 10
93.94291660799998
 20
195.6580950331
 42
1.0
 72
     1
 10
93.94291660799998
 20
195.6580950331
 11
93.61285261450001
 21
205.1098911504
 72
     4
 94
        3
 73
     1
 74
     0
 95
        8
 96
        4
 40
0.0
 40
0.0
 40
0.0
 40
0.0
 40
1.0
 40
1.0
 40
1.0
 40
1.0
 10
90.82394955469998
 20
207.9978848111
 42
1.0
 10
92.43478513269998
 20
207.8852442145
 42
0.828763217
 10
93.55649798649999
 20
206.723676551
 42
0.828763217
 10
93.61285261450001
 20
205.1098911504
 42
1.0
 72
     1
 10
90.82394955469998
 20
207.9978848111
 11
82.6367208897
 21
208.5703916103
 72
     4
 94
        3
 73
     1
 74
     0
 95
        8
 96
        4
 40
0.0
 40
0.0
 40
0.0
 40
0.0
 40
1.0
 40
1.0
 40
1.0
 40
1.0
 10
82.6367208897
 20
208.5703916103
 42
1.0
 10
81.53169794550001
 20
208.6476623418999
 42
0.8209024677
 10
80.7762338372
 20
209.4577984132
 42
0.8209024677
 10
80.7762338372
 20
210.5655197108
 42
1.0
 72
     1
 10
80.7762338372
 20
210.5655197108
 11
80.7762338372
 21
213.3418257104
 72
     4
 94
        3
 73
     1
 74
     0
 95
        8
 96
        4
 40
0.0
 40
0.0
 40
0.0
 40
0.0
 40
1.0
 40
1.0
 40
1.0
 40
1.0
 10
80.7762338372
 20
213.3418257104
 42
1.0
 10
80.7762338372
 20
214.4812265079
 42
0.8128932001999999
 10
81.56772813839999
 20
215.3008428501
 42
0.8128932001999999
 10
82.7064348438
 20
215.3406073644
 42
1.0
 72
     1
 10
82.7064348438
 20
215.3406073644
 11
105.7400511043
 21
216.1449589684
 72
     4
 94
        3
 73
     1
 74
     0
 95
        8
 96
        4
 40
0.0
 40
0.0
 40
0.0
 40
0.0
 40
1.0
 40
1.0
 40
1.0
 40
1.0
 10
105.7400511043
 20
216.1449589684
 42
1.0
 10
106.3402938311
 20
216.1659199063
 42
0.7972118188
 10
106.7730078933
 20
215.7493995197
 42
0.7972118188
 10
106.7749453977
 20
215.1487940434
 42
1.0
 72
     1
 10
106.7762338372
 20
214.7493917177
 11
106.7749453977
 21
215.1487940434
 72
     1
 10
106.7762338372
 20
209.7320889808
 11
106.7762338372
 21
214.7493917177
 72
     4
 94
        3
 73
     1
 74
     0
 95
        8
 96
        4
 40
0.0
 40
0.0
 40
0.0
 40
0.0
 40
1.0
 40
1.0
 40
1.0
 40
1.0
 10
106.7762338372
 20
209.7320889808
 42
1.0
 10
106.7762338372
 20
209.154377046
 42
0.8088336328
 10
106.37131019
 20
208.7423237491
 42
0.8088336328
 10
105.7936862436
 20
208.7322412856
 42
1.0
 72
     1
 10
100.7587814307
 20
208.6443566952
 11
105.7936862436
 21
208.7322412856
 72
     4
 94
        3
 73
     1
 74
     0
 95
        8
 96
        4
 40
0.0
 40
0.0
 40
0.0
 40
0.0
 40
1.0
 40
1.0
 40
1.0
 40
1.0
 10
99.77623383720001
 20
207.644509
 42
1.0
 10
99.77623383720001
 20
208.2222209348
 42
0.8088336328
 10
100.1811574843
 20
208.6342742317
 42
0.8088336328
 10
100.7587814307
 20
208.6443566952
 42
1.0
 72
     1
 10
99.77623383720001
 20
198.6099035263
 11
99.77623383720001
 21
207.644509
 72
     4
 94
        3
 73
     1
 74
     0
 95
        8
 96
        4
 40
0.0
 40
0.0
 40
0.0
 40
0.0
 40
1.0
 40
1.0
 40
1.0
 40
1.0
 10
100.7587814307
 20
197.6100558311
 42
1.0
 10
100.1811574843
 20
197.6201382946
 42
0.8088336328
 10
99.77623383720001
 20
198.0321915915
 42
0.8088336328
 10
99.77623383720001
 20
198.6099035263
 42
1.0
 72
     1
 10
105.8524833915
 20
197.5211449327
 11
100.7587814307
 21
197.6100558311
 72
     4
 94
        3
 73
     1
 74
     0
 95
        8
 96
        4
 40
0.0
 40
0.0
 40
0.0
 40
0.0
 40
1.0
 40
1.0
 40
1.0
 40
1.0
 10
105.8524833915
 20
197.5211449327
 42
1.0
 10
106.4286220835
 20
197.5110883944
 42
0.8095867034000001
 10
106.8331669318
 20
197.1007465953
 42
0.8095867034000001
 10
106.8350257818
 20
196.5245231394
 42
1.0
 72
     1
 10
107.0240603989
 20
137.9258312292
 11
106.8350257818
 21
196.5245231394
 72
     4
 94
        3
 73
     1
 74
     0
 95
        8
 96
        4
 40
0.0
 40
0.0
 40
0.0
 40
0.0
 40
1.0
 40
1.0
 40
1.0
 40
1.0
 10
107.3162889361
 20
136.6439756445
 42
1.0
 10
107.1245111576
 20
137.0460461186
 42
0.9837980176
 10
107.0254974264
 20
137.4803681921
 42
0.9837980176
 10
107.0240603989
 20
137.9258312292
 42
1.0
 72
     1
 10
116.5115364234
 20
117.3657383831
 11
107.3162889361
 21
136.6439756445
 72
     4
 94
        3
 73
     1
 74
     0
 95
        8
 96
        4
 40
0.0
 40
0.0
 40
0.0
 40
0.0
 40
1.0
 40
1.0
 40
1.0
 40
1.0
 10
117.3617857515
 20
116.7976199451
 42
1.0
 10
116.9861862454
 20
116.8173042811
 42
0.906270941
 10
116.6734580867
 20
117.0262625563
 42
0.906270941
 10
116.5115364234
 20
117.3657383831
 42
1.0
 72
     1
 10
132.3285697934
 20
116.0132440305
 11
117.3617857515
 21
116.7976199451
 72
     4
 94
        3
 73
     1
 74
     0
 95
        8
 96
        4
 40
0.0
 40
0.0
 40
0.0
 40
0.0
 40
1.0
 40
1.0
 40
1.0
 40
1.0
 10
132.3285697934
 20
116.0132440305
 42
1.0
 10
132.8895503606
 20
115.9838442847
 42
0.8169162473
 10
133.2762338371999
 20
115.5763649224
 42
0.8169162473
 10
133.2762338371999
 20
115.0146144957
 42
1.0
 72
     1
 10
133.2762338371999
 20
104.9462763256
 11
133.2762338371999
 21
115.0146144957
 72
     4
 94
        3
 73
     1
 74
     0
 95
        8
 96
        4
 40
0.0
 40
0.0
 40
0.0
 40
0.0
 40
1.0
 40
1.0
 40
1.0
 40
1.0
 10
134.2587814307
 20
103.9464286304
 42
1.0
 10
133.6811574843
 20
103.9565110939
 42
0.8088336328
 10
133.2762338371999
 20
104.3685643908
 42
0.8088336328
 10
133.2762338371999
 20
104.9462763256
 42
1.0
 72
     1
 10
139.7936862436
 20
103.8498165075
 11
134.2587814307
 21
103.9464286304
 72
     4
 94
        3
 73
     1
 74
     0
 95
        8
 96
        4
 40
0.0
 40
0.0
 40
0.0
 40
0.0
 40
1.0
 40
1.0
 40
1.0
 40
1.0
 10
139.7936862436
 20
103.8498165075
 42
1.0
 10
140.37131019
 20
103.839734044
 42
0.8088336328
 10
140.7762338372
 20
103.4276807471
 42
0.8088336328
 10
140.7762338372
 20
102.8499688124
 42
1.0
 72
     1
 10
140.7762338372
 20
98.73281833660001
 11
140.7762338372
 21
102.8499688124
 72
     2
 10
139.7761543241
 20
98.73272944969999
 40
1.0000718737
 50
270.0048543878
 51
360.0050835414
 73
     1
 72
     1
 10
139.7762387627
 20
97.73266607549999
 11
132.7762505606
 21
97.73266607549999
 72
     2
 10
132.7764311351
 20
95.7325041948
 40
2.0001829605
 50
90.00517207020001
 51
180.0040901522
 73
     1
 72
     1
 10
130.7762338372
 20
79.24939171760001
 11
130.7762338372
 21
95.73236157889999
 72
     4
 94
        3
 73
     1
 74
     0
 95
        8
 96
        4
 40
0.0
 40
0.0
 40
0.0
 40
0.0
 40
1.0
 40
1.0
 40
1.0
 40
1.0
 10
135.2762338371999
 20
74.7493917176
 42
1.0
 10
132.6401948678
 20
74.7493917176
 42
0.8047378541
 10
130.7762338372
 20
76.6133527483
 42
0.8047378541
 10
130.7762338372
 20
79.24939171760001
 42
1.0
 72
     1
 10
135.2762338371999
 20
74.7493917176
 11
252.7762338372
 21
74.7493917176
 72
     1
 10
252.7762338372
 20
74.7493917176
 11
260.7762338372
 21
74.7493917176
 72
     1
 10
260.7762338372
 20
74.7493917176
 11
325.7762338372
 21
74.7493917176
 72
     1
 10
325.7762338372
 20
74.7493917176
 11
325.7762338372
 21
69.24939171760001
 72
     1
 10
260.7762338372
 20
69.24939171760001
 11
325.7762338372
 21
69.24939171760001
 72
     1
 10
260.7762338372
 20
69.24939171760001
 11
228.7762338372
 21
69.24939171760001
 97
        0
 92
        1
 93
       52
 72
     1
 10
325.7762338372
 20
127.2493917176
 11
325.7762338372
 21
121.7493917176
 72
     1
 10
260.7762338372
 20
121.7493917176
 11
325.7762338372
 21
121.7493917176
 72
     4
 94
        3
 73
     0
 74
     0
 95
       14
 96
       10
 40
0.0
 40
0.0
 40
0.0
 40
0.0
 40
0.1617150879
 40
0.3234457518
 40
0.4851764158
 40
0.6469070798
 40
0.8086377437999999
 40
0.9703684078
 40
1.0
 40
1.0
 40
1.0
 40
1.0
 10
260.775868847
 20
121.7493917169
 10
259.5127280285
 20
121.7493868715
 10
256.9277458525
 20
121.6990699263
 10
252.902755981
 20
121.5457081414
 10
248.7548537512
 20
121.3948604842
 10
244.5045337777
 20
121.333449088
 10
240.1690192288
 20
121.4553977144
 10
236.9644844757
 20
121.7519530655
 10
235.2174139814
 20
122.005202643
 10
234.9466802738
 20
122.0467555512
 72
     4
 94
        3
 73
     1
 74
     0
 95
        8
 96
        4
 40
0.0
 40
0.0
 40
0.0
 40
0.0
 40
1.0
 40
1.0
 40
1.0
 40
1.0
 10
234.9448810055
 20
122.0470298248
 42
1.0
 10
234.0404367247
 20
122.1850064185
 42
0.8686357620999999
 10
233.2319701211
 20
121.7567089186
 42
0.8686357620999999
 10
232.8380919924
 20
120.9309262491
 42
1.0
 72
     1
 10
226.2888615395
 20
107.2001791558
 11
232.8380919566999
 21
120.9309262661
 72
     2
 10
224.4892391653
 20
108.0579511636
 40
1.9935685911
 50
272.9841874145
 51
334.5156637436
 73
     1
 72
     1
 10
218.1743066167
 20
105.7306709957
 11
224.5930263091
 21
106.0670618406
 72
     4
 94
        3
 73
     1
 74
     0
 95
        8
 96
        4
 40
0.0
 40
0.0
 40
0.0
 40
0.0
 40
1.0
 40
1.0
 40
1.0
 40
1.0
 10
216.2789785292
 20
103.7334119261
 42
1.0
 10
216.2789785292
 20
104.8569127794
 42
0.8169162473
 10
217.0523454823
 20
105.6718715042
 42
0.8169162473
 10
218.1743066167
 20
105.7306709957
 42
1.0
 72
     1
 10
216.2789785292
 20
99.72931662149999
 11
216.2789785292
 21
103.7334119261
 72
     4
 94
        3
 73
     0
 74
     0
 95
       16
 96
       12
 40
0.0
 40
0.0
 40
0.0
 40
0.0
 40
0.1111111111
 40
0.2222222222
 40
0.3333333333
 40
0.4444444444000001
 40
0.5555555556
 40
0.6666666667
 40
0.7777777778
 40
0.8888888889
 40
1.0
 40
1.0
 40
1.0
 40
1.0
 10
216.2789642598
 20
99.7293166224
 10
216.2789568545
 20
99.61272112110002
 10
216.2590776649
 20
99.38315120780002
 10
216.16757324
 20
99.041439179
 10
216.0203207245
 20
98.7270312783
 10
215.8210636285
 20
98.44157380610001
 10
215.5699282142
 20
98.19072806580001
 10
215.2837735456
 20
97.99146067309999
 10
214.9684470532
 20
97.84409648509999
 10
214.6252043639
 20
97.75234288729999
 10
214.394418067
 20
97.73238214610001
 10
214.277147711
 20
97.73237574420001
 72
     1
 10
201.7762338368
 20
97.73236141940001
 11
214.2771477117
 21
97.73236141940001
 72
     4
 94
        3
 73
     1
 74
     0
 95
        8
 96
        4
 40
0.0
 40
0.0
 40
0.0
 40
0.0
 40
1.0
 40
1.0
 40
1.0
 40
1.0
 10
201.7762335316
 20
97.73236143250001
 42
1.0
 10
201.1904473436
 20
97.7323616113
 42
0.8047379828
 10
200.7762339712
 20
98.1465750105
 42
0.8047379828
 10
200.7762338303
 20
98.73236119840001
 42
1.0
 72
     1
 10
200.7762338372
 20
98.73236141940001
 11
200.7762338372
 21
102.8499688124
 72
     4
 94
        3
 73
     1
 74
     0
 95
        8
 96
        4
 40
0.0
 40
0.0
 40
0.0
 40
0.0
 40
1.0
 40
1.0
 40
1.0
 40
1.0
 10
201.7587814307
 20
103.8498165075
 42
1.0
 10
201.1811574843
 20
103.839734044
 42
0.8088336328
 10
200.7762338372
 20
103.4276807471
 42
0.8088336328
 10
200.7762338372
 20
102.8499688124
 42
1.0
 72
     1
 10
201.7587814307
 20
103.8498165075
 11
207.2936862436
 21
103.9464286304
 72
     4
 94
        3
 73
     1
 74
     0
 95
        8
 96
        4
 40
0.0
 40
0.0
 40
0.0
 40
0.0
 40
1.0
 40
1.0
 40
1.0
 40
1.0
 10
207.2936862436
 20
103.9464286304
 42
1.0
 10
207.87131019
 20
103.9565110939
 42
0.8088336328
 10
208.2762338372
 20
104.3685643908
 42
0.8088336328
 10
208.2762338372
 20
104.9462763256
 42
1.0
 72
     1
 10
208.2762338372
 20
104.9462763256
 11
208.2762338372
 21
115.0146144957
 72
     4
 94
        3
 73
     1
 74
     0
 95
        8
 96
        4
 40
0.0
 40
0.0
 40
0.0
 40
0.0
 40
1.0
 40
1.0
 40
1.0
 40
1.0
 10
209.2238978809
 20
116.0132440305
 42
1.0
 10
208.6629173137
 20
115.9838442847
 42
0.8169162473
 10
208.2762338372
 20
115.5763649224
 42
0.8169162473
 10
208.2762338372
 20
115.0146144957
 42
1.0
 72
     1
 10
209.2238978809
 20
116.0132440305
 11
224.1906819228
 21
116.7976199451
 72
     4
 94
        3
 73
     1
 74
     0
 95
        8
 96
        4
 40
0.0
 40
0.0
 40
0.0
 40
0.0
 40
1.0
 40
1.0
 40
1.0
 40
1.0
 10
224.1906819228
 20
116.7976199451
 42
1.0
 10
224.5662814289
 20
116.8173042811
 42
0.906270941
 10
224.8790095876
 20
117.0262625563
 42
0.906270941
 10
225.0409312509
 20
117.3657383831
 42
1.0
 72
     1
 10
225.0409312509
 20
117.3657383831
 11
234.2361787382
 21
136.6439756445
 72
     4
 94
        3
 73
     1
 74
     0
 95
        8
 96
        4
 40
0.0
 40
0.0
 40
0.0
 40
0.0
 40
1.0
 40
1.0
 40
1.0
 40
1.0
 10
234.2361787382
 20
136.6439756445
 42
1.0
 10
234.4279565168
 20
137.0460461186
 42
0.9837980176
 10
234.5269702479
 20
137.4803681921
 42
0.9837980176
 10
234.5284072755
 20
137.9258312292
 42
1.0
 72
     1
 10
234.5284072755
 20
137.9258312292
 11
234.7174418925
 21
196.5245231394
 72
     4
 94
        3
 73
     1
 74
     0
 95
        8
 96
        4
 40
0.0
 40
0.0
 40
0.0
 40
0.0
 40
1.0
 40
1.0
 40
1.0
 40
1.0
 10
235.6999842828
 20
197.5211449327
 42
1.0
 10
235.1238455908001
 20
197.5110883944
 42
0.8095867034000001
 10
234.7193007425
 20
197.1007465953
 42
0.8095867034000001
 10
234.7174418925
 20
196.5245231394
 42
1.0
 72
     1
 10
235.6999842828
 20
197.5211449327
 11
240.7936862436
 21
197.6100558311
 72
     4
 94
        3
 73
     1
 74
     0
 95
        8
 96
        4
 40
0.0
 40
0.0
 40
0.0
 40
0.0
 40
1.0
 40
1.0
 40
1.0
 40
1.0
 10
240.7936862436
 20
197.6100558311
 42
1.0
 10
241.37131019
 20
197.6201382946
 42
0.8088336328
 10
241.7762338372
 20
198.0321915915
 42
0.8088336328
 10
241.7762338372
 20
198.6099035263
 42
1.0
 72
     1
 10
241.7762338372
 20
198.6099035263
 11
241.7762338372
 21
207.644509
 72
     4
 94
        3
 73
     1
 74
     0
 95
        8
 96
        4
 40
0.0
 40
0.0
 40
0.0
 40
0.0
 40
1.0
 40
1.0
 40
1.0
 40
1.0
 10
241.7762338372
 20
207.644509
 42
1.0
 10
241.7762338372
 20
208.2222209348
 42
0.8088336328
 10
241.37131019
 20
208.6342742317
 42
0.8088336328
 10
240.7936862436
 20
208.6443566952
 42
1.0
 72
     1
 10
240.7936862436
 20
208.6443566952
 11
235.7587814307
 21
208.7322412856
 72
     4
 94
        3
 73
     1
 74
     0
 95
        8
 96
        4
 40
0.0
 40
0.0
 40
0.0
 40
0.0
 40
1.0
 40
1.0
 40
1.0
 40
1.0
 10
234.7762338372
 20
209.7320889808
 42
1.0
 10
234.7762338372
 20
209.154377046
 42
0.8088336328
 10
235.1811574843
 20
208.7423237491
 42
0.8088336328
 10
235.7587814307
 20
208.7322412856
 42
1.0
 72
     1
 10
234.7762338372
 20
209.7320889808
 11
234.7762338372
 21
214.7493917177
 72
     1
 10
234.7762338372
 20
214.7493917177
 11
234.7775222766
 21
215.1487940434
 72
     4
 94
        3
 73
     1
 74
     0
 95
        8
 96
        4
 40
0.0
 40
0.0
 40
0.0
 40
0.0
 40
1.0
 40
1.0
 40
1.0
 40
1.0
 10
235.8124165701
 20
216.1449589684
 42
1.0
 10
235.2121738432
 20
216.1659199063
 42
0.7972118188
 10
234.779459781
 20
215.7493995197
 42
0.7972118188
 10
234.7775222766
 20
215.1487940434
 42
1.0
 72
     1
 10
258.8460328306
 20
215.3406073644
 11
235.8124165701
 21
216.1449589684
 72
     4
 94
        3
 73
     1
 74
     0
 95
        8
 96
        4
 40
0.0
 40
0.0
 40
0.0
 40
0.0
 40
1.0
 40
1.0
 40
1.0
 40
1.0
 10
260.7762338372
 20
213.3418257104
 42
1.0
 10
260.7762338372
 20
214.4812265079
 42
0.8128932001999999
 10
259.9847395359
 20
215.3008428501
 42
0.8128932001999999
 10
258.8460328306
 20
215.3406073644
 42
1.0
 72
     1
 10
260.7762338372
 20
210.5655197108
 11
260.7762338372
 21
213.3418257104
 72
     4
 94
        3
 73
     1
 74
     0
 95
        8
 96
        4
 40
0.0
 40
0.0
 40
0.0
 40
0.0
 40
1.0
 40
1.0
 40
1.0
 40
1.0
 10
258.9157467847
 20
208.5703916103
 42
1.0
 10
260.0207697288
 20
208.6476623418999
 42
0.8209024677
 10
260.7762338372
 20
209.4577984132
 42
0.8209024677
 10
260.7762338372
 20
210.5655197108
 42
1.0
 72
     1
 10
250.7285181197
 20
207.9978848111
 11
258.9157467847
 21
208.5703916103
 72
     4
 94
        3
 73
     1
 74
     0
 95
        8
 96
        4
 40
0.0
 40
0.0
 40
0.0
 40
0.0
 40
1.0
 40
1.0
 40
1.0
 40
1.0
 10
250.7285181197
 20
207.9978848111
 42
1.0
 10
249.1176825417
 20
207.8852442145
 42
0.828763217
 10
247.9959696878
 20
206.723676551
 42
0.828763217
 10
247.9396150598
 20
205.1098911504
 42
1.0
 72
     1
 10
247.6095510663
 20
195.6580950331
 11
247.9396150598
 21
205.1098911504
 72
     4
 94
        3
 73
     1
 74
     0
 95
        8
 96
        4
 40
0.0
 40
0.0
 40
0.0
 40
0.0
 40
1.0
 40
1.0
 40
1.0
 40
1.0
 10
245.3873144956
 20
192.8648764327999
 42
1.0
 10
246.709566502
 20
193.2189178985
 42
0.8692022420999998
 10
247.5617795862
 20
194.2900988294
 42
0.8692022420999998
 10
247.6095510663
 20
195.6580950331
 42
1.0
 72
     4
 94
        3
 73
     1
 74
     0
 95
        8
 96
        4
 40
0.0
 40
0.0
 40
0.0
 40
0.0
 40
1.0
 40
1.0
 40
1.0
 40
1.0
 10
245.3873144956
 20
192.8648764327999
 42
1.0
 10
244.0650624893
 20
192.5108349670999
 42
0.8692022420999998
 10
243.212849405
 20
191.4396540362
 42
0.8692022420999998
 10
243.1650779249
 20
190.0716578325
 42
1.0
 72
     1
 10
243.1650779249
 20
190.0716578325
 11
242.8709322322
 21
181.6484272751999
 72
     4
 94
        3
 73
     1
 74
     0
 95
        8
 96
        4
 40
0.0
 40
0.0
 40
0.0
 40
0.0
 40
1.0
 40
1.0
 40
1.0
 40
1.0
 10
242.8709318898
 20
181.6484239174
 42
1.0
 10
242.8462892015
 20
180.94274883
 42
0.9853167894
 10
242.6748999128
 20
180.257759558
 42
0.9853167894
 10
242.3643136589
 20
179.6236296265
 42
1.0
 72
     1
 10
242.3643137958
 20
179.6236296006
 11
242.2256404012
 21
179.3404974835
 72
     4
 94
        3
 73
     1
 74
     0
 95
        8
 96
        4
 40
0.0
 40
0.0
 40
0.0
 40
0.0
 40
1.0
 40
1.0
 40
1.0
 40
1.0
 10
242.2256417082
 20
179.3405004873
 42
1.0
 10
241.9150541433
 20
178.7063702263
 42
0.9853167536
 10
241.7436638176
 20
178.0213803142
 42
0.9853167536
 10
241.7190204302
 20
177.3157043781
 42
1.0
 72
     1
 10
241.7190206713
 20
177.3157044062
 11
240.3180568362
 21
137.1973491838
 72
     4
 94
        3
 73
     1
 74
     0
 95
        8
 96
        4
 40
0.0
 40
0.0
 40
0.0
 40
0.0
 40
1.0
 40
1.0
 40
1.0
 40
1.0
 10
240.3180568362
 20
137.1973491838
 42
1.0
 10
240.3036414688
 20
136.7845470721
 42
0.986030315
 10
240.2054644238
 20
136.3833306043
 42
0.986030315
 10
240.0276402082
 20
136.0105143834
 42
1.0
 72
     1
 10
240.0276402082
 20
136.0105143835
 11
237.7763716025
 21
131.2906315984
 72
     4
 94
        3
 73
     1
 74
     0
 95
        8
 96
        4
 40
0.0
 40
0.0
 40
0.0
 40
0.0
 40
1.0
 40
1.0
 40
1.0
 40
1.0
 10
237.77637156
 20
131.2906316202
 42
1.0
 10
236.7674004278
 20
129.1752814952
 42
0.7068498296
 10
237.9542583487
 20
127.1543665606
 42
0.7068498296
 10
240.2931625177
 20
127.0051814885
 42
1.0
 72
     4
 94
        3
 73
     0
 74
     0
 95
        8
 96
        4
 40
0.0
 40
0.0
 40
0.0
 40
0.0
 40
1.0
 40
1.0
 40
1.0
 40
1.0
 10
240.2931624065
 20
127.0051824191
 10
247.0480225526
 20
126.5743282708
 10
254.0308649182
 20
127.2493827578
 10
260.7760995464
 20
127.2493917176
 72
     1
 10
260.7762338372
 20
127.2493917176
 11
325.7762338372
 21
127.2493917176
 97
        0
 75
     0
 76
     0
 52
45.0
 41
5.0
 77
     0
 78
     1
 53
45.0
 43
0.0
 44
0.0
 45
-3.535533905899999
 46
3.535533905899999
 79
     0
 98
        1
 10
0.0
 20
0.0
  0
DIMENSION
  5
252
330
215
100
AcDbEntity
  8
ZEICHNUNGSBEMASSUNGEN
  6
Continuous
 62
     7
100
AcDbDimension
  2
*D1
 10
334.6634822916001
 20
216.1449590319
 30
0.0
 11
334.6634822916
 21
154.1799366351
 31
0.0
 70
   160
 71
     2
 42
117.8955673142999
  3
DIMSTYLE_2
100
AcDbAlignedDimension
 13
330.2762338372001
 23
98.2493917176
 33
0.0
 14
237.3124147539
 24
216.1449590319
 34
0.0
 50
90.0
100
AcDbRotatedDimension
1001
ACAD_DSTYLE_DIMINSPECT
1070
   396
1000
100%
1070
   395
1000

1070
   394
1070
    33
1070
   393
1070
     0
1001
ACAD
1000
DSTYLE
1002
{
1070
    41
1040
5.0
1070
   140
1040
7.0
1070
   147
1040
1.5
1070
   178
1070
   256
1070
   271
1070
     0
1002
}
  0
DIMENSION
  5
253
330
215
100
AcDbEntity
  8
ZEICHNUNGSBEMASSUNGEN
  6
Continuous
 62
     7
100
AcDbDimension
  2
*D2
 10
325.7762338372
 20
56.54171748756084
 30
0.0
 11
244.7762338372
 21
56.54171748756084
 31
0.0
 70
   160
 71
     2
 42
155.0
  3
DIMSTYLE_2
100
AcDbAlignedDimension
 13
170.7762338371999
 23
64.62938669260001
 33
0.0
 14
325.7762338372
 24
67.7493917176
 34
0.0
100
AcDbRotatedDimension
1001
ACAD
1000
DSTYLE
1002
{
1070
    41
1040
5.0
1070
   140
1040
7.0
1070
   147
1040
1.5
1070
   178
1070
   256
1002
}
  0
DIMENSION
  5
254
330
215
100
AcDbEntity
  8
ZEICHNUNGSBEMASSUNGEN
  6
Continuous
 62
     7
100
AcDbDimension
  2
*D3
 10
260.7762338372
 20
258.9609736735363
 30
0.0
 11
167.7345671705
 21
258.9609736735363
 31
0.0
 70
   160
  1
%%c<>
 71
     2
 42
180.0
  3
DIMSTYLE_2
100
AcDbAlignedDimension
 13
80.7762338372
 23
214.8418257104
 33
0.0
 14
260.7762338372
 24
214.8418257104
 34
0.0
100
AcDbRotatedDimension
1001
ACAD
1000
DSTYLE
1002
{
1070
    41
1040
5.0
1070
   140
1040
7.0
1070
   147
1040
1.5
1070
   178
1070
   256
1002
}
  0
DIMENSION
  5
255
330
215
100
AcDbEntity
  8
ZEICHNUNGSBEMASSUNGEN
  6
Continuous
 62
     7
100
AcDbDimension
  2
*D4
 10
93.51858167059999
 20
248.2506091399
 30
0.0
 11
167.8595671705
 21
248.2506091399
 31
0.0
 70
   160
  1
%%c<>
 71
     2
 42
154.5153043332
  3
DIMSTYLE_2
100
AcDbAlignedDimension
 13
248.0338860038
 23
209.3094577778
 33
0.0
 14
93.51858167059999
 24
209.3094577778
 34
0.0
 50
180.0
100
AcDbRotatedDimension
1001
ACAD_DSTYLE_DIMINSPECT
1070
   396
1000
100%
1070
   395
1000

1070
   394
1070
    33
1070
   393
1070
     0
1001
ACAD
1000
DSTYLE
1002
{
1070
    41
1040
5.0
1070
   140
1040
7.0
1070
   147
1040
1.5
1070
   178
1070
   256
1070
   271
1070
     0
1002
}
  0
DIMENSION
  5
256
330
215
100
AcDbEntity
  8
ZEICHNUNGSBEMASSUNGEN
  6
Continuous
 62
     7
100
AcDbDimension
  2
*D5
 10
69.8452186939
 20
69.24939171760001
 30
0.0
 11
69.8452186939
 21
139.3446878897
 31
0.0
 70
   160
 71
     2
 42
146.8955673212
  3
DIMSTYLE_2
100
AcDbAlignedDimension
 13
104.2400531198
 23
216.1449590388
 33
0.0
 14
133.7762338372
 24
69.24939171760001
 34
0.0
 50
270.0
100
AcDbRotatedDimension
1001
ACAD_DSTYLE_DIMINSPECT
1070
   396
1000
100%
1070
   395
1000

1070
   394
1070
    33
1070
   393
1070
     0
1001
ACAD
1000
DSTYLE
1002
{
1070
    41
1040
5.0
1070
   140
1040
7.0
1070
   147
1040
1.5
1070
   178
1070
   256
1070
   271
1070
     0
1002
}
  0
LINE
  5
258
330
215
100
AcDbEntity
  8
0
  6
Continuous
 62
     7
100
AcDbLine
 10
80.7762338372
 20
210.5655197108
 30
0.0
 11
80.7762338372
 21
213.3418257104
 31
0.0
  0
LINE
  5
259
330
215
100
AcDbEntity
  8
0
  6
Continuous
 62
     7
100
AcDbLine
 10
93.94291660799998
 20
195.6580950331
 30
0.0
 11
93.61285261450001
 21
205.1098911504
 31
0.0
  0
LINE
  5
25A
330
215
100
AcDbEntity
  8
0
  6
Continuous
 62
     7
100
AcDbLine
 10
98.3873897494
 20
190.0716578325
 30
0.0
 11
98.68153631570001
 21
181.6484022582
 31
0.0
  0
LINE
  5
25B
330
215
100
AcDbEntity
  8
0
  6
Continuous
 62
     7
100
AcDbLine
 10
99.8334481678
 20
177.3156710497
 30
0.0
 11
101.2344108381
 21
137.1973491838
 31
0.0
  0
LINE
  5
25C
330
215
100
AcDbEntity
  8
0
  6
Continuous
 62
     7
100
AcDbLine
 10
99.77623383720001
 20
198.6099035263
 30
0.0
 11
99.77623383720001
 21
207.644509
 31
0.0
  0
LINE
  5
25D
330
215
100
AcDbEntity
  8
0
  6
Continuous
 62
     7
100
AcDbLine
 10
101.5248274661
 20
136.0105143835
 30
0.0
 11
115.007852274
 21
107.7427650261
 31
0.0
  0
LINE
  5
25E
330
215
100
AcDbEntity
  8
0
  6
Continuous
 62
     7
100
AcDbLine
 10
107.0240603989
 20
137.9258312292
 30
0.0
 11
106.8350257818
 21
196.5245231394
 31
0.0
  0
LINE
  5
25F
330
215
100
AcDbEntity
  8
0
  6
Continuous
 62
     7
100
AcDbLine
 10
106.7762338372
 20
214.7493917177
 30
0.0
 11
106.7749453977
 21
215.1487940434
 31
0.0
  0
LINE
  5
260
330
215
100
AcDbEntity
  8
0
  6
Continuous
 62
     7
100
AcDbLine
 10
106.7762338372
 20
209.7320889808
 30
0.0
 11
106.7762338372
 21
214.7493917177
 31
0.0
  0
LINE
  5
261
330
215
100
AcDbEntity
  8
0
  6
Continuous
 62
     7
100
AcDbLine
 10
116.5115364234
 20
117.3657383831
 30
0.0
 11
107.3162889361
 21
136.6439756445
 31
0.0
  0
LINE
  5
262
330
215
100
AcDbEntity
  8
0
  6
Continuous
 62
     7
100
AcDbLine
 10
125.2762338372
 20
79.24939171760001
 30
0.0
 11
125.2762338372
 21
102.7870519749
 31
0.0
  0
LINE
  5
263
330
215
100
AcDbEntity
  8
0
  6
Continuous
 62
     7
100
AcDbLine
 10
135.2762338371999
 20
69.24939171760001
 30
0.0
 11
228.7762338372
 21
69.24939171760001
 31
0.0
  0
LINE
  5
264
330
215
100
AcDbEntity
  8
0
  6
Continuous
 62
     7
100
AcDbLine
 10
260.7762338372
 20
69.24939171760001
 30
0.0
 11
325.7762338372
 21
69.24939171760001
 31
0.0
  0
LINE
  5
265
330
215
100
AcDbEntity
  8
0
  6
Continuous
 62
     7
100
AcDbLine
 10
135.2762338371999
 20
74.7493917176
 30
0.0
 11
325.7762338372
 21
74.7493917176
 31
0.0
  0
LINE
  5
266
330
215
100
AcDbEntity
  8
0
  6
Continuous
 62
     7
100
AcDbLine
 10
99.3268308492
 20
179.3404700267
 30
0.0
 11
99.1881563065
 21
179.6236044373
 31
0.0
  0
LINE
  5
267
330
215
100
AcDbEntity
  8
0
  6
Continuous
 62
     7
100
AcDbLine
 10
130.7762338372
 20
79.24939171760001
 30
0.0
 11
130.7762338372
 21
95.73236157889999
 31
0.0
  0
LINE
  5
268
330
215
100
AcDbEntity
  8
0
  6
Continuous
 62
     7
100
AcDbLine
 10
133.2762338371999
 20
104.9462763256
 30
0.0
 11
133.2762338371999
 21
115.0146144957
 31
0.0
  0
LINE
  5
26C
330
215
100
AcDbEntity
  8
0
  6
Continuous
 62
     7
100
AcDbLine
 10
140.7762338372
 20
98.73281833660001
 30
0.0
 11
140.7762338372
 21
102.8499688124
 31
0.0
  0
LINE
  5
26D
330
215
100
AcDbEntity
  8
RUNDUNGEN
  6
Continuous
 62
     9
100
AcDbLine
 10
153.2967339601
 20
137.9258312292
 30
0.0
 11
153.2898266712
 21
146.205494098
 31
0.0
  0
LINE
  5
26E
330
215
100
AcDbEntity
  8
RUNDUNGEN
  6
Continuous
 62
     9
100
AcDbLine
 10
154.5315960807
 20
144.2056366602
 30
0.0
 11
154.5368372455
 21
137.9290571311
 31
0.0
  0
LINE
  5
26F
330
215
100
AcDbEntity
  8
0
  6
Continuous
 62
     7
100
AcDbLine
 10
201.7587814307
 20
103.8498165075
 30
0.0
 11
207.2936862436
 21
103.9464286304
 31
0.0
  0
LINE
  5
270
330
215
100
AcDbEntity
  8
RUNDUNGEN
  6
Continuous
 62
     9
100
AcDbLine
 10
170.7762338371999
 20
95.06906895209999
 30
0.0
 11
190.7762011465
 21
95.06906895209999
 31
0.0
  0
LINE
  5
271
330
215
100
AcDbEntity
  8
RUNDUNGEN
  6
Continuous
 62
     9
100
AcDbLine
 10
170.7762338371999
 20
97.06876434240001
 30
0.0
 11
190.7762011465
 21
97.06876434240001
 31
0.0
  0
LINE
  5
272
330
215
100
AcDbEntity
  8
0
  6
Continuous
 62
     7
100
AcDbLine
 10
201.7762338368
 20
97.73236141940001
 30
0.0
 11
214.2771477117
 21
97.73236141940001
 31
0.0
  0
LINE
  5
273
330
215
100
AcDbEntity
  8
0
  6
Continuous
 62
     7
100
AcDbLine
 10
139.7762387627
 20
97.73266607549999
 30
0.0
 11
132.7762505606
 21
97.73266607549999
 31
0.0
  0
LINE
  5
274
330
215
100
AcDbEntity
  8
0
  6
CENTER
100
AcDbLine
 10
328.7762338372
 20
98.2493917176
 30
0.0
 11
170.7762338371999
 21
98.2493917176
 31
0.0
  0
LINE
  5
275
330
215
100
AcDbEntity
  8
0
  6
Continuous
 62
     9
100
AcDbLine
 10
140.7762338372
 20
102.8499688124
 30
0.0
 11
200.7762338372
 21
102.8499688124
 31
0.0
  0
LINE
  5
276
330
215
100
AcDbEntity
  8
0
  6
Continuous
 62
     9
100
AcDbLine
 10
139.7936862436
 20
103.8498165075
 30
0.0
 11
201.7587814307
 21
103.8498165075
 31
0.0
  0
LINE
  5
277
330
215
100
AcDbEntity
  8
0
  6
Continuous
 62
     9
100
AcDbLine
 10
134.2587814307
 20
103.9464286304
 30
0.0
 11
207.2936862436
 21
103.9464286304
 31
0.0
  0
LINE
  5
278
330
215
100
AcDbEntity
  8
RUNDUNGEN
  6
Continuous
 62
     9
100
AcDbLine
 10
220.3864610484
 20
101.9909968886
 30
0.0
 11
218.1167813878
 21
101.9920031789
 31
0.0
  0
LINE
  5
279
330
215
100
AcDbEntity
  8
RUNDUNGEN
  6
Continuous
 62
     9
100
AcDbLine
 10
220.385355439
 20
99.11668846959999
 30
0.0
 11
218.1166850751
 21
99.1181584233
 31
0.0
  0
LINE
  5
27A
330
215
100
AcDbEntity
  8
0
  6
Continuous
 62
     7
100
AcDbLine
 10
139.7936862436
 20
103.8498165075
 30
0.0
 11
134.2587814307
 21
103.9464286304
 31
0.0
  0
LINE
  5
27B
330
215
100
AcDbEntity
  8
0
  6
Continuous
 62
     7
100
AcDbLine
 10
117.5586002584
 20
106.0384097122
 30
0.0
 11
122.4332417059
 21
105.7829405791
 31
0.0
  0
LINE
  5
27C
330
215
100
AcDbEntity
  8
RUNDUNGEN
  6
Continuous
 62
     9
100
AcDbLine
 10
216.1409637534
 20
97.1112896173
 30
0.0
 11
214.2771477126
 21
97.73205680970001
 31
0.0
  0
LINE
  5
27D
330
215
100
AcDbEntity
  8
RUNDUNGEN
  6
Continuous
 62
     9
100
AcDbLine
 10
158.2815029047
 20
209.6299388799
 30
0.0
 11
158.2815156389
 21
214.941250713
 31
0.0
  0
LINE
  5
27E
330
215
100
AcDbEntity
  8
RUNDUNGEN
  6
Continuous
 62
     9
100
AcDbLine
 10
159.0028117939
 20
139.2320889808
 30
0.0
 11
159.0028117939
 21
143.3004271509
 31
0.0
  0
LINE
  5
27F
330
215
100
AcDbEntity
  8
RUNDUNGEN
  6
Continuous
 62
     9
100
AcDbLine
 10
159.0827315152
 20
209.6299397744
 30
0.0
 11
159.0826861686
 21
214.9011675666
 31
0.0
  0
LINE
  5
280
330
215
100
AcDbEntity
  8
RUNDUNGEN
  6
Continuous
 62
     9
100
AcDbLine
 10
160.2062650095
 20
139.2320889808
 30
0.0
 11
160.2062650095
 21
143.3004271509
 31
0.0
  0
LINE
  5
281
330
215
100
AcDbEntity
  8
0
  6
Continuous
 62
     7
100
AcDbLine
 10
162.7762338372
 20
217.1256091399
 30
0.0
 11
162.7762338372
 21
215.9011675666
 31
0.0
  0
LINE
  5
282
330
215
100
AcDbEntity
  8
0
  6
Continuous
 62
     7
100
AcDbLine
 10
162.7762338372
 20
217.6256091399
 30
0.0
 11
162.7762338372
 21
227.6256091399
 31
0.0
  0
LINE
  5
283
330
215
100
AcDbEntity
  8
0
  6
Continuous
 62
     7
100
AcDbLine
 10
163.7762338372
 20
227.6256091399
 30
0.0
 11
163.7762338372
 21
235.6256091399
 31
0.0
  0
LINE
  5
284
330
215
100
AcDbEntity
  8
0
  6
Continuous
 62
     7
100
AcDbLine
 10
164.2762338372
 20
217.6256091399
 30
0.0
 11
164.2762338372
 21
217.2756091399
 31
0.0
  0
LINE
  5
285
330
215
100
AcDbEntity
  8
0
  6
Continuous
 62
     7
100
AcDbLine
 10
164.9762338372
 20
217.2756091399
 30
0.0
 11
164.9762338372
 21
217.1256091399
 31
0.0
  0
LINE
  5
286
330
215
100
AcDbEntity
  8
RUNDUNGEN
  6
Continuous
 62
     9
100
AcDbLine
 10
155.8259555289
 20
193.0613894322
 30
0.0
 11
155.8291554635
 21
196.5245231394
 31
0.0
  0
LINE
  5
287
330
215
100
AcDbEntity
  8
RUNDUNGEN
  6
Continuous
 62
     9
100
AcDbLine
 10
155.8459958183
 20
209.7320889808
 30
0.0
 11
155.8463620744
 21
215.1487940434
 31
0.0
  0
LINE
  5
288
330
215
100
AcDbEntity
  8
RUNDUNGEN
  6
Continuous
 62
     9
100
AcDbLine
 10
156.5786366755
 20
209.7320898787
 30
0.0
 11
156.5790145645
 21
215.1455681414
 31
0.0
  0
LINE
  5
289
330
215
100
AcDbEntity
  8
0
  6
Continuous
 62
     7
100
AcDbLine
 10
218.1743066167
 20
105.7306709957
 30
0.0
 11
224.5930263091
 21
106.0670618406
 31
0.0
  0
LINE
  5
28A
330
215
100
AcDbEntity
  8
0
  6
Continuous
 62
     9
100
AcDbLine
 10
133.2762338371999
 20
104.9462763256
 30
0.0
 11
208.2762338372
 21
104.9462763256
 31
0.0
  0
LINE
  5
28B
330
215
100
AcDbEntity
  8
0
  6
Continuous
 62
     7
100
AcDbLine
 10
132.3285697934
 20
116.0132440305
 30
0.0
 11
117.3617857515
 21
116.7976199451
 31
0.0
  0
LINE
  5
28C
330
215
100
AcDbEntity
  8
RUNDUNGEN
  6
Continuous
 62
     9
100
AcDbLine
 10
218.1166850751
 20
99.1181584233
 30
0.0
 11
216.2817194597
 21
99.72931662149999
 31
0.0
  0
LINE
  5
28D
330
215
100
AcDbEntity
  8
RUNDUNGEN
  6
Continuous
 62
     9
100
AcDbLine
 10
170.7762338371999
 20
79.3783833672
 30
0.0
 11
170.7762338371999
 21
97.06876434240001
 31
0.0
  0
LINE
  5
28E
330
215
100
AcDbEntity
  8
0
  6
CENTER
100
AcDbLine
 10
170.7762338371999
 20
66.1293866926
 30
0.0
 11
170.7762338371999
 21
219.1455681414
 31
0.0
  0
LINE
  5
28F
330
215
100
AcDbEntity
  8
0
  6
Continuous
 62
     7
100
AcDbLine
 10
209.2238978809
 20
116.0132440305
 30
0.0
 11
224.1906819228
 21
116.7976199451
 31
0.0
  0
LINE
  5
290
330
215
100
AcDbEntity
  8
0
  6
Continuous
 62
     9
100
AcDbLine
 10
208.2762338372
 20
115.0146144957
 30
0.0
 11
133.2762338371999
 21
115.0146144957
 31
0.0
  0
LINE
  5
291
330
215
100
AcDbEntity
  8
0
  6
Continuous
 62
     9
100
AcDbLine
 10
209.2238978809
 20
116.0132440305
 30
0.0
 11
132.3285697934
 21
116.0132440305
 31
0.0
  0
LINE
  5
292
330
215
100
AcDbEntity
  8
RUNDUNGEN
  6
Continuous
 62
     9
100
AcDbLine
 10
159.6688613189
 20
116.4357877648
 30
0.0
 11
181.8836063554
 21
116.4357877648
 31
0.0
  0
LINE
  5
293
330
215
100
AcDbEntity
  8
0
  6
Continuous
 62
     9
100
AcDbLine
 10
117.3617857515
 20
116.7976199451
 30
0.0
 11
155.9871119226
 21
116.7976199453
 31
0.0
  0
LINE
  5
294
330
215
100
AcDbEntity
  8
0
  6
Continuous
 62
     9
100
AcDbLine
 10
185.5653557518
 20
116.7976199453
 30
0.0
 11
224.1906819228
 21
116.7976199451
 31
0.0
  0
LINE
  5
295
330
215
100
AcDbEntity
  8
RUNDUNGEN
  6
Continuous
 62
     9
100
AcDbLine
 10
159.4469467697
 20
117.2436083041
 30
0.0
 11
182.1055207998
 21
117.2436083041
 31
0.0
  0
LINE
  5
296
330
215
100
AcDbEntity
  8
0
  6
Continuous
 62
     9
100
AcDbLine
 10
116.5115364234
 20
117.3657383831
 30
0.0
 11
155.7516991941
 21
117.3657383829
 31
0.0
  0
LINE
  5
297
330
215
100
AcDbEntity
  8
0
  6
Continuous
 62
     9
100
AcDbLine
 10
185.8007718779
 20
117.3657383829
 30
0.0
 11
225.0409312509
 21
117.3657383831
 31
0.0
  0
LINE
  5
298
330
215
100
AcDbEntity
  8
0
  6
Continuous
 62
     7
100
AcDbLine
 10
260.7762338372
 20
121.7493917176
 30
0.0
 11
325.7762338372
 21
121.7493917176
 31
0.0
  0
LINE
  5
299
330
215
100
AcDbEntity
  8
0
  6
Continuous
 62
     7
100
AcDbLine
 10
176.5762338372
 20
217.2756091399
 30
0.0
 11
176.5762338372
 21
217.1256091399
 31
0.0
  0
LINE
  5
29A
330
215
100
AcDbEntity
  8
0
  6
Continuous
 62
     7
100
AcDbLine
 10
177.2762338372
 20
217.2756091399
 30
0.0
 11
177.2762338372
 21
217.6256091399
 31
0.0
  0
LINE
  5
29B
330
215
100
AcDbEntity
  8
0
  6
Continuous
 62
     7
100
AcDbLine
 10
177.7762338372
 20
227.6256091399
 30
0.0
 11
177.7762338372
 21
235.6256091399
 31
0.0
  0
LINE
  5
29C
330
215
100
AcDbEntity
  8
0
  6
Continuous
 62
     7
100
AcDbLine
 10
178.7762338372
 20
217.1256091399
 30
0.0
 11
178.7762338372
 21
215.9011675666
 31
0.0
  0
LINE
  5
29D
330
215
100
AcDbEntity
  8
0
  6
Continuous
 62
     7
100
AcDbLine
 10
178.7762338372
 20
217.6256091399
 30
0.0
 11
178.7762338372
 21
227.6256091399
 31
0.0
  0
LINE
  5
29E
330
215
100
AcDbEntity
  8
RUNDUNGEN
  6
Continuous
 62
     9
100
AcDbLine
 10
181.3462026648
 20
143.3004271509
 30
0.0
 11
181.3462026648
 21
139.2320889808
 31
0.0
  0
LINE
  5
29F
330
215
100
AcDbEntity
  8
RUNDUNGEN
  6
Continuous
 62
     9
100
AcDbLine
 10
182.4697814709999
 20
214.9011675666
 30
0.0
 11
182.4697361592
 21
209.6299397765
 31
0.0
  0
LINE
  5
2A0
330
215
100
AcDbEntity
  8
RUNDUNGEN
  6
Continuous
 62
     9
100
AcDbLine
 10
182.5496558805
 20
143.3004271509
 30
0.0
 11
182.5496558805
 21
139.2320889808
 31
0.0
  0
LINE
  5
2A1
330
215
100
AcDbEntity
  8
RUNDUNGEN
  6
Continuous
 62
     9
100
AcDbLine
 10
183.2709520331
 20
214.9412507127
 30
0.0
 11
183.2709647697
 21
209.6299386228
 31
0.0
  0
LINE
  5
2A2
330
215
100
AcDbEntity
  8
0
  6
Continuous
 62
     7
100
AcDbLine
 10
260.7762338372
 20
127.2493917176
 30
0.0
 11
325.7762338372
 21
127.2493917176
 31
0.0
  0
LINE
  5
2A3
330
215
100
AcDbEntity
  8
RUNDUNGEN
  6
Continuous
 62
     9
100
AcDbLine
 10
218.1167813878
 20
101.9920031786
 30
0.0
 11
216.2817194597
 21
103.7334119261
 31
0.0
  0
LINE
  5
2A4
330
215
100
AcDbEntity
  8
RUNDUNGEN
  6
Continuous
 62
     9
100
AcDbLine
 10
220.0095119941
 20
103.986525074
 30
0.0
 11
218.1744500659
 21
105.7279338215
 31
0.0
  0
LINE
  5
2A5
330
215
100
AcDbEntity
  8
RUNDUNGEN
  6
Continuous
 62
     9
100
AcDbLine
 10
185.7233122108
 20
196.5245231394
 30
0.0
 11
185.7265121454
 21
193.0613894319
 31
0.0
  0
LINE
  5
2A6
330
215
100
AcDbEntity
  8
RUNDUNGEN
  6
Continuous
 62
     9
100
AcDbLine
 10
184.9734531099
 20
215.1455681414
 30
0.0
 11
184.9738309988
 21
209.7320897336
 31
0.0
  0
LINE
  5
2A7
330
215
100
AcDbEntity
  8
RUNDUNGEN
  6
Continuous
 62
     9
100
AcDbLine
 10
185.7061055999
 20
215.1487940434
 30
0.0
 11
185.7064718561
 21
209.7320889808
 31
0.0
  0
LINE
  5
2A8
330
215
100
AcDbEntity
  8
RUNDUNGEN
  6
Continuous
 62
     9
100
AcDbLine
 10
190.7762011465
 20
95.06906895209999
 30
0.0
 11
190.7762011465
 21
97.06876434240001
 31
0.0
  0
LINE
  5
2A9
330
215
100
AcDbEntity
  8
RUNDUNGEN
  6
Continuous
 62
     9
100
AcDbLine
 10
187.0156304288
 20
137.9290571311
 30
0.0
 11
187.0208715936
 21
144.2056366602
 31
0.0
  0
LINE
  5
2AA
330
215
100
AcDbEntity
  8
RUNDUNGEN
  6
Continuous
 62
     9
100
AcDbLine
 10
188.2626410032
 20
146.205494098
 30
0.0
 11
188.2557337142
 21
137.9258312292
 31
0.0
  0
LINE
  5
2AB
330
215
100
AcDbEntity
  8
0
  6
Continuous
 62
     9
100
AcDbLine
 10
234.2361787382
 20
136.6439756445
 30
0.0
 11
188.1786398672
 21
136.6439756462
 31
0.0
  0
LINE
  5
2AC
330
215
100
AcDbEntity
  8
0
  6
Continuous
 62
     9
100
AcDbLine
 10
153.3738278071
 20
136.6439756462
 30
0.0
 11
107.3162889361
 21
136.6439756445
 31
0.0
  0
LINE
  5
2AD
330
215
100
AcDbEntity
  8
RUNDUNGEN
  6
Continuous
 62
     9
100
AcDbLine
 10
158.4929009511
 20
136.9573671501
 30
0.0
 11
183.0595667234
 21
136.9573671501
 31
0.0
  0
LINE
  5
2AE
330
215
100
AcDbEntity
  8
0
  6
Continuous
 62
     9
100
AcDbLine
 10
107.0240603989
 20
137.9258312292
 30
0.0
 11
153.2967339601
 21
137.9258312292
 31
0.0
  0
LINE
  5
2AF
330
215
100
AcDbEntity
  8
0
  6
Continuous
 62
     9
100
AcDbLine
 10
188.2557337142
 20
137.9258312292
 30
0.0
 11
234.5284072755
 21
137.9258312292
 31
0.0
  0
LINE
  5
2B0
330
215
100
AcDbEntity
  8
RUNDUNGEN
  6
Continuous
 62
     9
100
AcDbLine
 10
158.7238750618
 20
138.1480238407
 30
0.0
 11
182.8285926126
 21
138.1480238407
 31
0.0
  0
LINE
  5
2B1
330
215
100
AcDbEntity
  8
RUNDUNGEN
  6
Continuous
 62
     9
100
AcDbLine
 10
181.5795846296
 20
138.2322412856
 30
0.0
 11
159.9728830447
 21
138.2322412856
 31
0.0
  0
LINE
  5
2B2
330
215
100
AcDbEntity
  8
RUNDUNGEN
  6
Continuous
 62
     9
100
AcDbLine
 10
182.5496558805
 20
139.2320889808
 30
0.0
 11
159.0028117939
 21
139.2320889808
 31
0.0
  0
LINE
  5
2B3
330
215
100
AcDbEntity
  8
RUNDUNGEN
  6
Continuous
 62
     9
100
AcDbLine
 10
182.5496558805
 20
143.3004271509
 30
0.0
 11
159.0028117939
 21
143.3004271509
 31
0.0
  0
LINE
  5
2B4
330
215
100
AcDbEntity
  8
0
  6
Continuous
 62
     7
100
AcDbLine
 10
200.7762338372
 20
98.73236141940001
 30
0.0
 11
200.7762338372
 21
102.8499688124
 31
0.0
  0
LINE
  5
2B5
330
215
100
AcDbEntity
  8
RUNDUNGEN
  6
Continuous
 62
     9
100
AcDbLine
 10
181.5712988311
 20
144.2990566857
 30
0.0
 11
159.9811688432
 21
144.2990566857
 31
0.0
  0
LINE
  5
2B6
330
215
100
AcDbEntity
  8
RUNDUNGEN
  6
Continuous
 62
     9
100
AcDbLine
 10
155.4784973262
 20
145.2100904652
 30
0.0
 11
186.0739703481
 21
145.2100904652
 31
0.0
  0
LINE
  5
2B7
330
215
100
AcDbEntity
  8
RUNDUNGEN
  6
Continuous
 62
     9
100
AcDbLine
 10
153.2898266712
 20
146.205494098
 30
0.0
 11
188.2626410032
 21
146.205494098
 31
0.0
  0
LINE
  5
2B8
330
215
100
AcDbEntity
  8
RUNDUNGEN
  6
Continuous
 62
     9
100
AcDbLine
 10
224.5931752933
 20
106.0643249565
 30
0.0
 11
225.7539269569
 21
104.3327347086
 31
0.0
  0
LINE
  5
2B9
330
215
100
AcDbEntity
  8
RUNDUNGEN
  6
Continuous
 62
     9
100
AcDbLine
 10
226.2913441403
 20
107.1989947572
 30
0.0
 11
227.4130927759
 21
105.5255885851
 31
0.0
  0
LINE
  5
2BA
330
215
100
AcDbEntity
  8
0
  6
Continuous
 62
     7
100
AcDbLine
 10
208.2762338372
 20
104.9462763256
 30
0.0
 11
208.2762338372
 21
115.0146144957
 31
0.0
  0
LINE
  5
2BB
330
215
100
AcDbEntity
  8
0
  6
Continuous
 62
     9
100
AcDbLine
 10
214.2771477126
 20
97.73205680970001
 30
0.0
 11
214.2771477114
 21
97.73236141940001
 31
0.0
  0
LINE
  5
2BC
330
215
100
AcDbEntity
  8
0
  6
Continuous
 62
     9
100
AcDbLine
 10
201.776189623
 20
97.73205680970001
 30
0.0
 11
201.7762338372
 21
97.73236141940001
 31
0.0
  0
LINE
  5
2BD
330
215
100
AcDbEntity
  8
0
  6
Continuous
 62
     7
100
AcDbLine
 10
216.2789785292
 20
99.72931662149999
 30
0.0
 11
216.2789785292
 21
103.7334119261
 31
0.0
  0
LINE
  5
2BE
330
215
100
AcDbEntity
  8
0
  6
Continuous
 62
     7
100
AcDbLine
 10
242.3643137958
 20
179.6236296006
 30
0.0
 11
242.2256404012
 21
179.3404974835
 31
0.0
  0
LINE
  5
2BF
330
215
100
AcDbEntity
  8
0
  6
Continuous
 62
     7
100
AcDbLine
 10
234.7762338372
 20
209.7320889808
 30
0.0
 11
234.7762338372
 21
214.7493917177
 31
0.0
  0
LINE
  5
2C0
330
215
100
AcDbEntity
  8
0
  6
Continuous
 62
     7
100
AcDbLine
 10
241.7762338372
 20
198.6099035263
 30
0.0
 11
241.7762338372
 21
207.644509
 31
0.0
  0
LINE
  5
2C1
330
215
100
AcDbEntity
  8
0
  6
Continuous
 62
     7
100
AcDbLine
 10
234.5284072755
 20
137.9258312292
 30
0.0
 11
234.7174418925
 21
196.5245231394
 31
0.0
  0
LINE
  5
2C2
330
215
100
AcDbEntity
  8
0
  6
Continuous
 62
     7
100
AcDbLine
 10
234.7762338372
 20
214.7493917177
 30
0.0
 11
234.7775222766
 21
215.1487940434
 31
0.0
  0
LINE
  5
2C3
330
215
100
AcDbEntity
  8
0
  6
Continuous
 62
     7
100
AcDbLine
 10
241.7190206713
 20
177.3157044062
 30
0.0
 11
240.3180568362
 21
137.1973491838
 31
0.0
  0
LINE
  5
2C4
330
215
100
AcDbEntity
  8
0
  6
Continuous
 62
     7
100
AcDbLine
 10
243.1650779249
 20
190.0716578325
 30
0.0
 11
242.8709322322
 21
181.6484272751999
 31
0.0
  0
LINE
  5
2C5
330
215
100
AcDbEntity
  8
0
  6
Continuous
 62
     7
100
AcDbLine
 10
225.0409312509
 20
117.3657383831
 30
0.0
 11
234.2361787382
 21
136.6439756445
 31
0.0
  0
LINE
  5
2C6
330
215
100
AcDbEntity
  8
0
  6
Continuous
 62
     7
100
AcDbLine
 10
240.0276402082
 20
136.0105143835
 30
0.0
 11
237.7763716025
 21
131.2906315984
 31
0.0
  0
LINE
  5
2C7
330
215
100
AcDbEntity
  8
0
  6
Continuous
 62
     7
100
AcDbLine
 10
226.2888615395
 20
107.2001791558
 30
0.0
 11
232.8380919566999
 21
120.9309262661
 31
0.0
  0
LINE
  5
2C8
330
215
100
AcDbEntity
  8
RUNDUNGEN
  6
Continuous
 62
     9
100
AcDbLine
 10
157.3592443
 20
191.2267500553
 30
0.0
 11
184.1932233748
 21
191.2267500553
 31
0.0
  0
LINE
  5
2C9
330
215
100
AcDbEntity
  8
RUNDUNGEN
  6
Continuous
 62
     9
100
AcDbLine
 10
157.2844297047
 20
191.9895685965
 30
0.0
 11
184.2680379696
 21
191.9895685965
 31
0.0
  0
LINE
  5
2CA
330
215
100
AcDbEntity
  8
0
  6
Continuous
 62
     7
100
AcDbLine
 10
247.6095510663
 20
195.6580950331
 30
0.0
 11
247.9396150598
 21
205.1098911504
 31
0.0
  0
LINE
  5
2CB
330
215
100
AcDbEntity
  8
0
  6
Continuous
 62
     7
100
AcDbLine
 10
235.6999842828
 20
197.5211449327
 30
0.0
 11
240.7936862436
 21
197.6100558311
 31
0.0
  0
LINE
  5
2CC
330
215
100
AcDbEntity
  8
0
  6
Continuous
 62
     9
100
AcDbLine
 10
234.7174418925
 20
196.5245231394
 30
0.0
 11
185.7233122108
 21
196.5245231394
 31
0.0
  0
LINE
  5
2CD
330
215
100
AcDbEntity
  8
0
  6
Continuous
 62
     9
100
AcDbLine
 10
155.8291554635
 20
196.5245231394
 30
0.0
 11
106.8350257818
 21
196.5245231394
 31
0.0
  0
LINE
  5
2CE
330
215
100
AcDbEntity
  8
RUNDUNGEN
  6
Continuous
 62
     9
100
AcDbLine
 10
183.1201460604
 20
197.3274694782
 30
0.0
 11
158.4323335651
 21
197.3274694782
 31
0.0
  0
LINE
  5
2CF
330
215
100
AcDbEntity
  8
0
  6
Continuous
 62
     9
100
AcDbLine
 10
105.8524833915
 20
197.5211449327
 30
0.0
 11
155.5997076511
 21
197.5211449327
 31
0.0
  0
LINE
  5
2D0
330
215
100
AcDbEntity
  8
0
  6
Continuous
 62
     9
100
AcDbLine
 10
185.9527600232
 20
197.5211449327
 30
0.0
 11
235.6999842828
 21
197.5211449327
 31
0.0
  0
LINE
  5
2D1
330
215
100
AcDbEntity
  8
0
  6
Continuous
 62
     9
100
AcDbLine
 10
235.6999842828
 20
197.6100558311
 30
0.0
 11
184.4693369795
 21
197.6100558311
 31
0.0
  0
LINE
  5
2D2
330
215
100
AcDbEntity
  8
0
  6
Continuous
 62
     9
100
AcDbLine
 10
157.0831307229999
 20
197.6100558311
 30
0.0
 11
100.7587814307
 21
197.6100558311
 31
0.0
  0
LINE
  5
2D3
330
215
100
AcDbEntity
  8
RUNDUNGEN
  6
Continuous
 62
     9
100
AcDbLine
 10
183.1828196906
 20
198.0935139213
 30
0.0
 11
158.3696717812
 21
198.0935139213
 31
0.0
  0
LINE
  5
2D4
330
215
100
AcDbEntity
  8
0
  6
Continuous
 62
     9
100
AcDbLine
 10
99.77623383720001
 20
198.6099035263
 30
0.0
 11
156.8912821023
 21
198.6099035263
 31
0.0
  0
LINE
  5
2D5
330
215
100
AcDbEntity
  8
0
  6
Continuous
 62
     9
100
AcDbLine
 10
184.66118557
 20
198.6099035263
 30
0.0
 11
241.7762338372
 21
198.6099035263
 31
0.0
  0
LINE
  5
2D6
330
215
100
AcDbEntity
  8
0
  6
Continuous
 62
     7
100
AcDbLine
 10
105.8524833915
 20
197.5211449327
 30
0.0
 11
100.7587814307
 21
197.6100558311
 31
0.0
  0
LINE
  5
2D7
330
215
100
AcDbEntity
  8
0
  6
Continuous
 62
     7
100
AcDbLine
 10
90.82394955469998
 20
207.9978848111
 30
0.0
 11
82.6367208897
 21
208.5703916103
 31
0.0
  0
LINE
  5
2D9
330
215
100
AcDbEntity
  8
0
  6
Continuous
 62
     7
100
AcDbLine
 10
260.7762338372
 20
210.5655197108
 30
0.0
 11
260.7762338372
 21
213.3418257104
 31
0.0
  0
LINE
  5
2DB
330
215
100
AcDbEntity
  8
0
  6
Continuous
 62
     7
100
AcDbLine
 10
250.7285181197
 20
207.9978848111
 30
0.0
 11
258.9157467847
 21
208.5703916103
 31
0.0
  0
LINE
  5
2DC
330
215
100
AcDbEntity
  8
0
  6
Continuous
 62
     7
100
AcDbLine
 10
100.7587814307
 20
208.6443566952
 30
0.0
 11
105.7936862436
 21
208.7322412856
 31
0.0
  0
LINE
  5
2DD
330
215
100
AcDbEntity
  8
0
  6
Continuous
 62
     9
100
AcDbLine
 10
99.77623383720001
 20
207.644509
 30
0.0
 11
156.8912821099
 21
207.644509
 31
0.0
  0
LINE
  5
2DE
330
215
100
AcDbEntity
  8
0
  6
Continuous
 62
     9
100
AcDbLine
 10
184.6611855675
 20
207.644509
 30
0.0
 11
241.7762338372
 21
207.644509
 31
0.0
  0
LINE
  5
2DF
330
215
100
AcDbEntity
  8
0
  6
Continuous
 62
     9
100
AcDbLine
 10
105.7936862436
 20
208.6443566952
 30
0.0
 11
157.0830949297
 21
208.6443566952
 31
0.0
  0
LINE
  5
2E0
330
215
100
AcDbEntity
  8
0
  6
Continuous
 62
     9
100
AcDbLine
 10
184.4694278563
 20
208.6443566952
 30
0.0
 11
240.7936862436
 21
208.6443566952
 31
0.0
  0
LINE
  5
2E1
330
215
100
AcDbEntity
  8
0
  6
Continuous
 62
     9
100
AcDbLine
 10
105.7936862436
 20
208.7322412856
 30
0.0
 11
155.6170076559
 21
208.7322412856
 31
0.0
  0
LINE
  5
2E2
330
215
100
AcDbEntity
  8
0
  6
Continuous
 62
     9
100
AcDbLine
 10
185.9354914725999
 20
208.7322412856
 30
0.0
 11
235.7587814307
 21
208.7322412856
 31
0.0
  0
LINE
  5
2E3
330
215
100
AcDbEntity
  8
RUNDUNGEN
  6
Continuous
 62
     9
100
AcDbLine
 10
159.0827315152
 20
209.6299397736
 30
0.0
 11
158.2815029047
 21
209.6299397741
 31
0.0
  0
LINE
  5
2E4
330
215
100
AcDbEntity
  8
RUNDUNGEN
  6
Continuous
 62
     9
100
AcDbLine
 10
182.4697361592
 20
209.6299397755
 30
0.0
 11
183.2709647697
 21
209.6299397761
 31
0.0
  0
LINE
  5
2E5
330
215
100
AcDbEntity
  8
0
  6
Continuous
 62
     9
100
AcDbLine
 10
106.7762338372
 20
209.7320889808
 30
0.0
 11
155.8459958183
 21
209.7320889808
 31
0.0
  0
LINE
  5
2E6
330
215
100
AcDbEntity
  8
RUNDUNGEN
  6
Continuous
 62
     9
100
AcDbLine
 10
155.8459958183
 20
209.7320889808
 30
0.0
 11
156.5786366755
 21
209.7320889808
 31
0.0
  0
LINE
  5
2E7
330
215
100
AcDbEntity
  8
RUNDUNGEN
  6
Continuous
 62
     9
100
AcDbLine
 10
184.9738309988
 20
209.7320889808
 30
0.0
 11
185.7064718561
 21
209.7320889808
 31
0.0
  0
LINE
  5
2E8
330
215
100
AcDbEntity
  8
0
  6
Continuous
 62
     9
100
AcDbLine
 10
185.7064718561
 20
209.7320889808
 30
0.0
 11
234.7762338372
 21
209.7320889808
 31
0.0
  0
LINE
  5
2E9
330
215
100
AcDbEntity
  8
0
  6
Continuous
 62
     7
100
AcDbLine
 10
240.7936862436
 20
208.6443566952
 30
0.0
 11
235.7587814307
 21
208.7322412856
 31
0.0
  0
LINE
  5
2EA
330
215
100
AcDbEntity
  8
0
  6
Continuous
 62
     7
100
AcDbLine
 10
157.4442715572
 20
215.9330997644
 30
0.0
 11
157.4357081354
 21
215.9340062069
 31
0.0
  0
LINE
  5
2EB
330
215
100
AcDbEntity
  8
RUNDUNGEN
  6
Continuous
 62
     7
100
AcDbLine
 10
155.7323918701
 20
216.1384259859
 30
0.0
 11
155.7308263047
 21
216.1386126537
 31
0.0
  0
LINE
  5
2EC
330
215
100
AcDbEntity
  8
RUNDUNGEN
  6
Continuous
 62
     7
100
AcDbLine
 10
157.4360121885
 20
215.933973455
 30
0.0
 11
157.4357086295
 21
215.9340102317
 31
0.0
  0
LINE
  5
2ED
330
215
100
AcDbEntity
  8
0
  6
Continuous
 62
     7
100
AcDbLine
 10
157.4360121885
 20
215.933973455
 30
0.0
 11
155.7308480536
 21
216.1386103097
 31
0.0
  0
LINE
  5
2EE
330
215
100
AcDbEntity
  8
RUNDUNGEN
  6
Continuous
 62
     7
100
AcDbLine
 10
184.1164559739
 20
215.9339694229
 30
0.0
 11
184.1168463566
 21
215.9340166975
 31
0.0
  0
LINE
  5
2EF
330
215
100
AcDbEntity
  8
RUNDUNGEN
  6
Continuous
 62
     7
100
AcDbLine
 10
185.8200757378
 20
216.1384259779
 30
0.0
 11
185.8216413601
 21
216.1386126525
 31
0.0
  0
LINE
  5
2F0
330
215
100
AcDbEntity
  8
0
  6
Continuous
 62
     7
100
AcDbLine
 10
185.8216196113
 20
216.1386103085
 30
0.0
 11
184.1164554777
 21
215.9339734541
 31
0.0
  0
LWPOLYLINE
  5
2F1
330
215
100
AcDbEntity
  8
0
  6
Continuous
 62
     7
100
AcDbPolyline
 90
       10
 70
     0
 43
0.0
 10
184.1168463566
 20
215.9340166975
 10
184.1159317043
 20
215.9339094315
 10
184.1102684635
 20
215.9333062889
 10
184.1001887404999
 20
215.9323476835
 10
184.0857889974
 20
215.9311233967
 10
184.0675249943999
 20
215.9297301468
 10
184.0454288587
 20
215.9282106756
 10
184.0196556861
 20
215.9266049728
 10
183.9903607639
 20
215.9249451376
 10
183.9578058178
 20
215.9232680662
  0
LINE
  5
2F2
330
215
100
AcDbEntity
  8
0
  6
Continuous
 62
     7
100
AcDbLine
 10
183.9578058178
 20
215.9232680662
 30
0.0
 11
183.8825955471
 21
215.9199096918
 31
0.0
  0
LINE
  5
2F3
330
215
100
AcDbEntity
  8
0
  6
Continuous
 62
     7
100
AcDbLine
 10
183.8825955471
 20
215.9199096918
 30
0.0
 11
183.7942705675
 21
215.9166205226
 31
0.0
  0
LINE
  5
2F4
330
215
100
AcDbEntity
  8
0
  6
Continuous
 62
     7
100
AcDbLine
 10
82.7064348438
 20
215.3406073644
 30
0.0
 11
105.7400511043
 21
216.1449589684
 31
0.0
  0
LINE
  5
2F5
330
215
100
AcDbEntity
  8
0
  6
Continuous
 62
     7
100
AcDbLine
 10
183.7942705675
 20
215.9166205226
 30
0.0
 11
183.6933145442
 21
215.9134972132
 31
0.0
  0
LINE
  5
2F6
330
215
100
AcDbEntity
  8
0
  6
Continuous
 62
     7
100
AcDbLine
 10
183.6933145442
 20
215.9134972132
 30
0.0
 11
183.5799602605
 21
215.9106092104
 31
0.0
  0
LINE
  5
2F7
330
215
100
AcDbEntity
  8
0
  6
Continuous
 62
     7
100
AcDbLine
 10
183.5799602605
 20
215.9106092104
 30
0.0
 11
183.4547191477
 21
215.908008417
 31
0.0
  0
LINE
  5
2F8
330
215
100
AcDbEntity
  8
0
  6
Continuous
 62
     7
100
AcDbLine
 10
105.7400511043
 20
216.1449589684
 30
0.0
 11
105.774950601
 21
216.1455681414
 31
0.0
  0
LINE
  5
2F9
330
215
100
AcDbEntity
  8
0
  6
Continuous
 62
     7
100
AcDbLine
 10
183.4547191477
 20
215.908008417
 30
0.0
 11
183.2459758947999
 21
215.9047837272
 31
0.0
  0
LINE
  5
2FA
330
215
100
AcDbEntity
  8
0
  6
Continuous
 62
     7
100
AcDbLine
 10
183.2459758947999
 20
215.9047837272
 30
0.0
 11
183.0147759221
 21
215.9025112501
 31
0.0
  0
LINE
  5
2FB
330
215
100
AcDbEntity
  8
0
  6
Continuous
 62
     7
100
AcDbLine
 10
183.0147759221
 20
215.9025112501
 30
0.0
 11
182.7646889587
 21
215.9013199013
 31
0.0
  0
LINE
  5
2FC
330
215
100
AcDbEntity
  8
0
  6
Continuous
 62
     7
100
AcDbLine
 10
234.7762338372
 20
214.7493917177
 30
0.0
 11
185.7064718561
 21
214.7493917177
 31
0.0
  0
LINE
  5
2FD
330
215
100
AcDbEntity
  8
RUNDUNGEN
  6
Continuous
 62
     9
100
AcDbLine
 10
185.7064718561
 20
214.7493917177
 30
0.0
 11
184.9738309988
 21
214.7493917177
 31
0.0
  0
LINE
  5
2FE
330
215
100
AcDbEntity
  8
0
  6
Continuous
 62
     7
100
AcDbLine
 10
155.8459958183
 20
214.7493917177
 30
0.0
 11
106.7762338372
 21
214.7493917177
 31
0.0
  0
LINE
  5
2FF
330
215
100
AcDbEntity
  8
RUNDUNGEN
  6
Continuous
 62
     9
100
AcDbLine
 10
182.4697814709999
 20
214.9011675666
 30
0.0
 11
159.0826861686
 21
214.9011675666
 31
0.0
  0
LINE
  5
300
330
215
100
AcDbEntity
  8
0
  6
Continuous
 62
     9
100
AcDbLine
 10
234.7775222766
 20
215.1487940434
 30
0.0
 11
185.7061055999
 21
215.1487940434
 31
0.0
  0
LINE
  5
301
330
215
100
AcDbEntity
  8
0
  6
Continuous
 62
     9
100
AcDbLine
 10
155.8463620744
 20
215.1487940434
 30
0.0
 11
106.7749453977
 21
215.1487940434
 31
0.0
  0
LINE
  5
302
330
215
100
AcDbEntity
  8
0
  6
Continuous
 62
     7
100
AcDbLine
 10
182.7646889587
 20
215.9013199013
 30
0.0
 11
158.9180342991
 21
215.9011675666
 31
0.0
  0
LINE
  5
303
330
215
100
AcDbEntity
  8
0
  6
Continuous
 62
     7
100
AcDbLine
 10
235.720929544
 20
216.1455681414
 30
0.0
 11
185.9393789362
 21
216.1455681414
 31
0.0
  0
LINE
  5
304
330
215
100
AcDbEntity
  8
0
  6
Continuous
 62
     7
100
AcDbLine
 10
155.6130887382
 20
216.1455681414
 30
0.0
 11
105.8315381429
 21
216.1455681414
 31
0.0
  0
LINE
  5
305
330
215
100
AcDbEntity
  8
0
  6
Continuous
 62
     7
100
AcDbLine
 10
178.7762338372
 20
217.1256091399
 30
0.0
 11
162.7762338372
 21
217.1256091399
 31
0.0
  0
LINE
  5
306
330
215
100
AcDbEntity
  8
0
  6
Continuous
 62
     7
100
AcDbLine
 10
164.2762338372
 20
217.2756091399
 30
0.0
 11
177.2762338372
 21
217.2756091399
 31
0.0
  0
LINE
  5
307
330
215
100
AcDbEntity
  8
0
  6
Continuous
 62
     7
100
AcDbLine
 10
162.7762338372
 20
217.6256091399
 30
0.0
 11
178.7762338372
 21
217.6256091399
 31
0.0
  0
LINE
  5
308
330
215
100
AcDbEntity
  8
0
  6
Continuous
 62
     7
100
AcDbLine
 10
158.9180358835
 20
215.9011653421
 30
0.0
 11
158.6985627726
 21
215.901603577
 31
0.0
  0
LINE
  5
309
330
215
100
AcDbEntity
  8
0
  6
Continuous
 62
     7
100
AcDbLine
 10
158.6985627726
 20
215.901603577
 30
0.0
 11
158.4392738674
 21
215.9033254564
 31
0.0
  0
LINE
  5
30A
330
215
100
AcDbEntity
  8
0
  6
Continuous
 62
     7
100
AcDbLine
 10
158.4392738674
 20
215.9033254564
 30
0.0
 11
158.202180075
 21
215.90624451
 31
0.0
  0
LINE
  5
30B
330
215
100
AcDbEntity
  8
0
  6
Continuous
 62
     7
100
AcDbLine
 10
235.8124165701
 20
216.1449589684
 30
0.0
 11
235.7770462862
 21
216.1454991647
 31
0.0
  0
LINE
  5
30C
330
215
100
AcDbEntity
  8
0
  6
Continuous
 62
     7
100
AcDbLine
 10
158.202180075
 20
215.90624451
 30
0.0
 11
158.0589284147
 21
215.9087536759
 31
0.0
  0
LINE
  5
30D
330
215
100
AcDbEntity
  8
0
  6
Continuous
 62
     7
100
AcDbLine
 10
158.0589284147
 20
215.9087536759
 30
0.0
 11
157.928873479
 21
215.9116556421
 31
0.0
  0
LINE
  5
30E
330
215
100
AcDbEntity
  8
0
  6
Continuous
 62
     7
100
AcDbLine
 10
157.928873479
 20
215.9116556421
 30
0.0
 11
157.8129295399
 21
215.9148527992
 31
0.0
  0
LINE
  5
30F
330
215
100
AcDbEntity
  8
0
  6
Continuous
 62
     7
100
AcDbLine
 10
258.8460328306
 20
215.3406073644
 30
0.0
 11
235.8124165701
 21
216.1449589684
 31
0.0
  0
LINE
  5
310
330
215
100
AcDbEntity
  8
0
  6
Continuous
 62
     7
100
AcDbLine
 10
157.8129295399
 20
215.9148527992
 30
0.0
 11
157.711623383
 21
215.9182818808
 31
0.0
  0
LWPOLYLINE
  5
311
330
215
100
AcDbEntity
  8
0
  6
Continuous
 62
     7
100
AcDbPolyline
 90
       10
 70
     0
 43
0.0
 10
157.711623383
 20
215.9182818808
 10
157.6254012979
 20
215.9218185234
 10
157.5881098658
 20
215.9235930047
 10
157.5546299565
 20
215.9253540262
 10
157.5250700906
 20
215.9270714179
 10
157.4994484896
 20
215.9287155179
 10
157.4779183323
 20
215.9302487145
 10
157.4605519227
 20
215.9316278216
 10
157.447590928
 20
215.9327800676
 10
157.4442715572
 20
215.9330997644
  0
LINE
  5
312
330
215
100
AcDbEntity
  8
0
  6
Continuous
 62
     7
100
AcDbLine
 10
162.7762338372
 20
227.6256091399
 30
0.0
 11
178.7762338372
 21
227.6256091399
 31
0.0
  0
LINE
  5
313
330
215
100
AcDbEntity
  8
0
  6
Continuous
 62
     7
100
AcDbLine
 10
163.7762338372
 20
235.6256091399
 30
0.0
 11
177.7762338372
 21
235.6256091399
 31
0.0
  0
LINE
  5
314
330
215
100
AcDbEntity
  8
0
  6
Continuous
 62
     7
100
AcDbLine
 10
325.7762338372
 20
69.24939171760001
 30
0.0
 11
325.7762338372
 21
127.2493917176
 31
0.0
  0
ARC
  5
315
330
215
100
AcDbEntity
  8
RUNDUNGEN
  6
Continuous
 62
     9
100
AcDbCircle
 10
-614.3688051888
 20
459.6982251969999
 30
0.0
 40
815.7359351586999
100
AcDbArc
 50
340.9210577354
 51
341.1836122196
  0
ARC
  5
316
330
215
100
AcDbEntity
  8
RUNDUNGEN
  6
Continuous
 62
     9
100
AcDbCircle
 10
-516.0054984494999
 20
429.1779027633
 30
0.0
 40
713.8470657071001
100
AcDbArc
 50
340.5935254447
 51
340.9198114378
  0
ARC
  5
317
330
215
100
AcDbEntity
  8
RUNDUNGEN
  6
Continuous
 62
     9
100
AcDbCircle
 10
81.6205396848
 20
-416.6508124233999
 30
0.0
 40
636.2275060473
100
AcDbArc
 50
83.07944277899999
 51
83.23386253429999
  0
ARC
  5
318
330
215
100
AcDbEntity
  8
0
  6
Continuous
 62
     7
100
AcDbCircle
 10
135.2762338371999
 20
79.24939171760001
 30
0.0
 40
10.0
100
AcDbArc
 50
180.0
 51
270.0
  0
ARC
  5
319
330
215
100
AcDbEntity
  8
0
  6
Continuous
 62
     7
100
AcDbCircle
 10
94.83649386399999
 20
177.1411809166
 30
0.0
 40
4.9999999942
100
AcDbArc
 50
1.9999985274
 51
26.0948096415
  0
ARC
  5
31A
330
215
100
AcDbEntity
  8
0
  6
Continuous
 62
     7
100
AcDbCircle
 10
103.6784905691
 20
181.8228997353
 30
0.0
 40
4.999999985499999
100
AcDbArc
 50
182.0000428845
 51
206.0948884807
  0
ARC
  5
31B
330
215
100
AcDbEntity
  8
0
  6
Continuous
 62
     7
100
AcDbCircle
 10
135.2762338371999
 20
79.24939171760001
 30
0.0
 40
4.5
100
AcDbArc
 50
180.0
 51
270.0
  0
ARC
  5
31C
330
215
100
AcDbEntity
  8
0
  6
Continuous
 62
     7
100
AcDbCircle
 10
122.2762338372
 20
102.7870519749
 30
0.0
 40
3.0
100
AcDbArc
 50
0.0
 51
87.0
  0
ARC
  5
31D
330
215
100
AcDbEntity
  8
0
  6
Continuous
 62
     7
100
AcDbCircle
 10
117.7156081271
 20
109.0342983165
 30
0.0
 40
3.0
100
AcDbArc
 50
205.5
 51
267.0
  0
ARC
  5
31E
330
215
100
AcDbEntity
  8
0
  6
Continuous
 62
     7
100
AcDbCircle
 10
95.38921726839999
 20
189.9669593423
 30
0.0
 40
3.0
100
AcDbArc
 50
2.0
 51
75.01030557819999
  0
ARC
  5
31F
330
215
100
AcDbEntity
  8
0
  6
Continuous
 62
     7
100
AcDbCircle
 10
96.941089089
 20
195.7627935232
 30
0.0
 40
3.0
100
AcDbArc
 50
182.0
 51
255.0103055783
  0
ARC
  5
320
330
215
100
AcDbEntity
  8
0
  6
Continuous
 62
     7
100
AcDbCircle
 10
90.6146801334
 20
205.0051926603
 30
0.0
 40
3.0
100
AcDbArc
 50
2.0
 51
86.0
  0
ARC
  5
321
330
215
100
AcDbEntity
  8
0
  6
Continuous
 62
     7
100
AcDbCircle
 10
104.2325833192
 20
137.3020476739
 30
0.0
 40
3.0
100
AcDbArc
 50
182.0
 51
205.5000000003
  0
ARC
  5
322
330
215
100
AcDbEntity
  8
0
  6
Continuous
 62
     7
100
AcDbCircle
 10
110.0240447892
 20
137.935508935
 30
0.0
 40
3.0
100
AcDbArc
 50
180.1848308864
 51
205.5
  0
ARC
  5
323
330
215
100
AcDbEntity
  8
0
  6
Continuous
 62
     7
100
AcDbCircle
 10
132.7764241333
 20
95.73249667410001
 30
0.0
 40
2.000179409499999
100
AcDbArc
 50
90.00497148299999
 51
180.0038747354
  0
ARC
  5
324
330
215
100
AcDbEntity
  8
0
  6
Continuous
 62
     7
100
AcDbCircle
 10
82.77623383719999
 20
210.5655197108
 30
0.0
 40
2.0
100
AcDbArc
 50
180.0
 51
266.0
  0
ARC
  5
325
330
215
100
AcDbEntity
  8
0
  6
Continuous
 62
     7
100
AcDbCircle
 10
82.77623383719999
 20
213.3418257104
 30
0.0
 40
2.0
100
AcDbArc
 50
92.0
 51
180.0
  0
ARC
  5
326
330
215
100
AcDbEntity
  8
0
  6
Continuous
 62
     7
100
AcDbCircle
 10
155.6128711315
 20
215.1422053442
 30
0.0
 40
1.003358595899999
100
AcDbArc
 50
83.15870273159999
 51
89.99241072629999
  0
ARC
  5
327
330
215
100
AcDbEntity
  8
0
  6
Continuous
 62
     7
100
AcDbCircle
 10
139.7761467727
 20
98.73274309580001
 30
0.0
 40
1.0000839038
100
AcDbArc
 50
270.0052869556
 51
0.0043017064
  0
ARC
  5
328
330
215
100
AcDbEntity
  8
0
  6
Continuous
 62
     7
100
AcDbCircle
 10
105.774950601
 20
215.1455681414
 30
0.0
 40
1.0
100
AcDbArc
 50
0.1848308864
 51
89.97302402629999
  0
ARC
  5
329
330
215
100
AcDbEntity
  8
0
  6
Continuous
 62
     7
100
AcDbCircle
 10
100.7762338372
 20
207.644509
 30
0.0
 40
1.0
100
AcDbArc
 50
91.0
 51
180.0
  0
ARC
  5
32A
330
215
100
AcDbEntity
  8
0
  6
Continuous
 62
     7
100
AcDbCircle
 10
105.7762338372
 20
209.7320889808
 30
0.0
 40
1.0
100
AcDbArc
 50
271.0
 51
360.0
  0
ARC
  5
32B
330
215
100
AcDbEntity
  8
0
  6
Continuous
 62
     7
100
AcDbCircle
 10
105.8350309851
 20
196.5212972375
 30
0.0
 40
1.0
100
AcDbArc
 50
0.1848308864
 51
89.0
  0
ARC
  5
32C
330
215
100
AcDbEntity
  8
0
  6
Continuous
 62
     7
100
AcDbCircle
 10
100.7762338372
 20
198.6099035263
 30
0.0
 40
1.0
100
AcDbArc
 50
180.0
 51
269.0
  0
ARC
  5
32D
330
215
100
AcDbEntity
  8
0
  6
Continuous
 62
     7
100
AcDbCircle
 10
117.4141217077
 20
117.7962494799
 30
0.0
 40
1.0
100
AcDbArc
 50
205.5
 51
267.0
  0
ARC
  5
32E
330
215
100
AcDbEntity
  8
0
  6
Continuous
 62
     7
100
AcDbCircle
 10
132.2762338371999
 20
115.0146144957
 30
0.0
 40
1.0
100
AcDbArc
 50
0.0
 51
87.0
  0
ARC
  5
32F
330
215
100
AcDbEntity
  8
0
  6
Continuous
 62
     7
100
AcDbCircle
 10
139.7762338372
 20
102.8499688124
 30
0.0
 40
1.0
100
AcDbArc
 50
0.0
 51
89.0
  0
ARC
  5
330
330
215
100
AcDbEntity
  8
0
  6
Continuous
 62
     7
100
AcDbCircle
 10
134.2762338371999
 20
104.9462763256
 30
0.0
 40
1.0
100
AcDbArc
 50
180.0
 51
269.0
  0
ARC
  5
331
330
215
100
AcDbEntity
  8
RUNDUNGEN
  6
Continuous
 62
     9
100
AcDbCircle
 10
259.9319210462
 20
-416.6507545704
 30
0.0
 40
636.2274477791999
100
AcDbArc
 50
96.76613745860001
 51
96.92055722820001
  0
ARC
  5
332
330
215
100
AcDbEntity
  8
RUNDUNGEN
  6
Continuous
 62
     9
100
AcDbCircle
 10
158.4929055277
 20
138.9245937808
 30
0.0
 40
1.967226630599999
100
AcDbArc
 50
268.9360369879
 51
269.9998667066
  0
ARC
  5
333
330
215
100
AcDbEntity
  8
RUNDUNGEN
  6
Continuous
 62
     9
100
AcDbCircle
 10
183.0595665966
 20
138.9239399507
 30
0.0
 40
1.9665728005
100
AcDbArc
 50
270.0000036949
 51
271.0639981224
  0
ARC
  5
334
330
215
100
AcDbEntity
  8
0
  6
Continuous
 62
     7
100
AcDbCircle
 10
201.7762338368
 20
98.73236143900001
 30
0.0
 40
1.0000000065
100
AcDbArc
 50
180.0000137831
 51
269.9999825086
  0
ARC
  5
335
330
215
100
AcDbEntity
  8
0
  6
Continuous
 62
     7
100
AcDbCircle
 10
207.2762338372
 20
104.9462763256
 30
0.0
 40
1.0
100
AcDbArc
 50
271.0
 51
360.0
  0
ARC
  5
336
330
215
100
AcDbEntity
  8
0
  6
Continuous
 62
     7
100
AcDbCircle
 10
201.7762338372
 20
102.8499688124
 30
0.0
 40
1.0
100
AcDbArc
 50
91.0
 51
180.0
  0
ARC
  5
337
330
215
100
AcDbEntity
  8
RUNDUNGEN
  6
Continuous
 62
     9
100
AcDbCircle
 10
158.7235583946
 20
139.1076577896
 30
0.0
 40
0.9596341533
100
AcDbArc
 50
268.9443681787
 51
270.0199298013
  0
ARC
  5
338
330
215
100
AcDbEntity
  8
RUNDUNGEN
  6
Continuous
 62
     9
100
AcDbCircle
 10
182.8289046423
 20
139.1075287568
 30
0.0
 40
0.9595050409999998
100
AcDbArc
 50
269.980344457
 51
271.0560506773
  0
ARC
  5
339
330
215
100
AcDbEntity
  8
RUNDUNGEN
  6
Continuous
 62
     9
100
AcDbCircle
 10
172.4514397495
 20
176.6315723511
 30
0.0
 40
34.2890700217
100
AcDbArc
 50
295.680892346
 51
297.4590736893
  0
ARC
  5
33A
330
215
100
AcDbEntity
  8
RUNDUNGEN
  6
Continuous
 62
     9
100
AcDbCircle
 10
168.6845041094
 20
175.7987037137
 30
0.0
 40
33.3579697941
100
AcDbArc
 50
242.5161074152999
 51
244.3439261878
  0
ARC
  5
33B
330
215
100
AcDbEntity
  8
0
  6
Continuous
 62
     7
100
AcDbCircle
 10
185.9395965429
 20
215.1422053436
 30
0.0
 40
1.0033585964
100
AcDbArc
 50
90.00758927700001
 51
96.84130109000001
  0
ARC
  5
33C
330
215
100
AcDbEntity
  8
0
  6
Continuous
 62
     7
100
AcDbCircle
 10
237.3198843552
 20
137.3020476739
 30
0.0
 40
3.0
100
AcDbArc
 50
334.4999999997
 51
358.0
  0
ARC
  5
33D
330
215
100
AcDbEntity
  8
0
  6
Continuous
 62
     7
100
AcDbCircle
 10
231.5284228852
 20
137.935508935
 30
0.0
 40
3.0
100
AcDbArc
 50
334.5
 51
359.8151691136
  0
ARC
  5
33E
330
215
100
AcDbEntity
  8
0
  6
Continuous
 62
     7
100
AcDbCircle
 10
240.484126974
 20
129.9990974135
 30
0.0
 40
2.999999998199999
100
AcDbArc
 50
154.4999805939
 51
266.3503800297
  0
ARC
  5
33F
330
215
100
AcDbEntity
  8
RUNDUNGEN
  6
Continuous
 62
     9
100
AcDbCircle
 10
220.1204477602
 20
101.9859228752
 30
0.0
 40
2.003684526899999
100
AcDbArc
 50
93.17386859409999
 51
179.8261314059
  0
ARC
  5
340
330
215
100
AcDbEntity
  8
RUNDUNGEN
  6
Continuous
 62
     9
100
AcDbCircle
 10
235.0671337861
 20
119.6430262941
 30
0.0
 40
2.0033569674
100
AcDbArc
 50
77.67713554689999
 51
154.3659099636
  0
ARC
  5
341
330
215
100
AcDbEntity
  8
0
  6
Continuous
 62
     7
100
AcDbCircle
 10
218.2789785292
 20
103.7334119261
 30
0.0
 40
2.0
100
AcDbArc
 50
93.0
 51
180.0
  0
ARC
  5
342
330
215
100
AcDbEntity
  8
0
  6
Continuous
 62
     7
100
AcDbCircle
 10
234.6432625592
 20
120.0699040564
 30
0.0
 40
1.999999997799999
100
AcDbArc
 50
81.3261748636
 51
154.5
  0
ARC
  5
343
330
215
100
AcDbEntity
  8
0
  6
Continuous
 62
     7
100
AcDbCircle
 10
224.4892394814
 20
108.0579506905
 30
0.0
 40
1.9935705624
100
AcDbArc
 50
272.9841790488
 51
334.5156721098
  0
ARC
  5
344
330
215
100
AcDbEntity
  8
RUNDUNGEN
  6
Continuous
 62
     9
100
AcDbCircle
 10
225.6220966664
 20
106.2650700347
 30
0.0
 40
1.9368270543
100
AcDbArc
 50
273.9028594063
 51
300.5633246287
  0
ARC
  5
345
330
215
100
AcDbEntity
  8
0
  6
Continuous
 62
     7
100
AcDbCircle
 10
224.1383459666
 20
117.7962494799
 30
0.0
 40
1.0
100
AcDbArc
 50
273.0
 51
334.5
  0
ARC
  5
346
330
215
100
AcDbEntity
  8
0
  6
Continuous
 62
     7
100
AcDbCircle
 10
209.2762338372
 20
115.0146144957
 30
0.0
 40
1.0
100
AcDbArc
 50
93.0
 51
180.0
  0
ARC
  5
347
330
215
100
AcDbEntity
  8
0
  6
Continuous
 62
     7
100
AcDbCircle
 10
237.8739777312
 20
181.8229211983
 30
0.0
 40
5.000000016399999
100
AcDbArc
 50
333.9051586977
 51
358.0000023364
  0
ARC
  5
348
330
215
100
AcDbEntity
  8
0
  6
Continuous
 62
     7
100
AcDbCircle
 10
246.7159743899
 20
177.1412023635
 30
0.0
 40
4.9999999831
100
AcDbArc
 50
153.9050749103
 51
177.9999480451
  0
ARC
  5
349
330
215
100
AcDbEntity
  8
0
  6
Continuous
 62
     7
100
AcDbCircle
 10
246.1632504059
 20
189.9669593423
 30
0.0
 40
3.0
100
AcDbArc
 50
104.9896944219
 51
178.0
  0
ARC
  5
34A
330
215
100
AcDbEntity
  8
0
  6
Continuous
 62
     7
100
AcDbCircle
 10
244.6113785853
 20
195.7627935232
 30
0.0
 40
3.0
100
AcDbArc
 50
284.9896944217
 51
358.0
  0
ARC
  5
34B
330
215
100
AcDbEntity
  8
0
  6
Continuous
 62
     7
100
AcDbCircle
 10
250.9377875409
 20
205.0051926603
 30
0.0
 40
3.0
100
AcDbArc
 50
94.0
 51
178.0
  0
ARC
  5
34C
330
215
100
AcDbEntity
  8
0
  6
Continuous
 62
     7
100
AcDbCircle
 10
258.7762338372
 20
210.5655197108
 30
0.0
 40
2.0
100
AcDbArc
 50
274.0
 51
360.0
  0
ARC
  5
34D
330
215
100
AcDbEntity
  8
0
  6
Continuous
 62
     7
100
AcDbCircle
 10
258.7762338372
 20
213.3418257104
 30
0.0
 40
2.0
100
AcDbArc
 50
0.0
 51
88.0
  0
ARC
  5
34E
330
215
100
AcDbEntity
  8
0
  6
Continuous
 62
     7
100
AcDbCircle
 10
235.7775170734
 20
215.1455681414
 30
0.0
 40
1.0
100
AcDbArc
 50
90.02697597879999
 51
179.8151691136
  0
ARC
  5
34F
330
215
100
AcDbEntity
  8
0
  6
Continuous
 62
     7
100
AcDbCircle
 10
240.7762338372
 20
207.644509
 30
0.0
 40
1.0
100
AcDbArc
 50
0.0
 51
89.0
  0
ARC
  5
350
330
215
100
AcDbEntity
  8
0
  6
Continuous
 62
     7
100
AcDbCircle
 10
235.7762338372
 20
209.7320889808
 30
0.0
 40
1.0
100
AcDbArc
 50
180.0
 51
269.0
  0
ARC
  5
351
330
215
100
AcDbEntity
  8
0
  6
Continuous
 62
     7
100
AcDbCircle
 10
235.7174366893
 20
196.5212972375
 30
0.0
 40
1.0
100
AcDbArc
 50
91.0
 51
179.8151691136
  0
ARC
  5
352
330
215
100
AcDbEntity
  8
0
  6
Continuous
 62
     7
100
AcDbCircle
 10
240.7762338372
 20
198.6099035263
 30
0.0
 40
1.0
100
AcDbArc
 50
271.0
 51
360.0
  0
ARC
  5
353
330
215
100
AcDbEntity
  8
RUNDUNGEN
  6
Continuous
 62
     9
100
AcDbCircle
 10
927.5501877424
 20
449.9582552059999
 30
0.0
 40
785.7395923409
100
AcDbArc
 50
198.811376141
 51
199.0839539059
  0
ARC
  5
354
330
215
100
AcDbEntity
  8
RUNDUNGEN
  6
Continuous
 62
     9
100
AcDbCircle
 10
845.4598328172
 20
424.9546251748999
 30
0.0
 40
701.0330285802
100
AcDbArc
 50
199.0772064961999
 51
199.4094566198
  0
ARC
  5
355
330
215
100
AcDbEntity
  8
RUNDUNGEN
  6
Continuous
 62
     9
100
AcDbCircle
 10
188.8135391594
 20
8832.3197875069
 30
0.0
 40
8735.2512436528
100
AcDbArc
 50
270.0128733847
 51
270.1792448327
  0
ARC
  5
356
330
215
100
AcDbEntity
  8
RUNDUNGEN
  6
Continuous
 62
     9
100
AcDbCircle
 10
190.4347251445
 20
8599.6824779922
 30
0.0
 40
8504.613415895601
100
AcDbArc
 50
270.0023005318
 51
270.1750684866
  0
SPLINE
  5
357
330
215
100
AcDbEntity
  8
0
  6
Continuous
 62
     7
100
AcDbSpline
210
0.0
220
0.0
230
1.0
 70
     8
 71
     3
 72
     9
 73
     5
 74
     0
 42
0.0000000001
 43
0.0000000001
 40
0.0
 40
0.0
 40
0.0
 40
0.0
 40
0.2514165847
 40
1.0
 40
1.0
 40
1.0
 40
1.0
 10
176.2735812731
 20
217.6244645829
 30
0.0
 10
176.1896657914
 20
217.5885571741
 30
0.0
 10
175.8534686293
 20
217.451588023
 30
0.0
 10
175.5065598942
 20
217.3399979275
 30
0.0
 10
175.2425294427
 20
217.2756091399
 30
0.0
  0
SPLINE
  5
358
330
215
100
AcDbEntity
  8
0
  6
Continuous
 62
     7
100
AcDbSpline
210
0.0
220
0.0
230
1.0
 70
     8
 71
     3
 72
     9
 73
     5
 74
     0
 42
0.0000000001
 43
0.0000000001
 40
0.0
 40
0.0
 40
0.0
 40
0.0
 40
0.2514165847
 40
1.0
 40
1.0
 40
1.0
 40
1.0
 10
169.7735812731
 20
217.6244645829
 30
0.0
 10
169.6896657914
 20
217.5885571741
 30
0.0
 10
169.3534686293
 20
217.451588023
 30
0.0
 10
169.0065598942
 20
217.3399979275
 30
0.0
 10
168.7425294427
 20
217.2756091399
 30
0.0
  0
SPLINE
  5
359
330
215
100
AcDbEntity
  8
0
  6
Continuous
 62
     7
100
AcDbSpline
210
0.0
220
0.0
230
1.0
 70
     8
 71
     3
 72
     9
 73
     5
 74
     0
 42
0.0000000001
 43
0.0000000001
 40
0.0
 40
0.0
 40
0.0
 40
0.0
 40
0.2487607902
 40
1.0
 40
1.0
 40
1.0
 40
1.0
 10
166.3099382316
 20
217.2756091399
 30
0.0
 10
166.2221986092
 20
217.2970060958
 30
0.0
 10
165.8715625993
 20
217.3914738157
 30
0.0
 10
165.5296942270999
 20
217.5171464706
 30
0.0
 10
165.278951633
 20
217.6244364657
 30
0.0
  0
SPLINE
  5
35A
330
215
100
AcDbEntity
  8
0
  6
Continuous
 62
     7
100
AcDbSpline
210
0.0
220
0.0
230
1.0
 70
     8
 71
     3
 72
     9
 73
     5
 74
     0
 42
0.0000000001
 43
0.0000000001
 40
0.0
 40
0.0
 40
0.0
 40
0.0
 40
0.2487607902
 40
1.0
 40
1.0
 40
1.0
 40
1.0
 10
172.8099382316
 20
217.2756091399
 30
0.0
 10
172.7221986091999
 20
217.2970060958
 30
0.0
 10
172.3715625993
 20
217.3914738157
 30
0.0
 10
172.0296942271
 20
217.5171464706
 30
0.0
 10
171.778951633
 20
217.6244364657
 30
0.0
  0
SPLINE
  5
35B
330
215
100
AcDbEntity
  8
0
  6
Continuous
 62
     7
100
AcDbSpline
210
0.0
220
0.0
230
1.0
 70
     8
 71
     3
 72
    11
 73
     7
 74
     0
 42
0.0000000001
 43
0.0000000001
 40
0.0
 40
0.0
 40
0.0
 40
0.0
 40
0.2490758786
 40
0.5001467285
 40
0.7512403002
 40
1.0
 40
1.0
 40
1.0
 40
1.0
 10
240.2931624065
 20
127.0051824191
 30
0.0
 10
241.9909249037
 20
126.8968917959
 30
0.0
 10
245.4091657582
 20
126.8205843357
 30
0.0
 10
250.5389462216
 20
126.9523625035
 30
0.0
 10
255.6632744408
 20
127.1639746833
 30
0.0
 10
259.0770464651
 20
127.2493894607
 30
0.0
 10
260.7760995464
 20
127.2493917176
 30
0.0
  0
LINE
  5
35C
330
215
100
AcDbEntity
  8
0
  6
Continuous
 62
     7
100
AcDbLine
 10
260.7762338372
 20
69.24939171760001
 30
0.0
 11
228.7937377607
 21
69.24939171760001
 31
0.0
  0
LINE
  5
35D
330
215
100
AcDbEntity
  8
0
  6
Continuous
 62
     7
100
AcDbLine
 10
228.7937377607
 20
69.24939171760001
 30
0.0
 11
228.7762338372
 21
69.24939171760001
 31
0.0
  0
SPLINE
  5
35E
330
215
100
AcDbEntity
  8
0
  6
Continuous
 62
     7
100
AcDbSpline
210
0.0
220
0.0
230
1.0
 70
     8
 71
     3
 72
    11
 73
     7
 74
     0
 42
0.0000000001
 43
0.0000000001
 40
0.0
 40
0.0
 40
0.0
 40
0.0
 40
0.2340181823
 40
0.4805555310000001
 40
0.7363372145999999
 40
1.0
 40
1.0
 40
1.0
 40
1.0
 10
260.7758688469
 20
121.7493917169
 30
0.0
 10
258.7584186363
 20
121.749383978
 30
0.0
 10
254.6164533917
 20
121.6210592738
 30
0.0
 10
248.2742079804
 20
121.3585641602
 30
0.0
 10
241.6680859236
 20
121.3296477065
 30
0.0
 10
237.1933853353
 20
121.7019254597
 30
0.0
 10
234.9466802737
 20
122.0467555512
 30
0.0
  0
SPLINE
  5
35F
330
215
100
AcDbEntity
  8
0
  6
Continuous
 62
     7
100
AcDbSpline
210
0.0
220
0.0
230
1.0
 70
     8
 71
     3
 72
    11
 73
     7
 74
     0
 42
0.0000000001
 43
0.0000000001
 40
0.0
 40
0.0
 40
0.0
 40
0.0
 40
0.2499912649
 40
0.499985783
 40
0.7499885006
 40
1.0
 40
1.0
 40
1.0
 40
1.0
 10
216.2789642598
 20
99.7293166224
 30
0.0
 10
216.2789477431
 20
99.46926419950001
 30
0.0
 10
216.1746880847
 20
98.94341856790001
 30
0.0
 10
215.7285672987
 20
98.2794419891
 30
0.0
 10
215.0630313068
 20
97.83582453530001
 30
0.0
 10
214.5372211828
 20
97.7323899417
 30
0.0
 10
214.277147711
 20
97.73237574420001
 30
0.0
  0
SPLINE
  5
361
330
215
100
AcDbEntity
  8
RUNDUNGEN
  6
Continuous
 62
     9
100
AcDbSpline
210
0.0
220
0.0
230
1.0
 70
     8
 71
     3
 72
     9
 73
     5
 74
     0
 42
0.0000000001
 43
0.0000000001
 40
0.0
 40
0.0
 40
0.0
 40
0.0
 40
0.5006477851
 40
1.0
 40
1.0
 40
1.0
 40
1.0
 10
221.4574641577
 20
102.0554652024
 30
0.0
 10
222.2436640881
 20
102.1389910853
 30
0.0
 10
223.8137416226
 20
102.3085401892
 30
0.0
 10
225.3846667544
 20
102.4700892833
 30
0.0
 10
226.1692377808
 20
102.5494883351
 30
0.0
  0
LINE
  5
362
330
215
100
AcDbEntity
  8
RUNDUNGEN
  6
Continuous
 62
     9
100
AcDbLine
 10
220.3864610484
 20
101.9909968886
 30
0.0
 11
221.4574640044
 21
102.0554651874
 31
0.0
  0
SPLINE
  5
366
330
215
100
AcDbEntity
  8
RUNDUNGEN
  6
Continuous
 62
     9
100
AcDbSpline
210
0.0
220
0.0
230
1.0
 70
     8
 71
     3
 72
    10
 73
     6
 74
     0
 42
0.0000000001
 43
0.0000000001
 40
0.0
 40
0.0
 40
0.0
 40
0.0
 40
0.5535070514
 40
0.7960241704000001
 40
1.0
 40
1.0
 40
1.0
 40
1.0
 10
155.8463620744
 20
215.1487940434
 30
0.0
 10
155.8462511288
 20
215.2962252709
 30
0.0
 10
155.8358840733
 20
215.5086492962
 30
0.0
 10
155.7973376172
 20
215.772330712
 30
0.0
 10
155.7705149766
 20
215.888475467
 30
0.0
 10
155.7546362781
 20
215.9404340073
 30
0.0
  0
SPLINE
  5
367
330
215
100
AcDbEntity
  8
RUNDUNGEN
  6
Continuous
 62
     9
100
AcDbSpline
210
0.0
220
0.0
230
1.0
 70
     8
 71
     3
 72
     9
 73
     5
 74
     0
 42
0.0000000001
 43
0.0000000001
 40
0.0
 40
0.0
 40
0.0
 40
0.0
 40
0.6247814575000001
 40
1.0
 40
1.0
 40
1.0
 40
1.0
 10
155.7546362781
 20
215.9404340073
 30
0.0
 10
155.7399635911
 20
215.9884462167
 30
0.0
 10
155.7137881878
 20
216.0623742019
 30
0.0
 10
155.6601608604
 20
216.1326305236
 30
0.0
 10
155.6316325247
 20
216.142387223
 30
0.0
  0
SPLINE
  5
368
330
215
100
AcDbEntity
  8
RUNDUNGEN
  6
Continuous
 62
     9
100
AcDbSpline
210
0.0
220
0.0
230
1.0
 70
     8
 71
     3
 72
     8
 73
     4
 74
     0
 42
0.0000000001
 43
0.0000000001
 40
0.0
 40
0.0
 40
0.0
 40
0.0
 40
1.0
 40
1.0
 40
1.0
 40
1.0
 10
155.6316325247
 20
216.142387223
 30
0.0
 10
155.6256986355
 20
216.1444166149
 30
0.0
 10
155.6193600574
 20
216.145559156
 30
0.0
 10
155.613088738
 20
216.1455642074
 30
0.0
  0
SPLINE
  5
369
330
215
100
AcDbEntity
  8
RUNDUNGEN
  6
Continuous
 62
     9
100
AcDbSpline
210
0.0
220
0.0
230
1.0
 70
     8
 71
     3
 72
    15
 73
    11
 74
     0
 42
0.0000000001
 43
0.0000000001
 40
0.0
 40
0.0
 40
0.0
 40
0.0
 40
0.1243822792
 40
0.2488675535
 40
0.3735401262
 40
0.4984352355
 40
0.623568267
 40
0.748919386
 40
0.8744210560999999
 40
1.0
 40
1.0
 40
1.0
 40
1.0
 10
216.4207139227
 20
95.10876250139999
 30
0.0
 10
216.6798084431
 20
95.109474631
 30
0.0
 10
217.1995234523
 20
95.1622943139
 30
0.0
 10
217.947743334
 20
95.3928413677
 30
0.0
 10
218.6375652471
 20
95.76600182179999
 30
0.0
 10
219.2420787956
 20
96.26764930270001
 30
0.0
 10
219.7381716262
 20
96.8785159701
 30
0.0
 10
220.1068104361
 20
97.57523944150001
 30
0.0
 10
220.3339587624
 20
98.33068446650001
 30
0.0
 10
220.3852593407
 20
98.85510026629999
 30
0.0
 10
220.3853554395
 20
99.11668846959999
 30
0.0
  0
SPLINE
  5
36A
330
215
100
AcDbEntity
  8
RUNDUNGEN
  6
Continuous
 62
     9
100
AcDbSpline
210
0.0
220
0.0
230
1.0
 70
     8
 71
     3
 72
    11
 73
     7
 74
     0
 42
0.0000000001
 43
0.0000000001
 40
0.0
 40
0.0
 40
0.0
 40
0.0
 40
0.2540094925
 40
0.5054500056000001
 40
0.75379265
 40
1.0
 40
1.0
 40
1.0
 40
1.0
 10
156.5790145642
 20
215.1455681415
 30
0.0
 10
156.5798323171
 20
215.2658286523
 30
0.0
 10
156.5394952646
 20
215.5076553248
 30
0.0
 10
156.3572884134
 20
215.8233196005
 30
0.0
 10
156.0775094761
 20
216.0515391245
 30
0.0
 10
155.8480995536
 20
216.1244946956
 30
0.0
 10
155.7323626227
 20
216.1384001699
 30
0.0
  0
SPLINE
  5
36B
330
215
100
AcDbEntity
  8
RUNDUNGEN
  6
Continuous
 62
     9
100
AcDbSpline
210
0.0
220
0.0
230
1.0
 70
     8
 71
     3
 72
    11
 73
     7
 74
     0
 42
0.0000000001
 43
0.0000000001
 40
0.0
 40
0.0
 40
0.0
 40
0.0
 40
0.2539913915
 40
0.5053953338000001
 40
0.7537080451
 40
1.0
 40
1.0
 40
1.0
 40
1.0
 10
158.2815029047
 20
214.9412522524
 30
0.0
 10
158.2824794162
 20
215.0614119792
 30
0.0
 10
158.2420315536
 20
215.3030302223
 30
0.0
 10
158.0602750954
 20
215.6185241216
 30
0.0
 10
157.7808650579
 20
215.8468015395
 30
0.0
 10
157.5516809431
 20
215.9199056848
 30
0.0
 10
157.436008729
 20
215.9339449509
 30
0.0
  0
SPLINE
  5
36C
330
215
100
AcDbEntity
  8
RUNDUNGEN
  6
Continuous
 62
     9
100
AcDbSpline
210
0.0
220
0.0
230
1.0
 70
     8
 71
     3
 72
    15
 73
    11
 74
     0
 42
0.0000000001
 43
0.0000000001
 40
0.0
 40
0.0
 40
0.0
 40
0.0
 40
0.369842631
 40
0.5374610607000001
 40
0.6851690899
 40
0.8076897176999999
 40
0.9010989700999999
 40
0.9362520297999999
 40
0.9638269181999998
 40
1.0
 40
1.0
 40
1.0
 40
1.0
 10
159.0827315152
 20
214.9011675666
 30
0.0
 10
159.0827315147
 20
215.0287958639
 30
0.0
 10
159.0771822781
 20
215.2143770899
 30
0.0
 10
159.0569178425
 20
215.450001254
 30
0.0
 10
159.0373209687
 20
215.5998835982
 30
0.0
 10
159.0134001897
 20
215.7231984347
 30
0.0
 10
158.9898580654
 20
215.8066775686
 30
0.0
 10
158.9675663975
 20
215.8562429708
 30
0.0
 10
158.9502877508
 20
215.884815163
 30
0.0
 10
158.9305187753
 20
215.9011485751
 30
0.0
 10
158.9180358836
 20
215.901163614
 30
0.0
  0
SPLINE
  5
36D
330
215
100
AcDbEntity
  8
RUNDUNGEN
  6
Continuous
 62
     9
100
AcDbSpline
210
0.0
220
0.0
230
1.0
 70
     8
 71
     3
 72
    15
 73
    11
 74
     0
 42
0.0000000001
 43
0.0000000001
 40
0.0
 40
0.0
 40
0.0
 40
0.0
 40
0.3698423159000001
 40
0.5374606432000001
 40
0.6851686324
 40
0.8076892951999999
 40
0.9010986618
 40
0.9362518043999999
 40
0.9638267856
 40
1.0
 40
1.0
 40
1.0
 40
1.0
 10
182.4697361592
 20
214.9011675666
 30
0.0
 10
182.4697361592
 20
215.02879572
 30
0.0
 10
182.4752853844
 20
215.21437675
 30
0.0
 10
182.4955497732
 20
215.4500006943
 30
0.0
 10
182.5151466081
 20
215.599882963
 30
0.0
 10
182.5390673383
 20
215.7231978133
 30
0.0
 10
182.5626094281
 20
215.8066770105
 30
0.0
 10
182.5849010413
 20
215.8562425296
 30
0.0
 10
182.60217968
 20
215.8848148383
 30
0.0
 10
182.6219485481
 20
215.9011484324
 30
0.0
 10
182.6344314819
 20
215.9011636136
 30
0.0
  0
SPLINE
  5
36E
330
215
100
AcDbEntity
  8
RUNDUNGEN
  6
Continuous
 62
     9
100
AcDbSpline
210
0.0
220
0.0
230
1.0
 70
     8
 71
     3
 72
    11
 73
     7
 74
     0
 42
0.0000000001
 43
0.0000000001
 40
0.0
 40
0.0
 40
0.0
 40
0.0
 40
0.2539914037
 40
0.5053953376
 40
0.7537080348
 40
1.0
 40
1.0
 40
1.0
 40
1.0
 10
183.2709622059
 20
214.9412522524
 30
0.0
 10
183.2699856846
 20
215.0614119733
 30
0.0
 10
183.3104338329
 20
215.3030302297
 30
0.0
 10
183.4921913994
 20
215.618523542
 30
0.0
 10
183.7716026063
 20
215.84679955
 30
0.0
 10
184.0007871418
 20
215.9199023428
 30
0.0
 10
184.1164594331999
 20
215.933940919
 30
0.0
  0
SPLINE
  5
36F
330
215
100
AcDbEntity
  8
RUNDUNGEN
  6
Continuous
 62
     9
100
AcDbSpline
210
0.0
220
0.0
230
1.0
 70
     8
 71
     3
 72
    11
 73
     7
 74
     0
 42
0.0000000001
 43
0.0000000001
 40
0.0
 40
0.0
 40
0.0
 40
0.0
 40
0.2540094775
 40
0.5054499841000001
 40
0.7537926344
 40
1.0
 40
1.0
 40
1.0
 40
1.0
 10
184.9734531102
 20
215.1455681415
 30
0.0
 10
184.9726353395
 20
215.2658286395
 30
0.0
 10
185.012972414
 20
215.5076552888
 30
0.0
 10
185.1951792184
 20
215.8233195555
 30
0.0
 10
185.4749581384
 20
216.0515390901
 30
0.0
 10
185.7043680538
 20
216.124494677
 30
0.0
 10
185.8201049856
 20
216.1384001606
 30
0.0
  0
SPLINE
  5
370
330
215
100
AcDbEntity
  8
RUNDUNGEN
  6
Continuous
 62
     9
100
AcDbSpline
210
0.0
220
0.0
230
1.0
 70
     8
 71
     3
 72
    10
 73
     6
 74
     0
 42
0.0000000001
 43
0.0000000001
 40
0.0
 40
0.0
 40
0.0
 40
0.0
 40
0.5535070565
 40
0.7960241739000001
 40
1.0
 40
1.0
 40
1.0
 40
1.0
 10
185.7061055984999
 20
215.1487940433
 30
0.0
 10
185.7062165442
 20
215.296225277
 30
0.0
 10
185.716583602
 20
215.5086493099
 30
0.0
 10
185.7551300609
 20
215.7723307339
 30
0.0
 10
185.7819527037
 20
215.8884754909
 30
0.0
 10
185.7978314036
 20
215.9404340316
 30
0.0
  0
SPLINE
  5
371
330
215
100
AcDbEntity
  8
RUNDUNGEN
  6
Continuous
 62
     9
100
AcDbSpline
210
0.0
220
0.0
230
1.0
 70
     8
 71
     3
 72
     9
 73
     5
 74
     0
 42
0.0000000001
 43
0.0000000001
 40
0.0
 40
0.0
 40
0.0
 40
0.0
 40
0.6248185894000001
 40
1.0
 40
1.0
 40
1.0
 40
1.0
 10
185.7978314036
 20
215.9404340316
 30
0.0
 10
185.8125068509
 20
215.9884552695
 30
0.0
 10
185.8386820633
 20
216.0623910336
 30
0.0
 10
185.892332685
 20
216.1326561505
 30
0.0
 10
185.9208670027
 20
216.1423981074
 30
0.0
  0
SPLINE
  5
372
330
215
100
AcDbEntity
  8
RUNDUNGEN
  6
Continuous
 62
     9
100
AcDbSpline
210
0.0
220
0.0
230
1.0
 70
     8
 71
     3
 72
     8
 73
     4
 74
     0
 42
0.0000000001
 43
0.0000000001
 40
0.0
 40
0.0
 40
0.0
 40
0.0
 40
1.0
 40
1.0
 40
1.0
 40
1.0
 10
185.9208670027
 20
216.1423981074
 30
0.0
 10
185.9267978454
 20
216.1444229679
 30
0.0
 10
185.9331324427
 20
216.1455615362
 30
0.0
 10
185.9393994155
 20
216.1455642201
 30
0.0
  0
SPLINE
  5
373
330
215
100
AcDbEntity
  8
RUNDUNGEN
  6
Continuous
 62
     9
100
AcDbSpline
210
0.0
220
0.0
230
1.0
 70
     8
 71
     3
 72
    14
 73
    10
 74
     0
 42
0.0000000001
 43
0.0000000001
 40
0.0
 40
0.0
 40
0.0
 40
0.0
 40
0.3579366793999999
 40
0.5210571228000001
 40
0.6659590870000001
 40
0.7879505618000002
 40
0.8837830515999998
 40
0.9526998622
 40
1.0
 40
1.0
 40
1.0
 40
1.0
 10
185.7064718561
 20
209.7320889808
 30
0.0
 10
185.7064718561
 20
209.6057366506
 30
0.0
 10
185.7142503606
 20
209.4215982696
 30
0.0
 10
185.742296278
 20
209.1880909889
 30
0.0
 10
185.7697703385
 20
209.0386850858
 30
0.0
 10
185.8027805207
 20
208.9147635019
 30
0.0
 10
185.8409771662
 20
208.820605852
 30
0.0
 10
185.8810348598
 20
208.7568055199
 30
0.0
 10
185.9190349458
 20
208.7334871244
 30
0.0
 10
185.935685441
 20
208.7322412856
 30
0.0
  0
SPLINE
  5
374
330
215
100
AcDbEntity
  8
RUNDUNGEN
  6
Continuous
 62
     9
100
AcDbSpline
210
0.0
220
0.0
230
1.0
 70
     8
 71
     3
 72
    11
 73
     7
 74
     0
 42
0.0000000001
 43
0.0000000001
 40
0.0
 40
0.0
 40
0.0
 40
0.0
 40
0.2458966629
 40
0.4943968402000001
 40
0.7461703254000001
 40
1.0
 40
1.0
 40
1.0
 40
1.0
 10
185.935685441
 20
208.7322412856
 30
0.0
 10
185.8104248274
 20
208.7333206909
 30
0.0
 10
185.5562127298
 20
208.7877405859
 30
0.0
 10
185.2373830779
 20
209.0119272782
 30
0.0
 10
185.0246287099
 20
209.3427851148
 30
0.0
 10
184.9743436313
 20
209.6027834788
 30
0.0
 10
184.9738309988
 20
209.7320889808
 30
0.0
  0
SPLINE
  5
375
330
215
100
AcDbEntity
  8
RUNDUNGEN
  6
Continuous
 62
     9
100
AcDbSpline
210
0.0
220
0.0
230
1.0
 70
     8
 71
     3
 72
    15
 73
    11
 74
     0
 42
0.0000000001
 43
0.0000000001
 40
0.0
 40
0.0
 40
0.0
 40
0.0
 40
0.0418567282
 40
0.0715369806
 40
0.1082357873
 40
0.2032255803
 40
0.3256480359
 40
0.4718929332
 40
0.6370035993
 40
1.0
 40
1.0
 40
1.0
 40
1.0
 10
184.4690357933
 20
208.6443566952
 30
0.0
 10
184.4835430931
 20
208.6430618378
 30
0.0
 10
184.5057240607
 20
208.6262211333
 30
0.0
 10
184.5268951366
 20
208.595636905
 30
0.0
 10
184.5526336505
 20
208.5453208108
 30
0.0
 10
184.5803827017
 20
208.4611237516
 30
0.0
 10
184.6082684534
 20
208.3375674885
 30
0.0
 10
184.6311547731
 20
208.1882719124
 30
0.0
 10
184.6547018073
 20
207.9547377819
 30
0.0
 10
184.6611854448
 20
207.770821604
 30
0.0
 10
184.6611854501
 20
207.644509
 30
0.0
  0
SPLINE
  5
376
330
215
100
AcDbEntity
  8
RUNDUNGEN
  6
Continuous
 62
     9
100
AcDbSpline
210
0.0
220
0.0
230
1.0
 70
     8
 71
     3
 72
    12
 73
     8
 74
     0
 42
0.0000000001
 43
0.0000000001
 40
0.0
 40
0.0
 40
0.0
 40
0.0
 40
0.1348198864
 40
0.2674742436
 40
0.5210309467
 40
0.7636523827
 40
1.0
 40
1.0
 40
1.0
 40
1.0
 10
183.2709676721
 20
209.6299397761
 30
0.0
 10
183.2706523393
 20
209.552823033
 30
0.0
 10
183.2917616427
 20
209.3988778726
 30
0.0
 10
183.4110875713
 20
209.1224962659
 30
0.0
 10
183.6702563026
 20
208.8553253669
 30
0.0
 10
184.0579910706999
 20
208.6792909708
 30
0.0
 10
184.3338469457
 20
208.6435036377
 30
0.0
 10
184.4690358002
 20
208.6443590168
 30
0.0
  0
LINE
  5
377
330
215
100
AcDbEntity
  8
RUNDUNGEN
  6
Continuous
 62
     9
100
AcDbLine
 10
220.3853554395
 20
99.11668846959999
 30
0.0
 11
220.3864610484
 21
101.9909968886
 31
0.0
  0
SPLINE
  5
378
330
215
100
AcDbEntity
  8
RUNDUNGEN
  6
Continuous
 62
     9
100
AcDbSpline
210
0.0
220
0.0
230
1.0
 70
     8
 71
     3
 72
     9
 73
     5
 74
     0
 42
0.0000000001
 43
0.0000000001
 40
0.0
 40
0.0
 40
0.0
 40
0.0
 40
0.6339204553
 40
1.0
 40
1.0
 40
1.0
 40
1.0
 10
185.7061055984999
 20
215.1487940433
 30
0.0
 10
185.5512895821
 20
215.1485153049
 30
0.0
 10
185.3070735500999
 20
215.1476618445
 30
0.0
 10
185.0628481913
 20
215.1468358835
 30
0.0
 10
184.9734531102
 20
215.1455681415
 30
0.0
  0
SPLINE
  5
379
330
215
100
AcDbEntity
  8
RUNDUNGEN
  6
Continuous
 62
     9
100
AcDbSpline
210
0.0
220
0.0
230
1.0
 70
     8
 71
     3
 72
    11
 73
     7
 74
     0
 42
0.0000000001
 43
0.0000000001
 40
0.0
 40
0.0
 40
0.0
 40
0.0
 40
0.1410607908
 40
0.367507973
 40
0.6616989684000001
 40
1.0
 40
1.0
 40
1.0
 40
1.0
 10
183.270952032
 20
214.9412492948
 30
0.0
 10
183.2342609023
 20
214.9323448275
 30
0.0
 10
183.1360421473
 20
214.9216983203
 30
0.0
 10
182.9595251349
 20
214.9098251005
 30
0.0
 10
182.7295984856
 20
214.9028060042
 30
0.0
 10
182.5603307434
 20
214.9011671979
 30
0.0
 10
182.4697814708
 20
214.9011678182
 30
0.0
  0
SPLINE
  5
37A
330
215
100
AcDbEntity
  8
RUNDUNGEN
  6
Continuous
 62
     9
100
AcDbSpline
210
0.0
220
0.0
230
1.0
 70
     8
 71
     3
 72
    14
 73
    10
 74
     0
 42
0.0000000001
 43
0.0000000001
 40
0.0
 40
0.0
 40
0.0
 40
0.0
 40
0.0473007336
 40
0.1162182138
 40
0.2120510394
 40
0.3340428584
 40
0.4789450045000001
 40
0.6420657742
 40
1.0
 40
1.0
 40
1.0
 40
1.0
 10
155.6167822333
 20
208.7322412856
 30
0.0
 10
155.6334329369
 20
208.73348714
 30
0.0
 10
155.6714332196
 20
208.7568062565
 30
0.0
 10
155.7114911917
 20
208.8206069202
 30
0.0
 10
155.7496876224
 20
208.9147652422
 30
0.0
 10
155.7826978
 20
209.0386870866
 30
0.0
 10
155.8101717742
 20
209.1880933159
 30
0.0
 10
155.8382173631
 20
209.4215999176
 30
0.0
 10
155.8459958183
 20
209.605737527
 30
0.0
 10
155.8459958183
 20
209.7320889808
 30
0.0
  0
SPLINE
  5
37B
330
215
100
AcDbEntity
  8
RUNDUNGEN
  6
Continuous
 62
     9
100
AcDbSpline
210
0.0
220
0.0
230
1.0
 70
     8
 71
     3
 72
    11
 73
     7
 74
     0
 42
0.0000000001
 43
0.0000000001
 40
0.0
 40
0.0
 40
0.0
 40
0.0
 40
0.2538284637
 40
0.5056069812000001
 40
0.7541255826000001
 40
1.0
 40
1.0
 40
1.0
 40
1.0
 10
156.5786366755
 20
209.7320889808
 30
0.0
 10
156.5779476288
 20
209.6027849581
 30
0.0
 10
156.5279456296
 20
209.3427794018
 30
0.0
 10
156.315058204
 20
209.0119134107
 30
0.0
 10
155.9962402697
 20
208.7877755585
 30
0.0
 10
155.7420317186
 20
208.7332918001
 30
0.0
 10
155.6167822333
 20
208.7322412856
 30
0.0
  0
SPLINE
  5
37C
330
215
100
AcDbEntity
  8
RUNDUNGEN
  6
Continuous
 62
     9
100
AcDbSpline
210
0.0
220
0.0
230
1.0
 70
     8
 71
     3
 72
    12
 73
     8
 74
     0
 42
0.0000000001
 43
0.0000000001
 40
0.0
 40
0.0
 40
0.0
 40
0.0
 40
0.2363472953
 40
0.4789685141
 40
0.7325262823000001
 40
0.8651808602999999
 40
1.0
 40
1.0
 40
1.0
 40
1.0
 10
157.0834318745
 20
208.6443590133
 30
0.0
 10
157.2186205406
 20
208.643503635
 30
0.0
 10
157.4944760827
 20
208.6792909351
 30
0.0
 10
157.8822112103
 20
208.8553251603
 30
0.0
 10
158.1413804454
 20
209.1224966077
 30
0.0
 10
158.2607061406
 20
209.3988786491
 30
0.0
 10
158.2818153987999
 20
209.5528234602
 30
0.0
 10
158.2815001501
 20
209.6299397741
 30
0.0
  0
SPLINE
  5
37D
330
215
100
AcDbEntity
  8
RUNDUNGEN
  6
Continuous
 62
     9
100
AcDbSpline
210
0.0
220
0.0
230
1.0
 70
     8
 71
     3
 72
    15
 73
    11
 74
     0
 42
0.0000000001
 43
0.0000000001
 40
0.0
 40
0.0
 40
0.0
 40
0.0
 40
0.3629964007
 40
0.5281070668
 40
0.6743519642
 40
0.7967744197
 40
0.8917642126999998
 40
0.9284630195
 40
0.9581432718
 40
1.0
 40
1.0
 40
1.0
 40
1.0
 10
156.8912822243
 20
207.644509
 30
0.0
 10
156.8912822296
 20
207.7708216041
 30
0.0
 10
156.8977658672
 20
207.9547377819
 30
0.0
 10
156.9213129016
 20
208.1882719124
 30
0.0
 10
156.9441992214
 20
208.3375674885
 30
0.0
 10
156.9720849732
 20
208.4611237516
 30
0.0
 10
156.9998340244
 20
208.5453208109
 30
0.0
 10
157.0255725384
 20
208.5956369051
 30
0.0
 10
157.0467436143
 20
208.6262211333
 30
0.0
 10
157.0689245818
 20
208.6430618378
 30
0.0
 10
157.0834318817
 20
208.6443566952
 30
0.0
  0
SPLINE
  5
37E
330
215
100
AcDbEntity
  8
RUNDUNGEN
  6
Continuous
 62
     9
100
AcDbSpline
210
0.0
220
0.0
230
1.0
 70
     8
 71
     3
 72
    11
 73
     7
 74
     0
 42
0.0000000001
 43
0.0000000001
 40
0.0
 40
0.0
 40
0.0
 40
0.0
 40
0.338301034
 40
0.6324920295
 40
0.8589392106
 40
1.0
 40
1.0
 40
1.0
 40
1.0
 10
159.0826861688
 20
214.9011678184
 30
0.0
 10
158.9921368992
 20
214.9011671976
 30
0.0
 10
158.8228691629
 20
214.9028060043
 30
0.0
 10
158.5929425238
 20
214.9098251047
 30
0.0
 10
158.4164255157
 20
214.9216983109
 30
0.0
 10
158.318206771
 20
214.932344841
 30
0.0
 10
158.2815156401
 20
214.9412492954
 30
0.0
  0
SPLINE
  5
37F
330
215
100
AcDbEntity
  8
RUNDUNGEN
  6
Continuous
 62
     9
100
AcDbSpline
210
0.0
220
0.0
230
1.0
 70
     8
 71
     3
 72
     9
 73
     5
 74
     0
 42
0.0000000001
 43
0.0000000001
 40
0.0
 40
0.0
 40
0.0
 40
0.0
 40
0.6339291212
 40
1.0
 40
1.0
 40
1.0
 40
1.0
 10
155.8459958183
 20
214.7493917177
 30
0.0
 10
156.0008111538
 20
214.7491039907
 30
0.0
 10
156.2450224598
 20
214.7482381301
 30
0.0
 10
156.4892442093
 20
214.7474631553
 30
0.0
 10
156.5786351432
 20
214.7461658157
 30
0.0
  0
SPLINE
  5
380
330
215
100
AcDbEntity
  8
RUNDUNGEN
  6
Continuous
 62
     9
100
AcDbSpline
210
0.0
220
0.0
230
1.0
 70
     8
 71
     3
 72
     9
 73
     5
 74
     0
 42
0.0000000001
 43
0.0000000001
 40
0.0
 40
0.0
 40
0.0
 40
0.0
 40
0.3660795447
 40
1.0
 40
1.0
 40
1.0
 40
1.0
 10
156.5790145642
 20
215.1455681415
 30
0.0
 10
156.489619483
 20
215.1468358835
 30
0.0
 10
156.2453941242
 20
215.1476618445
 30
0.0
 10
156.0011780922
 20
215.1485153049
 30
0.0
 10
155.8463620758
 20
215.1487940433
 30
0.0
  0
SPLINE
  5
381
330
215
100
AcDbEntity
  8
RUNDUNGEN
  6
Continuous
 62
     9
100
AcDbSpline
210
0.0
220
0.0
230
1.0
 70
     8
 71
     3
 72
    14
 73
    10
 74
     0
 42
0.0000000001
 43
0.0000000001
 40
0.0
 40
0.0
 40
0.0
 40
0.0
 40
0.3580353104
 40
0.5211097329
 40
0.6659405597000001
 40
0.7878645776000001
 40
0.8836609367999999
 40
0.9526002700999999
 40
1.0
 40
1.0
 40
1.0
 40
1.0
 10
155.8291554582
 20
196.5245231394
 30
0.0
 10
155.8290604211
 20
196.6505503556
 30
0.0
 10
155.8211690634
 20
196.8341780006
 30
0.0
 10
155.7929965006
 20
197.0669895295
 30
0.0
 10
155.7654593976
 20
197.2158780975
 30
0.0
 10
155.7324022048
 20
197.339347535
 30
0.0
 10
155.6941839323
 20
197.4331515872
 30
0.0
 10
155.6540787295
 20
197.4967194927
 30
0.0
 10
155.6161117882
 20
197.5199025565
 30
0.0
 10
155.5994735587
 20
197.5211449327
 30
0.0
  0
SPLINE
  5
382
330
215
100
AcDbEntity
  8
RUNDUNGEN
  6
Continuous
 62
     9
100
AcDbSpline
210
0.0
220
0.0
230
1.0
 70
     8
 71
     3
 72
    12
 73
     8
 74
     0
 42
0.0000000001
 43
0.0000000001
 40
0.0
 40
0.0
 40
0.0
 40
0.0
 40
0.0591101367
 40
0.1409016379
 40
0.3660783890999999
 40
0.6594394532
 40
1.0
 40
1.0
 40
1.0
 40
1.0
 10
156.5613196609
 20
196.5212972375
 30
0.0
 10
156.5469327427
 20
196.5223653402
 30
0.0
 10
156.5125049463
 20
196.5225774763
 30
0.0
 10
156.4231888172
 20
196.5219165234
 30
0.0
 10
156.2766516519
 20
196.5234484312
 30
0.0
 10
156.0670033056
 20
196.5247571535
 30
0.0
 10
155.9122423166
 20
196.5222576223
 30
0.0
 10
155.8291554582
 20
196.5245231394
 30
0.0
  0
SPLINE
  5
383
330
215
100
AcDbEntity
  8
RUNDUNGEN
  6
Continuous
 62
     9
100
AcDbSpline
210
0.0
220
0.0
230
1.0
 70
     8
 71
     3
 72
    11
 73
     7
 74
     0
 42
0.0000000001
 43
0.0000000001
 40
0.0
 40
0.0
 40
0.0
 40
0.0
 40
0.245896862
 40
0.4943970254
 40
0.7461703859000001
 40
1.0
 40
1.0
 40
1.0
 40
1.0
 10
155.5994735587
 20
197.5211449327
 30
0.0
 10
155.7247336674
 20
197.5200645632
 30
0.0
 10
155.9789442152
 20
197.4656432923
 30
0.0
 10
156.2977712515
 20
197.2414561711
 30
0.0
 10
156.5105232756
 20
196.9105992254
 30
0.0
 10
156.5608072992
 20
196.6506020923
 30
0.0
 10
156.5613196609
 20
196.5212972375
 30
0.0
  0
SPLINE
  5
384
330
215
100
AcDbEntity
  8
RUNDUNGEN
  6
Continuous
 62
     9
100
AcDbSpline
210
0.0
220
0.0
230
1.0
 70
     8
 71
     3
 72
    15
 73
    11
 74
     0
 42
0.0000000001
 43
0.0000000001
 40
0.0
 40
0.0
 40
0.0
 40
0.0
 40
0.3629964015
 40
0.5281070684
 40
0.6743519669
 40
0.7967744238
 40
0.8917642179999999
 40
0.9284630249999999
 40
0.9581432768
 40
1.0
 40
1.0
 40
1.0
 40
1.0
 10
156.8912822242
 20
198.6099035263
 30
0.0
 10
156.8912822243
 20
198.4835909223
 30
0.0
 10
156.8977658587
 20
198.2996747441
 30
0.0
 10
156.9213128972
 20
198.0661406136
 30
0.0
 10
156.9441992219
 20
197.9168450376
 30
0.0
 10
156.972084979
 20
197.7932887746
 30
0.0
 10
156.9998340334
 20
197.7090917159
 30
0.0
 10
157.025572548
 20
197.6587756217
 30
0.0
 10
157.046743622
 20
197.628191395
 30
0.0
 10
157.0689245858
 20
197.6113506888
 30
0.0
 10
157.0834318838
 20
197.6100558311
 30
0.0
  0
SPLINE
  5
385
330
215
100
AcDbEntity
  8
RUNDUNGEN
  6
Continuous
 62
     9
100
AcDbSpline
210
0.0
220
0.0
230
1.0
 70
     8
 71
     3
 72
     9
 73
     5
 74
     0
 42
0.0000000001
 43
0.0000000001
 40
0.0
 40
0.0
 40
0.0
 40
0.0
 40
0.492971568
 40
1.0
 40
1.0
 40
1.0
 40
1.0
 10
157.0834318785
 20
197.6100543377
 30
0.0
 10
157.2248439982
 20
197.6109490273
 30
0.0
 10
157.5134716752
 20
197.572135303
 30
0.0
 10
157.7779530082
 20
197.4441053465
 30
0.0
 10
157.894304738
 20
197.3568287634
 30
0.0
  0
SPLINE
  5
386
330
215
100
AcDbEntity
  8
RUNDUNGEN
  6
Continuous
 62
     9
100
AcDbSpline
210
0.0
220
0.0
230
1.0
 70
     8
 71
     3
 72
    11
 73
     7
 74
     0
 42
0.0000000001
 43
0.0000000001
 40
0.0
 40
0.0
 40
0.0
 40
0.0
 40
0.2696515666
 40
0.5111747112
 40
0.7521220265000001
 40
1.0
 40
1.0
 40
1.0
 40
1.0
 10
157.8943058772
 20
197.3568299664
 30
0.0
 10
157.9321400615
 20
197.2944211115
 30
0.0
 10
157.9715038805
 20
197.1548675894
 30
0.0
 10
157.9460837495999
 20
196.9502693986
 30
0.0
 10
157.876178123
 20
196.7640642507
 30
0.0
 10
157.8091997954
 20
196.6493489602
 30
0.0
 10
157.7717924937
 20
196.5936574267
 30
0.0
  0
SPLINE
  5
387
330
215
100
AcDbEntity
  8
RUNDUNGEN
  6
Continuous
 62
     9
100
AcDbSpline
210
0.0
220
0.0
230
1.0
 70
     8
 71
     3
 72
    11
 73
     7
 74
     0
 42
0.0000000001
 43
0.0000000001
 40
0.0
 40
0.0
 40
0.0
 40
0.0
 40
0.2259611479
 40
0.471502708
 40
0.7325900471
 40
1.0
 40
1.0
 40
1.0
 40
1.0
 10
157.7717924937
 20
196.5936574267
 30
0.0
 10
157.7892886941
 20
196.5046463233
 30
0.0
 10
157.8629715347999
 20
196.3253086314
 30
0.0
 10
158.0569243552
 20
196.0990548946
 30
0.0
 10
158.3173979582
 20
195.9235578734
 30
0.0
 10
158.5195162759
 20
195.8510747314
 30
0.0
 10
158.6242755455
 20
195.8276128521
 30
0.0
  0
SPLINE
  5
388
330
215
100
AcDbEntity
  8
RUNDUNGEN
  6
Continuous
 62
     9
100
AcDbSpline
210
0.0
220
0.0
230
1.0
 70
     8
 71
     3
 72
     9
 73
     5
 74
     0
 42
0.0000000001
 43
0.0000000001
 40
0.0
 40
0.0
 40
0.0
 40
0.0
 40
0.4503299493
 40
1.0
 40
1.0
 40
1.0
 40
1.0
 10
158.4320943208
 20
197.3274694782
 30
0.0
 10
158.4085469558
 20
197.4405435034
 30
0.0
 10
158.3790214066
 20
197.6961089038
 30
0.0
 10
158.3696749326
 20
197.9525355024
 30
0.0
 10
158.3696749326
 20
198.0935139211
 30
0.0
  0
SPLINE
  5
389
330
215
100
AcDbEntity
  8
RUNDUNGEN
  6
Continuous
 62
     9
100
AcDbSpline
210
0.0
220
0.0
230
1.0
 70
     8
 71
     3
 72
    14
 73
    10
 74
     0
 42
0.0000000001
 43
0.0000000001
 40
0.0
 40
0.0
 40
0.0
 40
0.0
 40
0.0534461299
 40
0.1307804162
 40
0.2321869489
 40
0.355265468
 40
0.4971554269
 40
0.6545166415
 40
1.0
 40
1.0
 40
1.0
 40
1.0
 10
157.894305603
 20
197.3568299427999
 30
0.0
 10
157.8943444732
 20
197.3725421729
 30
0.0
 10
157.9063769032
 20
197.4101364546
 30
0.0
 10
157.9354276276
 20
197.4714669547
 30
0.0
 10
157.9777126918
 20
197.5497268601
 30
0.0
 10
158.0346443265
 20
197.6411478035
 30
0.0
 10
158.104108489
 20
197.7440887995
 30
0.0
 10
158.214121297
 20
197.8984872363
 30
0.0
 10
158.3072308138
 20
198.0134110856
 30
0.0
 10
158.3696749326
 20
198.0935139211
 30
0.0
  0
SPLINE
  5
38A
330
215
100
AcDbEntity
  8
RUNDUNGEN
  6
Continuous
 62
     9
100
AcDbSpline
210
0.0
220
0.0
230
1.0
 70
     8
 71
     3
 72
     9
 73
     5
 74
     0
 42
0.0000000001
 43
0.0000000001
 40
0.0
 40
0.0
 40
0.0
 40
0.0
 40
0.5410345279
 40
1.0
 40
1.0
 40
1.0
 40
1.0
 10
158.4320943208
 20
197.3274694782
 30
0.0
 10
158.3369691961
 20
197.3002612299
 30
0.0
 10
158.1528543939
 20
197.2730976725
 30
0.0
 10
157.9677934417
 20
197.3162828723
 30
0.0
 10
157.894305603
 20
197.3568299427999
 30
0.0
  0
SPLINE
  5
38B
330
215
100
AcDbEntity
  8
RUNDUNGEN
  6
Continuous
 62
     9
100
AcDbSpline
210
0.0
220
0.0
230
1.0
 70
     8
 71
     3
 72
    14
 73
    10
 74
     0
 42
0.0000000001
 43
0.0000000001
 40
0.0
 40
0.0
 40
0.0
 40
0.0
 40
0.2474694411
 40
0.3737445878
 40
0.5018844381000001
 40
0.6310856696
 40
0.7583827570000001
 40
0.8810588220999999
 40
1.0
 40
1.0
 40
1.0
 40
1.0
 10
156.558027558
 20
193.0581638013
 30
0.0
 10
156.546384346
 20
192.9321677259
 30
0.0
 10
156.542627813
 20
192.739575466
 30
0.0
 10
156.5828527112
 20
192.4853812722
 30
0.0
 10
156.6455397582
 20
192.2982158145
 30
0.0
 10
156.7526825026
 20
192.1297569561
 30
0.0
 10
156.9120552864
 20
192.010061667
 30
0.0
 10
157.100060521
 20
191.9656072056
 30
0.0
 10
157.2247154141
 20
191.9772606047
 30
0.0
 10
157.2842723885
 20
191.9895687005
 30
0.0
  0
SPLINE
  5
38C
330
215
100
AcDbEntity
  8
RUNDUNGEN
  6
Continuous
 62
     9
100
AcDbSpline
210
0.0
220
0.0
230
1.0
 70
     8
 71
     3
 72
     9
 73
     5
 74
     0
 42
0.0000000001
 43
0.0000000001
 40
0.0
 40
0.0
 40
0.0
 40
0.0
 40
0.6339228647000001
 40
1.0
 40
1.0
 40
1.0
 40
1.0
 10
155.8259567492
 20
193.0613897196
 30
0.0
 10
155.9806504426
 20
193.0611109816
 30
0.0
 10
156.224672592
 20
193.0602593284
 30
0.0
 10
156.4687040467
 20
193.0594312353
 30
0.0
 10
156.558027558
 20
193.0581638013
 30
0.0
  0
SPLINE
  5
38D
330
215
100
AcDbEntity
  8
RUNDUNGEN
  6
Continuous
 62
     9
100
AcDbSpline
210
0.0
220
0.0
230
1.0
 70
     8
 71
     3
 72
     9
 73
     5
 74
     0
 42
0.0000000001
 43
0.0000000001
 40
0.0
 40
0.0
 40
0.0
 40
0.0
 40
0.6339318384000001
 40
1.0
 40
1.0
 40
1.0
 40
1.0
 10
185.7233122161
 20
196.5245231394
 30
0.0
 10
185.5685965985
 20
196.5242442151
 30
0.0
 10
185.3245433171
 20
196.5233925308
 30
0.0
 10
185.0804807349
 20
196.5225644422
 30
0.0
 10
184.9911480134
 20
196.5212972375
 30
0.0
  0
SPLINE
  5
38E
330
215
100
AcDbEntity
  8
RUNDUNGEN
  6
Continuous
 62
     9
100
AcDbSpline
210
0.0
220
0.0
230
1.0
 70
     8
 71
     3
 72
    14
 73
    10
 74
     0
 42
0.0000000001
 43
0.0000000001
 40
0.0
 40
0.0
 40
0.0
 40
0.0
 40
0.0474003192
 40
0.1163403136
 40
0.2121370021
 40
0.3340613591
 40
0.4788923645000001
 40
0.6419671079000001
 40
1.0
 40
1.0
 40
1.0
 40
1.0
 10
185.9529941156
 20
197.5211449327
 30
0.0
 10
185.9363556806
 20
197.5199025412
 30
0.0
 10
185.8983885441
 20
197.496718768
 30
0.0
 10
185.8582830668
 20
197.4331505363
 30
0.0
 10
185.8200650059
 20
197.3393458231
 30
0.0
 10
185.7870078181
 20
197.2158761302
 30
0.0
 10
185.7594707999
 20
197.066987242
 30
0.0
 10
185.7312985615
 20
196.8341763805
 30
0.0
 10
185.7234072525999
 20
196.6505494942
 30
0.0
 10
185.7233122161
 20
196.5245231394
 30
0.0
  0
SPLINE
  5
38F
330
215
100
AcDbEntity
  8
RUNDUNGEN
  6
Continuous
 62
     9
100
AcDbSpline
210
0.0
220
0.0
230
1.0
 70
     8
 71
     3
 72
    11
 73
     7
 74
     0
 42
0.0000000001
 43
0.0000000001
 40
0.0
 40
0.0
 40
0.0
 40
0.0
 40
0.2538284312
 40
0.5056069540000001
 40
0.7541255117
 40
1.0
 40
1.0
 40
1.0
 40
1.0
 10
184.9911480134
 20
196.5212972375
 30
0.0
 10
184.9918398037
 20
196.6506005992
 30
0.0
 10
185.0418362697
 20
196.9106050671
 30
0.0
 10
185.254723574
 20
197.2414698823
 30
0.0
 10
185.5735381935
 20
197.465608299
 30
0.0
 10
185.8277452126
 20
197.5200934275
 30
0.0
 10
185.9529941156
 20
197.5211449327
 30
0.0
  0
SPLINE
  5
390
330
215
100
AcDbEntity
  8
RUNDUNGEN
  6
Continuous
 62
     9
100
AcDbSpline
210
0.0
220
0.0
230
1.0
 70
     8
 71
     3
 72
     9
 73
     5
 74
     0
 42
0.0000000001
 43
0.0000000001
 40
0.0
 40
0.0
 40
0.0
 40
0.0
 40
0.5488034612
 40
1.0
 40
1.0
 40
1.0
 40
1.0
 10
184.1932214179
 20
191.2267500553
 30
0.0
 10
184.1933165709
 20
191.3671898547
 30
0.0
 10
184.2046209699
 20
191.6230244842
 30
0.0
 10
184.2401773058
 20
191.877557534
 30
0.0
 10
184.2681952289
 20
191.9895685965
 30
0.0
  0
SPLINE
  5
391
330
215
100
AcDbEntity
  8
RUNDUNGEN
  6
Continuous
 62
     9
100
AcDbSpline
210
0.0
220
0.0
230
1.0
 70
     8
 71
     3
 72
    14
 73
    10
 74
     0
 42
0.0000000001
 43
0.0000000001
 40
0.0
 40
0.0
 40
0.0
 40
0.0
 40
0.1189413815
 40
0.2416177773
 40
0.3689147562
 40
0.4981158505
 40
0.6262555869
 40
0.7525306553
 40
1.0
 40
1.0
 40
1.0
 40
1.0
 10
184.2681952861
 20
191.989568699
 30
0.0
 10
184.3277523923
 20
191.9772607258
 30
0.0
 10
184.4524075281
 20
191.965607131
 30
0.0
 10
184.6404129772
 20
192.0100619449
 30
0.0
 10
184.7997856071
 20
192.1297574473
 30
0.0
 10
184.9069281596
 20
192.2982162067
 30
0.0
 10
184.9696150043
 20
192.4853815548
 30
0.0
 10
185.0098398092
 20
192.7395756024
 30
0.0
 10
185.0060833752
 20
192.9321677802
 30
0.0
 10
184.9944401032
 20
193.0581638011
 30
0.0
  0
SPLINE
  5
392
330
215
100
AcDbEntity
  8
RUNDUNGEN
  6
Continuous
 62
     9
100
AcDbSpline
210
0.0
220
0.0
230
1.0
 70
     8
 71
     3
 72
    15
 73
    11
 74
     0
 42
0.0000000001
 43
0.0000000001
 40
0.0
 40
0.0
 40
0.0
 40
0.0
 40
0.0418567232
 40
0.071536975
 40
0.1082357819
 40
0.203225576
 40
0.3256480329
 40
0.4718929314000001
 40
0.6370035983
 40
1.0
 40
1.0
 40
1.0
 40
1.0
 10
184.4690357904999
 20
197.6100558311
 30
0.0
 10
184.4835430884999
 20
197.6113506888
 30
0.0
 10
184.5057240523
 20
197.628191395
 30
0.0
 10
184.5268951262
 20
197.6587756217
 30
0.0
 10
184.5526336408
 20
197.7090917158
 30
0.0
 10
184.5803826953
 20
197.7932887744
 30
0.0
 10
184.6082684523
 20
197.9168450373
 30
0.0
 10
184.6311547771
 20
198.0661406134
 30
0.0
 10
184.6547018156
 20
198.2996747439
 30
0.0
 10
184.66118545
 20
198.4835909223
 30
0.0
 10
184.6611854501
 20
198.6099035263
 30
0.0
  0
SPLINE
  5
393
330
215
100
AcDbEntity
  8
RUNDUNGEN
  6
Continuous
 62
     9
100
AcDbSpline
210
0.0
220
0.0
230
1.0
 70
     8
 71
     3
 72
     9
 73
     5
 74
     0
 42
0.0000000001
 43
0.0000000001
 40
0.0
 40
0.0
 40
0.0
 40
0.0
 40
0.5070250934000001
 40
1.0
 40
1.0
 40
1.0
 40
1.0
 10
183.6581627577
 20
197.3568290108
 30
0.0
 10
183.7745134868
 20
197.4441053685
 30
0.0
 10
184.03899505
 20
197.5721350371
 30
0.0
 10
184.3276226965
 20
197.6109490918999
 30
0.0
 10
184.4690357955
 20
197.6100544263
 30
0.0
  0
SPLINE
  5
394
330
215
100
AcDbEntity
  8
RUNDUNGEN
  6
Continuous
 62
     9
100
AcDbSpline
210
0.0
220
0.0
230
1.0
 70
     8
 71
     3
 72
    11
 73
     7
 74
     0
 42
0.0000000001
 43
0.0000000001
 40
0.0
 40
0.0
 40
0.0
 40
0.0
 40
0.2478776923
 40
0.4888251119
 40
0.7303483304000001
 40
1.0
 40
1.0
 40
1.0
 40
1.0
 10
183.7806751978
 20
196.5936574267
 30
0.0
 10
183.7432678614
 20
196.6493488226
 30
0.0
 10
183.6762896609
 20
196.76406417
 30
0.0
 10
183.6063844528
 20
196.9502691484
 30
0.0
 10
183.580963592
 20
197.1548679071
 30
0.0
 10
183.6203296382
 20
197.2944199445
 30
0.0
 10
183.6581619296
 20
197.3568299555
 30
0.0
  0
SPLINE
  5
395
330
215
100
AcDbEntity
  8
RUNDUNGEN
  6
Continuous
 62
     9
100
AcDbSpline
210
0.0
220
0.0
230
1.0
 70
     8
 71
     3
 72
    11
 73
     7
 74
     0
 42
0.0000000001
 43
0.0000000001
 40
0.0
 40
0.0
 40
0.0
 40
0.0
 40
0.2674099517
 40
0.5284972912
 40
0.7740388520999999
 40
1.0
 40
1.0
 40
1.0
 40
1.0
 10
182.9281921245
 20
195.8276128813
 30
0.0
 10
183.0329513944
 20
195.8510747566
 30
0.0
 10
183.2350697143
 20
195.9235578908
 30
0.0
 10
183.4955433233
 20
196.0990549023
 30
0.0
 10
183.6894961514
 20
196.325308633
 30
0.0
 10
183.7631789963
 20
196.5046463236
 30
0.0
 10
183.7806751978
 20
196.5936574267
 30
0.0
  0
SPLINE
  5
396
330
215
100
AcDbEntity
  8
RUNDUNGEN
  6
Continuous
 62
     9
100
AcDbSpline
210
0.0
220
0.0
230
1.0
 70
     8
 71
     3
 72
    14
 73
    10
 74
     0
 42
0.0000000001
 43
0.0000000001
 40
0.0
 40
0.0
 40
0.0
 40
0.0
 40
0.3455749892
 40
0.5029437372
 40
0.6448544851
 40
0.7679439676000001
 40
0.8692994004
 40
0.9472073190999999
 40
1.0
 40
1.0
 40
1.0
 40
1.0
 10
183.1827927417
 20
198.0935139211999
 30
0.0
 10
183.2483977855
 20
198.0159721788
 30
0.0
 10
183.3371261257
 20
197.8975244867
 30
0.0
 10
183.4484366077999
 20
197.7441419786
 30
0.0
 10
183.5178643752
 20
197.6411756371
 30
0.0
 10
183.5745398979
 20
197.5496106718999
 30
0.0
 10
183.6179923432
 20
197.4719812532
 30
0.0
 10
183.6452949791
 20
197.4093686081
 30
0.0
 10
183.6558783205
 20
197.3721777829
 30
0.0
 10
183.6581620713
 20
197.3568299427999
 30
0.0
  0
SPLINE
  5
397
330
215
100
AcDbEntity
  8
RUNDUNGEN
  6
Continuous
 62
     9
100
AcDbSpline
210
0.0
220
0.0
230
1.0
 70
     8
 71
     3
 72
     9
 73
     5
 74
     0
 42
0.0000000001
 43
0.0000000001
 40
0.0
 40
0.0
 40
0.0
 40
0.0
 40
0.5496699657999999
 40
1.0
 40
1.0
 40
1.0
 40
1.0
 10
183.1827927417
 20
198.0935139211999
 30
0.0
 10
183.1827927417
 20
197.9525355242
 30
0.0
 10
183.1734462687
 20
197.6961089257
 30
0.0
 10
183.1439207229
 20
197.4405435247
 30
0.0
 10
183.1203733535
 20
197.3274694782
 30
0.0
  0
SPLINE
  5
398
330
215
100
AcDbEntity
  8
RUNDUNGEN
  6
Continuous
 62
     9
100
AcDbSpline
210
0.0
220
0.0
230
1.0
 70
     8
 71
     3
 72
     9
 73
     5
 74
     0
 42
0.0000000001
 43
0.0000000001
 40
0.0
 40
0.0
 40
0.0
 40
0.0
 40
0.4589972298
 40
1.0
 40
1.0
 40
1.0
 40
1.0
 10
183.6581620713
 20
197.3568299427999
 30
0.0
 10
183.5847364658
 20
197.3161561268
 30
0.0
 10
183.3995047418
 20
197.2729055318
 30
0.0
 10
183.2156468813
 20
197.3008024731
 30
0.0
 10
183.1203733535
 20
197.3274694782
 30
0.0
  0
SPLINE
  5
399
330
215
100
AcDbEntity
  8
RUNDUNGEN
  6
Continuous
 62
     9
100
AcDbSpline
210
0.0
220
0.0
230
1.0
 70
     8
 71
     3
 72
     9
 73
     5
 74
     0
 42
0.0000000001
 43
0.0000000001
 40
0.0
 40
0.0
 40
0.0
 40
0.0
 40
0.3660777435
 40
1.0
 40
1.0
 40
1.0
 40
1.0
 10
184.994438866
 20
193.0581638011
 30
0.0
 10
185.0837628292
 20
193.0594312559
 30
0.0
 10
185.3277951147
 20
193.0602593009999
 30
0.0
 10
185.5718180939
 20
193.0611109643
 30
0.0
 10
185.7265121652
 20
193.0613897022
 30
0.0
  0
SPLINE
  5
39A
330
215
100
AcDbEntity
  8
RUNDUNGEN
  6
Continuous
 62
     9
100
AcDbSpline
210
0.0
220
0.0
230
1.0
 70
     8
 71
     3
 72
     9
 73
     5
 74
     0
 42
0.0000000001
 43
0.0000000001
 40
0.0
 40
0.0
 40
0.0
 40
0.0
 40
0.4511965386
 40
1.0
 40
1.0
 40
1.0
 40
1.0
 10
157.2842724454
 20
191.9895685965
 30
0.0
 10
157.3122903675
 20
191.8775575338
 30
0.0
 10
157.3478467025
 20
191.6230244841
 30
0.0
 10
157.3591511024
 20
191.3671898547
 30
0.0
 10
157.3592462564
 20
191.2267500553
 30
0.0
  0
SPLINE
  5
3A1
330
215
100
AcDbEntity
  8
RUNDUNGEN
  6
Continuous
 62
     9
100
AcDbSpline
210
0.0
220
0.0
230
1.0
 70
     8
 71
     3
 72
     9
 73
     5
 74
     0
 42
0.0000000001
 43
0.0000000001
 40
0.0
 40
0.0
 40
0.0
 40
0.0
 40
0.2732939448
 40
1.0
 40
1.0
 40
1.0
 40
1.0
 10
157.530894076
 20
138.6655100157
 30
0.0
 10
157.4898696542
 20
138.7005630847
 30
0.0
 10
157.3441266172
 20
138.8337301542
 30
0.0
 10
157.214966637
 20
138.9859077553
 30
0.0
 10
157.136865825
 20
139.1062736003
 30
0.0
  0
SPLINE
  5
3A2
330
215
100
AcDbEntity
  8
RUNDUNGEN
  6
Continuous
 62
     9
100
AcDbSpline
210
0.0
220
0.0
230
1.0
 70
     8
 71
     3
 72
     9
 73
     5
 74
     0
 42
0.0000000001
 43
0.0000000001
 40
0.0
 40
0.0
 40
0.0
 40
0.0
 40
0.2541919002
 40
1.0
 40
1.0
 40
1.0
 40
1.0
 10
157.4161203077
 20
138.1178433319
 30
0.0
 10
157.3833537077
 20
138.1985710841
 30
0.0
 10
157.2643504299
 20
138.5201200342
 30
0.0
 10
157.1804260122
 20
138.8543870022
 30
0.0
 10
157.136865825
 20
139.1062736003
 30
0.0
  0
SPLINE
  5
3A3
330
215
100
AcDbEntity
  8
RUNDUNGEN
  6
Continuous
 62
     9
100
AcDbSpline
210
0.0
220
0.0
230
1.0
 70
     8
 71
     3
 72
    15
 73
    11
 74
     0
 42
0.0000000001
 43
0.0000000001
 40
0.0
 40
0.0
 40
0.0
 40
0.0
 40
0.0466441647
 40
0.0786802141
 40
0.1177276565
 40
0.2172481951
 40
0.3433814231
 40
0.4914182579000001
 40
0.6550795504
 40
1.0
 40
1.0
 40
1.0
 40
1.0
 10
158.7058789165
 20
138.148191061
 30
0.0
 10
158.6864290133
 20
138.146726387
 30
0.0
 10
158.6562206223
 20
138.1263515903
 30
0.0
 10
158.6265363164
 20
138.0876497191
 30
0.0
 10
158.5912046759
 20
138.0251810943
 30
0.0
 10
158.5530155572
 20
137.9208653944
 30
0.0
 10
158.5153193995
 20
137.7690391066
 30
0.0
 10
158.4854144181
 20
137.5882427173
 30
0.0
 10
158.4572738342
 20
137.3150197201
 30
0.0
 10
158.4523191141
 20
137.1018868125
 30
0.0
 10
158.4563817591
 20
136.957710257
 30
0.0
  0
SPLINE
  5
3A4
330
215
100
AcDbEntity
  8
RUNDUNGEN
  6
Continuous
 62
     9
100
AcDbSpline
210
0.0
220
0.0
230
1.0
 70
     8
 71
     3
 72
    10
 73
     6
 74
     0
 42
0.0000000001
 43
0.0000000001
 40
0.0
 40
0.0
 40
0.0
 40
0.0
 40
0.3185487079
 40
0.5813127653
 40
1.0
 40
1.0
 40
1.0
 40
1.0
 10
158.7058789165
 20
138.148191061
 30
0.0
 10
158.5674587827
 20
138.1507348722
 30
0.0
 10
158.3157608581
 20
138.2048190481
 30
0.0
 10
157.9168041316
 20
138.3786522082
 30
0.0
 10
157.6692487683
 20
138.5473160051
 30
0.0
 10
157.530899405
 20
138.6655128807
 30
0.0
  0
SPLINE
  5
3A5
330
215
100
AcDbEntity
  8
RUNDUNGEN
  6
Continuous
 62
     9
100
AcDbSpline
210
0.0
220
0.0
230
1.0
 70
     8
 71
     3
 72
    15
 73
    11
 74
     0
 42
0.0000000001
 43
0.0000000001
 40
0.0
 40
0.0
 40
0.0
 40
0.0
 40
0.3455289032
 40
0.5092726767000001
 40
0.6572162357
 40
0.7831353444
 40
0.8823686105
 40
0.9212789109999999
 40
0.9532182473999998
 40
1.0
 40
1.0
 40
1.0
 40
1.0
 10
158.4929008757
 20
136.9573671501
 30
0.0
 10
158.4861908073
 20
137.1014574645
 30
0.0
 10
158.48733703
 20
137.3145903354
 30
0.0
 10
158.5108776206
 20
137.5880397906
 30
0.0
 10
158.5378794529
 20
137.768895481
 30
0.0
 10
158.5732757762
 20
137.9207498091
 30
0.0
 10
158.6100549427
 20
138.0251255035
 30
0.0
 10
158.6447061425
 20
138.0875840468
 30
0.0
 10
158.6741044913
 20
138.126389754
 30
0.0
 10
158.7044140467
 20
138.1466046876
 30
0.0
 10
158.7238921938
 20
138.1480238407
 30
0.0
  0
SPLINE
  5
3A6
330
215
100
AcDbEntity
  8
RUNDUNGEN
  6
Continuous
 62
     9
100
AcDbSpline
210
0.0
220
0.0
230
1.0
 70
     8
 71
     3
 72
    15
 73
    11
 74
     0
 42
0.0000000001
 43
0.0000000001
 40
0.0
 40
0.0
 40
0.0
 40
0.0
 40
0.0466449363
 40
0.0786810649
 40
0.1177283165
 40
0.217247906
 40
0.343380023
 40
0.4914162130000001
 40
0.6550776335000001
 40
1.0
 40
1.0
 40
1.0
 40
1.0
 10
182.846588817
 20
138.1481866939
 30
0.0
 10
182.8660389861999
 20
138.1467211377
 30
0.0
 10
182.8962471712
 20
138.1263460902
 30
0.0
 10
182.9259320655
 20
138.0876442047
 30
0.0
 10
182.9612640966
 20
138.0251763133
 30
0.0
 10
182.9994540681
 20
137.9208618575
 30
0.0
 10
183.0371512236
 20
137.7690369016
 30
0.0
 10
183.067057205
 20
137.5882412734
 30
0.0
 10
183.0951988759
 20
137.3150176662
 30
0.0
 10
183.1001536849
 20
137.1018837613
 30
0.0
 10
183.0960907409
 20
136.957706347
 30
0.0
  0
SPLINE
  5
3A7
330
215
100
AcDbEntity
  8
RUNDUNGEN
  6
Continuous
 62
     9
100
AcDbSpline
210
0.0
220
0.0
230
1.0
 70
     8
 71
     3
 72
    15
 73
    11
 74
     0
 42
0.0000000001
 43
0.0000000001
 40
0.0
 40
0.0
 40
0.0
 40
0.0
 40
0.0467817526
 40
0.078721089
 40
0.1176313895
 40
0.2168646556
 40
0.3427837643
 40
0.4907273233
 40
0.6544710968000001
 40
1.0
 40
1.0
 40
1.0
 40
1.0
 10
182.8285754804999
 20
138.1480238407
 30
0.0
 10
182.8480536276
 20
138.1466046876
 30
0.0
 10
182.878363183
 20
138.126389754
 30
0.0
 10
182.9077615319
 20
138.0875840468
 30
0.0
 10
182.9424127316
 20
138.0251255035
 30
0.0
 10
182.9791918982
 20
137.9207498091
 30
0.0
 10
183.0145882214
 20
137.768895481
 30
0.0
 10
183.0415900537
 20
137.5880397906
 30
0.0
 10
183.0651306443
 20
137.3145903354
 30
0.0
 10
183.0662768671
 20
137.1014574645
 30
0.0
 10
183.0595667986
 20
136.9573671501
 30
0.0
  0
SPLINE
  5
3A8
330
215
100
AcDbEntity
  8
RUNDUNGEN
  6
Continuous
 62
     9
100
AcDbSpline
210
0.0
220
0.0
230
1.0
 70
     8
 71
     3
 72
    10
 73
     6
 74
     0
 42
0.0000000001
 43
0.0000000001
 40
0.0
 40
0.0
 40
0.0
 40
0.0
 40
0.4186814439
 40
0.6814654033
 40
1.0
 40
1.0
 40
1.0
 40
1.0
 10
184.0215565265
 20
138.6655009553
 30
0.0
 10
183.8832160049
 20
138.5473013271
 30
0.0
 10
183.6356426565
 20
138.3786617381
 30
0.0
 10
183.2367019854
 20
138.2048042681
 30
0.0
 10
182.9850007872
 20
138.1507426664
 30
0.0
 10
182.8465887204
 20
138.1481937747
 30
0.0
  0
SPLINE
  5
3A9
330
215
100
AcDbEntity
  8
RUNDUNGEN
  6
Continuous
 62
     9
100
AcDbSpline
210
0.0
220
0.0
230
1.0
 70
     8
 71
     3
 72
     9
 73
     5
 74
     0
 42
0.0000000001
 43
0.0000000001
 40
0.0
 40
0.0
 40
0.0
 40
0.0
 40
0.2464426237
 40
1.0
 40
1.0
 40
1.0
 40
1.0
 10
184.4156018493
 20
139.1062736003
 30
0.0
 10
184.4012089905
 20
139.0230454697
 30
0.0
 10
184.3341895579
 20
138.6869226285
 30
0.0
 10
184.2334586401
 20
138.3571283614
 30
0.0
 10
184.1363366536
 20
138.1178183071
 30
0.0
  0
SPLINE
  5
3AA
330
215
100
AcDbEntity
  8
RUNDUNGEN
  6
Continuous
 62
     9
100
AcDbSpline
210
0.0
220
0.0
230
1.0
 70
     8
 71
     3
 72
     9
 73
     5
 74
     0
 42
0.0000000001
 43
0.0000000001
 40
0.0
 40
0.0
 40
0.0
 40
0.0
 40
0.2290878325
 40
1.0
 40
1.0
 40
1.0
 40
1.0
 10
184.4156018493
 20
139.1062736003
 30
0.0
 10
184.3909808112
 20
139.0683259933
 30
0.0
 10
184.2766125868999
 20
138.9071852328
 30
0.0
 10
184.1372892588
 20
138.7643867895
 30
0.0
 10
184.0215629554
 20
138.6654975
 30
0.0
  0
SPLINE
  5
3AB
330
215
100
AcDbEntity
  8
RUNDUNGEN
  6
Continuous
 62
     9
100
AcDbSpline
210
0.0
220
0.0
230
1.0
 70
     8
 71
     3
 72
    11
 73
     7
 74
     0
 42
0.0000000001
 43
0.0000000001
 40
0.0
 40
0.0
 40
0.0
 40
0.0
 40
0.2458432646
 40
0.4943708449
 40
0.7461743314
 40
1.0
 40
1.0
 40
1.0
 40
1.0
 10
181.5795846296
 20
138.2322412856
 30
0.0
 10
181.7054595333
 20
138.2322504639
 30
0.0
 10
181.9614276701
 20
138.2852155411
 30
0.0
 10
182.283052211
 20
138.5088815011
 30
0.0
 10
182.4984052387
 20
138.8407838859
 30
0.0
 10
182.5485929907
 20
139.10213133
 30
0.0
 10
182.5496558800999
 20
139.2320889808
 30
0.0
  0
SPLINE
  5
3AC
330
215
100
AcDbEntity
  8
RUNDUNGEN
  6
Continuous
 62
     9
100
AcDbSpline
210
0.0
220
0.0
230
1.0
 70
     8
 71
     3
 72
    14
 73
    10
 74
     0
 42
0.0000000001
 43
0.0000000001
 40
0.0
 40
0.0
 40
0.0
 40
0.0
 40
0.0479120936
 40
0.1171512043
 40
0.2130884327
 40
0.3350336284
 40
0.4797801485
 40
0.6426683596000001
 40
1.0
 40
1.0
 40
1.0
 40
1.0
 10
181.5795846296
 20
138.2322412856
 30
0.0
 10
181.5626881917
 20
138.2334829463
 30
0.0
 10
181.5241462066
 20
138.2565977697
 30
0.0
 10
181.483184545
 20
138.3204864922
 30
0.0
 10
181.4442959373
 20
138.4146895171
 30
0.0
 10
181.4106568404
 20
138.5386451419
 30
0.0
 10
181.3826828278
 20
138.6880693471
 30
0.0
 10
181.3541244287
 20
138.9215700741
 30
0.0
 10
181.3462026648
 20
139.1057344033
 30
0.0
 10
181.3462026648
 20
139.2320889808
 30
0.0
  0
SPLINE
  5
3AD
330
215
100
AcDbEntity
  8
RUNDUNGEN
  6
Continuous
 62
     9
100
AcDbSpline
210
0.0
220
0.0
230
1.0
 70
     8
 71
     3
 72
    14
 73
    10
 74
     0
 42
0.0000000001
 43
0.0000000001
 40
0.0
 40
0.0
 40
0.0
 40
0.0
 40
0.0479120936
 40
0.1171512042
 40
0.2130884328
 40
0.3350336285
 40
0.4797801485
 40
0.6426683596000001
 40
1.0
 40
1.0
 40
1.0
 40
1.0
 10
159.9728830447
 20
138.2322412856
 30
0.0
 10
159.9897794826
 20
138.2334829463
 30
0.0
 10
160.0283214677
 20
138.2565977697
 30
0.0
 10
160.0692831293
 20
138.3204864921
 30
0.0
 10
160.108171737
 20
138.4146895172
 30
0.0
 10
160.141810834
 20
138.538645142
 30
0.0
 10
160.1697848465
 20
138.6880693471
 30
0.0
 10
160.1983432458
 20
138.9215700741
 30
0.0
 10
160.206265009
 20
139.1057344033
 30
0.0
 10
160.206265009
 20
139.2320889808
 30
0.0
  0
SPLINE
  5
3AE
330
215
100
AcDbEntity
  8
RUNDUNGEN
  6
Continuous
 62
     9
100
AcDbSpline
210
0.0
220
0.0
230
1.0
 70
     8
 71
     3
 72
    11
 73
     7
 74
     0
 42
0.0000000001
 43
0.0000000001
 40
0.0
 40
0.0
 40
0.0
 40
0.0
 40
0.2458432825
 40
0.4943708715
 40
0.7461743503
 40
1.0
 40
1.0
 40
1.0
 40
1.0
 10
159.9728830447
 20
138.2322412856
 30
0.0
 10
159.847008132
 20
138.2322504632
 30
0.0
 10
159.591039984
 20
138.2852155503
 30
0.0
 10
159.2694154315
 20
138.5088815227
 30
0.0
 10
159.0540624571
 20
138.8407839131
 30
0.0
 10
159.0038746412
 20
139.1021313395
 30
0.0
 10
159.0028117942
 20
139.2320889808
 30
0.0
  0
SPLINE
  5
3AF
330
215
100
AcDbEntity
  8
RUNDUNGEN
  6
Continuous
 62
     9
100
AcDbSpline
210
0.0
220
0.0
230
1.0
 70
     8
 71
     3
 72
     9
 73
     5
 74
     0
 42
0.0000000001
 43
0.0000000001
 40
0.0
 40
0.0
 40
0.0
 40
0.0
 40
0.2494304345
 40
1.0
 40
1.0
 40
1.0
 40
1.0
 10
188.2626410032
 20
146.205494098
 30
0.0
 10
188.2233779298
 20
146.1251653258
 30
0.0
 10
188.0635244253
 20
145.8043212121
 30
0.0
 10
187.895298331
 20
145.4876083087
 30
0.0
 10
187.7632809118999
 20
145.2531751927
 30
0.0
  0
SPLINE
  5
3B0
330
215
100
AcDbEntity
  8
RUNDUNGEN
  6
Continuous
 62
     9
100
AcDbSpline
210
0.0
220
0.0
230
1.0
 70
     8
 71
     3
 72
    13
 73
     9
 74
     0
 42
0.0000000001
 43
0.0000000001
 40
0.0
 40
0.0
 40
0.0
 40
0.0
 40
0.2816440532
 40
0.5580549501
 40
0.6907616748000001
 40
0.8152580627
 40
0.9235343465000001
 40
1.0
 40
1.0
 40
1.0
 40
1.0
 10
187.3109017226
 20
145.7295220499
 30
0.0
 10
187.197184489
 20
145.6749726085
 30
0.0
 10
186.971163999
 20
145.5683533285
 30
0.0
 10
186.6891894774
 20
145.4410428093
 30
0.0
 10
186.4693846503
 20
145.347378109
 30
0.0
 10
186.3175295131
 20
145.2860068559
 30
0.0
 10
186.187440522
 20
145.2392451632
 30
0.0
 10
186.1078276715
 20
145.2147322769
 30
0.0
 10
186.073902372
 20
145.2100834467
 30
0.0
  0
SPLINE
  5
3B1
330
215
100
AcDbEntity
  8
RUNDUNGEN
  6
Continuous
 62
     9
100
AcDbSpline
210
0.0
220
0.0
230
1.0
 70
     8
 71
     3
 72
    11
 73
     7
 74
     0
 42
0.0000000001
 43
0.0000000001
 40
0.0
 40
0.0
 40
0.0
 40
0.0
 40
0.2437197268
 40
0.4919375609000001
 40
0.7448586015
 40
1.0
 40
1.0
 40
1.0
 40
1.0
 10
186.0739703193
 20
145.2100927192
 30
0.0
 10
186.1978953213
 20
145.2096065378
 30
0.0
 10
186.4505833328
 20
145.1555526769
 30
0.0
 10
186.7677916826
 20
144.9316721479
 30
0.0
 10
186.9815752958
 20
144.6013708732
 30
0.0
 10
187.0346095219
 20
144.3413552904
 30
0.0
 10
187.0367472704
 20
144.2116392876
 30
0.0
  0
SPLINE
  5
3B2
330
215
100
AcDbEntity
  8
RUNDUNGEN
  6
Continuous
 62
     9
100
AcDbSpline
210
0.0
220
0.0
230
1.0
 70
     8
 71
     3
 72
    11
 73
     7
 74
     0
 42
0.0000000001
 43
0.0000000001
 40
0.0
 40
0.0
 40
0.0
 40
0.0
 40
0.2551413999
 40
0.5080624496000001
 40
0.7562802867000001
 40
1.0
 40
1.0
 40
1.0
 40
1.0
 10
154.5157214675
 20
144.2116393448
 30
0.0
 10
154.5178591251
 20
144.3413553249
 30
0.0
 10
154.5708931011
 20
144.6013708953
 30
0.0
 10
154.7846762702
 20
144.9316723731
 30
0.0
 10
155.1018843759
 20
145.1555531746
 30
0.0
 10
155.3545723881
 20
145.2096070113
 30
0.0
 10
155.4784973599
 20
145.2100930962
 30
0.0
  0
SPLINE
  5
3B3
330
215
100
AcDbEntity
  8
RUNDUNGEN
  6
Continuous
 62
     9
100
AcDbSpline
210
0.0
220
0.0
230
1.0
 70
     8
 71
     3
 72
    13
 73
     9
 74
     0
 42
0.0000000001
 43
0.0000000001
 40
0.0
 40
0.0
 40
0.0
 40
0.0
 40
0.0764397515
 40
0.1846895307
 40
0.3091625511
 40
0.4418632245000001
 40
0.7183081193000001
 40
1.0
 40
1.0
 40
1.0
 40
1.0
 10
155.4785554009
 20
145.2100842737
 30
0.0
 10
155.4446417396
 20
145.2147305859
 30
0.0
 10
155.3650526542
 20
145.2392386228
 30
0.0
 10
155.2349940629
 20
145.285981353
 30
0.0
 10
155.083170026
 20
145.347359699
 30
0.0
 10
154.8633651371
 20
145.4410243128
 30
0.0
 10
154.5813673316
 20
145.5683591504
 30
0.0
 10
154.3552955491
 20
145.6749511788
 30
0.0
 10
154.2415659547
 20
145.7295220446
 30
0.0
  0
SPLINE
  5
3B4
330
215
100
AcDbEntity
  8
RUNDUNGEN
  6
Continuous
 62
     9
100
AcDbSpline
210
0.0
220
0.0
230
1.0
 70
     8
 71
     3
 72
     9
 73
     5
 74
     0
 42
0.0000000001
 43
0.0000000001
 40
0.0
 40
0.0
 40
0.0
 40
0.0
 40
0.7505697806999999
 40
1.0
 40
1.0
 40
1.0
 40
1.0
 10
153.7891904044
 20
145.2531723367
 30
0.0
 10
153.6571583244
 20
145.4875984897
 30
0.0
 10
153.488957299
 20
145.8043264169
 30
0.0
 10
153.3290844977
 20
146.125162459
 30
0.0
 10
153.2898266712
 20
146.205494098
 30
0.0
  0
SPLINE
  5
3B5
330
215
100
AcDbEntity
  8
RUNDUNGEN
  6
Continuous
 62
     9
100
AcDbSpline
210
0.0
220
0.0
230
1.0
 70
     8
 71
     3
 72
    11
 73
     7
 74
     0
 42
0.0000000001
 43
0.0000000001
 40
0.0
 40
0.0
 40
0.0
 40
0.0
 40
0.2533775053
 40
0.5054045269
 40
0.7542749773999999
 40
1.0
 40
1.0
 40
1.0
 40
1.0
 10
154.531592811
 20
144.2056366602
 30
0.0
 10
154.5333557839
 20
144.3356261507
 30
0.0
 10
154.5868712493
 20
144.5968464762
 30
0.0
 10
154.8046239771
 20
144.9278237714
 30
0.0
 10
155.1276839134
 20
145.1510511652
 30
0.0
 10
155.3841852123
 20
145.2041523219
 30
0.0
 10
155.5102603203
 20
145.2042601107
 30
0.0
  0
SPLINE
  5
3B6
330
215
100
AcDbEntity
  8
RUNDUNGEN
  6
Continuous
 62
     9
100
AcDbSpline
210
0.0
220
0.0
230
1.0
 70
     8
 71
     3
 72
    11
 73
     7
 74
     0
 42
0.0000000001
 43
0.0000000001
 40
0.0
 40
0.0
 40
0.0
 40
0.0
 40
0.253376297
 40
0.5054123432999999
 40
0.7543054325
 40
1.0
 40
1.0
 40
1.0
 40
1.0
 10
159.0028117942
 20
143.3004271509
 30
0.0
 10
159.0050854424
 20
143.4303832688
 30
0.0
 10
159.0577564386
 20
143.6915827195
 30
0.0
 10
159.2758124628
 20
144.0225184213
 30
0.0
 10
159.5986968634
 20
144.2456448749
 30
0.0
 10
159.8551333851
 20
144.2990277319
 30
0.0
 10
159.9811688432
 20
144.2990566857
 30
0.0
  0
SPLINE
  5
3B7
330
215
100
AcDbEntity
  8
RUNDUNGEN
  6
Continuous
 62
     9
100
AcDbSpline
210
0.0
220
0.0
230
1.0
 70
     8
 71
     3
 72
    13
 73
     9
 74
     0
 42
0.0000000001
 43
0.0000000001
 40
0.0
 40
0.0
 40
0.0
 40
0.0
 40
0.3524157728
 40
0.6578002196
 40
0.7803903448
 40
0.8781834775
 40
0.9501263765999999
 40
1.0
 40
1.0
 40
1.0
 40
1.0
 10
160.2062650084
 20
143.300427151
 30
0.0
 10
160.2062650084
 20
143.4240756869
 30
0.0
 10
160.1963059051
 20
143.6549240924
 30
0.0
 10
160.1587045122
 20
143.9269668205
 30
0.0
 10
160.111986918
 20
144.1056333290999
 30
0.0
 10
160.0744698382
 20
144.2015741402
 30
0.0
 10
160.0347131822
 20
144.2678329439
 30
0.0
 10
159.9982565096
 20
144.295286482
 30
0.0
 10
159.9811688432
 20
144.2990566857
 30
0.0
  0
SPLINE
  5
3B8
330
215
100
AcDbEntity
  8
RUNDUNGEN
  6
Continuous
 62
     9
100
AcDbSpline
210
0.0
220
0.0
230
1.0
 70
     8
 71
     3
 72
    13
 73
     9
 74
     0
 42
0.0000000001
 43
0.0000000001
 40
0.0
 40
0.0
 40
0.0
 40
0.0
 40
0.3524157728
 40
0.6578002200000001
 40
0.7803903448999999
 40
0.8781834772999999
 40
0.9501263766999999
 40
1.0
 40
1.0
 40
1.0
 40
1.0
 10
181.3462026648
 20
143.3004271509
 30
0.0
 10
181.3462026648
 20
143.4240756869
 30
0.0
 10
181.3561617698
 20
143.6549240925
 30
0.0
 10
181.3937631621
 20
143.9269668206
 30
0.0
 10
181.4404807563
 20
144.1056333293
 30
0.0
 10
181.4779978363
 20
144.2015741402
 30
0.0
 10
181.517754492
 20
144.2678329439
 30
0.0
 10
181.5542111648
 20
144.295286482
 30
0.0
 10
181.5712988311
 20
144.2990566857
 30
0.0
  0
SPLINE
  5
3B9
330
215
100
AcDbEntity
  8
RUNDUNGEN
  6
Continuous
 62
     9
100
AcDbSpline
210
0.0
220
0.0
230
1.0
 70
     8
 71
     3
 72
    11
 73
     7
 74
     0
 42
0.0000000001
 43
0.0000000001
 40
0.0
 40
0.0
 40
0.0
 40
0.0
 40
0.2533763117999999
 40
0.5054123636
 40
0.7543054463
 40
1.0
 40
1.0
 40
1.0
 40
1.0
 10
182.5496558800999
 20
143.3004271509
 30
0.0
 10
182.5473821989
 20
143.4303832759
 30
0.0
 10
182.4947112527
 20
143.691582741
 30
0.0
 10
182.2766551865
 20
144.0225184374
 30
0.0
 10
181.9537707956
 20
144.2456448829999
 30
0.0
 10
181.6973342823
 20
144.2990277302
 30
0.0
 10
181.5712988311
 20
144.2990566857
 30
0.0
  0
SPLINE
  5
3BA
330
215
100
AcDbEntity
  8
RUNDUNGEN
  6
Continuous
 62
     9
100
AcDbSpline
210
0.0
220
0.0
230
1.0
 70
     8
 71
     3
 72
    11
 73
     7
 74
     0
 42
0.0000000001
 43
0.0000000001
 40
0.0
 40
0.0
 40
0.0
 40
0.0
 40
0.2533774763
 40
0.5054044953
 40
0.7542749675
 40
1.0
 40
1.0
 40
1.0
 40
1.0
 10
187.0208715936
 20
144.2056366602
 30
0.0
 10
187.019108622
 20
144.3356262154
 30
0.0
 10
186.9655935745
 20
144.5968466518
 30
0.0
 10
186.7478422523
 20
144.927825018
 30
0.0
 10
186.4247835549
 20
145.1510545425
 30
0.0
 10
186.1682824657
 20
145.2041575231
 30
0.0
 10
186.0422072762
 20
145.2042661949
 30
0.0
  0
SPLINE
  5
3BB
330
215
100
AcDbEntity
  8
RUNDUNGEN
  6
Continuous
 62
     9
100
AcDbSpline
210
0.0
220
0.0
230
1.0
 70
     8
 71
     3
 72
    12
 73
     8
 74
     0
 42
0.0000000001
 43
0.0000000001
 40
0.0
 40
0.0
 40
0.0
 40
0.0
 40
0.1383816348
 40
0.2345824582
 40
0.3511253828
 40
0.6425733870000001
 40
1.0
 40
1.0
 40
1.0
 40
1.0
 10
185.5653557516999
 20
116.7976199453
 30
0.0
 10
185.594209429
 20
116.8030814623
 30
0.0
 10
185.6358655636999
 20
116.8388576589
 30
0.0
 10
185.675828692
 20
116.9007919145
 30
0.0
 10
185.721613193
 20
116.9982171567
 30
0.0
 10
185.7671582204
 20
117.1546586488
 30
0.0
 10
185.7908378067
 20
117.2905416562
 30
0.0
 10
185.8007684796
 20
117.3657383829
 30
0.0
  0
SPLINE
  5
3BD
330
215
100
AcDbEntity
  8
RUNDUNGEN
  6
Continuous
 62
     9
100
AcDbSpline
210
0.0
220
0.0
230
1.0
 70
     8
 71
     3
 72
    11
 73
     7
 74
     0
 42
0.0000000001
 43
0.0000000001
 40
0.0
 40
0.0
 40
0.0
 40
0.0
 40
0.2456835751
 40
0.4945712047
 40
0.7466165847
 40
1.0
 40
1.0
 40
1.0
 40
1.0
 10
185.5653557523
 20
116.7976199454
 30
0.0
 10
185.4391593534
 20
116.797361503
 30
0.0
 10
185.1822404748
 20
116.8503402329
 30
0.0
 10
184.8587347400999
 20
117.0733547274
 30
0.0
 10
184.6396529065
 20
117.4045260867
 30
0.0
 10
184.5878277526
 20
117.6661298062
 30
0.0
 10
184.5849394116
 20
117.7962494802
 30
0.0
  0
SPLINE
  5
3BE
330
215
100
AcDbEntity
  8
RUNDUNGEN
  6
Continuous
 62
     9
100
AcDbSpline
210
0.0
220
0.0
230
1.0
 70
     8
 71
     3
 72
    11
 73
     7
 74
     0
 42
0.0000000001
 43
0.0000000001
 40
0.0
 40
0.0
 40
0.0
 40
0.0
 40
0.2457207813
 40
0.4945868985000001
 40
0.7466158629999999
 40
1.0
 40
1.0
 40
1.0
 40
1.0
 10
184.3110308289
 20
116.5436640644
 30
0.0
 10
184.1848095613
 20
116.5435232937
 30
0.0
 10
183.9278989429
 20
116.5962501151
 30
0.0
 10
183.6041777381
 20
116.8193721323
 30
0.0
 10
183.3859265977
 20
117.1506100094
 30
0.0
 10
183.3322853071
 20
117.4121477231
 30
0.0
 10
183.3305203664
 20
117.5422935992
 30
0.0
  0
SPLINE
  5
3BF
330
215
100
AcDbEntity
  8
RUNDUNGEN
  6
Continuous
 62
     9
100
AcDbSpline
210
0.0
220
0.0
230
1.0
 70
     8
 71
     3
 72
    13
 73
     9
 74
     0
 42
0.0000000001
 43
0.0000000001
 40
0.0
 40
0.0
 40
0.0
 40
0.0
 40
0.0522749589
 40
0.124126892
 40
0.2197501182
 40
0.3391717167
 40
0.6400849479000001
 40
1.0
 40
1.0
 40
1.0
 40
1.0
 10
181.8836063554
 20
116.4357877648
 30
0.0
 10
181.8982870741999
 20
116.4390094335
 30
0.0
 10
181.9296498103
 20
116.4598958777
 30
0.0
 10
181.9659057605
 20
116.5121086882
 30
0.0
 10
182.0001390153
 20
116.5875324161
 30
0.0
 10
182.0446046754
 20
116.7292756178
 30
0.0
 10
182.0846509166
 20
116.9507361453
 30
0.0
 10
182.100736838
 20
117.1402371074
 30
0.0
 10
182.1055354452
 20
117.2436083041
 30
0.0
  0
SPLINE
  5
3C0
330
215
100
AcDbEntity
  8
RUNDUNGEN
  6
Continuous
 62
     9
100
AcDbSpline
210
0.0
220
0.0
230
1.0
 70
     8
 71
     3
 72
    13
 73
     9
 74
     0
 42
0.0000000001
 43
0.0000000001
 40
0.0
 40
0.0
 40
0.0
 40
0.0
 40
0.0522749728
 40
0.1241269119
 40
0.2197501389
 40
0.3391717354
 40
0.6400849579
 40
1.0
 40
1.0
 40
1.0
 40
1.0
 10
159.6688613189
 20
116.4357877648
 30
0.0
 10
159.6541805956
 20
116.439009433
 30
0.0
 10
159.6228178494
 20
116.4598958735
 30
0.0
 10
159.5865618868
 20
116.5121086858
 30
0.0
 10
159.5523286255
 20
116.5875324142
 30
0.0
 10
159.5078629625
 20
116.7292756159
 30
0.0
 10
159.4678167305
 20
116.9507361448
 30
0.0
 10
159.4517308254
 20
117.1402371074
 30
0.0
 10
159.4469322291
 20
117.2436083041
 30
0.0
  0
SPLINE
  5
3C1
330
215
100
AcDbEntity
  8
RUNDUNGEN
  6
Continuous
 62
     9
100
AcDbSpline
210
0.0
220
0.0
230
1.0
 70
     8
 71
     3
 72
    11
 73
     7
 74
     0
 42
0.0000000001
 43
0.0000000001
 40
0.0
 40
0.0
 40
0.0
 40
0.0
 40
0.2457207734
 40
0.4945868706
 40
0.7466158379000002
 40
1.0
 40
1.0
 40
1.0
 40
1.0
 10
157.2414369284
 20
116.5436697344
 30
0.0
 10
157.3676581673
 20
116.5435280081
 30
0.0
 10
157.6245691398
 20
116.5962529617
 30
0.0
 10
157.9482916912
 20
116.8193730101
 30
0.0
 10
158.1665442242
 20
117.1506100225
 30
0.0
 10
158.2201859095
 20
117.4121477345
 30
0.0
 10
158.2219508471
 20
117.5422935992
 30
0.0
  0
SPLINE
  5
3C2
330
215
100
AcDbEntity
  8
RUNDUNGEN
  6
Continuous
 62
     9
100
AcDbSpline
210
0.0
220
0.0
230
1.0
 70
     8
 71
     3
 72
    11
 73
     7
 74
     0
 42
0.0000000001
 43
0.0000000001
 40
0.0
 40
0.0
 40
0.0
 40
0.0
 40
0.245683575
 40
0.4945712046000001
 40
0.7466165845999999
 40
1.0
 40
1.0
 40
1.0
 40
1.0
 10
155.987111922
 20
116.7976199454
 30
0.0
 10
156.1133083209
 20
116.797361503
 30
0.0
 10
156.3702271994
 20
116.8503402329
 30
0.0
 10
156.6937329341
 20
117.0733547273
 30
0.0
 10
156.9128147679
 20
117.4045260866
 30
0.0
 10
156.9646399215
 20
117.6661298062
 30
0.0
 10
156.9675282628
 20
117.7962494802
 30
0.0
  0
SPLINE
  5
3C3
330
215
100
AcDbEntity
  8
RUNDUNGEN
  6
Continuous
 62
     9
100
AcDbSpline
210
0.0
220
0.0
230
1.0
 70
     8
 71
     3
 72
    12
 73
     8
 74
     0
 42
0.0000000001
 43
0.0000000001
 40
0.0
 40
0.0
 40
0.0
 40
0.0
 40
0.1383816346
 40
0.2345824584
 40
0.3511253836999999
 40
0.6425733902000001
 40
1.0
 40
1.0
 40
1.0
 40
1.0
 10
155.987111922
 20
116.7976199454
 30
0.0
 10
155.958258245
 20
116.8030814624
 30
0.0
 10
155.9166021101
 20
116.838857658
 30
0.0
 10
155.8766389816
 20
116.9007919133
 30
0.0
 10
155.8308544811
 20
116.9982171557
 30
0.0
 10
155.7853094496
 20
117.1546586458
 30
0.0
 10
155.7616298722
 20
117.2905416538
 30
0.0
 10
155.7516991995
 20
117.3657383793
 30
0.0
  0
SPLINE
  5
3C4
330
215
100
AcDbEntity
  8
RUNDUNGEN
  6
Continuous
 62
     9
100
AcDbSpline
210
0.0
220
0.0
230
1.0
 70
     8
 71
     3
 72
    12
 73
     8
 74
     0
 42
0.0000000001
 43
0.0000000001
 40
0.0
 40
0.0
 40
0.0
 40
0.0
 40
0.0677412406
 40
0.1551245763
 40
0.3873947727
 40
0.6817986528
 40
1.0
 40
1.0
 40
1.0
 40
1.0
 10
158.2219613566
 20
117.5422786544
 30
0.0
 10
158.241687082
 20
117.5211273965
 30
0.0
 10
158.2949950179
 20
117.4805207322
 30
0.0
 10
158.441974106
 20
117.4040462413
 30
0.0
 10
158.693865268
 20
117.3252887952
 30
0.0
 10
159.0493158927
 20
117.2616017871
 30
0.0
 10
159.3110925719
 20
117.2441502735
 30
0.0
 10
159.4469468039
 20
117.2436076227
 30
0.0
  0
SPLINE
  5
3C5
330
215
100
AcDbEntity
  8
RUNDUNGEN
  6
Continuous
 62
     9
100
AcDbSpline
210
0.0
220
0.0
230
1.0
 70
     8
 71
     3
 72
    12
 73
     8
 74
     0
 42
0.0000000001
 43
0.0000000001
 40
0.0
 40
0.0
 40
0.0
 40
0.0
 40
0.2618573317
 40
0.3908406717
 40
0.5167227725
 40
0.7615225102
 40
1.0
 40
1.0
 40
1.0
 40
1.0
 10
158.4563769023
 20
136.9577063218
 30
0.0
 10
158.3150899338
 20
136.9635214379
 30
0.0
 10
158.1130605952
 20
137.0742766319
 30
0.0
 10
157.9150432086
 20
137.2679921492
 30
0.0
 10
157.7450192828
 20
137.4789487267
 30
0.0
 10
157.5738250968
 20
137.7609647963
 30
0.0
 10
157.4645580363
 20
137.9985038101
 30
0.0
 10
157.4161249159
 20
138.1178303252
 30
0.0
  0
LINE
  5
3C6
330
215
100
AcDbEntity
  8
RUNDUNGEN
  6
Continuous
 62
     9
100
AcDbLine
 10
158.2219607402
 20
117.5422908799
 30
0.0
 11
157.136865825
 21
139.1062736003
 31
0.0
  0
SPLINE
  5
3C7
330
215
100
AcDbEntity
  8
RUNDUNGEN
  6
Continuous
 62
     9
100
AcDbSpline
210
0.0
220
0.0
230
1.0
 70
     8
 71
     3
 72
    12
 73
     8
 74
     0
 42
0.0000000001
 43
0.0000000001
 40
0.0
 40
0.0
 40
0.0
 40
0.0
 40
0.3182005815
 40
0.6126040453
 40
0.8448743362
 40
0.9322580792
 40
1.0
 40
1.0
 40
1.0
 40
1.0
 10
182.1055207654
 20
117.2436076183
 30
0.0
 10
182.2413746207
 20
117.2441503003
 30
0.0
 10
182.5031507956
 20
117.2616012922
 30
0.0
 10
182.85860053
 20
117.325288724
 30
0.0
 10
183.1104922825
 20
117.4040454413
 30
0.0
 10
183.2574709471
 20
117.4805207405
 30
0.0
 10
183.310780802
 20
117.5211261238
 30
0.0
 10
183.3305059691999
 20
117.5422782848
 30
0.0
  0
LINE
  5
3C8
330
215
100
AcDbEntity
  8
RUNDUNGEN
  6
Continuous
 62
     9
100
AcDbLine
 10
184.4156018493
 20
139.1062736003
 30
0.0
 11
183.3305066009
 21
117.5422908124
 31
0.0
  0
SPLINE
  5
3C9
330
215
100
AcDbEntity
  8
RUNDUNGEN
  6
Continuous
 62
     9
100
AcDbSpline
210
0.0
220
0.0
230
1.0
 70
     8
 71
     3
 72
    12
 73
     8
 74
     0
 42
0.0000000001
 43
0.0000000001
 40
0.0
 40
0.0
 40
0.0
 40
0.0
 40
0.2384728868
 40
0.4832662684000001
 40
0.6091489637
 40
0.738131126
 40
1.0
 40
1.0
 40
1.0
 40
1.0
 10
184.1363428099
 20
138.1178304461
 30
0.0
 10
184.0879128436
 20
137.9985022874
 30
0.0
 10
183.9786455707
 20
137.7609622354
 30
0.0
 10
183.8073897369
 20
137.4789772435
 30
0.0
 10
183.6373702899
 20
137.2680285319
 30
0.0
 10
183.439552161
 20
137.0740806474
 30
0.0
 10
183.2373826512
 20
136.9634688895
 30
0.0
 10
183.0960842353
 20
136.9577052038
 30
0.0
  0
SPLINE
  5
3CA
330
215
100
AcDbEntity
  8
RUNDUNGEN
  6
Continuous
 62
     9
100
AcDbSpline
210
0.0
220
0.0
230
1.0
 70
     8
 71
     3
 72
    12
 73
     8
 74
     0
 42
0.0000000001
 43
0.0000000001
 40
0.0
 40
0.0
 40
0.0
 40
0.0
 40
0.0803209334
 40
0.1774392225
 40
0.4193549121000001
 40
0.7052890492000001
 40
1.0
 40
1.0
 40
1.0
 40
1.0
 10
184.5849394116
 20
117.7962494802
 30
0.0
 10
184.6019417516
 20
117.7649105011
 30
0.0
 10
184.6522474216
 20
117.7026402085
 30
0.0
 10
184.7995842356
 20
117.5875044286
 30
0.0
 10
185.0557605075
 20
117.4723922019
 30
0.0
 10
185.4115377804
 20
117.3856997339
 30
0.0
 10
185.6699515529
 20
117.3647477529
 30
0.0
 10
185.8007684748
 20
117.3657383793
 30
0.0
  0
SPLINE
  5
3CB
330
215
100
AcDbEntity
  8
RUNDUNGEN
  6
Continuous
 62
     9
100
AcDbSpline
210
0.0
220
0.0
230
1.0
 70
     8
 71
     3
 72
    12
 73
     8
 74
     0
 42
0.0000000001
 43
0.0000000001
 40
0.0
 40
0.0
 40
0.0
 40
0.0
 40
0.2948513955
 40
0.5807396587
 40
0.8225834318
 40
0.9197034964
 40
1.0
 40
1.0
 40
1.0
 40
1.0
 10
188.1786398018999
 20
136.6439757577
 30
0.0
 10
188.0479957137
 20
136.6431325227
 30
0.0
 10
187.7900316404
 20
136.6642899671
 30
0.0
 10
187.4349421264
 20
136.7510219672
 30
0.0
 10
187.1793327759
 20
136.8660663461
 30
0.0
 10
187.0324038173
 20
136.9810901174
 30
0.0
 10
186.9821682624
 20
137.0432141804
 30
0.0
 10
186.9652011313
 20
137.0744867413
 30
0.0
  0
SPLINE
  5
3CC
330
215
100
AcDbEntity
  8
RUNDUNGEN
  6
Continuous
 62
     9
100
AcDbSpline
210
0.0
220
0.0
230
1.0
 70
     8
 71
     3
 72
     8
 73
     4
 74
     0
 42
0.0000000001
 43
0.0000000001
 40
0.0
 40
0.0
 40
0.0
 40
0.0
 40
1.0
 40
1.0
 40
1.0
 40
1.0
 10
187.0367570813
 20
144.2116355208
 30
0.0
 10
187.0314062723
 20
144.2097899664999
 30
0.0
 10
187.0260948184
 20
144.2078172909
 30
0.0
 10
187.0208715936
 20
144.2056366602
 30
0.0
  0
SPLINE
  5
3CD
330
215
100
AcDbEntity
  8
RUNDUNGEN
  6
Continuous
 62
     9
100
AcDbSpline
210
0.0
220
0.0
230
1.0
 70
     8
 71
     3
 72
     9
 73
     5
 74
     0
 42
0.0000000001
 43
0.0000000001
 40
0.0
 40
0.0
 40
0.0
 40
0.0
 40
0.6187035897
 40
1.0
 40
1.0
 40
1.0
 40
1.0
 10
188.2557337142
 20
137.9258312292
 30
0.0
 10
187.999980328
 20
137.9258175561
 30
0.0
 10
187.5866166454
 20
137.9267757441
 30
0.0
 10
187.1732346096
 20
137.9270925043
 30
0.0
 10
187.0156304288
 20
137.9290571311
 30
0.0
  0
SPLINE
  5
3CE
330
215
100
AcDbEntity
  8
RUNDUNGEN
  6
Continuous
 62
     9
100
AcDbSpline
210
0.0
220
0.0
230
1.0
 70
     8
 71
     3
 72
    15
 73
    11
 74
     0
 42
0.0000000001
 43
0.0000000001
 40
0.0
 40
0.0
 40
0.0
 40
0.0
 40
0.0295591739
 40
0.0695289146
 40
0.172762245
 40
0.2951719009
 40
0.4279820929
 40
0.5667751655
 40
0.7091871100000001
 40
1.0
 40
1.0
 40
1.0
 40
1.0
 10
187.0367570813
 20
144.2116355208
 30
0.0
 10
187.0486590236
 20
144.2157482818
 30
0.0
 10
187.0740917527
 20
144.23195972
 30
0.0
 10
187.1290086539
 20
144.2808534904
 30
0.0
 10
187.2026069879
 20
144.3674579129
 30
0.0
 10
187.2935982187
 20
144.489992164
 30
0.0
 10
187.3878982767
 20
144.6289449832
 30
0.0
 10
187.4829492443
 20
144.7775183161
 30
0.0
 10
187.6100582920999
 20
144.9854453215
 30
0.0
 10
187.7024761798
 20
145.1452315115
 30
0.0
 10
187.7632794191
 20
145.2531735728
 30
0.0
  0
SPLINE
  5
3CF
330
215
100
AcDbEntity
  8
RUNDUNGEN
  6
Continuous
 62
     9
100
AcDbSpline
210
0.0
220
0.0
230
1.0
 70
     8
 71
     3
 72
     8
 73
     4
 74
     0
 42
0.0000000001
 43
0.0000000001
 40
0.0
 40
0.0
 40
0.0
 40
0.0
 40
1.0
 40
1.0
 40
1.0
 40
1.0
 10
154.5315960807
 20
144.2056366602
 30
0.0
 10
154.5263728599
 20
144.2078172956
 30
0.0
 10
154.5210614055
 20
144.2097899651
 30
0.0
 10
154.5157105984
 20
144.211635519
 30
0.0
  0
SPLINE
  5
3D0
330
215
100
AcDbEntity
  8
RUNDUNGEN
  6
Continuous
 62
     9
100
AcDbSpline
210
0.0
220
0.0
230
1.0
 70
     8
 71
     3
 72
    15
 73
    11
 74
     0
 42
0.0000000001
 43
0.0000000001
 40
0.0
 40
0.0
 40
0.0
 40
0.0
 40
0.2908608228
 40
0.4332936676
 40
0.5720867032000001
 40
0.7048834208
 40
0.8272827545
 40
0.9305112108999999
 40
0.9704572549999999
 40
1.0
 40
1.0
 40
1.0
 40
1.0
 10
153.7891882612
 20
145.2531735704
 30
0.0
 10
153.8499935233
 20
145.1452097546
 30
0.0
 10
153.9424351324
 20
144.9854037912
 30
0.0
 10
154.069586053
 20
144.7774690609
 30
0.0
 10
154.1646709277
 20
144.6289143338
 30
0.0
 10
154.2589988328
 20
144.4899935813
 30
0.0
 10
154.3499357861
 20
144.3674391184
 30
0.0
 10
154.4234741584
 20
144.280800161
 30
0.0
 10
154.4783882362
 20
144.2319327294
 30
0.0
 10
154.5038121565
 20
144.2157368223
 30
0.0
 10
154.5157105984
 20
144.211635519
 30
0.0
  0
SPLINE
  5
3D1
330
215
100
AcDbEntity
  8
RUNDUNGEN
  6
Continuous
 62
     9
100
AcDbSpline
210
0.0
220
0.0
230
1.0
 70
     8
 71
     3
 72
     9
 73
     5
 74
     0
 42
0.0000000001
 43
0.0000000001
 40
0.0
 40
0.0
 40
0.0
 40
0.0
 40
0.6187035448
 40
1.0
 40
1.0
 40
1.0
 40
1.0
 10
153.2967340255
 20
137.9258312299
 30
0.0
 10
153.5524873796
 20
137.9258175569
 30
0.0
 10
153.9658510404
 20
137.9267757442
 30
0.0
 10
154.3792330545
 20
137.9270925055
 30
0.0
 10
154.5368372455
 20
137.9290571311
 30
0.0
  0
SPLINE
  5
3D2
330
215
100
AcDbEntity
  8
RUNDUNGEN
  6
Continuous
 62
     9
100
AcDbSpline
210
0.0
220
0.0
230
1.0
 70
     8
 71
     3
 72
    12
 73
     8
 74
     0
 42
0.0000000001
 43
0.0000000001
 40
0.0
 40
0.0
 40
0.0
 40
0.0
 40
0.2948514152
 40
0.5807396882
 40
0.8225834518
 40
0.9197035063999999
 40
1.0
 40
1.0
 40
1.0
 40
1.0
 10
153.3738278059
 20
136.6439756421
 30
0.0
 10
153.5044719154
 20
136.6431324067
 30
0.0
 10
153.7624360268
 20
136.664289859
 30
0.0
 10
154.1175255793
 20
136.7510218874
 30
0.0
 10
154.3731349416
 20
136.8660662998
 30
0.0
 10
154.5200638846
 20
136.9810900997
 30
0.0
 10
154.5702994228
 20
137.0432141757
 30
0.0
 10
154.587266543
 20
137.0744867413
 30
0.0
  0
SPLINE
  5
3D3
330
215
100
AcDbEntity
  8
RUNDUNGEN
  6
Continuous
 62
     9
100
AcDbSpline
210
0.0
220
0.0
230
1.0
 70
     8
 71
     3
 72
    12
 73
     8
 74
     0
 42
0.0000000001
 43
0.0000000001
 40
0.0
 40
0.0
 40
0.0
 40
0.0
 40
0.2947109513
 40
0.5806450875
 40
0.8225607766999999
 40
0.919679063
 40
1.0
 40
1.0
 40
1.0
 40
1.0
 10
155.7516991995
 20
117.3657383793
 30
0.0
 10
155.8825161225
 20
117.3647478569
 30
0.0
 10
156.1409298927
 20
117.3856996896
 30
0.0
 10
156.4967071702
 20
117.4723922084
 30
0.0
 10
156.7528834304
 20
117.5875044356
 30
0.0
 10
156.9002202585
 20
117.7026402011
 30
0.0
 10
156.950525922
 20
117.7649104996
 30
0.0
 10
156.9675282628
 20
117.7962494802
 30
0.0
  0
LINE
  5
3D4
330
215
100
AcDbEntity
  8
RUNDUNGEN
  6
Continuous
 62
     9
100
AcDbLine
 10
159.4469467697
 20
117.2436083041
 30
0.0
 11
158.4563769021
 21
136.9577063219
 31
0.0
  0
LINE
  5
3D5
330
215
100
AcDbEntity
  8
RUNDUNGEN
  6
Continuous
 62
     9
100
AcDbLine
 10
183.0960842865
 20
136.9577062316
 30
0.0
 11
182.1055207998
 21
117.2436083041
 31
0.0
  0
LINE
  5
3D6
330
215
100
AcDbEntity
  8
RUNDUNGEN
  6
Continuous
 62
     9
100
AcDbLine
 10
182.8285926126
 20
138.1480238407
 30
0.0
 11
181.5795846296
 21
138.2322412856
 31
0.0
  0
LINE
  5
3D7
330
215
100
AcDbEntity
  8
RUNDUNGEN
  6
Continuous
 62
     9
100
AcDbLine
 10
159.9728830447
 20
138.2322412856
 30
0.0
 11
158.7238750618
 21
138.1480238407
 31
0.0
  0
SPLINE
  5
3D8
330
215
100
AcDbEntity
  8
RUNDUNGEN
  6
Continuous
 62
     9
100
AcDbSpline
210
0.0
220
0.0
230
1.0
 70
     8
 71
     3
 72
     9
 73
     5
 74
     0
 42
0.0000000001
 43
0.0000000001
 40
0.0
 40
0.0
 40
0.0
 40
0.0
 40
0.2330773651
 40
1.0
 40
1.0
 40
1.0
 40
1.0
 10
155.5102603982
 20
145.2042661949
 30
0.0
 10
155.5078014517
 20
145.2047646787
 30
0.0
 10
155.497239836
 20
145.2068456106
 30
0.0
 10
155.4866394148
 20
145.208726465
 30
0.0
 10
155.4784973262
 20
145.2100904652
 30
0.0
  0
LINE
  5
3D9
330
215
100
AcDbEntity
  8
RUNDUNGEN
  6
Continuous
 62
     9
100
AcDbLine
 10
159.9811688432
 20
144.2990566857
 30
0.0
 11
155.5102603982
 21
145.2042661949
 31
0.0
  0
LINE
  5
3DB
330
215
100
AcDbEntity
  8
RUNDUNGEN
  6
Continuous
 62
     9
100
AcDbLine
 10
186.0422072762
 20
145.2042661949
 30
0.0
 11
181.5712988311
 21
144.2990566857
 31
0.0
  0
SPLINE
  5
3DC
330
215
100
AcDbEntity
  8
RUNDUNGEN
  6
Continuous
 62
     9
100
AcDbSpline
210
0.0
220
0.0
230
1.0
 70
     8
 71
     3
 72
     9
 73
     5
 74
     0
 42
0.0000000001
 43
0.0000000001
 40
0.0
 40
0.0
 40
0.0
 40
0.0
 40
0.2668707604
 40
1.0
 40
1.0
 40
1.0
 40
1.0
 10
186.0739703481
 20
145.2100904652
 30
0.0
 10
186.0711371032
 20
145.2096158283
 30
0.0
 10
186.0605270199
 20
145.2077995552
 30
0.0
 10
186.049941707
 20
145.2058341348999
 30
0.0
 10
186.0422072762
 20
145.2042661949
 30
0.0
  0
LINE
  5
3DD
330
215
100
AcDbEntity
  8
RUNDUNGEN
  6
Continuous
 62
     9
100
AcDbLine
 10
184.4156018493
 20
139.1062736003
 30
0.0
 11
182.5496558805
 21
139.2320889808
 31
0.0
  0
LINE
  5
3DE
330
215
100
AcDbEntity
  8
RUNDUNGEN
  6
Continuous
 62
     9
100
AcDbLine
 10
183.3305066009
 20
117.5422908124
 30
0.0
 11
184.5849394116
 21
117.7962494802
 31
0.0
  0
LINE
  5
3DF
330
215
100
AcDbEntity
  8
RUNDUNGEN
  6
Continuous
 62
     9
100
AcDbLine
 10
184.5849394116
 20
117.7962494802
 30
0.0
 11
186.9652011313
 21
137.0744867413
 31
0.0
  0
SPLINE
  5
3E0
330
215
100
AcDbEntity
  8
RUNDUNGEN
  6
Continuous
 62
     9
100
AcDbSpline
210
0.0
220
0.0
230
1.0
 70
     8
 71
     3
 72
     9
 73
     5
 74
     0
 42
0.0000000001
 43
0.0000000001
 40
0.0
 40
0.0
 40
0.0
 40
0.0
 40
0.2398401366
 40
1.0
 40
1.0
 40
1.0
 40
1.0
 10
186.9652011313
 20
137.0744867413
 30
0.0
 10
186.9735903739
 20
137.142433607
 30
0.0
 10
187.0035481929
 20
137.4263419232
 30
0.0
 10
187.0154495320999
 20
137.7120681788
 30
0.0
 10
187.0156304288
 20
137.9290571311
 30
0.0
  0
LINE
  5
3E1
330
215
100
AcDbEntity
  8
RUNDUNGEN
  6
Continuous
 62
     9
100
AcDbLine
 10
187.0208715936
 20
144.2056366602
 30
0.0
 11
182.5496558805
 21
143.3004271509
 31
0.0
  0
SPLINE
  5
3E2
330
215
100
AcDbEntity
  8
RUNDUNGEN
  6
Continuous
 62
     9
100
AcDbSpline
210
0.0
220
0.0
230
1.0
 70
     8
 71
     3
 72
     9
 73
     5
 74
     0
 42
0.0000000001
 43
0.0000000001
 40
0.0
 40
0.0
 40
0.0
 40
0.0
 40
0.2574377726
 40
1.0
 40
1.0
 40
1.0
 40
1.0
 10
154.5368372455
 20
137.9290571311
 30
0.0
 10
154.5368985075
 20
137.8555722579
 30
0.0
 10
154.541243539
 20
137.5701609678
 30
0.0
 10
154.5612932666
 20
137.2848517055
 30
0.0
 10
154.587266543
 20
137.0744867413
 30
0.0
  0
LINE
  5
3E3
330
215
100
AcDbEntity
  8
RUNDUNGEN
  6
Continuous
 62
     9
100
AcDbLine
 10
154.587266543
 20
137.0744867413
 30
0.0
 11
156.9675282628
 21
117.7962494802
 31
0.0
  0
LINE
  5
3E4
330
215
100
AcDbEntity
  8
RUNDUNGEN
  6
Continuous
 62
     9
100
AcDbLine
 10
156.9675282628
 20
117.7962494802
 30
0.0
 11
158.2219607402
 21
117.5422908799
 31
0.0
  0
LINE
  5
3E5
330
215
100
AcDbEntity
  8
RUNDUNGEN
  6
Continuous
 62
     9
100
AcDbLine
 10
159.0028117939
 20
139.2320889808
 30
0.0
 11
157.136865825
 21
139.1062736003
 31
0.0
  0
LINE
  5
3E6
330
215
100
AcDbEntity
  8
RUNDUNGEN
  6
Continuous
 62
     9
100
AcDbLine
 10
159.0028117939
 20
143.3004271509
 30
0.0
 11
154.5315960807
 21
144.2056366602
 31
0.0
  0
SPLINE
  5
3E7
330
215
100
AcDbEntity
  8
0
  6
Continuous
 62
     9
100
AcDbSpline
210
0.0
220
0.0
230
1.0
 70
     8
 71
     3
 72
    30
 73
    26
 74
     0
 42
0.0000000001
 43
0.0000000001
 40
0.0
 40
0.0
 40
0.0
 40
0.0
 40
0.0005110077
 40
0.0009344311
 40
0.0014928682
 40
0.0030360467
 40
0.0051630469
 40
0.0111885806
 40
0.0195800998
 40
0.0303257191
 40
0.0434027501
 40
0.0587819633
 40
0.0764273464
 40
0.0962971995
 40
0.1183443102
 40
0.1687537789
 40
0.2271724441
 40
0.2930388472
 40
0.3657192339
 40
0.4445138127
 40
0.5286635707000001
 40
0.6173576865000001
 40
0.7097411578
 40
0.8049235598999999
 40
1.0
 40
1.0
 40
1.0
 40
1.0
 10
132.7762505606
 20
97.73266607549999
 30
0.0
 10
132.7759117234
 20
97.72619737239999
 30
0.0
 10
132.7858868415
 20
97.7158636983
 30
0.0
 10
132.802010554
 20
97.70730309400001
 30
0.0
 10
132.8320137986
 20
97.69511547409999
 30
0.0
 10
132.8837597708
 20
97.68147122510001
 30
0.0
 10
133.0044518365
 20
97.6575293255
 30
0.0
 10
133.2124875936
 20
97.6303870571
 30
0.0
 10
133.5299488103
 20
97.599254947
 30
0.0
 10
133.9371517742
 20
97.5683304284
 30
0.0
 10
134.4331233364
 20
97.53742923989999
 30
0.0
 10
135.0167208904
 20
97.50689569389999
 30
0.0
 10
135.6865430032
 20
97.4767938189
 30
0.0
 10
136.4409846739
 20
97.4472426099
 30
0.0
 10
137.6106280303
 20
97.4068689533
 30
0.0
 10
139.2689464348
 20
97.35939593090002
 30
0.0
 10
141.4827954802
 20
97.3079029334
 30
0.0
 10
143.9790962717
 20
97.26028589000002
 30
0.0
 10
146.7337963841
 20
97.21704004080001
 30
0.0
 10
149.7203493862
 20
97.17863032069999
 30
0.0
 10
152.9099673757
 20
97.14544978239999
 30
0.0
 10
156.2718979245
 20
97.11783698479999
 30
0.0
 10
159.7737247295
 20
97.09606696639999
 30
0.0
 10
164.624083105
 20
97.07496150209999
 30
0.0
 10
168.3034303777
 20
97.0687647739
 30
0.0
 10
170.7762338371999
 20
97.06876434240001
 30
0.0
  0
SPLINE
  5
3E8
330
215
100
AcDbEntity
  8
RUNDUNGEN
  6
Continuous
 62
     9
100
AcDbSpline
210
0.0
220
0.0
230
1.0
 70
     8
 71
     3
 72
    29
 73
    25
 74
     0
 42
0.0000000001
 43
0.0000000001
 40
0.0
 40
0.0
 40
0.0
 40
0.0
 40
0.1947608058
 40
0.2897998245
 40
0.3820536545
 40
0.4706357514000001
 40
0.5546952236
 40
0.6334248595
 40
0.7060687571999999
 40
0.7719297429000001
 40
0.8303761734
 40
0.8808481684999998
 40
0.9029396617999999
 40
0.9228634571999998
 40
0.9405713697999999
 40
0.9560225248
 40
0.9691800414999999
 40
0.9800152340999998
 40
0.9885046580999999
 40
0.994636209
 40
0.9968186013
 40
0.9984181637999999
 40
0.9994526109
 40
1.0
 40
1.0
 40
1.0
 40
1.0
 10
170.7762338371999
 20
97.19186369559999
 30
0.0
 10
172.7901696556
 20
97.1918645624
 30
0.0
 10
175.7868658979
 20
97.19690273959999
 30
0.0
 10
179.7374789273
 20
97.2140635929
 30
0.0
 10
182.5901273307
 20
97.23176600530001
 30
0.0
 10
185.3292040306
 20
97.2542207426
 30
0.0
 10
187.9283853123
 20
97.2812047871
 30
0.0
 10
190.3626968354
 20
97.31244386809999
 30
0.0
 10
192.6087514066999
 20
97.34761948370001
 30
0.0
 10
194.6449748835
 20
97.38635495570001
 30
0.0
 10
196.4518117738
 20
97.42824919100002
 30
0.0
 10
197.8059880056
 20
97.46687127700001
 30
0.0
 10
198.7617965222
 20
97.4997165259
 30
0.0
 10
199.3789027727
 20
97.52376561090001
 30
0.0
 10
199.9272639561
 20
97.5482640098
 30
0.0
 10
200.405569389
 20
97.57312747450001
 30
0.0
 10
200.8126559544
 20
97.59826109329999
 30
0.0
 10
201.1476546192
 20
97.6235222406
 30
0.0
 10
201.4095725094
 20
97.64869702870001
 30
0.0
 10
201.5822009886
 20
97.6712163957
 30
0.0
 10
201.6826529847
 20
97.6901488817
 30
0.0
 10
201.7313685055
 20
97.70332028930001
 30
0.0
 10
201.7611666688
 20
97.7142328571
 30
0.0
 10
201.7756408625
 20
97.72642316370001
 30
0.0
 10
201.776189623
 20
97.73205680970001
 30
0.0
  0
SPLINE
  5
3E9
330
215
100
AcDbEntity
  8
0
  6
Continuous
 62
     9
100
AcDbSpline
210
0.0
220
0.0
230
1.0
 70
     8
 71
     3
 72
    29
 73
    25
 74
     0
 42
0.0000000001
 43
0.0000000001
 40
0.0
 40
0.0
 40
0.0
 40
0.0
 40
0.000531065
 40
0.0015418
 40
0.0031170584
 40
0.0052755518
 40
0.0113613911
 40
0.0198084971
 40
0.0306050818
 40
0.0437277926
 40
0.0591479323
 40
0.0768287093
 40
0.0967292682
 40
0.1188014387
 40
0.1692463296
 40
0.2276806369
 40
0.2935437815
 40
0.3662031948
 40
0.4449605954
 40
0.5290588476
 40
0.6176891635000001
 40
0.7099988748000001
 40
0.8050990961
 40
1.0
 40
1.0
 40
1.0
 40
1.0
 10
139.7762387627
 20
97.7326660709
 30
0.0
 10
139.7764175505
 20
97.72717737429999
 30
0.0
 10
139.7902213979
 20
97.71463092299999
 30
0.0
 10
139.819409427
 20
97.70394797260001
 30
0.0
 10
139.8673171583
 20
97.69066464979999
 30
0.0
 10
139.9668016141
 20
97.67177573479999
 30
0.0
 10
140.1382517993
 20
97.64919629030002
 30
0.0
 10
140.3988641462
 20
97.62403170629999
 30
0.0
 10
140.7326652817
 20
97.59874419309999
 30
0.0
 10
141.1386767495
 20
97.5735924746
 30
0.0
 10
141.6160267759
 20
97.5487048005
 30
0.0
 10
142.1635543315
 20
97.5241824557
 30
0.0
 10
142.779949364
 20
97.50010813780001
 30
0.0
 10
143.7350528016
 20
97.46722332350001
 30
0.0
 10
145.0886462477
 20
97.4285557574
 30
0.0
 10
146.895130826
 20
97.3866126302
 30
0.0
 10
148.9314471372
 20
97.3478297245
 30
0.0
 10
151.1780109884
 20
97.31260928350002
 30
0.0
 10
153.6132140164
 20
97.28132911540001
 30
0.0
 10
156.2136280577
 20
97.2543086519
 30
0.0
 10
158.9542308634
 20
97.2318229366
 30
0.0
 10
161.8086393462
 20
97.2140957817
 30
0.0
 10
165.7619821548
 20
97.19690984549998
 30
0.0
 10
168.7608134099
 20
97.19186474959998
 30
0.0
 10
170.7762338371999
 20
97.19186369559999
 30
0.0
  0
SPLINE
  5
3EB
330
215
100
AcDbEntity
  8
RUNDUNGEN
  6
Continuous
 62
     9
100
AcDbSpline
210
0.0
220
0.0
230
1.0
 70
     8
 71
     3
 72
    11
 73
     7
 74
     0
 42
0.0000000001
 43
0.0000000001
 40
0.0
 40
0.0
 40
0.0
 40
0.0
 40
0.2720247055
 40
0.5203042337000001
 40
0.7602216474
 40
1.0
 40
1.0
 40
1.0
 40
1.0
 10
158.4323335651
 20
197.3274694782
 30
0.0
 10
158.5240075101
 20
197.2176305217
 30
0.0
 10
158.6635798177
 20
196.9747530147
 30
0.0
 10
158.7459678342
 20
196.5784854273
 30
0.0
 10
158.7282081093
 20
196.1928481533
 30
0.0
 10
158.6654643738
 20
195.9468015142
 30
0.0
 10
158.6242367165
 20
195.8276217509
 30
0.0
  0
SPLINE
  5
3EC
330
215
100
AcDbEntity
  8
RUNDUNGEN
  6
Continuous
 62
     9
100
AcDbSpline
210
0.0
220
0.0
230
1.0
 70
     8
 71
     3
 72
    11
 73
     7
 74
     0
 42
0.0000000001
 43
0.0000000001
 40
0.0
 40
0.0
 40
0.0
 40
0.0
 40
0.2397773092
 40
0.4796939907000001
 40
0.7279727046
 40
1.0
 40
1.0
 40
1.0
 40
1.0
 10
182.9282309579
 20
195.8276217509
 30
0.0
 10
182.8870030723
 20
195.9468013402
 30
0.0
 10
182.8242601159999
 20
196.1928484796
 30
0.0
 10
182.8065010826
 20
196.5784846333
 30
0.0
 10
182.8888837656
 20
196.974758238
 30
0.0
 10
183.0284741081
 20
197.2176264063
 30
0.0
 10
183.1201460604
 20
197.3274694782
 30
0.0
  0
SPLINE
  5
3ED
330
215
100
AcDbEntity
  8
RUNDUNGEN
  6
Continuous
 62
     9
100
AcDbSpline
210
0.0
220
0.0
230
1.0
 70
     8
 71
     3
 72
     8
 73
     4
 74
     0
 42
0.0000000001
 43
0.0000000001
 40
0.0
 40
0.0
 40
0.0
 40
0.0
 40
1.0
 40
1.0
 40
1.0
 40
1.0
 10
184.9738309988
 20
209.7320897336
 30
0.0
 10
184.406184841
 20
209.6984432056
 30
0.0
 10
183.8385645737
 20
209.6643582642
 30
0.0
 10
183.2709647697
 20
209.6299386228
 30
0.0
  0
SPLINE
  5
3EE
330
215
100
AcDbEntity
  8
RUNDUNGEN
  6
Continuous
 62
     9
100
AcDbSpline
210
0.0
220
0.0
230
1.0
 70
     8
 71
     3
 72
     8
 73
     4
 74
     0
 42
0.0000000001
 43
0.0000000001
 40
0.0
 40
0.0
 40
0.0
 40
0.0
 40
1.0
 40
1.0
 40
1.0
 40
1.0
 10
183.7806751719
 20
196.5936579497
 30
0.0
 10
184.1841543349
 20
196.5693412116
 30
0.0
 10
184.5876445903
 20
196.5452075113
 30
0.0
 10
184.9911480139
 20
196.5212967214
 30
0.0
  0
LINE
  5
3EF
330
215
100
AcDbEntity
  8
RUNDUNGEN
  6
Continuous
 62
     9
100
AcDbLine
 10
184.9911480139
 20
196.5212967214
 30
0.0
 11
184.9944388826
 21
193.0581446427
 31
0.0
  0
LINE
  5
3F1
330
215
100
AcDbEntity
  8
RUNDUNGEN
  6
Continuous
 62
     9
100
AcDbLine
 10
153.3738278071
 20
136.6439756462
 30
0.0
 11
155.7516991941
 21
117.3657383829
 31
0.0
  0
LINE
  5
3F3
330
215
100
AcDbEntity
  8
RUNDUNGEN
  6
Continuous
 62
     9
100
AcDbLine
 10
185.8007718779
 20
117.3657383829
 30
0.0
 11
188.1786398672
 21
136.6439756462
 31
0.0
  0
SPLINE
  5
3F5
330
215
100
AcDbEntity
  8
RUNDUNGEN
  6
Continuous
 62
     9
100
AcDbSpline
210
0.0
220
0.0
230
1.0
 70
     8
 71
     3
 72
    22
 73
    18
 74
     0
 42
0.0000000001
 43
0.0000000001
 40
0.0
 40
0.0
 40
0.0
 40
0.0
 40
0.2010464095
 40
0.3848526733
 40
0.4697032434000001
 40
0.5495956181000001
 40
0.693346472
 40
0.7565686659999999
 40
0.8135120696999999
 40
0.8637001164
 40
0.9066492002
 40
0.9418638845999998
 40
0.9691657546
 40
0.9797740643999999
 40
0.9882886086999999
 40
0.9948696601000001
 40
1.0
 40
1.0
 40
1.0
 40
1.0
 10
229.7816564313
 20
105.1900868214
 30
0.0
 10
230.2803145261
 20
106.2507848271
 30
0.0
 10
231.197948955
 20
108.2986299964
 30
0.0
 10
232.2548303894
 20
110.8250336172
 30
0.0
 10
233.0010319259
 20
112.7151053199
 30
0.0
 10
233.641505876
 20
114.3956958086
 30
0.0
 10
234.2035084705
 20
115.971142789
 30
0.0
 10
234.685105758
 20
117.432492498
 30
0.0
 10
234.9757088712
 20
118.3822538108
 30
0.0
 10
235.2119033883
 20
119.2247957721
 30
0.0
 10
235.3908608492
 20
119.9516018259
 30
0.0
 10
235.5112432886
 20
120.554627425
 30
0.0
 10
235.5690755691
 20
120.9778085108
 30
0.0
 10
235.5785299872
 20
121.2485103168
 30
0.0
 10
235.5687907671
 20
121.3985273165
 30
0.0
 10
235.5438195124
 20
121.5140583892
 30
0.0
 10
235.5136949664
 20
121.5771208968
 30
0.0
 10
235.4946916224
 20
121.6002168299
 30
0.0
  0
SPLINE
  5
3F6
330
215
100
AcDbEntity
  8
RUNDUNGEN
  6
Continuous
 62
     9
100
AcDbSpline
210
0.0
220
0.0
230
1.0
 70
     8
 71
     3
 72
    13
 73
     9
 74
     0
 42
0.0000000001
 43
0.0000000001
 40
0.0
 40
0.0
 40
0.0
 40
0.0
 40
0.2525666792
 40
0.5033007674000001
 40
0.6282436844000001
 40
0.7524853369
 40
0.8762854618
 40
1.0
 40
1.0
 40
1.0
 40
1.0
 10
155.8259555289
 20
193.0613894322
 30
0.0
 10
155.8257821098
 20
192.8362257853
 30
0.0
 10
155.8768608287
 20
192.3847835778
 30
0.0
 10
156.117883074
 20
191.8627379736
 30
0.0
 10
156.4277216888
 20
191.5370318231
 30
0.0
 10
156.7105841062
 20
191.3558192427
 30
0.0
 10
157.0274402654
 20
191.2487477051
 30
0.0
 10
157.2489525363
 20
191.2267678315
 30
0.0
 10
157.3592443
 20
191.2267500553
 30
0.0
  0
SPLINE
  5
3F7
330
215
100
AcDbEntity
  8
RUNDUNGEN
  6
Continuous
 62
     9
100
AcDbSpline
210
0.0
220
0.0
230
1.0
 70
     8
 71
     3
 72
    13
 73
     9
 74
     0
 42
0.0000000001
 43
0.0000000001
 40
0.0
 40
0.0
 40
0.0
 40
0.0
 40
0.1237146751
 40
0.2475150524
 40
0.3717566054999999
 40
0.4966994841
 40
0.7474334473000001
 40
1.0
 40
1.0
 40
1.0
 40
1.0
 10
184.1932233748
 20
191.2267500553
 30
0.0
 10
184.3035152604
 20
191.2267678765
 30
0.0
 10
184.5250278767
 20
191.248747742
 30
0.0
 10
184.8418842673
 20
191.355819523
 30
0.0
 10
185.1247465668999
 20
191.5370324288
 30
0.0
 10
185.4345850583
 20
191.8627383883
 30
0.0
 10
185.6756066054
 20
192.3847839857
 30
0.0
 10
185.7266857431
 20
192.8362258981
 30
0.0
 10
185.7265121454
 20
193.0613894319
 30
0.0
  0
SPLINE
  5
3F9
330
215
100
AcDbEntity
  8
RUNDUNGEN
  6
Continuous
 62
     9
100
AcDbSpline
210
0.0
220
0.0
230
1.0
 70
     8
 71
     3
 72
     8
 73
     4
 74
     0
 42
0.0000000001
 43
0.0000000001
 40
0.0
 40
0.0
 40
0.0
 40
0.0
 40
1.0
 40
1.0
 40
1.0
 40
1.0
 10
158.2815029047
 20
209.6299388799
 30
0.0
 10
157.7139031028
 20
209.6643585217
 30
0.0
 10
157.146282831
 20
209.6984433502
 30
0.0
 10
156.5786366755
 20
209.7320898787
 30
0.0
  0
SPLINE
  5
3FA
330
215
100
AcDbEntity
  8
RUNDUNGEN
  6
Continuous
 62
     9
100
AcDbSpline
210
0.0
220
0.0
230
1.0
 70
     8
 71
     3
 72
     9
 73
     5
 74
     0
 42
0.0000000001
 43
0.0000000001
 40
0.0
 40
0.0
 40
0.0
 40
0.0
 40
0.2574172974
 40
1.0
 40
1.0
 40
1.0
 40
1.0
 10
153.2967339601
 20
137.9258312292
 30
0.0
 10
153.2968276974
 20
137.8156038754
 30
0.0
 10
153.3034694549
 20
137.3874547107
 30
0.0
 10
153.3341264431
 20
136.9594651209
 30
0.0
 10
153.3738278071
 20
136.6439756462
 30
0.0
  0
SPLINE
  5
3FB
330
215
100
AcDbEntity
  8
RUNDUNGEN
  6
Continuous
 62
     9
100
AcDbSpline
210
0.0
220
0.0
230
1.0
 70
     8
 71
     3
 72
     9
 73
     5
 74
     0
 42
0.0000000001
 43
0.0000000001
 40
0.0
 40
0.0
 40
0.0
 40
0.0
 40
0.5060165409000001
 40
1.0
 40
1.0
 40
1.0
 40
1.0
 10
227.8953586931
 20
103.1664129073
 30
0.0
 10
228.305069261
 20
103.4011328722
 30
0.0
 10
229.0527250585
 20
103.9859706911
 30
0.0
 10
229.5855492618
 20
104.7729292205
 30
0.0
 10
229.7816564313
 20
105.1900868214
 30
0.0
  0
SPLINE
  5
3FC
330
215
100
AcDbEntity
  8
RUNDUNGEN
  6
Continuous
 62
     9
100
AcDbSpline
210
0.0
220
0.0
230
1.0
 70
     8
 71
     3
 72
     9
 73
     5
 74
     0
 42
0.0000000001
 43
0.0000000001
 40
0.0
 40
0.0
 40
0.0
 40
0.0
 40
0.2398741485
 40
1.0
 40
1.0
 40
1.0
 40
1.0
 10
188.1786398672
 20
136.6439756462
 30
0.0
 10
188.1914646884
 20
136.7458889232
 30
0.0
 10
188.2372597001
 20
137.171696522
 30
0.0
 10
188.2554569135
 20
137.6003361464
 30
0.0
 10
188.2557337142
 20
137.9258312292
 30
0.0
  0
SPLINE
  5
3FD
330
215
100
AcDbEntity
  8
0
  6
Continuous
 62
     9
100
AcDbSpline
210
0.0
220
0.0
230
1.0
 70
     8
 71
     3
 72
    29
 73
    25
 74
     0
 42
0.0000000001
 43
0.0000000001
 40
0.0
 40
0.0
 40
0.0
 40
0.0
 40
0.0005349298
 40
0.0015399542
 40
0.0031069007
 40
0.0052561724
 40
0.0113228421
 40
0.0197511947
 40
0.030530082
 40
0.0436364424
 40
0.0590417388
 40
0.0767092768
 40
0.0965982641
 40
0.1186605652
 40
0.1690908776
 40
0.2275174525
 40
0.2933795078
 40
0.3660441218
 40
0.4448125296
 40
0.5289269952000001
 40
0.6175780282
 40
0.7099121716
 40
0.8050396679
 40
1.0
 40
1.0
 40
1.0
 40
1.0
 10
140.7762338372
 20
98.73281840350001
 30
0.0
 10
140.7762346372
 20
98.72746497870002
 30
0.0
 10
140.7890451537
 20
98.71477856040002
 30
0.0
 10
140.8172045004
 20
98.70409876610001
 30
0.0
 10
140.8631294297
 20
98.69078872430002
 30
0.0
 10
140.9589673808
 20
98.6718984636
 30
0.0
 10
141.1242932785
 20
98.64930266520001
 30
0.0
 10
141.375890034
 20
98.6241341156
 30
0.0
 10
141.6983425953
 20
98.5988356092
 30
0.0
 10
142.0907389343
 20
98.57367350290001
 30
0.0
 10
142.552226867
 20
98.5487739556
 30
0.0
 10
143.0816876743
 20
98.52423942280001
 30
0.0
 10
143.6778528121
 20
98.50015249250001
 30
0.0
 10
144.601798322
 20
98.46724794700001
 30
0.0
 10
145.9114401964
 20
98.4285576071
 30
0.0
 10
147.659479539
 20
98.38658987850001
 30
0.0
 10
149.6301545282
 20
98.3477830908
 30
0.0
 10
151.8044995832999
 20
98.31254005860001
 30
0.0
 10
154.1615867239
 20
98.28123917790001
 30
0.0
 10
156.6787234486
 20
98.25420034930001
 30
0.0
 10
159.3316716169
 20
98.231699044
 30
0.0
 10
162.0948734605
 20
98.2139593611
 30
0.0
 10
165.9220063724
 20
98.19676123049999
 30
0.0
 10
168.8251264632
 20
98.19171185889999
 30
0.0
 10
170.7762338371999
 20
98.19171139079999
 30
0.0
  0
LINE
  5
3FF
330
215
100
AcDbEntity
  8
RUNDUNGEN
  6
Continuous
 62
     9
100
AcDbLine
 10
155.9871119226
 20
116.7976199453
 30
0.0
 11
157.2414368455
 21
116.5436640644
 31
0.0
  0
SPLINE
  5
400
330
215
100
AcDbEntity
  8
RUNDUNGEN
  6
Continuous
 62
     9
100
AcDbSpline
210
0.0
220
0.0
230
1.0
 70
     8
 71
     3
 72
    13
 73
     9
 74
     0
 42
0.0000000001
 43
0.0000000001
 40
0.0
 40
0.0
 40
0.0
 40
0.0
 40
0.0567456858
 40
0.1403828029
 40
0.2483201327
 40
0.3770551249
 40
0.6784453333
 40
1.0
 40
1.0
 40
1.0
 40
1.0
 10
157.2414368455
 20
116.5436640644
 30
0.0
 10
157.2865121212999
 20
116.5345290049
 30
0.0
 10
157.399463362
 20
116.5195777551
 30
0.0
 10
157.5997913867
 20
116.5006191883
 30
0.0
 10
157.8588381138
 20
116.4828962963
 30
0.0
 10
158.2943531613
 20
116.460425957
 30
0.0
 10
158.9033524127
 20
116.4414859596
 30
0.0
 10
159.4082455163
 20
116.4357952495
 30
0.0
 10
159.6688613189
 20
116.4357877648
 30
0.0
  0
SPLINE
  5
401
330
215
100
AcDbEntity
  8
RUNDUNGEN
  6
Continuous
 62
     9
100
AcDbSpline
210
0.0
220
0.0
230
1.0
 70
     8
 71
     3
 72
    13
 73
     9
 74
     0
 42
0.0000000001
 43
0.0000000001
 40
0.0
 40
0.0
 40
0.0
 40
0.0
 40
0.3215540548
 40
0.6229438665
 40
0.7516787452
 40
0.8596161428
 40
0.9432536542000001
 40
1.0
 40
1.0
 40
1.0
 40
1.0
 10
181.8836063554
 20
116.4357877648
 30
0.0
 10
182.1442216622
 20
116.4357952616
 30
0.0
 10
182.6491139475
 20
116.4414859358
 30
0.0
 10
183.2581122949
 20
116.4604258487
 30
0.0
 10
183.6936269804
 20
116.4828961558
 30
0.0
 10
183.9526740059
 20
116.5006189618
 30
0.0
 10
184.1530029071
 20
116.5195776983
 30
0.0
 10
184.265955068
 20
116.5345287049
 30
0.0
 10
184.3110308289
 20
116.5436640644
 30
0.0
  0
LINE
  5
402
330
215
100
AcDbEntity
  8
RUNDUNGEN
  6
Continuous
 62
     9
100
AcDbLine
 10
184.3110308289
 20
116.5436640644
 30
0.0
 11
185.5653557518
 21
116.7976199453
 31
0.0
  0
LINE
  5
403
330
215
100
AcDbEntity
  8
RUNDUNGEN
  6
Continuous
 62
     9
100
AcDbLine
 10
218.1166850751
 20
99.1181584233
 30
0.0
 11
218.1167813878
 21
101.9920031786
 31
0.0
  0
SPLINE
  5
404
330
215
100
AcDbEntity
  8
RUNDUNGEN
  6
Continuous
 62
     9
100
AcDbSpline
210
0.0
220
0.0
230
1.0
 70
     8
 71
     3
 72
     9
 73
     5
 74
     0
 42
0.0000000001
 43
0.0000000001
 40
0.0
 40
0.0
 40
0.0
 40
0.0
 40
0.2504572505
 40
1.0
 40
1.0
 40
1.0
 40
1.0
 10
221.08579621
 20
104.0506213508
 30
0.0
 10
221.4755408479
 20
104.0738033223
 30
0.0
 10
223.031644665
 20
104.1668427364
 30
0.0
 10
224.5876495413
 20
104.2615274322
 30
0.0
 10
225.7539269569
 20
104.3327347086
 30
0.0
  0
LINE
  5
405
330
215
100
AcDbEntity
  8
RUNDUNGEN
  6
Continuous
 62
     9
100
AcDbLine
 10
220.0095119941
 20
103.986525074
 30
0.0
 11
221.08579621
 21
104.0506213508
 31
0.0
  0
SPLINE
  5
406
330
215
100
AcDbEntity
  8
RUNDUNGEN
  6
Continuous
 62
     9
100
AcDbSpline
210
0.0
220
0.0
230
1.0
 70
     8
 71
     3
 72
    11
 73
     7
 74
     0
 42
0.0000000001
 43
0.0000000001
 40
0.0
 40
0.0
 40
0.0
 40
0.0
 40
0.2819017356
 40
0.5393391715
 40
0.7721971124
 40
1.0
 40
1.0
 40
1.0
 40
1.0
 10
233.2609582474
 20
120.5097223271
 30
0.0
 10
233.234524332
 20
120.5615508403
 30
0.0
 10
233.185856414
 20
120.6617870814
 30
0.0
 10
233.0942537795
 20
120.793441061
 30
0.0
 10
232.979761253
 20
120.8915616269
 30
0.0
 10
232.8870460232
 20
120.9226125843
 30
0.0
 10
232.8405746343
 20
120.9297420937
 30
0.0
  0
SPLINE
  5
407
330
215
100
AcDbEntity
  8
RUNDUNGEN
  6
Continuous
 62
     9
100
AcDbSpline
210
0.0
220
0.0
230
1.0
 70
     8
 71
     3
 72
    22
 73
    18
 74
     0
 42
0.0000000001
 43
0.0000000001
 40
0.0
 40
0.0
 40
0.0
 40
0.0
 40
0.2017691894
 40
0.3858503064
 40
0.550654279
 40
0.6253356266
 40
0.6944557968
 40
0.7577495676999999
 40
0.8148010304000001
 40
0.8651246693
 40
0.9082052601999999
 40
0.9434850162
 40
0.9707104651999999
 40
0.9811704126999998
 40
0.9894105548
 40
0.9955583571
 40
1.0
 40
1.0
 40
1.0
 40
1.0
 10
227.4130927759
 20
105.5255885851
 30
0.0
 10
227.860277688
 20
106.5141124585
 30
0.0
 10
228.7054575839
 20
108.4090424652
 30
0.0
 10
229.8820911993
 20
111.1262958714
 30
0.0
 10
230.7628926947
 20
113.2267975416
 30
0.0
 10
231.388150614
 20
114.7639672083
 30
0.0
 10
231.7992054947
 20
115.7989494816
 30
0.0
 10
232.1662303104
 20
116.749366927
 30
0.0
 10
232.4867269632
 20
117.6093520184
 30
0.0
 10
232.7575605999
 20
118.3717406607
 30
0.0
 10
232.9758495829
 20
119.0284948123
 30
0.0
 10
233.1379129384
 20
119.5726582318
 30
0.0
 10
233.2328979291
 20
119.953794163
 30
0.0
 10
233.2750479582
 20
120.197157003
 30
0.0
 10
233.2880385396
 20
120.3305259902
 30
0.0
 10
233.2846341891
 20
120.4317225236
 30
0.0
 10
233.271816724
 20
120.4884494676
 30
0.0
 10
233.2609582474
 20
120.5097223271
 30
0.0
  0
SPLINE
  5
408
330
215
100
AcDbEntity
  8
RUNDUNGEN
  6
Continuous
 62
     9
100
AcDbSpline
210
0.0
220
0.0
230
1.0
 70
     8
 71
     3
 72
     8
 73
     4
 74
     0
 42
0.0000000001
 43
0.0000000001
 40
0.0
 40
0.0
 40
0.0
 40
0.0
 40
1.0
 40
1.0
 40
1.0
 40
1.0
 10
156.5613196605
 20
196.5212967214
 30
0.0
 10
156.9648230848
 20
196.5452075113
 30
0.0
 10
157.3683133406
 20
196.5693412175999
 30
0.0
 10
157.7717925043
 20
196.5936579554
 30
0.0
  0
LINE
  5
409
330
215
100
AcDbEntity
  8
RUNDUNGEN
  6
Continuous
 62
     9
100
AcDbLine
 10
156.5580287917
 20
193.0581446425
 30
0.0
 11
156.5613196605
 21
196.5212967214
 31
0.0
  0
SPLINE
  5
40A
330
215
100
AcDbEntity
  8
0
  6
Continuous
 62
     9
100
AcDbSpline
210
0.0
220
0.0
230
1.0
 70
     8
 71
     3
 72
    10
 73
     6
 74
     0
 42
0.0000000001
 43
0.0000000001
 40
0.0
 40
0.0
 40
0.0
 40
0.0
 40
0.5663204941
 40
0.7980685040000001
 40
1.0
 40
1.0
 40
1.0
 40
1.0
 10
235.4946890003
 20
121.600218581
 30
0.0
 10
235.4102710953
 20
121.707135934
 30
0.0
 10
235.2902837118
 20
121.8596007643
 30
0.0
 10
235.0950974655
 20
122.0035322192
 30
0.0
 10
234.9946923043
 20
122.0393881439
 30
0.0
 10
234.9466802737
 20
122.0467555512
 30
0.0
  0
SPLINE
  5
40B
330
215
100
AcDbEntity
  8
0
  6
Continuous
 62
     9
100
AcDbSpline
210
0.0
220
0.0
230
1.0
 70
     8
 71
     3
 72
    30
 73
    26
 74
     0
 42
0.0000000001
 43
0.0000000001
 40
0.0
 40
0.0
 40
0.0
 40
0.0
 40
0.0005059148
 40
0.0014958521
 40
0.0030533703
 40
0.0051960949
 40
0.0112535494
 40
0.0196763661
 40
0.0304510369
 40
0.0435552258
 40
0.0589587635
 40
0.076625934
 40
0.0965148412
 40
0.1185779775
 40
0.1427629076
 40
0.1690113291
 40
0.2274425756
 40
0.2933106059
 40
0.3659822511
 40
0.4447585549000001
 40
0.5288815512000001
 40
0.6175415286
 40
0.7098847323000001
 40
0.8050224634999999
 40
1.0
 40
1.0
 40
1.0
 40
1.0
 10
130.7762338372
 20
95.73236157889999
 30
0.0
 10
130.7762347669
 20
95.7256115943
 30
0.0
 10
130.7939950371
 20
95.70993621840001
 30
0.0
 10
130.8308858037
 20
95.6971907804
 30
0.0
 10
130.892258647
 20
95.68077910799999
 30
0.0
 10
131.0199464184
 20
95.6577046185
 30
0.0
 10
131.2404548079
 20
95.62995655319999
 30
0.0
 10
131.5758421422
 20
95.599138232
 30
0.0
 10
132.0057874268
 20
95.5681150042
 30
0.0
 10
132.5289749482
 20
95.53727900790001
 30
0.0
 10
133.1443053629
 20
95.50675372729999
 30
0.0
 10
133.850261054
 20
95.47668066940001
 30
0.0
 10
134.6451647027
 20
95.44715588379999
 30
0.0
 10
135.5271023903
 20
95.418270566
 30
0.0
 10
136.4939521765
 20
95.39010450179999
 30
0.0
 10
137.94594693
 20
95.35224669939999
 30
0.0
 10
139.9540947189
 20
95.30795845760001
 30
0.0
 10
142.581681875
 20
95.26037599350001
 30
0.0
 10
145.4808240116
 20
95.21717935639999
 30
0.0
 10
148.6236128903
 20
95.17880980660001
 30
0.0
 10
151.9797903832
 20
95.1456664406
 30
0.0
 10
155.5170349821
 20
95.11808479959999
 30
0.0
 10
159.2012829785
 20
95.09633988379999
 30
0.0
 10
164.3040546595
 20
95.0752589909
 30
0.0
 10
168.1748167703
 20
95.06906938670001
 30
0.0
 10
170.7762338371999
 20
95.06906895209999
 30
0.0
  0
LINE
  5
40C
330
215
100
AcDbEntity
  8
0
  6
Continuous
 62
     9
100
AcDbLine
 10
252.7762338372
 20
74.7493917177
 30
0.0
 11
252.7762338372
 21
74.7712597017
 31
0.0
  0
SPLINE
  5
40E
330
215
100
AcDbEntity
  8
RUNDUNGEN
  6
Continuous
 62
     9
100
AcDbSpline
210
0.0
220
0.0
230
1.0
 70
     8
 71
     3
 72
     9
 73
     5
 74
     0
 42
0.0000000001
 43
0.0000000001
 40
0.0
 40
0.0
 40
0.0
 40
0.0
 40
0.5012815401000001
 40
1.0
 40
1.0
 40
1.0
 40
1.0
 10
226.1692377808
 20
102.5494883351
 30
0.0
 10
226.4761323913
 20
102.5805259619
 30
0.0
 10
227.0827181259
 20
102.7202425398
 30
0.0
 10
227.6380096118
 20
102.9990471863
 30
0.0
 10
227.8953733341
 20
103.1662029458
 30
0.0
  0
SPLINE
  5
40F
330
215
100
AcDbEntity
  8
RUNDUNGEN
  6
Continuous
 62
     9
100
AcDbSpline
210
0.0
220
0.0
230
1.0
 70
     8
 71
     3
 72
     9
 73
     5
 74
     0
 42
0.0000000001
 43
0.0000000001
 40
0.0
 40
0.0
 40
0.0
 40
0.0
 40
0.5011187330000001
 40
1.0
 40
1.0
 40
1.0
 40
1.0
 10
158.3696717812
 20
198.0935139213
 30
0.0
 10
158.1649595025
 20
198.2625598485
 30
0.0
 10
157.6891147471
 20
198.5240603795
 30
0.0
 10
157.155584272
 20
198.6099134197
 30
0.0
 10
156.8912821023
 20
198.6099035263
 30
0.0
  0
SPLINE
  5
410
330
215
100
AcDbEntity
  8
RUNDUNGEN
  6
Continuous
 62
     9
100
AcDbSpline
210
0.0
220
0.0
230
1.0
 70
     8
 71
     3
 72
    15
 73
    11
 74
     0
 42
0.0000000001
 43
0.0000000001
 40
0.0
 40
0.0
 40
0.0
 40
0.0
 40
0.1657418749
 40
0.3297510235
 40
0.4859170829
 40
0.6286257134000001
 40
0.7532035042000001
 40
0.8076829048999998
 40
0.8566533682999999
 40
1.0
 40
1.0
 40
1.0
 40
1.0
 10
229.7816898911
 20
105.1901178247
 30
0.0
 10
229.6589125061
 20
105.2539203539
 30
0.0
 10
229.4097147345
 20
105.3715996823
 30
0.0
 10
229.0307669789
 20
105.5173891494
 30
0.0
 10
228.659979814
 20
105.6277226555
 30
0.0
 10
228.3128651278
 20
105.6979174876
 30
0.0
 10
228.0448585813
 20
105.7222455415
 30
0.0
 10
227.8536122733
 20
105.716272091
 30
0.0
 10
227.6519485141
 20
105.6914822554
 30
0.0
 10
227.4786731326
 20
105.6256885689
 30
0.0
 10
227.4130927771
 20
105.5255885846
 30
0.0
  0
SPLINE
  5
411
330
215
100
AcDbEntity
  8
RUNDUNGEN
  6
Continuous
 62
     9
100
AcDbSpline
210
0.0
220
0.0
230
1.0
 70
     8
 71
     3
 72
    29
 73
    25
 74
     0
 42
0.0000000001
 43
0.0000000001
 40
0.0
 40
0.0
 40
0.0
 40
0.0
 40
0.1947531788
 40
0.2897884409
 40
0.3820386164
 40
0.4706171939
 40
0.5546733392000001
 40
0.6333999034000001
 40
0.7060410623000001
 40
0.7718997337000002
 40
0.8303443846999998
 40
0.8808152719999998
 40
0.9029065253
 40
0.9228303207999999
 40
0.9405385104999998
 40
0.9559902929999999
 40
0.9691488790000001
 40
0.9799856651
 40
0.9884774087
 40
0.9946126012999998
 40
0.9967977402
 40
0.9984011215999998
 40
0.9994414868000001
 40
1.0
 40
1.0
 40
1.0
 40
1.0
 10
170.7762338371999
 20
98.19171139079999
 30
0.0
 10
172.7252140501
 20
98.1917117789
 30
0.0
 10
175.6252575475
 20
98.19675058940001
 30
0.0
 10
179.4484480823
 20
98.21391148860001
 30
0.0
 10
182.2090850779
 20
98.23161407589999
 30
0.0
 10
184.8598109709
 20
98.2540689818
 30
0.0
 10
187.3751509082
 20
98.28105320430001
 30
0.0
 10
189.7309362814
 20
98.3122924523
 30
0.0
 10
191.9045346906
 20
98.34746821260001
 30
0.0
 10
193.8750686864
 20
98.38620380549999
 30
0.0
 10
195.6236145078
 20
98.42809813569999
 30
0.0
 10
196.9340990346
 20
98.46672022120001
 30
0.0
 10
197.8590657533
 20
98.4995653292
 30
0.0
 10
198.456261628
 20
98.52361438910001
 30
0.0
 10
198.986930866
 20
98.54811288170001
 30
0.0
 10
199.449804974
 20
98.5729762741
 30
0.0
 10
199.8437611856
 20
98.5981105851
 30
0.0
 10
200.1679527493
 20
98.62337081980001
 30
0.0
 10
200.4214405661
 20
98.64855111909999
 30
0.0
 10
200.5884832597
 20
98.67106474979999
 30
0.0
 10
200.6857184153
 20
98.6900095528
 30
0.0
 10
200.7328309704
 20
98.70316876209999
 30
0.0
 10
200.7618421557
 20
98.71415394639999
 30
0.0
 10
200.7756682296
 20
98.7263397247
 30
0.0
 10
200.7761910492
 20
98.7319045049
 30
0.0
  0
SPLINE
  5
412
330
215
100
AcDbEntity
  8
RUNDUNGEN
  6
Continuous
 62
     9
100
AcDbSpline
210
0.0
220
0.0
230
1.0
 70
     8
 71
     3
 72
     9
 73
     5
 74
     0
 42
0.0000000001
 43
0.0000000001
 40
0.0
 40
0.0
 40
0.0
 40
0.0
 40
0.5011129256000001
 40
1.0
 40
1.0
 40
1.0
 40
1.0
 10
183.1828196906
 20
198.0935139213
 30
0.0
 10
183.3875269942
 20
198.2625555657
 30
0.0
 10
183.8633574193
 20
198.5240664528
 30
0.0
 10
184.3968837948
 20
198.60991433
 30
0.0
 10
184.66118557
 20
198.6099035263
 30
0.0
  0
SPLINE
  5
413
330
215
100
AcDbEntity
  8
RUNDUNGEN
  6
Continuous
 62
     9
100
AcDbSpline
210
0.0
220
0.0
230
1.0
 70
     8
 71
     3
 72
    13
 73
     9
 74
     0
 42
0.0000000001
 43
0.0000000001
 40
0.0
 40
0.0
 40
0.0
 40
0.0
 40
0.3562059792
 40
0.6613762805
 40
0.7833024203
 40
0.8803976295
 40
0.9515692972
 40
1.0
 40
1.0
 40
1.0
 40
1.0
 10
227.8953756618
 20
103.1664233213
 30
0.0
 10
227.7765653301
 20
103.3681308294
 30
0.0
 10
227.5418374439
 20
103.7343977458
 30
0.0
 10
227.2273229878
 20
104.1436329181
 30
0.0
 10
226.9887411423
 20
104.392485535
 30
0.0
 10
226.8420268275
 20
104.5156811968
 30
0.0
 10
226.7200661643
 20
104.5892164309
 30
0.0
 10
226.6378632091
 20
104.6049267273
 30
0.0
 10
226.6069541453
 20
104.5973315181
 30
0.0
  0
SPLINE
  5
414
330
215
100
AcDbEntity
  8
RUNDUNGEN
  6
Continuous
 62
     9
100
AcDbSpline
210
0.0
220
0.0
230
1.0
 70
     8
 71
     3
 72
    13
 73
     9
 74
     0
 42
0.0000000001
 43
0.0000000001
 40
0.0
 40
0.0
 40
0.0
 40
0.0
 40
0.2475453837
 40
0.4962240623
 40
0.6216950223
 40
0.7475459375
 40
0.8736837298999999
 40
1.0
 40
1.0
 40
1.0
 40
1.0
 10
184.6611855675
 20
207.644509
 30
0.0
 10
184.3911164496
 20
207.6444965066
 30
0.0
 10
183.8454367278
 20
207.7343360445
 30
0.0
 10
183.2405293511
 20
208.0759549646
 30
0.0
 10
182.860214335
 20
208.4716100329
 30
0.0
 10
182.6402194375
 20
208.8235530384
 30
0.0
 10
182.5013958642
 20
209.2156832063
 30
0.0
 10
182.4697102566999
 20
209.4921302057
 30
0.0
 10
182.4697361592
 20
209.6299397765
 30
0.0
  0
SPLINE
  5
415
330
215
100
AcDbEntity
  8
RUNDUNGEN
  6
Continuous
 62
     9
100
AcDbSpline
210
0.0
220
0.0
230
1.0
 70
     8
 71
     3
 72
    13
 73
     9
 74
     0
 42
0.0000000001
 43
0.0000000001
 40
0.0
 40
0.0
 40
0.0
 40
0.0
 40
0.3663120447
 40
0.6757319124
 40
0.7973869411
 40
0.8923908238999999
 40
0.9591626195999999
 40
1.0
 40
1.0
 40
1.0
 40
1.0
 10
226.1692370305
 20
102.549487825
 30
0.0
 10
226.1518488191
 20
102.7759715458
 30
0.0
 10
226.1083122326
 20
103.1928419774
 30
0.0
 10
226.0253442379
 20
103.6812925512
 30
0.0
 10
225.943907585
 20
103.9969781428
 30
0.0
 10
225.8848876775
 20
104.1637984657
 30
0.0
 10
225.8291769122
 20
104.2747056915
 30
0.0
 10
225.778429194
 20
104.3263427447
 30
0.0
 10
225.7539267817
 20
104.3327380548
 30
0.0
  0
SPLINE
  5
416
330
215
100
AcDbEntity
  8
RUNDUNGEN
  6
Continuous
 62
     9
100
AcDbSpline
210
0.0
220
0.0
230
1.0
 70
     8
 71
     3
 72
    13
 73
     9
 74
     0
 42
0.0000000001
 43
0.0000000001
 40
0.0
 40
0.0
 40
0.0
 40
0.0
 40
0.1263157797
 40
0.2524536269
 40
0.3783051178
 40
0.5037765228
 40
0.7524550486
 40
1.0
 40
1.0
 40
1.0
 40
1.0
 10
159.0827315152
 20
209.6299397744
 30
0.0
 10
159.0827568872
 20
209.4921307396
 30
0.0
 10
159.0510724580999
 20
209.2156842027
 30
0.0
 10
158.9122486282
 20
208.8235538026
 30
0.0
 10
158.6922530157
 20
208.4716099106
 30
0.0
 10
158.3119373685
 20
208.075954085
 30
0.0
 10
157.7070297658
 20
207.7343358645
 30
0.0
 10
157.1613507542
 20
207.6444965007
 30
0.0
 10
156.8912821099
 20
207.644509
 30
0.0
  0
SPLINE
  5
417
330
215
100
AcDbEntity
  8
RUNDUNGEN
  6
Continuous
 62
     9
100
AcDbSpline
210
0.0
220
0.0
230
1.0
 70
     8
 71
     3
 72
    15
 73
    11
 74
     0
 42
0.0000000001
 43
0.0000000001
 40
0.0
 40
0.0
 40
0.0
 40
0.0
 40
0.3634261517
 40
0.5293424112
 40
0.6767830765000001
 40
0.8006208062
 40
0.8967940665
 40
0.9627700443
 40
0.9845559796999999
 40
1.0
 40
1.0
 40
1.0
 40
1.0
 10
221.457464146
 20
102.0554652023
 30
0.0
 10
221.4429700191
 20
102.3037521332
 30
0.0
 10
221.4132670682
 20
102.6650045938
 30
0.0
 10
221.3554043167
 20
103.1246170273
 30
0.0
 10
221.3077989851
 20
103.4200078079
 30
0.0
 10
221.2567773234
 20
103.6665511312
 30
0.0
 10
221.2042109503
 20
103.8548212537
 30
0.0
 10
221.1573861598
 20
103.9730457367
 30
0.0
 10
221.1168415432
 20
104.0310414414
 30
0.0
 10
221.095834706
 20
104.0473147144
 30
0.0
 10
221.08579621
 20
104.0506213508
 30
0.0
  0
SPLINE
  5
418
330
215
100
AcDbEntity
  8
RUNDUNGEN
  6
Continuous
 62
     9
100
AcDbSpline
210
0.0
220
0.0
230
1.0
 70
     8
 71
     3
 72
     8
 73
     4
 74
     0
 42
0.0000000001
 43
0.0000000001
 40
0.0
 40
0.0
 40
0.0
 40
0.0
 40
1.0
 40
1.0
 40
1.0
 40
1.0
 10
184.4693369795
 20
197.6100558311
 30
0.0
 10
184.96379469
 20
197.5801425723
 30
0.0
 10
185.4582665918
 20
197.5504617662
 30
0.0
 10
185.9527600232
 20
197.5211449327
 30
0.0
  0
SPLINE
  5
419
330
215
100
AcDbEntity
  8
RUNDUNGEN
  6
Continuous
 62
     9
100
AcDbSpline
210
0.0
220
0.0
230
1.0
 70
     8
 71
     3
 72
    16
 73
    12
 74
     0
 42
0.0000000001
 43
0.0000000001
 40
0.0
 40
0.0
 40
0.0
 40
0.0
 40
0.184714837
 40
0.3631998676
 40
0.5290134778
 40
0.6763943376999999
 40
0.8002123455999999
 40
0.89641417
 40
0.9625421849
 40
0.9845390190999999
 40
1.0
 40
1.0
 40
1.0
 40
1.0
 10
220.3864610484
 20
101.9909968886
 30
0.0
 10
220.3806940031
 20
102.1174035006
 30
0.0
 10
220.3611346888
 20
102.3655343874
 30
0.0
 10
220.325918048
 20
102.726211017
 30
0.0
 10
220.2836189294
 20
103.0604628178
 30
0.0
 10
220.2352343992
 20
103.355896089
 30
0.0
 10
220.1834633326
 20
103.6025509336
 30
0.0
 10
220.1300279709
 20
103.7908123419
 30
0.0
 10
220.0825554772
 20
103.9093902092
 30
0.0
 10
220.0406629185
 20
103.9668380011
 30
0.0
 10
220.0195432523
 20
103.9831260632
 30
0.0
 10
220.0095119946
 20
103.986525074
 30
0.0
  0
SPLINE
  5
41A
330
215
100
AcDbEntity
  8
RUNDUNGEN
  6
Continuous
 62
     9
100
AcDbSpline
210
0.0
220
0.0
230
1.0
 70
     8
 71
     3
 72
     8
 73
     4
 74
     0
 42
0.0000000001
 43
0.0000000001
 40
0.0
 40
0.0
 40
0.0
 40
0.0
 40
1.0
 40
1.0
 40
1.0
 40
1.0
 10
155.5997076511
 20
197.5211449327
 30
0.0
 10
156.0942010919
 20
197.5504617667
 30
0.0
 10
156.5886730029
 20
197.5801425753
 30
0.0
 10
157.0831307229999
 20
197.6100558311
 30
0.0
  0
SPLINE
  5
41B
330
215
100
AcDbEntity
  8
RUNDUNGEN
  6
Continuous
 62
     9
100
AcDbSpline
210
0.0
220
0.0
230
1.0
 70
     8
 71
     3
 72
     8
 73
     4
 74
     0
 42
0.0000000001
 43
0.0000000001
 40
0.0
 40
0.0
 40
0.0
 40
0.0
 40
1.0
 40
1.0
 40
1.0
 40
1.0
 10
185.9354914725999
 20
208.7322412856
 30
0.0
 10
185.4467849137
 20
208.7032598327
 30
0.0
 10
184.9580995685
 20
208.6739198988
 30
0.0
 10
184.4694278563
 20
208.6443566952
 30
0.0
  0
SPLINE
  5
41C
330
215
100
AcDbEntity
  8
RUNDUNGEN
  6
Continuous
 62
     9
100
AcDbSpline
210
0.0
220
0.0
230
1.0
 70
     8
 71
     3
 72
     8
 73
     4
 74
     0
 42
0.0000000001
 43
0.0000000001
 40
0.0
 40
0.0
 40
0.0
 40
0.0
 40
1.0
 40
1.0
 40
1.0
 40
1.0
 10
157.0830949297
 20
208.6443566952
 30
0.0
 10
156.5944153606
 20
208.6739203822
 30
0.0
 10
156.1057220725
 20
208.7032593626
 30
0.0
 10
155.6170076559
 20
208.7322412856
 30
0.0
  0
SPLINE
  5
41D
330
215
100
AcDbEntity
  8
RUNDUNGEN
  6
Continuous
 62
     9
100
AcDbSpline
210
0.0
220
0.0
230
1.0
 70
     8
 71
     3
 72
    15
 73
    11
 74
     0
 42
0.0000000001
 43
0.0000000001
 40
0.0
 40
0.0
 40
0.0
 40
0.0
 40
0.3696339847
 40
0.5374717927
 40
0.6856365956000001
 40
0.8088479726999999
 40
0.9030006293999999
 40
0.9383938051000001
 40
0.9659419991
 40
1.0
 40
1.0
 40
1.0
 40
1.0
 10
216.4207123404
 20
95.1087625175
 30
0.0
 10
216.420151345
 20
95.36162061
 30
0.0
 10
216.4100710348
 20
95.72941466620001
 30
0.0
 10
216.3752897473
 20
96.1972464535
 30
0.0
 10
216.3419310137
 20
96.49587531059999
 30
0.0
 10
216.301471702
 20
96.74296865350001
 30
0.0
 10
216.2617757559
 20
96.91101715510001
 30
0.0
 10
216.2243839128
 20
97.01297130389999
 30
0.0
 10
216.1957930607
 20
97.0705779272
 30
0.0
 10
216.1640863521
 20
97.10843987629999
 30
0.0
 10
216.1409637534
 20
97.1112962017
 30
0.0
  0
SPLINE
  5
41E
330
215
100
AcDbEntity
  8
RUNDUNGEN
  6
Continuous
 62
     9
100
AcDbSpline
210
0.0
220
0.0
230
1.0
 70
     8
 71
     3
 72
    11
 73
     7
 74
     0
 42
0.0000000001
 43
0.0000000001
 40
0.0
 40
0.0
 40
0.0
 40
0.0
 40
0.2471677603
 40
0.4959035728
 40
0.7470274711
 40
1.0
 40
1.0
 40
1.0
 40
1.0
 10
216.1409637534
 20
97.1112896173
 30
0.0
 10
216.396886477
 20
97.1123224635
 30
0.0
 10
216.9155184249
 20
97.21780643950001
 30
0.0
 10
217.5717949015
 20
97.66275980719999
 30
0.0
 10
218.0134488191
 20
98.3284995236
 30
0.0
 10
218.1169096074
 20
98.8562232828
 30
0.0
 10
218.1166850751
 20
99.1181584233
 30
0.0
  0
SPLINE
  5
41F
330
215
100
AcDbEntity
  8
RUNDUNGEN
  6
Continuous
 62
     9
100
AcDbSpline
210
0.0
220
0.0
230
1.0
 70
     8
 71
     3
 72
     9
 73
     5
 74
     0
 42
0.0000000001
 43
0.0000000001
 40
0.0
 40
0.0
 40
0.0
 40
0.0
 40
0.5192179142
 40
1.0
 40
1.0
 40
1.0
 40
1.0
 10
226.6069545242
 20
104.597330835
 30
0.0
 10
226.7925221981
 20
104.7068561304
 30
0.0
 10
227.1155620268
 20
104.9819092848
 30
0.0
 10
227.3347440161
 20
105.3420870841
 30
0.0
 10
227.4130927759
 20
105.5255885851
 30
0.0
  0
LEADER
  5
5E2
330
215
100
AcDbEntity
  8
ZEICHNUNGSBEMASSUNGEN
  6
Continuous
 62
     7
100
AcDbLeader
  3
DIMSTYLE_2
 74
     0
 76
     3
 10
177.7762336751731
 20
231.6256091513143
 30
0.0
 10
193.9148205013729
 20
241.2698532349716
 30
0.0
 10
211.0074506040792
 20
241.2371576565299
 30
0.0
213
8.546107528269942
223
6.697880158863256
233
0.0
1001
ACAD
1000
DSTYLE
1002
{
1070
    41
1040
5.0
1070
   147
1040
1.5
1070
   178
1070
   256
1002
}
  0
LINE
  5
5E3
330
215
100
AcDbEntity
  8
0
100
AcDbLine
 10
213.3652209733565
 20
237.9912558788916
 30
0.0
 11
222.004384247691
 21
237.9912558788916
 31
0.0
  0
LINE
  5
5E4
330
215
100
AcDbEntity
  8
0
100
AcDbLine
 10
214.8604413479358
 20
236.8456289733818
 30
0.0
 11
220.4930751451191
 21
236.8456289733818
 31
0.0
  0
LINE
  5
5E5
330
215
100
AcDbEntity
  8
0
100
AcDbLine
 10
216.2712528014499
 20
235.9131815446298
 30
0.0
 11
219.2753213149031
 21
235.9131815446298
 31
0.0
  0
LINE
  5
5E6
330
215
100
AcDbEntity
  8
0
100
AcDbLine
 10
217.6374539534748
 20
239.5860615792189
 30
0.0
 11
217.6374539534748
 21
245.027167179145
 31
0.0
  0
ENDSEC
  0
SECTION
  2
OBJECTS
  0
DICTIONARY
  5
C
330
0
100
AcDbDictionary
281
     1
  3
ACAD_COLOR
350
452
  3
ACAD_GROUP
350
D
  3
ACAD_LAYOUT
350
1A
  3
ACAD_MATERIAL
350
425
  3
ACAD_MLEADERSTYLE
350
467
  3
ACAD_MLINESTYLE
350
17
  3
ACAD_PLOTSETTINGS
350
19
  3
ACAD_PLOTSTYLENAME
350
E
  3
ACAD_SCALELIST
350
455
  3
ACAD_TABLESTYLE
350
453
  3
ACAD_VISUALSTYLE
350
43E
  3
ACDB_RECOMPOSE_DATA
350
5F6
  3
AcDbVariableDictionary
350
5E7
  3
AcmDictionary
350
4C2
  3
AMG
350
46C
  3
AMGSNAPSETTINGS
350
507
  3
DWGPROPS
350
5F7
  0
DICTIONARY
  5
452
102
{ACAD_REACTORS
330
C
102
}
330
C
100
AcDbDictionary
281
     1
  0
DICTIONARY
  5
D
102
{ACAD_REACTORS
330
C
102
}
330
C
100
AcDbDictionary
281
     1
  0
DICTIONARY
  5
1A
102
{ACAD_REACTORS
330
C
102
}
330
C
100
AcDbDictionary
281
     1
  3
Layout1
350
422
  3
Model
350
421
  0
DICTIONARY
  5
425
102
{ACAD_REACTORS
330
C
102
}
330
C
100
AcDbDictionary
281
     1
  3
ByBlock
350
42E
  3
ByLayer
350
426
  3
Global
350
436
  0
DICTIONARY
  5
467
102
{ACAD_REACTORS
330
C
102
}
330
C
100
AcDbDictionary
281
     1
  3
Standard
350
468
  0
DICTIONARY
  5
17
102
{ACAD_REACTORS
330
C
102
}
330
C
100
AcDbDictionary
281
     1
  3
Standard
350
18
  0
DICTIONARY
  5
19
102
{ACAD_REACTORS
330
C
102
}
330
C
100
AcDbDictionary
281
     1
  0
ACDBDICTIONARYWDFLT
  5
E
102
{ACAD_REACTORS
330
C
102
}
330
C
100
AcDbDictionary
281
     1
  3
Normal
350
F
100
AcDbDictionaryWithDefault
340
F
  0
DICTIONARY
  5
455
102
{ACAD_REACTORS
330
C
102
}
330
C
100
AcDbDictionary
281
     1
  3
A0
350
456
  3
A1
350
457
  3
A2
350
458
  3
A3
350
459
  3
A4
350
45A
  3
A5
350
45B
  3
A6
350
45C
  3
A7
350
45D
  3
A8
350
45E
  3
A9
350
45F
  3
B0
350
460
  3
B1
350
461
  3
B2
350
462
  3
B3
350
463
  3
B4
350
464
  3
B5
350
465
  3
B6
350
466
  0
DICTIONARY
  5
453
102
{ACAD_REACTORS
330
C
102
}
330
C
100
AcDbDictionary
281
     1
  3
Standard
350
454
  0
DICTIONARY
  5
43E
102
{ACAD_REACTORS
330
C
102
}
330
C
100
AcDbDictionary
281
     1
  3
2dWireframe
350
444
  3
3D Hidden
350
446
  3
3dWireframe
350
445
  3
Basic
350
443
  3
Brighten
350
44A
  3
ColorChange
350
44E
  3
Conceptual
350
447
  3
Dim
350
449
  3
EdgeColorOff
350
451
  3
Facepattern
350
44D
  3
Flat
350
43F
  3
FlatWithEdges
350
440
  3
Gouraud
350
441
  3
GouraudWithEdges
350
442
  3
JitterOff
350
44F
  3
Linepattern
350
44C
  3
OverhangOff
350
450
  3
Realistic
350
448
  3
Thicken
350
44B
  0
XRECORD
  5
5F6
102
{ACAD_REACTORS
330
C
102
}
330
C
100
AcDbXrecord
280
     1
 90
        1
330
454
  0
DICTIONARY
  5
5E7
102
{ACAD_REACTORS
330
C
102
}
330
C
100
AcDbDictionary
281
     1
  3
CANNOSCALE
350
5EB
  3
CMLEADERSTYLE
350
5E9
  3
CTABLESTYLE
350
5E8
  3
DIMASSOC
350
5F2
  3
HIDETEXT
350
5F1
  3
INDEXCTL
350
5F0
  3
LAYEREVAL
350
5ED
  3
LAYERNOTIFY
350
5EE
  3
LIGHTINGUNITS
350
5EC
  3
MSLTSCALE
350
5EA
  3
SORTENTS
350
5EF
  3
XCLIPFRAME
350
5F3
  0
DICTIONARY
  5
4C2
102
{ACAD_REACTORS
330
C
102
}
330
C
100
AcDbDictionary
281
     1
  3
AcmStdDictionary
350
4CC
  0
DICTIONARY
  5
46C
102
{ACAD_REACTORS
330
C
102
}
330
C
100
AcDbDictionary
281
     1
  0
DICTIONARY
  5
507
102
{ACAD_REACTORS
330
C
102
}
330
C
100
AcDbDictionary
281
     1
  0
XRECORD
  5
5F7
102
{ACAD_REACTORS
330
C
102
}
330
C
100
AcDbXrecord
280
     1
  1
DWGPROPS COOKIE
  2

  3

  4

  6

  7

  8
sheim
  9

300
=
301
=
302
=
303
=
304
=
305
=
306
=
307
=
308
=
309
=
 40
0.0041985185185185
 41
2456324.617442465
 42
2456324.621640625
  1

 90
        0
  0
LAYOUT
  5
422
102
{ACAD_XDICTIONARY
360
5FA
102
}
102
{ACAD_REACTORS
330
1A
102
}
330
1A
100
AcDbPlotSettings
  1

  2
none_device
  4
ISO_A3_(420.00_x_297.00_MM)
  6

 40
0.0
 41
0.0
 42
0.0
 43
0.0
 44
420.0
 45
297.0
 46
0.0
 47
0.0
 48
0.0
 49
0.0
140
0.0
141
0.0
142
1.0
143
1.0
 70
     0
 72
     1
 73
     0
 74
     0
  7

 75
     0
147
1.0
148
0.0
149
0.0
100
AcDbLayout
  1
Layout1
 70
     1
 71
     1
 10
0.0
 20
0.0
 11
12.0
 21
9.0
 12
0.0
 22
0.0
 32
0.0
 14
1.000000000000000E+20
 24
1.000000000000000E+20
 34
1.000000000000000E+20
 15
-1.000000000000000E+20
 25
-1.000000000000000E+20
 35
-1.000000000000000E+20
146
0.0
 13
0.0
 23
0.0
 33
0.0
 16
1.0
 26
0.0
 36
0.0
 17
0.0
 27
1.0
 37
0.0
 76
     0
330
216
  0
LAYOUT
  5
421
102
{ACAD_XDICTIONARY
360
5F8
102
}
102
{ACAD_REACTORS
330
1A
102
}
330
1A
100
AcDbPlotSettings
  1

  2
none_device
  4
ISO_A3_(420.00_x_297.00_MM)
  6

 40
0.0
 41
0.0
 42
0.0
 43
0.0
 44
420.0
 45
297.0
 46
0.0
 47
0.0
 48
0.0
 49
0.0
140
0.0
141
0.0
142
1.0
143
1.0
 70
  1024
 72
     1
 73
     0
 74
     0
  7

 75
     0
147
1.0
148
0.0
149
0.0
100
AcDbLayout
  1
Model
 70
     0
 71
     0
 10
0.0
 20
0.0
 11
420.0
 21
297.0
 12
0.0
 22
0.0
 32
0.0
 14
0.0
 24
0.0
 34
0.0
 15
0.0
 25
0.0
 35
0.0
146
0.0
 13
0.0
 23
0.0
 33
0.0
 16
1.0
 26
0.0
 36
0.0
 17
0.0
 27
1.0
 37
0.0
 76
     0
330
215
331
1F4
  0
MATERIAL
  5
42E
102
{ACAD_XDICTIONARY
360
42F
102
}
102
{ACAD_REACTORS
330
425
102
}
330
425
100
AcDbMaterial
  1
ByBlock
 72
     0
 43
0.0008202099737533
 43
0.0
 43
0.0
 43
0.0
 43
0.0
 43
0.0008202099737533
 43
0.0
 43
0.0
 43
0.0
 43
0.0
 43
1.0
 43
0.0
 43
0.0
 43
0.0
 43
0.0
 43
1.0
 77
     0
 47
0.0008202099737533
 47
0.0
 47
0.0
 47
0.0
 47
0.0
 47
0.0008202099737533
 47
0.0
 47
0.0
 47
0.0
 47
0.0
 47
1.0
 47
0.0
 47
0.0
 47
0.0
 47
0.0
 47
1.0
171
     0
 49
0.0008202099737533
 49
0.0
 49
0.0
 49
0.0
 49
0.0
 49
0.0008202099737533
 49
0.0
 49
0.0
 49
0.0
 49
0.0
 49
1.0
 49
0.0
 49
0.0
 49
0.0
 49
0.0
 49
1.0
175
     0
142
0.0008202099737533
142
0.0
142
0.0
142
0.0
142
0.0
142
0.0008202099737533
142
0.0
142
0.0
142
0.0
142
0.0
142
1.0
142
0.0
142
0.0
142
0.0
142
0.0
142
1.0
179
     0
144
0.0008202099737533
144
0.0
144
0.0
144
0.0
144
0.0
144
0.0008202099737533
144
0.0
144
0.0
144
0.0
144
0.0
144
1.0
144
0.0
144
0.0
144
0.0
144
0.0
144
1.0
147
0.0008202099737533
147
0.0
147
0.0
147
0.0
147
0.0
147
0.0008202099737533
147
0.0
147
0.0
147
0.0
147
0.0
147
1.0
147
0.0
147
0.0
147
0.0
147
0.0
147
1.0
  0
MATERIAL
  5
426
102
{ACAD_XDICTIONARY
360
427
102
}
102
{ACAD_REACTORS
330
425
102
}
330
425
100
AcDbMaterial
  1
ByLayer
 72
     0
 43
0.0008202099737533
 43
0.0
 43
0.0
 43
0.0
 43
0.0
 43
0.0008202099737533
 43
0.0
 43
0.0
 43
0.0
 43
0.0
 43
1.0
 43
0.0
 43
0.0
 43
0.0
 43
0.0
 43
1.0
 77
     0
 47
0.0008202099737533
 47
0.0
 47
0.0
 47
0.0
 47
0.0
 47
0.0008202099737533
 47
0.0
 47
0.0
 47
0.0
 47
0.0
 47
1.0
 47
0.0
 47
0.0
 47
0.0
 47
0.0
 47
1.0
171
     0
 49
0.0008202099737533
 49
0.0
 49
0.0
 49
0.0
 49
0.0
 49
0.0008202099737533
 49
0.0
 49
0.0
 49
0.0
 49
0.0
 49
1.0
 49
0.0
 49
0.0
 49
0.0
 49
0.0
 49
1.0
175
     0
142
0.0008202099737533
142
0.0
142
0.0
142
0.0
142
0.0
142
0.0008202099737533
142
0.0
142
0.0
142
0.0
142
0.0
142
1.0
142
0.0
142
0.0
142
0.0
142
0.0
142
1.0
179
     0
144
0.0008202099737533
144
0.0
144
0.0
144
0.0
144
0.0
144
0.0008202099737533
144
0.0
144
0.0
144
0.0
144
0.0
144
1.0
144
0.0
144
0.0
144
0.0
144
0.0
144
1.0
147
0.0008202099737533
147
0.0
147
0.0
147
0.0
147
0.0
147
0.0008202099737533
147
0.0
147
0.0
147
0.0
147
0.0
147
1.0
147
0.0
147
0.0
147
0.0
147
0.0
147
1.0
  0
MATERIAL
  5
436
102
{ACAD_XDICTIONARY
360
437
102
}
102
{ACAD_REACTORS
330
425
102
}
330
425
100
AcDbMaterial
  1
Global
 72
     0
 43
0.0008202099737533
 43
0.0
 43
0.0
 43
0.0
 43
0.0
 43
0.0008202099737533
 43
0.0
 43
0.0
 43
0.0
 43
0.0
 43
1.0
 43
0.0
 43
0.0
 43
0.0
 43
0.0
 43
1.0
 77
     0
 47
0.0008202099737533
 47
0.0
 47
0.0
 47
0.0
 47
0.0
 47
0.0008202099737533
 47
0.0
 47
0.0
 47
0.0
 47
0.0
 47
1.0
 47
0.0
 47
0.0
 47
0.0
 47
0.0
 47
1.0
171
     0
 49
0.0008202099737533
 49
0.0
 49
0.0
 49
0.0
 49
0.0
 49
0.0008202099737533
 49
0.0
 49
0.0
 49
0.0
 49
0.0
 49
1.0
 49
0.0
 49
0.0
 49
0.0
 49
0.0
 49
1.0
175
     0
142
0.0008202099737533
142
0.0
142
0.0
142
0.0
142
0.0
142
0.0008202099737533
142
0.0
142
0.0
142
0.0
142
0.0
142
1.0
142
0.0
142
0.0
142
0.0
142
0.0
142
1.0
179
     0
144
0.0008202099737533
144
0.0
144
0.0
144
0.0
144
0.0
144
0.0008202099737533
144
0.0
144
0.0
144
0.0
144
0.0
144
1.0
144
0.0
144
0.0
144
0.0
144
0.0
144
1.0
147
0.0008202099737533
147
0.0
147
0.0
147
0.0
147
0.0
147
0.0008202099737533
147
0.0
147
0.0
147
0.0
147
0.0
147
1.0
147
0.0
147
0.0
147
0.0
147
0.0
147
1.0
  0
MLEADERSTYLE
  5
468
102
{ACAD_REACTORS
330
467
102
}
330
467
100
AcDbMLeaderStyle
170
     2
171
     1
172
     0
 90
        2
 40
0.0
 41
0.0
173
     1
 91
-1056964608
340
14
 92
       -2
290
     1
 42
2.0
291
     1
 43
0.36
  3
Standard
 44
4.0
300

342
11
174
     1
178
     6
175
     1
176
     0
 93
-1056964608
 45
4.0
292
     0
297
     0
 46
4.0
 94
-1056964608
 47
1.0
 49
1.0
140
1.0
293
     1
141
0.0
294
     1
177
     0
142
1.0
295
     0
296
     0
143
0.125
1001
ACAD_MLEADERVER
1070
     2
  0
MLINESTYLE
  5
18
102
{ACAD_REACTORS
330
17
102
}
330
17
100
AcDbMlineStyle
  2
STANDARD
 70
     0
  3

 62
   256
 51
90.0
 52
90.0
 71
     2
 49
0.5
 62
   256
  6
BYLAYER
 49
-0.5
 62
   256
  6
BYLAYER
  0
ACDBPLACEHOLDER
  5
F
102
{ACAD_REACTORS
330
E
102
}
330
E
  0
SCALE
  5
456
102
{ACAD_REACTORS
330
455
102
}
330
455
100
AcDbScale
 70
     0
300
1:1
140
1.0
141
1.0
290
     1
  0
SCALE
  5
457
102
{ACAD_REACTORS
330
455
102
}
330
455
100
AcDbScale
 70
     0
300
1:2
140
1.0
141
2.0
290
     0
  0
SCALE
  5
458
102
{ACAD_REACTORS
330
455
102
}
330
455
100
AcDbScale
 70
     0
300
1:4
140
1.0
141
4.0
290
     0
  0
SCALE
  5
459
102
{ACAD_REACTORS
330
455
102
}
330
455
100
AcDbScale
 70
     0
300
1:5
140
1.0
141
5.0
290
     0
  0
SCALE
  5
45A
102
{ACAD_REACTORS
330
455
102
}
330
455
100
AcDbScale
 70
     0
300
1:8
140
1.0
141
8.0
290
     0
  0
SCALE
  5
45B
102
{ACAD_REACTORS
330
455
102
}
330
455
100
AcDbScale
 70
     0
300
1:10
140
1.0
141
10.0
290
     0
  0
SCALE
  5
45C
102
{ACAD_REACTORS
330
455
102
}
330
455
100
AcDbScale
 70
     0
300
1:16
140
1.0
141
16.0
290
     0
  0
SCALE
  5
45D
102
{ACAD_REACTORS
330
455
102
}
330
455
100
AcDbScale
 70
     0
300
1:20
140
1.0
141
20.0
290
     0
  0
SCALE
  5
45E
102
{ACAD_REACTORS
330
455
102
}
330
455
100
AcDbScale
 70
     0
300
1:30
140
1.0
141
30.0
290
     0
  0
SCALE
  5
45F
102
{ACAD_REACTORS
330
455
102
}
330
455
100
AcDbScale
 70
     0
300
1:40
140
1.0
141
40.0
290
     0
  0
SCALE
  5
460
102
{ACAD_REACTORS
330
455
102
}
330
455
100
AcDbScale
 70
     0
300
1:50
140
1.0
141
50.0
290
     0
  0
SCALE
  5
461
102
{ACAD_REACTORS
330
455
102
}
330
455
100
AcDbScale
 70
     0
300
1:100
140
1.0
141
100.0
290
     0
  0
SCALE
  5
462
102
{ACAD_REACTORS
330
455
102
}
330
455
100
AcDbScale
 70
     0
300
2:1
140
2.0
141
1.0
290
     0
  0
SCALE
  5
463
102
{ACAD_REACTORS
330
455
102
}
330
455
100
AcDbScale
 70
     0
300
4:1
140
4.0
141
1.0
290
     0
  0
SCALE
  5
464
102
{ACAD_REACTORS
330
455
102
}
330
455
100
AcDbScale
 70
     0
300
8:1
140
8.0
141
1.0
290
     0
  0
SCALE
  5
465
102
{ACAD_REACTORS
330
455
102
}
330
455
100
AcDbScale
 70
     0
300
10:1
140
10.0
141
1.0
290
     0
  0
SCALE
  5
466
102
{ACAD_REACTORS
330
455
102
}
330
455
100
AcDbScale
 70
     0
300
100:1
140
100.0
141
1.0
290
     0
  0
TABLESTYLE
  5
454
102
{ACAD_XDICTIONARY
360
5F4
102
}
102
{ACAD_REACTORS
330
453
102
}
330
453
100
AcDbTableStyle
  3
Standard
 70
     0
 71
     0
 40
1.5
 41
1.5
280
     0
281
     0
  7
STANDARD
140
4.5
170
     2
 62
     0
 63
     7
283
     0
274
    -2
284
     1
 64
     0
275
    -2
285
     1
 65
     0
276
    -2
286
     1
 66
     0
277
    -2
287
     1
 67
     0
278
    -2
288
     1
 68
     0
279
    -2
289
     1
 69
     0
  7
STANDARD
140
6.0
170
     5
 62
     0
 63
     7
283
     0
274
    -2
284
     1
 64
     0
275
    -2
285
     1
 65
     0
276
    -2
286
     1
 66
     0
277
    -2
287
     1
 67
     0
278
    -2
288
     1
 68
     0
279
    -2
289
     1
 69
     0
  7
STANDARD
140
4.5
170
     5
 62
     0
 63
     7
283
     0
274
    -2
284
     1
 64
     0
275
    -2
285
     1
 65
     0
276
    -2
286
     1
 66
     0
277
    -2
287
     1
 67
     0
278
    -2
288
     1
 68
     0
279
    -2
289
     1
 69
     0
  0
VISUALSTYLE
  5
444
102
{ACAD_XDICTIONARY
360
609
102
}
102
{ACAD_REACTORS
330
43E
102
}
330
43E
100
AcDbVisualStyle
  2
2dWireframe
 70
     4
 71
     0
 72
     2
 73
     0
 90
        0
 40
-0.6
 41
-30.0
 62
     5
 63
     7
 74
     1
 91
        4
 64
     7
 65
   257
 75
     1
175
     1
 42
1.0
 92
        0
 66
   257
 43
1.0
 76
     1
 77
     6
 78
     2
 67
     7
 79
     5
170
     0
171
     0
290
     0
174
     0
 93
        1
 44
0.0
173
     0
291
     0
 45
0.0
1001
ACAD
1000
AcDbSavedByObjectVersion
1070
     0
  0
VISUALSTYLE
  5
446
102
{ACAD_XDICTIONARY
360
60D
102
}
102
{ACAD_REACTORS
330
43E
102
}
330
43E
100
AcDbVisualStyle
  2
3D Hidden
 70
     6
 71
     1
 72
     2
 73
     2
 90
        0
 40
-0.6
 41
-30.0
 62
     5
 63
     7
 74
     2
 91
        2
 64
     7
 65
   257
 75
     2
175
     1
 42
179.0
 92
        0
 66
   257
 43
1.0
 76
     1
 77
     6
 78
     2
 67
     7
 79
     3
170
     0
171
     0
290
     0
174
     0
 93
        1
 44
0.0
173
     0
291
     0
 45
0.0
1001
ACAD
1000
AcDbSavedByObjectVersion
1070
     0
  0
VISUALSTYLE
  5
445
102
{ACAD_XDICTIONARY
360
60B
102
}
102
{ACAD_REACTORS
330
43E
102
}
330
43E
100
AcDbVisualStyle
  2
3dWireframe
 70
     5
 71
     0
 72
     2
 73
     0
 90
        0
 40
-0.6
 41
-30.0
 62
     5
 63
     7
 74
     1
 91
        4
 64
     7
 65
   257
 75
     1
175
     1
 42
1.0
 92
        0
 66
   257
 43
1.0
 76
     1
 77
     6
 78
     2
 67
     7
 79
     5
170
     0
171
     0
290
     0
174
     0
 93
        1
 44
0.0
173
     0
291
     0
 45
0.0
1001
ACAD
1000
AcDbSavedByObjectVersion
1070
     0
  0
VISUALSTYLE
  5
443
102
{ACAD_XDICTIONARY
360
607
102
}
102
{ACAD_REACTORS
330
43E
102
}
330
43E
100
AcDbVisualStyle
  2
Basic
 70
     7
 71
     1
 72
     0
 73
     1
 90
        0
 40
-0.6
 41
-30.0
 62
     5
 63
     7
 74
     0
 91
        4
 64
     7
 65
   257
 75
     1
175
     1
 42
1.0
 92
        8
 66
     7
 43
1.0
 76
     1
 77
     6
 78
     2
 67
     7
 79
     5
170
     0
171
     0
290
     0
174
     0
 93
        1
 44
0.0
173
     0
291
     1
 45
0.0
1001
ACAD
1000
AcDbSavedByObjectVersion
1070
     0
  0
VISUALSTYLE
  5
44A
102
{ACAD_XDICTIONARY
360
615
102
}
102
{ACAD_REACTORS
330
43E
102
}
330
43E
100
AcDbVisualStyle
  2
Brighten
 70
    12
 71
     2
 72
     2
 73
     0
 90
        0
 40
-0.6
 41
-30.0
 62
     5
 63
     7
 74
     1
 91
        4
 64
     7
 65
   257
 75
     1
175
     1
 42
1.0
 92
        8
 66
     7
 43
1.0
 76
     1
 77
     6
 78
     2
 67
     7
 79
     5
170
     0
171
     0
290
     0
174
     0
 93
        1
 44
50.0
173
     0
291
     1
 45
0.0
1001
ACAD
1000
AcDbSavedByObjectVersion
1070
     0
  0
VISUALSTYLE
  5
44E
102
{ACAD_XDICTIONARY
360
61D
102
}
102
{ACAD_REACTORS
330
43E
102
}
330
43E
100
AcDbVisualStyle
  2
ColorChange
 70
    16
 71
     2
 72
     2
 73
     3
 90
        0
 40
-0.6
 41
-30.0
 62
     5
 63
     8
 74
     1
 91
        4
 64
     7
 65
   257
 75
     1
175
     1
 42
1.0
 92
        8
 66
     8
 43
1.0
 76
     1
 77
     6
 78
     2
 67
     7
 79
     5
170
     0
171
     0
290
     0
174
     0
 93
        1
 44
0.0
173
     0
291
     1
 45
0.0
1001
ACAD
1000
AcDbSavedByObjectVersion
1070
     0
  0
VISUALSTYLE
  5
447
102
{ACAD_XDICTIONARY
360
60F
102
}
102
{ACAD_REACTORS
330
43E
102
}
330
43E
100
AcDbVisualStyle
  2
Conceptual
 70
     9
 71
     3
 72
     2
 73
     0
 90
        0
 40
-0.6
 41
-30.0
 62
     5
 63
     7
 74
     2
 91
        2
 64
     7
 65
   257
 75
     1
175
     1
 42
179.0
 92
        8
 66
     7
 43
1.0
 76
     1
 77
     6
 78
     2
 67
     7
 79
     3
170
     0
171
     0
290
     0
174
     0
 93
        1
 44
0.0
173
     0
291
     0
 45
0.0
1001
ACAD
1000
AcDbSavedByObjectVersion
1070
     0
  0
VISUALSTYLE
  5
449
102
{ACAD_XDICTIONARY
360
613
102
}
102
{ACAD_REACTORS
330
43E
102
}
330
43E
100
AcDbVisualStyle
  2
Dim
 70
    11
 71
     2
 72
     2
 73
     0
 90
        0
 40
-0.6
 41
-30.0
 62
     5
 63
     7
 74
     1
 91
        4
 64
     7
 65
   257
 75
     1
175
     1
 42
1.0
 92
        8
 66
     7
 43
1.0
 76
     1
 77
     6
 78
     2
 67
     7
 79
     5
170
     0
171
     0
290
     0
174
     0
 93
        1
 44
-50.0
173
     0
291
     1
 45
0.0
1001
ACAD
1000
AcDbSavedByObjectVersion
1070
     0
  0
VISUALSTYLE
  5
451
102
{ACAD_XDICTIONARY
360
623
102
}
102
{ACAD_REACTORS
330
43E
102
}
330
43E
100
AcDbVisualStyle
  2
EdgeColorOff
 70
    22
 71
     2
 72
     2
 73
     0
 90
        0
 40
-0.6
 41
-30.0
 62
     5
 63
     7
 74
     1
 91
        4
 64
     7
 65
   257
 75
     1
175
     1
 42
1.0
 92
        8
 66
     7
 43
1.0
 76
     1
 77
     6
 78
     2
 67
     7
 79
     5
170
     0
171
     0
290
     0
174
     0
 93
        1
 44
0.0
173
     0
291
     1
 45
0.0
1001
ACAD
1000
AcDbSavedByObjectVersion
1070
     0
  0
VISUALSTYLE
  5
44D
102
{ACAD_XDICTIONARY
360
61B
102
}
102
{ACAD_REACTORS
330
43E
102
}
330
43E
100
AcDbVisualStyle
  2
Facepattern
 70
    15
 71
     2
 72
     2
 73
     0
 90
        0
 40
-0.6
 41
-30.0
 62
     5
 63
     7
 74
     1
 91
        4
 64
     7
 65
   257
 75
     1
175
     1
 42
1.0
 92
        8
 66
     7
 43
1.0
 76
     1
 77
     6
 78
     2
 67
     7
 79
     5
170
     0
171
     0
290
     0
174
     0
 93
        1
 44
0.0
173
     0
291
     1
 45
0.0
1001
ACAD
1000
AcDbSavedByObjectVersion
1070
     0
  0
VISUALSTYLE
  5
43F
102
{ACAD_XDICTIONARY
360
5FF
102
}
102
{ACAD_REACTORS
330
43E
102
}
330
43E
100
AcDbVisualStyle
  2
Flat
 70
     0
 71
     2
 72
     1
 73
     1
 90
        2
 40
-0.6
 41
30.0
 62
     5
 63
     7
 74
     0
 91
        4
 64
     7
 65
   257
 75
     1
175
     1
 42
1.0
 92
        8
 66
     7
 43
1.0
 76
     1
 77
     6
 78
     2
 67
     7
 79
     5
170
     0
171
     0
290
     0
174
     0
 93
       13
 44
0.0
173
     0
291
     1
 45
0.0
1001
ACAD
1000
AcDbSavedByObjectVersion
1070
     0
  0
VISUALSTYLE
  5
440
102
{ACAD_XDICTIONARY
360
601
102
}
102
{ACAD_REACTORS
330
43E
102
}
330
43E
100
AcDbVisualStyle
  2
FlatWithEdges
 70
     1
 71
     2
 72
     1
 73
     1
 90
        2
 40
-0.6
 41
30.0
 62
     5
 63
     7
 74
     1
 91
        4
 64
     7
 65
   257
 75
     1
175
     1
 42
1.0
 92
        0
 66
   257
 43
1.0
 76
     1
 77
     6
 78
     2
 67
     7
 79
     5
170
     0
171
     0
290
     0
174
     0
 93
       13
 44
0.0
173
     0
291
     1
 45
0.0
1001
ACAD
1000
AcDbSavedByObjectVersion
1070
     0
  0
VISUALSTYLE
  5
441
102
{ACAD_XDICTIONARY
360
603
102
}
102
{ACAD_REACTORS
330
43E
102
}
330
43E
100
AcDbVisualStyle
  2
Gouraud
 70
     2
 71
     2
 72
     2
 73
     1
 90
        2
 40
-0.6
 41
30.0
 62
     5
 63
     7
 74
     0
 91
        4
 64
     7
 65
   257
 75
     1
175
     1
 42
1.0
 92
        0
 66
     7
 43
1.0
 76
     1
 77
     6
 78
     2
 67
     7
 79
     5
170
     0
171
     0
290
     0
174
     0
 93
       13
 44
0.0
173
     0
291
     1
 45
0.0
1001
ACAD
1000
AcDbSavedByObjectVersion
1070
     0
  0
VISUALSTYLE
  5
442
102
{ACAD_XDICTIONARY
360
605
102
}
102
{ACAD_REACTORS
330
43E
102
}
330
43E
100
AcDbVisualStyle
  2
GouraudWithEdges
 70
     3
 71
     2
 72
     2
 73
     1
 90
        2
 40
-0.6
 41
30.0
 62
     5
 63
     7
 74
     1
 91
        4
 64
     7
 65
   257
 75
     1
175
     1
 42
1.0
 92
        0
 66
   257
 43
1.0
 76
     1
 77
     6
 78
     2
 67
     7
 79
     5
170
     0
171
     0
290
     0
174
     0
 93
       13
 44
0.0
173
     0
291
     1
 45
0.0
1001
ACAD
1000
AcDbSavedByObjectVersion
1070
     0
  0
VISUALSTYLE
  5
44F
102
{ACAD_XDICTIONARY
360
61F
102
}
102
{ACAD_REACTORS
330
43E
102
}
330
43E
100
AcDbVisualStyle
  2
JitterOff
 70
    20
 71
     2
 72
     2
 73
     0
 90
        0
 40
-0.6
 41
-30.0
 62
     5
 63
     7
 74
     1
 91
        4
 64
     7
 65
   257
 75
     1
175
     1
 42
1.0
 92
       10
 66
     7
 43
1.0
 76
     1
 77
     6
 78
     2
 67
     7
 79
     5
170
     0
171
     0
290
     0
174
     0
 93
        1
 44
0.0
173
     0
291
     1
 45
0.0
1001
ACAD
1000
AcDbSavedByObjectVersion
1070
     0
  0
VISUALSTYLE
  5
44C
102
{ACAD_XDICTIONARY
360
619
102
}
102
{ACAD_REACTORS
330
43E
102
}
330
43E
100
AcDbVisualStyle
  2
Linepattern
 70
    14
 71
     2
 72
     2
 73
     0
 90
        0
 40
-0.6
 41
-30.0
 62
     5
 63
     7
 74
     1
 91
        4
 64
     7
 65
   257
 75
     7
175
     7
 42
1.0
 92
        8
 66
     7
 43
1.0
 76
     1
 77
     6
 78
     2
 67
     7
 79
     5
170
     0
171
     0
290
     0
174
     0
 93
        1
 44
0.0
173
     0
291
     1
 45
0.0
1001
ACAD
1000
AcDbSavedByObjectVersion
1070
     0
  0
VISUALSTYLE
  5
450
102
{ACAD_XDICTIONARY
360
621
102
}
102
{ACAD_REACTORS
330
43E
102
}
330
43E
100
AcDbVisualStyle
  2
OverhangOff
 70
    21
 71
     2
 72
     2
 73
     0
 90
        0
 40
-0.6
 41
-30.0
 62
     5
 63
     7
 74
     1
 91
        4
 64
     7
 65
   257
 75
     1
175
     1
 42
1.0
 92
        9
 66
     7
 43
1.0
 76
     1
 77
     6
 78
     2
 67
     7
 79
     5
170
     0
171
     0
290
     0
174
     0
 93
        1
 44
0.0
173
     0
291
     1
 45
0.0
1001
ACAD
1000
AcDbSavedByObjectVersion
1070
     0
  0
VISUALSTYLE
  5
448
102
{ACAD_XDICTIONARY
360
611
102
}
102
{ACAD_REACTORS
330
43E
102
}
330
43E
100
AcDbVisualStyle
  2
Realistic
 70
     8
 71
     2
 72
     2
 73
     0
 90
        0
 40
-0.6
 41
-30.0
 62
     5
 63
     7
 74
     1
 91
        0
 64
     7
 65
   257
 75
     1
175
     1
 42
1.0
 92
        8
 66
     8
 43
1.0
 76
     1
 77
     6
 78
     2
 67
     7
 79
     5
170
     0
171
     0
290
     0
174
     0
 93
       13
 44
0.0
173
     0
291
     0
 45
0.0
1001
ACAD
1000
AcDbSavedByObjectVersion
1070
     0
  0
VISUALSTYLE
  5
44B
102
{ACAD_XDICTIONARY
360
617
102
}
102
{ACAD_REACTORS
330
43E
102
}
330
43E
100
AcDbVisualStyle
  2
Thicken
 70
    13
 71
     2
 72
     2
 73
     0
 90
        0
 40
-0.6
 41
-30.0
 62
     5
 63
     7
 74
     1
 91
        4
 64
     7
 65
   257
 75
     1
175
     1
 42
1.0
 92
       12
 66
     7
 43
1.0
 76
     1
 77
     6
 78
     2
 67
     7
 79
     5
170
     0
171
     0
290
     0
174
     0
 93
        1
 44
0.0
173
     0
291
     1
 45
0.0
1001
ACAD
1000
AcDbSavedByObjectVersion
1070
     0
  0
DICTIONARYVAR
  5
5EB
102
{ACAD_REACTORS
330
5E7
102
}
330
5E7
100
DictionaryVariables
280
     0
  1
1:1
  0
DICTIONARYVAR
  5
5E9
102
{ACAD_REACTORS
330
5E7
102
}
330
5E7
100
DictionaryVariables
280
     0
  1
STANDARD
  0
DICTIONARYVAR
  5
5E8
102
{ACAD_REACTORS
330
5E7
102
}
330
5E7
100
DictionaryVariables
280
     0
  1
STANDARD
  0
DICTIONARYVAR
  5
5F2
102
{ACAD_REACTORS
330
5E7
102
}
330
5E7
100
DictionaryVariables
280
     0
  1
2
  0
DICTIONARYVAR
  5
5F1
102
{ACAD_REACTORS
330
5E7
102
}
330
5E7
100
DictionaryVariables
280
     0
  1
1
  0
DICTIONARYVAR
  5
5F0
102
{ACAD_REACTORS
330
5E7
102
}
330
5E7
100
DictionaryVariables
280
     0
  1
0
  0
DICTIONARYVAR
  5
5ED
102
{ACAD_REACTORS
330
5E7
102
}
330
5E7
100
DictionaryVariables
280
     0
  1
0
  0
DICTIONARYVAR
  5
5EE
102
{ACAD_REACTORS
330
5E7
102
}
330
5E7
100
DictionaryVariables
280
     0
  1
0
  0
DICTIONARYVAR
  5
5EC
102
{ACAD_REACTORS
330
5E7
102
}
330
5E7
100
DictionaryVariables
280
     0
  1
2
  0
DICTIONARYVAR
  5
5EA
102
{ACAD_REACTORS
330
5E7
102
}
330
5E7
100
DictionaryVariables
280
     0
  1
1
  0
DICTIONARYVAR
  5
5EF
102
{ACAD_REACTORS
330
5E7
102
}
330
5E7
100
DictionaryVariables
280
     0
  1
127
  0
DICTIONARYVAR
  5
5F3
102
{ACAD_REACTORS
330
5E7
102
}
330
5E7
100
DictionaryVariables
280
     0
  1
2
  0
DICTIONARY
  5
4CC
102
{ACAD_REACTORS
330
4C2
102
}
330
4C2
100
AcDbDictionary
281
     1
  0
DICTIONARY
  5
5FA
330
422
100
AcDbDictionary
280
     1
281
     1
  3
ACAD_XREC_ROUNDTRIP
360
5FB
  0
DICTIONARY
  5
5F8
330
421
100
AcDbDictionary
280
     1
281
     1
  3
ACAD_XREC_ROUNDTRIP
360
5F9
  0
DICTIONARY
  5
42F
330
42E
100
AcDbDictionary
280
     1
281
     1
  3
ACAD_XREC_ROUNDTRIP
360
5FD
  3
BUMPTILE
360
431
  3
DIFFUSETILE
360
430
  3
OPACITYTILE
360
434
  3
REFLECTIONTILE
360
433
  3
REFRACTIONTILE
360
435
  3
SPECULARTILE
360
432
  0
DICTIONARY
  5
427
330
426
100
AcDbDictionary
280
     1
281
     1
  3
ACAD_XREC_ROUNDTRIP
360
5FC
  3
BUMPTILE
360
429
  3
DIFFUSETILE
360
428
  3
OPACITYTILE
360
42C
  3
REFLECTIONTILE
360
42B
  3
REFRACTIONTILE
360
42D
  3
SPECULARTILE
360
42A
  0
DICTIONARY
  5
437
330
436
100
AcDbDictionary
280
     1
281
     1
  3
ACAD_XREC_ROUNDTRIP
360
5FE
  3
BUMPTILE
360
439
  3
DIFFUSETILE
360
438
  3
OPACITYTILE
360
43C
  3
REFLECTIONTILE
360
43B
  3
REFRACTIONTILE
360
43D
  3
SPECULARTILE
360
43A
  0
DICTIONARY
  5
5F4
330
454
100
AcDbDictionary
280
     1
281
     1
  3
ACAD_ROUNDTRIP_2008_TABLESTYLE_CELLSTYLEMAP
360
5F5
  3
ACAD_XREC_ROUNDTRIP
360
625
  0
DICTIONARY
  5
609
330
444
100
AcDbDictionary
280
     1
281
     1
  3
ACAD_XREC_ROUNDTRIP
360
60A
  0
DICTIONARY
  5
60D
330
446
100
AcDbDictionary
280
     1
281
     1
  3
ACAD_XREC_ROUNDTRIP
360
60E
  0
DICTIONARY
  5
60B
330
445
100
AcDbDictionary
280
     1
281
     1
  3
ACAD_XREC_ROUNDTRIP
360
60C
  0
DICTIONARY
  5
607
330
443
100
AcDbDictionary
280
     1
281
     1
  3
ACAD_XREC_ROUNDTRIP
360
608
  0
DICTIONARY
  5
615
330
44A
100
AcDbDictionary
280
     1
281
     1
  3
ACAD_XREC_ROUNDTRIP
360
616
  0
DICTIONARY
  5
61D
330
44E
100
AcDbDictionary
280
     1
281
     1
  3
ACAD_XREC_ROUNDTRIP
360
61E
  0
DICTIONARY
  5
60F
330
447
100
AcDbDictionary
280
     1
281
     1
  3
ACAD_XREC_ROUNDTRIP
360
610
  0
DICTIONARY
  5
613
330
449
100
AcDbDictionary
280
     1
281
     1
  3
ACAD_XREC_ROUNDTRIP
360
614
  0
DICTIONARY
  5
623
330
451
100
AcDbDictionary
280
     1
281
     1
  3
ACAD_XREC_ROUNDTRIP
360
624
  0
DICTIONARY
  5
61B
330
44D
100
AcDbDictionary
280
     1
281
     1
  3
ACAD_XREC_ROUNDTRIP
360
61C
  0
DICTIONARY
  5
5FF
330
43F
100
AcDbDictionary
280
     1
281
     1
  3
ACAD_XREC_ROUNDTRIP
360
600
  0
DICTIONARY
  5
601
330
440
100
AcDbDictionary
280
     1
281
     1
  3
ACAD_XREC_ROUNDTRIP
360
602
  0
DICTIONARY
  5
603
330
441
100
AcDbDictionary
280
     1
281
     1
  3
ACAD_XREC_ROUNDTRIP
360
604
  0
DICTIONARY
  5
605
330
442
100
AcDbDictionary
280
     1
281
     1
  3
ACAD_XREC_ROUNDTRIP
360
606
  0
DICTIONARY
  5
61F
330
44F
100
AcDbDictionary
280
     1
281
     1
  3
ACAD_XREC_ROUNDTRIP
360
620
  0
DICTIONARY
  5
619
330
44C
100
AcDbDictionary
280
     1
281
     1
  3
ACAD_XREC_ROUNDTRIP
360
61A
  0
DICTIONARY
  5
621
330
450
100
AcDbDictionary
280
     1
281
     1
  3
ACAD_XREC_ROUNDTRIP
360
622
  0
DICTIONARY
  5
611
330
448
100
AcDbDictionary
280
     1
281
     1
  3
ACAD_XREC_ROUNDTRIP
360
612
  0
DICTIONARY
  5
617
330
44B
100
AcDbDictionary
280
     1
281
     1
  3
ACAD_XREC_ROUNDTRIP
360
618
  0
XRECORD
  5
5FB
102
{ACAD_REACTORS
330
5FA
102
}
330
5FA
100
AcDbXrecord
280
     1
102
SHADEPLOT
 70
     0
102
SHADEPLOTRESLEVEL
 70
     2
102
SHADEPLOTCUSTOMDPI
 70
   300
  0
XRECORD
  5
5F9
102
{ACAD_REACTORS
330
5F8
102
}
330
5F8
100
AcDbXrecord
280
     1
102
SHADEPLOT
 70
     0
102
SHADEPLOTRESLEVEL
 70
     2
102
SHADEPLOTCUSTOMDPI
 70
   300
  0
XRECORD
  5
5FD
102
{ACAD_REACTORS
330
42F
102
}
330
42F
100
AcDbXrecord
280
     1
102
MATERIAL
148
0.0
149
0.0
149
0.0
 93
        0
 94
      127
282
     0
 72
     0
 77
     0
171
     0
175
     0
179
     0
273
     0
  0
XRECORD
  5
431
102
{ACAD_REACTORS
330
42F
102
}
330
42F
100
AcDbXrecord
280
     1
270
     1
271
     1
  0
XRECORD
  5
430
102
{ACAD_REACTORS
330
42F
102
}
330
42F
100
AcDbXrecord
280
     1
270
     1
271
     1
  0
XRECORD
  5
434
102
{ACAD_REACTORS
330
42F
102
}
330
42F
100
AcDbXrecord
280
     1
270
     1
271
     1
  0
XRECORD
  5
433
102
{ACAD_REACTORS
330
42F
102
}
330
42F
100
AcDbXrecord
280
     1
270
     1
271
     1
  0
XRECORD
  5
435
102
{ACAD_REACTORS
330
42F
102
}
330
42F
100
AcDbXrecord
280
     1
270
     1
271
     1
  0
XRECORD
  5
432
102
{ACAD_REACTORS
330
42F
102
}
330
42F
100
AcDbXrecord
280
     1
270
     1
271
     1
  0
XRECORD
  5
5FC
102
{ACAD_REACTORS
330
427
102
}
330
427
100
AcDbXrecord
280
     1
102
MATERIAL
148
0.0
149
0.0
149
0.0
 93
        0
 94
      127
282
     0
 72
     0
 77
     0
171
     0
175
     0
179
     0
273
     0
  0
XRECORD
  5
429
102
{ACAD_REACTORS
330
427
102
}
330
427
100
AcDbXrecord
280
     1
270
     1
271
     1
  0
XRECORD
  5
428
102
{ACAD_REACTORS
330
427
102
}
330
427
100
AcDbXrecord
280
     1
270
     1
271
     1
  0
XRECORD
  5
42C
102
{ACAD_REACTORS
330
427
102
}
330
427
100
AcDbXrecord
280
     1
270
     1
271
     1
  0
XRECORD
  5
42B
102
{ACAD_REACTORS
330
427
102
}
330
427
100
AcDbXrecord
280
     1
270
     1
271
     1
  0
XRECORD
  5
42D
102
{ACAD_REACTORS
330
427
102
}
330
427
100
AcDbXrecord
280
     1
270
     1
271
     1
  0
XRECORD
  5
42A
102
{ACAD_REACTORS
330
427
102
}
330
427
100
AcDbXrecord
280
     1
270
     1
271
     1
  0
XRECORD
  5
5FE
102
{ACAD_REACTORS
330
437
102
}
330
437
100
AcDbXrecord
280
     1
102
MATERIAL
148
0.0
149
0.0
149
0.0
 93
        0
 94
      127
282
     0
 72
     0
 77
     0
171
     0
175
     0
179
     0
273
     0
  0
XRECORD
  5
439
102
{ACAD_REACTORS
330
437
102
}
330
437
100
AcDbXrecord
280
     1
270
     1
271
     1
  0
XRECORD
  5
438
102
{ACAD_REACTORS
330
437
102
}
330
437
100
AcDbXrecord
280
     1
270
     1
271
     1
  0
XRECORD
  5
43C
102
{ACAD_REACTORS
330
437
102
}
330
437
100
AcDbXrecord
280
     1
270
     1
271
     1
  0
XRECORD
  5
43B
102
{ACAD_REACTORS
330
437
102
}
330
437
100
AcDbXrecord
280
     1
270
     1
271
     1
  0
XRECORD
  5
43D
102
{ACAD_REACTORS
330
437
102
}
330
437
100
AcDbXrecord
280
     1
270
     1
271
     1
  0
XRECORD
  5
43A
102
{ACAD_REACTORS
330
437
102
}
330
437
100
AcDbXrecord
280
     1
270
     1
271
     1
  0
CELLSTYLEMAP
  5
5F5
102
{ACAD_REACTORS
330
5F4
102
}
330
5F4
100
AcDbCellStyleMap
 90
        3
300
CELLSTYLE
  1
TABLEFORMAT_BEGIN
 90
        5
170
     1
 91
        0
 92
    32768
 62
   257
 93
        1
300
CONTENTFORMAT
  1
CONTENTFORMAT_BEGIN
 90
        0
 91
        0
 92
      512
 93
        0
300

 40
0.0
140
1.0
 94
        5
 62
     0
340
11
144
6.0
309
CONTENTFORMAT_END
171
     1
301
MARGIN
  1
CELLMARGIN_BEGIN
 40
1.5
 40
1.5
 40
1.5
 40
1.5
 40
4.5
 40
4.5
309
CELLMARGIN_END
 94
        6
 95
        1
302
GRIDFORMAT
  1
GRIDFORMAT_BEGIN
 90
        0
 91
        1
 62
     0
 92
       -2
340
0
 93
        0
 40
1.125
309
GRIDFORMAT_END
 95
        2
302
GRIDFORMAT
  1
GRIDFORMAT_BEGIN
 90
        0
 91
        1
 62
     0
 92
       -2
340
0
 93
        0
 40
1.125
309
GRIDFORMAT_END
 95
        4
302
GRIDFORMAT
  1
GRIDFORMAT_BEGIN
 90
        0
 91
        1
 62
     0
 92
       -2
340
0
 93
        0
 40
1.125
309
GRIDFORMAT_END
 95
        8
302
GRIDFORMAT
  1
GRIDFORMAT_BEGIN
 90
        0
 91
        1
 62
     0
 92
       -2
340
0
 93
        0
 40
1.125
309
GRIDFORMAT_END
 95
       16
302
GRIDFORMAT
  1
GRIDFORMAT_BEGIN
 90
        0
 91
        1
 62
     0
 92
       -2
340
0
 93
        0
 40
1.125
309
GRIDFORMAT_END
 95
       32
302
GRIDFORMAT
  1
GRIDFORMAT_BEGIN
 90
        0
 91
        1
 62
     0
 92
       -2
340
0
 93
        0
 40
1.125
309
GRIDFORMAT_END
309
TABLEFORMAT_END
  1
CELLSTYLE_BEGIN
 90
        1
 91
        1
300
_TITLE
309
CELLSTYLE_END
300
CELLSTYLE
  1
TABLEFORMAT_BEGIN
 90
        5
170
     1
 91
        0
 92
        0
 62
   257
 93
        1
300
CONTENTFORMAT
  1
CONTENTFORMAT_BEGIN
 90
        0
 91
        0
 92
      512
 93
        0
300

 40
0.0
140
1.0
 94
        5
 62
     0
340
11
144
4.5
309
CONTENTFORMAT_END
171
     1
301
MARGIN
  1
CELLMARGIN_BEGIN
 40
1.5
 40
1.5
 40
1.5
 40
1.5
 40
4.5
 40
4.5
309
CELLMARGIN_END
 94
        6
 95
        1
302
GRIDFORMAT
  1
GRIDFORMAT_BEGIN
 90
        0
 91
        1
 62
     0
 92
       -2
340
0
 93
        0
 40
1.125
309
GRIDFORMAT_END
 95
        2
302
GRIDFORMAT
  1
GRIDFORMAT_BEGIN
 90
        0
 91
        1
 62
     0
 92
       -2
340
0
 93
        0
 40
1.125
309
GRIDFORMAT_END
 95
        4
302
GRIDFORMAT
  1
GRIDFORMAT_BEGIN
 90
        0
 91
        1
 62
     0
 92
       -2
340
0
 93
        0
 40
1.125
309
GRIDFORMAT_END
 95
        8
302
GRIDFORMAT
  1
GRIDFORMAT_BEGIN
 90
        0
 91
        1
 62
     0
 92
       -2
340
0
 93
        0
 40
1.125
309
GRIDFORMAT_END
 95
       16
302
GRIDFORMAT
  1
GRIDFORMAT_BEGIN
 90
        0
 91
        1
 62
     0
 92
       -2
340
0
 93
        0
 40
1.125
309
GRIDFORMAT_END
 95
       32
302
GRIDFORMAT
  1
GRIDFORMAT_BEGIN
 90
        0
 91
        1
 62
     0
 92
       -2
340
0
 93
        0
 40
1.125
309
GRIDFORMAT_END
309
TABLEFORMAT_END
  1
CELLSTYLE_BEGIN
 90
        2
 91
        1
300
_HEADER
309
CELLSTYLE_END
300
CELLSTYLE
  1
TABLEFORMAT_BEGIN
 90
        5
170
     1
 91
        0
 92
        0
 62
   257
 93
        1
300
CONTENTFORMAT
  1
CONTENTFORMAT_BEGIN
 90
        0
 91
        0
 92
      512
 93
        0
300

 40
0.0
140
1.0
 94
        2
 62
     0
340
11
144
4.5
309
CONTENTFORMAT_END
171
     1
301
MARGIN
  1
CELLMARGIN_BEGIN
 40
1.5
 40
1.5
 40
1.5
 40
1.5
 40
4.5
 40
4.5
309
CELLMARGIN_END
 94
        6
 95
        1
302
GRIDFORMAT
  1
GRIDFORMAT_BEGIN
 90
        0
 91
        1
 62
     0
 92
       -2
340
0
 93
        0
 40
1.125
309
GRIDFORMAT_END
 95
        2
302
GRIDFORMAT
  1
GRIDFORMAT_BEGIN
 90
        0
 91
        1
 62
     0
 92
       -2
340
0
 93
        0
 40
1.125
309
GRIDFORMAT_END
 95
        4
302
GRIDFORMAT
  1
GRIDFORMAT_BEGIN
 90
        0
 91
        1
 62
     0
 92
       -2
340
0
 93
        0
 40
1.125
309
GRIDFORMAT_END
 95
        8
302
GRIDFORMAT
  1
GRIDFORMAT_BEGIN
 90
        0
 91
        1
 62
     0
 92
       -2
340
0
 93
        0
 40
1.125
309
GRIDFORMAT_END
 95
       16
302
GRIDFORMAT
  1
GRIDFORMAT_BEGIN
 90
        0
 91
        1
 62
     0
 92
       -2
340
0
 93
        0
 40
1.125
309
GRIDFORMAT_END
 95
       32
302
GRIDFORMAT
  1
GRIDFORMAT_BEGIN
 90
        0
 91
        1
 62
     0
 92
       -2
340
0
 93
        0
 40
1.125
309
GRIDFORMAT_END
309
TABLEFORMAT_END
  1
CELLSTYLE_BEGIN
 90
        3
 91
        2
300
_DATA
309
CELLSTYLE_END
  0
XRECORD
  5
625
102
{ACAD_REACTORS
330
5F4
102
}
330
5F4
100
AcDbXrecord
280
     1
102
ACAD_ROUNDTRIP_PRE2007_TABLESTYLE
 90
      512
 91
        0
  1

 92
      512
 93
        0
  2

 94
      512
 95
        0
  3

  0
XRECORD
  5
60A
102
{ACAD_REACTORS
330
609
102
}
330
609
100
AcDbXrecord
280
     1
102
RTVSPropertyOp0
 70
     1
102
RTVSPropertyOp1
 70
     1
102
RTVSPropertyOp2
 70
     1
102
RTVSPropertyOp3
 70
     1
102
RTVSPropertyOp4
 70
     1
102
RTVSPropertyOp5
 70
     1
102
RTVSPropertyOp6
 70
     1
102
RTVSPropertyOp7
 70
     1
102
RTVSPropertyOp8
 70
     1
102
RTVSPropertyOp9
 70
     1
102
RTVSPropertyOp10
 70
     1
102
RTVSPropertyOp11
 70
     1
102
RTVSPropertyOp12
 70
     1
102
RTVSPropertyOp13
 70
     1
102
RTVSPropertyOp14
 70
     1
102
RTVSPropertyOp15
 70
     1
102
RTVSPropertyOp16
 70
     1
102
RTVSPropertyOp17
 70
     1
102
RTVSPropertyOp18
 70
     1
102
RTVSPropertyOp19
 70
     1
102
RTVSPropertyOp20
 70
     1
102
RTVSPropertyOp21
 70
     1
102
RTVSPropertyOp22
 70
     1
102
RTVSPropertyOp23
 70
     1
102
RTVSPropertyOp24
 70
     1
102
RTVSPropertyOp25
 70
     1
102
RTVSPropertyOp26
 70
     1
102
RTVSPropertyOp27
 70
     1
  0
XRECORD
  5
60E
102
{ACAD_REACTORS
330
60D
102
}
330
60D
100
AcDbXrecord
280
     1
102
RTVSPropertyOp0
 70
     1
102
RTVSPropertyOp1
 70
     1
102
RTVSPropertyOp2
 70
     1
102
RTVSPropertyOp3
 70
     1
102
RTVSPropertyOp4
 70
     1
102
RTVSPropertyOp5
 70
     1
102
RTVSPropertyOp6
 70
     1
102
RTVSPropertyOp7
 70
     1
102
RTVSPropertyOp8
 70
     1
102
RTVSPropertyOp9
 70
     1
102
RTVSPropertyOp10
 70
     1
102
RTVSPropertyOp11
 70
     1
102
RTVSPropertyOp12
 70
     1
102
RTVSPropertyOp13
 70
     1
102
RTVSPropertyOp14
 70
     1
102
RTVSPropertyOp15
 70
     1
102
RTVSPropertyOp16
 70
     1
102
RTVSPropertyOp17
 70
     1
102
RTVSPropertyOp18
 70
     1
102
RTVSPropertyOp19
 70
     1
102
RTVSPropertyOp20
 70
     1
102
RTVSPropertyOp21
 70
     1
102
RTVSPropertyOp22
 70
     1
102
RTVSPropertyOp23
 70
     1
102
RTVSPropertyOp24
 70
     1
102
RTVSPropertyOp25
 70
     1
102
RTVSPropertyOp26
 70
     1
102
RTVSPropertyOp27
 70
     1
  0
XRECORD
  5
60C
102
{ACAD_REACTORS
330
60B
102
}
330
60B
100
AcDbXrecord
280
     1
102
RTVSPropertyOp0
 70
     1
102
RTVSPropertyOp1
 70
     1
102
RTVSPropertyOp2
 70
     1
102
RTVSPropertyOp3
 70
     1
102
RTVSPropertyOp4
 70
     1
102
RTVSPropertyOp5
 70
     1
102
RTVSPropertyOp6
 70
     1
102
RTVSPropertyOp7
 70
     1
102
RTVSPropertyOp8
 70
     1
102
RTVSPropertyOp9
 70
     1
102
RTVSPropertyOp10
 70
     1
102
RTVSPropertyOp11
 70
     1
102
RTVSPropertyOp12
 70
     1
102
RTVSPropertyOp13
 70
     1
102
RTVSPropertyOp14
 70
     1
102
RTVSPropertyOp15
 70
     1
102
RTVSPropertyOp16
 70
     1
102
RTVSPropertyOp17
 70
     1
102
RTVSPropertyOp18
 70
     1
102
RTVSPropertyOp19
 70
     1
102
RTVSPropertyOp20
 70
     1
102
RTVSPropertyOp21
 70
     1
102
RTVSPropertyOp22
 70
     1
102
RTVSPropertyOp23
 70
     1
102
RTVSPropertyOp24
 70
     1
102
RTVSPropertyOp25
 70
     1
102
RTVSPropertyOp26
 70
     1
102
RTVSPropertyOp27
 70
     1
  0
XRECORD
  5
608
102
{ACAD_REACTORS
330
607
102
}
330
607
100
AcDbXrecord
280
     1
102
RTVSPropertyOp0
 70
     1
102
RTVSPropertyOp1
 70
     1
102
RTVSPropertyOp2
 70
     1
102
RTVSPropertyOp3
 70
     1
102
RTVSPropertyOp4
 70
     1
102
RTVSPropertyOp5
 70
     1
102
RTVSPropertyOp6
 70
     1
102
RTVSPropertyOp7
 70
     1
102
RTVSPropertyOp8
 70
     1
102
RTVSPropertyOp9
 70
     1
102
RTVSPropertyOp10
 70
     1
102
RTVSPropertyOp11
 70
     1
102
RTVSPropertyOp12
 70
     1
102
RTVSPropertyOp13
 70
     1
102
RTVSPropertyOp14
 70
     1
102
RTVSPropertyOp15
 70
     1
102
RTVSPropertyOp16
 70
     1
102
RTVSPropertyOp17
 70
     1
102
RTVSPropertyOp18
 70
     1
102
RTVSPropertyOp19
 70
     1
102
RTVSPropertyOp20
 70
     1
102
RTVSPropertyOp21
 70
     1
102
RTVSPropertyOp22
 70
     1
102
RTVSPropertyOp23
 70
     1
102
RTVSPropertyOp24
 70
     1
102
RTVSPropertyOp25
 70
     1
102
RTVSPropertyOp26
 70
     1
102
RTVSPropertyOp27
 70
     1
  0
XRECORD
  5
616
102
{ACAD_REACTORS
330
615
102
}
330
615
100
AcDbXrecord
280
     1
102
RTVSPropertyOp0
 70
     1
102
RTVSPropertyOp1
 70
     1
102
RTVSPropertyOp2
 70
     1
102
RTVSPropertyOp3
 70
     1
102
RTVSPropertyOp4
 70
     1
102
RTVSPropertyOp5
 70
     1
102
RTVSPropertyOp6
 70
     1
102
RTVSPropertyOp7
 70
     1
102
RTVSPropertyOp8
 70
     1
102
RTVSPropertyOp9
 70
     1
102
RTVSPropertyOp10
 70
     1
102
RTVSPropertyOp11
 70
     1
102
RTVSPropertyOp12
 70
     1
102
RTVSPropertyOp13
 70
     1
102
RTVSPropertyOp14
 70
     1
102
RTVSPropertyOp15
 70
     1
102
RTVSPropertyOp16
 70
     1
102
RTVSPropertyOp17
 70
     1
102
RTVSPropertyOp18
 70
     1
102
RTVSPropertyOp19
 70
     1
102
RTVSPropertyOp20
 70
     1
102
RTVSPropertyOp21
 70
     1
102
RTVSPropertyOp22
 70
     1
102
RTVSPropertyOp23
 70
     1
102
RTVSPropertyOp24
 70
     1
102
RTVSPropertyOp25
 70
     1
102
RTVSPropertyOp26
 70
     1
102
RTVSPropertyOp27
 70
     1
  0
XRECORD
  5
61E
102
{ACAD_REACTORS
330
61D
102
}
330
61D
100
AcDbXrecord
280
     1
102
RTVSPropertyOp0
 70
     1
102
RTVSPropertyOp1
 70
     1
102
RTVSPropertyOp2
 70
     1
102
RTVSPropertyOp3
 70
     1
102
RTVSPropertyOp4
 70
     1
102
RTVSPropertyOp5
 70
     1
102
RTVSPropertyOp6
 70
     1
102
RTVSPropertyOp7
 70
     1
102
RTVSPropertyOp8
 70
     1
102
RTVSPropertyOp9
 70
     1
102
RTVSPropertyOp10
 70
     1
102
RTVSPropertyOp11
 70
     1
102
RTVSPropertyOp12
 70
     1
102
RTVSPropertyOp13
 70
     1
102
RTVSPropertyOp14
 70
     1
102
RTVSPropertyOp15
 70
     1
102
RTVSPropertyOp16
 70
     1
102
RTVSPropertyOp17
 70
     1
102
RTVSPropertyOp18
 70
     1
102
RTVSPropertyOp19
 70
     1
102
RTVSPropertyOp20
 70
     1
102
RTVSPropertyOp21
 70
     1
102
RTVSPropertyOp22
 70
     1
102
RTVSPropertyOp23
 70
     1
102
RTVSPropertyOp24
 70
     1
102
RTVSPropertyOp25
 70
     1
102
RTVSPropertyOp26
 70
     1
102
RTVSPropertyOp27
 70
     1
  0
XRECORD
  5
610
102
{ACAD_REACTORS
330
60F
102
}
330
60F
100
AcDbXrecord
280
     1
102
RTVSPropertyOp0
 70
     1
102
RTVSPropertyOp1
 70
     1
102
RTVSPropertyOp2
 70
     1
102
RTVSPropertyOp3
 70
     1
102
RTVSPropertyOp4
 70
     1
102
RTVSPropertyOp5
 70
     1
102
RTVSPropertyOp6
 70
     1
102
RTVSPropertyOp7
 70
     1
102
RTVSPropertyOp8
 70
     1
102
RTVSPropertyOp9
 70
     1
102
RTVSPropertyOp10
 70
     1
102
RTVSPropertyOp11
 70
     1
102
RTVSPropertyOp12
 70
     1
102
RTVSPropertyOp13
 70
     1
102
RTVSPropertyOp14
 70
     1
102
RTVSPropertyOp15
 70
     1
102
RTVSPropertyOp16
 70
     1
102
RTVSPropertyOp17
 70
     1
102
RTVSPropertyOp18
 70
     1
102
RTVSPropertyOp19
 70
     1
102
RTVSPropertyOp20
 70
     1
102
RTVSPropertyOp21
 70
     1
102
RTVSPropertyOp22
 70
     1
102
RTVSPropertyOp23
 70
     1
102
RTVSPropertyOp24
 70
     1
102
RTVSPropertyOp25
 70
     1
102
RTVSPropertyOp26
 70
     1
102
RTVSPropertyOp27
 70
     1
  0
XRECORD
  5
614
102
{ACAD_REACTORS
330
613
102
}
330
613
100
AcDbXrecord
280
     1
102
RTVSPropertyOp0
 70
     1
102
RTVSPropertyOp1
 70
     1
102
RTVSPropertyOp2
 70
     1
102
RTVSPropertyOp3
 70
     1
102
RTVSPropertyOp4
 70
     1
102
RTVSPropertyOp5
 70
     1
102
RTVSPropertyOp6
 70
     1
102
RTVSPropertyOp7
 70
     1
102
RTVSPropertyOp8
 70
     1
102
RTVSPropertyOp9
 70
     1
102
RTVSPropertyOp10
 70
     1
102
RTVSPropertyOp11
 70
     1
102
RTVSPropertyOp12
 70
     1
102
RTVSPropertyOp13
 70
     1
102
RTVSPropertyOp14
 70
     1
102
RTVSPropertyOp15
 70
     1
102
RTVSPropertyOp16
 70
     1
102
RTVSPropertyOp17
 70
     1
102
RTVSPropertyOp18
 70
     1
102
RTVSPropertyOp19
 70
     1
102
RTVSPropertyOp20
 70
     1
102
RTVSPropertyOp21
 70
     1
102
RTVSPropertyOp22
 70
     1
102
RTVSPropertyOp23
 70
     1
102
RTVSPropertyOp24
 70
     1
102
RTVSPropertyOp25
 70
     1
102
RTVSPropertyOp26
 70
     1
102
RTVSPropertyOp27
 70
     1
  0
XRECORD
  5
624
102
{ACAD_REACTORS
330
623
102
}
330
623
100
AcDbXrecord
280
     1
102
RTVSPropertyOp0
 70
     0
102
RTVSPropertyOp1
 70
     0
102
RTVSPropertyOp2
 70
     0
102
RTVSPropertyOp3
 70
     0
102
RTVSPropertyOp4
 70
     0
102
RTVSPropertyOp5
 70
     0
102
RTVSPropertyOp6
 70
     0
102
RTVSPropertyOp7
 70
     0
102
RTVSPropertyOp8
 70
     0
102
RTVSPropertyOp9
 70
     0
102
RTVSPropertyOp10
 70
     0
102
RTVSPropertyOp11
 70
     0
102
RTVSPropertyOp12
 70
     0
102
RTVSPropertyOp13
 70
     0
102
RTVSPropertyOp14
 70
     2
102
RTVSPropertyOp15
 70
     0
102
RTVSPropertyOp16
 70
     0
102
RTVSPropertyOp17
 70
     0
102
RTVSPropertyOp18
 70
     0
102
RTVSPropertyOp19
 70
     0
102
RTVSPropertyOp20
 70
     0
102
RTVSPropertyOp21
 70
     0
102
RTVSPropertyOp22
 70
     0
102
RTVSPropertyOp23
 70
     0
102
RTVSPropertyOp24
 70
     0
102
RTVSPropertyOp25
 70
     0
102
RTVSPropertyOp26
 70
     0
102
RTVSPropertyOp27
 70
     0
  0
XRECORD
  5
61C
102
{ACAD_REACTORS
330
61B
102
}
330
61B
100
AcDbXrecord
280
     1
102
RTVSPropertyOp0
 70
     1
102
RTVSPropertyOp1
 70
     1
102
RTVSPropertyOp2
 70
     1
102
RTVSPropertyOp3
 70
     1
102
RTVSPropertyOp4
 70
     1
102
RTVSPropertyOp5
 70
     1
102
RTVSPropertyOp6
 70
     1
102
RTVSPropertyOp7
 70
     1
102
RTVSPropertyOp8
 70
     1
102
RTVSPropertyOp9
 70
     1
102
RTVSPropertyOp10
 70
     1
102
RTVSPropertyOp11
 70
     1
102
RTVSPropertyOp12
 70
     1
102
RTVSPropertyOp13
 70
     1
102
RTVSPropertyOp14
 70
     1
102
RTVSPropertyOp15
 70
     1
102
RTVSPropertyOp16
 70
     1
102
RTVSPropertyOp17
 70
     1
102
RTVSPropertyOp18
 70
     1
102
RTVSPropertyOp19
 70
     1
102
RTVSPropertyOp20
 70
     1
102
RTVSPropertyOp21
 70
     1
102
RTVSPropertyOp22
 70
     1
102
RTVSPropertyOp23
 70
     1
102
RTVSPropertyOp24
 70
     1
102
RTVSPropertyOp25
 70
     1
102
RTVSPropertyOp26
 70
     1
102
RTVSPropertyOp27
 70
     1
  0
XRECORD
  5
600
102
{ACAD_REACTORS
330
5FF
102
}
330
5FF
100
AcDbXrecord
280
     1
102
RTVSPropertyOp0
 70
     1
102
RTVSPropertyOp1
 70
     1
102
RTVSPropertyOp2
 70
     1
102
RTVSPropertyOp3
 70
     1
102
RTVSPropertyOp4
 70
     1
102
RTVSPropertyOp5
 70
     1
102
RTVSPropertyOp6
 70
     1
102
RTVSPropertyOp7
 70
     1
102
RTVSPropertyOp8
 70
     1
102
RTVSPropertyOp9
 70
     1
102
RTVSPropertyOp10
 70
     1
102
RTVSPropertyOp11
 70
     1
102
RTVSPropertyOp12
 70
     1
102
RTVSPropertyOp13
 70
     1
102
RTVSPropertyOp14
 70
     1
102
RTVSPropertyOp15
 70
     1
102
RTVSPropertyOp16
 70
     1
102
RTVSPropertyOp17
 70
     1
102
RTVSPropertyOp18
 70
     1
102
RTVSPropertyOp19
 70
     1
102
RTVSPropertyOp20
 70
     1
102
RTVSPropertyOp21
 70
     1
102
RTVSPropertyOp22
 70
     1
102
RTVSPropertyOp23
 70
     1
102
RTVSPropertyOp24
 70
     1
102
RTVSPropertyOp25
 70
     1
102
RTVSPropertyOp26
 70
     1
102
RTVSPropertyOp27
 70
     1
  0
XRECORD
  5
602
102
{ACAD_REACTORS
330
601
102
}
330
601
100
AcDbXrecord
280
     1
102
RTVSPropertyOp0
 70
     1
102
RTVSPropertyOp1
 70
     1
102
RTVSPropertyOp2
 70
     1
102
RTVSPropertyOp3
 70
     1
102
RTVSPropertyOp4
 70
     1
102
RTVSPropertyOp5
 70
     1
102
RTVSPropertyOp6
 70
     1
102
RTVSPropertyOp7
 70
     1
102
RTVSPropertyOp8
 70
     1
102
RTVSPropertyOp9
 70
     1
102
RTVSPropertyOp10
 70
     1
102
RTVSPropertyOp11
 70
     1
102
RTVSPropertyOp12
 70
     1
102
RTVSPropertyOp13
 70
     1
102
RTVSPropertyOp14
 70
     1
102
RTVSPropertyOp15
 70
     1
102
RTVSPropertyOp16
 70
     1
102
RTVSPropertyOp17
 70
     1
102
RTVSPropertyOp18
 70
     1
102
RTVSPropertyOp19
 70
     1
102
RTVSPropertyOp20
 70
     1
102
RTVSPropertyOp21
 70
     1
102
RTVSPropertyOp22
 70
     1
102
RTVSPropertyOp23
 70
     1
102
RTVSPropertyOp24
 70
     1
102
RTVSPropertyOp25
 70
     1
102
RTVSPropertyOp26
 70
     1
102
RTVSPropertyOp27
 70
     1
  0
XRECORD
  5
604
102
{ACAD_REACTORS
330
603
102
}
330
603
100
AcDbXrecord
280
     1
102
RTVSPropertyOp0
 70
     1
102
RTVSPropertyOp1
 70
     1
102
RTVSPropertyOp2
 70
     1
102
RTVSPropertyOp3
 70
     1
102
RTVSPropertyOp4
 70
     1
102
RTVSPropertyOp5
 70
     1
102
RTVSPropertyOp6
 70
     1
102
RTVSPropertyOp7
 70
     1
102
RTVSPropertyOp8
 70
     1
102
RTVSPropertyOp9
 70
     1
102
RTVSPropertyOp10
 70
     1
102
RTVSPropertyOp11
 70
     1
102
RTVSPropertyOp12
 70
     1
102
RTVSPropertyOp13
 70
     1
102
RTVSPropertyOp14
 70
     1
102
RTVSPropertyOp15
 70
     1
102
RTVSPropertyOp16
 70
     1
102
RTVSPropertyOp17
 70
     1
102
RTVSPropertyOp18
 70
     1
102
RTVSPropertyOp19
 70
     1
102
RTVSPropertyOp20
 70
     1
102
RTVSPropertyOp21
 70
     1
102
RTVSPropertyOp22
 70
     1
102
RTVSPropertyOp23
 70
     1
102
RTVSPropertyOp24
 70
     1
102
RTVSPropertyOp25
 70
     1
102
RTVSPropertyOp26
 70
     1
102
RTVSPropertyOp27
 70
     1
  0
XRECORD
  5
606
102
{ACAD_REACTORS
330
605
102
}
330
605
100
AcDbXrecord
280
     1
102
RTVSPropertyOp0
 70
     1
102
RTVSPropertyOp1
 70
     1
102
RTVSPropertyOp2
 70
     1
102
RTVSPropertyOp3
 70
     1
102
RTVSPropertyOp4
 70
     1
102
RTVSPropertyOp5
 70
     1
102
RTVSPropertyOp6
 70
     1
102
RTVSPropertyOp7
 70
     1
102
RTVSPropertyOp8
 70
     1
102
RTVSPropertyOp9
 70
     1
102
RTVSPropertyOp10
 70
     1
102
RTVSPropertyOp11
 70
     1
102
RTVSPropertyOp12
 70
     1
102
RTVSPropertyOp13
 70
     1
102
RTVSPropertyOp14
 70
     1
102
RTVSPropertyOp15
 70
     1
102
RTVSPropertyOp16
 70
     1
102
RTVSPropertyOp17
 70
     1
102
RTVSPropertyOp18
 70
     1
102
RTVSPropertyOp19
 70
     1
102
RTVSPropertyOp20
 70
     1
102
RTVSPropertyOp21
 70
     1
102
RTVSPropertyOp22
 70
     1
102
RTVSPropertyOp23
 70
     1
102
RTVSPropertyOp24
 70
     1
102
RTVSPropertyOp25
 70
     1
102
RTVSPropertyOp26
 70
     1
102
RTVSPropertyOp27
 70
     1
  0
XRECORD
  5
620
102
{ACAD_REACTORS
330
61F
102
}
330
61F
100
AcDbXrecord
280
     1
102
RTVSPropertyOp0
 70
     0
102
RTVSPropertyOp1
 70
     0
102
RTVSPropertyOp2
 70
     0
102
RTVSPropertyOp3
 70
     0
102
RTVSPropertyOp4
 70
     0
102
RTVSPropertyOp5
 70
     0
102
RTVSPropertyOp6
 70
     0
102
RTVSPropertyOp7
 70
     0
102
RTVSPropertyOp8
 70
     0
102
RTVSPropertyOp9
 70
     0
102
RTVSPropertyOp10
 70
     0
102
RTVSPropertyOp11
 70
     0
102
RTVSPropertyOp12
 70
     0
102
RTVSPropertyOp13
 70
     0
102
RTVSPropertyOp14
 70
     2
102
RTVSPropertyOp15
 70
     0
102
RTVSPropertyOp16
 70
     0
102
RTVSPropertyOp17
 70
     0
102
RTVSPropertyOp18
 70
     0
102
RTVSPropertyOp19
 70
     0
102
RTVSPropertyOp20
 70
     0
102
RTVSPropertyOp21
 70
     0
102
RTVSPropertyOp22
 70
     0
102
RTVSPropertyOp23
 70
     0
102
RTVSPropertyOp24
 70
     0
102
RTVSPropertyOp25
 70
     0
102
RTVSPropertyOp26
 70
     0
102
RTVSPropertyOp27
 70
     0
  0
XRECORD
  5
61A
102
{ACAD_REACTORS
330
619
102
}
330
619
100
AcDbXrecord
280
     1
102
RTVSPropertyOp0
 70
     1
102
RTVSPropertyOp1
 70
     1
102
RTVSPropertyOp2
 70
     1
102
RTVSPropertyOp3
 70
     1
102
RTVSPropertyOp4
 70
     1
102
RTVSPropertyOp5
 70
     1
102
RTVSPropertyOp6
 70
     1
102
RTVSPropertyOp7
 70
     1
102
RTVSPropertyOp8
 70
     1
102
RTVSPropertyOp9
 70
     1
102
RTVSPropertyOp10
 70
     1
102
RTVSPropertyOp11
 70
     1
102
RTVSPropertyOp12
 70
     1
102
RTVSPropertyOp13
 70
     1
102
RTVSPropertyOp14
 70
     1
102
RTVSPropertyOp15
 70
     1
102
RTVSPropertyOp16
 70
     1
102
RTVSPropertyOp17
 70
     1
102
RTVSPropertyOp18
 70
     1
102
RTVSPropertyOp19
 70
     1
102
RTVSPropertyOp20
 70
     1
102
RTVSPropertyOp21
 70
     1
102
RTVSPropertyOp22
 70
     1
102
RTVSPropertyOp23
 70
     1
102
RTVSPropertyOp24
 70
     1
102
RTVSPropertyOp25
 70
     1
102
RTVSPropertyOp26
 70
     1
102
RTVSPropertyOp27
 70
     1
  0
XRECORD
  5
622
102
{ACAD_REACTORS
330
621
102
}
330
621
100
AcDbXrecord
280
     1
102
RTVSPropertyOp0
 70
     0
102
RTVSPropertyOp1
 70
     0
102
RTVSPropertyOp2
 70
     0
102
RTVSPropertyOp3
 70
     0
102
RTVSPropertyOp4
 70
     0
102
RTVSPropertyOp5
 70
     0
102
RTVSPropertyOp6
 70
     0
102
RTVSPropertyOp7
 70
     0
102
RTVSPropertyOp8
 70
     0
102
RTVSPropertyOp9
 70
     0
102
RTVSPropertyOp10
 70
     0
102
RTVSPropertyOp11
 70
     0
102
RTVSPropertyOp12
 70
     0
102
RTVSPropertyOp13
 70
     0
102
RTVSPropertyOp14
 70
     2
102
RTVSPropertyOp15
 70
     0
102
RTVSPropertyOp16
 70
     0
102
RTVSPropertyOp17
 70
     0
102
RTVSPropertyOp18
 70
     0
102
RTVSPropertyOp19
 70
     0
102
RTVSPropertyOp20
 70
     0
102
RTVSPropertyOp21
 70
     0
102
RTVSPropertyOp22
 70
     0
102
RTVSPropertyOp23
 70
     0
102
RTVSPropertyOp24
 70
     0
102
RTVSPropertyOp25
 70
     0
102
RTVSPropertyOp26
 70
     0
102
RTVSPropertyOp27
 70
     0
  0
XRECORD
  5
612
102
{ACAD_REACTORS
330
611
102
}
330
611
100
AcDbXrecord
280
     1
102
RTVSPropertyOp0
 70
     1
102
RTVSPropertyOp1
 70
     1
102
RTVSPropertyOp2
 70
     1
102
RTVSPropertyOp3
 70
     1
102
RTVSPropertyOp4
 70
     1
102
RTVSPropertyOp5
 70
     1
102
RTVSPropertyOp6
 70
     1
102
RTVSPropertyOp7
 70
     1
102
RTVSPropertyOp8
 70
     1
102
RTVSPropertyOp9
 70
     1
102
RTVSPropertyOp10
 70
     1
102
RTVSPropertyOp11
 70
     1
102
RTVSPropertyOp12
 70
     1
102
RTVSPropertyOp13
 70
     1
102
RTVSPropertyOp14
 70
     1
102
RTVSPropertyOp15
 70
     1
102
RTVSPropertyOp16
 70
     1
102
RTVSPropertyOp17
 70
     1
102
RTVSPropertyOp18
 70
     1
102
RTVSPropertyOp19
 70
     1
102
RTVSPropertyOp20
 70
     1
102
RTVSPropertyOp21
 70
     1
102
RTVSPropertyOp22
 70
     1
102
RTVSPropertyOp23
 70
     1
102
RTVSPropertyOp24
 70
     1
102
RTVSPropertyOp25
 70
     1
102
RTVSPropertyOp26
 70
     1
102
RTVSPropertyOp27
 70
     1
  0
XRECORD
  5
618
102
{ACAD_REACTORS
330
617
102
}
330
617
100
AcDbXrecord
280
     1
102
RTVSPropertyOp0
 70
     1
102
RTVSPropertyOp1
 70
     1
102
RTVSPropertyOp2
 70
     1
102
RTVSPropertyOp3
 70
     1
102
RTVSPropertyOp4
 70
     1
102
RTVSPropertyOp5
 70
     1
102
RTVSPropertyOp6
 70
     1
102
RTVSPropertyOp7
 70
     1
102
RTVSPropertyOp8
 70
     1
102
RTVSPropertyOp9
 70
     1
102
RTVSPropertyOp10
 70
     1
102
RTVSPropertyOp11
 70
     1
102
RTVSPropertyOp12
 70
     1
102
RTVSPropertyOp13
 70
     1
102
RTVSPropertyOp14
 70
     1
102
RTVSPropertyOp15
 70
     1
102
RTVSPropertyOp16
 70
     1
102
RTVSPropertyOp17
 70
     1
102
RTVSPropertyOp18
 70
     1
102
RTVSPropertyOp19
 70
     1
102
RTVSPropertyOp20
 70
     1
102
RTVSPropertyOp21
 70
     1
102
RTVSPropertyOp22
 70
     1
102
RTVSPropertyOp23
 70
     1
102
RTVSPropertyOp24
 70
     1
102
RTVSPropertyOp25
 70
     1
102
RTVSPropertyOp26
 70
     1
102
RTVSPropertyOp27
 70
     1
  0
ENDSEC
  0
EOF
