  0
SECTION
  2
HEADER
  9
$ACADVER
  1
AC1018
  9
$ACADMAINTVER
 70
   104
  9
$DWGCODEPAGE
  3
ANSI_1252
  9
$AUTHOR
  1
pmacoun
  9
$LASTSAVEDBY
  1
cpfromm
  9
$REVISIONNUMBER
  1
000
  9
$CUSTOMPROPERTYTAG
  1
Vedoucí
  9
$CUSTOMPROPERTY
  1

  9
$CUSTOMPROPERTYTAG
  1
Spole\U+010Dnost
  9
$CUSTOMPROPERTY
  1

  9
$CUSTOMPROPERTYTAG
  1
Kategorie
  9
$CUSTOMPROPERTY
  1

  9
$CUSTOMPROPERTYTAG
  1
\U+010Císlo sou\U+010Dásti
  9
$CUSTOMPROPERTY
  1
415166
  9
$CUSTOMPROPERTYTAG
  1
Popis
  9
$CUSTOMPROPERTY
  1

  9
$CUSTOMPROPERTYTAG
  1
Projekt
  9
$CUSTOMPROPERTY
  1

  9
$CUSTOMPROPERTYTAG
  1
Kreslil
  9
$CUSTOMPROPERTY
  1
pmacoun
  9
$CUSTOMPROPERTYTAG
  1
Schválil
  9
$CUSTOMPROPERTY
  1

  9
$CUSTOMPROPERTYTAG
  1
Zodpovídá
  9
$CUSTOMPROPERTY
  1

  9
$CUSTOMPROPERTYTAG
  1
Nákladové st\U+0159edisko
  9
$CUSTOMPROPERTY
  1

  9
$CUSTOMPROPERTYTAG
  1
Dodavatel
  9
$CUSTOMPROPERTY
  1

  9
$CUSTOMPROPERTYTAG
  1
Uživatelský stav
  9
$CUSTOMPROPERTY
  1

  9
$CUSTOMPROPERTYTAG
  1
Stav návrhu
  9
$CUSTOMPROPERTY
  1
Rozpracováno
  9
$CUSTOMPROPERTYTAG
  1
Zkontroloval
  9
$CUSTOMPROPERTY
  1

  9
$CUSTOMPROPERTYTAG
  1
Techn. kontr. schválil
  9
$CUSTOMPROPERTY
  1

  9
$CUSTOMPROPERTYTAG
  1
Výrobu schválil
  9
$CUSTOMPROPERTY
  1

  9
$CUSTOMPROPERTYTAG
  1
VS_First
  9
$CUSTOMPROPERTY
  1

  9
$CUSTOMPROPERTYTAG
  1
VS_All
  9
$CUSTOMPROPERTY
  1
1:1,
  9
$CUSTOMPROPERTYTAG
  1
Model_Mass_Value
  9
$CUSTOMPROPERTY
  1
,0
  9
$CUSTOMPROPERTYTAG
  1
Model_Mass_Units
  9
$CUSTOMPROPERTY
  1
kg
  9
$CUSTOMPROPERTYTAG
  1
Model_Area_Value
  9
$CUSTOMPROPERTY
  1
2694,0
  9
$CUSTOMPROPERTYTAG
  1
Model_Area_Units
  9
$CUSTOMPROPERTY
  1
mm\U+02DB
  9
$CUSTOMPROPERTYTAG
  1
Model_Volume_Value
  9
$CUSTOMPROPERTY
  1
5471,0
  9
$CUSTOMPROPERTYTAG
  1
Model_Volume_Units
  9
$CUSTOMPROPERTY
  1
mm\U+0142
  9
$CUSTOMPROPERTYTAG
  1
Model_CogX_Value
  9
$CUSTOMPROPERTY
  1
,0
  9
$CUSTOMPROPERTYTAG
  1
Model_CogY_Value
  9
$CUSTOMPROPERTY
  1
,0
  9
$CUSTOMPROPERTYTAG
  1
Model_CogZ_Value
  9
$CUSTOMPROPERTY
  1
,0
  9
$CUSTOMPROPERTYTAG
  1
Model_Cog_Units
  9
$CUSTOMPROPERTY
  1
mm
  9
$CUSTOMPROPERTYTAG
  1
Model_Ixx_Value
  9
$CUSTOMPROPERTY
  1
,0
  9
$CUSTOMPROPERTYTAG
  1
Model_Iyy_Value
  9
$CUSTOMPROPERTY
  1
,0
  9
$CUSTOMPROPERTYTAG
  1
Model_Izz_Value
  9
$CUSTOMPROPERTY
  1
,0
  9
$CUSTOMPROPERTYTAG
  1
Model_Ixy_Value
  9
$CUSTOMPROPERTY
  1
,0
  9
$CUSTOMPROPERTYTAG
  1
Model_Iyz_Value
  9
$CUSTOMPROPERTY
  1
,0
  9
$CUSTOMPROPERTYTAG
  1
Model_Ixz_Value
  9
$CUSTOMPROPERTY
  1
,0
  9
$CUSTOMPROPERTYTAG
  1
Model_MassMom_Units
  9
$CUSTOMPROPERTY
  1
kg mm\U+02DB
  9
$CUSTOMPROPERTYTAG
  1
FirstViewScale
  9
$CUSTOMPROPERTY
  1

  9
$CUSTOMPROPERTYTAG
  1
AllViewScales
  9
$CUSTOMPROPERTY
  1

  9
$CUSTOMPROPERTYTAG
  1
SaveDate
  9
$CUSTOMPROPERTY
  1
09/12/2007
  9
$CUSTOMPROPERTYTAG
  1
SaveTime
  9
$CUSTOMPROPERTY
  1
10:32
  9
$CUSTOMPROPERTYTAG
  1
PaperSize
  9
$CUSTOMPROPERTY
  1
A3
  9
$CUSTOMPROPERTYTAG
  1
DateSaved
  9
$CUSTOMPROPERTY
  1
12.09.2007
  9
$CUSTOMPROPERTYTAG
  1
TimeSaved
  9
$CUSTOMPROPERTY
  1
10:32 dop.
  9
$INSBASE
 10
0.0
 20
0.0
 30
0.0
  9
$EXTMIN
 10
101.541773996794
 20
142.428705877829
 30
0.0
  9
$EXTMAX
 10
415.7963763408055
 20
782.264878181669
 30
0.0
  9
$LIMMIN
 10
0.0
 20
0.0
  9
$LIMMAX
 10
1188.0
 20
840.0
  9
$ORTHOMODE
 70
     0
  9
$REGENMODE
 70
     1
  9
$FILLMODE
 70
     1
  9
$QTEXTMODE
 70
     0
  9
$MIRRTEXT
 70
     0
  9
$LTSCALE
 40
2.0
  9
$ATTMODE
 70
     1
  9
$TEXTSIZE
 40
0.2
  9
$TRACEWID
 40
0.05
  9
$TEXTSTYLE
  7
Standard
  9
$CLAYER
  8
0
  9
$CELTYPE
  6
ByLayer
  9
$CECOLOR
 62
   256
  9
$CELTSCALE
 40
1.0
  9
$DISPSILH
 70
     0
  9
$DIMSCALE
 40
1.0
  9
$DIMASZ
 40
3.5
  9
$DIMEXO
 40
1.0
  9
$DIMDLI
 40
10.0
  9
$DIMRND
 40
0.0
  9
$DIMDLE
 40
0.0
  9
$DIMEXE
 40
1.0
  9
$DIMTP
 40
0.1
  9
$DIMTM
 40
0.1
  9
$DIMTXT
 40
3.5
  9
$DIMCEN
 40
0.0
  9
$DIMTSZ
 40
0.0
  9
$DIMTOL
 70
     0
  9
$DIMLIM
 70
     0
  9
$DIMTIH
 70
     0
  9
$DIMTOH
 70
     0
  9
$DIMSE1
 70
     0
  9
$DIMSE2
 70
     0
  9
$DIMTAD
 70
     1
  9
$DIMZIN
 70
     8
  9
$DIMBLK
  1

  9
$DIMASO
 70
     1
  9
$DIMSHO
 70
     1
  9
$DIMPOST
  1

  9
$DIMAPOST
  1
"
  9
$DIMALT
 70
     0
  9
$DIMALTD
 70
     2
  9
$DIMALTF
 40
0.0393701
  9
$DIMLFAC
 40
1.0
  9
$DIMTOFL
 70
     1
  9
$DIMTVP
 40
0.0
  9
$DIMTIX
 70
     0
  9
$DIMSOXD
 70
     0
  9
$DIMSAH
 70
     0
  9
$DIMBLK1
  1

  9
$DIMBLK2
  1

  9
$DIMSTYLE
  2
AM_DIN
  9
$DIMCLRD
 70
   256
  9
$DIMCLRE
 70
   256
  9
$DIMCLRT
 70
     2
  9
$DIMTFAC
 40
0.71
  9
$DIMGAP
 40
1.5
  9
$DIMJUST
 70
     0
  9
$DIMSD1
 70
     0
  9
$DIMSD2
 70
     0
  9
$DIMTOLJ
 70
     0
  9
$DIMTZIN
 70
     8
  9
$DIMALTZ
 70
     0
  9
$DIMALTTZ
 70
     0
  9
$DIMUPT
 70
     0
  9
$DIMDEC
 70
     0
  9
$DIMTDEC
 70
     3
  9
$DIMALTU
 70
     2
  9
$DIMALTTD
 70
     4
  9
$DIMTXSTY
  7
Standard
  9
$DIMAUNIT
 70
     0
  9
$DIMADEC
 70
     0
  9
$DIMALTRND
 40
0.0
  9
$DIMAZIN
 70
     2
  9
$DIMDSEP
 70
    46
  9
$DIMATFIT
 70
     3
  9
$DIMFRAC
 70
     0
  9
$DIMLDRBLK
  1

  9
$DIMLUNIT
 70
     2
  9
$DIMLWD
 70
    -1
  9
$DIMLWE
 70
    -1
  9
$DIMTMOVE
 70
     0
  9
$LUNITS
 70
     2
  9
$LUPREC
 70
     2
  9
$SKETCHINC
 40
0.1
  9
$FILLETRAD
 40
0.0
  9
$AUNITS
 70
     0
  9
$AUPREC
 70
     0
  9
$MENU
  1
.
  9
$ELEVATION
 40
0.0
  9
$PELEVATION
 40
0.0
  9
$THICKNESS
 40
0.0
  9
$LIMCHECK
 70
     0
  9
$CHAMFERA
 40
0.0
  9
$CHAMFERB
 40
0.0
  9
$CHAMFERC
 40
0.0
  9
$CHAMFERD
 40
0.0
  9
$SKPOLY
 70
     0
  9
$TDCREATE
 40
2455855.267007315
  9
$TDUCREATE
 40
2455855.225340648
  9
$TDUPDATE
 40
2455986.347636447
  9
$TDUUPDATE
 40
2455986.305969780
  9
$TDINDWG
 40
0.2354639236
  9
$TDUSRTIMER
 40
0.2354637384
  9
$USRTIMER
 70
     1
  9
$ANGBASE
 50
0.0
  9
$ANGDIR
 70
     0
  9
$PDMODE
 70
     0
  9
$PDSIZE
 40
0.0
  9
$PLINEWID
 40
0.0
  9
$SPLFRAME
 70
     0
  9
$SPLINETYPE
 70
     6
  9
$SPLINESEGS
 70
     8
  9
$HANDSEED
  5
129C
  9
$SURFTAB1
 70
     6
  9
$SURFTAB2
 70
     6
  9
$SURFTYPE
 70
     6
  9
$SURFU
 70
     6
  9
$SURFV
 70
     6
  9
$UCSBASE
  2

  9
$UCSNAME
  2

  9
$UCSORG
 10
0.0
 20
0.0
 30
0.0
  9
$UCSXDIR
 10
1.0
 20
0.0
 30
0.0
  9
$UCSYDIR
 10
0.0
 20
1.0
 30
0.0
  9
$UCSORTHOREF
  2

  9
$UCSORTHOVIEW
 70
     0
  9
$UCSORGTOP
 10
0.0
 20
0.0
 30
0.0
  9
$UCSORGBOTTOM
 10
0.0
 20
0.0
 30
0.0
  9
$UCSORGLEFT
 10
0.0
 20
0.0
 30
0.0
  9
$UCSORGRIGHT
 10
0.0
 20
0.0
 30
0.0
  9
$UCSORGFRONT
 10
0.0
 20
0.0
 30
0.0
  9
$UCSORGBACK
 10
0.0
 20
0.0
 30
0.0
  9
$PUCSBASE
  2

  9
$PUCSNAME
  2

  9
$PUCSORG
 10
0.0
 20
0.0
 30
0.0
  9
$PUCSXDIR
 10
1.0
 20
0.0
 30
0.0
  9
$PUCSYDIR
 10
0.0
 20
1.0
 30
0.0
  9
$PUCSORTHOREF
  2

  9
$PUCSORTHOVIEW
 70
     0
  9
$PUCSORGTOP
 10
0.0
 20
0.0
 30
0.0
  9
$PUCSORGBOTTOM
 10
0.0
 20
0.0
 30
0.0
  9
$PUCSORGLEFT
 10
0.0
 20
0.0
 30
0.0
  9
$PUCSORGRIGHT
 10
0.0
 20
0.0
 30
0.0
  9
$PUCSORGFRONT
 10
0.0
 20
0.0
 30
0.0
  9
$PUCSORGBACK
 10
0.0
 20
0.0
 30
0.0
  9
$USERI1
 70
     0
  9
$USERI2
 70
     0
  9
$USERI3
 70
     0
  9
$USERI4
 70
     0
  9
$USERI5
 70
     0
  9
$USERR1
 40
0.0
  9
$USERR2
 40
0.0
  9
$USERR3
 40
0.0
  9
$USERR4
 40
0.0
  9
$USERR5
 40
0.0
  9
$WORLDVIEW
 70
     1
  9
$SHADEDGE
 70
     3
  9
$SHADEDIF
 70
    70
  9
$TILEMODE
 70
     1
  9
$MAXACTVP
 70
    64
  9
$PINSBASE
 10
0.0
 20
0.0
 30
0.0
  9
$PLIMCHECK
 70
     0
  9
$PEXTMIN
 10
0.0
 20
0.0
 30
0.0
  9
$PEXTMAX
 10
1188.0
 20
840.0
 30
0.0
  9
$PLIMMIN
 10
0.0
 20
0.0
  9
$PLIMMAX
 10
1188.0
 20
840.0
  9
$UNITMODE
 70
     0
  9
$VISRETAIN
 70
     1
  9
$PLINEGEN
 70
     0
  9
$PSLTSCALE
 70
     1
  9
$TREEDEPTH
 70
  3020
  9
$CMLSTYLE
  2
Standard
  9
$CMLJUST
 70
     0
  9
$CMLSCALE
 40
1.0
  9
$PROXYGRAPHICS
 70
     1
  9
$MEASUREMENT
 70
     1
  9
$CELWEIGHT
370
    -1
  9
$ENDCAPS
280
     0
  9
$JOINSTYLE
280
     0
  9
$LWDISPLAY
290
     0
  9
$INSUNITS
 70
     4
  9
$HYPERLINKBASE
  1

  9
$STYLESHEET
  1
monochrome.ctb
  9
$XEDIT
290
     1
  9
$CEPSNTYPE
380
     0
  9
$PSTYLEMODE
290
     1
  9
$FINGERPRINTGUID
  2
{B85A823A-1966-4EA0-9BC1-7FC00731E62B}
  9
$VERSIONGUID
  2
{5806A22A-D4BB-49C9-9B78-D7E0AFF8F3C3}
  9
$EXTNAMES
290
     1
  9
$PSVPSCALE
 40
0.0
  9
$OLESTARTUP
290
     0
  9
$SORTENTS
280
   127
  9
$INDEXCTL
280
     0
  9
$HIDETEXT
280
     1
  9
$XCLIPFRAME
290
     0
  9
$HALOGAP
280
     0
  9
$OBSCOLOR
 70
   257
  9
$OBSLTYPE
280
     0
  9
$INTERSECTIONDISPLAY
280
     0
  9
$INTERSECTIONCOLOR
 70
   257
  9
$DIMASSOC
280
     1
  9
$PROJECTNAME
  1

  0
ENDSEC
  0
SECTION
  2
CLASSES
  0
CLASS
  1
ACDBDICTIONARYWDFLT
  2
AcDbDictionaryWithDefault
  3
ObjectDBX Classes
 90
        0
 91
        1
280
     0
281
     0
  0
CLASS
  1
MATERIAL
  2
AcDbMaterial
  3
ObjectDBX Classes
 90
     1153
 91
        3
280
     0
281
     0
  0
CLASS
  1
VISUALSTYLE
  2
AcDbVisualStyle
  3
ObjectDBX Classes
 90
     4095
 91
       26
280
     0
281
     0
  0
CLASS
  1
SCALE
  2
AcDbScale
  3
ObjectDBX Classes
 90
     1153
 91
       18
280
     0
281
     0
  0
CLASS
  1
TABLESTYLE
  2
AcDbTableStyle
  3
ObjectDBX Classes
 90
     4095
 91
        1
280
     0
281
     0
  0
CLASS
  1
MLEADERSTYLE
  2
AcDbMLeaderStyle
  3
ACDB_MLEADERSTYLE_CLASS
 90
     4095
 91
        1
280
     0
281
     0
  0
CLASS
  1
DICTIONARYVAR
  2
AcDbDictionaryVar
  3
ObjectDBX Classes
 90
        0
 91
       11
280
     0
281
     0
  0
CLASS
  1
CELLSTYLEMAP
  2
AcDbCellStyleMap
  3
ObjectDBX Classes
 90
     1152
 91
        2
280
     0
281
     0
  0
CLASS
  1
AMGSETTINGSOBJ
  2
AmgSettingsObj
  3
"AcadM|Product Description: AutoCAD Mechanical|Company: Autodesk, Inc."
 90
     1024
 91
        2
280
     0
281
     0
  0
CLASS
  1
ACME_DOCUMENT
  2
AcMeDbDoc
  3
AcMeServices
 90
     1024
 91
        2
280
     0
281
     0
  0
CLASS
  1
ACMESCOPE
  2
AcMeScope
  3
AcMeServices
 90
     1024
 91
        1
280
     0
281
     0
  0
CLASS
  1
ACMECOMMANDHISTORY
  2
AcMeCommandHistory
  3
AcMeServices
 90
     1024
 91
        1
280
     0
281
     0
  0
CLASS
  1
ACIMSYSVARMAN
  2
AcImSysVarManager
  3
AcMeServices
 90
     1024
 91
        5
280
     0
281
     0
  0
CLASS
  1
ACIMINTSYSVAR
  2
AcImIntSysVar
  3
AcMeServices
 90
     1024
 91
       28
280
     0
281
     0
  0
CLASS
  1
ACMEDRAWINGMAN
  2
AcMeDrawingMan
  3
AcMeServices
 90
     1024
 91
        1
280
     0
281
     0
  0
CLASS
  1
ACMEVIEW
  2
AcMeView
  3
AcMeServices
 90
     1024
 91
        1
280
     0
281
     0
  0
CLASS
  1
ACDBENTITYCACHE
  2
AcMeEntityCache
  3
AcMeServices
 90
     1024
 91
        1
280
     0
281
     0
  0
CLASS
  1
GSMANAGER
  2
AcMeGSManager
  3
AcMeServices
 90
     1024
 91
        1
280
     0
281
     0
  0
CLASS
  1
AMDTINTERNALREACTOR
  2
AmdtInternalReactor
  3
AcMeServices
 90
     1024
 91
        2
280
     0
281
     0
  0
CLASS
  1
ACMESTATEMGR
  2
AcMeStateMgr
  3
AcMeServices
 90
     1024
 91
        1
280
     0
281
     0
  0
CLASS
  1
ACGREFMASTER
  2
AcGrefMaster
  3
AcAttribServices
 90
     1024
 91
        1
280
     0
281
     0
  0
CLASS
  1
AM_DRAWING_MGR
  2
AcDmDwgMgr
  3
AcMechDwgViewMgmt
 90
     1024
 91
        1
280
     0
281
     0
  0
CLASS
  1
AM_DWG_DOCUMENT
  2
AcDmDwgDocument
  3
AcMechDwgViewMgmt
 90
     1024
 91
        1
280
     0
281
     0
  0
CLASS
  1
AM_DWG_SHEET
  2
AcDmSheet
  3
AcMechDwgViewMgmt
 90
     1024
 91
        2
280
     0
281
     0
  0
CLASS
  1
AM_VIEWDIMPARMAP
  2
AcDmViewDimParMap
  3
AcMechDwgViewMgmt
 90
     1024
 91
        2
280
     0
281
     0
  0
CLASS
  1
ACIMREALSYSVAR
  2
AcImRealSysVar
  3
AcMeServices
 90
     1024
 91
        1
280
     0
281
     0
  0
CLASS
  1
AM_DWGMGR_NAME
  2
AcDmDwgMgrName
  3
AcMechDwgViewMgmt
 90
     1024
 91
        1
280
     0
281
     0
  0
CLASS
  1
ACME_DATABASE
  2
AcMeDbDatabase
  3
AcMeServices
 90
     1024
 91
        1
280
     0
281
     0
  0
CLASS
  1
ACRFINSADJUSTERMGR
  2
AcRfInsAdjusterMgr
  3
AcMeServices
 90
     1024
 91
        1
280
     0
281
     0
  0
CLASS
  1
ACGREFACADMASTER
  2
AcGrefacadMaster
  3
AcGrefServices
 90
     1024
 91
        1
280
     0
281
     0
  0
CLASS
  1
AMDTMENUSTATEMGR
  2
AmdtMenuStateMgr
  3
McadcomServices
 90
     1024
 91
        1
280
     0
281
     0
  0
CLASS
  1
AMDTMCOMMENUSTATE
  2
AmdtMcomMenuState
  3
McadcomServices
 90
     1024
 91
        1
280
     0
281
     0
  0
CLASS
  1
AMIMASTER
  2
AmiMaster
  3
AmiServices
 90
     1024
 91
        1
280
     0
281
     0
  0
CLASS
  1
MAPIAMMOUDLE
  2
MApiAmModule
  3
MApiAmServices
 90
     1024
 91
        1
280
     0
281
     0
  0
CLASS
  1
ACIMSTRSYSVAR
  2
AcImStrSysVar
  3
AcMeServices
 90
     1024
 91
        5
280
     0
281
     0
  0
CLASS
  1
AMDTADMENUSTATE
  2
AmdtAdMenuState
  3
DesignerServices
 90
     1024
 91
        1
280
     0
281
     0
  0
CLASS
  1
ADAPPL
  2
AcAdAppl
  3
DesignerServices
 90
     1024
 91
        1
280
     0
281
     0
  0
CLASS
  1
DEPMGR
  2
AcAdDepMgr
  3
DesignerServices
 90
     1024
 91
        1
280
     0
281
     0
  0
CLASS
  1
PARAMMGR
  2
AcAdParamMgr
  3
DesignerServices
 90
     1024
 91
        1
280
     0
281
     0
  0
CLASS
  1
PARAMSCOPE
  2
AcAdParamScope
  3
DesignerServices
 90
     1024
 91
        1
280
     0
281
     0
  0
CLASS
  1
NAMEDAPPL
  2
AcAdNamedAppl
  3
DesignerServices
 90
     1024
 91
        1
280
     0
281
     0
  0
CLASS
  1
AMDTDMMENUSTATE
  2
AmdtDmMenuState
  3
AcMechDwgViewMgmt
 90
     1024
 91
        1
280
     0
281
     0
  0
CLASS
  1
AMDTAMMENUSTATE
  2
AmdtAmMenuState
  3
DesignerAssemblies
 90
     1024
 91
        1
280
     0
281
     0
  0
CLASS
  1
ACAMPROJECT
  2
AcAmProject
  3
DesignerAssemblies
 90
     1024
 91
        1
280
     0
281
     0
  0
CLASS
  1
ACAMGRCOMPDEF
  2
AcAmGrCompDef
  3
DesignerAssemblies
 90
     1024
 91
        1
280
     0
281
     0
  0
CLASS
  1
ACCMCONTEXT
  2
AcCmContext
  3
DesignerAssemblies
 90
     1024
 91
        1
280
     0
281
     0
  0
CLASS
  1
ACAMCOMPDEF
  2
AcAmCompDef
  3
DesignerAssemblies
 90
     1024
 91
        1
280
     0
281
     0
  0
CLASS
  1
ACAMCOMPDEFMGR
  2
AcAmCompDefMgr
  3
DesignerAssemblies
 90
     1024
 91
        1
280
     0
281
     0
  0
CLASS
  1
AMCONTEXTMGR
  2
AcAmContextMgr
  3
DesignerAssemblies
 90
     1024
 91
        1
280
     0
281
     0
  0
CLASS
  1
ACAMCONTEXTMODELER
  2
AcAmContextModeler
  3
DesignerAssemblies
 90
     1024
 91
        1
280
     0
281
     0
  0
CLASS
  1
ACMDATADICTIONARY
  2
AcmDataDictionary
  3
"AcmSymBB|Product Description: AutoCAD Mechanical|Company: Autodesk, Inc."
 90
     1024
 91
        1
280
     0
281
     0
  0
CLASS
  1
CATALOGSTATE
  2
AcAmCatalogState
  3
DesignerAssemblies
 90
     1024
 91
        1
280
     0
281
     0
  0
CLASS
  1
ACAMGRCOMPDEFSET
  2
AcAmGrCompDefSet
  3
DesignerAssemblies
 90
     1024
 91
        1
280
     0
281
     0
  0
CLASS
  1
AMDTBROWSERDBTAB
  2
AmdtBrowserDbTab
  3
McadcomServices
 90
     1024
 91
        1
280
     0
281
     0
  0
CLASS
  1
CBROWSERAPPOBJECT
  2
CBrowserAppObject
  3
McadcomServices
 90
     1024
 91
        3
280
     0
281
     0
  0
CLASS
  1
DM_PLACEHOLDER
  2
AcDmSelsetPlaceholder
  3
AcMechDwgViewMgmt
 90
     1024
 91
        1
280
     0
281
     0
  0
CLASS
  1
EXACXREFPANELOBJECT
  2
ExAcXREFPanelObject
  3
EXAC_ESW
 90
     1025
 91
        1
280
     0
281
     0
  0
CLASS
  1
NPOCOLLECTION
  2
AcDbImpNonPersistentObjectsCollection
  3
ObjectDBX Classes
 90
     1153
 91
        1
280
     0
281
     0
  0
CLASS
  1
ACMSTANDARDDIN
  2
AcmStandardDIN
  3
"Amdt_StdImp|Product Description: AutoCAD Mechanical|Company: Autodesk, Inc."
 90
     1024
 91
        1
280
     0
281
     0
  0
CLASS
  1
AMDTEDGESTANDARDDIN13715
  2
AmdtEdgeStdDIN13715
  3
"Amdt_StdImp|Product Description: AutoCAD Mechanical|Company: Autodesk, Inc."
 90
     1024
 91
        1
280
     0
281
     0
  0
CLASS
  1
ACMSURFSTANDARDDIN2002
  2
AcmSurfTextStdDIN2002
  3
"Amdt_StdImp|Product Description: AutoCAD Mechanical|Company: Autodesk, Inc."
 90
     1024
 91
        1
280
     0
281
     0
  0
CLASS
  1
ACMFCFSTANDARDDIN
  2
AcmFCFStdDIN
  3
"Amdt_StdImp|Product Description: AutoCAD Mechanical|Company: Autodesk, Inc."
 90
     1024
 91
        1
280
     0
281
     0
  0
CLASS
  1
ACMWELDSTANDARDDIN
  2
AcmWeldingStdDIN
  3
"Amdt_StdImp|Product Description: AutoCAD Mechanical|Company: Autodesk, Inc."
 90
     1024
 91
        1
280
     0
281
     0
  0
CLASS
  1
ACMIDSTANDARDDIN
  2
AcmIdStdDIN
  3
"Amdt_StdImp|Product Description: AutoCAD Mechanical|Company: Autodesk, Inc."
 90
     1024
 91
        1
280
     0
281
     0
  0
CLASS
  1
ACMDATUMSTANDARDDIN
  2
AcmDatumStdDIN
  3
"Amdt_StdImp|Product Description: AutoCAD Mechanical|Company: Autodesk, Inc."
 90
     1024
 91
        1
280
     0
281
     0
  0
CLASS
  1
ACMBOMSTANDARDDIN
  2
AcmBOMStdDIN
  3
"Amdt_StdImp|Product Description: AutoCAD Mechanical|Company: Autodesk, Inc."
 90
     1024
 91
        1
280
     0
281
     0
  0
CLASS
  1
ACMDETAILSTANDARDDIN
  2
AmdtDetailSymStdDIN
  3
"Amdt_StdImp|Product Description: AutoCAD Mechanical|Company: Autodesk, Inc."
 90
     1024
 91
        1
280
     0
281
     0
  0
CLASS
  1
ACMSECTIONSTANDARDDIN
  2
AmdtSectionSymStdDIN
  3
"Amdt_StdImp|Product Description: AutoCAD Mechanical|Company: Autodesk, Inc."
 90
     1024
 91
        1
280
     0
281
     0
  0
CLASS
  1
ACMCENTERLINESTANDARDDIN
  2
AmdtCenterLineStdDIN
  3
"Amdt_StdImp|Product Description: AutoCAD Mechanical|Company: Autodesk, Inc."
 90
     1024
 91
        1
280
     0
281
     0
  0
CLASS
  1
ACMTHREADLINESTANDARDDIN
  2
AmdtThreadLineStdDIN
  3
"Amdt_StdImp|Product Description: AutoCAD Mechanical|Company: Autodesk, Inc."
 90
     1024
 91
        1
280
     0
281
     0
  0
CLASS
  1
ACMNOTESTANDARDDIN
  2
AmdtNoteStdDIN
  3
"Amdt_StdImp|Product Description: AutoCAD Mechanical|Company: Autodesk, Inc."
 90
     1024
 91
        1
280
     0
281
     0
  0
CLASS
  1
ACMTAPERSTANDARDDIN
  2
AcmTaperStdDIN
  3
"Amdt_StdImp|Product Description: AutoCAD Mechanical|Company: Autodesk, Inc."
 90
     1024
 91
        1
280
     0
281
     0
  0
CLASS
  1
ACMANOOTATIONVIEWSTANDARDDIN
  2
AmdtAnViewStdDIN
  3
"Amdt_StdImp|Product Description: AutoCAD Mechanical|Company: Autodesk, Inc."
 90
     1024
 91
        1
280
     0
281
     0
  0
CLASS
  1
ACAMGLAYSTD
  2
AcAmgLayStd
  3
"AmgLay|Product Description: AutoCAD Mechanical|Company: Autodesk, Inc."
 90
     1024
 91
        1
280
     0
281
     0
  0
CLASS
  1
ACAMGDIMSTD
  2
AcAmgDimStd
  3
"AmgDim|Product Description: AutoCAD Mechanical|Company: Autodesk, Inc."
 90
     1024
 91
        1
280
     0
281
     0
  0
CLASS
  1
AMGOBJPROPCFG
  2
AmgObjPropCfg
  3
"AmgLay|Product Description: AutoCAD Mechanical|Company: Autodesk, Inc."
 90
     1025
 91
        1
280
     0
281
     0
  0
CLASS
  1
ACAMGHOLECHARTSTDDIN
  2
AcAmgHoleChartStdDIN
  3
AmgDim|Product Description: AutoCAD Mechanical|Company: Autodesk, Inc.
 90
     1024
 91
        1
280
     0
281
     0
  0
CLASS
  1
ACAMGTITLESTD
  2
AcAmgTitleStd
  3
"AmgTitle|Product Description: AutoCAD Mechanical|Company: Autodesk, Inc."
 90
     4095
 91
        1
280
     0
281
     0
  0
CLASS
  1
AMDTNOTETEMPLATEDB
  2
AmdtNoteTemplateDB
  3
AcmSymBB|Product Description: AutoCAD Mechanical|Company: Autodesk, Inc.
 90
     1024
 91
        6
280
     0
281
     0
  0
CLASS
  1
ACAMGFILTERDAT
  2
AcAmgFilterDat
  3
"AcadM|Product Description: AutoCAD Mechanical|Company: Autodesk, Inc."
 90
     1024
 91
        6
280
     0
281
     0
  0
CLASS
  1
CAMSSTRUCTBTNSTATE
  2
StructBtnState
  3
DesignerAssemblies
 90
     1024
 91
        1
280
     0
281
     0
  0
CLASS
  1
AEC_REFEDIT_STATUS_TRACKER
  2
AecDbRefEditStatusTracker
  3
AecArchBase50|Product Desc: Autodesk Architectural Desktop 2007 |Company: Autodesk,Inc. |WEB Address: www.autodesk.com
 90
      129
 91
        0
280
     0
281
     0
  0
CLASS
  1
SORTENTSTABLE
  2
AcDbSortentsTable
  3
ObjectDBX Classes
 90
        0
 91
        1
280
     0
281
     0
  0
CLASS
  1
ACMDATAENTRYBLOCK
  2
AcmDataEntryBlock
  3
AcmSymBB|Product Description: AutoCAD Mechanical|Company: Autodesk, Inc.
 90
     1024
 91
        0
280
     0
281
     0
  0
ENDSEC
  0
SECTION
  2
TABLES
  0
TABLE
  2
VPORT
  5
8
330
0
100
AcDbSymbolTable
 70
     1
  0
VPORT
  5
57
330
8
100
AcDbSymbolTableRecord
100
AcDbViewportTableRecord
  2
*Active
 70
     0
 10
0.0
 20
0.0
 11
1.0
 21
1.0
 12
258.6423363599954
 22
495.9482480808245
 13
0.0
 23
0.0
 14
1.0
 24
1.0
 15
0.0
 25
0.0
 16
0.0
 26
0.0
 36
1.0
 17
0.0
 27
0.0
 37
0.0
 40
712.0755947972808
 41
1.949068322981366
 42
50.0
 43
0.0
 44
0.0
 50
0.0
 51
0.0
 71
     0
 72
   100
 73
     1
 74
     1
 75
     0
 76
     0
 77
     0
 78
     0
281
     0
 65
     0
110
0.0
120
0.0
130
0.0
111
1.0
121
0.0
131
0.0
112
0.0
122
1.0
132
0.0
 79
     0
146
0.0
  0
ENDTAB
  0
TABLE
  2
LTYPE
  5
5
330
0
100
AcDbSymbolTable
 70
    15
  0
LTYPE
  5
5B
330
5
100
AcDbSymbolTableRecord
100
AcDbLinetypeTableRecord
  2
ByBlock
 70
     0
  3

 72
    65
 73
     0
 40
0.0
  0
LTYPE
  5
5C
330
5
100
AcDbSymbolTableRecord
100
AcDbLinetypeTableRecord
  2
ByLayer
 70
     0
  3

 72
    65
 73
     0
 40
0.0
  0
LTYPE
  5
5D
330
5
100
AcDbSymbolTableRecord
100
AcDbLinetypeTableRecord
  2
Continuous
 70
     0
  3
Solid line
 72
    65
 73
     0
 40
0.0
  0
LTYPE
  5
B07
330
5
100
AcDbSymbolTableRecord
100
AcDbLinetypeTableRecord
  2
HIDDEN
 70
     0
  3
Verdeckt
 72
    65
 73
     2
 40
9.525
 49
6.349999999999999
 74
     0
 49
-3.174999999999999
 74
     0
  0
LTYPE
  5
B08
330
5
100
AcDbSymbolTableRecord
100
AcDbLinetypeTableRecord
  2
PHANTOM2
 70
     0
  3
Phantom (.5x) ___ _ _ ___ _ _ ___ _ _ ___ _ _
 72
    65
 73
     6
 40
31.75
 49
15.875
 74
     0
 49
-3.174999999999999
 74
     0
 49
3.174999999999999
 74
     0
 49
-3.174999999999999
 74
     0
 49
3.174999999999999
 74
     0
 49
-3.174999999999999
 74
     0
  0
LTYPE
  5
B09
330
5
100
AcDbSymbolTableRecord
100
AcDbLinetypeTableRecord
  2
CENTER
 70
     0
  3
Mitte ____ _ ____ _ ____ _ ____ _ ____ _ ____
 72
    65
 73
     4
 40
50.8
 49
31.75
 74
     0
 49
-6.349999999999999
 74
     0
 49
6.349999999999999
 74
     0
 49
-6.349999999999999
 74
     0
  0
LTYPE
  5
B54
330
5
100
AcDbSymbolTableRecord
100
AcDbLinetypeTableRecord
  2
Amconstr
 70
     0
  3
_______________________
 72
    65
 73
     2
 40
9999.0
 49
9999.0
 74
     0
 49
0.0
 74
     0
  0
LTYPE
  5
B59
330
5
100
AcDbSymbolTableRecord
100
AcDbLinetypeTableRecord
  2
Amzigzag
 70
     0
  3
/\/-/\/-/\/-/\/-/\/-/\/
 72
    65
 73
     2
 40
11.0001
 49
0.0001
 74
     4
 75
   136
340
B58
 46
0.04
 50
0.0
 44
0.0
 45
0.0
 49
-11.0
 74
     0
  0
LTYPE
  5
B5A
330
5
100
AcDbSymbolTableRecord
100
AcDbLinetypeTableRecord
  2
AM_DIN_F_W050
 70
     0
  3
__ __ __ __ __ __ __ __ __ __ __ __ __ __ __
 72
    65
 73
     2
 40
6.25
 49
4.75
 74
     0
 49
-1.5
 74
     0
  0
LTYPE
  5
B5B
330
5
100
AcDbSymbolTableRecord
100
AcDbLinetypeTableRecord
  2
AM_DIN_G_W050
 70
     0
  3
____ . ____ . ____ . ____ . ____ . ____ . ____
 72
    65
 73
     4
 40
13.75
 49
9.75
 74
     0
 49
-1.5
 74
     0
 49
1.0
 74
     0
 49
-1.5
 74
     0
  0
LTYPE
  5
B5C
330
5
100
AcDbSymbolTableRecord
100
AcDbLinetypeTableRecord
  2
AM_DIN_K_W050
 70
     0
  3
_____ . . _____ . . _____ . . ____ .. ____
 72
    65
 73
     6
 40
16.25
 49
9.75
 74
     0
 49
-1.5
 74
     0
 49
1.0
 74
     0
 49
-1.5
 74
     0
 49
1.0
 74
     0
 49
-1.5
 74
     0
  0
LTYPE
  5
B5D
330
5
100
AcDbSymbolTableRecord
100
AcDbLinetypeTableRecord
  2
AM_DIN_G_W050x2
 70
     0
  3
__ . __ . __ . __ . __ . __
 72
    65
 73
     4
 40
6.875
 49
4.75
 74
     0
 49
-0.875
 74
     0
 49
0.375
 74
     0
 49
-0.875
 74
     0
  0
LTYPE
  5
B5E
330
5
100
AcDbSymbolTableRecord
100
AcDbLinetypeTableRecord
  2
AM_DIN_F_W050x2
 70
     0
  3
 _ _ _ _ _ _ _ _ _ _ _ _
 72
    65
 73
     2
 40
3.125
 49
2.25
 74
     0
 49
-0.875
 74
     0
  0
LTYPE
  5
B6D
330
5
100
AcDbSymbolTableRecord
100
AcDbLinetypeTableRecord
  2
ACDINWELD
 70
     0
  3
_ _ _ _ _
 72
    65
 73
     2
 40
2.0
 49
2.0
 74
     0
 49
-1.0
 74
     0
  0
LTYPE
  5
B6E
330
5
100
AcDbSymbolTableRecord
100
AcDbLinetypeTableRecord
  2
ACDINTGB
 70
     0
  3
__ . . __ . .
 72
    65
 73
     6
 40
9.0
 49
4.0
 74
     0
 49
-1.0
 74
     0
 49
1.0
 74
     0
 49
-1.0
 74
     0
 49
1.0
 74
     0
 49
-1.0
 74
     0
  0
LTYPE
  5
B6F
330
5
100
AcDbSymbolTableRecord
100
AcDbLinetypeTableRecord
  2
ACDINTGL
 70
     0
  3
_ _ _ _ _
 72
    65
 73
     2
 40
3.0
 49
2.0
 74
     0
 49
-1.0
 74
     0
  0
LTYPE
  5
117A
330
5
100
AcDbSymbolTableRecord
100
AcDbLinetypeTableRecord
  2
GEN7A
 70
     0
  3
__ . __ . __
 72
    65
 73
     4
 40
6.875
 49
5.0
 74
     0
 49
-0.625
 74
     0
 49
0.625
 74
     0
 49
-0.625
 74
     0
  0
ENDTAB
  0
TABLE
  2
LAYER
  5
2
102
{ACAD_XDICTIONARY
360
CCD
102
}
330
0
100
AcDbSymbolTable
 70
    10
  0
LAYER
  5
54
330
2
100
AcDbSymbolTableRecord
100
AcDbLayerTableRecord
  2
0
 70
     0
 62
     7
  6
Continuous
370
    -3
390
F
  0
LAYER
  5
7A
330
2
100
AcDbSymbolTableRecord
100
AcDbLayerTableRecord
  2
Kóta (ISO)
 70
     0
 62
     5
420
      255
  6
Continuous
370
     9
390
F
  0
LAYER
  5
7C
330
2
100
AcDbSymbolTableRecord
100
AcDbLayerTableRecord
  2
Neviditelná tenká (ISO)
 70
     0
 62
   142
420
    32960
  6
Continuous
370
     9
390
F
  0
LAYER
  5
88
330
2
100
AcDbSymbolTableRecord
100
AcDbLayerTableRecord
  2
Skrytá (ISO)
 70
     0
 62
   142
420
    32960
  6
Continuous
370
     9
390
F
  0
LAYER
  5
8D
330
2
100
AcDbSymbolTableRecord
100
AcDbLayerTableRecord
  2
Viditelná (ISO)
 70
     0
 62
     7
  6
Continuous
370
    35
390
F
  0
LAYER
  5
8E
330
2
100
AcDbSymbolTableRecord
100
AcDbLayerTableRecord
  2
Viditelná tenká (ISO)
 70
     0
 62
     7
  6
Continuous
370
     9
390
F
  0
LAYER
  5
5FD
330
2
100
AcDbSymbolTableRecord
100
AcDbLayerTableRecord
  2
Defpoints
 70
     0
 62
     7
  6
Continuous
290
     0
370
    -3
390
F
  0
LAYER
  5
CC4
330
2
100
AcDbSymbolTableRecord
100
AcDbLayerTableRecord
  2
AM_7
 70
     0
 62
     4
  6
AM_DIN_G_W050
370
    25
390
F
1001
AcAecLayerStandard
1000

1000

  0
LAYER
  5
CD4
330
2
100
AcDbSymbolTableRecord
100
AcDbLayerTableRecord
  2
AM_8
 70
     0
 62
     1
  6
Continuous
370
    25
390
F
1001
AcAecLayerStandard
1000

1000

  0
LAYER
  5
1180
102
{ACAD_XDICTIONARY
360
1181
102
}
330
2
100
AcDbSymbolTableRecord
100
AcDbLayerTableRecord
  2
7A
 70
     0
 62
     4
  6
GEN7A
370
    -3
390
F
  0
ENDTAB
  0
TABLE
  2
STYLE
  5
3
330
0
100
AcDbSymbolTable
 70
     4
  0
STYLE
  5
55
330
3
100
AcDbSymbolTableRecord
100
AcDbTextStyleTableRecord
  2
Standard
 70
     0
 40
0.0
 41
1.0
 50
0.0
 71
     0
 42
0.2
  3
TAHOMA.TTF
  4

1001
ACAD
1000
Tahoma
1071
      256
  0
STYLE
  5
95
330
3
100
AcDbSymbolTableRecord
100
AcDbTextStyleTableRecord
  2
Text poznámky (ISO)
 70
     0
 40
0.0
 41
1.0
 50
0.0
 71
     0
 42
0.2
  3
TAHOMA.TTF
  4

1001
ACAD
1000
Tahoma
1071
      256
  0
STYLE
  5
B58
330
3
100
AcDbSymbolTableRecord
100
AcDbTextStyleTableRecord
  2

 70
     1
 40
0.0
 41
1.0
 50
0.0
 71
     0
 42
0.2
  3
genltshp.shx
  4

  0
STYLE
  5
B6C
330
3
100
AcDbSymbolTableRecord
100
AcDbTextStyleTableRecord
  2
ACDINGDT
 70
     0
 40
0.0
 41
1.0
 50
0.0
 71
     0
 42
0.2
  3
amgdt.shx
  4

  0
ENDTAB
  0
TABLE
  2
VIEW
  5
6
330
0
100
AcDbSymbolTable
 70
     0
  0
ENDTAB
  0
TABLE
  2
UCS
  5
7
330
0
100
AcDbSymbolTable
 70
     0
  0
ENDTAB
  0
TABLE
  2
APPID
  5
9
330
0
100
AcDbSymbolTable
 70
    26
  0
APPID
  5
56
330
9
100
AcDbSymbolTableRecord
100
AcDbRegAppTableRecord
  2
ACAD
 70
     0
  0
APPID
  5
5E
330
9
100
AcDbSymbolTableRecord
100
AcDbRegAppTableRecord
  2
AcadAnnotative
 70
     0
  0
APPID
  5
20E
330
9
100
AcDbSymbolTableRecord
100
AcDbRegAppTableRecord
  2
AcadAnnoPO
 70
     0
  0
APPID
  5
AC6
330
9
100
AcDbSymbolTableRecord
100
AcDbRegAppTableRecord
  2
ACAD_MLEADERVER
 70
     0
  0
APPID
  5
AD8
330
9
100
AcDbSymbolTableRecord
100
AcDbRegAppTableRecord
  2
MCAD_NO_VIS
 70
     0
  0
APPID
  5
AD9
330
9
100
AcDbSymbolTableRecord
100
AcDbRegAppTableRecord
  2
ACAD_TEMP_GRAPHIC
 70
     0
  0
APPID
  5
B0B
330
9
100
AcDbSymbolTableRecord
100
AcDbRegAppTableRecord
  2
AD_DRAW
 70
     0
  0
APPID
  5
B0E
330
9
100
AcDbSymbolTableRecord
100
AcDbRegAppTableRecord
  2
ACATTRIBSERVICES
 70
     0
  0
APPID
  5
B2F
330
9
100
AcDbSymbolTableRecord
100
AcDbRegAppTableRecord
  2
DESIGNERASSEMBLIES
 70
     0
  0
APPID
  5
B35
330
9
100
AcDbSymbolTableRecord
100
AcDbRegAppTableRecord
  2
ACADM_DIM_EDIT
 70
     0
  0
APPID
  5
B36
330
9
100
AcDbSymbolTableRecord
100
AcDbRegAppTableRecord
  2
AMDT_DM_ADJ
 70
     0
  0
APPID
  5
CC5
330
9
100
AcDbSymbolTableRecord
100
AcDbRegAppTableRecord
  2
AcAecLayerStandard
 70
     0
  0
APPID
  5
CC7
330
9
100
AcDbSymbolTableRecord
100
AcDbRegAppTableRecord
  2
GENIUS_GENODEF_13
 70
     0
  0
APPID
  5
CC8
330
9
100
AcDbSymbolTableRecord
100
AcDbRegAppTableRecord
  2
GENIUS_GENOBJ-N-CEN_13
 70
     0
  0
APPID
  5
CC9
330
9
100
AcDbSymbolTableRecord
100
AcDbRegAppTableRecord
  2
GENIUS_GENCEN_19
 70
     0
  0
APPID
  5
CD5
330
9
100
AcDbSymbolTableRecord
100
AcDbRegAppTableRecord
  2
GENIUS_GENOBJ-N-HTC_13
 70
     0
  0
APPID
  5
CD6
330
9
100
AcDbSymbolTableRecord
100
AcDbRegAppTableRecord
  2
GENIUS_GENHATCH_13
 70
     0
  0
APPID
  5
DBA
330
9
100
AcDbSymbolTableRecord
100
AcDbRegAppTableRecord
  2
ACAD_DSTYLE_DIMINSPECT
 70
     0
  0
APPID
  5
DE0
330
9
100
AcDbSymbolTableRecord
100
AcDbRegAppTableRecord
  2
ACAD_EXEMPT_FROM_CAD_STANDARDS
 70
     0
  0
APPID
  5
F39
330
9
100
AcDbSymbolTableRecord
100
AcDbRegAppTableRecord
  2
ACAD_PSEXT
 70
     0
  0
APPID
  5
FBA
330
9
100
AcDbSymbolTableRecord
100
AcDbRegAppTableRecord
  2
ACAD_DSTYLE_DIMRADIAL_EXTENSION
 70
     0
  0
APPID
  5
FC8
330
9
100
AcDbSymbolTableRecord
100
AcDbRegAppTableRecord
  2
GENIUS_GENOBJ-N-FIL_13
 70
     0
  0
APPID
  5
118B
330
9
100
AcDbSymbolTableRecord
100
AcDbRegAppTableRecord
  2
ACAD_DSTYLE_DIMJOGGED_JOGANGLE_SYMBOL
 70
     0
  0
APPID
  5
1299
330
9
100
AcDbSymbolTableRecord
100
AcDbRegAppTableRecord
  2
ACAD_DSTYLE_DIM_LINETYPE
 70
     0
  0
APPID
  5
129A
330
9
100
AcDbSymbolTableRecord
100
AcDbRegAppTableRecord
  2
ACAD_DSTYLE_DIM_EXT1_LINETYPE
 70
     0
  0
APPID
  5
129B
330
9
100
AcDbSymbolTableRecord
100
AcDbRegAppTableRecord
  2
ACAD_DSTYLE_DIM_EXT2_LINETYPE
 70
     0
  0
ENDTAB
  0
TABLE
  2
DIMSTYLE
  5
A
330
0
100
AcDbSymbolTable
 70
    10
100
AcDbDimStyleTable
 71
     3
340
B4F
340
B0
340
58
  0
DIMSTYLE
105
58
330
A
100
AcDbSymbolTableRecord
100
AcDbDimStyleTableRecord
  2
Standard
 70
     0
340
55
  0
DIMSTYLE
105
B0
102
{ACAD_REACTORS
330
D4B
330
D3E
330
10CD
330
1093
330
10F5
102
}
330
A
100
AcDbSymbolTableRecord
100
AcDbDimStyleTableRecord
  2
Výchozí (ISO)
 70
     0
 40
2.0
 41
2.5
 42
0.0
 43
5.999999999999999
 44
1.0
 45
0.00000001
 46
10.0
 73
     0
 74
     0
 77
     1
 78
     8
 79
     2
140
3.5
143
0.03937
146
1.001485756465366
147
0.762
171
     3
172
     1
176
   256
177
   256
178
   256
179
     2
271
     2
272
     2
274
     3
278
    44
284
     8
340
95
371
    -1
372
    -1
  0
DIMSTYLE
105
B4F
102
{ACAD_REACTORS
330
B3E
102
}
330
A
100
AcDbSymbolTableRecord
100
AcDbDimStyleTableRecord
  2
AM_DIN
 70
     0
  4
"
 41
3.5
 42
1.0
 43
10.0
 44
1.0
 47
0.1
 48
0.1
 73
     0
 74
     0
 77
     1
 78
     8
 79
     2
140
3.5
141
0.0
143
0.0393701
146
0.71
147
1.5
172
     1
176
   256
177
   256
178
     2
271
     2
272
     3
274
     4
283
     0
284
     8
340
55
371
    -1
372
    -1
1001
ACAD_DSTYLE_DIMJOGGED_JOGANGLE_SYMBOL
1070
   384
1040
1.570796326794896
1001
ACAD_DSTYLE_DIM_LINETYPE
1070
   380
1005
5B
1001
ACAD_DSTYLE_DIM_EXT1_LINETYPE
1070
   381
1005
5B
1001
ACAD_DSTYLE_DIM_EXT2_LINETYPE
1070
   382
1005
5B
  0
DIMSTYLE
105
B5F
330
A
100
AcDbSymbolTableRecord
100
AcDbDimStyleTableRecord
  2
AM_DIN$3
 70
     0
  4
"
 41
3.5
 42
1.0
 43
10.0
 44
1.0
 47
0.1
 48
0.1
 73
     0
 77
     1
 78
     8
 79
     2
140
3.5
141
0.0
143
0.0393701
146
0.71
147
1.5
176
   256
177
   256
178
     2
271
     2
272
     3
274
     4
283
     0
284
     8
288
     1
289
     0
340
55
371
    -1
372
    -1
1001
ACAD_DSTYLE_DIMJOGGED_JOGANGLE_SYMBOL
1070
   384
1040
1.570796326794896
1001
ACAD_DSTYLE_DIM_LINETYPE
1070
   380
1005
5B
1001
ACAD_DSTYLE_DIM_EXT1_LINETYPE
1070
   381
1005
5B
1001
ACAD_DSTYLE_DIM_EXT2_LINETYPE
1070
   382
1005
5B
  0
DIMSTYLE
105
B60
330
A
100
AcDbSymbolTableRecord
100
AcDbDimStyleTableRecord
  2
AM_DIN$4
 70
     0
  4
"
 41
3.5
 42
1.0
 43
10.0
 44
1.0
 47
0.1
 48
0.1
 73
     0
 74
     0
 77
     1
 78
     8
 79
     2
140
3.5
141
0.0
143
0.0393701
146
0.71
147
1.5
172
     1
176
   256
177
   256
178
     2
271
     2
272
     3
274
     4
283
     0
284
     8
340
55
371
    -1
372
    -1
1001
ACAD_DSTYLE_DIMJOGGED_JOGANGLE_SYMBOL
1070
   384
1040
1.570796326794896
1001
ACAD_DSTYLE_DIM_LINETYPE
1070
   380
1005
5B
1001
ACAD_DSTYLE_DIM_EXT1_LINETYPE
1070
   381
1005
5B
1001
ACAD_DSTYLE_DIM_EXT2_LINETYPE
1070
   382
1005
5B
  0
DIMSTYLE
105
B61
330
A
100
AcDbSymbolTableRecord
100
AcDbDimStyleTableRecord
  2
AM_DIN$6
 70
     0
  4
"
 41
3.5
 42
1.0
 43
10.0
 44
1.0
 47
0.1
 48
0.1
 73
     0
 74
     0
 78
     8
 79
     2
140
3.5
141
0.0
143
0.0393701
146
0.71
147
1.5
172
     1
176
   256
177
   256
178
     2
271
     2
272
     3
274
     4
283
     0
284
     8
340
55
371
    -1
372
    -1
1001
ACAD_DSTYLE_DIMJOGGED_JOGANGLE_SYMBOL
1070
   384
1040
1.570796326794896
1001
ACAD_DSTYLE_DIM_LINETYPE
1070
   380
1005
5B
1001
ACAD_DSTYLE_DIM_EXT1_LINETYPE
1070
   381
1005
5B
1001
ACAD_DSTYLE_DIM_EXT2_LINETYPE
1070
   382
1005
5B
  0
DIMSTYLE
105
B62
330
A
100
AcDbSymbolTableRecord
100
AcDbDimStyleTableRecord
  2
AM_DIN$7
 70
     0
  4
"
 41
3.5
 42
1.0
 43
10.0
 44
1.0
 47
0.1
 48
0.1
 73
     0
 74
     0
 77
     1
 78
     8
 79
     2
140
3.5
141
0.0
143
0.0393701
146
0.71
147
1.5
172
     1
176
   256
177
   256
178
     2
271
     2
272
     3
274
     4
283
     0
284
     8
340
55
371
    -1
372
    -1
1001
ACAD_DSTYLE_DIMJOGGED_JOGANGLE_SYMBOL
1070
   384
1040
1.570796326794896
1001
ACAD_DSTYLE_DIM_LINETYPE
1070
   380
1005
5B
1001
ACAD_DSTYLE_DIM_EXT1_LINETYPE
1070
   381
1005
5B
1001
ACAD_DSTYLE_DIM_EXT2_LINETYPE
1070
   382
1005
5B
  0
DIMSTYLE
105
B63
330
A
100
AcDbSymbolTableRecord
100
AcDbDimStyleTableRecord
  2
AM_DIN$SF
 70
     0
  4
"
 41
3.5
 42
1.0
 43
10.0
 44
1.0
 47
0.1
 48
0.1
 73
     0
 74
     0
 75
     1
 76
     1
 77
     1
 78
     8
 79
     2
140
3.5
141
0.0
143
0.0393701
146
0.71
147
1.5
172
     1
176
   256
177
   256
178
     2
271
     2
272
     3
274
     4
283
     0
284
     8
340
55
371
    -1
372
    -1
1001
ACAD_DSTYLE_DIMJOGGED_JOGANGLE_SYMBOL
1070
   384
1040
1.570796326794896
1001
ACAD_DSTYLE_DIM_LINETYPE
1070
   380
1005
5B
1001
ACAD_DSTYLE_DIM_EXT1_LINETYPE
1070
   381
1005
5B
1001
ACAD_DSTYLE_DIM_EXT2_LINETYPE
1070
   382
1005
5B
  0
DIMSTYLE
105
B68
330
A
100
AcDbSymbolTableRecord
100
AcDbDimStyleTableRecord
  2
AM_DIN$SH
 70
     0
  4
"
 41
3.5
 42
1.0
 43
10.0
 44
1.0
 47
0.1
 48
0.1
 73
     0
 74
     0
 75
     1
 76
     1
 77
     1
 78
     8
 79
     2
140
3.5
141
0.0
143
0.0393701
144
2.0
146
0.71
147
1.5
172
     1
173
     1
176
   256
177
   256
178
     2
271
     2
272
     3
274
     4
283
     0
284
     8
340
55
343
B64
371
    -1
372
    -1
1001
ACAD_DSTYLE_DIMJOGGED_JOGANGLE_SYMBOL
1070
   384
1040
1.570796326794896
1001
ACAD_DSTYLE_DIM_LINETYPE
1070
   380
1005
5B
1001
ACAD_DSTYLE_DIM_EXT1_LINETYPE
1070
   381
1005
5B
1001
ACAD_DSTYLE_DIM_EXT2_LINETYPE
1070
   382
1005
5B
  0
DIMSTYLE
105
FD8
102
{ACAD_REACTORS
330
B3E
102
}
330
A
100
AcDbSymbolTableRecord
100
AcDbDimStyleTableRecord
  2
AM_DIN$0
 70
     0
  4
"
 41
3.5
 42
1.0
 43
10.0
 44
1.0
 47
0.1
 48
0.1
 73
     0
 74
     0
 77
     1
 78
     8
 79
     2
140
3.5
141
0.0
143
0.0393701
146
0.71
147
1.5
172
     1
176
   256
177
   256
178
     2
271
     2
272
     3
274
     4
283
     0
284
     8
340
55
371
    -1
372
    -1
1001
ACAD_DSTYLE_DIMJOGGED_JOGANGLE_SYMBOL
1070
   384
1040
1.570796326794896
1001
ACAD_DSTYLE_DIM_LINETYPE
1070
   380
1005
5B
1001
ACAD_DSTYLE_DIM_EXT1_LINETYPE
1070
   381
1005
5B
1001
ACAD_DSTYLE_DIM_EXT2_LINETYPE
1070
   382
1005
5B
  0
ENDTAB
  0
TABLE
  2
BLOCK_RECORD
  5
1
330
0
100
AcDbSymbolTable
 70
     8
  0
BLOCK_RECORD
  5
6C
102
{ACAD_XDICTIONARY
360
CD2
102
}
330
1
100
AcDbSymbolTableRecord
100
AcDbBlockTableRecord
  2
*Model_Space
340
6F
  0
BLOCK_RECORD
  5
68
330
1
100
AcDbSymbolTableRecord
100
AcDbBlockTableRecord
  2
*Paper_Space
340
6B
  0
BLOCK_RECORD
  5
70
330
1
100
AcDbSymbolTableRecord
100
AcDbBlockTableRecord
  2
*Paper_Space0
340
73
  0
BLOCK_RECORD
  5
B64
330
1
100
AcDbSymbolTableRecord
100
AcDbBlockTableRecord
  2
GENAXEH
340
0
  0
BLOCK_RECORD
  5
D3F
330
1
100
AcDbSymbolTableRecord
100
AcDbBlockTableRecord
  2
*D3
340
0
  0
BLOCK_RECORD
  5
D4C
330
1
100
AcDbSymbolTableRecord
100
AcDbBlockTableRecord
  2
*D4
340
0
  0
BLOCK_RECORD
  5
1094
330
1
100
AcDbSymbolTableRecord
100
AcDbBlockTableRecord
  2
*D5
340
0
  0
BLOCK_RECORD
  5
10CE
330
1
100
AcDbSymbolTableRecord
100
AcDbBlockTableRecord
  2
*D6
340
0
  0
BLOCK_RECORD
  5
10F6
330
1
100
AcDbSymbolTableRecord
100
AcDbBlockTableRecord
  2
*D7
340
0
  0
ENDTAB
  0
ENDSEC
  0
SECTION
  2
BLOCKS
  0
BLOCK
  5
6D
330
6C
100
AcDbEntity
  8
0
100
AcDbBlockBegin
  2
*Model_Space
 70
     0
 10
0.0
 20
0.0
 30
0.0
  3
*Model_Space
  1

  0
ENDBLK
  5
6E
330
6C
100
AcDbEntity
  8
0
100
AcDbBlockEnd
  0
BLOCK
  5
69
330
68
100
AcDbEntity
 67
     1
  8
0
100
AcDbBlockBegin
  2
*Paper_Space
 70
     0
 10
0.0
 20
0.0
 30
0.0
  3
*Paper_Space
  1

  0
ENDBLK
  5
6A
330
68
100
AcDbEntity
 67
     1
  8
0
100
AcDbBlockEnd
  0
BLOCK
  5
71
330
70
100
AcDbEntity
 67
     1
  8
0
100
AcDbBlockBegin
  2
*Paper_Space0
 70
     0
 10
0.0
 20
0.0
 30
0.0
  3
*Paper_Space0
  1

  0
ENDBLK
  5
72
330
70
100
AcDbEntity
 67
     1
  8
0
100
AcDbBlockEnd
  0
BLOCK
  5
B66
330
B64
100
AcDbEntity
  8
0
100
AcDbBlockBegin
  2
GENAXEH
 70
     0
 10
0.0
 20
0.0
 30
0.0
  3
GENAXEH
  1

  0
LINE
  5
B65
330
B64
100
AcDbEntity
  8
0
100
AcDbLine
 10
-1.0
 20
0.0
 30
0.0
 11
1.0
 21
0.0
 31
0.0
  0
ENDBLK
  5
B67
330
B64
100
AcDbEntity
  8
0
100
AcDbBlockEnd
  0
BLOCK
  5
D40
330
D3F
100
AcDbEntity
  8
0
100
AcDbBlockBegin
  2
*D3
 70
     1
 10
0.0
 20
0.0
 30
0.0
  3
*D3
  1

  0
LINE
  5
DC4
330
D3F
100
AcDbEntity
  8
Kóta (ISO)
 62
     3
100
AcDbLine
 10
169.7963763409045
 20
702.3504917531303
 30
0.0
 11
169.7963763409045
 21
771.6790917478208
 31
0.0
  0
LINE
  5
DC5
330
D3F
100
AcDbEntity
  8
Kóta (ISO)
 62
     3
100
AcDbLine
 10
409.7963763409043
 20
702.3504917531303
 30
0.0
 11
409.7963763409043
 21
771.6790917478208
 31
0.0
  0
LINE
  5
DC6
330
D3F
100
AcDbEntity
  8
Kóta (ISO)
 62
     3
100
AcDbLine
 10
174.7963763409045
 20
769.6790917478208
 30
0.0
 11
404.7963763409043
 21
769.6790917478208
 31
0.0
  0
SOLID
  5
DC7
330
D3F
100
AcDbEntity
  8
Kóta (ISO)
 62
     3
100
AcDbTrace
 10
174.7963763409045
 20
770.5124250811542
 30
0.0
 11
174.7963763409045
 21
768.8457584144875
 31
0.0
 12
169.7963763409045
 22
769.6790917478208
 32
0.0
 13
169.7963763409045
 23
769.6790917478208
 33
0.0
  0
SOLID
  5
DC8
330
D3F
100
AcDbEntity
  8
Kóta (ISO)
 62
     3
100
AcDbTrace
 10
404.7963763409043
 20
770.5124250811542
 30
0.0
 11
404.7963763409043
 21
768.8457584144875
 31
0.0
 12
409.7963763409043
 22
769.6790917478208
 32
0.0
 13
409.7963763409043
 23
769.6790917478208
 33
0.0
  0
MTEXT
  5
DC9
330
D3F
100
AcDbEntity
  8
Kóta (ISO)
 62
     2
100
AcDbMText
 10
290.2399612371919
 20
775.1920104852285
 30
0.0
 40
7.0
 41
0.0
 71
     5
 72
     1
  1
\A1;%%c240
  7
Text poznámky (ISO)
 73
     1
 44
1.0
  0
POINT
  5
DCA
330
D3F
100
AcDbEntity
  8
Defpoints
 62
     0
100
AcDbPoint
 10
169.7963763409045
 20
702.3504917531303
 30
0.0
  0
POINT
  5
DCB
330
D3F
100
AcDbEntity
  8
Defpoints
 62
     0
100
AcDbPoint
 10
409.7963763409043
 20
702.3504917531303
 30
0.0
  0
POINT
  5
DCC
330
D3F
100
AcDbEntity
  8
Defpoints
 62
     0
100
AcDbPoint
 10
409.7963763409043
 20
769.6790917478208
 30
0.0
  0
ENDBLK
  5
D41
330
D3F
100
AcDbEntity
  8
0
100
AcDbBlockEnd
  0
BLOCK
  5
D4D
330
D4C
100
AcDbEntity
  8
0
100
AcDbBlockBegin
  2
*D4
 70
     1
 10
0.0
 20
0.0
 30
0.0
  3
*D4
  1

  0
LINE
  5
DD6
330
D4C
100
AcDbEntity
  8
Kóta (ISO)
 62
     3
100
AcDbLine
 10
182.2963763409044
 20
698.8504917531302
 30
0.0
 11
182.2963763409044
 21
742.0989706563159
 31
0.0
  0
LINE
  5
DD7
330
D4C
100
AcDbEntity
  8
Kóta (ISO)
 62
     3
100
AcDbLine
 10
397.2963763409045
 20
698.8504917531302
 30
0.0
 11
397.2963763409045
 21
742.0989706563159
 31
0.0
  0
LINE
  5
DD8
330
D4C
100
AcDbEntity
  8
Kóta (ISO)
 62
     3
100
AcDbLine
 10
187.2963763409044
 20
740.0989706563159
 30
0.0
 11
392.2963763409045
 21
740.0989706563159
 31
0.0
  0
SOLID
  5
DD9
330
D4C
100
AcDbEntity
  8
Kóta (ISO)
 62
     3
100
AcDbTrace
 10
187.2963763409044
 20
740.9323039896492
 30
0.0
 11
187.2963763409044
 21
739.2656373229826
 31
0.0
 12
182.2963763409044
 22
740.0989706563159
 32
0.0
 13
182.2963763409044
 23
740.0989706563159
 33
0.0
  0
SOLID
  5
DDA
330
D4C
100
AcDbEntity
  8
Kóta (ISO)
 62
     3
100
AcDbTrace
 10
392.2963763409045
 20
740.9323039896492
 30
0.0
 11
392.2963763409045
 21
739.2656373229826
 31
0.0
 12
397.2963763409045
 22
740.0989706563159
 32
0.0
 13
397.2963763409045
 23
740.0989706563159
 33
0.0
  0
MTEXT
  5
DDB
330
D4C
100
AcDbEntity
  8
Kóta (ISO)
 62
     2
100
AcDbMText
 10
291.9948342708281
 20
745.6118893937236
 30
0.0
 40
7.0
 41
0.0
 71
     5
 72
     1
  1
\A1;%%c215
  7
Text poznámky (ISO)
 73
     1
 44
1.0
  0
POINT
  5
DDC
330
D4C
100
AcDbEntity
  8
Defpoints
 62
     0
100
AcDbPoint
 10
182.2963763409044
 20
698.8504917531302
 30
0.0
  0
POINT
  5
DDD
330
D4C
100
AcDbEntity
  8
Defpoints
 62
     0
100
AcDbPoint
 10
397.2963763409045
 20
698.8504917531302
 30
0.0
  0
POINT
  5
DDE
330
D4C
100
AcDbEntity
  8
Defpoints
 62
     0
100
AcDbPoint
 10
397.2963763409045
 20
740.0989706563159
 30
0.0
  0
ENDBLK
  5
D4E
330
D4C
100
AcDbEntity
  8
0
100
AcDbBlockEnd
  0
BLOCK
  5
1095
330
1094
100
AcDbEntity
  8
0
100
AcDbBlockBegin
  2
*D5
 70
     1
 10
0.0
 20
0.0
 30
0.0
  3
*D5
  1

  0
LINE
  5
124E
330
1094
100
AcDbEntity
  8
Kóta (ISO)
 62
     3
100
AcDbLine
 10
169.7963763409045
 20
702.3504917531302
 30
0.0
 11
137.0443649742474
 21
702.3504917531302
 31
0.0
  0
LINE
  5
124F
330
1094
100
AcDbEntity
  8
Kóta (ISO)
 62
     3
100
AcDbLine
 10
189.774705410955
 20
660.8462993883763
 30
0.0
 11
137.0443649742474
 21
660.8462993883763
 31
0.0
  0
LINE
  5
1250
330
1094
100
AcDbEntity
  8
Kóta (ISO)
 62
     3
100
AcDbLine
 10
139.0443649742474
 20
697.3504917531301
 30
0.0
 11
139.0443649742474
 21
665.8462993883763
 31
0.0
  0
SOLID
  5
1251
330
1094
100
AcDbEntity
  8
Kóta (ISO)
 62
     3
100
AcDbTrace
 10
138.211031640914
 20
697.3504917531301
 30
0.0
 11
139.8776983075807
 21
697.3504917531301
 31
0.0
 12
139.0443649742474
 22
702.3504917531302
 32
0.0
 13
139.0443649742474
 23
702.3504917531302
 33
0.0
  0
SOLID
  5
1252
330
1094
100
AcDbEntity
  8
Kóta (ISO)
 62
     3
100
AcDbTrace
 10
138.211031640914
 20
665.8462993883763
 30
0.0
 11
139.8776983075807
 21
665.8462993883763
 31
0.0
 12
139.0443649742474
 22
660.8462993883763
 32
0.0
 13
139.0443649742474
 23
660.8462993883763
 33
0.0
  0
MTEXT
  5
1253
330
1094
100
AcDbEntity
  8
Kóta (ISO)
 62
     2
100
AcDbMText
 10
133.9474972778067
 20
681.5983955707532
 30
0.0
 40
7.0
 41
0.0
 71
     5
 72
     1
  1
\A1;42
  7
Text poznámky (ISO)
 11
0.0000000000000001
 21
1.0
 31
0.0
 73
     1
 44
1.0
  0
POINT
  5
1254
330
1094
100
AcDbEntity
  8
Defpoints
 62
     0
100
AcDbPoint
 10
169.7963763409045
 20
702.3504917531302
 30
0.0
  0
POINT
  5
1255
330
1094
100
AcDbEntity
  8
Defpoints
 62
     0
100
AcDbPoint
 10
189.774705410955
 20
660.8462993883763
 30
0.0
  0
POINT
  5
1256
330
1094
100
AcDbEntity
  8
Defpoints
 62
     0
100
AcDbPoint
 10
139.0443649742474
 20
660.8462993883763
 30
0.0
  0
ENDBLK
  5
1096
330
1094
100
AcDbEntity
  8
0
100
AcDbBlockEnd
  0
BLOCK
  5
10CF
330
10CE
100
AcDbEntity
  8
0
100
AcDbBlockBegin
  2
*D6
 70
     1
 10
0.0
 20
0.0
 30
0.0
  3
*D6
  1

  0
LINE
  5
1257
330
10CE
100
AcDbEntity
  8
Kóta (ISO)
 62
     3
100
AcDbLine
 10
169.7963763409045
 20
702.3504917531302
 30
0.0
 11
110.9146658705349
 21
702.3504917531302
 31
0.0
  0
LINE
  5
1258
330
10CE
100
AcDbEntity
  8
Kóta (ISO)
 62
     3
100
AcDbLine
 10
189.7963763409045
 20
552.3504917531303
 30
0.0
 11
110.9146658705349
 21
552.3504917531303
 31
0.0
  0
LINE
  5
1259
330
10CE
100
AcDbEntity
  8
Kóta (ISO)
 62
     3
100
AcDbLine
 10
112.9146658705349
 20
697.3504917531301
 30
0.0
 11
112.9146658705349
 21
557.3504917531303
 31
0.0
  0
SOLID
  5
125A
330
10CE
100
AcDbEntity
  8
Kóta (ISO)
 62
     3
100
AcDbTrace
 10
112.0813325372016
 20
697.3504917531301
 30
0.0
 11
113.7479992038682
 21
697.3504917531301
 31
0.0
 12
112.9146658705349
 22
702.3504917531302
 32
0.0
 13
112.9146658705349
 23
702.3504917531302
 33
0.0
  0
SOLID
  5
125B
330
10CE
100
AcDbEntity
  8
Kóta (ISO)
 62
     3
100
AcDbTrace
 10
112.0813325372016
 20
557.3504917531303
 30
0.0
 11
113.7479992038682
 21
557.3504917531303
 31
0.0
 12
112.9146658705349
 22
552.3504917531303
 32
0.0
 13
112.9146658705349
 23
552.3504917531303
 33
0.0
  0
MTEXT
  5
125C
330
10CE
100
AcDbEntity
  8
Kóta (ISO)
 62
     2
100
AcDbMText
 10
107.7472810485066
 20
627.3504917531302
 30
0.0
 40
7.0
 41
0.0
 71
     5
 72
     1
  1
\A1;150
  7
Text poznámky (ISO)
 11
0.0000000000000001
 21
1.0
 31
0.0
 73
     1
 44
1.0
  0
POINT
  5
125D
330
10CE
100
AcDbEntity
  8
Defpoints
 62
     0
100
AcDbPoint
 10
169.7963763409045
 20
702.3504917531302
 30
0.0
  0
POINT
  5
125E
330
10CE
100
AcDbEntity
  8
Defpoints
 62
     0
100
AcDbPoint
 10
189.7963763409045
 20
552.3504917531303
 30
0.0
  0
POINT
  5
125F
330
10CE
100
AcDbEntity
  8
Defpoints
 62
     0
100
AcDbPoint
 10
112.9146658705349
 20
552.3504917531303
 30
0.0
  0
ENDBLK
  5
10D0
330
10CE
100
AcDbEntity
  8
0
100
AcDbBlockEnd
  0
BLOCK
  5
10F7
330
10F6
100
AcDbEntity
  8
0
100
AcDbBlockBegin
  2
*D7
 70
     1
 10
0.0
 20
0.0
 30
0.0
  3
*D7
  1

  0
LINE
  5
114A
330
10F6
100
AcDbEntity
  8
Kóta (ISO)
 62
     3
100
AcDbLine
 10
389.7963763409045
 20
552.3504917531303
 30
0.0
 11
389.7963763409045
 21
522.5614421111508
 31
0.0
  0
LINE
  5
114B
330
10F6
100
AcDbEntity
  8
Kóta (ISO)
 62
     3
100
AcDbLine
 10
189.7963763409045
 20
552.3504917531303
 30
0.0
 11
189.7963763409045
 21
522.5614421111508
 31
0.0
  0
LINE
  5
114C
330
10F6
100
AcDbEntity
  8
Kóta (ISO)
 62
     3
100
AcDbLine
 10
384.7963763409045
 20
524.5614421111508
 30
0.0
 11
194.7963763409045
 21
524.5614421111508
 31
0.0
  0
SOLID
  5
114D
330
10F6
100
AcDbEntity
  8
Kóta (ISO)
 62
     3
100
AcDbTrace
 10
384.7963763409045
 20
525.3947754444842
 30
0.0
 11
384.7963763409045
 21
523.7281087778175
 31
0.0
 12
389.7963763409045
 22
524.5614421111508
 32
0.0
 13
389.7963763409045
 23
524.5614421111508
 33
0.0
  0
SOLID
  5
114E
330
10F6
100
AcDbEntity
  8
Kóta (ISO)
 62
     3
100
AcDbTrace
 10
194.7963763409045
 20
525.3947754444842
 30
0.0
 11
194.7963763409045
 21
523.7281087778175
 31
0.0
 12
189.7963763409045
 22
524.5614421111508
 32
0.0
 13
189.7963763409045
 23
524.5614421111508
 33
0.0
  0
MTEXT
  5
114F
330
10F6
100
AcDbEntity
  8
Kóta (ISO)
 62
     2
100
AcDbMText
 10
289.7963763409045
 20
530.0743608485585
 30
0.0
 40
7.0
 41
0.0
 71
     5
 72
     1
  1
\A1;%%c 200
  7
Text poznámky (ISO)
 73
     1
 44
1.0
  0
POINT
  5
1150
330
10F6
100
AcDbEntity
  8
Defpoints
 62
     0
100
AcDbPoint
 10
389.7963763409045
 20
552.3504917531303
 30
0.0
  0
POINT
  5
1151
330
10F6
100
AcDbEntity
  8
Defpoints
 62
     0
100
AcDbPoint
 10
189.7963763409045
 20
552.3504917531303
 30
0.0
  0
POINT
  5
1152
330
10F6
100
AcDbEntity
  8
Defpoints
 62
     0
100
AcDbPoint
 10
189.7963763409045
 20
524.5614421111508
 30
0.0
  0
ENDBLK
  5
10F8
330
10F6
100
AcDbEntity
  8
0
100
AcDbBlockEnd
  0
ENDSEC
  0
SECTION
  2
ENTITIES
  0
LINE
  5
224
330
6C
100
AcDbEntity
  8
Viditelná (ISO)
100
AcDbLine
 10
295.7963763409044
 20
702.3504917531302
 30
0.0
 11
283.7963763409046
 21
702.3504917531302
 31
0.0
  0
LINE
  5
225
330
6C
100
AcDbEntity
  8
Viditelná (ISO)
100
AcDbLine
 10
378.7856983789769
 20
702.3504917531302
 30
0.0
 11
371.43836202092
 21
702.3504917531302
 31
0.0
  0
LINE
  5
226
330
6C
100
AcDbEntity
  8
Viditelná (ISO)
 62
     7
100
AcDbLine
 10
409.7963763409043
 20
700.8504917531301
 30
0.0
 11
405.2963763409043
 21
700.8504917531301
 31
0.0
  0
LINE
  5
227
330
6C
100
AcDbEntity
  8
Viditelná (ISO)
100
AcDbLine
 10
169.7963763409045
 20
700.8504917531301
 30
0.0
 11
169.7963763409045
 21
702.3504917531302
 31
0.0
  0
LINE
  5
228
330
6C
100
AcDbEntity
  8
Viditelná (ISO)
100
AcDbLine
 10
409.7963763409043
 20
700.8504917531301
 30
0.0
 11
409.7963763409043
 21
702.3504917531302
 31
0.0
  0
LINE
  5
232
330
6C
100
AcDbEntity
  8
Viditelná (ISO)
 62
     7
100
AcDbLine
 10
180.7963763409044
 20
691.8853778674534
 30
0.0
 11
180.7963763409043
 21
694.8504917531302
 31
0.0
  0
LINE
  5
27D
330
6C
100
AcDbEntity
  8
Skrytá (ISO)
 62
    30
100
AcDbLine
 10
402.2963763409043
 20
720.3504917531302
 30
0.0
 11
409.2963763409043
 21
720.3504917531302
 31
0.0
  0
LINE
  5
27E
330
6C
100
AcDbEntity
  8
Skrytá (ISO)
 62
    30
100
AcDbLine
 10
409.7963763409043
 20
719.8504917531303
 30
0.0
 11
401.7963763409045
 21
719.8504917531303
 31
0.0
  0
LINE
  5
27F
330
6C
100
AcDbEntity
  8
Skrytá (ISO)
 62
    30
100
AcDbLine
 10
409.2963763409043
 20
720.3504917531302
 30
0.0
 11
409.7963763409043
 21
719.8504917531302
 31
0.0
  0
LINE
  5
280
330
6C
100
AcDbEntity
  8
Skrytá (ISO)
 62
    30
100
AcDbLine
 10
402.2963763409043
 20
720.3504917531302
 30
0.0
 11
401.7963763409045
 21
719.8504917531302
 31
0.0
  0
LINE
  5
281
330
6C
100
AcDbEntity
  8
Skrytá (ISO)
 62
     3
100
AcDbLine
 10
409.7963763409043
 20
719.8504917531303
 30
0.0
 11
409.7963763409043
 21
708.3504917531302
 31
0.0
  0
LINE
  5
282
330
6C
100
AcDbEntity
  8
Skrytá (ISO)
 62
     7
100
AcDbLine
 10
409.7963763409043
 20
703.0903135944078
 30
0.0
 11
409.7963763409043
 21
702.3504917531302
 31
0.0
  0
LINE
  5
283
330
6C
100
AcDbEntity
  8
Skrytá (ISO)
 62
    30
100
AcDbLine
 10
401.7963763409045
 20
719.8504917531302
 30
0.0
 11
401.7963763409045
 21
708.3504917531302
 31
0.0
  0
LINE
  5
284
330
6C
100
AcDbEntity
  8
Viditelná (ISO)
 62
     7
100
AcDbLine
 10
409.7963763409043
 20
708.3504917531302
 30
0.0
 11
409.7963763409043
 21
703.0903135944078
 31
0.0
  0
LINE
  5
285
330
6C
100
AcDbEntity
  8
Viditelná (ISO)
100
AcDbLine
 10
401.7963763409045
 20
708.3504917531302
 30
0.0
 11
401.7963763409045
 21
704.9768257843898
 31
0.0
  0
LINE
  5
286
330
6C
100
AcDbEntity
  8
Skrytá (ISO)
 62
    30
100
AcDbLine
 10
412.7963763409043
 20
729.3504917531302
 30
0.0
 11
398.7963763409045
 21
729.3504917531302
 31
0.0
  0
LINE
  5
287
330
6C
100
AcDbEntity
  8
Skrytá (ISO)
 62
     7
100
AcDbLine
 10
414.2963763409045
 20
728.8504917531302
 30
0.0
 11
397.2963763409045
 21
728.8504917531302
 31
0.0
  0
LINE
  5
288
330
6C
100
AcDbEntity
  8
Skrytá (ISO)
 62
     7
100
AcDbLine
 10
413.2963763409044
 20
730.8504917531301
 30
0.0
 11
398.2963763409046
 21
730.8504917531301
 31
0.0
  0
LINE
  5
289
330
6C
100
AcDbEntity
  8
Skrytá (ISO)
 62
    30
100
AcDbLine
 10
398.7963763409045
 20
710.8504917531302
 30
0.0
 11
398.7963763409045
 21
729.3504917531302
 31
0.0
  0
LINE
  5
28A
330
6C
100
AcDbEntity
  8
Skrytá (ISO)
 62
    30
100
AcDbLine
 10
412.7963763409043
 20
710.8504917531302
 30
0.0
 11
412.7963763409043
 21
729.3504917531302
 31
0.0
  0
LINE
  5
28B
330
6C
100
AcDbEntity
  8
Skrytá (ISO)
 62
     7
100
AcDbLine
 10
397.2963763409046
 20
723.5517637121095
 30
0.0
 11
397.2963763409046
 21
728.8504917531302
 31
0.0
  0
LINE
  5
28C
330
6C
100
AcDbEntity
  8
Skrytá (ISO)
 62
     7
100
AcDbLine
 10
414.2963763409045
 20
723.5517637121095
 30
0.0
 11
414.2963763409045
 21
728.8504917531302
 31
0.0
  0
LINE
  5
28D
330
6C
100
AcDbEntity
  8
Skrytá (ISO)
 62
     7
100
AcDbLine
 10
413.2963763409044
 20
730.8504917531301
 30
0.0
 11
414.2963763409045
 21
728.8504917531302
 31
0.0
  0
LINE
  5
28E
330
6C
100
AcDbEntity
  8
Skrytá (ISO)
 62
     7
100
AcDbLine
 10
398.2963763409046
 20
730.8504917531301
 30
0.0
 11
397.2963763409045
 21
728.8504917531302
 31
0.0
  0
LINE
  5
28F
330
6C
100
AcDbEntity
  8
Viditelná (ISO)
100
AcDbLine
 10
414.7963763409045
 20
710.8504917531302
 30
0.0
 11
396.7963763409045
 21
710.8504917531302
 31
0.0
  0
LINE
  5
290
330
6C
100
AcDbEntity
  8
Viditelná (ISO)
100
AcDbLine
 10
414.2963763409045
 20
711.8504917531302
 30
0.0
 11
397.2963763409046
 21
711.8504917531302
 31
0.0
  0
LINE
  5
291
330
6C
100
AcDbEntity
  8
Viditelná (ISO)
100
AcDbLine
 10
414.2963763409045
 20
711.8504917531302
 30
0.0
 11
414.7963763409045
 21
710.8504917531302
 31
0.0
  0
LINE
  5
292
330
6C
100
AcDbEntity
  8
Viditelná (ISO)
100
AcDbLine
 10
397.2963763409046
 20
711.8504917531302
 30
0.0
 11
396.7963763409045
 21
710.8504917531302
 31
0.0
  0
LINE
  5
293
330
6C
100
AcDbEntity
  8
Viditelná (ISO)
100
AcDbLine
 10
397.2963763409046
 20
711.8504917531302
 30
0.0
 11
397.2963763409046
 21
723.5517637121095
 31
0.0
  0
LINE
  5
294
330
6C
100
AcDbEntity
  8
Viditelná (ISO)
 62
     7
100
AcDbLine
 10
414.2963763409045
 20
711.8504917531302
 30
0.0
 11
414.2963763409045
 21
723.5517637121095
 31
0.0
  0
LINE
  5
2BB
330
6C
100
AcDbEntity
  8
Viditelná (ISO)
100
AcDbLine
 10
379.9236433951583
 20
702.3504917531303
 30
0.0
 11
378.7856983789768
 21
702.3504917531303
 31
0.0
  0
LINE
  5
2CB
330
6C
100
AcDbEntity
  8
Viditelná (ISO)
100
AcDbLine
 10
174.7963763409044
 20
702.3504917531303
 30
0.0
 11
169.7963763409045
 21
702.3504917531303
 31
0.0
  0
LINE
  5
2D3
330
6C
100
AcDbEntity
  8
Neviditelná tenká (ISO)
 62
     7
100
AcDbLine
 10
401.7963763409041
 20
702.3504917531303
 30
0.0
 11
401.7963763409041
 21
704.9768257843898
 31
0.0
  0
LINE
  5
318
330
6C
100
AcDbEntity
  8
Viditelná (ISO)
100
AcDbLine
 10
174.7963763409044
 20
702.3504917531303
 30
0.0
 11
283.7963763409046
 21
702.3504917531303
 31
0.0
  0
LINE
  5
31A
330
6C
100
AcDbEntity
  8
Viditelná (ISO)
100
AcDbLine
 10
295.7963763409046
 20
702.3504917531303
 30
0.0
 11
371.4383620209199
 21
702.3504917531303
 31
0.0
  0
LINE
  5
31C
330
6C
100
AcDbEntity
  8
Viditelná (ISO)
100
AcDbLine
 10
379.9236433951583
 20
702.3504917531303
 30
0.0
 11
409.7963763409043
 21
702.3504917531302
 31
0.0
  0
LINE
  5
3B5
330
6C
100
AcDbEntity
  8
Skrytá (ISO)
 62
    30
100
AcDbLine
 10
409.1198763409043
 20
708.7411167531302
 30
0.0
 11
402.4728763409044
 21
708.7411167531302
 31
0.0
  0
LINE
  5
3B6
330
6C
100
AcDbEntity
  8
Skrytá (ISO)
 62
    30
100
AcDbLine
 10
409.1198763409043
 20
708.7411167531302
 30
0.0
 11
409.7964586876109
 21
708.3504917531302
 31
0.0
  0
LINE
  5
3B7
330
6C
100
AcDbEntity
  8
Skrytá (ISO)
 62
    30
100
AcDbLine
 10
402.4728763409044
 20
708.7411167531302
 30
0.0
 11
401.7962939941979
 21
708.3504917531302
 31
0.0
  0
LINE
  5
3B8
330
6C
100
AcDbEntity
  8
Skrytá (ISO)
 62
    30
100
AcDbLine
 10
402.4728763409044
 20
714.4598667531303
 30
0.0
 11
409.1198763409043
 21
714.4598667531303
 31
0.0
  0
LINE
  5
3B9
330
6C
100
AcDbEntity
  8
Skrytá (ISO)
 62
    30
100
AcDbLine
 10
402.4728763409044
 20
714.4598667531303
 30
0.0
 11
401.7962939941979
 21
714.8504917531303
 31
0.0
  0
LINE
  5
3BA
330
6C
100
AcDbEntity
  8
Skrytá (ISO)
 62
    30
100
AcDbLine
 10
409.1198763409043
 20
714.4598667531303
 30
0.0
 11
409.7964586876109
 21
714.8504917531303
 31
0.0
  0
LINE
  5
3BB
330
6C
100
AcDbEntity
  8
Viditelná (ISO)
100
AcDbLine
 10
400.1463763409043
 20
708.3504917531302
 30
0.0
 11
411.4463763409044
 21
708.3504917531302
 31
0.0
  0
SPLINE
  5
3BC
330
6C
100
AcDbEntity
  8
Viditelná (ISO)
100
AcDbSpline
210
0.0
220
0.0
230
1.0
 70
    28
 71
     2
 72
     6
 73
     3
 74
     0
 42
0.0000000001
 43
0.0000000001
 40
0.0
 40
0.0
 40
0.0
 40
0.3797417448753245
 40
0.3797417448753245
 40
0.3797417448753245
 10
412.2963763409043
 20
709.4217960655421
 30
0.0
 41
1.0
 10
412.2963763409043
 20
708.8412394819413
 30
0.0
 41
1.077350269189625
 10
412.2963763409043
 20
708.8412394819413
 30
0.0
 41
1.077350269189625
  0
SPLINE
  5
3BD
330
6C
100
AcDbEntity
  8
Viditelná (ISO)
100
AcDbSpline
210
0.0
220
0.0
230
1.0
 70
    12
 71
     2
 72
     6
 73
     3
 74
     0
 42
0.0000000001
 43
0.0000000001
 40
0.0
 40
0.0
 40
0.0
 40
0.7594834897506475
 40
0.7594834897506475
 40
0.7594834897506475
 10
405.7963763409043
 20
709.4217960655421
 30
0.0
 41
1.0
 10
409.0463763409045
 20
708.3384627322089
 30
0.0
 41
1.154700538379251
 10
412.2963763409043
 20
709.4217960655421
 30
0.0
 41
1.0
  0
SPLINE
  5
3BE
330
6C
100
AcDbEntity
  8
Viditelná (ISO)
100
AcDbSpline
210
0.0
220
0.0
230
1.0
 70
    12
 71
     2
 72
     6
 73
     3
 74
     0
 42
0.0000000001
 43
0.0000000001
 40
0.0
 40
0.0
 40
0.0
 40
0.7594834897506445
 40
0.7594834897506445
 40
0.7594834897506445
 10
399.2963763409045
 20
709.4217960655421
 30
0.0
 41
1.0
 10
402.5463763409043
 20
708.3384627322089
 30
0.0
 41
1.154700538379253
 10
405.7963763409043
 20
709.4217960655421
 30
0.0
 41
1.0
  0
SPLINE
  5
3BF
330
6C
100
AcDbEntity
  8
Viditelná (ISO)
100
AcDbSpline
210
0.0
220
0.0
230
1.0
 70
    28
 71
     2
 72
     6
 73
     3
 74
     0
 42
0.0000000001
 43
0.0000000001
 40
0.3797417448753199
 40
0.3797417448753199
 40
0.3797417448753199
 40
0.7594834897506444
 40
0.7594834897506444
 40
0.7594834897506444
 10
399.2963763409045
 20
708.8412394819413
 30
0.0
 41
1.077350269189623
 10
399.2963763409045
 20
708.8412394819413
 30
0.0
 41
1.077350269189624
 10
399.2963763409045
 20
709.4217960655421
 30
0.0
 41
1.0
  0
LINE
  5
3C0
330
6C
100
AcDbEntity
  8
Viditelná (ISO)
100
AcDbLine
 10
400.1463763409043
 20
708.3504917531302
 30
0.0
 11
399.2963763409045
 21
708.8412394819413
 31
0.0
  0
LINE
  5
3C1
330
6C
100
AcDbEntity
  8
Viditelná (ISO)
100
AcDbLine
 10
411.4463763409044
 20
708.3504917531302
 30
0.0
 11
412.2963763409043
 21
708.8412394819413
 31
0.0
  0
LINE
  5
3C2
330
6C
100
AcDbEntity
  8
Skrytá (ISO)
 62
    30
100
AcDbLine
 10
411.4463763409044
 20
714.8504917531303
 30
0.0
 11
400.1463763409043
 21
714.8504917531303
 31
0.0
  0
SPLINE
  5
3C3
330
6C
100
AcDbEntity
  8
Skrytá (ISO)
 62
    30
100
AcDbSpline
210
0.0
220
0.0
230
1.0
 70
    12
 71
     2
 72
     6
 73
     3
 74
     0
 42
0.0000000001
 43
0.0000000001
 40
0.0
 40
0.0
 40
0.0
 40
0.7594834897506468
 40
0.7594834897506468
 40
0.7594834897506468
 10
412.2963763409043
 20
713.7791874407183
 30
0.0
 41
1.0
 10
409.0463763409045
 20
714.8625207740519
 30
0.0
 41
1.15470053837925
 10
405.7963763409043
 20
713.7791874407183
 30
0.0
 41
1.0
  0
SPLINE
  5
3C4
330
6C
100
AcDbEntity
  8
Skrytá (ISO)
 62
    30
100
AcDbSpline
210
0.0
220
0.0
230
1.0
 70
    28
 71
     2
 72
     6
 73
     3
 74
     0
 42
0.0000000001
 43
0.0000000001
 40
0.3797417448753238
 40
0.3797417448753238
 40
0.3797417448753238
 40
0.7594834897506467
 40
0.7594834897506467
 40
0.7594834897506467
 10
412.2963763409043
 20
714.359744024319
 30
0.0
 41
1.077350269189624
 10
412.2963763409043
 20
714.359744024319
 30
0.0
 41
1.077350269189624
 10
412.2963763409043
 20
713.7791874407183
 30
0.0
 41
1.0
  0
SPLINE
  5
3C5
330
6C
100
AcDbEntity
  8
Skrytá (ISO)
 62
    30
100
AcDbSpline
210
0.0
220
0.0
230
1.0
 70
    28
 71
     2
 72
     6
 73
     3
 74
     0
 42
0.0000000001
 43
0.0000000001
 40
0.0
 40
0.0
 40
0.0
 40
0.3797417448753226
 40
0.3797417448753226
 40
0.3797417448753226
 10
399.2963763409045
 20
713.7791874407183
 30
0.0
 41
1.0
 10
399.2963763409045
 20
714.359744024319
 30
0.0
 41
1.077350269189624
 10
399.2963763409045
 20
714.359744024319
 30
0.0
 41
1.077350269189624
  0
SPLINE
  5
3C6
330
6C
100
AcDbEntity
  8
Skrytá (ISO)
 62
    30
100
AcDbSpline
210
0.0
220
0.0
230
1.0
 70
    12
 71
     2
 72
     6
 73
     3
 74
     0
 42
0.0000000001
 43
0.0000000001
 40
0.0
 40
0.0
 40
0.0
 40
0.7594834897506443
 40
0.7594834897506443
 40
0.7594834897506443
 10
405.7963763409043
 20
713.7791874407183
 30
0.0
 41
1.0
 10
402.5463763409043
 20
714.8625207740519
 30
0.0
 41
1.154700538379249
 10
399.2963763409045
 20
713.7791874407183
 30
0.0
 41
1.0
  0
LINE
  5
3C7
330
6C
100
AcDbEntity
  8
Skrytá (ISO)
 62
    30
100
AcDbLine
 10
411.4463763409044
 20
714.8504917531303
 30
0.0
 11
412.2963763409043
 21
714.359744024319
 31
0.0
  0
LINE
  5
3C8
330
6C
100
AcDbEntity
  8
Skrytá (ISO)
 62
    30
100
AcDbLine
 10
400.1463763409043
 20
714.8504917531303
 30
0.0
 11
399.2963763409045
 21
714.359744024319
 31
0.0
  0
LINE
  5
3C9
330
6C
100
AcDbEntity
  8
Viditelná (ISO)
100
AcDbLine
 10
405.7963763409043
 20
709.4217960655424
 30
0.0
 11
405.7963763409043
 21
710.8504917531302
 31
0.0
  0
LINE
  5
3CA
330
6C
100
AcDbEntity
  8
Viditelná (ISO)
100
AcDbLine
 10
399.2963763409045
 20
709.4217960655424
 30
0.0
 11
399.2963763409045
 21
710.8504917531302
 31
0.0
  0
LINE
  5
3CB
330
6C
100
AcDbEntity
  8
Viditelná (ISO)
100
AcDbLine
 10
412.2963763409043
 20
709.4217960655424
 30
0.0
 11
412.2963763409043
 21
710.8504917531302
 31
0.0
  0
LINE
  5
3CC
330
6C
100
AcDbEntity
  8
Skrytá (ISO)
 62
    30
100
AcDbLine
 10
405.7963763409043
 20
710.8504917531302
 30
0.0
 11
405.7963763409043
 21
713.7791874407183
 31
0.0
  0
LINE
  5
3CD
330
6C
100
AcDbEntity
  8
Skrytá (ISO)
 62
    30
100
AcDbLine
 10
399.2963763409045
 20
710.8504917531302
 30
0.0
 11
399.2963763409045
 21
713.7791874407183
 31
0.0
  0
LINE
  5
3CE
330
6C
100
AcDbEntity
  8
Skrytá (ISO)
 62
    30
100
AcDbLine
 10
412.2963763409043
 20
710.8504917531302
 30
0.0
 11
412.2963763409043
 21
713.7791874407183
 31
0.0
  0
LINE
  5
3CF
330
6C
100
AcDbEntity
  8
Skrytá (ISO)
 62
    30
100
AcDbLine
 10
402.4728763409044
 20
708.7411167531302
 30
0.0
 11
402.4728763409044
 21
714.4598667531303
 31
0.0
  0
LINE
  5
3D0
330
6C
100
AcDbEntity
  8
Skrytá (ISO)
 62
    30
100
AcDbLine
 10
409.1198763409043
 20
708.7411167531302
 30
0.0
 11
409.1198763409043
 21
714.4598667531303
 31
0.0
  0
CIRCLE
  5
431
330
6C
100
AcDbEntity
  8
Skrytá (ISO)
 62
    30
100
AcDbCircle
 10
405.7963763408055
 20
267.4287058778342
 30
0.0
 40
4.00000000000002
  0
SPLINE
  5
441
330
6C
100
AcDbEntity
  8
Viditelná (ISO)
100
AcDbSpline
210
0.0
220
0.0
230
1.0
 70
    28
 71
     2
 72
     6
 73
     3
 74
     0
 42
0.0000000001
 43
0.0000000001
 40
1.616937087212486
 40
1.616937087212486
 40
1.616937087212486
 40
1.638262108029746
 40
1.638262108029746
 40
1.638262108029746
 10
283.7963763408057
 20
388.2798539898762
 30
0.0
 41
1.000063897123728
 10
283.7963763408057
 20
388.3909964809894
 30
0.0
 41
1.000032369916382
 10
283.7963763408057
 20
388.5023430846895
 30
0.0
 41
1.0
  0
SPLINE
  5
442
330
6C
100
AcDbEntity
  8
Viditelná (ISO)
100
AcDbSpline
210
0.0
220
0.0
230
1.0
 70
    24
 71
     3
 72
    14
 73
    10
 74
     0
 42
0.0000000001
 43
0.0000000001
 40
-0.0631952129666253
 40
-0.0631952129666253
 40
-0.0631952129666253
 40
-0.0631952129666253
 40
-0.0555514762613819
 40
-0.0555514762613819
 40
-0.037021141777699
 40
-0.037021141777699
 40
-0.0185048094286687
 40
-0.0185048094286687
 40
0.0
 40
0.0
 40
0.0
 40
0.0
 10
283.7963763408057
 20
388.5023430846895
 30
0.0
 10
283.7963763408057
 20
388.5293134121848
 30
0.0
 10
283.7963763408057
 20
388.5554151411885
 30
0.0
 10
283.7963763408057
 20
388.6360291918188
 30
0.0
 10
283.7963763408057
 20
388.6976763282554
 30
0.0
 10
283.7963763408057
 20
388.7850285078717
 30
0.0
 10
283.7963763408057
 20
388.8262030972456
 30
0.0
 10
283.7963763408057
 20
388.8734563405581
 30
0.0
 10
283.7963763408057
 20
388.8879092855765
 30
0.0
 10
283.7963763408057
 20
388.8879092855765
 30
0.0
  0
CIRCLE
  5
4E8
330
6C
100
AcDbEntity
  8
Skrytá (ISO)
 62
    30
100
AcDbCircle
 10
405.7963763408055
 20
267.4287058778328
 30
0.0
 40
4.000082346706593
  0
CIRCLE
  5
4E9
330
6C
100
AcDbEntity
  8
Skrytá (ISO)
 62
    30
100
AcDbCircle
 10
405.7963763408055
 20
267.4287058778328
 30
0.0
 40
5.650000000000002
  0
SPLINE
  5
4EA
330
6C
100
AcDbEntity
  8
Skrytá (ISO)
 62
    30
100
AcDbSpline
210
0.0
220
0.0
230
1.0
 70
    28
 71
     2
 72
     6
 73
     3
 74
     0
 42
0.0000000001
 43
0.0000000001
 40
0.0
 40
0.0
 40
0.0
 40
0.7594834897506468
 40
0.7594834897506468
 40
0.7594834897506468
 10
412.2963763408056
 20
263.6759291280999
 30
0.0
 41
1.0
 10
409.0463763408055
 20
261.7995407532339
 30
0.0
 41
1.15470053837925
 10
405.7963763408055
 20
259.9231523783673
 30
0.0
 41
1.0
  0
SPLINE
  5
4EB
330
6C
100
AcDbEntity
  8
Skrytá (ISO)
 62
    30
100
AcDbSpline
210
0.0
220
0.0
230
1.0
 70
    28
 71
     2
 72
     6
 73
     3
 74
     0
 42
0.0000000001
 43
0.0000000001
 40
0.0
 40
0.0
 40
0.0
 40
0.7594834897506467
 40
0.7594834897506467
 40
0.7594834897506467
 10
412.2963763408056
 20
271.181482627565
 30
0.0
 41
1.0
 10
412.2963763408056
 20
267.4287058778328
 30
0.0
 41
1.15470053837925
 10
412.2963763408056
 20
263.6759291280999
 30
0.0
 41
1.0
  0
SPLINE
  5
4EC
330
6C
100
AcDbEntity
  8
Skrytá (ISO)
 62
    30
100
AcDbSpline
210
0.0
220
0.0
230
1.0
 70
    28
 71
     2
 72
     6
 73
     3
 74
     0
 42
0.0000000001
 43
0.0000000001
 40
0.0
 40
0.0
 40
0.0
 40
0.7594834897506466
 40
0.7594834897506466
 40
0.7594834897506466
 10
405.7963763408055
 20
274.9342593772976
 30
0.0
 41
1.0
 10
409.0463763408055
 20
273.0578710024316
 30
0.0
 41
1.154700538379242
 10
412.2963763408056
 20
271.181482627565
 30
0.0
 41
1.0
  0
SPLINE
  5
4ED
330
6C
100
AcDbEntity
  8
Skrytá (ISO)
 62
    30
100
AcDbSpline
210
0.0
220
0.0
230
1.0
 70
    28
 71
     2
 72
     6
 73
     3
 74
     0
 42
0.0000000001
 43
0.0000000001
 40
0.0
 40
0.0
 40
0.0
 40
0.7594834897506475
 40
0.7594834897506475
 40
0.7594834897506475
 10
399.2963763408056
 20
271.181482627565
 30
0.0
 41
1.0
 10
402.5463763408056
 20
273.0578710024316
 30
0.0
 41
1.154700538379257
 10
405.7963763408055
 20
274.9342593772976
 30
0.0
 41
1.0
  0
SPLINE
  5
4EE
330
6C
100
AcDbEntity
  8
Skrytá (ISO)
 62
    30
100
AcDbSpline
210
0.0
220
0.0
230
1.0
 70
    28
 71
     2
 72
     6
 73
     3
 74
     0
 42
0.0000000001
 43
0.0000000001
 40
0.0
 40
0.0
 40
0.0
 40
0.7594834897506432
 40
0.7594834897506432
 40
0.7594834897506432
 10
399.2963763408056
 20
263.6759291280999
 30
0.0
 41
1.0
 10
399.2963763408056
 20
267.4287058778328
 30
0.0
 41
1.154700538379249
 10
399.2963763408056
 20
271.181482627565
 30
0.0
 41
1.0
  0
SPLINE
  5
4EF
330
6C
100
AcDbEntity
  8
Skrytá (ISO)
 62
    30
100
AcDbSpline
210
0.0
220
0.0
230
1.0
 70
    28
 71
     2
 72
     6
 73
     3
 74
     0
 42
0.0000000001
 43
0.0000000001
 40
0.0
 40
0.0
 40
0.0
 40
0.7594834897506443
 40
0.7594834897506443
 40
0.7594834897506443
 10
405.7963763408055
 20
259.9231523783673
 30
0.0
 41
1.0
 10
402.5463763408056
 20
261.7995407532339
 30
0.0
 41
1.154700538379249
 10
399.2963763408056
 20
263.6759291280999
 30
0.0
 41
1.0
  0
CIRCLE
  5
511
330
6C
100
AcDbEntity
  8
Viditelná (ISO)
100
AcDbCircle
 10
405.7963763408055
 20
267.4287058778385
 30
0.0
 40
9.999999999999976
  0
CIRCLE
  5
512
330
6C
100
AcDbEntity
  8
Viditelná tenká (ISO)
100
AcDbCircle
 10
405.7963763408055
 20
267.4287058778389
 30
0.0
 40
8.999999999999982
  0
LINE
  5
5AB
330
6C
100
AcDbEntity
  8
AM_7
100
AcDbLine
 10
414.7963763408055
 20
267.428705877829
 30
0.0
 11
164.7963763408055
 21
267.428705877829
 31
0.0
  0
LINE
  5
5AC
330
6C
100
AcDbEntity
  8
AM_7
100
AcDbLine
 10
289.7963763408057
 20
392.428705877829
 30
0.0
 11
289.7963763408057
 21
142.428705877829
 31
0.0
  0
LINE
  5
5AD
330
6C
100
AcDbEntity
  8
AM_7
100
AcDbLine
 10
414.7963763408055
 20
267.4287058778342
 30
0.0
 11
396.7963763408056
 21
267.4287058778342
 31
0.0
  0
LINE
  5
5AE
330
6C
100
AcDbEntity
  8
AM_7
100
AcDbLine
 10
405.7963763408055
 20
276.4287058778343
 30
0.0
 11
405.7963763408055
 21
258.4287058778342
 31
0.0
  0
LINE
  5
CBA
330
6C
100
AcDbEntity
  8
0
 62
     7
100
AcDbLine
 10
169.7963763409045
 20
700.8504917531301
 30
0.0
 11
174.7963763409043
 21
700.8504917531301
 31
0.0
  0
DIMENSION
  5
D3E
330
6C
100
AcDbEntity
  8
Kóta (ISO)
 62
     3
100
AcDbDimension
  2
*D3
 10
409.7963763409043
 20
769.6790917478208
 30
0.0
 11
290.2399612371919
 21
769.6790917478208
 31
0.0
 70
   160
  1
%%c<>
 71
     5
 42
239.9999999999999
  3
Výchozí (ISO)
100
AcDbAlignedDimension
 13
169.7963763409045
 23
702.3504917531303
 33
0.0
 14
409.7963763409043
 24
702.3504917531303
 34
0.0
100
AcDbRotatedDimension
1001
ACAD
1000
DSTYLE
1002
{
1070
   172
1070
     0
1070
   176
1070
     3
1070
   177
1070
     3
1070
   178
1070
     2
1070
   289
1070
     1
1002
}
1001
ACAD_DSTYLE_DIMINSPECT
1070
   396
1000
100%
1070
   395
1000

1070
   394
1070
    33
1070
   393
1070
     0
  0
DIMENSION
  5
D4B
330
6C
100
AcDbEntity
  8
Kóta (ISO)
 62
     3
100
AcDbDimension
  2
*D4
 10
397.2963763409045
 20
740.0989706563159
 30
0.0
 11
291.9948342708281
 21
740.0989706563159
 31
0.0
 70
   160
  1
%%c<>
 71
     5
 42
215.0000000000001
  3
Výchozí (ISO)
100
AcDbAlignedDimension
 13
182.2963763409044
 23
698.8504917531302
 33
0.0
 14
397.2963763409045
 24
698.8504917531302
 34
0.0
100
AcDbRotatedDimension
1001
ACAD
1000
DSTYLE
1002
{
1070
   172
1070
     0
1070
   176
1070
     3
1070
   177
1070
     3
1070
   178
1070
     2
1070
   289
1070
     1
1002
}
1001
ACAD_DSTYLE_DIMINSPECT
1070
   396
1000
100%
1070
   395
1000

1070
   394
1070
    33
1070
   393
1070
     0
  0
CIRCLE
  5
F37
330
6C
100
AcDbEntity
  8
0
100
AcDbCircle
 10
289.7963763408056
 20
267.428705877829
 30
0.0
 40
107.4999999999012
  0
CIRCLE
  5
F38
330
6C
100
AcDbEntity
  8
0
100
AcDbCircle
 10
289.7963763408056
 20
267.428705877829
 30
0.0
 40
119.999999999901
  0
LINE
  5
FBB
330
6C
100
AcDbEntity
  8
AM_7
100
AcDbLine
 10
289.7963763409045
 20
705.3504917531301
 30
0.0
 11
289.7963763409045
 21
540.4820161248806
 31
0.0
1001
GENIUS_GENODEF_13
1002
{
1000
HIER
1070
     0
1002
}
1002
{
1000
MANEDIT
1070
     0
1002
}
1002
{
1000
NOSEL
1070
     0
1002
}
1002
{
1000
BEHIND
1070
     0
1002
}
1002
{
1000
OTHER
1070
     0
1002
}
1002
{
1000
REACTOR
1002
}
1001
GENIUS_GENOBJ-N-CEN_13
1002
{
1000
OWNER
1000
GEN
1002
}
1001
GENIUS_GENCEN_19
1002
{
1040
3.0
1002
}
  0
ARC
  5
FC7
330
6C
100
AcDbEntity
  8
0
100
AcDbCircle
 10
174.7963763409043
 20
694.8504917531302
 30
0.0
 40
6.0
100
AcDbArc
 50
0.0
 51
90.0
1001
GENIUS_GENOBJ-N-FIL_13
1002
{
1000
OWNER
1000
GEN
1002
}
1001
GENIUS_GENODEF_13
1002
{
1000
HIER
1070
     0
1002
}
1002
{
1000
MANEDIT
1070
     0
1002
}
1002
{
1000
NOSEL
1070
     0
1002
}
1002
{
1000
BEHIND
1070
     0
1002
}
1002
{
1000
OTHER
1070
     0
1002
}
1002
{
1000
REACTOR
1002
}
  0
ARC
  5
101A
330
6C
100
AcDbEntity
  8
0
100
AcDbCircle
 10
174.7963763409044
 20
694.8504917531303
 30
0.0
 40
7.5
100
AcDbArc
 50
0.0
 51
90.0
1001
GENIUS_GENODEF_13
1002
{
1000
HIER
1070
     0
1002
}
1002
{
1000
MANEDIT
1070
     0
1002
}
1002
{
1000
NOSEL
1070
     0
1002
}
1002
{
1000
BEHIND
1070
     0
1002
}
1002
{
1000
OTHER
1070
     0
1002
}
1002
{
1000
REACTOR
1002
}
1001
GENIUS_GENOBJ-N-FIL_13
1002
{
1000
OWNER
1000
GEN
1002
}
  0
LINE
  5
1021
330
6C
100
AcDbEntity
  8
0
100
AcDbLine
 10
180.7963763409045
 20
694.8504917531302
 30
0.0
 11
180.7963763409045
 21
669.7291714095702
 31
0.0
  0
LINE
  5
1022
330
6C
100
AcDbEntity
  8
0
100
AcDbLine
 10
182.2963763409045
 20
694.8504917531303
 30
0.0
 11
182.2963763409045
 21
670.3504917531303
 31
0.0
  0
LINE
  5
102C
330
6C
100
AcDbEntity
  8
0
100
AcDbLine
 10
180.7963763409045
 20
669.7291714095702
 30
0.0
 11
189.7963763409045
 21
660.7291714095701
 31
0.0
  0
LINE
  5
102D
330
6C
100
AcDbEntity
  8
0
100
AcDbLine
 10
189.7963763409045
 20
660.7291714095701
 30
0.0
 11
189.7963763409045
 21
552.3504917531303
 31
0.0
  0
LINE
  5
102E
330
6C
100
AcDbEntity
  8
0
100
AcDbLine
 10
189.7963763409045
 20
552.3504917531303
 30
0.0
 11
289.7963763409045
 21
552.3504917531303
 31
0.0
  0
LINE
  5
102F
330
6C
100
AcDbEntity
  8
0
100
AcDbLine
 10
191.2963763409045
 20
552.3504917531303
 30
0.0
 11
191.2963763409045
 21
661.3504917531303
 31
0.0
  0
LINE
  5
1030
330
6C
100
AcDbEntity
  8
0
100
AcDbLine
 10
191.2963763409045
 20
661.3504917531303
 30
0.0
 11
182.2963763409045
 21
670.3504917531303
 31
0.0
  0
LINE
  5
1031
330
6C
100
AcDbEntity
  8
0
100
AcDbLine
 10
182.2963763409045
 20
670.3504917531303
 30
0.0
 11
289.7963763409045
 21
670.3504917531303
 31
0.0
  0
LINE
  5
1032
330
6C
100
AcDbEntity
  8
0
100
AcDbLine
 10
191.2963763409045
 20
661.3504917531303
 30
0.0
 11
289.7963763409045
 21
661.3504917531303
 31
0.0
  0
ARC
  5
1033
330
6C
100
AcDbEntity
  8
0
100
AcDbCircle
 10
404.7963763409046
 20
694.8504917531302
 30
0.0
 40
6.0
100
AcDbArc
 50
90.0
 51
180.0
1001
GENIUS_GENOBJ-N-FIL_13
1002
{
1000
OWNER
1000
GEN
1002
}
1001
GENIUS_GENODEF_13
1002
{
1000
HIER
1070
     0
1002
}
1002
{
1000
MANEDIT
1070
     0
1002
}
1002
{
1000
NOSEL
1070
     0
1002
}
1002
{
1000
BEHIND
1070
     0
1002
}
1002
{
1000
OTHER
1070
     0
1002
}
1002
{
1000
REACTOR
1002
}
  0
ARC
  5
1035
330
6C
100
AcDbEntity
  8
0
100
AcDbCircle
 10
404.7963763409044
 20
694.8504917531303
 30
0.0
 40
7.5
100
AcDbArc
 50
90.0
 51
180.0
1001
GENIUS_GENODEF_13
1002
{
1000
HIER
1070
     0
1002
}
1002
{
1000
MANEDIT
1070
     0
1002
}
1002
{
1000
NOSEL
1070
     0
1002
}
1002
{
1000
BEHIND
1070
     0
1002
}
1002
{
1000
OTHER
1070
     0
1002
}
1002
{
1000
REACTOR
1002
}
1001
GENIUS_GENOBJ-N-FIL_13
1002
{
1000
OWNER
1000
GEN
1002
}
  0
LINE
  5
1036
330
6C
100
AcDbEntity
  8
0
100
AcDbLine
 10
398.7963763409045
 20
694.8504917531302
 30
0.0
 11
398.7963763409045
 21
669.7291714095702
 31
0.0
  0
LINE
  5
1037
330
6C
100
AcDbEntity
  8
0
100
AcDbLine
 10
397.2963763409045
 20
694.8504917531303
 30
0.0
 11
397.2963763409045
 21
670.3504917531303
 31
0.0
  0
LINE
  5
1038
330
6C
100
AcDbEntity
  8
0
100
AcDbLine
 10
398.7963763409045
 20
669.7291714095702
 30
0.0
 11
389.7963763409045
 21
660.7291714095701
 31
0.0
  0
LINE
  5
1039
330
6C
100
AcDbEntity
  8
0
100
AcDbLine
 10
389.7963763409045
 20
660.7291714095701
 30
0.0
 11
389.7963763409045
 21
552.3504917531303
 31
0.0
  0
LINE
  5
103A
330
6C
100
AcDbEntity
  8
0
100
AcDbLine
 10
389.7963763409045
 20
552.3504917531303
 30
0.0
 11
289.7963763409045
 21
552.3504917531303
 31
0.0
  0
LINE
  5
103B
330
6C
100
AcDbEntity
  8
0
100
AcDbLine
 10
388.2963763409045
 20
552.3504917531303
 30
0.0
 11
388.2963763409045
 21
661.3504917531303
 31
0.0
  0
LINE
  5
103C
330
6C
100
AcDbEntity
  8
0
100
AcDbLine
 10
388.2963763409045
 20
661.3504917531303
 30
0.0
 11
397.2963763409045
 21
670.3504917531303
 31
0.0
  0
LINE
  5
103D
330
6C
100
AcDbEntity
  8
0
100
AcDbLine
 10
397.2963763409045
 20
670.3504917531303
 30
0.0
 11
289.7963763409045
 21
670.3504917531303
 31
0.0
  0
LINE
  5
103E
330
6C
100
AcDbEntity
  8
0
100
AcDbLine
 10
388.2963763409045
 20
661.3504917531303
 30
0.0
 11
289.7963763409045
 21
661.3504917531303
 31
0.0
  0
CIRCLE
  5
1040
330
6C
100
AcDbEntity
  8
0
100
AcDbCircle
 10
289.7963763408056
 20
267.428705877829
 30
0.0
 40
98.4999999999011
  0
DIMENSION
  5
1093
330
6C
100
AcDbEntity
  8
Kóta (ISO)
 62
     3
100
AcDbDimension
  2
*D5
 10
139.0443649742474
 20
660.8462993883763
 30
0.0
 11
133.9474972778067
 21
681.5983955707532
 31
0.0
 70
    32
 71
     5
 42
41.50419236475386
  3
Výchozí (ISO)
100
AcDbAlignedDimension
 13
169.7963763409045
 23
702.3504917531302
 33
0.0
 14
189.774705410955
 24
660.8462993883763
 34
0.0
 50
90.00000000000003
100
AcDbRotatedDimension
1001
ACAD_DSTYLE_DIMINSPECT
1070
   396
1000
100%
1070
   395
1000

1070
   394
1070
    33
1070
   393
1070
     0
1001
ACAD
1000
DSTYLE
1002
{
1070
   172
1070
     0
1070
   176
1070
     3
1070
   177
1070
     3
1070
   178
1070
     2
1070
   271
1070
     0
1070
   289
1070
     1
1002
}
  0
DIMENSION
  5
10CD
330
6C
100
AcDbEntity
  8
Kóta (ISO)
 62
     3
100
AcDbDimension
  2
*D6
 10
112.9146658705349
 20
552.3504917531303
 30
0.0
 11
107.7472810485066
 21
627.3504917531302
 31
0.0
 70
    32
 71
     5
 42
149.9999999999999
  3
Výchozí (ISO)
100
AcDbAlignedDimension
 13
169.7963763409045
 23
702.3504917531302
 33
0.0
 14
189.7963763409045
 24
552.3504917531303
 34
0.0
 50
90.00000000000003
100
AcDbRotatedDimension
1001
ACAD_DSTYLE_DIMINSPECT
1070
   396
1000
100%
1070
   395
1000

1070
   394
1070
    33
1070
   393
1070
     0
1001
ACAD
1000
DSTYLE
1002
{
1070
   172
1070
     0
1070
   176
1070
     3
1070
   177
1070
     3
1070
   178
1070
     2
1070
   271
1070
     0
1070
   289
1070
     1
1002
}
  0
DIMENSION
  5
10F5
330
6C
100
AcDbEntity
  8
Kóta (ISO)
 62
     3
100
AcDbDimension
  2
*D7
 10
189.7963763409045
 20
524.5614421111508
 30
0.0
 11
289.7963763409045
 21
530.0743608485585
 31
0.0
 70
    32
  1
%%c <>
 71
     5
 42
200.0
  3
Výchozí (ISO)
100
AcDbAlignedDimension
 13
389.7963763409045
 23
552.3504917531303
 33
0.0
 14
189.7963763409045
 24
552.3504917531303
 34
0.0
 50
0.0000000000001132
100
AcDbRotatedDimension
1001
ACAD_DSTYLE_DIMINSPECT
1070
   396
1000
100%
1070
   395
1000

1070
   394
1070
    33
1070
   393
1070
     0
1001
ACAD
1000
DSTYLE
1002
{
1070
   172
1070
     0
1070
   176
1070
     3
1070
   177
1070
     3
1070
   178
1070
     2
1070
   289
1070
     1
1002
}
  0
LINE
  5
11ED
330
6C
100
AcDbEntity
  8
0
  6
Continuous
 62
     7
100
AcDbLine
 10
192.6205455215353
 20
478.5711334497631
 30
0.0
 11
190.4442028830066
 21
480.0231455750003
 31
0.0
  0
LINE
  5
11EE
330
6C
100
AcDbEntity
  8
0
  6
Continuous
 62
     7
100
AcDbLine
 10
187.8815027346449
 20
465.1595015750009
 30
0.0
 11
184.171360811335
 21
465.1595015750009
 31
0.0
  0
LINE
  5
11EF
330
6C
100
AcDbEntity
  8
0
  6
Continuous
 62
     7
100
AcDbLine
 10
183.7918303836758
 20
465.1595015750009
 30
0.0
 11
182.9456543296964
 21
465.1595015750009
 31
0.0
  0
LINE
  5
11F0
330
6C
100
AcDbEntity
  8
0
  6
Continuous
 62
     7
100
AcDbLine
 10
184.122964178955
 20
469.1497415749998
 30
0.0
 11
187.8815027346449
 21
469.1497415749998
 31
0.0
  0
HATCH
  5
11F1
330
6C
100
AcDbEntity
  8
AM_8
100
AcDbHatch
 10
0.0
 20
0.0
 30
0.0
210
0.0
220
0.0
230
1.0
  2
ANSI31
 70
     0
 71
     0
 91
        5
 92
        5
 93
       15
 72
     4
 94
        3
 73
     0
 74
     0
 95
        9
 96
        5
 40
0.0327275794247121
 40
0.0327275794247121
 40
0.0327275794247121
 40
0.0327275794247121
 40
0.0566448304791141
 40
0.0725631113156975
 40
0.0725631113156975
 40
0.0725631113156975
 40
0.0725631113156975
 10
185.8861906291963
 20
483.7324628131317
 10
185.8861359228708
 20
483.7589726377536
 10
185.895271884749
 20
483.8036385255381
 10
185.9181817372513
 20
483.842155089763
 10
185.929195413882
 20
483.8560883826631
 72
     4
 94
        3
 73
     0
 74
     0
 95
        9
 96
        5
 40
0.00080465138146
 40
0.00080465138146
 40
0.00080465138146
 40
0.00080465138146
 40
0.0242140205681429
 40
0.0327275794247121
 40
0.0327275794247121
 40
0.0327275794247121
 40
0.0327275794247121
 10
186.0141836386359
 20
483.9188442721884
 10
185.9899911794031
 20
483.9094099955019
 10
185.959166736788
 20
483.8899187792797
 10
185.9350858479824
 20
483.8635403123277
 10
185.929195413882
 20
483.8560883826631
 72
     1
 10
185.9291954138838
 20
483.8560883826659
 11
171.0091948332919
 21
478.3393346874557
 72
     1
 10
171.009194833291
 20
478.339334687456
 11
170.9684669333336
 21
477.8640283456119
 72
     1
 10
170.9684669333336
 20
477.8640283456117
 11
175.9579030442805
 21
477.8484486145506
 72
     4
 94
        3
 73
     0
 74
     0
 95
        8
 96
        4
 40
0.0000110042459771
 40
0.0000110042459771
 40
0.0000110042459771
 40
0.0000110042459771
 40
0.3503350810912064
 40
0.3503350810912064
 40
0.3503350810912064
 40
0.3503350810912064
 10
175.9579030513459
 20
477.8484486144206
 10
176.3462024684249
 20
477.8484463751097
 10
176.7378493258765
 20
477.8128046234372
 10
177.1261331170557
 20
477.7439684746122
 72
     4
 94
        3
 73
     0
 74
     0
 95
        8
 96
        4
 40
0.3503350810912064
 40
0.3503350810912064
 40
0.3503350810912064
 40
0.3503350810912064
 40
0.8583682516681035
 40
0.8583682516681035
 40
0.8583682516681035
 40
0.8583682516681035
 10
177.1261331170557
 20
477.7439684746122
 10
177.6892147279249
 20
477.6441436288492
 10
178.2452237307402
 20
477.4745101793345
 10
178.7736946632012
 20
477.2425251506721
 72
     4
 94
        3
 73
     0
 74
     0
 95
        9
 96
        5
 40
0.8583682516681035
 40
0.8583682516681035
 40
0.8583682516681035
 40
0.8583682516681035
 40
1.387807231909708
 40
1.513294239128057
 40
1.513294239128057
 40
1.513294239128057
 40
1.513294239128057
 10
178.7736946632012
 20
477.2425251506721
 10
179.3244325436666
 20
477.0007655095309
 10
179.9687094389482
 20
476.6179375718796
 10
180.5317770540904
 20
476.1444034981892
 10
180.6365777152622
 20
476.0505295064537
 72
     4
 94
        3
 73
     0
 74
     0
 95
        8
 96
        4
 40
1.513294239128057
 40
1.513294239128057
 40
1.513294239128057
 40
1.513294239128057
 40
2.0783570253281
 40
2.0783570253281
 40
2.0783570253281
 40
2.0783570253281
 10
180.6365777152622
 20
476.0505295064537
 10
181.1084907436329
 20
475.6278188171369
 10
181.5178334259075
 20
475.141387622017
 10
181.8550694152931
 20
474.6083541264739
 72
     4
 94
        3
 73
     0
 74
     0
 95
        9
 96
        5
 40
2.0783570253281
 40
2.0783570253281
 40
2.0783570253281
 40
2.0783570253281
 40
2.322466358885048
 40
2.48050872576972
 40
2.48050872576972
 40
2.48050872576972
 40
2.48050872576972
 10
181.8550694152931
 20
474.6083541264739
 10
182.0007566816147
 20
474.3780815717456
 10
182.2185959270627
 20
473.9843968320729
 10
182.3978258663127
 20
473.5708533433586
 10
182.4621295771671
 20
473.4058548421486
 72
     4
 94
        3
 73
     0
 74
     0
 95
        8
 96
        4
 40
2.48050872576972
 40
2.48050872576972
 40
2.48050872576972
 40
2.48050872576972
 40
2.942528926461143
 40
2.942528926461143
 40
2.942528926461143
 40
2.942528926461143
 10
182.4621295771671
 20
473.4058548421486
 10
182.6501146977388
 20
472.9234991159886
 10
182.785692537272
 20
472.4199551032888
 10
182.8646337304166
 20
471.9099080136494
 72
     4
 94
        3
 73
     0
 74
     0
 95
        8
 96
        4
 40
2.942528926461143
 40
2.942528926461143
 40
2.942528926461143
 40
2.942528926461143
 40
3.256546211156035
 40
3.256546211156035
 40
3.256546211156035
 40
3.256546211156035
 10
182.8646337304166
 20
471.9099080136494
 10
182.9182870102613
 20
471.5632487075942
 10
182.9457775812279
 20
471.2135853728837
 10
182.9457775812279
 20
470.865528614528
 72
     1
 10
182.9456293255243
 20
470.8749512541622
 11
182.9456293255229
 21
470.6161386145278
 72
     1
 10
182.9456293255224
 20
470.6161386145278
 11
185.8863827346458
 21
470.6161386145278
 72
     1
 10
185.8863827346453
 20
470.6161386145278
 11
185.8863827346453
 21
483.7335992380957
 97
        0
 92
        5
 93
       19
 72
     2
 10
189.8905613253768
 20
479.1933221122877
 40
0.997559999999931
 50
215.0338513321133
 51
303.7104218925865
 73
     0
 72
     1
 10
190.4442028834314
 20
480.0231455747158
 11
192.6205455215381
 21
478.5711334497622
 72
     1
 10
192.6205455215372
 20
478.5711334497622
 11
193.1703493368108
 21
478.472830131789
 72
     2
 10
193.0080946121338
 20
479.1520098735239
 40
0.6982919999997736
 50
283.4360206173529
 51
307.0800400346186
 73
     1
 72
     1
 10
193.4291158769196
 20
478.5949166929332
 11
193.5330838131935
 21
478.6915774072148
 72
     1
 10
193.5330838131944
 20
478.6915774072143
 11
193.6781162341271
 21
478.9553305829964
 72
     1
 10
193.6781162341271
 20
478.9553305829964
 11
193.5334452698184
 21
479.6120298775726
 72
     1
 10
193.5334452698175
 20
479.6120298775726
 11
189.4780529319959
 21
484.1895269214363
 72
     1
 10
189.4780529319964
 20
484.1895269214359
 11
188.7425378589741
 21
484.5502806650696
 72
     1
 10
188.7425378589745
 20
484.55028066507
 11
187.8790068899902
 21
484.5770420855607
 72
     1
 10
187.8790068899893
 20
484.5770420855607
 11
185.9291954138816
 21
483.8560883826652
 72
     4
 94
        3
 73
     0
 74
     0
 95
        9
 96
        5
 40
0.0327275794247121
 40
0.0327275794247121
 40
0.0327275794247121
 40
0.0327275794247121
 40
0.0486458602612956
 40
0.0725631113156975
 40
0.0725631113156975
 40
0.0725631113156975
 40
0.0725631113156975
 10
185.929195413882
 20
483.8560883826631
 10
185.9181817372513
 20
483.842155089763
 10
185.895271884749
 20
483.8036385255381
 10
185.8861359228708
 20
483.7589726377536
 10
185.8861906291963
 20
483.7324628131317
 72
     1
 10
185.8863827346453
 20
483.7335992380936
 11
185.8863827346453
 21
470.616138614528
 72
     1
 10
185.8863827346453
 20
470.6161386145278
 11
190.6127608997539
 21
470.6161386145278
 72
     1
 10
190.6127608997534
 20
470.6161386145278
 11
190.6143109977556
 21
475.0144054330095
 72
     1
 10
190.6143109977551
 20
475.0144054330101
 11
190.4273405702156
 21
476.0807177094728
 72
     1
 10
190.4273405702174
 20
476.0807177094728
 11
190.1424492063801
 21
476.8310778139331
 72
     1
 10
190.1424492063792
 20
476.8310778139329
 11
189.2016221115035
 21
478.1799963681968
 72
     2
 10
190.0947651051032
 20
479.0501572128008
 40
1.246950000000011
 50
135.7467264338808
 51
215.0338513287479
 73
     0
 97
        0
 92
        7
 72
     0
 73
     1
 93
        5
 10
185.8863827346435
 20
470.6161386145287
 10
182.9456293255243
 20
470.6161386145278
 10
182.9456293255243
 20
469.1505934038456
 10
182.9456543296964
 20
469.1497415750007
 10
185.8863827346453
 20
469.1497415749998
 97
        0
 92
        7
 72
     1
 73
     1
 93
       11
 10
190.6127608997534
 20
470.6161386145287
 42
0.0
 10
185.8863827346435
 20
470.6161386145295
 42
0.0
 10
185.8863827346471
 20
469.149741574999
 42
0.0
 10
187.8815027346449
 20
469.1497415749982
 42
0.0
 10
187.8815027346449
 20
465.1595015750009
 42
0.0
 10
185.8863827346471
 20
465.1595015750009
 42
0.0
 10
185.8863827346453
 20
460.3712135750003
 42
0.2731914927724292
 10
185.98953351735
 20
460.1965151092214
 42
0.0
 10
190.1260127346444
 20
460.1717015750006
 42
0.0
 10
190.478703454964
 20
460.3177908546814
 42
0.0
 10
190.6092121203632
 20
460.5467890447536
 42
0.0
 97
        0
 92
        7
 72
     1
 73
     1
 93
        6
 10
185.8863827346435
 20
465.159501575
 42
0.0
 10
182.9456293255224
 20
465.1595015750009
 42
0.0
 10
182.9596803052013
 20
460.5556196399303
 42
0.0
 10
183.2467225314639
 20
460.2129684335785
 42
0.0
 10
185.98953351735
 20
460.1965151092214
 42
-0.2731914927736315
 10
185.8863827346453
 20
460.3712135750003
 42
0.0
 97
        0
 75
     0
 76
     1
 52
90.0
 41
0.3325200000000001
 77
     0
 78
     1
 53
135.0
 43
-9867.900397264328
 44
-5279.546525307552
 45
-0.7465286913444788
 46
-0.7465286913444786
 79
     0
 47
0.0077780615722725
 98
        6
 10
181.8582903086653
 20
479.3143066749561
 10
184.1930632610905
 20
478.9379132830728
 10
187.8835068787179
 20
478.8626349299144
 10
184.6318986716873
 20
470.1396667291357
 10
187.9958086476549
 20
469.9327577670488
 10
184.2955090987702
 20
462.1478111174273
1001
ACAD
1010
0.0
1020
0.0
1030
0.0
  0
LINE
  5
11F2
330
6C
100
AcDbEntity
  8
0
  6
Continuous
 62
     7
100
AcDbLine
 10
190.6247927346452
 20
460.6704815749998
 30
0.0
 11
190.6247927346452
 21
474.9546269703247
 31
0.0
  0
LINE
  5
11F3
330
6C
100
AcDbEntity
  8
0
  6
Continuous
 62
     7
100
AcDbLine
 10
185.8863827346453
 20
460.3712135750003
 30
0.0
 11
185.8863827346453
 21
465.1595015750009
 31
0.0
  0
LINE
  5
11F4
330
6C
100
AcDbEntity
  8
0
  6
Continuous
 62
     7
100
AcDbLine
 10
185.8863827346453
 20
469.1497415749998
 30
0.0
 11
185.8863827346452
 21
483.8402581549705
 31
0.0
  0
LINE
  5
11F5
330
6C
100
AcDbEntity
  8
0
  6
Continuous
 62
     7
100
AcDbLine
 10
182.9456293255243
 20
470.865528614528
 30
0.0
 11
182.9456293255243
 21
469.1497415749998
 31
0.0
  0
LINE
  5
11F6
330
6C
100
AcDbEntity
  8
0
  6
Continuous
 62
     7
100
AcDbLine
 10
182.9456293255243
 20
465.1595015750009
 30
0.0
 11
182.9456293255243
 21
460.6923350042887
 31
0.0
  0
ARC
  5
11F7
330
6C
100
AcDbEntity
  8
0
  6
Continuous
 62
     7
100
AcDbCircle
 10
190.1260127346444
 20
460.6704815749998
 30
0.0
 40
0.49878
100
AcDbArc
 50
286.5377894343599
 51
0.0
  0
ARC
  5
11F8
330
6C
100
AcDbEntity
  8
0
  6
Continuous
 62
     7
100
AcDbCircle
 10
186.0858947346454
 20
460.3712135750003
 30
0.0
 40
0.199512
100
AcDbArc
 50
180.0
 51
241.1194889774106
  0
ARC
  5
11F9
330
6C
100
AcDbEntity
  8
0
  6
Continuous
 62
     7
100
AcDbCircle
 10
183.965289913854
 20
467.1555144144768
 30
0.0
 40
1.99598275539444
100
AcDbArc
 50
261.8430645926944
 51
270.0049938241992
  0
ARC
  5
11FA
330
6C
100
AcDbEntity
  8
0
  6
Continuous
 62
     7
100
AcDbCircle
 10
183.965286822085
 20
467.1545398552178
 30
0.0
 40
1.99516647066756
100
AcDbArc
 50
98.15654732376369
 51
261.8388471559011
  0
ARC
  5
11FB
330
6C
100
AcDbEntity
  8
0
  6
Continuous
 62
     7
100
AcDbCircle
 10
183.965752304196
 20
467.1551287903675
 30
0.0
 40
1.99458271152384
100
AcDbArc
 50
294.6387310818871
 51
90.00787469427905
  0
ARC
  5
11FC
330
6C
100
AcDbEntity
  8
0
  6
Continuous
 62
     7
100
AcDbCircle
 10
183.9657523773507
 20
467.1541140058315
 30
0.0
 40
1.99458235971768
100
AcDbArc
 50
269.9917127395084
 51
294.6448673175634
  0
ARC
  5
11FD
330
6C
100
AcDbEntity
  8
0
  6
Continuous
 62
     7
100
AcDbCircle
 10
193.0080946121301
 20
479.1520098735239
 30
0.0
 40
0.698292
100
AcDbArc
 50
236.2895781108145
 51
41.20680767059507
  0
SPLINE
  5
11FE
330
6C
100
AcDbEntity
  8
0
  6
Continuous
 62
     7
100
AcDbSpline
210
0.0
220
0.0
230
1.0
 70
     8
 71
     3
 72
    10
 73
     6
 74
     4
 42
0.0000000001
 43
0.0000000001
 44
0.0000000001
 12
1.0
 22
-0.0000000008234925
 32
0.0
 13
0.0
 23
-1.0
 33
0.0
 40
0.0
 40
0.0
 40
0.0
 40
0.0
 40
4.614736607547365
 40
7.722665136566024
 40
10.82866746133421
 40
10.82866746133421
 40
10.82866746133421
 40
10.82866746133421
 10
175.9578664600203
 20
477.8484486145286
 30
0.0
 10
177.4961119958694
 20
477.8484486132618
 30
0.0
 10
180.1582519108667
 20
476.9124584258544
 30
0.0
 10
182.4591359029067
 20
474.0006128318869
 30
0.0
 10
182.9457775812342
 20
471.9008627227849
 30
0.0
 10
182.9457775812342
 20
470.8655286145289
 30
0.0
 11
175.9578664600203
 21
477.8484486145286
 31
0.0
 11
180.3130226725838
 21
476.3225363230757
 31
0.0
 11
182.2509911088213
 21
473.8928248007679
 31
0.0
 11
182.9457775812342
 21
470.8655286145289
 31
0.0
  0
LINE
  5
11FF
330
6C
100
AcDbEntity
  8
0
100
AcDbLine
 10
170.967131942249
 20
477.8484486145281
 30
0.0
 11
171.009194833291
 21
478.3393346874569
 31
0.0
  0
LINE
  5
1200
330
6C
100
AcDbEntity
  8
0
100
AcDbLine
 10
171.009194833291
 20
478.3393346874569
 30
0.0
 11
187.5415753332427
 21
484.4522748794518
 31
0.0
  0
LINE
  5
1201
330
6C
100
AcDbEntity
  8
0
100
AcDbLine
 10
189.7321977045305
 20
483.9026627050784
 30
0.0
 11
193.5334452698157
 21
479.6120298775743
 31
0.0
  0
LINE
  5
1202
330
6C
100
AcDbEntity
  8
0
100
AcDbLine
 10
192.6205455215353
 20
478.5711334497631
 30
0.0
 11
190.4442028830066
 21
480.0231455750003
 31
0.0
  0
LINE
  5
1203
330
6C
100
AcDbEntity
  8
0
100
AcDbLine
 10
190.4442028830066
 20
480.0231455750003
 30
0.0
 11
189.8905613252968
 21
480.1908821124367
 31
0.0
  0
LINE
  5
1204
330
6C
100
AcDbEntity
  8
0
100
AcDbLine
 10
189.8905613252968
 20
480.1908821124367
 30
0.0
 11
189.3890109820745
 21
480.0556290223091
 31
0.0
  0
LINE
  5
1205
330
6C
100
AcDbEntity
  8
0
100
AcDbLine
 10
189.3890109820745
 20
480.0556290223091
 30
0.0
 11
188.9499908797692
 21
479.5445015015233
 31
0.0
  0
LINE
  5
1206
330
6C
100
AcDbEntity
  8
0
100
AcDbLine
 10
188.9499908797692
 20
479.5445015015233
 30
0.0
 11
188.8518486503312
 21
478.9499424975594
 31
0.0
  0
LINE
  5
1207
330
6C
100
AcDbEntity
  8
0
100
AcDbLine
 10
188.8518486503312
 20
478.9499424975594
 30
0.0
 11
189.2016221116786
 21
478.1799963679458
 31
0.0
  0
LINE
  5
1208
330
6C
100
AcDbEntity
  8
0
100
AcDbLine
 10
189.2016221116786
 20
478.1799963679458
 30
0.0
 11
190.1424492063774
 21
476.8310778139329
 31
0.0
  0
LINE
  5
1209
330
6C
100
AcDbEntity
  8
0
100
AcDbLine
 10
190.1424492063774
 20
476.8310778139329
 30
0.0
 11
190.4273405702174
 21
476.0807177094701
 31
0.0
  0
LINE
  5
120A
330
6C
100
AcDbEntity
  8
0
100
AcDbLine
 10
190.4273405702174
 20
476.0807177094701
 30
0.0
 11
190.6247927346454
 21
474.9546269703236
 31
0.0
  0
LINE
  5
120B
330
6C
100
AcDbEntity
  8
0
100
AcDbLine
 10
182.9456293255243
 20
465.1595015750009
 30
0.0
 11
187.8815027346449
 21
465.1595015750009
 31
0.0
  0
LINE
  5
120C
330
6C
100
AcDbEntity
  8
0
100
AcDbLine
 10
187.8815027346449
 20
465.1595015750009
 30
0.0
 11
187.8815027346449
 21
469.149741574999
 31
0.0
  0
LINE
  5
120D
330
6C
100
AcDbEntity
  8
0
100
AcDbLine
 10
187.8815027346449
 20
469.149741574999
 30
0.0
 11
182.9456543296964
 21
469.1497415749998
 31
0.0
  0
LINE
  5
120E
330
6C
100
AcDbEntity
  8
0
100
AcDbLine
 10
175.9579030513277
 20
477.8484486145281
 30
0.0
 11
170.9671806031787
 21
477.8640323622352
 31
0.0
  0
LINE
  5
120F
330
6C
100
AcDbEntity
  8
0
100
AcDbLine
 10
183.4456293255241
 20
460.1923350042887
 30
0.0
 11
190.2679893007289
 21
460.1923350042887
 31
0.0
  0
ARC
  5
1210
330
6C
100
AcDbEntity
  8
0
100
AcDbCircle
 10
183.4456293255241
 20
460.6923350042887
 30
0.0
 40
0.5
100
AcDbArc
 50
180.0
 51
270.0
  0
ARC
  5
1211
330
6C
100
AcDbEntity
  8
0
100
AcDbCircle
 10
188.2351898154957
 20
482.5764020292806
 30
0.0
 40
2.0
100
AcDbArc
 50
41.53904939107134
 51
110.2921555846388
  0
LINE
  5
1212
330
6C
100
AcDbEntity
  8
0
100
AcDbLine
 10
190.6247927346454
 20
460.6704815749998
 30
0.0
 11
388.9679599471637
 21
460.6704815749998
 31
0.0
  0
LINE
  5
1213
330
6C
100
AcDbEntity
  8
0
100
AcDbLine
 10
388.9629046632053
 20
474.9546269703233
 30
0.0
 11
190.6247927346454
 21
474.9546269703236
 31
0.0
  0
LINE
  5
1214
330
6C
100
AcDbEntity
  8
0
  6
Continuous
 62
     7
100
AcDbLine
 10
386.9722071602737
 20
478.5711334497631
 30
0.0
 11
389.1485497988023
 21
480.0231455750003
 31
0.0
  0
LINE
  5
1215
330
6C
100
AcDbEntity
  8
0
  6
Continuous
 62
     7
100
AcDbLine
 10
391.711249947164
 20
465.1595015750009
 30
0.0
 11
395.421391870474
 21
465.1595015750009
 31
0.0
  0
LINE
  5
1216
330
6C
100
AcDbEntity
  8
0
  6
Continuous
 62
     7
100
AcDbLine
 10
395.8009222981331
 20
465.1595015750009
 30
0.0
 11
396.6470983521126
 21
465.1595015750009
 31
0.0
  0
LINE
  5
1217
330
6C
100
AcDbEntity
  8
0
  6
Continuous
 62
     7
100
AcDbLine
 10
395.469788502854
 20
469.1497415749998
 30
0.0
 11
391.711249947164
 21
469.1497415749998
 31
0.0
  0
HATCH
  5
1218
330
6C
100
AcDbEntity
  8
AM_8
100
AcDbHatch
 10
0.0
 20
0.0
 30
0.0
210
0.0
220
0.0
230
1.0
  2
ANSI31
 70
     0
 71
     0
 91
        5
 92
        5
 93
       15
 72
     4
 94
        3
 73
     0
 74
     0
 95
        9
 96
        5
 40
0.0327275794247121
 40
0.0327275794247121
 40
0.0327275794247121
 40
0.0327275794247121
 40
0.0566448304791141
 40
0.0725631113156975
 40
0.0725631113156975
 40
0.0725631113156975
 40
0.0725631113156975
 10
393.7065620526127
 20
483.7324628131317
 10
393.7066167589382
 20
483.7589726377536
 10
393.69748079706
 20
483.8036385255381
 10
393.6745709445576
 20
483.842155089763
 10
393.6635572679269
 20
483.8560883826631
 72
     4
 94
        3
 73
     0
 74
     0
 95
        9
 96
        5
 40
0.00080465138146
 40
0.00080465138146
 40
0.00080465138146
 40
0.00080465138146
 40
0.0242140205681429
 40
0.0327275794247121
 40
0.0327275794247121
 40
0.0327275794247121
 40
0.0327275794247121
 10
393.578569043173
 20
483.9188442721884
 10
393.6027615024059
 20
483.9094099955019
 10
393.6335859450209
 20
483.8899187792797
 10
393.6576668338266
 20
483.8635403123277
 10
393.6635572679269
 20
483.8560883826631
 72
     1
 10
393.6635572679251
 20
483.8560883826659
 11
408.583557848517
 21
478.3393346874557
 72
     1
 10
408.5835578485179
 20
478.339334687456
 11
408.6242857484752
 21
477.8640283456119
 72
     1
 10
408.6242857484752
 20
477.8640283456117
 11
403.6348496375285
 21
477.8484486145506
 72
     4
 94
        3
 73
     0
 74
     0
 95
        8
 96
        4
 40
0.0000110042459771
 40
0.0000110042459771
 40
0.0000110042459771
 40
0.0000110042459771
 40
0.3503350810912064
 40
0.3503350810912064
 40
0.3503350810912064
 40
0.3503350810912064
 10
403.634849630463
 20
477.8484486144206
 10
403.246550213384
 20
477.8484463751097
 10
402.8549033559324
 20
477.8128046234372
 10
402.4666195647531
 20
477.7439684746122
 72
     4
 94
        3
 73
     0
 74
     0
 95
        8
 96
        4
 40
0.3503350810912064
 40
0.3503350810912064
 40
0.3503350810912064
 40
0.3503350810912064
 40
0.8583682516681035
 40
0.8583682516681035
 40
0.8583682516681035
 40
0.8583682516681035
 10
402.4666195647531
 20
477.7439684746122
 10
401.903537953884
 20
477.6441436288492
 10
401.3475289510687
 20
477.4745101793345
 10
400.8190580186077
 20
477.2425251506721
 72
     4
 94
        3
 73
     0
 74
     0
 95
        9
 96
        5
 40
0.8583682516681035
 40
0.8583682516681035
 40
0.8583682516681035
 40
0.8583682516681035
 40
1.387807231909708
 40
1.513294239128057
 40
1.513294239128057
 40
1.513294239128057
 40
1.513294239128057
 10
400.8190580186077
 20
477.2425251506721
 10
400.2683201381422
 20
477.0007655095309
 10
399.6240432428607
 20
476.6179375718796
 10
399.0609756277185
 20
476.1444034981892
 10
398.9561749665467
 20
476.0505295064537
 72
     4
 94
        3
 73
     0
 74
     0
 95
        8
 96
        4
 40
1.513294239128057
 40
1.513294239128057
 40
1.513294239128057
 40
1.513294239128057
 40
2.0783570253281
 40
2.0783570253281
 40
2.0783570253281
 40
2.0783570253281
 10
398.9561749665467
 20
476.0505295064537
 10
398.4842619381761
 20
475.6278188171369
 10
398.0749192559014
 20
475.141387622017
 10
397.7376832665158
 20
474.6083541264739
 72
     4
 94
        3
 73
     0
 74
     0
 95
        9
 96
        5
 40
2.0783570253281
 40
2.0783570253281
 40
2.0783570253281
 40
2.0783570253281
 40
2.322466358885048
 40
2.48050872576972
 40
2.48050872576972
 40
2.48050872576972
 40
2.48050872576972
 10
397.7376832665158
 20
474.6083541264739
 10
397.5919960001943
 20
474.3780815717456
 10
397.3741567547463
 20
473.9843968320729
 10
397.1949268154962
 20
473.5708533433586
 10
397.1306231046419
 20
473.4058548421486
 72
     4
 94
        3
 73
     0
 74
     0
 95
        8
 96
        4
 40
2.48050872576972
 40
2.48050872576972
 40
2.48050872576972
 40
2.48050872576972
 40
2.942528926461143
 40
2.942528926461143
 40
2.942528926461143
 40
2.942528926461143
 10
397.1306231046419
 20
473.4058548421486
 10
396.9426379840701
 20
472.9234991159886
 10
396.8070601445369
 20
472.4199551032888
 10
396.7281189513924
 20
471.9099080136494
 72
     4
 94
        3
 73
     0
 74
     0
 95
        8
 96
        4
 40
2.942528926461143
 40
2.942528926461143
 40
2.942528926461143
 40
2.942528926461143
 40
3.256546211156035
 40
3.256546211156035
 40
3.256546211156035
 40
3.256546211156035
 10
396.7281189513924
 20
471.9099080136494
 10
396.6744656715477
 20
471.5632487075942
 10
396.6469751005811
 20
471.2135853728837
 10
396.6469751005811
 20
470.865528614528
 72
     1
 10
396.6471233562847
 20
470.8749512541622
 11
396.647123356286
 21
470.6161386145278
 72
     1
 10
396.6471233562865
 20
470.6161386145278
 11
393.7063699471632
 21
470.6161386145278
 72
     1
 10
393.7063699471636
 20
470.6161386145278
 11
393.7063699471636
 21
483.7335992380957
 97
        0
 92
        5
 93
       19
 72
     2
 10
389.7021913564321
 20
479.1933221122877
 40
0.997559999999931
 50
395.0338513321133
 51
483.7104218925865
 73
     1
 72
     1
 10
389.1485497983776
 20
480.0231455747158
 11
386.9722071602709
 21
478.5711334497622
 72
     1
 10
386.9722071602718
 20
478.5711334497622
 11
386.4224033449982
 21
478.472830131789
 72
     2
 10
386.5846580696752
 20
479.1520098735239
 40
0.6982919999997736
 50
103.4360206173529
 51
127.0800400346186
 73
     0
 72
     1
 10
386.1636368048893
 20
478.5949166929332
 11
386.0596688686155
 21
478.6915774072148
 72
     1
 10
386.0596688686145
 20
478.6915774072143
 11
385.9146364476819
 21
478.9553305829964
 72
     1
 10
385.9146364476819
 20
478.9553305829964
 11
386.0593074119906
 21
479.6120298775726
 72
     1
 10
386.0593074119915
 20
479.6120298775726
 11
390.114699749813
 21
484.1895269214363
 72
     1
 10
390.1146997498126
 20
484.1895269214359
 11
390.8502148228349
 21
484.5502806650696
 72
     1
 10
390.8502148228344
 20
484.55028066507
 11
391.7137457918188
 21
484.5770420855607
 72
     1
 10
391.7137457918197
 20
484.5770420855607
 11
393.6635572679274
 21
483.8560883826652
 72
     4
 94
        3
 73
     0
 74
     0
 95
        9
 96
        5
 40
0.0327275794247121
 40
0.0327275794247121
 40
0.0327275794247121
 40
0.0327275794247121
 40
0.0486458602612956
 40
0.0725631113156975
 40
0.0725631113156975
 40
0.0725631113156975
 40
0.0725631113156975
 10
393.6635572679269
 20
483.8560883826631
 10
393.6745709445576
 20
483.842155089763
 10
393.69748079706
 20
483.8036385255381
 10
393.7066167589382
 20
483.7589726377536
 10
393.7065620526127
 20
483.7324628131317
 72
     1
 10
393.7063699471636
 20
483.7335992380936
 11
393.7063699471636
 21
470.616138614528
 72
     1
 10
393.7063699471636
 20
470.6161386145278
 11
388.9799917820551
 21
470.6161386145278
 72
     1
 10
388.9799917820555
 20
470.6161386145278
 11
388.9784416840534
 21
475.0144054330095
 72
     1
 10
388.9784416840539
 20
475.0144054330101
 11
389.1654121115934
 21
476.0807177094728
 72
     1
 10
389.1654121115916
 20
476.0807177094728
 11
389.4503034754288
 21
476.8310778139331
 72
     1
 10
389.4503034754297
 20
476.8310778139329
 11
390.3911305703054
 21
478.1799963681968
 72
     2
 10
389.4979875767057
 20
479.0501572128008
 40
1.246950000000011
 50
315.7467264338808
 51
395.0338513287479
 73
     1
 97
        0
 92
        7
 72
     0
 73
     1
 93
        5
 10
393.7063699471655
 20
470.6161386145287
 10
396.6471233562847
 20
470.6161386145278
 10
396.6471233562847
 20
469.1505934038456
 10
396.6470983521126
 20
469.1497415750007
 10
393.7063699471636
 20
469.1497415749998
 97
        0
 92
        7
 72
     1
 73
     1
 93
       11
 10
388.9799917820555
 20
470.6161386145287
 42
0.0
 10
393.7063699471655
 20
470.6161386145295
 42
0.0
 10
393.7063699471618
 20
469.149741574999
 42
0.0
 10
391.711249947164
 20
469.1497415749982
 42
0.0
 10
391.711249947164
 20
465.1595015750009
 42
0.0
 10
393.7063699471618
 20
465.1595015750009
 42
0.0
 10
393.7063699471636
 20
460.3712135750003
 42
-0.2731914927724292
 10
393.6032191644589
 20
460.1965151092214
 42
0.0
 10
389.4667399471645
 20
460.1717015750006
 42
0.0
 10
389.114049226845
 20
460.3177908546814
 42
0.0
 10
388.9835405614458
 20
460.5467890447536
 42
0.0
 97
        0
 92
        7
 72
     1
 73
     1
 93
        6
 10
393.7063699471655
 20
465.159501575
 42
0.0
 10
396.6471233562865
 20
465.1595015750009
 42
0.0
 10
396.6330723766077
 20
460.5556196399303
 42
0.0
 10
396.346030150345
 20
460.2129684335785
 42
0.0
 10
393.6032191644589
 20
460.1965151092214
 42
0.2731914927736315
 10
393.7063699471636
 20
460.3712135750003
 42
0.0
 97
        0
 75
     0
 76
     1
 52
90.0
 41
0.3325200000000001
 77
     0
 78
     1
 53
45.0
 43
10447.49314994614
 44
-5279.546525307552
 45
0.7465286913444788
 46
-0.7465286913444786
 79
     0
 47
0.0077780615722725
 98
        6
 10
397.7344623731437
 20
479.3143066749561
 10
395.3996894207184
 20
478.9379132830728
 10
391.7092458030911
 20
478.8626349299144
 10
394.9608540101217
 20
470.1396667291357
 10
391.5969440341541
 20
469.9327577670488
 10
395.2972435830388
 20
462.1478111174273
1001
ACAD
1010
0.0
1020
0.0
1030
0.0
  0
LINE
  5
1219
330
6C
100
AcDbEntity
  8
0
  6
Continuous
 62
     7
100
AcDbLine
 10
388.9679599471637
 20
460.6704815749998
 30
0.0
 11
388.9679599471637
 21
474.9546269703247
 31
0.0
  0
LINE
  5
121A
330
6C
100
AcDbEntity
  8
0
  6
Continuous
 62
     7
100
AcDbLine
 10
393.7063699471636
 20
460.3712135750003
 30
0.0
 11
393.7063699471636
 21
465.1595015750009
 31
0.0
  0
LINE
  5
121B
330
6C
100
AcDbEntity
  8
0
  6
Continuous
 62
     7
100
AcDbLine
 10
393.7063699471636
 20
469.1497415749998
 30
0.0
 11
393.7063699471638
 21
483.8402581549705
 31
0.0
  0
LINE
  5
121C
330
6C
100
AcDbEntity
  8
0
  6
Continuous
 62
     7
100
AcDbLine
 10
396.6471233562847
 20
470.865528614528
 30
0.0
 11
396.6471233562847
 21
469.1497415749998
 31
0.0
  0
LINE
  5
121D
330
6C
100
AcDbEntity
  8
0
  6
Continuous
 62
     7
100
AcDbLine
 10
396.6471233562847
 20
465.1595015750009
 30
0.0
 11
396.6471233562847
 21
460.6923350042887
 31
0.0
  0
ARC
  5
121E
330
6C
100
AcDbEntity
  8
0
  6
Continuous
 62
     7
100
AcDbCircle
 10
389.4667399471645
 20
460.6704815749998
 30
0.0
 40
0.49878
100
AcDbArc
 50
180.0
 51
253.4622105656401
  0
ARC
  5
121F
330
6C
100
AcDbEntity
  8
0
  6
Continuous
 62
     7
100
AcDbCircle
 10
393.5068579471635
 20
460.3712135750003
 30
0.0
 40
0.199512
100
AcDbArc
 50
298.8805110225894
 51
0.0
  0
ARC
  5
1220
330
6C
100
AcDbEntity
  8
0
  6
Continuous
 62
     7
100
AcDbCircle
 10
395.6274627679549
 20
467.1555144144768
 30
0.0
 40
1.99598275539444
100
AcDbArc
 50
269.9950061758008
 51
278.1569354073055
  0
ARC
  5
1221
330
6C
100
AcDbEntity
  8
0
  6
Continuous
 62
     7
100
AcDbCircle
 10
395.6274658597239
 20
467.1545398552178
 30
0.0
 40
1.99516647066756
100
AcDbArc
 50
278.1611528440989
 51
81.84345267623632
  0
ARC
  5
1222
330
6C
100
AcDbEntity
  8
0
  6
Continuous
 62
     7
100
AcDbCircle
 10
395.627000377613
 20
467.1551287903675
 30
0.0
 40
1.99458271152384
100
AcDbArc
 50
89.99212530572094
 51
245.3612689181129
  0
ARC
  5
1223
330
6C
100
AcDbEntity
  8
0
  6
Continuous
 62
     7
100
AcDbCircle
 10
395.6270003044583
 20
467.1541140058315
 30
0.0
 40
1.99458235971768
100
AcDbArc
 50
245.3551326824366
 51
270.0082872604916
  0
ARC
  5
1224
330
6C
100
AcDbEntity
  8
0
  6
Continuous
 62
     7
100
AcDbCircle
 10
386.5846580696788
 20
479.1520098735239
 30
0.0
 40
0.698292
100
AcDbArc
 50
138.7931923294049
 51
303.7104218891855
  0
SPLINE
  5
1225
330
6C
100
AcDbEntity
  8
0
  6
Continuous
 62
     7
100
AcDbSpline
210
0.0
220
0.0
230
1.0
 70
     8
 71
     3
 72
    10
 73
     6
 74
     4
 42
0.0000000001
 43
0.0000000001
 44
0.0000000001
 12
-1.0
 22
-0.0000000008234925
 32
0.0
 13
0.0
 23
-1.0
 33
0.0
 40
0.0
 40
0.0
 40
0.0
 40
0.0
 40
4.614736607547365
 40
7.722665136566024
 40
10.82866746133421
 40
10.82866746133421
 40
10.82866746133421
 40
10.82866746133421
 10
403.6348862217886
 20
477.8484486145286
 30
0.0
 10
402.0966406859395
 20
477.8484486132618
 30
0.0
 10
399.4345007709424
 20
476.9124584258544
 30
0.0
 10
397.1336167789023
 20
474.0006128318869
 30
0.0
 10
396.6469751005747
 20
471.9008627227849
 30
0.0
 10
396.6469751005747
 20
470.8655286145289
 30
0.0
 11
403.6348862217886
 21
477.8484486145286
 31
0.0
 11
399.2797300092251
 21
476.3225363230757
 31
0.0
 11
397.3417615729876
 21
473.8928248007679
 31
0.0
 11
396.6469751005747
 21
470.8655286145289
 31
0.0
  0
LINE
  5
1226
330
6C
100
AcDbEntity
  8
0
100
AcDbLine
 10
408.6256207395599
 20
477.8484486145281
 30
0.0
 11
408.5835578485179
 21
478.3393346874569
 31
0.0
  0
LINE
  5
1227
330
6C
100
AcDbEntity
  8
0
100
AcDbLine
 10
408.5835578485179
 20
478.3393346874569
 30
0.0
 11
392.0511773485662
 21
484.4522748794518
 31
0.0
  0
LINE
  5
1228
330
6C
100
AcDbEntity
  8
0
100
AcDbLine
 10
389.8605549772785
 20
483.9026627050784
 30
0.0
 11
386.0593074119933
 21
479.6120298775743
 31
0.0
  0
LINE
  5
1229
330
6C
100
AcDbEntity
  8
0
100
AcDbLine
 10
386.9722071602737
 20
478.5711334497631
 30
0.0
 11
389.1485497988023
 21
480.0231455750003
 31
0.0
  0
LINE
  5
122A
330
6C
100
AcDbEntity
  8
0
100
AcDbLine
 10
389.1485497988023
 20
480.0231455750003
 30
0.0
 11
389.7021913565122
 21
480.1908821124367
 31
0.0
  0
LINE
  5
122B
330
6C
100
AcDbEntity
  8
0
100
AcDbLine
 10
389.7021913565122
 20
480.1908821124367
 30
0.0
 11
390.2037416997345
 21
480.0556290223091
 31
0.0
  0
LINE
  5
122C
330
6C
100
AcDbEntity
  8
0
100
AcDbLine
 10
390.2037416997345
 20
480.0556290223091
 30
0.0
 11
390.6427618020397
 21
479.5445015015233
 31
0.0
  0
LINE
  5
122D
330
6C
100
AcDbEntity
  8
0
100
AcDbLine
 10
390.6427618020397
 20
479.5445015015233
 30
0.0
 11
390.7409040314778
 21
478.9499424975594
 31
0.0
  0
LINE
  5
122E
330
6C
100
AcDbEntity
  8
0
100
AcDbLine
 10
390.7409040314778
 20
478.9499424975594
 30
0.0
 11
390.3911305701303
 21
478.1799963679458
 31
0.0
  0
LINE
  5
122F
330
6C
100
AcDbEntity
  8
0
100
AcDbLine
 10
390.3911305701303
 20
478.1799963679458
 30
0.0
 11
389.4503034754316
 21
476.8310778139329
 31
0.0
  0
LINE
  5
1230
330
6C
100
AcDbEntity
  8
0
100
AcDbLine
 10
389.4503034754316
 20
476.8310778139329
 30
0.0
 11
389.1654121115916
 21
476.0807177094701
 31
0.0
  0
LINE
  5
1231
330
6C
100
AcDbEntity
  8
0
100
AcDbLine
 10
389.1654121115916
 20
476.0807177094701
 30
0.0
 11
388.9679599471636
 21
474.9546269703236
 31
0.0
  0
LINE
  5
1232
330
6C
100
AcDbEntity
  8
0
100
AcDbLine
 10
396.6471233562847
 20
465.1595015750009
 30
0.0
 11
391.711249947164
 21
465.1595015750009
 31
0.0
  0
LINE
  5
1233
330
6C
100
AcDbEntity
  8
0
100
AcDbLine
 10
391.711249947164
 20
465.1595015750009
 30
0.0
 11
391.711249947164
 21
469.149741574999
 31
0.0
  0
LINE
  5
1234
330
6C
100
AcDbEntity
  8
0
100
AcDbLine
 10
391.711249947164
 20
469.149741574999
 30
0.0
 11
396.6470983521126
 21
469.1497415749998
 31
0.0
  0
LINE
  5
1235
330
6C
100
AcDbEntity
  8
0
100
AcDbLine
 10
403.6348496304812
 20
477.8484486145281
 30
0.0
 11
408.6255720786302
 21
477.8640323622352
 31
0.0
  0
LINE
  5
1236
330
6C
100
AcDbEntity
  8
0
100
AcDbLine
 10
396.1471233562848
 20
460.1923350042887
 30
0.0
 11
389.32476338108
 21
460.1923350042887
 31
0.0
  0
ARC
  5
1237
330
6C
100
AcDbEntity
  8
0
100
AcDbCircle
 10
396.1471233562848
 20
460.6923350042887
 30
0.0
 40
0.5
100
AcDbArc
 50
270.0
 51
0.0
  0
ARC
  5
1238
330
6C
100
AcDbEntity
  8
0
100
AcDbCircle
 10
391.3575628663132
 20
482.5764020292806
 30
0.0
 40
2.0
100
AcDbArc
 50
69.70784441536117
 51
138.4609506089262
  0
LINE
  5
1239
330
6C
100
AcDbEntity
  8
0
100
AcDbLine
 10
193.5334452699173
 20
479.6120298774597
 30
0.0
 11
386.0593074118917
 21
479.6120298774597
 31
0.0
  0
LINE
  5
123A
330
6C
100
AcDbEntity
  8
0
100
AcDbLine
 10
386.5846580696788
 20
478.4537178735239
 30
0.0
 11
193.0080946121301
 21
478.4537178735239
 31
0.0
  0
LINE
  5
123B
330
6C
100
AcDbEntity
  8
0
100
AcDbLine
 10
189.2016221116786
 20
478.1799963679458
 30
0.0
 11
390.3911305701303
 21
478.1799963679458
 31
0.0
  0
LINE
  5
123C
330
6C
100
AcDbEntity
  8
0
100
AcDbLine
 10
389.3247633810799
 20
460.1923350042887
 30
0.0
 11
190.2679893007291
 21
460.1923350042887
 31
0.0
  0
LINE
  5
123D
330
6C
100
AcDbEntity
  8
0
100
AcDbLine
 10
189.7064725863984
 20
483.9311444431899
 30
0.0
 11
389.8862800954105
 21
483.9311444431899
 31
0.0
  0
LINE
  5
123E
330
6C
100
AcDbEntity
  8
0
100
AcDbLine
 10
391.3575628663132
 20
484.5764020292806
 30
0.0
 11
188.2351898154957
 21
484.5764020292806
 31
0.0
  0
LINE
  5
123F
330
6C
100
AcDbEntity
  8
7A
100
AcDbLine
 10
289.7963763409045
 20
490.5764020292806
 30
0.0
 11
289.7963763409045
 21
454.1923350042886
 31
0.0
1001
GENIUS_GENODEF_13
1002
{
1000
HIER
1070
     0
1002
}
1002
{
1000
MANEDIT
1070
     0
1002
}
1002
{
1000
NOSEL
1070
     0
1002
}
1002
{
1000
BEHIND
1070
     0
1002
}
1002
{
1000
OTHER
1070
     0
1002
}
1002
{
1000
REACTOR
1002
}
1001
GENIUS_GENOBJ-N-CEN_13
1002
{
1000
OWNER
1000
GEN
1002
}
1001
GENIUS_GENCEN_19
1002
{
1040
6.0
1002
}
  0
ENDSEC
  0
SECTION
  2
OBJECTS
  0
DICTIONARY
  5
C
330
0
100
AcDbDictionary
281
     1
  3
ACAD_2007HEADERVARS_RT
350
128F
  3
ACAD_COLOR
350
63
  3
ACAD_GROUP
350
D
  3
ACAD_LAYOUT
350
62
  3
ACAD_MATERIAL
350
10
  3
ACAD_MLEADERSTYLE
350
66
  3
ACAD_MLINESTYLE
350
5F
  3
ACAD_PLOTSETTINGS
350
61
  3
ACAD_PLOTSTYLENAME
350
E
  3
ACAD_SCALELIST
350
42
  3
ACAD_TABLESTYLE
350
64
  3
ACAD_VISUALSTYLE
350
29
  3
ACDB_RECOMPOSE_DATA
350
A95
  3
AcDbVariableDictionary
350
A5E
  3
AcmDictionary
350
B30
  3
AMG
350
AD3
  3
AMGSNAPSETTINGS
350
B76
  0
DICTIONARY
  5
CCD
330
2
100
AcDbDictionary
280
     1
281
     1
  3
ACAD_LAYERSTATES
360
118D
  3
AMLAYER_GROUPCOLORS
360
CCE
  0
DICTIONARY
  5
1181
330
1180
100
AcDbDictionary
280
     1
281
     1
  0
DICTIONARY
  5
CD2
330
6C
100
AcDbDictionary
280
     1
281
     1
  3
ACAD_SORTENTS
360
CD3
  0
DICTIONARY
  5
128F
102
{ACAD_REACTORS
330
C
102
}
330
C
100
AcDbDictionary
281
     1
  3
DIMJOGANG
350
1290
  3
DIMLTEX1
350
1292
  3
DIMLTEX2
350
1293
  3
DIMLTYPE
350
1291
  3
INTERFEREVPVS
350
1294
  0
DICTIONARY
  5
63
102
{ACAD_REACTORS
330
C
102
}
330
C
100
AcDbDictionary
281
     1
  0
DICTIONARY
  5
D
102
{ACAD_REACTORS
330
C
102
}
330
C
100
AcDbDictionary
281
     1
  0
DICTIONARY
  5
62
102
{ACAD_REACTORS
330
C
102
}
330
C
100
AcDbDictionary
281
     1
  3
Layout1
350
6B
  3
Layout2
350
73
  3
Model
350
6F
  0
DICTIONARY
  5
10
102
{ACAD_REACTORS
330
C
102
}
330
C
100
AcDbDictionary
281
     1
  3
ByBlock
350
19
  3
ByLayer
350
11
  3
Global
350
21
  0
DICTIONARY
  5
66
102
{ACAD_REACTORS
330
C
102
}
330
C
100
AcDbDictionary
281
     1
  3
Standard
350
67
  0
DICTIONARY
  5
5F
102
{ACAD_REACTORS
330
C
102
}
330
C
100
AcDbDictionary
281
     1
  3
Standard
350
60
  0
DICTIONARY
  5
61
102
{ACAD_REACTORS
330
C
102
}
330
C
100
AcDbDictionary
281
     1
  0
ACDBDICTIONARYWDFLT
  5
E
102
{ACAD_REACTORS
330
C
102
}
330
C
100
AcDbDictionary
281
     1
  3
Normal
350
F
100
AcDbDictionaryWithDefault
340
F
  0
DICTIONARY
  5
42
102
{ACAD_REACTORS
330
C
102
}
330
C
100
AcDbDictionary
281
     1
  3
*A1
350
118C
  3
A0
350
43
  3
A1
350
44
  3
A2
350
45
  3
A3
350
46
  3
A4
350
47
  3
A5
350
48
  3
A6
350
49
  3
A7
350
4A
  3
A8
350
4B
  3
A9
350
4C
  3
B0
350
4D
  3
B1
350
4E
  3
B2
350
4F
  3
B3
350
50
  3
B4
350
51
  3
B5
350
52
  3
B6
350
53
  0
DICTIONARY
  5
64
102
{ACAD_REACTORS
330
C
102
}
330
C
100
AcDbDictionary
281
     1
  3
Standard
350
65
  0
DICTIONARY
  5
29
102
{ACAD_REACTORS
330
C
102
}
330
C
100
AcDbDictionary
281
     1
  3
2dWireframe
350
2F
  3
3D Hidden
350
ACC
  3
3dWireframe
350
ACB
  3
Basic
350
2E
  3
Brighten
350
35
  3
ColorChange
350
39
  3
Conceptual
350
32
  3
Dim
350
34
  3
EdgeColorOff
350
41
  3
Facepattern
350
38
  3
Flat
350
2A
  3
FlatWithEdges
350
2B
  3
Gouraud
350
2C
  3
GouraudWithEdges
350
2D
  3
Hidden
350
31
  3
JitterOff
350
3F
  3
Linepattern
350
37
  3
OverhangOff
350
40
  3
Realistic
350
33
  3
Shaded
350
3E
  3
Shaded with edges
350
3D
  3
Shades of Gray
350
3A
  3
Sketchy
350
3B
  3
Thicken
350
36
  3
Wireframe
350
30
  3
X-Ray
350
3C
  0
XRECORD
  5
A95
102
{ACAD_REACTORS
330
C
102
}
330
C
100
AcDbXrecord
280
     1
 90
        1
330
65
  0
DICTIONARY
  5
A5E
102
{ACAD_REACTORS
330
C
102
}
330
C
100
AcDbDictionary
281
     1
  3
CANNOSCALE
350
A61
  3
CMLEADERSTYLE
350
A60
  3
CTABLESTYLE
350
A5F
  3
LAYEREVAL
350
1289
  3
LAYERNOTIFY
350
128A
  3
LIGHTINGUNITS
350
1288
  3
LOFTANG1
350
128B
  3
LOFTANG2
350
128C
  3
LONGITUDE
350
128D
  3
MSLTSCALE
350
1287
  3
XCLIPFRAME
350
A62
  0
DICTIONARY
  5
B30
102
{ACAD_REACTORS
330
C
102
}
330
C
100
AcDbDictionary
281
     1
  3
AcmStdDictionary
350
B3D
  0
DICTIONARY
  5
AD3
102
{ACAD_REACTORS
330
C
102
}
330
C
100
AcDbDictionary
281
     1
  0
DICTIONARY
  5
B76
102
{ACAD_REACTORS
330
C
102
}
330
C
100
AcDbDictionary
281
     1
  0
DICTIONARY
  5
118D
102
{ACAD_REACTORS
330
CCD
102
}
330
CCD
100
AcDbDictionary
281
     1
  0
DICTIONARY
  5
CCE
102
{ACAD_REACTORS
330
CCD
102
}
330
CCD
100
AcDbDictionary
280
     1
281
     1
  0
SORTENTSTABLE
  5
CD3
102
{ACAD_REACTORS
330
CD2
102
}
330
CD2
100
AcDbSortentsTable
330
6C
331
226
  5
226
331
280
  5
280
331
3C2
  5
3C2
331
3C7
  5
3C7
331
285
  5
285
331
3C8
  5
3C8
331
441
  5
441
331
5AB
  5
5AB
331
3CD
  5
3CD
331
28B
  5
28B
331
290
  5
290
331
3B9
  5
3B9
331
4EC
  5
4EC
331
3BE
  5
3BE
331
CBA
  5
CBA
331
511
  5
511
331
227
  5
227
331
228
  5
228
331
281
  5
281
331
3C3
  5
3C3
331
31A
  5
31A
331
2BB
  5
2BB
331
286
  5
286
331
442
  5
442
331
3C9
  5
3C9
331
D3E
  5
D4B
331
5AC
  5
5AC
331
232
  5
232
331
3CE
  5
3CE
331
28C
  5
28C
331
4E8
  5
4E8
331
291
  5
291
331
3BA
  5
3BA
331
4ED
  5
4ED
331
2D3
  5
2D3
331
FBB
  5
FBE
331
3BF
  5
3BF
331
27D
  5
27D
331
512
  5
512
331
431
  5
431
331
282
  5
282
331
3C4
  5
3C4
331
287
  5
287
331
288
  5
288
331
3CA
  5
3CA
331
5AD
  5
5AD
331
3B5
  5
3B5
331
3CF
  5
3CF
331
28D
  5
28D
331
4E9
  5
4E9
331
3BB
  5
3BB
331
292
  5
292
331
4EE
  5
4EE
331
224
  5
224
331
3C0
  5
3C0
331
27E
  5
27E
331
31C
  5
31C
331
3C5
  5
3C5
331
283
  5
283
331
F37
  5
F38
331
F38
  5
FBB
331
289
  5
289
331
3CB
  5
3CB
331
5AE
  5
5AE
331
3B6
  5
3B6
331
3D0
  5
3D0
331
28E
  5
28E
331
4EA
  5
4EA
331
3BC
  5
3BC
331
293
  5
293
331
4EF
  5
4EF
331
D4B
  5
F34
331
225
  5
225
331
318
  5
318
331
27F
  5
27F
331
3C1
  5
3C1
331
3C6
  5
3C6
331
284
  5
284
331
FC7
  5
D3E
331
28A
  5
28A
331
3CC
  5
3CC
331
2CB
  5
2CB
331
3B7
  5
3B7
331
3B8
  5
3B8
331
28F
  5
28F
331
4EB
  5
4EB
331
3BD
  5
3BD
331
294
  5
294
  0
XRECORD
  5
1290
102
{ACAD_REACTORS
330
128F
102
}
330
128F
100
AcDbXrecord
280
     1
 40
1.570796326794896
  0
XRECORD
  5
1292
102
{ACAD_REACTORS
330
128F
102
}
330
128F
100
AcDbXrecord
280
     1
340
5B
  0
XRECORD
  5
1293
102
{ACAD_REACTORS
330
128F
102
}
330
128F
100
AcDbXrecord
280
     1
340
5B
  0
XRECORD
  5
1291
102
{ACAD_REACTORS
330
128F
102
}
330
128F
100
AcDbXrecord
280
     1
340
5B
  0
XRECORD
  5
1294
102
{ACAD_REACTORS
330
128F
102
}
330
128F
100
AcDbXrecord
280
     1
340
30
  0
LAYOUT
  5
6B
102
{ACAD_REACTORS
330
62
102
}
330
62
100
AcDbPlotSettings
  1

  2

  4

  6

 40
0.0
 41
0.0
 42
0.0
 43
0.0
 44
0.0
 45
0.0
 46
0.0
 47
0.0
 48
0.0
 49
0.0
140
0.0
141
0.0
142
1.0
143
1.0
 70
   688
 72
     0
 73
     0
 74
     5
  7
monochrome.ctb
 75
    16
147
1.0
 76
     0
 77
     2
 78
   300
148
0.0
149
0.0
100
AcDbLayout
  1
Layout1
 70
     1
 71
     1
 10
0.0
 20
0.0
 11
1188.0
 21
840.0
 12
0.0
 22
0.0
 32
0.0
 14
0.0
 24
0.0
 34
0.0
 15
1188.0
 25
840.0
 35
0.0
146
0.0
 13
0.0
 23
0.0
 33
0.0
 16
1.0
 26
0.0
 36
0.0
 17
0.0
 27
1.0
 37
0.0
 76
     0
330
68
  0
LAYOUT
  5
73
102
{ACAD_REACTORS
330
62
102
}
330
62
100
AcDbPlotSettings
  1

  2

  4

  6

 40
0.0
 41
0.0
 42
0.0
 43
0.0
 44
0.0
 45
0.0
 46
0.0
 47
0.0
 48
0.0
 49
0.0
140
0.0
141
0.0
142
1.0
143
1.0
 70
   688
 72
     0
 73
     0
 74
     5
  7
monochrome.ctb
 75
    16
147
1.0
 76
     0
 77
     2
 78
   300
148
0.0
149
0.0
100
AcDbLayout
  1
Layout2
 70
     1
 71
     2
 10
0.0
 20
0.0
 11
12.0
 21
9.0
 12
0.0
 22
0.0
 32
0.0
 14
0.0
 24
0.0
 34
0.0
 15
0.0
 25
0.0
 35
0.0
146
0.0
 13
0.0
 23
0.0
 33
0.0
 16
1.0
 26
0.0
 36
0.0
 17
0.0
 27
1.0
 37
0.0
 76
     0
330
70
  0
LAYOUT
  5
6F
102
{ACAD_REACTORS
330
62
102
}
330
62
100
AcDbPlotSettings
  1

  2
Default Windows System Printer.pc3
  4
A4
  6

 40
6.805083274841308
 41
7.143725872039794
 42
6.805068969726562
 43
7.14373779296875
 44
209.9733276367187
 45
296.9683227539062
 46
24.22484525777401
 47
0.0
 48
98.96627341272324
 49
62.50776099466702
140
477.893018447865
141
786.683368834985
142
1.0
143
2.56181338267611
 70
 11956
 72
     1
 73
     0
 74
     4
  7
monochrome.ctb
 75
     0
147
0.3903484956251514
 76
     0
 77
     2
 78
   300
148
-98.96627341272324
149
-62.50776099466702
100
AcDbLayout
  1
Model
 70
     1
 71
     0
 10
0.0
 20
0.0
 11
12.0
 21
9.0
 12
0.0
 22
0.0
 32
0.0
 14
0.0
 24
0.0
 34
0.0
 15
0.0
 25
0.0
 35
0.0
146
0.0
 13
0.0
 23
0.0
 33
0.0
 16
1.0
 26
0.0
 36
0.0
 17
0.0
 27
1.0
 37
0.0
 76
     0
330
6C
331
57
1001
ACAD_PSEXT
1000
Default Windows System Printer.pc3
1000
Xerox WorkCentre 5230
1000
ST - Konstruktion
1000
Xereox WorkCentre 5230
1070
     0
  0
MATERIAL
  5
19
102
{ACAD_XDICTIONARY
360
1A
102
}
102
{ACAD_REACTORS
330
10
102
}
330
10
100
AcDbMaterial
  1
ByBlock
 72
     0
 43
0.0208333333333333
 43
0.0
 43
0.0
 43
0.0
 43
0.0
 43
0.0208333333333333
 43
0.0
 43
0.0
 43
0.0
 43
0.0
 43
1.0
 43
0.0
 43
0.0
 43
0.0
 43
0.0
 43
1.0
 77
     0
 47
0.0208333333333333
 47
0.0
 47
0.0
 47
0.0
 47
0.0
 47
0.0208333333333333
 47
0.0
 47
0.0
 47
0.0
 47
0.0
 47
1.0
 47
0.0
 47
0.0
 47
0.0
 47
0.0
 47
1.0
171
     0
 49
0.0208333333333333
 49
0.0
 49
0.0
 49
0.0
 49
0.0
 49
0.0208333333333333
 49
0.0
 49
0.0
 49
0.0
 49
0.0
 49
1.0
 49
0.0
 49
0.0
 49
0.0
 49
0.0
 49
1.0
175
     0
142
0.0208333333333333
142
0.0
142
0.0
142
0.0
142
0.0
142
0.0208333333333333
142
0.0
142
0.0
142
0.0
142
0.0
142
1.0
142
0.0
142
0.0
142
0.0
142
0.0
142
1.0
179
     0
144
0.0208333333333333
144
0.0
144
0.0
144
0.0
144
0.0
144
0.0208333333333333
144
0.0
144
0.0
144
0.0
144
0.0
144
1.0
144
0.0
144
0.0
144
0.0
144
0.0
144
1.0
147
0.0208333333333333
147
0.0
147
0.0
147
0.0
147
0.0
147
0.0208333333333333
147
0.0
147
0.0
147
0.0
147
0.0
147
1.0
147
0.0
147
0.0
147
0.0
147
0.0
147
1.0
  0
MATERIAL
  5
11
102
{ACAD_XDICTIONARY
360
12
102
}
102
{ACAD_REACTORS
330
10
102
}
330
10
100
AcDbMaterial
  1
ByLayer
 72
     0
 43
0.0208333333333333
 43
0.0
 43
0.0
 43
0.0
 43
0.0
 43
0.0208333333333333
 43
0.0
 43
0.0
 43
0.0
 43
0.0
 43
1.0
 43
0.0
 43
0.0
 43
0.0
 43
0.0
 43
1.0
 77
     0
 47
0.0208333333333333
 47
0.0
 47
0.0
 47
0.0
 47
0.0
 47
0.0208333333333333
 47
0.0
 47
0.0
 47
0.0
 47
0.0
 47
1.0
 47
0.0
 47
0.0
 47
0.0
 47
0.0
 47
1.0
171
     0
 49
0.0208333333333333
 49
0.0
 49
0.0
 49
0.0
 49
0.0
 49
0.0208333333333333
 49
0.0
 49
0.0
 49
0.0
 49
0.0
 49
1.0
 49
0.0
 49
0.0
 49
0.0
 49
0.0
 49
1.0
175
     0
142
0.0208333333333333
142
0.0
142
0.0
142
0.0
142
0.0
142
0.0208333333333333
142
0.0
142
0.0
142
0.0
142
0.0
142
1.0
142
0.0
142
0.0
142
0.0
142
0.0
142
1.0
179
     0
144
0.0208333333333333
144
0.0
144
0.0
144
0.0
144
0.0
144
0.0208333333333333
144
0.0
144
0.0
144
0.0
144
0.0
144
1.0
144
0.0
144
0.0
144
0.0
144
0.0
144
1.0
147
0.0208333333333333
147
0.0
147
0.0
147
0.0
147
0.0
147
0.0208333333333333
147
0.0
147
0.0
147
0.0
147
0.0
147
1.0
147
0.0
147
0.0
147
0.0
147
0.0
147
1.0
  0
MATERIAL
  5
21
102
{ACAD_XDICTIONARY
360
22
102
}
102
{ACAD_REACTORS
330
10
102
}
330
10
100
AcDbMaterial
  1
Global
 72
     0
 43
0.0208333333333333
 43
0.0
 43
0.0
 43
0.0
 43
0.0
 43
0.0208333333333333
 43
0.0
 43
0.0
 43
0.0
 43
0.0
 43
1.0
 43
0.0
 43
0.0
 43
0.0
 43
0.0
 43
1.0
 77
     0
 47
0.0208333333333333
 47
0.0
 47
0.0
 47
0.0
 47
0.0
 47
0.0208333333333333
 47
0.0
 47
0.0
 47
0.0
 47
0.0
 47
1.0
 47
0.0
 47
0.0
 47
0.0
 47
0.0
 47
1.0
171
     0
 49
0.0208333333333333
 49
0.0
 49
0.0
 49
0.0
 49
0.0
 49
0.0208333333333333
 49
0.0
 49
0.0
 49
0.0
 49
0.0
 49
1.0
 49
0.0
 49
0.0
 49
0.0
 49
0.0
 49
1.0
175
     0
142
0.0208333333333333
142
0.0
142
0.0
142
0.0
142
0.0
142
0.0208333333333333
142
0.0
142
0.0
142
0.0
142
0.0
142
1.0
142
0.0
142
0.0
142
0.0
142
0.0
142
1.0
179
     0
144
0.0208333333333333
144
0.0
144
0.0
144
0.0
144
0.0
144
0.0208333333333333
144
0.0
144
0.0
144
0.0
144
0.0
144
1.0
144
0.0
144
0.0
144
0.0
144
0.0
144
1.0
147
0.0208333333333333
147
0.0
147
0.0
147
0.0
147
0.0
147
0.0208333333333333
147
0.0
147
0.0
147
0.0
147
0.0
147
1.0
147
0.0
147
0.0
147
0.0
147
0.0
147
1.0
  0
MLEADERSTYLE
  5
67
102
{ACAD_REACTORS
330
66
102
}
330
66
100
AcDbMLeaderStyle
170
     2
171
     1
172
     0
 90
        2
 40
0.0
 41
0.0
173
     1
 91
-1056964608
340
5B
 92
       -2
290
     1
 42
0.09
291
     1
 43
0.36
  3
Standard
 44
0.18
300

342
55
174
     1
178
     6
175
     1
176
     0
 93
-1056964608
 45
0.18
292
     0
297
     0
 46
0.18
 94
-1056964608
 47
1.0
 49
1.0
140
1.0
293
     1
141
0.0
294
     1
177
     0
142
1.0
295
     0
296
     0
143
0.125
1001
ACAD_MLEADERVER
1070
     2
  0
MLINESTYLE
  5
60
102
{ACAD_REACTORS
330
5F
102
}
330
5F
100
AcDbMlineStyle
  2
STANDARD
 70
     0
  3

 62
   256
 51
90.0
 52
90.0
 71
     2
 49
0.5
 62
   256
  6
BYLAYER
 49
-0.5
 62
   256
  6
BYLAYER
  0
ACDBPLACEHOLDER
  5
F
102
{ACAD_REACTORS
330
E
102
}
330
E
  0
SCALE
  5
118C
102
{ACAD_REACTORS
330
42
102
}
330
42
100
AcDbScale
 70
     0
300
1:2
140
1.0
141
2.0
290
     0
  0
SCALE
  5
43
102
{ACAD_REACTORS
330
42
102
}
330
42
100
AcDbScale
 70
     0
300
1:1
140
1.0
141
1.0
290
     1
  0
SCALE
  5
44
102
{ACAD_REACTORS
330
42
102
}
330
42
100
AcDbScale
 70
     0
300
1/128" = 1'-0"
140
0.0078125
141
12.0
290
     0
  0
SCALE
  5
45
102
{ACAD_REACTORS
330
42
102
}
330
42
100
AcDbScale
 70
     0
300
1/64" = 1'-0"
140
0.015625
141
12.0
290
     0
  0
SCALE
  5
46
102
{ACAD_REACTORS
330
42
102
}
330
42
100
AcDbScale
 70
     0
300
1/32" = 1'-0"
140
0.03125
141
12.0
290
     0
  0
SCALE
  5
47
102
{ACAD_REACTORS
330
42
102
}
330
42
100
AcDbScale
 70
     0
300
1/16" = 1'-0"
140
0.0625
141
12.0
290
     0
  0
SCALE
  5
48
102
{ACAD_REACTORS
330
42
102
}
330
42
100
AcDbScale
 70
     0
300
3/32" = 1'-0"
140
0.09375
141
12.0
290
     0
  0
SCALE
  5
49
102
{ACAD_REACTORS
330
42
102
}
330
42
100
AcDbScale
 70
     0
300
1/8" = 1'-0"
140
0.125
141
12.0
290
     0
  0
SCALE
  5
4A
102
{ACAD_REACTORS
330
42
102
}
330
42
100
AcDbScale
 70
     0
300
3/16" = 1'-0"
140
0.1875
141
12.0
290
     0
  0
SCALE
  5
4B
102
{ACAD_REACTORS
330
42
102
}
330
42
100
AcDbScale
 70
     0
300
1/4" = 1'-0"
140
0.25
141
12.0
290
     0
  0
SCALE
  5
4C
102
{ACAD_REACTORS
330
42
102
}
330
42
100
AcDbScale
 70
     0
300
3/8" = 1'-0"
140
0.375
141
12.0
290
     0
  0
SCALE
  5
4D
102
{ACAD_REACTORS
330
42
102
}
330
42
100
AcDbScale
 70
     0
300
1/2" = 1'-0"
140
0.5
141
12.0
290
     0
  0
SCALE
  5
4E
102
{ACAD_REACTORS
330
42
102
}
330
42
100
AcDbScale
 70
     0
300
3/4" = 1'-0"
140
0.75
141
12.0
290
     0
  0
SCALE
  5
4F
102
{ACAD_REACTORS
330
42
102
}
330
42
100
AcDbScale
 70
     0
300
1" = 1'-0"
140
1.0
141
12.0
290
     0
  0
SCALE
  5
50
102
{ACAD_REACTORS
330
42
102
}
330
42
100
AcDbScale
 70
     0
300
1-1/2" = 1'-0"
140
1.5
141
12.0
290
     0
  0
SCALE
  5
51
102
{ACAD_REACTORS
330
42
102
}
330
42
100
AcDbScale
 70
     0
300
3" = 1'-0"
140
3.0
141
12.0
290
     0
  0
SCALE
  5
52
102
{ACAD_REACTORS
330
42
102
}
330
42
100
AcDbScale
 70
     0
300
6" = 1'-0"
140
6.0
141
12.0
290
     0
  0
SCALE
  5
53
102
{ACAD_REACTORS
330
42
102
}
330
42
100
AcDbScale
 70
     0
300
1'-0" = 1'-0"
140
12.0
141
12.0
290
     0
  0
TABLESTYLE
  5
65
102
{ACAD_XDICTIONARY
360
A63
102
}
102
{ACAD_REACTORS
330
64
102
}
330
64
100
AcDbTableStyle
  3
Standard
 70
     0
 71
     0
 40
0.06
 41
0.06
280
     0
281
     0
  7
Standard
140
0.18
170
     2
 62
     0
 63
     7
283
     0
274
    -2
284
     1
 64
     0
275
    -2
285
     1
 65
     0
276
    -2
286
     1
 66
     0
277
    -2
287
     1
 67
     0
278
    -2
288
     1
 68
     0
279
    -2
289
     1
 69
     0
  7
Standard
140
0.25
170
     5
 62
     0
 63
     7
283
     0
274
    -2
284
     1
 64
     0
275
    -2
285
     1
 65
     0
276
    -2
286
     1
 66
     0
277
    -2
287
     1
 67
     0
278
    -2
288
     1
 68
     0
279
    -2
289
     1
 69
     0
  7
Standard
140
0.18
170
     5
 62
     0
 63
     7
283
     0
274
    -2
284
     1
 64
     0
275
    -2
285
     1
 65
     0
276
    -2
286
     1
 66
     0
277
    -2
287
     1
 67
     0
278
    -2
288
     1
 68
     0
279
    -2
289
     1
 69
     0
  0
VISUALSTYLE
  5
2F
102
{ACAD_XDICTIONARY
360
AA0
102
}
102
{ACAD_REACTORS
330
29
102
}
330
29
100
AcDbVisualStyle
  2
2dWireframe
 70
     4
 71
     0
 72
     2
 73
     0
 90
        0
 40
-0.6
 41
-30.0
 62
     5
 63
     7
421
 16777215
 74
     1
 91
        4
 64
     7
 65
   257
 75
     1
175
     1
 42
1.0
 92
        0
 66
   257
 43
1.0
 76
     1
 77
     6
 78
     2
 67
     7
 79
     5
170
     0
171
     0
290
     0
174
     0
 93
        1
 44
0.0
173
     0
291
     0
 45
0.0
1001
ACAD
1000
AcDbSavedByObjectVersion
1070
     0
  0
VISUALSTYLE
  5
ACC
102
{ACAD_REACTORS
330
29
102
}
330
29
100
AcDbVisualStyle
  2
3D Hidden
 70
     6
 71
     1
 72
     2
 73
     2
 90
        0
 40
-0.6
 41
-30.0
 62
     5
 63
     7
421
 16777215
 74
     2
 91
        2
 64
     7
 65
   257
 75
     2
175
     1
 42
40.0
 92
        0
 66
   257
 43
1.0
 76
     1
 77
     6
 78
     2
 67
     7
 79
     3
170
     0
171
     0
290
     0
174
     0
 93
        1
 44
0.0
173
     0
291
     0
 45
0.0
1001
ACAD
1000
AcDbSavedByObjectVersion
1070
     0
  0
VISUALSTYLE
  5
ACB
102
{ACAD_REACTORS
330
29
102
}
330
29
100
AcDbVisualStyle
  2
3dWireframe
 70
     5
 71
     0
 72
     2
 73
     0
 90
        0
 40
-0.6
 41
-30.0
 62
     5
 63
     7
421
 16777215
 74
     1
 91
        4
 64
     7
 65
   257
 75
     1
175
     1
 42
1.0
 92
        0
 66
   257
 43
1.0
 76
     1
 77
     6
 78
     2
 67
     7
 79
     5
170
     0
171
     0
290
     0
174
     0
 93
        1
 44
0.0
173
     0
291
     0
 45
0.0
1001
ACAD
1000
AcDbSavedByObjectVersion
1070
     0
  0
VISUALSTYLE
  5
2E
102
{ACAD_XDICTIONARY
360
A9E
102
}
102
{ACAD_REACTORS
330
29
102
}
330
29
100
AcDbVisualStyle
  2
Basic
 70
     7
 71
     1
 72
     0
 73
     1
 90
        0
 40
-0.6
 41
-30.0
 62
     5
 63
     7
421
 16777215
 74
     0
 91
        4
 64
     7
 65
   257
 75
     1
175
     1
 42
1.0
 92
        8
 66
     7
 43
1.0
 76
     1
 77
     6
 78
     2
 67
     7
 79
     5
170
     0
171
     0
290
     0
174
     0
 93
        1
 44
0.0
173
     0
291
     1
 45
0.0
1001
ACAD
1000
AcDbSavedByObjectVersion
1070
     0
  0
VISUALSTYLE
  5
35
102
{ACAD_XDICTIONARY
360
AAC
102
}
102
{ACAD_REACTORS
330
29
102
}
330
29
100
AcDbVisualStyle
  2
Brighten
 70
    12
 71
     2
 72
     2
 73
     0
 90
        0
 40
-0.6
 41
-30.0
 62
     5
 63
     7
421
 16777215
 74
     1
 91
        4
 64
     7
 65
   257
 75
     1
175
     1
 42
1.0
 92
        8
 66
     7
 43
1.0
 76
     1
 77
     6
 78
     2
 67
     7
 79
     5
170
     0
171
     0
290
     0
174
     0
 93
        1
 44
50.0
173
     0
291
     1
 45
0.0
1001
ACAD
1000
AcDbSavedByObjectVersion
1070
     0
  0
VISUALSTYLE
  5
39
102
{ACAD_XDICTIONARY
360
AB4
102
}
102
{ACAD_REACTORS
330
29
102
}
330
29
100
AcDbVisualStyle
  2
ColorChange
 70
    16
 71
     2
 72
     2
 73
     3
 90
        0
 40
-0.6
 41
-30.0
 62
     5
 63
     8
421
  8421504
 74
     1
 91
        4
 64
     7
 65
   257
 75
     1
175
     1
 42
1.0
 92
        8
 66
     8
424
  8421504
 43
1.0
 76
     1
 77
     6
 78
     2
 67
     7
 79
     5
170
     0
171
     0
290
     0
174
     0
 93
        1
 44
0.0
173
     0
291
     1
 45
0.0
1001
ACAD
1000
AcDbSavedByObjectVersion
1070
     0
  0
VISUALSTYLE
  5
32
102
{ACAD_XDICTIONARY
360
AA6
102
}
102
{ACAD_REACTORS
330
29
102
}
330
29
100
AcDbVisualStyle
  2
Conceptual
 70
     9
 71
     3
 72
     2
 73
     0
 90
        0
 40
-0.6
 41
-30.0
 62
     5
 63
     7
421
 16777215
 74
     2
 91
        2
 64
     7
 65
   257
 75
     1
175
     1
 42
179.0
 92
        8
 66
     7
 43
1.0
 76
     1
 77
     6
 78
     2
 67
     7
 79
     3
170
     0
171
     0
290
     0
174
     0
 93
        1
 44
0.0
173
     0
291
     0
 45
0.0
1001
ACAD
1000
AcDbSavedByObjectVersion
1070
     0
  0
VISUALSTYLE
  5
34
102
{ACAD_XDICTIONARY
360
AAA
102
}
102
{ACAD_REACTORS
330
29
102
}
330
29
100
AcDbVisualStyle
  2
Dim
 70
    11
 71
     2
 72
     2
 73
     0
 90
        0
 40
-0.6
 41
-30.0
 62
     5
 63
     7
421
 16777215
 74
     1
 91
        4
 64
     7
 65
   257
 75
     1
175
     1
 42
1.0
 92
        8
 66
     7
 43
1.0
 76
     1
 77
     6
 78
     2
 67
     7
 79
     5
170
     0
171
     0
290
     0
174
     0
 93
        1
 44
-50.0
173
     0
291
     1
 45
0.0
1001
ACAD
1000
AcDbSavedByObjectVersion
1070
     0
  0
VISUALSTYLE
  5
41
102
{ACAD_XDICTIONARY
360
AC4
102
}
102
{ACAD_REACTORS
330
29
102
}
330
29
100
AcDbVisualStyle
  2
EdgeColorOff
 70
    22
 71
     2
 72
     2
 73
     0
 90
        0
 40
-0.6
 41
-30.0
 62
     5
 63
     7
421
 16777215
 74
     1
 91
        4
 64
     7
 65
   257
 75
     1
175
     1
 42
1.0
 92
        8
 66
     7
 43
1.0
 76
     1
 77
     6
 78
     2
 67
     7
 79
     5
170
     0
171
     0
290
     0
174
     0
 93
        1
 44
0.0
173
     0
291
     1
 45
0.0
1001
ACAD
1000
AcDbSavedByObjectVersion
1070
     0
  0
VISUALSTYLE
  5
38
102
{ACAD_XDICTIONARY
360
AB2
102
}
102
{ACAD_REACTORS
330
29
102
}
330
29
100
AcDbVisualStyle
  2
Facepattern
 70
    15
 71
     2
 72
     2
 73
     0
 90
        0
 40
-0.6
 41
-30.0
 62
     5
 63
     7
421
 16777215
 74
     1
 91
        4
 64
     7
 65
   257
 75
     1
175
     1
 42
1.0
 92
        8
 66
     7
 43
1.0
 76
     1
 77
     6
 78
     2
 67
     7
 79
     5
170
     0
171
     0
290
     0
174
     0
 93
        1
 44
0.0
173
     0
291
     1
 45
0.0
1001
ACAD
1000
AcDbSavedByObjectVersion
1070
     0
  0
VISUALSTYLE
  5
2A
102
{ACAD_XDICTIONARY
360
A96
102
}
102
{ACAD_REACTORS
330
29
102
}
330
29
100
AcDbVisualStyle
  2
Flat
 70
     0
 71
     2
 72
     1
 73
     1
 90
        2
 40
-0.6
 41
30.0
 62
     5
 63
     7
421
 16777215
 74
     0
 91
        0
 64
     7
 65
   257
 75
     1
175
     1
 42
1.0
 92
        8
 66
     7
 43
1.0
 76
     1
 77
     6
 78
     2
 67
     7
 79
     5
170
     0
171
     0
290
     0
174
     0
 93
       13
 44
0.0
173
     0
291
     1
 45
0.0
1001
ACAD
1000
AcDbSavedByObjectVersion
1070
     0
  0
VISUALSTYLE
  5
2B
102
{ACAD_XDICTIONARY
360
A98
102
}
102
{ACAD_REACTORS
330
29
102
}
330
29
100
AcDbVisualStyle
  2
FlatWithEdges
 70
     1
 71
     2
 72
     1
 73
     1
 90
        2
 40
-0.6
 41
30.0
 62
     5
 63
     7
421
 16777215
 74
     1
 91
        0
 64
     7
 65
   257
 75
     1
175
     1
 42
1.0
 92
        0
 66
   257
 43
1.0
 76
     1
 77
     6
 78
     2
 67
     7
 79
     5
170
     0
171
     0
290
     0
174
     0
 93
       13
 44
0.0
173
     0
291
     1
 45
0.0
1001
ACAD
1000
AcDbSavedByObjectVersion
1070
     0
  0
VISUALSTYLE
  5
2C
102
{ACAD_XDICTIONARY
360
A9A
102
}
102
{ACAD_REACTORS
330
29
102
}
330
29
100
AcDbVisualStyle
  2
Gouraud
 70
     2
 71
     2
 72
     2
 73
     1
 90
        2
 40
-0.6
 41
30.0
 62
     5
 63
     7
421
 16777215
 74
     0
 91
        0
 64
     7
 65
   257
 75
     1
175
     1
 42
1.0
 92
        0
 66
     7
 43
1.0
 76
     1
 77
     6
 78
     2
 67
     7
 79
     5
170
     0
171
     0
290
     0
174
     0
 93
       13
 44
0.0
173
     0
291
     1
 45
0.0
1001
ACAD
1000
AcDbSavedByObjectVersion
1070
     0
  0
VISUALSTYLE
  5
2D
102
{ACAD_XDICTIONARY
360
A9C
102
}
102
{ACAD_REACTORS
330
29
102
}
330
29
100
AcDbVisualStyle
  2
GouraudWithEdges
 70
     3
 71
     2
 72
     2
 73
     1
 90
        2
 40
-0.6
 41
30.0
 62
     5
 63
     7
421
 16777215
 74
     1
 91
        0
 64
     7
 65
   257
 75
     1
175
     1
 42
1.0
 92
        0
 66
   257
 43
1.0
 76
     1
 77
     6
 78
     2
 67
     7
 79
     5
170
     0
171
     0
290
     0
174
     0
 93
       13
 44
0.0
173
     0
291
     1
 45
0.0
1001
ACAD
1000
AcDbSavedByObjectVersion
1070
     0
  0
VISUALSTYLE
  5
31
102
{ACAD_XDICTIONARY
360
AA4
102
}
102
{ACAD_REACTORS
330
29
102
}
330
29
100
AcDbVisualStyle
  2
Hidden
 70
     6
 71
     1
 72
     2
 73
     2
 90
        0
 40
-0.6
 41
-30.0
 62
     5
 63
     7
421
 16777215
 74
     2
 91
        2
 64
     7
 65
   257
 75
     2
175
     1
 42
40.0
 92
        0
 66
   257
 43
1.0
 76
     1
 77
     6
 78
     2
 67
     7
 79
     3
170
     0
171
     0
290
     0
174
     0
 93
        1
 44
0.0
173
     0
291
     0
 45
0.0
1001
ACAD
1000
AcDbSavedByObjectVersion
1070
     0
  0
VISUALSTYLE
  5
3F
102
{ACAD_XDICTIONARY
360
AC0
102
}
102
{ACAD_REACTORS
330
29
102
}
330
29
100
AcDbVisualStyle
  2
JitterOff
 70
    20
 71
     2
 72
     2
 73
     0
 90
        0
 40
-0.6
 41
-30.0
 62
     5
 63
     7
421
 16777215
 74
     1
 91
        4
 64
     7
 65
   257
 75
     1
175
     1
 42
1.0
 92
       10
 66
     7
 43
1.0
 76
     1
 77
     6
 78
     2
 67
     7
 79
     5
170
     0
171
     0
290
     0
174
     0
 93
        1
 44
0.0
173
     0
291
     1
 45
0.0
1001
ACAD
1000
AcDbSavedByObjectVersion
1070
     0
  0
VISUALSTYLE
  5
37
102
{ACAD_XDICTIONARY
360
AB0
102
}
102
{ACAD_REACTORS
330
29
102
}
330
29
100
AcDbVisualStyle
  2
Linepattern
 70
    14
 71
     2
 72
     2
 73
     0
 90
        0
 40
-0.6
 41
-30.0
 62
     5
 63
     7
421
 16777215
 74
     1
 91
        4
 64
     7
 65
   257
 75
     7
175
     7
 42
1.0
 92
        8
 66
     7
 43
1.0
 76
     1
 77
     6
 78
     2
 67
     7
 79
     5
170
     0
171
     0
290
     0
174
     0
 93
        1
 44
0.0
173
     0
291
     1
 45
0.0
1001
ACAD
1000
AcDbSavedByObjectVersion
1070
     0
  0
VISUALSTYLE
  5
40
102
{ACAD_XDICTIONARY
360
AC2
102
}
102
{ACAD_REACTORS
330
29
102
}
330
29
100
AcDbVisualStyle
  2
OverhangOff
 70
    21
 71
     2
 72
     2
 73
     0
 90
        0
 40
-0.6
 41
-30.0
 62
     5
 63
     7
421
 16777215
 74
     1
 91
        4
 64
     7
 65
   257
 75
     1
175
     1
 42
1.0
 92
        9
 66
     7
 43
1.0
 76
     1
 77
     6
 78
     2
 67
     7
 79
     5
170
     0
171
     0
290
     0
174
     0
 93
        1
 44
0.0
173
     0
291
     1
 45
0.0
1001
ACAD
1000
AcDbSavedByObjectVersion
1070
     0
  0
VISUALSTYLE
  5
33
102
{ACAD_XDICTIONARY
360
AA8
102
}
102
{ACAD_REACTORS
330
29
102
}
330
29
100
AcDbVisualStyle
  2
Realistic
 70
     8
 71
     2
 72
     2
 73
     0
 90
        2
 40
-0.6
 41
30.0
 62
     5
 63
     7
421
 16777215
 74
     0
 91
        0
 64
     7
 65
   257
 75
     1
175
     1
 42
1.0
 92
        8
 66
   257
 43
1.0
 76
     1
 77
     6
 78
     2
 67
     7
 79
     3
170
     0
171
     0
290
     0
174
     0
 93
       13
 44
0.0
173
     0
291
     0
 45
0.0
1001
ACAD
1000
AcDbSavedByObjectVersion
1070
     0
  0
VISUALSTYLE
  5
3E
102
{ACAD_XDICTIONARY
360
ABE
102
}
102
{ACAD_REACTORS
330
29
102
}
330
29
100
AcDbVisualStyle
  2
Shaded
 70
    27
 71
     2
 72
     2
 73
     1
 90
        2
 40
-0.6
 41
30.0
 62
     5
 63
     7
421
 16777215
 74
     0
 91
        4
 64
     7
 65
   257
 75
     1
175
     1
 42
1.0
 92
        8
 66
   257
 43
1.0
 76
     1
 77
     6
 78
     2
 67
     8
425
  7895160
 79
     3
170
     0
171
     0
290
     0
174
     0
 93
        5
 44
0.0
173
     0
291
     0
 45
0.0
1001
ACAD
1000
AcDbSavedByObjectVersion
1070
     0
  0
VISUALSTYLE
  5
3D
102
{ACAD_XDICTIONARY
360
ABC
102
}
102
{ACAD_REACTORS
330
29
102
}
330
29
100
AcDbVisualStyle
  2
Shaded with edges
 70
    26
 71
     2
 72
     2
 73
     1
 90
        2
 40
-0.6
 41
30.0
 62
     5
 63
     7
421
 16777215
 74
     1
 91
       10
 64
     7
 65
   257
 75
     2
175
     1
 42
1.0
 92
        8
 66
   257
 43
1.0
 76
     1
 77
     6
 78
     2
 67
     7
 79
     3
170
     0
171
     0
290
     0
174
     0
 93
        5
 44
0.0
173
     0
291
     0
 45
0.0
1001
ACAD
1000
AcDbSavedByObjectVersion
1070
     0
  0
VISUALSTYLE
  5
3A
102
{ACAD_XDICTIONARY
360
AB6
102
}
102
{ACAD_REACTORS
330
29
102
}
330
29
100
AcDbVisualStyle
  2
Shades of Gray
 70
    23
 71
     2
 72
     2
 73
     3
 90
        0
 40
-0.6
 41
-30.0
 62
     5
 63
     7
421
 16777215
 74
     2
 91
        2
 64
     7
 65
     7
 75
     1
175
     1
 42
40.0
 92
        8
 66
     7
 43
1.0
 76
     1
 77
     6
 78
     2
 67
     7
 79
     3
170
     0
171
     0
290
     0
174
     0
 93
        1
 44
0.0
173
     0
291
     0
 45
0.0
1001
ACAD
1000
AcDbSavedByObjectVersion
1070
     0
  0
VISUALSTYLE
  5
3B
102
{ACAD_XDICTIONARY
360
AB8
102
}
102
{ACAD_REACTORS
330
29
102
}
330
29
100
AcDbVisualStyle
  2
Sketchy
 70
    24
 71
     1
 72
     2
 73
     2
 90
        0
 40
-0.6
 41
-30.0
 62
     5
 63
     7
421
 16777215
 74
     2
 91
        2
 64
     7
 65
     7
 75
     1
175
     1
 42
40.0
 92
       11
 66
     7
 43
1.0
 76
     1
 77
     6
 78
     2
 67
     7
 79
     6
170
     0
171
     0
290
     0
174
     0
 93
        1
 44
0.0
173
     0
291
     0
 45
0.0
1001
ACAD
1000
AcDbSavedByObjectVersion
1070
     0
  0
VISUALSTYLE
  5
36
102
{ACAD_XDICTIONARY
360
AAE
102
}
102
{ACAD_REACTORS
330
29
102
}
330
29
100
AcDbVisualStyle
  2
Thicken
 70
    13
 71
     2
 72
     2
 73
     0
 90
        0
 40
-0.6
 41
-30.0
 62
     5
 63
     7
421
 16777215
 74
     1
 91
        4
 64
     7
 65
   257
 75
     1
175
     1
 42
1.0
 92
       12
 66
     7
 43
1.0
 76
     1
 77
     6
 78
     2
 67
     7
 79
     5
170
     0
171
     0
290
     0
174
     0
 93
        1
 44
0.0
173
     0
291
     1
 45
0.0
1001
ACAD
1000
AcDbSavedByObjectVersion
1070
     0
  0
VISUALSTYLE
  5
30
102
{ACAD_XDICTIONARY
360
AA2
102
}
102
{ACAD_REACTORS
330
29
102
}
330
29
100
AcDbVisualStyle
  2
Wireframe
 70
     5
 71
     0
 72
     2
 73
     0
 90
        0
 40
-0.6
 41
-30.0
 62
     5
 63
     7
421
 16777215
 74
     1
 91
        4
 64
     7
 65
   257
 75
     1
175
     1
 42
1.0
 92
        0
 66
   257
 43
1.0
 76
     1
 77
     6
 78
     2
 67
     7
 79
     3
170
     0
171
     0
290
     0
174
     0
 93
        1
 44
0.0
173
     0
291
     0
 45
0.0
1001
ACAD
1000
AcDbSavedByObjectVersion
1070
     0
  0
VISUALSTYLE
  5
3C
102
{ACAD_XDICTIONARY
360
ABA
102
}
102
{ACAD_REACTORS
330
29
102
}
330
29
100
AcDbVisualStyle
  2
X-Ray
 70
    25
 71
     2
 72
     2
 73
     1
 90
        1
 40
0.5
 41
-30.0
 62
     5
 63
     7
421
 16777215
 74
     1
 91
        0
 64
     7
 65
   257
 75
     1
175
     1
 42
1.0
 92
        8
 66
     7
 43
1.0
 76
     1
 77
     6
 78
     2
 67
     7
 79
     3
170
     0
171
     0
290
     0
174
     0
 93
       13
 44
0.0
173
     0
291
     0
 45
0.0
1001
ACAD
1000
AcDbSavedByObjectVersion
1070
     0
  0
DICTIONARYVAR
  5
A61
102
{ACAD_REACTORS
330
A5E
102
}
330
A5E
100
DictionaryVariables
280
     0
  1
1:1
  0
DICTIONARYVAR
  5
A60
102
{ACAD_REACTORS
330
A5E
102
}
330
A5E
100
DictionaryVariables
280
     0
  1
STANDARD
  0
DICTIONARYVAR
  5
A5F
102
{ACAD_REACTORS
330
A5E
102
}
330
A5E
100
DictionaryVariables
280
     0
  1
STANDARD
  0
DICTIONARYVAR
  5
1289
102
{ACAD_REACTORS
330
A5E
102
}
330
A5E
100
DictionaryVariables
280
     0
  1
0
  0
DICTIONARYVAR
  5
128A
102
{ACAD_REACTORS
330
A5E
102
}
330
A5E
100
DictionaryVariables
280
     0
  1
0
  0
DICTIONARYVAR
  5
1288
102
{ACAD_REACTORS
330
A5E
102
}
330
A5E
100
DictionaryVariables
280
     0
  1
2
  0
DICTIONARYVAR
  5
128B
102
{ACAD_REACTORS
330
A5E
102
}
330
A5E
100
DictionaryVariables
280
     0
  1
1.570796
  0
DICTIONARYVAR
  5
128C
102
{ACAD_REACTORS
330
A5E
102
}
330
A5E
100
DictionaryVariables
280
     0
  1
1.570796
  0
DICTIONARYVAR
  5
128D
102
{ACAD_REACTORS
330
A5E
102
}
330
A5E
100
DictionaryVariables
280
     0
  1
-122.394000
  0
DICTIONARYVAR
  5
1287
102
{ACAD_REACTORS
330
A5E
102
}
330
A5E
100
DictionaryVariables
280
     0
  1
1
  0
DICTIONARYVAR
  5
A62
102
{ACAD_REACTORS
330
A5E
102
}
330
A5E
100
DictionaryVariables
280
     0
  1
2
  0
DICTIONARY
  5
B3D
102
{ACAD_REACTORS
330
B30
102
}
330
B30
100
AcDbDictionary
281
     1
  0
DICTIONARY
  5
1A
330
19
100
AcDbDictionary
280
     1
281
     1
  3
ACAD_XREC_ROUNDTRIP
360
1296
  3
BUMPTILE
360
1C
  3
DIFFUSETILE
360
1B
  3
OPACITYTILE
360
1F
  3
REFLECTIONTILE
360
1E
  3
REFRACTIONTILE
360
20
  3
SPECULARTILE
360
1D
  0
DICTIONARY
  5
12
330
11
100
AcDbDictionary
280
     1
281
     1
  3
ACAD_XREC_ROUNDTRIP
360
1295
  3
BUMPTILE
360
14
  3
DIFFUSETILE
360
13
  3
OPACITYTILE
360
17
  3
REFLECTIONTILE
360
16
  3
REFRACTIONTILE
360
18
  3
SPECULARTILE
360
15
  0
DICTIONARY
  5
22
330
21
100
AcDbDictionary
280
     1
281
     1
  3
ACAD_XREC_ROUNDTRIP
360
1297
  3
BUMPTILE
360
24
  3
DIFFUSETILE
360
23
  3
OPACITYTILE
360
27
  3
REFLECTIONTILE
360
26
  3
REFRACTIONTILE
360
28
  3
SPECULARTILE
360
25
  0
DICTIONARY
  5
A63
330
65
100
AcDbDictionary
280
     1
281
     1
  3
ACAD_ROUNDTRIP_2008_TABLESTYLE_CELLSTYLEMAP
360
128E
  3
ACAD_XREC_ROUNDTRIP
360
1298
  0
DICTIONARY
  5
AA0
330
2F
100
AcDbDictionary
280
     1
281
     1
  3
ACAD_XREC_ROUNDTRIP
360
AA1
  0
DICTIONARY
  5
A9E
330
2E
100
AcDbDictionary
280
     1
281
     1
  3
ACAD_XREC_ROUNDTRIP
360
A9F
  0
DICTIONARY
  5
AAC
330
35
100
AcDbDictionary
280
     1
281
     1
  3
ACAD_XREC_ROUNDTRIP
360
AAD
  0
DICTIONARY
  5
AB4
330
39
100
AcDbDictionary
280
     1
281
     1
  3
ACAD_XREC_ROUNDTRIP
360
AB5
  0
DICTIONARY
  5
AA6
330
32
100
AcDbDictionary
280
     1
281
     1
  3
ACAD_XREC_ROUNDTRIP
360
AA7
  0
DICTIONARY
  5
AAA
330
34
100
AcDbDictionary
280
     1
281
     1
  3
ACAD_XREC_ROUNDTRIP
360
AAB
  0
DICTIONARY
  5
AC4
330
41
100
AcDbDictionary
280
     1
281
     1
  3
ACAD_XREC_ROUNDTRIP
360
AC5
  0
DICTIONARY
  5
AB2
330
38
100
AcDbDictionary
280
     1
281
     1
  3
ACAD_XREC_ROUNDTRIP
360
AB3
  0
DICTIONARY
  5
A96
330
2A
100
AcDbDictionary
280
     1
281
     1
  3
ACAD_XREC_ROUNDTRIP
360
A97
  0
DICTIONARY
  5
A98
330
2B
100
AcDbDictionary
280
     1
281
     1
  3
ACAD_XREC_ROUNDTRIP
360
A99
  0
DICTIONARY
  5
A9A
330
2C
100
AcDbDictionary
280
     1
281
     1
  3
ACAD_XREC_ROUNDTRIP
360
A9B
  0
DICTIONARY
  5
A9C
330
2D
100
AcDbDictionary
280
     1
281
     1
  3
ACAD_XREC_ROUNDTRIP
360
A9D
  0
DICTIONARY
  5
AA4
330
31
100
AcDbDictionary
280
     1
281
     1
  3
ACAD_XREC_ROUNDTRIP
360
AA5
  0
DICTIONARY
  5
AC0
330
3F
100
AcDbDictionary
280
     1
281
     1
  3
ACAD_XREC_ROUNDTRIP
360
AC1
  0
DICTIONARY
  5
AB0
330
37
100
AcDbDictionary
280
     1
281
     1
  3
ACAD_XREC_ROUNDTRIP
360
AB1
  0
DICTIONARY
  5
AC2
330
40
100
AcDbDictionary
280
     1
281
     1
  3
ACAD_XREC_ROUNDTRIP
360
AC3
  0
DICTIONARY
  5
AA8
330
33
100
AcDbDictionary
280
     1
281
     1
  3
ACAD_XREC_ROUNDTRIP
360
AA9
  0
DICTIONARY
  5
ABE
330
3E
100
AcDbDictionary
280
     1
281
     1
  3
ACAD_XREC_ROUNDTRIP
360
ABF
  0
DICTIONARY
  5
ABC
330
3D
100
AcDbDictionary
280
     1
281
     1
  3
ACAD_XREC_ROUNDTRIP
360
ABD
  0
DICTIONARY
  5
AB6
330
3A
100
AcDbDictionary
280
     1
281
     1
  3
ACAD_XREC_ROUNDTRIP
360
AB7
  0
DICTIONARY
  5
AB8
330
3B
100
AcDbDictionary
280
     1
281
     1
  3
ACAD_XREC_ROUNDTRIP
360
AB9
  0
DICTIONARY
  5
AAE
330
36
100
AcDbDictionary
280
     1
281
     1
  3
ACAD_XREC_ROUNDTRIP
360
AAF
  0
DICTIONARY
  5
AA2
330
30
100
AcDbDictionary
280
     1
281
     1
  3
ACAD_XREC_ROUNDTRIP
360
AA3
  0
DICTIONARY
  5
ABA
330
3C
100
AcDbDictionary
280
     1
281
     1
  3
ACAD_XREC_ROUNDTRIP
360
ABB
  0
XRECORD
  5
1296
102
{ACAD_REACTORS
330
1A
102
}
330
1A
100
AcDbXrecord
280
     1
102
MATERIAL
148
0.0
149
0.0
149
0.0
 93
        0
 94
      127
282
     0
 72
     0
 77
     0
171
     0
175
     0
179
     0
273
     0
  0
XRECORD
  5
1C
102
{ACAD_REACTORS
330
1A
102
}
330
1A
100
AcDbXrecord
280
     1
270
     1
271
     1
  0
XRECORD
  5
1B
102
{ACAD_REACTORS
330
1A
102
}
330
1A
100
AcDbXrecord
280
     1
270
     1
271
     1
  0
XRECORD
  5
1F
102
{ACAD_REACTORS
330
1A
102
}
330
1A
100
AcDbXrecord
280
     1
270
     1
271
     1
  0
XRECORD
  5
1E
102
{ACAD_REACTORS
330
1A
102
}
330
1A
100
AcDbXrecord
280
     1
270
     1
271
     1
  0
XRECORD
  5
20
102
{ACAD_REACTORS
330
1A
102
}
330
1A
100
AcDbXrecord
280
     1
270
     1
271
     1
  0
XRECORD
  5
1D
102
{ACAD_REACTORS
330
1A
102
}
330
1A
100
AcDbXrecord
280
     1
270
     1
271
     1
  0
XRECORD
  5
1295
102
{ACAD_REACTORS
330
12
102
}
330
12
100
AcDbXrecord
280
     1
102
MATERIAL
148
0.0
149
0.0
149
0.0
 93
        0
 94
      127
282
     0
 72
     0
 77
     0
171
     0
175
     0
179
     0
273
     0
  0
XRECORD
  5
14
102
{ACAD_REACTORS
330
12
102
}
330
12
100
AcDbXrecord
280
     1
270
     1
271
     1
  0
XRECORD
  5
13
102
{ACAD_REACTORS
330
12
102
}
330
12
100
AcDbXrecord
280
     1
270
     1
271
     1
  0
XRECORD
  5
17
102
{ACAD_REACTORS
330
12
102
}
330
12
100
AcDbXrecord
280
     1
270
     1
271
     1
  0
XRECORD
  5
16
102
{ACAD_REACTORS
330
12
102
}
330
12
100
AcDbXrecord
280
     1
270
     1
271
     1
  0
XRECORD
  5
18
102
{ACAD_REACTORS
330
12
102
}
330
12
100
AcDbXrecord
280
     1
270
     1
271
     1
  0
XRECORD
  5
15
102
{ACAD_REACTORS
330
12
102
}
330
12
100
AcDbXrecord
280
     1
270
     1
271
     1
  0
XRECORD
  5
1297
102
{ACAD_REACTORS
330
22
102
}
330
22
100
AcDbXrecord
280
     1
102
MATERIAL
148
0.0
149
0.0
149
0.0
 93
        0
 94
      127
282
     0
 72
     0
 77
     0
171
     0
175
     0
179
     0
273
     0
  0
XRECORD
  5
24
102
{ACAD_REACTORS
330
22
102
}
330
22
100
AcDbXrecord
280
     1
270
     1
271
     1
  0
XRECORD
  5
23
102
{ACAD_REACTORS
330
22
102
}
330
22
100
AcDbXrecord
280
     1
270
     1
271
     1
  0
XRECORD
  5
27
102
{ACAD_REACTORS
330
22
102
}
330
22
100
AcDbXrecord
280
     1
270
     1
271
     1
  0
XRECORD
  5
26
102
{ACAD_REACTORS
330
22
102
}
330
22
100
AcDbXrecord
280
     1
270
     1
271
     1
  0
XRECORD
  5
28
102
{ACAD_REACTORS
330
22
102
}
330
22
100
AcDbXrecord
280
     1
270
     1
271
     1
  0
XRECORD
  5
25
102
{ACAD_REACTORS
330
22
102
}
330
22
100
AcDbXrecord
280
     1
270
     1
271
     1
  0
CELLSTYLEMAP
  5
128E
102
{ACAD_REACTORS
330
A63
102
}
330
A63
100
AcDbCellStyleMap
 90
        3
300
CELLSTYLE
  1
TABLEFORMAT_BEGIN
 90
        5
170
     1
 91
        0
 92
    32768
 62
   257
 93
        1
300
CONTENTFORMAT
  1
CONTENTFORMAT_BEGIN
 90
        0
 91
        0
 92
      512
 93
        0
300

 40
0.0
140
1.0
 94
        5
 62
     0
340
55
144
0.25
309
CONTENTFORMAT_END
171
     1
301
MARGIN
  1
CELLMARGIN_BEGIN
 40
0.06
 40
0.06
 40
0.06
 40
0.06
 40
0.18
 40
0.18
309
CELLMARGIN_END
 94
        6
 95
        1
302
GRIDFORMAT
  1
GRIDFORMAT_BEGIN
 90
        0
 91
        1
 62
     0
 92
       -2
340
0
 93
        0
 40
0.045
309
GRIDFORMAT_END
 95
        2
302
GRIDFORMAT
  1
GRIDFORMAT_BEGIN
 90
        0
 91
        1
 62
     0
 92
       -2
340
0
 93
        0
 40
0.045
309
GRIDFORMAT_END
 95
        4
302
GRIDFORMAT
  1
GRIDFORMAT_BEGIN
 90
        0
 91
        1
 62
     0
 92
       -2
340
0
 93
        0
 40
0.045
309
GRIDFORMAT_END
 95
        8
302
GRIDFORMAT
  1
GRIDFORMAT_BEGIN
 90
        0
 91
        1
 62
     0
 92
       -2
340
0
 93
        0
 40
0.045
309
GRIDFORMAT_END
 95
       16
302
GRIDFORMAT
  1
GRIDFORMAT_BEGIN
 90
        0
 91
        1
 62
     0
 92
       -2
340
0
 93
        0
 40
0.045
309
GRIDFORMAT_END
 95
       32
302
GRIDFORMAT
  1
GRIDFORMAT_BEGIN
 90
        0
 91
        1
 62
     0
 92
       -2
340
0
 93
        0
 40
0.045
309
GRIDFORMAT_END
309
TABLEFORMAT_END
  1
CELLSTYLE_BEGIN
 90
        1
 91
        1
300
_TITLE
309
CELLSTYLE_END
300
CELLSTYLE
  1
TABLEFORMAT_BEGIN
 90
        5
170
     1
 91
        0
 92
        0
 62
   257
 93
        1
300
CONTENTFORMAT
  1
CONTENTFORMAT_BEGIN
 90
        0
 91
        0
 92
      512
 93
        0
300

 40
0.0
140
1.0
 94
        5
 62
     0
340
55
144
0.18
309
CONTENTFORMAT_END
171
     1
301
MARGIN
  1
CELLMARGIN_BEGIN
 40
0.06
 40
0.06
 40
0.06
 40
0.06
 40
0.18
 40
0.18
309
CELLMARGIN_END
 94
        6
 95
        1
302
GRIDFORMAT
  1
GRIDFORMAT_BEGIN
 90
        0
 91
        1
 62
     0
 92
       -2
340
0
 93
        0
 40
0.045
309
GRIDFORMAT_END
 95
        2
302
GRIDFORMAT
  1
GRIDFORMAT_BEGIN
 90
        0
 91
        1
 62
     0
 92
       -2
340
0
 93
        0
 40
0.045
309
GRIDFORMAT_END
 95
        4
302
GRIDFORMAT
  1
GRIDFORMAT_BEGIN
 90
        0
 91
        1
 62
     0
 92
       -2
340
0
 93
        0
 40
0.045
309
GRIDFORMAT_END
 95
        8
302
GRIDFORMAT
  1
GRIDFORMAT_BEGIN
 90
        0
 91
        1
 62
     0
 92
       -2
340
0
 93
        0
 40
0.045
309
GRIDFORMAT_END
 95
       16
302
GRIDFORMAT
  1
GRIDFORMAT_BEGIN
 90
        0
 91
        1
 62
     0
 92
       -2
340
0
 93
        0
 40
0.045
309
GRIDFORMAT_END
 95
       32
302
GRIDFORMAT
  1
GRIDFORMAT_BEGIN
 90
        0
 91
        1
 62
     0
 92
       -2
340
0
 93
        0
 40
0.045
309
GRIDFORMAT_END
309
TABLEFORMAT_END
  1
CELLSTYLE_BEGIN
 90
        2
 91
        1
300
_HEADER
309
CELLSTYLE_END
300
CELLSTYLE
  1
TABLEFORMAT_BEGIN
 90
        5
170
     1
 91
        0
 92
        0
 62
   257
 93
        1
300
CONTENTFORMAT
  1
CONTENTFORMAT_BEGIN
 90
        0
 91
        0
 92
      512
 93
        0
300

 40
0.0
140
1.0
 94
        2
 62
     0
340
55
144
0.18
309
CONTENTFORMAT_END
171
     1
301
MARGIN
  1
CELLMARGIN_BEGIN
 40
0.06
 40
0.06
 40
0.06
 40
0.06
 40
0.18
 40
0.18
309
CELLMARGIN_END
 94
        6
 95
        1
302
GRIDFORMAT
  1
GRIDFORMAT_BEGIN
 90
        0
 91
        1
 62
     0
 92
       -2
340
0
 93
        0
 40
0.045
309
GRIDFORMAT_END
 95
        2
302
GRIDFORMAT
  1
GRIDFORMAT_BEGIN
 90
        0
 91
        1
 62
     0
 92
       -2
340
0
 93
        0
 40
0.045
309
GRIDFORMAT_END
 95
        4
302
GRIDFORMAT
  1
GRIDFORMAT_BEGIN
 90
        0
 91
        1
 62
     0
 92
       -2
340
0
 93
        0
 40
0.045
309
GRIDFORMAT_END
 95
        8
302
GRIDFORMAT
  1
GRIDFORMAT_BEGIN
 90
        0
 91
        1
 62
     0
 92
       -2
340
0
 93
        0
 40
0.045
309
GRIDFORMAT_END
 95
       16
302
GRIDFORMAT
  1
GRIDFORMAT_BEGIN
 90
        0
 91
        1
 62
     0
 92
       -2
340
0
 93
        0
 40
0.045
309
GRIDFORMAT_END
 95
       32
302
GRIDFORMAT
  1
GRIDFORMAT_BEGIN
 90
        0
 91
        1
 62
     0
 92
       -2
340
0
 93
        0
 40
0.045
309
GRIDFORMAT_END
309
TABLEFORMAT_END
  1
CELLSTYLE_BEGIN
 90
        3
 91
        2
300
_DATA
309
CELLSTYLE_END
  0
XRECORD
  5
1298
102
{ACAD_REACTORS
330
A63
102
}
330
A63
100
AcDbXrecord
280
     1
102
ACAD_ROUNDTRIP_PRE2007_TABLESTYLE
 90
      512
 91
        0
  1

 92
      512
 93
        0
  2

 94
      512
 95
        0
  3

  0
XRECORD
  5
AA1
102
{ACAD_REACTORS
330
AA0
102
}
330
AA0
100
AcDbXrecord
280
     1
102
RTVSPropertyOp0
 70
     1
102
RTVSPropertyOp1
 70
     1
102
RTVSPropertyOp2
 70
     1
102
RTVSPropertyOp3
 70
     1
102
RTVSPropertyOp4
 70
     1
102
RTVSPropertyOp5
 70
     1
102
RTVSPropertyOp6
 70
     1
102
RTVSPropertyOp7
 70
     1
102
RTVSPropertyOp8
 70
     1
102
RTVSPropertyOp9
 70
     1
102
RTVSPropertyOp10
 70
     1
102
RTVSPropertyOp11
 70
     1
102
RTVSPropertyOp12
 70
     1
102
RTVSPropertyOp13
 70
     1
102
RTVSPropertyOp14
 70
     1
102
RTVSPropertyOp15
 70
     1
102
RTVSPropertyOp16
 70
     1
102
RTVSPropertyOp17
 70
     1
102
RTVSPropertyOp18
 70
     1
102
RTVSPropertyOp19
 70
     1
102
RTVSPropertyOp20
 70
     1
102
RTVSPropertyOp21
 70
     1
102
RTVSPropertyOp22
 70
     1
102
RTVSPropertyOp23
 70
     1
102
RTVSPropertyOp24
 70
     1
102
RTVSPropertyOp25
 70
     1
102
RTVSPropertyOp26
 70
     1
102
RTVSPropertyOp27
 70
     1
102
RTVSPropertyOp28
 70
     1
102
RTVSPropertyOp29
 70
     1
102
RTVSPropertyOp30
 70
     1
102
RTVSPropertyOp31
 70
     1
102
RTVSPropertyOp32
 70
     1
  0
XRECORD
  5
A9F
102
{ACAD_REACTORS
330
A9E
102
}
330
A9E
100
AcDbXrecord
280
     1
102
RTVSPropertyOp0
 70
     1
102
RTVSPropertyOp1
 70
     1
102
RTVSPropertyOp2
 70
     1
102
RTVSPropertyOp3
 70
     1
102
RTVSPropertyOp4
 70
     1
102
RTVSPropertyOp5
 70
     1
102
RTVSPropertyOp6
 70
     1
102
RTVSPropertyOp7
 70
     1
102
RTVSPropertyOp8
 70
     1
102
RTVSPropertyOp9
 70
     1
102
RTVSPropertyOp10
 70
     1
102
RTVSPropertyOp11
 70
     1
102
RTVSPropertyOp12
 70
     1
102
RTVSPropertyOp13
 70
     1
102
RTVSPropertyOp14
 70
     1
102
RTVSPropertyOp15
 70
     1
102
RTVSPropertyOp16
 70
     1
102
RTVSPropertyOp17
 70
     1
102
RTVSPropertyOp18
 70
     1
102
RTVSPropertyOp19
 70
     1
102
RTVSPropertyOp20
 70
     1
102
RTVSPropertyOp21
 70
     1
102
RTVSPropertyOp22
 70
     1
102
RTVSPropertyOp23
 70
     1
102
RTVSPropertyOp24
 70
     1
102
RTVSPropertyOp25
 70
     1
102
RTVSPropertyOp26
 70
     1
102
RTVSPropertyOp27
 70
     1
102
RTVSPropertyOp28
 70
     1
102
RTVSPropertyOp29
 70
     1
102
RTVSPropertyOp30
 70
     1
102
RTVSPropertyOp31
 70
     1
102
RTVSPropertyOp32
 70
     1
  0
XRECORD
  5
AAD
102
{ACAD_REACTORS
330
AAC
102
}
330
AAC
100
AcDbXrecord
280
     1
102
RTVSPropertyOp0
 70
     1
102
RTVSPropertyOp1
 70
     1
102
RTVSPropertyOp2
 70
     1
102
RTVSPropertyOp3
 70
     1
102
RTVSPropertyOp4
 70
     1
102
RTVSPropertyOp5
 70
     1
102
RTVSPropertyOp6
 70
     1
102
RTVSPropertyOp7
 70
     1
102
RTVSPropertyOp8
 70
     1
102
RTVSPropertyOp9
 70
     1
102
RTVSPropertyOp10
 70
     1
102
RTVSPropertyOp11
 70
     1
102
RTVSPropertyOp12
 70
     1
102
RTVSPropertyOp13
 70
     1
102
RTVSPropertyOp14
 70
     1
102
RTVSPropertyOp15
 70
     1
102
RTVSPropertyOp16
 70
     1
102
RTVSPropertyOp17
 70
     1
102
RTVSPropertyOp18
 70
     1
102
RTVSPropertyOp19
 70
     1
102
RTVSPropertyOp20
 70
     1
102
RTVSPropertyOp21
 70
     1
102
RTVSPropertyOp22
 70
     1
102
RTVSPropertyOp23
 70
     1
102
RTVSPropertyOp24
 70
     1
102
RTVSPropertyOp25
 70
     1
102
RTVSPropertyOp26
 70
     1
102
RTVSPropertyOp27
 70
     1
102
RTVSPropertyOp28
 70
     1
102
RTVSPropertyOp29
 70
     1
102
RTVSPropertyOp30
 70
     1
102
RTVSPropertyOp31
 70
     1
102
RTVSPropertyOp32
 70
     1
  0
XRECORD
  5
AB5
102
{ACAD_REACTORS
330
AB4
102
}
330
AB4
100
AcDbXrecord
280
     1
102
RTVSPropertyOp0
 70
     1
102
RTVSPropertyOp1
 70
     1
102
RTVSPropertyOp2
 70
     1
102
RTVSPropertyOp3
 70
     1
102
RTVSPropertyOp4
 70
     1
102
RTVSPropertyOp5
 70
     1
102
RTVSPropertyOp6
 70
     1
102
RTVSPropertyOp7
 70
     1
102
RTVSPropertyOp8
 70
     1
102
RTVSPropertyOp9
 70
     1
102
RTVSPropertyOp10
 70
     1
102
RTVSPropertyOp11
 70
     1
102
RTVSPropertyOp12
 70
     1
102
RTVSPropertyOp13
 70
     1
102
RTVSPropertyOp14
 70
     1
102
RTVSPropertyOp15
 70
     1
102
RTVSPropertyOp16
 70
     1
102
RTVSPropertyOp17
 70
     1
102
RTVSPropertyOp18
 70
     1
102
RTVSPropertyOp19
 70
     1
102
RTVSPropertyOp20
 70
     1
102
RTVSPropertyOp21
 70
     1
102
RTVSPropertyOp22
 70
     1
102
RTVSPropertyOp23
 70
     1
102
RTVSPropertyOp24
 70
     1
102
RTVSPropertyOp25
 70
     1
102
RTVSPropertyOp26
 70
     1
102
RTVSPropertyOp27
 70
     1
102
RTVSPropertyOp28
 70
     1
102
RTVSPropertyOp29
 70
     1
102
RTVSPropertyOp30
 70
     1
102
RTVSPropertyOp31
 70
     1
102
RTVSPropertyOp32
 70
     1
  0
XRECORD
  5
AA7
102
{ACAD_REACTORS
330
AA6
102
}
330
AA6
100
AcDbXrecord
280
     1
102
RTVSPropertyOp0
 70
     1
102
RTVSPropertyOp1
 70
     1
102
RTVSPropertyOp2
 70
     1
102
RTVSPropertyOp3
 70
     1
102
RTVSPropertyOp4
 70
     1
102
RTVSPropertyOp5
 70
     1
102
RTVSPropertyOp6
 70
     1
102
RTVSPropertyOp7
 70
     1
102
RTVSPropertyOp8
 70
     1
102
RTVSPropertyOp9
 70
     1
102
RTVSPropertyOp10
 70
     1
102
RTVSPropertyOp11
 70
     1
102
RTVSPropertyOp12
 70
     1
102
RTVSPropertyOp13
 70
     1
102
RTVSPropertyOp14
 70
     1
102
RTVSPropertyOp15
 70
     1
102
RTVSPropertyOp16
 70
     1
102
RTVSPropertyOp17
 70
     1
102
RTVSPropertyOp18
 70
     1
102
RTVSPropertyOp19
 70
     1
102
RTVSPropertyOp20
 70
     1
102
RTVSPropertyOp21
 70
     1
102
RTVSPropertyOp22
 70
     1
102
RTVSPropertyOp23
 70
     1
102
RTVSPropertyOp24
 70
     1
102
RTVSPropertyOp25
 70
     1
102
RTVSPropertyOp26
 70
     1
102
RTVSPropertyOp27
 70
     1
102
RTVSPropertyOp28
 70
     1
102
RTVSPropertyOp29
 70
     1
102
RTVSPropertyOp30
 70
     1
102
RTVSPropertyOp31
 70
     1
102
RTVSPropertyOp32
 70
     1
  0
XRECORD
  5
AAB
102
{ACAD_REACTORS
330
AAA
102
}
330
AAA
100
AcDbXrecord
280
     1
102
RTVSPropertyOp0
 70
     1
102
RTVSPropertyOp1
 70
     1
102
RTVSPropertyOp2
 70
     1
102
RTVSPropertyOp3
 70
     1
102
RTVSPropertyOp4
 70
     1
102
RTVSPropertyOp5
 70
     1
102
RTVSPropertyOp6
 70
     1
102
RTVSPropertyOp7
 70
     1
102
RTVSPropertyOp8
 70
     1
102
RTVSPropertyOp9
 70
     1
102
RTVSPropertyOp10
 70
     1
102
RTVSPropertyOp11
 70
     1
102
RTVSPropertyOp12
 70
     1
102
RTVSPropertyOp13
 70
     1
102
RTVSPropertyOp14
 70
     1
102
RTVSPropertyOp15
 70
     1
102
RTVSPropertyOp16
 70
     1
102
RTVSPropertyOp17
 70
     1
102
RTVSPropertyOp18
 70
     1
102
RTVSPropertyOp19
 70
     1
102
RTVSPropertyOp20
 70
     1
102
RTVSPropertyOp21
 70
     1
102
RTVSPropertyOp22
 70
     1
102
RTVSPropertyOp23
 70
     1
102
RTVSPropertyOp24
 70
     1
102
RTVSPropertyOp25
 70
     1
102
RTVSPropertyOp26
 70
     1
102
RTVSPropertyOp27
 70
     1
102
RTVSPropertyOp28
 70
     1
102
RTVSPropertyOp29
 70
     1
102
RTVSPropertyOp30
 70
     1
102
RTVSPropertyOp31
 70
     1
102
RTVSPropertyOp32
 70
     1
  0
XRECORD
  5
AC5
102
{ACAD_REACTORS
330
AC4
102
}
330
AC4
100
AcDbXrecord
280
     1
102
RTVSPropertyOp0
 70
     0
102
RTVSPropertyOp1
 70
     0
102
RTVSPropertyOp2
 70
     0
102
RTVSPropertyOp3
 70
     0
102
RTVSPropertyOp4
 70
     0
102
RTVSPropertyOp5
 70
     0
102
RTVSPropertyOp6
 70
     0
102
RTVSPropertyOp7
 70
     0
102
RTVSPropertyOp8
 70
     0
102
RTVSPropertyOp9
 70
     0
102
RTVSPropertyOp10
 70
     0
102
RTVSPropertyOp11
 70
     0
102
RTVSPropertyOp12
 70
     0
102
RTVSPropertyOp13
 70
     0
102
RTVSPropertyOp14
 70
     2
102
RTVSPropertyOp15
 70
     0
102
RTVSPropertyOp16
 70
     0
102
RTVSPropertyOp17
 70
     0
102
RTVSPropertyOp18
 70
     0
102
RTVSPropertyOp19
 70
     0
102
RTVSPropertyOp20
 70
     0
102
RTVSPropertyOp21
 70
     0
102
RTVSPropertyOp22
 70
     0
102
RTVSPropertyOp23
 70
     0
102
RTVSPropertyOp24
 70
     0
102
RTVSPropertyOp25
 70
     0
102
RTVSPropertyOp26
 70
     0
102
RTVSPropertyOp27
 70
     0
102
RTVSPropertyOp28
 70
     0
102
RTVSPropertyOp29
 70
     0
102
RTVSPropertyOp30
 70
     0
102
RTVSPropertyOp31
 70
     0
102
RTVSPropertyOp32
 70
     0
  0
XRECORD
  5
AB3
102
{ACAD_REACTORS
330
AB2
102
}
330
AB2
100
AcDbXrecord
280
     1
102
RTVSPropertyOp0
 70
     1
102
RTVSPropertyOp1
 70
     1
102
RTVSPropertyOp2
 70
     1
102
RTVSPropertyOp3
 70
     1
102
RTVSPropertyOp4
 70
     1
102
RTVSPropertyOp5
 70
     1
102
RTVSPropertyOp6
 70
     1
102
RTVSPropertyOp7
 70
     1
102
RTVSPropertyOp8
 70
     1
102
RTVSPropertyOp9
 70
     1
102
RTVSPropertyOp10
 70
     1
102
RTVSPropertyOp11
 70
     1
102
RTVSPropertyOp12
 70
     1
102
RTVSPropertyOp13
 70
     1
102
RTVSPropertyOp14
 70
     1
102
RTVSPropertyOp15
 70
     1
102
RTVSPropertyOp16
 70
     1
102
RTVSPropertyOp17
 70
     1
102
RTVSPropertyOp18
 70
     1
102
RTVSPropertyOp19
 70
     1
102
RTVSPropertyOp20
 70
     1
102
RTVSPropertyOp21
 70
     1
102
RTVSPropertyOp22
 70
     1
102
RTVSPropertyOp23
 70
     1
102
RTVSPropertyOp24
 70
     1
102
RTVSPropertyOp25
 70
     1
102
RTVSPropertyOp26
 70
     1
102
RTVSPropertyOp27
 70
     1
102
RTVSPropertyOp28
 70
     1
102
RTVSPropertyOp29
 70
     1
102
RTVSPropertyOp30
 70
     1
102
RTVSPropertyOp31
 70
     1
102
RTVSPropertyOp32
 70
     1
  0
XRECORD
  5
A97
102
{ACAD_REACTORS
330
A96
102
}
330
A96
100
AcDbXrecord
280
     1
102
RTVSPropertyOp0
 70
     1
102
RTVSPropertyOp1
 70
     1
102
RTVSPropertyOp2
 70
     1
102
RTVSPropertyOp3
 70
     1
102
RTVSPropertyOp4
 70
     1
102
RTVSPropertyOp5
 70
     1
102
RTVSPropertyOp6
 70
     1
102
RTVSPropertyOp7
 70
     1
102
RTVSPropertyOp8
 70
     1
102
RTVSPropertyOp9
 70
     1
102
RTVSPropertyOp10
 70
     1
102
RTVSPropertyOp11
 70
     1
102
RTVSPropertyOp12
 70
     1
102
RTVSPropertyOp13
 70
     1
102
RTVSPropertyOp14
 70
     1
102
RTVSPropertyOp15
 70
     1
102
RTVSPropertyOp16
 70
     1
102
RTVSPropertyOp17
 70
     1
102
RTVSPropertyOp18
 70
     1
102
RTVSPropertyOp19
 70
     1
102
RTVSPropertyOp20
 70
     1
102
RTVSPropertyOp21
 70
     1
102
RTVSPropertyOp22
 70
     1
102
RTVSPropertyOp23
 70
     1
102
RTVSPropertyOp24
 70
     1
102
RTVSPropertyOp25
 70
     1
102
RTVSPropertyOp26
 70
     1
102
RTVSPropertyOp27
 70
     1
102
RTVSPropertyOp28
 70
     1
102
RTVSPropertyOp29
 70
     1
102
RTVSPropertyOp30
 70
     1
102
RTVSPropertyOp31
 70
     1
102
RTVSPropertyOp32
 70
     1
  0
XRECORD
  5
A99
102
{ACAD_REACTORS
330
A98
102
}
330
A98
100
AcDbXrecord
280
     1
102
RTVSPropertyOp0
 70
     1
102
RTVSPropertyOp1
 70
     1
102
RTVSPropertyOp2
 70
     1
102
RTVSPropertyOp3
 70
     1
102
RTVSPropertyOp4
 70
     1
102
RTVSPropertyOp5
 70
     1
102
RTVSPropertyOp6
 70
     1
102
RTVSPropertyOp7
 70
     1
102
RTVSPropertyOp8
 70
     1
102
RTVSPropertyOp9
 70
     1
102
RTVSPropertyOp10
 70
     1
102
RTVSPropertyOp11
 70
     1
102
RTVSPropertyOp12
 70
     1
102
RTVSPropertyOp13
 70
     1
102
RTVSPropertyOp14
 70
     1
102
RTVSPropertyOp15
 70
     1
102
RTVSPropertyOp16
 70
     1
102
RTVSPropertyOp17
 70
     1
102
RTVSPropertyOp18
 70
     1
102
RTVSPropertyOp19
 70
     1
102
RTVSPropertyOp20
 70
     1
102
RTVSPropertyOp21
 70
     1
102
RTVSPropertyOp22
 70
     1
102
RTVSPropertyOp23
 70
     1
102
RTVSPropertyOp24
 70
     1
102
RTVSPropertyOp25
 70
     1
102
RTVSPropertyOp26
 70
     1
102
RTVSPropertyOp27
 70
     1
102
RTVSPropertyOp28
 70
     1
102
RTVSPropertyOp29
 70
     1
102
RTVSPropertyOp30
 70
     1
102
RTVSPropertyOp31
 70
     1
102
RTVSPropertyOp32
 70
     1
  0
XRECORD
  5
A9B
102
{ACAD_REACTORS
330
A9A
102
}
330
A9A
100
AcDbXrecord
280
     1
102
RTVSPropertyOp0
 70
     1
102
RTVSPropertyOp1
 70
     1
102
RTVSPropertyOp2
 70
     1
102
RTVSPropertyOp3
 70
     1
102
RTVSPropertyOp4
 70
     1
102
RTVSPropertyOp5
 70
     1
102
RTVSPropertyOp6
 70
     1
102
RTVSPropertyOp7
 70
     1
102
RTVSPropertyOp8
 70
     1
102
RTVSPropertyOp9
 70
     1
102
RTVSPropertyOp10
 70
     1
102
RTVSPropertyOp11
 70
     1
102
RTVSPropertyOp12
 70
     1
102
RTVSPropertyOp13
 70
     1
102
RTVSPropertyOp14
 70
     1
102
RTVSPropertyOp15
 70
     1
102
RTVSPropertyOp16
 70
     1
102
RTVSPropertyOp17
 70
     1
102
RTVSPropertyOp18
 70
     1
102
RTVSPropertyOp19
 70
     1
102
RTVSPropertyOp20
 70
     1
102
RTVSPropertyOp21
 70
     1
102
RTVSPropertyOp22
 70
     1
102
RTVSPropertyOp23
 70
     1
102
RTVSPropertyOp24
 70
     1
102
RTVSPropertyOp25
 70
     1
102
RTVSPropertyOp26
 70
     1
102
RTVSPropertyOp27
 70
     1
102
RTVSPropertyOp28
 70
     1
102
RTVSPropertyOp29
 70
     1
102
RTVSPropertyOp30
 70
     1
102
RTVSPropertyOp31
 70
     1
102
RTVSPropertyOp32
 70
     1
  0
XRECORD
  5
A9D
102
{ACAD_REACTORS
330
A9C
102
}
330
A9C
100
AcDbXrecord
280
     1
102
RTVSPropertyOp0
 70
     1
102
RTVSPropertyOp1
 70
     1
102
RTVSPropertyOp2
 70
     1
102
RTVSPropertyOp3
 70
     1
102
RTVSPropertyOp4
 70
     1
102
RTVSPropertyOp5
 70
     1
102
RTVSPropertyOp6
 70
     1
102
RTVSPropertyOp7
 70
     1
102
RTVSPropertyOp8
 70
     1
102
RTVSPropertyOp9
 70
     1
102
RTVSPropertyOp10
 70
     1
102
RTVSPropertyOp11
 70
     1
102
RTVSPropertyOp12
 70
     1
102
RTVSPropertyOp13
 70
     1
102
RTVSPropertyOp14
 70
     1
102
RTVSPropertyOp15
 70
     1
102
RTVSPropertyOp16
 70
     1
102
RTVSPropertyOp17
 70
     1
102
RTVSPropertyOp18
 70
     1
102
RTVSPropertyOp19
 70
     1
102
RTVSPropertyOp20
 70
     1
102
RTVSPropertyOp21
 70
     1
102
RTVSPropertyOp22
 70
     1
102
RTVSPropertyOp23
 70
     1
102
RTVSPropertyOp24
 70
     1
102
RTVSPropertyOp25
 70
     1
102
RTVSPropertyOp26
 70
     1
102
RTVSPropertyOp27
 70
     1
102
RTVSPropertyOp28
 70
     1
102
RTVSPropertyOp29
 70
     1
102
RTVSPropertyOp30
 70
     1
102
RTVSPropertyOp31
 70
     1
102
RTVSPropertyOp32
 70
     1
  0
XRECORD
  5
AA5
102
{ACAD_REACTORS
330
AA4
102
}
330
AA4
100
AcDbXrecord
280
     1
102
RTVSPropertyOp0
 70
     1
102
RTVSPropertyOp1
 70
     1
102
RTVSPropertyOp2
 70
     1
102
RTVSPropertyOp3
 70
     1
102
RTVSPropertyOp4
 70
     1
102
RTVSPropertyOp5
 70
     1
102
RTVSPropertyOp6
 70
     1
102
RTVSPropertyOp7
 70
     1
102
RTVSPropertyOp8
 70
     1
102
RTVSPropertyOp9
 70
     1
102
RTVSPropertyOp10
 70
     1
102
RTVSPropertyOp11
 70
     1
102
RTVSPropertyOp12
 70
     1
102
RTVSPropertyOp13
 70
     1
102
RTVSPropertyOp14
 70
     1
102
RTVSPropertyOp15
 70
     1
102
RTVSPropertyOp16
 70
     1
102
RTVSPropertyOp17
 70
     1
102
RTVSPropertyOp18
 70
     1
102
RTVSPropertyOp19
 70
     1
102
RTVSPropertyOp20
 70
     1
102
RTVSPropertyOp21
 70
     1
102
RTVSPropertyOp22
 70
     1
102
RTVSPropertyOp23
 70
     1
102
RTVSPropertyOp24
 70
     1
102
RTVSPropertyOp25
 70
     1
102
RTVSPropertyOp26
 70
     1
102
RTVSPropertyOp27
 70
     1
102
RTVSPropertyOp28
 70
     1
102
RTVSPropertyOp29
 70
     1
102
RTVSPropertyOp30
 70
     1
102
RTVSPropertyOp31
 70
     1
102
RTVSPropertyOp32
 70
     1
  0
XRECORD
  5
AC1
102
{ACAD_REACTORS
330
AC0
102
}
330
AC0
100
AcDbXrecord
280
     1
102
RTVSPropertyOp0
 70
     0
102
RTVSPropertyOp1
 70
     0
102
RTVSPropertyOp2
 70
     0
102
RTVSPropertyOp3
 70
     0
102
RTVSPropertyOp4
 70
     0
102
RTVSPropertyOp5
 70
     0
102
RTVSPropertyOp6
 70
     0
102
RTVSPropertyOp7
 70
     0
102
RTVSPropertyOp8
 70
     0
102
RTVSPropertyOp9
 70
     0
102
RTVSPropertyOp10
 70
     0
102
RTVSPropertyOp11
 70
     0
102
RTVSPropertyOp12
 70
     0
102
RTVSPropertyOp13
 70
     0
102
RTVSPropertyOp14
 70
     2
102
RTVSPropertyOp15
 70
     0
102
RTVSPropertyOp16
 70
     0
102
RTVSPropertyOp17
 70
     0
102
RTVSPropertyOp18
 70
     0
102
RTVSPropertyOp19
 70
     0
102
RTVSPropertyOp20
 70
     0
102
RTVSPropertyOp21
 70
     0
102
RTVSPropertyOp22
 70
     0
102
RTVSPropertyOp23
 70
     0
102
RTVSPropertyOp24
 70
     0
102
RTVSPropertyOp25
 70
     0
102
RTVSPropertyOp26
 70
     0
102
RTVSPropertyOp27
 70
     0
102
RTVSPropertyOp28
 70
     0
102
RTVSPropertyOp29
 70
     0
102
RTVSPropertyOp30
 70
     0
102
RTVSPropertyOp31
 70
     0
102
RTVSPropertyOp32
 70
     0
  0
XRECORD
  5
AB1
102
{ACAD_REACTORS
330
AB0
102
}
330
AB0
100
AcDbXrecord
280
     1
102
RTVSPropertyOp0
 70
     1
102
RTVSPropertyOp1
 70
     1
102
RTVSPropertyOp2
 70
     1
102
RTVSPropertyOp3
 70
     1
102
RTVSPropertyOp4
 70
     1
102
RTVSPropertyOp5
 70
     1
102
RTVSPropertyOp6
 70
     1
102
RTVSPropertyOp7
 70
     1
102
RTVSPropertyOp8
 70
     1
102
RTVSPropertyOp9
 70
     1
102
RTVSPropertyOp10
 70
     1
102
RTVSPropertyOp11
 70
     1
102
RTVSPropertyOp12
 70
     1
102
RTVSPropertyOp13
 70
     1
102
RTVSPropertyOp14
 70
     1
102
RTVSPropertyOp15
 70
     1
102
RTVSPropertyOp16
 70
     1
102
RTVSPropertyOp17
 70
     1
102
RTVSPropertyOp18
 70
     1
102
RTVSPropertyOp19
 70
     1
102
RTVSPropertyOp20
 70
     1
102
RTVSPropertyOp21
 70
     1
102
RTVSPropertyOp22
 70
     1
102
RTVSPropertyOp23
 70
     1
102
RTVSPropertyOp24
 70
     1
102
RTVSPropertyOp25
 70
     1
102
RTVSPropertyOp26
 70
     1
102
RTVSPropertyOp27
 70
     1
102
RTVSPropertyOp28
 70
     1
102
RTVSPropertyOp29
 70
     1
102
RTVSPropertyOp30
 70
     1
102
RTVSPropertyOp31
 70
     1
102
RTVSPropertyOp32
 70
     1
  0
XRECORD
  5
AC3
102
{ACAD_REACTORS
330
AC2
102
}
330
AC2
100
AcDbXrecord
280
     1
102
RTVSPropertyOp0
 70
     0
102
RTVSPropertyOp1
 70
     0
102
RTVSPropertyOp2
 70
     0
102
RTVSPropertyOp3
 70
     0
102
RTVSPropertyOp4
 70
     0
102
RTVSPropertyOp5
 70
     0
102
RTVSPropertyOp6
 70
     0
102
RTVSPropertyOp7
 70
     0
102
RTVSPropertyOp8
 70
     0
102
RTVSPropertyOp9
 70
     0
102
RTVSPropertyOp10
 70
     0
102
RTVSPropertyOp11
 70
     0
102
RTVSPropertyOp12
 70
     0
102
RTVSPropertyOp13
 70
     0
102
RTVSPropertyOp14
 70
     2
102
RTVSPropertyOp15
 70
     0
102
RTVSPropertyOp16
 70
     0
102
RTVSPropertyOp17
 70
     0
102
RTVSPropertyOp18
 70
     0
102
RTVSPropertyOp19
 70
     0
102
RTVSPropertyOp20
 70
     0
102
RTVSPropertyOp21
 70
     0
102
RTVSPropertyOp22
 70
     0
102
RTVSPropertyOp23
 70
     0
102
RTVSPropertyOp24
 70
     0
102
RTVSPropertyOp25
 70
     0
102
RTVSPropertyOp26
 70
     0
102
RTVSPropertyOp27
 70
     0
102
RTVSPropertyOp28
 70
     0
102
RTVSPropertyOp29
 70
     0
102
RTVSPropertyOp30
 70
     0
102
RTVSPropertyOp31
 70
     0
102
RTVSPropertyOp32
 70
     0
  0
XRECORD
  5
AA9
102
{ACAD_REACTORS
330
AA8
102
}
330
AA8
100
AcDbXrecord
280
     1
102
RTVSPropertyOp0
 70
     1
102
RTVSPropertyOp1
 70
     1
102
RTVSPropertyOp2
 70
     1
102
RTVSPropertyOp3
 70
     1
102
RTVSPropertyOp4
 70
     1
102
RTVSPropertyOp5
 70
     1
102
RTVSPropertyOp6
 70
     1
102
RTVSPropertyOp7
 70
     1
102
RTVSPropertyOp8
 70
     1
102
RTVSPropertyOp9
 70
     1
102
RTVSPropertyOp10
 70
     1
102
RTVSPropertyOp11
 70
     1
102
RTVSPropertyOp12
 70
     1
102
RTVSPropertyOp13
 70
     1
102
RTVSPropertyOp14
 70
     1
102
RTVSPropertyOp15
 70
     1
102
RTVSPropertyOp16
 70
     1
102
RTVSPropertyOp17
 70
     1
102
RTVSPropertyOp18
 70
     1
102
RTVSPropertyOp19
 70
     1
102
RTVSPropertyOp20
 70
     1
102
RTVSPropertyOp21
 70
     1
102
RTVSPropertyOp22
 70
     1
102
RTVSPropertyOp23
 70
     1
102
RTVSPropertyOp24
 70
     1
102
RTVSPropertyOp25
 70
     1
102
RTVSPropertyOp26
 70
     1
102
RTVSPropertyOp27
 70
     1
102
RTVSPropertyOp28
 70
     1
102
RTVSPropertyOp29
 70
     1
102
RTVSPropertyOp30
 70
     1
102
RTVSPropertyOp31
 70
     1
102
RTVSPropertyOp32
 70
     1
  0
XRECORD
  5
ABF
102
{ACAD_REACTORS
330
ABE
102
}
330
ABE
100
AcDbXrecord
280
     1
102
RTVSPropertyOp0
 70
     1
102
RTVSPropertyOp1
 70
     1
102
RTVSPropertyOp2
 70
     1
102
RTVSPropertyOp3
 70
     1
102
RTVSPropertyOp4
 70
     1
102
RTVSPropertyOp5
 70
     1
102
RTVSPropertyOp6
 70
     1
102
RTVSPropertyOp7
 70
     1
102
RTVSPropertyOp8
 70
     1
102
RTVSPropertyOp9
 70
     1
102
RTVSPropertyOp10
 70
     1
102
RTVSPropertyOp11
 70
     1
102
RTVSPropertyOp12
 70
     1
102
RTVSPropertyOp13
 70
     1
102
RTVSPropertyOp14
 70
     1
102
RTVSPropertyOp15
 70
     1
102
RTVSPropertyOp16
 70
     1
102
RTVSPropertyOp17
 70
     1
102
RTVSPropertyOp18
 70
     1
102
RTVSPropertyOp19
 70
     1
102
RTVSPropertyOp20
 70
     1
102
RTVSPropertyOp21
 70
     1
102
RTVSPropertyOp22
 70
     1
102
RTVSPropertyOp23
 70
     1
102
RTVSPropertyOp24
 70
     1
102
RTVSPropertyOp25
 70
     1
102
RTVSPropertyOp26
 70
     1
102
RTVSPropertyOp27
 70
     1
102
RTVSPropertyOp28
 70
     1
102
RTVSPropertyOp29
 70
     1
102
RTVSPropertyOp30
 70
     1
102
RTVSPropertyOp31
 70
     1
102
RTVSPropertyOp32
 70
     1
  0
XRECORD
  5
ABD
102
{ACAD_REACTORS
330
ABC
102
}
330
ABC
100
AcDbXrecord
280
     1
102
RTVSPropertyOp0
 70
     1
102
RTVSPropertyOp1
 70
     1
102
RTVSPropertyOp2
 70
     1
102
RTVSPropertyOp3
 70
     1
102
RTVSPropertyOp4
 70
     1
102
RTVSPropertyOp5
 70
     1
102
RTVSPropertyOp6
 70
     1
102
RTVSPropertyOp7
 70
     1
102
RTVSPropertyOp8
 70
     1
102
RTVSPropertyOp9
 70
     1
102
RTVSPropertyOp10
 70
     1
102
RTVSPropertyOp11
 70
     1
102
RTVSPropertyOp12
 70
     1
102
RTVSPropertyOp13
 70
     1
102
RTVSPropertyOp14
 70
     1
102
RTVSPropertyOp15
 70
     1
102
RTVSPropertyOp16
 70
     1
102
RTVSPropertyOp17
 70
     1
102
RTVSPropertyOp18
 70
     1
102
RTVSPropertyOp19
 70
     1
102
RTVSPropertyOp20
 70
     1
102
RTVSPropertyOp21
 70
     1
102
RTVSPropertyOp22
 70
     1
102
RTVSPropertyOp23
 70
     1
102
RTVSPropertyOp24
 70
     1
102
RTVSPropertyOp25
 70
     1
102
RTVSPropertyOp26
 70
     1
102
RTVSPropertyOp27
 70
     1
102
RTVSPropertyOp28
 70
     1
102
RTVSPropertyOp29
 70
     1
102
RTVSPropertyOp30
 70
     1
102
RTVSPropertyOp31
 70
     1
102
RTVSPropertyOp32
 70
     1
  0
XRECORD
  5
AB7
102
{ACAD_REACTORS
330
AB6
102
}
330
AB6
100
AcDbXrecord
280
     1
102
RTVSPropertyOp0
 70
     1
102
RTVSPropertyOp1
 70
     1
102
RTVSPropertyOp2
 70
     1
102
RTVSPropertyOp3
 70
     1
102
RTVSPropertyOp4
 70
     1
102
RTVSPropertyOp5
 70
     1
102
RTVSPropertyOp6
 70
     1
102
RTVSPropertyOp7
 70
     1
102
RTVSPropertyOp8
 70
     1
102
RTVSPropertyOp9
 70
     1
102
RTVSPropertyOp10
 70
     1
102
RTVSPropertyOp11
 70
     1
102
RTVSPropertyOp12
 70
     1
102
RTVSPropertyOp13
 70
     1
102
RTVSPropertyOp14
 70
     1
102
RTVSPropertyOp15
 70
     1
102
RTVSPropertyOp16
 70
     1
102
RTVSPropertyOp17
 70
     1
102
RTVSPropertyOp18
 70
     1
102
RTVSPropertyOp19
 70
     1
102
RTVSPropertyOp20
 70
     1
102
RTVSPropertyOp21
 70
     1
102
RTVSPropertyOp22
 70
     1
102
RTVSPropertyOp23
 70
     1
102
RTVSPropertyOp24
 70
     1
102
RTVSPropertyOp25
 70
     1
102
RTVSPropertyOp26
 70
     1
102
RTVSPropertyOp27
 70
     1
102
RTVSPropertyOp28
 70
     1
102
RTVSPropertyOp29
 70
     1
102
RTVSPropertyOp30
 70
     1
102
RTVSPropertyOp31
 70
     1
102
RTVSPropertyOp32
 70
     1
  0
XRECORD
  5
AB9
102
{ACAD_REACTORS
330
AB8
102
}
330
AB8
100
AcDbXrecord
280
     1
102
RTVSPropertyOp0
 70
     1
102
RTVSPropertyOp1
 70
     1
102
RTVSPropertyOp2
 70
     1
102
RTVSPropertyOp3
 70
     1
102
RTVSPropertyOp4
 70
     1
102
RTVSPropertyOp5
 70
     1
102
RTVSPropertyOp6
 70
     1
102
RTVSPropertyOp7
 70
     1
102
RTVSPropertyOp8
 70
     1
102
RTVSPropertyOp9
 70
     1
102
RTVSPropertyOp10
 70
     1
102
RTVSPropertyOp11
 70
     1
102
RTVSPropertyOp12
 70
     1
102
RTVSPropertyOp13
 70
     1
102
RTVSPropertyOp14
 70
     1
102
RTVSPropertyOp15
 70
     1
102
RTVSPropertyOp16
 70
     1
102
RTVSPropertyOp17
 70
     1
102
RTVSPropertyOp18
 70
     1
102
RTVSPropertyOp19
 70
     1
102
RTVSPropertyOp20
 70
     1
102
RTVSPropertyOp21
 70
     1
102
RTVSPropertyOp22
 70
     1
102
RTVSPropertyOp23
 70
     1
102
RTVSPropertyOp24
 70
     1
102
RTVSPropertyOp25
 70
     1
102
RTVSPropertyOp26
 70
     1
102
RTVSPropertyOp27
 70
     1
102
RTVSPropertyOp28
 70
     1
102
RTVSPropertyOp29
 70
     1
102
RTVSPropertyOp30
 70
     1
102
RTVSPropertyOp31
 70
     1
102
RTVSPropertyOp32
 70
     1
  0
XRECORD
  5
AAF
102
{ACAD_REACTORS
330
AAE
102
}
330
AAE
100
AcDbXrecord
280
     1
102
RTVSPropertyOp0
 70
     1
102
RTVSPropertyOp1
 70
     1
102
RTVSPropertyOp2
 70
     1
102
RTVSPropertyOp3
 70
     1
102
RTVSPropertyOp4
 70
     1
102
RTVSPropertyOp5
 70
     1
102
RTVSPropertyOp6
 70
     1
102
RTVSPropertyOp7
 70
     1
102
RTVSPropertyOp8
 70
     1
102
RTVSPropertyOp9
 70
     1
102
RTVSPropertyOp10
 70
     1
102
RTVSPropertyOp11
 70
     1
102
RTVSPropertyOp12
 70
     1
102
RTVSPropertyOp13
 70
     1
102
RTVSPropertyOp14
 70
     1
102
RTVSPropertyOp15
 70
     1
102
RTVSPropertyOp16
 70
     1
102
RTVSPropertyOp17
 70
     1
102
RTVSPropertyOp18
 70
     1
102
RTVSPropertyOp19
 70
     1
102
RTVSPropertyOp20
 70
     1
102
RTVSPropertyOp21
 70
     1
102
RTVSPropertyOp22
 70
     1
102
RTVSPropertyOp23
 70
     1
102
RTVSPropertyOp24
 70
     1
102
RTVSPropertyOp25
 70
     1
102
RTVSPropertyOp26
 70
     1
102
RTVSPropertyOp27
 70
     1
102
RTVSPropertyOp28
 70
     1
102
RTVSPropertyOp29
 70
     1
102
RTVSPropertyOp30
 70
     1
102
RTVSPropertyOp31
 70
     1
102
RTVSPropertyOp32
 70
     1
  0
XRECORD
  5
AA3
102
{ACAD_REACTORS
330
AA2
102
}
330
AA2
100
AcDbXrecord
280
     1
102
RTVSPropertyOp0
 70
     1
102
RTVSPropertyOp1
 70
     1
102
RTVSPropertyOp2
 70
     1
102
RTVSPropertyOp3
 70
     1
102
RTVSPropertyOp4
 70
     1
102
RTVSPropertyOp5
 70
     1
102
RTVSPropertyOp6
 70
     1
102
RTVSPropertyOp7
 70
     1
102
RTVSPropertyOp8
 70
     1
102
RTVSPropertyOp9
 70
     1
102
RTVSPropertyOp10
 70
     1
102
RTVSPropertyOp11
 70
     1
102
RTVSPropertyOp12
 70
     1
102
RTVSPropertyOp13
 70
     1
102
RTVSPropertyOp14
 70
     1
102
RTVSPropertyOp15
 70
     1
102
RTVSPropertyOp16
 70
     1
102
RTVSPropertyOp17
 70
     1
102
RTVSPropertyOp18
 70
     1
102
RTVSPropertyOp19
 70
     1
102
RTVSPropertyOp20
 70
     1
102
RTVSPropertyOp21
 70
     1
102
RTVSPropertyOp22
 70
     1
102
RTVSPropertyOp23
 70
     1
102
RTVSPropertyOp24
 70
     1
102
RTVSPropertyOp25
 70
     1
102
RTVSPropertyOp26
 70
     1
102
RTVSPropertyOp27
 70
     1
102
RTVSPropertyOp28
 70
     1
102
RTVSPropertyOp29
 70
     1
102
RTVSPropertyOp30
 70
     1
102
RTVSPropertyOp31
 70
     1
102
RTVSPropertyOp32
 70
     1
  0
XRECORD
  5
ABB
102
{ACAD_REACTORS
330
ABA
102
}
330
ABA
100
AcDbXrecord
280
     1
102
RTVSPropertyOp0
 70
     1
102
RTVSPropertyOp1
 70
     1
102
RTVSPropertyOp2
 70
     1
102
RTVSPropertyOp3
 70
     1
102
RTVSPropertyOp4
 70
     1
102
RTVSPropertyOp5
 70
     1
102
RTVSPropertyOp6
 70
     1
102
RTVSPropertyOp7
 70
     1
102
RTVSPropertyOp8
 70
     1
102
RTVSPropertyOp9
 70
     1
102
RTVSPropertyOp10
 70
     1
102
RTVSPropertyOp11
 70
     1
102
RTVSPropertyOp12
 70
     1
102
RTVSPropertyOp13
 70
     1
102
RTVSPropertyOp14
 70
     1
102
RTVSPropertyOp15
 70
     1
102
RTVSPropertyOp16
 70
     1
102
RTVSPropertyOp17
 70
     1
102
RTVSPropertyOp18
 70
     1
102
RTVSPropertyOp19
 70
     1
102
RTVSPropertyOp20
 70
     1
102
RTVSPropertyOp21
 70
     1
102
RTVSPropertyOp22
 70
     1
102
RTVSPropertyOp23
 70
     1
102
RTVSPropertyOp24
 70
     1
102
RTVSPropertyOp25
 70
     1
102
RTVSPropertyOp26
 70
     1
102
RTVSPropertyOp27
 70
     1
102
RTVSPropertyOp28
 70
     1
102
RTVSPropertyOp29
 70
     1
102
RTVSPropertyOp30
 70
     1
102
RTVSPropertyOp31
 70
     1
102
RTVSPropertyOp32
 70
     1
  0
ENDSEC
  0
EOF
