  0
SECTION
  2
HEADER
  9
$ACADVER
  1
AC1015
  9
$ACADMAINTVER
 70
    20
  9
$DWGCODEPAGE
  3
ANSI_1252
  9
$INSBASE
 10
0.0
 20
0.0
 30
0.0
  9
$EXTMIN
 10
-55.64246651100711
 20
197.5961761552421
 30
0.0
  9
$EXTMAX
 10
584.7243424213494
 20
795.6696442645973
 30
0.0
  9
$LIMMIN
 10
0.0
 20
0.0
  9
$LIMMAX
 10
840.0000000000002
 20
594.0
  9
$ORTHOMODE
 70
     0
  9
$REGENMODE
 70
     1
  9
$FILLMODE
 70
     1
  9
$QTEXTMODE
 70
     0
  9
$MIRRTEXT
 70
     1
  9
$LTSCALE
 40
2.0
  9
$ATTMODE
 70
     1
  9
$TEXTSIZE
 40
5.0
  9
$TRACEWID
 40
0.05
  9
$TEXTSTYLE
  7
STANDARD
  9
$CLAYER
  8
0
  9
$CELTYPE
  6
BYLAYER
  9
$CECOLOR
 62
   256
  9
$CELTSCALE
 40
1.0
  9
$DISPSILH
 70
     0
  9
$DIMSCALE
 40
2.0
  9
$DIMASZ
 40
2.5
  9
$DIMEXO
 40
1.0
  9
$DIMDLI
 40
7.0
  9
$DIMRND
 40
0.0
  9
$DIMDLE
 40
0.0
  9
$DIMEXE
 40
1.0
  9
$DIMTP
 40
0.1
  9
$DIMTM
 40
0.1
  9
$DIMTXT
 40
3.5
  9
$DIMCEN
 40
0.0
  9
$DIMTSZ
 40
0.0
  9
$DIMTOL
 70
     0
  9
$DIMLIM
 70
     0
  9
$DIMTIH
 70
     0
  9
$DIMTOH
 70
     0
  9
$DIMSE1
 70
     0
  9
$DIMSE2
 70
     0
  9
$DIMTAD
 70
     1
  9
$DIMZIN
 70
     8
  9
$DIMBLK
  1

  9
$DIMASO
 70
     1
  9
$DIMSHO
 70
     1
  9
$DIMPOST
  1

  9
$DIMAPOST
  1
"
  9
$DIMALT
 70
     0
  9
$DIMALTD
 70
     2
  9
$DIMALTF
 40
0.0393701
  9
$DIMLFAC
 40
1.0
  9
$DIMTOFL
 70
     1
  9
$DIMTVP
 40
0.0
  9
$DIMTIX
 70
     0
  9
$DIMSOXD
 70
     0
  9
$DIMSAH
 70
     0
  9
$DIMBLK1
  1

  9
$DIMBLK2
  1

  9
$DIMSTYLE
  2
GEN-ISO
  9
$DIMCLRD
 70
   256
  9
$DIMCLRE
 70
   256
  9
$DIMCLRT
 70
     2
  9
$DIMTFAC
 40
0.71
  9
$DIMGAP
 40
0.6
  9
$DIMJUST
 70
     0
  9
$DIMSD1
 70
     0
  9
$DIMSD2
 70
     0
  9
$DIMTOLJ
 70
     0
  9
$DIMTZIN
 70
     0
  9
$DIMALTZ
 70
     0
  9
$DIMALTTZ
 70
     0
  9
$DIMUPT
 70
     0
  9
$DIMDEC
 70
     2
  9
$DIMTDEC
 70
     3
  9
$DIMALTU
 70
     2
  9
$DIMALTTD
 70
     4
  9
$DIMTXSTY
  7
STANDARD
  9
$DIMAUNIT
 70
     0
  9
$DIMADEC
 70
     0
  9
$DIMALTRND
 40
0.0
  9
$DIMAZIN
 70
     0
  9
$DIMDSEP
 70
    46
  9
$DIMATFIT
 70
     3
  9
$DIMFRAC
 70
     0
  9
$DIMLDRBLK
  1

  9
$DIMLUNIT
 70
     2
  9
$DIMLWD
 70
    -2
  9
$DIMLWE
 70
    -2
  9
$DIMTMOVE
 70
     0
  9
$LUNITS
 70
     2
  9
$LUPREC
 70
     2
  9
$SKETCHINC
 40
0.1
  9
$FILLETRAD
 40
0.0
  9
$AUNITS
 70
     0
  9
$AUPREC
 70
     0
  9
$MENU
  1
acad
  9
$ELEVATION
 40
0.0
  9
$PELEVATION
 40
0.0
  9
$THICKNESS
 40
0.0
  9
$LIMCHECK
 70
     0
  9
$CHAMFERA
 40
0.00002
  9
$CHAMFERB
 40
0.000002
  9
$CHAMFERC
 40
0.0
  9
$CHAMFERD
 40
0.0
  9
$SKPOLY
 70
     0
  9
$TDCREATE
 40
2450359.224152511
  9
$TDUCREATE
 40
2450359.182485845
  9
$TDUPDATE
 40
2455223.592302546
  9
$TDUUPDATE
 40
2455223.550635880
  9
$TDINDWG
 40
0.7930414236
  9
$TDUSRTIMER
 40
0.7930414236
  9
$USRTIMER
 70
     1
  9
$ANGBASE
 50
0.0
  9
$ANGDIR
 70
     0
  9
$PDMODE
 70
     0
  9
$PDSIZE
 40
0.0
  9
$PLINEWID
 40
0.0
  9
$SPLFRAME
 70
     0
  9
$SPLINETYPE
 70
     6
  9
$SPLINESEGS
 70
     8
  9
$HANDSEED
  5
12F2
  9
$SURFTAB1
 70
     6
  9
$SURFTAB2
 70
     6
  9
$SURFTYPE
 70
     6
  9
$SURFU
 70
     6
  9
$SURFV
 70
     6
  9
$UCSBASE
  2

  9
$UCSNAME
  2

  9
$UCSORG
 10
0.0
 20
0.0
 30
0.0
  9
$UCSXDIR
 10
1.0
 20
0.0
 30
0.0
  9
$UCSYDIR
 10
0.0
 20
1.0
 30
0.0
  9
$UCSORTHOREF
  2

  9
$UCSORTHOVIEW
 70
     0
  9
$UCSORGTOP
 10
0.0
 20
0.0
 30
0.0
  9
$UCSORGBOTTOM
 10
0.0
 20
0.0
 30
0.0
  9
$UCSORGLEFT
 10
0.0
 20
0.0
 30
0.0
  9
$UCSORGRIGHT
 10
0.0
 20
0.0
 30
0.0
  9
$UCSORGFRONT
 10
0.0
 20
0.0
 30
0.0
  9
$UCSORGBACK
 10
0.0
 20
0.0
 30
0.0
  9
$PUCSBASE
  2

  9
$PUCSNAME
  2

  9
$PUCSORG
 10
0.0
 20
0.0
 30
0.0
  9
$PUCSXDIR
 10
1.0
 20
0.0
 30
0.0
  9
$PUCSYDIR
 10
0.0
 20
1.0
 30
0.0
  9
$PUCSORTHOREF
  2

  9
$PUCSORTHOVIEW
 70
     0
  9
$PUCSORGTOP
 10
0.0
 20
0.0
 30
0.0
  9
$PUCSORGBOTTOM
 10
0.0
 20
0.0
 30
0.0
  9
$PUCSORGLEFT
 10
0.0
 20
0.0
 30
0.0
  9
$PUCSORGRIGHT
 10
0.0
 20
0.0
 30
0.0
  9
$PUCSORGFRONT
 10
0.0
 20
0.0
 30
0.0
  9
$PUCSORGBACK
 10
0.0
 20
0.0
 30
0.0
  9
$USERI1
 70
     0
  9
$USERI2
 70
     0
  9
$USERI3
 70
     0
  9
$USERI4
 70
     0
  9
$USERI5
 70
     0
  9
$USERR1
 40
0.0
  9
$USERR2
 40
0.0
  9
$USERR3
 40
0.0
  9
$USERR4
 40
0.0
  9
$USERR5
 40
0.0
  9
$WORLDVIEW
 70
     1
  9
$SHADEDGE
 70
     3
  9
$SHADEDIF
 70
    70
  9
$TILEMODE
 70
     1
  9
$MAXACTVP
 70
    16
  9
$PINSBASE
 10
0.0
 20
0.0
 30
0.0
  9
$PLIMCHECK
 70
     0
  9
$PEXTMIN
 10
1.000000000000000E+20
 20
1.000000000000000E+20
 30
1.000000000000000E+20
  9
$PEXTMAX
 10
-1.000000000000000E+20
 20
-1.000000000000000E+20
 30
-1.000000000000000E+20
  9
$PLIMMIN
 10
0.0
 20
0.0
  9
$PLIMMAX
 10
12.0
 20
9.0
  9
$UNITMODE
 70
     0
  9
$VISRETAIN
 70
     0
  9
$PLINEGEN
 70
     0
  9
$PSLTSCALE
 70
     1
  9
$TREEDEPTH
 70
  3020
  9
$CMLSTYLE
  2
STANDARD
  9
$CMLJUST
 70
     0
  9
$CMLSCALE
 40
1.0
  9
$PROXYGRAPHICS
 70
     1
  9
$MEASUREMENT
 70
     1
  9
$CELWEIGHT
370
    -1
  9
$ENDCAPS
280
     0
  9
$JOINSTYLE
280
     0
  9
$LWDISPLAY
290
     0
  9
$INSUNITS
 70
     0
  9
$HYPERLINKBASE
  1

  9
$STYLESHEET
  1

  9
$XEDIT
290
     1
  9
$CEPSNTYPE
380
     0
  9
$PSTYLEMODE
290
     1
  9
$FINGERPRINTGUID
  2
{95C1CE3A-D9DD-4A55-9EE8-E9F74AF9594C}
  9
$VERSIONGUID
  2
{ADAA8CF3-EA86-48B1-A3C9-BB5A31D7175D}
  9
$EXTNAMES
290
     1
  9
$PSVPSCALE
 40
0.0
  9
$OLESTARTUP
290
     0
  0
ENDSEC
  0
SECTION
  2
CLASSES
  0
CLASS
  1
DICTIONARYVAR
  2
AcDbDictionaryVar
  3
ObjectDBX Classes
 90
        0
280
     0
281
     0
  0
CLASS
  1
ACDBDICTIONARYWDFLT
  2
AcDbDictionaryWithDefault
  3
ObjectDBX Classes
 90
        0
280
     0
281
     0
  0
CLASS
  1
ACDBPLACEHOLDER
  2
AcDbPlaceHolder
  3
ObjectDBX Classes
 90
        0
280
     0
281
     0
  0
CLASS
  1
LAYOUT
  2
AcDbLayout
  3
ObjectDBX Classes
 90
        0
280
     0
281
     0
  0
CLASS
  1
ACME_DOCUMENT
  2
AcMeDbDoc
  3
AcMeServices
 90
     1024
280
     0
281
     0
  0
CLASS
  1
AMGSETTINGSOBJ
  2
AmgSettingsObj
  3
"AcadM|Product Description: AutoCAD Mechanical|Company: Autodesk, Inc."
 90
     1024
280
     0
281
     0
  0
CLASS
  1
ACMESCOPE
  2
AcMeScope
  3
AcMeServices
 90
     1024
280
     0
281
     0
  0
CLASS
  1
ACMECOMMANDHISTORY
  2
AcMeCommandHistory
  3
AcMeServices
 90
     1024
280
     0
281
     0
  0
CLASS
  1
ACIMSYSVARMAN
  2
AcImSysVarManager
  3
AcMeServices
 90
     1024
280
     0
281
     0
  0
CLASS
  1
ACIMREALSYSVAR
  2
AcImRealSysVar
  3
AcMeServices
 90
     1024
280
     0
281
     0
  0
CLASS
  1
ACIMINTSYSVAR
  2
AcImIntSysVar
  3
AcMeServices
 90
     1024
280
     0
281
     0
  0
CLASS
  1
ACMEDRAWINGMAN
  2
AcMeDrawingMan
  3
AcMeServices
 90
     1024
280
     0
281
     0
  0
CLASS
  1
ACMEVIEW
  2
AcMeView
  3
AcMeServices
 90
     1024
280
     0
281
     0
  0
CLASS
  1
ACDBENTITYCACHE
  2
AcMeEntityCache
  3
AcMeServices
 90
     1024
280
     0
281
     0
  0
CLASS
  1
GSMANAGER
  2
AcMeGSManager
  3
AcMeServices
 90
     1024
280
     0
281
     0
  0
CLASS
  1
AMDTINTERNALREACTOR
  2
AmdtInternalReactor
  3
AcMeServices
 90
     1024
280
     0
281
     0
  0
CLASS
  1
ACMESTATEMGR
  2
AcMeStateMgr
  3
AcMeServices
 90
     1024
280
     0
281
     0
  0
CLASS
  1
ACGREFMASTER
  2
AcGrefMaster
  3
AcAttribServices
 90
     1024
280
     0
281
     0
  0
CLASS
  1
ACME_DATABASE
  2
AcMeDbDatabase
  3
AcMeServices
 90
     1024
280
     0
281
     0
  0
CLASS
  1
ACRFINSADJUSTERMGR
  2
AcRfInsAdjusterMgr
  3
AcMeServices
 90
     1024
280
     0
281
     0
  0
CLASS
  1
ACGREFACADMASTER
  2
AcGrefacadMaster
  3
AcGrefServices
 90
     1024
280
     0
281
     0
  0
CLASS
  1
AMIMASTER
  2
AmiMaster
  3
AmiServices
 90
     1024
280
     0
281
     0
  0
CLASS
  1
ACMDATADICTIONARY
  2
AcmDataDictionary
  3
"AcmSymBB|Product Description: AutoCAD Mechanical|Company: Autodesk, Inc."
 90
     1024
280
     0
281
     0
  0
CLASS
  1
ACMDATAENTRYBLOCK
  2
AcmDataEntryBlock
  3
AcmSymBB|Product Description: AutoCAD Mechanical|Company: Autodesk, Inc.
 90
    33792
280
     0
281
     0
  0
CLASS
  1
ACIMSTRSYSVAR
  2
AcImStrSysVar
  3
AcMeServices
 90
     1024
280
     0
281
     0
  0
CLASS
  1
ACMSTANDARDDIN
  2
AcmStandardDIN
  3
"Amdt_StdImp|Product Description: AutoCAD Mechanical|Company: Autodesk, Inc."
 90
     1024
280
     0
281
     0
  0
CLASS
  1
AMGOBJPROPCFG
  2
AmgObjPropCfg
  3
"AmgLay|Product Description: AutoCAD Mechanical|Company: Autodesk, Inc."
 90
     1025
280
     0
281
     0
  0
CLASS
  1
AMDTEDGESTANDARDDIN
  2
AmdtEdgeStdDIN
  3
"Amdt_StdImp|Product Description: AutoCAD Mechanical|Company: Autodesk, Inc."
 90
    33792
280
     0
281
     0
  0
CLASS
  1
ACMSURFSTANDARDDIN
  2
AcmSurfTextStdDIN
  3
"Amdt_StdImp|Product Description: AutoCAD Mechanical|Company: Autodesk, Inc."
 90
     1024
280
     0
281
     0
  0
CLASS
  1
ACMFCFSTANDARDDIN
  2
AcmFCFStdDIN
  3
"Amdt_StdImp|Product Description: AutoCAD Mechanical|Company: Autodesk, Inc."
 90
     1024
280
     0
281
     0
  0
CLASS
  1
ACMWELDSTANDARDDIN
  2
AcmWeldingStdDIN
  3
"Amdt_StdImp|Product Description: AutoCAD Mechanical|Company: Autodesk, Inc."
 90
     1024
280
     0
281
     0
  0
CLASS
  1
ACMIDSTANDARDDIN
  2
AcmIdStdDIN
  3
"Amdt_StdImp|Product Description: AutoCAD Mechanical|Company: Autodesk, Inc."
 90
     1024
280
     0
281
     0
  0
CLASS
  1
ACMDATUMSTANDARDDIN
  2
AcmDatumStdDIN
  3
"Amdt_StdImp|Product Description: AutoCAD Mechanical|Company: Autodesk, Inc."
 90
     1024
280
     0
281
     0
  0
CLASS
  1
ACMBOMSTANDARDDIN
  2
AcmBOMStdDIN
  3
"Amdt_StdImp|Product Description: AutoCAD Mechanical|Company: Autodesk, Inc."
 90
     1024
280
     0
281
     0
  0
CLASS
  1
ACMDETAILSTANDARDDIN
  2
AmdtDetailSymStdDIN
  3
"Amdt_StdImp|Product Description: AutoCAD Mechanical|Company: Autodesk, Inc."
 90
     1024
280
     0
281
     0
  0
CLASS
  1
ACMSECTIONSTANDARDDIN
  2
AmdtSectionSymStdDIN
  3
"Amdt_StdImp|Product Description: AutoCAD Mechanical|Company: Autodesk, Inc."
 90
     1024
280
     0
281
     0
  0
CLASS
  1
ACMCENTERLINESTANDARDDIN
  2
AmdtCenterLineStdDIN
  3
"Amdt_StdImp|Product Description: AutoCAD Mechanical|Company: Autodesk, Inc."
 90
     1024
280
     0
281
     0
  0
CLASS
  1
ACAMGLAYSTD
  2
AcAmgLayStd
  3
"AmgLay|Product Description: AutoCAD Mechanical|Company: Autodesk, Inc."
 90
     1024
280
     0
281
     0
  0
CLASS
  1
ACAMGDIMSTD
  2
AcAmgDimStd
  3
"AmgDim|Product Description: AutoCAD Mechanical|Company: Autodesk, Inc."
 90
     1024
280
     0
281
     0
  0
CLASS
  1
ACAMGTITLESTD
  2
AcAmgTitleStd
  3
"AmgTitle|Product Description: AutoCAD Mechanical|Company: Autodesk, Inc."
 90
     4095
280
     0
281
     0
  0
CLASS
  1
LAYER_INDEX
  2
AcDbLayerIndex
  3
ObjectDBX Classes
 90
    32768
280
     0
281
     0
  0
CLASS
  1
IDBUFFER
  2
AcDbIdBuffer
  3
ObjectDBX Classes
 90
    32768
280
     0
281
     0
  0
CLASS
  1
TABLESTYLE
  2
AcDbTableStyle
  3
ObjectDBX Classes
 90
     4095
280
     0
281
     0
  0
CLASS
  1
AM_DRAWING_MGR
  2
AcDmDwgMgr
  3
AcMechDwgViewMgmt
 90
     1024
280
     0
281
     0
  0
CLASS
  1
AM_DWG_DOCUMENT
  2
AcDmDwgDocument
  3
AcMechDwgViewMgmt
 90
     1024
280
     0
281
     0
  0
CLASS
  1
AM_DWG_SHEET
  2
AcDmSheet
  3
AcMechDwgViewMgmt
 90
     1024
280
     0
281
     0
  0
CLASS
  1
AM_VIEWDIMPARMAP
  2
AcDmViewDimParMap
  3
AcMechDwgViewMgmt
 90
     1024
280
     0
281
     0
  0
CLASS
  1
AM_DWGMGR_NAME
  2
AcDmDwgMgrName
  3
AcMechDwgViewMgmt
 90
     1024
280
     0
281
     0
  0
CLASS
  1
AMDTMENUSTATEMGR
  2
AmdtMenuStateMgr
  3
McadcomServices
 90
     1024
280
     0
281
     0
  0
CLASS
  1
AMDTMCOMMENUSTATE
  2
AmdtMcomMenuState
  3
McadcomServices
 90
     1024
280
     0
281
     0
  0
CLASS
  1
MAPIAMMOUDLE
  2
MApiAmModule
  3
MApiAmServices
 90
     1024
280
     0
281
     0
  0
CLASS
  1
AMDTADMENUSTATE
  2
AmdtAdMenuState
  3
DesignerServices
 90
     1024
280
     0
281
     0
  0
CLASS
  1
ADAPPL
  2
AcAdAppl
  3
DesignerServices
 90
     1024
280
     0
281
     0
  0
CLASS
  1
DEPMGR
  2
AcAdDepMgr
  3
DesignerServices
 90
     1024
280
     0
281
     0
  0
CLASS
  1
PARAMMGR
  2
AcAdParamMgr
  3
DesignerServices
 90
     1024
280
     0
281
     0
  0
CLASS
  1
PARAMSCOPE
  2
AcAdParamScope
  3
DesignerServices
 90
     1024
280
     0
281
     0
  0
CLASS
  1
NAMEDAPPL
  2
AcAdNamedAppl
  3
DesignerServices
 90
     1024
280
     0
281
     0
  0
CLASS
  1
AMDTDMMENUSTATE
  2
AmdtDmMenuState
  3
AcMechDwgViewMgmt
 90
     1024
280
     0
281
     0
  0
CLASS
  1
AMDTAMMENUSTATE
  2
AmdtAmMenuState
  3
DesignerAssemblies
 90
     1024
280
     0
281
     0
  0
CLASS
  1
ACAMPROJECT
  2
AcAmProject
  3
DesignerAssemblies
 90
     1024
280
     0
281
     0
  0
CLASS
  1
ACAMGRCOMPDEF
  2
AcAmGrCompDef
  3
DesignerAssemblies
 90
     1024
280
     0
281
     0
  0
CLASS
  1
ACCMCONTEXT
  2
AcCmContext
  3
DesignerAssemblies
 90
     1024
280
     0
281
     0
  0
CLASS
  1
ACAMCOMPDEF
  2
AcAmCompDef
  3
DesignerAssemblies
 90
     1024
280
     0
281
     0
  0
CLASS
  1
ACAMCOMPDEFMGR
  2
AcAmCompDefMgr
  3
DesignerAssemblies
 90
     1024
280
     0
281
     0
  0
CLASS
  1
AMCONTEXTMGR
  2
AcAmContextMgr
  3
DesignerAssemblies
 90
     1024
280
     0
281
     0
  0
CLASS
  1
ACAMCONTEXTMODELER
  2
AcAmContextModeler
  3
DesignerAssemblies
 90
     1024
280
     0
281
     0
  0
CLASS
  1
ACMTHREADLINESTANDARDDIN
  2
AmdtThreadLineStdDIN
  3
"Amdt_StdImp|Product Description: AutoCAD Mechanical|Company: Autodesk, Inc."
 90
     1024
280
     0
281
     0
  0
CLASS
  1
ACMNOTESTANDARDDIN
  2
AmdtNoteStdDIN
  3
"Amdt_StdImp|Product Description: AutoCAD Mechanical|Company: Autodesk, Inc."
 90
     1024
280
     0
281
     0
  0
CLASS
  1
AMDTNOTETEMPLATEDB
  2
AmdtNoteTemplateDB
  3
AcmSymBB|Product Description: AutoCAD Mechanical|Company: Autodesk, Inc.
 90
     1024
280
     0
281
     0
  0
CLASS
  1
CATALOGSTATE
  2
AcAmCatalogState
  3
DesignerAssemblies
 90
     1024
280
     0
281
     0
  0
CLASS
  1
ACAMGRCOMPDEFSET
  2
AcAmGrCompDefSet
  3
DesignerAssemblies
 90
     1024
280
     0
281
     0
  0
CLASS
  1
AMDTBROWSERDBTAB
  2
AmdtBrowserDbTab
  3
McadcomServices
 90
     1024
280
     0
281
     0
  0
CLASS
  1
CBROWSERAPPOBJECT
  2
CBrowserAppObject
  3
McadcomServices
 90
     1024
280
     0
281
     0
  0
CLASS
  1
DM_PLACEHOLDER
  2
AcDmSelsetPlaceholder
  3
AcMechDwgViewMgmt
 90
     1024
280
     0
281
     0
  0
CLASS
  1
ACAMGFILTERDAT
  2
AcAmgFilterDat
  3
"AcadM|Product Description: AutoCAD Mechanical|Company: Autodesk, Inc."
 90
    33792
280
     0
281
     0
  0
CLASS
  1
AMDTEDGESTANDARDDIN13715
  2
AmdtEdgeStdDIN13715
  3
"Amdt_StdImp|Product Description: AutoCAD Mechanical|Company: Autodesk, Inc."
 90
     1024
280
     0
281
     0
  0
CLASS
  1
ACAMGHOLECHARTSTDDIN
  2
AcAmgHoleChartStdDIN
  3
AmgDim|Product Description: AutoCAD Mechanical|Company: Autodesk, Inc.
 90
     1024
280
     0
281
     0
  0
CLASS
  1
SORTENTSTABLE
  2
AcDbSortentsTable
  3
ObjectDBX Classes
 90
        0
280
     0
281
     0
  0
CLASS
  1
MATERIAL
  2
AcDbMaterial
  3
ObjectDBX Classes
 90
     1153
280
     0
281
     0
  0
CLASS
  1
VISUALSTYLE
  2
AcDbVisualStyle
  3
ObjectDBX Classes
 90
     4095
280
     0
281
     0
  0
CLASS
  1
SCALE
  2
AcDbScale
  3
ObjectDBX Classes
 90
     1153
280
     0
281
     0
  0
CLASS
  1
MLEADERSTYLE
  2
AcDbMLeaderStyle
  3
ACDB_MLEADERSTYLE_CLASS
 90
     4095
280
     0
281
     0
  0
CLASS
  1
ACMTAPERSTANDARDDIN
  2
AcmTaperStdDIN
  3
"Amdt_StdImp|Product Description: AutoCAD Mechanical|Company: Autodesk, Inc."
 90
     1024
280
     0
281
     0
  0
CLASS
  1
ACMANOOTATIONVIEWSTANDARDDIN
  2
AmdtAnViewStdDIN
  3
"Amdt_StdImp|Product Description: AutoCAD Mechanical|Company: Autodesk, Inc."
 90
     1024
280
     0
281
     0
  0
CLASS
  1
EXACXREFPANELOBJECT
  2
ExAcXREFPanelObject
  3
EXAC_ESW
 90
     1025
280
     0
281
     0
  0
CLASS
  1
NPOCOLLECTION
  2
AcDbImpNonPersistentObjectsCollection
  3
ObjectDBX Classes
 90
     1153
280
     0
281
     0
  0
CLASS
  1
CELLSTYLEMAP
  2
AcDbCellStyleMap
  3
ObjectDBX Classes
 90
     1152
280
     0
281
     0
  0
ENDSEC
  0
SECTION
  2
TABLES
  0
TABLE
  2
VPORT
  5
1A
330
0
100
AcDbSymbolTable
 70
     1
  0
VPORT
  5
127C
330
1A
100
AcDbSymbolTableRecord
100
AcDbViewportTableRecord
  2
*Active
 70
     0
 10
0.0
 20
0.0
 11
1.0
 21
1.0
 12
392.3613713253546
 22
492.6812212247832
 13
0.0
 23
0.0
 14
2.0
 24
2.0
 15
20.0
 25
20.0
 16
0.0
 26
0.0
 36
1.0
 17
0.0
 27
0.0
 37
0.0
 40
677.1970397399042
 41
1.823321554770318
 42
50.0
 43
0.0
 44
0.0
 50
0.0
 51
0.0
 71
     0
 72
 15000
 73
     1
 74
     1
 75
     0
 76
     0
 77
     0
 78
     0
281
     0
 65
     1
110
0.0
120
0.0
130
0.0
111
1.0
121
0.0
131
0.0
112
0.0
122
1.0
132
0.0
 79
     0
146
0.0
  0
ENDTAB
  0
TABLE
  2
LTYPE
  5
15
330
0
100
AcDbSymbolTable
 70
    15
  0
LTYPE
  5
16
330
15
100
AcDbSymbolTableRecord
100
AcDbLinetypeTableRecord
  2
BYBLOCK
 70
     0
  3

 72
    65
 73
     0
 40
0.0
  0
LTYPE
  5
17
330
15
100
AcDbSymbolTableRecord
100
AcDbLinetypeTableRecord
  2
BYLAYER
 70
     0
  3

 72
    65
 73
     0
 40
0.0
  0
LTYPE
  5
9
330
15
100
AcDbSymbolTableRecord
100
AcDbLinetypeTableRecord
  2
CONTINUOUS
 70
     0
  3
Solid line
 72
    65
 73
     0
 40
0.0
  0
LTYPE
  5
54
330
15
100
AcDbSymbolTableRecord
100
AcDbLinetypeTableRecord
  2
GEN7
 70
     0
  3
____ . ____ . ____ . ____ . ____ . ____ . ____
 72
    65
 73
     4
 40
13.75
 49
10.0
 74
     0
 49
-1.25
 74
     0
 49
1.25
 74
     0
 49
-1.25
 74
     0
  0
LTYPE
  5
4B4
330
15
100
AcDbSymbolTableRecord
100
AcDbLinetypeTableRecord
  2
ACDINWELD
 70
     0
  3
_ _ _ _ _
 72
    65
 73
     2
 40
2.0
 49
2.0
 74
     0
 49
-1.0
 74
     0
  0
LTYPE
  5
4B7
330
15
100
AcDbSymbolTableRecord
100
AcDbLinetypeTableRecord
  2
ACDINTGB
 70
     0
  3
__ . . __ . .
 72
    65
 73
     6
 40
9.0
 49
4.0
 74
     0
 49
-1.0
 74
     0
 49
1.0
 74
     0
 49
-1.0
 74
     0
 49
1.0
 74
     0
 49
-1.0
 74
     0
  0
LTYPE
  5
4B8
330
15
100
AcDbSymbolTableRecord
100
AcDbLinetypeTableRecord
  2
ACDINTGL
 70
     0
  3
_ _ _ _ _
 72
    65
 73
     2
 40
3.0
 49
2.0
 74
     0
 49
-1.0
 74
     0
  0
LTYPE
  5
4BC
330
15
100
AcDbSymbolTableRecord
100
AcDbLinetypeTableRecord
  2
CENTER
 70
     0
  3
__ . __
 72
    65
 73
     4
 40
7.0
 49
4.0
 74
     0
 49
-1.0
 74
     0
 49
1.0
 74
     0
 49
-1.0
 74
     0
  0
LTYPE
  5
4FA
330
15
100
AcDbSymbolTableRecord
100
AcDbLinetypeTableRecord
  2
HIDDEN
 70
     0
  3
Verdeckt
 72
    65
 73
     2
 40
9.525
 49
6.349999999999999
 74
     0
 49
-3.174999999999999
 74
     0
  0
LTYPE
  5
4FB
330
15
100
AcDbSymbolTableRecord
100
AcDbLinetypeTableRecord
  2
PHANTOM2
 70
     0
  3
Phantom (.5x) ___ _ _ ___ _ _ ___ _ _ ___ _ _
 72
    65
 73
     6
 40
31.75
 49
15.875
 74
     0
 49
-3.174999999999999
 74
     0
 49
3.174999999999999
 74
     0
 49
-3.174999999999999
 74
     0
 49
3.174999999999999
 74
     0
 49
-3.174999999999999
 74
     0
  0
LTYPE
  5
5C2
330
15
100
AcDbSymbolTableRecord
100
AcDbLinetypeTableRecord
  2
Amconstr
 70
     0
  3
_______________________
 72
    65
 73
     2
 40
9999.0
 49
9999.0
 74
     0
 49
0.0
 74
     0
  0
LTYPE
  5
5C5
330
15
100
AcDbSymbolTableRecord
100
AcDbLinetypeTableRecord
  2
Amzigzag
 70
     0
  3
/\/-/\/-/\/-/\/-/\/-/\/
 72
    65
 73
     2
 40
11.0001
 49
0.0001
 74
     4
 75
   136
340
4A4
 46
0.04
 50
0.0
 44
0.0
 45
0.0
 49
-11.0
 74
     0
  0
LTYPE
  5
5C6
330
15
100
AcDbSymbolTableRecord
100
AcDbLinetypeTableRecord
  2
AM_DIN_F_W050
 70
     0
  3
__ __ __ __ __ __ __ __ __ __ __ __ __ __ __
 72
    65
 73
     2
 40
6.25
 49
4.75
 74
     0
 49
-1.5
 74
     0
  0
LTYPE
  5
5C7
330
15
100
AcDbSymbolTableRecord
100
AcDbLinetypeTableRecord
  2
AM_DIN_G_W050
 70
     0
  3
____ . ____ . ____ . ____ . ____ . ____ . ____
 72
    65
 73
     4
 40
13.75
 49
9.75
 74
     0
 49
-1.5
 74
     0
 49
1.0
 74
     0
 49
-1.5
 74
     0
  0
LTYPE
  5
5C8
330
15
100
AcDbSymbolTableRecord
100
AcDbLinetypeTableRecord
  2
AM_DIN_K_W050
 70
     0
  3
_____ . . _____ . . _____ . . ____ .. ____
 72
    65
 73
     6
 40
16.25
 49
9.75
 74
     0
 49
-1.5
 74
     0
 49
1.0
 74
     0
 49
-1.5
 74
     0
 49
1.0
 74
     0
 49
-1.5
 74
     0
  0
LTYPE
  5
5C9
330
15
100
AcDbSymbolTableRecord
100
AcDbLinetypeTableRecord
  2
AM_DIN_G_W050x2
 70
     0
  3
__ . __ . __ . __ . __ . __
 72
    65
 73
     4
 40
6.875
 49
4.75
 74
     0
 49
-0.875
 74
     0
 49
0.375
 74
     0
 49
-0.875
 74
     0
  0
LTYPE
  5
5CA
330
15
100
AcDbSymbolTableRecord
100
AcDbLinetypeTableRecord
  2
AM_DIN_F_W050x2
 70
     0
  3
 _ _ _ _ _ _ _ _ _ _ _ _
 72
    65
 73
     2
 40
3.125
 49
2.25
 74
     0
 49
-0.875
 74
     0
  0
ENDTAB
  0
TABLE
  2
LAYER
  5
11
102
{ACAD_XDICTIONARY
360
1180
102
}
330
0
100
AcDbSymbolTable
 70
     7
  0
LAYER
  5
5
330
11
100
AcDbSymbolTableRecord
100
AcDbLayerTableRecord
  2
0
 70
     0
 62
     7
  6
CONTINUOUS
370
    -3
390
6
  0
LAYER
  5
53
330
11
100
AcDbSymbolTableRecord
100
AcDbLayerTableRecord
  2
7
 70
     0
 62
     4
  6
GEN7
370
    -3
390
6
  0
LAYER
  5
32
330
11
100
AcDbSymbolTableRecord
100
AcDbLayerTableRecord
  2
5
 70
     0
 62
     3
  6
CONTINUOUS
370
    -3
390
6
  0
LAYER
  5
3C
330
11
100
AcDbSymbolTableRecord
100
AcDbLayerTableRecord
  2
DEFPOINTS
 70
     0
 62
     7
  6
CONTINUOUS
290
     0
370
    -3
390
6
  0
LAYER
  5
2D
330
11
100
AcDbSymbolTableRecord
100
AcDbLayerTableRecord
  2
4
 70
     0
 62
     3
  6
CONTINUOUS
370
    -3
390
6
  0
LAYER
  5
6C
330
11
100
AcDbSymbolTableRecord
100
AcDbLayerTableRecord
  2
8
 70
     0
 62
     1
  6
CONTINUOUS
370
    -3
390
6
  0
LAYER
  5
74
330
11
100
AcDbSymbolTableRecord
100
AcDbLayerTableRecord
  2
0A
 70
     0
 62
     7
  6
CONTINUOUS
370
    -3
390
6
  0
ENDTAB
  0
TABLE
  2
STYLE
  5
12
330
0
100
AcDbSymbolTable
 70
     4
  0
STYLE
  5
13
330
12
100
AcDbSymbolTableRecord
100
AcDbTextStyleTableRecord
  2
STANDARD
 70
     0
 40
0.0
 41
1.0
 50
0.0
 71
     0
 42
5.0
  3
ISOCP.SHX
  4

  0
STYLE
  5
4AE
330
12
100
AcDbSymbolTableRecord
100
AcDbTextStyleTableRecord
  2
ACDINTS
 70
     0
 40
1.0
 41
1.0
 50
0.0
 71
     0
 42
5.0
  3
isocp.shx
  4

  0
STYLE
  5
4B2
330
12
100
AcDbSymbolTableRecord
100
AcDbTextStyleTableRecord
  2
ACDINGDT
 70
     0
 40
0.0
 41
1.0
 50
0.0
 71
     0
 42
5.0
  3
AMGDT
  4

  0
STYLE
  5
4A4
330
12
100
AcDbSymbolTableRecord
100
AcDbTextStyleTableRecord
  2

 70
     1
 40
0.0
 41
1.0
 50
0.0
 71
     0
 42
5.0
  3
genltshp.shx
  4

  0
ENDTAB
  0
TABLE
  2
VIEW
  5
18
330
0
100
AcDbSymbolTable
 70
     0
  0
ENDTAB
  0
TABLE
  2
UCS
  5
19
330
0
100
AcDbSymbolTable
 70
     0
  0
ENDTAB
  0
TABLE
  2
APPID
  5
1C
330
0
100
AcDbSymbolTable
 70
    48
  0
APPID
  5
1D
330
1C
100
AcDbSymbolTableRecord
100
AcDbRegAppTableRecord
  2
ACAD
 70
     0
  0
APPID
  5
6D
330
1C
100
AcDbSymbolTableRecord
100
AcDbRegAppTableRecord
  2
GENIUS_GENODEF_13
 70
     0
  0
APPID
  5
226
330
1C
100
AcDbSymbolTableRecord
100
AcDbRegAppTableRecord
  2
GENIUS_GENOBJ-N-REC_13
 70
     0
  0
APPID
  5
94
330
1C
100
AcDbSymbolTableRecord
100
AcDbRegAppTableRecord
  2
GENIUS_GENOREF_13
 70
     0
  0
APPID
  5
223
330
1C
100
AcDbSymbolTableRecord
100
AcDbRegAppTableRecord
  2
GENIUS_VERSION2
 70
     0
  0
APPID
  5
225
330
1C
100
AcDbSymbolTableRecord
100
AcDbRegAppTableRecord
  2
GENIUS_GENREC_14
 70
     0
  0
APPID
  5
104
330
1C
100
AcDbSymbolTableRecord
100
AcDbRegAppTableRecord
  2
NC_GG_NT
 70
     0
  0
APPID
  5
105
330
1C
100
AcDbSymbolTableRecord
100
AcDbRegAppTableRecord
  2
NC_GG_AK
 70
     0
  0
APPID
  5
103
330
1C
100
AcDbSymbolTableRecord
100
AcDbRegAppTableRecord
  2
NC_GG_OF
 70
     0
  0
APPID
  5
91
330
1C
100
AcDbSymbolTableRecord
100
AcDbRegAppTableRecord
  2
GENIUS_GENHINW_13
 70
     0
  0
APPID
  5
FB
330
1C
100
AcDbSymbolTableRecord
100
AcDbRegAppTableRecord
  2
GENIUS_GENOBJ-N-FIL_13
 70
     0
  0
APPID
  5
40
330
1C
100
AcDbSymbolTableRecord
100
AcDbRegAppTableRecord
  2
GENIUS_GENDTOL_13
 70
     0
  0
APPID
  5
6E
330
1C
100
AcDbSymbolTableRecord
100
AcDbRegAppTableRecord
  2
GENIUS_GENOBJ-N-HTC_13
 70
     0
  0
APPID
  5
6F
330
1C
100
AcDbSymbolTableRecord
100
AcDbRegAppTableRecord
  2
GENIUS_GENHATCH_13
 70
     0
  0
APPID
  5
7D
330
1C
100
AcDbSymbolTableRecord
100
AcDbRegAppTableRecord
  2
GENIUS_GENTRA_14
 70
     0
  0
APPID
  5
85
330
1C
100
AcDbSymbolTableRecord
100
AcDbRegAppTableRecord
  2
GENIUS_FIRSTVISTXT_14
 70
     0
  0
APPID
  5
87
330
1C
100
AcDbSymbolTableRecord
100
AcDbRegAppTableRecord
  2
GENIUS_SECONDVISTXT_14
 70
     0
  0
APPID
  5
4D1
330
1C
100
AcDbSymbolTableRecord
100
AcDbRegAppTableRecord
  2
GENIUS_GENOENT_13
 70
     0
  0
APPID
  5
4D8
330
1C
100
AcDbSymbolTableRecord
100
AcDbRegAppTableRecord
  2
GENIUS_GENOBJ-N-TIT_13
 70
     0
  0
APPID
  5
4D9
330
1C
100
AcDbSymbolTableRecord
100
AcDbRegAppTableRecord
  2
GENIUS_GENTITLE_13
 70
     0
  0
APPID
  5
4D2
330
1C
100
AcDbSymbolTableRecord
100
AcDbRegAppTableRecord
  2
GENIUS_GENOLIS_13
 70
     0
  0
APPID
  5
22C
330
1C
100
AcDbSymbolTableRecord
100
AcDbRegAppTableRecord
  2
GENIUS_GENOBJ-N-SDF_13
 70
     0
  0
APPID
  5
22B
330
1C
100
AcDbSymbolTableRecord
100
AcDbRegAppTableRecord
  2
GENIUS_GENSCREG_13
 70
     0
  0
APPID
  5
4D0
330
1C
100
AcDbSymbolTableRecord
100
AcDbRegAppTableRecord
  2
GENIUS_GENOBJ-N-HINW_13
 70
     0
  0
APPID
  5
516
330
1C
100
AcDbSymbolTableRecord
100
AcDbRegAppTableRecord
  2
MCAD_NO_VIS
 70
     0
  0
APPID
  5
517
330
1C
100
AcDbSymbolTableRecord
100
AcDbRegAppTableRecord
  2
ACAD_TEMP_GRAPHIC
 70
     0
  0
APPID
  5
520
330
1C
100
AcDbSymbolTableRecord
100
AcDbRegAppTableRecord
  2
AD_DRAW
 70
     0
  0
APPID
  5
523
330
1C
100
AcDbSymbolTableRecord
100
AcDbRegAppTableRecord
  2
ACATTRIBSERVICES
 70
     0
  0
APPID
  5
53B
330
1C
100
AcDbSymbolTableRecord
100
AcDbRegAppTableRecord
  2
DESIGNERASSEMBLIES
 70
     0
  0
APPID
  5
542
330
1C
100
AcDbSymbolTableRecord
100
AcDbRegAppTableRecord
  2
ACADM_DIM_EDIT
 70
     0
  0
APPID
  5
543
330
1C
100
AcDbSymbolTableRecord
100
AcDbRegAppTableRecord
  2
AMDT_DM_ADJ
 70
     0
  0
APPID
  5
5E0
330
1C
100
AcDbSymbolTableRecord
100
AcDbRegAppTableRecord
  2
ACAD_DSTYLE_DIMARC_LENGTH_SYMBOL
 70
     0
  0
APPID
  5
5E1
330
1C
100
AcDbSymbolTableRecord
100
AcDbRegAppTableRecord
  2
ACAD_DSTYLE_DIMJOGGED_JOGANGLE_SYMBOL
 70
     0
  0
APPID
  5
704
330
1C
100
AcDbSymbolTableRecord
100
AcDbRegAppTableRecord
  2
GENIUS_GENOBJ-N-CEN_13
 70
     0
  0
APPID
  5
705
330
1C
100
AcDbSymbolTableRecord
100
AcDbRegAppTableRecord
  2
VCC
 70
     0
  0
APPID
  5
706
330
1C
100
AcDbSymbolTableRecord
100
AcDbRegAppTableRecord
  2
GEVPT
 70
     0
  0
APPID
  5
707
330
1C
100
AcDbSymbolTableRecord
100
AcDbRegAppTableRecord
  2
GEVIT
 70
     0
  0
APPID
  5
708
330
1C
100
AcDbSymbolTableRecord
100
AcDbRegAppTableRecord
  2
GENBH
 70
     0
  0
APPID
  5
709
330
1C
100
AcDbSymbolTableRecord
100
AcDbRegAppTableRecord
  2
GENIUS_GEFPARTINS_13
 70
     0
  0
APPID
  5
70A
330
1C
100
AcDbSymbolTableRecord
100
AcDbRegAppTableRecord
  2
GEVID901715756
 70
     0
  0
APPID
  5
70B
330
1C
100
AcDbSymbolTableRecord
100
AcDbRegAppTableRecord
  2
GENIUS_GENOBJ-N-DIMBR_13
 70
     0
  0
APPID
  5
70C
330
1C
100
AcDbSymbolTableRecord
100
AcDbRegAppTableRecord
  2
GENIUS_DIMBR_14
 70
     0
  0
APPID
  5
70D
330
1C
100
AcDbSymbolTableRecord
100
AcDbRegAppTableRecord
  2
GENIUS_DIMBRX_14
 70
     0
  0
APPID
  5
70E
330
1C
100
AcDbSymbolTableRecord
100
AcDbRegAppTableRecord
  2
GENIUS_GENOBJ-N-DIMBRX_13
 70
     0
  0
APPID
  5
B7E
330
1C
100
AcDbSymbolTableRecord
100
AcDbRegAppTableRecord
  2
AcAecLayerStandard
 70
     0
  0
APPID
  5
B86
330
1C
100
AcDbSymbolTableRecord
100
AcDbRegAppTableRecord
  2
ACAD_EXEMPT_FROM_CAD_STANDARDS
 70
     0
  0
APPID
  5
11D1
330
1C
100
AcDbSymbolTableRecord
100
AcDbRegAppTableRecord
  2
ACAD_PSEXT
 70
     0
  0
APPID
  5
12BB
330
1C
100
AcDbSymbolTableRecord
100
AcDbRegAppTableRecord
  2
ACAD_MLEADERVER
 70
     0
  0
ENDTAB
  0
TABLE
  2
DIMSTYLE
  5
1E
330
0
100
AcDbSymbolTable
 70
     8
100
AcDbDimStyleTable
 71
     1
340
28
  0
DIMSTYLE
105
28
102
{ACAD_REACTORS
330
E39
330
E3B
330
E3C
330
E3D
330
E3E
330
F81
330
E4B
330
1111
330
11DE
330
11DF
330
11E0
102
}
330
1E
100
AcDbSymbolTableRecord
100
AcDbDimStyleTableRecord
  2
GEN-ISO
 70
     0
  4
"
 40
2.0
 41
2.5
 42
1.0
 43
7.0
 44
1.0
 47
0.1
 48
0.1
 73
     0
 74
     0
 77
     1
 78
     8
140
3.5
141
0.0
143
0.0393701
146
0.71
147
0.6
172
     1
176
   256
177
   256
178
     2
271
     2
272
     3
274
     4
283
     0
340
13
  0
DIMSTYLE
105
5DF
330
1E
100
AcDbSymbolTableRecord
100
AcDbDimStyleTableRecord
  2
AM_DIN
 70
     0
  4
"
 41
2.5
 42
1.0
 43
10.0
 44
1.0
 47
0.1
 48
0.1
 73
     0
 74
     0
 77
     1
 78
     8
 79
     2
140
3.5
141
0.0
143
0.0393701
146
0.71
147
1.5
172
     1
176
   256
177
   256
178
     2
271
     2
272
     3
274
     4
283
     0
284
     8
340
13
371
    -1
372
    -1
1001
ACAD_DSTYLE_DIMJOGGED_JOGANGLE_SYMBOL
1070
   384
1040
1.570796326794896
  0
DIMSTYLE
105
5F0
330
1E
100
AcDbSymbolTableRecord
100
AcDbDimStyleTableRecord
  2
AM_DIN$3
 70
     0
  4
"
 41
2.5
 42
1.0
 43
10.0
 44
1.0
 47
0.1
 48
0.1
 73
     0
 77
     1
 78
     8
 79
     2
140
3.5
141
0.0
143
0.0393701
146
0.71
147
1.5
176
   256
177
   256
178
     2
271
     2
272
     3
274
     4
283
     0
284
     8
288
     1
289
     0
340
13
371
    -1
372
    -1
1001
ACAD_DSTYLE_DIMJOGGED_JOGANGLE_SYMBOL
1070
   384
1040
1.570796326794896
  0
DIMSTYLE
105
5F5
330
1E
100
AcDbSymbolTableRecord
100
AcDbDimStyleTableRecord
  2
AM_DIN$4
 70
     0
  4
"
 41
2.5
 42
1.0
 43
10.0
 44
1.0
 47
0.1
 48
0.1
 73
     0
 77
     1
 78
     8
 79
     2
140
3.5
141
0.0
143
0.0393701
146
0.71
147
1.5
176
   256
177
   256
178
     2
271
     2
272
     3
274
     4
283
     0
284
     8
288
     1
289
     0
340
13
371
    -1
372
    -1
1001
ACAD_DSTYLE_DIMJOGGED_JOGANGLE_SYMBOL
1070
   384
1040
1.570796326794896
  0
DIMSTYLE
105
5FA
330
1E
100
AcDbSymbolTableRecord
100
AcDbDimStyleTableRecord
  2
AM_DIN$6
 70
     0
  4
"
 41
2.5
 42
1.0
 43
10.0
 44
1.0
 47
0.1
 48
0.1
 73
     0
 74
     0
 78
     8
 79
     2
140
3.5
141
0.0
143
0.0393701
146
0.71
147
1.5
172
     1
176
   256
177
   256
178
     2
271
     2
272
     3
274
     4
283
     0
284
     8
340
13
371
    -1
372
    -1
1001
ACAD_DSTYLE_DIMJOGGED_JOGANGLE_SYMBOL
1070
   384
1040
1.570796326794896
  0
DIMSTYLE
105
5FF
330
1E
100
AcDbSymbolTableRecord
100
AcDbDimStyleTableRecord
  2
AM_DIN$7
 70
     0
  4
"
 41
2.5
 42
1.0
 43
10.0
 44
1.0
 47
0.1
 48
0.1
 73
     0
 74
     0
 77
     1
 78
     8
 79
     2
140
5.0
141
0.0
143
0.0393701
146
0.71
147
1.5
172
     1
176
   256
177
   256
178
     2
271
     2
272
     3
274
     4
283
     0
284
     8
340
13
371
    -1
372
    -1
1001
ACAD_DSTYLE_DIMJOGGED_JOGANGLE_SYMBOL
1070
   384
1040
1.570796326794896
  0
DIMSTYLE
105
604
330
1E
100
AcDbSymbolTableRecord
100
AcDbDimStyleTableRecord
  2
AM_DIN$SF
 70
     0
  4
"
 41
2.5
 42
1.0
 43
10.0
 44
1.0
 47
0.1
 48
0.1
 73
     0
 74
     0
 75
     1
 76
     1
 77
     1
 78
     8
 79
     2
140
3.5
141
0.0
143
0.0393701
146
0.71
147
1.5
172
     1
176
   256
177
   256
178
     2
271
     2
272
     3
274
     4
283
     0
284
     8
340
13
371
    -1
372
    -1
1001
ACAD_DSTYLE_DIMJOGGED_JOGANGLE_SYMBOL
1070
   384
1040
1.570796326794896
  0
DIMSTYLE
105
60D
330
1E
100
AcDbSymbolTableRecord
100
AcDbDimStyleTableRecord
  2
AM_DIN$SH
 70
     0
  4
"
 41
2.5
 42
1.0
 43
10.0
 44
1.0
 47
0.1
 48
0.1
 73
     0
 74
     0
 75
     1
 76
     1
 77
     1
 78
     8
 79
     2
140
3.5
141
0.0
143
0.0393701
144
2.0
146
0.71
147
1.5
172
     1
173
     1
176
   256
177
   256
178
     2
271
     2
272
     3
274
     4
283
     0
284
     8
340
13
343
605
371
    -1
372
    -1
1001
ACAD_DSTYLE_DIMJOGGED_JOGANGLE_SYMBOL
1070
   384
1040
1.570796326794896
  0
ENDTAB
  0
TABLE
  2
BLOCK_RECORD
  5
1
330
0
100
AcDbSymbolTable
 70
    16
  0
BLOCK_RECORD
  5
2
102
{ACAD_XDICTIONARY
360
3
102
}
330
1
100
AcDbSymbolTableRecord
100
AcDbBlockTableRecord
  2
*MODEL_SPACE
340
B
  0
BLOCK_RECORD
  5
D
330
1
100
AcDbSymbolTableRecord
100
AcDbBlockTableRecord
  2
*PAPER_SPACE
340
10
  0
BLOCK_RECORD
  5
605
330
1
100
AcDbSymbolTableRecord
100
AcDbBlockTableRecord
  2
GENAXEH
340
0
  0
BLOCK_RECORD
  5
617
330
1
100
AcDbSymbolTableRecord
100
AcDbBlockTableRecord
  2
*X2
340
0
102
{BLKREFS
331
923
102
}
  0
BLOCK_RECORD
  5
632
330
1
100
AcDbSymbolTableRecord
100
AcDbBlockTableRecord
  2
*X3
340
0
102
{BLKREFS
331
922
102
}
  0
BLOCK_RECORD
  5
63F
330
1
100
AcDbSymbolTableRecord
100
AcDbBlockTableRecord
  2
*X4
340
0
102
{BLKREFS
331
A6B
102
}
  0
BLOCK_RECORD
  5
FEF
330
1
100
AcDbSymbolTableRecord
100
AcDbBlockTableRecord
  2
*D5
340
0
  0
BLOCK_RECORD
  5
100A
330
1
100
AcDbSymbolTableRecord
100
AcDbBlockTableRecord
  2
*D6
340
0
  0
BLOCK_RECORD
  5
1016
330
1
100
AcDbSymbolTableRecord
100
AcDbBlockTableRecord
  2
*D7
340
0
  0
BLOCK_RECORD
  5
1024
330
1
100
AcDbSymbolTableRecord
100
AcDbBlockTableRecord
  2
*D8
340
0
  0
BLOCK_RECORD
  5
1030
330
1
100
AcDbSymbolTableRecord
100
AcDbBlockTableRecord
  2
*D9
340
0
  0
BLOCK_RECORD
  5
103C
330
1
100
AcDbSymbolTableRecord
100
AcDbBlockTableRecord
  2
*D10
340
0
  0
BLOCK_RECORD
  5
1048
330
1
100
AcDbSymbolTableRecord
100
AcDbBlockTableRecord
  2
*D11
340
0
  0
BLOCK_RECORD
  5
1112
330
1
100
AcDbSymbolTableRecord
100
AcDbBlockTableRecord
  2
*D12
340
0
  0
BLOCK_RECORD
  5
11E1
330
1
100
AcDbSymbolTableRecord
100
AcDbBlockTableRecord
  2
*D13
340
0
  0
BLOCK_RECORD
  5
11ED
330
1
100
AcDbSymbolTableRecord
100
AcDbBlockTableRecord
  2
*D14
340
0
  0
BLOCK_RECORD
  5
11F9
330
1
100
AcDbSymbolTableRecord
100
AcDbBlockTableRecord
  2
*D15
340
0
  0
ENDTAB
  0
ENDSEC
  0
SECTION
  2
BLOCKS
  0
BLOCK
  5
4
330
2
100
AcDbEntity
  8
0
100
AcDbBlockBegin
  2
*MODEL_SPACE
 70
     0
 10
0.0
 20
0.0
 30
0.0
  3
*MODEL_SPACE
  1

  0
ENDBLK
  5
A
330
2
100
AcDbEntity
  8
0
100
AcDbBlockEnd
  0
BLOCK
  5
E
330
D
100
AcDbEntity
 67
     1
  8
0
100
AcDbBlockBegin
  2
*PAPER_SPACE
 70
     0
 10
0.0
 20
0.0
 30
0.0
  3
*PAPER_SPACE
  1

  0
ENDBLK
  5
F
330
D
100
AcDbEntity
 67
     1
  8
0
100
AcDbBlockEnd
  0
BLOCK
  5
607
330
605
100
AcDbEntity
  8
0
100
AcDbBlockBegin
  2
GENAXEH
 70
     0
 10
0.0
 20
0.0
 30
0.0
  3
GENAXEH
  1

  0
LINE
  5
606
330
605
100
AcDbEntity
  8
0
100
AcDbLine
 10
-1.0
 20
0.0
 30
0.0
 11
1.0
 21
0.0
 31
0.0
  0
ENDBLK
  5
608
330
605
100
AcDbEntity
  8
0
100
AcDbBlockEnd
  0
BLOCK
  5
618
330
617
100
AcDbEntity
  8
0
100
AcDbBlockBegin
  2
*X2
 70
     1
 10
0.0
 20
0.0
 30
0.0
  3
*X2
  1
GEVFRAME
  0
LINE
  5
619
330
617
100
AcDbEntity
  8
0
 62
     0
100
AcDbLine
 10
120.6952767673843
 20
382.3247858064068
 30
0.0
 11
122.1952767673843
 21
383.8247858064069
 31
0.0
  0
LINE
  5
61A
330
617
100
AcDbEntity
  8
0
 62
     0
100
AcDbLine
 10
120.6952767673841
 20
389.3958536182721
 30
0.0
 11
122.195276767384
 21
390.8958536182721
 31
0.0
  0
LINE
  5
61B
330
617
100
AcDbEntity
  8
0
 62
     0
100
AcDbLine
 10
120.6952767673838
 20
396.4669214301373
 30
0.0
 11
122.1952767673837
 21
397.9669214301372
 31
0.0
  0
LINE
  5
61C
330
617
100
AcDbEntity
  8
0
 62
     0
100
AcDbLine
 10
120.6952767673835
 20
403.5379892420023
 30
0.0
 11
122.1952767673835
 21
405.0379892420024
 31
0.0
  0
LINE
  5
61D
330
617
100
AcDbEntity
  8
0
 62
     0
100
AcDbLine
 10
120.6952767673832
 20
410.6090570538675
 30
0.0
 11
122.1952767673832
 21
412.1090570538676
 31
0.0
  0
LINE
  5
61E
330
617
100
AcDbEntity
  8
0
 62
     0
100
AcDbLine
 10
120.695276767383
 20
417.6801248657328
 30
0.0
 11
122.1952767673829
 21
419.1801248657328
 31
0.0
  0
LINE
  5
61F
330
617
100
AcDbEntity
  8
0
 62
     0
100
AcDbLine
 10
120.6952767673827
 20
424.751192677598
 30
0.0
 11
122.1952767673826
 21
426.251192677598
 31
0.0
  0
LINE
  5
620
330
617
100
AcDbEntity
  8
0
 62
     0
100
AcDbLine
 10
120.6952767673824
 20
431.8222604894632
 30
0.0
 11
122.1952767673824
 21
433.3222604894633
 31
0.0
  0
LINE
  5
621
330
617
100
AcDbEntity
  8
0
 62
     0
100
AcDbLine
 10
120.6952767673821
 20
438.8933283013285
 30
0.0
 11
122.1952767673821
 21
440.3933283013285
 31
0.0
  0
LINE
  5
622
330
617
100
AcDbEntity
  8
0
 62
     0
100
AcDbLine
 10
120.6952767673818
 20
445.9643961131937
 30
0.0
 11
122.1952767673818
 21
447.4643961131936
 31
0.0
  0
LINE
  5
623
330
617
100
AcDbEntity
  8
0
 62
     0
100
AcDbLine
 10
149.0748717855654
 20
474.3439911313772
 30
0.0
 11
149.6952767673808
 21
474.9643961131925
 31
0.0
  0
LINE
  5
624
330
617
100
AcDbEntity
  8
0
 62
     0
100
AcDbLine
 10
120.6952767673816
 20
453.0354639250588
 30
0.0
 11
122.1952767673815
 21
454.5354639250588
 31
0.0
  0
LINE
  5
625
330
617
100
AcDbEntity
  8
0
 62
     0
100
AcDbLine
 10
142.0038039736999
 20
474.3439911313772
 30
0.0
 11
143.5038039736997
 21
475.8439911313771
 31
0.0
  0
LINE
  5
626
330
617
100
AcDbEntity
  8
0
 62
     0
100
AcDbLine
 10
120.6952767673813
 20
460.106531736924
 30
0.0
 11
122.1952767673813
 21
461.606531736924
 31
0.0
  0
LINE
  5
627
330
617
100
AcDbEntity
  8
0
 62
     0
100
AcDbLine
 10
134.9327361618344
 20
474.3439911313772
 30
0.0
 11
136.4327361618343
 21
475.8439911313771
 31
0.0
  0
LINE
  5
628
330
617
100
AcDbEntity
  8
0
 62
     0
100
AcDbLine
 10
120.695276767381
 20
467.1775995487892
 30
0.0
 11
122.195276767381
 21
468.6775995487892
 31
0.0
  0
LINE
  5
629
330
617
100
AcDbEntity
  8
0
 62
     0
100
AcDbLine
 10
127.8616683499689
 20
474.3439911313772
 30
0.0
 11
129.3616683499688
 21
475.843991131377
 31
0.0
  0
LINE
  5
62A
330
617
100
AcDbEntity
  8
0
 62
     0
100
AcDbLine
 10
120.6952767673846
 20
375.2537179945417
 30
0.0
 11
122.1952767673846
 21
376.7537179945417
 31
0.0
  0
LINE
  5
62B
330
617
100
AcDbEntity
  8
0
 62
     0
100
AcDbLine
 10
120.6952767673849
 20
368.1826501826765
 30
0.0
 11
122.1952767673849
 21
369.6826501826765
 31
0.0
  0
LINE
  5
62C
330
617
100
AcDbEntity
  8
0
 62
     0
100
AcDbLine
 10
120.6952767673852
 20
361.1115823708114
 30
0.0
 11
122.1952767673851
 21
362.6115823708113
 31
0.0
  0
LINE
  5
62D
330
617
100
AcDbEntity
  8
0
 62
     0
100
AcDbLine
 10
120.6952767673854
 20
354.0405145589461
 30
0.0
 11
122.1952767673854
 21
355.5405145589461
 31
0.0
  0
LINE
  5
62E
330
617
100
AcDbEntity
  8
0
 62
     0
100
AcDbLine
 10
120.6952767673857
 20
346.9694467470809
 30
0.0
 11
122.1952767673857
 21
348.4694467470809
 31
0.0
  0
LINE
  5
62F
330
617
100
AcDbEntity
  8
0
 62
     0
100
AcDbLine
 10
120.695276767386
 20
339.8983789352157
 30
0.0
 11
122.1952767673859
 21
341.3983789352157
 31
0.0
  0
LINE
  5
630
330
617
100
AcDbEntity
  8
0
 62
     0
100
AcDbLine
 10
120.6952767673863
 20
332.8273111233506
 30
0.0
 11
122.1952767673862
 21
334.3273111233505
 31
0.0
  0
ENDBLK
  5
631
330
617
100
AcDbEntity
  8
0
100
AcDbBlockEnd
  0
BLOCK
  5
633
330
632
100
AcDbEntity
  8
0
100
AcDbBlockBegin
  2
*X3
 70
     1
 10
0.0
 20
0.0
 30
0.0
  3
*X3
  1
GEVFRAME
  0
LINE
  5
634
330
632
100
AcDbEntity
  8
0
 62
     0
100
AcDbLine
 10
131.1952767673801
 20
491.8197351725192
 30
0.0
 11
132.6952767673801
 21
493.3197351725192
 31
0.0
  0
LINE
  5
635
330
632
100
AcDbEntity
  8
0
 62
     0
100
AcDbLine
 10
131.1952767673798
 20
498.8908029843844
 30
0.0
 11
132.6952767673798
 21
500.3908029843844
 31
0.0
  0
LINE
  5
636
330
632
100
AcDbEntity
  8
0
 62
     0
100
AcDbLine
 10
131.1952767673795
 20
505.9618707962497
 30
0.0
 11
132.6952767673795
 21
507.4618707962497
 31
0.0
  0
LINE
  5
637
330
632
100
AcDbEntity
  8
0
 62
     0
100
AcDbLine
 10
129.9634041792219
 20
511.8010660199575
 30
0.0
 11
131.1106847731807
 21
512.9483466139162
 31
0.0
  0
LINE
  5
638
330
632
100
AcDbEntity
  8
0
 62
     0
100
AcDbLine
 10
119.6952767673794
 20
508.6040064199805
 30
0.0
 11
121.1952767673794
 21
510.1040064199805
 31
0.0
  0
LINE
  5
639
330
632
100
AcDbEntity
  8
0
 62
     0
100
AcDbLine
 10
122.935261478776
 20
511.8439911313771
 30
0.0
 11
124.435261478776
 21
513.343991131377
 31
0.0
  0
LINE
  5
63A
330
632
100
AcDbEntity
  8
0
 62
     0
100
AcDbLine
 10
131.1952767673804
 20
484.7486673606541
 30
0.0
 11
132.6952767673803
 21
486.248667360654
 31
0.0
  0
LINE
  5
63B
330
632
100
AcDbEntity
  8
0
 62
     0
100
AcDbLine
 10
131.387374860697
 20
477.8696976421052
 30
0.0
 11
132.6952767673806
 21
479.1775995487888
 31
0.0
  0
LINE
  5
63C
330
632
100
AcDbEntity
  8
0
 62
     0
100
AcDbLine
 10
136.4327361618343
 20
475.8439911313771
 30
0.0
 11
137.9327361618342
 21
477.343991131377
 31
0.0
  0
LINE
  5
63D
330
632
100
AcDbEntity
  8
0
 62
     0
100
AcDbLine
 10
143.5038039736998
 20
475.8439911313771
 30
0.0
 11
143.6952767673807
 21
476.035463925058
 31
0.0
  0
ENDBLK
  5
63E
330
632
100
AcDbEntity
  8
0
100
AcDbBlockEnd
  0
BLOCK
  5
640
330
63F
100
AcDbEntity
  8
0
100
AcDbBlockBegin
  2
*X4
 70
     1
 10
0.0
 20
0.0
 30
0.0
  3
*X4
  1
GEVFRAME
  0
LINE
  5
641
330
63F
100
AcDbEntity
  8
0
 62
     0
100
AcDbLine
 10
306.6952767673802
 20
490.5430398758825
 30
0.0
 11
308.1952767673799
 21
492.0430398758822
 31
0.0
  0
LINE
  5
642
330
63F
100
AcDbEntity
  8
0
 62
     0
100
AcDbLine
 10
319.4962280228747
 20
503.343991131377
 30
0.0
 11
319.6952767673792
 21
503.5430398758815
 31
0.0
  0
LINE
  5
643
330
63F
100
AcDbEntity
  8
0
 62
     0
100
AcDbLine
 10
306.6952767673799
 20
497.6141076877476
 30
0.0
 11
308.1952767673797
 21
499.1141076877474
 31
0.0
  0
LINE
  5
644
330
63F
100
AcDbEntity
  8
0
 62
     0
100
AcDbLine
 10
318.1952767673794
 20
509.1141076877471
 30
0.0
 11
319.6754252102755
 21
510.5942561306433
 31
0.0
  0
LINE
  5
645
330
63F
100
AcDbEntity
  8
0
 62
     0
100
AcDbLine
 10
306.6952767673797
 20
504.6851754996128
 30
0.0
 11
308.1952767673794
 21
506.1851754996126
 31
0.0
  0
LINE
  5
646
330
63F
100
AcDbEntity
  8
0
 62
     0
100
AcDbLine
 10
313.8540923991438
 20
511.8439911313771
 30
0.0
 11
315.3540923991439
 21
513.3439911313771
 31
0.0
  0
LINE
  5
647
330
63F
100
AcDbEntity
  8
0
 62
     0
100
AcDbLine
 10
299.0672958347402
 20
475.843991131377
 30
0.0
 11
300.5672958347402
 21
477.343991131377
 31
0.0
  0
LINE
  5
648
330
63F
100
AcDbEntity
  8
0
 62
     0
100
AcDbLine
 10
306.6952767673805
 20
483.4719720640173
 30
0.0
 11
308.1952767673802
 21
484.971972064017
 31
0.0
  0
LINE
  5
649
330
63F
100
AcDbEntity
  8
0
 62
     0
100
AcDbLine
 10
306.4500861016297
 20
476.1557135864011
 30
0.0
 11
307.8835543123564
 21
477.5891817971278
 31
0.0
  0
ENDBLK
  5
64A
330
63F
100
AcDbEntity
  8
0
100
AcDbBlockEnd
  0
BLOCK
  5
FFB
330
FEF
100
AcDbEntity
  8
0
100
AcDbBlockBegin
  2
*D5
 70
     1
 10
0.0
 20
0.0
 30
0.0
  3
*D5
  1

  0
LINE
  5
10A1
330
FEF
100
AcDbEntity
  8
5
370
    -2
100
AcDbLine
 10
363.9659600350627
 20
559.502526755621
 30
0.0
 11
484.4659600350623
 21
559.502526755621
 31
0.0
  0
LINE
  5
10A2
330
FEF
100
AcDbEntity
  8
5
370
    -2
100
AcDbLine
 10
381.3659600350624
 20
576.502526755621
 30
0.0
 11
484.4659600350623
 21
576.502526755621
 31
0.0
  0
LINE
  5
10A3
330
FEF
100
AcDbEntity
  8
5
370
    -2
100
AcDbLine
 10
479.4659600350623
 20
547.002526755621
 30
0.0
 11
479.4659600350623
 21
534.502526755621
 31
0.0
  0
LINE
  5
10A4
330
FEF
100
AcDbEntity
  8
5
370
    -2
100
AcDbLine
 10
479.4659600350623
 20
589.002526755621
 30
0.0
 11
479.4659600350623
 21
623.252526755621
 31
0.0
  0
LINE
  5
10A5
330
FEF
100
AcDbEntity
  8
5
370
    -2
100
AcDbLine
 10
479.4659600350623
 20
559.502526755621
 30
0.0
 11
479.4659600350623
 21
576.502526755621
 31
0.0
  0
SOLID
  5
10A6
330
FEF
100
AcDbEntity
  8
5
100
AcDbTrace
 10
477.382626701729
 20
547.002526755621
 30
0.0
 11
481.5492933683956
 21
547.002526755621
 31
0.0
 12
479.4659600350623
 22
559.502526755621
 32
0.0
 13
479.4659600350623
 23
559.502526755621
 33
0.0
  0
SOLID
  5
10A7
330
FEF
100
AcDbEntity
  8
5
100
AcDbTrace
 10
477.382626701729
 20
589.002526755621
 30
0.0
 11
481.5492933683956
 21
589.002526755621
 31
0.0
 12
479.4659600350623
 22
576.502526755621
 32
0.0
 13
479.4659600350623
 23
576.502526755621
 33
0.0
  0
MTEXT
  5
10A8
330
FEF
100
AcDbEntity
  8
5
 62
     2
100
AcDbMText
 10
467.7159600350623
 20
612.3775267556212
 30
0.0
 40
17.5
 41
0.0
 71
     5
 72
     1
  1
17
 11
0.0000000000000001
 21
1.0
 31
0.0
 73
     1
 44
1.0
1001
ACAD
1000
MTEXTBEGIN
1070
    73
1070
     1
1070
    44
1040
1.0
1070
    74
1070
     0
1000
MTEXTEND
  0
POINT
  5
10A9
330
FEF
100
AcDbEntity
  8
DEFPOINTS
 62
     0
100
AcDbPoint
 10
358.9659600350627
 20
559.502526755621
 30
0.0
  0
POINT
  5
10AA
330
FEF
100
AcDbEntity
  8
DEFPOINTS
 62
     0
100
AcDbPoint
 10
376.3659600350623
 20
576.502526755621
 30
0.0
  0
POINT
  5
10AB
330
FEF
100
AcDbEntity
  8
DEFPOINTS
 62
     0
100
AcDbPoint
 10
479.4659600350623
 20
576.502526755621
 30
0.0
  0
ENDBLK
  5
FFC
330
FEF
100
AcDbEntity
  8
0
100
AcDbBlockEnd
  0
BLOCK
  5
1014
330
100A
100
AcDbEntity
  8
0
100
AcDbBlockBegin
  2
*D6
 70
     1
 10
0.0
 20
0.0
 30
0.0
  3
*D6
  1

  0
LINE
  5
10AC
330
100A
100
AcDbEntity
  8
5
370
    -2
100
AcDbLine
 10
429.4659600350622
 20
557.5025267555662
 30
0.0
 11
429.4659600350622
 21
731.7318714156903
 31
0.0
  0
LINE
  5
10AD
330
100A
100
AcDbEntity
  8
5
370
    -2
100
AcDbLine
 10
129.4659600350622
 20
557.5025267555655
 30
0.0
 11
129.4659600350622
 21
731.7318714156903
 31
0.0
  0
LINE
  5
10AE
330
100A
100
AcDbEntity
  8
5
370
    -2
100
AcDbLine
 10
416.9659600350622
 20
726.7318714156902
 30
0.0
 11
141.9659600350622
 21
726.7318714156902
 31
0.0
  0
SOLID
  5
10AF
330
100A
100
AcDbEntity
  8
5
100
AcDbTrace
 10
416.9659600350622
 20
728.8152047490236
 30
0.0
 11
416.9659600350622
 21
724.6485380823569
 31
0.0
 12
429.4659600350622
 22
726.7318714156902
 32
0.0
 13
429.4659600350622
 23
726.7318714156902
 33
0.0
  0
SOLID
  5
10B0
330
100A
100
AcDbEntity
  8
5
100
AcDbTrace
 10
141.9659600350622
 20
728.8152047490236
 30
0.0
 11
141.9659600350622
 21
724.6485380823569
 31
0.0
 12
129.4659600350622
 22
726.7318714156902
 32
0.0
 13
129.4659600350622
 23
726.7318714156902
 33
0.0
  0
MTEXT
  5
10B1
102
{ACAD_XDICTIONARY
360
12E9
102
}
330
100A
100
AcDbEntity
  8
5
 62
     2
100
AcDbMText
 10
274.2548895128613
 20
738.4818714156903
 30
0.0
 40
17.5
 41
0.0
 71
     5
 72
     1
  1
{\Fgeniso.shx;\U+25A1} 300
 73
     1
 44
1.0
1001
ACAD
1000
MTEXTBEGIN
1070
    73
1070
     1
1070
    44
1040
1.0
1070
    74
1070
     0
1000
MTEXTEND
  0
POINT
  5
10B2
330
100A
100
AcDbEntity
  8
DEFPOINTS
 62
     0
100
AcDbPoint
 10
429.4659600350622
 20
552.5025267555662
 30
0.0
  0
POINT
  5
10B3
330
100A
100
AcDbEntity
  8
DEFPOINTS
 62
     0
100
AcDbPoint
 10
129.4659600350622
 20
552.5025267555655
 30
0.0
  0
POINT
  5
10B4
330
100A
100
AcDbEntity
  8
DEFPOINTS
 62
     0
100
AcDbPoint
 10
129.4659600350622
 20
726.7318714156902
 30
0.0
  0
ENDBLK
  5
1015
330
100A
100
AcDbEntity
  8
0
100
AcDbBlockEnd
  0
BLOCK
  5
1022
330
1016
100
AcDbEntity
  8
0
100
AcDbBlockBegin
  2
*D7
 70
     1
 10
0.0
 20
0.0
 30
0.0
  3
*D7
  1

  0
LINE
  5
10B5
330
1016
100
AcDbEntity
  8
5
370
    -2
100
AcDbLine
 10
430.4659600350622
 20
556.5025267555662
 30
0.0
 11
534.4659600350623
 21
556.5025267555662
 31
0.0
  0
LINE
  5
10B6
330
1016
100
AcDbEntity
  8
5
370
    -2
100
AcDbLine
 10
381.4659600350429
 20
576.502526755621
 30
0.0
 11
534.4659600350623
 21
576.502526755621
 31
0.0
  0
LINE
  5
10B7
330
1016
100
AcDbEntity
  8
5
370
    -2
100
AcDbLine
 10
529.4659600350623
 20
544.0025267555662
 30
0.0
 11
529.4659600350623
 21
531.5025267555662
 31
0.0
  0
LINE
  5
10B8
330
1016
100
AcDbEntity
  8
5
370
    -2
100
AcDbLine
 10
529.4659600350623
 20
589.002526755621
 30
0.0
 11
529.4659600350623
 21
627.2106960469596
 31
0.0
  0
LINE
  5
10B9
330
1016
100
AcDbEntity
  8
5
370
    -2
100
AcDbLine
 10
529.4659600350623
 20
556.5025267555662
 30
0.0
 11
529.4659600350623
 21
576.502526755621
 31
0.0
  0
SOLID
  5
10BA
330
1016
100
AcDbEntity
  8
5
100
AcDbTrace
 10
527.382626701729
 20
544.0025267555662
 30
0.0
 11
531.5492933683957
 21
544.0025267555662
 31
0.0
 12
529.4659600350623
 22
556.5025267555662
 32
0.0
 13
529.4659600350623
 23
556.5025267555662
 33
0.0
  0
SOLID
  5
10BB
330
1016
100
AcDbEntity
  8
5
100
AcDbTrace
 10
527.382626701729
 20
589.002526755621
 30
0.0
 11
531.5492933683957
 21
589.002526755621
 31
0.0
 12
529.4659600350623
 22
576.502526755621
 32
0.0
 13
529.4659600350623
 23
576.502526755621
 33
0.0
  0
MTEXT
  5
10BC
330
1016
100
AcDbEntity
  8
5
 62
     2
100
AcDbMText
 10
517.7142375941174
 20
614.3566114012904
 30
0.0
 40
17.5
 41
0.0
 71
     5
 72
     1
  1
20
 11
0.0000000000000001
 21
1.0
 31
0.0
 73
     1
 44
1.0
1001
ACAD
1000
MTEXTBEGIN
1070
    73
1070
     1
1070
    44
1040
1.0
1070
    74
1070
     0
1000
MTEXTEND
  0
POINT
  5
10BD
330
1016
100
AcDbEntity
  8
DEFPOINTS
 62
     0
100
AcDbPoint
 10
425.4659600350622
 20
556.5025267555662
 30
0.0
  0
POINT
  5
10BE
330
1016
100
AcDbEntity
  8
DEFPOINTS
 62
     0
100
AcDbPoint
 10
376.4659600350429
 20
576.502526755621
 30
0.0
  0
POINT
  5
10BF
330
1016
100
AcDbEntity
  8
DEFPOINTS
 62
     0
100
AcDbPoint
 10
529.4659600350623
 20
576.502526755621
 30
0.0
  0
ENDBLK
  5
1023
330
1016
100
AcDbEntity
  8
0
100
AcDbBlockEnd
  0
BLOCK
  5
102E
330
1024
100
AcDbEntity
  8
0
100
AcDbBlockBegin
  2
*D8
 70
     1
 10
0.0
 20
0.0
 30
0.0
  3
*D8
  1

  0
LINE
  5
10C0
330
1024
100
AcDbEntity
  8
5
370
    -2
100
AcDbLine
 10
379.4659600350624
 20
578.4025267556213
 30
0.0
 11
379.4659600350624
 21
681.5025267556213
 31
0.0
  0
LINE
  5
10C1
330
1024
100
AcDbEntity
  8
5
370
    -2
100
AcDbLine
 10
179.4659600350625
 20
576.7625420442244
 30
0.0
 11
179.4659600350625
 21
681.5025267556213
 31
0.0
  0
LINE
  5
10C2
330
1024
100
AcDbEntity
  8
5
370
    -2
100
AcDbLine
 10
366.9659600350624
 20
676.5025267556212
 30
0.0
 11
191.9659600350625
 21
676.5025267556212
 31
0.0
  0
SOLID
  5
10C3
330
1024
100
AcDbEntity
  8
5
100
AcDbTrace
 10
366.9659600350624
 20
678.5858600889546
 30
0.0
 11
366.9659600350624
 21
674.4191934222879
 31
0.0
 12
379.4659600350624
 22
676.5025267556212
 32
0.0
 13
379.4659600350624
 23
676.5025267556212
 33
0.0
  0
SOLID
  5
10C4
330
1024
100
AcDbEntity
  8
5
100
AcDbTrace
 10
191.9659600350625
 20
678.5858600889546
 30
0.0
 11
191.9659600350625
 21
674.4191934222879
 31
0.0
 12
179.4659600350625
 22
676.5025267556212
 32
0.0
 13
179.4659600350625
 23
676.5025267556212
 33
0.0
  0
MTEXT
  5
10C5
102
{ACAD_XDICTIONARY
360
12EB
102
}
330
1024
100
AcDbEntity
  8
5
 62
     2
100
AcDbMText
 10
279.4659600350624
 20
688.2542491965661
 30
0.0
 40
17.5
 41
0.0
 71
     5
 72
     1
  1
{\Fgeniso.shx;\U+25A1} 200
 73
     1
 44
1.0
1001
ACAD
1000
MTEXTBEGIN
1070
    73
1070
     1
1070
    44
1040
1.0
1070
    74
1070
     0
1000
MTEXTEND
  0
POINT
  5
10C6
330
1024
100
AcDbEntity
  8
DEFPOINTS
 62
     0
100
AcDbPoint
 10
379.4659600350624
 20
573.4025267556213
 30
0.0
  0
POINT
  5
10C7
330
1024
100
AcDbEntity
  8
DEFPOINTS
 62
     0
100
AcDbPoint
 10
179.4659600350625
 20
571.7625420442244
 30
0.0
  0
POINT
  5
10C8
330
1024
100
AcDbEntity
  8
DEFPOINTS
 62
     0
100
AcDbPoint
 10
179.4659600350625
 20
676.5025267556212
 30
0.0
  0
ENDBLK
  5
102F
330
1024
100
AcDbEntity
  8
0
100
AcDbBlockEnd
  0
BLOCK
  5
103A
330
1030
100
AcDbEntity
  8
0
100
AcDbBlockBegin
  2
*D9
 70
     1
 10
0.0
 20
0.0
 30
0.0
  3
*D9
  1

  0
LINE
  5
10C9
330
1030
100
AcDbEntity
  8
5
370
    -2
100
AcDbLine
 10
364.4659600350623
 20
581.5025267556213
 30
0.0
 11
364.4659600350623
 21
631.5025277556213
 31
0.0
  0
LINE
  5
10CA
330
1030
100
AcDbEntity
  8
5
370
    -2
100
AcDbLine
 10
194.4659600350622
 20
581.5025267556146
 30
0.0
 11
194.4659600350622
 21
631.5025277556213
 31
0.0
  0
LINE
  5
10CB
330
1030
100
AcDbEntity
  8
5
370
    -2
100
AcDbLine
 10
351.9659600350623
 20
626.5025277556214
 30
0.0
 11
206.9659600350623
 21
626.5025277556214
 31
0.0
  0
SOLID
  5
10CC
330
1030
100
AcDbEntity
  8
5
100
AcDbTrace
 10
351.9659600350623
 20
628.5858610889548
 30
0.0
 11
351.9659600350623
 21
624.419194422288
 31
0.0
 12
364.4659600350623
 22
626.5025277556214
 32
0.0
 13
364.4659600350623
 23
626.5025277556214
 33
0.0
  0
SOLID
  5
10CD
330
1030
100
AcDbEntity
  8
5
100
AcDbTrace
 10
206.9659600350623
 20
628.5858610889548
 30
0.0
 11
206.9659600350623
 21
624.419194422288
 31
0.0
 12
194.4659600350622
 22
626.5025277556214
 32
0.0
 13
194.4659600350622
 23
626.5025277556214
 33
0.0
  0
MTEXT
  5
10CE
102
{ACAD_XDICTIONARY
360
12ED
102
}
330
1030
100
AcDbEntity
  8
5
 62
     2
100
AcDbMText
 10
279.4659600350623
 20
638.2525277556213
 30
0.0
 40
17.5
 41
0.0
 71
     5
 72
     1
  1
{\Fgeniso.shx;\U+25A1} 171
 73
     1
 44
1.0
1001
ACAD
1000
MTEXTBEGIN
1070
    73
1070
     1
1070
    44
1040
1.0
1070
    74
1070
     0
1000
MTEXTEND
  0
POINT
  5
10CF
330
1030
100
AcDbEntity
  8
DEFPOINTS
 62
     0
100
AcDbPoint
 10
364.4659600350623
 20
576.5025267556212
 30
0.0
  0
POINT
  5
10D0
330
1030
100
AcDbEntity
  8
DEFPOINTS
 62
     0
100
AcDbPoint
 10
194.4659600350622
 20
576.5025267556146
 30
0.0
  0
POINT
  5
10D1
330
1030
100
AcDbEntity
  8
DEFPOINTS
 62
     0
100
AcDbPoint
 10
194.4659600350622
 20
626.5025277556214
 30
0.0
  0
ENDBLK
  5
103B
330
1030
100
AcDbEntity
  8
0
100
AcDbBlockEnd
  0
BLOCK
  5
1046
330
103C
100
AcDbEntity
  8
0
100
AcDbBlockBegin
  2
*D10
 70
     1
 10
0.0
 20
0.0
 30
0.0
  3
*D10
  1

  0
LINE
  5
1108
330
103C
100
AcDbEntity
  8
5
370
    -2
100
AcDbLine
 10
180.4659600350695
 20
386.5025267556213
 30
0.0
 11
180.4659600350695
 21
352.9355977492234
 31
0.0
  0
LINE
  5
1109
330
103C
100
AcDbEntity
  8
5
370
    -2
100
AcDbLine
 10
378.4659600350695
 20
386.5025267556213
 30
0.0
 11
378.4659600350695
 21
352.9355977492234
 31
0.0
  0
LINE
  5
110A
330
103C
100
AcDbEntity
  8
5
370
    -2
100
AcDbLine
 10
192.9659600350695
 20
357.9355977492235
 30
0.0
 11
365.9659600350695
 21
357.9355977492235
 31
0.0
  0
SOLID
  5
110B
330
103C
100
AcDbEntity
  8
5
100
AcDbTrace
 10
192.9659600350695
 20
360.0189310825568
 30
0.0
 11
192.9659600350695
 21
355.8522644158902
 31
0.0
 12
180.4659600350695
 22
357.9355977492235
 32
0.0
 13
180.4659600350695
 23
357.9355977492235
 33
0.0
  0
SOLID
  5
110C
330
103C
100
AcDbEntity
  8
5
100
AcDbTrace
 10
365.9659600350695
 20
360.0189310825568
 30
0.0
 11
365.9659600350695
 21
355.8522644158902
 31
0.0
 12
378.4659600350695
 22
357.9355977492235
 32
0.0
 13
378.4659600350695
 23
357.9355977492235
 33
0.0
  0
MTEXT
  5
110D
330
103C
100
AcDbEntity
  8
5
 62
     2
100
AcDbMText
 10
321.08553032755
 20
369.6855977492234
 30
0.0
 40
17.5
 41
0.0
 71
     5
 72
     1
  1
%%c 198
 73
     1
 44
1.0
1001
ACAD
1000
MTEXTBEGIN
1070
    73
1070
     1
1070
    44
1040
1.0
1070
    74
1070
     0
1000
MTEXTEND
  0
POINT
  5
110E
330
103C
100
AcDbEntity
  8
DEFPOINTS
 62
     0
100
AcDbPoint
 10
180.4659600350695
 20
391.5025267556213
 30
0.0
  0
POINT
  5
110F
330
103C
100
AcDbEntity
  8
DEFPOINTS
 62
     0
100
AcDbPoint
 10
378.4659600350695
 20
391.5025267556213
 30
0.0
  0
POINT
  5
1110
330
103C
100
AcDbEntity
  8
DEFPOINTS
 62
     0
100
AcDbPoint
 10
378.4659600350695
 20
357.9355977492235
 30
0.0
  0
ENDBLK
  5
1047
330
103C
100
AcDbEntity
  8
0
100
AcDbBlockEnd
  0
BLOCK
  5
1052
330
1048
100
AcDbEntity
  8
0
100
AcDbBlockBegin
  2
*D11
 70
     1
 10
0.0
 20
0.0
 30
0.0
  3
*D11
  1

  0
LINE
  5
10FF
330
1048
100
AcDbEntity
  8
5
370
    -2
100
AcDbLine
 10
380.1247756668269
 20
576.5025267556212
 30
0.0
 11
584.7243424213494
 21
576.5025267556212
 31
0.0
  0
LINE
  5
1100
330
1048
100
AcDbEntity
  8
5
370
    -2
100
AcDbLine
 10
383.4659600350694
 20
391.5025267556213
 30
0.0
 11
584.7243424213494
 21
391.5025267556212
 31
0.0
  0
LINE
  5
1101
330
1048
100
AcDbEntity
  8
5
370
    -2
100
AcDbLine
 10
579.7243424213494
 20
564.0025267556212
 30
0.0
 11
579.7243424213494
 21
404.0025267556211
 31
0.0
  0
SOLID
  5
1102
330
1048
100
AcDbEntity
  8
5
100
AcDbTrace
 10
577.641009088016
 20
564.0025267556212
 30
0.0
 11
581.8076757546828
 21
564.0025267556212
 31
0.0
 12
579.7243424213494
 22
576.5025267556212
 32
0.0
 13
579.7243424213494
 23
576.5025267556212
 33
0.0
  0
SOLID
  5
1103
330
1048
100
AcDbEntity
  8
5
100
AcDbTrace
 10
577.641009088016
 20
404.0025267556211
 30
0.0
 11
581.8076757546828
 21
404.0025267556211
 31
0.0
 12
579.7243424213494
 22
391.5025267556212
 32
0.0
 13
579.7243424213494
 23
391.5025267556212
 33
0.0
  0
MTEXT
  5
1104
330
1048
100
AcDbEntity
  8
5
 62
     2
100
AcDbMText
 10
567.9743424213492
 20
476.8565286002894
 30
0.0
 40
17.5
 41
0.0
 71
     5
 72
     1
  1
185
 11
0.0000000000000001
 21
1.0
 31
0.0
 73
     1
 44
1.0
1001
ACAD
1000
MTEXTBEGIN
1070
    73
1070
     1
1070
    44
1040
1.0
1070
    74
1070
     0
1000
MTEXTEND
  0
POINT
  5
1105
330
1048
100
AcDbEntity
  8
DEFPOINTS
 62
     0
100
AcDbPoint
 10
375.1247756668269
 20
576.5025267556212
 30
0.0
  0
POINT
  5
1106
330
1048
100
AcDbEntity
  8
DEFPOINTS
 62
     0
100
AcDbPoint
 10
378.4659600350694
 20
391.5025267556213
 30
0.0
  0
POINT
  5
1107
330
1048
100
AcDbEntity
  8
DEFPOINTS
 62
     0
100
AcDbPoint
 10
579.7243424213494
 20
391.5025267556212
 30
0.0
  0
ENDBLK
  5
1053
330
1048
100
AcDbEntity
  8
0
100
AcDbBlockEnd
  0
BLOCK
  5
111C
330
1112
100
AcDbEntity
  8
0
100
AcDbBlockBegin
  2
*D12
 70
     1
 10
0.0
 20
0.0
 30
0.0
  3
*D12
  1

  0
LINE
  5
1172
330
1112
100
AcDbEntity
  8
5
370
    -2
100
AcDbLine
 10
486.9659600350623
 20
455.9602087535621
 30
0.0
 11
486.9659600350623
 21
781.0446442645972
 31
0.0
  0
LINE
  5
1173
330
1112
100
AcDbEntity
  8
5
370
    -2
100
AcDbLine
 10
71.96596003506238
 20
455.9602087535621
 30
0.0
 11
71.9659600350624
 21
781.0446442645972
 31
0.0
  0
LINE
  5
1174
330
1112
100
AcDbEntity
  8
5
370
    -2
100
AcDbLine
 10
474.4659600350623
 20
776.0446442645973
 30
0.0
 11
84.4659600350624
 21
776.0446442645973
 31
0.0
  0
SOLID
  5
1175
330
1112
100
AcDbEntity
  8
5
100
AcDbTrace
 10
474.4659600350623
 20
778.1279775979307
 30
0.0
 11
474.4659600350623
 21
773.9613109312639
 31
0.0
 12
486.9659600350623
 22
776.0446442645973
 32
0.0
 13
486.9659600350623
 23
776.0446442645973
 33
0.0
  0
SOLID
  5
1176
330
1112
100
AcDbEntity
  8
5
100
AcDbTrace
 10
84.4659600350624
 20
778.1279775979307
 30
0.0
 11
84.4659600350624
 21
773.9613109312639
 31
0.0
 12
71.9659600350624
 22
776.0446442645973
 32
0.0
 13
71.9659600350624
 23
776.0446442645973
 33
0.0
  0
MTEXT
  5
1177
330
1112
100
AcDbEntity
  8
5
 62
     2
100
AcDbMText
 10
279.4659600350624
 20
787.7946442645972
 30
0.0
 40
17.5
 41
0.0
 71
     5
 72
     1
  1
%%c 415
 73
     1
 44
1.0
1001
ACAD
1000
MTEXTBEGIN
1070
    73
1070
     1
1070
    44
1040
1.0
1070
    74
1070
     0
1000
MTEXTEND
  0
POINT
  5
1178
330
1112
100
AcDbEntity
  8
DEFPOINTS
 62
     0
100
AcDbPoint
 10
486.9659600350623
 20
450.9602087535621
 30
0.0
  0
POINT
  5
1179
330
1112
100
AcDbEntity
  8
DEFPOINTS
 62
     0
100
AcDbPoint
 10
71.96596003506238
 20
450.9602087535621
 30
0.0
  0
POINT
  5
117A
330
1112
100
AcDbEntity
  8
DEFPOINTS
 62
     0
100
AcDbPoint
 10
71.9659600350624
 20
776.0446442645973
 30
0.0
  0
ENDBLK
  5
111D
330
1112
100
AcDbEntity
  8
0
100
AcDbBlockEnd
  0
BLOCK
  5
11EB
330
11E1
100
AcDbEntity
  8
0
100
AcDbBlockBegin
  2
*D13
 70
     1
 10
0.0
 20
0.0
 30
0.0
  3
*D13
  1

  0
LINE
  5
125F
330
11E1
100
AcDbEntity
  8
5
370
    -2
100
AcDbLine
 10
177.5659600350568
 20
576.5025267556212
 30
0.0
 11
3.361471983401415
 21
576.5025267556212
 31
0.0
  0
LINE
  5
1260
330
11E1
100
AcDbEntity
  8
5
370
    -2
100
AcDbLine
 10
66.96596003506238
 20
450.9602087535621
 30
0.0
 11
3.361471983401387
 21
450.9602087535621
 31
0.0
  0
LINE
  5
1261
330
11E1
100
AcDbEntity
  8
5
370
    -2
100
AcDbLine
 10
8.361471983401409
 20
564.0025267556212
 30
0.0
 11
8.361471983401386
 21
463.4602087535621
 31
0.0
  0
SOLID
  5
1262
330
11E1
100
AcDbEntity
  8
5
100
AcDbTrace
 10
6.278138650068076
 20
564.0025267556212
 30
0.0
 11
10.44480531673474
 21
564.0025267556212
 31
0.0
 12
8.361471983401411
 22
576.5025267556212
 32
0.0
 13
8.361471983401411
 23
576.5025267556212
 33
0.0
  0
SOLID
  5
1263
330
11E1
100
AcDbEntity
  8
5
100
AcDbTrace
 10
6.278138650068053
 20
463.4602087535621
 30
0.0
 11
10.44480531673472
 21
463.4602087535621
 31
0.0
 12
8.361471983401383
 22
450.9602087535621
 32
0.0
 13
8.361471983401383
 23
450.9602087535621
 33
0.0
  0
MTEXT
  5
1264
330
11E1
100
AcDbEntity
  8
5
 62
     2
100
AcDbMText
 10
-3.388528016598684
 20
520.7344354491858
 30
0.0
 40
17.5
 41
0.0
 71
     5
 72
     1
  1
50 - 130
 11
0.0000000000000001
 21
1.0
 31
0.0
 73
     1
 44
1.0
1001
ACAD
1000
MTEXTBEGIN
1070
    73
1070
     1
1070
    44
1040
1.0
1070
    74
1070
     0
1000
MTEXTEND
  0
POINT
  5
1265
330
11E1
100
AcDbEntity
  8
DEFPOINTS
 62
     0
100
AcDbPoint
 10
182.5659600350568
 20
576.5025267556212
 30
0.0
  0
POINT
  5
1266
330
11E1
100
AcDbEntity
  8
DEFPOINTS
 62
     0
100
AcDbPoint
 10
71.96596003506238
 20
450.9602087535621
 30
0.0
  0
POINT
  5
1267
330
11E1
100
AcDbEntity
  8
DEFPOINTS
 62
     0
100
AcDbPoint
 10
8.361471983401383
 20
450.9602087535621
 30
0.0
  0
ENDBLK
  5
11EC
330
11E1
100
AcDbEntity
  8
0
100
AcDbBlockEnd
  0
BLOCK
  5
11F7
330
11ED
100
AcDbEntity
  8
0
100
AcDbBlockBegin
  2
*D14
 70
     1
 10
0.0
 20
0.0
 30
0.0
  3
*D14
  1

  0
LINE
  5
1244
330
11ED
100
AcDbEntity
  8
5
370
    -2
100
AcDbLine
 10
66.96596003506238
 20
450.9602087535621
 30
0.0
 11
3.361471983401401
 21
450.9602087535621
 31
0.0
  0
LINE
  5
1245
330
11ED
100
AcDbEntity
  8
5
370
    -2
100
AcDbLine
 10
219.2159600350624
 20
215.9602087535622
 30
0.0
 11
3.361471983401335
 21
215.9602087535623
 31
0.0
  0
LINE
  5
1246
330
11ED
100
AcDbEntity
  8
5
370
    -2
100
AcDbLine
 10
8.361471983401392
 20
438.4602087535621
 30
0.0
 11
8.361471983401346
 21
228.4602087535623
 31
0.0
  0
SOLID
  5
1247
330
11ED
100
AcDbEntity
  8
5
100
AcDbTrace
 10
6.278138650068059
 20
438.4602087535621
 30
0.0
 11
10.44480531673472
 21
438.4602087535621
 31
0.0
 12
8.361471983401393
 22
450.9602087535621
 32
0.0
 13
8.361471983401393
 23
450.9602087535621
 33
0.0
  0
SOLID
  5
1248
330
11ED
100
AcDbEntity
  8
5
100
AcDbTrace
 10
6.278138650068012
 20
228.4602087535623
 30
0.0
 11
10.44480531673467
 21
228.4602087535623
 31
0.0
 12
8.361471983401342
 22
215.9602087535623
 32
0.0
 13
8.361471983401342
 23
215.9602087535623
 33
0.0
  0
MTEXT
  5
1249
330
11ED
100
AcDbEntity
  8
5
 62
     2
100
AcDbMText
 10
-3.390250457543565
 20
348.3347429198627
 30
0.0
 40
17.5
 41
0.0
 71
     5
 72
     1
  1
235
 11
0.0000000000000001
 21
1.0
 31
0.0
 73
     1
 44
1.0
1001
ACAD
1000
MTEXTBEGIN
1070
    73
1070
     1
1070
    44
1040
1.0
1070
    74
1070
     0
1000
MTEXTEND
  0
POINT
  5
124A
330
11ED
100
AcDbEntity
  8
DEFPOINTS
 62
     0
100
AcDbPoint
 10
71.96596003506238
 20
450.9602087535621
 30
0.0
  0
POINT
  5
124B
330
11ED
100
AcDbEntity
  8
DEFPOINTS
 62
     0
100
AcDbPoint
 10
224.2159600350623
 20
215.9602087535622
 30
0.0
  0
POINT
  5
124C
330
11ED
100
AcDbEntity
  8
DEFPOINTS
 62
     0
100
AcDbPoint
 10
8.361471983401342
 20
215.9602087535623
 30
0.0
  0
ENDBLK
  5
11F8
330
11ED
100
AcDbEntity
  8
0
100
AcDbBlockEnd
  0
BLOCK
  5
1203
330
11F9
100
AcDbEntity
  8
0
100
AcDbBlockBegin
  2
*D15
 70
     1
 10
0.0
 20
0.0
 30
0.0
  3
*D15
  1

  0
LINE
  5
1273
330
11F9
100
AcDbEntity
  8
5
370
    -2
100
AcDbLine
 10
212.7684812886817
 20
309.9602087535622
 30
0.0
 11
167.9728236894791
 21
309.9602087535622
 31
0.0
  0
LINE
  5
1274
330
11F9
100
AcDbEntity
  8
5
370
    -2
100
AcDbLine
 10
219.2159600350624
 20
215.9602087535623
 30
0.0
 11
167.9728236894791
 21
215.9602087535623
 31
0.0
  0
LINE
  5
1275
330
11F9
100
AcDbEntity
  8
5
370
    -2
100
AcDbLine
 10
172.9728236894791
 20
297.4602087535622
 30
0.0
 11
172.9728236894791
 21
228.4602087535623
 31
0.0
  0
SOLID
  5
1276
330
11F9
100
AcDbEntity
  8
5
100
AcDbTrace
 10
170.8894903561458
 20
297.4602087535622
 30
0.0
 11
175.0561570228124
 21
297.4602087535622
 31
0.0
 12
172.9728236894791
 22
309.9602087535622
 32
0.0
 13
172.9728236894791
 23
309.9602087535622
 33
0.0
  0
SOLID
  5
1277
330
11F9
100
AcDbEntity
  8
5
100
AcDbTrace
 10
170.8894903561458
 20
228.4602087535623
 30
0.0
 11
175.0561570228124
 21
228.4602087535623
 31
0.0
 12
172.9728236894791
 22
215.9602087535623
 32
0.0
 13
172.9728236894791
 23
215.9602087535623
 33
0.0
  0
MTEXT
  5
1278
330
11F9
100
AcDbEntity
  8
5
 62
     2
100
AcDbMText
 10
161.2228236894791
 20
262.9602087535623
 30
0.0
 40
17.5
 41
0.0
 71
     5
 72
     1
  1
94
 11
0.0000000000000001
 21
1.0
 31
0.0
 73
     1
 44
1.0
1001
ACAD
1000
MTEXTBEGIN
1070
    73
1070
     1
1070
    44
1040
1.0
1070
    74
1070
     0
1000
MTEXTEND
  0
POINT
  5
1279
330
11F9
100
AcDbEntity
  8
DEFPOINTS
 62
     0
100
AcDbPoint
 10
217.7684812886817
 20
309.9602087535622
 30
0.0
  0
POINT
  5
127A
330
11F9
100
AcDbEntity
  8
DEFPOINTS
 62
     0
100
AcDbPoint
 10
224.2159600350623
 20
215.9602087535623
 30
0.0
  0
POINT
  5
127B
330
11F9
100
AcDbEntity
  8
DEFPOINTS
 62
     0
100
AcDbPoint
 10
172.9728236894791
 20
215.9602087535623
 30
0.0
  0
ENDBLK
  5
1204
330
11F9
100
AcDbEntity
  8
0
100
AcDbBlockEnd
  0
ENDSEC
  0
SECTION
  2
ENTITIES
  0
LINE
  5
41
330
2
100
AcDbEntity
  8
0
100
AcDbLine
 10
224.2159600350623
 20
215.9602087535622
 30
0.0
 11
224.2159600350624
 21
272.9602087535623
 31
0.0
  0
LINE
  5
42
330
2
100
AcDbEntity
  8
0
100
AcDbLine
 10
225.7159600350623
 20
215.9602087535623
 30
0.0
 11
225.7159600350624
 21
272.5235008058576
 31
0.0
  0
LINE
  5
50
330
2
100
AcDbEntity
  8
0
100
AcDbLine
 10
333.2159600350624
 20
215.9602087535623
 30
0.0
 11
333.2159600350624
 21
272.5235008058576
 31
0.0
  0
LINE
  5
51
330
2
100
AcDbEntity
  8
0
100
AcDbLine
 10
334.7159600350624
 20
215.9602087535623
 30
0.0
 11
334.7159600350624
 21
272.9602087535621
 31
0.0
  0
LINE
  5
52
330
2
100
AcDbEntity
  8
7
100
AcDbLine
 10
279.4659600350624
 20
207.9602087535622
 30
0.0
 11
279.4659600350624
 21
588.2123214543817
 31
0.0
  0
LINE
  5
55
330
2
100
AcDbEntity
  8
0
100
AcDbLine
 10
224.2159600350624
 20
215.9602087535623
 30
0.0
 11
334.7159600350624
 21
215.9602087535623
 31
0.0
  0
HATCH
  5
6B
330
2
100
AcDbEntity
  8
8
100
AcDbHatch
 10
0.0
 20
0.0
 30
0.0
210
0.0
220
0.0
230
1.0
  2
_U
 70
     0
 71
     0
 91
        1
 92
        1
 93
       23
 72
     1
 10
71.96596003506238
 20
448.9602087535621
 11
98.04435051583425
 21
448.9602087535621
 72
     2
 10
98.04435051583425
 20
449.6102087535621
 40
0.6499999999999773
 50
270.0
 51
360.0
 73
     1
 72
     1
 10
98.69435051583423
 20
449.6102087535621
 11
98.69435051583423
 21
449.6260711570648
 72
     2
 10
99.09435051583422
 20
449.6260711570648
 40
0.3999999999999772
 50
180.0
 51
259.7985315157323
 73
     0
 72
     2
 10
131.9659600350623
 20
266.960208753562
 40
186.0000000000001
 50
259.7985315157379
 51
280.2014684842621
 73
     0
 72
     2
 10
164.8375695542905
 20
449.6260711570648
 40
0.3999999999999629
 50
280.2014684842517
 51
360.0
 73
     0
 72
     1
 10
165.2375695542905
 20
449.6260711570648
 11
165.2375695542905
 21
449.6102087535621
 72
     2
 10
165.8875695542905
 20
449.6102087535621
 40
0.6499999999999773
 50
180.0
 51
270.0
 73
     1
 72
     1
 10
165.8875695542905
 20
448.9602087535621
 11
166.9659600350623
 21
448.9602087535622
 72
     2
 10
166.9659600350624
 20
445.9602087535622
 40
3.0
 50
269.9999999999989
 51
360.0
 73
     0
 72
     1
 10
169.9659600350624
 20
445.9602087535622
 11
169.9659600350624
 21
440.9602087535621
 72
     1
 10
169.9659600350624
 20
440.9602087535621
 11
170.4659600350623
 21
440.960208753562
 72
     1
 10
170.4659600350623
 20
440.960208753562
 11
171.9659600350624
 21
440.9602087535621
 72
     1
 10
171.9659600350624
 20
440.9602087535621
 11
171.9659600350624
 21
445.9602087535622
 72
     2
 10
166.9536953310141
 20
445.955128546807
 40
5.012267278582445
 50
0.058072413099044
 51
86.93134248879347
 73
     1
 72
     2
 10
167.2220149089354
 20
451.3602087535621
 40
0.3999999999999772
 50
90.00000000000815
 51
180.0000000000081
 73
     0
 72
     2
 10
165.9659600350624
 20
450.8433238022255
 40
1.000000000000002
 50
31.12353118597779
 51
79.52431830361334
 73
     1
 72
     1
 10
166.1477782168805
 20
451.8266559682611
 11
165.9659600350624
 21
451.860181711916
 72
     2
 10
131.9659600350624
 20
266.960208753562
 40
188.0
 50
79.5806642184851
 51
100.4756816963898
 73
     1
 72
     2
 10
97.96596003506238
 20
450.8433238022256
 40
1.000000000000001
 50
100.4756816963802
 51
148.8764688140267
 73
     1
 72
     2
 10
96.70990516118934
 20
451.3602087535621
 40
0.3999999999999772
 50
360.0
 51
450.0
 73
     0
 72
     1
 10
96.70990516118934
 20
450.9602087535622
 11
71.96596003506238
 21
450.9602087535621
 72
     1
 10
71.96596003506238
 20
450.9602087535621
 11
71.96596003506238
 21
448.9602087535621
 97
        0
 75
     0
 76
     0
 52
45.0
 41
5.0
 77
     0
 78
     1
 53
45.0
 43
500.3809584716569
 44
772.6741431419524
 45
-3.535533905932737
 46
3.535533905932737
 79
     0
 98
        1
 10
500.3809584716569
 20
772.6741431419524
1001
GENIUS_GENODEF_13
1002
{
1000
HIER
1070
     0
1002
}
1002
{
1000
MANEDIT
1070
     0
1002
}
1002
{
1000
NOSEL
1070
     0
1002
}
1002
{
1000
BEHIND
1070
     0
1002
}
1002
{
1000
REACTOR
1002
}
1001
GENIUS_GENOBJ-N-HTC_13
1002
{
1000
OWNER
1000
GEN
1002
}
1001
GENIUS_GENHATCH_13
1002
{
1000
DATA
1040
45.0
1042
2.5
1000
_U
1070
     0
1011
80.91889780003214
1021
450.1168213641419
1031
0.0
1002
}
1002
{
1000
UCS
1010
0.0
1020
0.0
1030
0.0
1010
1.0
1020
0.0
1030
0.0
1010
0.0
1020
1.0
1030
0.0
1002
}
  0
LINE
  5
70
330
2
100
AcDbEntity
  8
0
100
AcDbLine
 10
98.04435051583425
 20
448.9602087535621
 30
0.0
 11
165.8875695542905
 21
448.9602087535621
 31
0.0
  0
ARC
  5
71
330
2
100
AcDbEntity
  8
0
100
AcDbCircle
 10
131.9659600350624
 20
266.9602087535622
 30
0.0
 40
186.0
100
AcDbArc
 50
79.79853151573795
 51
100.201468484262
  0
ARC
  5
72
330
2
100
AcDbEntity
  8
0
100
AcDbCircle
 10
131.9659600350624
 20
266.9602087535622
 30
0.0
 40
188.0
100
AcDbArc
 50
79.5806642184851
 51
100.4756816963898
  0
LINE
  5
73
330
2
100
AcDbEntity
  8
0A
100
AcDbLine
 10
100.4659600350624
 20
470.7624804030253
 30
0.0
 11
122.1484600350625
 21
470.7624804030253
 31
0.0
  0
ARC
  5
75
330
2
100
AcDbEntity
  8
0A
100
AcDbCircle
 10
103.9659600350623
 20
466.2624804030254
 30
0.0
 40
3.5
100
AcDbArc
 50
180.0
 51
270.0
  0
ARC
  5
76
330
2
100
AcDbEntity
  8
0A
100
AcDbCircle
 10
103.9659600350623
 20
466.2624804030254
 30
0.0
 40
1.5
100
AcDbArc
 50
180.0
 51
270.0
  0
HATCH
  5
77
330
2
100
AcDbEntity
  8
8
100
AcDbHatch
 10
0.0
 20
0.0
 30
0.0
210
0.0
220
0.0
230
1.0
  2
_U
 70
     0
 71
     0
 91
        1
 92
        1
 93
        8
 72
     2
 10
131.9659600350628
 20
267.7624804030254
 40
197.0
 50
261.8287664400501
 51
268.1091869347043
 73
     0
 72
     1
 10
125.4659600350624
 20
464.6552176992497
 11
125.4659600350623
 21
466.6552176992497
 72
     2
 10
131.9659600350629
 20
269.7624804030256
 40
196.9999999999998
 50
91.89081306529571
 51
98.17123355994992
 73
     1
 72
     2
 10
103.9659600350623
 20
466.2624804030254
 40
1.5
 50
89.99999999999729
 51
180.0
 73
     0
 72
     1
 10
102.4659600350624
 20
466.2624804030254
 11
102.4659600350624
 21
470.7624804030253
 72
     1
 10
102.4659600350624
 20
470.7624804030253
 11
100.4659600350624
 21
470.7624804030253
 72
     1
 10
100.4659600350624
 20
470.7624804030253
 11
100.4659600350624
 21
466.2624804030254
 72
     2
 10
103.9659600350623
 20
466.2624804030254
 40
3.5
 50
180.0
 51
270.0
 73
     1
 97
        0
 75
     0
 76
     0
 52
45.0
 41
3.75
 77
     0
 78
     1
 53
45.0
 43
18.77728448691278
 44
-105.4408804297279
 45
-2.651650429449553
 46
2.651650429449553
 79
     0
 98
        1
 10
18.77728448691278
 20
-105.4408804297279
1001
GENIUS_GENODEF_13
1002
{
1000
HIER
1070
     0
1002
}
1002
{
1000
MANEDIT
1070
     0
1002
}
1002
{
1000
NOSEL
1070
     0
1002
}
1002
{
1000
BEHIND
1070
     0
1002
}
1002
{
1000
REACTOR
1002
}
1001
GENIUS_GENOBJ-N-HTC_13
1002
{
1000
OWNER
1000
GEN
1002
}
1001
GENIUS_GENHATCH_13
1002
{
1000
DATA
1040
45.0
1042
2.5
1000
_U
1070
     0
1011
101.4444596294738
1021
467.5337260959866
1031
0.0
1002
}
1002
{
1000
UCS
1010
0.0
1020
0.0
1030
0.0
1010
1.0
1020
0.0
1030
0.0
1010
0.0
1020
1.0
1030
0.0
1002
}
  0
LINE
  5
95
330
2
100
AcDbEntity
  8
0
100
AcDbLine
 10
98.04435051583425
 20
448.9602087535621
 30
0.0
 11
71.96596003506238
 21
448.9602087535621
 31
0.0
  0
LINE
  5
96
330
2
100
AcDbEntity
  8
0
100
AcDbLine
 10
71.96596003506238
 20
450.9602087535621
 30
0.0
 11
96.70990516118934
 21
450.9602087535622
 31
0.0
  0
LINE
  5
97
330
2
100
AcDbEntity
  8
0
100
AcDbLine
 10
71.96596003506238
 20
448.9602087535621
 30
0.0
 11
71.96596003506238
 21
450.9602087535621
 31
0.0
  0
ARC
  5
98
330
2
100
AcDbEntity
  8
0
100
AcDbCircle
 10
98.04435051583425
 20
449.6102087535621
 30
0.0
 40
0.65
100
AcDbArc
 50
270.0000000000001
 51
0.000000000000007
  0
LINE
  5
99
330
2
100
AcDbEntity
  8
0
100
AcDbLine
 10
98.69435051583423
 20
449.6260711570648
 30
0.0
 11
98.69435051583423
 21
449.6102087535621
 31
0.0
  0
ARC
  5
9A
330
2
100
AcDbEntity
  8
0
100
AcDbCircle
 10
99.09435051583422
 20
449.6260711570648
 30
0.0
 40
0.4
100
AcDbArc
 50
100.2014684842637
 51
180.0
  0
ARC
  5
9B
330
2
100
AcDbEntity
  8
0
100
AcDbCircle
 10
97.96596003506238
 20
450.8433238022256
 30
0.0
 40
1.0
100
AcDbArc
 50
100.4756816963888
 51
148.8764688140258
  0
ARC
  5
9C
330
2
100
AcDbEntity
  8
0
100
AcDbCircle
 10
96.70990516118934
 20
451.3602087535621
 30
0.0
 40
0.4
100
AcDbArc
 50
270.0
 51
0.000000000000007
  0
LINE
  5
9D
330
2
100
AcDbEntity
  8
0A
100
AcDbLine
 10
102.4659600350624
 20
466.2624804030254
 30
0.0
 11
102.4659600350624
 21
470.7624804030253
 31
0.0
  0
LINE
  5
9E
330
2
100
AcDbEntity
  8
0A
100
AcDbLine
 10
100.4659600350624
 20
466.2624804030254
 30
0.0
 11
100.4659600350624
 21
470.7624804030253
 31
0.0
  0
HATCH
  5
D6
330
2
100
AcDbEntity
  8
8
100
AcDbHatch
 10
0.0
 20
0.0
 30
0.0
210
0.0
220
0.0
230
1.0
  2
_U
 70
     0
 71
     0
 91
        1
 92
        1
 93
       14
 72
     1
 10
376.2364742792541
 20
319.3580002913091
 11
341.1634387814431
 21
309.9602087535622
 72
     1
 10
341.1634387814431
 20
309.9602087535622
 11
334.7159600350624
 21
309.9602087535622
 72
     2
 10
334.7159600350624
 20
306.4602087535623
 40
3.499999999999943
 50
89.99999999999955
 51
180.0000000000009
 73
     1
 72
     1
 10
331.2159600350625
 20
306.4602087535622
 11
331.2159600350624
 21
294.9602087535623
 72
     1
 10
331.2159600350624
 20
294.9602087535623
 11
329.7159600350624
 21
294.9602087535622
 72
     1
 10
329.7159600350624
 20
294.9602087535622
 11
329.7159600350625
 21
306.4602087535623
 72
     2
 10
334.7159600350626
 20
306.4602087535622
 40
5.000000000000028
 50
180.0000000000013
 51
269.9999999999997
 73
     0
 72
     1
 10
334.7159600350626
 20
311.4602087535622
 11
340.9659600350624
 21
311.4602087535622
 72
     1
 10
340.9659600350624
 20
311.4602087535622
 11
375.8482457116003
 21
320.8068890307426
 72
     2
 10
371.9659600350624
 20
335.2957764250786
 40
14.99999999999998
 50
285.0000000000006
 51
360.0
 73
     1
 72
     1
 10
386.9659600350623
 20
335.2957764250786
 11
386.9659600350624
 21
359.0207560853262
 72
     1
 10
386.9659600350624
 20
359.0207560853262
 11
388.4659600350624
 21
357.1774420670995
 72
     1
 10
388.4659600350624
 20
357.1774420670995
 11
388.4659600350624
 21
335.2957764250787
 72
     2
 10
371.9659600350624
 20
335.2957764250787
 40
16.49999999999994
 50
359.9999999999998
 51
434.9999999999997
 73
     0
 97
        0
 75
     0
 76
     0
 52
135.0
 41
5.400000000000001
 77
     0
 78
     1
 53
135.0
 43
500.3809584716569
 44
772.6741431419524
 45
-3.818376618407357
 46
-3.818376618407357
 79
     0
 98
        1
 10
500.3809584716569
 20
772.6741431419524
1001
GENIUS_GENODEF_13
1002
{
1000
HIER
1070
     0
1002
}
1002
{
1000
MANEDIT
1070
     0
1002
}
1002
{
1000
NOSEL
1070
     0
1002
}
1002
{
1000
BEHIND
1070
     0
1002
}
1002
{
1000
REACTOR
1002
}
1001
GENIUS_GENOBJ-N-HTC_13
1002
{
1000
OWNER
1000
GEN
1002
}
1001
GENIUS_GENHATCH_13
1002
{
1000
DATA
1040
135.0
1042
2.7
1000
_U
1070
     0
1011
387.9248021435493
1021
347.29690153226
1031
0.0
1002
}
1002
{
1000
UCS
1010
0.0
1020
0.0
1030
0.0
1010
1.0
1020
0.0
1030
0.0
1010
0.0
1020
1.0
1030
0.0
1002
}
  0
LINE
  5
D7
330
2
100
AcDbEntity
  8
0
100
AcDbLine
 10
341.1634387814435
 20
309.9602087535623
 30
0.0
 11
376.2364742792541
 21
319.3580002913091
 31
0.0
  0
LINE
  5
D8
330
2
100
AcDbEntity
  8
0
100
AcDbLine
 10
340.9659600350624
 20
311.4602087535622
 30
0.0
 11
375.8482457116003
 21
320.8068890307426
 31
0.0
  0
LINE
  5
D9
330
2
100
AcDbEntity
  8
0A
100
AcDbLine
 10
141.7834600350625
 20
470.7624804030253
 30
0.0
 11
180.4659600350608
 21
470.7624804030252
 31
0.0
  0
LINE
  5
DD
330
2
100
AcDbEntity
  8
0
100
AcDbLine
 10
168.4659600350624
 20
373.4707553209958
 30
0.0
 11
168.4659600350624
 21
401.4496615287283
 31
0.0
  0
HATCH
  5
DE
330
2
100
AcDbEntity
  8
8
100
AcDbHatch
 10
0.0
 20
0.0
 30
0.0
210
0.0
220
0.0
230
1.0
  2
_U
 70
     0
 71
     0
 91
        1
 92
        1
 93
        4
 72
     1
 10
171.9659600350624
 20
356.8991601670163
 11
171.9659600350624
 21
440.960208753562
 72
     1
 10
171.9659600350624
 20
440.960208753562
 11
170.4659600350623
 21
440.960208753562
 72
     1
 10
170.4659600350623
 20
440.960208753562
 11
170.4659600350623
 21
357.2739624854214
 72
     1
 10
170.4659600350623
 20
357.2739624854214
 11
171.9659600350624
 21
356.8991601670163
 97
        0
 75
     0
 76
     0
 52
135.0
 41
5.400000000000001
 77
     0
 78
     1
 53
135.0
 43
500.3809584716569
 44
772.6741431419524
 45
-3.818376618407357
 46
-3.818376618407357
 79
     0
 98
        1
 10
500.3809584716569
 20
772.6741431419524
1001
GENIUS_GENODEF_13
1002
{
1000
HIER
1070
     0
1002
}
1002
{
1000
MANEDIT
1070
     0
1002
}
1002
{
1000
NOSEL
1070
     0
1002
}
1002
{
1000
BEHIND
1070
     0
1002
}
1002
{
1000
REACTOR
1002
}
1001
GENIUS_GENOBJ-N-HTC_13
1002
{
1000
OWNER
1000
GEN
1002
}
1001
GENIUS_GENHATCH_13
1002
{
1000
DATA
1040
135.0
1042
2.7
1000
_U
1070
     0
1011
171.14656454413
1021
407.3335553910052
1031
0.0
1002
}
1002
{
1000
UCS
1010
0.0
1020
0.0
1030
0.0
1010
1.0
1020
0.0
1030
0.0
1010
0.0
1020
1.0
1030
0.0
1002
}
  0
LINE
  5
DF
330
2
100
AcDbEntity
  8
0
100
AcDbLine
 10
170.4659600350623
 20
440.960208753562
 30
0.0
 11
170.4659600350623
 21
335.2957764250787
 31
0.0
  0
LINE
  5
E0
330
2
100
AcDbEntity
  8
0
100
AcDbLine
 10
171.9659600350624
 20
440.960208753562
 30
0.0
 11
171.9659600350624
 21
335.2957764250786
 31
0.0
  0
LINE
  5
E1
330
2
100
AcDbEntity
  8
0
100
AcDbLine
 10
225.7159600350624
 20
272.5235008058576
 30
0.0
 11
333.2159600350624
 21
272.5235008058576
 31
0.0
  0
HATCH
  5
E3
330
2
100
AcDbEntity
  8
8
100
AcDbHatch
 10
0.0
 20
0.0
 30
0.0
210
0.0
220
0.0
230
1.0
  2
_U
 70
     0
 71
     0
 91
        1
 92
        1
 93
       14
 72
     1
 10
170.4659600350623
 20
357.5064001784031
 11
170.4659600350623
 21
335.2957764250787
 72
     2
 10
186.9659600350624
 20
335.2957764250787
 40
16.5
 50
180.0
 51
254.9999999999994
 73
     1
 72
     1
 10
182.6954457908706
 20
319.3580002913091
 11
217.7684812886813
 21
309.9602087535623
 72
     1
 10
217.7684812886813
 20
309.9602087535623
 11
224.2159600350623
 21
309.9602087535622
 72
     2
 10
224.2159600350623
 20
306.4602087535622
 40
3.5
 50
270.0
 51
360.0
 73
     0
 72
     1
 10
227.7159600350623
 20
306.4602087535622
 11
227.7159600350624
 21
294.9602087535622
 72
     1
 10
227.7159600350624
 20
294.9602087535622
 11
229.2159600350624
 21
294.9602087535623
 72
     1
 10
229.2159600350624
 20
294.9602087535623
 11
229.2159600350622
 21
306.4602087535622
 72
     2
 10
224.2159600350622
 20
306.4602087535622
 40
5.0
 50
0.0
 51
90.0
 73
     1
 72
     1
 10
224.2159600350622
 20
311.4602087535622
 11
217.9659600350623
 21
311.4602087535622
 72
     1
 10
217.9659600350623
 20
311.4602087535622
 11
183.0836743585244
 21
320.8068890307426
 72
     2
 10
186.9659600350624
 20
335.2957764250786
 40
14.99999999999999
 50
105.0000000000008
 51
180.0
 73
     0
 72
     1
 10
171.9659600350624
 20
335.2957764250786
 11
171.9659600350624
 21
357.0760660079304
 72
     1
 10
171.9659600350624
 20
357.0760660079304
 11
170.4659600350623
 21
357.5064001784031
 97
        0
 75
     0
 76
     0
 52
135.0
 41
5.400000000000001
 77
     0
 78
     1
 53
135.0
 43
500.3809584716569
 44
772.6741431419524
 45
-3.818376618407357
 46
-3.818376618407357
 79
     0
 98
        1
 10
500.3809584716569
 20
772.6741431419524
1001
GENIUS_GENODEF_13
1002
{
1000
HIER
1070
     0
1002
}
1002
{
1000
MANEDIT
1070
     0
1002
}
1002
{
1000
NOSEL
1070
     0
1002
}
1002
{
1000
BEHIND
1070
     0
1002
}
1002
{
1000
REACTOR
1002
}
1001
GENIUS_GENOBJ-N-HTC_13
1002
{
1000
OWNER
1000
GEN
1002
}
1001
GENIUS_GENHATCH_13
1002
{
1000
DATA
1040
135.0
1042
2.7
1000
_U
1070
     0
1011
171.3865868967674
1021
346.0960221566225
1031
0.0
1002
}
1002
{
1000
UCS
1010
0.0
1020
0.0
1030
0.0
1010
1.0
1020
0.0
1030
0.0
1010
0.0
1020
1.0
1030
0.0
1002
}
  0
LINE
  5
E4
330
2
100
AcDbEntity
  8
0
100
AcDbLine
 10
229.2159600350624
 20
294.9602087535622
 30
0.0
 11
229.2159600350622
 21
306.4602087535622
 31
0.0
  0
LINE
  5
E5
330
2
100
AcDbEntity
  8
0
100
AcDbLine
 10
227.7159600350624
 20
294.9602087535622
 30
0.0
 11
227.7159600350623
 21
306.4602087535622
 31
0.0
  0
ARC
  5
E6
330
2
100
AcDbEntity
  8
0
100
AcDbCircle
 10
204.9265369723179
 20
285.4869065589083
 30
0.0
 40
23.0
100
AcDbArc
 50
326.9999999999989
 51
352.240905853686
  0
ARC
  5
E7
330
2
100
AcDbEntity
  8
0
100
AcDbCircle
 10
204.6459239083321
 20
285.6231601892446
 30
0.0
 40
24.81022971160246
100
AcDbArc
 50
328.1299636598016
 51
352.0208994379629
  0
LINE
  5
E8
330
2
100
AcDbEntity
  8
0
100
AcDbLine
 10
229.2159600350624
 20
294.9602087535623
 30
0.0
 11
229.2159600350624
 21
282.1792056201994
 31
0.0
  0
LINE
  5
E9
330
2
100
AcDbEntity
  8
0
100
AcDbLine
 10
227.7159600350624
 20
294.9602087535623
 30
0.0
 11
227.7159600350624
 21
282.3817179225693
 31
0.0
  0
LINE
  5
EB
330
2
100
AcDbEntity
  8
0
100
AcDbLine
 10
217.9659600350624
 20
311.4602087535622
 30
0.0
 11
183.0836743585244
 21
320.8068890307426
 31
0.0
  0
LINE
  5
EC
330
2
100
AcDbEntity
  8
0
100
AcDbLine
 10
217.7684812886813
 20
309.9602087535623
 30
0.0
 11
182.6954457908707
 21
319.3580002913091
 31
0.0
  0
ARC
  5
ED
330
2
100
AcDbEntity
  8
0
100
AcDbCircle
 10
186.9659600350624
 20
335.2957764250786
 30
0.0
 40
15.0
100
AcDbArc
 50
180.0
 51
254.9999999999993
  0
ARC
  5
EE
330
2
100
AcDbEntity
  8
0
100
AcDbCircle
 10
186.9659600350624
 20
335.2957764250787
 30
0.0
 40
16.5
100
AcDbArc
 50
180.0
 51
254.9999999999995
  0
ARC
  5
EF
330
2
100
AcDbEntity
  8
0
100
AcDbCircle
 10
224.2159600350623
 20
306.4602087535622
 30
0.0
 40
3.5
100
AcDbArc
 50
0.0000000000002106
 51
90.0
  0
ARC
  5
F0
330
2
100
AcDbEntity
  8
0
100
AcDbCircle
 10
224.2159600350622
 20
306.4602087535622
 30
0.0
 40
5.0
100
AcDbArc
 50
0.0000000000005922
 51
90.0
  0
LINE
  5
F1
330
2
100
AcDbEntity
  8
0
100
AcDbLine
 10
217.7684812886816
 20
309.9602087535622
 30
0.0
 11
224.2159600350623
 21
309.9602087535622
 31
0.0
  0
LINE
  5
F2
330
2
100
AcDbEntity
  8
0
100
AcDbLine
 10
217.9659600350623
 20
311.4602087535622
 30
0.0
 11
340.9659600350624
 21
311.4602087535622
 31
0.0
  0
LINE
  5
F4
330
2
100
AcDbEntity
  8
0
100
AcDbLine
 10
331.2159600350624
 20
294.9602087535622
 30
0.0
 11
331.2159600350625
 21
306.4602087535622
 31
0.0
  0
LINE
  5
F5
330
2
100
AcDbEntity
  8
0
100
AcDbLine
 10
329.7159600350624
 20
294.9602087535622
 30
0.0
 11
329.7159600350625
 21
306.4602087535622
 31
0.0
  0
ARC
  5
F6
330
2
100
AcDbEntity
  8
0
100
AcDbCircle
 10
354.2859961617941
 20
285.6231601892451
 30
0.0
 40
24.81022971160379
100
AcDbArc
 50
187.9791005620376
 51
211.8700363401977
  0
ARC
  5
F7
330
2
100
AcDbEntity
  8
0
100
AcDbCircle
 10
354.0053830978069
 20
285.4869065589083
 30
0.0
 40
23.0
100
AcDbArc
 50
187.759094146314
 51
213.0000000000011
  0
LINE
  5
F8
330
2
100
AcDbEntity
  8
0
100
AcDbLine
 10
329.7159600350624
 20
294.9602087535623
 30
0.0
 11
329.7159600350624
 21
282.1792056201994
 31
0.0
  0
LINE
  5
F9
330
2
100
AcDbEntity
  8
0
100
AcDbLine
 10
331.2159600350624
 20
294.9602087535623
 30
0.0
 11
331.2159600350624
 21
282.3817179225693
 31
0.0
  0
ARC
  5
FC
330
2
100
AcDbEntity
  8
0
100
AcDbCircle
 10
334.7159600350626
 20
306.4602087535622
 30
0.0
 40
5.0
100
AcDbArc
 50
90.0
 51
179.9999999999994
  0
ARC
  5
FD
330
2
100
AcDbEntity
  8
0
100
AcDbCircle
 10
334.7159600350624
 20
306.4602087535622
 30
0.0
 40
3.5
100
AcDbArc
 50
90.0
 51
179.9999999999998
  0
LINE
  5
FE
330
2
100
AcDbEntity
  8
0
100
AcDbLine
 10
341.1634387814431
 20
309.9602087535622
 30
0.0
 11
334.7159600350624
 21
309.9602087535622
 31
0.0
  0
LINE
  5
100
330
2
100
AcDbEntity
  8
7
100
AcDbLine
 10
131.9659600350624
 20
439.6299090889565
 30
0.0
 11
131.9659600350624
 21
491.960208753562
 31
0.0
  0
LWPOLYLINE
  5
102
330
2
100
AcDbEntity
  8
0A
100
AcDbPolyline
 90
        3
 70
     0
 43
0.0
 10
131.9659600350624
 20
454.9602087535618
 10
126.9659600350623
 20
454.9602087535618
 10
126.9659600350623
 20
466.6990184044831
1001
NC_GG_OF
1000
40
1001
NC_GG_NT
1000
4-1511087
1001
NC_GG_AK
1000
NC_AK
  0
LINE
  5
106
330
2
100
AcDbEntity
  8
7
100
AcDbLine
 10
175.1677098100681
 20
433.960208753562
 30
0.0
 11
175.1677098100681
 21
491.9602087535619
 31
0.0
  0
LWPOLYLINE
  5
107
330
2
100
AcDbEntity
  8
4
100
AcDbPolyline
 90
        3
 70
     0
 43
0.0
 10
127.7159600350624
 20
466.7166311589816
 10
127.7159600350624
 20
457.9602087535619
 10
126.9659600350623
 20
454.9602087535618
1001
NC_GG_OF
1000
40
1001
NC_GG_NT
1000
4-1511087
  0
LWPOLYLINE
  5
108
330
2
100
AcDbEntity
  8
4
100
AcDbPolyline
 90
        3
 70
     0
 43
0.0
 10
136.2159600350624
 20
466.7166311589816
 10
136.2159600350624
 20
457.9602087535619
 10
136.9659600350624
 20
454.9602087535618
1001
NC_GG_OF
1000
40
1001
NC_GG_NT
1000
4-1511087
  0
LWPOLYLINE
  5
109
330
2
100
AcDbEntity
  8
0A
100
AcDbPolyline
 90
        3
 70
     0
 43
0.0
 10
136.9659600350624
 20
466.6990184044841
 10
136.9659600350624
 20
454.9602087535618
 10
131.9659600350624
 20
454.9602087535618
1001
NC_GG_OF
1000
40
1001
NC_GG_NT
1000
4-1511087
1001
NC_GG_AK
1000
NC_AK
  0
LINE
  5
10A
330
2
100
AcDbEntity
  8
0
100
AcDbLine
 10
165.8875695542905
 20
448.9602087535621
 30
0.0
 11
166.9659600350623
 21
448.9602087535622
 31
0.0
  0
ARC
  5
10B
330
2
100
AcDbEntity
  8
0
100
AcDbCircle
 10
165.9659600350624
 20
450.8433238022256
 30
0.0
 40
1.0
100
AcDbArc
 50
31.12353118597418
 51
79.52431830361117
  0
LINE
  5
10C
330
2
100
AcDbEntity
  8
0
100
AcDbLine
 10
180.4659600350614
 20
454.9602087535621
 30
0.0
 11
131.9659600350624
 21
454.9602087535621
 31
0.0
  0
LWPOLYLINE
  5
10D
330
2
100
AcDbEntity
  8
0A
100
AcDbPolyline
 90
        3
 70
     0
 43
0.0
 10
126.9659600350623
 20
457.9602087535619
 10
131.9659600350624
 20
457.9602087535619
 10
136.9659600350624
 20
457.9602087535619
1001
NC_GG_OF
1000
40
1001
NC_GG_NT
1000
4-1511087
  0
LINE
  5
10E
330
2
100
AcDbEntity
  8
8
100
AcDbLine
 10
134.0323731553003
 20
452.9487297348947
 30
0.0
 11
132.0209021649053
 21
454.9602007252897
 31
0.0
  0
LINE
  5
10F
330
2
100
AcDbEntity
  8
0
100
AcDbLine
 10
166.1477782168805
 20
451.8266559682611
 30
0.0
 11
165.9659600350624
 21
451.860181711916
 31
0.0
  0
ARC
  5
110
330
2
100
AcDbEntity
  8
0
100
AcDbCircle
 10
164.8375695542905
 20
449.6260711570648
 30
0.0
 40
0.4
100
AcDbArc
 50
0.000000000000007
 51
79.79853151573627
  0
LINE
  5
111
330
2
100
AcDbEntity
  8
0
100
AcDbLine
 10
165.2375695542905
 20
449.6260711570648
 30
0.0
 11
165.2375695542905
 21
449.6102087535621
 31
0.0
  0
ARC
  5
112
330
2
100
AcDbEntity
  8
0
100
AcDbCircle
 10
165.8875695542905
 20
449.6102087535621
 30
0.0
 40
0.65
100
AcDbArc
 50
180.0
 51
269.9999999999999
  0
ARC
  5
117
330
2
100
AcDbEntity
  8
0
100
AcDbCircle
 10
166.9536953310141
 20
445.955128546807
 30
0.0
 40
5.012267278582378
100
AcDbArc
 50
0.0580724130990556
 51
86.93134248879315
  0
ARC
  5
118
330
2
100
AcDbEntity
  8
0
100
AcDbCircle
 10
166.9659600350624
 20
445.9602087535622
 30
0.0
 40
3.0
100
AcDbArc
 50
0.000000000000007
 51
90.00000000000078
  0
LINE
  5
119
330
2
100
AcDbEntity
  8
0
100
AcDbLine
 10
171.9659600350624
 20
440.9602087535621
 30
0.0
 11
171.9659600350624
 21
445.9602087535622
 31
0.0
  0
LINE
  5
11A
330
2
100
AcDbEntity
  8
0
100
AcDbLine
 10
169.9659600350624
 20
440.9602087535621
 30
0.0
 11
169.9659600350624
 21
445.9602087535622
 31
0.0
  0
LINE
  5
11B
330
2
100
AcDbEntity
  8
0
100
AcDbLine
 10
180.465960035062
 20
440.9602087535621
 30
0.0
 11
169.9659600350624
 21
440.9602087535621
 31
0.0
  0
ARC
  5
11D
330
2
100
AcDbEntity
  8
0
100
AcDbCircle
 10
167.2220149089354
 20
451.3602087535621
 30
0.0
 40
0.4
100
AcDbArc
 50
180.0
 51
270.0
  0
LINE
  5
11F
330
2
100
AcDbEntity
  8
0A
100
AcDbLine
 10
136.9659600350624
 20
462.7624804030253
 30
0.0
 11
180.4659600350611
 21
462.7624804030254
 31
0.0
  0
ARC
  5
120
330
2
100
AcDbEntity
  8
0A
100
AcDbCircle
 10
167.8045848100685
 20
473.9218939806113
 30
0.0
 40
2.840586422413934
100
AcDbArc
 50
90.00000000000571
 51
149.7730538808542
1001
NC_GG_OF
1000
60
1001
NC_GG_NT
1000
6-1511087
1001
NC_GG_AK
1000
NC_AK
  0
LWPOLYLINE
  5
121
330
2
100
AcDbEntity
  8
0A
100
AcDbPolyline
 90
        3
 70
     0
 43
0.0
 10
126.9659600350623
 20
484.2102087535619
 10
131.9659600350624
 20
484.2102087535619
 10
136.9659600350624
 20
484.2102087535619
1001
NC_GG_OF
1000
40
1001
NC_GG_NT
1000
4-1511087
  0
LINE
  5
122
330
2
100
AcDbEntity
  8
0A
100
AcDbLine
 10
131.9659600350624
 20
484.9602087535619
 30
0.0
 11
136.2159600350624
 21
484.9602087535619
 31
0.0
1001
NC_GG_OF
1000
40
1001
NC_GG_NT
1000
4-1511087
1001
NC_GG_AK
1000
NC_AK
  0
LWPOLYLINE
  5
123
330
2
100
AcDbEntity
  8
0A
100
AcDbPolyline
 90
        8
 70
     1
 43
0.0
 10
131.9659600350624
 20
466.7624804030253
 10
141.9659600350624
 20
466.7624804030253
 10
141.9659600350624
 20
468.1624804030252
 10
141.3659600350625
 20
468.7624804030254
 10
131.9659600350624
 20
468.7624804030254
 10
122.5659600350625
 20
468.7624804030254
 10
121.9659600350624
 20
468.1624804030252
 10
121.9659600350624
 20
466.7624804030253
1001
NC_GG_OF
1000
60
1001
NC_GG_NT
1000
8-1511087
1001
NC_GG_AK
1000
NC_AK
  0
LWPOLYLINE
  5
124
330
2
100
AcDbEntity
  8
0A
100
AcDbPolyline
 90
        2
 70
     0
 43
0.0
 10
141.9659600350624
 20
468.1624804030252
 10
121.9659600350624
 20
468.1624804030252
1001
NC_GG_OF
1000
60
1001
NC_GG_NT
1000
8-1511087
  0
LWPOLYLINE
  5
125
330
2
100
AcDbEntity
  8
0A
100
AcDbPolyline
 90
       10
 70
     1
 43
0.0
 10
131.9659600350624
 20
476.7624804030255
 10
139.3290850350624
 20
476.7624804030255
 42
-0.2668881383873844
 10
141.7834600350625
 20
475.3519200581975
 10
141.7834600350625
 20
470.1730407478528
 42
-0.2668881383873844
 10
139.3290850350624
 20
468.7624804030254
 10
131.9659600350624
 20
468.7624804030254
 10
124.6028350350625
 20
468.7624804030254
 42
-0.2668881383873844
 10
122.1484600350625
 20
470.1730407478528
 10
122.1484600350625
 20
475.3519200581975
 42
-0.2668881383873844
 10
124.6028350350625
 20
476.7624804030255
1001
NC_GG_OF
1000
60
1001
NC_GG_NT
1000
6-1511087
1001
NC_GG_AK
1000
NC_AK
  0
ARC
  5
126
330
2
100
AcDbEntity
  8
0A
100
AcDbCircle
 10
131.9659600350624
 20
269.7624804030256
 30
0.0
 40
196.9999999999997
100
AcDbArc
 50
81.82876644005025
 51
98.17123355994976
  0
LWPOLYLINE
  5
127
330
2
100
AcDbEntity
  8
0A
100
AcDbPolyline
 90
        3
 70
     0
 43
0.0
 10
131.9659600350624
 20
468.7624804030254
 42
0.140828634442671
 10
136.8747100350624
 20
470.1730407478528
 42
0.2668881383873844
 10
139.3290850350624
 20
468.7624804030254
 42
0.2668881383873844
1001
NC_GG_OF
1000
60
1001
NC_GG_NT
1000
6-1511087
  0
LWPOLYLINE
  5
128
330
2
100
AcDbEntity
  8
0A
100
AcDbPolyline
 90
        3
 70
     0
 43
0.0
 10
139.3290850350624
 20
476.7624804030255
 42
0.2668881383873844
 10
136.8747100350624
 20
475.3519200581975
 42
0.1408286344426721
 10
131.9659600350624
 20
476.7624804030255
1001
NC_GG_OF
1000
60
1001
NC_GG_NT
1000
6-1511087
  0
LWPOLYLINE
  5
129
330
2
100
AcDbEntity
  8
4
100
AcDbPolyline
 90
        2
 70
     0
 43
0.0
 10
127.7159600350624
 20
484.9602087535619
 10
127.7159600350624
 20
476.7624804030255
1001
NC_GG_OF
1000
40
1001
NC_GG_NT
1000
4-1511087
  0
LINE
  5
12A
330
2
100
AcDbEntity
  8
0A
100
AcDbLine
 10
127.7159600350624
 20
484.9602087535619
 30
0.0
 11
131.9659600350624
 21
484.9602087535619
 31
0.0
1001
NC_GG_OF
1000
40
1001
NC_GG_NT
1000
4-1511087
1001
NC_GG_AK
1000
NC_AK
  0
LINE
  5
12B
330
2
100
AcDbEntity
  8
0A
100
AcDbLine
 10
126.9659600350623
 20
484.2102087535619
 30
0.0
 11
127.7159600350624
 21
484.9602087535619
 31
0.0
1001
NC_GG_OF
1000
40
1001
NC_GG_NT
1000
4-1511087
1001
NC_GG_AK
1000
NC_AK
  0
LWPOLYLINE
  5
12C
330
2
100
AcDbEntity
  8
0A
100
AcDbPolyline
 90
        3
 70
     0
 43
0.0
 10
131.9659600350626
 20
468.7624804030254
 42
-0.140828634442671
 10
127.0572100350625
 20
470.1730407478528
 42
-0.2668881383873844
 10
124.6028350350625
 20
468.7624804030254
 42
-0.2668881383873844
1001
NC_GG_OF
1000
60
1001
NC_GG_NT
1000
6-1511087
  0
LWPOLYLINE
  5
12D
330
2
100
AcDbEntity
  8
0A
100
AcDbPolyline
 90
        3
 70
     0
 43
0.0
 10
124.6028350350625
 20
476.7624804030255
 42
-0.2668881383873844
 10
127.0572100350625
 20
475.3519200581975
 42
-0.1408286344426721
 10
131.9659600350624
 20
476.7624804030255
1001
NC_GG_OF
1000
60
1001
NC_GG_NT
1000
6-1511087
  0
LINE
  5
12E
330
2
100
AcDbEntity
  8
0A
100
AcDbLine
 10
103.9659600350623
 20
462.7624804030253
 30
0.0
 11
126.9659600350623
 21
462.7624804030253
 31
0.0
  0
LINE
  5
12F
330
2
100
AcDbEntity
  8
0A
100
AcDbLine
 10
125.4659600350624
 20
464.6552176992497
 30
0.0
 11
125.4659600350624
 21
466.6552176992497
 31
0.0
  0
LWPOLYLINE
  5
130
330
2
100
AcDbEntity
  8
0A
100
AcDbPolyline
 90
        2
 70
     0
 43
0.0
 10
127.0572100350625
 20
475.3519200581975
 10
127.0572100350625
 20
470.1730407478528
1001
NC_GG_OF
1000
60
1001
NC_GG_NT
1000
6-1511087
  0
ARC
  5
131
330
2
100
AcDbEntity
  8
0A
100
AcDbCircle
 10
131.9659600350624
 20
267.7624804030256
 30
0.0
 40
196.9999999999997
100
AcDbArc
 50
91.45436377582131
 51
98.17123355994976
  0
LWPOLYLINE
  5
132
330
2
100
AcDbEntity
  8
0A
100
AcDbPolyline
 90
        2
 70
     0
 43
0.0
 10
126.9659600350623
 20
476.7624804030255
 10
126.9659600350623
 20
484.2102087535619
1001
NC_GG_OF
1000
40
1001
NC_GG_NT
1000
4-1511087
1001
NC_GG_AK
1000
NC_AK
  0
LINE
  5
133
330
2
100
AcDbEntity
  8
4
100
AcDbLine
 10
136.1235183957332
 20
483.067448730058
 30
0.0
 11
136.1235183957332
 21
477.0674487300579
 31
0.0
1001
NC_GG_OF
1000
40
1001
NC_GG_NT
1000
4-1511087
  0
LWPOLYLINE
  5
134
330
2
100
AcDbEntity
  8
0A
100
AcDbPolyline
 90
        2
 70
     0
 43
0.0
 10
136.9659600350624
 20
484.2102087535619
 10
136.9659600350624
 20
476.7624804030255
1001
NC_GG_OF
1000
40
1001
NC_GG_NT
1000
4-1511087
1001
NC_GG_AK
1000
NC_AK
  0
LWPOLYLINE
  5
135
330
2
100
AcDbEntity
  8
4
100
AcDbPolyline
 90
        2
 70
     0
 43
0.0
 10
136.2159600350624
 20
484.9602087535619
 10
136.2159600350624
 20
476.7624804030255
1001
NC_GG_OF
1000
40
1001
NC_GG_NT
1000
4-1511087
  0
LINE
  5
136
330
2
100
AcDbEntity
  8
0A
100
AcDbLine
 10
136.2159600350624
 20
484.9602087535619
 30
0.0
 11
136.9659600350624
 21
484.2102087535619
 31
0.0
1001
NC_GG_OF
1000
40
1001
NC_GG_NT
1000
4-1511087
1001
NC_GG_AK
1000
NC_AK
  0
ARC
  5
137
330
2
100
AcDbEntity
  8
0A
100
AcDbCircle
 10
131.9659600350624
 20
267.7624804030256
 30
0.0
 40
196.9999999999997
100
AcDbArc
 50
81.82876644005025
 51
88.54563622417868
  0
LINE
  5
138
330
2
100
AcDbEntity
  8
0A
100
AcDbLine
 10
138.4659600350623
 20
464.6552176992497
 30
0.0
 11
138.4659600350623
 21
466.6552176992497
 31
0.0
  0
LWPOLYLINE
  5
139
330
2
100
AcDbEntity
  8
0A
100
AcDbPolyline
 90
        2
 70
     0
 43
0.0
 10
136.8747100350624
 20
475.3519200581975
 10
136.8747100350624
 20
470.1730407478528
1001
NC_GG_OF
1000
60
1001
NC_GG_NT
1000
6-1511087
  0
LINE
  5
13A
330
2
100
AcDbEntity
  8
0A
100
AcDbLine
 10
161.4659600350624
 20
466.2624804030254
 30
0.0
 11
161.4659600350624
 21
470.7624804030253
 31
0.0
  0
LINE
  5
13B
330
2
100
AcDbEntity
  8
0A
100
AcDbLine
 10
163.4659600350623
 20
466.2624804030254
 30
0.0
 11
163.4659600350623
 21
470.7624804030253
 31
0.0
  0
ARC
  5
13C
330
2
100
AcDbEntity
  8
0A
100
AcDbCircle
 10
159.9659600350624
 20
466.2624804030254
 30
0.0
 40
3.5
100
AcDbArc
 50
270.0
 51
0.0
  0
ARC
  5
13D
330
2
100
AcDbEntity
  8
0A
100
AcDbCircle
 10
159.9659600350624
 20
466.2624804030254
 30
0.0
 40
1.5
100
AcDbArc
 50
270.0
 51
0.0
  0
LINE
  5
13E
330
2
100
AcDbEntity
  8
0A
100
AcDbLine
 10
165.350209810068
 20
475.3519200581973
 30
0.0
 11
165.350209810068
 21
470.7624804030256
 31
0.0
1001
NC_GG_OF
1000
60
1001
NC_GG_NT
1000
6-1511087
1001
NC_GG_AK
1000
NC_AK
  0
HATCH
  5
13F
330
2
100
AcDbEntity
  8
8
100
AcDbHatch
 10
0.0
 20
0.0
 30
0.0
210
0.0
220
0.0
230
1.0
  2
_U
 70
     0
 71
     0
 91
        1
 92
        1
 93
        8
 72
     2
 10
131.9659600350618
 20
267.7624804030259
 40
196.9999999999996
 50
271.8908130652957
 51
278.1712335599499
 73
     0
 72
     2
 10
159.9659600350624
 20
466.2624804030254
 40
3.5
 50
269.9999999999991
 51
360.0
 73
     1
 72
     1
 10
163.4659600350623
 20
466.2624804030254
 11
163.4659600350623
 21
470.7624804030253
 72
     1
 10
163.4659600350623
 20
470.7624804030253
 11
161.4659600350624
 21
470.7624804030253
 72
     1
 10
161.4659600350624
 20
470.7624804030253
 11
161.4659600350624
 21
466.2624804030254
 72
     2
 10
159.9659600350624
 20
466.2624804030254
 40
1.5
 50
360.0
 51
450.0000000000021
 73
     0
 72
     2
 10
131.9659600350618
 20
269.7624804030257
 40
196.9999999999997
 50
81.82876644005009
 51
88.10918693470432
 73
     1
 72
     1
 10
138.4659600350623
 20
466.6552176992497
 11
138.4659600350623
 21
464.6552176992497
 97
        0
 75
     0
 76
     0
 52
45.0
 41
4.0
 77
     0
 78
     1
 53
45.0
 43
18.77728448691278
 44
-105.4408804297279
 45
-2.828427124746189
 46
2.82842712474619
 79
     0
 98
        1
 10
18.77728448691278
 20
-105.4408804297279
1001
GENIUS_GENODEF_13
1002
{
1000
HIER
1070
     0
1002
}
1002
{
1000
MANEDIT
1070
     0
1002
}
1002
{
1000
NOSEL
1070
     0
1002
}
1002
{
1000
BEHIND
1070
     0
1002
}
1002
{
1000
REACTOR
1002
}
1001
GENIUS_GENOBJ-N-HTC_13
1002
{
1000
OWNER
1000
GEN
1002
}
1001
GENIUS_GENHATCH_13
1002
{
1000
DATA
1040
45.0
1042
2.5
1000
_U
1070
     0
1011
159.1781795228849
1021
464.038878308547
1031
0.0
1002
}
1002
{
1000
UCS
1010
0.0
1020
0.0
1030
0.0
1010
1.0
1020
0.0
1030
0.0
1010
0.0
1020
1.0
1030
0.0
1002
}
  0
LWPOLYLINE
  5
140
330
2
100
AcDbEntity
  8
0A
100
AcDbPolyline
 90
        2
 70
     0
 43
0.0
 10
180.1677098100681
 20
484.2102087535619
 10
180.1677098100681
 20
476.7624804030252
1001
NC_GG_OF
1000
40
1001
NC_GG_NT
1000
4-1511087
1001
NC_GG_AK
1000
NC_AK
  0
LWPOLYLINE
  5
141
330
2
100
AcDbEntity
  8
4
100
AcDbPolyline
 90
        2
 70
     0
 43
0.0
 10
179.4177098100681
 20
484.9602087535619
 10
179.4177098100681
 20
476.7624804030252
1001
NC_GG_OF
1000
40
1001
NC_GG_NT
1000
4-1511087
  0
LWPOLYLINE
  5
142
330
2
100
AcDbEntity
  8
4
100
AcDbPolyline
 90
        2
 70
     0
 43
0.0
 10
170.9177098100681
 20
484.9602087535619
 10
170.9177098100681
 20
476.7624804030252
1001
NC_GG_OF
1000
40
1001
NC_GG_NT
1000
4-1511087
  0
LWPOLYLINE
  5
143
330
2
100
AcDbEntity
  8
0A
100
AcDbPolyline
 90
        3
 70
     0
 43
0.0
 10
170.1677098100681
 20
484.2102087535619
 10
175.1677098100681
 20
484.2102087535619
 10
180.1677098100681
 20
484.2102087535619
1001
NC_GG_OF
1000
40
1001
NC_GG_NT
1000
4-1511087
  0
LINE
  5
144
330
2
100
AcDbEntity
  8
0A
100
AcDbLine
 10
170.9177098100681
 20
484.9602087535619
 30
0.0
 11
175.1677098100681
 21
484.9602087535619
 31
0.0
1001
NC_GG_OF
1000
40
1001
NC_GG_NT
1000
4-1511087
1001
NC_GG_AK
1000
NC_AK
  0
LINE
  5
145
330
2
100
AcDbEntity
  8
0A
100
AcDbLine
 10
170.1677098100681
 20
484.2102087535619
 30
0.0
 11
170.9177098100681
 21
484.9602087535619
 31
0.0
1001
NC_GG_OF
1000
40
1001
NC_GG_NT
1000
4-1511087
1001
NC_GG_AK
1000
NC_AK
  0
LINE
  5
146
330
2
100
AcDbEntity
  8
0A
100
AcDbLine
 10
175.1677098100681
 20
484.9602087535619
 30
0.0
 11
179.4177098100681
 21
484.9602087535619
 31
0.0
1001
NC_GG_OF
1000
40
1001
NC_GG_NT
1000
4-1511087
1001
NC_GG_AK
1000
NC_AK
  0
LINE
  5
147
330
2
100
AcDbEntity
  8
0A
100
AcDbLine
 10
179.4177098100681
 20
484.9602087535619
 30
0.0
 11
180.1677098100681
 21
484.2102087535619
 31
0.0
1001
NC_GG_OF
1000
40
1001
NC_GG_NT
1000
4-1511087
1001
NC_GG_AK
1000
NC_AK
  0
ARC
  5
14A
330
2
100
AcDbEntity
  8
0A
100
AcDbCircle
 10
175.1677098100688
 20
467.5159752306111
 30
0.0
 40
9.246505172414133
100
AcDbArc
 50
90.00000000000351
 51
122.0646787078751
1001
NC_GG_OF
1000
60
1001
NC_GG_NT
1000
6-1511087
  0
LINE
  5
14C
330
2
100
AcDbEntity
  8
0A
100
AcDbLine
 10
180.0764598100681
 20
475.3519200581973
 30
0.0
 11
180.0764598100681
 21
470.7624804030256
 31
0.0
1001
NC_GG_OF
1000
60
1001
NC_GG_NT
1000
6-1511087
  0
ARC
  5
14E
330
2
100
AcDbEntity
  8
0A
100
AcDbCircle
 10
175.1677098100676
 20
467.5159752306115
 30
0.0
 40
9.246505172413783
100
AcDbArc
 50
57.9353212921243
 51
89.9999999999958
1001
NC_GG_OF
1000
60
1001
NC_GG_NT
1000
6-1511087
  0
ARC
  5
14F
330
2
100
AcDbEntity
  8
0A
100
AcDbCircle
 10
167.8045848100678
 20
473.9218939806113
 30
0.0
 40
2.840586422413934
100
AcDbArc
 50
30.22694611914579
 51
89.99999999999429
1001
NC_GG_OF
1000
60
1001
NC_GG_NT
1000
6-1511087
  0
LINE
  5
150
330
2
100
AcDbEntity
  8
0A
100
AcDbLine
 10
170.258959810068
 20
475.3519200581973
 30
0.0
 11
170.258959810068
 21
470.7624804030256
 31
0.0
1001
NC_GG_OF
1000
60
1001
NC_GG_NT
1000
6-1511087
  0
LWPOLYLINE
  5
151
330
2
100
AcDbEntity
  8
0A
100
AcDbPolyline
 90
        2
 70
     0
 43
0.0
 10
170.1677098100681
 20
476.7624804030252
 10
170.1677098100681
 20
484.2102087535619
1001
NC_GG_OF
1000
40
1001
NC_GG_NT
1000
4-1511087
1001
NC_GG_AK
1000
NC_AK
  0
HATCH
  5
16C
330
2
100
AcDbEntity
  8
8
100
AcDbHatch
 10
0.0
 20
0.0
 30
0.0
210
0.0
220
0.0
230
1.0
  2
_U
 70
     0
 71
     0
 91
        1
 92
        1
 93
        4
 72
     1
 10
386.9659600350624
 20
440.960208753562
 11
386.9659600350623
 21
352.3429478844804
 72
     1
 10
386.9659600350623
 20
352.3429478844804
 11
388.4659600350624
 21
352.0176480108485
 72
     1
 10
388.4659600350624
 20
352.0176480108485
 11
388.4659600350624
 21
440.960208753562
 72
     1
 10
388.4659600350624
 20
440.960208753562
 11
386.9659600350624
 21
440.960208753562
 97
        0
 75
     0
 76
     0
 52
135.0
 41
5.400000000000001
 77
     0
 78
     1
 53
135.0
 43
500.3809584716569
 44
772.6741431419524
 45
-3.818376618407357
 46
-3.818376618407357
 79
     0
 98
        1
 10
500.3809584716569
 20
772.6741431419524
1001
GENIUS_GENODEF_13
1002
{
1000
HIER
1070
     0
1002
}
1002
{
1000
MANEDIT
1070
     0
1002
}
1002
{
1000
NOSEL
1070
     0
1002
}
1002
{
1000
BEHIND
1070
     0
1002
}
1002
{
1000
REACTOR
1002
}
1001
GENIUS_GENOBJ-N-HTC_13
1002
{
1000
OWNER
1000
GEN
1002
}
1001
GENIUS_GENHATCH_13
1002
{
1000
DATA
1040
135.0
1042
2.7
1000
_U
1070
     0
1011
387.735282208742
1021
394.1423049284403
1031
0.0
1002
}
1002
{
1000
UCS
1010
0.0
1020
0.0
1030
0.0
1010
1.0
1020
0.0
1030
0.0
1010
0.0
1020
1.0
1030
0.0
1002
}
  0
LINE
  5
16D
330
2
100
AcDbEntity
  8
0
100
AcDbLine
 10
386.9659600350624
 20
440.9602087535621
 30
0.0
 11
386.9659600350623
 21
335.2957764250786
 31
0.0
  0
LINE
  5
16E
330
2
100
AcDbEntity
  8
0
100
AcDbLine
 10
388.4659600350624
 20
440.960208753562
 30
0.0
 11
388.4659600350624
 21
335.2957764250787
 31
0.0
  0
ARC
  5
16F
330
2
100
AcDbEntity
  8
0
100
AcDbCircle
 10
371.9659600350624
 20
335.2957764250787
 30
0.0
 40
16.5
100
AcDbArc
 50
285.0000000000005
 51
0.0
  0
ARC
  5
170
330
2
100
AcDbEntity
  8
0
100
AcDbCircle
 10
371.9659600350623
 20
335.2957764250786
 30
0.0
 40
15.0
100
AcDbArc
 50
285.0000000000007
 51
0.0
  0
LWPOLYLINE
  5
172
330
2
100
AcDbEntity
  8
0A
100
AcDbPolyline
 90
        3
 70
     0
 43
0.0
 10
426.9659600350624
 20
454.960208753562
 10
421.9659600350623
 20
454.960208753562
 10
421.9659600350623
 20
466.6990184044831
1001
NC_GG_OF
1000
40
1001
NC_GG_NT
1000
4-1511087
1001
NC_GG_AK
1000
NC_AK
  0
LINE
  5
173
330
2
100
AcDbEntity
  8
7
100
AcDbLine
 10
383.7642102600566
 20
433.960208753562
 30
0.0
 11
383.7642102600566
 21
491.9602087535619
 31
0.0
  0
LINE
  5
174
330
2
100
AcDbEntity
  8
7
100
AcDbLine
 10
426.9659600350624
 20
433.960208753562
 30
0.0
 11
426.9659600350624
 21
491.9602087535619
 31
0.0
  0
LWPOLYLINE
  5
175
330
2
100
AcDbEntity
  8
4
100
AcDbPolyline
 90
        3
 70
     0
 43
0.0
 10
422.7159600350623
 20
466.7166311589816
 10
422.7159600350623
 20
457.960208753562
 10
421.9659600350623
 20
454.960208753562
1001
NC_GG_OF
1000
40
1001
NC_GG_NT
1000
4-1511087
  0
LWPOLYLINE
  5
176
330
2
100
AcDbEntity
  8
4
100
AcDbPolyline
 90
        3
 70
     0
 43
0.0
 10
431.2159600350623
 20
466.7166311589816
 10
431.2159600350623
 20
457.960208753562
 10
431.9659600350624
 20
454.960208753562
1001
NC_GG_OF
1000
40
1001
NC_GG_NT
1000
4-1511087
  0
LWPOLYLINE
  5
177
330
2
100
AcDbEntity
  8
0A
100
AcDbPolyline
 90
        3
 70
     0
 43
0.0
 10
431.9659600350624
 20
466.6990184044841
 10
431.9659600350624
 20
454.960208753562
 10
426.9659600350624
 20
454.960208753562
1001
NC_GG_OF
1000
40
1001
NC_GG_NT
1000
4-1511087
1001
NC_GG_AK
1000
NC_AK
  0
HATCH
  5
178
330
2
100
AcDbEntity
  8
8
100
AcDbHatch
 10
0.0
 20
0.0
 30
0.0
210
0.0
220
0.0
230
1.0
  2
_U
 70
     0
 71
     0
 91
        1
 92
        1
 93
       23
 72
     2
 10
392.9659600350624
 20
450.8433238022255
 40
1.000000000000017
 50
100.475681696385
 51
148.8764688140222
 73
     1
 72
     2
 10
391.7099051611893
 20
451.3602087535622
 40
0.3999999999999915
 50
0.0000000000081422
 51
90.00000000000204
 73
     0
 72
     2
 10
391.9782247391106
 20
445.955128546807
 40
5.012267278582438
 50
93.06865751120747
 51
179.9419275869009
 73
     1
 72
     1
 10
386.9659600350624
 20
445.9602087535622
 11
386.9659600350624
 21
440.9602087535621
 72
     1
 10
386.9659600350624
 20
440.9602087535621
 11
388.4659600350624
 21
440.960208753562
 72
     1
 10
388.4659600350624
 20
440.960208753562
 11
388.9659600350624
 21
440.960208753562
 72
     1
 10
388.9659600350624
 20
440.960208753562
 11
388.9659600350624
 21
445.9602087535622
 72
     2
 10
391.9659600350624
 20
445.9602087535622
 40
3.0
 50
180.0
 51
270.0000000000008
 73
     0
 72
     1
 10
391.9659600350625
 20
448.9602087535622
 11
393.0443505158343
 21
448.9602087535621
 72
     2
 10
393.0443505158343
 20
449.6102087535622
 40
0.6500000000000341
 50
269.9999999999988
 51
359.999999999995
 73
     1
 72
     1
 10
393.6943505158343
 20
449.6102087535621
 11
393.6943505158343
 21
449.6260711570648
 72
     2
 10
394.0943505158342
 20
449.6260711570648
 40
0.3999999999999772
 50
180.0
 51
259.7985315157363
 73
     0
 72
     2
 10
426.9659600350624
 20
266.9602087535621
 40
186.0
 50
259.7985315157379
 51
280.2014684842621
 73
     0
 72
     2
 10
459.8375695542905
 20
449.6260711570648
 40
0.3999999999999704
 50
280.2014684842577
 51
360.0
 73
     0
 72
     1
 10
460.2375695542905
 20
449.6260711570648
 11
460.2375695542905
 21
449.6102087535621
 72
     2
 10
460.8875695542905
 20
449.6102087535621
 40
0.6499999999999773
 50
180.0
 51
270.0
 73
     1
 72
     1
 10
460.8875695542905
 20
448.9602087535621
 11
486.9659600350623
 21
448.9602087535621
 72
     1
 10
486.9659600350623
 20
448.9602087535621
 11
486.9659600350623
 21
450.9602087535621
 72
     1
 10
486.9659600350623
 20
450.9602087535621
 11
462.2220149089354
 21
450.9602087535622
 72
     2
 10
462.2220149089354
 20
451.3602087535621
 40
0.3999999999999772
 50
89.99999999999797
 51
180.0
 73
     0
 72
     2
 10
460.9659600350624
 20
450.8433238022255
 40
1.000000000000002
 50
31.12353118597779
 51
79.52431830361494
 73
     1
 72
     2
 10
426.9659600350623
 20
266.9602087535622
 40
187.9999999999999
 50
79.5243183036101
 51
100.4193357815148
 73
     1
 72
     1
 10
392.9659600350624
 20
451.860181711916
 11
392.7841418532442
 21
451.8266559682611
 97
        0
 75
     0
 76
     0
 52
45.0
 41
5.0
 77
     0
 78
     1
 53
45.0
 43
500.3809584716569
 44
772.6741431419524
 45
-3.535533905932737
 46
3.535533905932737
 79
     0
 98
        1
 10
500.3809584716569
 20
772.6741431419524
1001
GENIUS_GENODEF_13
1002
{
1000
HIER
1070
     0
1002
}
1002
{
1000
MANEDIT
1070
     0
1002
}
1002
{
1000
NOSEL
1070
     0
1002
}
1002
{
1000
BEHIND
1070
     0
1002
}
1002
{
1000
REACTOR
1002
}
1001
GENIUS_GENOBJ-N-HTC_13
1002
{
1000
OWNER
1000
GEN
1002
}
1001
GENIUS_GENHATCH_13
1002
{
1000
DATA
1040
45.0
1042
2.5
1000
_U
1070
     0
1011
411.9396352104878
1021
453.5689442432887
1031
0.0
1002
}
1002
{
1000
UCS
1010
0.0
1020
0.0
1030
0.0
1010
1.0
1020
0.0
1030
0.0
1010
0.0
1020
1.0
1030
0.0
1002
}
  0
ARC
  5
179
330
2
100
AcDbEntity
  8
0
100
AcDbCircle
 10
426.9659600350624
 20
266.9602087535622
 30
0.0
 40
186.0
100
AcDbArc
 50
79.79853151573793
 51
100.201468484262
  0
ARC
  5
17A
330
2
100
AcDbEntity
  8
0
100
AcDbCircle
 10
426.9659600350624
 20
266.9602087535622
 30
0.0
 40
188.0
100
AcDbArc
 50
79.52431830361011
 51
100.4193357815149
  0
LINE
  5
17B
330
2
100
AcDbEntity
  8
0
100
AcDbLine
 10
460.8875695542905
 20
448.9602087535621
 30
0.0
 11
393.0443505158343
 21
448.9602087535621
 31
0.0
  0
LINE
  5
17C
330
2
100
AcDbEntity
  8
0
100
AcDbLine
 10
378.4659600350615
 20
454.960208753562
 30
0.0
 11
426.9659600350624
 21
454.9602087535621
 31
0.0
  0
LWPOLYLINE
  5
17D
330
2
100
AcDbEntity
  8
0A
100
AcDbPolyline
 90
        3
 70
     0
 43
0.0
 10
421.9659600350623
 20
457.960208753562
 10
426.9659600350624
 20
457.960208753562
 10
431.9659600350624
 20
457.960208753562
1001
NC_GG_OF
1000
40
1001
NC_GG_NT
1000
4-1511087
  0
LINE
  5
17E
330
2
100
AcDbEntity
  8
8
100
AcDbLine
 10
421.2037534119481
 20
454.8718820866464
 30
0.0
 11
423.1544828833652
 21
452.921152615229
 31
0.0
  0
ARC
  5
180
330
2
100
AcDbEntity
  8
0
100
AcDbCircle
 10
391.9659600350624
 20
445.9602087535622
 30
0.0
 40
3.0
100
AcDbArc
 50
89.9999999999992
 51
180.0
  0
ARC
  5
181
330
2
100
AcDbEntity
  8
0
100
AcDbCircle
 10
391.9782247391106
 20
445.955128546807
 30
0.0
 40
5.012267278582378
100
AcDbArc
 50
93.06865751120687
 51
179.9419275869009
  0
LINE
  5
186
330
2
100
AcDbEntity
  8
0
100
AcDbLine
 10
388.9659600350624
 20
440.9602087535621
 30
0.0
 11
378.465960035062
 21
440.9602087535622
 31
0.0
  0
LINE
  5
187
330
2
100
AcDbEntity
  8
0
100
AcDbLine
 10
388.9659600350624
 20
440.9602087535621
 30
0.0
 11
388.9659600350624
 21
445.9602087535622
 31
0.0
  0
LINE
  5
188
330
2
100
AcDbEntity
  8
0
100
AcDbLine
 10
386.9659600350624
 20
440.9602087535621
 30
0.0
 11
386.9659600350624
 21
445.9602087535622
 31
0.0
  0
ARC
  5
189
330
2
100
AcDbEntity
  8
0
100
AcDbCircle
 10
392.9659600350624
 20
450.8433238022256
 30
0.0
 40
1.0
100
AcDbArc
 50
100.4756816963888
 51
148.8764688140258
  0
ARC
  5
18A
330
2
100
AcDbEntity
  8
0
100
AcDbCircle
 10
393.0443505158343
 20
449.6102087535621
 30
0.0
 40
0.65
100
AcDbArc
 50
270.0000000000001
 51
0.000000000000007
  0
LINE
  5
18B
330
2
100
AcDbEntity
  8
0
100
AcDbLine
 10
393.6943505158343
 20
449.6260711570648
 30
0.0
 11
393.6943505158343
 21
449.6102087535621
 31
0.0
  0
ARC
  5
18C
330
2
100
AcDbEntity
  8
0
100
AcDbCircle
 10
394.0943505158342
 20
449.6260711570648
 30
0.0
 40
0.4
100
AcDbArc
 50
100.2014684842637
 51
180.0
  0
ARC
  5
18D
330
2
100
AcDbEntity
  8
0
100
AcDbCircle
 10
391.7099051611893
 20
451.3602087535621
 30
0.0
 40
0.4
100
AcDbArc
 50
270.0
 51
0.000000000000007
  0
LINE
  5
18E
330
2
100
AcDbEntity
  8
0
100
AcDbLine
 10
392.7841418532442
 20
451.8266559682611
 30
0.0
 11
392.9659600350624
 21
451.860181711916
 31
0.0
  0
LINE
  5
18F
330
2
100
AcDbEntity
  8
0
100
AcDbLine
 10
393.0443505158343
 20
448.9602087535621
 30
0.0
 11
391.9659600350625
 21
448.9602087535622
 31
0.0
  0
LINE
  5
190
330
2
100
AcDbEntity
  8
8
100
AcDbLine
 10
437.5594813154325
 20
452.6582898068928
 30
0.0
 11
435.449050372267
 21
454.7687207500583
 31
0.0
  0
LINE
  5
191
330
2
100
AcDbEntity
  8
8
100
AcDbLine
 10
437.5594813154325
 20
452.6582898068928
 30
0.0
 11
435.449050372267
 21
454.7687207500583
 31
0.0
  0
LINE
  5
192
330
2
100
AcDbEntity
  8
0
100
AcDbLine
 10
460.8875695542905
 20
448.9602087535621
 30
0.0
 11
486.9659600350623
 21
448.9602087535621
 31
0.0
  0
LINE
  5
193
330
2
100
AcDbEntity
  8
0
100
AcDbLine
 10
486.9659600350623
 20
450.9602087535621
 30
0.0
 11
462.2220149089354
 21
450.9602087535622
 31
0.0
  0
ARC
  5
194
330
2
100
AcDbEntity
  8
0
100
AcDbCircle
 10
462.2220149089354
 20
451.3602087535621
 30
0.0
 40
0.4
100
AcDbArc
 50
180.0
 51
270.0
  0
ARC
  5
195
330
2
100
AcDbEntity
  8
0
100
AcDbCircle
 10
460.9659600350624
 20
450.8433238022256
 30
0.0
 40
1.0
100
AcDbArc
 50
31.12353118597417
 51
79.52431830361115
  0
LINE
  5
196
330
2
100
AcDbEntity
  8
0
100
AcDbLine
 10
460.2375695542905
 20
449.6260711570648
 30
0.0
 11
460.2375695542905
 21
449.6102087535621
 31
0.0
  0
ARC
  5
197
330
2
100
AcDbEntity
  8
0
100
AcDbCircle
 10
459.8375695542905
 20
449.6260711570648
 30
0.0
 40
0.4
100
AcDbArc
 50
0.0
 51
79.79853151573625
  0
ARC
  5
198
330
2
100
AcDbEntity
  8
0
100
AcDbCircle
 10
460.8875695542905
 20
449.6102087535621
 30
0.0
 40
0.65
100
AcDbArc
 50
180.0
 51
269.9999999999999
  0
LINE
  5
199
330
2
100
AcDbEntity
  8
0
100
AcDbLine
 10
486.9659600350623
 20
448.9602087535621
 30
0.0
 11
486.9659600350623
 21
450.9602087535621
 31
0.0
  0
LWPOLYLINE
  5
19A
330
2
100
AcDbEntity
  8
0A
100
AcDbPolyline
 90
        3
 70
     0
 43
0.0
 10
421.9659600350623
 20
484.2102087535619
 10
426.9659600350624
 20
484.2102087535619
 10
431.9659600350624
 20
484.2102087535619
1001
NC_GG_OF
1000
40
1001
NC_GG_NT
1000
4-1511087
  0
LINE
  5
19B
330
2
100
AcDbEntity
  8
0A
100
AcDbLine
 10
422.7159600350623
 20
484.9602087535619
 30
0.0
 11
426.9659600350624
 21
484.9602087535619
 31
0.0
1001
NC_GG_OF
1000
40
1001
NC_GG_NT
1000
4-1511087
1001
NC_GG_AK
1000
NC_AK
  0
ARC
  5
19C
330
2
100
AcDbEntity
  8
0A
100
AcDbCircle
 10
426.9659600350624
 20
269.7624804030256
 30
0.0
 40
196.9999999999997
100
AcDbArc
 50
81.82876644005025
 51
98.17123355994976
  0
LWPOLYLINE
  5
19D
330
2
100
AcDbEntity
  8
0A
100
AcDbPolyline
 90
       10
 70
     1
 43
0.0
 10
426.9659600350624
 20
477.6624804030253
 10
434.3290850350625
 20
477.6624804030253
 42
-0.2668881383873844
 10
436.7834600350625
 20
476.2519200581976
 10
436.7834600350625
 20
471.0730407478528
 42
-0.2668881383873844
 10
434.3290850350625
 20
469.6624804030253
 10
426.9659600350624
 20
469.6624804030253
 10
419.6028350350625
 20
469.6624804030253
 42
-0.2668881383873844
 10
417.1484600350624
 20
471.0730407478528
 10
417.1484600350624
 20
476.2519200581976
 42
-0.2668881383873844
 10
419.6028350350625
 20
477.6624804030253
1001
NC_GG_OF
1000
60
1001
NC_GG_NT
1000
6-1511087
1001
NC_GG_AK
1000
NC_AK
  0
LWPOLYLINE
  5
19E
330
2
100
AcDbEntity
  8
0A
100
AcDbPolyline
 90
        2
 70
     0
 43
0.0
 10
436.9659600350623
 20
468.1624804030252
 10
416.9659600350623
 20
468.1624804030252
1001
NC_GG_OF
1000
60
1001
NC_GG_NT
1000
8-1511087
  0
LWPOLYLINE
  5
19F
330
2
100
AcDbEntity
  8
0A
100
AcDbPolyline
 90
        8
 70
     1
 43
0.0
 10
426.9659600350624
 20
466.7624804030253
 10
436.9659600350623
 20
466.7624804030253
 10
436.9659600350623
 20
468.1624804030252
 10
436.3659600350624
 20
468.7624804030254
 10
426.9659600350624
 20
468.7624804030254
 10
417.5659600350625
 20
468.7624804030254
 10
416.9659600350623
 20
468.1624804030252
 10
416.9659600350623
 20
466.7624804030253
1001
NC_GG_OF
1000
60
1001
NC_GG_NT
1000
8-1511087
1001
NC_GG_AK
1000
NC_AK
  0
LWPOLYLINE
  5
1A0
330
2
100
AcDbEntity
  8
0A
100
AcDbPolyline
 90
        3
 70
     0
 43
0.0
 10
419.6028350350625
 20
477.6624804030253
 42
-0.2668881383873844
 10
422.0572100350625
 20
476.2519200581976
 42
-0.1408286344426721
 10
426.9659600350624
 20
477.6624804030253
1001
NC_GG_OF
1000
60
1001
NC_GG_NT
1000
6-1511087
  0
LWPOLYLINE
  5
1A1
330
2
100
AcDbEntity
  8
0A
100
AcDbPolyline
 90
        3
 70
     0
 43
0.0
 10
426.9659600350625
 20
469.6624804030253
 42
-0.140828634442671
 10
422.0572100350625
 20
471.0730407478528
 42
-0.2668881383873844
 10
419.6028350350625
 20
469.6624804030253
 42
-0.2668881383873844
1001
NC_GG_OF
1000
60
1001
NC_GG_NT
1000
6-1511087
  0
LWPOLYLINE
  5
1A2
330
2
100
AcDbEntity
  8
0A
100
AcDbPolyline
 90
        4
 70
     1
 43
0.0
 10
435.9659600350624
 20
468.7624804030254
 10
417.9659600350623
 20
468.7624804030254
 10
417.9659600350623
 20
469.6624804030253
 10
435.9659600350624
 20
469.6624804030253
1001
NC_GG_OF
1000
60
1001
NC_GG_NT
1000
10-1511087
1001
NC_GG_AK
1000
NC_AK
  0
LINE
  5
1A3
330
2
100
AcDbEntity
  8
0A
100
AcDbLine
 10
378.4659600350612
 20
462.7624804030253
 30
0.0
 11
421.9659600350623
 21
462.7624804030253
 31
0.0
  0
ARC
  5
1A5
330
2
100
AcDbEntity
  8
0A
100
AcDbCircle
 10
391.127335260057
 20
473.9218939806113
 30
0.0
 40
2.840586422413934
100
AcDbArc
 50
90.00000000000571
 51
149.7730538808542
1001
NC_GG_OF
1000
60
1001
NC_GG_NT
1000
6-1511087
  0
LWPOLYLINE
  5
1A6
330
2
100
AcDbEntity
  8
0A
100
AcDbPolyline
 90
        2
 70
     0
 43
0.0
 10
388.7642102600566
 20
484.2102087535619
 10
388.7642102600566
 20
476.7624804030252
1001
NC_GG_OF
1000
40
1001
NC_GG_NT
1000
4-1511087
1001
NC_GG_AK
1000
NC_AK
  0
LWPOLYLINE
  5
1A7
330
2
100
AcDbEntity
  8
4
100
AcDbPolyline
 90
        2
 70
     0
 43
0.0
 10
388.0142102600567
 20
484.9602087535619
 10
388.0142102600567
 20
476.7624804030252
1001
NC_GG_OF
1000
40
1001
NC_GG_NT
1000
4-1511087
  0
LWPOLYLINE
  5
1A8
330
2
100
AcDbEntity
  8
4
100
AcDbPolyline
 90
        2
 70
     0
 43
0.0
 10
379.5142102600566
 20
484.9602087535619
 10
379.5142102600566
 20
476.7624804030252
1001
NC_GG_OF
1000
40
1001
NC_GG_NT
1000
4-1511087
  0
LWPOLYLINE
  5
1A9
330
2
100
AcDbEntity
  8
0A
100
AcDbPolyline
 90
        3
 70
     0
 43
0.0
 10
378.7642102600567
 20
484.2102087535619
 10
383.7642102600566
 20
484.2102087535619
 10
388.7642102600566
 20
484.2102087535619
1001
NC_GG_OF
1000
40
1001
NC_GG_NT
1000
4-1511087
  0
LINE
  5
1AA
330
2
100
AcDbEntity
  8
0A
100
AcDbLine
 10
383.7642102600566
 20
484.9602087535619
 30
0.0
 11
388.0142102600567
 21
484.9602087535619
 31
0.0
1001
NC_GG_OF
1000
40
1001
NC_GG_NT
1000
4-1511087
1001
NC_GG_AK
1000
NC_AK
  0
LINE
  5
1AB
330
2
100
AcDbEntity
  8
0A
100
AcDbLine
 10
378.7642102600567
 20
484.2102087535619
 30
0.0
 11
379.5142102600566
 21
484.9602087535619
 31
0.0
1001
NC_GG_OF
1000
40
1001
NC_GG_NT
1000
4-1511087
1001
NC_GG_AK
1000
NC_AK
  0
LINE
  5
1AC
330
2
100
AcDbEntity
  8
0A
100
AcDbLine
 10
379.5142102600566
 20
484.9602087535619
 30
0.0
 11
383.7642102600566
 21
484.9602087535619
 31
0.0
1001
NC_GG_OF
1000
40
1001
NC_GG_NT
1000
4-1511087
1001
NC_GG_AK
1000
NC_AK
  0
LINE
  5
1AD
330
2
100
AcDbEntity
  8
0A
100
AcDbLine
 10
388.0142102600567
 20
484.9602087535619
 30
0.0
 11
388.7642102600566
 21
484.2102087535619
 31
0.0
1001
NC_GG_OF
1000
40
1001
NC_GG_NT
1000
4-1511087
1001
NC_GG_AK
1000
NC_AK
  0
ARC
  5
1AE
330
2
100
AcDbEntity
  8
0A
100
AcDbCircle
 10
383.7642102600573
 20
467.5159752306115
 30
0.0
 40
9.246505172413783
100
AcDbArc
 50
90.0000000000042
 51
122.0646787078757
1001
NC_GG_OF
1000
60
1001
NC_GG_NT
1000
6-1511087
  0
ARC
  5
1B1
330
2
100
AcDbEntity
  8
0A
100
AcDbCircle
 10
376.4010852600566
 20
473.9218939806113
 30
0.0
 40
2.840586422413934
100
AcDbArc
 50
30.22694611914579
 51
43.37132208993391
1001
NC_GG_OF
1000
60
1001
NC_GG_NT
1000
6-1511087
  0
LINE
  5
1B2
330
2
100
AcDbEntity
  8
0A
100
AcDbLine
 10
378.8554602600568
 20
475.3519200581973
 30
0.0
 11
378.8554602600568
 21
470.7624804030256
 31
0.0
1001
NC_GG_OF
1000
60
1001
NC_GG_NT
1000
6-1511087
  0
LINE
  5
1B3
330
2
100
AcDbEntity
  8
0A
100
AcDbLine
 10
388.6729602600567
 20
475.3519200581973
 30
0.0
 11
388.6729602600567
 21
470.7624804030256
 31
0.0
1001
NC_GG_OF
1000
60
1001
NC_GG_NT
1000
6-1511087
  0
ARC
  5
1B4
330
2
100
AcDbEntity
  8
0A
100
AcDbCircle
 10
383.7642102600562
 20
467.5159752306111
 30
0.0
 40
9.246505172414133
100
AcDbArc
 50
57.93532129212483
 51
89.99999999999648
1001
NC_GG_OF
1000
60
1001
NC_GG_NT
1000
6-1511087
  0
LWPOLYLINE
  5
1B5
330
2
100
AcDbEntity
  8
0A
100
AcDbPolyline
 90
        2
 70
     0
 43
0.0
 10
378.7642102600567
 20
476.7624804030252
 10
378.7642102600567
 20
484.2102087535619
1001
NC_GG_OF
1000
40
1001
NC_GG_NT
1000
4-1511087
1001
NC_GG_AK
1000
NC_AK
  0
LWPOLYLINE
  5
1B6
330
2
100
AcDbEntity
  8
4
100
AcDbPolyline
 90
        2
 70
     0
 43
0.0
 10
422.7159600350623
 20
484.9602087535619
 10
422.7159600350623
 20
477.6624804030253
1001
NC_GG_OF
1000
40
1001
NC_GG_NT
1000
4-1511087
  0
LINE
  5
1B7
330
2
100
AcDbEntity
  8
0A
100
AcDbLine
 10
421.9659600350623
 20
484.2102087535619
 30
0.0
 11
422.7159600350623
 21
484.9602087535619
 31
0.0
1001
NC_GG_OF
1000
40
1001
NC_GG_NT
1000
4-1511087
1001
NC_GG_AK
1000
NC_AK
  0
ARC
  5
1B8
330
2
100
AcDbEntity
  8
0A
100
AcDbCircle
 10
398.9659600350624
 20
466.2624804030254
 30
0.0
 40
1.5
100
AcDbArc
 50
180.0
 51
270.0
  0
ARC
  5
1B9
330
2
100
AcDbEntity
  8
0A
100
AcDbCircle
 10
398.9659600350624
 20
466.2624804030254
 30
0.0
 40
3.5
100
AcDbArc
 50
180.0
 51
270.0
  0
LINE
  5
1BA
330
2
100
AcDbEntity
  8
0A
100
AcDbLine
 10
397.4659600350624
 20
466.2624804030254
 30
0.0
 11
397.4659600350624
 21
470.7624804030253
 31
0.0
  0
LINE
  5
1BB
330
2
100
AcDbEntity
  8
0A
100
AcDbLine
 10
395.4659600350624
 20
466.2624804030254
 30
0.0
 11
395.4659600350624
 21
470.7624804030253
 31
0.0
  0
LINE
  5
1BC
330
2
100
AcDbEntity
  8
0A
100
AcDbLine
 10
420.4659600350623
 20
464.6552176992497
 30
0.0
 11
420.4659600350623
 21
466.6552176992497
 31
0.0
  0
LWPOLYLINE
  5
1BD
330
2
100
AcDbEntity
  8
0A
100
AcDbPolyline
 90
        2
 70
     0
 43
0.0
 10
422.0572100350625
 20
476.2519200581976
 10
422.0572100350625
 20
471.0730407478528
1001
NC_GG_OF
1000
60
1001
NC_GG_NT
1000
6-1511087
  0
LWPOLYLINE
  5
1BE
330
2
100
AcDbEntity
  8
0A
100
AcDbPolyline
 90
        2
 70
     0
 43
0.0
 10
418.5284600350623
 20
468.7624804030254
 10
418.5284600350623
 20
469.6624804030253
1001
NC_GG_OF
1000
60
1001
NC_GG_NT
1000
10-1511087
  0
LWPOLYLINE
  5
1BF
330
2
100
AcDbEntity
  8
0A
100
AcDbPolyline
 90
        2
 70
     0
 43
0.0
 10
420.2159600350624
 20
468.7624804030254
 10
420.2159600350624
 20
469.6624804030253
1001
NC_GG_OF
1000
60
1001
NC_GG_NT
1000
10-1511087
  0
LWPOLYLINE
  5
1C0
330
2
100
AcDbEntity
  8
0A
100
AcDbPolyline
 90
        2
 70
     0
 43
0.0
 10
422.4659600350624
 20
468.7624804030254
 10
422.4659600350624
 20
469.6624804030253
1001
NC_GG_OF
1000
60
1001
NC_GG_NT
1000
10-1511087
  0
ARC
  5
1C1
330
2
100
AcDbEntity
  8
0A
100
AcDbCircle
 10
426.9659600350624
 20
267.7624804030256
 30
0.0
 40
196.9999999999997
100
AcDbArc
 50
91.45436377582127
 51
98.17123355994976
  0
ARC
  5
1C2
330
2
100
AcDbEntity
  8
0A
100
AcDbCircle
 10
391.1273352600565
 20
473.9218939806113
 30
0.0
 40
2.840586422413934
100
AcDbArc
 50
30.22694611914579
 51
89.99999999999428
1001
NC_GG_OF
1000
60
1001
NC_GG_NT
1000
6-1511087
1001
NC_GG_AK
1000
NC_AK
  0
LINE
  5
1C3
330
2
100
AcDbEntity
  8
0A
100
AcDbLine
 10
393.5817102600568
 20
475.3519200581973
 30
0.0
 11
393.5817102600568
 21
470.7624804030256
 31
0.0
1001
NC_GG_OF
1000
60
1001
NC_GG_NT
1000
6-1511087
1001
NC_GG_AK
1000
NC_AK
  0
LWPOLYLINE
  5
1C4
330
2
100
AcDbEntity
  8
0A
100
AcDbPolyline
 90
        2
 70
     0
 43
0.0
 10
421.9659600350623
 20
477.6624804030253
 10
421.9659600350623
 20
484.2102087535619
1001
NC_GG_OF
1000
40
1001
NC_GG_NT
1000
4-1511087
1001
NC_GG_AK
1000
NC_AK
  0
HATCH
  5
1C5
330
2
100
AcDbEntity
  8
8
100
AcDbHatch
 10
0.0
 20
0.0
 30
0.0
210
0.0
220
0.0
230
1.0
  2
_U
 70
     0
 71
     0
 91
        1
 92
        1
 93
        8
 72
     2
 10
426.9659600350628
 20
267.7624804030256
 40
196.9999999999998
 50
261.8287664400501
 51
268.1091869347044
 73
     0
 72
     1
 10
420.4659600350623
 20
464.6552176992497
 11
420.4659600350622
 21
466.6552176992497
 72
     2
 10
426.9659600350628
 20
269.7624804030257
 40
196.9999999999997
 50
91.89081306529566
 51
98.1712335599499
 73
     1
 72
     2
 10
398.9659600350624
 20
466.2624804030254
 40
1.5
 50
90.0
 51
180.0
 73
     0
 72
     1
 10
397.4659600350624
 20
466.2624804030254
 11
397.4659600350624
 21
470.7624804030253
 72
     1
 10
397.4659600350624
 20
470.7624804030253
 11
395.4659600350624
 21
470.7624804030253
 72
     1
 10
395.4659600350624
 20
470.7624804030253
 11
395.4659600350624
 21
466.2624804030254
 72
     2
 10
398.9659600350624
 20
466.2624804030254
 40
3.5
 50
180.0
 51
270.0
 73
     1
 97
        0
 75
     0
 76
     0
 52
45.0
 41
3.75
 77
     0
 78
     1
 53
45.0
 43
18.77728448691278
 44
-105.4408804297279
 45
-2.651650429449553
 46
2.651650429449553
 79
     0
 98
        1
 10
18.77728448691278
 20
-105.4408804297279
1001
GENIUS_GENODEF_13
1002
{
1000
HIER
1070
     0
1002
}
1002
{
1000
MANEDIT
1070
     0
1002
}
1002
{
1000
NOSEL
1070
     0
1002
}
1002
{
1000
BEHIND
1070
     0
1002
}
1002
{
1000
REACTOR
1002
}
1001
GENIUS_GENOBJ-N-HTC_13
1002
{
1000
OWNER
1000
GEN
1002
}
1001
GENIUS_GENHATCH_13
1002
{
1000
DATA
1040
45.0
1042
2.5
1000
_U
1070
     0
1011
396.3355364847235
1021
467.3654285794744
1031
0.0
1002
}
1002
{
1000
UCS
1010
0.0
1020
0.0
1030
0.0
1010
1.0
1020
0.0
1030
0.0
1010
0.0
1020
1.0
1030
0.0
1002
}
  0
LINE
  5
1C6
330
2
100
AcDbEntity
  8
0A
100
AcDbLine
 10
436.5739213607885
 20
470.7624804030253
 30
0.0
 11
458.4659600350623
 21
470.7624804030253
 31
0.0
  0
ARC
  5
1C7
330
2
100
AcDbEntity
  8
0A
100
AcDbCircle
 10
454.9659600350623
 20
466.2624804030254
 30
0.0
 40
3.5
100
AcDbArc
 50
270.0
 51
0.0
  0
ARC
  5
1C8
330
2
100
AcDbEntity
  8
0A
100
AcDbCircle
 10
454.9659600350623
 20
466.2624804030254
 30
0.0
 40
1.5
100
AcDbArc
 50
270.0
 51
0.0
  0
HATCH
  5
1C9
330
2
100
AcDbEntity
  8
8
100
AcDbHatch
 10
0.0
 20
0.0
 30
0.0
210
0.0
220
0.0
230
1.0
  2
_U
 70
     0
 71
     0
 91
        1
 92
        1
 93
        8
 72
     2
 10
426.9659600350619
 20
267.7624804030259
 40
196.9999999999996
 50
271.8908130652957
 51
278.1712335599499
 73
     0
 72
     2
 10
454.9659600350623
 20
466.2624804030254
 40
3.5
 50
269.9999999999991
 51
360.0
 73
     1
 72
     1
 10
458.4659600350623
 20
466.2624804030254
 11
458.4659600350623
 21
470.7624804030253
 72
     1
 10
458.4659600350623
 20
470.7624804030253
 11
456.4659600350624
 21
470.7624804030253
 72
     1
 10
456.4659600350624
 20
470.7624804030253
 11
456.4659600350624
 21
466.2624804030254
 72
     2
 10
454.9659600350623
 20
466.2624804030254
 40
1.5
 50
360.0
 51
450.0000000000021
 73
     0
 72
     2
 10
426.9659600350619
 20
269.7624804030259
 40
196.9999999999996
 50
81.82876644005009
 51
88.10918693470432
 73
     1
 72
     1
 10
433.4659600350623
 20
466.6552176992497
 11
433.4659600350623
 21
464.6552176992497
 97
        0
 75
     0
 76
     0
 52
45.0
 41
3.75
 77
     0
 78
     1
 53
45.0
 43
18.77728448691278
 44
-105.4408804297279
 45
-2.651650429449553
 46
2.651650429449553
 79
     0
 98
        1
 10
18.77728448691278
 20
-105.4408804297279
1001
GENIUS_GENODEF_13
1002
{
1000
HIER
1070
     0
1002
}
1002
{
1000
MANEDIT
1070
     0
1002
}
1002
{
1000
NOSEL
1070
     0
1002
}
1002
{
1000
BEHIND
1070
     0
1002
}
1002
{
1000
REACTOR
1002
}
1001
GENIUS_GENOBJ-N-HTC_13
1002
{
1000
OWNER
1000
GEN
1002
}
1001
GENIUS_GENHATCH_13
1002
{
1000
DATA
1040
45.0
1042
2.5
1000
_U
1070
     0
1011
446.2620738812161
1021
464.8849873332108
1031
0.0
1002
}
1002
{
1000
UCS
1010
0.0
1020
0.0
1030
0.0
1010
1.0
1020
0.0
1030
0.0
1010
0.0
1020
1.0
1030
0.0
1002
}
  0
LWPOLYLINE
  5
1CA
330
2
100
AcDbEntity
  8
0A
100
AcDbPolyline
 90
        2
 70
     0
 43
0.0
 10
431.9659600350624
 20
484.2102087535619
 10
431.9659600350624
 20
477.6624804030253
1001
NC_GG_OF
1000
40
1001
NC_GG_NT
1000
4-1511087
1001
NC_GG_AK
1000
NC_AK
  0
LWPOLYLINE
  5
1CB
330
2
100
AcDbEntity
  8
4
100
AcDbPolyline
 90
        2
 70
     0
 43
0.0
 10
431.2159600350623
 20
484.9602087535619
 10
431.2159600350623
 20
477.6624804030253
1001
NC_GG_OF
1000
40
1001
NC_GG_NT
1000
4-1511087
  0
LINE
  5
1CC
330
2
100
AcDbEntity
  8
0A
100
AcDbLine
 10
426.9659600350624
 20
484.9602087535619
 30
0.0
 11
431.2159600350623
 21
484.9602087535619
 31
0.0
1001
NC_GG_OF
1000
40
1001
NC_GG_NT
1000
4-1511087
1001
NC_GG_AK
1000
NC_AK
  0
LINE
  5
1CD
330
2
100
AcDbEntity
  8
0A
100
AcDbLine
 10
431.2159600350623
 20
484.9602087535619
 30
0.0
 11
431.9659600350624
 21
484.2102087535619
 31
0.0
1001
NC_GG_OF
1000
40
1001
NC_GG_NT
1000
4-1511087
1001
NC_GG_AK
1000
NC_AK
  0
ARC
  5
1CE
330
2
100
AcDbEntity
  8
0A
100
AcDbCircle
 10
426.9659600350624
 20
267.7624804030256
 30
0.0
 40
196.9999999999997
100
AcDbArc
 50
81.82876644005025
 51
88.54563622417868
  0
LINE
  5
1CF
330
2
100
AcDbEntity
  8
0A
100
AcDbLine
 10
433.4659600350623
 20
464.6552176992497
 30
0.0
 11
433.4659600350623
 21
466.6552176992497
 31
0.0
  0
LWPOLYLINE
  5
1D0
330
2
100
AcDbEntity
  8
0A
100
AcDbPolyline
 90
        3
 70
     0
 43
0.0
 10
426.9659600350624
 20
469.6624804030253
 42
0.140828634442671
 10
431.8747100350624
 20
471.0730407478528
 42
0.2668881383873844
 10
434.3290850350625
 20
469.6624804030253
 42
0.2668881383873844
1001
NC_GG_OF
1000
60
1001
NC_GG_NT
1000
6-1511087
  0
LWPOLYLINE
  5
1D1
330
2
100
AcDbEntity
  8
0A
100
AcDbPolyline
 90
        3
 70
     0
 43
0.0
 10
434.3290850350625
 20
477.6624804030253
 42
0.2668881383873844
 10
431.8747100350624
 20
476.2519200581976
 42
0.1408286344426721
 10
426.9659600350624
 20
477.6624804030253
1001
NC_GG_OF
1000
60
1001
NC_GG_NT
1000
6-1511087
  0
LWPOLYLINE
  5
1D2
330
2
100
AcDbEntity
  8
0A
100
AcDbPolyline
 90
        2
 70
     0
 43
0.0
 10
431.8747100350624
 20
476.2519200581976
 10
431.8747100350624
 20
471.0730407478528
1001
NC_GG_OF
1000
60
1001
NC_GG_NT
1000
6-1511087
  0
LWPOLYLINE
  5
1D3
330
2
100
AcDbEntity
  8
0A
100
AcDbPolyline
 90
        2
 70
     0
 43
0.0
 10
426.9659600350624
 20
468.7624804030254
 10
426.9659600350624
 20
469.6624804030253
1001
NC_GG_OF
1000
60
1001
NC_GG_NT
1000
10-1511087
  0
LWPOLYLINE
  5
1D4
330
2
100
AcDbEntity
  8
0A
100
AcDbPolyline
 90
        2
 70
     0
 43
0.0
 10
431.4659600350624
 20
468.7624804030254
 10
431.4659600350624
 20
469.6624804030253
1001
NC_GG_OF
1000
60
1001
NC_GG_NT
1000
10-1511087
  0
LWPOLYLINE
  5
1D5
330
2
100
AcDbEntity
  8
0A
100
AcDbPolyline
 90
        2
 70
     0
 43
0.0
 10
433.7159600350624
 20
468.7624804030254
 10
433.7159600350624
 20
469.6624804030253
1001
NC_GG_OF
1000
60
1001
NC_GG_NT
1000
10-1511087
  0
LWPOLYLINE
  5
1D6
330
2
100
AcDbEntity
  8
0A
100
AcDbPolyline
 90
        2
 70
     0
 43
0.0
 10
435.4034600350623
 20
468.7624804030254
 10
435.4034600350623
 20
469.6624804030253
1001
NC_GG_OF
1000
60
1001
NC_GG_NT
1000
10-1511087
  0
LINE
  5
1D7
330
2
100
AcDbEntity
  8
0A
100
AcDbLine
 10
431.9659600350624
 20
462.7624804030253
 30
0.0
 11
454.9659600350623
 21
462.7624804030253
 31
0.0
  0
LINE
  5
1D8
330
2
100
AcDbEntity
  8
0A
100
AcDbLine
 10
458.4659600350623
 20
466.2624804030254
 30
0.0
 11
458.4659600350623
 21
470.7624804030253
 31
0.0
  0
LINE
  5
1D9
330
2
100
AcDbEntity
  8
0A
100
AcDbLine
 10
456.4659600350624
 20
466.2624804030254
 30
0.0
 11
456.4659600350624
 21
470.7624804030253
 31
0.0
  0
HATCH
  5
1E2
330
2
100
AcDbEntity
  8
8
100
AcDbHatch
 10
0.0
 20
0.0
 30
0.0
210
0.0
220
0.0
230
1.0
  2
ANSI31
 70
     0
 71
     0
 91
        2
 92
        7
 72
     1
 73
     1
 93
        9
 10
229.2159600350624
 20
282.1792056201993
 42
0.0
 10
229.2159600350624
 20
294.9602087535623
 42
0.0
 10
227.9659600350624
 20
294.9602087535622
 42
0.0
 10
227.7159600350624
 20
294.9602087535623
 42
0.0
 10
227.7159600350624
 20
282.3817179225691
 42
-0.1105816922850878
 10
224.2159600350624
 20
272.9602087535623
 42
0.0
 10
224.2159600350624
 20
215.9602087535623
 42
0.0
 10
225.7159600350623
 20
215.9602087535623
 42
0.0
 10
225.7159600350624
 20
272.5235008058576
 42
0.1046231198257551
 97
        0
 92
        7
 72
     1
 73
     1
 93
        8
 10
334.7159600350624
 20
272.9602087535623
 42
-0.1105816922850922
 10
331.2159600350624
 20
282.3817179225694
 42
0.0
 10
331.2159600350624
 20
294.9602087535623
 42
0.0
 10
329.7159600350624
 20
294.9602087535623
 42
0.0
 10
329.7159600350624
 20
282.1792056201999
 42
0.1046231198257541
 10
333.2159600350624
 20
272.5235008058577
 42
0.0
 10
333.2159600350624
 20
215.9602087535622
 42
0.0
 10
334.7159600350624
 20
215.9602087535622
 42
0.0
 97
        0
 75
     0
 76
     1
 52
0.0
 41
50.0
 77
     0
 78
     1
 53
45.0
 43
0.0
 44
0.0
 45
-4.419417382415921
 46
4.419417382415922
 79
     0
 47
0.1467361134536489
 98
        2
 10
228.3291118637758
 20
281.5305035425051
 10
334.1833519549991
 20
235.015153616426
  0
LINE
  5
44E
330
2
100
AcDbEntity
  8
0
100
AcDbLine
 10
81.96596003506238
 20
451.9602087535621
 30
0.0
 11
91.96596003506238
 21
451.9602087535622
 31
0.0
  0
HATCH
  5
914
330
2
100
AcDbEntity
  8
8
100
AcDbHatch
 10
0.0
 20
0.0
 30
0.0
210
0.0
220
0.0
230
1.0
  2
_U
 70
     0
 71
     0
 91
        1
 92
        1
 93
        4
 72
     1
 10
129.4659600350567
 20
552.5025267555662
 11
190.9659600350567
 21
552.5025267555662
 72
     1
 10
190.9659600350567
 20
552.5025267555662
 11
190.9659600350567
 21
556.5025267555662
 72
     1
 10
190.9659600350567
 20
556.5025267555662
 11
129.4659600350566
 21
556.5025267555665
 72
     1
 10
129.4659600350566
 20
556.5025267555665
 11
129.4659600350567
 21
552.5025267555662
 97
        0
 75
     0
 76
     0
 52
45.0
 41
7.5
 77
     0
 78
     1
 53
45.0
 43
-145.3947894531584
 44
-601.2591430198746
 45
-5.303300858899106
 46
5.303300858899106
 79
     0
 98
        1
 10
-145.3947894531584
 20
-601.2591430198746
1001
GENIUS_GENODEF_13
1002
{
1000
HIER
1070
     0
1002
}
1002
{
1000
MANEDIT
1070
     0
1002
}
1002
{
1000
NOSEL
1070
     0
1002
}
1002
{
1000
BEHIND
1070
     0
1002
}
1002
{
1000
REACTOR
1002
}
1001
GENIUS_GENOBJ-N-HTC_13
1002
{
1000
OWNER
1000
GEN
1002
}
1001
GENIUS_GENHATCH_13
1002
{
1000
DATA
1040
45.0
1042
2.5
1000
_U
1070
     0
1011
139.9195749846567
1021
554.7104172332982
1031
0.0
1002
}
1002
{
1000
UCS
1010
0.0
1020
0.0
1030
0.0
1010
1.0
1020
0.0
1030
0.0
1010
0.0
1020
1.0
1030
0.0
1002
}
  0
LINE
  5
915
330
2
100
AcDbEntity
  8
0
100
AcDbLine
 10
129.4659600350567
 20
552.5025267555662
 30
0.0
 11
190.9659600350567
 21
552.5025267555662
 31
0.0
  0
LINE
  5
919
330
2
100
AcDbEntity
  8
0
100
AcDbLine
 10
129.4659600350566
 20
556.5025267555665
 30
0.0
 11
190.9659600350567
 21
556.5025267555662
 31
0.0
  0
INSERT
  5
922
330
2
100
AcDbEntity
  8
8
100
AcDbBlockReference
  2
*X3
 10
59.77068326767744
 20
63.15853562424411
 30
0.0
1001
GENIUS_GENODEF_13
1002
{
1000
HIER
1070
     0
1002
}
1002
{
1000
MANEDIT
1070
     0
1002
}
1002
{
1000
NOSEL
1070
     0
1002
}
1002
{
1000
BEHIND
1070
     0
1002
}
1002
{
1000
REACTOR
1002
}
1001
GENIUS_GENOBJ-N-HTC_13
1002
{
1000
OWNER
1000
GEN
1002
}
1001
GENIUS_GENHATCH_13
1002
{
1000
DATA
1040
45.0
1042
2.5
1000
_U
1070
     0
1011
191.8188848251307
1021
571.3575693676665
1031
0.0
1002
}
1002
{
1000
UCS
1010
0.0
1020
0.0
1030
0.0
1010
1.0
1020
0.0
1030
0.0
1010
0.0
1020
1.0
1030
0.0
1002
}
1001
ACAD
1000
HATCH
1002
{
1070
    19
1000
_U
1040
5.0
1040
0.7853981633974483
1070
     0
1002
}
  0
INSERT
  5
923
330
2
100
AcDbEntity
  8
8
100
AcDbBlockReference
  2
*X2
 10
59.77068326767744
 20
63.15853562424411
 30
0.0
1001
GENIUS_GENODEF_13
1002
{
1000
HIER
1070
     0
1002
}
1002
{
1000
MANEDIT
1070
     0
1002
}
1002
{
1000
NOSEL
1070
     0
1002
}
1002
{
1000
BEHIND
1070
     0
1002
}
1002
{
1000
REACTOR
1002
}
1001
GENIUS_GENOBJ-N-HTC_13
1002
{
1000
OWNER
1000
GEN
1002
}
1001
GENIUS_GENHATCH_13
1002
{
1000
DATA
1040
45.0
1042
2.5
1000
_U
1070
     0
1011
181.3267508032497
1021
505.6226928795773
1031
0.0
1002
}
1002
{
1000
UCS
1010
0.0
1020
0.0
1030
0.0
1010
1.0
1020
0.0
1030
0.0
1010
0.0
1020
1.0
1030
0.0
1002
}
1001
ACAD
1000
HATCH
1002
{
1070
    19
1000
_U
1040
5.0
1040
0.7853981633974483
1070
     0
1002
}
  0
LINE
  5
924
330
2
100
AcDbEntity
  8
0
100
AcDbLine
 10
182.5659600350568
 20
575.0025267556212
 30
0.0
 11
189.3659600350568
 21
575.0025267556212
 31
0.0
  0
ARC
  5
925
330
2
100
AcDbEntity
  8
0
100
AcDbCircle
 10
184.9659600350583
 20
534.5025267556212
 30
0.0
 40
4.5
100
AcDbArc
 50
90.0
 51
180.0000000000032
1001
GENIUS_GENODEF_13
1002
{
1000
HIER
1070
     0
1002
}
1002
{
1000
MANEDIT
1070
     0
1002
}
1002
{
1000
NOSEL
1070
     0
1002
}
1002
{
1000
BEHIND
1070
     0
1002
}
1002
{
1000
REACTOR
1002
}
1001
GENIUS_GENOBJ-N-FIL_13
1002
{
1000
OWNER
1000
GEN
1002
}
1001
GENIUS_GENOBJ-N-CEN_13
1002
{
1000
OWNER
1000
GEN
1002
}
  0
ARC
  5
926
330
2
100
AcDbEntity
  8
0
100
AcDbCircle
 10
184.9659600350583
 20
534.5025267556212
 30
0.0
 40
3.0
100
AcDbArc
 50
90.0
 51
180.0000000000032
1001
GENIUS_GENODEF_13
1002
{
1000
HIER
1070
     0
1002
}
1002
{
1000
MANEDIT
1070
     0
1002
}
1002
{
1000
NOSEL
1070
     0
1002
}
1002
{
1000
BEHIND
1070
     0
1002
}
1002
{
1000
REACTOR
1002
}
1001
GENIUS_GENOBJ-N-FIL_13
1002
{
1000
OWNER
1000
GEN
1002
}
1001
GENIUS_GENOBJ-N-CEN_13
1002
{
1000
OWNER
1000
GEN
1002
}
  0
LINE
  5
927
330
2
100
AcDbEntity
  8
0
100
AcDbLine
 10
179.4659600350567
 20
566.5025267556212
 30
0.0
 11
190.9659600350571
 21
566.5025267556215
 31
0.0
  0
LINE
  5
928
330
2
100
AcDbEntity
  8
0
100
AcDbLine
 10
180.4659600350639
 20
391.5025267556213
 30
0.0
 11
378.4659600350638
 21
391.5025267556213
 31
0.0
  0
LINE
  5
929
330
2
100
AcDbEntity
  8
0
100
AcDbLine
 10
182.5659600350568
 20
576.5025267556212
 30
0.0
 11
376.3659600350568
 21
576.5025267556212
 31
0.0
  0
LINE
  5
937
330
2
100
AcDbEntity
  8
0
100
AcDbLine
 10
181.9659600350583
 20
534.5025267556212
 30
0.0
 11
181.965960035064
 21
391.5025267556213
 31
0.0
1001
GENIUS_GENODEF_13
1002
{
1000
HIER
1070
     0
1002
}
1002
{
1000
MANEDIT
1070
     0
1002
}
1002
{
1000
NOSEL
1070
     0
1002
}
1002
{
1000
BEHIND
1070
     0
1002
}
1002
{
1000
REACTOR
1002
}
1001
GENIUS_GENOBJ-N-CEN_13
1002
{
1000
OWNER
1000
GEN
1002
}
  0
LINE
  5
938
330
2
100
AcDbEntity
  8
0
100
AcDbLine
 10
180.4659600350582
 20
534.502526755621
 30
0.0
 11
180.4659600350639
 21
391.5025267556213
 31
0.0
1001
GENIUS_GENODEF_13
1002
{
1000
HIER
1070
     0
1002
}
1002
{
1000
MANEDIT
1070
     0
1002
}
1002
{
1000
NOSEL
1070
     0
1002
}
1002
{
1000
BEHIND
1070
     0
1002
}
1002
{
1000
REACTOR
1002
}
1001
GENIUS_GENOBJ-N-CEN_13
1002
{
1000
OWNER
1000
GEN
1002
}
  0
LINE
  5
95B
330
2
100
AcDbEntity
  8
0
100
AcDbLine
 10
180.4659600350627
 20
423.1279925893203
 30
0.0
 11
179.1274922398449
 21
424.7231163928425
 31
0.0
  0
LINE
  5
95C
330
2
100
AcDbEntity
  8
0
100
AcDbLine
 10
180.4659600350627
 20
423.1279925893203
 30
0.0
 11
179.7960870539846
 21
425.6279925893212
 31
0.0
  0
LINE
  5
95D
330
2
100
AcDbEntity
  8
0
100
AcDbLine
 10
175.4659600350635
 20
423.1279925893203
 30
0.0
 11
180.4659600350627
 21
423.1279925893203
 31
0.0
  0
LINE
  5
95E
330
2
100
AcDbEntity
  8
0
100
AcDbLine
 10
175.4659600350625
 20
433.1279925893203
 30
0.0
 11
180.4659600350624
 21
433.1279925893203
 31
0.0
  0
ARC
  5
95F
330
2
100
AcDbEntity
  8
0
100
AcDbCircle
 10
175.4659600350625
 20
428.1279925893203
 30
0.0
 40
5.0
100
AcDbArc
 50
330.0000000000112
 51
134.4270040008064
  0
LINE
  5
96B
330
2
100
AcDbEntity
  8
4
100
AcDbLine
 10
-55.64246651100711
 20
598.233618680557
 30
0.0
 11
136.9659600350567
 21
598.2336186805574
 31
0.0
  0
LINE
  5
96C
330
2
100
AcDbEntity
  8
0
100
AcDbLine
 10
129.4659600350566
 20
556.5025267555665
 30
0.0
 11
129.4659600350567
 21
552.5025267555662
 31
0.0
  0
LINE
  5
96D
330
2
100
AcDbEntity
  8
0
100
AcDbLine
 10
164.4659600350571
 20
551.0025267555662
 30
0.0
 11
144.4659600350571
 21
551.0025267555662
 31
0.0
  0
LINE
  5
96E
330
2
100
AcDbEntity
  8
0
100
AcDbLine
 10
164.4659600350571
 20
543.4025267555663
 30
0.0
 11
144.4659600350571
 21
543.4025267555663
 31
0.0
  0
LINE
  5
96F
330
2
100
AcDbEntity
  8
0
100
AcDbLine
 10
164.4659600350571
 20
543.4025267555663
 30
0.0
 11
164.4659600350571
 21
552.5025267555662
 31
0.0
  0
LINE
  5
970
330
2
100
AcDbEntity
  8
0
100
AcDbLine
 10
144.4659600350571
 20
543.4025267555663
 30
0.0
 11
144.4659600350571
 21
552.5025267555662
 31
0.0
  0
LINE
  5
971
330
2
100
AcDbEntity
  8
4
100
AcDbLine
 10
136.9659600350567
 20
598.2336186805574
 30
0.0
 11
156.1255475881823
 21
598.233618680557
 31
0.0
  0
LINE
  5
972
330
2
100
AcDbEntity
  8
4
100
AcDbLine
 10
156.1255475881823
 20
598.233618680557
 30
0.0
 11
167.3073599687532
 21
556.5025267555662
 31
0.0
  0
ARC
  5
973
330
2
100
AcDbEntity
  8
0
100
AcDbCircle
 10
182.5659600350568
 20
573.4025267556211
 30
0.0
 40
3.1
100
AcDbArc
 50
90.0
 51
180.0000000000032
1001
GENIUS_GENODEF_13
1002
{
1000
HIER
1070
     0
1002
}
1002
{
1000
MANEDIT
1070
     0
1002
}
1002
{
1000
NOSEL
1070
     0
1002
}
1002
{
1000
BEHIND
1070
     0
1002
}
1002
{
1000
REACTOR
1002
}
1001
GENIUS_GENOBJ-N-FIL_13
1002
{
1000
OWNER
1000
GEN
1002
}
1001
GENIUS_GENOBJ-N-CEN_13
1002
{
1000
OWNER
1000
GEN
1002
}
  0
ARC
  5
974
330
2
100
AcDbEntity
  8
0
100
AcDbCircle
 10
182.5659600350568
 20
573.4025267556211
 30
0.0
 40
1.6
100
AcDbArc
 50
90.0
 51
180.0000000000032
1001
GENIUS_GENODEF_13
1002
{
1000
HIER
1070
     0
1002
}
1002
{
1000
MANEDIT
1070
     0
1002
}
1002
{
1000
NOSEL
1070
     0
1002
}
1002
{
1000
BEHIND
1070
     0
1002
}
1002
{
1000
REACTOR
1002
}
1001
GENIUS_GENOBJ-N-FIL_13
1002
{
1000
OWNER
1000
GEN
1002
}
  0
LINE
  5
975
330
2
100
AcDbEntity
  8
0
100
AcDbLine
 10
180.9659600350568
 20
573.4025267556211
 30
0.0
 11
180.9659600350571
 21
566.5025267556212
 31
0.0
1001
GENIUS_GENODEF_13
1002
{
1000
HIER
1070
     0
1002
}
1002
{
1000
MANEDIT
1070
     0
1002
}
1002
{
1000
NOSEL
1070
     0
1002
}
1002
{
1000
BEHIND
1070
     0
1002
}
1002
{
1000
REACTOR
1002
}
1001
GENIUS_GENOBJ-N-CEN_13
1002
{
1000
OWNER
1000
GEN
1002
}
  0
LINE
  5
976
330
2
100
AcDbEntity
  8
0
100
AcDbLine
 10
179.4659600350568
 20
573.4025267556211
 30
0.0
 11
179.4659600350571
 21
566.5025267556212
 31
0.0
1001
GENIUS_GENODEF_13
1002
{
1000
HIER
1070
     0
1002
}
1002
{
1000
MANEDIT
1070
     0
1002
}
1002
{
1000
NOSEL
1070
     0
1002
}
1002
{
1000
BEHIND
1070
     0
1002
}
1002
{
1000
REACTOR
1002
}
1001
GENIUS_GENOBJ-N-CEN_13
1002
{
1000
OWNER
1000
GEN
1002
}
  0
HATCH
  5
A57
330
2
100
AcDbEntity
  8
8
100
AcDbHatch
 10
0.0
 20
0.0
 30
0.0
210
0.0
220
0.0
230
1.0
  2
_U
 70
     0
 71
     0
 91
        1
 92
        1
 93
        8
 72
     1
 10
373.9659600350583
 20
539.0025267556212
 11
349.4659600350582
 21
539.0025267556212
 72
     1
 10
349.4659600350583
 20
539.0025267556212
 11
349.4659600350583
 21
537.502526755621
 72
     1
 10
349.4659600350583
 20
537.502526755621
 11
373.9659600350585
 21
537.502526755621
 72
     2
 10
373.9659600350583
 20
534.5025267556212
 40
3.0
 50
270.0
 51
359.9999999999978
 73
     0
 72
     1
 10
376.9659600350583
 20
534.5025267556212
 11
376.9659600350636
 21
391.5025267556211
 72
     1
 10
376.9659600350637
 20
391.5025267556213
 11
378.465960035064
 21
391.5025267556213
 72
     1
 10
378.465960035064
 20
391.5025267556213
 11
378.4659600350583
 21
534.5025267556215
 72
     2
 10
373.9659600350583
 20
534.5025267556212
 40
4.5
 50
0.0000000000021713
 51
90.0
 73
     1
 97
        0
 75
     0
 76
     0
 52
45.0
 41
12.5
 77
     0
 78
     1
 53
45.0
 43
72.17864629697579
 44
62.50252675562126
 45
-8.838834764831844
 46
8.838834764831844
 79
     0
 98
        1
 10
72.17864629697579
 20
62.50252675562126
1001
GENIUS_GENODEF_13
1002
{
1000
HIER
1070
     0
1002
}
1002
{
1000
MANEDIT
1070
     0
1002
}
1002
{
1000
NOSEL
1070
     0
1002
}
1002
{
1000
BEHIND
1070
     0
1002
}
1002
{
1000
REACTOR
1002
}
1001
GENIUS_GENOBJ-N-HTC_13
1002
{
1000
OWNER
1000
GEN
1002
}
1001
GENIUS_GENHATCH_13
1002
{
1000
DATA
1040
45.0
1042
2.5
1000
_U
1070
     0
1011
378.065221132973
1021
522.1088814561222
1031
0.0
1002
}
1002
{
1000
UCS
1010
0.0
1020
0.0
1030
0.0
1010
1.0
1020
0.0
1030
0.0
1010
0.0
1020
1.0
1030
0.0
1002
}
  0
LINE
  5
A58
330
2
100
AcDbEntity
  8
0
100
AcDbLine
 10
376.9659600350583
 20
534.5025267556212
 30
0.0
 11
376.9659600350637
 21
391.5025267556213
 31
0.0
1001
GENIUS_GENODEF_13
1002
{
1000
HIER
1070
     0
1002
}
1002
{
1000
MANEDIT
1070
     0
1002
}
1002
{
1000
NOSEL
1070
     0
1002
}
1002
{
1000
BEHIND
1070
     0
1002
}
1002
{
1000
REACTOR
1002
}
1001
GENIUS_GENOBJ-N-CEN_13
1002
{
1000
OWNER
1000
GEN
1002
}
  0
LINE
  5
A59
330
2
100
AcDbEntity
  8
0
100
AcDbLine
 10
378.4659600350583
 20
534.5025267556215
 30
0.0
 11
378.465960035064
 21
391.5025267556213
 31
0.0
1001
GENIUS_GENODEF_13
1002
{
1000
HIER
1070
     0
1002
}
1002
{
1000
MANEDIT
1070
     0
1002
}
1002
{
1000
NOSEL
1070
     0
1002
}
1002
{
1000
BEHIND
1070
     0
1002
}
1002
{
1000
REACTOR
1002
}
1001
GENIUS_GENOBJ-N-CEN_13
1002
{
1000
OWNER
1000
GEN
1002
}
  0
LINE
  5
A5C
330
2
100
AcDbEntity
  8
0
100
AcDbLine
 10
378.4659600350628
 20
423.127992589328
 30
0.0
 11
379.8044278302805
 21
424.7231163928505
 31
0.0
  0
LINE
  5
A5D
330
2
100
AcDbEntity
  8
0
100
AcDbLine
 10
378.4659600350628
 20
423.127992589328
 30
0.0
 11
379.1358330161406
 21
425.627992589329
 31
0.0
  0
LINE
  5
A5E
330
2
100
AcDbEntity
  8
0
100
AcDbLine
 10
383.4659600350621
 20
433.1279925893285
 30
0.0
 11
378.4659600350624
 21
433.127992589328
 31
0.0
  0
LINE
  5
A5F
330
2
100
AcDbEntity
  8
0
100
AcDbLine
 10
383.4659600350619
 20
423.1279925893285
 30
0.0
 11
378.4659600350628
 21
423.127992589328
 31
0.0
  0
ARC
  5
A60
330
2
100
AcDbEntity
  8
0
100
AcDbCircle
 10
383.4659600350626
 20
428.1279925893285
 30
0.0
 40
5.0
100
AcDbArc
 50
222.9198987652633
 51
314.4270040008023
  0
HATCH
  5
A62
330
2
100
AcDbEntity
  8
8
100
AcDbHatch
 10
0.0
 20
0.0
 30
0.0
210
0.0
220
0.0
230
1.0
  2
_U
 70
     0
 71
     0
 91
        1
 92
        1
 93
        4
 72
     1
 10
429.4659600350566
 20
556.5025267555665
 11
367.9659600350567
 21
556.5025267555662
 72
     1
 10
367.9659600350567
 20
556.5025267555662
 11
367.9659600350567
 21
552.5025267555662
 72
     1
 10
367.9659600350567
 20
552.5025267555662
 11
429.4659600350566
 21
552.5025267555662
 72
     1
 10
429.4659600350566
 20
552.5025267555662
 11
429.4659600350566
 21
556.5025267555665
 97
        0
 75
     0
 76
     0
 52
45.0
 41
10.0
 77
     0
 78
     1
 53
45.0
 43
-145.3947894531584
 44
-601.2591430198746
 45
-7.071067811865474
 46
7.071067811865475
 79
     0
 98
        1
 10
-145.3947894531584
 20
-601.2591430198746
1001
GENIUS_GENODEF_13
1002
{
1000
HIER
1070
     0
1002
}
1002
{
1000
MANEDIT
1070
     0
1002
}
1002
{
1000
NOSEL
1070
     0
1002
}
1002
{
1000
BEHIND
1070
     0
1002
}
1002
{
1000
REACTOR
1002
}
1001
GENIUS_GENOBJ-N-HTC_13
1002
{
1000
OWNER
1000
GEN
1002
}
1001
GENIUS_GENHATCH_13
1002
{
1000
DATA
1040
45.0
1042
2.5
1000
_U
1070
     0
1011
382.9347873827673
1021
554.4619553062456
1031
0.0
1002
}
1002
{
1000
UCS
1010
0.0
1020
0.0
1030
0.0
1010
1.0
1020
0.0
1030
0.0
1010
0.0
1020
1.0
1030
0.0
1002
}
  0
LINE
  5
A63
330
2
100
AcDbEntity
  8
0
100
AcDbLine
 10
367.9659600350567
 20
552.5025267555662
 30
0.0
 11
429.4659600350566
 21
552.5025267555662
 31
0.0
  0
LINE
  5
A64
330
2
100
AcDbEntity
  8
0
100
AcDbLine
 10
367.9659600350567
 20
556.5025267555662
 30
0.0
 11
429.4659600350566
 21
556.5025267555665
 31
0.0
  0
ARC
  5
A65
330
2
100
AcDbEntity
  8
0
100
AcDbCircle
 10
358.4659600350578
 20
548.5025267556274
 30
0.0
 40
8.0
100
AcDbArc
 50
270.0000000000065
 51
90.00000000000651
  0
ARC
  5
A66
330
2
100
AcDbEntity
  8
0
100
AcDbCircle
 10
354.4659600350578
 20
548.5025267556271
 30
0.0
 40
8.0
100
AcDbArc
 50
90.00000000000651
 51
270.0000000000065
  0
HATCH
  5
A67
330
2
100
AcDbEntity
  8
8
100
AcDbHatch
 10
0.0
 20
0.0
 30
0.0
210
0.0
220
0.0
230
1.0
  2
_U
 70
     0
 71
     0
 91
        1
 92
        1
 93
        5
 72
     1
 10
355.4659600350581
 20
540.5025267556271
 11
354.4659600350583
 21
540.5025267556271
 72
     2
 10
354.4659600350578
 20
548.5025267556271
 40
8.0
 50
449.9999999999954
 51
629.9999999999954
 73
     0
 72
     1
 10
354.4659600350572
 20
556.5025267556271
 11
358.4659600350572
 21
556.5025267556274
 72
     2
 10
358.4659600350578
 20
548.5025267556274
 40
8.0
 50
269.9999999999954
 51
449.9999999999954
 73
     0
 72
     1
 10
358.4659600350583
 20
540.5025267556274
 11
355.4659600350579
 21
540.5025267556271
 97
        0
 75
     0
 76
     0
 52
45.0
 41
4.599999999999999
 77
     1
 78
     2
 53
45.0
 43
80.89435874885385
 44
60.12653157989018
 45
-3.252691193458118
 46
3.252691193458118
 79
     0
 53
135.0
 43
80.89435874885385
 44
60.12653157989018
 45
-3.252691193458118
 46
-3.252691193458117
 79
     0
 98
        1
 10
486.7532737731781
 20
62.50252675563763
1001
GENIUS_GENODEF_13
1002
{
1000
HIER
1070
     0
1002
}
1002
{
1000
MANEDIT
1070
     0
1002
}
1002
{
1000
NOSEL
1070
     0
1002
}
1002
{
1000
BEHIND
1070
     0
1002
}
1002
{
1000
REACTOR
1002
}
1001
GENIUS_GENOBJ-N-HTC_13
1002
{
1000
OWNER
1000
GEN
1002
}
1001
GENIUS_GENHATCH_13
1002
{
1000
DATA
1040
45.0
1042
2.299999999999999
1000
_U
1070
     1
1011
358.9761614356218
1021
550.1284023473973
1031
0.0
1002
}
1002
{
1000
UCS
1010
0.0
1020
0.0
1030
0.0
1010
1.0
1020
0.0
1030
0.0
1010
0.0
1020
1.0
1030
0.0
1002
}
  0
HATCH
  5
A68
330
2
100
AcDbEntity
  8
8
100
AcDbHatch
 10
0.0
 20
0.0
 30
0.0
210
0.0
220
0.0
230
1.0
  2
_U
 70
     0
 71
     0
 91
        1
 92
        1
 93
        5
 72
     1
 10
203.4659600350581
 20
540.5025267556212
 11
204.4659600350578
 21
540.5025267556212
 72
     2
 10
204.4659600350578
 20
548.5025267556213
 40
8.0
 50
270.0
 51
450.0
 73
     1
 72
     1
 10
204.4659600350578
 20
556.5025267556213
 11
200.4659600350578
 21
556.5025267556213
 72
     2
 10
200.4659600350578
 20
548.5025267556213
 40
8.0
 50
90.0
 51
270.0
 73
     1
 72
     1
 10
200.4659600350578
 20
540.5025267556212
 11
203.4659600350582
 21
540.5025267556212
 97
        0
 75
     0
 76
     0
 52
45.0
 41
5.519999999999999
 77
     1
 78
     2
 53
45.0
 43
80.89435874885385
 44
60.12653157989018
 45
-3.903229432149741
 46
3.903229432149742
 79
     0
 53
135.0
 43
80.89435874885385
 44
60.12653157989018
 45
-3.903229432149742
 46
-3.903229432149741
 79
     0
 98
        1
 10
72.17864629697579
 20
62.50252675562126
1001
GENIUS_GENODEF_13
1002
{
1000
HIER
1070
     0
1002
}
1002
{
1000
MANEDIT
1070
     0
1002
}
1002
{
1000
NOSEL
1070
     0
1002
}
1002
{
1000
BEHIND
1070
     0
1002
}
1002
{
1000
REACTOR
1002
}
1001
GENIUS_GENOBJ-N-HTC_13
1002
{
1000
OWNER
1000
GEN
1002
}
1001
GENIUS_GENHATCH_13
1002
{
1000
DATA
1040
45.0
1042
2.299999999999999
1000
_U
1070
     1
1011
199.9557586344936
1021
550.1284023473909
1031
0.0
1002
}
1002
{
1000
UCS
1010
0.0
1020
0.0
1030
0.0
1010
1.0
1020
0.0
1030
0.0
1010
0.0
1020
1.0
1030
0.0
1002
}
  0
ARC
  5
A69
330
2
100
AcDbEntity
  8
0
100
AcDbCircle
 10
200.4659600350578
 20
548.5025267556213
 30
0.0
 40
8.0
100
AcDbArc
 50
90.0
 51
270.0
  0
ARC
  5
A6A
330
2
100
AcDbEntity
  8
0
100
AcDbCircle
 10
204.4659600350578
 20
548.5025267556213
 30
0.0
 40
8.0
100
AcDbArc
 50
270.0
 51
90.0
  0
INSERT
  5
A6B
330
2
100
AcDbEntity
  8
8
100
AcDbBlockReference
  2
*X4
 10
59.77068326767744
 20
63.15853562424411
 30
0.0
1001
GENIUS_GENODEF_13
1002
{
1000
HIER
1070
     0
1002
}
1002
{
1000
MANEDIT
1070
     0
1002
}
1002
{
1000
NOSEL
1070
     0
1002
}
1002
{
1000
BEHIND
1070
     0
1002
}
1002
{
1000
REACTOR
1002
}
1001
GENIUS_GENOBJ-N-HTC_13
1002
{
1000
OWNER
1000
GEN
1002
}
1001
GENIUS_GENHATCH_13
1002
{
1000
DATA
1040
45.0
1042
2.5
1000
_U
1070
     0
1011
367.1042870296158
1021
566.217650299803
1031
0.0
1002
}
1002
{
1000
UCS
1010
0.0
1020
0.0
1030
0.0
1010
1.0
1020
0.0
1030
0.0
1010
0.0
1020
1.0
1030
0.0
1002
}
1001
ACAD
1000
HATCH
1002
{
1070
    19
1000
_U
1040
5.0
1040
0.7853981633974483
1070
     0
1002
}
  0
LINE
  5
A6C
330
2
100
AcDbEntity
  8
0
100
AcDbLine
 10
367.9659600350567
 20
573.4025267556211
 30
0.0
 11
367.9659600350579
 21
542.1025267556213
 31
0.0
1001
GENIUS_GENODEF_13
1002
{
1000
HIER
1070
     0
1002
}
1002
{
1000
MANEDIT
1070
     0
1002
}
1002
{
1000
NOSEL
1070
     0
1002
}
1002
{
1000
BEHIND
1070
     0
1002
}
1002
{
1000
REACTOR
1002
}
1001
GENIUS_GENOBJ-N-CEN_13
1002
{
1000
OWNER
1000
GEN
1002
}
  0
LINE
  5
A6D
330
2
100
AcDbEntity
  8
0
100
AcDbLine
 10
190.9659600350568
 20
573.4025267556213
 30
0.0
 11
190.965960035058
 21
542.1025267556212
 31
0.0
1001
GENIUS_GENODEF_13
1002
{
1000
HIER
1070
     0
1002
}
1002
{
1000
MANEDIT
1070
     0
1002
}
1002
{
1000
NOSEL
1070
     0
1002
}
1002
{
1000
BEHIND
1070
     0
1002
}
1002
{
1000
REACTOR
1002
}
1001
GENIUS_GENOBJ-N-CEN_13
1002
{
1000
OWNER
1000
GEN
1002
}
  0
LINE
  5
A6E
330
2
100
AcDbEntity
  8
0
100
AcDbLine
 10
192.4659600350568
 20
573.4025267556213
 30
0.0
 11
192.465960035058
 21
542.1025267556212
 31
0.0
1001
GENIUS_GENODEF_13
1002
{
1000
HIER
1070
     0
1002
}
1002
{
1000
MANEDIT
1070
     0
1002
}
1002
{
1000
NOSEL
1070
     0
1002
}
1002
{
1000
BEHIND
1070
     0
1002
}
1002
{
1000
REACTOR
1002
}
1001
GENIUS_GENOBJ-N-CEN_13
1002
{
1000
OWNER
1000
GEN
1002
}
  0
LINE
  5
A6F
330
2
100
AcDbEntity
  8
0
100
AcDbLine
 10
366.4659600350569
 20
573.4025267556211
 30
0.0
 11
366.4659600350581
 21
542.1025267556212
 31
0.0
1001
GENIUS_GENODEF_13
1002
{
1000
HIER
1070
     0
1002
}
1002
{
1000
MANEDIT
1070
     0
1002
}
1002
{
1000
NOSEL
1070
     0
1002
}
1002
{
1000
BEHIND
1070
     0
1002
}
1002
{
1000
REACTOR
1002
}
1001
GENIUS_GENOBJ-N-CEN_13
1002
{
1000
OWNER
1000
GEN
1002
}
  0
LINE
  5
A70
330
2
100
AcDbEntity
  8
0
100
AcDbLine
 10
194.0659600350581
 20
540.5025267556212
 30
0.0
 11
364.8659600350579
 21
540.5025267556212
 31
0.0
1001
GENIUS_GENOREF_13
1005
0
  0
LINE
  5
A71
330
2
100
AcDbEntity
  8
0
100
AcDbLine
 10
184.9659600350583
 20
537.5025267556212
 30
0.0
 11
373.9659600350583
 21
537.5025267556212
 31
0.0
1001
GENIUS_GENOREF_13
1005
0
  0
LINE
  5
A72
330
2
100
AcDbEntity
  8
0
100
AcDbLine
 10
184.9659600350583
 20
539.0025267556212
 30
0.0
 11
373.9659600350583
 21
539.0025267556212
 31
0.0
1001
GENIUS_GENOREF_13
1005
0
  0
ARC
  5
A73
330
2
100
AcDbEntity
  8
0
100
AcDbCircle
 10
194.0659600350581
 20
542.1025267556212
 30
0.0
 40
3.1
100
AcDbArc
 50
180.0000000000032
 51
270.0
1001
GENIUS_GENODEF_13
1002
{
1000
HIER
1070
     0
1002
}
1002
{
1000
MANEDIT
1070
     0
1002
}
1002
{
1000
NOSEL
1070
     0
1002
}
1002
{
1000
BEHIND
1070
     0
1002
}
1002
{
1000
REACTOR
1002
}
1001
GENIUS_GENOBJ-N-FIL_13
1002
{
1000
OWNER
1000
GEN
1002
}
  0
LINE
  5
A74
330
2
100
AcDbEntity
  8
0
100
AcDbLine
 10
203.4659600350581
 20
540.5025267556212
 30
0.0
 11
203.4659600350582
 21
539.002526755621
 31
0.0
1001
GENIUS_GENODEF_13
1002
{
1000
HIER
1070
     0
1002
}
1002
{
1000
MANEDIT
1070
     0
1002
}
1002
{
1000
NOSEL
1070
     0
1002
}
1002
{
1000
BEHIND
1070
     0
1002
}
1002
{
1000
REACTOR
1002
}
1001
GENIUS_GENOBJ-N-CEN_13
1002
{
1000
OWNER
1000
GEN
1002
}
  0
ARC
  5
A75
330
2
100
AcDbEntity
  8
0
100
AcDbCircle
 10
194.0659600350581
 20
542.1025267556212
 30
0.0
 40
1.6
100
AcDbArc
 50
180.0000000000032
 51
270.0
1001
GENIUS_GENODEF_13
1002
{
1000
HIER
1070
     0
1002
}
1002
{
1000
MANEDIT
1070
     0
1002
}
1002
{
1000
NOSEL
1070
     0
1002
}
1002
{
1000
BEHIND
1070
     0
1002
}
1002
{
1000
REACTOR
1002
}
1001
GENIUS_GENOBJ-N-FIL_13
1002
{
1000
OWNER
1000
GEN
1002
}
1001
GENIUS_GENOBJ-N-CEN_13
1002
{
1000
OWNER
1000
GEN
1002
}
  0
LINE
  5
A76
330
2
100
AcDbEntity
  8
0
100
AcDbLine
 10
209.4659600350582
 20
539.0025267556212
 30
0.0
 11
209.4659600350583
 21
537.5025267556212
 31
0.0
1001
GENIUS_GENODEF_13
1002
{
1000
HIER
1070
     0
1002
}
1002
{
1000
MANEDIT
1070
     0
1002
}
1002
{
1000
NOSEL
1070
     0
1002
}
1002
{
1000
BEHIND
1070
     0
1002
}
1002
{
1000
REACTOR
1002
}
1001
GENIUS_GENOBJ-N-CEN_13
1002
{
1000
OWNER
1000
GEN
1002
}
  0
ARC
  5
A77
330
2
100
AcDbEntity
  8
0
100
AcDbCircle
 10
364.8659600350579
 20
542.1025267556212
 30
0.0
 40
3.1
100
AcDbArc
 50
270.0
 51
0.0000000000032569
1001
GENIUS_GENODEF_13
1002
{
1000
HIER
1070
     0
1002
}
1002
{
1000
MANEDIT
1070
     0
1002
}
1002
{
1000
NOSEL
1070
     0
1002
}
1002
{
1000
BEHIND
1070
     0
1002
}
1002
{
1000
REACTOR
1002
}
1001
GENIUS_GENOBJ-N-FIL_13
1002
{
1000
OWNER
1000
GEN
1002
}
  0
LINE
  5
A78
330
2
100
AcDbEntity
  8
0
100
AcDbLine
 10
355.4659600350583
 20
540.5025267556212
 30
0.0
 11
355.4659600350583
 21
539.002526755621
 31
0.0
1001
GENIUS_GENODEF_13
1002
{
1000
HIER
1070
     0
1002
}
1002
{
1000
MANEDIT
1070
     0
1002
}
1002
{
1000
NOSEL
1070
     0
1002
}
1002
{
1000
BEHIND
1070
     0
1002
}
1002
{
1000
REACTOR
1002
}
1001
GENIUS_GENOBJ-N-CEN_13
1002
{
1000
OWNER
1000
GEN
1002
}
  0
ARC
  5
A79
330
2
100
AcDbEntity
  8
0
100
AcDbCircle
 10
364.8659600350579
 20
542.1025267556212
 30
0.0
 40
1.6
100
AcDbArc
 50
270.0
 51
0.0000000000032569
1001
GENIUS_GENODEF_13
1002
{
1000
HIER
1070
     0
1002
}
1002
{
1000
MANEDIT
1070
     0
1002
}
1002
{
1000
NOSEL
1070
     0
1002
}
1002
{
1000
BEHIND
1070
     0
1002
}
1002
{
1000
REACTOR
1002
}
1001
GENIUS_GENOBJ-N-FIL_13
1002
{
1000
OWNER
1000
GEN
1002
}
  0
LINE
  5
A7A
330
2
100
AcDbEntity
  8
0
100
AcDbLine
 10
349.4659600350583
 20
539.0025267556212
 30
0.0
 11
349.4659600350583
 21
537.502526755621
 31
0.0
1001
GENIUS_GENODEF_13
1002
{
1000
HIER
1070
     0
1002
}
1002
{
1000
MANEDIT
1070
     0
1002
}
1002
{
1000
NOSEL
1070
     0
1002
}
1002
{
1000
BEHIND
1070
     0
1002
}
1002
{
1000
REACTOR
1002
}
1001
GENIUS_GENOBJ-N-CEN_13
1002
{
1000
OWNER
1000
GEN
1002
}
1001
GENIUS_GENOREF_13
1005
0
  0
ARC
  5
A7B
330
2
100
AcDbEntity
  8
0
100
AcDbCircle
 10
373.9659600350583
 20
534.5025267556212
 30
0.0
 40
4.5
100
AcDbArc
 50
0.0000000000032569
 51
90.0
1001
GENIUS_GENODEF_13
1002
{
1000
HIER
1070
     0
1002
}
1002
{
1000
MANEDIT
1070
     0
1002
}
1002
{
1000
NOSEL
1070
     0
1002
}
1002
{
1000
BEHIND
1070
     0
1002
}
1002
{
1000
REACTOR
1002
}
1001
GENIUS_GENOBJ-N-FIL_13
1002
{
1000
OWNER
1000
GEN
1002
}
  0
ARC
  5
A7C
330
2
100
AcDbEntity
  8
0
100
AcDbCircle
 10
373.9659600350583
 20
534.5025267556212
 30
0.0
 40
3.0
100
AcDbArc
 50
0.0000000000032569
 51
90.0
1001
GENIUS_GENODEF_13
1002
{
1000
HIER
1070
     0
1002
}
1002
{
1000
MANEDIT
1070
     0
1002
}
1002
{
1000
NOSEL
1070
     0
1002
}
1002
{
1000
BEHIND
1070
     0
1002
}
1002
{
1000
REACTOR
1002
}
1001
GENIUS_GENOBJ-N-FIL_13
1002
{
1000
OWNER
1000
GEN
1002
}
  0
HATCH
  5
A7D
330
2
100
AcDbEntity
  8
8
100
AcDbHatch
 10
0.0
 20
0.0
 30
0.0
210
0.0
220
0.0
230
1.0
  2
_U
 70
     0
 71
     0
 91
        1
 92
        1
 93
       13
 72
     1
 10
196.9659600350573
 20
562.5025267556208
 11
196.9659600350567
 21
576.5025267556212
 72
     1
 10
196.9659600350567
 20
576.5025267556212
 11
193.9659600350567
 21
576.502526755621
 72
     1
 10
193.9659600350567
 20
576.502526755621
 11
193.9659600350573
 21
562.502526755621
 72
     2
 10
199.9659600350573
 20
562.5025267556212
 40
6.0
 50
180.0000000000021
 51
270.0
 73
     1
 72
     1
 10
199.9659600350573
 20
556.5025267556213
 11
358.4659600350578
 21
556.5025267556274
 72
     1
 10
358.4659600350578
 20
556.5025267556274
 11
358.9659600350574
 21
556.5025267556213
 72
     2
 10
358.9659600350574
 20
562.502526755621
 40
5.999999999999772
 50
269.9999999999989
 51
360.0000000000022
 73
     1
 72
     1
 10
364.9659600350574
 20
562.5025267556212
 11
364.9659600350567
 21
576.502526755621
 72
     1
 10
364.9659600350567
 20
576.502526755621
 11
361.9659600350571
 21
576.502526755621
 72
     1
 10
361.9659600350571
 20
576.502526755621
 11
361.9659600350571
 21
562.5025267556212
 72
     2
 10
358.9659600350572
 20
562.502526755621
 40
3.0
 50
359.9999999999957
 51
450.0
 73
     0
 72
     1
 10
358.9659600350572
 20
559.502526755621
 11
199.9659600350573
 21
559.502526755621
 72
     2
 10
199.9659600350573
 20
562.502526755621
 40
3.0
 50
90.0
 51
179.9999999999956
 73
     0
 97
        0
 75
     0
 76
     0
 52
135.0
 41
13.5
 77
     0
 78
     1
 53
135.0
 43
-145.3947894531584
 44
-601.2591430198746
 45
-9.545941546018392
 46
-9.54594154601839
 79
     0
 98
        1
 10
-145.3947894531584
 20
-601.2591430198746
1001
GENIUS_GENODEF_13
1002
{
1000
HIER
1070
     0
1002
}
1002
{
1000
MANEDIT
1070
     0
1002
}
1002
{
1000
NOSEL
1070
     0
1002
}
1002
{
1000
BEHIND
1070
     0
1002
}
1002
{
1000
REACTOR
1002
}
1001
GENIUS_GENOBJ-N-HTC_13
1002
{
1000
OWNER
1000
GEN
1002
}
1001
GENIUS_GENHATCH_13
1002
{
1000
DATA
1040
135.0
1042
2.7
1000
_U
1070
     0
1011
231.7663683611545
1021
558.3877996616628
1031
0.0
1002
}
1002
{
1000
UCS
1010
0.0
1020
0.0
1030
0.0
1010
1.0
1020
0.0
1030
0.0
1010
0.0
1020
1.0
1030
0.0
1002
}
  0
LINE
  5
A7E
330
2
100
AcDbEntity
  8
0
100
AcDbLine
 10
199.9659600350573
 20
559.502526755621
 30
0.0
 11
358.9659600350572
 21
559.502526755621
 31
0.0
  0
LINE
  5
A7F
330
2
100
AcDbEntity
  8
0
100
AcDbLine
 10
199.9659600350573
 20
556.5025267556213
 30
0.0
 11
358.9659600350574
 21
556.5025267556213
 31
0.0
  0
ARC
  5
A80
330
2
100
AcDbEntity
  8
0
100
AcDbCircle
 10
199.9659600350573
 20
562.5025267556212
 30
0.0
 40
6.0
100
AcDbArc
 50
180.0000000000032
 51
270.0
1001
GENIUS_GENOBJ-N-CEN_13
1002
{
1000
OWNER
1000
GEN
1002
}
1001
GENIUS_GENODEF_13
1002
{
1000
HIER
1070
     0
1002
}
1002
{
1000
MANEDIT
1070
     0
1002
}
1002
{
1000
NOSEL
1070
     0
1002
}
1002
{
1000
BEHIND
1070
     0
1002
}
1002
{
1000
REACTOR
1002
}
1001
GENIUS_GENOBJ-N-FIL_13
1002
{
1000
OWNER
1000
GEN
1002
}
  0
ARC
  5
A81
330
2
100
AcDbEntity
  8
0
100
AcDbCircle
 10
199.9659600350573
 20
562.502526755621
 30
0.0
 40
3.0
100
AcDbArc
 50
180.0000000000032
 51
270.0
1001
GENIUS_GENOBJ-N-CEN_13
1002
{
1000
OWNER
1000
GEN
1002
}
1001
GENIUS_GENODEF_13
1002
{
1000
HIER
1070
     0
1002
}
1002
{
1000
MANEDIT
1070
     0
1002
}
1002
{
1000
NOSEL
1070
     0
1002
}
1002
{
1000
BEHIND
1070
     0
1002
}
1002
{
1000
REACTOR
1002
}
1001
GENIUS_GENOBJ-N-FIL_13
1002
{
1000
OWNER
1000
GEN
1002
}
  0
LINE
  5
A82
330
2
100
AcDbEntity
  8
0
100
AcDbLine
 10
196.9659600350567
 20
576.5025267556212
 30
0.0
 11
196.9659600350573
 21
562.502526755621
 31
0.0
1001
GENIUS_GENODEF_13
1002
{
1000
HIER
1070
     0
1002
}
1002
{
1000
MANEDIT
1070
     0
1002
}
1002
{
1000
NOSEL
1070
     0
1002
}
1002
{
1000
BEHIND
1070
     0
1002
}
1002
{
1000
REACTOR
1002
}
1001
GENIUS_GENOBJ-N-CEN_13
1002
{
1000
OWNER
1000
GEN
1002
}
  0
LINE
  5
A83
330
2
100
AcDbEntity
  8
0
100
AcDbLine
 10
193.9659600350567
 20
576.502526755621
 30
0.0
 11
193.9659600350573
 21
562.502526755621
 31
0.0
1001
GENIUS_GENODEF_13
1002
{
1000
HIER
1070
     0
1002
}
1002
{
1000
MANEDIT
1070
     0
1002
}
1002
{
1000
NOSEL
1070
     0
1002
}
1002
{
1000
BEHIND
1070
     0
1002
}
1002
{
1000
REACTOR
1002
}
1001
GENIUS_GENOBJ-N-CEN_13
1002
{
1000
OWNER
1000
GEN
1002
}
  0
ARC
  5
A84
330
2
100
AcDbEntity
  8
0
100
AcDbCircle
 10
189.3659600350568
 20
573.4025267556211
 30
0.0
 40
3.1
100
AcDbArc
 50
0.0000000000032569
 51
90.0
1001
GENIUS_GENODEF_13
1002
{
1000
HIER
1070
     0
1002
}
1002
{
1000
MANEDIT
1070
     0
1002
}
1002
{
1000
NOSEL
1070
     0
1002
}
1002
{
1000
BEHIND
1070
     0
1002
}
1002
{
1000
REACTOR
1002
}
1001
GENIUS_GENOBJ-N-FIL_13
1002
{
1000
OWNER
1000
GEN
1002
}
  0
ARC
  5
A85
330
2
100
AcDbEntity
  8
0
100
AcDbCircle
 10
189.3659600350568
 20
573.4025267556211
 30
0.0
 40
1.6
100
AcDbArc
 50
0.0000000000032569
 51
90.0
1001
GENIUS_GENODEF_13
1002
{
1000
HIER
1070
     0
1002
}
1002
{
1000
MANEDIT
1070
     0
1002
}
1002
{
1000
NOSEL
1070
     0
1002
}
1002
{
1000
BEHIND
1070
     0
1002
}
1002
{
1000
REACTOR
1002
}
1001
GENIUS_GENOBJ-N-FIL_13
1002
{
1000
OWNER
1000
GEN
1002
}
1001
GENIUS_GENOBJ-N-CEN_13
1002
{
1000
OWNER
1000
GEN
1002
}
  0
LINE
  5
A86
330
2
100
AcDbEntity
  8
0
100
AcDbLine
 10
341.9659600349953
 20
576.5025267556212
 30
0.0
 11
341.9659600349953
 21
559.502526755621
 31
0.0
  0
ARC
  5
A87
330
2
100
AcDbEntity
  8
0
100
AcDbCircle
 10
358.9659600350574
 20
562.502526755621
 30
0.0
 40
6.0
100
AcDbArc
 50
270.0
 51
0.0000000000032569
1001
GENIUS_GENOBJ-N-CEN_13
1002
{
1000
OWNER
1000
GEN
1002
}
1001
GENIUS_GENODEF_13
1002
{
1000
HIER
1070
     0
1002
}
1002
{
1000
MANEDIT
1070
     0
1002
}
1002
{
1000
NOSEL
1070
     0
1002
}
1002
{
1000
BEHIND
1070
     0
1002
}
1002
{
1000
REACTOR
1002
}
1001
GENIUS_GENOBJ-N-FIL_13
1002
{
1000
OWNER
1000
GEN
1002
}
  0
ARC
  5
A88
330
2
100
AcDbEntity
  8
0
100
AcDbCircle
 10
358.9659600350572
 20
562.502526755621
 30
0.0
 40
3.0
100
AcDbArc
 50
270.0
 51
0.0000000000032569
1001
GENIUS_GENOBJ-N-CEN_13
1002
{
1000
OWNER
1000
GEN
1002
}
1001
GENIUS_GENODEF_13
1002
{
1000
HIER
1070
     0
1002
}
1002
{
1000
MANEDIT
1070
     0
1002
}
1002
{
1000
NOSEL
1070
     0
1002
}
1002
{
1000
BEHIND
1070
     0
1002
}
1002
{
1000
REACTOR
1002
}
1001
GENIUS_GENOBJ-N-FIL_13
1002
{
1000
OWNER
1000
GEN
1002
}
  0
LINE
  5
A89
330
2
100
AcDbEntity
  8
0
100
AcDbLine
 10
361.9659600350571
 20
576.502526755621
 30
0.0
 11
361.9659600350571
 21
562.5025267556212
 31
0.0
1001
GENIUS_GENODEF_13
1002
{
1000
HIER
1070
     0
1002
}
1002
{
1000
MANEDIT
1070
     0
1002
}
1002
{
1000
NOSEL
1070
     0
1002
}
1002
{
1000
BEHIND
1070
     0
1002
}
1002
{
1000
REACTOR
1002
}
1001
GENIUS_GENOBJ-N-CEN_13
1002
{
1000
OWNER
1000
GEN
1002
}
  0
LINE
  5
A8A
330
2
100
AcDbEntity
  8
0
100
AcDbLine
 10
364.9659600350567
 20
576.502526755621
 30
0.0
 11
364.9659600350574
 21
562.5025267556215
 31
0.0
1001
GENIUS_GENODEF_13
1002
{
1000
HIER
1070
     0
1002
}
1002
{
1000
MANEDIT
1070
     0
1002
}
1002
{
1000
NOSEL
1070
     0
1002
}
1002
{
1000
BEHIND
1070
     0
1002
}
1002
{
1000
REACTOR
1002
}
1001
GENIUS_GENOBJ-N-CEN_13
1002
{
1000
OWNER
1000
GEN
1002
}
  0
LINE
  5
A8B
330
2
100
AcDbEntity
  8
0
100
AcDbLine
 10
367.9659600350569
 20
566.5025267556208
 30
0.0
 11
379.4659600350567
 21
566.5025267556212
 31
0.0
  0
ARC
  5
A8C
330
2
100
AcDbEntity
  8
0
100
AcDbCircle
 10
369.5659600350568
 20
573.4025267556211
 30
0.0
 40
3.1
100
AcDbArc
 50
90.0
 51
180.0000000000032
1001
GENIUS_GENODEF_13
1002
{
1000
HIER
1070
     0
1002
}
1002
{
1000
MANEDIT
1070
     0
1002
}
1002
{
1000
NOSEL
1070
     0
1002
}
1002
{
1000
BEHIND
1070
     0
1002
}
1002
{
1000
REACTOR
1002
}
1001
GENIUS_GENOBJ-N-FIL_13
1002
{
1000
OWNER
1000
GEN
1002
}
1001
GENIUS_GENOBJ-N-CEN_13
1002
{
1000
OWNER
1000
GEN
1002
}
  0
ARC
  5
A8D
330
2
100
AcDbEntity
  8
0
100
AcDbCircle
 10
376.3659600350568
 20
573.4025267556211
 30
0.0
 40
3.1
100
AcDbArc
 50
0.0
 51
90.0
1001
GENIUS_GENODEF_13
1002
{
1000
HIER
1070
     0
1002
}
1002
{
1000
MANEDIT
1070
     0
1002
}
1002
{
1000
NOSEL
1070
     0
1002
}
1002
{
1000
BEHIND
1070
     0
1002
}
1002
{
1000
REACTOR
1002
}
1001
GENIUS_GENOBJ-N-FIL_13
1002
{
1000
OWNER
1000
GEN
1002
}
  0
ARC
  5
A8E
330
2
100
AcDbEntity
  8
0
100
AcDbCircle
 10
376.3659600350566
 20
573.4025267556211
 30
0.0
 40
1.6
100
AcDbArc
 50
0.0
 51
90.0
1001
GENIUS_GENODEF_13
1002
{
1000
HIER
1070
     0
1002
}
1002
{
1000
MANEDIT
1070
     0
1002
}
1002
{
1000
NOSEL
1070
     0
1002
}
1002
{
1000
BEHIND
1070
     0
1002
}
1002
{
1000
REACTOR
1002
}
1001
GENIUS_GENOBJ-N-FIL_13
1002
{
1000
OWNER
1000
GEN
1002
}
1001
GENIUS_GENOBJ-N-CEN_13
1002
{
1000
OWNER
1000
GEN
1002
}
  0
ARC
  5
A8F
330
2
100
AcDbEntity
  8
0
100
AcDbCircle
 10
369.5659600350568
 20
573.4025267556211
 30
0.0
 40
1.6
100
AcDbArc
 50
90.0
 51
180.0000000000032
1001
GENIUS_GENODEF_13
1002
{
1000
HIER
1070
     0
1002
}
1002
{
1000
MANEDIT
1070
     0
1002
}
1002
{
1000
NOSEL
1070
     0
1002
}
1002
{
1000
BEHIND
1070
     0
1002
}
1002
{
1000
REACTOR
1002
}
1001
GENIUS_GENOBJ-N-FIL_13
1002
{
1000
OWNER
1000
GEN
1002
}
1001
GENIUS_GENOBJ-N-CEN_13
1002
{
1000
OWNER
1000
GEN
1002
}
  0
LINE
  5
A90
330
2
100
AcDbEntity
  8
0
100
AcDbLine
 10
369.5659600350568
 20
575.0025267556212
 30
0.0
 11
376.3659600350566
 21
575.0025267556212
 31
0.0
  0
LINE
  5
A91
330
2
100
AcDbEntity
  8
0
100
AcDbLine
 10
377.9659600350567
 20
573.4025267556213
 30
0.0
 11
377.9659600350569
 21
566.502526755621
 31
0.0
1001
GENIUS_GENODEF_13
1002
{
1000
HIER
1070
     0
1002
}
1002
{
1000
MANEDIT
1070
     0
1002
}
1002
{
1000
NOSEL
1070
     0
1002
}
1002
{
1000
BEHIND
1070
     0
1002
}
1002
{
1000
REACTOR
1002
}
1001
GENIUS_GENOBJ-N-CEN_13
1002
{
1000
OWNER
1000
GEN
1002
}
  0
LINE
  5
A92
330
2
100
AcDbEntity
  8
0
100
AcDbLine
 10
379.4659600350569
 20
573.4025267556213
 30
0.0
 11
379.4659600350569
 21
566.5025267556212
 31
0.0
1001
GENIUS_GENODEF_13
1002
{
1000
HIER
1070
     0
1002
}
1002
{
1000
MANEDIT
1070
     0
1002
}
1002
{
1000
NOSEL
1070
     0
1002
}
1002
{
1000
BEHIND
1070
     0
1002
}
1002
{
1000
REACTOR
1002
}
1001
GENIUS_GENOBJ-N-CEN_13
1002
{
1000
OWNER
1000
GEN
1002
}
  0
LINE
  5
A93
330
2
100
AcDbEntity
  8
7
100
AcDbLine
 10
409.4659600350564
 20
561.3459515301356
 30
0.0
 11
409.4659600350564
 21
522.4408583781483
 31
0.0
  0
LINE
  5
A94
330
2
100
AcDbEntity
  8
0
100
AcDbLine
 10
429.4659600350566
 20
556.5025267555665
 30
0.0
 11
429.4659600350566
 21
552.5025267555662
 31
0.0
  0
LINE
  5
A95
330
2
100
AcDbEntity
  8
0
100
AcDbLine
 10
414.3971841255827
 20
543.485332778198
 30
0.0
 11
414.4659600350564
 21
543.5025267555665
 31
0.0
  0
LINE
  5
A96
330
2
100
AcDbEntity
  8
0
100
AcDbLine
 10
414.3971841255827
 20
543.4025267555661
 30
0.0
 11
414.3971841255827
 21
552.502526755566
 31
0.0
  0
LINE
  5
A97
330
2
100
AcDbEntity
  8
0
100
AcDbLine
 10
394.3971841255828
 20
543.4025267555661
 30
0.0
 11
394.3971841255828
 21
552.502526755566
 31
0.0
  0
LINE
  5
A98
330
2
100
AcDbEntity
  8
0
100
AcDbLine
 10
394.3971841255828
 20
543.4025267555661
 30
0.0
 11
414.3971841255827
 21
543.4025267555661
 31
0.0
  0
LINE
  5
A99
330
2
100
AcDbEntity
  8
0
100
AcDbLine
 10
394.3971841255828
 20
551.002526755566
 30
0.0
 11
414.3971841255827
 21
551.002526755566
 31
0.0
  0
LINE
  5
A9A
330
2
100
AcDbEntity
  8
0
100
AcDbLine
 10
414.4659600350564
 20
542.5025267555664
 30
0.0
 11
418.4659600350564
 21
543.5025267555665
 31
0.0
  0
LINE
  5
A9B
330
2
100
AcDbEntity
  8
0
100
AcDbLine
 10
410.4659600350564
 20
542.5025267555664
 30
0.0
 11
414.065960035055
 21
543.4025267555661
 31
0.0
  0
LINE
  5
A9C
330
2
100
AcDbEntity
  8
0
100
AcDbLine
 10
406.4659600350564
 20
542.5025267555664
 30
0.0
 11
410.0659600350549
 21
543.4025267555661
 31
0.0
  0
LINE
  5
A9D
330
2
100
AcDbEntity
  8
0
100
AcDbLine
 10
402.4659600350564
 20
542.5025267555664
 30
0.0
 11
406.0659600350568
 21
543.4025267555665
 31
0.0
  0
LINE
  5
A9E
330
2
100
AcDbEntity
  8
0
100
AcDbLine
 10
398.4659600350565
 20
542.5025267555664
 30
0.0
 11
402.0659600350568
 21
543.4025267555665
 31
0.0
  0
LINE
  5
A9F
330
2
100
AcDbEntity
  8
0
100
AcDbLine
 10
414.4659600350564
 20
544.5025267555664
 30
0.0
 11
418.4659600350564
 21
545.5025267555664
 31
0.0
  0
LINE
  5
AA0
330
2
100
AcDbEntity
  8
0
100
AcDbLine
 10
414.3971841255827
 20
545.4853327781981
 30
0.0
 11
414.4659600350564
 21
545.5025267555664
 31
0.0
  0
ELLIPSE
  5
AA1
330
2
100
AcDbEntity
  8
0
100
AcDbEllipse
 10
416.9659600350565
 20
534.5025267555664
 30
0.0
 11
-2.5
 21
0.0
 31
0.0
210
0.0
220
0.0
230
-1.0
 40
0.3999999999999772
 41
3.141592653589793
 42
6.283185307179586
  0
ELLIPSE
  5
AA2
330
2
100
AcDbEntity
  8
0
100
AcDbEllipse
 10
409.4659600350564
 20
534.5025267555662
 30
0.0
 11
-5.0
 21
-0.0000000000001705
 31
0.0
210
0.0
220
0.0
230
-1.0
 40
0.1999999999999772
 41
3.141592653589793
 42
6.283185307179586
  0
ELLIPSE
  5
AA3
330
2
100
AcDbEntity
  8
0
100
AcDbEllipse
 10
401.9659600350564
 20
534.5025267555664
 30
0.0
 11
-2.5
 21
-0.0000000000000568
 31
0.0
210
0.0
220
0.0
230
-1.0
 40
0.4000000000000228
 41
3.141592653589793
 42
6.283185307179643
  0
ELLIPSE
  5
AA4
330
2
100
AcDbEntity
  8
0
100
AcDbEllipse
 10
401.9659600350564
 20
539.5025267555665
 30
0.0
 11
-2.5
 21
0.0000000000000568
 31
0.0
210
0.0
220
0.0
230
1.0
 40
0.4000000000000228
 41
3.141592653589793
 42
6.283185307179643
  0
ELLIPSE
  5
AA5
330
2
100
AcDbEntity
  8
0
100
AcDbEllipse
 10
416.9659600350565
 20
539.5025267555665
 30
0.0
 11
-2.5
 21
0.0
 31
0.0
210
0.0
220
0.0
230
1.0
 40
0.3999999999999772
 41
3.141592653589793
 42
6.283185307179586
  0
ELLIPSE
  5
AA6
330
2
100
AcDbEntity
  8
0
100
AcDbEllipse
 10
409.4659600350564
 20
539.5025267555666
 30
0.0
 11
-5.0
 21
0.0000000000001705
 31
0.0
210
0.0
220
0.0
230
1.0
 40
0.1999999999999772
 41
3.141592653589793
 42
6.283185307179586
  0
LINE
  5
AA7
330
2
100
AcDbEntity
  8
0
100
AcDbLine
 10
416.9659600350565
 20
533.5025267555664
 30
0.0
 11
401.9659600350562
 21
533.5025267555664
 31
0.0
  0
LINE
  5
AA8
330
2
100
AcDbEntity
  8
0
100
AcDbLine
 10
418.4659600350564
 20
544.5025267555664
 30
0.0
 11
420.4659600350565
 21
545.5025267555664
 31
0.0
  0
LINE
  5
AA9
330
2
100
AcDbEntity
  8
0
100
AcDbLine
 10
420.4659600350565
 20
542.5025267555664
 30
0.0
 11
420.4659600350565
 21
545.5025267555664
 31
0.0
  0
LINE
  5
AAA
330
2
100
AcDbEntity
  8
0
100
AcDbLine
 10
418.4659600350564
 20
542.5025267555664
 30
0.0
 11
420.4659600350565
 21
543.5025267555665
 31
0.0
  0
LINE
  5
AAB
330
2
100
AcDbEntity
  8
0
100
AcDbLine
 10
418.4659600350564
 20
542.5025267555664
 30
0.0
 11
418.4659600350564
 21
545.5025267555664
 31
0.0
  0
LINE
  5
AAC
330
2
100
AcDbEntity
  8
0
100
AcDbLine
 10
414.4659600350564
 20
542.5025267555664
 30
0.0
 11
414.4659600350564
 21
545.5025267555664
 31
0.0
  0
LINE
  5
AAD
330
2
100
AcDbEntity
  8
0
100
AcDbLine
 10
410.4659600350564
 20
542.5025267555664
 30
0.0
 11
410.4659600350564
 21
543.4025267555661
 31
0.0
  0
LINE
  5
AAE
330
2
100
AcDbEntity
  8
0
100
AcDbLine
 10
406.4659600350564
 20
542.5025267555664
 30
0.0
 11
406.4659600350562
 21
543.4025267555665
 31
0.0
  0
LINE
  5
AAF
330
2
100
AcDbEntity
  8
0
100
AcDbLine
 10
402.4659600350564
 20
542.5025267555664
 30
0.0
 11
402.4659600350564
 21
543.4025267555665
 31
0.0
  0
LINE
  5
AB0
330
2
100
AcDbEntity
  8
0
100
AcDbLine
 10
405.4659600350564
 20
533.5025267555664
 30
0.0
 11
405.4659600350564
 21
528.5025267555664
 31
0.0
  0
LINE
  5
AB1
330
2
100
AcDbEntity
  8
4
100
AcDbLine
 10
406.4659600350564
 20
533.5025267555664
 30
0.0
 11
406.4659600350564
 21
527.5025267555665
 31
0.0
  0
LINE
  5
AB2
330
2
100
AcDbEntity
  8
0
100
AcDbLine
 10
398.4659600350565
 20
542.5025267555664
 30
0.0
 11
398.4659600350565
 21
543.4025267555665
 31
0.0
  0
LINE
  5
AB3
330
2
100
AcDbEntity
  8
0
100
AcDbLine
 10
420.4659600350565
 20
540.5025267555664
 30
0.0
 11
419.4659600350564
 21
540.5025267555664
 31
0.0
  0
LINE
  5
AB4
330
2
100
AcDbEntity
  8
0
100
AcDbLine
 10
420.4659600350565
 20
542.5025267555664
 30
0.0
 11
420.4659600350565
 21
540.5025267555664
 31
0.0
  0
LINE
  5
AB5
330
2
100
AcDbEntity
  8
0
100
AcDbLine
 10
398.4659600350565
 20
542.5025267555664
 30
0.0
 11
420.4659600350565
 21
542.5025267555664
 31
0.0
  0
LINE
  5
AB6
330
2
100
AcDbEntity
  8
0
100
AcDbLine
 10
398.4659600350565
 20
540.5025267555664
 30
0.0
 11
398.4659600350565
 21
542.5025267555664
 31
0.0
  0
LINE
  5
AB7
330
2
100
AcDbEntity
  8
0
100
AcDbLine
 10
399.4659600350565
 20
540.5025267555664
 30
0.0
 11
398.4659600350565
 21
540.5025267555664
 31
0.0
  0
LINE
  5
AB8
330
2
100
AcDbEntity
  8
0
100
AcDbLine
 10
414.4659600350564
 20
539.5025267555659
 30
0.0
 11
414.4659600350564
 21
534.5025267555668
 31
0.0
  0
LINE
  5
AB9
330
2
100
AcDbEntity
  8
0
100
AcDbLine
 10
404.4659600350565
 20
539.5025267555666
 30
0.0
 11
404.4659600350565
 21
534.5025267555662
 31
0.0
  0
LINE
  5
ABA
330
2
100
AcDbEntity
  8
0
100
AcDbLine
 10
419.4659600350564
 20
539.5025267555666
 30
0.0
 11
419.4659600350564
 21
534.5025267555662
 31
0.0
  0
LINE
  5
ABB
330
2
100
AcDbEntity
  8
0
100
AcDbLine
 10
399.4659600350565
 20
540.5025267555664
 30
0.0
 11
419.4659600350564
 21
540.5025267555664
 31
0.0
  0
LINE
  5
ABC
330
2
100
AcDbEntity
  8
0
100
AcDbLine
 10
399.4659600350565
 20
534.5025267555664
 30
0.0
 11
399.4659600350565
 21
539.5025267555665
 31
0.0
  0
LINE
  5
ABD
330
2
100
AcDbEntity
  8
0
100
AcDbLine
 10
412.4659600350565
 20
527.5025267555665
 30
0.0
 11
413.4659600350564
 21
528.5025267555664
 31
0.0
  0
LINE
  5
ABE
330
2
100
AcDbEntity
  8
0
100
AcDbLine
 10
405.4659600350564
 20
528.5025267555664
 30
0.0
 11
406.4659600350564
 21
527.5025267555665
 31
0.0
  0
LINE
  5
ABF
330
2
100
AcDbEntity
  8
4
100
AcDbLine
 10
405.4659600350564
 20
528.5025267555664
 30
0.0
 11
413.4659600350564
 21
528.5025267555664
 31
0.0
  0
LINE
  5
AC0
330
2
100
AcDbEntity
  8
4
100
AcDbLine
 10
412.4659600350565
 20
527.5025267555665
 30
0.0
 11
412.4659600350565
 21
533.5025267555664
 31
0.0
  0
LINE
  5
AC1
330
2
100
AcDbEntity
  8
0
100
AcDbLine
 10
413.4659600350564
 20
528.5025267555664
 30
0.0
 11
413.4659600350564
 21
533.5025267555664
 31
0.0
  0
LINE
  5
AC2
330
2
100
AcDbEntity
  8
0
100
AcDbLine
 10
406.4659600350564
 20
527.5025267555665
 30
0.0
 11
412.4659600350565
 21
527.5025267555665
 31
0.0
  0
MTEXT
  5
AC3
330
2
100
AcDbEntity
  8
0
 62
     2
100
AcDbMText
 10
-48.28127059432699
 20
651.0524883244372
 30
0.0
 40
17.5
 41
215.6658121080136
 71
     1
 72
     5
  1
Oberfläche \Pbes
 73
     1
 44
1.0
1001
ACAD
1000
MTEXTBEGIN
1070
    73
1070
     1
1070
    44
1040
1.0
1070
    74
1070
     0
1000
MTEXTEND
  0
LINE
  5
B9A
330
2
100
AcDbEntity
  8
0A
100
AcDbLine
 10
180.4659600350605
 20
476.7624804030252
 30
0.0
 11
167.8045848100682
 21
476.7624804030252
 31
0.0
1001
NC_GG_OF
1000
60
1001
NC_GG_NT
1000
6-1511087
1001
NC_GG_AK
1000
NC_AK
  0
ARC
  5
B9B
330
2
100
AcDbEntity
  8
0A
100
AcDbCircle
 10
182.5308348100684
 20
473.9218939806113
 30
0.0
 40
2.840586422413934
100
AcDbArc
 50
136.6286779101752
 51
149.7730538808542
1001
NC_GG_OF
1000
60
1001
NC_GG_NT
1000
6-1511087
  0
LINE
  5
B9E
330
2
100
AcDbEntity
  8
0A
100
AcDbLine
 10
378.4659600350607
 20
476.7624804030252
 30
0.0
 11
391.127335260057
 21
476.7624804030252
 31
0.0
1001
NC_GG_OF
1000
60
1001
NC_GG_NT
1000
6-1511087
1001
NC_GG_AK
1000
NC_AK
  0
LINE
  5
B9F
330
2
100
AcDbEntity
  8
0A
100
AcDbLine
 10
378.4659600350608
 20
470.7624804030245
 30
0.0
 11
417.3579987093346
 21
470.7624804030245
 31
0.0
  0
DIMENSION
  5
E39
330
2
100
AcDbEntity
  8
5
100
AcDbDimension
  2
*D5
 10
479.4659600350623
 20
576.502526755621
 30
0.0
 11
479.4659600350622
 21
612.3775267556212
 31
0.0
 70
   160
  1
<>
 71
     5
 42
17.0
  3
GEN-ISO
100
AcDbAlignedDimension
 13
358.9659600350627
 23
559.502526755621
 33
0.0
 14
376.3659600350623
 24
576.502526755621
 34
0.0
 50
90.0
100
AcDbRotatedDimension
1001
ACAD
1000
DSTYLE
1002
{
1070
    40
1040
5.0
1002
}
1001
GENIUS_GENDTOL_13
1000

1000
h7
1000

1040
0.0
1000
<>
1001
GENIUS_GENOBJ-N-DIMBR_13
1002
{
1000
OWNER
1000
GEN
1002
}
1001
GENIUS_DIMBR_14
1000
2BAA
1001
GENIUS_DIMBRX_14
1000
50A0
1001
GENIUS_GENODEF_13
1002
{
1000
HIER
1070
     0
1002
}
1002
{
1000
MANEDIT
1070
     0
1002
}
1002
{
1000
NOSEL
1070
     0
1002
}
1002
{
1000
BEHIND
1070
     0
1002
}
1002
{
1000
REACTOR
1002
}
1001
GENIUS_GENOBJ-N-DIMBRX_13
1002
{
1000
OWNER
1000
GEN
1002
}
  0
DIMENSION
  5
E3B
330
2
100
AcDbEntity
  8
5
100
AcDbDimension
  2
*D6
 10
129.4659600350622
 20
726.7318714156902
 30
0.0
 11
274.2548895128613
 21
726.7318714156902
 31
0.0
 70
   160
  1
{\Fgeniso.shx;\U+25A1} <>
 71
     5
 42
300.0
  3
GEN-ISO
100
AcDbAlignedDimension
 13
429.4659600350622
 23
552.5025267555662
 33
0.0
 14
129.4659600350622
 24
552.5025267555655
 34
0.0
100
AcDbRotatedDimension
1001
ACAD
1000
DSTYLE
1002
{
1070
    40
1040
5.0
1002
}
1001
GENIUS_GENDTOL_13
1000

1000
h7
1000

1040
0.0
1000
{\Fgeniso.shx;\U+25A1} <>
1001
GENIUS_DIMBRX_14
1000
977F
1000
50A0
1000
2CAB
1000
2BA9
1001
GENIUS_GENODEF_13
1002
{
1000
HIER
1070
     0
1002
}
1002
{
1000
MANEDIT
1070
     0
1002
}
1002
{
1000
NOSEL
1070
     0
1002
}
1002
{
1000
BEHIND
1070
     0
1002
}
1002
{
1000
REACTOR
1002
}
1001
GENIUS_GENOBJ-N-DIMBRX_13
1002
{
1000
OWNER
1000
GEN
1002
}
  0
DIMENSION
  5
E3C
330
2
100
AcDbEntity
  8
5
100
AcDbDimension
  2
*D7
 10
529.4659600350623
 20
576.502526755621
 30
0.0
 11
529.4659600350622
 21
614.3566114012904
 31
0.0
 70
   160
  1
<>
 71
     5
 42
20.0000000000548
  3
GEN-ISO
100
AcDbAlignedDimension
 13
425.4659600350622
 23
556.5025267555662
 33
0.0
 14
376.4659600350429
 24
576.502526755621
 34
0.0
 50
90.0
100
AcDbRotatedDimension
1001
ACAD
1000
DSTYLE
1002
{
1070
    40
1040
5.0
1002
}
1001
GENIUS_GENDTOL_13
1000

1000
h7
1000

1040
0.0
1000
<>
1001
GENIUS_DIMBRX_14
1000
50A0
1000
2CD4
1001
GENIUS_GENOBJ-N-DIMBRX_13
1002
{
1000
OWNER
1000
GEN
1002
}
1001
GENIUS_GENODEF_13
1002
{
1000
HIER
1070
     0
1002
}
1002
{
1000
MANEDIT
1070
     0
1002
}
1002
{
1000
NOSEL
1070
     0
1002
}
1002
{
1000
BEHIND
1070
     0
1002
}
1002
{
1000
REACTOR
1002
}
1001
GENIUS_GENOBJ-N-DIMBR_13
1002
{
1000
OWNER
1000
GEN
1002
}
1001
GENIUS_DIMBR_14
1000
9C25
1000
2BAA
  0
DIMENSION
  5
E3D
330
2
100
AcDbEntity
  8
5
100
AcDbDimension
  2
*D8
 10
179.4659600350625
 20
676.5025267556212
 30
0.0
 11
279.4659600350624
 21
688.2542491965661
 31
0.0
 70
    32
  1
{\Fgeniso.shx;\U+25A1} <>
 71
     5
 42
199.9999999999999
  3
GEN-ISO
100
AcDbAlignedDimension
 13
379.4659600350624
 23
573.4025267556213
 33
0.0
 14
179.4659600350625
 24
571.7625420442244
 34
0.0
100
AcDbRotatedDimension
1001
ACAD
1000
DSTYLE
1002
{
1070
    40
1040
5.0
1002
}
1001
GENIUS_GENDTOL_13
1000

1000
h7
1000

1040
0.0
1000
{\Fgeniso.shx;\U+25A1} <>
  0
DIMENSION
  5
E3E
330
2
100
AcDbEntity
  8
5
100
AcDbDimension
  2
*D9
 10
194.4659600350622
 20
626.5025277556214
 30
0.0
 11
279.4659600350623
 21
638.2525277556213
 31
0.0
 70
    32
  1
{\Fgeniso.shx;\U+25A1} 171
 71
     5
 42
170.0
  3
GEN-ISO
100
AcDbAlignedDimension
 13
364.4659600350623
 23
576.5025267556212
 33
0.0
 14
194.4659600350622
 24
576.5025267556146
 34
0.0
100
AcDbRotatedDimension
1001
ACAD
1000
DSTYLE
1002
{
1070
    40
1040
5.0
1002
}
1001
GENIUS_GENDTOL_13
1000

1000
h7
1000

1040
0.0
1000
{\Fgeniso.shx;\U+25A1} 171
  0
DIMENSION
  5
E4B
330
2
100
AcDbEntity
  8
5
100
AcDbDimension
  2
*D10
 10
378.4659600350695
 20
357.9355977492235
 30
0.0
 11
321.08553032755
 21
357.9355977492235
 31
0.0
 70
   160
  1
%%c <>
 71
     5
 42
198.0
  3
GEN-ISO
100
AcDbAlignedDimension
 13
180.4659600350695
 23
391.5025267556213
 33
0.0
 14
378.4659600350695
 24
391.5025267556213
 34
0.0
100
AcDbRotatedDimension
1001
GENIUS_GENDTOL_13
1000

1000
h7
1000

1040
0.0
1001
ACAD
1000
DSTYLE
1002
{
1070
    40
1040
5.0
1002
}
  0
LINE
  5
E96
330
2
100
AcDbEntity
  8
4
100
AcDbLine
 10
-55.64246651100154
 20
598.233618680557
 30
0.0
 11
121.9659600350622
 21
598.2336186805572
 31
0.0
  0
LINE
  5
E9C
330
2
100
AcDbEntity
  8
4
100
AcDbLine
 10
136.9659600350622
 20
598.2336186805574
 30
0.0
 11
156.1255475881879
 21
598.233618680557
 31
0.0
  0
LINE
  5
E9D
330
2
100
AcDbEntity
  8
4
100
AcDbLine
 10
156.1255475881879
 20
598.233618680557
 30
0.0
 11
167.3073599687587
 21
556.5025267555662
 31
0.0
  0
DIMENSION
  5
F81
330
2
100
AcDbEntity
  8
5
100
AcDbDimension
  2
*D11
 10
579.7243424213494
 20
391.5025267556212
 30
0.0
 11
579.7243424213493
 21
476.8565286002894
 31
0.0
 70
   160
  1
<>
 71
     5
 42
185.0
  3
GEN-ISO
100
AcDbAlignedDimension
 13
375.1247756668269
 23
576.5025267556212
 33
0.0
 14
378.4659600350694
 24
391.5025267556213
 34
0.0
 50
90.0
100
AcDbRotatedDimension
1001
GENIUS_GENDTOL_13
1000

1000
h7
1000

1040
0.0
1000
<>
1001
GENIUS_GENODEF_13
1002
{
1000
HIER
1070
     0
1002
}
1002
{
1000
MANEDIT
1070
     0
1002
}
1002
{
1000
NOSEL
1070
     0
1002
}
1002
{
1000
BEHIND
1070
     0
1002
}
1002
{
1000
REACTOR
1002
}
1001
GENIUS_GENOBJ-N-DIMBR_13
1002
{
1000
OWNER
1000
GEN
1002
}
1001
GENIUS_DIMBR_14
1000
2BAA
1001
ACAD
1000
DSTYLE
1002
{
1070
    40
1040
5.0
1002
}
  0
MTEXT
  5
FEE
330
2
100
AcDbEntity
  8
0
 62
     2
100
AcDbMText
 10
-48.28127059432143
 20
651.0524883244372
 30
0.0
 40
17.5
 41
215.6658121080136
 71
     1
 72
     5
  1
\Pbeschichtet
 73
     1
 44
1.0
1001
ACAD
1000
MTEXTBEGIN
1070
    73
1070
     1
1070
    44
1040
1.0
1070
    74
1070
     0
1000
MTEXTEND
  0
DIMENSION
  5
1111
330
2
100
AcDbEntity
  8
5
100
AcDbDimension
  2
*D12
 10
71.9659600350624
 20
776.0446442645973
 30
0.0
 11
279.4659600350624
 21
776.0446442645973
 31
0.0
 70
   160
  1
%%c <>
 71
     5
 42
415.0
  3
GEN-ISO
100
AcDbAlignedDimension
 13
486.9659600350623
 23
450.9602087535621
 33
0.0
 14
71.96596003506238
 24
450.9602087535621
 34
0.0
100
AcDbRotatedDimension
1001
ACAD
1000
DSTYLE
1002
{
1070
    40
1040
5.0
1002
}
1001
GENIUS_GENDTOL_13
1000

1000
h7
1000

1040
0.0
1000
{\Fgeniso.shx;\U+25A1} <>
1001
GENIUS_DIMBRX_14
1000
977F
1000
50A0
1000
2CAB
1000
2BA9
1001
GENIUS_GENODEF_13
1002
{
1000
HIER
1070
     0
1002
}
1002
{
1000
MANEDIT
1070
     0
1002
}
1002
{
1000
NOSEL
1070
     0
1002
}
1002
{
1000
BEHIND
1070
     0
1002
}
1002
{
1000
REACTOR
1002
}
1001
GENIUS_GENOBJ-N-DIMBRX_13
1002
{
1000
OWNER
1000
GEN
1002
}
  0
ARC
  5
117C
330
2
100
AcDbEntity
  8
0
100
AcDbCircle
 10
175.4659600350625
 20
428.1279925893203
 30
0.0
 40
5.0
100
AcDbArc
 50
225.5729959991931
 51
317.080101234739
  0
HATCH
  5
1184
330
2
100
AcDbEntity
  8
8
100
AcDbHatch
 10
0.0
 20
0.0
 30
0.0
210
0.0
220
0.0
230
1.0
  2
_U
 70
     0
 71
     0
 91
        1
 92
        1
 93
        5
 72
     2
 10
175.4659600350624
 20
428.1279925893203
 40
4.999999999999995
 50
225.5729959991938
 51
317.0801012347392
 73
     1
 72
     1
 10
179.1274922398448
 20
424.7231163928424
 11
180.4659600350627
 21
423.1279925893203
 72
     1
 10
180.4659600350627
 20
423.1279925893203
 11
179.7960870539851
 21
425.6279925893212
 72
     2
 10
175.4659600350625
 20
428.1279925893203
 40
4.999999999999984
 50
330.0000000000112
 51
494.4270040008064
 73
     1
 72
     1
 10
171.9659600350624
 20
431.6987068035917
 11
171.9659600350624
 21
424.5572783750489
 97
        0
 75
     0
 76
     0
 52
45.0
 41
3.679999999999999
 77
     1
 78
     2
 53
45.0
 43
0.0
 44
0.0
 45
-2.602152954766494
 46
2.602152954766494
 79
     0
 53
135.0
 43
0.0
 44
0.0
 45
-2.602152954766494
 46
-2.602152954766494
 79
     0
 98
        1
 10
0.0
 20
0.0
1001
GENIUS_GENOBJ-N-HTC_13
1002
{
1000
OWNER
1000
GEN
1002
}
1001
GENIUS_GENODEF_13
1002
{
1000
HIER
1070
     0
1002
}
1002
{
1000
MANEDIT
1070
     0
1002
}
1002
{
1000
NOSEL
1070
     0
1002
}
1002
{
1000
BEHIND
1070
     0
1002
}
1002
{
1000
OTHER
1070
     0
1002
}
1002
{
1000
REACTOR
1002
}
1001
GENIUS_GENHATCH_13
1002
{
1000
DATA
1040
45.0
1042
2.299999999999999
1000
_U
1070
     1
1011
176.6018446838311
1021
429.595604103092
1031
0.0
1002
}
1002
{
1000
UCS
1010
0.0
1020
0.0
1030
0.0
1010
1.0
1020
0.0
1030
0.0
1010
0.0
1020
1.0
1030
0.0
1002
}
  0
ARC
  5
1185
330
2
100
AcDbEntity
  8
0
100
AcDbCircle
 10
383.4659600350626
 20
428.1279925893285
 30
0.0
 40
5.0
100
AcDbArc
 50
45.57299599919771
 51
209.9999999999917
  0
HATCH
  5
118A
330
2
100
AcDbEntity
  8
8
100
AcDbHatch
 10
0.0
 20
0.0
 30
0.0
210
0.0
220
0.0
230
1.0
  2
_U
 70
     0
 71
     0
 91
        1
 92
        1
 93
        5
 72
     1
 10
379.1358330161401
 20
425.6279925893291
 11
378.4659600350628
 21
423.127992589328
 72
     1
 10
378.4659600350628
 20
423.127992589328
 11
379.8044278302805
 21
424.7231163928505
 72
     2
 10
383.4659600350627
 20
428.1279925893285
 40
4.999999999999942
 50
222.9198987652633
 51
314.4270040008014
 73
     1
 72
     1
 10
386.9659600350624
 20
424.5572783750568
 11
386.9659600350624
 21
431.6987068036001
 72
     2
 10
383.4659600350626
 20
428.1279925893285
 40
5.000000000000019
 50
45.57299599919815
 51
209.9999999999917
 73
     1
 97
        0
 75
     0
 76
     0
 52
45.0
 41
3.679999999999999
 77
     1
 78
     2
 53
45.0
 43
0.0
 44
0.0
 45
-2.602152954766494
 46
2.602152954766494
 79
     0
 53
135.0
 43
0.0
 44
0.0
 45
-2.602152954766494
 46
-2.602152954766494
 79
     0
 98
        1
 10
0.0
 20
0.0
1001
GENIUS_GENOBJ-N-HTC_13
1002
{
1000
OWNER
1000
GEN
1002
}
1001
GENIUS_GENODEF_13
1002
{
1000
HIER
1070
     0
1002
}
1002
{
1000
MANEDIT
1070
     0
1002
}
1002
{
1000
NOSEL
1070
     0
1002
}
1002
{
1000
BEHIND
1070
     0
1002
}
1002
{
1000
OTHER
1070
     0
1002
}
1002
{
1000
REACTOR
1002
}
1001
GENIUS_GENHATCH_13
1002
{
1000
DATA
1040
45.0
1042
2.299999999999999
1000
_U
1070
     1
1011
384.8971261091526
1021
426.2582045250821
1031
0.0
1002
}
1002
{
1000
UCS
1010
0.0
1020
0.0
1030
0.0
1010
1.0
1020
0.0
1030
0.0
1010
0.0
1020
1.0
1030
0.0
1002
}
  0
MTEXT
  5
11DD
330
2
100
AcDbEntity
  8
0
100
AcDbMText
 10
225.913532539764
 20
207.1696568113791
 30
0.0
 40
10.0
 41
91.95351805827568
 71
     1
 72
     5
  1
DN 100
 73
     1
 44
1.0
1001
ACAD
1000
MTEXTBEGIN
1070
    73
1070
     1
1070
    44
1040
1.0
1070
    74
1070
     0
1000
MTEXTEND
  0
DIMENSION
  5
11DE
330
2
100
AcDbEntity
  8
5
100
AcDbDimension
  2
*D13
 10
8.361471983401383
 20
450.9602087535621
 30
0.0
 11
8.361471983401315
 21
520.7344354491858
 31
0.0
 70
   160
  1
50 - 130
 71
     5
 42
125.5423180020591
  3
GEN-ISO
100
AcDbAlignedDimension
 13
182.5659600350568
 23
576.5025267556212
 33
0.0
 14
71.96596003506238
 24
450.9602087535621
 34
0.0
 50
90.0
100
AcDbRotatedDimension
1001
ACAD
1000
DSTYLE
1002
{
1070
    40
1040
5.0
1002
}
1001
GENIUS_GENODEF_13
1002
{
1000
HIER
1070
     0
1002
}
1002
{
1000
MANEDIT
1070
     0
1002
}
1002
{
1000
NOSEL
1070
     0
1002
}
1002
{
1000
BEHIND
1070
     0
1002
}
1002
{
1000
REACTOR
1002
}
1001
GENIUS_GENOBJ-N-DIMBR_13
1002
{
1000
OWNER
1000
GEN
1002
}
1001
GENIUS_DIMBR_14
1000
2BAA
  0
DIMENSION
  5
11DF
330
2
100
AcDbEntity
  8
5
100
AcDbDimension
  2
*D14
 10
8.361471983401342
 20
215.9602087535623
 30
0.0
 11
8.361471983401315
 21
348.3347429198627
 31
0.0
 70
   160
  1
<>
 71
     5
 42
234.9999999999999
  3
GEN-ISO
100
AcDbAlignedDimension
 13
71.96596003506238
 23
450.9602087535621
 33
0.0
 14
224.2159600350623
 24
215.9602087535622
 34
0.0
 50
90.0
100
AcDbRotatedDimension
1001
ACAD
1000
DSTYLE
1002
{
1070
    40
1040
5.0
1002
}
1001
GENIUS_GENODEF_13
1002
{
1000
HIER
1070
     0
1002
}
1002
{
1000
MANEDIT
1070
     0
1002
}
1002
{
1000
NOSEL
1070
     0
1002
}
1002
{
1000
BEHIND
1070
     0
1002
}
1002
{
1000
REACTOR
1002
}
1001
GENIUS_GENOBJ-N-DIMBR_13
1002
{
1000
OWNER
1000
GEN
1002
}
1001
GENIUS_DIMBR_14
1000
2BAA
  0
DIMENSION
  5
11E0
330
2
100
AcDbEntity
  8
5
100
AcDbDimension
  2
*D15
 10
172.9728236894791
 20
215.9602087535623
 30
0.0
 11
161.2228236894791
 21
262.9602087535623
 31
0.0
 70
    32
  1
<>
 71
     5
 42
93.99999999999991
  3
GEN-ISO
100
AcDbAlignedDimension
 13
217.7684812886817
 23
309.9602087535622
 33
0.0
 14
224.2159600350623
 24
215.9602087535623
 34
0.0
 50
90.0
100
AcDbRotatedDimension
1001
ACAD
1000
DSTYLE
1002
{
1070
    40
1040
5.0
1002
}
  0
ENDSEC
  0
SECTION
  2
OBJECTS
  0
DICTIONARY
  5
8
330
0
100
AcDbDictionary
281
     1
  3
ACAD_2007HEADERVARS_RT
350
12E2
  3
ACAD_COLOR
350
24
  3
ACAD_GROUP
350
20
  3
ACAD_LAYOUT
350
C
  3
ACAD_MATERIAL
350
23
  3
ACAD_MLEADERSTYLE
350
12B9
  3
ACAD_MLINESTYLE
350
21
  3
ACAD_PLOTSETTINGS
350
22
  3
ACAD_PLOTSTYLENAME
350
7
  3
ACAD_SCALELIST
350
12A7
  3
ACAD_TABLESTYLE
350
25
  3
ACAD_VISUALSTYLE
350
1296
  3
ACDB_RECOMPOSE_DATA
350
12E0
  3
AcDbVariableDictionary
350
506
  3
AcmDictionary
350
4AB
  3
AMG
350
49D
  3
AMGSNAPSETTINGS
350
549
  3
DWGPROPS
350
12E1
  0
DICTIONARY
  5
1180
330
11
100
AcDbDictionary
280
     1
281
     1
  3
AMLAYER_GROUPCOLORS
360
1181
  0
DICTIONARY
  5
3
330
2
100
AcDbDictionary
280
     1
281
     1
  3
ACAD_SORTENTS
360
B84
  0
DICTIONARY
  5
12E9
330
10B1
100
AcDbDictionary
280
     1
281
     1
  3
ACAD_MTEXT_RT
360
12EA
  0
DICTIONARY
  5
12EB
330
10C5
100
AcDbDictionary
280
     1
281
     1
  3
ACAD_MTEXT_RT
360
12EC
  0
DICTIONARY
  5
12ED
330
10CE
100
AcDbDictionary
280
     1
281
     1
  3
ACAD_MTEXT_RT
360
12EE
  0
DICTIONARY
  5
12E2
102
{ACAD_REACTORS
330
8
102
}
330
8
100
AcDbDictionary
281
     1
  3
DIMJOGANG
350
12E3
  0
DICTIONARY
  5
24
102
{ACAD_REACTORS
330
8
102
}
330
8
100
AcDbDictionary
281
     1
  0
DICTIONARY
  5
20
102
{ACAD_REACTORS
330
8
102
}
330
8
100
AcDbDictionary
281
     1
  0
DICTIONARY
  5
C
102
{ACAD_REACTORS
330
8
102
}
330
8
100
AcDbDictionary
281
     1
  3
Layout1
350
10
  3
Model
350
B
  0
DICTIONARY
  5
23
102
{ACAD_REACTORS
330
8
102
}
330
8
100
AcDbDictionary
281
     1
  3
ByBlock
350
1286
  3
ByLayer
350
127E
  3
Global
350
128E
  0
DICTIONARY
  5
12B9
102
{ACAD_REACTORS
330
8
102
}
330
8
100
AcDbDictionary
281
     1
  3
Standard
350
12BA
  0
DICTIONARY
  5
21
102
{ACAD_REACTORS
330
8
102
}
330
8
100
AcDbDictionary
281
     1
  3
STANDARD
350
26
  0
DICTIONARY
  5
22
102
{ACAD_REACTORS
330
8
102
}
330
8
100
AcDbDictionary
281
     1
  0
ACDBDICTIONARYWDFLT
  5
7
102
{ACAD_REACTORS
330
8
102
}
330
8
100
AcDbDictionary
281
     1
  3
Normal
350
6
100
AcDbDictionaryWithDefault
340
6
  0
DICTIONARY
  5
12A7
102
{ACAD_REACTORS
330
8
102
}
330
8
100
AcDbDictionary
281
     1
  3
A0
350
12A8
  3
A1
350
12A9
  3
A2
350
12AA
  3
A3
350
12AB
  3
A4
350
12AC
  3
A5
350
12AD
  3
A6
350
12AE
  3
A7
350
12AF
  3
A8
350
12B0
  3
A9
350
12B1
  3
B0
350
12B2
  3
B1
350
12B3
  3
B2
350
12B4
  3
B3
350
12B5
  3
B4
350
12B6
  3
B5
350
12B7
  3
B6
350
12B8
  0
DICTIONARY
  5
25
102
{ACAD_REACTORS
330
8
102
}
330
8
100
AcDbDictionary
281
     1
  3
Standard
350
27
  0
DICTIONARY
  5
1296
102
{ACAD_REACTORS
330
8
102
}
330
8
100
AcDbDictionary
281
     1
  3
2dWireframe
350
129C
  3
3D Hidden
350
129E
  3
3dWireframe
350
129D
  3
Basic
350
129B
  3
Brighten
350
12A2
  3
ColorChange
350
12A6
  3
Conceptual
350
129F
  3
Dim
350
12A1
  3
Facepattern
350
12A5
  3
Flat
350
1297
  3
FlatWithEdges
350
1298
  3
Gouraud
350
1299
  3
GouraudWithEdges
350
129A
  3
Linepattern
350
12A4
  3
Realistic
350
12A0
  3
Thicken
350
12A3
  0
XRECORD
  5
12E0
102
{ACAD_REACTORS
330
8
102
}
330
8
100
AcDbXrecord
280
     1
 90
        1
330
27
  0
DICTIONARY
  5
506
102
{ACAD_REACTORS
330
8
102
}
330
8
100
AcDbDictionary
281
     1
  3
CANNOSCALE
350
12DB
  3
CMLEADERSTYLE
350
12DA
  3
CTABLESTYLE
350
507
  3
DIMASSOC
350
557
  3
HIDETEXT
350
556
  3
INDEXCTL
350
12DD
  3
PROJECTNAME
350
558
  3
SORTENTS
350
12DC
  0
DICTIONARY
  5
4AB
102
{ACAD_REACTORS
330
8
102
}
330
8
100
AcDbDictionary
281
     1
  3
AcmStdDictionary
350
4AC
  3
AMDTSECTSYM_ARROWCOLOR
350
53E
  0
DICTIONARY
  5
49D
102
{ACAD_REACTORS
330
8
102
}
330
8
100
AcDbDictionary
281
     1
  0
DICTIONARY
  5
549
102
{ACAD_REACTORS
330
8
102
}
330
8
100
AcDbDictionary
281
     1
  0
XRECORD
  5
12E1
102
{ACAD_REACTORS
330
8
102
}
330
8
100
AcDbXrecord
280
     1
  1
DWGPROPS COOKIE
  2

  3

  4

  6

  7

  8
cschlotzhauer
  9

300
=
301
=
302
=
303
=
304
=
305
=
306
=
307
=
308
=
309
=
 40
0.7930414236111111
 41
2450359.224152511
 42
2455223.592302546
  1

 90
        0
  0
DICTIONARY
  5
1181
102
{ACAD_REACTORS
330
1180
102
}
330
1180
100
AcDbDictionary
280
     1
281
     1
  0
SORTENTSTABLE
  5
B84
102
{ACAD_REACTORS
330
3
102
}
330
3
100
AcDbSortentsTable
330
2
331
174
  5
178
331
EE
  5
F0
331
12D
  5
12F
331
1B3
  5
1B9
331
17C
  5
181
331
97
  5
97
331
F6
  5
F8
331
135
  5
137
331
1BB
  5
1C1
331
A99
  5
AA3
331
13D
  5
13F
331
1C3
  5
1C9
331
FE
  5
102
331
A62
  5
A6C
331
AA1
  5
AAB
331
117C
  5
972
331
106
  5
108
331
18C
  5
190
331
A6A
  5
A74
331
AA9
  5
AB3
331
1184
  5
1186
331
A72
  5
A7C
331
50
  5
50
331
1CB
  5
1D1
331
145
  5
147
331
10E
  5
110
331
194
  5
198
331
1D3
  5
1D9
331
D7
  5
D7
331
19C
  5
1A0
331
70
  5
70
331
95B
  5
96C
331
A7A
  5
A84
331
AB1
  5
ABB
331
DF
  5
E1
331
914
  5
925
331
96B
  5
973
331
A82
  5
A8C
331
AB9
  5
AC3
331
16D
  5
172
331
E7
  5
E9
331
126
  5
128
331
1AC
  5
1B1
331
973
  5
A5C
331
A8A
  5
A94
331
AC1
  5
E3B
331
924
  5
937
331
A92
  5
A9C
331
175
  5
179
331
EF
  5
F1
331
12E
  5
130
331
1B4
  5
1BA
331
17D
  5
186
331
136
  5
138
331
F7
  5
F9
331
1BC
  5
1C2
331
A9A
  5
AA4
331
13E
  5
140
331
1C4
  5
1CA
331
A63
  5
A6D
331
AA2
  5
AAC
331
E39
  5
E3E
331
107
  5
109
331
18D
  5
191
331
A6B
  5
A75
331
AAA
  5
AB4
331
1185
  5
A6A
331
A73
  5
A7D
331
41
  5
41
331
98
  5
98
331
51
  5
51
331
1CC
  5
1D2
331
146
  5
148
331
10F
  5
111
331
195
  5
199
331
1D4
  5
1E2
331
14E
  5
16C
331
D8
  5
D8
331
117
  5
119
331
19D
  5
1A1
331
71
  5
71
331
95C
  5
96D
331
A7B
  5
A85
331
AB2
  5
ABC
331
E0
  5
E3
331
11F
  5
121
331
1A5
  5
1AA
331
915
  5
926
331
96C
  5
974
331
A83
  5
A8D
331
ABA
  5
B7F
331
F81
  5
117C
331
16E
  5
173
331
127
  5
129
331
1AD
  5
1B2
331
974
  5
A5D
331
A8B
  5
A95
331
AC2
  5
E3C
331
925
  5
938
331
A93
  5
A9D
331
E8
  5
EB
331
176
  5
17A
331
12F
  5
131
331
F0
  5
F2
331
1B5
  5
1BB
331
1BD
  5
1C3
331
17E
  5
187
331
F8
  5
FC
331
137
  5
139
331
A5C
  5
A64
331
A9B
  5
AA5
331
A64
  5
A6E
331
AA3
  5
AAD
331
B9A
  5
14E
331
186
  5
18A
331
1C5
  5
1CB
331
13F
  5
141
331
100
  5
106
331
A6C
  5
A76
331
AAB
  5
AB5
331
18E
  5
192
331
A74
  5
A7E
331
42
  5
42
331
99
  5
99
331
108
  5
10A
331
52
  5
52
331
1CD
  5
1D3
331
147
  5
14B
331
110
  5
112
331
196
  5
19A
331
95D
  5
96E
331
A7C
  5
A86
331
AB3
  5
ABD
331
1D5
  5
44E
331
14F
  5
16D
331
D9
  5
D9
331
118
  5
11A
331
19E
  5
1A2
331
72
  5
72
331
96D
  5
975
331
A84
  5
A8E
331
ABB
  5
B92
331
E1
  5
E4
331
120
  5
122
331
1A6
  5
1AB
331
975
  5
A5E
331
A8C
  5
A96
331
AC3
  5
E3D
331
16F
  5
174
331
1AE
  5
1B3
331
926
  5
95A
331
A94
  5
A9E
331
E9
  5
EC
331
128
  5
12A
331
130
  5
132
331
F1
  5
F4
331
177
  5
17B
331
1B6
  5
1BC
331
A5D
  5
A65
331
A9C
  5
AA6
331
138
  5
13A
331
F9
  5
FD
331
1BE
  5
1C4
331
A65
  5
A6F
331
AA4
  5
AAE
331
B9B
  5
151
331
1C6
  5
1CC
331
187
  5
18B
331
E3B
  5
E4B
331
A6D
  5
A77
331
AAC
  5
AB6
331
18F
  5
193
331
E4B
  5
F81
331
A75
  5
A7F
331
140
  5
142
331
109
  5
10B
331
9A
  5
9A
331
1CE
  5
1D4
331
197
  5
19B
331
111
  5
117
331
6B
  5
6B
331
A7D
  5
A87
331
AB4
  5
ABE
331
1D6
  5
914
331
150
  5
16E
331
119
  5
11B
331
19F
  5
1A3
331
73
  5
73
331
95E
  5
96F
331
A85
  5
A8F
331
ABC
  5
B9A
331
121
  5
123
331
1A7
  5
1AC
331
96E
  5
976
331
A8D
  5
A97
331
976
  5
A5F
331
A95
  5
A9F
331
927
  5
95B
331
170
  5
175
331
129
  5
12B
331
1B7
  5
1BD
331
178
  5
17C
331
F2
  5
F5
331
131
  5
133
331
A9D
  5
AA7
331
1BF
  5
1C5
331
139
  5
13B
331
180
  5
188
331
A5E
  5
A66
331
AA5
  5
AAF
331
44E
  5
924
331
1C7
  5
1CD
331
102
  5
107
331
188
  5
18C
331
937
  5
95E
331
A66
  5
A70
331
A6E
  5
A78
331
AAD
  5
AB7
331
E3C
  5
E96
331
A76
  5
A80
331
141
  5
143
331
9B
  5
9B
331
10A
  5
10C
331
190
  5
194
331
1CF
  5
1D5
331
198
  5
19C
331
112
  5
118
331
A7E
  5
A88
331
AB5
  5
ABF
331
1D7
  5
915
331
151
  5
16F
331
11A
  5
11D
331
1A0
  5
1A4
331
95F
  5
970
331
A86
  5
A90
331
ABD
  5
B9B
331
E3
  5
E5
331
122
  5
124
331
1A8
  5
1AD
331
96F
  5
A57
331
E9C
  5
1111
331
A8E
  5
A98
331
1111
  5
1185
331
A96
  5
AA0
331
A57
  5
A60
331
EB
  5
ED
331
12A
  5
12C
331
179
  5
17D
331
132
  5
134
331
1B8
  5
1BE
331
928
  5
95C
331
A9E
  5
AA8
331
1C0
  5
1C6
331
13A
  5
13C
331
181
  5
189
331
A5F
  5
A67
331
AA6
  5
AB0
331
189
  5
18D
331
938
  5
95F
331
A67
  5
A71
331
A6F
  5
A79
331
AAE
  5
AB8
331
E3D
  5
E9C
331
A77
  5
A81
331
1C8
  5
1CE
331
142
  5
144
331
9C
  5
9C
331
10B
  5
10D
331
191
  5
195
331
55
  5
55
331
1D0
  5
1D6
331
14A
  5
14D
331
199
  5
19D
331
A7F
  5
A89
331
AB6
  5
AC0
331
1D8
  5
919
331
11B
  5
11F
331
1A1
  5
1A5
331
75
  5
75
331
A87
  5
A91
331
ABE
  5
B9C
331
E4
  5
E6
331
123
  5
125
331
1A9
  5
1AE
331
919
  5
927
331
970
  5
A58
331
E9D
  5
117B
331
A8F
  5
A99
331
A97
  5
AA1
331
172
  5
176
331
EC
  5
EE
331
12B
  5
12D
331
1B1
  5
1B6
331
17A
  5
17E
331
95
  5
95
331
F4
  5
F6
331
133
  5
135
331
1B9
  5
1BF
331
929
  5
95D
331
A58
  5
A62
331
A9F
  5
AA9
331
1C1
  5
1C7
331
13B
  5
13D
331
FC
  5
FE
331
A60
  5
A68
331
A68
  5
A72
331
AA7
  5
AB1
331
B9E
  5
1A9
331
18A
  5
18E
331
A70
  5
A7A
331
AAF
  5
AB9
331
E3E
  5
E9D
331
118A
  5
1189
331
1C9
  5
1CF
331
143
  5
145
331
9D
  5
9D
331
10C
  5
10E
331
192
  5
196
331
A78
  5
A82
331
1D1
  5
1D7
331
19A
  5
19E
331
A80
  5
A8A
331
AB7
  5
AC1
331
1D9
  5
922
331
DD
  5
DF
331
1A2
  5
1A6
331
76
  5
76
331
E96
  5
FEE
331
A88
  5
A92
331
ABF
  5
B9D
331
E5
  5
E7
331
124
  5
126
331
1AA
  5
1AF
331
971
  5
A59
331
A90
  5
A9A
331
922
  5
928
331
FEE
  5
1182
331
173
  5
177
331
ED
  5
EF
331
12C
  5
12E
331
1B2
  5
1B8
331
A98
  5
AA2
331
17B
  5
180
331
134
  5
136
331
96
  5
96
331
F5
  5
F7
331
1BA
  5
1C0
331
A59
  5
A63
331
AA0
  5
AAA
331
13C
  5
13E
331
1C2
  5
1C8
331
FD
  5
100
331
B9F
  5
DE
331
18B
  5
18F
331
A69
  5
A73
331
AA8
  5
AB2
331
A71
  5
A7B
331
1CA
  5
1D0
331
144
  5
146
331
9E
  5
9E
331
10D
  5
10F
331
193
  5
197
331
1D2
  5
1D8
331
D6
  5
D6
331
14C
  5
150
331
19B
  5
19F
331
A79
  5
A83
331
AB0
  5
ABA
331
DE
  5
E0
331
11D
  5
120
331
1A3
  5
1A7
331
77
  5
77
331
A81
  5
A8B
331
AB8
  5
AC2
331
1E2
  5
923
331
16C
  5
170
331
E6
  5
E8
331
125
  5
127
331
1AB
  5
1B0
331
972
  5
A5A
331
A89
  5
A93
331
AC0
  5
E39
331
923
  5
929
331
A91
  5
A9B
  0
XRECORD
  5
12EA
102
{ACAD_REACTORS
330
12E9
102
}
330
12E9
100
AcDbXrecord
280
     1
 40
24972.0
  1
{\Fgeniso.shx;\U+25A1} 300
  0
XRECORD
  5
12EC
102
{ACAD_REACTORS
330
12EB
102
}
330
12EB
100
AcDbXrecord
280
     1
 40
24948.0
  1
{\Fgeniso.shx;\U+25A1} 200
  0
XRECORD
  5
12EE
102
{ACAD_REACTORS
330
12ED
102
}
330
12ED
100
AcDbXrecord
280
     1
 40
25125.0
  1
{\Fgeniso.shx;\U+25A1} 171
  0
XRECORD
  5
12E3
102
{ACAD_REACTORS
330
12E2
102
}
330
12E2
100
AcDbXrecord
280
     1
 40
1.570796326794896
  0
LAYOUT
  5
10
102
{ACAD_XDICTIONARY
360
12E6
102
}
102
{ACAD_REACTORS
330
C
102
}
330
C
100
AcDbPlotSettings
  1

  2
C:\Programme\Acadm 2000i\plotters\PH36.pc3
  4

  6

 40
0.0
 41
0.0
 42
0.0
 43
0.0
 44
0.0
 45
0.0
 46
0.0
 47
0.0
 48
0.0
 49
0.0
140
0.0
141
0.0
142
1.0
143
1.0
 70
   688
 72
     0
 73
     0
 74
     5
  7
monochrome.ctb
 75
    16
147
1.0
148
0.0
149
0.0
100
AcDbLayout
  1
Layout1
 70
     1
 71
     1
 10
0.0
 20
0.0
 11
12.0
 21
9.0
 12
0.0
 22
0.0
 32
0.0
 14
1.000000000000000E+20
 24
1.000000000000000E+20
 34
1.000000000000000E+20
 15
-1.000000000000000E+20
 25
-1.000000000000000E+20
 35
-1.000000000000000E+20
146
0.0
 13
0.0
 23
0.0
 33
0.0
 16
1.0
 26
0.0
 36
0.0
 17
0.0
 27
1.0
 37
0.0
 76
     0
330
D
  0
LAYOUT
  5
B
102
{ACAD_XDICTIONARY
360
12E4
102
}
102
{ACAD_REACTORS
330
C
102
}
330
C
100
AcDbPlotSettings
  1

  2
C:\Programme\Acadm 2000i\plotters\PH36.pc3
  4

  6

 40
0.0
 41
0.0
 42
0.0
 43
0.0
 44
0.0
 45
0.0
 46
0.0
 47
0.0
 48
0.0
 49
0.0
140
0.0
141
0.0
142
1.0
143
1.0
 70
  1712
 72
     0
 73
     0
 74
     0
  7
monochrome.ctb
 75
     0
147
1.0
148
0.0
149
0.0
100
AcDbLayout
  1
Model
 70
     1
 71
     0
 10
0.0
 20
0.0
 11
12.0
 21
9.0
 12
0.0
 22
0.0
 32
0.0
 14
0.0
 24
0.0
 34
0.0
 15
0.0
 25
0.0
 35
0.0
146
0.0
 13
0.0
 23
0.0
 33
0.0
 16
1.0
 26
0.0
 36
0.0
 17
0.0
 27
1.0
 37
0.0
 76
     0
330
2
331
127C
  0
MATERIAL
  5
1286
102
{ACAD_XDICTIONARY
360
1287
102
}
102
{ACAD_REACTORS
330
23
102
}
330
23
100
AcDbMaterial
  1
ByBlock
 72
     0
 43
0.0208333333333333
 43
0.0
 43
0.0
 43
0.0
 43
0.0
 43
0.0208333333333333
 43
0.0
 43
0.0
 43
0.0
 43
0.0
 43
1.0
 43
0.0
 43
0.0
 43
0.0
 43
0.0
 43
1.0
 77
     0
 47
0.0208333333333333
 47
0.0
 47
0.0
 47
0.0
 47
0.0
 47
0.0208333333333333
 47
0.0
 47
0.0
 47
0.0
 47
0.0
 47
1.0
 47
0.0
 47
0.0
 47
0.0
 47
0.0
 47
1.0
171
     0
 49
0.0208333333333333
 49
0.0
 49
0.0
 49
0.0
 49
0.0
 49
0.0208333333333333
 49
0.0
 49
0.0
 49
0.0
 49
0.0
 49
1.0
 49
0.0
 49
0.0
 49
0.0
 49
0.0
 49
1.0
175
     0
142
0.0208333333333333
142
0.0
142
0.0
142
0.0
142
0.0
142
0.0208333333333333
142
0.0
142
0.0
142
0.0
142
0.0
142
1.0
142
0.0
142
0.0
142
0.0
142
0.0
142
1.0
179
     0
144
0.0208333333333333
144
0.0
144
0.0
144
0.0
144
0.0
144
0.0208333333333333
144
0.0
144
0.0
144
0.0
144
0.0
144
1.0
144
0.0
144
0.0
144
0.0
144
0.0
144
1.0
147
0.0208333333333333
147
0.0
147
0.0
147
0.0
147
0.0
147
0.0208333333333333
147
0.0
147
0.0
147
0.0
147
0.0
147
1.0
147
0.0
147
0.0
147
0.0
147
0.0
147
1.0
  0
MATERIAL
  5
127E
102
{ACAD_XDICTIONARY
360
127F
102
}
102
{ACAD_REACTORS
330
23
102
}
330
23
100
AcDbMaterial
  1
ByLayer
 72
     0
 43
0.0208333333333333
 43
0.0
 43
0.0
 43
0.0
 43
0.0
 43
0.0208333333333333
 43
0.0
 43
0.0
 43
0.0
 43
0.0
 43
1.0
 43
0.0
 43
0.0
 43
0.0
 43
0.0
 43
1.0
 77
     0
 47
0.0208333333333333
 47
0.0
 47
0.0
 47
0.0
 47
0.0
 47
0.0208333333333333
 47
0.0
 47
0.0
 47
0.0
 47
0.0
 47
1.0
 47
0.0
 47
0.0
 47
0.0
 47
0.0
 47
1.0
171
     0
 49
0.0208333333333333
 49
0.0
 49
0.0
 49
0.0
 49
0.0
 49
0.0208333333333333
 49
0.0
 49
0.0
 49
0.0
 49
0.0
 49
1.0
 49
0.0
 49
0.0
 49
0.0
 49
0.0
 49
1.0
175
     0
142
0.0208333333333333
142
0.0
142
0.0
142
0.0
142
0.0
142
0.0208333333333333
142
0.0
142
0.0
142
0.0
142
0.0
142
1.0
142
0.0
142
0.0
142
0.0
142
0.0
142
1.0
179
     0
144
0.0208333333333333
144
0.0
144
0.0
144
0.0
144
0.0
144
0.0208333333333333
144
0.0
144
0.0
144
0.0
144
0.0
144
1.0
144
0.0
144
0.0
144
0.0
144
0.0
144
1.0
147
0.0208333333333333
147
0.0
147
0.0
147
0.0
147
0.0
147
0.0208333333333333
147
0.0
147
0.0
147
0.0
147
0.0
147
1.0
147
0.0
147
0.0
147
0.0
147
0.0
147
1.0
  0
MATERIAL
  5
128E
102
{ACAD_XDICTIONARY
360
128F
102
}
102
{ACAD_REACTORS
330
23
102
}
330
23
100
AcDbMaterial
  1
Global
 72
     0
 43
0.0208333333333333
 43
0.0
 43
0.0
 43
0.0
 43
0.0
 43
0.0208333333333333
 43
0.0
 43
0.0
 43
0.0
 43
0.0
 43
1.0
 43
0.0
 43
0.0
 43
0.0
 43
0.0
 43
1.0
 77
     0
 47
0.0208333333333333
 47
0.0
 47
0.0
 47
0.0
 47
0.0
 47
0.0208333333333333
 47
0.0
 47
0.0
 47
0.0
 47
0.0
 47
1.0
 47
0.0
 47
0.0
 47
0.0
 47
0.0
 47
1.0
171
     0
 49
0.0208333333333333
 49
0.0
 49
0.0
 49
0.0
 49
0.0
 49
0.0208333333333333
 49
0.0
 49
0.0
 49
0.0
 49
0.0
 49
1.0
 49
0.0
 49
0.0
 49
0.0
 49
0.0
 49
1.0
175
     0
142
0.0208333333333333
142
0.0
142
0.0
142
0.0
142
0.0
142
0.0208333333333333
142
0.0
142
0.0
142
0.0
142
0.0
142
1.0
142
0.0
142
0.0
142
0.0
142
0.0
142
1.0
179
     0
144
0.0208333333333333
144
0.0
144
0.0
144
0.0
144
0.0
144
0.0208333333333333
144
0.0
144
0.0
144
0.0
144
0.0
144
1.0
144
0.0
144
0.0
144
0.0
144
0.0
144
1.0
147
0.0208333333333333
147
0.0
147
0.0
147
0.0
147
0.0
147
0.0208333333333333
147
0.0
147
0.0
147
0.0
147
0.0
147
1.0
147
0.0
147
0.0
147
0.0
147
0.0
147
1.0
  0
MLEADERSTYLE
  5
12BA
102
{ACAD_REACTORS
330
12B9
102
}
330
12B9
100
AcDbMLeaderStyle
170
     2
171
     1
172
     0
 90
        2
 40
0.0
 41
0.0
173
     1
 91
-1056964608
340
16
 92
       -2
290
     1
 42
2.0
291
     1
 43
0.36
  3
Standard
 44
4.0
300

342
13
174
     1
178
     6
175
     1
176
     0
 93
-1056964608
 45
4.0
292
     0
297
     0
 46
4.0
 94
-1056964608
 47
1.0
 49
1.0
140
1.0
293
     1
141
0.0
294
     1
177
     0
142
1.0
295
     0
296
     0
143
0.125
1001
ACAD_MLEADERVER
1070
     2
  0
MLINESTYLE
  5
26
102
{ACAD_REACTORS
330
21
102
}
330
21
100
AcDbMlineStyle
  2
STANDARD
 70
     0
  3

 62
     0
 51
90.0
 52
90.0
 71
     2
 49
0.5
 62
   256
  6
BYLAYER
 49
-0.5
 62
   256
  6
BYLAYER
  0
ACDBPLACEHOLDER
  5
6
102
{ACAD_REACTORS
330
7
102
}
330
7
  0
SCALE
  5
12A8
102
{ACAD_REACTORS
330
12A7
102
}
330
12A7
100
AcDbScale
 70
     0
300
1:1
140
1.0
141
1.0
290
     1
  0
SCALE
  5
12A9
102
{ACAD_REACTORS
330
12A7
102
}
330
12A7
100
AcDbScale
 70
     0
300
1:2
140
1.0
141
2.0
290
     0
  0
SCALE
  5
12AA
102
{ACAD_REACTORS
330
12A7
102
}
330
12A7
100
AcDbScale
 70
     0
300
1:4
140
1.0
141
4.0
290
     0
  0
SCALE
  5
12AB
102
{ACAD_REACTORS
330
12A7
102
}
330
12A7
100
AcDbScale
 70
     0
300
1:5
140
1.0
141
5.0
290
     0
  0
SCALE
  5
12AC
102
{ACAD_REACTORS
330
12A7
102
}
330
12A7
100
AcDbScale
 70
     0
300
1:8
140
1.0
141
8.0
290
     0
  0
SCALE
  5
12AD
102
{ACAD_REACTORS
330
12A7
102
}
330
12A7
100
AcDbScale
 70
     0
300
1:10
140
1.0
141
10.0
290
     0
  0
SCALE
  5
12AE
102
{ACAD_REACTORS
330
12A7
102
}
330
12A7
100
AcDbScale
 70
     0
300
1:16
140
1.0
141
16.0
290
     0
  0
SCALE
  5
12AF
102
{ACAD_REACTORS
330
12A7
102
}
330
12A7
100
AcDbScale
 70
     0
300
1:20
140
1.0
141
20.0
290
     0
  0
SCALE
  5
12B0
102
{ACAD_REACTORS
330
12A7
102
}
330
12A7
100
AcDbScale
 70
     0
300
1:30
140
1.0
141
30.0
290
     0
  0
SCALE
  5
12B1
102
{ACAD_REACTORS
330
12A7
102
}
330
12A7
100
AcDbScale
 70
     0
300
1:40
140
1.0
141
40.0
290
     0
  0
SCALE
  5
12B2
102
{ACAD_REACTORS
330
12A7
102
}
330
12A7
100
AcDbScale
 70
     0
300
1:50
140
1.0
141
50.0
290
     0
  0
SCALE
  5
12B3
102
{ACAD_REACTORS
330
12A7
102
}
330
12A7
100
AcDbScale
 70
     0
300
1:100
140
1.0
141
100.0
290
     0
  0
SCALE
  5
12B4
102
{ACAD_REACTORS
330
12A7
102
}
330
12A7
100
AcDbScale
 70
     0
300
2:1
140
2.0
141
1.0
290
     0
  0
SCALE
  5
12B5
102
{ACAD_REACTORS
330
12A7
102
}
330
12A7
100
AcDbScale
 70
     0
300
4:1
140
4.0
141
1.0
290
     0
  0
SCALE
  5
12B6
102
{ACAD_REACTORS
330
12A7
102
}
330
12A7
100
AcDbScale
 70
     0
300
8:1
140
8.0
141
1.0
290
     0
  0
SCALE
  5
12B7
102
{ACAD_REACTORS
330
12A7
102
}
330
12A7
100
AcDbScale
 70
     0
300
10:1
140
10.0
141
1.0
290
     0
  0
SCALE
  5
12B8
102
{ACAD_REACTORS
330
12A7
102
}
330
12A7
100
AcDbScale
 70
     0
300
100:1
140
100.0
141
1.0
290
     0
  0
TABLESTYLE
  5
27
102
{ACAD_XDICTIONARY
360
12DE
102
}
102
{ACAD_REACTORS
330
25
102
}
330
25
100
AcDbTableStyle
  3
Standard
 70
     0
 71
     0
 40
1.5
 41
1.5
280
     0
281
     0
  7
STANDARD
140
4.5
170
     2
 62
     0
 63
     7
283
     0
274
    -2
284
     1
 64
     0
275
    -2
285
     1
 65
     0
276
    -2
286
     1
 66
     0
277
    -2
287
     1
 67
     0
278
    -2
288
     1
 68
     0
279
    -2
289
     1
 69
     0
  7
STANDARD
140
6.0
170
     5
 62
     0
 63
     7
283
     0
274
    -2
284
     1
 64
     0
275
    -2
285
     1
 65
     0
276
    -2
286
     1
 66
     0
277
    -2
287
     1
 67
     0
278
    -2
288
     1
 68
     0
279
    -2
289
     1
 69
     0
  7
STANDARD
140
4.5
170
     5
 62
     0
 63
     7
283
     0
274
    -2
284
     1
 64
     0
275
    -2
285
     1
 65
     0
276
    -2
286
     1
 66
     0
277
    -2
287
     1
 67
     0
278
    -2
288
     1
 68
     0
279
    -2
289
     1
 69
     0
  0
VISUALSTYLE
  5
129C
102
{ACAD_REACTORS
330
1296
102
}
330
1296
100
AcDbVisualStyle
  2
2dWireframe
 70
     4
 71
     0
 72
     2
 73
     0
 90
        0
 40
-0.6
 41
-30.0
 62
     5
 63
     7
 74
     1
 91
        4
 64
     7
 65
   257
 75
     1
175
     1
 42
1.0
 92
        0
 66
   257
 43
1.0
 76
     1
 77
     6
 78
     2
 67
     7
 79
     5
170
     0
171
     0
290
     0
174
     0
 93
        1
 44
0.0
173
     0
291
     0
 45
0.0
1001
ACAD
1000
AcDbSavedByObjectVersion
1070
     0
  0
VISUALSTYLE
  5
129E
102
{ACAD_REACTORS
330
1296
102
}
330
1296
100
AcDbVisualStyle
  2
3D Hidden
 70
     6
 71
     1
 72
     2
 73
     2
 90
        0
 40
-0.6
 41
-30.0
 62
     5
 63
     7
 74
     2
 91
        2
 64
     7
 65
   257
 75
     2
175
     1
 42
40.0
 92
        0
 66
   257
 43
1.0
 76
     1
 77
     6
 78
     2
 67
     7
 79
     3
170
     0
171
     0
290
     0
174
     0
 93
        1
 44
0.0
173
     0
291
     0
 45
0.0
1001
ACAD
1000
AcDbSavedByObjectVersion
1070
     0
  0
VISUALSTYLE
  5
129D
102
{ACAD_REACTORS
330
1296
102
}
330
1296
100
AcDbVisualStyle
  2
3dWireframe
 70
     5
 71
     0
 72
     2
 73
     0
 90
        0
 40
-0.6
 41
-30.0
 62
     5
 63
     7
 74
     1
 91
        4
 64
     7
 65
   257
 75
     1
175
     1
 42
1.0
 92
        0
 66
   257
 43
1.0
 76
     1
 77
     6
 78
     2
 67
     7
 79
     5
170
     0
171
     0
290
     0
174
     0
 93
        1
 44
0.0
173
     0
291
     0
 45
0.0
1001
ACAD
1000
AcDbSavedByObjectVersion
1070
     0
  0
VISUALSTYLE
  5
129B
102
{ACAD_REACTORS
330
1296
102
}
330
1296
100
AcDbVisualStyle
  2
Basic
 70
     7
 71
     1
 72
     0
 73
     1
 90
        0
 40
-0.6
 41
-30.0
 62
     5
 63
     7
 74
     0
 91
        4
 64
     7
 65
   257
 75
     1
175
     1
 42
1.0
 92
        8
 66
     7
 43
1.0
 76
     1
 77
     6
 78
     2
 67
     7
 79
     5
170
     0
171
     0
290
     0
174
     0
 93
        1
 44
0.0
173
     0
291
     1
 45
0.0
1001
ACAD
1000
AcDbSavedByObjectVersion
1070
     0
  0
VISUALSTYLE
  5
12A2
102
{ACAD_REACTORS
330
1296
102
}
330
1296
100
AcDbVisualStyle
  2
Brighten
 70
    12
 71
     2
 72
     2
 73
     0
 90
        0
 40
-0.6
 41
-30.0
 62
     5
 63
     7
 74
     1
 91
        4
 64
     7
 65
   257
 75
     1
175
     1
 42
1.0
 92
        8
 66
     7
 43
1.0
 76
     1
 77
     6
 78
     2
 67
     7
 79
     5
170
     0
171
     0
290
     0
174
     0
 93
        1
 44
50.0
173
     0
291
     1
 45
0.0
1001
ACAD
1000
AcDbSavedByObjectVersion
1070
     0
  0
VISUALSTYLE
  5
12A6
102
{ACAD_REACTORS
330
1296
102
}
330
1296
100
AcDbVisualStyle
  2
ColorChange
 70
    16
 71
     2
 72
     2
 73
     3
 90
        0
 40
-0.6
 41
-30.0
 62
     5
 63
     8
 74
     1
 91
        4
 64
     7
 65
   257
 75
     1
175
     1
 42
1.0
 92
        8
 66
     8
 43
1.0
 76
     1
 77
     6
 78
     2
 67
     7
 79
     5
170
     0
171
     0
290
     0
174
     0
 93
        1
 44
0.0
173
     0
291
     1
 45
0.0
1001
ACAD
1000
AcDbSavedByObjectVersion
1070
     0
  0
VISUALSTYLE
  5
129F
102
{ACAD_REACTORS
330
1296
102
}
330
1296
100
AcDbVisualStyle
  2
Conceptual
 70
     9
 71
     3
 72
     2
 73
     0
 90
        0
 40
-0.6
 41
-30.0
 62
     5
 63
     7
 74
     2
 91
        2
 64
     7
 65
   257
 75
     1
175
     1
 42
40.0
 92
        8
 66
     7
 43
1.0
 76
     1
 77
     6
 78
     2
 67
     7
 79
     3
170
     0
171
     0
290
     0
174
     0
 93
        1
 44
0.0
173
     0
291
     0
 45
0.0
1001
ACAD
1000
AcDbSavedByObjectVersion
1070
     0
  0
VISUALSTYLE
  5
12A1
102
{ACAD_REACTORS
330
1296
102
}
330
1296
100
AcDbVisualStyle
  2
Dim
 70
    11
 71
     2
 72
     2
 73
     0
 90
        0
 40
-0.6
 41
-30.0
 62
     5
 63
     7
 74
     1
 91
        4
 64
     7
 65
   257
 75
     1
175
     1
 42
1.0
 92
        8
 66
     7
 43
1.0
 76
     1
 77
     6
 78
     2
 67
     7
 79
     5
170
     0
171
     0
290
     0
174
     0
 93
        1
 44
-50.0
173
     0
291
     1
 45
0.0
1001
ACAD
1000
AcDbSavedByObjectVersion
1070
     0
  0
VISUALSTYLE
  5
12A5
102
{ACAD_REACTORS
330
1296
102
}
330
1296
100
AcDbVisualStyle
  2
Facepattern
 70
    15
 71
     2
 72
     2
 73
     0
 90
        0
 40
-0.6
 41
-30.0
 62
     5
 63
     7
 74
     1
 91
        4
 64
     7
 65
   257
 75
     1
175
     1
 42
1.0
 92
        8
 66
     7
 43
1.0
 76
     1
 77
     6
 78
     2
 67
     7
 79
     5
170
     0
171
     0
290
     0
174
     0
 93
        1
 44
0.0
173
     0
291
     1
 45
0.0
1001
ACAD
1000
AcDbSavedByObjectVersion
1070
     0
  0
VISUALSTYLE
  5
1297
102
{ACAD_REACTORS
330
1296
102
}
330
1296
100
AcDbVisualStyle
  2
Flat
 70
     0
 71
     2
 72
     1
 73
     1
 90
        2
 40
-0.6
 41
30.0
 62
     5
 63
     7
 74
     0
 91
        4
 64
     7
 65
   257
 75
     1
175
     1
 42
1.0
 92
        8
 66
     7
 43
1.0
 76
     1
 77
     6
 78
     2
 67
     7
 79
     5
170
     0
171
     0
290
     0
174
     0
 93
       13
 44
0.0
173
     0
291
     1
 45
0.0
1001
ACAD
1000
AcDbSavedByObjectVersion
1070
     0
  0
VISUALSTYLE
  5
1298
102
{ACAD_REACTORS
330
1296
102
}
330
1296
100
AcDbVisualStyle
  2
FlatWithEdges
 70
     1
 71
     2
 72
     1
 73
     1
 90
        2
 40
-0.6
 41
30.0
 62
     5
 63
     7
 74
     1
 91
        4
 64
     7
 65
   257
 75
     1
175
     1
 42
1.0
 92
        0
 66
   257
 43
1.0
 76
     1
 77
     6
 78
     2
 67
     7
 79
     5
170
     0
171
     0
290
     0
174
     0
 93
       13
 44
0.0
173
     0
291
     1
 45
0.0
1001
ACAD
1000
AcDbSavedByObjectVersion
1070
     0
  0
VISUALSTYLE
  5
1299
102
{ACAD_REACTORS
330
1296
102
}
330
1296
100
AcDbVisualStyle
  2
Gouraud
 70
     2
 71
     2
 72
     2
 73
     1
 90
        2
 40
-0.6
 41
30.0
 62
     5
 63
     7
 74
     0
 91
        4
 64
     7
 65
   257
 75
     1
175
     1
 42
1.0
 92
        0
 66
     7
 43
1.0
 76
     1
 77
     6
 78
     2
 67
     7
 79
     5
170
     0
171
     0
290
     0
174
     0
 93
       13
 44
0.0
173
     0
291
     1
 45
0.0
1001
ACAD
1000
AcDbSavedByObjectVersion
1070
     0
  0
VISUALSTYLE
  5
129A
102
{ACAD_REACTORS
330
1296
102
}
330
1296
100
AcDbVisualStyle
  2
GouraudWithEdges
 70
     3
 71
     2
 72
     2
 73
     1
 90
        2
 40
-0.6
 41
30.0
 62
     5
 63
     7
 74
     1
 91
        4
 64
     7
 65
   257
 75
     1
175
     1
 42
1.0
 92
        0
 66
   257
 43
1.0
 76
     1
 77
     6
 78
     2
 67
     7
 79
     5
170
     0
171
     0
290
     0
174
     0
 93
       13
 44
0.0
173
     0
291
     1
 45
0.0
1001
ACAD
1000
AcDbSavedByObjectVersion
1070
     0
  0
VISUALSTYLE
  5
12A4
102
{ACAD_REACTORS
330
1296
102
}
330
1296
100
AcDbVisualStyle
  2
Linepattern
 70
    14
 71
     2
 72
     2
 73
     0
 90
        0
 40
-0.6
 41
-30.0
 62
     5
 63
     7
 74
     1
 91
        4
 64
     7
 65
   257
 75
     7
175
     7
 42
1.0
 92
        8
 66
     7
 43
1.0
 76
     1
 77
     6
 78
     2
 67
     7
 79
     5
170
     0
171
     0
290
     0
174
     0
 93
        1
 44
0.0
173
     0
291
     1
 45
0.0
1001
ACAD
1000
AcDbSavedByObjectVersion
1070
     0
  0
VISUALSTYLE
  5
12A0
102
{ACAD_REACTORS
330
1296
102
}
330
1296
100
AcDbVisualStyle
  2
Realistic
 70
     8
 71
     2
 72
     2
 73
     0
 90
        0
 40
-0.6
 41
-30.0
 62
     5
 63
     7
 74
     1
 91
        0
 64
     7
 65
   257
 75
     1
175
     1
 42
1.0
 92
        8
 66
     8
 43
1.0
 76
     1
 77
     6
 78
     2
 67
     7
 79
     5
170
     0
171
     0
290
     0
174
     0
 93
       13
 44
0.0
173
     0
291
     0
 45
0.0
1001
ACAD
1000
AcDbSavedByObjectVersion
1070
     0
  0
VISUALSTYLE
  5
12A3
102
{ACAD_REACTORS
330
1296
102
}
330
1296
100
AcDbVisualStyle
  2
Thicken
 70
    13
 71
     2
 72
     2
 73
     0
 90
        0
 40
-0.6
 41
-30.0
 62
     5
 63
     7
 74
     1
 91
        4
 64
     7
 65
   257
 75
     1
175
     1
 42
1.0
 92
       12
 66
     7
 43
1.0
 76
     1
 77
     6
 78
     2
 67
     7
 79
     5
170
     0
171
     0
290
     0
174
     0
 93
        1
 44
0.0
173
     0
291
     1
 45
0.0
1001
ACAD
1000
AcDbSavedByObjectVersion
1070
     0
  0
DICTIONARYVAR
  5
12DB
102
{ACAD_REACTORS
330
506
102
}
330
506
100
DictionaryVariables
280
     0
  1
1:1
  0
DICTIONARYVAR
  5
12DA
102
{ACAD_REACTORS
330
506
102
}
330
506
100
DictionaryVariables
280
     0
  1
STANDARD
  0
DICTIONARYVAR
  5
507
102
{ACAD_REACTORS
330
506
102
}
330
506
100
DictionaryVariables
280
     0
  1
STANDARD
  0
DICTIONARYVAR
  5
557
102
{ACAD_REACTORS
330
506
102
}
330
506
100
DictionaryVariables
280
     0
  1
1
  0
DICTIONARYVAR
  5
556
102
{ACAD_REACTORS
330
506
102
}
330
506
100
DictionaryVariables
280
     0
  1
1
  0
DICTIONARYVAR
  5
12DD
102
{ACAD_REACTORS
330
506
102
}
330
506
100
DictionaryVariables
280
     0
  1
0
  0
DICTIONARYVAR
  5
558
102
{ACAD_REACTORS
330
506
102
}
330
506
100
DictionaryVariables
280
     0
  1

  0
DICTIONARYVAR
  5
12DC
102
{ACAD_REACTORS
330
506
102
}
330
506
100
DictionaryVariables
280
     0
  1
127
  0
DICTIONARY
  5
4AC
102
{ACAD_REACTORS
330
4AB
102
}
330
4AB
100
AcDbDictionary
281
     1
  0
XRECORD
  5
53E
102
{ACAD_REACTORS
330
4AB
102
}
330
4AB
100
AcDbXrecord
280
     1
 90
-1023410169
  0
DICTIONARY
  5
12E6
330
10
100
AcDbDictionary
280
     1
281
     1
  3
ACAD_XREC_ROUNDTRIP
360
12E7
  0
DICTIONARY
  5
12E4
330
B
100
AcDbDictionary
280
     1
281
     1
  3
ACAD_XREC_ROUNDTRIP
360
12E5
  0
DICTIONARY
  5
1287
330
1286
100
AcDbDictionary
280
     1
281
     1
  3
ACAD_XREC_ROUNDTRIP
360
12F0
  3
BUMPTILE
360
1289
  3
DIFFUSETILE
360
1288
  3
OPACITYTILE
360
128C
  3
REFLECTIONTILE
360
128B
  3
REFRACTIONTILE
360
128D
  3
SPECULARTILE
360
128A
  0
DICTIONARY
  5
127F
330
127E
100
AcDbDictionary
280
     1
281
     1
  3
ACAD_XREC_ROUNDTRIP
360
12EF
  3
BUMPTILE
360
1281
  3
DIFFUSETILE
360
1280
  3
OPACITYTILE
360
1284
  3
REFLECTIONTILE
360
1283
  3
REFRACTIONTILE
360
1285
  3
SPECULARTILE
360
1282
  0
DICTIONARY
  5
128F
330
128E
100
AcDbDictionary
280
     1
281
     1
  3
ACAD_XREC_ROUNDTRIP
360
12F1
  3
BUMPTILE
360
1291
  3
DIFFUSETILE
360
1290
  3
OPACITYTILE
360
1294
  3
REFLECTIONTILE
360
1293
  3
REFRACTIONTILE
360
1295
  3
SPECULARTILE
360
1292
  0
DICTIONARY
  5
12DE
330
27
100
AcDbDictionary
280
     1
281
     1
  3
ACAD_ROUNDTRIP_2008_TABLESTYLE_CELLSTYLEMAP
360
12DF
  3
ACAD_XREC_ROUNDTRIP
360
12E8
  0
XRECORD
  5
12E7
102
{ACAD_REACTORS
330
12E6
102
}
330
12E6
100
AcDbXrecord
280
     1
102
SHADEPLOT
 70
     0
102
SHADEPLOTRESLEVEL
 70
     2
102
SHADEPLOTCUSTOMDPI
 70
   300
  0
XRECORD
  5
12E5
102
{ACAD_REACTORS
330
12E4
102
}
330
12E4
100
AcDbXrecord
280
     1
102
SHADEPLOT
 70
     0
102
SHADEPLOTRESLEVEL
 70
     2
102
SHADEPLOTCUSTOMDPI
 70
   300
  0
XRECORD
  5
12F0
102
{ACAD_REACTORS
330
1287
102
}
330
1287
100
AcDbXrecord
280
     1
102
MATERIAL
148
0.0
149
0.0
149
0.0
 93
        0
 94
      127
282
     0
 72
     0
 77
     0
171
     0
175
     0
179
     0
273
     0
  0
XRECORD
  5
1289
102
{ACAD_REACTORS
330
1287
102
}
330
1287
100
AcDbXrecord
280
     1
270
     1
271
     1
  0
XRECORD
  5
1288
102
{ACAD_REACTORS
330
1287
102
}
330
1287
100
AcDbXrecord
280
     1
270
     1
271
     1
  0
XRECORD
  5
128C
102
{ACAD_REACTORS
330
1287
102
}
330
1287
100
AcDbXrecord
280
     1
270
     1
271
     1
  0
XRECORD
  5
128B
102
{ACAD_REACTORS
330
1287
102
}
330
1287
100
AcDbXrecord
280
     1
270
     1
271
     1
  0
XRECORD
  5
128D
102
{ACAD_REACTORS
330
1287
102
}
330
1287
100
AcDbXrecord
280
     1
270
     1
271
     1
  0
XRECORD
  5
128A
102
{ACAD_REACTORS
330
1287
102
}
330
1287
100
AcDbXrecord
280
     1
270
     1
271
     1
  0
XRECORD
  5
12EF
102
{ACAD_REACTORS
330
127F
102
}
330
127F
100
AcDbXrecord
280
     1
102
MATERIAL
148
0.0
149
0.0
149
0.0
 93
        0
 94
      127
282
     0
 72
     0
 77
     0
171
     0
175
     0
179
     0
273
     0
  0
XRECORD
  5
1281
102
{ACAD_REACTORS
330
127F
102
}
330
127F
100
AcDbXrecord
280
     1
270
     1
271
     1
  0
XRECORD
  5
1280
102
{ACAD_REACTORS
330
127F
102
}
330
127F
100
AcDbXrecord
280
     1
270
     1
271
     1
  0
XRECORD
  5
1284
102
{ACAD_REACTORS
330
127F
102
}
330
127F
100
AcDbXrecord
280
     1
270
     1
271
     1
  0
XRECORD
  5
1283
102
{ACAD_REACTORS
330
127F
102
}
330
127F
100
AcDbXrecord
280
     1
270
     1
271
     1
  0
XRECORD
  5
1285
102
{ACAD_REACTORS
330
127F
102
}
330
127F
100
AcDbXrecord
280
     1
270
     1
271
     1
  0
XRECORD
  5
1282
102
{ACAD_REACTORS
330
127F
102
}
330
127F
100
AcDbXrecord
280
     1
270
     1
271
     1
  0
XRECORD
  5
12F1
102
{ACAD_REACTORS
330
128F
102
}
330
128F
100
AcDbXrecord
280
     1
102
MATERIAL
148
0.0
149
0.0
149
0.0
 93
        0
 94
      127
282
     0
 72
     0
 77
     0
171
     0
175
     0
179
     0
273
     0
  0
XRECORD
  5
1291
102
{ACAD_REACTORS
330
128F
102
}
330
128F
100
AcDbXrecord
280
     1
270
     1
271
     1
  0
XRECORD
  5
1290
102
{ACAD_REACTORS
330
128F
102
}
330
128F
100
AcDbXrecord
280
     1
270
     1
271
     1
  0
XRECORD
  5
1294
102
{ACAD_REACTORS
330
128F
102
}
330
128F
100
AcDbXrecord
280
     1
270
     1
271
     1
  0
XRECORD
  5
1293
102
{ACAD_REACTORS
330
128F
102
}
330
128F
100
AcDbXrecord
280
     1
270
     1
271
     1
  0
XRECORD
  5
1295
102
{ACAD_REACTORS
330
128F
102
}
330
128F
100
AcDbXrecord
280
     1
270
     1
271
     1
  0
XRECORD
  5
1292
102
{ACAD_REACTORS
330
128F
102
}
330
128F
100
AcDbXrecord
280
     1
270
     1
271
     1
  0
CELLSTYLEMAP
  5
12DF
102
{ACAD_REACTORS
330
12DE
102
}
330
12DE
100
AcDbCellStyleMap
 90
        3
300
CELLSTYLE
  1
TABLEFORMAT_BEGIN
 90
        5
170
     1
 91
        0
 92
    32768
 62
   257
 93
        1
300
CONTENTFORMAT
  1
CONTENTFORMAT_BEGIN
 90
        0
 91
        0
 92
        4
 93
        0
300

 40
0.0
140
1.0
 94
        5
 62
     0
340
13
144
6.0
309
CONTENTFORMAT_END
171
     1
301
MARGIN
  1
CELLMARGIN_BEGIN
 40
1.5
 40
1.5
 40
1.5
 40
1.5
 40
0.18
 40
0.18
309
CELLMARGIN_END
 94
        6
 95
        1
302
GRIDFORMAT
  1
GRIDFORMAT_BEGIN
 90
        0
 91
        1
 62
     0
 92
       -2
340
0
 93
        0
 40
0.045
309
GRIDFORMAT_END
 95
        2
302
GRIDFORMAT
  1
GRIDFORMAT_BEGIN
 90
        0
 91
        1
 62
     0
 92
       -2
340
0
 93
        0
 40
0.045
309
GRIDFORMAT_END
 95
        4
302
GRIDFORMAT
  1
GRIDFORMAT_BEGIN
 90
        0
 91
        1
 62
     0
 92
       -2
340
0
 93
        0
 40
0.045
309
GRIDFORMAT_END
 95
        8
302
GRIDFORMAT
  1
GRIDFORMAT_BEGIN
 90
        0
 91
        1
 62
     0
 92
       -2
340
0
 93
        0
 40
0.045
309
GRIDFORMAT_END
 95
       16
302
GRIDFORMAT
  1
GRIDFORMAT_BEGIN
 90
        0
 91
        1
 62
     0
 92
       -2
340
0
 93
        0
 40
0.045
309
GRIDFORMAT_END
 95
       32
302
GRIDFORMAT
  1
GRIDFORMAT_BEGIN
 90
        0
 91
        1
 62
     0
 92
       -2
340
0
 93
        0
 40
0.045
309
GRIDFORMAT_END
309
TABLEFORMAT_END
  1
CELLSTYLE_BEGIN
 90
        1
 91
        1
300
_TITLE
309
CELLSTYLE_END
300
CELLSTYLE
  1
TABLEFORMAT_BEGIN
 90
        5
170
     1
 91
        0
 92
        0
 62
   257
 93
        1
300
CONTENTFORMAT
  1
CONTENTFORMAT_BEGIN
 90
        0
 91
        0
 92
        4
 93
        0
300

 40
0.0
140
1.0
 94
        5
 62
     0
340
13
144
4.5
309
CONTENTFORMAT_END
171
     1
301
MARGIN
  1
CELLMARGIN_BEGIN
 40
1.5
 40
1.5
 40
1.5
 40
1.5
 40
0.18
 40
0.18
309
CELLMARGIN_END
 94
        6
 95
        1
302
GRIDFORMAT
  1
GRIDFORMAT_BEGIN
 90
        0
 91
        1
 62
     0
 92
       -2
340
0
 93
        0
 40
0.045
309
GRIDFORMAT_END
 95
        2
302
GRIDFORMAT
  1
GRIDFORMAT_BEGIN
 90
        0
 91
        1
 62
     0
 92
       -2
340
0
 93
        0
 40
0.045
309
GRIDFORMAT_END
 95
        4
302
GRIDFORMAT
  1
GRIDFORMAT_BEGIN
 90
        0
 91
        1
 62
     0
 92
       -2
340
0
 93
        0
 40
0.045
309
GRIDFORMAT_END
 95
        8
302
GRIDFORMAT
  1
GRIDFORMAT_BEGIN
 90
        0
 91
        1
 62
     0
 92
       -2
340
0
 93
        0
 40
0.045
309
GRIDFORMAT_END
 95
       16
302
GRIDFORMAT
  1
GRIDFORMAT_BEGIN
 90
        0
 91
        1
 62
     0
 92
       -2
340
0
 93
        0
 40
0.045
309
GRIDFORMAT_END
 95
       32
302
GRIDFORMAT
  1
GRIDFORMAT_BEGIN
 90
        0
 91
        1
 62
     0
 92
       -2
340
0
 93
        0
 40
0.045
309
GRIDFORMAT_END
309
TABLEFORMAT_END
  1
CELLSTYLE_BEGIN
 90
        2
 91
        1
300
_HEADER
309
CELLSTYLE_END
300
CELLSTYLE
  1
TABLEFORMAT_BEGIN
 90
        5
170
     1
 91
        0
 92
        0
 62
   257
 93
        1
300
CONTENTFORMAT
  1
CONTENTFORMAT_BEGIN
 90
        0
 91
        0
 92
        4
 93
        0
300

 40
0.0
140
1.0
 94
        2
 62
     0
340
13
144
4.5
309
CONTENTFORMAT_END
171
     1
301
MARGIN
  1
CELLMARGIN_BEGIN
 40
1.5
 40
1.5
 40
1.5
 40
1.5
 40
0.18
 40
0.18
309
CELLMARGIN_END
 94
        6
 95
        1
302
GRIDFORMAT
  1
GRIDFORMAT_BEGIN
 90
        0
 91
        1
 62
     0
 92
       -2
340
0
 93
        0
 40
0.045
309
GRIDFORMAT_END
 95
        2
302
GRIDFORMAT
  1
GRIDFORMAT_BEGIN
 90
        0
 91
        1
 62
     0
 92
       -2
340
0
 93
        0
 40
0.045
309
GRIDFORMAT_END
 95
        4
302
GRIDFORMAT
  1
GRIDFORMAT_BEGIN
 90
        0
 91
        1
 62
     0
 92
       -2
340
0
 93
        0
 40
0.045
309
GRIDFORMAT_END
 95
        8
302
GRIDFORMAT
  1
GRIDFORMAT_BEGIN
 90
        0
 91
        1
 62
     0
 92
       -2
340
0
 93
        0
 40
0.045
309
GRIDFORMAT_END
 95
       16
302
GRIDFORMAT
  1
GRIDFORMAT_BEGIN
 90
        0
 91
        1
 62
     0
 92
       -2
340
0
 93
        0
 40
0.045
309
GRIDFORMAT_END
 95
       32
302
GRIDFORMAT
  1
GRIDFORMAT_BEGIN
 90
        0
 91
        1
 62
     0
 92
       -2
340
0
 93
        0
 40
0.045
309
GRIDFORMAT_END
309
TABLEFORMAT_END
  1
CELLSTYLE_BEGIN
 90
        3
 91
        2
300
_DATA
309
CELLSTYLE_END
  0
XRECORD
  5
12E8
102
{ACAD_REACTORS
330
12DE
102
}
330
12DE
100
AcDbXrecord
280
     1
102
ACAD_ROUNDTRIP_PRE2007_TABLESTYLE
 90
        4
 91
        0
  1

 92
        4
 93
        0
  2

 94
        4
 95
        0
  3

  0
ENDSEC
  0
EOF
