  0
SECTION
  2
HEADER
  9
$ACADVER
  1
AC1015
  9
$ACADMAINTVER
 70
    20
  9
$DWGCODEPAGE
  3
ANSI_1252
  9
$INSBASE
 10
0.0
 20
0.0
 30
0.0
  9
$EXTMIN
 10
-55.6424665110078
 20
193.3403126227194
 30
0.0
  9
$EXTMAX
 10
584.4659600350551
 20
811.3943091204873
 30
0.0
  9
$LIMMIN
 10
0.0
 20
0.0
  9
$LIMMAX
 10
840.0000000000002
 20
594.0
  9
$ORTHOMODE
 70
     1
  9
$REGENMODE
 70
     1
  9
$FILLMODE
 70
     1
  9
$QTEXTMODE
 70
     0
  9
$MIRRTEXT
 70
     1
  9
$LTSCALE
 40
2.0
  9
$ATTMODE
 70
     1
  9
$TEXTSIZE
 40
5.0
  9
$TRACEWID
 40
0.05
  9
$TEXTSTYLE
  7
STANDARD
  9
$CLAYER
  8
5
  9
$CELTYPE
  6
BYLAYER
  9
$CECOLOR
 62
   256
  9
$CELTSCALE
 40
1.0
  9
$DISPSILH
 70
     0
  9
$DIMSCALE
 40
2.0
  9
$DIMASZ
 40
2.5
  9
$DIMEXO
 40
1.0
  9
$DIMDLI
 40
7.0
  9
$DIMRND
 40
0.0
  9
$DIMDLE
 40
0.0
  9
$DIMEXE
 40
1.0
  9
$DIMTP
 40
0.1
  9
$DIMTM
 40
0.1
  9
$DIMTXT
 40
3.5
  9
$DIMCEN
 40
0.0
  9
$DIMTSZ
 40
0.0
  9
$DIMTOL
 70
     0
  9
$DIMLIM
 70
     0
  9
$DIMTIH
 70
     0
  9
$DIMTOH
 70
     0
  9
$DIMSE1
 70
     0
  9
$DIMSE2
 70
     0
  9
$DIMTAD
 70
     1
  9
$DIMZIN
 70
     8
  9
$DIMBLK
  1

  9
$DIMASO
 70
     1
  9
$DIMSHO
 70
     1
  9
$DIMPOST
  1

  9
$DIMAPOST
  1
"
  9
$DIMALT
 70
     0
  9
$DIMALTD
 70
     2
  9
$DIMALTF
 40
0.0393701
  9
$DIMLFAC
 40
1.0
  9
$DIMTOFL
 70
     1
  9
$DIMTVP
 40
0.0
  9
$DIMTIX
 70
     0
  9
$DIMSOXD
 70
     0
  9
$DIMSAH
 70
     0
  9
$DIMBLK1
  1

  9
$DIMBLK2
  1

  9
$DIMSTYLE
  2
GEN-ISO
  9
$DIMCLRD
 70
   256
  9
$DIMCLRE
 70
   256
  9
$DIMCLRT
 70
     2
  9
$DIMTFAC
 40
0.71
  9
$DIMGAP
 40
0.6
  9
$DIMJUST
 70
     0
  9
$DIMSD1
 70
     0
  9
$DIMSD2
 70
     0
  9
$DIMTOLJ
 70
     0
  9
$DIMTZIN
 70
     0
  9
$DIMALTZ
 70
     0
  9
$DIMALTTZ
 70
     0
  9
$DIMUPT
 70
     0
  9
$DIMDEC
 70
     2
  9
$DIMTDEC
 70
     3
  9
$DIMALTU
 70
     2
  9
$DIMALTTD
 70
     4
  9
$DIMTXSTY
  7
STANDARD
  9
$DIMAUNIT
 70
     0
  9
$DIMADEC
 70
     0
  9
$DIMALTRND
 40
0.0
  9
$DIMAZIN
 70
     0
  9
$DIMDSEP
 70
    46
  9
$DIMATFIT
 70
     3
  9
$DIMFRAC
 70
     0
  9
$DIMLDRBLK
  1

  9
$DIMLUNIT
 70
     2
  9
$DIMLWD
 70
    -2
  9
$DIMLWE
 70
    -2
  9
$DIMTMOVE
 70
     0
  9
$LUNITS
 70
     2
  9
$LUPREC
 70
     2
  9
$SKETCHINC
 40
0.1
  9
$FILLETRAD
 40
0.0
  9
$AUNITS
 70
     0
  9
$AUPREC
 70
     0
  9
$MENU
  1
acad
  9
$ELEVATION
 40
0.0
  9
$PELEVATION
 40
0.0
  9
$THICKNESS
 40
0.0
  9
$LIMCHECK
 70
     0
  9
$CHAMFERA
 40
0.00002
  9
$CHAMFERB
 40
0.000002
  9
$CHAMFERC
 40
0.0
  9
$CHAMFERD
 40
0.0
  9
$SKPOLY
 70
     0
  9
$TDCREATE
 40
2450359.224152511
  9
$TDUCREATE
 40
2450359.182485845
  9
$TDUPDATE
 40
2455223.592894861
  9
$TDUUPDATE
 40
2455223.551228194
  9
$TDINDWG
 40
0.7803060995
  9
$TDUSRTIMER
 40
0.7803060995
  9
$USRTIMER
 70
     1
  9
$ANGBASE
 50
0.0
  9
$ANGDIR
 70
     0
  9
$PDMODE
 70
     0
  9
$PDSIZE
 40
0.0
  9
$PLINEWID
 40
0.0
  9
$SPLFRAME
 70
     0
  9
$SPLINETYPE
 70
     6
  9
$SPLINESEGS
 70
     8
  9
$HANDSEED
  5
1324
  9
$SURFTAB1
 70
     6
  9
$SURFTAB2
 70
     6
  9
$SURFTYPE
 70
     6
  9
$SURFU
 70
     6
  9
$SURFV
 70
     6
  9
$UCSBASE
  2

  9
$UCSNAME
  2

  9
$UCSORG
 10
0.0
 20
0.0
 30
0.0
  9
$UCSXDIR
 10
1.0
 20
0.0
 30
0.0
  9
$UCSYDIR
 10
0.0
 20
1.0
 30
0.0
  9
$UCSORTHOREF
  2

  9
$UCSORTHOVIEW
 70
     0
  9
$UCSORGTOP
 10
0.0
 20
0.0
 30
0.0
  9
$UCSORGBOTTOM
 10
0.0
 20
0.0
 30
0.0
  9
$UCSORGLEFT
 10
0.0
 20
0.0
 30
0.0
  9
$UCSORGRIGHT
 10
0.0
 20
0.0
 30
0.0
  9
$UCSORGFRONT
 10
0.0
 20
0.0
 30
0.0
  9
$UCSORGBACK
 10
0.0
 20
0.0
 30
0.0
  9
$PUCSBASE
  2

  9
$PUCSNAME
  2

  9
$PUCSORG
 10
0.0
 20
0.0
 30
0.0
  9
$PUCSXDIR
 10
1.0
 20
0.0
 30
0.0
  9
$PUCSYDIR
 10
0.0
 20
1.0
 30
0.0
  9
$PUCSORTHOREF
  2

  9
$PUCSORTHOVIEW
 70
     0
  9
$PUCSORGTOP
 10
0.0
 20
0.0
 30
0.0
  9
$PUCSORGBOTTOM
 10
0.0
 20
0.0
 30
0.0
  9
$PUCSORGLEFT
 10
0.0
 20
0.0
 30
0.0
  9
$PUCSORGRIGHT
 10
0.0
 20
0.0
 30
0.0
  9
$PUCSORGFRONT
 10
0.0
 20
0.0
 30
0.0
  9
$PUCSORGBACK
 10
0.0
 20
0.0
 30
0.0
  9
$USERI1
 70
     0
  9
$USERI2
 70
     0
  9
$USERI3
 70
     0
  9
$USERI4
 70
     0
  9
$USERI5
 70
     0
  9
$USERR1
 40
0.0
  9
$USERR2
 40
0.0
  9
$USERR3
 40
0.0
  9
$USERR4
 40
0.0
  9
$USERR5
 40
0.0
  9
$WORLDVIEW
 70
     1
  9
$SHADEDGE
 70
     3
  9
$SHADEDIF
 70
    70
  9
$TILEMODE
 70
     1
  9
$MAXACTVP
 70
    16
  9
$PINSBASE
 10
0.0
 20
0.0
 30
0.0
  9
$PLIMCHECK
 70
     0
  9
$PEXTMIN
 10
1.000000000000000E+20
 20
1.000000000000000E+20
 30
1.000000000000000E+20
  9
$PEXTMAX
 10
-1.000000000000000E+20
 20
-1.000000000000000E+20
 30
-1.000000000000000E+20
  9
$PLIMMIN
 10
0.0
 20
0.0
  9
$PLIMMAX
 10
12.0
 20
9.0
  9
$UNITMODE
 70
     0
  9
$VISRETAIN
 70
     0
  9
$PLINEGEN
 70
     0
  9
$PSLTSCALE
 70
     1
  9
$TREEDEPTH
 70
  3020
  9
$CMLSTYLE
  2
STANDARD
  9
$CMLJUST
 70
     0
  9
$CMLSCALE
 40
1.0
  9
$PROXYGRAPHICS
 70
     1
  9
$MEASUREMENT
 70
     1
  9
$CELWEIGHT
370
    -1
  9
$ENDCAPS
280
     0
  9
$JOINSTYLE
280
     0
  9
$LWDISPLAY
290
     0
  9
$INSUNITS
 70
     0
  9
$HYPERLINKBASE
  1

  9
$STYLESHEET
  1

  9
$XEDIT
290
     1
  9
$CEPSNTYPE
380
     0
  9
$PSTYLEMODE
290
     1
  9
$FINGERPRINTGUID
  2
{95C1CE3A-D9DD-4A55-9EE8-E9F74AF9594C}
  9
$VERSIONGUID
  2
{B65EAD38-C006-4F0F-97C0-7A393A493436}
  9
$EXTNAMES
290
     1
  9
$PSVPSCALE
 40
0.0
  9
$OLESTARTUP
290
     0
  0
ENDSEC
  0
SECTION
  2
CLASSES
  0
CLASS
  1
DICTIONARYVAR
  2
AcDbDictionaryVar
  3
ObjectDBX Classes
 90
        0
280
     0
281
     0
  0
CLASS
  1
ACDBDICTIONARYWDFLT
  2
AcDbDictionaryWithDefault
  3
ObjectDBX Classes
 90
        0
280
     0
281
     0
  0
CLASS
  1
ACDBPLACEHOLDER
  2
AcDbPlaceHolder
  3
ObjectDBX Classes
 90
        0
280
     0
281
     0
  0
CLASS
  1
LAYOUT
  2
AcDbLayout
  3
ObjectDBX Classes
 90
        0
280
     0
281
     0
  0
CLASS
  1
ACME_DOCUMENT
  2
AcMeDbDoc
  3
AcMeServices
 90
     1024
280
     0
281
     0
  0
CLASS
  1
AMGSETTINGSOBJ
  2
AmgSettingsObj
  3
"AcadM|Product Description: AutoCAD Mechanical|Company: Autodesk, Inc."
 90
     1024
280
     0
281
     0
  0
CLASS
  1
ACMESCOPE
  2
AcMeScope
  3
AcMeServices
 90
     1024
280
     0
281
     0
  0
CLASS
  1
ACMECOMMANDHISTORY
  2
AcMeCommandHistory
  3
AcMeServices
 90
     1024
280
     0
281
     0
  0
CLASS
  1
ACIMSYSVARMAN
  2
AcImSysVarManager
  3
AcMeServices
 90
     1024
280
     0
281
     0
  0
CLASS
  1
ACIMREALSYSVAR
  2
AcImRealSysVar
  3
AcMeServices
 90
     1024
280
     0
281
     0
  0
CLASS
  1
ACIMINTSYSVAR
  2
AcImIntSysVar
  3
AcMeServices
 90
     1024
280
     0
281
     0
  0
CLASS
  1
ACMEDRAWINGMAN
  2
AcMeDrawingMan
  3
AcMeServices
 90
     1024
280
     0
281
     0
  0
CLASS
  1
ACMEVIEW
  2
AcMeView
  3
AcMeServices
 90
     1024
280
     0
281
     0
  0
CLASS
  1
ACDBENTITYCACHE
  2
AcMeEntityCache
  3
AcMeServices
 90
     1024
280
     0
281
     0
  0
CLASS
  1
GSMANAGER
  2
AcMeGSManager
  3
AcMeServices
 90
     1024
280
     0
281
     0
  0
CLASS
  1
AMDTINTERNALREACTOR
  2
AmdtInternalReactor
  3
AcMeServices
 90
     1024
280
     0
281
     0
  0
CLASS
  1
ACMESTATEMGR
  2
AcMeStateMgr
  3
AcMeServices
 90
     1024
280
     0
281
     0
  0
CLASS
  1
ACGREFMASTER
  2
AcGrefMaster
  3
AcAttribServices
 90
     1024
280
     0
281
     0
  0
CLASS
  1
ACME_DATABASE
  2
AcMeDbDatabase
  3
AcMeServices
 90
     1024
280
     0
281
     0
  0
CLASS
  1
ACRFINSADJUSTERMGR
  2
AcRfInsAdjusterMgr
  3
AcMeServices
 90
     1024
280
     0
281
     0
  0
CLASS
  1
ACGREFACADMASTER
  2
AcGrefacadMaster
  3
AcGrefServices
 90
     1024
280
     0
281
     0
  0
CLASS
  1
AMIMASTER
  2
AmiMaster
  3
AmiServices
 90
     1024
280
     0
281
     0
  0
CLASS
  1
ACMDATADICTIONARY
  2
AcmDataDictionary
  3
"AcmSymBB|Product Description: AutoCAD Mechanical|Company: Autodesk, Inc."
 90
     1024
280
     0
281
     0
  0
CLASS
  1
ACMDATAENTRYBLOCK
  2
AcmDataEntryBlock
  3
AcmSymBB|Product Description: AutoCAD Mechanical|Company: Autodesk, Inc.
 90
    33792
280
     0
281
     0
  0
CLASS
  1
ACIMSTRSYSVAR
  2
AcImStrSysVar
  3
AcMeServices
 90
     1024
280
     0
281
     0
  0
CLASS
  1
ACMSTANDARDDIN
  2
AcmStandardDIN
  3
"Amdt_StdImp|Product Description: AutoCAD Mechanical|Company: Autodesk, Inc."
 90
     1024
280
     0
281
     0
  0
CLASS
  1
AMGOBJPROPCFG
  2
AmgObjPropCfg
  3
"AmgLay|Product Description: AutoCAD Mechanical|Company: Autodesk, Inc."
 90
     1025
280
     0
281
     0
  0
CLASS
  1
AMDTEDGESTANDARDDIN
  2
AmdtEdgeStdDIN
  3
"Amdt_StdImp|Product Description: AutoCAD Mechanical|Company: Autodesk, Inc."
 90
    33792
280
     0
281
     0
  0
CLASS
  1
ACMSURFSTANDARDDIN
  2
AcmSurfTextStdDIN
  3
"Amdt_StdImp|Product Description: AutoCAD Mechanical|Company: Autodesk, Inc."
 90
     1024
280
     0
281
     0
  0
CLASS
  1
ACMFCFSTANDARDDIN
  2
AcmFCFStdDIN
  3
"Amdt_StdImp|Product Description: AutoCAD Mechanical|Company: Autodesk, Inc."
 90
     1024
280
     0
281
     0
  0
CLASS
  1
ACMWELDSTANDARDDIN
  2
AcmWeldingStdDIN
  3
"Amdt_StdImp|Product Description: AutoCAD Mechanical|Company: Autodesk, Inc."
 90
     1024
280
     0
281
     0
  0
CLASS
  1
ACMIDSTANDARDDIN
  2
AcmIdStdDIN
  3
"Amdt_StdImp|Product Description: AutoCAD Mechanical|Company: Autodesk, Inc."
 90
     1024
280
     0
281
     0
  0
CLASS
  1
ACMDATUMSTANDARDDIN
  2
AcmDatumStdDIN
  3
"Amdt_StdImp|Product Description: AutoCAD Mechanical|Company: Autodesk, Inc."
 90
     1024
280
     0
281
     0
  0
CLASS
  1
ACMBOMSTANDARDDIN
  2
AcmBOMStdDIN
  3
"Amdt_StdImp|Product Description: AutoCAD Mechanical|Company: Autodesk, Inc."
 90
     1024
280
     0
281
     0
  0
CLASS
  1
ACMDETAILSTANDARDDIN
  2
AmdtDetailSymStdDIN
  3
"Amdt_StdImp|Product Description: AutoCAD Mechanical|Company: Autodesk, Inc."
 90
     1024
280
     0
281
     0
  0
CLASS
  1
ACMSECTIONSTANDARDDIN
  2
AmdtSectionSymStdDIN
  3
"Amdt_StdImp|Product Description: AutoCAD Mechanical|Company: Autodesk, Inc."
 90
     1024
280
     0
281
     0
  0
CLASS
  1
ACMCENTERLINESTANDARDDIN
  2
AmdtCenterLineStdDIN
  3
"Amdt_StdImp|Product Description: AutoCAD Mechanical|Company: Autodesk, Inc."
 90
     1024
280
     0
281
     0
  0
CLASS
  1
ACAMGLAYSTD
  2
AcAmgLayStd
  3
"AmgLay|Product Description: AutoCAD Mechanical|Company: Autodesk, Inc."
 90
     1024
280
     0
281
     0
  0
CLASS
  1
ACAMGDIMSTD
  2
AcAmgDimStd
  3
"AmgDim|Product Description: AutoCAD Mechanical|Company: Autodesk, Inc."
 90
     1024
280
     0
281
     0
  0
CLASS
  1
ACAMGTITLESTD
  2
AcAmgTitleStd
  3
"AmgTitle|Product Description: AutoCAD Mechanical|Company: Autodesk, Inc."
 90
     4095
280
     0
281
     0
  0
CLASS
  1
LAYER_INDEX
  2
AcDbLayerIndex
  3
ObjectDBX Classes
 90
    32768
280
     0
281
     0
  0
CLASS
  1
IDBUFFER
  2
AcDbIdBuffer
  3
ObjectDBX Classes
 90
    32768
280
     0
281
     0
  0
CLASS
  1
TABLESTYLE
  2
AcDbTableStyle
  3
ObjectDBX Classes
 90
     4095
280
     0
281
     0
  0
CLASS
  1
AM_DRAWING_MGR
  2
AcDmDwgMgr
  3
AcMechDwgViewMgmt
 90
     1024
280
     0
281
     0
  0
CLASS
  1
AM_DWG_DOCUMENT
  2
AcDmDwgDocument
  3
AcMechDwgViewMgmt
 90
     1024
280
     0
281
     0
  0
CLASS
  1
AM_DWG_SHEET
  2
AcDmSheet
  3
AcMechDwgViewMgmt
 90
     1024
280
     0
281
     0
  0
CLASS
  1
AM_VIEWDIMPARMAP
  2
AcDmViewDimParMap
  3
AcMechDwgViewMgmt
 90
     1024
280
     0
281
     0
  0
CLASS
  1
AM_DWGMGR_NAME
  2
AcDmDwgMgrName
  3
AcMechDwgViewMgmt
 90
     1024
280
     0
281
     0
  0
CLASS
  1
AMDTMENUSTATEMGR
  2
AmdtMenuStateMgr
  3
McadcomServices
 90
     1024
280
     0
281
     0
  0
CLASS
  1
AMDTMCOMMENUSTATE
  2
AmdtMcomMenuState
  3
McadcomServices
 90
     1024
280
     0
281
     0
  0
CLASS
  1
MAPIAMMOUDLE
  2
MApiAmModule
  3
MApiAmServices
 90
     1024
280
     0
281
     0
  0
CLASS
  1
AMDTADMENUSTATE
  2
AmdtAdMenuState
  3
DesignerServices
 90
     1024
280
     0
281
     0
  0
CLASS
  1
ADAPPL
  2
AcAdAppl
  3
DesignerServices
 90
     1024
280
     0
281
     0
  0
CLASS
  1
DEPMGR
  2
AcAdDepMgr
  3
DesignerServices
 90
     1024
280
     0
281
     0
  0
CLASS
  1
PARAMMGR
  2
AcAdParamMgr
  3
DesignerServices
 90
     1024
280
     0
281
     0
  0
CLASS
  1
PARAMSCOPE
  2
AcAdParamScope
  3
DesignerServices
 90
     1024
280
     0
281
     0
  0
CLASS
  1
NAMEDAPPL
  2
AcAdNamedAppl
  3
DesignerServices
 90
     1024
280
     0
281
     0
  0
CLASS
  1
AMDTDMMENUSTATE
  2
AmdtDmMenuState
  3
AcMechDwgViewMgmt
 90
     1024
280
     0
281
     0
  0
CLASS
  1
AMDTAMMENUSTATE
  2
AmdtAmMenuState
  3
DesignerAssemblies
 90
     1024
280
     0
281
     0
  0
CLASS
  1
ACAMPROJECT
  2
AcAmProject
  3
DesignerAssemblies
 90
     1024
280
     0
281
     0
  0
CLASS
  1
ACAMGRCOMPDEF
  2
AcAmGrCompDef
  3
DesignerAssemblies
 90
     1024
280
     0
281
     0
  0
CLASS
  1
ACCMCONTEXT
  2
AcCmContext
  3
DesignerAssemblies
 90
     1024
280
     0
281
     0
  0
CLASS
  1
ACAMCOMPDEF
  2
AcAmCompDef
  3
DesignerAssemblies
 90
     1024
280
     0
281
     0
  0
CLASS
  1
ACAMCOMPDEFMGR
  2
AcAmCompDefMgr
  3
DesignerAssemblies
 90
     1024
280
     0
281
     0
  0
CLASS
  1
AMCONTEXTMGR
  2
AcAmContextMgr
  3
DesignerAssemblies
 90
     1024
280
     0
281
     0
  0
CLASS
  1
ACAMCONTEXTMODELER
  2
AcAmContextModeler
  3
DesignerAssemblies
 90
     1024
280
     0
281
     0
  0
CLASS
  1
ACMTHREADLINESTANDARDDIN
  2
AmdtThreadLineStdDIN
  3
"Amdt_StdImp|Product Description: AutoCAD Mechanical|Company: Autodesk, Inc."
 90
     1024
280
     0
281
     0
  0
CLASS
  1
ACMNOTESTANDARDDIN
  2
AmdtNoteStdDIN
  3
"Amdt_StdImp|Product Description: AutoCAD Mechanical|Company: Autodesk, Inc."
 90
     1024
280
     0
281
     0
  0
CLASS
  1
AMDTNOTETEMPLATEDB
  2
AmdtNoteTemplateDB
  3
AcmSymBB|Product Description: AutoCAD Mechanical|Company: Autodesk, Inc.
 90
     1024
280
     0
281
     0
  0
CLASS
  1
CATALOGSTATE
  2
AcAmCatalogState
  3
DesignerAssemblies
 90
     1024
280
     0
281
     0
  0
CLASS
  1
ACAMGRCOMPDEFSET
  2
AcAmGrCompDefSet
  3
DesignerAssemblies
 90
     1024
280
     0
281
     0
  0
CLASS
  1
AMDTBROWSERDBTAB
  2
AmdtBrowserDbTab
  3
McadcomServices
 90
     1024
280
     0
281
     0
  0
CLASS
  1
CBROWSERAPPOBJECT
  2
CBrowserAppObject
  3
McadcomServices
 90
     1024
280
     0
281
     0
  0
CLASS
  1
DM_PLACEHOLDER
  2
AcDmSelsetPlaceholder
  3
AcMechDwgViewMgmt
 90
     1024
280
     0
281
     0
  0
CLASS
  1
ACAMGFILTERDAT
  2
AcAmgFilterDat
  3
"AcadM|Product Description: AutoCAD Mechanical|Company: Autodesk, Inc."
 90
    33792
280
     0
281
     0
  0
CLASS
  1
AMDTEDGESTANDARDDIN13715
  2
AmdtEdgeStdDIN13715
  3
"Amdt_StdImp|Product Description: AutoCAD Mechanical|Company: Autodesk, Inc."
 90
     1024
280
     0
281
     0
  0
CLASS
  1
ACAMGHOLECHARTSTDDIN
  2
AcAmgHoleChartStdDIN
  3
AmgDim|Product Description: AutoCAD Mechanical|Company: Autodesk, Inc.
 90
     1024
280
     0
281
     0
  0
CLASS
  1
SORTENTSTABLE
  2
AcDbSortentsTable
  3
ObjectDBX Classes
 90
        0
280
     0
281
     0
  0
CLASS
  1
MATERIAL
  2
AcDbMaterial
  3
ObjectDBX Classes
 90
     1153
280
     0
281
     0
  0
CLASS
  1
VISUALSTYLE
  2
AcDbVisualStyle
  3
ObjectDBX Classes
 90
     4095
280
     0
281
     0
  0
CLASS
  1
SCALE
  2
AcDbScale
  3
ObjectDBX Classes
 90
     1153
280
     0
281
     0
  0
CLASS
  1
MLEADERSTYLE
  2
AcDbMLeaderStyle
  3
ACDB_MLEADERSTYLE_CLASS
 90
     4095
280
     0
281
     0
  0
CLASS
  1
ACMTAPERSTANDARDDIN
  2
AcmTaperStdDIN
  3
"Amdt_StdImp|Product Description: AutoCAD Mechanical|Company: Autodesk, Inc."
 90
     1024
280
     0
281
     0
  0
CLASS
  1
ACMANOOTATIONVIEWSTANDARDDIN
  2
AmdtAnViewStdDIN
  3
"Amdt_StdImp|Product Description: AutoCAD Mechanical|Company: Autodesk, Inc."
 90
     1024
280
     0
281
     0
  0
CLASS
  1
EXACXREFPANELOBJECT
  2
ExAcXREFPanelObject
  3
EXAC_ESW
 90
     1025
280
     0
281
     0
  0
CLASS
  1
NPOCOLLECTION
  2
AcDbImpNonPersistentObjectsCollection
  3
ObjectDBX Classes
 90
     1153
280
     0
281
     0
  0
CLASS
  1
CELLSTYLEMAP
  2
AcDbCellStyleMap
  3
ObjectDBX Classes
 90
     1152
280
     0
281
     0
  0
ENDSEC
  0
SECTION
  2
TABLES
  0
TABLE
  2
VPORT
  5
1A
330
0
100
AcDbSymbolTable
 70
     1
  0
VPORT
  5
12AE
330
1A
100
AcDbSymbolTableRecord
100
AcDbViewportTableRecord
  2
*Active
 70
     0
 10
0.0
 20
0.0
 11
1.0
 21
1.0
 12
385.7913250620462
 22
497.8316098632666
 13
0.0
 23
0.0
 14
2.0
 24
2.0
 15
20.0
 25
20.0
 16
0.0
 26
0.0
 36
1.0
 17
0.0
 27
0.0
 37
0.0
 40
683.1026117130602
 41
1.823321554770318
 42
50.0
 43
0.0
 44
0.0
 50
0.0
 51
0.0
 71
     0
 72
 15000
 73
     1
 74
     1
 75
     0
 76
     0
 77
     0
 78
     0
281
     0
 65
     1
110
0.0
120
0.0
130
0.0
111
1.0
121
0.0
131
0.0
112
0.0
122
1.0
132
0.0
 79
     0
146
0.0
  0
ENDTAB
  0
TABLE
  2
LTYPE
  5
15
330
0
100
AcDbSymbolTable
 70
    15
  0
LTYPE
  5
16
330
15
100
AcDbSymbolTableRecord
100
AcDbLinetypeTableRecord
  2
BYBLOCK
 70
     0
  3

 72
    65
 73
     0
 40
0.0
  0
LTYPE
  5
17
330
15
100
AcDbSymbolTableRecord
100
AcDbLinetypeTableRecord
  2
BYLAYER
 70
     0
  3

 72
    65
 73
     0
 40
0.0
  0
LTYPE
  5
9
330
15
100
AcDbSymbolTableRecord
100
AcDbLinetypeTableRecord
  2
CONTINUOUS
 70
     0
  3
Solid line
 72
    65
 73
     0
 40
0.0
  0
LTYPE
  5
54
330
15
100
AcDbSymbolTableRecord
100
AcDbLinetypeTableRecord
  2
GEN7
 70
     0
  3
____ . ____ . ____ . ____ . ____ . ____ . ____
 72
    65
 73
     4
 40
13.75
 49
10.0
 74
     0
 49
-1.25
 74
     0
 49
1.25
 74
     0
 49
-1.25
 74
     0
  0
LTYPE
  5
4B4
330
15
100
AcDbSymbolTableRecord
100
AcDbLinetypeTableRecord
  2
ACDINWELD
 70
     0
  3
_ _ _ _ _
 72
    65
 73
     2
 40
2.0
 49
2.0
 74
     0
 49
-1.0
 74
     0
  0
LTYPE
  5
4B7
330
15
100
AcDbSymbolTableRecord
100
AcDbLinetypeTableRecord
  2
ACDINTGB
 70
     0
  3
__ . . __ . .
 72
    65
 73
     6
 40
9.0
 49
4.0
 74
     0
 49
-1.0
 74
     0
 49
1.0
 74
     0
 49
-1.0
 74
     0
 49
1.0
 74
     0
 49
-1.0
 74
     0
  0
LTYPE
  5
4B8
330
15
100
AcDbSymbolTableRecord
100
AcDbLinetypeTableRecord
  2
ACDINTGL
 70
     0
  3
_ _ _ _ _
 72
    65
 73
     2
 40
3.0
 49
2.0
 74
     0
 49
-1.0
 74
     0
  0
LTYPE
  5
4BC
330
15
100
AcDbSymbolTableRecord
100
AcDbLinetypeTableRecord
  2
CENTER
 70
     0
  3
__ . __
 72
    65
 73
     4
 40
7.0
 49
4.0
 74
     0
 49
-1.0
 74
     0
 49
1.0
 74
     0
 49
-1.0
 74
     0
  0
LTYPE
  5
4FA
330
15
100
AcDbSymbolTableRecord
100
AcDbLinetypeTableRecord
  2
HIDDEN
 70
     0
  3
Verdeckt
 72
    65
 73
     2
 40
9.525
 49
6.349999999999999
 74
     0
 49
-3.174999999999999
 74
     0
  0
LTYPE
  5
4FB
330
15
100
AcDbSymbolTableRecord
100
AcDbLinetypeTableRecord
  2
PHANTOM2
 70
     0
  3
Phantom (.5x) ___ _ _ ___ _ _ ___ _ _ ___ _ _
 72
    65
 73
     6
 40
31.75
 49
15.875
 74
     0
 49
-3.174999999999999
 74
     0
 49
3.174999999999999
 74
     0
 49
-3.174999999999999
 74
     0
 49
3.174999999999999
 74
     0
 49
-3.174999999999999
 74
     0
  0
LTYPE
  5
5C2
330
15
100
AcDbSymbolTableRecord
100
AcDbLinetypeTableRecord
  2
Amconstr
 70
     0
  3
_______________________
 72
    65
 73
     2
 40
9999.0
 49
9999.0
 74
     0
 49
0.0
 74
     0
  0
LTYPE
  5
5C5
330
15
100
AcDbSymbolTableRecord
100
AcDbLinetypeTableRecord
  2
Amzigzag
 70
     0
  3
/\/-/\/-/\/-/\/-/\/-/\/
 72
    65
 73
     2
 40
11.0001
 49
0.0001
 74
     4
 75
   136
340
4A4
 46
0.04
 50
0.0
 44
0.0
 45
0.0
 49
-11.0
 74
     0
  0
LTYPE
  5
5C6
330
15
100
AcDbSymbolTableRecord
100
AcDbLinetypeTableRecord
  2
AM_DIN_F_W050
 70
     0
  3
__ __ __ __ __ __ __ __ __ __ __ __ __ __ __
 72
    65
 73
     2
 40
6.25
 49
4.75
 74
     0
 49
-1.5
 74
     0
  0
LTYPE
  5
5C7
330
15
100
AcDbSymbolTableRecord
100
AcDbLinetypeTableRecord
  2
AM_DIN_G_W050
 70
     0
  3
____ . ____ . ____ . ____ . ____ . ____ . ____
 72
    65
 73
     4
 40
13.75
 49
9.75
 74
     0
 49
-1.5
 74
     0
 49
1.0
 74
     0
 49
-1.5
 74
     0
  0
LTYPE
  5
5C8
330
15
100
AcDbSymbolTableRecord
100
AcDbLinetypeTableRecord
  2
AM_DIN_K_W050
 70
     0
  3
_____ . . _____ . . _____ . . ____ .. ____
 72
    65
 73
     6
 40
16.25
 49
9.75
 74
     0
 49
-1.5
 74
     0
 49
1.0
 74
     0
 49
-1.5
 74
     0
 49
1.0
 74
     0
 49
-1.5
 74
     0
  0
LTYPE
  5
5C9
330
15
100
AcDbSymbolTableRecord
100
AcDbLinetypeTableRecord
  2
AM_DIN_G_W050x2
 70
     0
  3
__ . __ . __ . __ . __ . __
 72
    65
 73
     4
 40
6.875
 49
4.75
 74
     0
 49
-0.875
 74
     0
 49
0.375
 74
     0
 49
-0.875
 74
     0
  0
LTYPE
  5
5CA
330
15
100
AcDbSymbolTableRecord
100
AcDbLinetypeTableRecord
  2
AM_DIN_F_W050x2
 70
     0
  3
 _ _ _ _ _ _ _ _ _ _ _ _
 72
    65
 73
     2
 40
3.125
 49
2.25
 74
     0
 49
-0.875
 74
     0
  0
ENDTAB
  0
TABLE
  2
LAYER
  5
11
102
{ACAD_XDICTIONARY
360
C54
102
}
330
0
100
AcDbSymbolTable
 70
     7
  0
LAYER
  5
5
330
11
100
AcDbSymbolTableRecord
100
AcDbLayerTableRecord
  2
0
 70
     0
 62
     7
  6
CONTINUOUS
370
    -3
390
6
  0
LAYER
  5
53
330
11
100
AcDbSymbolTableRecord
100
AcDbLayerTableRecord
  2
7
 70
     0
 62
     4
  6
GEN7
370
    -3
390
6
  0
LAYER
  5
2D
330
11
100
AcDbSymbolTableRecord
100
AcDbLayerTableRecord
  2
4
 70
     0
 62
     3
  6
CONTINUOUS
370
    -3
390
6
  0
LAYER
  5
6C
330
11
100
AcDbSymbolTableRecord
100
AcDbLayerTableRecord
  2
8
 70
     0
 62
     1
  6
CONTINUOUS
370
    -3
390
6
  0
LAYER
  5
74
330
11
100
AcDbSymbolTableRecord
100
AcDbLayerTableRecord
  2
0A
 70
     0
 62
     7
  6
CONTINUOUS
370
    -3
390
6
  0
LAYER
  5
D49
330
11
100
AcDbSymbolTableRecord
100
AcDbLayerTableRecord
  2
5
 70
     0
 62
     3
  6
CONTINUOUS
370
    -3
390
6
  0
LAYER
  5
D4A
330
11
100
AcDbSymbolTableRecord
100
AcDbLayerTableRecord
  2
DEFPOINTS
 70
     0
 62
     7
  6
CONTINUOUS
290
     0
370
    -3
390
6
  0
ENDTAB
  0
TABLE
  2
STYLE
  5
12
330
0
100
AcDbSymbolTable
 70
     4
  0
STYLE
  5
13
330
12
100
AcDbSymbolTableRecord
100
AcDbTextStyleTableRecord
  2
STANDARD
 70
     0
 40
0.0
 41
1.0
 50
0.0
 71
     0
 42
5.0
  3
ISOCP.SHX
  4

  0
STYLE
  5
4AE
330
12
100
AcDbSymbolTableRecord
100
AcDbTextStyleTableRecord
  2
ACDINTS
 70
     0
 40
1.0
 41
1.0
 50
0.0
 71
     0
 42
5.0
  3
isocp.shx
  4

  0
STYLE
  5
4B2
330
12
100
AcDbSymbolTableRecord
100
AcDbTextStyleTableRecord
  2
ACDINGDT
 70
     0
 40
0.0
 41
1.0
 50
0.0
 71
     0
 42
5.0
  3
AMGDT
  4

  0
STYLE
  5
4A4
330
12
100
AcDbSymbolTableRecord
100
AcDbTextStyleTableRecord
  2

 70
     1
 40
0.0
 41
1.0
 50
0.0
 71
     0
 42
5.0
  3
genltshp.shx
  4

  0
ENDTAB
  0
TABLE
  2
VIEW
  5
18
330
0
100
AcDbSymbolTable
 70
     0
  0
ENDTAB
  0
TABLE
  2
UCS
  5
19
330
0
100
AcDbSymbolTable
 70
     0
  0
ENDTAB
  0
TABLE
  2
APPID
  5
1C
330
0
100
AcDbSymbolTable
 70
    56
  0
APPID
  5
1D
330
1C
100
AcDbSymbolTableRecord
100
AcDbRegAppTableRecord
  2
ACAD
 70
     0
  0
APPID
  5
6D
330
1C
100
AcDbSymbolTableRecord
100
AcDbRegAppTableRecord
  2
GENIUS_GENODEF_13
 70
     0
  0
APPID
  5
226
330
1C
100
AcDbSymbolTableRecord
100
AcDbRegAppTableRecord
  2
GENIUS_GENOBJ-N-REC_13
 70
     0
  0
APPID
  5
94
330
1C
100
AcDbSymbolTableRecord
100
AcDbRegAppTableRecord
  2
GENIUS_GENOREF_13
 70
     0
  0
APPID
  5
223
330
1C
100
AcDbSymbolTableRecord
100
AcDbRegAppTableRecord
  2
GENIUS_VERSION2
 70
     0
  0
APPID
  5
225
330
1C
100
AcDbSymbolTableRecord
100
AcDbRegAppTableRecord
  2
GENIUS_GENREC_14
 70
     0
  0
APPID
  5
104
330
1C
100
AcDbSymbolTableRecord
100
AcDbRegAppTableRecord
  2
NC_GG_NT
 70
     0
  0
APPID
  5
105
330
1C
100
AcDbSymbolTableRecord
100
AcDbRegAppTableRecord
  2
NC_GG_AK
 70
     0
  0
APPID
  5
103
330
1C
100
AcDbSymbolTableRecord
100
AcDbRegAppTableRecord
  2
NC_GG_OF
 70
     0
  0
APPID
  5
91
330
1C
100
AcDbSymbolTableRecord
100
AcDbRegAppTableRecord
  2
GENIUS_GENHINW_13
 70
     0
  0
APPID
  5
FB
330
1C
100
AcDbSymbolTableRecord
100
AcDbRegAppTableRecord
  2
GENIUS_GENOBJ-N-FIL_13
 70
     0
  0
APPID
  5
40
330
1C
100
AcDbSymbolTableRecord
100
AcDbRegAppTableRecord
  2
GENIUS_GENDTOL_13
 70
     0
  0
APPID
  5
6E
330
1C
100
AcDbSymbolTableRecord
100
AcDbRegAppTableRecord
  2
GENIUS_GENOBJ-N-HTC_13
 70
     0
  0
APPID
  5
6F
330
1C
100
AcDbSymbolTableRecord
100
AcDbRegAppTableRecord
  2
GENIUS_GENHATCH_13
 70
     0
  0
APPID
  5
7D
330
1C
100
AcDbSymbolTableRecord
100
AcDbRegAppTableRecord
  2
GENIUS_GENTRA_14
 70
     0
  0
APPID
  5
85
330
1C
100
AcDbSymbolTableRecord
100
AcDbRegAppTableRecord
  2
GENIUS_FIRSTVISTXT_14
 70
     0
  0
APPID
  5
87
330
1C
100
AcDbSymbolTableRecord
100
AcDbRegAppTableRecord
  2
GENIUS_SECONDVISTXT_14
 70
     0
  0
APPID
  5
4D1
330
1C
100
AcDbSymbolTableRecord
100
AcDbRegAppTableRecord
  2
GENIUS_GENOENT_13
 70
     0
  0
APPID
  5
4D8
330
1C
100
AcDbSymbolTableRecord
100
AcDbRegAppTableRecord
  2
GENIUS_GENOBJ-N-TIT_13
 70
     0
  0
APPID
  5
4D9
330
1C
100
AcDbSymbolTableRecord
100
AcDbRegAppTableRecord
  2
GENIUS_GENTITLE_13
 70
     0
  0
APPID
  5
4D2
330
1C
100
AcDbSymbolTableRecord
100
AcDbRegAppTableRecord
  2
GENIUS_GENOLIS_13
 70
     0
  0
APPID
  5
22C
330
1C
100
AcDbSymbolTableRecord
100
AcDbRegAppTableRecord
  2
GENIUS_GENOBJ-N-SDF_13
 70
     0
  0
APPID
  5
22B
330
1C
100
AcDbSymbolTableRecord
100
AcDbRegAppTableRecord
  2
GENIUS_GENSCREG_13
 70
     0
  0
APPID
  5
4D0
330
1C
100
AcDbSymbolTableRecord
100
AcDbRegAppTableRecord
  2
GENIUS_GENOBJ-N-HINW_13
 70
     0
  0
APPID
  5
516
330
1C
100
AcDbSymbolTableRecord
100
AcDbRegAppTableRecord
  2
MCAD_NO_VIS
 70
     0
  0
APPID
  5
517
330
1C
100
AcDbSymbolTableRecord
100
AcDbRegAppTableRecord
  2
ACAD_TEMP_GRAPHIC
 70
     0
  0
APPID
  5
520
330
1C
100
AcDbSymbolTableRecord
100
AcDbRegAppTableRecord
  2
AD_DRAW
 70
     0
  0
APPID
  5
523
330
1C
100
AcDbSymbolTableRecord
100
AcDbRegAppTableRecord
  2
ACATTRIBSERVICES
 70
     0
  0
APPID
  5
53B
330
1C
100
AcDbSymbolTableRecord
100
AcDbRegAppTableRecord
  2
DESIGNERASSEMBLIES
 70
     0
  0
APPID
  5
542
330
1C
100
AcDbSymbolTableRecord
100
AcDbRegAppTableRecord
  2
ACADM_DIM_EDIT
 70
     0
  0
APPID
  5
543
330
1C
100
AcDbSymbolTableRecord
100
AcDbRegAppTableRecord
  2
AMDT_DM_ADJ
 70
     0
  0
APPID
  5
5E0
330
1C
100
AcDbSymbolTableRecord
100
AcDbRegAppTableRecord
  2
ACAD_DSTYLE_DIMARC_LENGTH_SYMBOL
 70
     0
  0
APPID
  5
5E1
330
1C
100
AcDbSymbolTableRecord
100
AcDbRegAppTableRecord
  2
ACAD_DSTYLE_DIMJOGGED_JOGANGLE_SYMBOL
 70
     0
  0
APPID
  5
7C7
330
1C
100
AcDbSymbolTableRecord
100
AcDbRegAppTableRecord
  2
GENIUS_GENOBJ-N-CEN_13
 70
     0
  0
APPID
  5
7C8
330
1C
100
AcDbSymbolTableRecord
100
AcDbRegAppTableRecord
  2
VCC
 70
     0
  0
APPID
  5
7C9
330
1C
100
AcDbSymbolTableRecord
100
AcDbRegAppTableRecord
  2
GEVPT
 70
     0
  0
APPID
  5
7CA
330
1C
100
AcDbSymbolTableRecord
100
AcDbRegAppTableRecord
  2
GEVIT
 70
     0
  0
APPID
  5
7CB
330
1C
100
AcDbSymbolTableRecord
100
AcDbRegAppTableRecord
  2
GENBH
 70
     0
  0
APPID
  5
7CC
330
1C
100
AcDbSymbolTableRecord
100
AcDbRegAppTableRecord
  2
GENIUS_GENBH_13
 70
     0
  0
APPID
  5
7CD
330
1C
100
AcDbSymbolTableRecord
100
AcDbRegAppTableRecord
  2
GENIUS_GENOBJ-NBEHI-BHF_13
 70
     0
  0
APPID
  5
7CE
330
1C
100
AcDbSymbolTableRecord
100
AcDbRegAppTableRecord
  2
GENIUS_GENOBJ-NBEHI-BHB_13
 70
     0
  0
APPID
  5
7CF
330
1C
100
AcDbSymbolTableRecord
100
AcDbRegAppTableRecord
  2
GENIUS_GENOBJ-F-PART_13
 70
     0
  0
APPID
  5
7D0
330
1C
100
AcDbSymbolTableRecord
100
AcDbRegAppTableRecord
  2
GENIUS_GEFSTDP_13
 70
     0
  0
APPID
  5
7D1
330
1C
100
AcDbSymbolTableRecord
100
AcDbRegAppTableRecord
  2
GENIUS_GEFPARTINS_13
 70
     0
  0
APPID
  5
7D2
330
1C
100
AcDbSymbolTableRecord
100
AcDbRegAppTableRecord
  2
GEVID901715756
 70
     0
  0
APPID
  5
7D3
330
1C
100
AcDbSymbolTableRecord
100
AcDbRegAppTableRecord
  2
GENIUS_GENOBJ-F-DESC_13
 70
     0
  0
APPID
  5
7D4
330
1C
100
AcDbSymbolTableRecord
100
AcDbRegAppTableRecord
  2
GENIUS_GEFDESC_14
 70
     0
  0
APPID
  5
7D5
330
1C
100
AcDbSymbolTableRecord
100
AcDbRegAppTableRecord
  2
GENIUS_GENOBJ-N-SEC_13
 70
     0
  0
APPID
  5
7D6
330
1C
100
AcDbSymbolTableRecord
100
AcDbRegAppTableRecord
  2
GENIUS_GENOBJ-N-DIMBR_13
 70
     0
  0
APPID
  5
7D7
330
1C
100
AcDbSymbolTableRecord
100
AcDbRegAppTableRecord
  2
GENIUS_DIMBR_14
 70
     0
  0
APPID
  5
7D8
330
1C
100
AcDbSymbolTableRecord
100
AcDbRegAppTableRecord
  2
GENIUS_DIMBRX_14
 70
     0
  0
APPID
  5
7D9
330
1C
100
AcDbSymbolTableRecord
100
AcDbRegAppTableRecord
  2
GENIUS_GENOBJ-N-DIMBRX_13
 70
     0
  0
APPID
  5
C28
330
1C
100
AcDbSymbolTableRecord
100
AcDbRegAppTableRecord
  2
AcAecLayerStandard
 70
     0
  0
APPID
  5
C3E
330
1C
100
AcDbSymbolTableRecord
100
AcDbRegAppTableRecord
  2
ACAD_EXEMPT_FROM_CAD_STANDARDS
 70
     0
  0
APPID
  5
12A3
330
1C
100
AcDbSymbolTableRecord
100
AcDbRegAppTableRecord
  2
ACAD_PSEXT
 70
     0
  0
APPID
  5
12ED
330
1C
100
AcDbSymbolTableRecord
100
AcDbRegAppTableRecord
  2
ACAD_MLEADERVER
 70
     0
  0
ENDTAB
  0
TABLE
  2
DIMSTYLE
  5
1E
330
0
100
AcDbSymbolTable
 70
     8
100
AcDbDimStyleTable
 71
     1
340
28
  0
DIMSTYLE
105
28
102
{ACAD_REACTORS
330
F53
330
F54
330
F6A
330
F6B
330
F6C
330
F40
330
11A5
330
1220
330
1249
330
125F
102
}
330
1E
100
AcDbSymbolTableRecord
100
AcDbDimStyleTableRecord
  2
GEN-ISO
 70
     0
  4
"
 40
2.0
 41
2.5
 42
1.0
 43
7.0
 44
1.0
 47
0.1
 48
0.1
 73
     0
 74
     0
 77
     1
 78
     8
140
3.5
141
0.0
143
0.0393701
146
0.71
147
0.6
172
     1
176
   256
177
   256
178
     2
271
     2
272
     3
274
     4
283
     0
340
13
  0
DIMSTYLE
105
5DF
330
1E
100
AcDbSymbolTableRecord
100
AcDbDimStyleTableRecord
  2
AM_DIN
 70
     0
  4
"
 41
2.5
 42
1.0
 43
10.0
 44
1.0
 47
0.1
 48
0.1
 73
     0
 74
     0
 77
     1
 78
     8
 79
     2
140
3.5
141
0.0
143
0.0393701
146
0.71
147
1.5
172
     1
176
   256
177
   256
178
     2
271
     2
272
     3
274
     4
283
     0
284
     8
340
13
371
    -1
372
    -1
1001
ACAD_DSTYLE_DIMJOGGED_JOGANGLE_SYMBOL
1070
   384
1040
1.570796326794896
  0
DIMSTYLE
105
5F0
330
1E
100
AcDbSymbolTableRecord
100
AcDbDimStyleTableRecord
  2
AM_DIN$3
 70
     0
  4
"
 41
2.5
 42
1.0
 43
10.0
 44
1.0
 47
0.1
 48
0.1
 73
     0
 77
     1
 78
     8
 79
     2
140
3.5
141
0.0
143
0.0393701
146
0.71
147
1.5
176
   256
177
   256
178
     2
271
     2
272
     3
274
     4
283
     0
284
     8
288
     1
289
     0
340
13
371
    -1
372
    -1
1001
ACAD_DSTYLE_DIMJOGGED_JOGANGLE_SYMBOL
1070
   384
1040
1.570796326794896
  0
DIMSTYLE
105
5F5
330
1E
100
AcDbSymbolTableRecord
100
AcDbDimStyleTableRecord
  2
AM_DIN$4
 70
     0
  4
"
 41
2.5
 42
1.0
 43
10.0
 44
1.0
 47
0.1
 48
0.1
 73
     0
 77
     1
 78
     8
 79
     2
140
3.5
141
0.0
143
0.0393701
146
0.71
147
1.5
176
   256
177
   256
178
     2
271
     2
272
     3
274
     4
283
     0
284
     8
288
     1
289
     0
340
13
371
    -1
372
    -1
1001
ACAD_DSTYLE_DIMJOGGED_JOGANGLE_SYMBOL
1070
   384
1040
1.570796326794896
  0
DIMSTYLE
105
5FA
330
1E
100
AcDbSymbolTableRecord
100
AcDbDimStyleTableRecord
  2
AM_DIN$6
 70
     0
  4
"
 41
2.5
 42
1.0
 43
10.0
 44
1.0
 47
0.1
 48
0.1
 73
     0
 74
     0
 78
     8
 79
     2
140
3.5
141
0.0
143
0.0393701
146
0.71
147
1.5
172
     1
176
   256
177
   256
178
     2
271
     2
272
     3
274
     4
283
     0
284
     8
340
13
371
    -1
372
    -1
1001
ACAD_DSTYLE_DIMJOGGED_JOGANGLE_SYMBOL
1070
   384
1040
1.570796326794896
  0
DIMSTYLE
105
5FF
330
1E
100
AcDbSymbolTableRecord
100
AcDbDimStyleTableRecord
  2
AM_DIN$7
 70
     0
  4
"
 41
2.5
 42
1.0
 43
10.0
 44
1.0
 47
0.1
 48
0.1
 73
     0
 74
     0
 77
     1
 78
     8
 79
     2
140
5.0
141
0.0
143
0.0393701
146
0.71
147
1.5
172
     1
176
   256
177
   256
178
     2
271
     2
272
     3
274
     4
283
     0
284
     8
340
13
371
    -1
372
    -1
1001
ACAD_DSTYLE_DIMJOGGED_JOGANGLE_SYMBOL
1070
   384
1040
1.570796326794896
  0
DIMSTYLE
105
604
330
1E
100
AcDbSymbolTableRecord
100
AcDbDimStyleTableRecord
  2
AM_DIN$SF
 70
     0
  4
"
 41
2.5
 42
1.0
 43
10.0
 44
1.0
 47
0.1
 48
0.1
 73
     0
 74
     0
 75
     1
 76
     1
 77
     1
 78
     8
 79
     2
140
3.5
141
0.0
143
0.0393701
146
0.71
147
1.5
172
     1
176
   256
177
   256
178
     2
271
     2
272
     3
274
     4
283
     0
284
     8
340
13
371
    -1
372
    -1
1001
ACAD_DSTYLE_DIMJOGGED_JOGANGLE_SYMBOL
1070
   384
1040
1.570796326794896
  0
DIMSTYLE
105
60D
330
1E
100
AcDbSymbolTableRecord
100
AcDbDimStyleTableRecord
  2
AM_DIN$SH
 70
     0
  4
"
 41
2.5
 42
1.0
 43
10.0
 44
1.0
 47
0.1
 48
0.1
 73
     0
 74
     0
 75
     1
 76
     1
 77
     1
 78
     8
 79
     2
140
3.5
141
0.0
143
0.0393701
144
2.0
146
0.71
147
1.5
172
     1
173
     1
176
   256
177
   256
178
     2
271
     2
272
     3
274
     4
283
     0
284
     8
340
13
343
605
371
    -1
372
    -1
1001
ACAD_DSTYLE_DIMJOGGED_JOGANGLE_SYMBOL
1070
   384
1040
1.570796326794896
  0
ENDTAB
  0
TABLE
  2
BLOCK_RECORD
  5
1
330
0
100
AcDbSymbolTable
 70
    16
  0
BLOCK_RECORD
  5
2
102
{ACAD_XDICTIONARY
360
3
102
}
330
1
100
AcDbSymbolTableRecord
100
AcDbBlockTableRecord
  2
*MODEL_SPACE
340
B
  0
BLOCK_RECORD
  5
D
330
1
100
AcDbSymbolTableRecord
100
AcDbBlockTableRecord
  2
*PAPER_SPACE
340
10
  0
BLOCK_RECORD
  5
605
330
1
100
AcDbSymbolTableRecord
100
AcDbBlockTableRecord
  2
GENAXEH
340
0
  0
BLOCK_RECORD
  5
633
330
1
100
AcDbSymbolTableRecord
100
AcDbBlockTableRecord
  2
*X2
340
0
102
{BLKREFS
331
9DF
102
}
  0
BLOCK_RECORD
  5
64E
330
1
100
AcDbSymbolTableRecord
100
AcDbBlockTableRecord
  2
*X3
340
0
102
{BLKREFS
331
9E0
102
}
  0
BLOCK_RECORD
  5
65B
330
1
100
AcDbSymbolTableRecord
100
AcDbBlockTableRecord
  2
*X4
340
0
102
{BLKREFS
331
9E1
102
}
  0
BLOCK_RECORD
  5
7AE
330
1
100
AcDbSymbolTableRecord
100
AcDbBlockTableRecord
  2
*X5
340
0
102
{BLKREFS
331
B5C
331
B5F
102
}
  0
BLOCK_RECORD
  5
10C6
330
1
100
AcDbSymbolTableRecord
100
AcDbBlockTableRecord
  2
*D6
340
0
  0
BLOCK_RECORD
  5
10D2
330
1
100
AcDbSymbolTableRecord
100
AcDbBlockTableRecord
  2
*D7
340
0
  0
BLOCK_RECORD
  5
10DE
330
1
100
AcDbSymbolTableRecord
100
AcDbBlockTableRecord
  2
*D8
340
0
  0
BLOCK_RECORD
  5
10EA
330
1
100
AcDbSymbolTableRecord
100
AcDbBlockTableRecord
  2
*D9
340
0
  0
BLOCK_RECORD
  5
10F8
330
1
100
AcDbSymbolTableRecord
100
AcDbBlockTableRecord
  2
*D10
340
0
  0
BLOCK_RECORD
  5
1104
330
1
100
AcDbSymbolTableRecord
100
AcDbBlockTableRecord
  2
*D11
340
0
  0
BLOCK_RECORD
  5
11A6
330
1
100
AcDbSymbolTableRecord
100
AcDbBlockTableRecord
  2
*D12
340
0
  0
BLOCK_RECORD
  5
1221
330
1
100
AcDbSymbolTableRecord
100
AcDbBlockTableRecord
  2
*D13
340
0
  0
BLOCK_RECORD
  5
124A
330
1
100
AcDbSymbolTableRecord
100
AcDbBlockTableRecord
  2
*D14
340
0
  0
BLOCK_RECORD
  5
1260
330
1
100
AcDbSymbolTableRecord
100
AcDbBlockTableRecord
  2
*D15
340
0
  0
ENDTAB
  0
ENDSEC
  0
SECTION
  2
BLOCKS
  0
BLOCK
  5
4
330
2
100
AcDbEntity
  8
0
100
AcDbBlockBegin
  2
*MODEL_SPACE
 70
     0
 10
0.0
 20
0.0
 30
0.0
  3
*MODEL_SPACE
  1

  0
ENDBLK
  5
A
330
2
100
AcDbEntity
  8
0
100
AcDbBlockEnd
  0
BLOCK
  5
E
330
D
100
AcDbEntity
 67
     1
  8
0
100
AcDbBlockBegin
  2
*PAPER_SPACE
 70
     0
 10
0.0
 20
0.0
 30
0.0
  3
*PAPER_SPACE
  1

  0
ENDBLK
  5
F
330
D
100
AcDbEntity
 67
     1
  8
0
100
AcDbBlockEnd
  0
BLOCK
  5
607
330
605
100
AcDbEntity
  8
0
100
AcDbBlockBegin
  2
GENAXEH
 70
     0
 10
0.0
 20
0.0
 30
0.0
  3
GENAXEH
  1

  0
LINE
  5
606
330
605
100
AcDbEntity
  8
0
100
AcDbLine
 10
-1.0
 20
0.0
 30
0.0
 11
1.0
 21
0.0
 31
0.0
  0
ENDBLK
  5
608
330
605
100
AcDbEntity
  8
0
100
AcDbBlockEnd
  0
BLOCK
  5
634
330
633
100
AcDbEntity
  8
0
100
AcDbBlockBegin
  2
*X2
 70
     1
 10
0.0
 20
0.0
 30
0.0
  3
*X2
  1
GEVFRAME
  0
LINE
  5
635
330
633
100
AcDbEntity
  8
0
 62
     0
100
AcDbLine
 10
120.6952767673843
 20
382.3247858064068
 30
0.0
 11
122.1952767673843
 21
383.8247858064069
 31
0.0
  0
LINE
  5
636
330
633
100
AcDbEntity
  8
0
 62
     0
100
AcDbLine
 10
120.6952767673841
 20
389.3958536182721
 30
0.0
 11
122.195276767384
 21
390.8958536182721
 31
0.0
  0
LINE
  5
637
330
633
100
AcDbEntity
  8
0
 62
     0
100
AcDbLine
 10
120.6952767673838
 20
396.4669214301373
 30
0.0
 11
122.1952767673837
 21
397.9669214301372
 31
0.0
  0
LINE
  5
638
330
633
100
AcDbEntity
  8
0
 62
     0
100
AcDbLine
 10
120.6952767673835
 20
403.5379892420023
 30
0.0
 11
122.1952767673835
 21
405.0379892420024
 31
0.0
  0
LINE
  5
639
330
633
100
AcDbEntity
  8
0
 62
     0
100
AcDbLine
 10
120.6952767673832
 20
410.6090570538675
 30
0.0
 11
122.1952767673832
 21
412.1090570538676
 31
0.0
  0
LINE
  5
63A
330
633
100
AcDbEntity
  8
0
 62
     0
100
AcDbLine
 10
120.695276767383
 20
417.6801248657328
 30
0.0
 11
122.1952767673829
 21
419.1801248657328
 31
0.0
  0
LINE
  5
63B
330
633
100
AcDbEntity
  8
0
 62
     0
100
AcDbLine
 10
120.6952767673827
 20
424.751192677598
 30
0.0
 11
122.1952767673826
 21
426.251192677598
 31
0.0
  0
LINE
  5
63C
330
633
100
AcDbEntity
  8
0
 62
     0
100
AcDbLine
 10
120.6952767673824
 20
431.8222604894632
 30
0.0
 11
122.1952767673824
 21
433.3222604894633
 31
0.0
  0
LINE
  5
63D
330
633
100
AcDbEntity
  8
0
 62
     0
100
AcDbLine
 10
120.6952767673821
 20
438.8933283013285
 30
0.0
 11
122.1952767673821
 21
440.3933283013285
 31
0.0
  0
LINE
  5
63E
330
633
100
AcDbEntity
  8
0
 62
     0
100
AcDbLine
 10
120.6952767673818
 20
445.9643961131937
 30
0.0
 11
122.1952767673818
 21
447.4643961131936
 31
0.0
  0
LINE
  5
63F
330
633
100
AcDbEntity
  8
0
 62
     0
100
AcDbLine
 10
149.0748717855654
 20
474.3439911313772
 30
0.0
 11
149.6952767673808
 21
474.9643961131925
 31
0.0
  0
LINE
  5
640
330
633
100
AcDbEntity
  8
0
 62
     0
100
AcDbLine
 10
120.6952767673816
 20
453.0354639250588
 30
0.0
 11
122.1952767673815
 21
454.5354639250588
 31
0.0
  0
LINE
  5
641
330
633
100
AcDbEntity
  8
0
 62
     0
100
AcDbLine
 10
142.0038039736999
 20
474.3439911313772
 30
0.0
 11
143.5038039736997
 21
475.8439911313771
 31
0.0
  0
LINE
  5
642
330
633
100
AcDbEntity
  8
0
 62
     0
100
AcDbLine
 10
120.6952767673813
 20
460.106531736924
 30
0.0
 11
122.1952767673813
 21
461.606531736924
 31
0.0
  0
LINE
  5
643
330
633
100
AcDbEntity
  8
0
 62
     0
100
AcDbLine
 10
134.9327361618344
 20
474.3439911313772
 30
0.0
 11
136.4327361618343
 21
475.8439911313771
 31
0.0
  0
LINE
  5
644
330
633
100
AcDbEntity
  8
0
 62
     0
100
AcDbLine
 10
120.695276767381
 20
467.1775995487892
 30
0.0
 11
122.195276767381
 21
468.6775995487892
 31
0.0
  0
LINE
  5
645
330
633
100
AcDbEntity
  8
0
 62
     0
100
AcDbLine
 10
127.8616683499689
 20
474.3439911313772
 30
0.0
 11
129.3616683499688
 21
475.843991131377
 31
0.0
  0
LINE
  5
646
330
633
100
AcDbEntity
  8
0
 62
     0
100
AcDbLine
 10
120.6952767673846
 20
375.2537179945417
 30
0.0
 11
122.1952767673846
 21
376.7537179945417
 31
0.0
  0
LINE
  5
647
330
633
100
AcDbEntity
  8
0
 62
     0
100
AcDbLine
 10
120.6952767673849
 20
368.1826501826765
 30
0.0
 11
122.1952767673849
 21
369.6826501826765
 31
0.0
  0
LINE
  5
648
330
633
100
AcDbEntity
  8
0
 62
     0
100
AcDbLine
 10
120.6952767673852
 20
361.1115823708114
 30
0.0
 11
122.1952767673851
 21
362.6115823708113
 31
0.0
  0
LINE
  5
649
330
633
100
AcDbEntity
  8
0
 62
     0
100
AcDbLine
 10
120.6952767673854
 20
354.0405145589461
 30
0.0
 11
122.1952767673854
 21
355.5405145589461
 31
0.0
  0
LINE
  5
64A
330
633
100
AcDbEntity
  8
0
 62
     0
100
AcDbLine
 10
120.6952767673857
 20
346.9694467470809
 30
0.0
 11
122.1952767673857
 21
348.4694467470809
 31
0.0
  0
LINE
  5
64B
330
633
100
AcDbEntity
  8
0
 62
     0
100
AcDbLine
 10
120.695276767386
 20
339.8983789352157
 30
0.0
 11
122.1952767673859
 21
341.3983789352157
 31
0.0
  0
LINE
  5
64C
330
633
100
AcDbEntity
  8
0
 62
     0
100
AcDbLine
 10
120.6952767673863
 20
332.8273111233506
 30
0.0
 11
122.1952767673862
 21
334.3273111233505
 31
0.0
  0
ENDBLK
  5
64D
330
633
100
AcDbEntity
  8
0
100
AcDbBlockEnd
  0
BLOCK
  5
64F
330
64E
100
AcDbEntity
  8
0
100
AcDbBlockBegin
  2
*X3
 70
     1
 10
0.0
 20
0.0
 30
0.0
  3
*X3
  1
GEVFRAME
  0
LINE
  5
650
330
64E
100
AcDbEntity
  8
0
 62
     0
100
AcDbLine
 10
131.1952767673801
 20
491.8197351725192
 30
0.0
 11
132.6952767673801
 21
493.3197351725192
 31
0.0
  0
LINE
  5
651
330
64E
100
AcDbEntity
  8
0
 62
     0
100
AcDbLine
 10
131.1952767673798
 20
498.8908029843844
 30
0.0
 11
132.6952767673798
 21
500.3908029843844
 31
0.0
  0
LINE
  5
652
330
64E
100
AcDbEntity
  8
0
 62
     0
100
AcDbLine
 10
131.1952767673795
 20
505.9618707962497
 30
0.0
 11
132.6952767673795
 21
507.4618707962497
 31
0.0
  0
LINE
  5
653
330
64E
100
AcDbEntity
  8
0
 62
     0
100
AcDbLine
 10
129.9634041792219
 20
511.8010660199575
 30
0.0
 11
131.1106847731807
 21
512.9483466139162
 31
0.0
  0
LINE
  5
654
330
64E
100
AcDbEntity
  8
0
 62
     0
100
AcDbLine
 10
119.6952767673794
 20
508.6040064199805
 30
0.0
 11
121.1952767673794
 21
510.1040064199805
 31
0.0
  0
LINE
  5
655
330
64E
100
AcDbEntity
  8
0
 62
     0
100
AcDbLine
 10
122.935261478776
 20
511.8439911313771
 30
0.0
 11
124.435261478776
 21
513.343991131377
 31
0.0
  0
LINE
  5
656
330
64E
100
AcDbEntity
  8
0
 62
     0
100
AcDbLine
 10
131.1952767673804
 20
484.7486673606541
 30
0.0
 11
132.6952767673803
 21
486.248667360654
 31
0.0
  0
LINE
  5
657
330
64E
100
AcDbEntity
  8
0
 62
     0
100
AcDbLine
 10
131.387374860697
 20
477.8696976421052
 30
0.0
 11
132.6952767673806
 21
479.1775995487888
 31
0.0
  0
LINE
  5
658
330
64E
100
AcDbEntity
  8
0
 62
     0
100
AcDbLine
 10
136.4327361618343
 20
475.8439911313771
 30
0.0
 11
137.9327361618342
 21
477.343991131377
 31
0.0
  0
LINE
  5
659
330
64E
100
AcDbEntity
  8
0
 62
     0
100
AcDbLine
 10
143.5038039736998
 20
475.8439911313771
 30
0.0
 11
143.6952767673807
 21
476.035463925058
 31
0.0
  0
ENDBLK
  5
65A
330
64E
100
AcDbEntity
  8
0
100
AcDbBlockEnd
  0
BLOCK
  5
65C
330
65B
100
AcDbEntity
  8
0
100
AcDbBlockBegin
  2
*X4
 70
     1
 10
0.0
 20
0.0
 30
0.0
  3
*X4
  1
GEVFRAME
  0
LINE
  5
65D
330
65B
100
AcDbEntity
  8
0
 62
     0
100
AcDbLine
 10
306.6952767673802
 20
490.5430398758825
 30
0.0
 11
308.1952767673799
 21
492.0430398758822
 31
0.0
  0
LINE
  5
65E
330
65B
100
AcDbEntity
  8
0
 62
     0
100
AcDbLine
 10
319.4962280228747
 20
503.343991131377
 30
0.0
 11
319.6952767673792
 21
503.5430398758815
 31
0.0
  0
LINE
  5
65F
330
65B
100
AcDbEntity
  8
0
 62
     0
100
AcDbLine
 10
306.6952767673799
 20
497.6141076877476
 30
0.0
 11
308.1952767673797
 21
499.1141076877474
 31
0.0
  0
LINE
  5
660
330
65B
100
AcDbEntity
  8
0
 62
     0
100
AcDbLine
 10
318.1952767673794
 20
509.1141076877471
 30
0.0
 11
319.6754252102755
 21
510.5942561306433
 31
0.0
  0
LINE
  5
661
330
65B
100
AcDbEntity
  8
0
 62
     0
100
AcDbLine
 10
306.6952767673797
 20
504.6851754996128
 30
0.0
 11
308.1952767673794
 21
506.1851754996126
 31
0.0
  0
LINE
  5
662
330
65B
100
AcDbEntity
  8
0
 62
     0
100
AcDbLine
 10
313.8540923991438
 20
511.8439911313771
 30
0.0
 11
315.3540923991439
 21
513.3439911313771
 31
0.0
  0
LINE
  5
663
330
65B
100
AcDbEntity
  8
0
 62
     0
100
AcDbLine
 10
299.0672958347402
 20
475.843991131377
 30
0.0
 11
300.5672958347402
 21
477.343991131377
 31
0.0
  0
LINE
  5
664
330
65B
100
AcDbEntity
  8
0
 62
     0
100
AcDbLine
 10
306.6952767673805
 20
483.4719720640173
 30
0.0
 11
308.1952767673802
 21
484.971972064017
 31
0.0
  0
LINE
  5
665
330
65B
100
AcDbEntity
  8
0
 62
     0
100
AcDbLine
 10
306.4500861016297
 20
476.1557135864011
 30
0.0
 11
307.8835543123564
 21
477.5891817971278
 31
0.0
  0
ENDBLK
  5
666
330
65B
100
AcDbEntity
  8
0
100
AcDbBlockEnd
  0
BLOCK
  5
7AF
330
7AE
100
AcDbEntity
  8
0
100
AcDbBlockBegin
  2
*X5
 70
     1
 10
0.0
 20
0.0
 30
0.0
  3
*X5
  1
GEVFRAME
  0
LINE
  5
7B0
330
7AE
100
AcDbEntity
  8
0
 62
     0
100
AcDbLine
 10
666.133585361723
 20
477.4774961411521
 30
0.0
 11
674.1335853617229
 21
485.477496141152
 31
0.0
  0
LINE
  5
7B1
330
7AE
100
AcDbEntity
  8
0
 62
     0
100
AcDbLine
 10
666.133585361723
 20
483.9828785280684
 30
0.0
 11
672.7865907349652
 21
490.6358839013106
 31
0.0
  0
LINE
  5
7B2
330
7AE
100
AcDbEntity
  8
0
 62
     0
100
AcDbLine
 10
666.133585361723
 20
490.4882609149846
 30
0.0
 11
666.281208348049
 21
490.6358839013106
 31
0.0
  0
LINE
  5
7B3
330
7AE
100
AcDbEntity
  8
0
 62
     0
100
AcDbLine
 10
666.1335853617229
 20
470.9721137542358
 30
0.0
 11
674.1335853617227
 21
478.9721137542357
 31
0.0
  0
LINE
  5
7B4
330
7AE
100
AcDbEntity
  8
0
 62
     0
100
AcDbLine
 10
667.3027378957142
 20
465.6358839013109
 30
0.0
 11
674.1335853617227
 21
472.4667313673194
 31
0.0
  0
LINE
  5
7B5
330
7AE
100
AcDbEntity
  8
0
 62
     0
100
AcDbLine
 10
673.8081202826305
 20
465.6358839013109
 30
0.0
 11
678.1335853617228
 21
469.9613489804033
 31
0.0
  0
LINE
  5
7B6
330
7AE
100
AcDbEntity
  8
0
 62
     0
100
AcDbLine
 10
678.1335853617228
 20
466.8137147355348
 30
0.0
 11
666.1335853617229
 21
478.8137147355346
 31
0.0
  0
LINE
  5
7B7
330
7AE
100
AcDbEntity
  8
0
 62
     0
100
AcDbLine
 10
672.8060338090305
 20
465.6358839013109
 30
0.0
 11
666.1335853617227
 21
472.3083323486185
 31
0.0
  0
LINE
  5
7B8
330
7AE
100
AcDbEntity
  8
0
 62
     0
100
AcDbLine
 10
666.3006514221141
 20
465.635883901311
 30
0.0
 11
666.1335853617227
 21
465.8029499617021
 31
0.0
  0
LINE
  5
7B9
330
7AE
100
AcDbEntity
  8
0
 62
     0
100
AcDbLine
 10
674.1335853617227
 20
477.3190971224508
 30
0.0
 11
666.1335853617229
 21
485.3190971224506
 31
0.0
  0
LINE
  5
7BA
330
7AE
100
AcDbEntity
  8
0
 62
     0
100
AcDbLine
 10
674.1335853617227
 20
483.8244795093673
 30
0.0
 11
667.3221809697793
 21
490.6358839013107
 31
0.0
  0
LINE
  5
7BB
330
7AE
100
AcDbEntity
  8
0
 62
     0
100
AcDbLine
 10
674.1335853617227
 20
490.3298618962834
 30
0.0
 11
673.8275633566956
 21
490.6358839013106
 31
0.0
  0
ENDBLK
  5
7BC
330
7AE
100
AcDbEntity
  8
0
100
AcDbBlockEnd
  0
BLOCK
  5
10D0
330
10C6
100
AcDbEntity
  8
0
100
AcDbBlockBegin
  2
*D6
 70
     1
 10
0.0
 20
0.0
 30
0.0
  3
*D6
  1

  0
LINE
  5
119C
330
10C6
100
AcDbEntity
  8
5
370
    -2
100
AcDbLine
 10
180.4659600350634
 20
400.0252005219754
 30
0.0
 11
180.4659600350634
 21
359.4252005219755
 31
0.0
  0
LINE
  5
119D
330
10C6
100
AcDbEntity
  8
5
370
    -2
100
AcDbLine
 10
378.4659600350634
 20
400.0252005219754
 30
0.0
 11
378.4659600350634
 21
359.4252005219755
 31
0.0
  0
LINE
  5
119E
330
10C6
100
AcDbEntity
  8
5
370
    -2
100
AcDbLine
 10
192.9659600350634
 20
364.4252005219755
 30
0.0
 11
365.9659600350634
 21
364.4252005219755
 31
0.0
  0
SOLID
  5
119F
330
10C6
100
AcDbEntity
  8
5
100
AcDbTrace
 10
192.9659600350634
 20
366.5085338553088
 30
0.0
 11
192.9659600350634
 21
362.3418671886422
 31
0.0
 12
180.4659600350634
 22
364.4252005219755
 32
0.0
 13
180.4659600350634
 23
364.4252005219755
 33
0.0
  0
SOLID
  5
11A0
330
10C6
100
AcDbEntity
  8
5
100
AcDbTrace
 10
365.9659600350634
 20
366.5085338553088
 30
0.0
 11
365.9659600350634
 21
362.3418671886422
 31
0.0
 12
378.4659600350634
 22
364.4252005219755
 32
0.0
 13
378.4659600350634
 23
364.4252005219755
 33
0.0
  0
MTEXT
  5
11A1
330
10C6
100
AcDbEntity
  8
5
 62
     2
100
AcDbMText
 10
321.518331707269
 20
376.1752005219755
 30
0.0
 40
17.5
 41
0.0
 71
     5
 72
     1
  1
%%c 198
 73
     1
 44
1.0
1001
ACAD
1000
MTEXTBEGIN
1070
    73
1070
     1
1070
    44
1040
1.0
1070
    74
1070
     0
1000
MTEXTEND
  0
POINT
  5
11A2
330
10C6
100
AcDbEntity
  8
DEFPOINTS
 62
     0
100
AcDbPoint
 10
180.4659600350634
 20
405.0252005219755
 30
0.0
  0
POINT
  5
11A3
330
10C6
100
AcDbEntity
  8
DEFPOINTS
 62
     0
100
AcDbPoint
 10
378.4659600350634
 20
405.0252005219755
 30
0.0
  0
POINT
  5
11A4
330
10C6
100
AcDbEntity
  8
DEFPOINTS
 62
     0
100
AcDbPoint
 10
378.4659600350634
 20
364.4252005219755
 30
0.0
  0
ENDBLK
  5
10D1
330
10C6
100
AcDbEntity
  8
0
100
AcDbBlockEnd
  0
BLOCK
  5
10DC
330
10D2
100
AcDbEntity
  8
0
100
AcDbBlockBegin
  2
*D7
 70
     1
 10
0.0
 20
0.0
 30
0.0
  3
*D7
  1

  0
LINE
  5
1152
330
10D2
100
AcDbEntity
  8
5
370
    -2
100
AcDbLine
 10
364.4659600350551
 20
595.0252005219755
 30
0.0
 11
364.4659600350551
 21
645.0252015219756
 31
0.0
  0
LINE
  5
1153
330
10D2
100
AcDbEntity
  8
5
370
    -2
100
AcDbLine
 10
194.4659600350551
 20
595.0252005219689
 30
0.0
 11
194.4659600350551
 21
645.0252015219756
 31
0.0
  0
LINE
  5
1154
330
10D2
100
AcDbEntity
  8
5
370
    -2
100
AcDbLine
 10
351.9659600350551
 20
640.0252015219756
 30
0.0
 11
206.9659600350551
 21
640.0252015219756
 31
0.0
  0
SOLID
  5
1155
330
10D2
100
AcDbEntity
  8
5
100
AcDbTrace
 10
351.9659600350551
 20
642.108534855309
 30
0.0
 11
351.9659600350551
 21
637.9418681886423
 31
0.0
 12
364.4659600350551
 22
640.0252015219756
 32
0.0
 13
364.4659600350551
 23
640.0252015219756
 33
0.0
  0
SOLID
  5
1156
330
10D2
100
AcDbEntity
  8
5
100
AcDbTrace
 10
206.9659600350551
 20
642.108534855309
 30
0.0
 11
206.9659600350551
 21
637.9418681886423
 31
0.0
 12
194.4659600350551
 22
640.0252015219756
 32
0.0
 13
194.4659600350551
 23
640.0252015219756
 33
0.0
  0
MTEXT
  5
1157
102
{ACAD_XDICTIONARY
360
131B
102
}
330
10D2
100
AcDbEntity
  8
5
 62
     2
100
AcDbMText
 10
279.4659600350551
 20
651.7752015219756
 30
0.0
 40
17.5
 41
0.0
 71
     5
 72
     1
  1
{\Fgeniso.shx;\U+25A1} 171
 73
     1
 44
1.0
1001
ACAD
1000
MTEXTBEGIN
1070
    73
1070
     1
1070
    44
1040
1.0
1070
    74
1070
     0
1000
MTEXTEND
  0
POINT
  5
1158
330
10D2
100
AcDbEntity
  8
DEFPOINTS
 62
     0
100
AcDbPoint
 10
364.4659600350551
 20
590.0252005219755
 30
0.0
  0
POINT
  5
1159
330
10D2
100
AcDbEntity
  8
DEFPOINTS
 62
     0
100
AcDbPoint
 10
194.4659600350551
 20
590.0252005219689
 30
0.0
  0
POINT
  5
115A
330
10D2
100
AcDbEntity
  8
DEFPOINTS
 62
     0
100
AcDbPoint
 10
194.4659600350551
 20
640.0252015219756
 30
0.0
  0
ENDBLK
  5
10DD
330
10D2
100
AcDbEntity
  8
0
100
AcDbBlockEnd
  0
BLOCK
  5
10E8
330
10DE
100
AcDbEntity
  8
0
100
AcDbBlockBegin
  2
*D8
 70
     1
 10
0.0
 20
0.0
 30
0.0
  3
*D8
  1

  0
LINE
  5
115B
330
10DE
100
AcDbEntity
  8
5
370
    -2
100
AcDbLine
 10
379.4659600350551
 20
591.9252005219756
 30
0.0
 11
379.4659600350551
 21
695.0252005219755
 31
0.0
  0
LINE
  5
115C
330
10DE
100
AcDbEntity
  8
5
370
    -2
100
AcDbLine
 10
179.4659600350553
 20
590.2852158105787
 30
0.0
 11
179.4659600350553
 21
695.0252005219755
 31
0.0
  0
LINE
  5
115D
330
10DE
100
AcDbEntity
  8
5
370
    -2
100
AcDbLine
 10
366.9659600350551
 20
690.0252005219755
 30
0.0
 11
191.9659600350553
 21
690.0252005219755
 31
0.0
  0
SOLID
  5
115E
330
10DE
100
AcDbEntity
  8
5
100
AcDbTrace
 10
366.9659600350551
 20
692.1085338553089
 30
0.0
 11
366.9659600350551
 21
687.9418671886421
 31
0.0
 12
379.4659600350551
 22
690.0252005219755
 32
0.0
 13
379.4659600350551
 23
690.0252005219755
 33
0.0
  0
SOLID
  5
115F
330
10DE
100
AcDbEntity
  8
5
100
AcDbTrace
 10
191.9659600350553
 20
692.1085338553089
 30
0.0
 11
191.9659600350553
 21
687.9418671886421
 31
0.0
 12
179.4659600350553
 22
690.0252005219755
 32
0.0
 13
179.4659600350553
 23
690.0252005219755
 33
0.0
  0
MTEXT
  5
1160
102
{ACAD_XDICTIONARY
360
131D
102
}
330
10DE
100
AcDbEntity
  8
5
 62
     2
100
AcDbMText
 10
279.4659600350552
 20
701.7769229629204
 30
0.0
 40
17.5
 41
0.0
 71
     5
 72
     1
  1
{\Fgeniso.shx;\U+25A1} 200
 73
     1
 44
1.0
1001
ACAD
1000
MTEXTBEGIN
1070
    73
1070
     1
1070
    44
1040
1.0
1070
    74
1070
     0
1000
MTEXTEND
  0
POINT
  5
1161
330
10DE
100
AcDbEntity
  8
DEFPOINTS
 62
     0
100
AcDbPoint
 10
379.4659600350551
 20
586.9252005219756
 30
0.0
  0
POINT
  5
1162
330
10DE
100
AcDbEntity
  8
DEFPOINTS
 62
     0
100
AcDbPoint
 10
179.4659600350553
 20
585.2852158105787
 30
0.0
  0
POINT
  5
1163
330
10DE
100
AcDbEntity
  8
DEFPOINTS
 62
     0
100
AcDbPoint
 10
179.4659600350553
 20
690.0252005219755
 30
0.0
  0
ENDBLK
  5
10E9
330
10DE
100
AcDbEntity
  8
0
100
AcDbBlockEnd
  0
BLOCK
  5
10F6
330
10EA
100
AcDbEntity
  8
0
100
AcDbBlockBegin
  2
*D9
 70
     1
 10
0.0
 20
0.0
 30
0.0
  3
*D9
  1

  0
LINE
  5
1164
330
10EA
100
AcDbEntity
  8
5
370
    -2
100
AcDbLine
 10
430.4659600350551
 20
570.0252005219205
 30
0.0
 11
484.4659610350552
 21
570.0252005219205
 31
0.0
  0
LINE
  5
1165
330
10EA
100
AcDbEntity
  8
5
370
    -2
100
AcDbLine
 10
381.4659600350358
 20
590.0252005219753
 30
0.0
 11
484.4659610350552
 21
590.0252005219753
 31
0.0
  0
LINE
  5
1166
330
10EA
100
AcDbEntity
  8
5
370
    -2
100
AcDbLine
 10
479.4659610350552
 20
557.5252005219205
 30
0.0
 11
479.4659610350552
 21
545.0252005219205
 31
0.0
  0
LINE
  5
1167
330
10EA
100
AcDbEntity
  8
5
370
    -2
100
AcDbLine
 10
479.4659610350552
 20
602.5252005219753
 30
0.0
 11
479.4659610350552
 21
640.7333698133138
 31
0.0
  0
LINE
  5
1168
330
10EA
100
AcDbEntity
  8
5
370
    -2
100
AcDbLine
 10
479.4659610350552
 20
570.0252005219205
 30
0.0
 11
479.4659610350552
 21
590.0252005219753
 31
0.0
  0
SOLID
  5
1169
330
10EA
100
AcDbEntity
  8
5
100
AcDbTrace
 10
477.3826277017219
 20
557.5252005219205
 30
0.0
 11
481.5492943683885
 21
557.5252005219205
 31
0.0
 12
479.4659610350552
 22
570.0252005219205
 32
0.0
 13
479.4659610350552
 23
570.0252005219205
 33
0.0
  0
SOLID
  5
116A
330
10EA
100
AcDbEntity
  8
5
100
AcDbTrace
 10
477.3826277017219
 20
602.5252005219753
 30
0.0
 11
481.5492943683885
 21
602.5252005219753
 31
0.0
 12
479.4659610350552
 22
590.0252005219753
 32
0.0
 13
479.4659610350552
 23
590.0252005219753
 33
0.0
  0
MTEXT
  5
116B
330
10EA
100
AcDbEntity
  8
5
 62
     2
100
AcDbMText
 10
467.7142385941102
 20
627.8792851676447
 30
0.0
 40
17.5
 41
0.0
 71
     5
 72
     1
  1
20
 11
0.0000000000000001
 21
1.0
 31
0.0
 73
     1
 44
1.0
1001
ACAD
1000
MTEXTBEGIN
1070
    73
1070
     1
1070
    44
1040
1.0
1070
    74
1070
     0
1000
MTEXTEND
  0
POINT
  5
116C
330
10EA
100
AcDbEntity
  8
DEFPOINTS
 62
     0
100
AcDbPoint
 10
425.465960035055
 20
570.0252005219205
 30
0.0
  0
POINT
  5
116D
330
10EA
100
AcDbEntity
  8
DEFPOINTS
 62
     0
100
AcDbPoint
 10
376.4659600350358
 20
590.0252005219753
 30
0.0
  0
POINT
  5
116E
330
10EA
100
AcDbEntity
  8
DEFPOINTS
 62
     0
100
AcDbPoint
 10
479.4659610350552
 20
590.0252005219753
 30
0.0
  0
ENDBLK
  5
10F7
330
10EA
100
AcDbEntity
  8
0
100
AcDbBlockEnd
  0
BLOCK
  5
1102
330
10F8
100
AcDbEntity
  8
0
100
AcDbBlockBegin
  2
*D10
 70
     1
 10
0.0
 20
0.0
 30
0.0
  3
*D10
  1

  0
LINE
  5
116F
330
10F8
100
AcDbEntity
  8
5
370
    -2
100
AcDbLine
 10
429.465960035055
 20
571.0252005219205
 30
0.0
 11
429.465960035055
 21
745.2545451820445
 31
0.0
  0
LINE
  5
1170
330
10F8
100
AcDbEntity
  8
5
370
    -2
100
AcDbLine
 10
129.4659600350551
 20
571.0252005219198
 30
0.0
 11
129.4659600350551
 21
745.2545451820445
 31
0.0
  0
LINE
  5
1171
330
10F8
100
AcDbEntity
  8
5
370
    -2
100
AcDbLine
 10
416.965960035055
 20
740.2545451820445
 30
0.0
 11
141.9659600350551
 21
740.2545451820445
 31
0.0
  0
SOLID
  5
1172
330
10F8
100
AcDbEntity
  8
5
100
AcDbTrace
 10
416.965960035055
 20
742.3378785153779
 30
0.0
 11
416.965960035055
 21
738.1712118487111
 31
0.0
 12
429.465960035055
 22
740.2545451820445
 32
0.0
 13
429.465960035055
 23
740.2545451820445
 33
0.0
  0
SOLID
  5
1173
330
10F8
100
AcDbEntity
  8
5
100
AcDbTrace
 10
141.9659600350551
 20
742.3378785153779
 30
0.0
 11
141.9659600350551
 21
738.1712118487111
 31
0.0
 12
129.4659600350551
 22
740.2545451820445
 32
0.0
 13
129.4659600350551
 23
740.2545451820445
 33
0.0
  0
MTEXT
  5
1174
102
{ACAD_XDICTIONARY
360
131F
102
}
330
10F8
100
AcDbEntity
  8
5
 62
     2
100
AcDbMText
 10
274.2548895128541
 20
752.0045451820445
 30
0.0
 40
17.5
 41
0.0
 71
     5
 72
     1
  1
{\Fgeniso.shx;\U+25A1} 300
 73
     1
 44
1.0
1001
ACAD
1000
MTEXTBEGIN
1070
    73
1070
     1
1070
    44
1040
1.0
1070
    74
1070
     0
1000
MTEXTEND
  0
POINT
  5
1175
330
10F8
100
AcDbEntity
  8
DEFPOINTS
 62
     0
100
AcDbPoint
 10
429.465960035055
 20
566.0252005219205
 30
0.0
  0
POINT
  5
1176
330
10F8
100
AcDbEntity
  8
DEFPOINTS
 62
     0
100
AcDbPoint
 10
129.4659600350551
 20
566.0252005219198
 30
0.0
  0
POINT
  5
1177
330
10F8
100
AcDbEntity
  8
DEFPOINTS
 62
     0
100
AcDbPoint
 10
129.4659600350551
 20
740.2545451820445
 30
0.0
  0
ENDBLK
  5
1103
330
10F8
100
AcDbEntity
  8
0
100
AcDbBlockEnd
  0
BLOCK
  5
110E
330
1104
100
AcDbEntity
  8
0
100
AcDbBlockBegin
  2
*D11
 70
     1
 10
0.0
 20
0.0
 30
0.0
  3
*D11
  1

  0
LINE
  5
1178
330
1104
100
AcDbEntity
  8
5
370
    -2
100
AcDbLine
 10
380.1247756668197
 20
590.0252005219755
 30
0.0
 11
584.4659600350551
 21
590.0252005219755
 31
0.0
  0
LINE
  5
1179
330
1104
100
AcDbEntity
  8
5
370
    -2
100
AcDbLine
 10
383.4659600350624
 20
405.0252005219755
 30
0.0
 11
584.4659600350551
 21
405.0252005219754
 31
0.0
  0
LINE
  5
117A
330
1104
100
AcDbEntity
  8
5
370
    -2
100
AcDbLine
 10
579.465960035055
 20
577.5252005219755
 30
0.0
 11
579.465960035055
 21
417.5252005219754
 31
0.0
  0
SOLID
  5
117B
330
1104
100
AcDbEntity
  8
5
100
AcDbTrace
 10
577.3826267017217
 20
577.5252005219755
 30
0.0
 11
581.5492933683884
 21
577.5252005219755
 31
0.0
 12
579.465960035055
 22
590.0252005219755
 32
0.0
 13
579.465960035055
 23
590.0252005219755
 33
0.0
  0
SOLID
  5
117C
330
1104
100
AcDbEntity
  8
5
100
AcDbTrace
 10
577.3826267017217
 20
417.5252005219754
 30
0.0
 11
581.5492933683884
 21
417.5252005219754
 31
0.0
 12
579.465960035055
 22
405.0252005219754
 32
0.0
 13
579.465960035055
 23
405.0252005219754
 33
0.0
  0
MTEXT
  5
117D
330
1104
100
AcDbEntity
  8
5
 62
     2
100
AcDbMText
 10
567.715960035055
 20
497.5252005219756
 30
0.0
 40
17.5
 41
0.0
 71
     5
 72
     1
  1
185
 11
0.0000000000000001
 21
1.0
 31
0.0
 73
     1
 44
1.0
1001
ACAD
1000
MTEXTBEGIN
1070
    73
1070
     1
1070
    44
1040
1.0
1070
    74
1070
     0
1000
MTEXTEND
  0
POINT
  5
117E
330
1104
100
AcDbEntity
  8
DEFPOINTS
 62
     0
100
AcDbPoint
 10
375.1247756668197
 20
590.0252005219755
 30
0.0
  0
POINT
  5
117F
330
1104
100
AcDbEntity
  8
DEFPOINTS
 62
     0
100
AcDbPoint
 10
378.4659600350624
 20
405.0252005219755
 30
0.0
  0
POINT
  5
1180
330
1104
100
AcDbEntity
  8
DEFPOINTS
 62
     0
100
AcDbPoint
 10
579.465960035055
 20
405.0252005219754
 30
0.0
  0
ENDBLK
  5
110F
330
1104
100
AcDbEntity
  8
0
100
AcDbBlockEnd
  0
BLOCK
  5
11B0
330
11A6
100
AcDbEntity
  8
0
100
AcDbBlockBegin
  2
*D12
 70
     1
 10
0.0
 20
0.0
 30
0.0
  3
*D12
  1

  0
LINE
  5
11FB
330
11A6
100
AcDbEntity
  8
5
370
    -2
100
AcDbLine
 10
486.9659600350623
 20
455.9602087535621
 30
0.0
 11
486.9659600350623
 21
796.7693091204873
 31
0.0
  0
LINE
  5
11FC
330
11A6
100
AcDbEntity
  8
5
370
    -2
100
AcDbLine
 10
71.96596003506238
 20
455.9602087535621
 30
0.0
 11
71.9659600350624
 21
796.7693091204873
 31
0.0
  0
LINE
  5
11FD
330
11A6
100
AcDbEntity
  8
5
370
    -2
100
AcDbLine
 10
474.4659600350623
 20
791.7693091204873
 30
0.0
 11
84.4659600350624
 21
791.7693091204873
 31
0.0
  0
SOLID
  5
11FE
330
11A6
100
AcDbEntity
  8
5
100
AcDbTrace
 10
474.4659600350623
 20
793.8526424538207
 30
0.0
 11
474.4659600350623
 21
789.6859757871539
 31
0.0
 12
486.9659600350623
 22
791.7693091204873
 32
0.0
 13
486.9659600350623
 23
791.7693091204873
 33
0.0
  0
SOLID
  5
11FF
330
11A6
100
AcDbEntity
  8
5
100
AcDbTrace
 10
84.4659600350624
 20
793.8526424538207
 30
0.0
 11
84.4659600350624
 21
789.6859757871539
 31
0.0
 12
71.9659600350624
 22
791.7693091204873
 32
0.0
 13
71.9659600350624
 23
791.7693091204873
 33
0.0
  0
MTEXT
  5
1200
330
11A6
100
AcDbEntity
  8
5
 62
     2
100
AcDbMText
 10
279.4659600350624
 20
803.5193091204874
 30
0.0
 40
17.5
 41
0.0
 71
     5
 72
     1
  1
%%c 415
 73
     1
 44
1.0
1001
ACAD
1000
MTEXTBEGIN
1070
    73
1070
     1
1070
    44
1040
1.0
1070
    74
1070
     0
1000
MTEXTEND
  0
POINT
  5
1201
330
11A6
100
AcDbEntity
  8
DEFPOINTS
 62
     0
100
AcDbPoint
 10
486.9659600350623
 20
450.9602087535621
 30
0.0
  0
POINT
  5
1202
330
11A6
100
AcDbEntity
  8
DEFPOINTS
 62
     0
100
AcDbPoint
 10
71.96596003506238
 20
450.9602087535621
 30
0.0
  0
POINT
  5
1203
330
11A6
100
AcDbEntity
  8
DEFPOINTS
 62
     0
100
AcDbPoint
 10
71.9659600350624
 20
791.7693091204873
 30
0.0
  0
ENDBLK
  5
11B1
330
11A6
100
AcDbEntity
  8
0
100
AcDbBlockEnd
  0
BLOCK
  5
122B
330
1221
100
AcDbEntity
  8
0
100
AcDbBlockBegin
  2
*D13
 70
     1
 10
0.0
 20
0.0
 30
0.0
  3
*D13
  1

  0
LINE
  5
1240
330
1221
100
AcDbEntity
  8
5
370
    -2
100
AcDbLine
 10
177.5659600350561
 20
590.0252005219755
 30
0.0
 11
-5.794218733854346
 21
590.0252005219755
 31
0.0
  0
LINE
  5
1241
330
1221
100
AcDbEntity
  8
5
370
    -2
100
AcDbLine
 10
66.96596003506238
 20
450.9602087535621
 30
0.0
 11
-5.794218733854378
 21
450.9602087535621
 31
0.0
  0
LINE
  5
1242
330
1221
100
AcDbEntity
  8
5
370
    -2
100
AcDbLine
 10
-0.7942187338543536
 20
577.5252005219755
 30
0.0
 11
-0.7942187338543789
 21
463.4602087535621
 31
0.0
  0
SOLID
  5
1243
330
1221
100
AcDbEntity
  8
5
100
AcDbTrace
 10
-2.877552067187686
 20
577.5252005219755
 30
0.0
 11
1.289114599478979
 21
577.5252005219755
 31
0.0
 12
-0.7942187338543509
 22
590.0252005219755
 32
0.0
 13
-0.7942187338543509
 23
590.0252005219755
 33
0.0
  0
SOLID
  5
1244
330
1221
100
AcDbEntity
  8
5
100
AcDbTrace
 10
-2.877552067187711
 20
463.4602087535621
 30
0.0
 11
1.289114599478953
 21
463.4602087535621
 31
0.0
 12
-0.7942187338543817
 22
450.9602087535621
 32
0.0
 13
-0.7942187338543817
 23
450.9602087535621
 33
0.0
  0
MTEXT
  5
1245
330
1221
100
AcDbEntity
  8
5
 62
     2
100
AcDbMText
 10
-12.54421873385445
 20
520.4927046377688
 30
0.0
 40
17.5
 41
0.0
 71
     5
 72
     1
  1
50 - 130
 11
0.0000000000000001
 21
1.0
 31
0.0
 73
     1
 44
1.0
1001
ACAD
1000
MTEXTBEGIN
1070
    73
1070
     1
1070
    44
1040
1.0
1070
    74
1070
     0
1000
MTEXTEND
  0
POINT
  5
1246
330
1221
100
AcDbEntity
  8
DEFPOINTS
 62
     0
100
AcDbPoint
 10
182.5659600350561
 20
590.0252005219755
 30
0.0
  0
POINT
  5
1247
330
1221
100
AcDbEntity
  8
DEFPOINTS
 62
     0
100
AcDbPoint
 10
71.96596003506238
 20
450.9602087535621
 30
0.0
  0
POINT
  5
1248
330
1221
100
AcDbEntity
  8
DEFPOINTS
 62
     0
100
AcDbPoint
 10
-0.7942187338543817
 20
450.9602087535621
 30
0.0
  0
ENDBLK
  5
122C
330
1221
100
AcDbEntity
  8
0
100
AcDbBlockEnd
  0
BLOCK
  5
1254
330
124A
100
AcDbEntity
  8
0
100
AcDbBlockBegin
  2
*D14
 70
     1
 10
0.0
 20
0.0
 30
0.0
  3
*D14
  1

  0
LINE
  5
1256
330
124A
100
AcDbEntity
  8
5
370
    -2
100
AcDbLine
 10
66.96596003506238
 20
450.9602087535621
 30
0.0
 11
-5.794218733854378
 21
450.9602087535621
 31
0.0
  0
LINE
  5
1257
330
124A
100
AcDbEntity
  8
5
370
    -2
100
AcDbLine
 10
219.2159600350624
 20
215.9602087535622
 30
0.0
 11
-5.79421873385443
 21
215.9602087535623
 31
0.0
  0
LINE
  5
1258
330
124A
100
AcDbEntity
  8
5
370
    -2
100
AcDbLine
 10
-0.7942187338543845
 20
438.4602087535621
 30
0.0
 11
-0.7942187338544312
 21
228.4602087535623
 31
0.0
  0
SOLID
  5
1259
330
124A
100
AcDbEntity
  8
5
100
AcDbTrace
 10
-2.877552067187717
 20
438.4602087535621
 30
0.0
 11
1.289114599478948
 21
438.4602087535621
 31
0.0
 12
-0.7942187338543817
 22
450.9602087535621
 32
0.0
 13
-0.7942187338543817
 23
450.9602087535621
 33
0.0
  0
SOLID
  5
125A
330
124A
100
AcDbEntity
  8
5
100
AcDbTrace
 10
-2.877552067187764
 20
228.4602087535623
 30
0.0
 11
1.289114599478901
 21
228.4602087535623
 31
0.0
 12
-0.7942187338544339
 22
215.9602087535623
 32
0.0
 13
-0.7942187338544339
 23
215.9602087535623
 33
0.0
  0
MTEXT
  5
125B
330
124A
100
AcDbEntity
  8
5
 62
     2
100
AcDbMText
 10
-12.54594117479934
 20
333.4602087535622
 30
0.0
 40
17.5
 41
0.0
 71
     5
 72
     1
  1
235
 11
0.0000000000000001
 21
1.0
 31
0.0
 73
     1
 44
1.0
1001
ACAD
1000
MTEXTBEGIN
1070
    73
1070
     1
1070
    44
1040
1.0
1070
    74
1070
     0
1000
MTEXTEND
  0
POINT
  5
125C
330
124A
100
AcDbEntity
  8
DEFPOINTS
 62
     0
100
AcDbPoint
 10
71.96596003506238
 20
450.9602087535621
 30
0.0
  0
POINT
  5
125D
330
124A
100
AcDbEntity
  8
DEFPOINTS
 62
     0
100
AcDbPoint
 10
224.2159600350623
 20
215.9602087535622
 30
0.0
  0
POINT
  5
125E
330
124A
100
AcDbEntity
  8
DEFPOINTS
 62
     0
100
AcDbPoint
 10
-0.7942187338544339
 20
215.9602087535623
 30
0.0
  0
ENDBLK
  5
1255
330
124A
100
AcDbEntity
  8
0
100
AcDbBlockEnd
  0
BLOCK
  5
126A
330
1260
100
AcDbEntity
  8
0
100
AcDbBlockBegin
  2
*D15
 70
     1
 10
0.0
 20
0.0
 30
0.0
  3
*D15
  1

  0
LINE
  5
127E
330
1260
100
AcDbEntity
  8
5
370
    -2
100
AcDbLine
 10
212.7684812886817
 20
309.9602087535622
 30
0.0
 11
175.1340806920766
 21
309.9602087535622
 31
0.0
  0
LINE
  5
127F
330
1260
100
AcDbEntity
  8
5
370
    -2
100
AcDbLine
 10
219.2159600350624
 20
215.9602087535622
 30
0.0
 11
175.1340806920766
 21
215.9602087535623
 31
0.0
  0
LINE
  5
1280
330
1260
100
AcDbEntity
  8
5
370
    -2
100
AcDbLine
 10
180.1340806920766
 20
297.4602087535622
 30
0.0
 11
180.1340806920766
 21
228.4602087535623
 31
0.0
  0
SOLID
  5
1281
330
1260
100
AcDbEntity
  8
5
100
AcDbTrace
 10
178.0507473587433
 20
297.4602087535622
 30
0.0
 11
182.21741402541
 21
297.4602087535622
 31
0.0
 12
180.1340806920766
 22
309.9602087535622
 32
0.0
 13
180.1340806920766
 23
309.9602087535622
 33
0.0
  0
SOLID
  5
1282
330
1260
100
AcDbEntity
  8
5
100
AcDbTrace
 10
178.0507473587433
 20
228.4602087535623
 30
0.0
 11
182.21741402541
 21
228.4602087535623
 31
0.0
 12
180.1340806920766
 22
215.9602087535623
 32
0.0
 13
180.1340806920766
 23
215.9602087535623
 33
0.0
  0
MTEXT
  5
1283
330
1260
100
AcDbEntity
  8
5
 62
     2
100
AcDbMText
 10
168.3840806920766
 20
262.9602087535622
 30
0.0
 40
17.5
 41
0.0
 71
     5
 72
     1
  1
94
 11
0.0000000000000001
 21
1.0
 31
0.0
 73
     1
 44
1.0
1001
ACAD
1000
MTEXTBEGIN
1070
    73
1070
     1
1070
    44
1040
1.0
1070
    74
1070
     0
1000
MTEXTEND
  0
POINT
  5
1284
330
1260
100
AcDbEntity
  8
DEFPOINTS
 62
     0
100
AcDbPoint
 10
217.7684812886817
 20
309.9602087535622
 30
0.0
  0
POINT
  5
1285
330
1260
100
AcDbEntity
  8
DEFPOINTS
 62
     0
100
AcDbPoint
 10
224.2159600350623
 20
215.9602087535622
 30
0.0
  0
POINT
  5
1286
330
1260
100
AcDbEntity
  8
DEFPOINTS
 62
     0
100
AcDbPoint
 10
180.1340806920766
 20
215.9602087535623
 30
0.0
  0
ENDBLK
  5
126B
330
1260
100
AcDbEntity
  8
0
100
AcDbBlockEnd
  0
ENDSEC
  0
SECTION
  2
ENTITIES
  0
LINE
  5
41
330
2
100
AcDbEntity
  8
0
100
AcDbLine
 10
224.2159600350623
 20
215.9602087535622
 30
0.0
 11
224.2159600350624
 21
272.9602087535623
 31
0.0
  0
LINE
  5
42
330
2
100
AcDbEntity
  8
0
100
AcDbLine
 10
225.7159600350623
 20
215.9602087535623
 30
0.0
 11
225.7159600350624
 21
272.5235008058576
 31
0.0
  0
LINE
  5
50
330
2
100
AcDbEntity
  8
0
100
AcDbLine
 10
333.2159600350624
 20
215.9602087535623
 30
0.0
 11
333.2159600350624
 21
272.5235008058576
 31
0.0
  0
LINE
  5
51
330
2
100
AcDbEntity
  8
0
100
AcDbLine
 10
334.7159600350624
 20
215.9602087535623
 30
0.0
 11
334.7159600350624
 21
272.9602087535621
 31
0.0
  0
LINE
  5
52
330
2
100
AcDbEntity
  8
7
100
AcDbLine
 10
279.4659600350624
 20
207.9602087535622
 30
0.0
 11
279.4659600350624
 21
492.4640600912205
 31
0.0
  0
LINE
  5
55
330
2
100
AcDbEntity
  8
0
100
AcDbLine
 10
224.2159600350624
 20
215.9602087535623
 30
0.0
 11
334.7159600350624
 21
215.9602087535623
 31
0.0
  0
HATCH
  5
6B
330
2
100
AcDbEntity
  8
8
100
AcDbHatch
 10
0.0
 20
0.0
 30
0.0
210
0.0
220
0.0
230
1.0
  2
_U
 70
     0
 71
     0
 91
        1
 92
        1
 93
       23
 72
     1
 10
71.96596003506238
 20
448.9602087535621
 11
98.04435051583425
 21
448.9602087535621
 72
     2
 10
98.04435051583425
 20
449.6102087535621
 40
0.6499999999999773
 50
270.0
 51
360.0
 73
     1
 72
     1
 10
98.69435051583423
 20
449.6102087535621
 11
98.69435051583423
 21
449.6260711570648
 72
     2
 10
99.09435051583422
 20
449.6260711570648
 40
0.3999999999999772
 50
180.0
 51
259.7985315157323
 73
     0
 72
     2
 10
131.9659600350623
 20
266.960208753562
 40
186.0000000000001
 50
259.7985315157379
 51
280.2014684842621
 73
     0
 72
     2
 10
164.8375695542905
 20
449.6260711570648
 40
0.3999999999999629
 50
280.2014684842517
 51
360.0
 73
     0
 72
     1
 10
165.2375695542905
 20
449.6260711570648
 11
165.2375695542905
 21
449.6102087535621
 72
     2
 10
165.8875695542905
 20
449.6102087535621
 40
0.6499999999999773
 50
180.0
 51
270.0
 73
     1
 72
     1
 10
165.8875695542905
 20
448.9602087535621
 11
166.9659600350623
 21
448.9602087535622
 72
     2
 10
166.9659600350624
 20
445.9602087535622
 40
3.0
 50
269.9999999999989
 51
360.0
 73
     0
 72
     1
 10
169.9659600350624
 20
445.9602087535622
 11
169.9659600350624
 21
440.9602087535621
 72
     1
 10
169.9659600350624
 20
440.9602087535621
 11
170.4659600350623
 21
440.960208753562
 72
     1
 10
170.4659600350623
 20
440.960208753562
 11
171.9659600350624
 21
440.9602087535621
 72
     1
 10
171.9659600350624
 20
440.9602087535621
 11
171.9659600350624
 21
445.9602087535622
 72
     2
 10
166.9536953310141
 20
445.955128546807
 40
5.012267278582445
 50
0.058072413099044
 51
86.93134248879347
 73
     1
 72
     2
 10
167.2220149089354
 20
451.3602087535621
 40
0.3999999999999772
 50
90.00000000000815
 51
180.0000000000081
 73
     0
 72
     2
 10
165.9659600350624
 20
450.8433238022255
 40
1.000000000000002
 50
31.12353118597779
 51
79.52431830361334
 73
     1
 72
     1
 10
166.1477782168805
 20
451.8266559682611
 11
165.9659600350624
 21
451.860181711916
 72
     2
 10
131.9659600350624
 20
266.960208753562
 40
188.0
 50
79.5806642184851
 51
100.4756816963898
 73
     1
 72
     2
 10
97.96596003506238
 20
450.8433238022256
 40
1.000000000000001
 50
100.4756816963802
 51
148.8764688140267
 73
     1
 72
     2
 10
96.70990516118934
 20
451.3602087535621
 40
0.3999999999999772
 50
360.0
 51
450.0
 73
     0
 72
     1
 10
96.70990516118934
 20
450.9602087535622
 11
71.96596003506238
 21
450.9602087535621
 72
     1
 10
71.96596003506238
 20
450.9602087535621
 11
71.96596003506238
 21
448.9602087535621
 97
        0
 75
     0
 76
     0
 52
45.0
 41
5.0
 77
     0
 78
     1
 53
45.0
 43
500.3809584716569
 44
772.6741431419524
 45
-3.535533905932737
 46
3.535533905932737
 79
     0
 98
        1
 10
500.3809584716569
 20
772.6741431419524
1001
GENIUS_GENODEF_13
1002
{
1000
HIER
1070
     0
1002
}
1002
{
1000
MANEDIT
1070
     0
1002
}
1002
{
1000
NOSEL
1070
     0
1002
}
1002
{
1000
BEHIND
1070
     0
1002
}
1002
{
1000
REACTOR
1002
}
1001
GENIUS_GENOBJ-N-HTC_13
1002
{
1000
OWNER
1000
GEN
1002
}
1001
GENIUS_GENHATCH_13
1002
{
1000
DATA
1040
45.0
1042
2.5
1000
_U
1070
     0
1011
80.91889780003214
1021
450.1168213641419
1031
0.0
1002
}
1002
{
1000
UCS
1010
0.0
1020
0.0
1030
0.0
1010
1.0
1020
0.0
1030
0.0
1010
0.0
1020
1.0
1030
0.0
1002
}
  0
LINE
  5
70
330
2
100
AcDbEntity
  8
0
100
AcDbLine
 10
98.04435051583425
 20
448.9602087535621
 30
0.0
 11
165.8875695542905
 21
448.9602087535621
 31
0.0
  0
ARC
  5
71
330
2
100
AcDbEntity
  8
0
100
AcDbCircle
 10
131.9659600350624
 20
266.9602087535622
 30
0.0
 40
186.0
100
AcDbArc
 50
79.79853151573795
 51
100.201468484262
  0
ARC
  5
72
330
2
100
AcDbEntity
  8
0
100
AcDbCircle
 10
131.9659600350624
 20
266.9602087535622
 30
0.0
 40
188.0
100
AcDbArc
 50
79.5806642184851
 51
100.4756816963898
  0
LINE
  5
73
330
2
100
AcDbEntity
  8
0A
100
AcDbLine
 10
100.4659600350624
 20
470.7624804030253
 30
0.0
 11
122.1484600350625
 21
470.7624804030253
 31
0.0
  0
ARC
  5
75
330
2
100
AcDbEntity
  8
0A
100
AcDbCircle
 10
103.9659600350623
 20
466.2624804030254
 30
0.0
 40
3.5
100
AcDbArc
 50
180.0
 51
270.0
  0
ARC
  5
76
330
2
100
AcDbEntity
  8
0A
100
AcDbCircle
 10
103.9659600350623
 20
466.2624804030254
 30
0.0
 40
1.5
100
AcDbArc
 50
180.0
 51
270.0
  0
HATCH
  5
77
330
2
100
AcDbEntity
  8
8
100
AcDbHatch
 10
0.0
 20
0.0
 30
0.0
210
0.0
220
0.0
230
1.0
  2
_U
 70
     0
 71
     0
 91
        1
 92
        1
 93
        8
 72
     2
 10
131.9659600350628
 20
267.7624804030254
 40
197.0
 50
261.8287664400501
 51
268.1091869347043
 73
     0
 72
     1
 10
125.4659600350624
 20
464.6552176992497
 11
125.4659600350623
 21
466.6552176992497
 72
     2
 10
131.9659600350629
 20
269.7624804030256
 40
196.9999999999998
 50
91.89081306529571
 51
98.17123355994992
 73
     1
 72
     2
 10
103.9659600350623
 20
466.2624804030254
 40
1.5
 50
89.99999999999729
 51
180.0
 73
     0
 72
     1
 10
102.4659600350624
 20
466.2624804030254
 11
102.4659600350624
 21
470.7624804030253
 72
     1
 10
102.4659600350624
 20
470.7624804030253
 11
100.4659600350624
 21
470.7624804030253
 72
     1
 10
100.4659600350624
 20
470.7624804030253
 11
100.4659600350624
 21
466.2624804030254
 72
     2
 10
103.9659600350623
 20
466.2624804030254
 40
3.5
 50
180.0
 51
270.0
 73
     1
 97
        0
 75
     0
 76
     0
 52
45.0
 41
3.75
 77
     0
 78
     1
 53
45.0
 43
18.77728448691278
 44
-105.4408804297279
 45
-2.651650429449553
 46
2.651650429449553
 79
     0
 98
        1
 10
18.77728448691278
 20
-105.4408804297279
1001
GENIUS_GENODEF_13
1002
{
1000
HIER
1070
     0
1002
}
1002
{
1000
MANEDIT
1070
     0
1002
}
1002
{
1000
NOSEL
1070
     0
1002
}
1002
{
1000
BEHIND
1070
     0
1002
}
1002
{
1000
REACTOR
1002
}
1001
GENIUS_GENOBJ-N-HTC_13
1002
{
1000
OWNER
1000
GEN
1002
}
1001
GENIUS_GENHATCH_13
1002
{
1000
DATA
1040
45.0
1042
2.5
1000
_U
1070
     0
1011
101.4444596294738
1021
467.5337260959866
1031
0.0
1002
}
1002
{
1000
UCS
1010
0.0
1020
0.0
1030
0.0
1010
1.0
1020
0.0
1030
0.0
1010
0.0
1020
1.0
1030
0.0
1002
}
  0
LINE
  5
95
330
2
100
AcDbEntity
  8
0
100
AcDbLine
 10
98.04435051583425
 20
448.9602087535621
 30
0.0
 11
71.96596003506238
 21
448.9602087535621
 31
0.0
  0
LINE
  5
96
330
2
100
AcDbEntity
  8
0
100
AcDbLine
 10
71.96596003506238
 20
450.9602087535621
 30
0.0
 11
96.70990516118934
 21
450.9602087535622
 31
0.0
  0
LINE
  5
97
330
2
100
AcDbEntity
  8
0
100
AcDbLine
 10
71.96596003506238
 20
448.9602087535621
 30
0.0
 11
71.96596003506238
 21
450.9602087535621
 31
0.0
  0
ARC
  5
98
330
2
100
AcDbEntity
  8
0
100
AcDbCircle
 10
98.04435051583425
 20
449.6102087535621
 30
0.0
 40
0.65
100
AcDbArc
 50
270.0000000000001
 51
0.000000000000007
  0
LINE
  5
99
330
2
100
AcDbEntity
  8
0
100
AcDbLine
 10
98.69435051583423
 20
449.6260711570648
 30
0.0
 11
98.69435051583423
 21
449.6102087535621
 31
0.0
  0
ARC
  5
9A
330
2
100
AcDbEntity
  8
0
100
AcDbCircle
 10
99.09435051583422
 20
449.6260711570648
 30
0.0
 40
0.4
100
AcDbArc
 50
100.2014684842637
 51
180.0
  0
ARC
  5
9B
330
2
100
AcDbEntity
  8
0
100
AcDbCircle
 10
97.96596003506238
 20
450.8433238022256
 30
0.0
 40
1.0
100
AcDbArc
 50
100.4756816963888
 51
148.8764688140258
  0
ARC
  5
9C
330
2
100
AcDbEntity
  8
0
100
AcDbCircle
 10
96.70990516118934
 20
451.3602087535621
 30
0.0
 40
0.4
100
AcDbArc
 50
270.0
 51
0.000000000000007
  0
LINE
  5
9D
330
2
100
AcDbEntity
  8
0A
100
AcDbLine
 10
102.4659600350624
 20
466.2624804030254
 30
0.0
 11
102.4659600350624
 21
470.7624804030253
 31
0.0
  0
LINE
  5
9E
330
2
100
AcDbEntity
  8
0A
100
AcDbLine
 10
100.4659600350624
 20
466.2624804030254
 30
0.0
 11
100.4659600350624
 21
470.7624804030253
 31
0.0
  0
HATCH
  5
D6
330
2
100
AcDbEntity
  8
8
100
AcDbHatch
 10
0.0
 20
0.0
 30
0.0
210
0.0
220
0.0
230
1.0
  2
_U
 70
     0
 71
     0
 91
        1
 92
        1
 93
       14
 72
     1
 10
376.2364742792541
 20
319.3580002913091
 11
341.1634387814431
 21
309.9602087535622
 72
     1
 10
341.1634387814431
 20
309.9602087535622
 11
334.7159600350624
 21
309.9602087535622
 72
     2
 10
334.7159600350624
 20
306.4602087535623
 40
3.499999999999943
 50
89.99999999999955
 51
180.0000000000009
 73
     1
 72
     1
 10
331.2159600350625
 20
306.4602087535622
 11
331.2159600350624
 21
294.9602087535623
 72
     1
 10
331.2159600350624
 20
294.9602087535623
 11
329.7159600350624
 21
294.9602087535622
 72
     1
 10
329.7159600350624
 20
294.9602087535622
 11
329.7159600350625
 21
306.4602087535623
 72
     2
 10
334.7159600350626
 20
306.4602087535622
 40
5.000000000000028
 50
180.0000000000013
 51
269.9999999999997
 73
     0
 72
     1
 10
334.7159600350626
 20
311.4602087535622
 11
340.9659600350624
 21
311.4602087535622
 72
     1
 10
340.9659600350624
 20
311.4602087535622
 11
375.8482457116003
 21
320.8068890307426
 72
     2
 10
371.9659600350624
 20
335.2957764250786
 40
14.99999999999998
 50
285.0000000000006
 51
360.0
 73
     1
 72
     1
 10
386.9659600350623
 20
335.2957764250786
 11
386.9659600350624
 21
359.0207560853262
 72
     1
 10
386.9659600350624
 20
359.0207560853262
 11
388.4659600350624
 21
357.1774420670995
 72
     1
 10
388.4659600350624
 20
357.1774420670995
 11
388.4659600350624
 21
335.2957764250787
 72
     2
 10
371.9659600350624
 20
335.2957764250787
 40
16.49999999999994
 50
359.9999999999998
 51
434.9999999999997
 73
     0
 97
        0
 75
     0
 76
     0
 52
135.0
 41
5.400000000000001
 77
     0
 78
     1
 53
135.0
 43
500.3809584716569
 44
772.6741431419524
 45
-3.818376618407357
 46
-3.818376618407357
 79
     0
 98
        1
 10
500.3809584716569
 20
772.6741431419524
1001
GENIUS_GENODEF_13
1002
{
1000
HIER
1070
     0
1002
}
1002
{
1000
MANEDIT
1070
     0
1002
}
1002
{
1000
NOSEL
1070
     0
1002
}
1002
{
1000
BEHIND
1070
     0
1002
}
1002
{
1000
REACTOR
1002
}
1001
GENIUS_GENOBJ-N-HTC_13
1002
{
1000
OWNER
1000
GEN
1002
}
1001
GENIUS_GENHATCH_13
1002
{
1000
DATA
1040
135.0
1042
2.7
1000
_U
1070
     0
1011
387.9248021435493
1021
347.29690153226
1031
0.0
1002
}
1002
{
1000
UCS
1010
0.0
1020
0.0
1030
0.0
1010
1.0
1020
0.0
1030
0.0
1010
0.0
1020
1.0
1030
0.0
1002
}
  0
LINE
  5
D7
330
2
100
AcDbEntity
  8
0
100
AcDbLine
 10
341.1634387814435
 20
309.9602087535623
 30
0.0
 11
376.2364742792541
 21
319.3580002913091
 31
0.0
  0
LINE
  5
D8
330
2
100
AcDbEntity
  8
0
100
AcDbLine
 10
340.9659600350624
 20
311.4602087535622
 30
0.0
 11
375.8482457116003
 21
320.8068890307426
 31
0.0
  0
LINE
  5
D9
330
2
100
AcDbEntity
  8
0A
100
AcDbLine
 10
141.7834600350625
 20
470.7624804030253
 30
0.0
 11
180.4659600350624
 21
470.7624804030252
 31
0.0
  0
LINE
  5
DD
330
2
100
AcDbEntity
  8
0
100
AcDbLine
 10
168.4659600350624
 20
373.4707553209958
 30
0.0
 11
168.4659600350624
 21
401.4496615287283
 31
0.0
  0
HATCH
  5
DE
330
2
100
AcDbEntity
  8
8
100
AcDbHatch
 10
0.0
 20
0.0
 30
0.0
210
0.0
220
0.0
230
1.0
  2
_U
 70
     0
 71
     0
 91
        1
 92
        1
 93
        4
 72
     1
 10
171.9659600350624
 20
356.8991601670163
 11
171.9659600350624
 21
440.960208753562
 72
     1
 10
171.9659600350624
 20
440.960208753562
 11
170.4659600350623
 21
440.960208753562
 72
     1
 10
170.4659600350623
 20
440.960208753562
 11
170.4659600350623
 21
357.2739624854214
 72
     1
 10
170.4659600350623
 20
357.2739624854214
 11
171.9659600350624
 21
356.8991601670163
 97
        0
 75
     0
 76
     0
 52
135.0
 41
5.400000000000001
 77
     0
 78
     1
 53
135.0
 43
500.3809584716569
 44
772.6741431419524
 45
-3.818376618407357
 46
-3.818376618407357
 79
     0
 98
        1
 10
500.3809584716569
 20
772.6741431419524
1001
GENIUS_GENODEF_13
1002
{
1000
HIER
1070
     0
1002
}
1002
{
1000
MANEDIT
1070
     0
1002
}
1002
{
1000
NOSEL
1070
     0
1002
}
1002
{
1000
BEHIND
1070
     0
1002
}
1002
{
1000
REACTOR
1002
}
1001
GENIUS_GENOBJ-N-HTC_13
1002
{
1000
OWNER
1000
GEN
1002
}
1001
GENIUS_GENHATCH_13
1002
{
1000
DATA
1040
135.0
1042
2.7
1000
_U
1070
     0
1011
171.14656454413
1021
407.3335553910052
1031
0.0
1002
}
1002
{
1000
UCS
1010
0.0
1020
0.0
1030
0.0
1010
1.0
1020
0.0
1030
0.0
1010
0.0
1020
1.0
1030
0.0
1002
}
  0
LINE
  5
DF
330
2
100
AcDbEntity
  8
0
100
AcDbLine
 10
170.4659600350623
 20
440.960208753562
 30
0.0
 11
170.4659600350623
 21
335.2957764250787
 31
0.0
  0
LINE
  5
E0
330
2
100
AcDbEntity
  8
0
100
AcDbLine
 10
171.9659600350624
 20
440.960208753562
 30
0.0
 11
171.9659600350624
 21
335.2957764250786
 31
0.0
  0
LINE
  5
E1
330
2
100
AcDbEntity
  8
0
100
AcDbLine
 10
225.7159600350624
 20
272.5235008058576
 30
0.0
 11
333.2159600350624
 21
272.5235008058576
 31
0.0
  0
HATCH
  5
E3
330
2
100
AcDbEntity
  8
8
100
AcDbHatch
 10
0.0
 20
0.0
 30
0.0
210
0.0
220
0.0
230
1.0
  2
_U
 70
     0
 71
     0
 91
        1
 92
        1
 93
       14
 72
     1
 10
170.4659600350623
 20
357.5064001784031
 11
170.4659600350623
 21
335.2957764250787
 72
     2
 10
186.9659600350624
 20
335.2957764250787
 40
16.5
 50
180.0
 51
254.9999999999994
 73
     1
 72
     1
 10
182.6954457908706
 20
319.3580002913091
 11
217.7684812886813
 21
309.9602087535623
 72
     1
 10
217.7684812886813
 20
309.9602087535623
 11
224.2159600350623
 21
309.9602087535622
 72
     2
 10
224.2159600350623
 20
306.4602087535622
 40
3.5
 50
270.0
 51
360.0
 73
     0
 72
     1
 10
227.7159600350623
 20
306.4602087535622
 11
227.7159600350624
 21
294.9602087535622
 72
     1
 10
227.7159600350624
 20
294.9602087535622
 11
229.2159600350624
 21
294.9602087535623
 72
     1
 10
229.2159600350624
 20
294.9602087535623
 11
229.2159600350622
 21
306.4602087535622
 72
     2
 10
224.2159600350622
 20
306.4602087535622
 40
5.0
 50
0.0
 51
90.0
 73
     1
 72
     1
 10
224.2159600350622
 20
311.4602087535622
 11
217.9659600350623
 21
311.4602087535622
 72
     1
 10
217.9659600350623
 20
311.4602087535622
 11
183.0836743585244
 21
320.8068890307426
 72
     2
 10
186.9659600350624
 20
335.2957764250786
 40
14.99999999999999
 50
105.0000000000008
 51
180.0
 73
     0
 72
     1
 10
171.9659600350624
 20
335.2957764250786
 11
171.9659600350624
 21
357.0760660079304
 72
     1
 10
171.9659600350624
 20
357.0760660079304
 11
170.4659600350623
 21
357.5064001784031
 97
        0
 75
     0
 76
     0
 52
135.0
 41
5.400000000000001
 77
     0
 78
     1
 53
135.0
 43
500.3809584716569
 44
772.6741431419524
 45
-3.818376618407357
 46
-3.818376618407357
 79
     0
 98
        1
 10
500.3809584716569
 20
772.6741431419524
1001
GENIUS_GENODEF_13
1002
{
1000
HIER
1070
     0
1002
}
1002
{
1000
MANEDIT
1070
     0
1002
}
1002
{
1000
NOSEL
1070
     0
1002
}
1002
{
1000
BEHIND
1070
     0
1002
}
1002
{
1000
REACTOR
1002
}
1001
GENIUS_GENOBJ-N-HTC_13
1002
{
1000
OWNER
1000
GEN
1002
}
1001
GENIUS_GENHATCH_13
1002
{
1000
DATA
1040
135.0
1042
2.7
1000
_U
1070
     0
1011
171.3865868967674
1021
346.0960221566225
1031
0.0
1002
}
1002
{
1000
UCS
1010
0.0
1020
0.0
1030
0.0
1010
1.0
1020
0.0
1030
0.0
1010
0.0
1020
1.0
1030
0.0
1002
}
  0
LINE
  5
E4
330
2
100
AcDbEntity
  8
0
100
AcDbLine
 10
229.2159600350624
 20
294.9602087535622
 30
0.0
 11
229.2159600350622
 21
306.4602087535622
 31
0.0
  0
LINE
  5
E5
330
2
100
AcDbEntity
  8
0
100
AcDbLine
 10
227.7159600350624
 20
294.9602087535622
 30
0.0
 11
227.7159600350623
 21
306.4602087535622
 31
0.0
  0
ARC
  5
E6
330
2
100
AcDbEntity
  8
0
100
AcDbCircle
 10
204.9265369723179
 20
285.4869065589083
 30
0.0
 40
23.0
100
AcDbArc
 50
326.9999999999989
 51
352.240905853686
  0
ARC
  5
E7
330
2
100
AcDbEntity
  8
0
100
AcDbCircle
 10
204.6459239083321
 20
285.6231601892446
 30
0.0
 40
24.81022971160246
100
AcDbArc
 50
328.1299636598016
 51
352.0208994379629
  0
LINE
  5
E8
330
2
100
AcDbEntity
  8
0
100
AcDbLine
 10
229.2159600350624
 20
294.9602087535623
 30
0.0
 11
229.2159600350624
 21
282.1792056201994
 31
0.0
  0
LINE
  5
E9
330
2
100
AcDbEntity
  8
0
100
AcDbLine
 10
227.7159600350624
 20
294.9602087535623
 30
0.0
 11
227.7159600350624
 21
282.3817179225693
 31
0.0
  0
LINE
  5
EB
330
2
100
AcDbEntity
  8
0
100
AcDbLine
 10
217.9659600350624
 20
311.4602087535622
 30
0.0
 11
183.0836743585244
 21
320.8068890307426
 31
0.0
  0
LINE
  5
EC
330
2
100
AcDbEntity
  8
0
100
AcDbLine
 10
217.7684812886813
 20
309.9602087535623
 30
0.0
 11
182.6954457908707
 21
319.3580002913091
 31
0.0
  0
ARC
  5
ED
330
2
100
AcDbEntity
  8
0
100
AcDbCircle
 10
186.9659600350624
 20
335.2957764250786
 30
0.0
 40
15.0
100
AcDbArc
 50
180.0
 51
254.9999999999993
  0
ARC
  5
EE
330
2
100
AcDbEntity
  8
0
100
AcDbCircle
 10
186.9659600350624
 20
335.2957764250787
 30
0.0
 40
16.5
100
AcDbArc
 50
180.0
 51
254.9999999999995
  0
ARC
  5
EF
330
2
100
AcDbEntity
  8
0
100
AcDbCircle
 10
224.2159600350623
 20
306.4602087535622
 30
0.0
 40
3.5
100
AcDbArc
 50
0.0000000000002106
 51
90.0
  0
ARC
  5
F0
330
2
100
AcDbEntity
  8
0
100
AcDbCircle
 10
224.2159600350622
 20
306.4602087535622
 30
0.0
 40
5.0
100
AcDbArc
 50
0.0000000000005922
 51
90.0
  0
LINE
  5
F1
330
2
100
AcDbEntity
  8
0
100
AcDbLine
 10
217.7684812886816
 20
309.9602087535622
 30
0.0
 11
224.2159600350623
 21
309.9602087535622
 31
0.0
  0
LINE
  5
F2
330
2
100
AcDbEntity
  8
0
100
AcDbLine
 10
217.9659600350623
 20
311.4602087535622
 30
0.0
 11
340.9659600350624
 21
311.4602087535622
 31
0.0
  0
LINE
  5
F4
330
2
100
AcDbEntity
  8
0
100
AcDbLine
 10
331.2159600350624
 20
294.9602087535622
 30
0.0
 11
331.2159600350625
 21
306.4602087535622
 31
0.0
  0
LINE
  5
F5
330
2
100
AcDbEntity
  8
0
100
AcDbLine
 10
329.7159600350624
 20
294.9602087535622
 30
0.0
 11
329.7159600350625
 21
306.4602087535622
 31
0.0
  0
ARC
  5
F6
330
2
100
AcDbEntity
  8
0
100
AcDbCircle
 10
354.2859961617941
 20
285.6231601892451
 30
0.0
 40
24.81022971160379
100
AcDbArc
 50
187.9791005620376
 51
211.8700363401977
  0
ARC
  5
F7
330
2
100
AcDbEntity
  8
0
100
AcDbCircle
 10
354.0053830978069
 20
285.4869065589083
 30
0.0
 40
23.0
100
AcDbArc
 50
187.759094146314
 51
213.0000000000011
  0
LINE
  5
F8
330
2
100
AcDbEntity
  8
0
100
AcDbLine
 10
329.7159600350624
 20
294.9602087535623
 30
0.0
 11
329.7159600350624
 21
282.1792056201994
 31
0.0
  0
LINE
  5
F9
330
2
100
AcDbEntity
  8
0
100
AcDbLine
 10
331.2159600350624
 20
294.9602087535623
 30
0.0
 11
331.2159600350624
 21
282.3817179225693
 31
0.0
  0
ARC
  5
FC
330
2
100
AcDbEntity
  8
0
100
AcDbCircle
 10
334.7159600350626
 20
306.4602087535622
 30
0.0
 40
5.0
100
AcDbArc
 50
90.0
 51
179.9999999999994
  0
ARC
  5
FD
330
2
100
AcDbEntity
  8
0
100
AcDbCircle
 10
334.7159600350624
 20
306.4602087535622
 30
0.0
 40
3.5
100
AcDbArc
 50
90.0
 51
179.9999999999998
  0
LINE
  5
FE
330
2
100
AcDbEntity
  8
0
100
AcDbLine
 10
341.1634387814431
 20
309.9602087535622
 30
0.0
 11
334.7159600350624
 21
309.9602087535622
 31
0.0
  0
LINE
  5
100
330
2
100
AcDbEntity
  8
7
100
AcDbLine
 10
131.9659600350624
 20
439.6299090889565
 30
0.0
 11
131.9659600350624
 21
491.960208753562
 31
0.0
  0
LWPOLYLINE
  5
102
330
2
100
AcDbEntity
  8
0A
100
AcDbPolyline
 90
        3
 70
     0
 43
0.0
 10
131.9659600350624
 20
454.9602087535618
 10
126.9659600350623
 20
454.9602087535618
 10
126.9659600350623
 20
466.6990184044831
1001
NC_GG_OF
1000
40
1001
NC_GG_NT
1000
4-1511087
1001
NC_GG_AK
1000
NC_AK
  0
LWPOLYLINE
  5
107
330
2
100
AcDbEntity
  8
4
100
AcDbPolyline
 90
        3
 70
     0
 43
0.0
 10
127.7159600350624
 20
466.7166311589816
 10
127.7159600350624
 20
457.9602087535619
 10
126.9659600350623
 20
454.9602087535618
1001
NC_GG_OF
1000
40
1001
NC_GG_NT
1000
4-1511087
  0
LWPOLYLINE
  5
108
330
2
100
AcDbEntity
  8
4
100
AcDbPolyline
 90
        3
 70
     0
 43
0.0
 10
136.2159600350624
 20
466.7166311589816
 10
136.2159600350624
 20
457.9602087535619
 10
136.9659600350624
 20
454.9602087535618
1001
NC_GG_OF
1000
40
1001
NC_GG_NT
1000
4-1511087
  0
LWPOLYLINE
  5
109
330
2
100
AcDbEntity
  8
0A
100
AcDbPolyline
 90
        3
 70
     0
 43
0.0
 10
136.9659600350624
 20
466.6990184044841
 10
136.9659600350624
 20
454.9602087535618
 10
131.9659600350624
 20
454.9602087535618
1001
NC_GG_OF
1000
40
1001
NC_GG_NT
1000
4-1511087
1001
NC_GG_AK
1000
NC_AK
  0
LINE
  5
10A
330
2
100
AcDbEntity
  8
0
100
AcDbLine
 10
165.8875695542905
 20
448.9602087535621
 30
0.0
 11
166.9659600350623
 21
448.9602087535622
 31
0.0
  0
ARC
  5
10B
330
2
100
AcDbEntity
  8
0
100
AcDbCircle
 10
165.9659600350624
 20
450.8433238022256
 30
0.0
 40
1.0
100
AcDbArc
 50
31.12353118597418
 51
79.52431830361117
  0
LINE
  5
10C
330
2
100
AcDbEntity
  8
0
100
AcDbLine
 10
180.4659600350613
 20
454.9602087535621
 30
0.0
 11
131.9659600350624
 21
454.9602087535621
 31
0.0
  0
LWPOLYLINE
  5
10D
330
2
100
AcDbEntity
  8
0A
100
AcDbPolyline
 90
        3
 70
     0
 43
0.0
 10
126.9659600350623
 20
457.9602087535619
 10
131.9659600350624
 20
457.9602087535619
 10
136.9659600350624
 20
457.9602087535619
1001
NC_GG_OF
1000
40
1001
NC_GG_NT
1000
4-1511087
  0
LINE
  5
10E
330
2
100
AcDbEntity
  8
8
100
AcDbLine
 10
134.0323731553003
 20
452.9487297348947
 30
0.0
 11
132.0209021649053
 21
454.9602007252897
 31
0.0
  0
LINE
  5
10F
330
2
100
AcDbEntity
  8
0
100
AcDbLine
 10
166.1477782168805
 20
451.8266559682611
 30
0.0
 11
165.9659600350624
 21
451.860181711916
 31
0.0
  0
ARC
  5
110
330
2
100
AcDbEntity
  8
0
100
AcDbCircle
 10
164.8375695542905
 20
449.6260711570648
 30
0.0
 40
0.4
100
AcDbArc
 50
0.000000000000007
 51
79.79853151573627
  0
LINE
  5
111
330
2
100
AcDbEntity
  8
0
100
AcDbLine
 10
165.2375695542905
 20
449.6260711570648
 30
0.0
 11
165.2375695542905
 21
449.6102087535621
 31
0.0
  0
ARC
  5
112
330
2
100
AcDbEntity
  8
0
100
AcDbCircle
 10
165.8875695542905
 20
449.6102087535621
 30
0.0
 40
0.65
100
AcDbArc
 50
180.0
 51
269.9999999999999
  0
ARC
  5
117
330
2
100
AcDbEntity
  8
0
100
AcDbCircle
 10
166.9536953310141
 20
445.955128546807
 30
0.0
 40
5.012267278582378
100
AcDbArc
 50
0.0580724130990556
 51
86.93134248879315
  0
ARC
  5
118
330
2
100
AcDbEntity
  8
0
100
AcDbCircle
 10
166.9659600350624
 20
445.9602087535622
 30
0.0
 40
3.0
100
AcDbArc
 50
0.000000000000007
 51
90.00000000000078
  0
LINE
  5
119
330
2
100
AcDbEntity
  8
0
100
AcDbLine
 10
171.9659600350624
 20
440.9602087535621
 30
0.0
 11
171.9659600350624
 21
445.9602087535622
 31
0.0
  0
LINE
  5
11A
330
2
100
AcDbEntity
  8
0
100
AcDbLine
 10
169.9659600350624
 20
440.9602087535621
 30
0.0
 11
169.9659600350624
 21
445.9602087535622
 31
0.0
  0
LINE
  5
11B
330
2
100
AcDbEntity
  8
0
100
AcDbLine
 10
180.4659600350618
 20
440.9602087535621
 30
0.0
 11
169.9659600350624
 21
440.9602087535621
 31
0.0
  0
ARC
  5
11D
330
2
100
AcDbEntity
  8
0
100
AcDbCircle
 10
167.2220149089354
 20
451.3602087535621
 30
0.0
 40
0.4
100
AcDbArc
 50
180.0
 51
270.0
  0
LINE
  5
11F
330
2
100
AcDbEntity
  8
0A
100
AcDbLine
 10
136.9659600350624
 20
462.7624804030253
 30
0.0
 11
180.465960035061
 21
462.7624804030254
 31
0.0
  0
LWPOLYLINE
  5
121
330
2
100
AcDbEntity
  8
0A
100
AcDbPolyline
 90
        3
 70
     0
 43
0.0
 10
126.9659600350623
 20
484.2102087535619
 10
131.9659600350624
 20
484.2102087535619
 10
136.9659600350624
 20
484.2102087535619
1001
NC_GG_OF
1000
40
1001
NC_GG_NT
1000
4-1511087
  0
LINE
  5
122
330
2
100
AcDbEntity
  8
0A
100
AcDbLine
 10
131.9659600350624
 20
484.9602087535619
 30
0.0
 11
136.2159600350624
 21
484.9602087535619
 31
0.0
1001
NC_GG_OF
1000
40
1001
NC_GG_NT
1000
4-1511087
1001
NC_GG_AK
1000
NC_AK
  0
LWPOLYLINE
  5
123
330
2
100
AcDbEntity
  8
0A
100
AcDbPolyline
 90
        8
 70
     1
 43
0.0
 10
131.9659600350624
 20
466.7624804030253
 10
141.9659600350624
 20
466.7624804030253
 10
141.9659600350624
 20
468.1624804030252
 10
141.3659600350625
 20
468.7624804030254
 10
131.9659600350624
 20
468.7624804030254
 10
122.5659600350625
 20
468.7624804030254
 10
121.9659600350624
 20
468.1624804030252
 10
121.9659600350624
 20
466.7624804030253
1001
NC_GG_OF
1000
60
1001
NC_GG_NT
1000
8-1511087
1001
NC_GG_AK
1000
NC_AK
  0
LWPOLYLINE
  5
124
330
2
100
AcDbEntity
  8
0A
100
AcDbPolyline
 90
        2
 70
     0
 43
0.0
 10
141.9659600350624
 20
468.1624804030252
 10
121.9659600350624
 20
468.1624804030252
1001
NC_GG_OF
1000
60
1001
NC_GG_NT
1000
8-1511087
  0
LWPOLYLINE
  5
125
330
2
100
AcDbEntity
  8
0A
100
AcDbPolyline
 90
       10
 70
     1
 43
0.0
 10
131.9659600350624
 20
476.7624804030255
 10
139.3290850350624
 20
476.7624804030255
 42
-0.2668881383873844
 10
141.7834600350625
 20
475.3519200581975
 10
141.7834600350625
 20
470.1730407478528
 42
-0.2668881383873844
 10
139.3290850350624
 20
468.7624804030254
 10
131.9659600350624
 20
468.7624804030254
 10
124.6028350350625
 20
468.7624804030254
 42
-0.2668881383873844
 10
122.1484600350625
 20
470.1730407478528
 10
122.1484600350625
 20
475.3519200581975
 42
-0.2668881383873844
 10
124.6028350350625
 20
476.7624804030255
1001
NC_GG_OF
1000
60
1001
NC_GG_NT
1000
6-1511087
1001
NC_GG_AK
1000
NC_AK
  0
ARC
  5
126
330
2
100
AcDbEntity
  8
0A
100
AcDbCircle
 10
131.9659600350624
 20
269.7624804030256
 30
0.0
 40
196.9999999999997
100
AcDbArc
 50
81.82876644005025
 51
98.17123355994976
  0
LWPOLYLINE
  5
127
330
2
100
AcDbEntity
  8
0A
100
AcDbPolyline
 90
        3
 70
     0
 43
0.0
 10
131.9659600350624
 20
468.7624804030254
 42
0.140828634442671
 10
136.8747100350624
 20
470.1730407478528
 42
0.2668881383873844
 10
139.3290850350624
 20
468.7624804030254
 42
0.2668881383873844
1001
NC_GG_OF
1000
60
1001
NC_GG_NT
1000
6-1511087
  0
LWPOLYLINE
  5
128
330
2
100
AcDbEntity
  8
0A
100
AcDbPolyline
 90
        3
 70
     0
 43
0.0
 10
139.3290850350624
 20
476.7624804030255
 42
0.2668881383873844
 10
136.8747100350624
 20
475.3519200581975
 42
0.1408286344426721
 10
131.9659600350624
 20
476.7624804030255
1001
NC_GG_OF
1000
60
1001
NC_GG_NT
1000
6-1511087
  0
LWPOLYLINE
  5
129
330
2
100
AcDbEntity
  8
4
100
AcDbPolyline
 90
        2
 70
     0
 43
0.0
 10
127.7159600350624
 20
484.9602087535619
 10
127.7159600350624
 20
476.7624804030255
1001
NC_GG_OF
1000
40
1001
NC_GG_NT
1000
4-1511087
  0
LINE
  5
12A
330
2
100
AcDbEntity
  8
0A
100
AcDbLine
 10
127.7159600350624
 20
484.9602087535619
 30
0.0
 11
131.9659600350624
 21
484.9602087535619
 31
0.0
1001
NC_GG_OF
1000
40
1001
NC_GG_NT
1000
4-1511087
1001
NC_GG_AK
1000
NC_AK
  0
LINE
  5
12B
330
2
100
AcDbEntity
  8
0A
100
AcDbLine
 10
126.9659600350623
 20
484.2102087535619
 30
0.0
 11
127.7159600350624
 21
484.9602087535619
 31
0.0
1001
NC_GG_OF
1000
40
1001
NC_GG_NT
1000
4-1511087
1001
NC_GG_AK
1000
NC_AK
  0
LWPOLYLINE
  5
12C
330
2
100
AcDbEntity
  8
0A
100
AcDbPolyline
 90
        3
 70
     0
 43
0.0
 10
131.9659600350626
 20
468.7624804030254
 42
-0.140828634442671
 10
127.0572100350625
 20
470.1730407478528
 42
-0.2668881383873844
 10
124.6028350350625
 20
468.7624804030254
 42
-0.2668881383873844
1001
NC_GG_OF
1000
60
1001
NC_GG_NT
1000
6-1511087
  0
LWPOLYLINE
  5
12D
330
2
100
AcDbEntity
  8
0A
100
AcDbPolyline
 90
        3
 70
     0
 43
0.0
 10
124.6028350350625
 20
476.7624804030255
 42
-0.2668881383873844
 10
127.0572100350625
 20
475.3519200581975
 42
-0.1408286344426721
 10
131.9659600350624
 20
476.7624804030255
1001
NC_GG_OF
1000
60
1001
NC_GG_NT
1000
6-1511087
  0
LINE
  5
12E
330
2
100
AcDbEntity
  8
0A
100
AcDbLine
 10
103.9659600350623
 20
462.7624804030253
 30
0.0
 11
126.9659600350623
 21
462.7624804030253
 31
0.0
  0
LINE
  5
12F
330
2
100
AcDbEntity
  8
0A
100
AcDbLine
 10
125.4659600350624
 20
464.6552176992497
 30
0.0
 11
125.4659600350624
 21
466.6552176992497
 31
0.0
  0
LWPOLYLINE
  5
130
330
2
100
AcDbEntity
  8
0A
100
AcDbPolyline
 90
        2
 70
     0
 43
0.0
 10
127.0572100350625
 20
475.3519200581975
 10
127.0572100350625
 20
470.1730407478528
1001
NC_GG_OF
1000
60
1001
NC_GG_NT
1000
6-1511087
  0
ARC
  5
131
330
2
100
AcDbEntity
  8
0A
100
AcDbCircle
 10
131.9659600350624
 20
267.7624804030256
 30
0.0
 40
196.9999999999997
100
AcDbArc
 50
91.45436377582131
 51
98.17123355994976
  0
LWPOLYLINE
  5
132
330
2
100
AcDbEntity
  8
0A
100
AcDbPolyline
 90
        2
 70
     0
 43
0.0
 10
126.9659600350623
 20
476.7624804030255
 10
126.9659600350623
 20
484.2102087535619
1001
NC_GG_OF
1000
40
1001
NC_GG_NT
1000
4-1511087
1001
NC_GG_AK
1000
NC_AK
  0
LINE
  5
133
330
2
100
AcDbEntity
  8
4
100
AcDbLine
 10
136.1235183957332
 20
483.067448730058
 30
0.0
 11
136.1235183957332
 21
477.0674487300579
 31
0.0
1001
NC_GG_OF
1000
40
1001
NC_GG_NT
1000
4-1511087
  0
LWPOLYLINE
  5
134
330
2
100
AcDbEntity
  8
0A
100
AcDbPolyline
 90
        2
 70
     0
 43
0.0
 10
136.9659600350624
 20
484.2102087535619
 10
136.9659600350624
 20
476.7624804030255
1001
NC_GG_OF
1000
40
1001
NC_GG_NT
1000
4-1511087
1001
NC_GG_AK
1000
NC_AK
  0
LWPOLYLINE
  5
135
330
2
100
AcDbEntity
  8
4
100
AcDbPolyline
 90
        2
 70
     0
 43
0.0
 10
136.2159600350624
 20
484.9602087535619
 10
136.2159600350624
 20
476.7624804030255
1001
NC_GG_OF
1000
40
1001
NC_GG_NT
1000
4-1511087
  0
LINE
  5
136
330
2
100
AcDbEntity
  8
0A
100
AcDbLine
 10
136.2159600350624
 20
484.9602087535619
 30
0.0
 11
136.9659600350624
 21
484.2102087535619
 31
0.0
1001
NC_GG_OF
1000
40
1001
NC_GG_NT
1000
4-1511087
1001
NC_GG_AK
1000
NC_AK
  0
ARC
  5
137
330
2
100
AcDbEntity
  8
0A
100
AcDbCircle
 10
131.9659600350624
 20
267.7624804030256
 30
0.0
 40
196.9999999999997
100
AcDbArc
 50
81.82876644005025
 51
88.54563622417868
  0
LINE
  5
138
330
2
100
AcDbEntity
  8
0A
100
AcDbLine
 10
138.4659600350623
 20
464.6552176992497
 30
0.0
 11
138.4659600350623
 21
466.6552176992497
 31
0.0
  0
LWPOLYLINE
  5
139
330
2
100
AcDbEntity
  8
0A
100
AcDbPolyline
 90
        2
 70
     0
 43
0.0
 10
136.8747100350624
 20
475.3519200581975
 10
136.8747100350624
 20
470.1730407478528
1001
NC_GG_OF
1000
60
1001
NC_GG_NT
1000
6-1511087
  0
LINE
  5
13A
330
2
100
AcDbEntity
  8
0A
100
AcDbLine
 10
161.4659600350624
 20
466.2624804030254
 30
0.0
 11
161.4659600350624
 21
470.7624804030253
 31
0.0
  0
LINE
  5
13B
330
2
100
AcDbEntity
  8
0A
100
AcDbLine
 10
163.4659600350623
 20
466.2624804030254
 30
0.0
 11
163.4659600350623
 21
470.7624804030253
 31
0.0
  0
ARC
  5
13C
330
2
100
AcDbEntity
  8
0A
100
AcDbCircle
 10
159.9659600350624
 20
466.2624804030254
 30
0.0
 40
3.5
100
AcDbArc
 50
270.0
 51
0.0
  0
ARC
  5
13D
330
2
100
AcDbEntity
  8
0A
100
AcDbCircle
 10
159.9659600350624
 20
466.2624804030254
 30
0.0
 40
1.5
100
AcDbArc
 50
270.0
 51
0.0
  0
HATCH
  5
13F
330
2
100
AcDbEntity
  8
8
100
AcDbHatch
 10
0.0
 20
0.0
 30
0.0
210
0.0
220
0.0
230
1.0
  2
_U
 70
     0
 71
     0
 91
        1
 92
        1
 93
        8
 72
     2
 10
131.9659600350618
 20
267.7624804030259
 40
196.9999999999996
 50
271.8908130652957
 51
278.1712335599499
 73
     0
 72
     2
 10
159.9659600350624
 20
466.2624804030254
 40
3.5
 50
269.9999999999991
 51
360.0
 73
     1
 72
     1
 10
163.4659600350623
 20
466.2624804030254
 11
163.4659600350623
 21
470.7624804030253
 72
     1
 10
163.4659600350623
 20
470.7624804030253
 11
161.4659600350624
 21
470.7624804030253
 72
     1
 10
161.4659600350624
 20
470.7624804030253
 11
161.4659600350624
 21
466.2624804030254
 72
     2
 10
159.9659600350624
 20
466.2624804030254
 40
1.5
 50
360.0
 51
450.0000000000021
 73
     0
 72
     2
 10
131.9659600350618
 20
269.7624804030257
 40
196.9999999999997
 50
81.82876644005009
 51
88.10918693470432
 73
     1
 72
     1
 10
138.4659600350623
 20
466.6552176992497
 11
138.4659600350623
 21
464.6552176992497
 97
        0
 75
     0
 76
     0
 52
45.0
 41
4.0
 77
     0
 78
     1
 53
45.0
 43
18.77728448691278
 44
-105.4408804297279
 45
-2.828427124746189
 46
2.82842712474619
 79
     0
 98
        1
 10
18.77728448691278
 20
-105.4408804297279
1001
GENIUS_GENODEF_13
1002
{
1000
HIER
1070
     0
1002
}
1002
{
1000
MANEDIT
1070
     0
1002
}
1002
{
1000
NOSEL
1070
     0
1002
}
1002
{
1000
BEHIND
1070
     0
1002
}
1002
{
1000
REACTOR
1002
}
1001
GENIUS_GENOBJ-N-HTC_13
1002
{
1000
OWNER
1000
GEN
1002
}
1001
GENIUS_GENHATCH_13
1002
{
1000
DATA
1040
45.0
1042
2.5
1000
_U
1070
     0
1011
159.1781795228849
1021
464.038878308547
1031
0.0
1002
}
1002
{
1000
UCS
1010
0.0
1020
0.0
1030
0.0
1010
1.0
1020
0.0
1030
0.0
1010
0.0
1020
1.0
1030
0.0
1002
}
  0
HATCH
  5
16C
330
2
100
AcDbEntity
  8
8
100
AcDbHatch
 10
0.0
 20
0.0
 30
0.0
210
0.0
220
0.0
230
1.0
  2
_U
 70
     0
 71
     0
 91
        1
 92
        1
 93
        4
 72
     1
 10
386.9659600350624
 20
440.960208753562
 11
386.9659600350623
 21
352.3429478844804
 72
     1
 10
386.9659600350623
 20
352.3429478844804
 11
388.4659600350624
 21
352.0176480108485
 72
     1
 10
388.4659600350624
 20
352.0176480108485
 11
388.4659600350624
 21
440.960208753562
 72
     1
 10
388.4659600350624
 20
440.960208753562
 11
386.9659600350624
 21
440.960208753562
 97
        0
 75
     0
 76
     0
 52
135.0
 41
5.400000000000001
 77
     0
 78
     1
 53
135.0
 43
500.3809584716569
 44
772.6741431419524
 45
-3.818376618407357
 46
-3.818376618407357
 79
     0
 98
        1
 10
500.3809584716569
 20
772.6741431419524
1001
GENIUS_GENODEF_13
1002
{
1000
HIER
1070
     0
1002
}
1002
{
1000
MANEDIT
1070
     0
1002
}
1002
{
1000
NOSEL
1070
     0
1002
}
1002
{
1000
BEHIND
1070
     0
1002
}
1002
{
1000
REACTOR
1002
}
1001
GENIUS_GENOBJ-N-HTC_13
1002
{
1000
OWNER
1000
GEN
1002
}
1001
GENIUS_GENHATCH_13
1002
{
1000
DATA
1040
135.0
1042
2.7
1000
_U
1070
     0
1011
387.735282208742
1021
394.1423049284403
1031
0.0
1002
}
1002
{
1000
UCS
1010
0.0
1020
0.0
1030
0.0
1010
1.0
1020
0.0
1030
0.0
1010
0.0
1020
1.0
1030
0.0
1002
}
  0
LINE
  5
16D
330
2
100
AcDbEntity
  8
0
100
AcDbLine
 10
386.9659600350624
 20
440.9602087535621
 30
0.0
 11
386.9659600350623
 21
335.2957764250786
 31
0.0
  0
LINE
  5
16E
330
2
100
AcDbEntity
  8
0
100
AcDbLine
 10
388.4659600350624
 20
440.960208753562
 30
0.0
 11
388.4659600350624
 21
335.2957764250787
 31
0.0
  0
ARC
  5
16F
330
2
100
AcDbEntity
  8
0
100
AcDbCircle
 10
371.9659600350624
 20
335.2957764250787
 30
0.0
 40
16.5
100
AcDbArc
 50
285.0000000000005
 51
0.0
  0
ARC
  5
170
330
2
100
AcDbEntity
  8
0
100
AcDbCircle
 10
371.9659600350623
 20
335.2957764250786
 30
0.0
 40
15.0
100
AcDbArc
 50
285.0000000000007
 51
0.0
  0
LWPOLYLINE
  5
172
330
2
100
AcDbEntity
  8
0A
100
AcDbPolyline
 90
        3
 70
     0
 43
0.0
 10
426.9659600350624
 20
454.960208753562
 10
421.9659600350623
 20
454.960208753562
 10
421.9659600350623
 20
466.6990184044831
1001
NC_GG_OF
1000
40
1001
NC_GG_NT
1000
4-1511087
1001
NC_GG_AK
1000
NC_AK
  0
LINE
  5
174
330
2
100
AcDbEntity
  8
7
100
AcDbLine
 10
426.9659600350624
 20
433.960208753562
 30
0.0
 11
426.9659600350624
 21
491.9602087535619
 31
0.0
  0
LWPOLYLINE
  5
175
330
2
100
AcDbEntity
  8
4
100
AcDbPolyline
 90
        3
 70
     0
 43
0.0
 10
422.7159600350623
 20
466.7166311589816
 10
422.7159600350623
 20
457.960208753562
 10
421.9659600350623
 20
454.960208753562
1001
NC_GG_OF
1000
40
1001
NC_GG_NT
1000
4-1511087
  0
LWPOLYLINE
  5
176
330
2
100
AcDbEntity
  8
4
100
AcDbPolyline
 90
        3
 70
     0
 43
0.0
 10
431.2159600350623
 20
466.7166311589816
 10
431.2159600350623
 20
457.960208753562
 10
431.9659600350624
 20
454.960208753562
1001
NC_GG_OF
1000
40
1001
NC_GG_NT
1000
4-1511087
  0
LWPOLYLINE
  5
177
330
2
100
AcDbEntity
  8
0A
100
AcDbPolyline
 90
        3
 70
     0
 43
0.0
 10
431.9659600350624
 20
466.6990184044841
 10
431.9659600350624
 20
454.960208753562
 10
426.9659600350624
 20
454.960208753562
1001
NC_GG_OF
1000
40
1001
NC_GG_NT
1000
4-1511087
1001
NC_GG_AK
1000
NC_AK
  0
HATCH
  5
178
330
2
100
AcDbEntity
  8
8
100
AcDbHatch
 10
0.0
 20
0.0
 30
0.0
210
0.0
220
0.0
230
1.0
  2
_U
 70
     0
 71
     0
 91
        1
 92
        1
 93
       23
 72
     2
 10
392.9659600350624
 20
450.8433238022255
 40
1.000000000000017
 50
100.475681696385
 51
148.8764688140222
 73
     1
 72
     2
 10
391.7099051611893
 20
451.3602087535622
 40
0.3999999999999915
 50
0.0000000000081422
 51
90.00000000000204
 73
     0
 72
     2
 10
391.9782247391106
 20
445.955128546807
 40
5.012267278582438
 50
93.06865751120747
 51
179.9419275869009
 73
     1
 72
     1
 10
386.9659600350624
 20
445.9602087535622
 11
386.9659600350624
 21
440.9602087535621
 72
     1
 10
386.9659600350624
 20
440.9602087535621
 11
388.4659600350624
 21
440.960208753562
 72
     1
 10
388.4659600350624
 20
440.960208753562
 11
388.9659600350624
 21
440.960208753562
 72
     1
 10
388.9659600350624
 20
440.960208753562
 11
388.9659600350624
 21
445.9602087535622
 72
     2
 10
391.9659600350624
 20
445.9602087535622
 40
3.0
 50
180.0
 51
270.0000000000008
 73
     0
 72
     1
 10
391.9659600350625
 20
448.9602087535622
 11
393.0443505158343
 21
448.9602087535621
 72
     2
 10
393.0443505158343
 20
449.6102087535622
 40
0.6500000000000341
 50
269.9999999999988
 51
359.999999999995
 73
     1
 72
     1
 10
393.6943505158343
 20
449.6102087535621
 11
393.6943505158343
 21
449.6260711570648
 72
     2
 10
394.0943505158342
 20
449.6260711570648
 40
0.3999999999999772
 50
180.0
 51
259.7985315157363
 73
     0
 72
     2
 10
426.9659600350624
 20
266.9602087535621
 40
186.0
 50
259.7985315157379
 51
280.2014684842621
 73
     0
 72
     2
 10
459.8375695542905
 20
449.6260711570648
 40
0.3999999999999704
 50
280.2014684842577
 51
360.0
 73
     0
 72
     1
 10
460.2375695542905
 20
449.6260711570648
 11
460.2375695542905
 21
449.6102087535621
 72
     2
 10
460.8875695542905
 20
449.6102087535621
 40
0.6499999999999773
 50
180.0
 51
270.0
 73
     1
 72
     1
 10
460.8875695542905
 20
448.9602087535621
 11
486.9659600350623
 21
448.9602087535621
 72
     1
 10
486.9659600350623
 20
448.9602087535621
 11
486.9659600350623
 21
450.9602087535621
 72
     1
 10
486.9659600350623
 20
450.9602087535621
 11
462.2220149089354
 21
450.9602087535622
 72
     2
 10
462.2220149089354
 20
451.3602087535621
 40
0.3999999999999772
 50
89.99999999999797
 51
180.0
 73
     0
 72
     2
 10
460.9659600350624
 20
450.8433238022255
 40
1.000000000000002
 50
31.12353118597779
 51
79.52431830361494
 73
     1
 72
     2
 10
426.9659600350623
 20
266.9602087535622
 40
187.9999999999999
 50
79.5243183036101
 51
100.4193357815148
 73
     1
 72
     1
 10
392.9659600350624
 20
451.860181711916
 11
392.7841418532442
 21
451.8266559682611
 97
        0
 75
     0
 76
     0
 52
45.0
 41
5.0
 77
     0
 78
     1
 53
45.0
 43
500.3809584716569
 44
772.6741431419524
 45
-3.535533905932737
 46
3.535533905932737
 79
     0
 98
        1
 10
500.3809584716569
 20
772.6741431419524
1001
GENIUS_GENODEF_13
1002
{
1000
HIER
1070
     0
1002
}
1002
{
1000
MANEDIT
1070
     0
1002
}
1002
{
1000
NOSEL
1070
     0
1002
}
1002
{
1000
BEHIND
1070
     0
1002
}
1002
{
1000
REACTOR
1002
}
1001
GENIUS_GENOBJ-N-HTC_13
1002
{
1000
OWNER
1000
GEN
1002
}
1001
GENIUS_GENHATCH_13
1002
{
1000
DATA
1040
45.0
1042
2.5
1000
_U
1070
     0
1011
411.9396352104878
1021
453.5689442432887
1031
0.0
1002
}
1002
{
1000
UCS
1010
0.0
1020
0.0
1030
0.0
1010
1.0
1020
0.0
1030
0.0
1010
0.0
1020
1.0
1030
0.0
1002
}
  0
ARC
  5
179
330
2
100
AcDbEntity
  8
0
100
AcDbCircle
 10
426.9659600350624
 20
266.9602087535622
 30
0.0
 40
186.0
100
AcDbArc
 50
79.79853151573793
 51
100.201468484262
  0
ARC
  5
17A
330
2
100
AcDbEntity
  8
0
100
AcDbCircle
 10
426.9659600350624
 20
266.9602087535622
 30
0.0
 40
188.0
100
AcDbArc
 50
79.52431830361011
 51
100.4193357815149
  0
LINE
  5
17B
330
2
100
AcDbEntity
  8
0
100
AcDbLine
 10
460.8875695542905
 20
448.9602087535621
 30
0.0
 11
393.0443505158343
 21
448.9602087535621
 31
0.0
  0
LINE
  5
17C
330
2
100
AcDbEntity
  8
0
100
AcDbLine
 10
378.4659600350612
 20
454.960208753562
 30
0.0
 11
426.9659600350624
 21
454.9602087535621
 31
0.0
  0
LWPOLYLINE
  5
17D
330
2
100
AcDbEntity
  8
0A
100
AcDbPolyline
 90
        3
 70
     0
 43
0.0
 10
421.9659600350623
 20
457.960208753562
 10
426.9659600350624
 20
457.960208753562
 10
431.9659600350624
 20
457.960208753562
1001
NC_GG_OF
1000
40
1001
NC_GG_NT
1000
4-1511087
  0
LINE
  5
17E
330
2
100
AcDbEntity
  8
8
100
AcDbLine
 10
421.2037534119481
 20
454.8718820866464
 30
0.0
 11
423.1544828833652
 21
452.921152615229
 31
0.0
  0
ARC
  5
180
330
2
100
AcDbEntity
  8
0
100
AcDbCircle
 10
391.9659600350624
 20
445.9602087535622
 30
0.0
 40
3.0
100
AcDbArc
 50
89.9999999999992
 51
180.0
  0
ARC
  5
181
330
2
100
AcDbEntity
  8
0
100
AcDbCircle
 10
391.9782247391106
 20
445.955128546807
 30
0.0
 40
5.012267278582378
100
AcDbArc
 50
93.06865751120687
 51
179.9419275869009
  0
LINE
  5
186
330
2
100
AcDbEntity
  8
0
100
AcDbLine
 10
388.9659600350624
 20
440.9602087535621
 30
0.0
 11
378.4659600350618
 21
440.9602087535622
 31
0.0
  0
LINE
  5
187
330
2
100
AcDbEntity
  8
0
100
AcDbLine
 10
388.9659600350624
 20
440.9602087535621
 30
0.0
 11
388.9659600350624
 21
445.9602087535622
 31
0.0
  0
LINE
  5
188
330
2
100
AcDbEntity
  8
0
100
AcDbLine
 10
386.9659600350624
 20
440.9602087535621
 30
0.0
 11
386.9659600350624
 21
445.9602087535622
 31
0.0
  0
ARC
  5
189
330
2
100
AcDbEntity
  8
0
100
AcDbCircle
 10
392.9659600350624
 20
450.8433238022256
 30
0.0
 40
1.0
100
AcDbArc
 50
100.4756816963888
 51
148.8764688140258
  0
ARC
  5
18A
330
2
100
AcDbEntity
  8
0
100
AcDbCircle
 10
393.0443505158343
 20
449.6102087535621
 30
0.0
 40
0.65
100
AcDbArc
 50
270.0000000000001
 51
0.000000000000007
  0
LINE
  5
18B
330
2
100
AcDbEntity
  8
0
100
AcDbLine
 10
393.6943505158343
 20
449.6260711570648
 30
0.0
 11
393.6943505158343
 21
449.6102087535621
 31
0.0
  0
ARC
  5
18C
330
2
100
AcDbEntity
  8
0
100
AcDbCircle
 10
394.0943505158342
 20
449.6260711570648
 30
0.0
 40
0.4
100
AcDbArc
 50
100.2014684842637
 51
180.0
  0
ARC
  5
18D
330
2
100
AcDbEntity
  8
0
100
AcDbCircle
 10
391.7099051611893
 20
451.3602087535621
 30
0.0
 40
0.4
100
AcDbArc
 50
270.0
 51
0.000000000000007
  0
LINE
  5
18E
330
2
100
AcDbEntity
  8
0
100
AcDbLine
 10
392.7841418532442
 20
451.8266559682611
 30
0.0
 11
392.9659600350624
 21
451.860181711916
 31
0.0
  0
LINE
  5
18F
330
2
100
AcDbEntity
  8
0
100
AcDbLine
 10
393.0443505158343
 20
448.9602087535621
 30
0.0
 11
391.9659600350625
 21
448.9602087535622
 31
0.0
  0
LINE
  5
190
330
2
100
AcDbEntity
  8
8
100
AcDbLine
 10
437.5594813154325
 20
452.6582898068928
 30
0.0
 11
435.449050372267
 21
454.7687207500583
 31
0.0
  0
LINE
  5
191
330
2
100
AcDbEntity
  8
8
100
AcDbLine
 10
437.5594813154325
 20
452.6582898068928
 30
0.0
 11
435.449050372267
 21
454.7687207500583
 31
0.0
  0
LINE
  5
192
330
2
100
AcDbEntity
  8
0
100
AcDbLine
 10
460.8875695542905
 20
448.9602087535621
 30
0.0
 11
486.9659600350623
 21
448.9602087535621
 31
0.0
  0
LINE
  5
193
330
2
100
AcDbEntity
  8
0
100
AcDbLine
 10
486.9659600350623
 20
450.9602087535621
 30
0.0
 11
462.2220149089354
 21
450.9602087535622
 31
0.0
  0
ARC
  5
194
330
2
100
AcDbEntity
  8
0
100
AcDbCircle
 10
462.2220149089354
 20
451.3602087535621
 30
0.0
 40
0.4
100
AcDbArc
 50
180.0
 51
270.0
  0
ARC
  5
195
330
2
100
AcDbEntity
  8
0
100
AcDbCircle
 10
460.9659600350624
 20
450.8433238022256
 30
0.0
 40
1.0
100
AcDbArc
 50
31.12353118597417
 51
79.52431830361115
  0
LINE
  5
196
330
2
100
AcDbEntity
  8
0
100
AcDbLine
 10
460.2375695542905
 20
449.6260711570648
 30
0.0
 11
460.2375695542905
 21
449.6102087535621
 31
0.0
  0
ARC
  5
197
330
2
100
AcDbEntity
  8
0
100
AcDbCircle
 10
459.8375695542905
 20
449.6260711570648
 30
0.0
 40
0.4
100
AcDbArc
 50
0.0
 51
79.79853151573625
  0
ARC
  5
198
330
2
100
AcDbEntity
  8
0
100
AcDbCircle
 10
460.8875695542905
 20
449.6102087535621
 30
0.0
 40
0.65
100
AcDbArc
 50
180.0
 51
269.9999999999999
  0
LINE
  5
199
330
2
100
AcDbEntity
  8
0
100
AcDbLine
 10
486.9659600350623
 20
448.9602087535621
 30
0.0
 11
486.9659600350623
 21
450.9602087535621
 31
0.0
  0
LWPOLYLINE
  5
19A
330
2
100
AcDbEntity
  8
0A
100
AcDbPolyline
 90
        3
 70
     0
 43
0.0
 10
421.9659600350623
 20
484.2102087535619
 10
426.9659600350624
 20
484.2102087535619
 10
431.9659600350624
 20
484.2102087535619
1001
NC_GG_OF
1000
40
1001
NC_GG_NT
1000
4-1511087
  0
LINE
  5
19B
330
2
100
AcDbEntity
  8
0A
100
AcDbLine
 10
422.7159600350623
 20
484.9602087535619
 30
0.0
 11
426.9659600350624
 21
484.9602087535619
 31
0.0
1001
NC_GG_OF
1000
40
1001
NC_GG_NT
1000
4-1511087
1001
NC_GG_AK
1000
NC_AK
  0
ARC
  5
19C
330
2
100
AcDbEntity
  8
0A
100
AcDbCircle
 10
426.9659600350624
 20
269.7624804030256
 30
0.0
 40
196.9999999999997
100
AcDbArc
 50
81.82876644005025
 51
98.17123355994976
  0
LWPOLYLINE
  5
19D
330
2
100
AcDbEntity
  8
0A
100
AcDbPolyline
 90
       10
 70
     1
 43
0.0
 10
426.9659600350624
 20
477.6624804030253
 10
434.3290850350625
 20
477.6624804030253
 42
-0.2668881383873844
 10
436.7834600350625
 20
476.2519200581976
 10
436.7834600350625
 20
471.0730407478528
 42
-0.2668881383873844
 10
434.3290850350625
 20
469.6624804030253
 10
426.9659600350624
 20
469.6624804030253
 10
419.6028350350625
 20
469.6624804030253
 42
-0.2668881383873844
 10
417.1484600350624
 20
471.0730407478528
 10
417.1484600350624
 20
476.2519200581976
 42
-0.2668881383873844
 10
419.6028350350625
 20
477.6624804030253
1001
NC_GG_OF
1000
60
1001
NC_GG_NT
1000
6-1511087
1001
NC_GG_AK
1000
NC_AK
  0
LWPOLYLINE
  5
19E
330
2
100
AcDbEntity
  8
0A
100
AcDbPolyline
 90
        2
 70
     0
 43
0.0
 10
436.9659600350623
 20
468.1624804030252
 10
416.9659600350623
 20
468.1624804030252
1001
NC_GG_OF
1000
60
1001
NC_GG_NT
1000
8-1511087
  0
LWPOLYLINE
  5
19F
330
2
100
AcDbEntity
  8
0A
100
AcDbPolyline
 90
        8
 70
     1
 43
0.0
 10
426.9659600350624
 20
466.7624804030253
 10
436.9659600350623
 20
466.7624804030253
 10
436.9659600350623
 20
468.1624804030252
 10
436.3659600350624
 20
468.7624804030254
 10
426.9659600350624
 20
468.7624804030254
 10
417.5659600350625
 20
468.7624804030254
 10
416.9659600350623
 20
468.1624804030252
 10
416.9659600350623
 20
466.7624804030253
1001
NC_GG_OF
1000
60
1001
NC_GG_NT
1000
8-1511087
1001
NC_GG_AK
1000
NC_AK
  0
LWPOLYLINE
  5
1A0
330
2
100
AcDbEntity
  8
0A
100
AcDbPolyline
 90
        3
 70
     0
 43
0.0
 10
419.6028350350625
 20
477.6624804030253
 42
-0.2668881383873844
 10
422.0572100350625
 20
476.2519200581976
 42
-0.1408286344426721
 10
426.9659600350624
 20
477.6624804030253
1001
NC_GG_OF
1000
60
1001
NC_GG_NT
1000
6-1511087
  0
LWPOLYLINE
  5
1A1
330
2
100
AcDbEntity
  8
0A
100
AcDbPolyline
 90
        3
 70
     0
 43
0.0
 10
426.9659600350625
 20
469.6624804030253
 42
-0.140828634442671
 10
422.0572100350625
 20
471.0730407478528
 42
-0.2668881383873844
 10
419.6028350350625
 20
469.6624804030253
 42
-0.2668881383873844
1001
NC_GG_OF
1000
60
1001
NC_GG_NT
1000
6-1511087
  0
LWPOLYLINE
  5
1A2
330
2
100
AcDbEntity
  8
0A
100
AcDbPolyline
 90
        4
 70
     1
 43
0.0
 10
435.9659600350624
 20
468.7624804030254
 10
417.9659600350623
 20
468.7624804030254
 10
417.9659600350623
 20
469.6624804030253
 10
435.9659600350624
 20
469.6624804030253
1001
NC_GG_OF
1000
60
1001
NC_GG_NT
1000
10-1511087
1001
NC_GG_AK
1000
NC_AK
  0
LINE
  5
1A3
330
2
100
AcDbEntity
  8
0A
100
AcDbLine
 10
378.465960035061
 20
462.7624804030253
 30
0.0
 11
421.9659600350623
 21
462.7624804030253
 31
0.0
  0
LWPOLYLINE
  5
1B6
330
2
100
AcDbEntity
  8
4
100
AcDbPolyline
 90
        2
 70
     0
 43
0.0
 10
422.7159600350623
 20
484.9602087535619
 10
422.7159600350623
 20
477.6624804030253
1001
NC_GG_OF
1000
40
1001
NC_GG_NT
1000
4-1511087
  0
LINE
  5
1B7
330
2
100
AcDbEntity
  8
0A
100
AcDbLine
 10
421.9659600350623
 20
484.2102087535619
 30
0.0
 11
422.7159600350623
 21
484.9602087535619
 31
0.0
1001
NC_GG_OF
1000
40
1001
NC_GG_NT
1000
4-1511087
1001
NC_GG_AK
1000
NC_AK
  0
ARC
  5
1B8
330
2
100
AcDbEntity
  8
0A
100
AcDbCircle
 10
398.9659600350624
 20
466.2624804030254
 30
0.0
 40
1.5
100
AcDbArc
 50
180.0
 51
270.0
  0
ARC
  5
1B9
330
2
100
AcDbEntity
  8
0A
100
AcDbCircle
 10
398.9659600350624
 20
466.2624804030254
 30
0.0
 40
3.5
100
AcDbArc
 50
180.0
 51
270.0
  0
LINE
  5
1BA
330
2
100
AcDbEntity
  8
0A
100
AcDbLine
 10
397.4659600350624
 20
466.2624804030254
 30
0.0
 11
397.4659600350624
 21
470.7624804030253
 31
0.0
  0
LINE
  5
1BB
330
2
100
AcDbEntity
  8
0A
100
AcDbLine
 10
395.4659600350624
 20
466.2624804030254
 30
0.0
 11
395.4659600350624
 21
470.7624804030253
 31
0.0
  0
LINE
  5
1BC
330
2
100
AcDbEntity
  8
0A
100
AcDbLine
 10
420.4659600350623
 20
464.6552176992497
 30
0.0
 11
420.4659600350623
 21
466.6552176992497
 31
0.0
  0
LWPOLYLINE
  5
1BD
330
2
100
AcDbEntity
  8
0A
100
AcDbPolyline
 90
        2
 70
     0
 43
0.0
 10
422.0572100350625
 20
476.2519200581976
 10
422.0572100350625
 20
471.0730407478528
1001
NC_GG_OF
1000
60
1001
NC_GG_NT
1000
6-1511087
  0
LWPOLYLINE
  5
1BE
330
2
100
AcDbEntity
  8
0A
100
AcDbPolyline
 90
        2
 70
     0
 43
0.0
 10
418.5284600350623
 20
468.7624804030254
 10
418.5284600350623
 20
469.6624804030253
1001
NC_GG_OF
1000
60
1001
NC_GG_NT
1000
10-1511087
  0
LWPOLYLINE
  5
1BF
330
2
100
AcDbEntity
  8
0A
100
AcDbPolyline
 90
        2
 70
     0
 43
0.0
 10
420.2159600350624
 20
468.7624804030254
 10
420.2159600350624
 20
469.6624804030253
1001
NC_GG_OF
1000
60
1001
NC_GG_NT
1000
10-1511087
  0
LWPOLYLINE
  5
1C0
330
2
100
AcDbEntity
  8
0A
100
AcDbPolyline
 90
        2
 70
     0
 43
0.0
 10
422.4659600350624
 20
468.7624804030254
 10
422.4659600350624
 20
469.6624804030253
1001
NC_GG_OF
1000
60
1001
NC_GG_NT
1000
10-1511087
  0
ARC
  5
1C1
330
2
100
AcDbEntity
  8
0A
100
AcDbCircle
 10
426.9659600350624
 20
267.7624804030256
 30
0.0
 40
196.9999999999997
100
AcDbArc
 50
91.45436377582127
 51
98.17123355994976
  0
LWPOLYLINE
  5
1C4
330
2
100
AcDbEntity
  8
0A
100
AcDbPolyline
 90
        2
 70
     0
 43
0.0
 10
421.9659600350623
 20
477.6624804030253
 10
421.9659600350623
 20
484.2102087535619
1001
NC_GG_OF
1000
40
1001
NC_GG_NT
1000
4-1511087
1001
NC_GG_AK
1000
NC_AK
  0
HATCH
  5
1C5
330
2
100
AcDbEntity
  8
8
100
AcDbHatch
 10
0.0
 20
0.0
 30
0.0
210
0.0
220
0.0
230
1.0
  2
_U
 70
     0
 71
     0
 91
        1
 92
        1
 93
        8
 72
     2
 10
426.9659600350628
 20
267.7624804030256
 40
196.9999999999998
 50
261.8287664400501
 51
268.1091869347044
 73
     0
 72
     1
 10
420.4659600350623
 20
464.6552176992497
 11
420.4659600350622
 21
466.6552176992497
 72
     2
 10
426.9659600350628
 20
269.7624804030257
 40
196.9999999999997
 50
91.89081306529566
 51
98.1712335599499
 73
     1
 72
     2
 10
398.9659600350624
 20
466.2624804030254
 40
1.5
 50
90.0
 51
180.0
 73
     0
 72
     1
 10
397.4659600350624
 20
466.2624804030254
 11
397.4659600350624
 21
470.7624804030253
 72
     1
 10
397.4659600350624
 20
470.7624804030253
 11
395.4659600350624
 21
470.7624804030253
 72
     1
 10
395.4659600350624
 20
470.7624804030253
 11
395.4659600350624
 21
466.2624804030254
 72
     2
 10
398.9659600350624
 20
466.2624804030254
 40
3.5
 50
180.0
 51
270.0
 73
     1
 97
        0
 75
     0
 76
     0
 52
45.0
 41
3.75
 77
     0
 78
     1
 53
45.0
 43
18.77728448691278
 44
-105.4408804297279
 45
-2.651650429449553
 46
2.651650429449553
 79
     0
 98
        1
 10
18.77728448691278
 20
-105.4408804297279
1001
GENIUS_GENODEF_13
1002
{
1000
HIER
1070
     0
1002
}
1002
{
1000
MANEDIT
1070
     0
1002
}
1002
{
1000
NOSEL
1070
     0
1002
}
1002
{
1000
BEHIND
1070
     0
1002
}
1002
{
1000
REACTOR
1002
}
1001
GENIUS_GENOBJ-N-HTC_13
1002
{
1000
OWNER
1000
GEN
1002
}
1001
GENIUS_GENHATCH_13
1002
{
1000
DATA
1040
45.0
1042
2.5
1000
_U
1070
     0
1011
396.3355364847235
1021
467.3654285794744
1031
0.0
1002
}
1002
{
1000
UCS
1010
0.0
1020
0.0
1030
0.0
1010
1.0
1020
0.0
1030
0.0
1010
0.0
1020
1.0
1030
0.0
1002
}
  0
LINE
  5
1C6
330
2
100
AcDbEntity
  8
0A
100
AcDbLine
 10
436.5739213607885
 20
470.7624804030253
 30
0.0
 11
458.4659600350623
 21
470.7624804030253
 31
0.0
  0
ARC
  5
1C7
330
2
100
AcDbEntity
  8
0A
100
AcDbCircle
 10
454.9659600350623
 20
466.2624804030254
 30
0.0
 40
3.5
100
AcDbArc
 50
270.0
 51
0.0
  0
ARC
  5
1C8
330
2
100
AcDbEntity
  8
0A
100
AcDbCircle
 10
454.9659600350623
 20
466.2624804030254
 30
0.0
 40
1.5
100
AcDbArc
 50
270.0
 51
0.0
  0
HATCH
  5
1C9
330
2
100
AcDbEntity
  8
8
100
AcDbHatch
 10
0.0
 20
0.0
 30
0.0
210
0.0
220
0.0
230
1.0
  2
_U
 70
     0
 71
     0
 91
        1
 92
        1
 93
        8
 72
     2
 10
426.9659600350619
 20
267.7624804030259
 40
196.9999999999996
 50
271.8908130652957
 51
278.1712335599499
 73
     0
 72
     2
 10
454.9659600350623
 20
466.2624804030254
 40
3.5
 50
269.9999999999991
 51
360.0
 73
     1
 72
     1
 10
458.4659600350623
 20
466.2624804030254
 11
458.4659600350623
 21
470.7624804030253
 72
     1
 10
458.4659600350623
 20
470.7624804030253
 11
456.4659600350624
 21
470.7624804030253
 72
     1
 10
456.4659600350624
 20
470.7624804030253
 11
456.4659600350624
 21
466.2624804030254
 72
     2
 10
454.9659600350623
 20
466.2624804030254
 40
1.5
 50
360.0
 51
450.0000000000021
 73
     0
 72
     2
 10
426.9659600350619
 20
269.7624804030259
 40
196.9999999999996
 50
81.82876644005009
 51
88.10918693470432
 73
     1
 72
     1
 10
433.4659600350623
 20
466.6552176992497
 11
433.4659600350623
 21
464.6552176992497
 97
        0
 75
     0
 76
     0
 52
45.0
 41
3.75
 77
     0
 78
     1
 53
45.0
 43
18.77728448691278
 44
-105.4408804297279
 45
-2.651650429449553
 46
2.651650429449553
 79
     0
 98
        1
 10
18.77728448691278
 20
-105.4408804297279
1001
GENIUS_GENODEF_13
1002
{
1000
HIER
1070
     0
1002
}
1002
{
1000
MANEDIT
1070
     0
1002
}
1002
{
1000
NOSEL
1070
     0
1002
}
1002
{
1000
BEHIND
1070
     0
1002
}
1002
{
1000
REACTOR
1002
}
1001
GENIUS_GENOBJ-N-HTC_13
1002
{
1000
OWNER
1000
GEN
1002
}
1001
GENIUS_GENHATCH_13
1002
{
1000
DATA
1040
45.0
1042
2.5
1000
_U
1070
     0
1011
446.2620738812161
1021
464.8849873332108
1031
0.0
1002
}
1002
{
1000
UCS
1010
0.0
1020
0.0
1030
0.0
1010
1.0
1020
0.0
1030
0.0
1010
0.0
1020
1.0
1030
0.0
1002
}
  0
LWPOLYLINE
  5
1CA
330
2
100
AcDbEntity
  8
0A
100
AcDbPolyline
 90
        2
 70
     0
 43
0.0
 10
431.9659600350624
 20
484.2102087535619
 10
431.9659600350624
 20
477.6624804030253
1001
NC_GG_OF
1000
40
1001
NC_GG_NT
1000
4-1511087
1001
NC_GG_AK
1000
NC_AK
  0
LWPOLYLINE
  5
1CB
330
2
100
AcDbEntity
  8
4
100
AcDbPolyline
 90
        2
 70
     0
 43
0.0
 10
431.2159600350623
 20
484.9602087535619
 10
431.2159600350623
 20
477.6624804030253
1001
NC_GG_OF
1000
40
1001
NC_GG_NT
1000
4-1511087
  0
LINE
  5
1CC
330
2
100
AcDbEntity
  8
0A
100
AcDbLine
 10
426.9659600350624
 20
484.9602087535619
 30
0.0
 11
431.2159600350623
 21
484.9602087535619
 31
0.0
1001
NC_GG_OF
1000
40
1001
NC_GG_NT
1000
4-1511087
1001
NC_GG_AK
1000
NC_AK
  0
LINE
  5
1CD
330
2
100
AcDbEntity
  8
0A
100
AcDbLine
 10
431.2159600350623
 20
484.9602087535619
 30
0.0
 11
431.9659600350624
 21
484.2102087535619
 31
0.0
1001
NC_GG_OF
1000
40
1001
NC_GG_NT
1000
4-1511087
1001
NC_GG_AK
1000
NC_AK
  0
ARC
  5
1CE
330
2
100
AcDbEntity
  8
0A
100
AcDbCircle
 10
426.9659600350624
 20
267.7624804030256
 30
0.0
 40
196.9999999999997
100
AcDbArc
 50
81.82876644005025
 51
88.54563622417868
  0
LINE
  5
1CF
330
2
100
AcDbEntity
  8
0A
100
AcDbLine
 10
433.4659600350623
 20
464.6552176992497
 30
0.0
 11
433.4659600350623
 21
466.6552176992497
 31
0.0
  0
LWPOLYLINE
  5
1D0
330
2
100
AcDbEntity
  8
0A
100
AcDbPolyline
 90
        3
 70
     0
 43
0.0
 10
426.9659600350624
 20
469.6624804030253
 42
0.140828634442671
 10
431.8747100350624
 20
471.0730407478528
 42
0.2668881383873844
 10
434.3290850350625
 20
469.6624804030253
 42
0.2668881383873844
1001
NC_GG_OF
1000
60
1001
NC_GG_NT
1000
6-1511087
  0
LWPOLYLINE
  5
1D1
330
2
100
AcDbEntity
  8
0A
100
AcDbPolyline
 90
        3
 70
     0
 43
0.0
 10
434.3290850350625
 20
477.6624804030253
 42
0.2668881383873844
 10
431.8747100350624
 20
476.2519200581976
 42
0.1408286344426721
 10
426.9659600350624
 20
477.6624804030253
1001
NC_GG_OF
1000
60
1001
NC_GG_NT
1000
6-1511087
  0
LWPOLYLINE
  5
1D2
330
2
100
AcDbEntity
  8
0A
100
AcDbPolyline
 90
        2
 70
     0
 43
0.0
 10
431.8747100350624
 20
476.2519200581976
 10
431.8747100350624
 20
471.0730407478528
1001
NC_GG_OF
1000
60
1001
NC_GG_NT
1000
6-1511087
  0
LWPOLYLINE
  5
1D3
330
2
100
AcDbEntity
  8
0A
100
AcDbPolyline
 90
        2
 70
     0
 43
0.0
 10
426.9659600350624
 20
468.7624804030254
 10
426.9659600350624
 20
469.6624804030253
1001
NC_GG_OF
1000
60
1001
NC_GG_NT
1000
10-1511087
  0
LWPOLYLINE
  5
1D4
330
2
100
AcDbEntity
  8
0A
100
AcDbPolyline
 90
        2
 70
     0
 43
0.0
 10
431.4659600350624
 20
468.7624804030254
 10
431.4659600350624
 20
469.6624804030253
1001
NC_GG_OF
1000
60
1001
NC_GG_NT
1000
10-1511087
  0
LWPOLYLINE
  5
1D5
330
2
100
AcDbEntity
  8
0A
100
AcDbPolyline
 90
        2
 70
     0
 43
0.0
 10
433.7159600350624
 20
468.7624804030254
 10
433.7159600350624
 20
469.6624804030253
1001
NC_GG_OF
1000
60
1001
NC_GG_NT
1000
10-1511087
  0
LWPOLYLINE
  5
1D6
330
2
100
AcDbEntity
  8
0A
100
AcDbPolyline
 90
        2
 70
     0
 43
0.0
 10
435.4034600350623
 20
468.7624804030254
 10
435.4034600350623
 20
469.6624804030253
1001
NC_GG_OF
1000
60
1001
NC_GG_NT
1000
10-1511087
  0
LINE
  5
1D7
330
2
100
AcDbEntity
  8
0A
100
AcDbLine
 10
431.9659600350624
 20
462.7624804030253
 30
0.0
 11
454.9659600350623
 21
462.7624804030253
 31
0.0
  0
LINE
  5
1D8
330
2
100
AcDbEntity
  8
0A
100
AcDbLine
 10
458.4659600350623
 20
466.2624804030254
 30
0.0
 11
458.4659600350623
 21
470.7624804030253
 31
0.0
  0
LINE
  5
1D9
330
2
100
AcDbEntity
  8
0A
100
AcDbLine
 10
456.4659600350624
 20
466.2624804030254
 30
0.0
 11
456.4659600350624
 21
470.7624804030253
 31
0.0
  0
HATCH
  5
1E2
330
2
100
AcDbEntity
  8
8
100
AcDbHatch
 10
0.0
 20
0.0
 30
0.0
210
0.0
220
0.0
230
1.0
  2
ANSI31
 70
     0
 71
     0
 91
        2
 92
        7
 72
     1
 73
     1
 93
        9
 10
229.2159600350624
 20
282.1792056201993
 42
0.0
 10
229.2159600350624
 20
294.9602087535623
 42
0.0
 10
227.9659600350624
 20
294.9602087535622
 42
0.0
 10
227.7159600350624
 20
294.9602087535623
 42
0.0
 10
227.7159600350624
 20
282.3817179225691
 42
-0.1105816922850878
 10
224.2159600350624
 20
272.9602087535623
 42
0.0
 10
224.2159600350624
 20
215.9602087535623
 42
0.0
 10
225.7159600350623
 20
215.9602087535623
 42
0.0
 10
225.7159600350624
 20
272.5235008058576
 42
0.1046231198257551
 97
        0
 92
        7
 72
     1
 73
     1
 93
        8
 10
334.7159600350624
 20
272.9602087535623
 42
-0.1105816922850922
 10
331.2159600350624
 20
282.3817179225694
 42
0.0
 10
331.2159600350624
 20
294.9602087535623
 42
0.0
 10
329.7159600350624
 20
294.9602087535623
 42
0.0
 10
329.7159600350624
 20
282.1792056201999
 42
0.1046231198257541
 10
333.2159600350624
 20
272.5235008058577
 42
0.0
 10
333.2159600350624
 20
215.9602087535622
 42
0.0
 10
334.7159600350624
 20
215.9602087535622
 42
0.0
 97
        0
 75
     0
 76
     1
 52
0.0
 41
50.0
 77
     0
 78
     1
 53
45.0
 43
0.0
 44
0.0
 45
-4.419417382415921
 46
4.419417382415922
 79
     0
 47
0.1467361134536489
 98
        2
 10
228.3291118637758
 20
281.5305035425051
 10
334.1833519549991
 20
235.015153616426
  0
LINE
  5
44E
330
2
100
AcDbEntity
  8
0
100
AcDbLine
 10
81.96596003506238
 20
451.9602087535621
 30
0.0
 11
91.96596003506238
 21
451.9602087535622
 31
0.0
  0
LINE
  5
9B5
330
2
100
AcDbEntity
  8
7
100
AcDbLine
 10
279.4659600350553
 20
610.0252005219755
 30
0.0
 11
279.4659600350642
 21
385.0252005219754
 31
0.0
1001
GENIUS_GENODEF_13
1002
{
1000
HIER
1070
     0
1002
}
1002
{
1000
MANEDIT
1070
     0
1002
}
1002
{
1000
NOSEL
1070
     0
1002
}
1002
{
1000
BEHIND
1070
     0
1002
}
1002
{
1000
REACTOR
1002
}
1001
GENIUS_GENOBJ-N-CEN_13
1002
{
1000
OWNER
1000
GEN
1002
}
  0
LINE
  5
9B6
330
2
100
AcDbEntity
  8
0
100
AcDbLine
 10
379.465960035056
 20
586.9252005219756
 30
0.0
 11
379.4659600350565
 21
580.0252005219755
 31
0.0
1001
GENIUS_GENODEF_13
1002
{
1000
HIER
1070
     0
1002
}
1002
{
1000
MANEDIT
1070
     0
1002
}
1002
{
1000
NOSEL
1070
     0
1002
}
1002
{
1000
BEHIND
1070
     0
1002
}
1002
{
1000
REACTOR
1002
}
1001
GENIUS_GENOBJ-N-CEN_13
1002
{
1000
OWNER
1000
GEN
1002
}
  0
LINE
  5
9B7
330
2
100
AcDbEntity
  8
0
100
AcDbLine
 10
179.4659600350561
 20
586.9252005219753
 30
0.0
 11
179.4659600350565
 21
580.0252005219755
 31
0.0
1001
GENIUS_GENODEF_13
1002
{
1000
HIER
1070
     0
1002
}
1002
{
1000
MANEDIT
1070
     0
1002
}
1002
{
1000
NOSEL
1070
     0
1002
}
1002
{
1000
BEHIND
1070
     0
1002
}
1002
{
1000
REACTOR
1002
}
1001
GENIUS_GENOBJ-N-CEN_13
1002
{
1000
OWNER
1000
GEN
1002
}
  0
LINE
  5
9B8
330
2
100
AcDbEntity
  8
0
100
AcDbLine
 10
182.5659600350561
 20
590.0252005219755
 30
0.0
 11
376.3659600350561
 21
590.0252005219755
 31
0.0
  0
LINE
  5
9B9
330
2
100
AcDbEntity
  8
0
100
AcDbLine
 10
180.4659600350633
 20
405.0252005219755
 30
0.0
 11
378.4659600350633
 21
405.0252005219755
 31
0.0
  0
LINE
  5
9BA
330
2
100
AcDbEntity
  8
0
100
AcDbLine
 10
179.465960035056
 20
580.0252005219755
 30
0.0
 11
190.9659600350565
 21
580.0252005219757
 31
0.0
  0
LINE
  5
9BB
330
2
100
AcDbEntity
  8
0
100
AcDbLine
 10
184.9659600350576
 20
552.5252005219755
 30
0.0
 11
373.9659600350576
 21
552.5252005219755
 31
0.0
1001
GENIUS_GENOREF_13
1005
0
  0
LINE
  5
9BC
330
2
100
AcDbEntity
  8
0
100
AcDbLine
 10
378.4659600350576
 20
548.0252005219758
 30
0.0
 11
378.4659600350633
 21
405.0252005219755
 31
0.0
1001
GENIUS_GENODEF_13
1002
{
1000
HIER
1070
     0
1002
}
1002
{
1000
MANEDIT
1070
     0
1002
}
1002
{
1000
NOSEL
1070
     0
1002
}
1002
{
1000
BEHIND
1070
     0
1002
}
1002
{
1000
REACTOR
1002
}
1001
GENIUS_GENOBJ-N-CEN_13
1002
{
1000
OWNER
1000
GEN
1002
}
  0
LINE
  5
9BD
330
2
100
AcDbEntity
  8
0
100
AcDbLine
 10
180.4659600350576
 20
548.0252005219752
 30
0.0
 11
180.4659600350633
 21
405.0252005219755
 31
0.0
1001
GENIUS_GENODEF_13
1002
{
1000
HIER
1070
     0
1002
}
1002
{
1000
MANEDIT
1070
     0
1002
}
1002
{
1000
NOSEL
1070
     0
1002
}
1002
{
1000
BEHIND
1070
     0
1002
}
1002
{
1000
REACTOR
1002
}
1001
GENIUS_GENOBJ-N-CEN_13
1002
{
1000
OWNER
1000
GEN
1002
}
  0
LINE
  5
9BE
330
2
100
AcDbEntity
  8
0
100
AcDbLine
 10
184.9659600350576
 20
551.0252005219755
 30
0.0
 11
373.9659600350578
 21
551.0252005219755
 31
0.0
1001
GENIUS_GENOREF_13
1005
0
  0
LINE
  5
9BF
330
2
100
AcDbEntity
  8
0
100
AcDbLine
 10
181.9659600350576
 20
548.0252005219755
 30
0.0
 11
181.9659600350633
 21
405.0252005219755
 31
0.0
1001
GENIUS_GENODEF_13
1002
{
1000
HIER
1070
     0
1002
}
1002
{
1000
MANEDIT
1070
     0
1002
}
1002
{
1000
NOSEL
1070
     0
1002
}
1002
{
1000
BEHIND
1070
     0
1002
}
1002
{
1000
REACTOR
1002
}
1001
GENIUS_GENOBJ-N-CEN_13
1002
{
1000
OWNER
1000
GEN
1002
}
  0
LINE
  5
9C0
330
2
100
AcDbEntity
  8
0
100
AcDbLine
 10
376.9659600350578
 20
548.0252005219755
 30
0.0
 11
376.9659600350631
 21
405.0252005219755
 31
0.0
1001
GENIUS_GENODEF_13
1002
{
1000
HIER
1070
     0
1002
}
1002
{
1000
MANEDIT
1070
     0
1002
}
1002
{
1000
NOSEL
1070
     0
1002
}
1002
{
1000
BEHIND
1070
     0
1002
}
1002
{
1000
REACTOR
1002
}
1001
GENIUS_GENOBJ-N-CEN_13
1002
{
1000
OWNER
1000
GEN
1002
}
  0
ARC
  5
9C1
330
2
100
AcDbEntity
  8
0
100
AcDbCircle
 10
373.9659600350578
 20
548.0252005219755
 30
0.0
 40
3.0
100
AcDbArc
 50
0.0
 51
90.0
1001
GENIUS_GENODEF_13
1002
{
1000
HIER
1070
     0
1002
}
1002
{
1000
MANEDIT
1070
     0
1002
}
1002
{
1000
NOSEL
1070
     0
1002
}
1002
{
1000
BEHIND
1070
     0
1002
}
1002
{
1000
REACTOR
1002
}
1001
GENIUS_GENOBJ-N-FIL_13
1002
{
1000
OWNER
1000
GEN
1002
}
  0
ARC
  5
9C2
330
2
100
AcDbEntity
  8
0
100
AcDbCircle
 10
184.9659600350576
 20
548.0252005219755
 30
0.0
 40
3.0
100
AcDbArc
 50
90.0
 51
180.0
1001
GENIUS_GENODEF_13
1002
{
1000
HIER
1070
     0
1002
}
1002
{
1000
MANEDIT
1070
     0
1002
}
1002
{
1000
NOSEL
1070
     0
1002
}
1002
{
1000
BEHIND
1070
     0
1002
}
1002
{
1000
REACTOR
1002
}
1001
GENIUS_GENOBJ-N-FIL_13
1002
{
1000
OWNER
1000
GEN
1002
}
1001
GENIUS_GENOBJ-N-CEN_13
1002
{
1000
OWNER
1000
GEN
1002
}
  0
ARC
  5
9C3
330
2
100
AcDbEntity
  8
0
100
AcDbCircle
 10
373.9659600350576
 20
548.0252005219755
 30
0.0
 40
4.5
100
AcDbArc
 50
0.0
 51
90.0
1001
GENIUS_GENODEF_13
1002
{
1000
HIER
1070
     0
1002
}
1002
{
1000
MANEDIT
1070
     0
1002
}
1002
{
1000
NOSEL
1070
     0
1002
}
1002
{
1000
BEHIND
1070
     0
1002
}
1002
{
1000
REACTOR
1002
}
1001
GENIUS_GENOBJ-N-FIL_13
1002
{
1000
OWNER
1000
GEN
1002
}
  0
ARC
  5
9C4
330
2
100
AcDbEntity
  8
0
100
AcDbCircle
 10
184.9659600350576
 20
548.0252005219755
 30
0.0
 40
4.5
100
AcDbArc
 50
90.0
 51
180.0
1001
GENIUS_GENODEF_13
1002
{
1000
HIER
1070
     0
1002
}
1002
{
1000
MANEDIT
1070
     0
1002
}
1002
{
1000
NOSEL
1070
     0
1002
}
1002
{
1000
BEHIND
1070
     0
1002
}
1002
{
1000
REACTOR
1002
}
1001
GENIUS_GENOBJ-N-FIL_13
1002
{
1000
OWNER
1000
GEN
1002
}
1001
GENIUS_GENOBJ-N-CEN_13
1002
{
1000
OWNER
1000
GEN
1002
}
  0
LINE
  5
9C5
330
2
100
AcDbEntity
  8
0
100
AcDbLine
 10
349.4659600350574
 20
552.5252005219755
 30
0.0
 11
349.4659600350574
 21
551.0252005219753
 31
0.0
1001
GENIUS_GENODEF_13
1002
{
1000
HIER
1070
     0
1002
}
1002
{
1000
MANEDIT
1070
     0
1002
}
1002
{
1000
NOSEL
1070
     0
1002
}
1002
{
1000
BEHIND
1070
     0
1002
}
1002
{
1000
REACTOR
1002
}
1001
GENIUS_GENOBJ-N-CEN_13
1002
{
1000
OWNER
1000
GEN
1002
}
1001
GENIUS_GENOREF_13
1005
0
  0
LINE
  5
9C6
330
2
100
AcDbEntity
  8
0
100
AcDbLine
 10
209.4659600350574
 20
552.5252005219755
 30
0.0
 11
209.4659600350576
 21
551.0252005219755
 31
0.0
1001
GENIUS_GENODEF_13
1002
{
1000
HIER
1070
     0
1002
}
1002
{
1000
MANEDIT
1070
     0
1002
}
1002
{
1000
NOSEL
1070
     0
1002
}
1002
{
1000
BEHIND
1070
     0
1002
}
1002
{
1000
REACTOR
1002
}
1001
GENIUS_GENOBJ-N-CEN_13
1002
{
1000
OWNER
1000
GEN
1002
}
  0
LINE
  5
9C7
330
2
100
AcDbEntity
  8
0
100
AcDbLine
 10
366.465960035056
 20
586.9252005219753
 30
0.0
 11
366.4659600350574
 21
555.6252005219754
 31
0.0
1001
GENIUS_GENODEF_13
1002
{
1000
HIER
1070
     0
1002
}
1002
{
1000
MANEDIT
1070
     0
1002
}
1002
{
1000
NOSEL
1070
     0
1002
}
1002
{
1000
BEHIND
1070
     0
1002
}
1002
{
1000
REACTOR
1002
}
1001
GENIUS_GENOBJ-N-CEN_13
1002
{
1000
OWNER
1000
GEN
1002
}
  0
LINE
  5
9C8
330
2
100
AcDbEntity
  8
0
100
AcDbLine
 10
192.4659600350561
 20
586.9252005219756
 30
0.0
 11
192.4659600350573
 21
555.6252005219754
 31
0.0
1001
GENIUS_GENODEF_13
1002
{
1000
HIER
1070
     0
1002
}
1002
{
1000
MANEDIT
1070
     0
1002
}
1002
{
1000
NOSEL
1070
     0
1002
}
1002
{
1000
BEHIND
1070
     0
1002
}
1002
{
1000
REACTOR
1002
}
1001
GENIUS_GENOBJ-N-CEN_13
1002
{
1000
OWNER
1000
GEN
1002
}
  0
LINE
  5
9C9
330
2
100
AcDbEntity
  8
0
100
AcDbLine
 10
194.0659600350574
 20
554.0252005219755
 30
0.0
 11
364.8659600350575
 21
554.0252005219755
 31
0.0
1001
GENIUS_GENOREF_13
1005
0
  0
LINE
  5
9CA
330
2
100
AcDbEntity
  8
0
100
AcDbLine
 10
190.9659600350561
 20
586.9252005219756
 30
0.0
 11
190.9659600350574
 21
555.6252005219754
 31
0.0
1001
GENIUS_GENODEF_13
1002
{
1000
HIER
1070
     0
1002
}
1002
{
1000
MANEDIT
1070
     0
1002
}
1002
{
1000
NOSEL
1070
     0
1002
}
1002
{
1000
BEHIND
1070
     0
1002
}
1002
{
1000
REACTOR
1002
}
1001
GENIUS_GENOBJ-N-CEN_13
1002
{
1000
OWNER
1000
GEN
1002
}
  0
LINE
  5
9CB
330
2
100
AcDbEntity
  8
0
100
AcDbLine
 10
367.965960035056
 20
586.9252005219753
 30
0.0
 11
367.9659600350574
 21
555.6252005219756
 31
0.0
1001
GENIUS_GENODEF_13
1002
{
1000
HIER
1070
     0
1002
}
1002
{
1000
MANEDIT
1070
     0
1002
}
1002
{
1000
NOSEL
1070
     0
1002
}
1002
{
1000
BEHIND
1070
     0
1002
}
1002
{
1000
REACTOR
1002
}
1001
GENIUS_GENOBJ-N-CEN_13
1002
{
1000
OWNER
1000
GEN
1002
}
  0
LINE
  5
9CC
330
2
100
AcDbEntity
  8
0
100
AcDbLine
 10
182.5659600350561
 20
588.5252005219755
 30
0.0
 11
189.3659600350561
 21
588.5252005219755
 31
0.0
  0
LINE
  5
9CD
330
2
100
AcDbEntity
  8
0
100
AcDbLine
 10
377.965960035056
 20
586.9252005219756
 30
0.0
 11
377.9659600350565
 21
580.0252005219753
 31
0.0
1001
GENIUS_GENODEF_13
1002
{
1000
HIER
1070
     0
1002
}
1002
{
1000
MANEDIT
1070
     0
1002
}
1002
{
1000
NOSEL
1070
     0
1002
}
1002
{
1000
BEHIND
1070
     0
1002
}
1002
{
1000
REACTOR
1002
}
1001
GENIUS_GENOBJ-N-CEN_13
1002
{
1000
OWNER
1000
GEN
1002
}
  0
LINE
  5
9CE
330
2
100
AcDbEntity
  8
0
100
AcDbLine
 10
180.9659600350561
 20
586.9252005219753
 30
0.0
 11
180.9659600350564
 21
580.0252005219755
 31
0.0
1001
GENIUS_GENODEF_13
1002
{
1000
HIER
1070
     0
1002
}
1002
{
1000
MANEDIT
1070
     0
1002
}
1002
{
1000
NOSEL
1070
     0
1002
}
1002
{
1000
BEHIND
1070
     0
1002
}
1002
{
1000
REACTOR
1002
}
1001
GENIUS_GENOBJ-N-CEN_13
1002
{
1000
OWNER
1000
GEN
1002
}
  0
ARC
  5
9CF
330
2
100
AcDbEntity
  8
0
100
AcDbCircle
 10
182.5659600350561
 20
586.9252005219753
 30
0.0
 40
1.6
100
AcDbArc
 50
90.0
 51
180.0
1001
GENIUS_GENODEF_13
1002
{
1000
HIER
1070
     0
1002
}
1002
{
1000
MANEDIT
1070
     0
1002
}
1002
{
1000
NOSEL
1070
     0
1002
}
1002
{
1000
BEHIND
1070
     0
1002
}
1002
{
1000
REACTOR
1002
}
1001
GENIUS_GENOBJ-N-FIL_13
1002
{
1000
OWNER
1000
GEN
1002
}
  0
ARC
  5
9D0
330
2
100
AcDbEntity
  8
0
100
AcDbCircle
 10
189.3659600350561
 20
586.9252005219753
 30
0.0
 40
1.6
100
AcDbArc
 50
0.0
 51
90.0
1001
GENIUS_GENODEF_13
1002
{
1000
HIER
1070
     0
1002
}
1002
{
1000
MANEDIT
1070
     0
1002
}
1002
{
1000
NOSEL
1070
     0
1002
}
1002
{
1000
BEHIND
1070
     0
1002
}
1002
{
1000
REACTOR
1002
}
1001
GENIUS_GENOBJ-N-FIL_13
1002
{
1000
OWNER
1000
GEN
1002
}
1001
GENIUS_GENOBJ-N-CEN_13
1002
{
1000
OWNER
1000
GEN
1002
}
  0
LINE
  5
9D1
330
2
100
AcDbEntity
  8
0
100
AcDbLine
 10
369.5659600350559
 20
588.5252005219755
 30
0.0
 11
376.3659600350561
 21
588.5252005219755
 31
0.0
  0
ARC
  5
9D2
330
2
100
AcDbEntity
  8
0
100
AcDbCircle
 10
369.5659600350559
 20
586.9252005219753
 30
0.0
 40
1.6
100
AcDbArc
 50
90.0
 51
180.0
1001
GENIUS_GENODEF_13
1002
{
1000
HIER
1070
     0
1002
}
1002
{
1000
MANEDIT
1070
     0
1002
}
1002
{
1000
NOSEL
1070
     0
1002
}
1002
{
1000
BEHIND
1070
     0
1002
}
1002
{
1000
REACTOR
1002
}
1001
GENIUS_GENOBJ-N-FIL_13
1002
{
1000
OWNER
1000
GEN
1002
}
1001
GENIUS_GENOBJ-N-CEN_13
1002
{
1000
OWNER
1000
GEN
1002
}
  0
ARC
  5
9D3
330
2
100
AcDbEntity
  8
0
100
AcDbCircle
 10
376.3659600350561
 20
586.9252005219753
 30
0.0
 40
1.6
100
AcDbArc
 50
0.0
 51
90.0
1001
GENIUS_GENODEF_13
1002
{
1000
HIER
1070
     0
1002
}
1002
{
1000
MANEDIT
1070
     0
1002
}
1002
{
1000
NOSEL
1070
     0
1002
}
1002
{
1000
BEHIND
1070
     0
1002
}
1002
{
1000
REACTOR
1002
}
1001
GENIUS_GENOBJ-N-FIL_13
1002
{
1000
OWNER
1000
GEN
1002
}
1001
GENIUS_GENOBJ-N-CEN_13
1002
{
1000
OWNER
1000
GEN
1002
}
  0
ARC
  5
9D4
330
2
100
AcDbEntity
  8
0
100
AcDbCircle
 10
364.8659600350575
 20
555.6252005219754
 30
0.0
 40
1.6
100
AcDbArc
 50
270.0
 51
0.0
1001
GENIUS_GENODEF_13
1002
{
1000
HIER
1070
     0
1002
}
1002
{
1000
MANEDIT
1070
     0
1002
}
1002
{
1000
NOSEL
1070
     0
1002
}
1002
{
1000
BEHIND
1070
     0
1002
}
1002
{
1000
REACTOR
1002
}
1001
GENIUS_GENOBJ-N-FIL_13
1002
{
1000
OWNER
1000
GEN
1002
}
  0
ARC
  5
9D5
330
2
100
AcDbEntity
  8
0
100
AcDbCircle
 10
194.0659600350574
 20
555.6252005219754
 30
0.0
 40
1.6
100
AcDbArc
 50
180.0
 51
270.0
1001
GENIUS_GENODEF_13
1002
{
1000
HIER
1070
     0
1002
}
1002
{
1000
MANEDIT
1070
     0
1002
}
1002
{
1000
NOSEL
1070
     0
1002
}
1002
{
1000
BEHIND
1070
     0
1002
}
1002
{
1000
REACTOR
1002
}
1001
GENIUS_GENOBJ-N-FIL_13
1002
{
1000
OWNER
1000
GEN
1002
}
1001
GENIUS_GENOBJ-N-CEN_13
1002
{
1000
OWNER
1000
GEN
1002
}
  0
LINE
  5
9D6
330
2
100
AcDbEntity
  8
0
100
AcDbLine
 10
203.4659600350574
 20
554.0252005219755
 30
0.0
 11
203.4659600350574
 21
552.5252005219753
 31
0.0
1001
GENIUS_GENODEF_13
1002
{
1000
HIER
1070
     0
1002
}
1002
{
1000
MANEDIT
1070
     0
1002
}
1002
{
1000
NOSEL
1070
     0
1002
}
1002
{
1000
BEHIND
1070
     0
1002
}
1002
{
1000
REACTOR
1002
}
1001
GENIUS_GENOBJ-N-CEN_13
1002
{
1000
OWNER
1000
GEN
1002
}
  0
LINE
  5
9D7
330
2
100
AcDbEntity
  8
0
100
AcDbLine
 10
355.4659600350574
 20
554.0252005219755
 30
0.0
 11
355.4659600350574
 21
552.5252005219753
 31
0.0
1001
GENIUS_GENODEF_13
1002
{
1000
HIER
1070
     0
1002
}
1002
{
1000
MANEDIT
1070
     0
1002
}
1002
{
1000
NOSEL
1070
     0
1002
}
1002
{
1000
BEHIND
1070
     0
1002
}
1002
{
1000
REACTOR
1002
}
1001
GENIUS_GENOBJ-N-CEN_13
1002
{
1000
OWNER
1000
GEN
1002
}
  0
ARC
  5
9D8
330
2
100
AcDbEntity
  8
0
100
AcDbCircle
 10
376.3659600350561
 20
586.9252005219753
 30
0.0
 40
3.1
100
AcDbArc
 50
0.0
 51
90.0
1001
GENIUS_GENODEF_13
1002
{
1000
HIER
1070
     0
1002
}
1002
{
1000
MANEDIT
1070
     0
1002
}
1002
{
1000
NOSEL
1070
     0
1002
}
1002
{
1000
BEHIND
1070
     0
1002
}
1002
{
1000
REACTOR
1002
}
1001
GENIUS_GENOBJ-N-FIL_13
1002
{
1000
OWNER
1000
GEN
1002
}
  0
ARC
  5
9D9
330
2
100
AcDbEntity
  8
0
100
AcDbCircle
 10
369.5659600350562
 20
586.9252005219753
 30
0.0
 40
3.1
100
AcDbArc
 50
90.0
 51
180.0
1001
GENIUS_GENODEF_13
1002
{
1000
HIER
1070
     0
1002
}
1002
{
1000
MANEDIT
1070
     0
1002
}
1002
{
1000
NOSEL
1070
     0
1002
}
1002
{
1000
BEHIND
1070
     0
1002
}
1002
{
1000
REACTOR
1002
}
1001
GENIUS_GENOBJ-N-FIL_13
1002
{
1000
OWNER
1000
GEN
1002
}
1001
GENIUS_GENOBJ-N-CEN_13
1002
{
1000
OWNER
1000
GEN
1002
}
  0
ARC
  5
9DA
330
2
100
AcDbEntity
  8
0
100
AcDbCircle
 10
364.8659600350573
 20
555.6252005219754
 30
0.0
 40
3.1
100
AcDbArc
 50
270.0
 51
0.0
1001
GENIUS_GENODEF_13
1002
{
1000
HIER
1070
     0
1002
}
1002
{
1000
MANEDIT
1070
     0
1002
}
1002
{
1000
NOSEL
1070
     0
1002
}
1002
{
1000
BEHIND
1070
     0
1002
}
1002
{
1000
REACTOR
1002
}
1001
GENIUS_GENOBJ-N-FIL_13
1002
{
1000
OWNER
1000
GEN
1002
}
  0
LINE
  5
9DB
330
2
100
AcDbEntity
  8
0
100
AcDbLine
 10
367.9659600350565
 20
580.0252005219751
 30
0.0
 11
379.465960035056
 21
580.0252005219755
 31
0.0
  0
ARC
  5
9DC
330
2
100
AcDbEntity
  8
0
100
AcDbCircle
 10
182.5659600350561
 20
586.9252005219753
 30
0.0
 40
3.1
100
AcDbArc
 50
90.0
 51
180.0
1001
GENIUS_GENODEF_13
1002
{
1000
HIER
1070
     0
1002
}
1002
{
1000
MANEDIT
1070
     0
1002
}
1002
{
1000
NOSEL
1070
     0
1002
}
1002
{
1000
BEHIND
1070
     0
1002
}
1002
{
1000
REACTOR
1002
}
1001
GENIUS_GENOBJ-N-FIL_13
1002
{
1000
OWNER
1000
GEN
1002
}
1001
GENIUS_GENOBJ-N-CEN_13
1002
{
1000
OWNER
1000
GEN
1002
}
  0
ARC
  5
9DD
330
2
100
AcDbEntity
  8
0
100
AcDbCircle
 10
194.0659600350574
 20
555.6252005219754
 30
0.0
 40
3.1
100
AcDbArc
 50
180.0
 51
270.0
1001
GENIUS_GENODEF_13
1002
{
1000
HIER
1070
     0
1002
}
1002
{
1000
MANEDIT
1070
     0
1002
}
1002
{
1000
NOSEL
1070
     0
1002
}
1002
{
1000
BEHIND
1070
     0
1002
}
1002
{
1000
REACTOR
1002
}
1001
GENIUS_GENOBJ-N-FIL_13
1002
{
1000
OWNER
1000
GEN
1002
}
  0
ARC
  5
9DE
330
2
100
AcDbEntity
  8
0
100
AcDbCircle
 10
189.3659600350561
 20
586.9252005219753
 30
0.0
 40
3.1
100
AcDbArc
 50
0.0
 51
90.0
1001
GENIUS_GENODEF_13
1002
{
1000
HIER
1070
     0
1002
}
1002
{
1000
MANEDIT
1070
     0
1002
}
1002
{
1000
NOSEL
1070
     0
1002
}
1002
{
1000
BEHIND
1070
     0
1002
}
1002
{
1000
REACTOR
1002
}
1001
GENIUS_GENOBJ-N-FIL_13
1002
{
1000
OWNER
1000
GEN
1002
}
  0
INSERT
  5
9DF
330
2
100
AcDbEntity
  8
8
100
AcDbBlockReference
  2
*X2
 10
59.77068326767676
 20
76.68120939059838
 30
0.0
1001
GENIUS_GENODEF_13
1002
{
1000
HIER
1070
     0
1002
}
1002
{
1000
MANEDIT
1070
     0
1002
}
1002
{
1000
NOSEL
1070
     0
1002
}
1002
{
1000
BEHIND
1070
     0
1002
}
1002
{
1000
REACTOR
1002
}
1001
GENIUS_GENOBJ-N-HTC_13
1002
{
1000
OWNER
1000
GEN
1002
}
1001
GENIUS_GENHATCH_13
1002
{
1000
DATA
1040
45.0
1042
2.5
1000
_U
1070
     0
1011
181.326750803249
1021
519.1453666459316
1031
0.0
1002
}
1002
{
1000
UCS
1010
0.0
1020
0.0
1030
0.0
1010
1.0
1020
0.0
1030
0.0
1010
0.0
1020
1.0
1030
0.0
1002
}
1001
ACAD
1000
HATCH
1002
{
1070
    19
1000
_U
1040
5.0
1040
0.7853981633974483
1070
     0
1002
}
  0
INSERT
  5
9E0
330
2
100
AcDbEntity
  8
8
100
AcDbBlockReference
  2
*X3
 10
59.77068326767676
 20
76.68120939059838
 30
0.0
1001
GENIUS_GENODEF_13
1002
{
1000
HIER
1070
     0
1002
}
1002
{
1000
MANEDIT
1070
     0
1002
}
1002
{
1000
NOSEL
1070
     0
1002
}
1002
{
1000
BEHIND
1070
     0
1002
}
1002
{
1000
REACTOR
1002
}
1001
GENIUS_GENOBJ-N-HTC_13
1002
{
1000
OWNER
1000
GEN
1002
}
1001
GENIUS_GENHATCH_13
1002
{
1000
DATA
1040
45.0
1042
2.5
1000
_U
1070
     0
1011
191.81888482513
1021
584.8802431340208
1031
0.0
1002
}
1002
{
1000
UCS
1010
0.0
1020
0.0
1030
0.0
1010
1.0
1020
0.0
1030
0.0
1010
0.0
1020
1.0
1030
0.0
1002
}
1001
ACAD
1000
HATCH
1002
{
1070
    19
1000
_U
1040
5.0
1040
0.7853981633974483
1070
     0
1002
}
  0
INSERT
  5
9E1
330
2
100
AcDbEntity
  8
8
100
AcDbBlockReference
  2
*X4
 10
59.77068326767676
 20
76.68120939059838
 30
0.0
1001
GENIUS_GENODEF_13
1002
{
1000
HIER
1070
     0
1002
}
1002
{
1000
MANEDIT
1070
     0
1002
}
1002
{
1000
NOSEL
1070
     0
1002
}
1002
{
1000
BEHIND
1070
     0
1002
}
1002
{
1000
REACTOR
1002
}
1001
GENIUS_GENOBJ-N-HTC_13
1002
{
1000
OWNER
1000
GEN
1002
}
1001
GENIUS_GENHATCH_13
1002
{
1000
DATA
1040
45.0
1042
2.5
1000
_U
1070
     0
1011
367.1042870296151
1021
579.7403240661573
1031
0.0
1002
}
1002
{
1000
UCS
1010
0.0
1020
0.0
1030
0.0
1010
1.0
1020
0.0
1030
0.0
1010
0.0
1020
1.0
1030
0.0
1002
}
1001
ACAD
1000
HATCH
1002
{
1070
    19
1000
_U
1040
5.0
1040
0.7853981633974483
1070
     0
1002
}
  0
LINE
  5
9E2
330
2
100
AcDbEntity
  8
0
100
AcDbLine
 10
364.465960035056
 20
590.0252005219755
 30
0.0
 11
364.4659600350567
 21
570.0252005219755
 31
0.0
1001
GENIUS_GENODEF_13
1002
{
1000
HIER
1070
     0
1002
}
1002
{
1000
MANEDIT
1070
     0
1002
}
1002
{
1000
NOSEL
1070
     0
1002
}
1002
{
1000
BEHIND
1070
     0
1002
}
1002
{
1000
REACTOR
1002
}
1001
GENIUS_GENOBJ-N-CEN_13
1002
{
1000
OWNER
1000
GEN
1002
}
  0
HATCH
  5
9EE
330
2
100
AcDbEntity
  8
8
100
AcDbHatch
 10
0.0
 20
0.0
 30
0.0
210
0.0
220
0.0
230
1.0
  2
_U
 70
     0
 71
     0
 91
        1
 92
        1
 93
        8
 72
     1
 10
373.9659600350576
 20
552.5252005219755
 11
349.4659600350574
 21
552.5252005219755
 72
     1
 10
349.4659600350574
 20
552.5252005219755
 11
349.4659600350574
 21
551.0252005219753
 72
     1
 10
349.4659600350574
 20
551.0252005219753
 11
373.9659600350576
 21
551.0252005219753
 72
     2
 10
373.9659600350578
 20
548.0252005219755
 40
3.0
 50
270.0
 51
359.9999999999978
 73
     0
 72
     1
 10
376.9659600350578
 20
548.0252005219755
 11
376.9659600350633
 21
405.0252005219753
 72
     1
 10
376.9659600350631
 20
405.0252005219755
 11
378.4659600350633
 21
405.0252005219755
 72
     1
 10
378.4659600350633
 20
405.0252005219755
 11
378.4659600350576
 21
548.0252005219758
 72
     2
 10
373.9659600350576
 20
548.0252005219755
 40
4.5
 50
0.0000000000021713
 51
90.0
 73
     1
 97
        0
 75
     0
 76
     0
 52
45.0
 41
12.5
 77
     0
 78
     1
 53
45.0
 43
72.1786462969751
 44
76.02520052197554
 45
-8.838834764831844
 46
8.838834764831844
 79
     0
 98
        1
 10
72.1786462969751
 20
76.02520052197554
1001
GENIUS_GENODEF_13
1002
{
1000
HIER
1070
     0
1002
}
1002
{
1000
MANEDIT
1070
     0
1002
}
1002
{
1000
NOSEL
1070
     0
1002
}
1002
{
1000
BEHIND
1070
     0
1002
}
1002
{
1000
REACTOR
1002
}
1001
GENIUS_GENOBJ-N-HTC_13
1002
{
1000
OWNER
1000
GEN
1002
}
1001
GENIUS_GENHATCH_13
1002
{
1000
DATA
1040
45.0
1042
2.5
1000
_U
1070
     0
1011
378.0652211329723
1021
535.6315552224765
1031
0.0
1002
}
1002
{
1000
UCS
1010
0.0
1020
0.0
1030
0.0
1010
1.0
1020
0.0
1030
0.0
1010
0.0
1020
1.0
1030
0.0
1002
}
  0
LINE
  5
9EF
330
2
100
AcDbEntity
  8
0
100
AcDbLine
 10
194.465960035056
 20
590.0252005219689
 30
0.0
 11
194.4659600350569
 21
570.0252005219755
 31
0.0
1001
GENIUS_GENODEF_13
1002
{
1000
HIER
1070
     0
1002
}
1002
{
1000
MANEDIT
1070
     0
1002
}
1002
{
1000
NOSEL
1070
     0
1002
}
1002
{
1000
BEHIND
1070
     0
1002
}
1002
{
1000
REACTOR
1002
}
1001
GENIUS_GENOBJ-N-CEN_13
1002
{
1000
OWNER
1000
GEN
1002
}
  0
LINE
  5
9F4
330
2
100
AcDbEntity
  8
0
100
AcDbLine
 10
194.4659600350569
 20
570.0252005219755
 30
0.0
 11
364.4659600350567
 21
570.0252005219755
 31
0.0
  0
ARC
  5
9F5
330
2
100
AcDbEntity
  8
0
100
AcDbCircle
 10
204.4659600350572
 20
562.0252005219755
 30
0.0
 40
8.0
100
AcDbArc
 50
270.0
 51
90.0
  0
ARC
  5
9F6
330
2
100
AcDbEntity
  8
0
100
AcDbCircle
 10
200.4659600350572
 20
562.0252005219755
 30
0.0
 40
8.0
100
AcDbArc
 50
90.0
 51
270.0
  0
HATCH
  5
9F7
330
2
100
AcDbEntity
  8
8
100
AcDbHatch
 10
0.0
 20
0.0
 30
0.0
210
0.0
220
0.0
230
1.0
  2
_U
 70
     0
 71
     0
 91
        1
 92
        1
 93
        5
 72
     1
 10
203.4659600350574
 20
554.0252005219755
 11
204.4659600350572
 21
554.0252005219755
 72
     2
 10
204.4659600350572
 20
562.0252005219755
 40
8.0
 50
270.0
 51
450.0
 73
     1
 72
     1
 10
204.4659600350572
 20
570.0252005219755
 11
200.4659600350572
 21
570.0252005219755
 72
     2
 10
200.4659600350572
 20
562.0252005219755
 40
8.0
 50
90.0
 51
270.0
 73
     1
 72
     1
 10
200.4659600350572
 20
554.0252005219755
 11
203.4659600350574
 21
554.0252005219755
 97
        0
 75
     0
 76
     0
 52
45.0
 41
5.519999999999999
 77
     1
 78
     2
 53
45.0
 43
80.89435874885316
 44
73.64920534624445
 45
-3.903229432149741
 46
3.903229432149742
 79
     0
 53
135.0
 43
80.89435874885316
 44
73.64920534624445
 45
-3.903229432149742
 46
-3.903229432149741
 79
     0
 98
        1
 10
72.1786462969751
 20
76.02520052197554
1001
GENIUS_GENODEF_13
1002
{
1000
HIER
1070
     0
1002
}
1002
{
1000
MANEDIT
1070
     0
1002
}
1002
{
1000
NOSEL
1070
     0
1002
}
1002
{
1000
BEHIND
1070
     0
1002
}
1002
{
1000
REACTOR
1002
}
1001
GENIUS_GENOBJ-N-HTC_13
1002
{
1000
OWNER
1000
GEN
1002
}
1001
GENIUS_GENHATCH_13
1002
{
1000
DATA
1040
45.0
1042
2.299999999999999
1000
_U
1070
     1
1011
199.9557586344929
1021
563.6510761137452
1031
0.0
1002
}
1002
{
1000
UCS
1010
0.0
1020
0.0
1030
0.0
1010
1.0
1020
0.0
1030
0.0
1010
0.0
1020
1.0
1030
0.0
1002
}
  0
HATCH
  5
9F8
330
2
100
AcDbEntity
  8
8
100
AcDbHatch
 10
0.0
 20
0.0
 30
0.0
210
0.0
220
0.0
230
1.0
  2
_U
 70
     0
 71
     0
 91
        1
 92
        1
 93
        5
 72
     1
 10
355.4659600350574
 20
554.0252005219814
 11
354.4659600350576
 21
554.0252005219814
 72
     2
 10
354.4659600350572
 20
562.0252005219814
 40
8.0
 50
449.9999999999954
 51
629.9999999999954
 73
     0
 72
     1
 10
354.4659600350565
 20
570.0252005219814
 11
358.4659600350565
 21
570.0252005219816
 72
     2
 10
358.4659600350572
 20
562.0252005219817
 40
8.0
 50
269.9999999999954
 51
449.9999999999954
 73
     0
 72
     1
 10
358.4659600350578
 20
554.0252005219817
 11
355.4659600350574
 21
554.0252005219814
 97
        0
 75
     0
 76
     0
 52
45.0
 41
4.599999999999999
 77
     1
 78
     2
 53
45.0
 43
80.89435874885316
 44
73.64920534624445
 45
-3.252691193458118
 46
3.252691193458118
 79
     0
 53
135.0
 43
80.89435874885316
 44
73.64920534624445
 45
-3.252691193458118
 46
-3.252691193458117
 79
     0
 98
        1
 10
486.7532737731776
 20
76.0252005219919
1001
GENIUS_GENODEF_13
1002
{
1000
HIER
1070
     0
1002
}
1002
{
1000
MANEDIT
1070
     0
1002
}
1002
{
1000
NOSEL
1070
     0
1002
}
1002
{
1000
BEHIND
1070
     0
1002
}
1002
{
1000
REACTOR
1002
}
1001
GENIUS_GENOBJ-N-HTC_13
1002
{
1000
OWNER
1000
GEN
1002
}
1001
GENIUS_GENHATCH_13
1002
{
1000
DATA
1040
45.0
1042
2.299999999999999
1000
_U
1070
     1
1011
358.9761614356212
1021
563.6510761137516
1031
0.0
1002
}
1002
{
1000
UCS
1010
0.0
1020
0.0
1030
0.0
1010
1.0
1020
0.0
1030
0.0
1010
0.0
1020
1.0
1030
0.0
1002
}
  0
ARC
  5
9F9
330
2
100
AcDbEntity
  8
0
100
AcDbCircle
 10
354.4659600350572
 20
562.0252005219814
 30
0.0
 40
8.0
100
AcDbArc
 50
90.00000000000651
 51
270.0000000000065
  0
ARC
  5
9FA
330
2
100
AcDbEntity
  8
0
100
AcDbCircle
 10
358.4659600350572
 20
562.0252005219817
 30
0.0
 40
8.0
100
AcDbArc
 50
270.0000000000065
 51
90.00000000000651
  0
MTEXT
  5
A1C
330
2
100
AcDbEntity
  8
0
 62
     2
100
AcDbMText
 10
-48.28127059432768
 20
664.5751620907914
 30
0.0
 40
17.5
 41
215.6658121080136
 71
     1
 72
     5
  1
{Oberfläche }\P{besandet}
 73
     1
 44
1.0
1001
ACAD
1000
MTEXTBEGIN
1070
    73
1070
     1
1070
    44
1040
1.0
1070
    74
1070
     0
1000
MTEXTEND
  0
LINE
  5
A1D
330
2
100
AcDbEntity
  8
4
100
AcDbLine
 10
-55.6424665110078
 20
611.7562924469113
 30
0.0
 11
136.965960035056
 21
611.7562924469117
 31
0.0
  0
LINE
  5
A1E
330
2
100
AcDbEntity
  8
4
100
AcDbLine
 10
146.017527711946
 20
611.7562924469117
 30
0.0
 11
157.1993400925169
 21
570.0252005219205
 31
0.0
  0
LINE
  5
A1F
330
2
100
AcDbEntity
  8
4
100
AcDbLine
 10
136.965960035056
 20
611.7562924469117
 30
0.0
 11
146.017527711946
 21
611.7562924469117
 31
0.0
  0
LINE
  5
A24
330
2
100
AcDbEntity
  8
0
100
AcDbLine
 10
129.4659600350559
 20
570.0252005219207
 30
0.0
 11
129.465960035056
 21
566.0252005219205
 31
0.0
  0
LINE
  5
A25
330
2
100
AcDbEntity
  8
0
100
AcDbLine
 10
129.4659600350559
 20
570.0252005219207
 30
0.0
 11
190.965960035056
 21
570.0252005219205
 31
0.0
  0
LINE
  5
A26
330
2
100
AcDbEntity
  8
0
100
AcDbLine
 10
367.965960035056
 20
570.0252005219205
 30
0.0
 11
429.465960035056
 21
570.0252005219207
 31
0.0
  0
LINE
  5
A27
330
2
100
AcDbEntity
  8
0
100
AcDbLine
 10
429.465960035056
 20
570.0252005219207
 30
0.0
 11
429.465960035056
 21
566.0252005219205
 31
0.0
  0
HATCH
  5
AA9
330
2
100
AcDbEntity
  8
8
100
AcDbHatch
 10
0.0
 20
0.0
 30
0.0
210
0.0
220
0.0
230
1.0
  2
_U
 70
     0
 71
     0
 91
        1
 92
        1
 93
        5
 72
     1
 10
364.4659600350567
 20
570.0252005219755
 11
364.465960035056
 21
590.0252005219755
 72
     1
 10
364.465960035056
 20
590.0252005219755
 11
194.465960035056
 21
590.0252005219689
 72
     1
 10
194.465960035056
 20
590.0252005219689
 11
194.4659600350569
 21
570.0252005219755
 72
     1
 10
194.4659600350569
 20
570.0252005219755
 11
358.4659600350572
 21
570.0252005219816
 72
     1
 10
358.4659600350572
 20
570.0252005219816
 11
364.4659600350567
 21
570.0252005219755
 97
        0
 75
     0
 76
     0
 52
135.0
 41
13.5
 77
     0
 78
     1
 53
135.0
 43
-145.3947894531591
 44
-587.7364692535203
 45
-9.545941546018392
 46
-9.54594154601839
 79
     0
 98
        1
 10
-145.3947894531591
 20
-587.7364692535203
1001
GENIUS_GENODEF_13
1002
{
1000
HIER
1070
     0
1002
}
1002
{
1000
MANEDIT
1070
     0
1002
}
1002
{
1000
NOSEL
1070
     0
1002
}
1002
{
1000
BEHIND
1070
     0
1002
}
1002
{
1000
REACTOR
1002
}
1001
GENIUS_GENOBJ-N-HTC_13
1002
{
1000
OWNER
1000
GEN
1002
}
1001
GENIUS_GENHATCH_13
1002
{
1000
DATA
1040
135.0
1042
2.7
1000
_U
1070
     0
1011
232.4142145749349
1021
577.3773010949733
1031
0.0
1002
}
1002
{
1000
UCS
1010
0.0
1020
0.0
1030
0.0
1010
1.0
1020
0.0
1030
0.0
1010
0.0
1020
1.0
1030
0.0
1002
}
  0
LINE
  5
AEE
330
2
100
AcDbEntity
  8
0
100
AcDbLine
 10
367.965960035056
 20
566.0252005219205
 30
0.0
 11
429.465960035056
 21
566.0252005219205
 31
0.0
  0
HATCH
  5
AEF
330
2
100
AcDbEntity
  8
8
100
AcDbHatch
 10
0.0
 20
0.0
 30
0.0
210
0.0
220
0.0
230
1.0
  2
_U
 70
     0
 71
     0
 91
        1
 92
        1
 93
        4
 72
     1
 10
429.465960035056
 20
570.0252005219207
 11
367.965960035056
 21
570.0252005219205
 72
     1
 10
367.965960035056
 20
570.0252005219205
 11
367.965960035056
 21
566.0252005219205
 72
     1
 10
367.965960035056
 20
566.0252005219205
 11
429.465960035056
 21
566.0252005219205
 72
     1
 10
429.465960035056
 20
566.0252005219205
 11
429.465960035056
 21
570.0252005219207
 97
        0
 75
     0
 76
     0
 52
45.0
 41
10.0
 77
     0
 78
     1
 53
45.0
 43
-145.3947894531591
 44
-587.7364692535203
 45
-7.071067811865474
 46
7.071067811865475
 79
     0
 98
        1
 10
-145.3947894531591
 20
-587.7364692535203
1001
GENIUS_GENODEF_13
1002
{
1000
HIER
1070
     0
1002
}
1002
{
1000
MANEDIT
1070
     0
1002
}
1002
{
1000
NOSEL
1070
     0
1002
}
1002
{
1000
BEHIND
1070
     0
1002
}
1002
{
1000
REACTOR
1002
}
1001
GENIUS_GENOBJ-N-HTC_13
1002
{
1000
OWNER
1000
GEN
1002
}
1001
GENIUS_GENHATCH_13
1002
{
1000
DATA
1040
45.0
1042
2.5
1000
_U
1070
     0
1011
382.9347873827667
1021
567.9846290725999
1031
0.0
1002
}
1002
{
1000
UCS
1010
0.0
1020
0.0
1030
0.0
1010
1.0
1020
0.0
1030
0.0
1010
0.0
1020
1.0
1030
0.0
1002
}
  0
LINE
  5
AF0
330
2
100
AcDbEntity
  8
0
100
AcDbLine
 10
129.465960035056
 20
566.0252005219205
 30
0.0
 11
190.965960035056
 21
566.0252005219205
 31
0.0
  0
HATCH
  5
AF1
330
2
100
AcDbEntity
  8
8
100
AcDbHatch
 10
0.0
 20
0.0
 30
0.0
210
0.0
220
0.0
230
1.0
  2
_U
 70
     0
 71
     0
 91
        1
 92
        1
 93
        4
 72
     1
 10
129.465960035056
 20
566.0252005219205
 11
190.965960035056
 21
566.0252005219205
 72
     1
 10
190.965960035056
 20
566.0252005219205
 11
190.965960035056
 21
570.0252005219205
 72
     1
 10
190.965960035056
 20
570.0252005219205
 11
129.4659600350559
 21
570.0252005219207
 72
     1
 10
129.4659600350559
 20
570.0252005219207
 11
129.465960035056
 21
566.0252005219205
 97
        0
 75
     0
 76
     0
 52
45.0
 41
7.5
 77
     0
 78
     1
 53
45.0
 43
-145.3947894531591
 44
-587.7364692535203
 45
-5.303300858899106
 46
5.303300858899106
 79
     0
 98
        1
 10
-145.3947894531591
 20
-587.7364692535203
1001
GENIUS_GENODEF_13
1002
{
1000
HIER
1070
     0
1002
}
1002
{
1000
MANEDIT
1070
     0
1002
}
1002
{
1000
NOSEL
1070
     0
1002
}
1002
{
1000
BEHIND
1070
     0
1002
}
1002
{
1000
REACTOR
1002
}
1001
GENIUS_GENOBJ-N-HTC_13
1002
{
1000
OWNER
1000
GEN
1002
}
1001
GENIUS_GENHATCH_13
1002
{
1000
DATA
1040
45.0
1042
2.5
1000
_U
1070
     0
1011
139.919574984656
1021
568.2330909996525
1031
0.0
1002
}
1002
{
1000
UCS
1010
0.0
1020
0.0
1030
0.0
1010
1.0
1020
0.0
1030
0.0
1010
0.0
1020
1.0
1030
0.0
1002
}
  0
LINE
  5
B0C
330
2
100
AcDbEntity
  8
0
100
AcDbLine
 10
406.4659600350557
 20
541.0252005219207
 30
0.0
 11
412.4659600350558
 21
541.0252005219207
 31
0.0
  0
LINE
  5
B0D
330
2
100
AcDbEntity
  8
0
100
AcDbLine
 10
413.4659600350557
 20
542.0252005219207
 30
0.0
 11
413.4659600350557
 21
547.0252005219207
 31
0.0
  0
LINE
  5
B0E
330
2
100
AcDbEntity
  8
7
100
AcDbLine
 10
409.4659600350557
 20
574.8686252964899
 30
0.0
 11
409.4659600350557
 21
535.9635321445026
 31
0.0
  0
LINE
  5
B0F
330
2
100
AcDbEntity
  8
4
100
AcDbLine
 10
412.4659600350558
 20
541.0252005219207
 30
0.0
 11
412.4659600350558
 21
547.0252005219207
 31
0.0
  0
LINE
  5
B10
330
2
100
AcDbEntity
  8
4
100
AcDbLine
 10
405.4659600350557
 20
542.0252005219207
 30
0.0
 11
413.4659600350557
 21
542.0252005219207
 31
0.0
  0
LINE
  5
B11
330
2
100
AcDbEntity
  8
0
100
AcDbLine
 10
405.4659600350557
 20
542.0252005219207
 30
0.0
 11
406.4659600350557
 21
541.0252005219207
 31
0.0
  0
LINE
  5
B12
330
2
100
AcDbEntity
  8
0
100
AcDbLine
 10
412.4659600350558
 20
541.0252005219207
 30
0.0
 11
413.4659600350557
 21
542.0252005219207
 31
0.0
  0
LINE
  5
B13
330
2
100
AcDbEntity
  8
0
100
AcDbLine
 10
399.4659600350558
 20
548.0252005219207
 30
0.0
 11
399.4659600350558
 21
553.0252005219207
 31
0.0
  0
LINE
  5
B14
330
2
100
AcDbEntity
  8
0
100
AcDbLine
 10
399.4659600350558
 20
554.0252005219207
 30
0.0
 11
419.4659600350558
 21
554.0252005219207
 31
0.0
  0
LINE
  5
B15
330
2
100
AcDbEntity
  8
0
100
AcDbLine
 10
419.4659600350558
 20
553.0252005219209
 30
0.0
 11
419.4659600350558
 21
548.0252005219205
 31
0.0
  0
LINE
  5
B16
330
2
100
AcDbEntity
  8
0
100
AcDbLine
 10
404.4659600350557
 20
553.0252005219209
 30
0.0
 11
404.4659600350557
 21
548.0252005219205
 31
0.0
  0
LINE
  5
B17
330
2
100
AcDbEntity
  8
0
100
AcDbLine
 10
414.4659600350557
 20
553.0252005219202
 30
0.0
 11
414.4659600350557
 21
548.0252005219211
 31
0.0
  0
LINE
  5
B18
330
2
100
AcDbEntity
  8
0
100
AcDbLine
 10
399.4659600350558
 20
554.0252005219207
 30
0.0
 11
398.4659600350558
 21
554.0252005219207
 31
0.0
  0
LINE
  5
B19
330
2
100
AcDbEntity
  8
0
100
AcDbLine
 10
398.4659600350558
 20
554.0252005219207
 30
0.0
 11
398.4659600350558
 21
556.0252005219207
 31
0.0
  0
LINE
  5
B1A
330
2
100
AcDbEntity
  8
0
100
AcDbLine
 10
398.4659600350558
 20
556.0252005219207
 30
0.0
 11
420.4659600350558
 21
556.0252005219207
 31
0.0
  0
LINE
  5
B1B
330
2
100
AcDbEntity
  8
0
100
AcDbLine
 10
420.4659600350558
 20
556.0252005219207
 30
0.0
 11
420.4659600350558
 21
554.0252005219207
 31
0.0
  0
LINE
  5
B1C
330
2
100
AcDbEntity
  8
0
100
AcDbLine
 10
420.4659600350558
 20
554.0252005219207
 30
0.0
 11
419.4659600350558
 21
554.0252005219207
 31
0.0
  0
LINE
  5
B1D
330
2
100
AcDbEntity
  8
0
100
AcDbLine
 10
398.4659600350558
 20
556.0252005219207
 30
0.0
 11
398.4659600350558
 21
556.9252005219208
 31
0.0
  0
LINE
  5
B1E
330
2
100
AcDbEntity
  8
4
100
AcDbLine
 10
406.4659600350557
 20
547.0252005219207
 30
0.0
 11
406.4659600350557
 21
541.0252005219207
 31
0.0
  0
LINE
  5
B1F
330
2
100
AcDbEntity
  8
0
100
AcDbLine
 10
405.4659600350557
 20
547.0252005219207
 30
0.0
 11
405.4659600350557
 21
542.0252005219207
 31
0.0
  0
LINE
  5
B20
330
2
100
AcDbEntity
  8
0
100
AcDbLine
 10
402.4659600350558
 20
556.0252005219207
 30
0.0
 11
402.4659600350558
 21
556.9252005219208
 31
0.0
  0
LINE
  5
B21
330
2
100
AcDbEntity
  8
0
100
AcDbLine
 10
406.4659600350557
 20
556.0252005219207
 30
0.0
 11
406.4659600350555
 21
556.9252005219208
 31
0.0
  0
LINE
  5
B22
330
2
100
AcDbEntity
  8
0
100
AcDbLine
 10
410.4659600350557
 20
556.0252005219207
 30
0.0
 11
410.4659600350557
 21
556.9252005219204
 31
0.0
  0
LINE
  5
B23
330
2
100
AcDbEntity
  8
0
100
AcDbLine
 10
414.4659600350557
 20
556.0252005219207
 30
0.0
 11
414.4659600350557
 21
559.0252005219207
 31
0.0
  0
LINE
  5
B24
330
2
100
AcDbEntity
  8
0
100
AcDbLine
 10
418.4659600350557
 20
556.0252005219207
 30
0.0
 11
418.4659600350557
 21
559.0252005219207
 31
0.0
  0
LINE
  5
B25
330
2
100
AcDbEntity
  8
0
100
AcDbLine
 10
418.4659600350557
 20
556.0252005219207
 30
0.0
 11
420.4659600350558
 21
557.0252005219207
 31
0.0
  0
LINE
  5
B26
330
2
100
AcDbEntity
  8
0
100
AcDbLine
 10
420.4659600350558
 20
556.0252005219207
 30
0.0
 11
420.4659600350558
 21
559.0252005219207
 31
0.0
  0
LINE
  5
B27
330
2
100
AcDbEntity
  8
0
100
AcDbLine
 10
418.4659600350557
 20
558.0252005219207
 30
0.0
 11
420.4659600350558
 21
559.0252005219207
 31
0.0
  0
LINE
  5
B28
330
2
100
AcDbEntity
  8
0
100
AcDbLine
 10
416.9659600350557
 20
547.0252005219207
 30
0.0
 11
401.9659600350555
 21
547.0252005219207
 31
0.0
  0
ELLIPSE
  5
B29
330
2
100
AcDbEntity
  8
0
100
AcDbEllipse
 10
409.4659600350557
 20
553.0252005219209
 30
0.0
 11
-5.0
 21
0.0000000000001705
 31
0.0
210
0.0
220
0.0
230
1.0
 40
0.1999999999999772
 41
3.141592653589793
 42
6.283185307179586
  0
ELLIPSE
  5
B2A
330
2
100
AcDbEntity
  8
0
100
AcDbEllipse
 10
416.9659600350557
 20
553.0252005219207
 30
0.0
 11
-2.5
 21
0.0
 31
0.0
210
0.0
220
0.0
230
1.0
 40
0.3999999999999772
 41
3.141592653589793
 42
6.283185307179586
  0
ELLIPSE
  5
B2B
330
2
100
AcDbEntity
  8
0
100
AcDbEllipse
 10
401.9659600350557
 20
553.0252005219207
 30
0.0
 11
-2.5
 21
0.0000000000000568
 31
0.0
210
0.0
220
0.0
230
1.0
 40
0.4000000000000228
 41
3.141592653589793
 42
6.283185307179643
  0
ELLIPSE
  5
B2C
330
2
100
AcDbEntity
  8
0
100
AcDbEllipse
 10
401.9659600350557
 20
548.0252005219207
 30
0.0
 11
-2.5
 21
-0.0000000000000568
 31
0.0
210
0.0
220
0.0
230
-1.0
 40
0.4000000000000228
 41
3.141592653589793
 42
6.283185307179643
  0
ELLIPSE
  5
B2D
330
2
100
AcDbEntity
  8
0
100
AcDbEllipse
 10
409.4659600350557
 20
548.0252005219205
 30
0.0
 11
-5.0
 21
-0.0000000000001705
 31
0.0
210
0.0
220
0.0
230
-1.0
 40
0.1999999999999772
 41
3.141592653589793
 42
6.283185307179586
  0
ELLIPSE
  5
B2E
330
2
100
AcDbEntity
  8
0
100
AcDbEllipse
 10
416.9659600350557
 20
548.0252005219207
 30
0.0
 11
-2.5
 21
0.0
 31
0.0
210
0.0
220
0.0
230
-1.0
 40
0.3999999999999772
 41
3.141592653589793
 42
6.283185307179586
  0
LINE
  5
B2F
330
2
100
AcDbEntity
  8
0
100
AcDbLine
 10
414.397184125582
 20
559.0080065445524
 30
0.0
 11
414.4659600350557
 21
559.0252005219207
 31
0.0
  0
LINE
  5
B30
330
2
100
AcDbEntity
  8
0
100
AcDbLine
 10
414.4659600350557
 20
558.0252005219207
 30
0.0
 11
418.4659600350557
 21
559.0252005219207
 31
0.0
  0
LINE
  5
B31
330
2
100
AcDbEntity
  8
0
100
AcDbLine
 10
398.4659600350558
 20
556.0252005219207
 30
0.0
 11
402.0659600350561
 21
556.9252005219208
 31
0.0
  0
LINE
  5
B32
330
2
100
AcDbEntity
  8
0
100
AcDbLine
 10
402.4659600350558
 20
556.0252005219207
 30
0.0
 11
406.0659600350561
 21
556.9252005219208
 31
0.0
  0
LINE
  5
B33
330
2
100
AcDbEntity
  8
0
100
AcDbLine
 10
406.4659600350557
 20
556.0252005219207
 30
0.0
 11
410.0659600350541
 21
556.9252005219204
 31
0.0
  0
LINE
  5
B34
330
2
100
AcDbEntity
  8
0
100
AcDbLine
 10
410.4659600350557
 20
556.0252005219207
 30
0.0
 11
414.0659600350541
 21
556.9252005219204
 31
0.0
  0
LINE
  5
B35
330
2
100
AcDbEntity
  8
0
100
AcDbLine
 10
414.4659600350557
 20
556.0252005219207
 30
0.0
 11
418.4659600350557
 21
557.0252005219207
 31
0.0
  0
LINE
  5
B38
330
2
100
AcDbEntity
  8
0
100
AcDbLine
 10
144.4659600350564
 20
556.9252005219206
 30
0.0
 11
144.4659600350564
 21
566.0252005219205
 31
0.0
  0
LINE
  5
B39
330
2
100
AcDbEntity
  8
0
100
AcDbLine
 10
164.4659600350564
 20
556.9252005219206
 30
0.0
 11
164.4659600350564
 21
566.0252005219205
 31
0.0
  0
LINE
  5
B3A
330
2
100
AcDbEntity
  8
0
100
AcDbLine
 10
164.4659600350564
 20
556.9252005219206
 30
0.0
 11
144.4659600350564
 21
556.9252005219206
 31
0.0
  0
LINE
  5
B3B
330
2
100
AcDbEntity
  8
0
100
AcDbLine
 10
164.4659600350564
 20
564.5252005219204
 30
0.0
 11
144.4659600350564
 21
564.5252005219204
 31
0.0
  0
LINE
  5
B3C
330
2
100
AcDbEntity
  8
0
100
AcDbLine
 10
394.397184125582
 20
564.5252005219203
 30
0.0
 11
414.397184125582
 21
564.5252005219203
 31
0.0
  0
LINE
  5
B3D
330
2
100
AcDbEntity
  8
0
100
AcDbLine
 10
394.397184125582
 20
556.9252005219204
 30
0.0
 11
414.397184125582
 21
556.9252005219204
 31
0.0
  0
LINE
  5
B3E
330
2
100
AcDbEntity
  8
0
100
AcDbLine
 10
394.397184125582
 20
556.9252005219204
 30
0.0
 11
394.397184125582
 21
566.0252005219202
 31
0.0
  0
LINE
  5
B3F
330
2
100
AcDbEntity
  8
0
100
AcDbLine
 10
414.397184125582
 20
556.9252005219204
 30
0.0
 11
414.397184125582
 21
566.0252005219202
 31
0.0
  0
LINE
  5
B52
330
2
100
AcDbEntity
  8
0
100
AcDbLine
 10
414.397184125582
 20
557.0080065445523
 30
0.0
 11
414.4659600350557
 21
557.0252005219207
 31
0.0
  0
LINE
  5
B54
330
2
100
AcDbEntity
  8
0
100
AcDbLine
 10
180.4659600350619
 20
423.1279925893203
 30
0.0
 11
179.127492239844
 21
424.7231163928425
 31
0.0
  0
LINE
  5
B55
330
2
100
AcDbEntity
  8
0
100
AcDbLine
 10
180.4659600350619
 20
423.1279925893203
 30
0.0
 11
179.7960870539837
 21
425.6279925893212
 31
0.0
  0
LINE
  5
B56
330
2
100
AcDbEntity
  8
0
100
AcDbLine
 10
175.4659600350626
 20
423.1279925893203
 30
0.0
 11
180.4659600350619
 21
423.1279925893203
 31
0.0
  0
LINE
  5
B57
330
2
100
AcDbEntity
  8
0
100
AcDbLine
 10
175.4659600350614
 20
433.1279925893203
 30
0.0
 11
180.4659600350614
 21
433.1279925893203
 31
0.0
  0
ARC
  5
B58
330
2
100
AcDbEntity
  8
0
100
AcDbCircle
 10
175.4659600350614
 20
428.1279925893203
 30
0.0
 40
5.0
100
AcDbArc
 50
330.0000000000084
 51
134.4270040007903
  0
LINE
  5
B59
330
2
100
AcDbEntity
  8
0
100
AcDbLine
 10
174.4659600350606
 20
482.7624804030251
 30
0.0
 11
174.4659600350606
 21
478.7624804030251
 31
0.0
1001
GENIUS_GENODEF_13
1002
{
1000
HIER
1070
     0
1002
}
1002
{
1000
MANEDIT
1070
     0
1002
}
1002
{
1000
NOSEL
1070
     0
1002
}
1002
{
1000
BEHIND
1070
     0
1002
}
1002
{
1000
REACTOR
1002
}
1001
GENIUS_GENOBJ-N-CEN_13
1002
{
1000
OWNER
1000
GEN
1002
}
  0
LINE
  5
B5A
330
2
100
AcDbEntity
  8
0
100
AcDbLine
 10
174.4659600350606
 20
482.7624804030251
 30
0.0
 11
180.4659600350607
 21
482.7624804030251
 31
0.0
  0
LINE
  5
B5B
330
2
100
AcDbEntity
  8
0
100
AcDbLine
 10
155.4659600350607
 20
478.7624804030251
 30
0.0
 11
155.4659600350607
 21
470.7624804030252
 31
0.0
1001
GENIUS_GENODEF_13
1002
{
1000
HIER
1070
     0
1002
}
1002
{
1000
MANEDIT
1070
     0
1002
}
1002
{
1000
NOSEL
1070
     0
1002
}
1002
{
1000
BEHIND
1070
     0
1002
}
1002
{
1000
REACTOR
1002
}
1001
GENIUS_GENOBJ-N-CEN_13
1002
{
1000
OWNER
1000
GEN
1002
}
  0
INSERT
  5
B5C
330
2
100
AcDbEntity
  8
8
100
AcDbBlockReference
  2
*X5
 10
646.1018439363717
 20
-195.3711049586977
 30
0.0
 50
90.0
1001
GENIUS_GENODEF_13
1002
{
1000
HIER
1070
     0
1002
}
1002
{
1000
MANEDIT
1070
     0
1002
}
1002
{
1000
NOSEL
1070
     0
1002
}
1002
{
1000
BEHIND
1070
     0
1002
}
1002
{
1000
REACTOR
1002
}
1001
GENIUS_GENOBJ-N-HTC_13
1002
{
1000
OWNER
1000
GEN
1002
}
1001
GENIUS_GENHATCH_13
1002
{
1000
DATA
1040
45.0
1042
2.299999999999999
1000
_U
1070
     1
1011
171.6991466211913
1021
475.4354518114701
1031
0.0
1002
}
1002
{
1000
UCS
1010
0.0
1020
0.0
1030
0.0
1010
1.0
1020
0.0
1030
0.0
1010
0.0
1020
1.0
1030
0.0
1002
}
1001
ACAD
1000
HATCH
1002
{
1070
    19
1000
_U
1040
4.599999999999999
1040
0.7853981633974483
1070
     1
1002
}
  0
LINE
  5
B5E
330
2
100
AcDbEntity
  8
0
100
AcDbLine
 10
155.4659600350609
 20
478.7624804030251
 30
0.0
 11
174.4659600350606
 21
478.7624804030251
 31
0.0
  0
INSERT
  5
B5F
330
2
100
AcDbEntity
  8
8
100
AcDbBlockReference
  2
*X5
 10
-87.16992386625122
 20
-195.371104958697
 30
0.0
 41
-1.0
 50
270.0
1001
GENIUS_GENODEF_13
1002
{
1000
HIER
1070
     0
1002
}
1002
{
1000
MANEDIT
1070
     0
1002
}
1002
{
1000
NOSEL
1070
     0
1002
}
1002
{
1000
BEHIND
1070
     0
1002
}
1002
{
1000
REACTOR
1002
}
1001
GENIUS_GENOBJ-N-HTC_13
1002
{
1000
OWNER
1000
GEN
1002
}
1001
GENIUS_GENHATCH_13
1002
{
1000
DATA
1040
45.0
1042
2.299999999999999
1000
_U
1070
     1
1011
387.2327734489301
1021
475.4354518114701
1031
0.0
1002
}
1002
{
1000
UCS
1010
0.0
1020
0.0
1030
0.0
1010
1.0
1020
0.0
1030
0.0
1010
0.0
1020
1.0
1030
0.0
1002
}
1001
ACAD
1000
HATCH
1002
{
1070
    19
1000
_U
1040
4.599999999999999
1040
0.7853981633974483
1070
     1
1002
}
  0
LINE
  5
B61
330
2
100
AcDbEntity
  8
0
100
AcDbLine
 10
403.4659600350607
 20
478.7624804030251
 30
0.0
 11
384.4659600350607
 21
478.7624804030249
 31
0.0
  0
LINE
  5
B62
330
2
100
AcDbEntity
  8
0
100
AcDbLine
 10
378.4659600350619
 20
423.127992589328
 30
0.0
 11
379.8044278302796
 21
424.7231163928505
 31
0.0
  0
LINE
  5
B63
330
2
100
AcDbEntity
  8
0
100
AcDbLine
 10
378.4659600350619
 20
423.127992589328
 30
0.0
 11
379.1358330161397
 21
425.627992589329
 31
0.0
  0
LINE
  5
B64
330
2
100
AcDbEntity
  8
0
100
AcDbLine
 10
383.4659600350613
 20
433.1279925893285
 30
0.0
 11
378.4659600350615
 21
433.127992589328
 31
0.0
  0
LINE
  5
B65
330
2
100
AcDbEntity
  8
0
100
AcDbLine
 10
383.465960035061
 20
423.1279925893285
 30
0.0
 11
378.4659600350619
 21
423.127992589328
 31
0.0
  0
ARC
  5
B66
330
2
100
AcDbEntity
  8
0
100
AcDbCircle
 10
383.4659600350617
 20
428.1279925893285
 30
0.0
 40
5.0
100
AcDbArc
 50
222.9198987652565
 51
314.4270040008166
  0
LINE
  5
B68
330
2
100
AcDbEntity
  8
0
100
AcDbLine
 10
384.4659600350607
 20
482.7624804030249
 30
0.0
 11
384.4659600350607
 21
478.7624804030251
 31
0.0
1001
GENIUS_GENODEF_13
1002
{
1000
HIER
1070
     0
1002
}
1002
{
1000
MANEDIT
1070
     0
1002
}
1002
{
1000
NOSEL
1070
     0
1002
}
1002
{
1000
BEHIND
1070
     0
1002
}
1002
{
1000
REACTOR
1002
}
1001
GENIUS_GENOBJ-N-CEN_13
1002
{
1000
OWNER
1000
GEN
1002
}
  0
LINE
  5
B69
330
2
100
AcDbEntity
  8
0
100
AcDbLine
 10
384.4659600350607
 20
482.7624804030249
 30
0.0
 11
378.4659600350607
 21
482.7624804030249
 31
0.0
  0
LINE
  5
B6A
330
2
100
AcDbEntity
  8
0
100
AcDbLine
 10
403.4659600350607
 20
478.7624804030251
 30
0.0
 11
403.4659600350607
 21
470.7624804030252
 31
0.0
1001
GENIUS_GENODEF_13
1002
{
1000
HIER
1070
     0
1002
}
1002
{
1000
MANEDIT
1070
     0
1002
}
1002
{
1000
NOSEL
1070
     0
1002
}
1002
{
1000
BEHIND
1070
     0
1002
}
1002
{
1000
REACTOR
1002
}
1001
GENIUS_GENOBJ-N-CEN_13
1002
{
1000
OWNER
1000
GEN
1002
}
  0
LINE
  5
C31
330
2
100
AcDbEntity
  8
0A
100
AcDbLine
 10
378.4659600350624
 20
470.7624804030245
 30
0.0
 11
417.3579987093346
 21
470.7624804030245
 31
0.0
  0
ARC
  5
C4F
330
2
100
AcDbEntity
  8
0
100
AcDbCircle
 10
175.4659600350614
 20
428.1279925893203
 30
0.0
 40
5.0
100
AcDbArc
 50
225.5729959992097
 51
317.0801012347435
  0
HATCH
  5
C58
330
2
100
AcDbEntity
  8
8
100
AcDbHatch
 10
0.0
 20
0.0
 30
0.0
210
0.0
220
0.0
230
1.0
  2
_U
 70
     0
 71
     0
 91
        1
 92
        1
 93
        5
 72
     1
 10
180.4659600350619
 20
423.1279925893203
 11
179.7960870539837
 21
425.6279925893212
 72
     2
 10
175.4659600350613
 20
428.1279925893204
 40
4.999999999999766
 50
330.000000000009
 51
494.4270040007897
 73
     1
 72
     1
 10
171.9659600350624
 20
431.6987068035927
 11
171.9659600350624
 21
424.5572783750479
 72
     2
 10
175.4659600350614
 20
428.1279925893203
 40
4.999999999999989
 50
225.5729959992097
 51
317.0801012347435
 73
     1
 72
     1
 10
179.1274922398441
 20
424.7231163928427
 11
180.4659600350619
 21
423.1279925893203
 97
        0
 75
     0
 76
     0
 52
45.0
 41
3.679999999999999
 77
     1
 78
     2
 53
45.0
 43
0.0
 44
0.0
 45
-2.602152954766494
 46
2.602152954766494
 79
     0
 53
135.0
 43
0.0
 44
0.0
 45
-2.602152954766494
 46
-2.602152954766494
 79
     0
 98
        1
 10
0.0
 20
0.0
1001
GENIUS_GENODEF_13
1002
{
1000
HIER
1070
     0
1002
}
1002
{
1000
MANEDIT
1070
     0
1002
}
1002
{
1000
NOSEL
1070
     0
1002
}
1002
{
1000
BEHIND
1070
     0
1002
}
1002
{
1000
OTHER
1070
     0
1002
}
1002
{
1000
REACTOR
1002
}
1001
GENIUS_GENOBJ-N-HTC_13
1002
{
1000
OWNER
1000
GEN
1002
}
1001
GENIUS_GENHATCH_13
1002
{
1000
DATA
1040
45.0
1042
2.299999999999999
1000
_U
1070
     1
1011
175.8797152606794
1021
427.0872469013047
1031
0.0
1002
}
1002
{
1000
UCS
1010
0.0
1020
0.0
1030
0.0
1010
1.0
1020
0.0
1030
0.0
1010
0.0
1020
1.0
1030
0.0
1002
}
  0
ARC
  5
C5B
330
2
100
AcDbEntity
  8
0
100
AcDbCircle
 10
383.4659600350617
 20
428.1279925893285
 30
0.0
 40
5.0
100
AcDbArc
 50
45.57299599918342
 51
209.9999999999917
  0
HATCH
  5
C60
330
2
100
AcDbEntity
  8
8
100
AcDbHatch
 10
0.0
 20
0.0
 30
0.0
210
0.0
220
0.0
230
1.0
  2
_U
 70
     0
 71
     0
 91
        1
 92
        1
 93
        5
 72
     1
 10
379.1358330161391
 20
425.6279925893291
 11
378.4659600350626
 21
423.1279925893288
 72
     1
 10
378.4659600350626
 20
423.1279925893288
 11
379.8044278302796
 21
424.7231163928505
 72
     2
 10
383.4659600350617
 20
428.1279925893285
 40
4.999999999999942
 50
222.9198987652633
 51
314.4270040008161
 73
     1
 72
     1
 10
386.9659600350624
 20
424.5572783750577
 11
386.9659600350624
 21
431.6987068035992
 72
     2
 10
383.4659600350617
 20
428.1279925893285
 40
5.000000000000006
 50
45.57299599918342
 51
209.9999999999917
 73
     1
 97
        0
 75
     0
 76
     0
 52
45.0
 41
3.679999999999999
 77
     1
 78
     2
 53
45.0
 43
0.0
 44
0.0
 45
-2.602152954766494
 46
2.602152954766494
 79
     0
 53
135.0
 43
0.0
 44
0.0
 45
-2.602152954766494
 46
-2.602152954766494
 79
     0
 98
        1
 10
0.0
 20
0.0
1001
GENIUS_GENODEF_13
1002
{
1000
HIER
1070
     0
1002
}
1002
{
1000
MANEDIT
1070
     0
1002
}
1002
{
1000
NOSEL
1070
     0
1002
}
1002
{
1000
BEHIND
1070
     0
1002
}
1002
{
1000
OTHER
1070
     0
1002
}
1002
{
1000
REACTOR
1002
}
1001
GENIUS_GENOBJ-N-HTC_13
1002
{
1000
OWNER
1000
GEN
1002
}
1001
GENIUS_GENHATCH_13
1002
{
1000
DATA
1040
45.0
1042
2.299999999999999
1000
_U
1070
     1
1011
384.9207941399318
1021
429.2745188499544
1031
0.0
1002
}
1002
{
1000
UCS
1010
0.0
1020
0.0
1030
0.0
1010
1.0
1020
0.0
1030
0.0
1010
0.0
1020
1.0
1030
0.0
1002
}
  0
DIMENSION
  5
F40
330
2
100
AcDbEntity
  8
5
100
AcDbDimension
  2
*D6
 10
378.4659600350634
 20
364.4252005219755
 30
0.0
 11
321.518331707269
 21
364.4252005219755
 31
0.0
 70
   160
  1
%%c <>
 71
     5
 42
198.0
  3
GEN-ISO
100
AcDbAlignedDimension
 13
180.4659600350634
 23
405.0252005219755
 33
0.0
 14
378.4659600350634
 24
405.0252005219755
 34
0.0
100
AcDbRotatedDimension
1001
GENIUS_GENDTOL_13
1000

1000
h7
1000

1040
0.0
1001
ACAD
1000
DSTYLE
1002
{
1070
    40
1040
5.0
1002
}
  0
DIMENSION
  5
F53
330
2
100
AcDbEntity
  8
5
100
AcDbDimension
  2
*D7
 10
194.4659600350551
 20
640.0252015219756
 30
0.0
 11
279.4659600350551
 21
651.7752015219756
 31
0.0
 70
    32
  1
{\Fgeniso.shx;\U+25A1} 171
 71
     5
 42
170.0
  3
GEN-ISO
100
AcDbAlignedDimension
 13
364.4659600350551
 23
590.0252005219755
 33
0.0
 14
194.4659600350551
 24
590.0252005219689
 34
0.0
100
AcDbRotatedDimension
1001
ACAD
1000
DSTYLE
1002
{
1070
    40
1040
5.0
1002
}
1001
GENIUS_GENDTOL_13
1000

1000
h7
1000

1040
0.0
1000
{\Fgeniso.shx;\U+25A1} 171
  0
DIMENSION
  5
F54
330
2
100
AcDbEntity
  8
5
100
AcDbDimension
  2
*D8
 10
179.4659600350553
 20
690.0252005219755
 30
0.0
 11
279.4659600350552
 21
701.7769229629204
 31
0.0
 70
    32
  1
{\Fgeniso.shx;\U+25A1} <>
 71
     5
 42
199.9999999999998
  3
GEN-ISO
100
AcDbAlignedDimension
 13
379.4659600350551
 23
586.9252005219756
 33
0.0
 14
179.4659600350553
 24
585.2852158105787
 34
0.0
100
AcDbRotatedDimension
1001
ACAD
1000
DSTYLE
1002
{
1070
    40
1040
5.0
1002
}
1001
GENIUS_GENDTOL_13
1000

1000
h7
1000

1040
0.0
1000
{\Fgeniso.shx;\U+25A1} <>
  0
DIMENSION
  5
F6A
330
2
100
AcDbEntity
  8
5
100
AcDbDimension
  2
*D9
 10
479.4659610350552
 20
590.0252005219753
 30
0.0
 11
467.7142385941102
 21
627.8792851676447
 31
0.0
 70
    32
  1
<>
 71
     5
 42
20.0000000000548
  3
GEN-ISO
100
AcDbAlignedDimension
 13
425.465960035055
 23
570.0252005219205
 33
0.0
 14
376.4659600350358
 24
590.0252005219753
 34
0.0
 50
90.0
100
AcDbRotatedDimension
1001
ACAD
1000
DSTYLE
1002
{
1070
    40
1040
5.0
1002
}
1001
GENIUS_GENDTOL_13
1000

1000
h7
1000

1040
0.0
1000
<>
1001
GENIUS_DIMBRX_14
1000
50A0
1000
2CD4
1001
GENIUS_GENOBJ-N-DIMBRX_13
1002
{
1000
OWNER
1000
GEN
1002
}
1001
GENIUS_GENODEF_13
1002
{
1000
HIER
1070
     0
1002
}
1002
{
1000
MANEDIT
1070
     0
1002
}
1002
{
1000
NOSEL
1070
     0
1002
}
1002
{
1000
BEHIND
1070
     0
1002
}
1002
{
1000
REACTOR
1002
}
1001
GENIUS_GENOBJ-N-DIMBR_13
1002
{
1000
OWNER
1000
GEN
1002
}
1001
GENIUS_DIMBR_14
1000
2BAA
  0
DIMENSION
  5
F6B
330
2
100
AcDbEntity
  8
5
100
AcDbDimension
  2
*D10
 10
129.4659600350551
 20
740.2545451820445
 30
0.0
 11
274.2548895128541
 21
740.2545451820445
 31
0.0
 70
   160
  1
{\Fgeniso.shx;\U+25A1} <>
 71
     5
 42
300.0
  3
GEN-ISO
100
AcDbAlignedDimension
 13
429.465960035055
 23
566.0252005219205
 33
0.0
 14
129.4659600350551
 24
566.0252005219198
 34
0.0
100
AcDbRotatedDimension
1001
ACAD
1000
DSTYLE
1002
{
1070
    40
1040
5.0
1002
}
1001
GENIUS_GENDTOL_13
1000

1000
h7
1000

1040
0.0
1000
{\Fgeniso.shx;\U+25A1} <>
1001
GENIUS_DIMBRX_14
1000
50A0
1000
2CAB
1000
2BA9
1001
GENIUS_GENODEF_13
1002
{
1000
HIER
1070
     0
1002
}
1002
{
1000
MANEDIT
1070
     0
1002
}
1002
{
1000
NOSEL
1070
     0
1002
}
1002
{
1000
BEHIND
1070
     0
1002
}
1002
{
1000
REACTOR
1002
}
1001
GENIUS_GENOBJ-N-DIMBRX_13
1002
{
1000
OWNER
1000
GEN
1002
}
  0
DIMENSION
  5
F6C
330
2
100
AcDbEntity
  8
5
100
AcDbDimension
  2
*D11
 10
579.465960035055
 20
405.0252005219754
 30
0.0
 11
567.715960035055
 21
497.5252005219756
 31
0.0
 70
    32
  1
<>
 71
     5
 42
185.0
  3
GEN-ISO
100
AcDbAlignedDimension
 13
375.1247756668197
 23
590.0252005219755
 33
0.0
 14
378.4659600350624
 24
405.0252005219755
 34
0.0
 50
90.0
100
AcDbRotatedDimension
1001
ACAD
1000
DSTYLE
1002
{
1070
    40
1040
5.0
1002
}
1001
GENIUS_GENDTOL_13
1000

1000
h7
1000

1040
0.0
1000
<>
1001
GENIUS_GENODEF_13
1002
{
1000
HIER
1070
     0
1002
}
1002
{
1000
MANEDIT
1070
     0
1002
}
1002
{
1000
NOSEL
1070
     0
1002
}
1002
{
1000
BEHIND
1070
     0
1002
}
1002
{
1000
REACTOR
1002
}
1001
GENIUS_GENOBJ-N-DIMBR_13
1002
{
1000
OWNER
1000
GEN
1002
}
1001
GENIUS_DIMBR_14
1000
2BAA
  0
DIMENSION
  5
11A5
330
2
100
AcDbEntity
  8
5
100
AcDbDimension
  2
*D12
 10
71.9659600350624
 20
791.7693091204873
 30
0.0
 11
279.4659600350624
 21
791.7693091204873
 31
0.0
 70
   160
  1
%%c <>
 71
     5
 42
415.0
  3
GEN-ISO
100
AcDbAlignedDimension
 13
486.9659600350623
 23
450.9602087535621
 33
0.0
 14
71.96596003506238
 24
450.9602087535621
 34
0.0
100
AcDbRotatedDimension
1001
ACAD
1000
DSTYLE
1002
{
1070
    40
1040
5.0
1002
}
1001
GENIUS_GENDTOL_13
1000

1000
h7
1000

1040
0.0
1000
{\Fgeniso.shx;\U+25A1} <>
1001
GENIUS_DIMBRX_14
1000
50A0
1000
2CAB
1000
2BA9
1001
GENIUS_GENODEF_13
1002
{
1000
HIER
1070
     0
1002
}
1002
{
1000
MANEDIT
1070
     0
1002
}
1002
{
1000
NOSEL
1070
     0
1002
}
1002
{
1000
BEHIND
1070
     0
1002
}
1002
{
1000
REACTOR
1002
}
1001
GENIUS_GENOBJ-N-DIMBRX_13
1002
{
1000
OWNER
1000
GEN
1002
}
  0
DIMENSION
  5
1220
330
2
100
AcDbEntity
  8
5
100
AcDbDimension
  2
*D13
 10
-0.7942187338543817
 20
450.9602087535621
 30
0.0
 11
-0.79421873385445
 21
520.4927046377688
 31
0.0
 70
   160
  1
50 - 130
 71
     5
 42
139.0649917684134
  3
GEN-ISO
100
AcDbAlignedDimension
 13
182.5659600350561
 23
590.0252005219755
 33
0.0
 14
71.96596003506238
 24
450.9602087535621
 34
0.0
 50
90.0
100
AcDbRotatedDimension
1001
ACAD
1000
DSTYLE
1002
{
1070
    40
1040
5.0
1002
}
  0
DIMENSION
  5
1249
330
2
100
AcDbEntity
  8
5
100
AcDbDimension
  2
*D14
 10
-0.7942187338544339
 20
215.9602087535623
 30
0.0
 11
-12.54594117479934
 21
333.4602087535622
 31
0.0
 70
    32
 71
     5
 42
234.9999999999999
  3
GEN-ISO
100
AcDbAlignedDimension
 13
71.96596003506238
 23
450.9602087535621
 33
0.0
 14
224.2159600350623
 24
215.9602087535622
 34
0.0
 50
90.0
100
AcDbRotatedDimension
1001
ACAD
1000
DSTYLE
1002
{
1070
    40
1040
5.0
1002
}
  0
DIMENSION
  5
125F
330
2
100
AcDbEntity
  8
5
100
AcDbDimension
  2
*D15
 10
180.1340806920766
 20
215.9602087535623
 30
0.0
 11
180.1340806920766
 21
262.9602087535622
 31
0.0
 70
   160
 71
     5
 42
93.99999999999996
  3
GEN-ISO
100
AcDbAlignedDimension
 13
217.7684812886817
 23
309.9602087535622
 33
0.0
 14
224.2159600350623
 24
215.9602087535622
 34
0.0
 50
90.0
100
AcDbRotatedDimension
1001
ACAD
1000
DSTYLE
1002
{
1070
    40
1040
5.0
1002
}
  0
MTEXT
  5
12AC
330
2
100
AcDbEntity
  8
0
100
AcDbMText
 10
225.3564993018888
 20
202.9137932788565
 30
0.0
 40
10.0
 41
91.95351805827568
 71
     1
 72
     5
  1
DN 100
 73
     1
 44
1.0
1001
ACAD
1000
MTEXTBEGIN
1070
    73
1070
     1
1070
    44
1040
1.0
1070
    74
1070
     0
1000
MTEXTEND
  0
ENDSEC
  0
SECTION
  2
OBJECTS
  0
DICTIONARY
  5
8
330
0
100
AcDbDictionary
281
     1
  3
ACAD_2007HEADERVARS_RT
350
1314
  3
ACAD_COLOR
350
24
  3
ACAD_GROUP
350
20
  3
ACAD_LAYOUT
350
C
  3
ACAD_MATERIAL
350
23
  3
ACAD_MLEADERSTYLE
350
12EB
  3
ACAD_MLINESTYLE
350
21
  3
ACAD_PLOTSETTINGS
350
22
  3
ACAD_PLOTSTYLENAME
350
7
  3
ACAD_SCALELIST
350
12D9
  3
ACAD_TABLESTYLE
350
25
  3
ACAD_VISUALSTYLE
350
12C8
  3
ACDB_RECOMPOSE_DATA
350
1312
  3
AcDbVariableDictionary
350
506
  3
AcmDictionary
350
4AB
  3
AMG
350
49D
  3
AMGSNAPSETTINGS
350
549
  3
DWGPROPS
350
1313
  0
DICTIONARY
  5
C54
330
11
100
AcDbDictionary
280
     1
281
     1
  3
AMLAYER_GROUPCOLORS
360
C55
  0
DICTIONARY
  5
3
330
2
100
AcDbDictionary
280
     1
281
     1
  3
ACAD_SORTENTS
360
C2E
  0
DICTIONARY
  5
131B
330
1157
100
AcDbDictionary
280
     1
281
     1
  3
ACAD_MTEXT_RT
360
131C
  0
DICTIONARY
  5
131D
330
1160
100
AcDbDictionary
280
     1
281
     1
  3
ACAD_MTEXT_RT
360
131E
  0
DICTIONARY
  5
131F
330
1174
100
AcDbDictionary
280
     1
281
     1
  3
ACAD_MTEXT_RT
360
1320
  0
DICTIONARY
  5
1314
102
{ACAD_REACTORS
330
8
102
}
330
8
100
AcDbDictionary
281
     1
  3
DIMJOGANG
350
1315
  0
DICTIONARY
  5
24
102
{ACAD_REACTORS
330
8
102
}
330
8
100
AcDbDictionary
281
     1
  0
DICTIONARY
  5
20
102
{ACAD_REACTORS
330
8
102
}
330
8
100
AcDbDictionary
281
     1
  0
DICTIONARY
  5
C
102
{ACAD_REACTORS
330
8
102
}
330
8
100
AcDbDictionary
281
     1
  3
Layout1
350
10
  3
Model
350
B
  0
DICTIONARY
  5
23
102
{ACAD_REACTORS
330
8
102
}
330
8
100
AcDbDictionary
281
     1
  3
ByBlock
350
12B8
  3
ByLayer
350
12B0
  3
Global
350
12C0
  0
DICTIONARY
  5
12EB
102
{ACAD_REACTORS
330
8
102
}
330
8
100
AcDbDictionary
281
     1
  3
Standard
350
12EC
  0
DICTIONARY
  5
21
102
{ACAD_REACTORS
330
8
102
}
330
8
100
AcDbDictionary
281
     1
  3
STANDARD
350
26
  0
DICTIONARY
  5
22
102
{ACAD_REACTORS
330
8
102
}
330
8
100
AcDbDictionary
281
     1
  0
ACDBDICTIONARYWDFLT
  5
7
102
{ACAD_REACTORS
330
8
102
}
330
8
100
AcDbDictionary
281
     1
  3
Normal
350
6
100
AcDbDictionaryWithDefault
340
6
  0
DICTIONARY
  5
12D9
102
{ACAD_REACTORS
330
8
102
}
330
8
100
AcDbDictionary
281
     1
  3
A0
350
12DA
  3
A1
350
12DB
  3
A2
350
12DC
  3
A3
350
12DD
  3
A4
350
12DE
  3
A5
350
12DF
  3
A6
350
12E0
  3
A7
350
12E1
  3
A8
350
12E2
  3
A9
350
12E3
  3
B0
350
12E4
  3
B1
350
12E5
  3
B2
350
12E6
  3
B3
350
12E7
  3
B4
350
12E8
  3
B5
350
12E9
  3
B6
350
12EA
  0
DICTIONARY
  5
25
102
{ACAD_REACTORS
330
8
102
}
330
8
100
AcDbDictionary
281
     1
  3
Standard
350
27
  0
DICTIONARY
  5
12C8
102
{ACAD_REACTORS
330
8
102
}
330
8
100
AcDbDictionary
281
     1
  3
2dWireframe
350
12CE
  3
3D Hidden
350
12D0
  3
3dWireframe
350
12CF
  3
Basic
350
12CD
  3
Brighten
350
12D4
  3
ColorChange
350
12D8
  3
Conceptual
350
12D1
  3
Dim
350
12D3
  3
Facepattern
350
12D7
  3
Flat
350
12C9
  3
FlatWithEdges
350
12CA
  3
Gouraud
350
12CB
  3
GouraudWithEdges
350
12CC
  3
Linepattern
350
12D6
  3
Realistic
350
12D2
  3
Thicken
350
12D5
  0
XRECORD
  5
1312
102
{ACAD_REACTORS
330
8
102
}
330
8
100
AcDbXrecord
280
     1
 90
        1
330
27
  0
DICTIONARY
  5
506
102
{ACAD_REACTORS
330
8
102
}
330
8
100
AcDbDictionary
281
     1
  3
CANNOSCALE
350
130D
  3
CMLEADERSTYLE
350
130C
  3
CTABLESTYLE
350
507
  3
DIMASSOC
350
557
  3
HIDETEXT
350
556
  3
INDEXCTL
350
130F
  3
PROJECTNAME
350
558
  3
SORTENTS
350
130E
  0
DICTIONARY
  5
4AB
102
{ACAD_REACTORS
330
8
102
}
330
8
100
AcDbDictionary
281
     1
  3
AcmStdDictionary
350
4AC
  3
AMDTSECTSYM_ARROWCOLOR
350
53E
  0
DICTIONARY
  5
49D
102
{ACAD_REACTORS
330
8
102
}
330
8
100
AcDbDictionary
281
     1
  0
DICTIONARY
  5
549
102
{ACAD_REACTORS
330
8
102
}
330
8
100
AcDbDictionary
281
     1
  0
XRECORD
  5
1313
102
{ACAD_REACTORS
330
8
102
}
330
8
100
AcDbXrecord
280
     1
  1
DWGPROPS COOKIE
  2

  3

  4

  6

  7

  8
cschlotzhauer
  9

300
=
301
=
302
=
303
=
304
=
305
=
306
=
307
=
308
=
309
=
 40
0.780306099537037
 41
2450359.224152511
 42
2455223.592894861
  1

 90
        0
  0
DICTIONARY
  5
C55
102
{ACAD_REACTORS
330
C54
102
}
330
C54
100
AcDbDictionary
280
     1
281
     1
  0
SORTENTSTABLE
  5
C2E
102
{ACAD_REACTORS
330
3
102
}
330
3
100
AcDbSortentsTable
330
2
331
95
  5
95
331
19A
  5
19C
331
13B
  5
13D
331
9D
  5
9D
331
FC
  5
FE
331
9D1
  5
9D3
331
1A2
  5
1A4
331
B2F
  5
B31
331
9D9
  5
9DB
331
10C
  5
10E
331
9E1
  5
9E3
331
1BA
  5
1BC
331
AF0
  5
AF2
331
B3F
  5
B41
331
76
  5
76
331
DD
  5
DF
331
17B
  5
17D
331
124
  5
126
331
E5
  5
E7
331
1CA
  5
1CC
331
B57
  5
B59
331
B10
  5
B12
331
9BA
  5
9BC
331
1D2
  5
1D4
331
12C
  5
12E
331
ED
  5
EF
331
18B
  5
18D
331
B18
  5
B1A
331
9F9
  5
9FB
331
9C2
  5
9C4
331
B5F
  5
B63
331
193
  5
195
331
F5
  5
F7
331
134
  5
136
331
B20
  5
B22
331
9CA
  5
9CC
331
96
  5
96
331
19B
  5
19D
331
13C
  5
13E
331
9E
  5
9E
331
FD
  5
100
331
1E2
  5
9B5
331
B28
  5
B2A
331
9D2
  5
9D4
331
1A3
  5
1A5
331
D6
  5
D6
331
16C
  5
16E
331
AA9
  5
AAB
331
9DA
  5
9DC
331
B30
  5
B32
331
174
  5
176
331
10D
  5
10F
331
B38
  5
B3A
331
9E2
  5
9E4
331
1BB
  5
1BD
331
AF1
  5
AF3
331
C4F
  5
B5C
331
17C
  5
17E
331
77
  5
77
331
DE
  5
E0
331
11D
  5
120
331
1CB
  5
1CD
331
E6
  5
E8
331
125
  5
127
331
B11
  5
B13
331
9BB
  5
9BD
331
B58
  5
B5A
331
18C
  5
18E
331
EE
  5
F0
331
12D
  5
12F
331
1D3
  5
1D5
331
9FA
  5
9FC
331
9C3
  5
9C5
331
B19
  5
B1B
331
194
  5
196
331
135
  5
137
331
F6
  5
F8
331
B21
  5
B23
331
9CB
  5
9CD
331
B68
  5
C4F
331
97
  5
97
331
13D
  5
13F
331
FE
  5
102
331
19C
  5
19E
331
B29
  5
B2B
331
9D3
  5
9D5
331
50
  5
50
331
D7
  5
D7
331
16D
  5
16F
331
B31
  5
B33
331
9DB
  5
9DD
331
175
  5
177
331
10E
  5
110
331
B39
  5
B3B
331
1BC
  5
1BE
331
70
  5
70
331
DF
  5
E1
331
17D
  5
180
331
1C4
  5
1C6
331
126
  5
128
331
E7
  5
E9
331
1CC
  5
1CE
331
B59
  5
B5D
331
B12
  5
B14
331
9BC
  5
9BE
331
C58
  5
C5C
331
1D4
  5
1D6
331
18D
  5
18F
331
EF
  5
F1
331
12E
  5
130
331
C60
  5
C5F
331
B1A
  5
B1C
331
9C4
  5
9C6
331
B61
  5
B65
331
195
  5
197
331
F7
  5
F9
331
136
  5
138
331
B22
  5
B24
331
9CC
  5
9CE
331
B69
  5
C56
331
98
  5
98
331
19D
  5
19F
331
41
  5
41
331
9D4
  5
9D6
331
B2A
  5
B2C
331
16E
  5
170
331
107
  5
109
331
51
  5
51
331
C31
  5
DE
331
B32
  5
B34
331
9DC
  5
9DE
331
176
  5
178
331
10F
  5
111
331
B3A
  5
B3C
331
117
  5
119
331
1BD
  5
1BF
331
D8
  5
D8
331
71
  5
71
331
1C5
  5
1C7
331
17E
  5
181
331
E0
  5
E3
331
11F
  5
121
331
9B5
  5
9B7
331
B52
  5
B54
331
1CD
  5
1CF
331
186
  5
188
331
E8
  5
EB
331
127
  5
129
331
B13
  5
B15
331
9F4
  5
9F6
331
9BD
  5
9BF
331
B5A
  5
B5E
331
18E
  5
190
331
12F
  5
131
331
F0
  5
F2
331
1D5
  5
1D7
331
B62
  5
B66
331
9C5
  5
9C7
331
B1B
  5
B1D
331
196
  5
198
331
137
  5
139
331
B23
  5
B25
331
A1C
  5
A1E
331
9CD
  5
9CF
331
B6A
  5
C5B
331
F8
  5
FC
331
99
  5
99
331
19E
  5
1A0
331
100
  5
106
331
13F
  5
141
331
42
  5
42
331
B2B
  5
B2D
331
A24
  5
A26
331
9D5
  5
9D7
331
16F
  5
172
331
108
  5
10A
331
52
  5
52
331
B33
  5
B35
331
9DD
  5
9DF
331
1B6
  5
1B8
331
177
  5
179
331
110
  5
112
331
B3B
  5
B3D
331
1BE
  5
1C0
331
D9
  5
D9
331
118
  5
11A
331
72
  5
72
331
1C6
  5
1C8
331
E1
  5
E4
331
187
  5
189
331
128
  5
12A
331
E9
  5
EC
331
1CE
  5
1D0
331
9B6
  5
9B8
331
B0C
  5
B0E
331
B5B
  5
B5F
331
B14
  5
B16
331
9F5
  5
9F7
331
1D6
  5
1D8
331
18F
  5
191
331
F1
  5
F4
331
130
  5
132
331
9BE
  5
9C0
331
B1C
  5
B1E
331
197
  5
199
331
9C6
  5
9C8
331
B63
  5
B67
331
B24
  5
B26
331
A1D
  5
A1F
331
9CE
  5
9D0
331
F9
  5
FD
331
138
  5
13A
331
9A
  5
9A
331
19F
  5
1A1
331
A25
  5
A27
331
170
  5
173
331
109
  5
10B
331
9D6
  5
9D8
331
B2C
  5
B2E
331
B34
  5
B36
331
111
  5
117
331
1B7
  5
1B9
331
9DE
  5
9E0
331
1BF
  5
1C1
331
B3C
  5
B3E
331
6B
  5
6B
331
178
  5
17A
331
119
  5
11B
331
73
  5
73
331
1C7
  5
1C9
331
180
  5
186
331
121
  5
123
331
44E
  5
9B6
331
B0D
  5
B0F
331
9EE
  5
9F0
331
188
  5
18A
331
129
  5
12B
331
1CF
  5
1D1
331
9B7
  5
9B9
331
B54
  5
B56
331
C5B
  5
B76
331
B15
  5
B17
331
9F6
  5
9F8
331
190
  5
192
331
131
  5
133
331
F2
  5
F5
331
1D7
  5
1D9
331
9BF
  5
9C1
331
B5C
  5
B60
331
B64
  5
B68
331
9C7
  5
9C9
331
B1D
  5
B1F
331
B25
  5
B27
331
A1E
  5
A20
331
9CF
  5
9D1
331
198
  5
19A
331
139
  5
13B
331
9B
  5
9B
331
102
  5
107
331
1A0
  5
1A2
331
B2D
  5
B2F
331
A26
  5
A28
331
10A
  5
10C
331
9D7
  5
9D9
331
B35
  5
B37
331
1B8
  5
1BA
331
112
  5
118
331
9DF
  5
9E1
331
B3D
  5
B3F
331
AEE
  5
AF0
331
179
  5
17B
331
11A
  5
11D
331
1C0
  5
1C2
331
181
  5
187
331
122
  5
124
331
E3
  5
E5
331
1C8
  5
1CA
331
B55
  5
B57
331
B0E
  5
B10
331
9EF
  5
9F1
331
9B8
  5
9BA
331
189
  5
18B
331
12A
  5
12C
331
EB
  5
ED
331
1D0
  5
1D2
331
B16
  5
B18
331
9F7
  5
9F9
331
9C0
  5
9C2
331
1D8
  5
1E2
331
191
  5
193
331
132
  5
134
331
B1E
  5
B20
331
9C8
  5
9CA
331
B65
  5
B69
331
B26
  5
B28
331
A1F
  5
A21
331
199
  5
19B
331
9C
  5
9C
331
13A
  5
13C
331
9D0
  5
9D2
331
1A1
  5
1A3
331
B2E
  5
B30
331
9D8
  5
9DA
331
A27
  5
A29
331
172
  5
174
331
55
  5
55
331
10B
  5
10D
331
9E0
  5
9E2
331
1B9
  5
1BB
331
B3E
  5
B40
331
AEF
  5
AF1
331
1C1
  5
1C3
331
75
  5
75
331
11B
  5
11F
331
17A
  5
17C
331
1C9
  5
1CB
331
123
  5
125
331
E4
  5
E6
331
B0F
  5
B11
331
9B9
  5
9BB
331
B56
  5
B58
331
18A
  5
18C
331
EC
  5
EE
331
12B
  5
12D
331
1D1
  5
1D3
331
B17
  5
B19
331
9F8
  5
9FA
331
9C1
  5
9C3
331
B5E
  5
B62
331
192
  5
194
331
133
  5
135
331
F4
  5
F6
331
1D9
  5
44E
331
B66
  5
B6A
331
B1F
  5
B21
331
9C9
  5
9CB
331
B27
  5
B29
  0
XRECORD
  5
131C
102
{ACAD_REACTORS
330
131B
102
}
330
131B
100
AcDbXrecord
280
     1
 40
25125.0
  1
{\Fgeniso.shx;\U+25A1} 171
  0
XRECORD
  5
131E
102
{ACAD_REACTORS
330
131D
102
}
330
131D
100
AcDbXrecord
280
     1
 40
24948.0
  1
{\Fgeniso.shx;\U+25A1} 200
  0
XRECORD
  5
1320
102
{ACAD_REACTORS
330
131F
102
}
330
131F
100
AcDbXrecord
280
     1
 40
24972.0
  1
{\Fgeniso.shx;\U+25A1} 300
  0
XRECORD
  5
1315
102
{ACAD_REACTORS
330
1314
102
}
330
1314
100
AcDbXrecord
280
     1
 40
1.570796326794896
  0
LAYOUT
  5
10
102
{ACAD_XDICTIONARY
360
1318
102
}
102
{ACAD_REACTORS
330
C
102
}
330
C
100
AcDbPlotSettings
  1

  2
C:\Programme\Acadm 2000i\plotters\PH36.pc3
  4

  6

 40
0.0
 41
0.0
 42
0.0
 43
0.0
 44
0.0
 45
0.0
 46
0.0
 47
0.0
 48
0.0
 49
0.0
140
0.0
141
0.0
142
1.0
143
1.0
 70
   688
 72
     0
 73
     0
 74
     5
  7
monochrome.ctb
 75
    16
147
1.0
148
0.0
149
0.0
100
AcDbLayout
  1
Layout1
 70
     1
 71
     1
 10
0.0
 20
0.0
 11
12.0
 21
9.0
 12
0.0
 22
0.0
 32
0.0
 14
1.000000000000000E+20
 24
1.000000000000000E+20
 34
1.000000000000000E+20
 15
-1.000000000000000E+20
 25
-1.000000000000000E+20
 35
-1.000000000000000E+20
146
0.0
 13
0.0
 23
0.0
 33
0.0
 16
1.0
 26
0.0
 36
0.0
 17
0.0
 27
1.0
 37
0.0
 76
     0
330
D
  0
LAYOUT
  5
B
102
{ACAD_XDICTIONARY
360
1316
102
}
102
{ACAD_REACTORS
330
C
102
}
330
C
100
AcDbPlotSettings
  1

  2
C:\Programme\Acadm 2000i\plotters\PH36.pc3
  4

  6

 40
0.0
 41
0.0
 42
0.0
 43
0.0
 44
0.0
 45
0.0
 46
0.0
 47
0.0
 48
0.0
 49
0.0
140
0.0
141
0.0
142
1.0
143
1.0
 70
  1712
 72
     0
 73
     0
 74
     0
  7
monochrome.ctb
 75
     0
147
1.0
148
0.0
149
0.0
100
AcDbLayout
  1
Model
 70
     1
 71
     0
 10
0.0
 20
0.0
 11
12.0
 21
9.0
 12
0.0
 22
0.0
 32
0.0
 14
0.0
 24
0.0
 34
0.0
 15
0.0
 25
0.0
 35
0.0
146
0.0
 13
0.0
 23
0.0
 33
0.0
 16
1.0
 26
0.0
 36
0.0
 17
0.0
 27
1.0
 37
0.0
 76
     0
330
2
331
12AE
  0
MATERIAL
  5
12B8
102
{ACAD_XDICTIONARY
360
12B9
102
}
102
{ACAD_REACTORS
330
23
102
}
330
23
100
AcDbMaterial
  1
ByBlock
 72
     0
 43
0.0208333333333333
 43
0.0
 43
0.0
 43
0.0
 43
0.0
 43
0.0208333333333333
 43
0.0
 43
0.0
 43
0.0
 43
0.0
 43
1.0
 43
0.0
 43
0.0
 43
0.0
 43
0.0
 43
1.0
 77
     0
 47
0.0208333333333333
 47
0.0
 47
0.0
 47
0.0
 47
0.0
 47
0.0208333333333333
 47
0.0
 47
0.0
 47
0.0
 47
0.0
 47
1.0
 47
0.0
 47
0.0
 47
0.0
 47
0.0
 47
1.0
171
     0
 49
0.0208333333333333
 49
0.0
 49
0.0
 49
0.0
 49
0.0
 49
0.0208333333333333
 49
0.0
 49
0.0
 49
0.0
 49
0.0
 49
1.0
 49
0.0
 49
0.0
 49
0.0
 49
0.0
 49
1.0
175
     0
142
0.0208333333333333
142
0.0
142
0.0
142
0.0
142
0.0
142
0.0208333333333333
142
0.0
142
0.0
142
0.0
142
0.0
142
1.0
142
0.0
142
0.0
142
0.0
142
0.0
142
1.0
179
     0
144
0.0208333333333333
144
0.0
144
0.0
144
0.0
144
0.0
144
0.0208333333333333
144
0.0
144
0.0
144
0.0
144
0.0
144
1.0
144
0.0
144
0.0
144
0.0
144
0.0
144
1.0
147
0.0208333333333333
147
0.0
147
0.0
147
0.0
147
0.0
147
0.0208333333333333
147
0.0
147
0.0
147
0.0
147
0.0
147
1.0
147
0.0
147
0.0
147
0.0
147
0.0
147
1.0
  0
MATERIAL
  5
12B0
102
{ACAD_XDICTIONARY
360
12B1
102
}
102
{ACAD_REACTORS
330
23
102
}
330
23
100
AcDbMaterial
  1
ByLayer
 72
     0
 43
0.0208333333333333
 43
0.0
 43
0.0
 43
0.0
 43
0.0
 43
0.0208333333333333
 43
0.0
 43
0.0
 43
0.0
 43
0.0
 43
1.0
 43
0.0
 43
0.0
 43
0.0
 43
0.0
 43
1.0
 77
     0
 47
0.0208333333333333
 47
0.0
 47
0.0
 47
0.0
 47
0.0
 47
0.0208333333333333
 47
0.0
 47
0.0
 47
0.0
 47
0.0
 47
1.0
 47
0.0
 47
0.0
 47
0.0
 47
0.0
 47
1.0
171
     0
 49
0.0208333333333333
 49
0.0
 49
0.0
 49
0.0
 49
0.0
 49
0.0208333333333333
 49
0.0
 49
0.0
 49
0.0
 49
0.0
 49
1.0
 49
0.0
 49
0.0
 49
0.0
 49
0.0
 49
1.0
175
     0
142
0.0208333333333333
142
0.0
142
0.0
142
0.0
142
0.0
142
0.0208333333333333
142
0.0
142
0.0
142
0.0
142
0.0
142
1.0
142
0.0
142
0.0
142
0.0
142
0.0
142
1.0
179
     0
144
0.0208333333333333
144
0.0
144
0.0
144
0.0
144
0.0
144
0.0208333333333333
144
0.0
144
0.0
144
0.0
144
0.0
144
1.0
144
0.0
144
0.0
144
0.0
144
0.0
144
1.0
147
0.0208333333333333
147
0.0
147
0.0
147
0.0
147
0.0
147
0.0208333333333333
147
0.0
147
0.0
147
0.0
147
0.0
147
1.0
147
0.0
147
0.0
147
0.0
147
0.0
147
1.0
  0
MATERIAL
  5
12C0
102
{ACAD_XDICTIONARY
360
12C1
102
}
102
{ACAD_REACTORS
330
23
102
}
330
23
100
AcDbMaterial
  1
Global
 72
     0
 43
0.0208333333333333
 43
0.0
 43
0.0
 43
0.0
 43
0.0
 43
0.0208333333333333
 43
0.0
 43
0.0
 43
0.0
 43
0.0
 43
1.0
 43
0.0
 43
0.0
 43
0.0
 43
0.0
 43
1.0
 77
     0
 47
0.0208333333333333
 47
0.0
 47
0.0
 47
0.0
 47
0.0
 47
0.0208333333333333
 47
0.0
 47
0.0
 47
0.0
 47
0.0
 47
1.0
 47
0.0
 47
0.0
 47
0.0
 47
0.0
 47
1.0
171
     0
 49
0.0208333333333333
 49
0.0
 49
0.0
 49
0.0
 49
0.0
 49
0.0208333333333333
 49
0.0
 49
0.0
 49
0.0
 49
0.0
 49
1.0
 49
0.0
 49
0.0
 49
0.0
 49
0.0
 49
1.0
175
     0
142
0.0208333333333333
142
0.0
142
0.0
142
0.0
142
0.0
142
0.0208333333333333
142
0.0
142
0.0
142
0.0
142
0.0
142
1.0
142
0.0
142
0.0
142
0.0
142
0.0
142
1.0
179
     0
144
0.0208333333333333
144
0.0
144
0.0
144
0.0
144
0.0
144
0.0208333333333333
144
0.0
144
0.0
144
0.0
144
0.0
144
1.0
144
0.0
144
0.0
144
0.0
144
0.0
144
1.0
147
0.0208333333333333
147
0.0
147
0.0
147
0.0
147
0.0
147
0.0208333333333333
147
0.0
147
0.0
147
0.0
147
0.0
147
1.0
147
0.0
147
0.0
147
0.0
147
0.0
147
1.0
  0
MLEADERSTYLE
  5
12EC
102
{ACAD_REACTORS
330
12EB
102
}
330
12EB
100
AcDbMLeaderStyle
170
     2
171
     1
172
     0
 90
        2
 40
0.0
 41
0.0
173
     1
 91
-1056964608
340
16
 92
       -2
290
     1
 42
2.0
291
     1
 43
0.36
  3
Standard
 44
4.0
300

342
13
174
     1
178
     6
175
     1
176
     0
 93
-1056964608
 45
4.0
292
     0
297
     0
 46
4.0
 94
-1056964608
 47
1.0
 49
1.0
140
1.0
293
     1
141
0.0
294
     1
177
     0
142
1.0
295
     0
296
     0
143
0.125
1001
ACAD_MLEADERVER
1070
     2
  0
MLINESTYLE
  5
26
102
{ACAD_REACTORS
330
21
102
}
330
21
100
AcDbMlineStyle
  2
STANDARD
 70
     0
  3

 62
     0
 51
90.0
 52
90.0
 71
     2
 49
0.5
 62
   256
  6
BYLAYER
 49
-0.5
 62
   256
  6
BYLAYER
  0
ACDBPLACEHOLDER
  5
6
102
{ACAD_REACTORS
330
7
102
}
330
7
  0
SCALE
  5
12DA
102
{ACAD_REACTORS
330
12D9
102
}
330
12D9
100
AcDbScale
 70
     0
300
1:1
140
1.0
141
1.0
290
     1
  0
SCALE
  5
12DB
102
{ACAD_REACTORS
330
12D9
102
}
330
12D9
100
AcDbScale
 70
     0
300
1:2
140
1.0
141
2.0
290
     0
  0
SCALE
  5
12DC
102
{ACAD_REACTORS
330
12D9
102
}
330
12D9
100
AcDbScale
 70
     0
300
1:4
140
1.0
141
4.0
290
     0
  0
SCALE
  5
12DD
102
{ACAD_REACTORS
330
12D9
102
}
330
12D9
100
AcDbScale
 70
     0
300
1:5
140
1.0
141
5.0
290
     0
  0
SCALE
  5
12DE
102
{ACAD_REACTORS
330
12D9
102
}
330
12D9
100
AcDbScale
 70
     0
300
1:8
140
1.0
141
8.0
290
     0
  0
SCALE
  5
12DF
102
{ACAD_REACTORS
330
12D9
102
}
330
12D9
100
AcDbScale
 70
     0
300
1:10
140
1.0
141
10.0
290
     0
  0
SCALE
  5
12E0
102
{ACAD_REACTORS
330
12D9
102
}
330
12D9
100
AcDbScale
 70
     0
300
1:16
140
1.0
141
16.0
290
     0
  0
SCALE
  5
12E1
102
{ACAD_REACTORS
330
12D9
102
}
330
12D9
100
AcDbScale
 70
     0
300
1:20
140
1.0
141
20.0
290
     0
  0
SCALE
  5
12E2
102
{ACAD_REACTORS
330
12D9
102
}
330
12D9
100
AcDbScale
 70
     0
300
1:30
140
1.0
141
30.0
290
     0
  0
SCALE
  5
12E3
102
{ACAD_REACTORS
330
12D9
102
}
330
12D9
100
AcDbScale
 70
     0
300
1:40
140
1.0
141
40.0
290
     0
  0
SCALE
  5
12E4
102
{ACAD_REACTORS
330
12D9
102
}
330
12D9
100
AcDbScale
 70
     0
300
1:50
140
1.0
141
50.0
290
     0
  0
SCALE
  5
12E5
102
{ACAD_REACTORS
330
12D9
102
}
330
12D9
100
AcDbScale
 70
     0
300
1:100
140
1.0
141
100.0
290
     0
  0
SCALE
  5
12E6
102
{ACAD_REACTORS
330
12D9
102
}
330
12D9
100
AcDbScale
 70
     0
300
2:1
140
2.0
141
1.0
290
     0
  0
SCALE
  5
12E7
102
{ACAD_REACTORS
330
12D9
102
}
330
12D9
100
AcDbScale
 70
     0
300
4:1
140
4.0
141
1.0
290
     0
  0
SCALE
  5
12E8
102
{ACAD_REACTORS
330
12D9
102
}
330
12D9
100
AcDbScale
 70
     0
300
8:1
140
8.0
141
1.0
290
     0
  0
SCALE
  5
12E9
102
{ACAD_REACTORS
330
12D9
102
}
330
12D9
100
AcDbScale
 70
     0
300
10:1
140
10.0
141
1.0
290
     0
  0
SCALE
  5
12EA
102
{ACAD_REACTORS
330
12D9
102
}
330
12D9
100
AcDbScale
 70
     0
300
100:1
140
100.0
141
1.0
290
     0
  0
TABLESTYLE
  5
27
102
{ACAD_XDICTIONARY
360
1310
102
}
102
{ACAD_REACTORS
330
25
102
}
330
25
100
AcDbTableStyle
  3
Standard
 70
     0
 71
     0
 40
1.5
 41
1.5
280
     0
281
     0
  7
STANDARD
140
4.5
170
     2
 62
     0
 63
     7
283
     0
274
    -2
284
     1
 64
     0
275
    -2
285
     1
 65
     0
276
    -2
286
     1
 66
     0
277
    -2
287
     1
 67
     0
278
    -2
288
     1
 68
     0
279
    -2
289
     1
 69
     0
  7
STANDARD
140
6.0
170
     5
 62
     0
 63
     7
283
     0
274
    -2
284
     1
 64
     0
275
    -2
285
     1
 65
     0
276
    -2
286
     1
 66
     0
277
    -2
287
     1
 67
     0
278
    -2
288
     1
 68
     0
279
    -2
289
     1
 69
     0
  7
STANDARD
140
4.5
170
     5
 62
     0
 63
     7
283
     0
274
    -2
284
     1
 64
     0
275
    -2
285
     1
 65
     0
276
    -2
286
     1
 66
     0
277
    -2
287
     1
 67
     0
278
    -2
288
     1
 68
     0
279
    -2
289
     1
 69
     0
  0
VISUALSTYLE
  5
12CE
102
{ACAD_REACTORS
330
12C8
102
}
330
12C8
100
AcDbVisualStyle
  2
2dWireframe
 70
     4
 71
     0
 72
     2
 73
     0
 90
        0
 40
-0.6
 41
-30.0
 62
     5
 63
     7
 74
     1
 91
        4
 64
     7
 65
   257
 75
     1
175
     1
 42
1.0
 92
        0
 66
   257
 43
1.0
 76
     1
 77
     6
 78
     2
 67
     7
 79
     5
170
     0
171
     0
290
     0
174
     0
 93
        1
 44
0.0
173
     0
291
     0
 45
0.0
1001
ACAD
1000
AcDbSavedByObjectVersion
1070
     0
  0
VISUALSTYLE
  5
12D0
102
{ACAD_REACTORS
330
12C8
102
}
330
12C8
100
AcDbVisualStyle
  2
3D Hidden
 70
     6
 71
     1
 72
     2
 73
     2
 90
        0
 40
-0.6
 41
-30.0
 62
     5
 63
     7
 74
     2
 91
        2
 64
     7
 65
   257
 75
     2
175
     1
 42
40.0
 92
        0
 66
   257
 43
1.0
 76
     1
 77
     6
 78
     2
 67
     7
 79
     3
170
     0
171
     0
290
     0
174
     0
 93
        1
 44
0.0
173
     0
291
     0
 45
0.0
1001
ACAD
1000
AcDbSavedByObjectVersion
1070
     0
  0
VISUALSTYLE
  5
12CF
102
{ACAD_REACTORS
330
12C8
102
}
330
12C8
100
AcDbVisualStyle
  2
3dWireframe
 70
     5
 71
     0
 72
     2
 73
     0
 90
        0
 40
-0.6
 41
-30.0
 62
     5
 63
     7
 74
     1
 91
        4
 64
     7
 65
   257
 75
     1
175
     1
 42
1.0
 92
        0
 66
   257
 43
1.0
 76
     1
 77
     6
 78
     2
 67
     7
 79
     5
170
     0
171
     0
290
     0
174
     0
 93
        1
 44
0.0
173
     0
291
     0
 45
0.0
1001
ACAD
1000
AcDbSavedByObjectVersion
1070
     0
  0
VISUALSTYLE
  5
12CD
102
{ACAD_REACTORS
330
12C8
102
}
330
12C8
100
AcDbVisualStyle
  2
Basic
 70
     7
 71
     1
 72
     0
 73
     1
 90
        0
 40
-0.6
 41
-30.0
 62
     5
 63
     7
 74
     0
 91
        4
 64
     7
 65
   257
 75
     1
175
     1
 42
1.0
 92
        8
 66
     7
 43
1.0
 76
     1
 77
     6
 78
     2
 67
     7
 79
     5
170
     0
171
     0
290
     0
174
     0
 93
        1
 44
0.0
173
     0
291
     1
 45
0.0
1001
ACAD
1000
AcDbSavedByObjectVersion
1070
     0
  0
VISUALSTYLE
  5
12D4
102
{ACAD_REACTORS
330
12C8
102
}
330
12C8
100
AcDbVisualStyle
  2
Brighten
 70
    12
 71
     2
 72
     2
 73
     0
 90
        0
 40
-0.6
 41
-30.0
 62
     5
 63
     7
 74
     1
 91
        4
 64
     7
 65
   257
 75
     1
175
     1
 42
1.0
 92
        8
 66
     7
 43
1.0
 76
     1
 77
     6
 78
     2
 67
     7
 79
     5
170
     0
171
     0
290
     0
174
     0
 93
        1
 44
50.0
173
     0
291
     1
 45
0.0
1001
ACAD
1000
AcDbSavedByObjectVersion
1070
     0
  0
VISUALSTYLE
  5
12D8
102
{ACAD_REACTORS
330
12C8
102
}
330
12C8
100
AcDbVisualStyle
  2
ColorChange
 70
    16
 71
     2
 72
     2
 73
     3
 90
        0
 40
-0.6
 41
-30.0
 62
     5
 63
     8
 74
     1
 91
        4
 64
     7
 65
   257
 75
     1
175
     1
 42
1.0
 92
        8
 66
     8
 43
1.0
 76
     1
 77
     6
 78
     2
 67
     7
 79
     5
170
     0
171
     0
290
     0
174
     0
 93
        1
 44
0.0
173
     0
291
     1
 45
0.0
1001
ACAD
1000
AcDbSavedByObjectVersion
1070
     0
  0
VISUALSTYLE
  5
12D1
102
{ACAD_REACTORS
330
12C8
102
}
330
12C8
100
AcDbVisualStyle
  2
Conceptual
 70
     9
 71
     3
 72
     2
 73
     0
 90
        0
 40
-0.6
 41
-30.0
 62
     5
 63
     7
 74
     2
 91
        2
 64
     7
 65
   257
 75
     1
175
     1
 42
40.0
 92
        8
 66
     7
 43
1.0
 76
     1
 77
     6
 78
     2
 67
     7
 79
     3
170
     0
171
     0
290
     0
174
     0
 93
        1
 44
0.0
173
     0
291
     0
 45
0.0
1001
ACAD
1000
AcDbSavedByObjectVersion
1070
     0
  0
VISUALSTYLE
  5
12D3
102
{ACAD_REACTORS
330
12C8
102
}
330
12C8
100
AcDbVisualStyle
  2
Dim
 70
    11
 71
     2
 72
     2
 73
     0
 90
        0
 40
-0.6
 41
-30.0
 62
     5
 63
     7
 74
     1
 91
        4
 64
     7
 65
   257
 75
     1
175
     1
 42
1.0
 92
        8
 66
     7
 43
1.0
 76
     1
 77
     6
 78
     2
 67
     7
 79
     5
170
     0
171
     0
290
     0
174
     0
 93
        1
 44
-50.0
173
     0
291
     1
 45
0.0
1001
ACAD
1000
AcDbSavedByObjectVersion
1070
     0
  0
VISUALSTYLE
  5
12D7
102
{ACAD_REACTORS
330
12C8
102
}
330
12C8
100
AcDbVisualStyle
  2
Facepattern
 70
    15
 71
     2
 72
     2
 73
     0
 90
        0
 40
-0.6
 41
-30.0
 62
     5
 63
     7
 74
     1
 91
        4
 64
     7
 65
   257
 75
     1
175
     1
 42
1.0
 92
        8
 66
     7
 43
1.0
 76
     1
 77
     6
 78
     2
 67
     7
 79
     5
170
     0
171
     0
290
     0
174
     0
 93
        1
 44
0.0
173
     0
291
     1
 45
0.0
1001
ACAD
1000
AcDbSavedByObjectVersion
1070
     0
  0
VISUALSTYLE
  5
12C9
102
{ACAD_REACTORS
330
12C8
102
}
330
12C8
100
AcDbVisualStyle
  2
Flat
 70
     0
 71
     2
 72
     1
 73
     1
 90
        2
 40
-0.6
 41
30.0
 62
     5
 63
     7
 74
     0
 91
        4
 64
     7
 65
   257
 75
     1
175
     1
 42
1.0
 92
        8
 66
     7
 43
1.0
 76
     1
 77
     6
 78
     2
 67
     7
 79
     5
170
     0
171
     0
290
     0
174
     0
 93
       13
 44
0.0
173
     0
291
     1
 45
0.0
1001
ACAD
1000
AcDbSavedByObjectVersion
1070
     0
  0
VISUALSTYLE
  5
12CA
102
{ACAD_REACTORS
330
12C8
102
}
330
12C8
100
AcDbVisualStyle
  2
FlatWithEdges
 70
     1
 71
     2
 72
     1
 73
     1
 90
        2
 40
-0.6
 41
30.0
 62
     5
 63
     7
 74
     1
 91
        4
 64
     7
 65
   257
 75
     1
175
     1
 42
1.0
 92
        0
 66
   257
 43
1.0
 76
     1
 77
     6
 78
     2
 67
     7
 79
     5
170
     0
171
     0
290
     0
174
     0
 93
       13
 44
0.0
173
     0
291
     1
 45
0.0
1001
ACAD
1000
AcDbSavedByObjectVersion
1070
     0
  0
VISUALSTYLE
  5
12CB
102
{ACAD_REACTORS
330
12C8
102
}
330
12C8
100
AcDbVisualStyle
  2
Gouraud
 70
     2
 71
     2
 72
     2
 73
     1
 90
        2
 40
-0.6
 41
30.0
 62
     5
 63
     7
 74
     0
 91
        4
 64
     7
 65
   257
 75
     1
175
     1
 42
1.0
 92
        0
 66
     7
 43
1.0
 76
     1
 77
     6
 78
     2
 67
     7
 79
     5
170
     0
171
     0
290
     0
174
     0
 93
       13
 44
0.0
173
     0
291
     1
 45
0.0
1001
ACAD
1000
AcDbSavedByObjectVersion
1070
     0
  0
VISUALSTYLE
  5
12CC
102
{ACAD_REACTORS
330
12C8
102
}
330
12C8
100
AcDbVisualStyle
  2
GouraudWithEdges
 70
     3
 71
     2
 72
     2
 73
     1
 90
        2
 40
-0.6
 41
30.0
 62
     5
 63
     7
 74
     1
 91
        4
 64
     7
 65
   257
 75
     1
175
     1
 42
1.0
 92
        0
 66
   257
 43
1.0
 76
     1
 77
     6
 78
     2
 67
     7
 79
     5
170
     0
171
     0
290
     0
174
     0
 93
       13
 44
0.0
173
     0
291
     1
 45
0.0
1001
ACAD
1000
AcDbSavedByObjectVersion
1070
     0
  0
VISUALSTYLE
  5
12D6
102
{ACAD_REACTORS
330
12C8
102
}
330
12C8
100
AcDbVisualStyle
  2
Linepattern
 70
    14
 71
     2
 72
     2
 73
     0
 90
        0
 40
-0.6
 41
-30.0
 62
     5
 63
     7
 74
     1
 91
        4
 64
     7
 65
   257
 75
     7
175
     7
 42
1.0
 92
        8
 66
     7
 43
1.0
 76
     1
 77
     6
 78
     2
 67
     7
 79
     5
170
     0
171
     0
290
     0
174
     0
 93
        1
 44
0.0
173
     0
291
     1
 45
0.0
1001
ACAD
1000
AcDbSavedByObjectVersion
1070
     0
  0
VISUALSTYLE
  5
12D2
102
{ACAD_REACTORS
330
12C8
102
}
330
12C8
100
AcDbVisualStyle
  2
Realistic
 70
     8
 71
     2
 72
     2
 73
     0
 90
        0
 40
-0.6
 41
-30.0
 62
     5
 63
     7
 74
     1
 91
        0
 64
     7
 65
   257
 75
     1
175
     1
 42
1.0
 92
        8
 66
     8
 43
1.0
 76
     1
 77
     6
 78
     2
 67
     7
 79
     5
170
     0
171
     0
290
     0
174
     0
 93
       13
 44
0.0
173
     0
291
     0
 45
0.0
1001
ACAD
1000
AcDbSavedByObjectVersion
1070
     0
  0
VISUALSTYLE
  5
12D5
102
{ACAD_REACTORS
330
12C8
102
}
330
12C8
100
AcDbVisualStyle
  2
Thicken
 70
    13
 71
     2
 72
     2
 73
     0
 90
        0
 40
-0.6
 41
-30.0
 62
     5
 63
     7
 74
     1
 91
        4
 64
     7
 65
   257
 75
     1
175
     1
 42
1.0
 92
       12
 66
     7
 43
1.0
 76
     1
 77
     6
 78
     2
 67
     7
 79
     5
170
     0
171
     0
290
     0
174
     0
 93
        1
 44
0.0
173
     0
291
     1
 45
0.0
1001
ACAD
1000
AcDbSavedByObjectVersion
1070
     0
  0
DICTIONARYVAR
  5
130D
102
{ACAD_REACTORS
330
506
102
}
330
506
100
DictionaryVariables
280
     0
  1
1:1
  0
DICTIONARYVAR
  5
130C
102
{ACAD_REACTORS
330
506
102
}
330
506
100
DictionaryVariables
280
     0
  1
STANDARD
  0
DICTIONARYVAR
  5
507
102
{ACAD_REACTORS
330
506
102
}
330
506
100
DictionaryVariables
280
     0
  1
STANDARD
  0
DICTIONARYVAR
  5
557
102
{ACAD_REACTORS
330
506
102
}
330
506
100
DictionaryVariables
280
     0
  1
1
  0
DICTIONARYVAR
  5
556
102
{ACAD_REACTORS
330
506
102
}
330
506
100
DictionaryVariables
280
     0
  1
1
  0
DICTIONARYVAR
  5
130F
102
{ACAD_REACTORS
330
506
102
}
330
506
100
DictionaryVariables
280
     0
  1
0
  0
DICTIONARYVAR
  5
558
102
{ACAD_REACTORS
330
506
102
}
330
506
100
DictionaryVariables
280
     0
  1

  0
DICTIONARYVAR
  5
130E
102
{ACAD_REACTORS
330
506
102
}
330
506
100
DictionaryVariables
280
     0
  1
127
  0
DICTIONARY
  5
4AC
102
{ACAD_REACTORS
330
4AB
102
}
330
4AB
100
AcDbDictionary
281
     1
  0
XRECORD
  5
53E
102
{ACAD_REACTORS
330
4AB
102
}
330
4AB
100
AcDbXrecord
280
     1
 90
-1023410169
  0
DICTIONARY
  5
1318
330
10
100
AcDbDictionary
280
     1
281
     1
  3
ACAD_XREC_ROUNDTRIP
360
1319
  0
DICTIONARY
  5
1316
330
B
100
AcDbDictionary
280
     1
281
     1
  3
ACAD_XREC_ROUNDTRIP
360
1317
  0
DICTIONARY
  5
12B9
330
12B8
100
AcDbDictionary
280
     1
281
     1
  3
ACAD_XREC_ROUNDTRIP
360
1322
  3
BUMPTILE
360
12BB
  3
DIFFUSETILE
360
12BA
  3
OPACITYTILE
360
12BE
  3
REFLECTIONTILE
360
12BD
  3
REFRACTIONTILE
360
12BF
  3
SPECULARTILE
360
12BC
  0
DICTIONARY
  5
12B1
330
12B0
100
AcDbDictionary
280
     1
281
     1
  3
ACAD_XREC_ROUNDTRIP
360
1321
  3
BUMPTILE
360
12B3
  3
DIFFUSETILE
360
12B2
  3
OPACITYTILE
360
12B6
  3
REFLECTIONTILE
360
12B5
  3
REFRACTIONTILE
360
12B7
  3
SPECULARTILE
360
12B4
  0
DICTIONARY
  5
12C1
330
12C0
100
AcDbDictionary
280
     1
281
     1
  3
ACAD_XREC_ROUNDTRIP
360
1323
  3
BUMPTILE
360
12C3
  3
DIFFUSETILE
360
12C2
  3
OPACITYTILE
360
12C6
  3
REFLECTIONTILE
360
12C5
  3
REFRACTIONTILE
360
12C7
  3
SPECULARTILE
360
12C4
  0
DICTIONARY
  5
1310
330
27
100
AcDbDictionary
280
     1
281
     1
  3
ACAD_ROUNDTRIP_2008_TABLESTYLE_CELLSTYLEMAP
360
1311
  3
ACAD_XREC_ROUNDTRIP
360
131A
  0
XRECORD
  5
1319
102
{ACAD_REACTORS
330
1318
102
}
330
1318
100
AcDbXrecord
280
     1
102
SHADEPLOT
 70
     0
102
SHADEPLOTRESLEVEL
 70
     2
102
SHADEPLOTCUSTOMDPI
 70
   300
  0
XRECORD
  5
1317
102
{ACAD_REACTORS
330
1316
102
}
330
1316
100
AcDbXrecord
280
     1
102
SHADEPLOT
 70
     0
102
SHADEPLOTRESLEVEL
 70
     2
102
SHADEPLOTCUSTOMDPI
 70
   300
  0
XRECORD
  5
1322
102
{ACAD_REACTORS
330
12B9
102
}
330
12B9
100
AcDbXrecord
280
     1
102
MATERIAL
148
0.0
149
0.0
149
0.0
 93
        0
 94
      127
282
     0
 72
     0
 77
     0
171
     0
175
     0
179
     0
273
     0
  0
XRECORD
  5
12BB
102
{ACAD_REACTORS
330
12B9
102
}
330
12B9
100
AcDbXrecord
280
     1
270
     1
271
     1
  0
XRECORD
  5
12BA
102
{ACAD_REACTORS
330
12B9
102
}
330
12B9
100
AcDbXrecord
280
     1
270
     1
271
     1
  0
XRECORD
  5
12BE
102
{ACAD_REACTORS
330
12B9
102
}
330
12B9
100
AcDbXrecord
280
     1
270
     1
271
     1
  0
XRECORD
  5
12BD
102
{ACAD_REACTORS
330
12B9
102
}
330
12B9
100
AcDbXrecord
280
     1
270
     1
271
     1
  0
XRECORD
  5
12BF
102
{ACAD_REACTORS
330
12B9
102
}
330
12B9
100
AcDbXrecord
280
     1
270
     1
271
     1
  0
XRECORD
  5
12BC
102
{ACAD_REACTORS
330
12B9
102
}
330
12B9
100
AcDbXrecord
280
     1
270
     1
271
     1
  0
XRECORD
  5
1321
102
{ACAD_REACTORS
330
12B1
102
}
330
12B1
100
AcDbXrecord
280
     1
102
MATERIAL
148
0.0
149
0.0
149
0.0
 93
        0
 94
      127
282
     0
 72
     0
 77
     0
171
     0
175
     0
179
     0
273
     0
  0
XRECORD
  5
12B3
102
{ACAD_REACTORS
330
12B1
102
}
330
12B1
100
AcDbXrecord
280
     1
270
     1
271
     1
  0
XRECORD
  5
12B2
102
{ACAD_REACTORS
330
12B1
102
}
330
12B1
100
AcDbXrecord
280
     1
270
     1
271
     1
  0
XRECORD
  5
12B6
102
{ACAD_REACTORS
330
12B1
102
}
330
12B1
100
AcDbXrecord
280
     1
270
     1
271
     1
  0
XRECORD
  5
12B5
102
{ACAD_REACTORS
330
12B1
102
}
330
12B1
100
AcDbXrecord
280
     1
270
     1
271
     1
  0
XRECORD
  5
12B7
102
{ACAD_REACTORS
330
12B1
102
}
330
12B1
100
AcDbXrecord
280
     1
270
     1
271
     1
  0
XRECORD
  5
12B4
102
{ACAD_REACTORS
330
12B1
102
}
330
12B1
100
AcDbXrecord
280
     1
270
     1
271
     1
  0
XRECORD
  5
1323
102
{ACAD_REACTORS
330
12C1
102
}
330
12C1
100
AcDbXrecord
280
     1
102
MATERIAL
148
0.0
149
0.0
149
0.0
 93
        0
 94
      127
282
     0
 72
     0
 77
     0
171
     0
175
     0
179
     0
273
     0
  0
XRECORD
  5
12C3
102
{ACAD_REACTORS
330
12C1
102
}
330
12C1
100
AcDbXrecord
280
     1
270
     1
271
     1
  0
XRECORD
  5
12C2
102
{ACAD_REACTORS
330
12C1
102
}
330
12C1
100
AcDbXrecord
280
     1
270
     1
271
     1
  0
XRECORD
  5
12C6
102
{ACAD_REACTORS
330
12C1
102
}
330
12C1
100
AcDbXrecord
280
     1
270
     1
271
     1
  0
XRECORD
  5
12C5
102
{ACAD_REACTORS
330
12C1
102
}
330
12C1
100
AcDbXrecord
280
     1
270
     1
271
     1
  0
XRECORD
  5
12C7
102
{ACAD_REACTORS
330
12C1
102
}
330
12C1
100
AcDbXrecord
280
     1
270
     1
271
     1
  0
XRECORD
  5
12C4
102
{ACAD_REACTORS
330
12C1
102
}
330
12C1
100
AcDbXrecord
280
     1
270
     1
271
     1
  0
CELLSTYLEMAP
  5
1311
102
{ACAD_REACTORS
330
1310
102
}
330
1310
100
AcDbCellStyleMap
 90
        3
300
CELLSTYLE
  1
TABLEFORMAT_BEGIN
 90
        5
170
     1
 91
        0
 92
    32768
 62
   257
 93
        1
300
CONTENTFORMAT
  1
CONTENTFORMAT_BEGIN
 90
        0
 91
        0
 92
        4
 93
        0
300

 40
0.0
140
1.0
 94
        5
 62
     0
340
13
144
6.0
309
CONTENTFORMAT_END
171
     1
301
MARGIN
  1
CELLMARGIN_BEGIN
 40
1.5
 40
1.5
 40
1.5
 40
1.5
 40
0.18
 40
0.18
309
CELLMARGIN_END
 94
        6
 95
        1
302
GRIDFORMAT
  1
GRIDFORMAT_BEGIN
 90
        0
 91
        1
 62
     0
 92
       -2
340
0
 93
        0
 40
0.045
309
GRIDFORMAT_END
 95
        2
302
GRIDFORMAT
  1
GRIDFORMAT_BEGIN
 90
        0
 91
        1
 62
     0
 92
       -2
340
0
 93
        0
 40
0.045
309
GRIDFORMAT_END
 95
        4
302
GRIDFORMAT
  1
GRIDFORMAT_BEGIN
 90
        0
 91
        1
 62
     0
 92
       -2
340
0
 93
        0
 40
0.045
309
GRIDFORMAT_END
 95
        8
302
GRIDFORMAT
  1
GRIDFORMAT_BEGIN
 90
        0
 91
        1
 62
     0
 92
       -2
340
0
 93
        0
 40
0.045
309
GRIDFORMAT_END
 95
       16
302
GRIDFORMAT
  1
GRIDFORMAT_BEGIN
 90
        0
 91
        1
 62
     0
 92
       -2
340
0
 93
        0
 40
0.045
309
GRIDFORMAT_END
 95
       32
302
GRIDFORMAT
  1
GRIDFORMAT_BEGIN
 90
        0
 91
        1
 62
     0
 92
       -2
340
0
 93
        0
 40
0.045
309
GRIDFORMAT_END
309
TABLEFORMAT_END
  1
CELLSTYLE_BEGIN
 90
        1
 91
        1
300
_TITLE
309
CELLSTYLE_END
300
CELLSTYLE
  1
TABLEFORMAT_BEGIN
 90
        5
170
     1
 91
        0
 92
        0
 62
   257
 93
        1
300
CONTENTFORMAT
  1
CONTENTFORMAT_BEGIN
 90
        0
 91
        0
 92
        4
 93
        0
300

 40
0.0
140
1.0
 94
        5
 62
     0
340
13
144
4.5
309
CONTENTFORMAT_END
171
     1
301
MARGIN
  1
CELLMARGIN_BEGIN
 40
1.5
 40
1.5
 40
1.5
 40
1.5
 40
0.18
 40
0.18
309
CELLMARGIN_END
 94
        6
 95
        1
302
GRIDFORMAT
  1
GRIDFORMAT_BEGIN
 90
        0
 91
        1
 62
     0
 92
       -2
340
0
 93
        0
 40
0.045
309
GRIDFORMAT_END
 95
        2
302
GRIDFORMAT
  1
GRIDFORMAT_BEGIN
 90
        0
 91
        1
 62
     0
 92
       -2
340
0
 93
        0
 40
0.045
309
GRIDFORMAT_END
 95
        4
302
GRIDFORMAT
  1
GRIDFORMAT_BEGIN
 90
        0
 91
        1
 62
     0
 92
       -2
340
0
 93
        0
 40
0.045
309
GRIDFORMAT_END
 95
        8
302
GRIDFORMAT
  1
GRIDFORMAT_BEGIN
 90
        0
 91
        1
 62
     0
 92
       -2
340
0
 93
        0
 40
0.045
309
GRIDFORMAT_END
 95
       16
302
GRIDFORMAT
  1
GRIDFORMAT_BEGIN
 90
        0
 91
        1
 62
     0
 92
       -2
340
0
 93
        0
 40
0.045
309
GRIDFORMAT_END
 95
       32
302
GRIDFORMAT
  1
GRIDFORMAT_BEGIN
 90
        0
 91
        1
 62
     0
 92
       -2
340
0
 93
        0
 40
0.045
309
GRIDFORMAT_END
309
TABLEFORMAT_END
  1
CELLSTYLE_BEGIN
 90
        2
 91
        1
300
_HEADER
309
CELLSTYLE_END
300
CELLSTYLE
  1
TABLEFORMAT_BEGIN
 90
        5
170
     1
 91
        0
 92
        0
 62
   257
 93
        1
300
CONTENTFORMAT
  1
CONTENTFORMAT_BEGIN
 90
        0
 91
        0
 92
        4
 93
        0
300

 40
0.0
140
1.0
 94
        2
 62
     0
340
13
144
4.5
309
CONTENTFORMAT_END
171
     1
301
MARGIN
  1
CELLMARGIN_BEGIN
 40
1.5
 40
1.5
 40
1.5
 40
1.5
 40
0.18
 40
0.18
309
CELLMARGIN_END
 94
        6
 95
        1
302
GRIDFORMAT
  1
GRIDFORMAT_BEGIN
 90
        0
 91
        1
 62
     0
 92
       -2
340
0
 93
        0
 40
0.045
309
GRIDFORMAT_END
 95
        2
302
GRIDFORMAT
  1
GRIDFORMAT_BEGIN
 90
        0
 91
        1
 62
     0
 92
       -2
340
0
 93
        0
 40
0.045
309
GRIDFORMAT_END
 95
        4
302
GRIDFORMAT
  1
GRIDFORMAT_BEGIN
 90
        0
 91
        1
 62
     0
 92
       -2
340
0
 93
        0
 40
0.045
309
GRIDFORMAT_END
 95
        8
302
GRIDFORMAT
  1
GRIDFORMAT_BEGIN
 90
        0
 91
        1
 62
     0
 92
       -2
340
0
 93
        0
 40
0.045
309
GRIDFORMAT_END
 95
       16
302
GRIDFORMAT
  1
GRIDFORMAT_BEGIN
 90
        0
 91
        1
 62
     0
 92
       -2
340
0
 93
        0
 40
0.045
309
GRIDFORMAT_END
 95
       32
302
GRIDFORMAT
  1
GRIDFORMAT_BEGIN
 90
        0
 91
        1
 62
     0
 92
       -2
340
0
 93
        0
 40
0.045
309
GRIDFORMAT_END
309
TABLEFORMAT_END
  1
CELLSTYLE_BEGIN
 90
        3
 91
        2
300
_DATA
309
CELLSTYLE_END
  0
XRECORD
  5
131A
102
{ACAD_REACTORS
330
1310
102
}
330
1310
100
AcDbXrecord
280
     1
102
ACAD_ROUNDTRIP_PRE2007_TABLESTYLE
 90
        4
 91
        0
  1

 92
        4
 93
        0
  2

 94
        4
 95
        0
  3

  0
ENDSEC
  0
EOF
