  0
SECTION
  2
HEADER
  9
$ACADVER
  1
AC1015
  9
$ACADMAINTVER
 70
    20
  9
$DWGCODEPAGE
  3
ANSI_1252
  9
$INSBASE
 10
0.0
 20
0.0
 30
0.0
  9
$EXTMIN
 10
113.4819056530036
 20
35.13565312039054
 30
-0.0015258207003583
  9
$EXTMAX
 10
548.1513995655709
 20
613.9205951987769
 30
0.0000000349246037
  9
$LIMMIN
 10
0.0
 20
0.0
  9
$LIMMAX
 10
1050.0
 20
1050.0
  9
$ORTHOMODE
 70
     0
  9
$REGENMODE
 70
     1
  9
$FILLMODE
 70
     1
  9
$QTEXTMODE
 70
     0
  9
$MIRRTEXT
 70
     0
  9
$LTSCALE
 40
5.0
  9
$ATTMODE
 70
     1
  9
$TEXTSIZE
 40
17.5
  9
$TRACEWID
 40
0.05
  9
$TEXTSTYLE
  7
STANDARD
  9
$CLAYER
  8
0
  9
$CELTYPE
  6
BYLAYER
  9
$CECOLOR
 62
   256
  9
$CELTSCALE
 40
1.0
  9
$DISPSILH
 70
     0
  9
$DIMSCALE
 40
5.0
  9
$DIMASZ
 40
2.5
  9
$DIMEXO
 40
1.0
  9
$DIMDLI
 40
7.0
  9
$DIMRND
 40
0.0
  9
$DIMDLE
 40
0.0
  9
$DIMEXE
 40
1.0
  9
$DIMTP
 40
0.1
  9
$DIMTM
 40
0.1
  9
$DIMTXT
 40
3.5
  9
$DIMCEN
 40
0.0
  9
$DIMTSZ
 40
0.0
  9
$DIMTOL
 70
     0
  9
$DIMLIM
 70
     0
  9
$DIMTIH
 70
     0
  9
$DIMTOH
 70
     0
  9
$DIMSE1
 70
     0
  9
$DIMSE2
 70
     0
  9
$DIMTAD
 70
     1
  9
$DIMZIN
 70
    12
  9
$DIMBLK
  1

  9
$DIMASO
 70
     1
  9
$DIMSHO
 70
     1
  9
$DIMPOST
  1

  9
$DIMAPOST
  1
"
  9
$DIMALT
 70
     0
  9
$DIMALTD
 70
     2
  9
$DIMALTF
 40
0.03937
  9
$DIMLFAC
 40
1.0
  9
$DIMTOFL
 70
     1
  9
$DIMTVP
 40
0.0
  9
$DIMTIX
 70
     0
  9
$DIMSOXD
 70
     0
  9
$DIMSAH
 70
     0
  9
$DIMBLK1
  1

  9
$DIMBLK2
  1

  9
$DIMSTYLE
  2
GEN-ISO
  9
$DIMCLRD
 70
   256
  9
$DIMCLRE
 70
   256
  9
$DIMCLRT
 70
     2
  9
$DIMTFAC
 40
0.71
  9
$DIMGAP
 40
0.6
  9
$DIMJUST
 70
     0
  9
$DIMSD1
 70
     0
  9
$DIMSD2
 70
     0
  9
$DIMTOLJ
 70
     0
  9
$DIMTZIN
 70
     0
  9
$DIMALTZ
 70
     0
  9
$DIMALTTZ
 70
     0
  9
$DIMUPT
 70
     0
  9
$DIMDEC
 70
     2
  9
$DIMTDEC
 70
     3
  9
$DIMALTU
 70
     2
  9
$DIMALTTD
 70
     4
  9
$DIMTXSTY
  7
STANDARD
  9
$DIMAUNIT
 70
     0
  9
$DIMADEC
 70
     0
  9
$DIMALTRND
 40
0.0
  9
$DIMAZIN
 70
     0
  9
$DIMDSEP
 70
    46
  9
$DIMATFIT
 70
     3
  9
$DIMFRAC
 70
     0
  9
$DIMLDRBLK
  1

  9
$DIMLUNIT
 70
     2
  9
$DIMLWD
 70
    -2
  9
$DIMLWE
 70
    -2
  9
$DIMTMOVE
 70
     0
  9
$LUNITS
 70
     2
  9
$LUPREC
 70
     2
  9
$SKETCHINC
 40
0.1
  9
$FILLETRAD
 40
0.000005
  9
$AUNITS
 70
     0
  9
$AUPREC
 70
     2
  9
$MENU
  1
.
  9
$ELEVATION
 40
0.0
  9
$PELEVATION
 40
0.0
  9
$THICKNESS
 40
0.0
  9
$LIMCHECK
 70
     0
  9
$CHAMFERA
 40
12.5
  9
$CHAMFERB
 40
12.5
  9
$CHAMFERC
 40
0.0
  9
$CHAMFERD
 40
0.0
  9
$SKPOLY
 70
     0
  9
$TDCREATE
 40
2451421.460304421
  9
$TDUCREATE
 40
2451421.418637755
  9
$TDUPDATE
 40
2454088.836438947
  9
$TDUUPDATE
 40
2454088.794772280
  9
$TDINDWG
 40
0.1575047222
  9
$TDUSRTIMER
 40
0.1575047222
  9
$USRTIMER
 70
     1
  9
$ANGBASE
 50
0.0
  9
$ANGDIR
 70
     0
  9
$PDMODE
 70
     0
  9
$PDSIZE
 40
0.0
  9
$PLINEWID
 40
0.0
  9
$SPLFRAME
 70
     0
  9
$SPLINETYPE
 70
     6
  9
$SPLINESEGS
 70
     8
  9
$HANDSEED
  5
1BD0
  9
$SURFTAB1
 70
     6
  9
$SURFTAB2
 70
     6
  9
$SURFTYPE
 70
     6
  9
$SURFU
 70
     6
  9
$SURFV
 70
     6
  9
$UCSBASE
  2

  9
$UCSNAME
  2

  9
$UCSORG
 10
0.0
 20
0.0
 30
0.0
  9
$UCSXDIR
 10
1.0
 20
0.0
 30
0.0
  9
$UCSYDIR
 10
0.0
 20
1.0
 30
0.0
  9
$UCSORTHOREF
  2

  9
$UCSORTHOVIEW
 70
     0
  9
$UCSORGTOP
 10
0.0
 20
0.0
 30
0.0
  9
$UCSORGBOTTOM
 10
0.0
 20
0.0
 30
0.0
  9
$UCSORGLEFT
 10
0.0
 20
0.0
 30
0.0
  9
$UCSORGRIGHT
 10
0.0
 20
0.0
 30
0.0
  9
$UCSORGFRONT
 10
0.0
 20
0.0
 30
0.0
  9
$UCSORGBACK
 10
0.0
 20
0.0
 30
0.0
  9
$PUCSBASE
  2

  9
$PUCSNAME
  2

  9
$PUCSORG
 10
0.0
 20
0.0
 30
0.0
  9
$PUCSXDIR
 10
1.0
 20
0.0
 30
0.0
  9
$PUCSYDIR
 10
0.0
 20
1.0
 30
0.0
  9
$PUCSORTHOREF
  2

  9
$PUCSORTHOVIEW
 70
     0
  9
$PUCSORGTOP
 10
0.0
 20
0.0
 30
0.0
  9
$PUCSORGBOTTOM
 10
0.0
 20
0.0
 30
0.0
  9
$PUCSORGLEFT
 10
0.0
 20
0.0
 30
0.0
  9
$PUCSORGRIGHT
 10
0.0
 20
0.0
 30
0.0
  9
$PUCSORGFRONT
 10
0.0
 20
0.0
 30
0.0
  9
$PUCSORGBACK
 10
0.0
 20
0.0
 30
0.0
  9
$USERI1
 70
     0
  9
$USERI2
 70
     0
  9
$USERI3
 70
     0
  9
$USERI4
 70
     0
  9
$USERI5
 70
     0
  9
$USERR1
 40
0.0
  9
$USERR2
 40
0.0
  9
$USERR3
 40
0.0
  9
$USERR4
 40
0.0
  9
$USERR5
 40
0.0
  9
$WORLDVIEW
 70
     1
  9
$SHADEDGE
 70
     3
  9
$SHADEDIF
 70
    70
  9
$TILEMODE
 70
     1
  9
$MAXACTVP
 70
    48
  9
$PINSBASE
 10
0.0
 20
0.0
 30
0.0
  9
$PLIMCHECK
 70
     0
  9
$PEXTMIN
 10
0.0
 20
0.0
 30
0.0
  9
$PEXTMAX
 10
144.737
 20
293.6479999999999
 30
0.0
  9
$PLIMMIN
 10
0.0
 20
0.0
  9
$PLIMMAX
 10
144.737
 20
293.6479999999999
  9
$UNITMODE
 70
     0
  9
$VISRETAIN
 70
     1
  9
$PLINEGEN
 70
     1
  9
$PSLTSCALE
 70
     1
  9
$TREEDEPTH
 70
 -3020
  9
$CMLSTYLE
  2
STANDARD
  9
$CMLJUST
 70
     0
  9
$CMLSCALE
 40
1.0
  9
$PROXYGRAPHICS
 70
     1
  9
$MEASUREMENT
 70
     1
  9
$CELWEIGHT
370
    -1
  9
$ENDCAPS
280
     0
  9
$JOINSTYLE
280
     0
  9
$LWDISPLAY
290
     0
  9
$INSUNITS
 70
     0
  9
$HYPERLINKBASE
  1

  9
$STYLESHEET
  1

  9
$XEDIT
290
     1
  9
$CEPSNTYPE
380
     0
  9
$PSTYLEMODE
290
     1
  9
$FINGERPRINTGUID
  2
{3CDCF838-95BE-44D8-8DEC-639C454842E9}
  9
$VERSIONGUID
  2
{D8BF6DAB-96C6-4680-AEFB-5609B3CF8879}
  9
$EXTNAMES
290
     1
  9
$PSVPSCALE
 40
0.0
  9
$OLESTARTUP
290
     0
  0
ENDSEC
  0
SECTION
  2
CLASSES
  0
CLASS
  1
DICTIONARYVAR
  2
AcDbDictionaryVar
  3
ObjectDBX Classes
 90
        0
280
     0
281
     0
  0
CLASS
  1
ACDBDICTIONARYWDFLT
  2
AcDbDictionaryWithDefault
  3
ObjectDBX Classes
 90
        0
280
     0
281
     0
  0
CLASS
  1
TABLESTYLE
  2
AcDbTableStyle
  3
ObjectDBX Classes
 90
     2047
280
     0
281
     0
  0
CLASS
  1
AMGSETTINGSOBJ
  2
AmgSettingsObj
  3
"AcadM|Product Description: AutoCAD Mechanical 2000|Company: Autodesk"
 90
        0
280
     0
281
     0
  0
CLASS
  1
ACME_DOCUMENT
  2
AcMeDbDoc
  3
AcMeServices
 90
        0
280
     0
281
     0
  0
CLASS
  1
ACMESCOPE
  2
AcMeScope
  3
AcMeServices
 90
        0
280
     0
281
     0
  0
CLASS
  1
ACMECOMMANDHISTORY
  2
AcMeCommandHistory
  3
AcMeServices
 90
        0
280
     0
281
     0
  0
CLASS
  1
ACIMSYSVARMAN
  2
AcImSysVarManager
  3
AcMeServices
 90
        0
280
     0
281
     0
  0
CLASS
  1
ACIMINTSYSVAR
  2
AcImIntSysVar
  3
AcMeServices
 90
        0
280
     0
281
     0
  0
CLASS
  1
ACMEDRAWINGMAN
  2
AcMeDrawingMan
  3
AcMeServices
 90
        0
280
     0
281
     0
  0
CLASS
  1
ACMEVIEW
  2
AcMeView
  3
AcMeServices
 90
        0
280
     0
281
     0
  0
CLASS
  1
ACDBENTITYCACHE
  2
AcMeEntityCache
  3
AcMeServices
 90
        0
280
     0
281
     0
  0
CLASS
  1
GSMANAGER
  2
AcMeGSManager
  3
AcMeServices
 90
        0
280
     0
281
     0
  0
CLASS
  1
AMDTINTERNALREACTOR
  2
AmdtInternalReactor
  3
AcMeServices
 90
        0
280
     0
281
     0
  0
CLASS
  1
ACMESTATEMGR
  2
AcMeStateMgr
  3
AcMeServices
 90
        0
280
     0
281
     0
  0
CLASS
  1
ACGREFMASTER
  2
AcGrefMaster
  3
AcAttribServices
 90
        0
280
     0
281
     0
  0
CLASS
  1
AM_DRAWING_MGR
  2
AcDmDwgMgr
  3
AcMechDwgViewMgmt
 90
        0
280
     0
281
     0
  0
CLASS
  1
AM_DWG_DOCUMENT
  2
AcDmDwgDocument
  3
AcMechDwgViewMgmt
 90
        0
280
     0
281
     0
  0
CLASS
  1
AM_DWG_SHEET
  2
AcDmSheet
  3
AcMechDwgViewMgmt
 90
        0
280
     0
281
     0
  0
CLASS
  1
AM_VIEWDIMPARMAP
  2
AcDmViewDimParMap
  3
AcMechDwgViewMgmt
 90
        0
280
     0
281
     0
  0
CLASS
  1
ACIMREALSYSVAR
  2
AcImRealSysVar
  3
AcMeServices
 90
        0
280
     0
281
     0
  0
CLASS
  1
AM_DWGMGR_NAME
  2
AcDmDwgMgrName
  3
AcMechDwgViewMgmt
 90
        0
280
     0
281
     0
  0
CLASS
  1
ACME_DATABASE
  2
AcMeDbDatabase
  3
AcMeServices
 90
        0
280
     0
281
     0
  0
CLASS
  1
ACRFINSADJUSTERMGR
  2
AcRfInsAdjusterMgr
  3
AcMeServices
 90
        0
280
     0
281
     0
  0
CLASS
  1
ACGREFACADMASTER
  2
AcGrefacadMaster
  3
AcGrefServices
 90
        0
280
     0
281
     0
  0
CLASS
  1
AMDTMENUSTATEMGR
  2
AmdtMenuStateMgr
  3
McadcomServices
 90
        0
280
     0
281
     0
  0
CLASS
  1
AMDTMCOMMENUSTATE
  2
AmdtMcomMenuState
  3
McadcomServices
 90
        0
280
     0
281
     0
  0
CLASS
  1
AMIMASTER
  2
AmiMaster
  3
AmiServices
 90
        0
280
     0
281
     0
  0
CLASS
  1
MAPIAMMOUDLE
  2
MApiAmModule
  3
MApiAmServices
 90
        0
280
     0
281
     0
  0
CLASS
  1
ACIMSTRSYSVAR
  2
AcImStrSysVar
  3
AcMeServices
 90
        0
280
     0
281
     0
  0
CLASS
  1
AMDTADMENUSTATE
  2
AmdtAdMenuState
  3
DesignerServices
 90
        0
280
     0
281
     0
  0
CLASS
  1
ADAPPL
  2
AcAdAppl
  3
DesignerServices
 90
        0
280
     0
281
     0
  0
CLASS
  1
DEPMGR
  2
AcAdDepMgr
  3
DesignerServices
 90
        0
280
     0
281
     0
  0
CLASS
  1
PARAMMGR
  2
AcAdParamMgr
  3
DesignerServices
 90
        0
280
     0
281
     0
  0
CLASS
  1
PARAMSCOPE
  2
AcAdParamScope
  3
DesignerServices
 90
        0
280
     0
281
     0
  0
CLASS
  1
NAMEDAPPL
  2
AcAdNamedAppl
  3
DesignerServices
 90
        0
280
     0
281
     0
  0
CLASS
  1
AMDTDMMENUSTATE
  2
AmdtDmMenuState
  3
AcMechDwgViewMgmt
 90
        0
280
     0
281
     0
  0
CLASS
  1
AMDTAMMENUSTATE
  2
AmdtAmMenuState
  3
DesignerAssemblies
 90
        0
280
     0
281
     0
  0
CLASS
  1
ACAMPROJECT
  2
AcAmProject
  3
DesignerAssemblies
 90
        0
280
     0
281
     0
  0
CLASS
  1
ACAMGRCOMPDEF
  2
AcAmGrCompDef
  3
DesignerAssemblies
 90
        0
280
     0
281
     0
  0
CLASS
  1
ACCMCONTEXT
  2
AcCmContext
  3
DesignerAssemblies
 90
        0
280
     0
281
     0
  0
CLASS
  1
ACAMCOMPDEF
  2
AcAmCompDef
  3
DesignerAssemblies
 90
        0
280
     0
281
     0
  0
CLASS
  1
ACAMCOMPDEFMGR
  2
AcAmCompDefMgr
  3
DesignerAssemblies
 90
        0
280
     0
281
     0
  0
CLASS
  1
AMCONTEXTMGR
  2
AcAmContextMgr
  3
DesignerAssemblies
 90
        0
280
     0
281
     0
  0
CLASS
  1
ACAMCONTEXTMODELER
  2
AcAmContextModeler
  3
DesignerAssemblies
 90
        0
280
     0
281
     0
  0
CLASS
  1
ACMDATADICTIONARY
  2
AcmDataDictionary
  3
"AcmSymBB|Product Description: AutoCAD Mechanical 2004 DX|Company: Autodesk"
 90
        0
280
     0
281
     0
  0
CLASS
  1
CATALOGSTATE
  2
AcAmCatalogState
  3
DesignerAssemblies
 90
        0
280
     0
281
     0
  0
CLASS
  1
ACAMGRCOMPDEFSET
  2
AcAmGrCompDefSet
  3
DesignerAssemblies
 90
        0
280
     0
281
     0
  0
CLASS
  1
AMDTBROWSERDBTAB
  2
AmdtBrowserDbTab
  3
McadcomServices
 90
        0
280
     0
281
     0
  0
CLASS
  1
CBROWSERAPPOBJECT
  2
CBrowserAppObject
  3
McadcomServices
 90
        0
280
     0
281
     0
  0
CLASS
  1
DM_PLACEHOLDER
  2
AcDmSelsetPlaceholder
  3
AcMechDwgViewMgmt
 90
        0
280
     0
281
     0
  0
CLASS
  1
ACMSTANDARDDIN
  2
AcmStandardDIN
  3
"Amdt_StdImp|Product Description: AutoCAD Mechanical 2004 DX|Company: Autodesk"
 90
        0
280
     0
281
     0
  0
CLASS
  1
AMGOBJPROPCFG
  2
AmgObjPropCfg
  3
"AmgLay|Product Description: AutoCAD Mechanical 2000|Company: Autodesk"
 90
        1
280
     0
281
     0
  0
CLASS
  1
AMDTEDGESTANDARDDIN13715
  2
AmdtEdgeStdDIN13715
  3
"Amdt_StdImp|Product Description: AutoCAD Mechanical 2004 DX|Company: Autodesk"
 90
        0
280
     0
281
     0
  0
CLASS
  1
ACMSURFSTANDARDDIN
  2
AcmSurfTextStdDIN
  3
"Amdt_StdImp|Product Description: AutoCAD Mechanical 2004 DX|Company: Autodesk"
 90
        0
280
     0
281
     0
  0
CLASS
  1
ACMFCFSTANDARDDIN
  2
AcmFCFStdDIN
  3
"Amdt_StdImp|Product Description: AutoCAD Mechanical 2004 DX|Company: Autodesk"
 90
        0
280
     0
281
     0
  0
CLASS
  1
ACMWELDSTANDARDDIN
  2
AcmWeldingStdDIN
  3
"Amdt_StdImp|Product Description: AutoCAD Mechanical 2004 DX|Company: Autodesk"
 90
        0
280
     0
281
     0
  0
CLASS
  1
ACMIDSTANDARDDIN
  2
AcmIdStdDIN
  3
"Amdt_StdImp|Product Description: AutoCAD Mechanical 2004 DX|Company: Autodesk"
 90
        0
280
     0
281
     0
  0
CLASS
  1
ACMDATUMSTANDARDDIN
  2
AcmDatumStdDIN
  3
"Amdt_StdImp|Product Description: AutoCAD Mechanical 2004 DX|Company: Autodesk"
 90
        0
280
     0
281
     0
  0
CLASS
  1
ACMBOMSTANDARDDIN
  2
AcmBOMStdDIN
  3
"Amdt_StdImp|Product Description: AutoCAD Mechanical 2004 DX|Company: Autodesk"
 90
        0
280
     0
281
     0
  0
CLASS
  1
ACMDETAILSTANDARDDIN
  2
AmdtDetailSymStdDIN
  3
"Amdt_StdImp|Product Description: AutoCAD Mechanical 2004 DX|Company: Autodesk"
 90
        0
280
     0
281
     0
  0
CLASS
  1
ACMSECTIONSTANDARDDIN
  2
AmdtSectionSymStdDIN
  3
"Amdt_StdImp|Product Description: AutoCAD Mechanical 2004 DX|Company: Autodesk"
 90
        0
280
     0
281
     0
  0
CLASS
  1
ACMCENTERLINESTANDARDDIN
  2
AmdtCenterLineStdDIN
  3
"Amdt_StdImp|Product Description: AutoCAD Mechanical 2004 DX|Company: Autodesk"
 90
        0
280
     0
281
     0
  0
CLASS
  1
ACMTHREADLINESTANDARDDIN
  2
AmdtThreadLineStdDIN
  3
"Amdt_StdImp|Product Description: AutoCAD Mechanical 2004 DX|Company: Autodesk"
 90
        0
280
     0
281
     0
  0
CLASS
  1
ACMNOTESTANDARDDIN
  2
AmdtNoteStdDIN
  3
"Amdt_StdImp|Product Description: AutoCAD Mechanical 2004 DX|Company: Autodesk"
 90
        0
280
     0
281
     0
  0
CLASS
  1
AMDTNOTETEMPLATEDB
  2
AmdtNoteTemplateDB
  3
AMDT_STDIMP_MODULE_NAME
 90
        0
280
     0
281
     0
  0
CLASS
  1
ACAMGLAYSTD
  2
AcAmgLayStd
  3
"AcAmgLayStd|Product Description: AutoCAD Mechanical 2000|Company: Autodesk"
 90
        0
280
     0
281
     0
  0
CLASS
  1
ACAMGDIMSTD
  2
AcAmgDimStd
  3
"AcAmgDimStd|Product Description: AutoCAD Mechanical 2000|Company: Autodesk"
 90
        0
280
     0
281
     0
  0
CLASS
  1
ACAMGHOLECHARTSTDDIN
  2
AcAmgHoleChartStdDIN
  3
ACMSYMBB_MODULE_NAME
 90
        0
280
     0
281
     0
  0
CLASS
  1
ACAMGTITLESTD
  2
AcAmgTitleStd
  3
"TITLEAPP"
 90
        0
280
     0
281
     0
  0
CLASS
  1
ACAMGFILTERDAT
  2
AcAmgFilterDat
  3
"AcadM|Product Description: AutoCAD Mechanical 2000|Company: Autodesk"
 90
        0
280
     0
281
     0
  0
CLASS
  1
ACDBPLACEHOLDER
  2
AcDbPlaceHolder
  3
ObjectDBX Classes
 90
        0
280
     0
281
     0
  0
CLASS
  1
LAYOUT
  2
AcDbLayout
  3
ObjectDBX Classes
 90
        0
280
     0
281
     0
  0
ENDSEC
  0
SECTION
  2
TABLES
  0
TABLE
  2
VPORT
  5
1628
330
0
100
AcDbSymbolTable
 70
     4
  0
VPORT
  5
1BCA
330
1628
100
AcDbSymbolTableRecord
100
AcDbViewportTableRecord
  2
*Active
 70
     0
 10
0.0
 20
0.0
 11
1.0
 21
1.0
 12
330.8166526092872
 22
324.5281241595837
 13
0.0
 23
0.0
 14
5.0
 24
5.0
 15
50.0
 25
50.0
 16
0.0
 26
0.0
 36
1.0
 17
0.0
 27
0.0
 37
0.0
 40
582.9891910523213
 41
1.494545454545454
 42
50.0
 43
0.0
 44
0.0
 50
0.0
 51
0.0
 71
     0
 72
  1000
 73
     1
 74
     1
 75
     0
 76
     0
 77
     0
 78
     0
281
     0
 65
     0
110
0.0
120
0.0
130
0.0
111
1.0
121
0.0
131
0.0
112
0.0
122
1.0
132
0.0
 79
     0
146
0.0
  0
ENDTAB
  0
TABLE
  2
LTYPE
  5
1625
330
0
100
AcDbSymbolTable
 70
    22
  0
LTYPE
  5
1632
330
1625
100
AcDbSymbolTableRecord
100
AcDbLinetypeTableRecord
  2
BYBLOCK
 70
     0
  3

 72
    65
 73
     0
 40
0.0
  0
LTYPE
  5
1633
330
1625
100
AcDbSymbolTableRecord
100
AcDbLinetypeTableRecord
  2
BYLAYER
 70
     0
  3

 72
    65
 73
     0
 40
0.0
  0
LTYPE
  5
1634
330
1625
100
AcDbSymbolTableRecord
100
AcDbLinetypeTableRecord
  2
CONTINUOUS
 70
     0
  3
Solid line
 72
    65
 73
     0
 40
0.0
  0
LTYPE
  5
1640
330
1625
100
AcDbSymbolTableRecord
100
AcDbLinetypeTableRecord
  2
GEN3
 70
     0
  3
_ _ _ _ _ _ _ _ _ _ _ _ _ _ _ _ _ _ _ _ _ _ _ _ _ _ _ _ _ _ _
 72
    65
 73
     3
 40
3.0
 49
0.0
 74
     0
 49
2.0
 74
     0
 49
-1.0
 74
     0
  0
LTYPE
  5
1641
330
1625
100
AcDbSymbolTableRecord
100
AcDbLinetypeTableRecord
  2
GEN3_
 70
     0
  3
_ _ _ _ _ _ _ _ _ _ _ _ _ _ _ _ _ _ _ _ _ _ _ _ _ _ _ _ _ _ _
 72
    65
 73
     4
 40
3.0
 49
0.0
 74
     0
 49
0.5
 74
     0
 49
-1.0
 74
     0
 49
1.5
 74
     0
  0
LTYPE
  5
19CA
330
1625
100
AcDbSymbolTableRecord
100
AcDbLinetypeTableRecord
  2
GEN3A
 70
     0
  3
 - - - - -
 72
    65
 73
     2
 40
3.125
 49
2.25
 74
     0
 49
-0.875
 74
     0
  0
LTYPE
  5
1B2A
330
1625
100
AcDbSymbolTableRecord
100
AcDbLinetypeTableRecord
  2
HIDDEN
 70
     0
  3
Verdeckt
 72
    65
 73
     2
 40
9.525
 49
6.349999999999999
 74
     0
 49
-3.174999999999999
 74
     0
  0
LTYPE
  5
1B2B
330
1625
100
AcDbSymbolTableRecord
100
AcDbLinetypeTableRecord
  2
PHANTOM2
 70
     0
  3
Phantom (.5x) ___ _ _ ___ _ _ ___ _ _ ___ _ _
 72
    65
 73
     6
 40
31.75
 49
15.875
 74
     0
 49
-3.174999999999999
 74
     0
 49
3.174999999999999
 74
     0
 49
-3.174999999999999
 74
     0
 49
3.174999999999999
 74
     0
 49
-3.174999999999999
 74
     0
  0
LTYPE
  5
1B2C
330
1625
100
AcDbSymbolTableRecord
100
AcDbLinetypeTableRecord
  2
CENTER
 70
     0
  3
Mitte ____ _ ____ _ ____ _ ____ _ ____ _ ____
 72
    65
 73
     4
 40
50.8
 49
31.75
 74
     0
 49
-6.349999999999999
 74
     0
 49
6.349999999999999
 74
     0
 49
-6.349999999999999
 74
     0
  0
LTYPE
  5
1B60
330
1625
100
AcDbSymbolTableRecord
100
AcDbLinetypeTableRecord
  2
AM_ISO02W050
 70
     0
  3
__ __ __ __ __ __ __ __ __ __ __ __ __ __ __
 72
    65
 73
     2
 40
7.5
 49
6.0
 74
     0
 49
-1.5
 74
     0
  0
LTYPE
  5
1B61
330
1625
100
AcDbSymbolTableRecord
100
AcDbLinetypeTableRecord
  2
AM_ISO08W050
 70
     0
  3
____ . ____ . ____ . ____ . ____ . ____ . ____
 72
    65
 73
     4
 40
18.0
 49
12.0
 74
     0
 49
-1.5
 74
     0
 49
3.0
 74
     0
 49
-1.5
 74
     0
  0
LTYPE
  5
1B62
330
1625
100
AcDbSymbolTableRecord
100
AcDbLinetypeTableRecord
  2
AM_ISO09W050
 70
     0
  3
_____ . . _____ . . _____ . . ____ .. ____
 72
    65
 73
     6
 40
22.5
 49
12.0
 74
     0
 49
-1.5
 74
     0
 49
3.0
 74
     0
 49
-1.5
 74
     0
 49
3.0
 74
     0
 49
-1.5
 74
     0
  0
LTYPE
  5
1B63
330
1625
100
AcDbSymbolTableRecord
100
AcDbLinetypeTableRecord
  2
Amconstr
 70
     0
  3
_______________________
 72
    65
 73
     2
 40
9999.0
 49
9999.0
 74
     0
 49
0.0
 74
     0
  0
LTYPE
  5
1B64
330
1625
100
AcDbSymbolTableRecord
100
AcDbLinetypeTableRecord
  2
AM_ISO08W050x2
 70
     0
  3
__ . __ . __ . __ . __ . __
 72
    65
 73
     4
 40
9.0
 49
6.0
 74
     0
 49
-0.75
 74
     0
 49
1.5
 74
     0
 49
-0.75
 74
     0
  0
LTYPE
  5
1B65
330
1625
100
AcDbSymbolTableRecord
100
AcDbLinetypeTableRecord
  2
AM_ISO02W050x2
 70
     0
  3
 _ _ _ _ _ _ _ _ _ _ _ _
 72
    65
 73
     2
 40
3.75
 49
3.0
 74
     0
 49
-0.75
 74
     0
  0
LTYPE
  5
1B68
330
1625
100
AcDbSymbolTableRecord
100
AcDbLinetypeTableRecord
  2
Amzigzag
 70
     0
  3
/\/-/\/-/\/-/\/-/\/-/\/
 72
    65
 73
     2
 40
11.0001
 49
0.0001
 74
     4
 75
   136
340
1B67
 46
0.04
 50
0.0
 44
0.0
 45
0.0
 49
-11.0
 74
     0
  0
LTYPE
  5
1B69
330
1625
100
AcDbSymbolTableRecord
100
AcDbLinetypeTableRecord
  2
AM_DIN_F_W050
 70
     0
  3
__ __ __ __ __ __ __ __ __ __ __ __ __ __ __
 72
    65
 73
     2
 40
6.25
 49
4.75
 74
     0
 49
-1.5
 74
     0
  0
LTYPE
  5
1B6A
330
1625
100
AcDbSymbolTableRecord
100
AcDbLinetypeTableRecord
  2
AM_DIN_G_W050
 70
     0
  3
____ . ____ . ____ . ____ . ____ . ____ . ____
 72
    65
 73
     4
 40
13.75
 49
9.75
 74
     0
 49
-1.5
 74
     0
 49
1.0
 74
     0
 49
-1.5
 74
     0
  0
LTYPE
  5
1B6B
330
1625
100
AcDbSymbolTableRecord
100
AcDbLinetypeTableRecord
  2
AM_DIN_K_W050
 70
     0
  3
_____ . . _____ . . _____ . . ____ .. ____
 72
    65
 73
     6
 40
16.25
 49
9.75
 74
     0
 49
-1.5
 74
     0
 49
1.0
 74
     0
 49
-1.5
 74
     0
 49
1.0
 74
     0
 49
-1.5
 74
     0
  0
LTYPE
  5
1B6C
330
1625
100
AcDbSymbolTableRecord
100
AcDbLinetypeTableRecord
  2
AM_DIN_G_W050x2
 70
     0
  3
__ . __ . __ . __ . __ . __
 72
    65
 73
     4
 40
6.875
 49
4.75
 74
     0
 49
-0.875
 74
     0
 49
0.375
 74
     0
 49
-0.875
 74
     0
  0
LTYPE
  5
1B6D
330
1625
100
AcDbSymbolTableRecord
100
AcDbLinetypeTableRecord
  2
AM_DIN_F_W050x2
 70
     0
  3
 _ _ _ _ _ _ _ _ _ _ _ _
 72
    65
 73
     2
 40
3.125
 49
2.25
 74
     0
 49
-0.875
 74
     0
  0
LTYPE
  5
1B7C
330
1625
100
AcDbSymbolTableRecord
100
AcDbLinetypeTableRecord
  2
ACDINWELD
 70
     0
  3
_ _ _ _ _
 72
    65
 73
     2
 40
2.0
 49
2.0
 74
     0
 49
-1.0
 74
     0
  0
LTYPE
  5
1B7D
330
1625
100
AcDbSymbolTableRecord
100
AcDbLinetypeTableRecord
  2
ACDINTGB
 70
     0
  3
__ . . __ . .
 72
    65
 73
     6
 40
9.0
 49
4.0
 74
     0
 49
-1.0
 74
     0
 49
1.0
 74
     0
 49
-1.0
 74
     0
 49
1.0
 74
     0
 49
-1.0
 74
     0
  0
LTYPE
  5
1B7E
330
1625
100
AcDbSymbolTableRecord
100
AcDbLinetypeTableRecord
  2
ACDINTGL
 70
     0
  3
_ _ _ _ _
 72
    65
 73
     2
 40
3.0
 49
2.0
 74
     0
 49
-1.0
 74
     0
  0
ENDTAB
  0
TABLE
  2
LAYER
  5
1622
330
0
100
AcDbSymbolTable
 70
    10
  0
LAYER
  5
162E
330
1622
100
AcDbSymbolTableRecord
100
AcDbLayerTableRecord
  2
0
 70
     0
 62
     7
  6
CONTINUOUS
370
    -3
390
1AEE
  0
LAYER
  5
1648
330
1622
100
AcDbSymbolTableRecord
100
AcDbLayerTableRecord
  2
3A
 70
     0
 62
     6
  6
GEN3A
370
    -3
390
1AEE
  0
LAYER
  5
1649
330
1622
100
AcDbSymbolTableRecord
100
AcDbLayerTableRecord
  2
4
 70
     0
 62
     3
  6
CONTINUOUS
370
    -3
390
1AEE
  0
LAYER
  5
164B
330
1622
100
AcDbSymbolTableRecord
100
AcDbLayerTableRecord
  2
5
 70
     0
 62
     3
  6
CONTINUOUS
370
    -3
390
1AEE
  0
LAYER
  5
164C
330
1622
100
AcDbSymbolTableRecord
100
AcDbLayerTableRecord
  2
6
 70
     0
 62
     2
  6
CONTINUOUS
370
    -3
390
1AEE
  0
LAYER
  5
164E
330
1622
100
AcDbSymbolTableRecord
100
AcDbLayerTableRecord
  2
8
 70
     0
 62
     1
  6
CONTINUOUS
370
    -3
390
1AEE
  0
LAYER
  5
164F
330
1622
100
AcDbSymbolTableRecord
100
AcDbLayerTableRecord
  2
SCHRAFFUR_RAND
 70
     0
 62
    36
  6
CONTINUOUS
370
    -3
390
1AEE
  0
LAYER
  5
1680
330
1622
100
AcDbSymbolTableRecord
100
AcDbLayerTableRecord
  2
DEFPOINTS
 70
     0
 62
     7
  6
CONTINUOUS
290
     0
370
    -3
390
1AEE
  0
LAYER
  5
1684
330
1622
100
AcDbSymbolTableRecord
100
AcDbLayerTableRecord
  2
RAHM2
 70
     0
 62
     1
  6
CONTINUOUS
370
    -3
390
1AEE
  0
LAYER
  5
1685
330
1622
100
AcDbSymbolTableRecord
100
AcDbLayerTableRecord
  2
RAHM3
 70
     0
 62
     2
  6
CONTINUOUS
370
    -3
390
1AEE
  0
ENDTAB
  0
TABLE
  2
STYLE
  5
1623
330
0
100
AcDbSymbolTable
 70
     4
  0
STYLE
  5
162F
330
1623
100
AcDbSymbolTableRecord
100
AcDbTextStyleTableRecord
  2
STANDARD
 70
     0
 40
0.0
 41
1.0
 50
0.0
 71
     0
 42
17.5
  3
ISOCP.SHX
  4

  0
STYLE
  5
1B67
330
1623
100
AcDbSymbolTableRecord
100
AcDbTextStyleTableRecord
  2

 70
     1
 40
0.0
 41
1.0
 50
0.0
 71
     0
 42
17.5
  3
genltshp.shx
  4

  0
STYLE
  5
1B6E
330
1623
100
AcDbSymbolTableRecord
100
AcDbTextStyleTableRecord
  2
ACDINTS
 70
     0
 40
1.0
 41
1.0
 50
0.0
 71
     0
 42
17.5
  3
isocp.shx
  4

  0
STYLE
  5
1B7B
330
1623
100
AcDbSymbolTableRecord
100
AcDbTextStyleTableRecord
  2
ACDINGDT
 70
     0
 40
0.0
 41
1.0
 50
0.0
 71
     0
 42
17.5
  3
AMGDT
  4

  0
ENDTAB
  0
TABLE
  2
VIEW
  5
1626
330
0
100
AcDbSymbolTable
 70
     6
  0
VIEW
  5
16C3
330
1626
100
AcDbSymbolTableRecord
100
AcDbViewTableRecord
  2
GEN1
 70
     0
 40
525.0
 10
402.9481129999999
 20
787.5
 41
805.8962259999999
 11
0.0
 21
0.0
 31
1.0
 12
0.0
 22
0.0
 32
0.0
 42
50.0
 43
0.0
 44
0.0
 50
0.0
 71
     0
281
     0
 72
     0
  0
VIEW
  5
16C4
330
1626
100
AcDbSymbolTableRecord
100
AcDbViewTableRecord
  2
GEN2
 70
     0
 40
525.0
 10
647.0518869999999
 20
787.5
 41
805.8962259999999
 11
0.0
 21
0.0
 31
1.0
 12
0.0
 22
0.0
 32
0.0
 42
50.0
 43
0.0
 44
0.0
 50
0.0
 71
     0
281
     0
 72
     0
  0
VIEW
  5
16C5
330
1626
100
AcDbSymbolTableRecord
100
AcDbViewTableRecord
  2
GEN3
 70
     0
 40
525.0
 10
402.9481129999999
 20
262.5
 41
805.8962259999999
 11
0.0
 21
0.0
 31
1.0
 12
0.0
 22
0.0
 32
0.0
 42
50.0
 43
0.0
 44
0.0
 50
0.0
 71
     0
281
     0
 72
     0
  0
VIEW
  5
16C6
330
1626
100
AcDbSymbolTableRecord
100
AcDbViewTableRecord
  2
GEN4
 70
     0
 40
525.0
 10
647.0518869999999
 20
262.5
 41
805.8962259999999
 11
0.0
 21
0.0
 31
1.0
 12
0.0
 22
0.0
 32
0.0
 42
50.0
 43
0.0
 44
0.0
 50
0.0
 71
     0
281
     0
 72
     0
  0
VIEW
  5
16C7
330
1626
100
AcDbSymbolTableRecord
100
AcDbViewTableRecord
  2
GEN5
 70
     0
 40
525.0
 10
525.0
 20
525.0
 41
805.8962259999999
 11
0.0
 21
0.0
 31
1.0
 12
0.0
 22
0.0
 32
0.0
 42
50.0
 43
0.0
 44
0.0
 50
0.0
 71
     0
281
     0
 72
     0
  0
VIEW
  5
16C8
330
1626
100
AcDbSymbolTableRecord
100
AcDbViewTableRecord
  2
GEN6
 70
     0
 40
1049.9895
 10
525.0
 20
525.0
 41
1611.776335
 11
0.0
 21
0.0
 31
1.0
 12
0.0
 22
0.0
 32
0.0
 42
50.0
 43
0.0
 44
0.0
 50
0.0
 71
     0
281
     0
 72
     0
  0
ENDTAB
  0
TABLE
  2
UCS
  5
1627
330
0
100
AcDbSymbolTable
 70
     0
  0
ENDTAB
  0
TABLE
  2
APPID
  5
1629
330
0
100
AcDbSymbolTable
 70
    38
  0
APPID
  5
1630
330
1629
100
AcDbSymbolTableRecord
100
AcDbRegAppTableRecord
  2
ACAD
 70
     0
  0
APPID
  5
1691
330
1629
100
AcDbSymbolTableRecord
100
AcDbRegAppTableRecord
  2
GENIUS_GENCFG_13
 70
     0
1001
GENIUS_GENCFG0_13
1000
GEN@INFO_POS@XLATE
1001
GENIUS_GENCFG1_13
1000
GEN@INFO_POS
1001
GENIUS_GENCFG2_13
1000
GEN@LAYER@DEFS
1001
GENIUS_GENCFG3_13
1000
GEN@LAYER@ENTSORT
1001
GENIUS_GENCFG4_13
1000
GEN
1001
GENIUS_GEVCFG0_13
1000
GEV
1001
GENIUS_DUMCFG0_13
1000
DUM
  0
APPID
  5
1692
330
1629
100
AcDbSymbolTableRecord
100
AcDbRegAppTableRecord
  2
GENIUS_DUMCFG0_13
 70
     0
1001
GENIUS_GENCFG_13
1071
936005558
1000
1692
1000
DUM
1070
     0
  0
APPID
  5
1693
330
1629
100
AcDbSymbolTableRecord
100
AcDbRegAppTableRecord
  2
GENIUS_GENCFG0_13
 70
     0
1001
GENIUS_GENCFG_13
1071
1023340779
1000
1693
1000
GEN@INFO_POS@XLATE
1070
     7
1000
GenCfgObject
1000
GenCfgShort
1000
GenCfgReal
1000
GenCfgBool
1000
GenCfgString
1000
GenCfgDim
1000
GenCfgAttrInf
1000
INFOPOINTS
1070
     0
1002
{
1000
GENINF14
1070
     0
1002
{
1000
2GENINF
1070
     4
1000
2
1002
{
1002
}
1000
5GENINF
1070
     4
1000
5
1002
{
1002
}
1000
7GENINF
1070
     4
1000
7
1002
{
1002
}
1000
9GENINF
1070
     4
1000
9
1002
{
1002
}
1000
11GENINF
1070
     4
1000
11
1002
{
1002
}
1000
14GENINF
1070
     4
1000
14
1002
{
1002
}
1002
}
1000
GENINF13
1070
     0
1002
{
1000
2GENINF
1070
     4
1000
2
1002
{
1002
}
1000
3GENINF
1070
     4
1000
3
1002
{
1002
}
1000
4GENINF
1070
     4
1000
4
1002
{
1002
}
1000
5GENINF
1070
     4
1000
5
1002
{
1002
}
1000
6GENINF
1070
     4
1000
6
1002
{
1002
}
1000
7GENINF
1070
     4
1000
7
1002
{
1002
}
1000
8GENINF
1070
     4
1000
8
1002
{
1002
}
1000
9GENINF
1070
     4
1000
9
1002
{
1002
}
1000
10GENINF
1070
     4
1000
10
1002
{
1002
}
1000
11GENINF
1070
     4
1000
11
1002
{
1002
}
1000
12GENINF
1070
     4
1000
12
1002
{
1002
}
1000
13GENINF
1070
     4
1000
13
1002
{
1002
}
1000
14GENINF
1070
     4
1000
14
1002
{
1002
}
1000
15GENINF
1070
     4
1000
15
1002
{
1002
}
1000
16GENINF
1070
     4
1000
16
1002
{
1002
}
1000
17GENINF
1070
     4
1000
17
1002
{
1002
}
1000
18GENINF
1070
     4
1000
18
1002
{
1002
}
1000
19GENINF
1070
     4
1000
19
1002
{
1002
}
1000
20GENINF
1070
     4
1000
20
1002
{
1002
}
1000
21GENINF
1070
     4
1000
21
1002
{
1002
}
1000
22GENINF
1070
     4
1000
22
1002
{
1002
}
1000
23GENINF
1070
     4
1000
23
1002
{
1002
}
1000
24GENINF
1070
     4
1000
24
1002
{
1002
}
1000
0GENINF
1070
     4
1000
0
1002
{
1002
}
1002
}
1000
GENINFO
1070
     0
1002
{
1000
3GENINF
1070
     4
1000
3
1002
{
1002
}
1000
4GENINF
1070
     4
1000
4
1002
{
1002
}
1000
5GENINF
1070
     4
1000
5
1002
{
1002
}
1000
6GENINF
1070
     4
1000
6
1002
{
1002
}
1000
7GENINF
1070
     4
1000
7
1002
{
1002
}
1000
8GENINF
1070
     4
1000
8
1002
{
1002
}
1000
9GENINF
1070
     4
1000
9
1002
{
1002
}
1000
10GENINF
1070
     4
1000
10
1002
{
1002
}
1000
11GENINF
1070
     4
1000
11
1002
{
1002
}
1000
12GENINF
1070
     4
1000
12
1002
{
1002
}
1000
13GENINF
1070
     4
1000
13
1002
{
1002
}
1000
14GENINF
1070
     4
1000
14
1002
{
1002
}
1000
15GENINF
1070
     4
1000
15
1002
{
1002
}
1000
16GENINF
1070
     4
1000
16
1002
{
1002
}
1000
17GENINF
1070
     4
1000
17
1002
{
1002
}
1000
18GENINF
1070
     4
1000
18
1002
{
1002
}
1000
19GENINF
1070
     4
1000
19
1002
{
1002
}
1000
20GENINF
1070
     4
1000
20
1002
{
1002
}
1000
21GENINF
1070
     4
1000
21
1002
{
1002
}
1000
22GENINF
1070
     4
1000
22
1002
{
1002
}
1002
}
1000
DININFO
1070
     0
1002
{
1000
ST-NAME1
1070
     4
1000
5
1002
{
1002
}
1000
ST-NAME2
1070
     4
1000
6
1002
{
1002
}
1000
ST-NORM1
1070
     4
1000
7
1002
{
1002
}
1000
ST-NORM2
1070
     4
1000
8
1002
{
1002
}
1000
ST-MAT1
1070
     4
1000
9
1002
{
1002
}
1000
ST-MAT2
1070
     4
1000
10
1002
{
1002
}
1002
}
1002
}
1000
POS_NUMBERS
1070
     0
1002
{
1000
GENPOS14
1070
     0
1002
{
1000
1GENPOS
1070
     4
1000
1
1002
{
1002
}
1000
2GENPOS
1070
     4
1000
2
1002
{
1002
}
1000
5GENPOS
1070
     4
1000
5
1002
{
1002
}
1000
7GENPOS
1070
     4
1000
7
1002
{
1002
}
1000
9GENPOS
1070
     4
1000
9
1002
{
1002
}
1000
11GENPOS
1070
     4
1000
11
1002
{
1002
}
1000
14GENPOS
1070
     4
1000
14
1002
{
1002
}
1002
}
1000
GENPOS13
1070
     0
1002
{
1000
1GENPOS
1070
     4
1000
1
1002
{
1002
}
1000
2GENPOS
1070
     4
1000
2
1002
{
1002
}
1000
3GENPOS
1070
     4
1000
3
1002
{
1002
}
1000
4GENPOS
1070
     4
1000
4
1002
{
1002
}
1000
5GENPOS
1070
     4
1000
5
1002
{
1002
}
1000
6GENPOS
1070
     4
1000
6
1002
{
1002
}
1000
7GENPOS
1070
     4
1000
7
1002
{
1002
}
1000
8GENPOS
1070
     4
1000
8
1002
{
1002
}
1000
9GENPOS
1070
     4
1000
9
1002
{
1002
}
1000
10GENPOS
1070
     4
1000
10
1002
{
1002
}
1000
11GENPOS
1070
     4
1000
11
1002
{
1002
}
1000
12GENPOS
1070
     4
1000
12
1002
{
1002
}
1000
13GENPOS
1070
     4
1000
13
1002
{
1002
}
1000
14GENPOS
1070
     4
1000
14
1002
{
1002
}
1000
15GENPOS
1070
     4
1000
15
1002
{
1002
}
1000
16GENPOS
1070
     4
1000
16
1002
{
1002
}
1000
17GENPOS
1070
     4
1000
17
1002
{
1002
}
1000
18GENPOS
1070
     4
1000
18
1002
{
1002
}
1000
19GENPOS
1070
     4
1000
19
1002
{
1002
}
1000
20GENPOS
1070
     4
1000
20
1002
{
1002
}
1000
21GENPOS
1070
     4
1000
21
1002
{
1002
}
1000
22GENPOS
1070
     4
1000
22
1002
{
1002
}
1000
23GENPOS
1070
     4
1000
23
1002
{
1002
}
1000
24GENPOS
1070
     4
1000
24
1002
{
1002
}
1000
0GENPOS
1070
     4
1000
0
1002
{
1002
}
1002
}
1000
GENPOS
1070
     0
1002
{
1000
1GENPOS
1070
     4
1000
1
1002
{
1002
}
1000
2GENPOS
1070
     4
1000
2
1002
{
1002
}
1000
3GENPOS
1070
     4
1000
3
1002
{
1002
}
1000
4GENPOS
1070
     4
1000
4
1002
{
1002
}
1000
5GENPOS
1070
     4
1000
5
1002
{
1002
}
1000
6GENPOS
1070
     4
1000
6
1002
{
1002
}
1000
7GENPOS
1070
     4
1000
7
1002
{
1002
}
1000
8GENPOS
1070
     4
1000
8
1002
{
1002
}
1000
9GENPOS
1070
     4
1000
9
1002
{
1002
}
1000
10GENPOS
1070
     4
1000
10
1002
{
1002
}
1000
11GENPOS
1070
     4
1000
11
1002
{
1002
}
1000
12GENPOS
1070
     4
1000
12
1002
{
1002
}
1000
13GENPOS
1070
     4
1000
13
1002
{
1002
}
1000
14GENPOS
1070
     4
1000
14
1002
{
1002
}
1000
15GENPOS
1070
     4
1000
15
1002
{
1002
}
1000
16GENPOS
1070
     4
1000
16
1002
{
1002
}
1000
17GENPOS
1070
     4
1000
17
1002
{
1002
}
1000
18GENPOS
1070
     4
1000
18
1002
{
1002
}
1000
19GENPOS
1070
     4
1000
19
1002
{
1002
}
1000
20GENPOS
1070
     4
1000
20
1002
{
1002
}
1000
21GENPOS
1070
     4
1000
21
1002
{
1002
}
1000
22GENPOS
1070
     4
1000
22
1002
{
1002
}
1000
23GENPOS
1070
     4
1000
23
1002
{
1002
}
1002
}
1000
DIN985
1070
     0
1002
{
1000
POSITION
1070
     4
1000
1
1002
{
1002
}
1000
MENGE
1070
     4
1000
2
1002
{
1002
}
1000
BLATT
1070
     4
1000
3
1002
{
1002
}
1000
BENENN
1070
     4
1000
5
1002
{
1002
}
1000
BENENN2
1070
     4
1000
6
1002
{
1002
}
1000
NORM
1070
     4
1000
7
1002
{
1002
}
1000
NORM2
1070
     4
1000
8
1002
{
1002
}
1000
WERKSTOFF
1070
     4
1000
9
1002
{
1002
}
1000
WERKSTOFF2
1070
     4
1000
10
1002
{
1002
}
1002
}
1000
DIN986
1070
     0
1002
{
1000
POSITION
1070
     4
1000
1
1002
{
1002
}
1000
MENGE
1070
     4
1000
2
1002
{
1002
}
1000
BLATT
1070
     4
1000
3
1002
{
1002
}
1000
BENENN
1070
     4
1000
5
1002
{
1002
}
1000
BENENN2
1070
     4
1000
6
1002
{
1002
}
1000
NORM
1070
     4
1000
7
1002
{
1002
}
1000
NORM2
1070
     4
1000
8
1002
{
1002
}
1000
WERKSTOFF
1070
     4
1000
9
1002
{
1002
}
1000
WERKSTOFF2
1070
     4
1000
10
1002
{
1002
}
1002
}
1000
DIN987
1070
     0
1002
{
1000
POSITION
1070
     4
1000
1
1002
{
1002
}
1000
MENGE
1070
     4
1000
2
1002
{
1002
}
1000
BLATT
1070
     4
1000
3
1002
{
1002
}
1000
BENENN
1070
     4
1000
5
1002
{
1002
}
1000
BENENN2
1070
     4
1000
6
1002
{
1002
}
1000
NORM
1070
     4
1000
7
1002
{
1002
}
1000
NORM2
1070
     4
1000
8
1002
{
1002
}
1000
WERKSTOFF
1070
     4
1000
9
1002
{
1002
}
1000
WERKSTOFF2
1070
     4
1000
10
1002
{
1002
}
1002
}
1002
}
  0
APPID
  5
1694
330
1629
100
AcDbSymbolTableRecord
100
AcDbRegAppTableRecord
  2
GENIUS_GENCFG1_13
 70
     0
1001
GENIUS_GENCFG_13
1071
1023340779
1000
1694
1000
GEN@INFO_POS
1070
     7
1000
GenCfgObject
1000
GenCfgShort
1000
GenCfgReal
1000
GenCfgBool
1000
GenCfgString
1000
GenCfgDim
1000
GenCfgAttrInf
1000
DescrText
1070
     4
1000
5, ,6, ,7, ,8
1002
{
1002
}
1000
DescrText2
1070
     4
1000
26
1002
{
1002
}
1000
VisibleAttr1
1070
     4
1000
1
1002
{
1002
}
1000
VisibleAttr2
1070
     4
1000
26
1002
{
1002
}
1000
UpdateBlock
1070
     3
1070
     1
1002
{
1002
}
1000
Attrib
1070
     0
1002
{
1000
0
1070
     6
1002
{
1000
Prompt
1070
     4
1000
(genmsg gendwg 103)
1002
{
1002
}
1000
Value
1070
     4
1000

1002
{
1002
}
1000
EditFlag
1070
     1
1070
     0
1002
{
1002
}
1000
PosInDDATTE
1070
     1
1070
    27
1002
{
1002
}
1000
FieldLen
1070
     1
1070
    -1
1002
{
1002
}
1002
}
1000
1
1070
     6
1002
{
1000
Prompt
1070
     4
1000
(genmsg gendwg 31)
1002
{
1002
}
1000
Value
1070
     4
1000
1
1002
{
1002
}
1000
EditFlag
1070
     1
1070
     1
1002
{
1002
}
1000
PosInDDATTE
1070
     1
1070
     1
1002
{
1002
}
1000
FieldLen
1070
     1
1070
    -1
1002
{
1002
}
1002
}
1000
2
1070
     6
1002
{
1000
Prompt
1070
     4
1000
(genmsg gendwg 32)
1002
{
1002
}
1000
Value
1070
     4
1000
1
1002
{
1002
}
1000
EditFlag
1070
     1
1070
     1
1002
{
1002
}
1000
PosInDDATTE
1070
     1
1070
     2
1002
{
1002
}
1000
FieldLen
1070
     1
1070
    -1
1002
{
1002
}
1002
}
1000
3
1070
     6
1002
{
1000
Prompt
1070
     4
1000
(genmsg gendwg 33)
1002
{
1002
}
1000
Value
1070
     4
1000

1002
{
1002
}
1000
EditFlag
1070
     1
1070
     1
1002
{
1002
}
1000
PosInDDATTE
1070
     1
1070
     3
1002
{
1002
}
1000
FieldLen
1070
     1
1070
    -1
1002
{
1002
}
1002
}
1000
4
1070
     6
1002
{
1000
Prompt
1070
     4
1000
(genmsg gendwg 34)
1002
{
1002
}
1000
Value
1070
     4
1000

1002
{
1002
}
1000
EditFlag
1070
     1
1070
     1
1002
{
1002
}
1000
PosInDDATTE
1070
     1
1070
     4
1002
{
1002
}
1000
FieldLen
1070
     1
1070
    -1
1002
{
1002
}
1002
}
1000
5
1070
     6
1002
{
1000
Prompt
1070
     4
1000
(genmsg gendwg 35)
1002
{
1002
}
1000
Value
1070
     4
1000

1002
{
1002
}
1000
EditFlag
1070
     1
1070
     1
1002
{
1002
}
1000
PosInDDATTE
1070
     1
1070
     5
1002
{
1002
}
1000
FieldLen
1070
     1
1070
    -1
1002
{
1002
}
1002
}
1000
6
1070
     6
1002
{
1000
Prompt
1070
     4
1000
(genmsg gendwg 36)
1002
{
1002
}
1000
Value
1070
     4
1000

1002
{
1002
}
1000
EditFlag
1070
     1
1070
     1
1002
{
1002
}
1000
PosInDDATTE
1070
     1
1070
     6
1002
{
1002
}
1000
FieldLen
1070
     1
1070
    -1
1002
{
1002
}
1002
}
1000
7
1070
     6
1002
{
1000
Prompt
1070
     4
1000
(genmsg gendwg 37)
1002
{
1002
}
1000
Value
1070
     4
1000

1002
{
1002
}
1000
EditFlag
1070
     1
1070
     1
1002
{
1002
}
1000
PosInDDATTE
1070
     1
1070
     7
1002
{
1002
}
1000
FieldLen
1070
     1
1070
    -1
1002
{
1002
}
1002
}
1000
8
1070
     6
1002
{
1000
Prompt
1070
     4
1000
(genmsg gendwg 38)
1002
{
1002
}
1000
Value
1070
     4
1000

1002
{
1002
}
1000
EditFlag
1070
     1
1070
     1
1002
{
1002
}
1000
PosInDDATTE
1070
     1
1070
     8
1002
{
1002
}
1000
FieldLen
1070
     1
1070
    -1
1002
{
1002
}
1002
}
1000
9
1070
     6
1002
{
1000
Prompt
1070
     4
1000
(genmsg gendwg 39)
1002
{
1002
}
1000
Value
1070
     4
1000

1002
{
1002
}
1000
EditFlag
1070
     1
1070
     1
1002
{
1002
}
1000
PosInDDATTE
1070
     1
1070
     9
1002
{
1002
}
1000
FieldLen
1070
     1
1070
    -1
1002
{
1002
}
1002
}
1000
10
1070
     6
1002
{
1000
Prompt
1070
     4
1000
(genmsg gendwg 40)
1002
{
1002
}
1000
Value
1070
     4
1000

1002
{
1002
}
1000
EditFlag
1070
     1
1070
     1
1002
{
1002
}
1000
PosInDDATTE
1070
     1
1070
    10
1002
{
1002
}
1000
FieldLen
1070
     1
1070
    -1
1002
{
1002
}
1002
}
1000
11
1070
     6
1002
{
1000
Prompt
1070
     4
1000
(genmsg gendwg 41)
1002
{
1002
}
1000
Value
1070
     4
1000

1002
{
1002
}
1000
EditFlag
1070
     1
1070
     1
1002
{
1002
}
1000
PosInDDATTE
1070
     1
1070
    11
1002
{
1002
}
1000
FieldLen
1070
     1
1070
    -1
1002
{
1002
}
1002
}
1000
12
1070
     6
1002
{
1000
Prompt
1070
     4
1000
(genmsg gendwg 42)
1002
{
1002
}
1000
Value
1070
     4
1000

1002
{
1002
}
1000
EditFlag
1070
     1
1070
     1
1002
{
1002
}
1000
PosInDDATTE
1070
     1
1070
    12
1002
{
1002
}
1000
FieldLen
1070
     1
1070
    -1
1002
{
1002
}
1002
}
1000
13
1070
     6
1002
{
1000
Prompt
1070
     4
1000
(genmsg gendwg 43)
1002
{
1002
}
1000
Value
1070
     4
1000

1002
{
1002
}
1000
EditFlag
1070
     1
1070
     1
1002
{
1002
}
1000
PosInDDATTE
1070
     1
1070
    13
1002
{
1002
}
1000
FieldLen
1070
     1
1070
    -1
1002
{
1002
}
1002
}
1000
14
1070
     6
1002
{
1000
Prompt
1070
     4
1000
(genmsg gendwg 44)
1002
{
1002
}
1000
Value
1070
     4
1000

1002
{
1002
}
1000
EditFlag
1070
     1
1070
     1
1002
{
1002
}
1000
PosInDDATTE
1070
     1
1070
    14
1002
{
1002
}
1000
FieldLen
1070
     1
1070
    -1
1002
{
1002
}
1002
}
1000
15
1070
     6
1002
{
1000
Prompt
1070
     4
1000
(genmsg gendwg 45)
1002
{
1002
}
1000
Value
1070
     4
1000

1002
{
1002
}
1000
EditFlag
1070
     1
1070
     1
1002
{
1002
}
1000
PosInDDATTE
1070
     1
1070
    15
1002
{
1002
}
1000
FieldLen
1070
     1
1070
    -1
1002
{
1002
}
1002
}
1000
16
1070
     6
1002
{
1000
Prompt
1070
     4
1000
(genmsg gendwg 46)
1002
{
1002
}
1000
Value
1070
     4
1000

1002
{
1002
}
1000
EditFlag
1070
     1
1070
     1
1002
{
1002
}
1000
PosInDDATTE
1070
     1
1070
    16
1002
{
1002
}
1000
FieldLen
1070
     1
1070
    -1
1002
{
1002
}
1002
}
1000
17
1070
     6
1002
{
1000
Prompt
1070
     4
1000
(genmsg gendwg 47)
1002
{
1002
}
1000
Value
1070
     4
1000

1002
{
1002
}
1000
EditFlag
1070
     1
1070
     1
1002
{
1002
}
1000
PosInDDATTE
1070
     1
1070
    17
1002
{
1002
}
1000
FieldLen
1070
     1
1070
    -1
1002
{
1002
}
1002
}
1000
18
1070
     6
1002
{
1000
Prompt
1070
     4
1000
(genmsg gendwg 48)
1002
{
1002
}
1000
Value
1070
     4
1000

1002
{
1002
}
1000
EditFlag
1070
     1
1070
     1
1002
{
1002
}
1000
PosInDDATTE
1070
     1
1070
    18
1002
{
1002
}
1000
FieldLen
1070
     1
1070
    -1
1002
{
1002
}
1002
}
1000
19
1070
     6
1002
{
1000
Prompt
1070
     4
1000
(genmsg gendwg 99)
1002
{
1002
}
1000
Value
1070
     4
1000

1002
{
1002
}
1000
EditFlag
1070
     1
1070
     1
1002
{
1002
}
1000
PosInDDATTE
1070
     1
1070
    19
1002
{
1002
}
1000
FieldLen
1070
     1
1070
    -1
1002
{
1002
}
1002
}
1000
20
1070
     6
1002
{
1000
Prompt
1070
     4
1000
(genmsg gendwg 100)
1002
{
1002
}
1000
Value
1070
     4
1000

1002
{
1002
}
1000
EditFlag
1070
     1
1070
     1
1002
{
1002
}
1000
PosInDDATTE
1070
     1
1070
    20
1002
{
1002
}
1000
FieldLen
1070
     1
1070
    -1
1002
{
1002
}
1002
}
1000
21
1070
     6
1002
{
1000
Prompt
1070
     4
1000
(genmsg gendwg 101)
1002
{
1002
}
1000
Value
1070
     4
1000

1002
{
1002
}
1000
EditFlag
1070
     1
1070
     1
1002
{
1002
}
1000
PosInDDATTE
1070
     1
1070
    21
1002
{
1002
}
1000
FieldLen
1070
     1
1070
    -1
1002
{
1002
}
1002
}
1000
22
1070
     6
1002
{
1000
Prompt
1070
     4
1000
(genmsg gendwg 102)
1002
{
1002
}
1000
Value
1070
     4
1000

1002
{
1002
}
1000
EditFlag
1070
     1
1070
     1
1002
{
1002
}
1000
PosInDDATTE
1070
     1
1070
    22
1002
{
1002
}
1000
FieldLen
1070
     1
1070
    -1
1002
{
1002
}
1002
}
1000
23
1070
     6
1002
{
1000
Prompt
1070
     4
1000
(genmsg gendwg 30)
1002
{
1002
}
1000
Value
1070
     4
1000

1002
{
1002
}
1000
EditFlag
1070
     1
1070
     1
1002
{
1002
}
1000
PosInDDATTE
1070
     1
1070
    23
1002
{
1002
}
1000
FieldLen
1070
     1
1070
    -1
1002
{
1002
}
1002
}
1000
24
1070
     6
1002
{
1000
Prompt
1070
     4
1000
(genmsg gendwg 104)
1002
{
1002
}
1000
Value
1070
     4
1000

1002
{
1002
}
1000
EditFlag
1070
     1
1070
     1
1002
{
1002
}
1000
PosInDDATTE
1070
     1
1070
    24
1002
{
1002
}
1000
FieldLen
1070
     1
1070
    -1
1002
{
1002
}
1002
}
1000
25
1070
     6
1002
{
1000
Prompt
1070
     4
1000
(genmsg gendwg 105)
1002
{
1002
}
1000
Value
1070
     4
1000

1002
{
1002
}
1000
EditFlag
1070
     1
1070
     1
1002
{
1002
}
1000
PosInDDATTE
1070
     1
1070
    25
1002
{
1002
}
1000
FieldLen
1070
     1
1070
    -1
1002
{
1002
}
1002
}
1000
26
1070
     6
1002
{
1000
Prompt
1070
     4
1000
(genmsg gendwg 106)
1002
{
1002
}
1000
Value
1070
     4
1000

1002
{
1002
}
1000
EditFlag
1070
     1
1070
     1
1002
{
1002
}
1000
PosInDDATTE
1070
     1
1070
    26
1002
{
1002
}
1000
FieldLen
1070
     1
1070
    -1
1002
{
1002
}
1002
}
1000
27
1070
     6
1002
{
1000
Prompt
1070
     4
1000
(genmsg gendwg 109)
1002
{
1002
}
1000
Value
1070
     4
1000

1002
{
1002
}
1000
EditFlag
1070
     1
1070
     2
1002
{
1002
}
1000
PosInDDATTE
1070
     1
1070
    27
1002
{
1002
}
1000
FieldLen
1070
     1
1070
    -1
1002
{
1002
}
1002
}
1002
}
1000
Xlate
1070
     0
1002
{
1000
>
1002
}
  0
APPID
  5
1695
330
1629
100
AcDbSymbolTableRecord
100
AcDbRegAppTableRecord
  2
GENIUS_GENCFG2_13
 70
     0
1001
GENIUS_GENCFG_13
1071
1023340779
1000
1695
1000
GEN@LAYER@DEFS
1070
     9
1000
GenCfgObject
1000
GenCfgShort
1000
GenCfgReal
1000
GenCfgBool
1000
GenCfgString
1000
GenCfgDim
1000
GenCfgAttrInf
1000
GenCfgLaySection
1000
GenCfgLayer
1000
Basic
1070
     0
1002
{
1000
0
1070
     8
1000
0
1002
{
1000
Color
1070
     1
1070
     7
1002
{
1002
}
1000
LType
1070
     4
1000
CONTINUOUS
1002
{
1002
}
1000
Base
1070
     3
1070
     0
1002
{
1002
}
1002
}
1000
1
1070
     8
1000
1
1002
{
1000
Color
1070
     1
1070
    14
1002
{
1002
}
1000
LType
1070
     4
1000
CONTINUOUS
1002
{
1002
}
1000
Base
1070
     3
1070
     0
1002
{
1002
}
1002
}
1000
2
1070
     8
1000
2
1002
{
1000
Color
1070
     1
1070
     5
1002
{
1002
}
1000
LType
1070
     4
1000
CONTINUOUS
1002
{
1002
}
1000
Base
1070
     3
1070
     0
1002
{
1002
}
1002
}
1000
3
1070
     8
1000
3
1002
{
1000
Color
1070
     1
1070
     6
1002
{
1002
}
1000
LType
1070
     4
1000
GEN3
1002
{
1002
}
1000
Base
1070
     3
1070
     0
1002
{
1002
}
1002
}
1000
4
1070
     8
1000
4
1002
{
1000
Color
1070
     1
1070
     3
1002
{
1002
}
1000
LType
1070
     4
1000
CONTINUOUS
1002
{
1002
}
1000
Base
1070
     3
1070
     0
1002
{
1002
}
1002
}
1000
5
1070
     8
1000
5
1002
{
1000
Color
1070
     1
1070
     3
1002
{
1002
}
1000
LType
1070
     4
1000
CONTINUOUS
1002
{
1002
}
1000
Base
1070
     3
1070
     0
1002
{
1002
}
1002
}
1000
6
1070
     8
1000
6
1002
{
1000
Color
1070
     1
1070
     2
1002
{
1002
}
1000
LType
1070
     4
1000
CONTINUOUS
1002
{
1002
}
1000
Base
1070
     3
1070
     0
1002
{
1002
}
1002
}
1000
7
1070
     8
1000
7
1002
{
1000
Color
1070
     1
1070
     4
1002
{
1002
}
1000
LType
1070
     4
1000
GEN7
1002
{
1002
}
1000
Base
1070
     3
1070
     0
1002
{
1002
}
1002
}
1000
8
1070
     8
1000
8
1002
{
1000
Color
1070
     1
1070
     1
1002
{
1002
}
1000
LType
1070
     4
1000
CONTINUOUS
1002
{
1002
}
1000
Base
1070
     3
1070
     0
1002
{
1002
}
1002
}
1000
3A
1070
     8
1000
3A
1002
{
1000
Color
1070
     1
1070
     6
1002
{
1002
}
1000
LType
1070
     4
1000
GEN3A
1002
{
1002
}
1000
Base
1070
     3
1070
     0
1002
{
1002
}
1002
}
1000
7A
1070
     8
1000
7A
1002
{
1000
Color
1070
     1
1070
     4
1002
{
1002
}
1000
LType
1070
     4
1000
GEN7A
1002
{
1002
}
1000
Base
1070
     3
1070
     0
1002
{
1002
}
1002
}
1000
2A
1070
     8
1000
2A
1002
{
1000
Color
1070
     1
1070
     7
1002
{
1002
}
1000
LType
1070
     4
1000
GEN7
1002
{
1002
}
1000
Base
1070
     3
1070
     0
1002
{
1002
}
1002
}
1000
4A
1070
     8
1000
4A
1002
{
1000
Color
1070
     1
1070
     3
1002
{
1002
}
1000
LType
1070
     4
1000
GEN4A
1002
{
1002
}
1000
Base
1070
     3
1070
     0
1002
{
1002
}
1002
}
1000
9
1070
     8
1000
9
1002
{
1000
Color
1070
     1
1070
   253
1002
{
1002
}
1000
LType
1070
     4
1000
CONTINUOUS
1002
{
1002
}
1000
Base
1070
     3
1070
     0
1002
{
1002
}
1002
}
1000
IP
1070
     8
1000
IP
1002
{
1000
Color
1070
     1
1070
     7
1002
{
1002
}
1000
LType
1070
     4
1000
CONTINUOUS
1002
{
1002
}
1000
Base
1070
     3
1070
     0
1002
{
1002
}
1002
}
1002
}
1000
Standard
1070
     0
1002
{
1000
0N
1070
     8
1000
0N
1002
{
1000
Color
1070
     1
1070
     7
1002
{
1002
}
1000
LType
1070
     4
1000
CONTINUOUS
1002
{
1002
}
1000
Base
1070
     3
1070
     0
1002
{
1002
}
1002
}
1000
1N
1070
     8
1000
1N
1002
{
1000
Color
1070
     1
1070
    14
1002
{
1002
}
1000
LType
1070
     4
1000
CONTINUOUS
1002
{
1002
}
1000
Base
1070
     3
1070
     0
1002
{
1002
}
1002
}
1000
2N
1070
     8
1000
2N
1002
{
1000
Color
1070
     1
1070
     5
1002
{
1002
}
1000
LType
1070
     4
1000
CONTINUOUS
1002
{
1002
}
1000
Base
1070
     3
1070
     0
1002
{
1002
}
1002
}
1000
3N
1070
     8
1000
3N
1002
{
1000
Color
1070
     1
1070
     6
1002
{
1002
}
1000
LType
1070
     4
1000
GEN3
1002
{
1002
}
1000
Base
1070
     3
1070
     0
1002
{
1002
}
1002
}
1000
4N
1070
     8
1000
4N
1002
{
1000
Color
1070
     1
1070
     3
1002
{
1002
}
1000
LType
1070
     4
1000
CONTINUOUS
1002
{
1002
}
1000
Base
1070
     3
1070
     0
1002
{
1002
}
1002
}
1000
5N
1070
     8
1000
5N
1002
{
1000
Color
1070
     1
1070
     3
1002
{
1002
}
1000
LType
1070
     4
1000
CONTINUOUS
1002
{
1002
}
1000
Base
1070
     3
1070
     0
1002
{
1002
}
1002
}
1000
6N
1070
     8
1000
6N
1002
{
1000
Color
1070
     1
1070
     2
1002
{
1002
}
1000
LType
1070
     4
1000
CONTINUOUS
1002
{
1002
}
1000
Base
1070
     3
1070
     0
1002
{
1002
}
1002
}
1000
7N
1070
     8
1000
7N
1002
{
1000
Color
1070
     1
1070
     4
1002
{
1002
}
1000
LType
1070
     4
1000
GEN7
1002
{
1002
}
1000
Base
1070
     3
1070
     0
1002
{
1002
}
1002
}
1000
8N
1070
     8
1000
8N
1002
{
1000
Color
1070
     1
1070
     1
1002
{
1002
}
1000
LType
1070
     4
1000
CONTINUOUS
1002
{
1002
}
1000
Base
1070
     3
1070
     0
1002
{
1002
}
1002
}
1000
3AN
1070
     8
1000
3AN
1002
{
1000
Color
1070
     1
1070
     6
1002
{
1002
}
1000
LType
1070
     4
1000
GEN3A
1002
{
1002
}
1000
Base
1070
     3
1070
     0
1002
{
1002
}
1002
}
1000
7AN
1070
     8
1000
7AN
1002
{
1000
Color
1070
     1
1070
     4
1002
{
1002
}
1000
LType
1070
     4
1000
GEN7A
1002
{
1002
}
1000
Base
1070
     3
1070
     0
1002
{
1002
}
1002
}
1000
2AN
1070
     8
1000
2AN
1002
{
1000
Color
1070
     1
1070
     7
1002
{
1002
}
1000
LType
1070
     4
1000
GEN7
1002
{
1002
}
1000
Base
1070
     3
1070
     0
1002
{
1002
}
1002
}
1000
4AN
1070
     8
1000
4AN
1002
{
1000
Color
1070
     1
1070
     3
1002
{
1002
}
1000
LType
1070
     4
1000
GEN4A
1002
{
1002
}
1000
Base
1070
     3
1070
     0
1002
{
1002
}
1002
}
1000
9N
1070
     8
1000
9N
1002
{
1000
Color
1070
     1
1070
   253
1002
{
1002
}
1000
LType
1070
     4
1000
CONTINUOUS
1002
{
1002
}
1000
Base
1070
     3
1070
     0
1002
{
1002
}
1002
}
1000
IPN
1070
     8
1000
IPN
1002
{
1000
Color
1070
     1
1070
     7
1002
{
1002
}
1000
LType
1070
     4
1000
CONTINUOUS
1002
{
1002
}
1000
Base
1070
     3
1070
     0
1002
{
1002
}
1002
}
1002
}
1000
Extra
1070
     0
1002
{
1000
Klin
1070
     8
1000
KLIN
1002
{
1000
Color
1070
     1
1070
     1
1002
{
1002
}
1000
LType
1070
     4
1000
CONTINUOUS
1002
{
1002
}
1000
Base
1070
     3
1070
     1
1002
{
1002
}
1002
}
1000
Info
1070
     8
1000
INFO
1002
{
1000
Color
1070
     1
1070
     4
1002
{
1002
}
1000
LType
1070
     4
1000
CONTINUOUS
1002
{
1002
}
1000
Base
1070
     3
1070
     1
1002
{
1002
}
1002
}
1000
Rahm2
1070
     8
1000
RAHM2
1002
{
1000
Color
1070
     1
1070
     1
1002
{
1002
}
1000
LType
1070
     4
1000
CONTINUOUS
1002
{
1002
}
1000
Base
1070
     3
1070
     1
1002
{
1002
}
1002
}
1000
Rahm3
1070
     8
1000
RAHM3
1002
{
1000
Color
1070
     1
1070
     2
1002
{
1002
}
1000
LType
1070
     4
1000
CONTINUOUS
1002
{
1002
}
1000
Base
1070
     3
1070
     1
1002
{
1002
}
1002
}
1000
Rahm5
1070
     8
1000
RAHM5
1002
{
1000
Color
1070
     1
1070
     7
1002
{
1002
}
1000
LType
1070
     4
1000
CONTINUOUS
1002
{
1002
}
1000
Base
1070
     3
1070
     1
1002
{
1002
}
1002
}
1000
View
1070
     8
1000
VIEW
1002
{
1000
Color
1070
     1
1070
     1
1002
{
1002
}
1000
LType
1070
     4
1000
CONTINUOUS
1002
{
1002
}
1000
Base
1070
     3
1070
     1
1002
{
1002
}
1002
}
1000
Behind
1070
     8
1000
BEHIND
1002
{
1000
Color
1070
     1
1070
   253
1002
{
1002
}
1000
LType
1070
     4
1000
CONTINUOUS
1002
{
1002
}
1000
Base
1070
     3
1070
     1
1002
{
1002
}
1002
}
1002
}
  0
APPID
  5
1696
330
1629
100
AcDbSymbolTableRecord
100
AcDbRegAppTableRecord
  2
GENIUS_GENCFG3_13
 70
     0
1001
GENIUS_GENCFG_13
1071
1023340779
1000
1696
1000
GEN@LAYER@ENTSORT
1070
    10
1000
GenCfgObject
1000
GenCfgShort
1000
GenCfgReal
1000
GenCfgBool
1000
GenCfgString
1000
GenCfgDim
1000
GenCfgAttrInf
1000
GenCfgLaySection
1000
GenCfgLayer
1000
GenCfgEntSort
1000
ADDL
1070
     9
1000
5
1002
{
1000
Class
1070
     4
1000
SYM
1002
{
1002
}
1000
Color
1070
     1
1070
     1
1002
{
1002
}
1000
LType
1070
     4
1000
BYLAYER
1002
{
1002
}
1002
}
1000
ALTR
1070
     9
1000
4
1002
{
1000
Class
1070
     4
1000

1002
{
1002
}
1000
Color
1070
     1
1070
     7
1002
{
1002
}
1000
LType
1070
     4
1000
GEN3A
1002
{
1002
}
1002
}
1000
BELI
1070
     9
1000
4
1002
{
1000
Class
1070
     4
1000

1002
{
1002
}
1000
Color
1070
     1
1070
   256
1002
{
1002
}
1000
LType
1070
     4
1000
BYLAYER
1002
{
1002
}
1002
}
1000
BHNV
1070
     9
1000
9
1002
{
1000
Class
1070
     4
1000
INV
1002
{
1002
}
1000
Color
1070
     1
1070
   256
1002
{
1002
}
1000
LType
1070
     4
1000
BYLAYER
1002
{
1002
}
1002
}
1000
BHNVS
1070
     9
1000
BEHIND
1002
{
1000
Class
1070
     4
1000
INV
1002
{
1002
}
1000
Color
1070
     1
1070
   256
1002
{
1002
}
1000
LType
1070
     4
1000
BYLAYER
1002
{
1002
}
1002
}
1000
BLID
1070
     9
1000
4A
1002
{
1000
Class
1070
     4
1000

1002
{
1002
}
1000
Color
1070
     1
1070
   256
1002
{
1002
}
1000
LType
1070
     4
1000
BYLAYER
1002
{
1002
}
1002
}
1000
BOAP
1070
     9
1000
4A
1002
{
1000
Class
1070
     4
1000

1002
{
1002
}
1000
Color
1070
     1
1070
   256
1002
{
1002
}
1000
LType
1070
     4
1000
BYLAYER
1002
{
1002
}
1002
}
1000
BOR2
1070
     9
1000
RAHM2
1002
{
1000
Class
1070
     4
1000
SPZ,SYM
1002
{
1002
}
1000
Color
1070
     1
1070
   256
1002
{
1002
}
1000
LType
1070
     4
1000
BYLAYER
1002
{
1002
}
1002
}
1000
BOR3
1070
     9
1000
RAHM3
1002
{
1000
Class
1070
     4
1000
SPZ,SYM
1002
{
1002
}
1000
Color
1070
     1
1070
   256
1002
{
1002
}
1000
LType
1070
     4
1000
BYLAYER
1002
{
1002
}
1002
}
1000
BOR5
1070
     9
1000
RAHM5
1002
{
1000
Class
1070
     4
1000
SPZ,SYM
1002
{
1002
}
1000
Color
1070
     1
1070
   256
1002
{
1002
}
1000
LType
1070
     4
1000
BYLAYER
1002
{
1002
}
1002
}
1000
BOR7
1070
     9
1000
RAHM5
1002
{
1000
Class
1070
     4
1000
SPZ,SYM
1002
{
1002
}
1000
Color
1070
     1
1070
     7
1002
{
1002
}
1000
LType
1070
     4
1000
CONTINUOUS
1002
{
1002
}
1002
}
1000
BPAP
1070
     9
1000
4A
1002
{
1000
Class
1070
     4
1000

1002
{
1002
}
1000
Color
1070
     1
1070
   256
1002
{
1002
}
1000
LType
1070
     4
1000
BYLAYER
1002
{
1002
}
1002
}
1000
BPEX
1070
     9
1000
4A
1002
{
1000
Class
1070
     4
1000

1002
{
1002
}
1000
Color
1070
     1
1070
   256
1002
{
1002
}
1000
LType
1070
     4
1000
BYLAYER
1002
{
1002
}
1002
}
1000
BTDI
1070
     9
1000
5
1002
{
1000
Class
1070
     4
1000
DIM,SYM
1002
{
1002
}
1000
Color
1070
     1
1070
   256
1002
{
1002
}
1000
LType
1070
     4
1000
BYLAYER
1002
{
1002
}
1002
}
1000
CAL2
1070
     9
1000
4
1002
{
1000
Class
1070
     4
1000
SYM
1002
{
1002
}
1000
Color
1070
     1
1070
   256
1002
{
1002
}
1000
LType
1070
     4
1000
BYLAYER
1002
{
1002
}
1002
}
1000
CAL3
1070
     9
1000
4
1002
{
1000
Class
1070
     4
1000
SYM
1002
{
1002
}
1000
Color
1070
     1
1070
     2
1002
{
1002
}
1000
LType
1070
     4
1000
BYLAYER
1002
{
1002
}
1002
}
1000
CAL5
1070
     9
1000
4
1002
{
1000
Class
1070
     4
1000
SYM
1002
{
1002
}
1000
Color
1070
     1
1070
     7
1002
{
1002
}
1000
LType
1070
     4
1000
BYLAYER
1002
{
1002
}
1002
}
1000
CAL7
1070
     9
1000
4
1002
{
1000
Class
1070
     4
1000
SYM
1002
{
1002
}
1000
Color
1070
     1
1070
     5
1002
{
1002
}
1000
LType
1070
     4
1000
BYLAYER
1002
{
1002
}
1002
}
1000
CENN
1070
     9
1000
7A
1002
{
1000
Class
1070
     4
1000
CEN
1002
{
1002
}
1000
Color
1070
     1
1070
   256
1002
{
1002
}
1000
LType
1070
     4
1000
BYLAYER
1002
{
1002
}
1002
}
1000
CENW
1070
     9
1000
7
1002
{
1000
Class
1070
     4
1000
CEN
1002
{
1002
}
1000
Color
1070
     1
1070
   256
1002
{
1002
}
1000
LType
1070
     4
1000
BYLAYER
1002
{
1002
}
1002
}
1000
CLIN
1070
     9
1000
KLIN
1002
{
1000
Class
1070
     4
1000
SPZ
1002
{
1002
}
1000
Color
1070
     1
1070
   256
1002
{
1002
}
1000
LType
1070
     4
1000
BYLAYER
1002
{
1002
}
1002
}
1000
CON1
1070
     9
1000
0
1002
{
1000
Class
1070
     4
1000
CON,BGD
1002
{
1002
}
1000
Color
1070
     1
1070
   256
1002
{
1002
}
1000
LType
1070
     4
1000
BYLAYER
1002
{
1002
}
1002
}
1000
CON2
1070
     9
1000
1
1002
{
1000
Class
1070
     4
1000
CON,BGD
1002
{
1002
}
1000
Color
1070
     1
1070
   256
1002
{
1002
}
1000
LType
1070
     4
1000
BYLAYER
1002
{
1002
}
1002
}
1000
CON3
1070
     9
1000
2
1002
{
1000
Class
1070
     4
1000
CON,BGD
1002
{
1002
}
1000
Color
1070
     1
1070
   256
1002
{
1002
}
1000
LType
1070
     4
1000
BYLAYER
1002
{
1002
}
1002
}
1000
CON4
1070
     9
1000
2
1002
{
1000
Class
1070
     4
1000
CON,BGD
1002
{
1002
}
1000
Color
1070
     1
1070
   256
1002
{
1002
}
1000
LType
1070
     4
1000
BYLAYER
1002
{
1002
}
1002
}
1000
DERP
1070
     9
1000
4
1002
{
1000
Class
1070
     4
1000

1002
{
1002
}
1000
Color
1070
     1
1070
   256
1002
{
1002
}
1000
LType
1070
     4
1000
BYLAYER
1002
{
1002
}
1002
}
1000
DETA
1070
     9
1000
4
1002
{
1000
Class
1070
     4
1000

1002
{
1002
}
1000
Color
1070
     1
1070
   256
1002
{
1002
}
1000
LType
1070
     4
1000
BYLAYER
1002
{
1002
}
1002
}
1000
DIAG
1070
     9
1000
5
1002
{
1000
Class
1070
     4
1000
SYM
1002
{
1002
}
1000
Color
1070
     1
1070
   256
1002
{
1002
}
1000
LType
1070
     4
1000
BYLAYER
1002
{
1002
}
1002
}
1000
DILI
1070
     9
1000
5
1002
{
1000
Class
1070
     4
1000
DIM,SYM
1002
{
1002
}
1000
Color
1070
     1
1070
   256
1002
{
1002
}
1000
LType
1070
     4
1000
BYLAYER
1002
{
1002
}
1002
}
1000
DITO2
1070
     9
1000
5
1002
{
1000
Class
1070
     4
1000
DIM,SYM
1002
{
1002
}
1000
Color
1070
     1
1070
     3
1002
{
1002
}
1000
LType
1070
     4
1000
BYLAYER
1002
{
1002
}
1002
}
1000
DITO3
1070
     9
1000
5
1002
{
1000
Class
1070
     4
1000
DIM,SYM
1002
{
1002
}
1000
Color
1070
     1
1070
     2
1002
{
1002
}
1000
LType
1070
     4
1000
BYLAYER
1002
{
1002
}
1002
}
1000
DITX
1070
     9
1000
5
1002
{
1000
Class
1070
     4
1000
DIM,SYM
1002
{
1002
}
1000
Color
1070
     1
1070
     2
1002
{
1002
}
1000
LType
1070
     4
1000
CONTINUOUS
1002
{
1002
}
1002
}
1000
DIXL
1070
     9
1000
5
1002
{
1000
Class
1070
     4
1000
DIM,SYM
1002
{
1002
}
1000
Color
1070
     1
1070
   256
1002
{
1002
}
1000
LType
1070
     4
1000
BYLAYER
1002
{
1002
}
1002
}
1000
EXMP
1070
     9
1000
4A
1002
{
1000
Class
1070
     4
1000

1002
{
1002
}
1000
Color
1070
     1
1070
   256
1002
{
1002
}
1000
LType
1070
     4
1000
BYLAYER
1002
{
1002
}
1002
}
1000
FEMN
1070
     9
1000
8
1002
{
1000
Class
1070
     4
1000

1002
{
1002
}
1000
Color
1070
     1
1070
   256
1002
{
1002
}
1000
LType
1070
     4
1000
BYLAYER
1002
{
1002
}
1002
}
1000
FEMPN
1070
     9
1000
8
1002
{
1000
Class
1070
     4
1000
SYM
1002
{
1002
}
1000
Color
1070
     1
1070
     3
1002
{
1002
}
1000
LType
1070
     4
1000
BYLAYER
1002
{
1002
}
1002
}
1000
FEMSP
1070
     9
1000
4A
1002
{
1000
Class
1070
     4
1000

1002
{
1002
}
1000
Color
1070
     1
1070
   256
1002
{
1002
}
1000
LType
1070
     4
1000
CONTINUOUS
1002
{
1002
}
1002
}
1000
FEMST
1070
     9
1000
4A
1002
{
1000
Class
1070
     4
1000
SYM
1002
{
1002
}
1000
Color
1070
     1
1070
     3
1002
{
1002
}
1000
LType
1070
     4
1000
BYLAYER
1002
{
1002
}
1002
}
1000
FEMVN
1070
     9
1000
2
1002
{
1000
Class
1070
     4
1000
CON
1002
{
1002
}
1000
Color
1070
     1
1070
   256
1002
{
1002
}
1000
LType
1070
     4
1000
BYLAYER
1002
{
1002
}
1002
}
1000
FEMVT
1070
     9
1000
2
1002
{
1000
Class
1070
     4
1000
SYM
1002
{
1002
}
1000
Color
1070
     1
1070
     3
1002
{
1002
}
1000
LType
1070
     4
1000
BYLAYER
1002
{
1002
}
1002
}
1000
FLAT
1070
     9
1000
0
1002
{
1000
Class
1070
     4
1000

1002
{
1002
}
1000
Color
1070
     1
1070
   256
1002
{
1002
}
1000
LType
1070
     4
1000
BYLAYER
1002
{
1002
}
1002
}
1000
FRAR
1070
     9
1000
4A
1002
{
1000
Class
1070
     4
1000

1002
{
1002
}
1000
Color
1070
     1
1070
   256
1002
{
1002
}
1000
LType
1070
     4
1000
BYLAYER
1002
{
1002
}
1002
}
1000
GRLI
1070
     9
1000
5
1002
{
1000
Class
1070
     4
1000
SYM
1002
{
1002
}
1000
Color
1070
     1
1070
   256
1002
{
1002
}
1000
LType
1070
     4
1000
BYLAYER
1002
{
1002
}
1002
}
1000
GVLI
1070
     9
1000
4A
1002
{
1000
Class
1070
     4
1000

1002
{
1002
}
1000
Color
1070
     1
1070
   256
1002
{
1002
}
1000
LType
1070
     4
1000
BYLAYER
1002
{
1002
}
1002
}
1000
HATC
1070
     9
1000
8
1002
{
1000
Class
1070
     4
1000
HTC,BGD
1002
{
1002
}
1000
Color
1070
     1
1070
   256
1002
{
1002
}
1000
LType
1070
     4
1000
BYLAYER
1002
{
1002
}
1002
}
1000
HIDN
1070
     9
1000
3A
1002
{
1000
Class
1070
     4
1000
HID,BGD
1002
{
1002
}
1000
Color
1070
     1
1070
   256
1002
{
1002
}
1000
LType
1070
     4
1000
BYLAYER
1002
{
1002
}
1002
}
1000
HIDW
1070
     9
1000
3
1002
{
1000
Class
1070
     4
1000
HID,BGD
1002
{
1002
}
1000
Color
1070
     1
1070
   256
1002
{
1002
}
1000
LType
1070
     4
1000
BYLAYER
1002
{
1002
}
1002
}
1000
HLIN
1070
     9
1000
4
1002
{
1000
Class
1070
     4
1000
BGD
1002
{
1002
}
1000
Color
1070
     1
1070
   256
1002
{
1002
}
1000
LType
1070
     4
1000
BYLAYER
1002
{
1002
}
1002
}
1000
HOCN
1070
     9
1000
7A
1002
{
1000
Class
1070
     4
1000
CEN
1002
{
1002
}
1000
Color
1070
     1
1070
   256
1002
{
1002
}
1000
LType
1070
     4
1000
BYLAYER
1002
{
1002
}
1002
}
1000
HOCW
1070
     9
1000
7
1002
{
1000
Class
1070
     4
1000
CEN
1002
{
1002
}
1000
Color
1070
     1
1070
   256
1002
{
1002
}
1000
LType
1070
     4
1000
BYLAYER
1002
{
1002
}
1002
}
1000
INFO
1070
     9
1000
INFO
1002
{
1000
Class
1070
     4
1000
SPZ,SYM
1002
{
1002
}
1000
Color
1070
     1
1070
   256
1002
{
1002
}
1000
LType
1070
     4
1000
BYLAYER
1002
{
1002
}
1002
}
1000
LADI
1070
     9
1000
4
1002
{
1000
Class
1070
     4
1000
BGD
1002
{
1002
}
1000
Color
1070
     1
1070
   256
1002
{
1002
}
1000
LType
1070
     4
1000
BYLAYER
1002
{
1002
}
1002
}
1000
LEAD
1070
     9
1000
5
1002
{
1000
Class
1070
     4
1000
SYM
1002
{
1002
}
1000
Color
1070
     1
1070
   256
1002
{
1002
}
1000
LType
1070
     4
1000
BYLAYER
1002
{
1002
}
1002
}
1000
N_ADDL
1070
     9
1000
5N
1002
{
1000
Class
1070
     4
1000
SYM
1002
{
1002
}
1000
Color
1070
     1
1070
     1
1002
{
1002
}
1000
LType
1070
     4
1000
BYLAYER
1002
{
1002
}
1002
}
1000
N_BHNV
1070
     9
1000
9N
1002
{
1000
Class
1070
     4
1000
INV
1002
{
1002
}
1000
Color
1070
     1
1070
   256
1002
{
1002
}
1000
LType
1070
     4
1000
BYLAYER
1002
{
1002
}
1002
}
1000
N_CON1
1070
     9
1000
0N
1002
{
1000
Class
1070
     4
1000
CON,BGD
1002
{
1002
}
1000
Color
1070
     1
1070
   256
1002
{
1002
}
1000
LType
1070
     4
1000
BYLAYER
1002
{
1002
}
1002
}
1000
N_CON2
1070
     9
1000
1N
1002
{
1000
Class
1070
     4
1000
CON,BGD
1002
{
1002
}
1000
Color
1070
     1
1070
   256
1002
{
1002
}
1000
LType
1070
     4
1000
BYLAYER
1002
{
1002
}
1002
}
1000
N_CON3
1070
     9
1000
2N
1002
{
1000
Class
1070
     4
1000
CON,BGD
1002
{
1002
}
1000
Color
1070
     1
1070
   256
1002
{
1002
}
1000
LType
1070
     4
1000
BYLAYER
1002
{
1002
}
1002
}
1000
N_CON4
1070
     9
1000
2N
1002
{
1000
Class
1070
     4
1000
CON,BGD
1002
{
1002
}
1000
Color
1070
     1
1070
   256
1002
{
1002
}
1000
LType
1070
     4
1000
BYLAYER
1002
{
1002
}
1002
}
1000
N_CENN
1070
     9
1000
7AN
1002
{
1000
Class
1070
     4
1000
CEN
1002
{
1002
}
1000
Color
1070
     1
1070
   256
1002
{
1002
}
1000
LType
1070
     4
1000
BYLAYER
1002
{
1002
}
1002
}
1000
N_CENW
1070
     9
1000
7N
1002
{
1000
Class
1070
     4
1000
CEN
1002
{
1002
}
1000
Color
1070
     1
1070
   256
1002
{
1002
}
1000
LType
1070
     4
1000
BYLAYER
1002
{
1002
}
1002
}
1000
N_DILI
1070
     9
1000
5N
1002
{
1000
Class
1070
     4
1000
DIM,SYM
1002
{
1002
}
1000
Color
1070
     1
1070
   256
1002
{
1002
}
1000
LType
1070
     4
1000
BYLAYER
1002
{
1002
}
1002
}
1000
N_DITX
1070
     9
1000
5N
1002
{
1000
Class
1070
     4
1000
DIM,SYM
1002
{
1002
}
1000
Color
1070
     1
1070
     2
1002
{
1002
}
1000
LType
1070
     4
1000
CONTINUOUS
1002
{
1002
}
1002
}
1000
N_DIXL
1070
     9
1000
5N
1002
{
1000
Class
1070
     4
1000
DIM,SYM
1002
{
1002
}
1000
Color
1070
     1
1070
   256
1002
{
1002
}
1000
LType
1070
     4
1000
BYLAYER
1002
{
1002
}
1002
}
1000
N_HATC
1070
     9
1000
8N
1002
{
1000
Class
1070
     4
1000
HTC,BGD
1002
{
1002
}
1000
Color
1070
     1
1070
   256
1002
{
1002
}
1000
LType
1070
     4
1000
BYLAYER
1002
{
1002
}
1002
}
1000
N_HIDN
1070
     9
1000
3AN
1002
{
1000
Class
1070
     4
1000
HID,BGD
1002
{
1002
}
1000
Color
1070
     1
1070
   256
1002
{
1002
}
1000
LType
1070
     4
1000
BYLAYER
1002
{
1002
}
1002
}
1000
N_HIDW
1070
     9
1000
3N
1002
{
1000
Class
1070
     4
1000
HID,BGD
1002
{
1002
}
1000
Color
1070
     1
1070
   256
1002
{
1002
}
1000
LType
1070
     4
1000
BYLAYER
1002
{
1002
}
1002
}
1000
N_NGIP
1070
     9
1000
IPN
1002
{
1000
Class
1070
     4
1000

1002
{
1002
}
1000
Color
1070
     1
1070
   256
1002
{
1002
}
1000
LType
1070
     4
1000
BYLAYER
1002
{
1002
}
1002
}
1000
N_PHAN
1070
     9
1000
4AN
1002
{
1000
Class
1070
     4
1000

1002
{
1002
}
1000
Color
1070
     1
1070
   256
1002
{
1002
}
1000
LType
1070
     4
1000
BYLAYER
1002
{
1002
}
1002
}
1000
N_POSL
1070
     9
1000
5N
1002
{
1000
Class
1070
     4
1000
SYM
1002
{
1002
}
1000
Color
1070
     1
1070
   256
1002
{
1002
}
1000
LType
1070
     4
1000
BYLAYER
1002
{
1002
}
1002
}
1000
N_TCON
1070
     9
1000
0N
1002
{
1000
Class
1070
     4
1000
CON,BGD
1002
{
1002
}
1000
Color
1070
     1
1070
   256
1002
{
1002
}
1000
LType
1070
     4
1000
BYLAYER
1002
{
1002
}
1002
}
1000
N_THLI
1070
     9
1000
4N
1002
{
1000
Class
1070
     4
1000
BGD
1002
{
1002
}
1000
Color
1070
     1
1070
   256
1002
{
1002
}
1000
LType
1070
     4
1000
BYLAYER
1002
{
1002
}
1002
}
1000
N_TLEN
1070
     9
1000
0N
1002
{
1000
Class
1070
     4
1000
CON,BGD
1002
{
1002
}
1000
Color
1070
     1
1070
   256
1002
{
1002
}
1000
LType
1070
     4
1000
BYLAYER
1002
{
1002
}
1002
}
1000
N_TXT3
1070
     9
1000
6N
1002
{
1000
Class
1070
     4
1000
SYM
1002
{
1002
}
1000
Color
1070
     1
1070
   256
1002
{
1002
}
1000
LType
1070
     4
1000
BYLAYER
1002
{
1002
}
1002
}
1000
N_VPLI
1070
     9
1000
2AN
1002
{
1000
Class
1070
     4
1000

1002
{
1002
}
1000
Color
1070
     1
1070
   256
1002
{
1002
}
1000
LType
1070
     4
1000
BYLAYER
1002
{
1002
}
1002
}
1000
NGIP
1070
     9
1000
IP
1002
{
1000
Class
1070
     4
1000

1002
{
1002
}
1000
Color
1070
     1
1070
   256
1002
{
1002
}
1000
LType
1070
     4
1000
BYLAYER
1002
{
1002
}
1002
}
1000
PAL2
1070
     9
1000
RAHM2
1002
{
1000
Class
1070
     4
1000
SPZ,SYM
1002
{
1002
}
1000
Color
1070
     1
1070
   256
1002
{
1002
}
1000
LType
1070
     4
1000
BYLAYER
1002
{
1002
}
1002
}
1000
PAL3
1070
     9
1000
RAHM3
1002
{
1000
Class
1070
     4
1000
SPZ,SYM
1002
{
1002
}
1000
Color
1070
     1
1070
   256
1002
{
1002
}
1000
LType
1070
     4
1000
BYLAYER
1002
{
1002
}
1002
}
1000
PAL5
1070
     9
1000
RAHM5
1002
{
1000
Class
1070
     4
1000
SPZ,SYM
1002
{
1002
}
1000
Color
1070
     1
1070
   256
1002
{
1002
}
1000
LType
1070
     4
1000
BYLAYER
1002
{
1002
}
1002
}
1000
PAL7
1070
     9
1000
RAHM5
1002
{
1000
Class
1070
     4
1000
SPZ,SYM
1002
{
1002
}
1000
Color
1070
     1
1070
     7
1002
{
1002
}
1000
LType
1070
     4
1000
CONTINUOUS
1002
{
1002
}
1002
}
1000
PHAN
1070
     9
1000
4A
1002
{
1000
Class
1070
     4
1000

1002
{
1002
}
1000
Color
1070
     1
1070
   256
1002
{
1002
}
1000
LType
1070
     4
1000
BYLAYER
1002
{
1002
}
1002
}
1000
POSL
1070
     9
1000
5
1002
{
1000
Class
1070
     4
1000
SYM
1002
{
1002
}
1000
Color
1070
     1
1070
   256
1002
{
1002
}
1000
LType
1070
     4
1000
BYLAYER
1002
{
1002
}
1002
}
1000
POSN
1070
     9
1000
6
1002
{
1000
Class
1070
     4
1000
SYM
1002
{
1002
}
1000
Color
1070
     1
1070
     7
1002
{
1002
}
1000
LType
1070
     4
1000
BYLAYER
1002
{
1002
}
1002
}
1000
POSREF
1070
     9
1000
6
1002
{
1000
Class
1070
     4
1000
SYM
1002
{
1002
}
1000
Color
1070
     1
1070
     5
1002
{
1002
}
1000
LType
1070
     4
1000
BYLAYER
1002
{
1002
}
1002
}
1000
POSX
1070
     9
1000
5
1002
{
1000
Class
1070
     4
1000
SYM
1002
{
1002
}
1000
Color
1070
     1
1070
     2
1002
{
1002
}
1000
LType
1070
     4
1000
CONTINUOUS
1002
{
1002
}
1002
}
1000
PSEC
1070
     9
1000
4A
1002
{
1000
Class
1070
     4
1000

1002
{
1002
}
1000
Color
1070
     1
1070
   256
1002
{
1002
}
1000
LType
1070
     4
1000
BYLAYER
1002
{
1002
}
1002
}
1000
RCGN
1070
     9
1000
7A
1002
{
1000
Class
1070
     4
1000
CEN
1002
{
1002
}
1000
Color
1070
     1
1070
   256
1002
{
1002
}
1000
LType
1070
     4
1000
BYLAYER
1002
{
1002
}
1002
}
1000
RCGW
1070
     9
1000
7
1002
{
1000
Class
1070
     4
1000
CEN
1002
{
1002
}
1000
Color
1070
     1
1070
   256
1002
{
1002
}
1000
LType
1070
     4
1000
BYLAYER
1002
{
1002
}
1002
}
1000
RFDI
1070
     9
1000
4
1002
{
1000
Class
1070
     4
1000
BGD
1002
{
1002
}
1000
Color
1070
     1
1070
   256
1002
{
1002
}
1000
LType
1070
     4
1000
BYLAYER
1002
{
1002
}
1002
}
1000
RQTR
1070
     9
1000
4
1002
{
1000
Class
1070
     4
1000

1002
{
1002
}
1000
Color
1070
     1
1070
     7
1002
{
1002
}
1000
LType
1070
     4
1000
GEN7A
1002
{
1002
}
1002
}
1000
RSBO
1070
     9
1000
4
1002
{
1000
Class
1070
     4
1000
BGD
1002
{
1002
}
1000
Color
1070
     1
1070
   256
1002
{
1002
}
1000
LType
1070
     4
1000
BYLAYER
1002
{
1002
}
1002
}
1000
SBRK
1070
     9
1000
4
1002
{
1000
Class
1070
     4
1000
BGD
1002
{
1002
}
1000
Color
1070
     1
1070
   256
1002
{
1002
}
1000
LType
1070
     4
1000
BYLAYER
1002
{
1002
}
1002
}
1000
SCEN
1070
     9
1000
7
1002
{
1000
Class
1070
     4
1000

1002
{
1002
}
1000
Color
1070
     1
1070
   256
1002
{
1002
}
1000
LType
1070
     4
1000
CONTINUOUS
1002
{
1002
}
1002
}
1000
SECT
1070
     9
1000
4
1002
{
1000
Class
1070
     4
1000
BGD
1002
{
1002
}
1000
Color
1070
     1
1070
   256
1002
{
1002
}
1000
LType
1070
     4
1000
BYLAYER
1002
{
1002
}
1002
}
1000
SELN
1070
     9
1000
7A
1002
{
1000
Class
1070
     4
1000

1002
{
1002
}
1000
Color
1070
     1
1070
   256
1002
{
1002
}
1000
LType
1070
     4
1000
BYLAYER
1002
{
1002
}
1002
}
1000
SELW
1070
     9
1000
7
1002
{
1000
Class
1070
     4
1000

1002
{
1002
}
1000
Color
1070
     1
1070
   256
1002
{
1002
}
1000
LType
1070
     4
1000
BYLAYER
1002
{
1002
}
1002
}
1000
SSYS
1070
     9
1000
0
1002
{
1000
Class
1070
     4
1000

1002
{
1002
}
1000
Color
1070
     1
1070
   256
1002
{
1002
}
1000
LType
1070
     4
1000
BYLAYER
1002
{
1002
}
1002
}
1000
STLI
1070
     9
1000
4
1002
{
1000
Class
1070
     4
1000

1002
{
1002
}
1000
Color
1070
     1
1070
     7
1002
{
1002
}
1000
LType
1070
     4
1000
GEN3A
1002
{
1002
}
1002
}
1000
SYB1
1070
     9
1000
5
1002
{
1000
Class
1070
     4
1000
SYM
1002
{
1002
}
1000
Color
1070
     1
1070
   256
1002
{
1002
}
1000
LType
1070
     4
1000
BYLAYER
1002
{
1002
}
1002
}
1000
SYB2
1070
     9
1000
5
1002
{
1000
Class
1070
     4
1000
SYM
1002
{
1002
}
1000
Color
1070
     1
1070
   256
1002
{
1002
}
1000
LType
1070
     4
1000
BYLAYER
1002
{
1002
}
1002
}
1000
SYB3
1070
     9
1000
6
1002
{
1000
Class
1070
     4
1000
SYM
1002
{
1002
}
1000
Color
1070
     1
1070
   256
1002
{
1002
}
1000
LType
1070
     4
1000
CONTINUOUS
1002
{
1002
}
1002
}
1000
SYB5
1070
     9
1000
5
1002
{
1000
Class
1070
     4
1000
SYM
1002
{
1002
}
1000
Color
1070
     1
1070
     7
1002
{
1002
}
1000
LType
1070
     4
1000
BYLAYER
1002
{
1002
}
1002
}
1000
SYMN
1070
     9
1000
7A
1002
{
1000
Class
1070
     4
1000
CEN
1002
{
1002
}
1000
Color
1070
     1
1070
   256
1002
{
1002
}
1000
LType
1070
     4
1000
BYLAYER
1002
{
1002
}
1002
}
1000
SYMW
1070
     9
1000
7
1002
{
1000
Class
1070
     4
1000
CEN
1002
{
1002
}
1000
Color
1070
     1
1070
   256
1002
{
1002
}
1000
LType
1070
     4
1000
BYLAYER
1002
{
1002
}
1002
}
1000
TCON
1070
     9
1000
0
1002
{
1000
Class
1070
     4
1000
CON,BGD
1002
{
1002
}
1000
Color
1070
     1
1070
   256
1002
{
1002
}
1000
LType
1070
     4
1000
BYLAYER
1002
{
1002
}
1002
}
1000
THLI
1070
     9
1000
4
1002
{
1000
Class
1070
     4
1000
BGD
1002
{
1002
}
1000
Color
1070
     1
1070
   256
1002
{
1002
}
1000
LType
1070
     4
1000
BYLAYER
1002
{
1002
}
1002
}
1000
TIT2
1070
     9
1000
RAHM2
1002
{
1000
Class
1070
     4
1000
SPZ,SYM
1002
{
1002
}
1000
Color
1070
     1
1070
   256
1002
{
1002
}
1000
LType
1070
     4
1000
BYLAYER
1002
{
1002
}
1002
}
1000
TIT3
1070
     9
1000
RAHM3
1002
{
1000
Class
1070
     4
1000
SPZ,SYM
1002
{
1002
}
1000
Color
1070
     1
1070
   256
1002
{
1002
}
1000
LType
1070
     4
1000
BYLAYER
1002
{
1002
}
1002
}
1000
TIT5
1070
     9
1000
RAHM5
1002
{
1000
Class
1070
     4
1000
SPZ,SYM
1002
{
1002
}
1000
Color
1070
     1
1070
   256
1002
{
1002
}
1000
LType
1070
     4
1000
BYLAYER
1002
{
1002
}
1002
}
1000
TIT7
1070
     9
1000
RAHM5
1002
{
1000
Class
1070
     4
1000
SPZ,SYM
1002
{
1002
}
1000
Color
1070
     1
1070
     7
1002
{
1002
}
1000
LType
1070
     4
1000
CONTINUOUS
1002
{
1002
}
1002
}
1000
TLEN
1070
     9
1000
0
1002
{
1000
Class
1070
     4
1000
CON,BGD
1002
{
1002
}
1000
Color
1070
     1
1070
   256
1002
{
1002
}
1000
LType
1070
     4
1000
BYLAYER
1002
{
1002
}
1002
}
1000
TRKN
1070
     9
1000
7A
1002
{
1000
Class
1070
     4
1000

1002
{
1002
}
1000
Color
1070
     1
1070
   256
1002
{
1002
}
1000
LType
1070
     4
1000
BYLAYER
1002
{
1002
}
1002
}
1000
TRKW
1070
     9
1000
7
1002
{
1000
Class
1070
     4
1000

1002
{
1002
}
1000
Color
1070
     1
1070
   256
1002
{
1002
}
1000
LType
1070
     4
1000
BYLAYER
1002
{
1002
}
1002
}
1000
TRLI
1070
     9
1000
4
1002
{
1000
Class
1070
     4
1000
BGD
1002
{
1002
}
1000
Color
1070
     1
1070
   256
1002
{
1002
}
1000
LType
1070
     4
1000
BYLAYER
1002
{
1002
}
1002
}
1000
TXT1
1070
     9
1000
6
1002
{
1000
Class
1070
     4
1000
SYM
1002
{
1002
}
1000
Color
1070
     1
1070
     2
1002
{
1002
}
1000
LType
1070
     4
1000
BYLAYER
1002
{
1002
}
1002
}
1000
TXT2
1070
     9
1000
6
1002
{
1000
Class
1070
     4
1000
SYM
1002
{
1002
}
1000
Color
1070
     1
1070
     2
1002
{
1002
}
1000
LType
1070
     4
1000
BYLAYER
1002
{
1002
}
1002
}
1000
TXT3
1070
     9
1000
6
1002
{
1000
Class
1070
     4
1000
SYM
1002
{
1002
}
1000
Color
1070
     1
1070
   256
1002
{
1002
}
1000
LType
1070
     4
1000
BYLAYER
1002
{
1002
}
1002
}
1000
TXT5
1070
     9
1000
6
1002
{
1000
Class
1070
     4
1000
SYM
1002
{
1002
}
1000
Color
1070
     1
1070
     7
1002
{
1002
}
1000
LType
1070
     4
1000
BYLAYER
1002
{
1002
}
1002
}
1000
TXT7
1070
     9
1000
6
1002
{
1000
Class
1070
     4
1000
SYM
1002
{
1002
}
1000
Color
1070
     1
1070
     7
1002
{
1002
}
1000
LType
1070
     4
1000
BYLAYER
1002
{
1002
}
1002
}
1000
VIEW
1070
     9
1000
VIEW
1002
{
1000
Class
1070
     4
1000
SPZ
1002
{
1002
}
1000
Color
1070
     1
1070
   256
1002
{
1002
}
1000
LType
1070
     4
1000
BYLAYER
1002
{
1002
}
1002
}
1000
VPLI
1070
     9
1000
2A
1002
{
1000
Class
1070
     4
1000

1002
{
1002
}
1000
Color
1070
     1
1070
   256
1002
{
1002
}
1000
LType
1070
     4
1000
BYLAYER
1002
{
1002
}
1002
}
1000
ZIZA
1070
     9
1000
4
1002
{
1000
Class
1070
     4
1000
BGD
1002
{
1002
}
1000
Color
1070
     1
1070
   256
1002
{
1002
}
1000
LType
1070
     4
1000
GENZIGZAG
1002
{
1002
}
1002
}
  0
APPID
  5
1697
330
1629
100
AcDbSymbolTableRecord
100
AcDbRegAppTableRecord
  2
GENIUS_GENCFG4_13
 70
     0
1001
GENIUS_GENCFG_13
1071
1023340791
1000
1697
1000
GEN
1070
     9
1000
GenCfgObject
1000
GenCfgShort
1000
GenCfgReal
1000
GenCfgBool
1000
GenCfgString
1000
GenCfgDim
1000
GenCfgLaySection
1000
GenCfgLType
1000
GenCfgFilter
1000
Balloon
1070
     0
1002
{
1000
GenIF
1070
     1
1070
     0
1002
{
1002
}
1000
GenPosInc
1070
     1
1070
     1
1002
{
1002
}
1000
GenPosBlk
1070
     1
1070
     8
1002
{
1002
}
1000
GenPosVar
1070
     1
1070
     0
1002
{
1002
}
1000
GenZiCir
1070
     2
1040
1.5
1002
{
1002
}
1000
MaxCharForCenteredText
1070
     1
1070
    30
1002
{
1002
}
1000
Snap
1070
     0
1002
{
1000
ActivationRadius
1070
     2
1040
1.0
1002
{
1002
}
1000
M
1070
     0
1002
{
1000
SnapStepX
1070
     2
1040
20.0
1002
{
1002
}
1000
SnapStepY
1070
     2
1040
10.0
1002
{
1002
}
1002
}
1000
I
1070
     0
1002
{
1000
SnapStepX
1070
     2
1040
1.0
1002
{
1002
}
1000
SnapStepY
1070
     2
1040
0.5
1002
{
1002
}
1002
}
1002
}
1002
}
1000
Centerline
1070
     0
1002
{
1000
ScaleNot
1070
     3
1070
     0
1002
{
1002
}
1000
M
1070
     0
1002
{
1000
GenCenAng
1070
     4
1000
45|90|135
1002
{
1002
}
1000
GenCenDia
1070
     2
1040
10.0
1002
{
1002
}
1000
GenCenDias
1070
     4
1000
10|20|30
1002
{
1002
}
1000
GenCenDist
1070
     2
1040
3.0
1002
{
1002
}
1000
GenCenLen
1070
     2
1040
10.0
1002
{
1002
}
1000
GenCenOff
1070
     2
1040
10.0
1002
{
1002
}
1002
}
1000
I
1070
     0
1002
{
1000
GenCenAng
1070
     4
1000
45|90|135
1002
{
1002
}
1000
GenCenDia
1070
     2
1040
0.5
1002
{
1002
}
1000
GenCenDias
1070
     4
1000
0.5|1.0|1.5
1002
{
1002
}
1000
GenCenDist
1070
     2
1040
0.125
1002
{
1002
}
1000
GenCenLen
1070
     2
1040
0.5
1002
{
1002
}
1000
GenCenOff
1070
     2
1040
0.5
1002
{
1002
}
1002
}
1002
}
1000
CLine
1070
     0
1002
{
1000
CAngArray
1070
     4
1000
30|45|60
1002
{
1002
}
1000
Typ
1070
     4
1000
XLINE
1002
{
1002
}
1000
M
1070
     0
1002
{
1000
CLinArray
1070
     4
1000
10|20|30
1002
{
1002
}
1002
}
1000
I
1070
     0
1002
{
1000
CLinArray
1070
     4
1000
0.125|0.25|0.5
1002
{
1002
}
1002
}
1002
}
1000
Detail
1070
     0
1002
{
1002
}
1000
Dimension
1070
     5
1002
{
1000
DIMALT
1070
     1
1070
     0
1002
{
1002
}
1000
DIMALTD
1070
     1
1070
     2
1002
{
1002
}
1000
DIMALTTD
1070
     1
1070
     4
1002
{
1002
}
1000
DIMALTTZ
1070
     1
1070
     0
1002
{
1002
}
1000
DIMALTU
1070
     1
1070
     2
1002
{
1002
}
1000
DIMALTZ
1070
     1
1070
     0
1002
{
1002
}
1000
DIMAUNIT
1070
     1
1070
     0
1002
{
1002
}
1000
DIMBLK
1070
     4
1000

1002
{
1002
}
1000
DIMBLK1
1070
     4
1000

1002
{
1002
}
1000
DIMBLK2
1070
     4
1000

1002
{
1002
}
1000
DIMCLRD
1070
     1
1070
   256
1002
{
1002
}
1000
DIMCLRE
1070
     1
1070
   256
1002
{
1002
}
1000
DIMCLRT
1070
     1
1070
     2
1002
{
1002
}
1000
DIMDLE
1070
     2
1040
0.0
1002
{
1002
}
1000
DIMFIT
1070
     1
1070
     3
1002
{
1002
}
1000
DIMJUST
1070
     1
1070
     0
1002
{
1002
}
1000
DIMLFAC
1070
     2
1040
1.0
1002
{
1002
}
1000
DIMLIM
1070
     1
1070
     0
1002
{
1002
}
1000
DIMPOST
1070
     4
1000

1002
{
1002
}
1000
DIMRND
1070
     2
1040
0.0
1002
{
1002
}
1000
DIMSAH
1070
     1
1070
     0
1002
{
1002
}
1000
DIMSCALE
1070
     2
1040
1.0
1002
{
1002
}
1000
DIMSD1
1070
     1
1070
     0
1002
{
1002
}
1000
DIMSD2
1070
     1
1070
     0
1002
{
1002
}
1000
DIMSE1
1070
     1
1070
     0
1002
{
1002
}
1000
DIMSE2
1070
     1
1070
     0
1002
{
1002
}
1000
DIMSOXD
1070
     1
1070
     0
1002
{
1002
}
1000
DIMTAD
1070
     1
1070
     0
1002
{
1002
}
1000
DIMTFAC
1070
     2
1040
0.71
1002
{
1002
}
1000
DIMTIH
1070
     1
1070
     0
1002
{
1002
}
1000
DIMTIX
1070
     1
1070
     0
1002
{
1002
}
1000
DIMTM
1070
     2
1040
0.1
1002
{
1002
}
1000
DIMTOFL
1070
     1
1070
     0
1002
{
1002
}
1000
DIMTOH
1070
     1
1070
     0
1002
{
1002
}
1000
DIMTOL
1070
     1
1070
     0
1002
{
1002
}
1000
DIMTOLJ
1070
     1
1070
     1
1002
{
1002
}
1000
DIMTP
1070
     2
1040
0.1
1002
{
1002
}
1000
DIMTSZ
1070
     2
1040
0.0
1002
{
1002
}
1000
DIMTVP
1070
     2
1040
0.0
1002
{
1002
}
1000
DIMTXSTY
1070
     4
1000
STANDARD
1002
{
1002
}
1000
DIMTZIN
1070
     1
1070
     0
1002
{
1002
}
1000
DIMUNIT
1070
     1
1070
     2
1002
{
1002
}
1000
DIMUPT
1070
     1
1070
     0
1002
{
1002
}
1000
M
1070
     0
1002
{
1000
DIMALTF
1070
     2
1040
0.03937
1002
{
1002
}
1000
DIMAPOST
1070
     4
1000
"
1002
{
1002
}
1000
DIMASZ
1070
     2
1040
2.5
1002
{
1002
}
1000
DIMCEN
1070
     2
1040
0.0
1002
{
1002
}
1000
DIMDEC
1070
     1
1070
     2
1002
{
1002
}
1000
DIMDLI
1070
     2
1040
7.0
1002
{
1002
}
1000
DIMEXE
1070
     2
1040
1.0
1002
{
1002
}
1000
DIMEXO
1070
     2
1040
1.0
1002
{
1002
}
1000
DIMGAP
1070
     2
1040
0.6
1002
{
1002
}
1000
DIMTDEC
1070
     1
1070
     3
1002
{
1002
}
1000
DIMTXT
1070
     2
1040
3.5
1002
{
1002
}
1000
DIMZIN
1070
     1
1070
     8
1002
{
1002
}
1002
}
1000
I
1070
     0
1002
{
1000
DIMALTF
1070
     2
1040
25.4
1002
{
1002
}
1000
DIMAPOST
1070
     4
1000
mm
1002
{
1002
}
1000
DIMASZ
1070
     2
1040
0.1
1002
{
1002
}
1000
DIMCEN
1070
     2
1040
0.0
1002
{
1002
}
1000
DIMDEC
1070
     1
1070
     4
1002
{
1002
}
1000
DIMDLI
1070
     2
1040
0.5
1002
{
1002
}
1000
DIMEXE
1070
     2
1040
0.1
1002
{
1002
}
1000
DIMEXO
1070
     2
1040
0.05
1002
{
1002
}
1000
DIMGAP
1070
     2
1040
0.06
1002
{
1002
}
1000
DIMTDEC
1070
     1
1070
     4
1002
{
1002
}
1000
DIMTXT
1070
     2
1040
0.12
1002
{
1002
}
1000
DIMZIN
1070
     1
1070
     7
1002
{
1002
}
1002
}
1000
GEN-ISO
1070
     5
1002
{
1000
NAME
1070
     4
1000
GEN-ISO
1002
{
1002
}
1000
DIMTAD
1070
     1
1070
     1
1002
{
1002
}
1000
DIMTOLJ
1070
     1
1070
     0
1002
{
1002
}
1000
DIMTOFL
1070
     1
1070
     1
1002
{
1002
}
1000
M
1070
     0
1002
{
1002
}
1000
I
1070
     0
1002
{
1002
}
1002
}
1000
GEN-ISO-POS
1070
     5
1002
{
1000
NAME
1070
     4
1000
GEN-ISO-POS
1002
{
1002
}
1000
DIMTOLJ
1070
     1
1070
     0
1002
{
1002
}
1000
DIMTXSTY
1070
     4
1000
STANDARD
1002
{
1002
}
1000
M
1070
     0
1002
{
1000
DIMASZ
1070
     2
1040
2.5
1002
{
1002
}
1000
DIMGAP
1070
     2
1040
1.5
1002
{
1002
}
1000
DIMTXT
1070
     2
1040
5.0
1002
{
1002
}
1002
}
1000
I
1070
     0
1002
{
1000
DIMASZ
1070
     2
1040
0.1
1002
{
1002
}
1000
DIMGAP
1070
     2
1040
0.06
1002
{
1002
}
1000
DIMTXT
1070
     2
1040
0.2
1002
{
1002
}
1002
}
1002
}
1000
GEN-ISO-CIR
1070
     5
1002
{
1000
NAME
1070
     4
1000
GEN-ISO$3
1002
{
1002
}
1000
DIMFIT
1070
     1
1070
     0
1002
{
1002
}
1000
DIMTAD
1070
     1
1070
     1
1002
{
1002
}
1000
DIMTOH
1070
     1
1070
     1
1002
{
1002
}
1000
DIMTOLJ
1070
     1
1070
     0
1002
{
1002
}
1000
DIMUPT
1070
     1
1070
     1
1002
{
1002
}
1000
M
1070
     0
1002
{
1002
}
1000
I
1070
     0
1002
{
1002
}
1002
}
1000
GEN-ISO-RAD
1070
     5
1002
{
1000
NAME
1070
     4
1000
GEN-ISO$4
1002
{
1002
}
1000
DIMFIT
1070
     1
1070
     0
1002
{
1002
}
1000
DIMTAD
1070
     1
1070
     1
1002
{
1002
}
1000
DIMTIH
1070
     1
1070
     0
1002
{
1002
}
1000
DIMTIX
1070
     1
1070
     0
1002
{
1002
}
1000
DIMTOH
1070
     1
1070
     1
1002
{
1002
}
1000
DIMTOLJ
1070
     1
1070
     0
1002
{
1002
}
1000
DIMTOFL
1070
     1
1070
     0
1002
{
1002
}
1000
DIMUPT
1070
     1
1070
     1
1002
{
1002
}
1000
M
1070
     0
1002
{
1002
}
1000
I
1070
     0
1002
{
1002
}
1002
}
1000
GEN-ISO-ORD
1070
     5
1002
{
1000
NAME
1070
     4
1000
GEN-ISO$6
1002
{
1002
}
1000
DIMTOLJ
1070
     1
1070
     0
1002
{
1002
}
1000
M
1070
     0
1002
{
1002
}
1000
I
1070
     0
1002
{
1002
}
1002
}
1000
GEN-ISO-AXE-F
1070
     5
1002
{
1000
NAME
1070
     4
1000
GEN-ISO-AXE-F
1002
{
1002
}
1000
DIMSE1
1070
     1
1070
     1
1002
{
1002
}
1000
DIMSE2
1070
     1
1070
     1
1002
{
1002
}
1000
DIMTAD
1070
     1
1070
     1
1002
{
1002
}
1000
DIMTOLJ
1070
     1
1070
     0
1002
{
1002
}
1000
DIMTOFL
1070
     1
1070
     1
1002
{
1002
}
1000
M
1070
     0
1002
{
1002
}
1000
I
1070
     0
1002
{
1002
}
1002
}
1000
GEN-ISO-AXE-H
1070
     5
1002
{
1000
NAME
1070
     4
1000
GEN-ISO-AXE-H
1002
{
1002
}
1000
DIMBLK1
1070
     4
1000
GENAXEH
1002
{
1002
}
1000
DIMLFAC
1070
     2
1040
2.0
1002
{
1002
}
1000
DIMSAH
1070
     1
1070
     1
1002
{
1002
}
1000
DIMSE1
1070
     1
1070
     1
1002
{
1002
}
1000
DIMSE2
1070
     1
1070
     1
1002
{
1002
}
1000
DIMTAD
1070
     1
1070
     1
1002
{
1002
}
1000
DIMTOLJ
1070
     1
1070
     0
1002
{
1002
}
1000
DIMTOFL
1070
     1
1070
     1
1002
{
1002
}
1000
M
1070
     0
1002
{
1002
}
1000
I
1070
     0
1002
{
1002
}
1002
}
1000
GEN-ANSI
1070
     5
1002
{
1000
NAME
1070
     4
1000
GEN-ANSI
1002
{
1002
}
1000
DIMTIH
1070
     1
1070
     1
1002
{
1002
}
1000
DIMTOH
1070
     1
1070
     1
1002
{
1002
}
1000
DIMTAD
1070
     1
1070
     0
1002
{
1002
}
1000
DIMTOLJ
1070
     1
1070
     1
1002
{
1002
}
1000
M
1070
     0
1002
{
1002
}
1000
I
1070
     0
1002
{
1002
}
1002
}
1000
GEN-ANSI-POS
1070
     5
1002
{
1000
NAME
1070
     4
1000
GEN-ANSI-POS
1002
{
1002
}
1000
DIMTOLJ
1070
     1
1070
     1
1002
{
1002
}
1000
DIMTXSTY
1070
     4
1000
STANDARD
1002
{
1002
}
1000
M
1070
     0
1002
{
1000
DIMASZ
1070
     2
1040
2.5
1002
{
1002
}
1000
DIMGAP
1070
     2
1040
1.5
1002
{
1002
}
1000
DIMTXT
1070
     2
1040
5.0
1002
{
1002
}
1002
}
1000
I
1070
     0
1002
{
1000
DIMASZ
1070
     2
1040
0.1
1002
{
1002
}
1000
DIMGAP
1070
     2
1040
0.06
1002
{
1002
}
1000
DIMTXT
1070
     2
1040
0.2
1002
{
1002
}
1002
}
1002
}
1000
GEN-ANSI-CIR
1070
     5
1002
{
1000
NAME
1070
     4
1000
GEN-ANSI$3
1002
{
1002
}
1000
DIMFIT
1070
     1
1070
     0
1002
{
1002
}
1000
DIMTAD
1070
     1
1070
     0
1002
{
1002
}
1000
DIMTIH
1070
     1
1070
     1
1002
{
1002
}
1000
DIMTIX
1070
     1
1070
     0
1002
{
1002
}
1000
DIMTOFL
1070
     1
1070
     0
1002
{
1002
}
1000
DIMTOH
1070
     1
1070
     1
1002
{
1002
}
1000
DIMTOLJ
1070
     1
1070
     1
1002
{
1002
}
1000
DIMUPT
1070
     1
1070
     1
1002
{
1002
}
1000
M
1070
     0
1002
{
1002
}
1000
I
1070
     0
1002
{
1002
}
1002
}
1000
GEN-ANSI-RAD
1070
     5
1002
{
1000
NAME
1070
     4
1000
GEN-ANSI$4
1002
{
1002
}
1000
DIMFIT
1070
     1
1070
     0
1002
{
1002
}
1000
DIMTAD
1070
     1
1070
     0
1002
{
1002
}
1000
DIMTIH
1070
     1
1070
     1
1002
{
1002
}
1000
DIMTIX
1070
     1
1070
     0
1002
{
1002
}
1000
DIMTOFL
1070
     1
1070
     0
1002
{
1002
}
1000
DIMTOH
1070
     1
1070
     1
1002
{
1002
}
1000
DIMTOLJ
1070
     1
1070
     1
1002
{
1002
}
1000
DIMUPT
1070
     1
1070
     1
1002
{
1002
}
1000
M
1070
     0
1002
{
1002
}
1000
I
1070
     0
1002
{
1002
}
1002
}
1000
GEN-ANSI-ORD
1070
     5
1002
{
1000
NAME
1070
     4
1000
GEN-ANSI$6
1002
{
1002
}
1000
DIMTAD
1070
     1
1070
     0
1002
{
1002
}
1000
DIMTIH
1070
     1
1070
     1
1002
{
1002
}
1000
DIMTOH
1070
     1
1070
     1
1002
{
1002
}
1000
DIMTOLJ
1070
     1
1070
     1
1002
{
1002
}
1000
M
1070
     0
1002
{
1002
}
1000
I
1070
     0
1002
{
1002
}
1002
}
1000
GEN-ANSI-AXE-F
1070
     5
1002
{
1000
NAME
1070
     4
1000
GEN-ANSI-AXE-F
1002
{
1002
}
1000
DIMBLK1
1070
     4
1000
GENAXEH
1002
{
1002
}
1000
DIMSAH
1070
     1
1070
     1
1002
{
1002
}
1000
DIMSE1
1070
     1
1070
     1
1002
{
1002
}
1000
DIMSE2
1070
     1
1070
     1
1002
{
1002
}
1000
DIMTAD
1070
     1
1070
     0
1002
{
1002
}
1000
DIMTIH
1070
     1
1070
     1
1002
{
1002
}
1000
DIMTOH
1070
     1
1070
     1
1002
{
1002
}
1000
DIMTOLJ
1070
     1
1070
     1
1002
{
1002
}
1000
M
1070
     0
1002
{
1002
}
1000
I
1070
     0
1002
{
1002
}
1002
}
1000
GEN-ANSI-AXE-H
1070
     5
1002
{
1000
NAME
1070
     4
1000
GEN-ANSI-AXE-H
1002
{
1002
}
1000
DIMBLK1
1070
     4
1000
GENAXEH
1002
{
1002
}
1000
DIMLFAC
1070
     2
1040
2.0
1002
{
1002
}
1000
DIMSAH
1070
     1
1070
     1
1002
{
1002
}
1000
DIMSE1
1070
     1
1070
     1
1002
{
1002
}
1000
DIMSE2
1070
     1
1070
     1
1002
{
1002
}
1000
DIMTAD
1070
     1
1070
     0
1002
{
1002
}
1000
DIMTOFL
1070
     1
1070
     1
1002
{
1002
}
1000
DIMTOLJ
1070
     1
1070
     1
1002
{
1002
}
1000
M
1070
     0
1002
{
1002
}
1000
I
1070
     0
1002
{
1002
}
1002
}
1002
}
1000
DimSet
1070
     0
1002
{
1000
ChainSum
1070
     3
1070
     0
1002
{
1002
}
1000
DimDclTyp0
1070
     4
1000
dim23
1002
{
1002
}
1000
HorBra
1070
     3
1070
     0
1002
{
1002
}
1000
StrDia
1070
     4
1000
%%c<>
1002
{
1002
}
1000
StrRad
1070
     4
1000
R<>
1002
{
1002
}
1000
TextMinus
1070
     4
1000
<>
1002
{
1002
}
1000
TextPlus
1070
     4
1000
<>
1002
{
1002
}
1000
M
1070
     0
1002
{
1000
DimdliFirst
1070
     2
1040
10.0
1002
{
1002
}
1000
PointMakeDist
1070
     2
1040
10.0
1002
{
1002
}
1002
}
1000
I
1070
     0
1002
{
1000
DimdliFirst
1070
     2
1040
0.5
1002
{
1002
}
1000
PointMakeDist
1070
     2
1040
0.5
1002
{
1002
}
1002
}
1000
FitGrade
1070
     4
1000
h7
1002
{
1002
}
1002
}
1000
Drawing
1070
     0
1002
{
1000
ChamferDimMode
1070
     1
1070
     2
1002
{
1002
}
1000
Gen_Fiso
1070
    -3
1040
1.0
1002
{
1002
}
1000
GenDimStil
1070
     4
1000
ISO
1002
{
1002
}
1000
GenDwgUScale
1070
     2
1040
1.0
1002
{
1002
}
1000
GenInch
1070
     4
1000
M
1002
{
1002
}
1000
GenPlotScale
1070
     4
1000
1:5
1002
{
1002
}
1000
Revisi
1070
     4
1000
0
1002
{
1002
}
1000
Version
1070
    -5
1000
14.01/Apr  1 1998
1002
{
1002
}
1000
Platform
1070
    -5
1000
WINNT
1002
{
1002
}
1002
}
1000
DwgVar
1070
     0
1002
{
1000
M
1070
     0
1002
{
1002
}
1000
I
1070
     0
1002
{
1002
}
1002
}
1000
Hatch
1070
     0
1002
{
1000
GenHtcFlag
1070
     3
1070
     0
1002
{
1002
}
1002
}
1000
Info_Pos
1070
     0
1002
{
1000
>
1002
}
1000
Layer
1070
     6
1002
{
1000
Defs
1070
     0
1002
{
1000
>
1002
}
1000
EntSort
1070
     0
1002
{
1000
>
1002
}
1000
Match
1070
     0
1002
{
1002
}
1000
Settings
1070
     0
1002
{
1000
FocGrNC
1070
     3
1070
     0
1002
{
1002
}
1000
FocGrLo
1070
     3
1070
     0
1002
{
1002
}
1000
FocLoNC
1070
     3
1070
     0
1002
{
1002
}
1000
FocusCol
1070
     1
1070
   253
1002
{
1002
}
1000
GenStdLG
1070
     4
1000

1002
{
1002
}
1000
LayMatch
1070
     3
1070
     0
1002
{
1002
}
1000
LgOff
1070
     3
1070
     0
1002
{
1002
}
1000
CurLG
1070
    -5
1000

1002
{
1002
}
1002
}
1002
}
1000
LType
1070
     0
1002
{
1000
GEN3
1070
     7
1000
genius.lin
1002
{
1002
}
1000
GEN7
1070
     7
1000
genius.lin
1002
{
1002
}
1000
GEN4A
1070
     7
1000
genius.lin
1002
{
1002
}
1000
GEN3A
1070
     7
1000
genius.lin
1002
{
1002
}
1000
GEN7A
1070
     7
1000
genius.lin
1002
{
1002
}
1000
GENZIGZAG
1070
     7
1000
genius.lin
1002
{
1002
}
1002
}
1000
Objecter
1070
     0
1002
{
1000
CreateGroups
1070
     3
1070
     0
1002
{
1002
}
1000
LaySwitch
1070
     3
1070
     1
1002
{
1002
}
1000
LastObj
1070
    -5
1000
16CA
1002
{
1002
}
1000
TimeStamp
1070
    -5
1000
20020606.07193423
1002
{
1002
}
1002
}
1000
OSWiz
1070
     0
1002
{
1000
Filter
1070
     0
1002
{
1000
HATCH
1070
     8
1002
{
1000
EntityType
1070
     4
1000
LINE
1002
{
1002
}
1000
Layer
1070
     4
1000
8,8N,*-8,*-8N
1002
{
1002
}
1000
Linetype
1070
     4
1000
*
1002
{
1002
}
1000
Color
1070
     4
1000
*
1002
{
1002
}
1000
ApplyInDims
1070
     3
1070
     1
1002
{
1002
}
1002
}
1000
SYMBOLS
1070
     8
1002
{
1000
EntityType
1070
     4
1000
*
1002
{
1002
}
1000
Layer
1070
     4
1000
[5-6],[5-6]N,*-[5-6],*-[5-6]N
1002
{
1002
}
1000
Linetype
1070
     4
1000
*
1002
{
1002
}
1000
Color
1070
     4
1000
*
1002
{
1002
}
1000
ApplyInDims
1070
     3
1070
     1
1002
{
1002
}
1002
}
1000
FEM
1070
     8
1002
{
1000
EntityType
1070
     4
1000
*
1002
{
1002
}
1000
Layer
1070
     4
1000
4A,4AN,*-4A,*-4AN
1002
{
1002
}
1000
Linetype
1070
     4
1000
*
1002
{
1002
}
1000
Color
1070
     4
1000
*
1002
{
1002
}
1000
ApplyInDims
1070
     3
1070
     1
1002
{
1002
}
1002
}
1002
}
1002
}
1000
PaList
1070
     0
1002
{
1000
AutoUpdatePartList
1070
     1
1070
     0
1002
{
1002
}
1000
ReadInfoPoint
1070
     3
1070
     0
1002
{
1002
}
1000
ReadPosNr
1070
     3
1070
     1
1002
{
1002
}
1000
RevStr
1070
     4
1000
0
1002
{
1002
}
1002
}
1000
Paper
1070
     0
1002
{
1002
}
1000
PartDB
1070
     0
1002
{
1000
GenDbOwner
1070
     4
1000

1002
{
1002
}
1002
}
1000
System
1070
     0
1002
{
1000
Menu
1070
     4
1000
GEV
1002
{
1002
}
1002
}
1000
Title
1070
     0
1002
{
1000
MakeView
1070
     1
1070
     2
1002
{
1002
}
1002
}
1000
Tools
1070
     0
1002
{
1000
Trans
1070
     0
1002
{
1000
Drawingtranslation
1070
    -4
1070
     1
1002
{
1002
}
1000
upreserve
1070
     3
1070
     0
1002
{
1002
}
1000
originally_on
1070
    -4
1070
     0
1002
{
1002
}
1000
sourcelang
1070
    -5
1000
D
1002
{
1002
}
1002
}
1002
}
  0
APPID
  5
1698
330
1629
100
AcDbSymbolTableRecord
100
AcDbRegAppTableRecord
  2
GENIUS_GEVCFG0_13
 70
     0
1001
GENIUS_GENCFG_13
1071
1023340779
1000
1698
1000
GEV
1070
     1
1000
GenCfgObject
1000
VED
1070
     0
1002
{
1002
}
  0
APPID
  5
1699
330
1629
100
AcDbSymbolTableRecord
100
AcDbRegAppTableRecord
  2
GEV_VCCNULL_SWITCH_OFF
 70
     0
  0
APPID
  5
169A
330
1629
100
AcDbSymbolTableRecord
100
AcDbRegAppTableRecord
  2
GENIUS_GENDTOL_13
 70
     0
  0
APPID
  5
169B
330
1629
100
AcDbSymbolTableRecord
100
AcDbRegAppTableRecord
  2
GENIUS_GENOENT_13
 70
     0
  0
APPID
  5
169C
330
1629
100
AcDbSymbolTableRecord
100
AcDbRegAppTableRecord
  2
GENIUS_GENBLLY_14
 70
     0
  0
APPID
  5
169D
330
1629
100
AcDbSymbolTableRecord
100
AcDbRegAppTableRecord
  2
GENIUS_GENODEF_13
 70
     0
  0
APPID
  5
169E
330
1629
100
AcDbSymbolTableRecord
100
AcDbRegAppTableRecord
  2
GENIUS_GENOBJ-N-CRS_13
 70
     0
  0
APPID
  5
169F
330
1629
100
AcDbSymbolTableRecord
100
AcDbRegAppTableRecord
  2
GENIUS_GENOREF_13
 70
     0
  0
APPID
  5
16A0
330
1629
100
AcDbSymbolTableRecord
100
AcDbRegAppTableRecord
  2
GENIUS_GENOLIS_13
 70
     0
  0
APPID
  5
16A1
330
1629
100
AcDbSymbolTableRecord
100
AcDbRegAppTableRecord
  2
GENIUS_GEFCFG0_13
 70
     0
  0
APPID
  5
16A2
330
1629
100
AcDbSymbolTableRecord
100
AcDbRegAppTableRecord
  2
GENIUS_VERSION2
 70
     0
  0
APPID
  5
16A3
330
1629
100
AcDbSymbolTableRecord
100
AcDbRegAppTableRecord
  2
GENIUS_GENREC_14
 70
     0
  0
APPID
  5
16A4
330
1629
100
AcDbSymbolTableRecord
100
AcDbRegAppTableRecord
  2
GENIUS_GENOBJ-N-REC_13
 70
     0
  0
APPID
  5
16A5
330
1629
100
AcDbSymbolTableRecord
100
AcDbRegAppTableRecord
  2
GENIUS_GENOBJ-N-TIT_13
 70
     0
  0
APPID
  5
16A6
330
1629
100
AcDbSymbolTableRecord
100
AcDbRegAppTableRecord
  2
GENIUS_GENTITLE_13
 70
     0
  0
APPID
  5
16A7
330
1629
100
AcDbSymbolTableRecord
100
AcDbRegAppTableRecord
  2
GENIUS_GENZVEED_13
 70
     0
  0
APPID
  5
16A8
330
1629
100
AcDbSymbolTableRecord
100
AcDbRegAppTableRecord
  2
GENIUS_GENOBJ-N-SDF_13
 70
     0
  0
APPID
  5
16A9
330
1629
100
AcDbSymbolTableRecord
100
AcDbRegAppTableRecord
  2
GENIUS_GENSCREG_13
 70
     0
  0
APPID
  5
16AA
330
1629
100
AcDbSymbolTableRecord
100
AcDbRegAppTableRecord
  2
GENIUS_GENBLKED_14
 70
     0
  0
APPID
  5
1772
330
1629
100
AcDbSymbolTableRecord
100
AcDbRegAppTableRecord
  2
GENIUS_GENOBJ-N-HTC_13
 70
     0
  0
APPID
  5
1773
330
1629
100
AcDbSymbolTableRecord
100
AcDbRegAppTableRecord
  2
GENIUS_GENHATCH_13
 70
     0
  0
APPID
  5
1AFD
330
1629
100
AcDbSymbolTableRecord
100
AcDbRegAppTableRecord
  2
MCAD_NO_VIS
 70
     0
  0
APPID
  5
1AFE
330
1629
100
AcDbSymbolTableRecord
100
AcDbRegAppTableRecord
  2
ACAD_TEMP_GRAPHIC
 70
     0
  0
APPID
  5
1B2E
330
1629
100
AcDbSymbolTableRecord
100
AcDbRegAppTableRecord
  2
AD_DRAW
 70
     0
  0
APPID
  5
1B31
330
1629
100
AcDbSymbolTableRecord
100
AcDbRegAppTableRecord
  2
ACATTRIBSERVICES
 70
     0
  0
APPID
  5
1B51
330
1629
100
AcDbSymbolTableRecord
100
AcDbRegAppTableRecord
  2
DESIGNERASSEMBLIES
 70
     0
  0
APPID
  5
1B57
330
1629
100
AcDbSymbolTableRecord
100
AcDbRegAppTableRecord
  2
ACADM_DIM_EDIT
 70
     0
  0
APPID
  5
1B58
330
1629
100
AcDbSymbolTableRecord
100
AcDbRegAppTableRecord
  2
AMDT_DM_ADJ
 70
     0
  0
APPID
  5
1B8A
330
1629
100
AcDbSymbolTableRecord
100
AcDbRegAppTableRecord
  2
ACAD_DSTYLE_DIMARC_LENGTH_SYMBOL
 70
     0
  0
APPID
  5
1B8B
330
1629
100
AcDbSymbolTableRecord
100
AcDbRegAppTableRecord
  2
ACAD_DSTYLE_DIMJOGGED_JOGANGLE_SYMBOL
 70
     0
  0
ENDTAB
  0
TABLE
  2
DIMSTYLE
  5
162A
330
0
100
AcDbSymbolTable
 70
     8
100
AcDbDimStyleTable
 71
     0
  0
DIMSTYLE
105
1650
102
{ACAD_REACTORS
330
1598
330
15A1
330
15AB
330
15E7
330
15F1
330
15FC
102
}
330
162A
100
AcDbSymbolTableRecord
100
AcDbDimStyleTableRecord
  2
GEN-ISO
 70
     0
  4
"
 40
5.0
 41
2.5
 42
1.0
 43
7.0
 44
1.0
 47
0.1
 48
0.1
 73
     0
 74
     0
 77
     1
 78
     8
140
3.5
141
0.0
143
0.03937
146
0.71
147
0.6
172
     1
176
   256
177
   256
178
     2
271
     2
272
     3
274
     4
283
     0
340
162F
  0
DIMSTYLE
105
1B89
330
162A
100
AcDbSymbolTableRecord
100
AcDbDimStyleTableRecord
  2
AM_DIN
 70
     0
  4
"
 41
2.5
 42
1.0
 43
10.0
 44
1.0
 47
0.1
 48
0.1
 73
     0
 74
     0
 77
     1
 78
     8
 79
     2
140
3.5
141
0.0
143
0.0393701
146
0.71
147
1.5
172
     1
176
   256
177
   256
178
     2
271
     2
272
     3
274
     4
283
     0
284
     8
340
162F
371
    -1
372
    -1
1001
ACAD_DSTYLE_DIMARC_LENGTH_SYMBOL
1070
   379
1070
     0
1001
ACAD_DSTYLE_DIMJOGGED_JOGANGLE_SYMBOL
1070
   384
1040
1.570796326794896
  0
DIMSTYLE
105
1B9A
330
162A
100
AcDbSymbolTableRecord
100
AcDbDimStyleTableRecord
  2
AM_DIN$3
 70
     0
  4
"
 41
2.5
 42
1.0
 43
10.0
 44
1.0
 47
0.1
 48
0.1
 73
     0
 77
     1
 78
     8
 79
     2
140
3.5
141
0.0
143
0.0393701
146
0.71
147
1.5
176
   256
177
   256
178
     2
271
     2
272
     3
274
     4
283
     0
284
     8
288
     1
289
     0
340
162F
371
    -1
372
    -1
1001
ACAD_DSTYLE_DIMARC_LENGTH_SYMBOL
1070
   379
1070
     0
1001
ACAD_DSTYLE_DIMJOGGED_JOGANGLE_SYMBOL
1070
   384
1040
1.570796326794896
  0
DIMSTYLE
105
1B9F
330
162A
100
AcDbSymbolTableRecord
100
AcDbDimStyleTableRecord
  2
AM_DIN$4
 70
     0
  4
"
 41
2.5
 42
1.0
 43
10.0
 44
1.0
 47
0.1
 48
0.1
 73
     0
 77
     1
 78
     8
 79
     2
140
3.5
141
0.0
143
0.0393701
146
0.71
147
1.5
176
   256
177
   256
178
     2
271
     2
272
     3
274
     4
283
     0
284
     8
288
     1
289
     0
340
162F
371
    -1
372
    -1
1001
ACAD_DSTYLE_DIMARC_LENGTH_SYMBOL
1070
   379
1070
     0
1001
ACAD_DSTYLE_DIMJOGGED_JOGANGLE_SYMBOL
1070
   384
1040
1.570796326794896
  0
DIMSTYLE
105
1BA4
330
162A
100
AcDbSymbolTableRecord
100
AcDbDimStyleTableRecord
  2
AM_DIN$6
 70
     0
  4
"
 41
2.5
 42
1.0
 43
10.0
 44
1.0
 47
0.1
 48
0.1
 73
     0
 74
     0
 78
     8
 79
     2
140
3.5
141
0.0
143
0.0393701
146
0.71
147
1.5
172
     1
176
   256
177
   256
178
     2
271
     2
272
     3
274
     4
283
     0
284
     8
340
162F
371
    -1
372
    -1
1001
ACAD_DSTYLE_DIMARC_LENGTH_SYMBOL
1070
   379
1070
     0
1001
ACAD_DSTYLE_DIMJOGGED_JOGANGLE_SYMBOL
1070
   384
1040
1.570796326794896
  0
DIMSTYLE
105
1BA9
330
162A
100
AcDbSymbolTableRecord
100
AcDbDimStyleTableRecord
  2
AM_DIN$7
 70
     0
  4
"
 41
2.5
 42
1.0
 43
10.0
 44
1.0
 47
0.1
 48
0.1
 73
     0
 74
     0
 77
     1
 78
     8
 79
     2
140
5.0
141
0.0
143
0.0393701
146
0.71
147
1.5
172
     1
176
   256
177
   256
178
     2
271
     2
272
     3
274
     4
283
     0
284
     8
340
162F
371
    -1
372
    -1
1001
ACAD_DSTYLE_DIMARC_LENGTH_SYMBOL
1070
   379
1070
     0
1001
ACAD_DSTYLE_DIMJOGGED_JOGANGLE_SYMBOL
1070
   384
1040
1.570796326794896
  0
DIMSTYLE
105
1BAE
330
162A
100
AcDbSymbolTableRecord
100
AcDbDimStyleTableRecord
  2
AM_DIN$SF
 70
     0
  4
"
 41
2.5
 42
1.0
 43
10.0
 44
1.0
 47
0.1
 48
0.1
 73
     0
 74
     0
 75
     1
 76
     1
 77
     1
 78
     8
 79
     2
140
3.5
141
0.0
143
0.0393701
146
0.71
147
1.5
172
     1
176
   256
177
   256
178
     2
271
     2
272
     3
274
     4
283
     0
284
     8
340
162F
371
    -1
372
    -1
1001
ACAD_DSTYLE_DIMARC_LENGTH_SYMBOL
1070
   379
1070
     0
1001
ACAD_DSTYLE_DIMJOGGED_JOGANGLE_SYMBOL
1070
   384
1040
1.570796326794896
  0
DIMSTYLE
105
1BB7
330
162A
100
AcDbSymbolTableRecord
100
AcDbDimStyleTableRecord
  2
AM_DIN$SH
 70
     0
  4
"
 41
2.5
 42
1.0
 43
10.0
 44
1.0
 47
0.1
 48
0.1
 73
     0
 74
     0
 75
     1
 76
     1
 77
     1
 78
     8
 79
     2
140
3.5
141
0.0
143
0.0393701
144
2.0
146
0.71
147
1.5
172
     1
173
     1
176
   256
177
   256
178
     2
271
     2
272
     3
274
     4
283
     0
284
     8
340
162F
343
1BAF
371
    -1
372
    -1
1001
ACAD_DSTYLE_DIMARC_LENGTH_SYMBOL
1070
   379
1070
     0
1001
ACAD_DSTYLE_DIMJOGGED_JOGANGLE_SYMBOL
1070
   384
1040
1.570796326794896
  0
ENDTAB
  0
TABLE
  2
BLOCK_RECORD
  5
1621
330
0
100
AcDbSymbolTable
 70
    14
  0
BLOCK_RECORD
  5
1638
330
1621
100
AcDbSymbolTableRecord
100
AcDbBlockTableRecord
  2
*MODEL_SPACE
340
1AF5
  0
BLOCK_RECORD
  5
1635
330
1621
100
AcDbSymbolTableRecord
100
AcDbBlockTableRecord
  2
*PAPER_SPACE
340
1AF6
  0
BLOCK_RECORD
  5
1652
330
1621
100
AcDbSymbolTableRecord
100
AcDbBlockTableRecord
  2
*X0
340
0
102
{BLKREFS
331
10C4
102
}
  0
BLOCK_RECORD
  5
1653
330
1621
100
AcDbSymbolTableRecord
100
AcDbBlockTableRecord
  2
*X1
340
0
102
{BLKREFS
331
10EC
102
}
  0
BLOCK_RECORD
  5
1654
330
1621
100
AcDbSymbolTableRecord
100
AcDbBlockTableRecord
  2
*X2
340
0
102
{BLKREFS
331
111D
102
}
  0
BLOCK_RECORD
  5
165D
330
1621
100
AcDbSymbolTableRecord
100
AcDbBlockTableRecord
  2
*X3
340
0
102
{BLKREFS
331
15DD
102
}
  0
BLOCK_RECORD
  5
1668
330
1621
100
AcDbSymbolTableRecord
100
AcDbBlockTableRecord
  2
KATALOG_LEER
340
0
102
{BLKREFS
331
16AC
331
16C9
102
}
  0
BLOCK_RECORD
  5
16AB
330
1621
100
AcDbSymbolTableRecord
100
AcDbBlockTableRecord
  2
KATALOG
340
0
  0
BLOCK_RECORD
  5
16CB
330
1621
100
AcDbSymbolTableRecord
100
AcDbBlockTableRecord
  2
*D6
340
0
  0
BLOCK_RECORD
  5
16D7
330
1621
100
AcDbSymbolTableRecord
100
AcDbBlockTableRecord
  2
*D7
340
0
  0
BLOCK_RECORD
  5
16F2
330
1621
100
AcDbSymbolTableRecord
100
AcDbBlockTableRecord
  2
*D8
340
0
  0
BLOCK_RECORD
  5
1709
330
1621
100
AcDbSymbolTableRecord
100
AcDbBlockTableRecord
  2
*D9
340
0
  0
BLOCK_RECORD
  5
1720
330
1621
100
AcDbSymbolTableRecord
100
AcDbBlockTableRecord
  2
*D10
340
0
  0
BLOCK_RECORD
  5
173B
330
1621
100
AcDbSymbolTableRecord
100
AcDbBlockTableRecord
  2
*D11
340
0
  0
BLOCK_RECORD
  5
1BAF
330
1621
100
AcDbSymbolTableRecord
100
AcDbBlockTableRecord
  2
GENAXEH
340
0
  0
ENDTAB
  0
ENDSEC
  0
SECTION
  2
BLOCKS
  0
BLOCK
  5
1639
330
1638
100
AcDbEntity
  8
0
100
AcDbBlockBegin
  2
*MODEL_SPACE
 70
     0
 10
0.0
 20
0.0
 30
0.0
  3
*MODEL_SPACE
  1

  0
ENDBLK
  5
163A
330
1638
100
AcDbEntity
  8
0
100
AcDbBlockEnd
  0
BLOCK
  5
1636
330
1635
100
AcDbEntity
 67
     1
  8
0
100
AcDbBlockBegin
  2
*PAPER_SPACE
 70
     0
 10
0.0
 20
0.0
 30
0.0
  3
*PAPER_SPACE
  1

  0
ENDBLK
  5
1637
330
1635
100
AcDbEntity
 67
     1
  8
0
100
AcDbBlockEnd
  0
BLOCK
  5
10BF
330
1652
100
AcDbEntity
  8
0
100
AcDbBlockBegin
  2
*X0
 70
     1
 10
0.0
 20
0.0
 30
0.0
  3
*X0
  1

  0
LINE
  5
10C0
330
1652
100
AcDbEntity
  8
8
100
AcDbLine
 10
147.528
 20
651.879
 30
0.0
 11
155.161
 21
659.511
 31
0.0
  0
LINE
  5
10C1
330
1652
100
AcDbEntity
  8
8
100
AcDbLine
 10
145.474
 20
654.315
 30
0.0
 11
152.706
 21
661.546
 31
0.0
  0
LINE
  5
10C2
330
1652
100
AcDbEntity
  8
8
100
AcDbLine
 10
145.649
 20
658.9789999999999
 30
0.0
 11
148.035
 21
661.3649999999999
 31
0.0
  0
ENDBLK
  5
10C3
330
1652
100
AcDbEntity
  8
0
100
AcDbBlockEnd
  0
BLOCK
  5
10E7
330
1653
100
AcDbEntity
  8
0
100
AcDbBlockBegin
  2
*X1
 70
     1
 10
0.0
 20
0.0
 30
0.0
  3
*X1
  1

  0
LINE
  5
10E8
330
1653
100
AcDbEntity
  8
8
100
AcDbLine
 10
145.063
 20
656.8389999999999
 30
0.0
 11
150.877
 21
651.025
 31
0.0
  0
LINE
  5
10E9
330
1653
100
AcDbEntity
  8
8
100
AcDbLine
 10
146.336
 20
660.056
 30
0.0
 11
154.094
 21
652.297
 31
0.0
  0
LINE
  5
10EA
330
1653
100
AcDbEntity
  8
8
100
AcDbLine
 10
149.084
 20
661.798
 30
0.0
 11
155.874
 21
655.008
 31
0.0
  0
ENDBLK
  5
10EB
330
1653
100
AcDbEntity
  8
0
100
AcDbBlockEnd
  0
BLOCK
  5
1115
330
1654
100
AcDbEntity
  8
0
100
AcDbBlockBegin
  2
*X2
 70
     1
 10
0.0
 20
0.0
 30
0.0
  3
*X2
  1

  0
LINE
  5
1116
330
1654
100
AcDbEntity
  8
8
100
AcDbLine
 10
311.208
 20
651.364
 30
0.0
 11
318.271
 21
658.427
 31
0.0
  0
LINE
  5
1117
330
1654
100
AcDbEntity
  8
8
100
AcDbLine
 10
308.663
 20
653.3099999999999
 30
0.0
 11
316.325
 21
660.972
 31
0.0
  0
LINE
  5
1118
330
1654
100
AcDbEntity
  8
8
100
AcDbLine
 10
307.649
 20
656.7849999999999
 30
0.0
 11
312.85
 21
661.986
 31
0.0
  0
LINE
  5
1119
330
1654
100
AcDbEntity
  8
8
100
AcDbLine
 10
318.584
 20
655.8839999999999
 30
0.0
 11
312.519
 21
661.9489999999999
 31
0.0
  0
LINE
  5
111A
330
1654
100
AcDbEntity
  8
8
100
AcDbLine
 10
317.198
 20
652.779
 30
0.0
 11
309.429
 21
660.5489999999999
 31
0.0
  0
LINE
  5
111B
330
1654
100
AcDbEntity
  8
8
100
AcDbLine
 10
314.367
 20
651.12
 30
0.0
 11
307.756
 21
657.7310000000001
 31
0.0
  0
ENDBLK
  5
111C
330
1654
100
AcDbEntity
  8
0
100
AcDbBlockEnd
  0
BLOCK
  5
15B7
330
165D
100
AcDbEntity
  8
0
100
AcDbBlockBegin
  2
*X3
 70
     1
 10
0.0
 20
0.0
 30
0.0
  3
*X3
  1

  0
LINE
  5
15B8
330
165D
100
AcDbEntity
  8
8
  6
GEN3
100
AcDbLine
 10
305.706
 20
675.0
 30
0.0
 11
311.268
 21
680.562
 31
0.0
  0
LINE
  5
15B9
330
165D
100
AcDbEntity
  8
8
  6
GEN3_
100
AcDbLine
 10
300.767
 20
675.0
 30
0.0
 11
311.447
 21
685.6799999999999
 31
0.0
  0
LINE
  5
15BA
330
165D
100
AcDbEntity
  8
8
  6
GEN3
100
AcDbLine
 10
295.828
 20
675.0
 30
0.0
 11
311.626
 21
690.798
 31
0.0
  0
LINE
  5
15BB
330
165D
100
AcDbEntity
  8
8
  6
GEN3_
100
AcDbLine
 10
290.888
 20
675.0
 30
0.0
 11
311.805
 21
695.916
 31
0.0
  0
LINE
  5
15BC
330
165D
100
AcDbEntity
  8
8
  6
GEN3
100
AcDbLine
 10
285.949
 20
675.0
 30
0.0
 11
307.949
 21
697.0
 31
0.0
  0
LINE
  5
15BD
330
165D
100
AcDbEntity
  8
8
  6
GEN3_
100
AcDbLine
 10
281.01
 20
675.0
 30
0.0
 11
303.01
 21
697.0
 31
0.0
  0
LINE
  5
15BE
330
165D
100
AcDbEntity
  8
8
  6
GEN3
100
AcDbLine
 10
276.0709999999999
 20
675.0
 30
0.0
 11
298.071
 21
697.0
 31
0.0
  0
LINE
  5
15BF
330
165D
100
AcDbEntity
  8
8
  6
GEN3_
100
AcDbLine
 10
271.132
 20
675.0
 30
0.0
 11
293.131
 21
697.0
 31
0.0
  0
LINE
  5
15C0
330
165D
100
AcDbEntity
  8
8
  6
GEN3
100
AcDbLine
 10
266.193
 20
675.0
 30
0.0
 11
288.192
 21
697.0
 31
0.0
  0
LINE
  5
15C1
330
165D
100
AcDbEntity
  8
8
  6
GEN3_
100
AcDbLine
 10
261.254
 20
675.0
 30
0.0
 11
283.253
 21
697.0
 31
0.0
  0
LINE
  5
15C2
330
165D
100
AcDbEntity
  8
8
  6
GEN3
100
AcDbLine
 10
256.315
 20
675.0
 30
0.0
 11
278.314
 21
697.0
 31
0.0
  0
LINE
  5
15C3
330
165D
100
AcDbEntity
  8
8
  6
GEN3_
100
AcDbLine
 10
251.375
 20
675.0
 30
0.0
 11
273.375
 21
697.0
 31
0.0
  0
LINE
  5
15C4
330
165D
100
AcDbEntity
  8
8
  6
GEN3
100
AcDbLine
 10
246.436
 20
675.0
 30
0.0
 11
268.436
 21
697.0
 31
0.0
  0
LINE
  5
15C5
330
165D
100
AcDbEntity
  8
8
  6
GEN3_
100
AcDbLine
 10
241.497
 20
675.0
 30
0.0
 11
263.497
 21
697.0
 31
0.0
  0
LINE
  5
15C6
330
165D
100
AcDbEntity
  8
8
  6
GEN3
100
AcDbLine
 10
236.558
 20
675.0
 30
0.0
 11
258.557
 21
697.0
 31
0.0
  0
LINE
  5
15C7
330
165D
100
AcDbEntity
  8
8
  6
GEN3_
100
AcDbLine
 10
231.619
 20
675.0
 30
0.0
 11
253.618
 21
697.0
 31
0.0
  0
LINE
  5
15C8
330
165D
100
AcDbEntity
  8
8
  6
GEN3
100
AcDbLine
 10
226.68
 20
675.0
 30
0.0
 11
248.679
 21
697.0
 31
0.0
  0
LINE
  5
15C9
330
165D
100
AcDbEntity
  8
8
  6
GEN3_
100
AcDbLine
 10
221.741
 20
675.0
 30
0.0
 11
243.74
 21
697.0
 31
0.0
  0
LINE
  5
15CA
330
165D
100
AcDbEntity
  8
8
  6
GEN3
100
AcDbLine
 10
216.801
 20
675.0
 30
0.0
 11
238.801
 21
697.0
 31
0.0
  0
LINE
  5
15CB
330
165D
100
AcDbEntity
  8
8
  6
GEN3_
100
AcDbLine
 10
211.862
 20
675.0
 30
0.0
 11
233.862
 21
697.0
 31
0.0
  0
LINE
  5
15CC
330
165D
100
AcDbEntity
  8
8
  6
GEN3
100
AcDbLine
 10
206.923
 20
675.0
 30
0.0
 11
228.923
 21
697.0
 31
0.0
  0
LINE
  5
15CD
330
165D
100
AcDbEntity
  8
8
  6
GEN3_
100
AcDbLine
 10
201.984
 20
675.0
 30
0.0
 11
223.983
 21
697.0
 31
0.0
  0
LINE
  5
15CE
330
165D
100
AcDbEntity
  8
8
  6
GEN3
100
AcDbLine
 10
197.0449999999999
 20
675.0
 30
0.0
 11
219.044
 21
697.0
 31
0.0
  0
LINE
  5
15CF
330
165D
100
AcDbEntity
  8
8
  6
GEN3_
100
AcDbLine
 10
192.106
 20
675.0
 30
0.0
 11
214.105
 21
697.0
 31
0.0
  0
LINE
  5
15D0
330
165D
100
AcDbEntity
  8
8
  6
GEN3
100
AcDbLine
 10
187.167
 20
675.0
 30
0.0
 11
209.166
 21
697.0
 31
0.0
  0
LINE
  5
15D1
330
165D
100
AcDbEntity
  8
8
  6
GEN3_
100
AcDbLine
 10
182.227
 20
675.0
 30
0.0
 11
204.227
 21
697.0
 31
0.0
  0
LINE
  5
15D2
330
165D
100
AcDbEntity
  8
8
  6
GEN3
100
AcDbLine
 10
177.2879999999999
 20
675.0
 30
0.0
 11
199.2879999999999
 21
697.0
 31
0.0
  0
LINE
  5
15D3
330
165D
100
AcDbEntity
  8
8
  6
GEN3_
100
AcDbLine
 10
172.349
 20
675.0
 30
0.0
 11
194.349
 21
697.0
 31
0.0
  0
LINE
  5
15D4
330
165D
100
AcDbEntity
  8
8
  6
GEN3
100
AcDbLine
 10
167.41
 20
675.0
 30
0.0
 11
189.409
 21
697.0
 31
0.0
  0
LINE
  5
15D5
330
165D
100
AcDbEntity
  8
8
  6
GEN3_
100
AcDbLine
 10
162.471
 20
675.0
 30
0.0
 11
184.47
 21
697.0
 31
0.0
  0
LINE
  5
15D6
330
165D
100
AcDbEntity
  8
8
  6
GEN3
100
AcDbLine
 10
157.532
 20
675.0
 30
0.0
 11
179.5309999999999
 21
697.0
 31
0.0
  0
LINE
  5
15D7
330
165D
100
AcDbEntity
  8
8
  6
GEN3_
100
AcDbLine
 10
153.709
 20
676.1169999999999
 30
0.0
 11
174.592
 21
697.0
 31
0.0
  0
LINE
  5
15D8
330
165D
100
AcDbEntity
  8
8
  6
GEN3
100
AcDbLine
 10
152.443
 20
679.7899999999999
 30
0.0
 11
169.653
 21
697.0
 31
0.0
  0
LINE
  5
15D9
330
165D
100
AcDbEntity
  8
8
  6
GEN3_
100
AcDbLine
 10
152.276
 20
684.562
 30
0.0
 11
164.714
 21
697.0
 31
0.0
  0
LINE
  5
15DA
330
165D
100
AcDbEntity
  8
8
  6
GEN3
100
AcDbLine
 10
152.11
 20
689.335
 30
0.0
 11
159.775
 21
697.0
 31
0.0
  0
LINE
  5
15DB
330
165D
100
AcDbEntity
  8
8
  6
GEN3_
100
AcDbLine
 10
151.943
 20
694.1069999999999
 30
0.0
 11
154.836
 21
697.0
 31
0.0
  0
ENDBLK
  5
15DC
330
165D
100
AcDbEntity
  8
0
100
AcDbBlockEnd
  0
BLOCK
  5
1669
330
1668
100
AcDbEntity
  8
0
100
AcDbBlockBegin
  2
KATALOG_LEER
 70
     0
 10
0.0
 20
0.0
 30
0.0
  3
KATALOG_LEER
  1

  0
ENDBLK
  5
166A
330
1668
100
AcDbEntity
  8
0
100
AcDbBlockEnd
  0
BLOCK
  5
16BD
330
16AB
100
AcDbEntity
  8
0
100
AcDbBlockBegin
  2
KATALOG
 70
     0
 10
0.0
 20
0.0
 30
0.0
  3
KATALOG
  1

  0
INSERT
  5
16AC
330
16AB
100
AcDbEntity
  8
0
100
AcDbBlockReference
  2
KATALOG_LEER
 10
205.0
 20
5.0
 30
0.0
1001
GENIUS_GENOREF_13
1005
16AD
  0
POINT
  5
16AD
330
16AB
100
AcDbEntity
  8
0
 60
     1
100
AcDbPoint
 10
0.0
 20
0.0
 30
0.0
1001
GENIUS_GENOBJ-N-TIT_13
1002
{
1000
OWNER
1000
GEN
1002
}
1001
GENIUS_GENOENT_13
1002
{
1000
MYREF
1005
16AD
1002
}
1002
{
1000
GRP
1005
0
1002
}
1001
GENIUS_GENOLIS_13
1002
{
1000
ENT
1005
16AC
1005
0
1002
}
1001
GENIUS_GENTITLE_13
1002
{
1000
SCALE
1000
1:1
1002
}
1002
{
1000
BORDER
1000
KATALOG
1002
}
1002
{
1000
TITLE
1000
KATALOG_LEER
1002
}
1002
{
1000
UNCHG
1002
{
1000
GEN-TITLE-SCA
1000
GEN-TITLE-SIZ
1002
}
1002
}
1002
{
1000
HRA
1005
0
1002
}
1002
{
1000
HTIT
1005
16AC
1002
}
1002
{
1000
GENIUSID
1005
16AD
1002
}
1001
GENIUS_GENODEF_13
1002
{
1000
HIER
1070
     1
1002
}
1002
{
1000
MANEDIT
1070
     0
1002
}
1002
{
1000
NOSEL
1070
     0
1002
}
1002
{
1000
BEHIND
1070
     0
1002
}
1002
{
1000
REACTOR
1002
}
  0
TEXT
  5
16AE
330
16AB
100
AcDbEntity
  8
RAHM3
 60
     1
100
AcDbText
 10
29.391383
 20
162.283165
 30
0.0
 40
3.5
  1
!GENTITLE-MAX
100
AcDbText
  0
TEXT
  5
16AF
330
16AB
100
AcDbEntity
  8
RAHM3
 60
     1
100
AcDbText
 10
30.988432
 20
153.503279
 30
0.0
 40
3.5
  1
!GENTITLE-RU
100
AcDbText
  0
TEXT
  5
16B0
330
16AB
100
AcDbEntity
  8
RAHM3
 60
     1
100
AcDbText
 10
-85.995418
 20
56.924537
 30
0.0
 40
3.5
  1
!GENTITLE-LL
100
AcDbText
  0
TEXT
  5
16B1
330
16AB
100
AcDbEntity
  8
RAHM3
 60
     1
100
AcDbText
 10
50.36794099999999
 20
2.260896999999999
 30
0.0
 40
3.5
  1
!GENTITLE-INSERT
100
AcDbText
  0
LINE
  5
16B2
330
16AB
100
AcDbEntity
  8
RAHM2
100
AcDbLine
 10
0.0
 20
0.0
 30
0.0
 11
148.5
 21
0.0
 31
0.0
  0
LINE
  5
16B3
330
16AB
100
AcDbEntity
  8
RAHM2
100
AcDbLine
 10
148.5
 20
210.0
 30
0.0
 11
0.0
 21
210.0
 31
0.0
  0
LINE
  5
16B4
330
16AB
100
AcDbEntity
  8
RAHM2
100
AcDbLine
 10
0.0
 20
210.0
 30
0.0
 11
0.0
 21
0.0
 31
0.0
  0
TEXT
  5
16B5
330
16AB
100
AcDbEntity
  8
RAHM3
 60
     1
100
AcDbText
 10
184.023441
 20
165.022268
 30
0.0
 40
3.5
  1
!GENTITLE-MAX
100
AcDbText
  0
TEXT
  5
16B6
330
16AB
100
AcDbEntity
  8
RAHM3
 60
     1
100
AcDbText
 10
185.620491
 20
156.242382
 30
0.0
 40
3.5
  1
!GENTITLE-RU
100
AcDbText
  0
TEXT
  5
16B7
330
16AB
100
AcDbEntity
  8
RAHM3
 60
     1
100
AcDbText
 10
68.636641
 20
59.663641
 30
0.0
 40
3.5
  1
!GENTITLE-LL
100
AcDbText
  0
TEXT
  5
16B8
330
16AB
100
AcDbEntity
  8
RAHM3
 60
     1
100
AcDbText
 10
205.0
 20
5.0
 30
0.0
 40
3.5
  1
!GENTITLE-INSERT
100
AcDbText
  0
LINE
  5
16B9
330
16AB
100
AcDbEntity
  8
RAHM2
100
AcDbLine
 10
148.5
 20
0.0
 30
0.0
 11
148.5
 21
210.0
 31
0.0
  0
LINE
  5
16BA
330
16AB
100
AcDbEntity
  8
RAHM2
100
AcDbLine
 10
210.0
 20
148.5
 30
0.0
 11
0.0
 21
148.5
 31
0.0
  0
LINE
  5
16BB
330
16AB
100
AcDbEntity
  8
RAHM2
100
AcDbLine
 10
210.0
 20
0.0
 30
0.0
 11
210.0
 21
148.5
 31
0.0
  0
LINE
  5
16BC
330
16AB
100
AcDbEntity
  8
RAHM2
100
AcDbLine
 10
0.0
 20
0.0
 30
0.0
 11
210.0
 21
0.0
 31
0.0
  0
ENDBLK
  5
16BE
330
16AB
100
AcDbEntity
  8
0
100
AcDbBlockEnd
  0
BLOCK
  5
1ACD
330
16CB
100
AcDbEntity
  8
0
100
AcDbBlockBegin
  2
*D6
 70
     1
 10
0.0
 20
0.0
 30
0.0
  3
*D6
  1

  0
LINE
  5
1ACE
330
16CB
100
AcDbEntity
  8
0
  6
ByBlock
100
AcDbLine
 10
345.6442009999999
 20
387.138117
 30
0.0
 11
128.144201
 21
387.138117
 31
0.0
  0
LINE
  5
1ACF
330
16CB
100
AcDbEntity
  8
0
  6
ByBlock
100
AcDbLine
 10
314.6442009999999
 20
562.1381169999999
 30
0.0
 11
128.144201
 21
562.1381169999999
 31
0.0
  0
LINE
  5
1AD0
330
16CB
100
AcDbEntity
  8
0
  6
ByBlock
100
AcDbLine
 10
133.144201
 20
399.638117
 30
0.0
 11
133.144201
 21
549.6381169999999
 31
0.0
  0
SOLID
  5
1AD1
330
16CB
100
AcDbEntity
  8
0
  6
ByBlock
100
AcDbTrace
 10
131.060868
 20
399.638117
 30
0.0
 11
135.227535
 21
399.638117
 31
0.0
 12
133.144201
 22
387.138117
 32
0.0
 13
133.144201
 23
387.138117
 33
0.0
  0
SOLID
  5
1AD2
330
16CB
100
AcDbEntity
  8
0
  6
ByBlock
100
AcDbTrace
 10
131.060868
 20
549.6381169999999
 30
0.0
 11
135.227535
 21
549.6381169999999
 31
0.0
 12
133.144201
 22
562.1381169999999
 32
0.0
 13
133.144201
 23
562.1381169999999
 33
0.0
  0
MTEXT
  5
1AD3
330
16CB
100
AcDbEntity
  8
0
  6
ByBlock
 62
     2
100
AcDbMText
 10
121.394201
 20
474.6381169999999
 30
0.0
 40
17.5
 41
0.0
 71
     5
 72
     1
  1
175
 11
0.0
 21
1.0
 31
0.0
 73
     1
 44
1.0
1001
ACAD
1000
MTEXTBEGIN
1070
    73
1070
     1
1070
    44
1040
1.0
1070
    74
1070
     0
1000
MTEXTEND
  0
POINT
  5
1AD4
330
16CB
100
AcDbEntity
  8
DEFPOINTS
  6
ByBlock
 62
     0
100
AcDbPoint
 10
350.644201
 20
387.138117
 30
0.0
  0
POINT
  5
1AD5
330
16CB
100
AcDbEntity
  8
DEFPOINTS
  6
ByBlock
 62
     0
100
AcDbPoint
 10
319.644201
 20
562.1381169999999
 30
0.0
  0
POINT
  5
1AD6
330
16CB
100
AcDbEntity
  8
DEFPOINTS
  6
ByBlock
 62
     0
100
AcDbPoint
 10
133.144201
 20
562.1381169999999
 30
0.0
  0
ENDBLK
  5
1AD7
330
16CB
100
AcDbEntity
  8
0
100
AcDbBlockEnd
  0
BLOCK
  5
1980
330
16D7
100
AcDbEntity
  8
0
100
AcDbBlockBegin
  2
*D7
 70
     1
 10
0.0
 20
0.0
 30
0.0
  3
*D7
  1

  0
LINE
  5
1981
330
16D7
100
AcDbEntity
  8
0
  6
ByBlock
100
AcDbLine
 10
298.671201
 20
184.138117
 30
0.0
 11
233.144201
 21
184.138117
 31
0.0
  0
LINE
  5
1982
330
16D7
100
AcDbEntity
  8
0
  6
ByBlock
100
AcDbLine
 10
298.671201
 20
193.138117
 30
0.0
 11
233.144201
 21
193.138117
 31
0.0
  0
LINE
  5
1983
330
16D7
100
AcDbEntity
  8
0
  6
ByBlock
100
AcDbLine
 10
238.144201
 20
171.638117
 30
0.0
 11
238.144201
 21
159.138117
 31
0.0
  0
LINE
  5
1984
330
16D7
100
AcDbEntity
  8
0
  6
ByBlock
100
AcDbLine
 10
238.144201
 20
205.638117
 30
0.0
 11
238.144201
 21
233.054726
 31
0.0
  0
LINE
  5
1985
330
16D7
100
AcDbEntity
  8
0
  6
ByBlock
100
AcDbLine
 10
238.144201
 20
184.138117
 30
0.0
 11
238.144201
 21
193.138117
 31
0.0
  0
SOLID
  5
1986
330
16D7
100
AcDbEntity
  8
0
  6
ByBlock
100
AcDbTrace
 10
236.060868
 20
171.638117
 30
0.0
 11
240.227535
 21
171.638117
 31
0.0
 12
238.144201
 22
184.138117
 32
0.0
 13
238.144201
 23
184.138117
 33
0.0
  0
SOLID
  5
1987
330
16D7
100
AcDbEntity
  8
0
  6
ByBlock
100
AcDbTrace
 10
236.060868
 20
205.638117
 30
0.0
 11
240.227535
 21
205.638117
 31
0.0
 12
238.144201
 22
193.138117
 32
0.0
 13
238.144201
 23
193.138117
 33
0.0
  0
MTEXT
  5
1988
330
16D7
100
AcDbEntity
  8
0
  6
ByBlock
 62
     2
100
AcDbMText
 10
226.394201
 20
225.596421
 30
0.0
 40
17.5
 41
0.0
 71
     5
 72
     1
  1
9
 11
0.0
 21
1.0
 31
0.0
 73
     1
 44
1.0
1001
ACAD
1000
MTEXTBEGIN
1070
    73
1070
     1
1070
    44
1040
1.0
1070
    74
1070
     0
1000
MTEXTEND
  0
POINT
  5
1989
330
16D7
100
AcDbEntity
  8
DEFPOINTS
  6
ByBlock
 62
     0
100
AcDbPoint
 10
303.671201
 20
184.138117
 30
0.0
  0
POINT
  5
198A
330
16D7
100
AcDbEntity
  8
DEFPOINTS
  6
ByBlock
 62
     0
100
AcDbPoint
 10
303.671201
 20
193.138117
 30
0.0
  0
POINT
  5
198B
330
16D7
100
AcDbEntity
  8
DEFPOINTS
  6
ByBlock
 62
     0
100
AcDbPoint
 10
238.144201
 20
193.138117
 30
0.0
  0
ENDBLK
  5
198C
330
16D7
100
AcDbEntity
  8
0
100
AcDbBlockEnd
  0
BLOCK
  5
19A4
330
16F2
100
AcDbEntity
  8
0
100
AcDbBlockBegin
  2
*D8
 70
     1
 10
0.0
 20
0.0
 30
0.0
  3
*D8
  1

  0
LINE
  5
19A5
330
16F2
100
AcDbEntity
  8
0
  6
ByBlock
100
AcDbLine
 10
288.144201
 20
156.121117
 30
0.0
 11
288.144201
 21
35.138117
 31
0.0
  0
LINE
  5
19A6
330
16F2
100
AcDbEntity
  8
0
  6
ByBlock
100
AcDbLine
 10
548.1442009999999
 20
156.121117
 30
0.0
 11
548.1442009999999
 21
35.138117
 31
0.0
  0
LINE
  5
19A7
330
16F2
100
AcDbEntity
  8
0
  6
ByBlock
100
AcDbLine
 10
300.644201
 20
40.138117
 30
0.0
 11
535.6442009999999
 21
40.138117
 31
0.0
  0
SOLID
  5
19A8
330
16F2
100
AcDbEntity
  8
0
  6
ByBlock
100
AcDbTrace
 10
300.644201
 20
42.22145
 30
0.0
 11
300.644201
 21
38.054783
 31
0.0
 12
288.144201
 22
40.138117
 32
0.0
 13
288.144201
 23
40.138117
 33
0.0
  0
SOLID
  5
19A9
330
16F2
100
AcDbEntity
  8
0
  6
ByBlock
100
AcDbTrace
 10
535.6442009999999
 20
42.22145
 30
0.0
 11
535.6442009999999
 21
38.054783
 31
0.0
 12
548.1442009999999
 22
40.138117
 32
0.0
 13
548.1442009999999
 23
40.138117
 33
0.0
  0
MTEXT
  5
19AA
330
16F2
100
AcDbEntity
  8
0
  6
ByBlock
 62
     2
100
AcDbMText
 10
418.1442009999999
 20
51.889839
 30
0.0
 40
17.5
 41
0.0
 71
     5
 72
     1
  1
260
 73
     1
 44
1.0
1001
ACAD
1000
MTEXTBEGIN
1070
    73
1070
     1
1070
    44
1040
1.0
1070
    74
1070
     0
1000
MTEXTEND
  0
POINT
  5
19AB
330
16F2
100
AcDbEntity
  8
DEFPOINTS
  6
ByBlock
 62
     0
100
AcDbPoint
 10
288.144201
 20
161.121117
 30
0.0
  0
POINT
  5
19AC
330
16F2
100
AcDbEntity
  8
DEFPOINTS
  6
ByBlock
 62
     0
100
AcDbPoint
 10
548.1442009999999
 20
161.121117
 30
0.0
  0
POINT
  5
19AD
330
16F2
100
AcDbEntity
  8
DEFPOINTS
  6
ByBlock
 62
     0
100
AcDbPoint
 10
548.1442009999999
 20
40.138117
 30
0.0
  0
ENDBLK
  5
19AE
330
16F2
100
AcDbEntity
  8
0
100
AcDbBlockEnd
  0
BLOCK
  5
19BD
330
1709
100
AcDbEntity
  8
0
100
AcDbBlockBegin
  2
*D9
 70
     1
 10
0.0
 20
0.0
 30
0.0
  3
*D9
  1
GEVFRAME
  0
LINE
  5
19BE
330
1709
100
AcDbEntity
  8
0
  6
ByBlock
100
AcDbLine
 10
312.551201
 20
90.13811700000001
 30
0.0
 11
198.144201
 21
90.13811700000001
 31
0.0
  0
LINE
  5
19BF
330
1709
100
AcDbEntity
  8
0
  6
ByBlock
100
AcDbLine
 10
312.551201
 20
287.138117
 30
0.0
 11
198.144201
 21
287.138117
 31
0.0
  0
LINE
  5
19C0
330
1709
100
AcDbEntity
  8
0
  6
ByBlock
100
AcDbLine
 10
203.144201
 20
102.638117
 30
0.0
 11
203.144201
 21
274.638117
 31
0.0
  0
SOLID
  5
19C1
330
1709
100
AcDbEntity
  8
0
  6
ByBlock
100
AcDbTrace
 10
201.060868
 20
102.638117
 30
0.0
 11
205.227535
 21
102.638117
 31
0.0
 12
203.144201
 22
90.13811700000001
 32
0.0
 13
203.144201
 23
90.13811700000001
 33
0.0
  0
SOLID
  5
19C2
330
1709
100
AcDbEntity
  8
0
  6
ByBlock
100
AcDbTrace
 10
201.060868
 20
274.638117
 30
0.0
 11
205.227535
 21
274.638117
 31
0.0
 12
203.144201
 22
287.138117
 32
0.0
 13
203.144201
 23
287.138117
 33
0.0
  0
MTEXT
  5
19C3
330
1709
100
AcDbEntity
  8
0
  6
ByBlock
 62
     2
100
AcDbMText
 10
191.394201
 20
188.638117
 30
0.0
 40
17.5
 41
0.0
 71
     5
 72
     1
  1
{\Fgeniso.shx|c0;\U+25A1}197
 11
0.0
 21
1.0
 31
0.0
 73
     1
 44
1.0
1001
ACAD
1000
MTEXTBEGIN
1070
    73
1070
     1
1070
    44
1040
1.0
1070
    74
1070
     0
1000
MTEXTEND
  0
POINT
  5
19C4
330
1709
100
AcDbEntity
  8
DEFPOINTS
  6
ByBlock
 62
     0
100
AcDbPoint
 10
317.551201
 20
90.13811700000001
 30
0.0
  0
POINT
  5
19C5
330
1709
100
AcDbEntity
  8
DEFPOINTS
  6
ByBlock
 62
     0
100
AcDbPoint
 10
317.551201
 20
287.138117
 30
0.0
  0
POINT
  5
19C6
330
1709
100
AcDbEntity
  8
DEFPOINTS
  6
ByBlock
 62
     0
100
AcDbPoint
 10
203.144201
 20
287.138117
 30
0.0
  0
ENDBLK
  5
19C7
330
1709
100
AcDbEntity
  8
0
100
AcDbBlockEnd
  0
BLOCK
  5
192C
330
1720
100
AcDbEntity
  8
0
100
AcDbBlockBegin
  2
*D10
 70
     1
 10
0.0
 20
0.0
 30
0.0
  3
*D10
  1

  0
LINE
  5
192D
330
1720
100
AcDbEntity
  8
0
  6
ByBlock
100
AcDbLine
 10
337.775201
 20
540.1381169999999
 30
0.0
 11
228.144201
 21
540.1381169999999
 31
0.0
  0
LINE
  5
192E
330
1720
100
AcDbEntity
  8
0
  6
ByBlock
100
AcDbLine
 10
283.516201
 20
562.1381169999999
 30
0.0
 11
228.144201
 21
562.1381169999999
 31
0.0
  0
LINE
  5
192F
330
1720
100
AcDbEntity
  8
0
  6
ByBlock
100
AcDbLine
 10
233.144201
 20
527.6381169999999
 30
0.0
 11
233.144201
 21
515.1381169999999
 31
0.0
  0
LINE
  5
1930
330
1720
100
AcDbEntity
  8
0
  6
ByBlock
100
AcDbLine
 10
233.144201
 20
574.6381169999999
 30
0.0
 11
233.144201
 21
613.88354
 31
0.0
  0
LINE
  5
1931
330
1720
100
AcDbEntity
  8
0
  6
ByBlock
100
AcDbLine
 10
233.144201
 20
540.1381169999999
 30
0.0
 11
233.144201
 21
562.1381169999999
 31
0.0
  0
SOLID
  5
1932
330
1720
100
AcDbEntity
  8
0
  6
ByBlock
100
AcDbTrace
 10
231.060868
 20
527.6381169999999
 30
0.0
 11
235.227535
 21
527.6381169999999
 31
0.0
 12
233.144201
 22
540.1381169999999
 32
0.0
 13
233.144201
 23
540.1381169999999
 33
0.0
  0
SOLID
  5
1933
330
1720
100
AcDbEntity
  8
0
  6
ByBlock
100
AcDbTrace
 10
231.060868
 20
574.6381169999999
 30
0.0
 11
235.227535
 21
574.6381169999999
 31
0.0
 12
233.144201
 22
562.1381169999999
 32
0.0
 13
233.144201
 23
562.1381169999999
 33
0.0
  0
MTEXT
  5
1934
330
1720
100
AcDbEntity
  8
0
  6
ByBlock
 62
     2
100
AcDbMText
 10
221.392479
 20
600.510828
 30
0.0
 40
17.5
 41
0.0
 71
     5
 72
     1
  1
22
 11
0.0
 21
1.0
 31
0.0
 73
     1
 44
1.0
1001
ACAD
1000
MTEXTBEGIN
1070
    73
1070
     1
1070
    44
1040
1.0
1070
    74
1070
     0
1000
MTEXTEND
  0
POINT
  5
1935
330
1720
100
AcDbEntity
  8
DEFPOINTS
  6
ByBlock
 62
     0
100
AcDbPoint
 10
342.775201
 20
540.1381169999999
 30
0.0
  0
POINT
  5
1936
330
1720
100
AcDbEntity
  8
DEFPOINTS
  6
ByBlock
 62
     0
100
AcDbPoint
 10
288.516201
 20
562.1381169999999
 30
0.0
  0
POINT
  5
1937
330
1720
100
AcDbEntity
  8
DEFPOINTS
  6
ByBlock
 62
     0
100
AcDbPoint
 10
233.144201
 20
562.1381169999999
 30
0.0
  0
ENDBLK
  5
1938
330
1720
100
AcDbEntity
  8
0
100
AcDbBlockEnd
  0
BLOCK
  5
1945
330
173B
100
AcDbEntity
  8
0
100
AcDbBlockBegin
  2
*D11
 70
     1
 10
0.0
 20
0.0
 30
0.0
  3
*D11
  1

  0
LINE
  5
1946
330
173B
100
AcDbEntity
  8
0
  6
ByBlock
100
AcDbLine
 10
283.1442009999999
 20
512.1381169999999
 30
0.0
 11
178.144201
 21
512.1381169999999
 31
0.0
  0
LINE
  5
1947
330
173B
100
AcDbEntity
  8
0
  6
ByBlock
100
AcDbLine
 10
252.246201
 20
562.1381169999999
 30
0.0
 11
178.144201
 21
562.1381169999999
 31
0.0
  0
LINE
  5
1948
330
173B
100
AcDbEntity
  8
0
  6
ByBlock
100
AcDbLine
 10
183.144201
 20
524.6381169999999
 30
0.0
 11
183.144201
 21
549.6381169999999
 31
0.0
  0
SOLID
  5
1949
330
173B
100
AcDbEntity
  8
0
  6
ByBlock
100
AcDbTrace
 10
181.060868
 20
524.6381169999999
 30
0.0
 11
185.227535
 21
524.6381169999999
 31
0.0
 12
183.144201
 22
512.1381169999999
 32
0.0
 13
183.144201
 23
512.1381169999999
 33
0.0
  0
SOLID
  5
194A
330
173B
100
AcDbEntity
  8
0
  6
ByBlock
100
AcDbTrace
 10
181.060868
 20
549.6381169999999
 30
0.0
 11
185.227535
 21
549.6381169999999
 31
0.0
 12
183.144201
 22
562.1381169999999
 32
0.0
 13
183.144201
 23
562.1381169999999
 33
0.0
  0
MTEXT
  5
194B
330
173B
100
AcDbEntity
  8
0
  6
ByBlock
 62
     2
100
AcDbMText
 10
171.394201
 20
537.1381169999999
 30
0.0
 40
17.5
 41
0.0
 71
     5
 72
     1
  1
50
 11
0.0
 21
1.0
 31
0.0
 73
     1
 44
1.0
1001
ACAD
1000
MTEXTBEGIN
1070
    73
1070
     1
1070
    44
1040
1.0
1070
    74
1070
     0
1000
MTEXTEND
  0
POINT
  5
194C
330
173B
100
AcDbEntity
  8
DEFPOINTS
  6
ByBlock
 62
     0
100
AcDbPoint
 10
288.144201
 20
512.1381169999999
 30
0.0
  0
POINT
  5
194D
330
173B
100
AcDbEntity
  8
DEFPOINTS
  6
ByBlock
 62
     0
100
AcDbPoint
 10
257.246201
 20
562.1381169999999
 30
0.0
  0
POINT
  5
194E
330
173B
100
AcDbEntity
  8
DEFPOINTS
  6
ByBlock
 62
     0
100
AcDbPoint
 10
183.144201
 20
562.1381169999999
 30
0.0
  0
ENDBLK
  5
194F
330
173B
100
AcDbEntity
  8
0
100
AcDbBlockEnd
  0
BLOCK
  5
1BB1
330
1BAF
100
AcDbEntity
  8
0
100
AcDbBlockBegin
  2
GENAXEH
 70
     0
 10
0.0
 20
0.0
 30
0.0
  3
GENAXEH
  1

  0
LINE
  5
1BB0
330
1BAF
100
AcDbEntity
  8
0
100
AcDbLine
 10
-1.0
 20
0.0
 30
0.0
 11
1.0
 21
0.0
 31
0.0
  0
ENDBLK
  5
1BB2
330
1BAF
100
AcDbEntity
  8
0
100
AcDbBlockEnd
  0
ENDSEC
  0
SECTION
  2
ENTITIES
  0
LINE
  5
1001
330
1638
100
AcDbEntity
  8
0
100
AcDbLine
 10
317.551201
 20
522.1921169999999
 30
0.0
 11
319.644201
 21
562.1381169999999
 31
0.0
  0
LINE
  5
1002
330
1638
100
AcDbEntity
  8
0
100
AcDbLine
 10
288.144201
 20
512.1381169999999
 30
0.0
 11
288.667201
 21
522.1241169999999
 31
0.0
  0
LINE
  5
1003
330
1638
100
AcDbEntity
  8
0
100
AcDbLine
 10
317.551201
 20
522.1921169999999
 30
0.0
 11
288.671201
 21
522.1921169999999
 31
0.0
  0
LINE
  5
1004
330
1638
100
AcDbEntity
  8
0
100
AcDbLine
 10
331.3532009999999
 20
521.5421169999999
 30
0.0
 11
330.795201
 21
553.4801169999999
 31
0.0
  0
LINE
  5
1005
330
1638
100
AcDbEntity
  8
0
100
AcDbLine
 10
327.644201
 20
562.1381169999999
 30
0.0
 11
330.795201
 21
553.4801169999999
 31
0.0
  0
ARC
  5
1006
330
1638
100
AcDbEntity
  8
0
100
AcDbCircle
 10
336.852201
 20
521.638117
 30
0.0
 40
5.5
100
AcDbArc
 50
181.0
 51
270.0
  0
LINE
  5
1007
330
1638
100
AcDbEntity
  8
0
100
AcDbLine
 10
485.6442009999999
 20
387.138117
 30
0.0
 11
350.644201
 21
387.138117
 31
0.0
  0
LINE
  5
1008
330
1638
100
AcDbEntity
  8
0
100
AcDbLine
 10
288.144201
 20
512.1381169999999
 30
0.0
 11
323.327201
 21
512.1381169999999
 31
0.0
  0
LINE
  5
1009
330
1638
100
AcDbEntity
  8
0
100
AcDbLine
 10
342.644201
 20
516.1381169999999
 30
0.0
 11
343.251201
 21
481.340117
 31
0.0
  0
LINE
  5
100A
330
1638
100
AcDbEntity
  8
0
100
AcDbLine
 10
334.366201
 20
482.5601169999999
 30
0.0
 11
333.313201
 21
502.6611169999999
 31
0.0
  0
ARC
  5
100B
330
1638
100
AcDbEntity
  8
0
100
AcDbCircle
 10
323.327201
 20
502.1381169999999
 30
0.0
 40
10.0
100
AcDbArc
 50
3.0
 51
90.0
  0
LINE
  5
100C
330
1638
100
AcDbEntity
  8
0
100
AcDbLine
 10
296.921201
 20
522.193117
 30
0.0
 11
299.171201
 21
512.1381169999999
 31
0.0
  0
LINE
  5
100D
330
1638
100
AcDbEntity
  8
0
100
AcDbLine
 10
308.171201
 20
512.1371169999999
 30
0.0
 11
310.421201
 21
522.193117
 31
0.0
  0
CIRCLE
  5
100E
330
1638
100
AcDbEntity
  8
0
100
AcDbCircle
 10
336.852201
 20
521.638117
 30
0.0
 40
5.5
  0
LINE
  5
100F
330
1638
100
AcDbEntity
  8
0
100
AcDbLine
 10
418.1442009999999
 20
522.1381169999999
 30
0.0
 11
342.3292009999999
 21
522.1381169999999
 31
0.0
  0
LINE
  5
1010
330
1638
100
AcDbEntity
  8
0
100
AcDbLine
 10
347.6442009999999
 20
522.1381169999999
 30
0.0
 11
347.713201
 21
523.452117
 31
0.0
  0
LINE
  5
1011
330
1638
100
AcDbEntity
  8
0
100
AcDbLine
 10
334.873201
 20
555.5941169999999
 30
0.0
 11
335.870201
 21
527.050117
 31
0.0
  0
LINE
  5
1012
330
1638
100
AcDbEntity
  8
0
100
AcDbLine
 10
332.319201
 20
557.1381169999999
 30
0.0
 11
333.275201
 21
557.1381169999999
 31
0.0
  0
ARC
  5
1013
330
1638
100
AcDbEntity
  8
0
100
AcDbCircle
 10
333.275201
 20
555.5381169999999
 30
0.0
 40
1.6
100
AcDbArc
 50
2.0
 51
90.0
  0
LINE
  5
1014
330
1638
100
AcDbEntity
  8
0
100
AcDbLine
 10
516.6442009999999
 20
562.1381169999999
 30
0.0
 11
319.644201
 21
562.1381169999999
 31
0.0
  0
LINE
  5
1015
330
1638
100
AcDbEntity
  8
0
100
AcDbLine
 10
518.737201
 20
522.193117
 30
0.0
 11
516.6442009999999
 21
562.1381169999999
 31
0.0
  0
LINE
  5
1016
330
1638
100
AcDbEntity
  8
0
100
AcDbLine
 10
548.1442009999999
 20
512.1381169999999
 30
0.0
 11
547.6212009999999
 21
522.1241169999999
 31
0.0
  0
LINE
  5
1017
330
1638
100
AcDbEntity
  8
0
100
AcDbLine
 10
518.737201
 20
522.1921169999999
 30
0.0
 11
547.6172009999999
 21
522.1921169999999
 31
0.0
  0
LINE
  5
1018
330
1638
100
AcDbEntity
  8
0
100
AcDbLine
 10
504.936201
 20
521.5421169999999
 30
0.0
 11
505.4932009999999
 21
553.4801169999999
 31
0.0
  0
LINE
  5
1019
330
1638
100
AcDbEntity
  8
0
100
AcDbLine
 10
508.6442009999999
 20
562.1381169999999
 30
0.0
 11
505.4932009999999
 21
553.4801169999999
 31
0.0
  0
ARC
  5
101A
330
1638
100
AcDbEntity
  8
0
100
AcDbCircle
 10
499.4362009999999
 20
521.638117
 30
0.0
 40
5.5
100
AcDbArc
 50
270.0
 51
359.0
  0
LINE
  5
101B
330
1638
100
AcDbEntity
  8
0
100
AcDbLine
 10
548.1442009999999
 20
512.1381169999999
 30
0.0
 11
512.9622009999999
 21
512.1381169999999
 31
0.0
  0
LINE
  5
101C
330
1638
100
AcDbEntity
  8
0
100
AcDbLine
 10
493.6442009999999
 20
516.1381169999999
 30
0.0
 11
493.037201
 21
481.340117
 31
0.0
  0
LINE
  5
101D
330
1638
100
AcDbEntity
  8
0
100
AcDbLine
 10
501.922201
 20
482.5601169999999
 30
0.0
 11
502.975201
 21
502.6611169999999
 31
0.0
  0
ARC
  5
101E
330
1638
100
AcDbEntity
  8
0
100
AcDbCircle
 10
512.9622009999999
 20
502.1381169999999
 30
0.0
 40
10.0
100
AcDbArc
 50
90.0
 51
177.0
  0
LINE
  5
101F
330
1638
100
AcDbEntity
  8
0
100
AcDbLine
 10
539.367201
 20
522.1921169999999
 30
0.0
 11
537.117201
 21
512.1381169999999
 31
0.0
  0
LINE
  5
1020
330
1638
100
AcDbEntity
  8
0
100
AcDbLine
 10
528.118201
 20
512.1381169999999
 30
0.0
 11
525.868201
 21
522.193117
 31
0.0
  0
CIRCLE
  5
1021
330
1638
100
AcDbEntity
  8
0
100
AcDbCircle
 10
499.4362009999999
 20
521.638117
 30
0.0
 40
5.5
  0
LINE
  5
1022
330
1638
100
AcDbEntity
  8
0
100
AcDbLine
 10
503.4692009999999
 20
557.1381169999999
 30
0.0
 11
503.0132009999999
 21
557.1381169999999
 31
0.0
  0
LINE
  5
1023
330
1638
100
AcDbEntity
  8
0
100
AcDbLine
 10
499.4362009999999
 20
516.1381169999999
 30
0.0
 11
336.852201
 21
516.1381169999999
 31
0.0
  0
LINE
  5
1024
330
1638
100
AcDbEntity
  8
0
100
AcDbLine
 10
339.3532009999999
 20
474.4231169999999
 30
0.0
 11
347.6442009999999
 21
469.636117
 31
0.0
  0
LINE
  5
1025
330
1638
100
AcDbEntity
  8
0
100
AcDbLine
 10
488.6442009999999
 20
469.636117
 30
0.0
 11
496.9352009999999
 21
474.4231169999999
 31
0.0
  0
LINE
  5
1026
330
1638
100
AcDbEntity
  8
0
100
AcDbLine
 10
483.6442009999999
 20
473.6781169999999
 30
0.0
 11
491.0372009999999
 21
477.946117
 31
0.0
  0
ARC
  5
1027
330
1638
100
AcDbEntity
  8
0
100
AcDbCircle
 10
491.9362009999999
 20
483.084117
 30
0.0
 40
10.0
100
AcDbArc
 50
300.0
 51
357.0
  0
ARC
  5
1028
330
1638
100
AcDbEntity
  8
0
100
AcDbCircle
 10
344.353201
 20
483.084117
 30
0.0
 40
10.0
100
AcDbArc
 50
183.0
 51
240.0
  0
ARC
  5
1029
330
1638
100
AcDbEntity
  8
0
100
AcDbCircle
 10
347.251201
 20
481.4101169999999
 30
0.0
 40
4.0
100
AcDbArc
 50
181.0
 51
240.0
  0
ARC
  5
102A
330
1638
100
AcDbEntity
  8
0
100
AcDbCircle
 10
489.037201
 20
481.4101169999999
 30
0.0
 40
4.0
100
AcDbArc
 50
300.0
 51
359.0
  0
LINE
  5
102B
330
1638
100
AcDbEntity
  8
0
100
AcDbLine
 10
485.6442009999999
 20
464.440117
 30
0.0
 11
485.6442009999999
 21
387.138117
 31
0.0
  0
LINE
  5
102C
330
1638
100
AcDbEntity
  8
0
100
AcDbLine
 10
350.644201
 20
464.440117
 30
0.0
 11
350.644201
 21
387.138117
 31
0.0
  0
LINE
  5
102D
330
1638
100
AcDbEntity
  8
0
100
AcDbLine
 10
357.644201
 20
465.017117
 30
0.0
 11
357.644201
 21
412.1381169999999
 31
0.0
  0
LINE
  5
102E
330
1638
100
AcDbEntity
  8
0
100
AcDbLine
 10
358.324201
 20
407.1381169999999
 30
0.0
 11
358.324201
 21
387.138117
 31
0.0
  0
LINE
  5
102F
330
1638
100
AcDbEntity
  8
0
100
AcDbLine
 10
357.644201
 20
412.1381169999999
 30
0.0
 11
358.324201
 21
407.1381169999999
 31
0.0
  0
LINE
  5
1030
330
1638
100
AcDbEntity
  8
0
100
AcDbLine
 10
478.644201
 20
465.017117
 30
0.0
 11
478.644201
 21
412.1381169999999
 31
0.0
  0
LINE
  5
1031
330
1638
100
AcDbEntity
  8
0
100
AcDbLine
 10
477.9642009999999
 20
407.1381169999999
 30
0.0
 11
477.9642009999999
 21
387.138117
 31
0.0
  0
LINE
  5
1032
330
1638
100
AcDbEntity
  8
0
100
AcDbLine
 10
478.644201
 20
412.1381169999999
 30
0.0
 11
477.9642009999999
 21
407.1381169999999
 31
0.0
  0
LINE
  5
1033
330
1638
100
AcDbEntity
  8
0
100
AcDbLine
 10
345.251201
 20
477.946117
 30
0.0
 11
352.644201
 21
473.6781169999999
 31
0.0
  0
ARC
  5
1034
330
1638
100
AcDbEntity
  8
0
100
AcDbCircle
 10
344.644201
 20
464.440117
 30
0.0
 40
6.0
100
AcDbArc
 50
0.0
 51
60.0
  0
ARC
  5
1035
330
1638
100
AcDbEntity
  8
0
100
AcDbCircle
 10
491.6442009999999
 20
464.440117
 30
0.0
 40
6.0
100
AcDbArc
 50
120.0
 51
180.0
  0
ARC
  5
1036
330
1638
100
AcDbEntity
  8
0
100
AcDbCircle
 10
488.6442009999999
 20
465.017117
 30
0.0
 40
10.0
100
AcDbArc
 50
120.0
 51
180.0
  0
ARC
  5
1037
330
1638
100
AcDbEntity
  8
0
100
AcDbCircle
 10
347.6442009999999
 20
465.017117
 30
0.0
 40
10.0
100
AcDbArc
 50
0.0
 51
60.0
  0
LINE
  5
1038
330
1638
100
AcDbEntity
  8
0
100
AcDbLine
 10
338.144201
 20
562.1381169999999
 30
0.0
 11
338.777201
 21
543.998117
 31
0.0
  0
LINE
  5
1039
330
1638
100
AcDbEntity
  8
0
100
AcDbLine
 10
332.145201
 20
562.1201169999999
 30
0.0
 11
332.319201
 21
557.1201169999999
 31
0.0
  0
ARC
  5
103A
330
1638
100
AcDbEntity
  8
0
100
AcDbCircle
 10
342.775201
 20
544.1381169999999
 30
0.0
 40
4.0
100
AcDbArc
 50
182.0
 51
270.0
  0
ARC
  5
103B
330
1638
100
AcDbEntity
  8
0
100
AcDbCircle
 10
353.705201
 20
523.1381169999999
 30
0.0
 40
6.0
100
AcDbArc
 50
90.0
 51
177.0
  0
LINE
  5
103C
330
1638
100
AcDbEntity
  8
0
100
AcDbLine
 10
418.1442009999999
 20
522.1381169999999
 30
0.0
 11
493.9592009999999
 21
522.1381169999999
 31
0.0
  0
LINE
  5
103D
330
1638
100
AcDbEntity
  8
0
100
AcDbLine
 10
488.6442009999999
 20
522.137117
 30
0.0
 11
488.575201
 21
523.452117
 31
0.0
  0
LINE
  5
103E
330
1638
100
AcDbEntity
  8
0
100
AcDbLine
 10
501.415201
 20
555.5941169999999
 30
0.0
 11
500.418201
 21
527.050117
 31
0.0
  0
LINE
  5
103F
330
1638
100
AcDbEntity
  8
0
100
AcDbLine
 10
503.969201
 20
557.1381169999999
 30
0.0
 11
503.0132009999999
 21
557.1381169999999
 31
0.0
  0
ARC
  5
1040
330
1638
100
AcDbEntity
  8
0
100
AcDbCircle
 10
503.0132009999999
 20
555.5381169999999
 30
0.0
 40
1.6
100
AcDbArc
 50
90.0
 51
178.0
  0
LINE
  5
1041
330
1638
100
AcDbEntity
  8
0
100
AcDbLine
 10
493.513201
 20
540.1381169999999
 30
0.0
 11
342.775201
 21
540.1381169999999
 31
0.0
  0
LINE
  5
1042
330
1638
100
AcDbEntity
  8
0
100
AcDbLine
 10
498.1442009999999
 20
562.1381169999999
 30
0.0
 11
497.511201
 21
543.998117
 31
0.0
  0
LINE
  5
1043
330
1638
100
AcDbEntity
  8
0
100
AcDbLine
 10
504.143201
 20
562.1201169999999
 30
0.0
 11
503.969201
 21
557.1201169999999
 31
0.0
  0
ARC
  5
1044
330
1638
100
AcDbEntity
  8
0
100
AcDbCircle
 10
493.513201
 20
544.1381169999999
 30
0.0
 40
4.0
100
AcDbArc
 50
270.0
 51
358.0
  0
LINE
  5
1045
330
1638
100
AcDbEntity
  8
0
100
AcDbLine
 10
482.583201
 20
529.138117
 30
0.0
 11
353.705201
 21
529.138117
 31
0.0
  0
ARC
  5
1046
330
1638
100
AcDbEntity
  8
0
100
AcDbCircle
 10
482.583201
 20
523.1381169999999
 30
0.0
 40
6.0
100
AcDbArc
 50
3.0
 51
90.0
  0
LINE
  5
1047
330
1638
100
AcDbEntity
  8
0
100
AcDbLine
 10
288.144201
 20
161.121117
 30
0.0
 11
288.144201
 21
216.154117
 31
0.0
  0
LINE
  5
1048
330
1638
100
AcDbEntity
  8
0
100
AcDbLine
 10
319.644201
 20
92.138117
 30
0.0
 11
319.644201
 21
285.138117
 31
0.0
  0
LINE
  5
1049
330
1638
100
AcDbEntity
  8
0
100
AcDbLine
 10
317.551201
 20
90.13811700000001
 30
0.0
 11
317.551201
 21
287.138117
 31
0.0
  0
LINE
  5
104A
330
1638
100
AcDbEntity
  8
0
100
AcDbLine
 10
516.6442009999999
 20
285.138117
 30
0.0
 11
319.644201
 21
285.138117
 31
0.0
  0
LINE
  5
104B
330
1638
100
AcDbEntity
  8
0
100
AcDbLine
 10
518.737201
 20
287.138117
 30
0.0
 11
317.551201
 21
287.138117
 31
0.0
  0
LINE
  5
104D
330
1638
100
AcDbEntity
  8
0
100
AcDbLine
 10
290.144201
 20
161.121117
 30
0.0
 11
290.144201
 21
216.154117
 31
0.0
  0
LINE
  5
104E
330
1638
100
AcDbEntity
  8
0
100
AcDbLine
 10
317.551201
 20
228.638117
 30
0.0
 11
292.591201
 21
221.950117
 31
0.0
  0
LINE
  5
104F
330
1638
100
AcDbEntity
  8
0
100
AcDbLine
 10
317.551201
 20
148.638117
 30
0.0
 11
292.591201
 21
155.326117
 31
0.0
  0
LINE
  5
1050
330
1638
100
AcDbEntity
  8
0
100
AcDbLine
 10
317.551201
 20
226.567117
 30
0.0
 11
293.109201
 21
220.018117
 31
0.0
  0
LINE
  5
1051
330
1638
100
AcDbEntity
  8
0
100
AcDbLine
 10
317.551201
 20
150.709117
 30
0.0
 11
293.1082009999999
 21
157.258117
 31
0.0
  0
ARC
  5
1052
330
1638
100
AcDbEntity
  8
0
100
AcDbCircle
 10
294.1442009999999
 20
216.154117
 30
0.0
 40
6.0
100
AcDbArc
 50
105.0
 51
180.0
  0
ARC
  5
1053
330
1638
100
AcDbEntity
  8
0
100
AcDbCircle
 10
294.1442009999999
 20
161.121117
 30
0.0
 40
6.0
100
AcDbArc
 50
180.0
 51
255.0
  0
ARC
  5
1054
330
1638
100
AcDbEntity
  8
0
100
AcDbCircle
 10
294.1442009999999
 20
216.154117
 30
0.0
 40
4.0
100
AcDbArc
 50
105.0
 51
180.0
  0
ARC
  5
1055
330
1638
100
AcDbEntity
  8
0
100
AcDbCircle
 10
294.1442009999999
 20
161.121117
 30
0.0
 40
4.0
100
AcDbArc
 50
180.0
 51
255.0
  0
CIRCLE
  5
1056
330
1638
100
AcDbEntity
  8
0
100
AcDbCircle
 10
303.671201
 20
188.638117
 30
0.0
 40
6.75
  0
LINE
  5
1057
330
1638
100
AcDbEntity
  8
0
100
AcDbLine
 10
344.469201
 20
117.710117
 30
0.0
 11
350.969201
 21
113.958117
 31
0.0
  0
LINE
  5
1058
330
1638
100
AcDbEntity
  8
0
100
AcDbLine
 10
350.9712009999999
 20
113.957117
 30
0.0
 11
357.469201
 21
117.709117
 31
0.0
  0
LINE
  5
1059
330
1638
100
AcDbEntity
  8
0
100
AcDbLine
 10
357.470201
 20
117.711117
 30
0.0
 11
357.470201
 21
125.214117
 31
0.0
  0
LINE
  5
105A
330
1638
100
AcDbEntity
  8
0
100
AcDbLine
 10
357.469201
 20
125.215117
 30
0.0
 11
350.968201
 21
128.969117
 31
0.0
  0
LINE
  5
105B
330
1638
100
AcDbEntity
  8
0
100
AcDbLine
 10
344.469201
 20
125.217117
 30
0.0
 11
344.469201
 21
117.710117
 31
0.0
  0
LINE
  5
105C
330
1638
100
AcDbEntity
  8
0
100
AcDbLine
 10
350.967201
 20
128.969117
 30
0.0
 11
344.470201
 21
125.218117
 31
0.0
  0
LINE
  5
105D
330
1638
100
AcDbEntity
  8
0
100
AcDbLine
 10
478.8192009999999
 20
252.059117
 30
0.0
 11
485.318201
 21
248.307117
 31
0.0
  0
LINE
  5
105E
330
1638
100
AcDbEntity
  8
0
100
AcDbLine
 10
485.320201
 20
248.307117
 30
0.0
 11
491.8192009999999
 21
252.060117
 31
0.0
  0
LINE
  5
105F
330
1638
100
AcDbEntity
  8
0
100
AcDbLine
 10
491.8212009999999
 20
252.060117
 30
0.0
 11
491.8212009999999
 21
259.566117
 31
0.0
  0
LINE
  5
1060
330
1638
100
AcDbEntity
  8
0
100
AcDbLine
 10
491.8202009999999
 20
259.567117
 30
0.0
 11
485.320201
 21
263.319117
 31
0.0
  0
LINE
  5
1061
330
1638
100
AcDbEntity
  8
0
100
AcDbLine
 10
478.8192009999999
 20
259.566117
 30
0.0
 11
478.820201
 21
252.060117
 31
0.0
  0
LINE
  5
1062
330
1638
100
AcDbEntity
  8
0
100
AcDbLine
 10
485.3192009999999
 20
263.320117
 30
0.0
 11
478.820201
 21
259.568117
 31
0.0
  0
LINE
  5
1063
330
1638
100
AcDbEntity
  8
0
100
AcDbLine
 10
357.392201
 20
122.463117
 30
0.0
 11
344.547201
 21
122.463117
 31
0.0
  0
LINE
  5
1064
330
1638
100
AcDbEntity
  8
0
100
AcDbLine
 10
357.392201
 20
120.463117
 30
0.0
 11
344.546201
 21
120.463117
 31
0.0
  0
LINE
  5
1065
330
1638
100
AcDbEntity
  8
0
100
AcDbLine
 10
491.742201
 20
256.813117
 30
0.0
 11
478.897201
 21
256.813117
 31
0.0
  0
LINE
  5
1066
330
1638
100
AcDbEntity
  8
0
100
AcDbLine
 10
491.742201
 20
254.813117
 30
0.0
 11
478.897201
 21
254.813117
 31
0.0
  0
LINE
  5
1067
330
1638
100
AcDbEntity
  8
0
100
AcDbLine
 10
548.1442009999999
 20
161.121117
 30
0.0
 11
548.1442009999999
 21
216.154117
 31
0.0
  0
LINE
  5
1068
330
1638
100
AcDbEntity
  8
0
100
AcDbLine
 10
516.6442009999999
 20
92.138117
 30
0.0
 11
516.6442009999999
 21
285.138117
 31
0.0
  0
LINE
  5
1069
330
1638
100
AcDbEntity
  8
0
100
AcDbLine
 10
518.737201
 20
90.13811700000001
 30
0.0
 11
518.737201
 21
287.138117
 31
0.0
  0
LINE
  5
106A
330
1638
100
AcDbEntity
  8
0
100
AcDbLine
 10
317.551201
 20
90.13811700000001
 30
0.0
 11
518.737201
 21
90.13811700000001
 31
0.0
  0
LINE
  5
106B
330
1638
100
AcDbEntity
  8
0
100
AcDbLine
 10
319.644201
 20
92.138117
 30
0.0
 11
516.6442009999999
 21
92.138117
 31
0.0
  0
LINE
  5
106C
330
1638
100
AcDbEntity
  8
0
100
AcDbLine
 10
546.1442009999999
 20
161.121117
 30
0.0
 11
546.1442009999999
 21
216.154117
 31
0.0
  0
LINE
  5
106D
330
1638
100
AcDbEntity
  8
0
100
AcDbLine
 10
518.738201
 20
228.638117
 30
0.0
 11
543.6972009999999
 21
221.950117
 31
0.0
  0
LINE
  5
106E
330
1638
100
AcDbEntity
  8
0
100
AcDbLine
 10
518.738201
 20
148.638117
 30
0.0
 11
543.6972009999999
 21
155.325117
 31
0.0
  0
LINE
  5
106F
330
1638
100
AcDbEntity
  8
0
100
AcDbLine
 10
518.738201
 20
226.568117
 30
0.0
 11
543.180201
 21
220.018117
 31
0.0
  0
LINE
  5
1070
330
1638
100
AcDbEntity
  8
0
100
AcDbLine
 10
518.738201
 20
150.708117
 30
0.0
 11
543.1792009999999
 21
157.258117
 31
0.0
  0
ARC
  5
1071
330
1638
100
AcDbEntity
  8
0
100
AcDbCircle
 10
542.1442009999999
 20
216.154117
 30
0.0
 40
6.0
100
AcDbArc
 50
0.0
 51
75.0
  0
ARC
  5
1072
330
1638
100
AcDbEntity
  8
0
100
AcDbCircle
 10
542.1442009999999
 20
161.121117
 30
0.0
 40
6.0
100
AcDbArc
 50
285.0
 51
0.0
  0
ARC
  5
1073
330
1638
100
AcDbEntity
  8
0
100
AcDbCircle
 10
542.1442009999999
 20
216.154117
 30
0.0
 40
4.0
100
AcDbArc
 50
0.0
 51
75.0
  0
ARC
  5
1074
330
1638
100
AcDbEntity
  8
0
100
AcDbCircle
 10
542.1442009999999
 20
161.121117
 30
0.0
 40
4.0
100
AcDbArc
 50
285.0
 51
0.0
  0
CIRCLE
  5
1075
330
1638
100
AcDbEntity
  8
0
100
AcDbCircle
 10
532.617201
 20
188.638117
 30
0.0
 40
6.75
  0
LINE
  5
1076
330
1638
100
AcDbEntity
  8
0
100
AcDbLine
 10
508.6442009999999
 20
277.638117
 30
0.0
 11
508.6442009999999
 21
202.138117
 31
0.0
  0
LINE
  5
1077
330
1638
100
AcDbEntity
  8
0
100
AcDbLine
 10
504.1442009999999
 20
273.138117
 30
0.0
 11
504.1442009999999
 21
101.138117
 31
0.0
  0
LINE
  5
1078
330
1638
100
AcDbEntity
  8
0
100
AcDbLine
 10
498.1442009999999
 20
235.138117
 30
0.0
 11
498.1442009999999
 21
111.138117
 31
0.0
  0
LINE
  5
1079
330
1638
100
AcDbEntity
  8
0
100
AcDbLine
 10
327.644201
 20
277.638117
 30
0.0
 11
327.644201
 21
202.138117
 31
0.0
  0
LINE
  5
107A
330
1638
100
AcDbEntity
  8
0
100
AcDbLine
 10
332.144201
 20
273.138117
 30
0.0
 11
332.144201
 21
101.138117
 31
0.0
  0
LINE
  5
107B
330
1638
100
AcDbEntity
  8
0
100
AcDbLine
 10
338.144201
 20
263.138117
 30
0.0
 11
338.144201
 21
139.138117
 31
0.0
  0
LINE
  5
107C
330
1638
100
AcDbEntity
  8
0
100
AcDbLine
 10
508.6442009999999
 20
277.638117
 30
0.0
 11
327.644201
 21
277.638117
 31
0.0
  0
LINE
  5
107D
330
1638
100
AcDbEntity
  8
0
100
AcDbLine
 10
508.6442009999999
 20
96.63811700000001
 30
0.0
 11
327.644201
 21
96.63811700000001
 31
0.0
  0
LINE
  5
107E
330
1638
100
AcDbEntity
  8
0
100
AcDbLine
 10
504.1442009999999
 20
273.138117
 30
0.0
 11
332.144201
 21
273.138117
 31
0.0
  0
LINE
  5
107F
330
1638
100
AcDbEntity
  8
0
100
AcDbLine
 10
504.1442009999999
 20
101.138117
 30
0.0
 11
332.144201
 21
101.138117
 31
0.0
  0
LINE
  5
1080
330
1638
100
AcDbEntity
  8
0
100
AcDbLine
 10
494.1442009999999
 20
107.138117
 30
0.0
 11
370.144201
 21
107.138117
 31
0.0
  0
LINE
  5
1081
330
1638
100
AcDbEntity
  8
0
100
AcDbLine
 10
494.1442009999999
 20
239.138117
 30
0.0
 11
474.1442009999999
 21
239.138117
 31
0.0
  0
LINE
  5
1082
330
1638
100
AcDbEntity
  8
0
100
AcDbLine
 10
362.1442009999999
 20
135.138117
 30
0.0
 11
342.144201
 21
135.138117
 31
0.0
  0
LINE
  5
1083
330
1638
100
AcDbEntity
  8
0
100
AcDbLine
 10
366.144201
 20
131.138117
 30
0.0
 11
366.144201
 21
111.138117
 31
0.0
  0
LINE
  5
1084
330
1638
100
AcDbEntity
  8
0
100
AcDbLine
 10
470.144201
 20
263.138117
 30
0.0
 11
470.144201
 21
243.138117
 31
0.0
  0
LINE
  5
1085
330
1638
100
AcDbEntity
  8
0
100
AcDbLine
 10
466.144201
 20
267.138117
 30
0.0
 11
342.144201
 21
267.138117
 31
0.0
  0
ARC
  5
1086
330
1638
100
AcDbEntity
  8
0
100
AcDbCircle
 10
466.144201
 20
263.138117
 30
0.0
 40
4.0
100
AcDbArc
 50
0.0
 51
90.0
  0
ARC
  5
1087
330
1638
100
AcDbEntity
  8
0
100
AcDbCircle
 10
494.1442009999999
 20
235.138117
 30
0.0
 40
4.0
100
AcDbArc
 50
0.0
 51
90.0
  0
ARC
  5
1088
330
1638
100
AcDbEntity
  8
0
100
AcDbCircle
 10
494.1442009999999
 20
111.138117
 30
0.0
 40
4.0
100
AcDbArc
 50
270.0
 51
0.0
  0
ARC
  5
1089
330
1638
100
AcDbEntity
  8
0
100
AcDbCircle
 10
370.144201
 20
111.138117
 30
0.0
 40
4.0
100
AcDbArc
 50
180.0
 51
270.0
  0
ARC
  5
108A
330
1638
100
AcDbEntity
  8
0
100
AcDbCircle
 10
342.144201
 20
139.138117
 30
0.0
 40
4.0
100
AcDbArc
 50
180.0
 51
270.0
  0
ARC
  5
108B
330
1638
100
AcDbEntity
  8
0
100
AcDbCircle
 10
342.144201
 20
263.138117
 30
0.0
 40
4.0
100
AcDbArc
 50
90.0
 51
180.0
  0
ARC
  5
108C
330
1638
100
AcDbEntity
  8
0
100
AcDbCircle
 10
474.1442009999999
 20
243.138117
 30
0.0
 40
4.0
100
AcDbArc
 50
180.0
 51
270.0
  0
ARC
  5
108D
330
1638
100
AcDbEntity
  8
0
100
AcDbCircle
 10
362.1442009999999
 20
131.138117
 30
0.0
 40
4.0
100
AcDbArc
 50
0.0
 51
90.0
  0
CIRCLE
  5
108E
330
1638
100
AcDbEntity
  8
0
100
AcDbCircle
 10
350.969201
 20
121.462117
 30
0.0
 40
11.0
  0
CIRCLE
  5
108F
330
1638
100
AcDbEntity
  8
0
100
AcDbCircle
 10
485.3192009999999
 20
255.813117
 30
0.0
 40
11.0
  0
LINE
  5
1090
330
1638
100
AcDbEntity
  8
0
100
AcDbLine
 10
510.6442009999999
 20
202.138117
 30
0.0
 11
508.6442009999999
 21
202.138117
 31
0.0
  0
LINE
  5
1091
330
1638
100
AcDbEntity
  8
0
100
AcDbLine
 10
510.6442009999999
 20
172.138117
 30
0.0
 11
508.6442009999999
 21
172.138117
 31
0.0
  0
LINE
  5
1092
330
1638
100
AcDbEntity
  8
0
100
AcDbLine
 10
510.6442009999999
 20
202.138117
 30
0.0
 11
510.6442009999999
 21
172.138117
 31
0.0
  0
LINE
  5
1093
330
1638
100
AcDbEntity
  8
0
100
AcDbLine
 10
508.6442009999999
 20
172.138117
 30
0.0
 11
508.6442009999999
 21
96.63811700000001
 31
0.0
  0
LINE
  5
1094
330
1638
100
AcDbEntity
  8
0
100
AcDbLine
 10
325.644201
 20
202.138117
 30
0.0
 11
327.644201
 21
202.138117
 31
0.0
  0
LINE
  5
1095
330
1638
100
AcDbEntity
  8
0
100
AcDbLine
 10
325.644201
 20
172.138117
 30
0.0
 11
327.644201
 21
172.138117
 31
0.0
  0
LINE
  5
1096
330
1638
100
AcDbEntity
  8
0
100
AcDbLine
 10
325.644201
 20
202.138117
 30
0.0
 11
325.644201
 21
172.138117
 31
0.0
  0
LINE
  5
1097
330
1638
100
AcDbEntity
  8
0
100
AcDbLine
 10
327.644201
 20
172.138117
 30
0.0
 11
327.644201
 21
96.63811700000001
 31
0.0
  0
LINE
  5
1098
330
1638
100
AcDbEntity
  8
4
100
AcDbLine
 10
477.0702009999999
 20
470.112117
 30
0.0
 11
358.270201
 21
470.112117
 31
0.0
  0
LINE
  5
1099
330
1638
100
AcDbEntity
  8
4
100
AcDbLine
 10
490.695201
 20
479.4671169999999
 30
0.0
 11
346.340201
 21
479.4671169999999
 31
0.0
  0
CIRCLE
  5
109A
330
1638
100
AcDbEntity
  8
0
100
AcDbCircle
 10
532.617201
 20
188.638117
 30
0.0
 40
4.5
  0
CIRCLE
  5
109B
330
1638
100
AcDbEntity
  8
0
100
AcDbCircle
 10
303.671201
 20
188.638117
 30
0.0
 40
4.5
  0
POLYLINE
  5
109D
330
1638
100
AcDbEntity
  8
SCHRAFFUR_RAND
100
AcDb2dPolyline
 66
     1
 10
0.0
 20
0.0
 30
0.0
 70
     1
  0
VERTEX
  5
109E
330
109D
100
AcDbEntity
  8
SCHRAFFUR_RAND
100
AcDbVertex
100
AcDb2dVertex
 10
333.897201
 20
526.276117
 30
0.0
  0
VERTEX
  5
109F
330
109D
100
AcDbEntity
  8
SCHRAFFUR_RAND
100
AcDbVertex
100
AcDb2dVertex
 10
333.664201
 20
526.154117
 30
0.0
  0
VERTEX
  5
10A0
330
109D
100
AcDbEntity
  8
SCHRAFFUR_RAND
100
AcDbVertex
100
AcDb2dVertex
 10
332.564201
 20
525.126117
 30
0.0
  0
VERTEX
  5
10A1
330
109D
100
AcDbEntity
  8
SCHRAFFUR_RAND
100
AcDbVertex
100
AcDb2dVertex
 10
331.7812009999999
 20
523.8401169999999
 30
0.0
  0
VERTEX
  5
10A2
330
109D
100
AcDbEntity
  8
SCHRAFFUR_RAND
100
AcDbVertex
100
AcDb2dVertex
 10
331.375201
 20
522.390117
 30
0.0
  0
VERTEX
  5
10A3
330
109D
100
AcDbEntity
  8
SCHRAFFUR_RAND
100
AcDbVertex
100
AcDb2dVertex
 10
331.3532009999999
 20
521.5421169999999
 30
0.0
  0
VERTEX
  5
10A4
330
109D
100
AcDbEntity
  8
SCHRAFFUR_RAND
100
AcDbVertex
100
AcDb2dVertex
 10
331.533201
 20
520.1291169999999
 30
0.0
  0
VERTEX
  5
10A5
330
109D
100
AcDbEntity
  8
SCHRAFFUR_RAND
100
AcDbVertex
100
AcDb2dVertex
 10
331.7812009999999
 20
519.435117
 30
0.0
  0
VERTEX
  5
10A6
330
109D
100
AcDbEntity
  8
SCHRAFFUR_RAND
100
AcDbVertex
100
AcDb2dVertex
 10
332.097201
 20
518.818117
 30
0.0
  0
VERTEX
  5
10A7
330
109D
100
AcDbEntity
  8
SCHRAFFUR_RAND
100
AcDbVertex
100
AcDb2dVertex
 10
332.564201
 20
518.149117
 30
0.0
  0
VERTEX
  5
10A8
330
109D
100
AcDbEntity
  8
SCHRAFFUR_RAND
100
AcDbVertex
100
AcDb2dVertex
 10
332.977201
 20
517.6951169999999
 30
0.0
  0
VERTEX
  5
10A9
330
109D
100
AcDbEntity
  8
SCHRAFFUR_RAND
100
AcDbVertex
100
AcDb2dVertex
 10
333.664201
 20
517.1221169999999
 30
0.0
  0
VERTEX
  5
10AA
330
109D
100
AcDbEntity
  8
SCHRAFFUR_RAND
100
AcDbVertex
100
AcDb2dVertex
 10
334.116201
 20
516.8341169999999
 30
0.0
  0
VERTEX
  5
10AB
330
109D
100
AcDbEntity
  8
SCHRAFFUR_RAND
100
AcDbVertex
100
AcDb2dVertex
 10
335.001201
 20
516.429117
 30
0.0
  0
VERTEX
  5
10AC
330
109D
100
AcDbEntity
  8
SCHRAFFUR_RAND
100
AcDbVertex
100
AcDb2dVertex
 10
335.437201
 20
516.294117
 30
0.0
  0
VERTEX
  5
10AD
330
109D
100
AcDbEntity
  8
SCHRAFFUR_RAND
100
AcDbVertex
100
AcDb2dVertex
 10
336.852201
 20
516.1381169999999
 30
0.0
  0
VERTEX
  5
10AE
330
109D
100
AcDbEntity
  8
SCHRAFFUR_RAND
100
AcDbVertex
100
AcDb2dVertex
 10
337.977201
 20
516.2251169999999
 30
0.0
  0
VERTEX
  5
10AF
330
109D
100
AcDbEntity
  8
SCHRAFFUR_RAND
100
AcDbVertex
100
AcDb2dVertex
 10
339.395201
 20
516.7291169999999
 30
0.0
  0
VERTEX
  5
10B0
330
109D
100
AcDbEntity
  8
SCHRAFFUR_RAND
100
AcDbVertex
100
AcDb2dVertex
 10
340.625201
 20
517.598117
 30
0.0
  0
VERTEX
  5
10B1
330
109D
100
AcDbEntity
  8
SCHRAFFUR_RAND
100
AcDbVertex
100
AcDb2dVertex
 10
341.576201
 20
518.765117
 30
0.0
  0
VERTEX
  5
10B2
330
109D
100
AcDbEntity
  8
SCHRAFFUR_RAND
100
AcDbVertex
100
AcDb2dVertex
 10
342.175201
 20
520.1471169999999
 30
0.0
  0
VERTEX
  5
10B3
330
109D
100
AcDbEntity
  8
SCHRAFFUR_RAND
100
AcDbVertex
100
AcDb2dVertex
 10
342.352201
 20
521.638117
 30
0.0
  0
VERTEX
  5
10B4
330
109D
100
AcDbEntity
  8
SCHRAFFUR_RAND
100
AcDbVertex
100
AcDb2dVertex
 10
342.3292009999999
 20
522.1381169999999
 30
0.0
  0
VERTEX
  5
10B5
330
109D
100
AcDbEntity
  8
SCHRAFFUR_RAND
100
AcDbVertex
100
AcDb2dVertex
 10
342.175201
 20
523.1291169999999
 30
0.0
  0
VERTEX
  5
10B6
330
109D
100
AcDbEntity
  8
SCHRAFFUR_RAND
100
AcDbVertex
100
AcDb2dVertex
 10
341.576201
 20
524.510117
 30
0.0
  0
VERTEX
  5
10B7
330
109D
100
AcDbEntity
  8
SCHRAFFUR_RAND
100
AcDbVertex
100
AcDb2dVertex
 10
340.625201
 20
525.678117
 30
0.0
  0
VERTEX
  5
10B8
330
109D
100
AcDbEntity
  8
SCHRAFFUR_RAND
100
AcDbVertex
100
AcDb2dVertex
 10
339.395201
 20
526.546117
 30
0.0
  0
VERTEX
  5
10B9
330
109D
100
AcDbEntity
  8
SCHRAFFUR_RAND
100
AcDbVertex
100
AcDb2dVertex
 10
337.977201
 20
527.050117
 30
0.0
  0
VERTEX
  5
10BA
330
109D
100
AcDbEntity
  8
SCHRAFFUR_RAND
100
AcDbVertex
100
AcDb2dVertex
 10
336.475201
 20
527.1531169999999
 30
0.0
  0
VERTEX
  5
10BB
330
109D
100
AcDbEntity
  8
SCHRAFFUR_RAND
100
AcDbVertex
100
AcDb2dVertex
 10
335.871201
 20
527.050117
 30
0.0
  0
VERTEX
  5
10BC
330
109D
100
AcDbEntity
  8
SCHRAFFUR_RAND
100
AcDbVertex
100
AcDb2dVertex
 10
335.001201
 20
526.847117
 30
0.0
  0
VERTEX
  5
10BD
330
109D
100
AcDbEntity
  8
SCHRAFFUR_RAND
100
AcDbVertex
100
AcDb2dVertex
 10
333.897201
 20
526.276117
 30
0.0
  0
SEQEND
  5
10BE
330
109D
100
AcDbEntity
  8
SCHRAFFUR_RAND
  0
INSERT
  5
10C4
330
1638
100
AcDbEntity
  8
8
100
AcDbBlockReference
  2
*X0
 10
186.301201
 20
-134.861883
 30
0.0
1001
ACAD
1000
HATCH
1002
{
1070
    19
1000
ANSI31,_I
1040
3.174999999999999
1040
2.355999999999999
1002
}
  0
POLYLINE
  5
10C5
330
1638
100
AcDbEntity
  8
SCHRAFFUR_RAND
100
AcDb2dPolyline
 66
     1
 10
0.0
 20
0.0
 30
0.0
 70
     1
  0
VERTEX
  5
10C6
330
10C5
100
AcDbEntity
  8
SCHRAFFUR_RAND
100
AcDbVertex
100
AcDb2dVertex
 10
333.897201
 20
526.276117
 30
0.0
  0
VERTEX
  5
10C7
330
10C5
100
AcDbEntity
  8
SCHRAFFUR_RAND
100
AcDbVertex
100
AcDb2dVertex
 10
333.664201
 20
526.154117
 30
0.0
  0
VERTEX
  5
10C8
330
10C5
100
AcDbEntity
  8
SCHRAFFUR_RAND
100
AcDbVertex
100
AcDb2dVertex
 10
332.564201
 20
525.126117
 30
0.0
  0
VERTEX
  5
10C9
330
10C5
100
AcDbEntity
  8
SCHRAFFUR_RAND
100
AcDbVertex
100
AcDb2dVertex
 10
331.7812009999999
 20
523.8401169999999
 30
0.0
  0
VERTEX
  5
10CA
330
10C5
100
AcDbEntity
  8
SCHRAFFUR_RAND
100
AcDbVertex
100
AcDb2dVertex
 10
331.375201
 20
522.390117
 30
0.0
  0
VERTEX
  5
10CB
330
10C5
100
AcDbEntity
  8
SCHRAFFUR_RAND
100
AcDbVertex
100
AcDb2dVertex
 10
331.3532009999999
 20
521.5421169999999
 30
0.0
  0
VERTEX
  5
10CC
330
10C5
100
AcDbEntity
  8
SCHRAFFUR_RAND
100
AcDbVertex
100
AcDb2dVertex
 10
331.533201
 20
520.1291169999999
 30
0.0
  0
VERTEX
  5
10CD
330
10C5
100
AcDbEntity
  8
SCHRAFFUR_RAND
100
AcDbVertex
100
AcDb2dVertex
 10
331.7812009999999
 20
519.435117
 30
0.0
  0
VERTEX
  5
10CE
330
10C5
100
AcDbEntity
  8
SCHRAFFUR_RAND
100
AcDbVertex
100
AcDb2dVertex
 10
332.097201
 20
518.818117
 30
0.0
  0
VERTEX
  5
10CF
330
10C5
100
AcDbEntity
  8
SCHRAFFUR_RAND
100
AcDbVertex
100
AcDb2dVertex
 10
332.564201
 20
518.149117
 30
0.0
  0
VERTEX
  5
10D0
330
10C5
100
AcDbEntity
  8
SCHRAFFUR_RAND
100
AcDbVertex
100
AcDb2dVertex
 10
332.977201
 20
517.6951169999999
 30
0.0
  0
VERTEX
  5
10D1
330
10C5
100
AcDbEntity
  8
SCHRAFFUR_RAND
100
AcDbVertex
100
AcDb2dVertex
 10
333.664201
 20
517.1221169999999
 30
0.0
  0
VERTEX
  5
10D2
330
10C5
100
AcDbEntity
  8
SCHRAFFUR_RAND
100
AcDbVertex
100
AcDb2dVertex
 10
334.116201
 20
516.8341169999999
 30
0.0
  0
VERTEX
  5
10D3
330
10C5
100
AcDbEntity
  8
SCHRAFFUR_RAND
100
AcDbVertex
100
AcDb2dVertex
 10
335.001201
 20
516.429117
 30
0.0
  0
VERTEX
  5
10D4
330
10C5
100
AcDbEntity
  8
SCHRAFFUR_RAND
100
AcDbVertex
100
AcDb2dVertex
 10
335.437201
 20
516.294117
 30
0.0
  0
VERTEX
  5
10D5
330
10C5
100
AcDbEntity
  8
SCHRAFFUR_RAND
100
AcDbVertex
100
AcDb2dVertex
 10
336.852201
 20
516.1381169999999
 30
0.0
  0
VERTEX
  5
10D6
330
10C5
100
AcDbEntity
  8
SCHRAFFUR_RAND
100
AcDbVertex
100
AcDb2dVertex
 10
337.977201
 20
516.2251169999999
 30
0.0
  0
VERTEX
  5
10D7
330
10C5
100
AcDbEntity
  8
SCHRAFFUR_RAND
100
AcDbVertex
100
AcDb2dVertex
 10
339.395201
 20
516.7291169999999
 30
0.0
  0
VERTEX
  5
10D8
330
10C5
100
AcDbEntity
  8
SCHRAFFUR_RAND
100
AcDbVertex
100
AcDb2dVertex
 10
340.625201
 20
517.598117
 30
0.0
  0
VERTEX
  5
10D9
330
10C5
100
AcDbEntity
  8
SCHRAFFUR_RAND
100
AcDbVertex
100
AcDb2dVertex
 10
341.576201
 20
518.765117
 30
0.0
  0
VERTEX
  5
10DA
330
10C5
100
AcDbEntity
  8
SCHRAFFUR_RAND
100
AcDbVertex
100
AcDb2dVertex
 10
342.175201
 20
520.1471169999999
 30
0.0
  0
VERTEX
  5
10DB
330
10C5
100
AcDbEntity
  8
SCHRAFFUR_RAND
100
AcDbVertex
100
AcDb2dVertex
 10
342.352201
 20
521.638117
 30
0.0
  0
VERTEX
  5
10DC
330
10C5
100
AcDbEntity
  8
SCHRAFFUR_RAND
100
AcDbVertex
100
AcDb2dVertex
 10
342.3292009999999
 20
522.1381169999999
 30
0.0
  0
VERTEX
  5
10DD
330
10C5
100
AcDbEntity
  8
SCHRAFFUR_RAND
100
AcDbVertex
100
AcDb2dVertex
 10
342.175201
 20
523.1291169999999
 30
0.0
  0
VERTEX
  5
10DE
330
10C5
100
AcDbEntity
  8
SCHRAFFUR_RAND
100
AcDbVertex
100
AcDb2dVertex
 10
341.576201
 20
524.510117
 30
0.0
  0
VERTEX
  5
10DF
330
10C5
100
AcDbEntity
  8
SCHRAFFUR_RAND
100
AcDbVertex
100
AcDb2dVertex
 10
340.625201
 20
525.678117
 30
0.0
  0
VERTEX
  5
10E0
330
10C5
100
AcDbEntity
  8
SCHRAFFUR_RAND
100
AcDbVertex
100
AcDb2dVertex
 10
339.395201
 20
526.546117
 30
0.0
  0
VERTEX
  5
10E1
330
10C5
100
AcDbEntity
  8
SCHRAFFUR_RAND
100
AcDbVertex
100
AcDb2dVertex
 10
337.977201
 20
527.050117
 30
0.0
  0
VERTEX
  5
10E2
330
10C5
100
AcDbEntity
  8
SCHRAFFUR_RAND
100
AcDbVertex
100
AcDb2dVertex
 10
336.475201
 20
527.1531169999999
 30
0.0
  0
VERTEX
  5
10E3
330
10C5
100
AcDbEntity
  8
SCHRAFFUR_RAND
100
AcDbVertex
100
AcDb2dVertex
 10
335.871201
 20
527.050117
 30
0.0
  0
VERTEX
  5
10E4
330
10C5
100
AcDbEntity
  8
SCHRAFFUR_RAND
100
AcDbVertex
100
AcDb2dVertex
 10
335.001201
 20
526.847117
 30
0.0
  0
VERTEX
  5
10E5
330
10C5
100
AcDbEntity
  8
SCHRAFFUR_RAND
100
AcDbVertex
100
AcDb2dVertex
 10
333.897201
 20
526.276117
 30
0.0
  0
SEQEND
  5
10E6
330
10C5
100
AcDbEntity
  8
SCHRAFFUR_RAND
  0
INSERT
  5
10EC
330
1638
100
AcDbEntity
  8
8
100
AcDbBlockReference
  2
*X1
 10
186.301201
 20
-134.861883
 30
0.0
1001
ACAD
1000
HATCH
1002
{
1070
    19
1000
ANSI31,_I
1040
3.174999999999999
1040
0.7850000000000001
1002
}
  0
POLYLINE
  5
10ED
330
1638
100
AcDbEntity
  8
SCHRAFFUR_RAND
100
AcDb2dPolyline
 66
     1
 10
0.0
 20
0.0
 30
0.0
 70
     1
  0
VERTEX
  5
10EE
330
10ED
100
AcDbEntity
  8
SCHRAFFUR_RAND
100
AcDbVertex
100
AcDb2dVertex
 10
500.418201
 20
527.050117
 30
0.0
  0
VERTEX
  5
10EF
330
10ED
100
AcDbEntity
  8
SCHRAFFUR_RAND
100
AcDbVertex
100
AcDb2dVertex
 10
499.4362009999999
 20
527.156117
 30
0.0
  0
VERTEX
  5
10F0
330
10ED
100
AcDbEntity
  8
SCHRAFFUR_RAND
100
AcDbVertex
100
AcDb2dVertex
 10
498.208201
 20
527.0181169999999
 30
0.0
  0
VERTEX
  5
10F1
330
10ED
100
AcDbEntity
  8
SCHRAFFUR_RAND
100
AcDbVertex
100
AcDb2dVertex
 10
497.042201
 20
526.6101169999999
 30
0.0
  0
VERTEX
  5
10F2
330
10ED
100
AcDbEntity
  8
SCHRAFFUR_RAND
100
AcDbVertex
100
AcDb2dVertex
 10
495.9962009999999
 20
525.952117
 30
0.0
  0
VERTEX
  5
10F3
330
10ED
100
AcDbEntity
  8
SCHRAFFUR_RAND
100
AcDbVertex
100
AcDb2dVertex
 10
495.1222009999999
 20
525.079117
 30
0.0
  0
VERTEX
  5
10F4
330
10ED
100
AcDbEntity
  8
SCHRAFFUR_RAND
100
AcDbVertex
100
AcDb2dVertex
 10
494.4642009999999
 20
524.0321169999999
 30
0.0
  0
VERTEX
  5
10F5
330
10ED
100
AcDbEntity
  8
SCHRAFFUR_RAND
100
AcDbVertex
100
AcDb2dVertex
 10
494.0562009999999
 20
522.866117
 30
0.0
  0
VERTEX
  5
10F6
330
10ED
100
AcDbEntity
  8
SCHRAFFUR_RAND
100
AcDbVertex
100
AcDb2dVertex
 10
493.917201
 20
521.638117
 30
0.0
  0
VERTEX
  5
10F7
330
10ED
100
AcDbEntity
  8
SCHRAFFUR_RAND
100
AcDbVertex
100
AcDb2dVertex
 10
494.0562009999999
 20
520.410117
 30
0.0
  0
VERTEX
  5
10F8
330
10ED
100
AcDbEntity
  8
SCHRAFFUR_RAND
100
AcDbVertex
100
AcDb2dVertex
 10
494.4642009999999
 20
519.2431169999999
 30
0.0
  0
VERTEX
  5
10F9
330
10ED
100
AcDbEntity
  8
SCHRAFFUR_RAND
100
AcDbVertex
100
AcDb2dVertex
 10
495.1222009999999
 20
518.197117
 30
0.0
  0
VERTEX
  5
10FA
330
10ED
100
AcDbEntity
  8
SCHRAFFUR_RAND
100
AcDbVertex
100
AcDb2dVertex
 10
495.9962009999999
 20
517.323117
 30
0.0
  0
VERTEX
  5
10FB
330
10ED
100
AcDbEntity
  8
SCHRAFFUR_RAND
100
AcDbVertex
100
AcDb2dVertex
 10
497.042201
 20
516.666117
 30
0.0
  0
VERTEX
  5
10FC
330
10ED
100
AcDbEntity
  8
SCHRAFFUR_RAND
100
AcDbVertex
100
AcDb2dVertex
 10
498.208201
 20
516.2571169999999
 30
0.0
  0
VERTEX
  5
10FD
330
10ED
100
AcDbEntity
  8
SCHRAFFUR_RAND
100
AcDbVertex
100
AcDb2dVertex
 10
499.4362009999999
 20
516.1381169999999
 30
0.0
  0
VERTEX
  5
10FE
330
10ED
100
AcDbEntity
  8
SCHRAFFUR_RAND
100
AcDbVertex
100
AcDb2dVertex
 10
500.5012009999999
 20
516.223117
 30
0.0
  0
VERTEX
  5
10FF
330
10ED
100
AcDbEntity
  8
SCHRAFFUR_RAND
100
AcDbVertex
100
AcDb2dVertex
 10
500.664201
 20
516.2571169999999
 30
0.0
  0
VERTEX
  5
1100
330
10ED
100
AcDbEntity
  8
SCHRAFFUR_RAND
100
AcDbVertex
100
AcDb2dVertex
 10
501.5262009999999
 20
516.530117
 30
0.0
  0
VERTEX
  5
1101
330
10ED
100
AcDbEntity
  8
SCHRAFFUR_RAND
100
AcDbVertex
100
AcDb2dVertex
 10
501.8312009999999
 20
516.666117
 30
0.0
  0
VERTEX
  5
1102
330
10ED
100
AcDbEntity
  8
SCHRAFFUR_RAND
100
AcDbVertex
100
AcDb2dVertex
 10
502.4722009999999
 20
517.029117
 30
0.0
  0
VERTEX
  5
1103
330
10ED
100
AcDbEntity
  8
SCHRAFFUR_RAND
100
AcDbVertex
100
AcDb2dVertex
 10
502.8772009999999
 20
517.323117
 30
0.0
  0
VERTEX
  5
1104
330
10ED
100
AcDbEntity
  8
SCHRAFFUR_RAND
100
AcDbVertex
100
AcDb2dVertex
 10
503.3052009999999
 20
517.7011169999999
 30
0.0
  0
VERTEX
  5
1105
330
10ED
100
AcDbEntity
  8
SCHRAFFUR_RAND
100
AcDbVertex
100
AcDb2dVertex
 10
503.7512009999999
 20
518.197117
 30
0.0
  0
VERTEX
  5
1106
330
10ED
100
AcDbEntity
  8
SCHRAFFUR_RAND
100
AcDbVertex
100
AcDb2dVertex
 10
503.991201
 20
518.522117
 30
0.0
  0
VERTEX
  5
1107
330
10ED
100
AcDbEntity
  8
SCHRAFFUR_RAND
100
AcDbVertex
100
AcDb2dVertex
 10
504.4082009999999
 20
519.2431169999999
 30
0.0
  0
VERTEX
  5
1108
330
10ED
100
AcDbEntity
  8
SCHRAFFUR_RAND
100
AcDbVertex
100
AcDb2dVertex
 10
504.5072009999999
 20
519.4591169999999
 30
0.0
  0
VERTEX
  5
1109
330
10ED
100
AcDbEntity
  8
SCHRAFFUR_RAND
100
AcDbVertex
100
AcDb2dVertex
 10
504.8162009999999
 20
520.410117
 30
0.0
  0
VERTEX
  5
110A
330
10ED
100
AcDbEntity
  8
SCHRAFFUR_RAND
100
AcDbVertex
100
AcDb2dVertex
 10
504.8322009999999
 20
520.479117
 30
0.0
  0
VERTEX
  5
110B
330
10ED
100
AcDbEntity
  8
SCHRAFFUR_RAND
100
AcDbVertex
100
AcDb2dVertex
 10
504.9352009999999
 20
521.5421169999999
 30
0.0
  0
VERTEX
  5
110C
330
10ED
100
AcDbEntity
  8
SCHRAFFUR_RAND
100
AcDbVertex
100
AcDb2dVertex
 10
504.936201
 20
521.638117
 30
0.0
  0
VERTEX
  5
110D
330
10ED
100
AcDbEntity
  8
SCHRAFFUR_RAND
100
AcDbVertex
100
AcDb2dVertex
 10
504.8162009999999
 20
522.866117
 30
0.0
  0
VERTEX
  5
110E
330
10ED
100
AcDbEntity
  8
SCHRAFFUR_RAND
100
AcDbVertex
100
AcDb2dVertex
 10
504.4092009999999
 20
524.0321169999999
 30
0.0
  0
VERTEX
  5
110F
330
10ED
100
AcDbEntity
  8
SCHRAFFUR_RAND
100
AcDbVertex
100
AcDb2dVertex
 10
503.7512009999999
 20
525.079117
 30
0.0
  0
VERTEX
  5
1110
330
10ED
100
AcDbEntity
  8
SCHRAFFUR_RAND
100
AcDbVertex
100
AcDb2dVertex
 10
502.8772009999999
 20
525.952117
 30
0.0
  0
VERTEX
  5
1111
330
10ED
100
AcDbEntity
  8
SCHRAFFUR_RAND
100
AcDbVertex
100
AcDb2dVertex
 10
501.8312009999999
 20
526.6101169999999
 30
0.0
  0
VERTEX
  5
1112
330
10ED
100
AcDbEntity
  8
SCHRAFFUR_RAND
100
AcDbVertex
100
AcDb2dVertex
 10
500.664201
 20
527.0181169999999
 30
0.0
  0
VERTEX
  5
1113
330
10ED
100
AcDbEntity
  8
SCHRAFFUR_RAND
100
AcDbVertex
100
AcDb2dVertex
 10
500.418201
 20
527.050117
 30
0.0
  0
SEQEND
  5
1114
330
10ED
100
AcDbEntity
  8
SCHRAFFUR_RAND
  0
INSERT
  5
111D
330
1638
100
AcDbEntity
  8
8
100
AcDbBlockReference
  2
*X2
 10
186.301201
 20
-134.861883
 30
0.0
1001
ACAD
1000
HATCH
1002
{
1070
    19
1000
ANSI37,_I
1040
3.174999999999999
1040
5.497999999999999
1002
}
  0
POLYLINE
  5
111E
330
1638
100
AcDbEntity
  8
SCHRAFFUR_RAND
100
AcDb2dPolyline
 66
     1
 10
0.0
 20
0.0
 30
0.0
 70
     1
  0
VERTEX
  5
111F
330
111E
100
AcDbEntity
  8
SCHRAFFUR_RAND
100
AcDbVertex
100
AcDb2dVertex
 10
327.644201
 20
562.1381169999999
 30
0.0
  0
VERTEX
  5
1120
330
111E
100
AcDbEntity
  8
SCHRAFFUR_RAND
100
AcDbVertex
100
AcDb2dVertex
 10
319.644201
 20
562.1381169999999
 30
0.0
  0
VERTEX
  5
1121
330
111E
100
AcDbEntity
  8
SCHRAFFUR_RAND
100
AcDbVertex
100
AcDb2dVertex
 10
317.551201
 20
522.1921169999999
 30
0.0
  0
VERTEX
  5
1122
330
111E
100
AcDbEntity
  8
SCHRAFFUR_RAND
100
AcDbVertex
100
AcDb2dVertex
 10
310.421201
 20
522.1921169999999
 30
0.0
  0
VERTEX
  5
1123
330
111E
100
AcDbEntity
  8
SCHRAFFUR_RAND
100
AcDbVertex
100
AcDb2dVertex
 10
308.171201
 20
512.1381169999999
 30
0.0
  0
VERTEX
  5
1124
330
111E
100
AcDbEntity
  8
SCHRAFFUR_RAND
100
AcDbVertex
100
AcDb2dVertex
 10
323.327201
 20
512.1381169999999
 30
0.0
  0
VERTEX
  5
1125
330
111E
100
AcDbEntity
  8
SCHRAFFUR_RAND
100
AcDbVertex
100
AcDb2dVertex
 10
327.0842009999999
 20
511.5551169999999
 30
0.0
  0
VERTEX
  5
1126
330
111E
100
AcDbEntity
  8
SCHRAFFUR_RAND
100
AcDbVertex
100
AcDb2dVertex
 10
330.306201
 20
509.492117
 30
0.0
  0
VERTEX
  5
1127
330
111E
100
AcDbEntity
  8
SCHRAFFUR_RAND
100
AcDbVertex
100
AcDb2dVertex
 10
332.534201
 20
506.3831169999999
 30
0.0
  0
VERTEX
  5
1128
330
111E
100
AcDbEntity
  8
SCHRAFFUR_RAND
100
AcDbVertex
100
AcDb2dVertex
 10
333.313201
 20
502.6611169999999
 30
0.0
  0
VERTEX
  5
1129
330
111E
100
AcDbEntity
  8
SCHRAFFUR_RAND
100
AcDbVertex
100
AcDb2dVertex
 10
334.367201
 20
482.5601169999999
 30
0.0
  0
VERTEX
  5
112A
330
111E
100
AcDbEntity
  8
SCHRAFFUR_RAND
100
AcDbVertex
100
AcDb2dVertex
 10
334.953201
 20
479.285117
 30
0.0
  0
VERTEX
  5
112B
330
111E
100
AcDbEntity
  8
SCHRAFFUR_RAND
100
AcDbVertex
100
AcDb2dVertex
 10
336.701201
 20
476.432117
 30
0.0
  0
VERTEX
  5
112C
330
111E
100
AcDbEntity
  8
SCHRAFFUR_RAND
100
AcDbVertex
100
AcDb2dVertex
 10
339.3532009999999
 20
474.4231169999999
 30
0.0
  0
VERTEX
  5
112D
330
111E
100
AcDbEntity
  8
SCHRAFFUR_RAND
100
AcDbVertex
100
AcDb2dVertex
 10
347.6442009999999
 20
469.636117
 30
0.0
  0
VERTEX
  5
112E
330
111E
100
AcDbEntity
  8
SCHRAFFUR_RAND
100
AcDbVertex
100
AcDb2dVertex
 10
349.347201
 20
468.386117
 30
0.0
  0
VERTEX
  5
112F
330
111E
100
AcDbEntity
  8
SCHRAFFUR_RAND
100
AcDbVertex
100
AcDb2dVertex
 10
350.412201
 20
466.5391169999999
 30
0.0
  0
VERTEX
  5
1130
330
111E
100
AcDbEntity
  8
SCHRAFFUR_RAND
100
AcDbVertex
100
AcDb2dVertex
 10
350.644201
 20
464.480117
 30
0.0
  0
VERTEX
  5
1131
330
111E
100
AcDbEntity
  8
SCHRAFFUR_RAND
100
AcDbVertex
100
AcDb2dVertex
 10
350.644201
 20
448.4801169999999
 30
0.0
  0
VERTEX
  5
1132
330
111E
100
AcDbEntity
  8
SCHRAFFUR_RAND
100
AcDbVertex
100
AcDb2dVertex
 10
350.644201
 20
437.1381169999999
 30
0.0
  0
VERTEX
  5
1133
330
111E
100
AcDbEntity
  8
SCHRAFFUR_RAND
100
AcDbVertex
100
AcDb2dVertex
 10
350.644201
 20
425.841117
 30
0.0
  0
VERTEX
  5
1134
330
111E
100
AcDbEntity
  8
SCHRAFFUR_RAND
100
AcDbVertex
100
AcDb2dVertex
 10
350.644201
 20
404.0121169999999
 30
0.0
  0
VERTEX
  5
1135
330
111E
100
AcDbEntity
  8
SCHRAFFUR_RAND
100
AcDbVertex
100
AcDb2dVertex
 10
350.644201
 20
387.138117
 30
0.0
  0
VERTEX
  5
1136
330
111E
100
AcDbEntity
  8
SCHRAFFUR_RAND
100
AcDbVertex
100
AcDb2dVertex
 10
358.324201
 20
387.138117
 30
0.0
  0
VERTEX
  5
1137
330
111E
100
AcDbEntity
  8
SCHRAFFUR_RAND
100
AcDbVertex
100
AcDb2dVertex
 10
358.324201
 20
407.1381169999999
 30
0.0
  0
VERTEX
  5
1138
330
111E
100
AcDbEntity
  8
SCHRAFFUR_RAND
100
AcDbVertex
100
AcDb2dVertex
 10
357.644201
 20
412.1381169999999
 30
0.0
  0
VERTEX
  5
1139
330
111E
100
AcDbEntity
  8
SCHRAFFUR_RAND
100
AcDbVertex
100
AcDb2dVertex
 10
357.644201
 20
465.017117
 30
0.0
  0
VERTEX
  5
113A
330
111E
100
AcDbEntity
  8
SCHRAFFUR_RAND
100
AcDbVertex
100
AcDb2dVertex
 10
357.171201
 20
468.4851169999999
 30
0.0
  0
VERTEX
  5
113B
330
111E
100
AcDbEntity
  8
SCHRAFFUR_RAND
100
AcDbVertex
100
AcDb2dVertex
 10
355.411201
 20
471.534117
 30
0.0
  0
VERTEX
  5
113C
330
111E
100
AcDbEntity
  8
SCHRAFFUR_RAND
100
AcDbVertex
100
AcDb2dVertex
 10
352.644201
 20
473.6771169999999
 30
0.0
  0
VERTEX
  5
113D
330
111E
100
AcDbEntity
  8
SCHRAFFUR_RAND
100
AcDbVertex
100
AcDb2dVertex
 10
345.251201
 20
477.946117
 30
0.0
  0
VERTEX
  5
113E
330
111E
100
AcDbEntity
  8
SCHRAFFUR_RAND
100
AcDbVertex
100
AcDb2dVertex
 10
343.805201
 20
479.380117
 30
0.0
  0
VERTEX
  5
113F
330
111E
100
AcDbEntity
  8
SCHRAFFUR_RAND
100
AcDbVertex
100
AcDb2dVertex
 10
343.252201
 20
481.340117
 30
0.0
  0
VERTEX
  5
1140
330
111E
100
AcDbEntity
  8
SCHRAFFUR_RAND
100
AcDbVertex
100
AcDb2dVertex
 10
342.644201
 20
516.1381169999999
 30
0.0
  0
VERTEX
  5
1141
330
111E
100
AcDbEntity
  8
SCHRAFFUR_RAND
100
AcDbVertex
100
AcDb2dVertex
 10
336.852201
 20
516.1381169999999
 30
0.0
  0
VERTEX
  5
1142
330
111E
100
AcDbEntity
  8
SCHRAFFUR_RAND
100
AcDbVertex
100
AcDb2dVertex
 10
336.049201
 20
516.0571169999999
 30
0.0
  0
VERTEX
  5
1143
330
111E
100
AcDbEntity
  8
SCHRAFFUR_RAND
100
AcDbVertex
100
AcDb2dVertex
 10
334.061201
 20
516.7381169999999
 30
0.0
  0
VERTEX
  5
1144
330
111E
100
AcDbEntity
  8
SCHRAFFUR_RAND
100
AcDbVertex
100
AcDb2dVertex
 10
333.159201
 20
517.377117
 30
0.0
  0
VERTEX
  5
1145
330
111E
100
AcDbEntity
  8
SCHRAFFUR_RAND
100
AcDbVertex
100
AcDb2dVertex
 10
332.002201
 20
518.7621169999999
 30
0.0
  0
VERTEX
  5
1146
330
111E
100
AcDbEntity
  8
SCHRAFFUR_RAND
100
AcDbVertex
100
AcDb2dVertex
 10
331.4422009999999
 20
520.049117
 30
0.0
  0
VERTEX
  5
1147
330
111E
100
AcDbEntity
  8
SCHRAFFUR_RAND
100
AcDbVertex
100
AcDb2dVertex
 10
331.3532009999999
 20
521.5421169999999
 30
0.0
  0
VERTEX
  5
1148
330
111E
100
AcDbEntity
  8
SCHRAFFUR_RAND
100
AcDbVertex
100
AcDb2dVertex
 10
331.4422009999999
 20
523.226117
 30
0.0
  0
VERTEX
  5
1149
330
111E
100
AcDbEntity
  8
SCHRAFFUR_RAND
100
AcDbVertex
100
AcDb2dVertex
 10
330.795201
 20
553.4801169999999
 30
0.0
  0
VERTEX
  5
114A
330
111E
100
AcDbEntity
  8
SCHRAFFUR_RAND
100
AcDbVertex
100
AcDb2dVertex
 10
327.644201
 20
562.1381169999999
 30
0.0
  0
SEQEND
  5
114B
330
111E
100
AcDbEntity
  8
SCHRAFFUR_RAND
  0
POLYLINE
  5
12D3
330
1638
100
AcDbEntity
  8
SCHRAFFUR_RAND
100
AcDb2dPolyline
 66
     1
 10
0.0
 20
0.0
 30
0.0
 70
     1
  0
VERTEX
  5
12D4
330
12D3
100
AcDbEntity
  8
SCHRAFFUR_RAND
100
AcDbVertex
100
AcDb2dVertex
 10
485.6442009999999
 20
464.480117
 30
0.0
  0
VERTEX
  5
12D5
330
12D3
100
AcDbEntity
  8
SCHRAFFUR_RAND
100
AcDbVertex
100
AcDb2dVertex
 10
485.8762009999999
 20
466.5391169999999
 30
0.0
  0
VERTEX
  5
12D6
330
12D3
100
AcDbEntity
  8
SCHRAFFUR_RAND
100
AcDbVertex
100
AcDb2dVertex
 10
486.942201
 20
468.386117
 30
0.0
  0
VERTEX
  5
12D7
330
12D3
100
AcDbEntity
  8
SCHRAFFUR_RAND
100
AcDbVertex
100
AcDb2dVertex
 10
488.6442009999999
 20
469.636117
 30
0.0
  0
VERTEX
  5
12D8
330
12D3
100
AcDbEntity
  8
SCHRAFFUR_RAND
100
AcDbVertex
100
AcDb2dVertex
 10
496.936201
 20
474.4231169999999
 30
0.0
  0
VERTEX
  5
12D9
330
12D3
100
AcDbEntity
  8
SCHRAFFUR_RAND
100
AcDbVertex
100
AcDb2dVertex
 10
499.587201
 20
476.432117
 30
0.0
  0
VERTEX
  5
12DA
330
12D3
100
AcDbEntity
  8
SCHRAFFUR_RAND
100
AcDbVertex
100
AcDb2dVertex
 10
501.3362009999999
 20
479.285117
 30
0.0
  0
VERTEX
  5
12DB
330
12D3
100
AcDbEntity
  8
SCHRAFFUR_RAND
100
AcDbVertex
100
AcDb2dVertex
 10
501.922201
 20
482.5601169999999
 30
0.0
  0
VERTEX
  5
12DC
330
12D3
100
AcDbEntity
  8
SCHRAFFUR_RAND
100
AcDbVertex
100
AcDb2dVertex
 10
502.975201
 20
502.6611169999999
 30
0.0
  0
VERTEX
  5
12DD
330
12D3
100
AcDbEntity
  8
SCHRAFFUR_RAND
100
AcDbVertex
100
AcDb2dVertex
 10
503.754201
 20
506.3831169999999
 30
0.0
  0
VERTEX
  5
12DE
330
12D3
100
AcDbEntity
  8
SCHRAFFUR_RAND
100
AcDbVertex
100
AcDb2dVertex
 10
505.9822009999999
 20
509.492117
 30
0.0
  0
VERTEX
  5
12DF
330
12D3
100
AcDbEntity
  8
SCHRAFFUR_RAND
100
AcDbVertex
100
AcDb2dVertex
 10
509.2042009999999
 20
511.5551169999999
 30
0.0
  0
VERTEX
  5
12E0
330
12D3
100
AcDbEntity
  8
SCHRAFFUR_RAND
100
AcDbVertex
100
AcDb2dVertex
 10
512.9622009999999
 20
512.1381169999999
 30
0.0
  0
VERTEX
  5
12E1
330
12D3
100
AcDbEntity
  8
SCHRAFFUR_RAND
100
AcDbVertex
100
AcDb2dVertex
 10
528.117201
 20
512.1381169999999
 30
0.0
  0
VERTEX
  5
12E2
330
12D3
100
AcDbEntity
  8
SCHRAFFUR_RAND
100
AcDbVertex
100
AcDb2dVertex
 10
525.867201
 20
522.1921169999999
 30
0.0
  0
VERTEX
  5
12E3
330
12D3
100
AcDbEntity
  8
SCHRAFFUR_RAND
100
AcDbVertex
100
AcDb2dVertex
 10
518.737201
 20
522.1921169999999
 30
0.0
  0
VERTEX
  5
12E4
330
12D3
100
AcDbEntity
  8
SCHRAFFUR_RAND
100
AcDbVertex
100
AcDb2dVertex
 10
516.6442009999999
 20
562.1381169999999
 30
0.0
  0
VERTEX
  5
12E5
330
12D3
100
AcDbEntity
  8
SCHRAFFUR_RAND
100
AcDbVertex
100
AcDb2dVertex
 10
508.6442009999999
 20
562.1381169999999
 30
0.0
  0
VERTEX
  5
12E6
330
12D3
100
AcDbEntity
  8
SCHRAFFUR_RAND
100
AcDbVertex
100
AcDb2dVertex
 10
505.4932009999999
 20
553.4801169999999
 30
0.0
  0
VERTEX
  5
12E7
330
12D3
100
AcDbEntity
  8
SCHRAFFUR_RAND
100
AcDbVertex
100
AcDb2dVertex
 10
504.9352009999999
 20
521.5421169999999
 30
0.0
  0
VERTEX
  5
12E8
330
12D3
100
AcDbEntity
  8
SCHRAFFUR_RAND
100
AcDbVertex
100
AcDb2dVertex
 10
504.286201
 20
518.7621169999999
 30
0.0
  0
VERTEX
  5
12E9
330
12D3
100
AcDbEntity
  8
SCHRAFFUR_RAND
100
AcDbVertex
100
AcDb2dVertex
 10
502.227201
 20
516.7381169999999
 30
0.0
  0
VERTEX
  5
12EA
330
12D3
100
AcDbEntity
  8
SCHRAFFUR_RAND
100
AcDbVertex
100
AcDb2dVertex
 10
501.7792009999999
 20
516.5091169999999
 30
0.0
  0
VERTEX
  5
12EB
330
12D3
100
AcDbEntity
  8
SCHRAFFUR_RAND
100
AcDbVertex
100
AcDb2dVertex
 10
499.4362009999999
 20
516.1381169999999
 30
0.0
  0
VERTEX
  5
12EC
330
12D3
100
AcDbEntity
  8
SCHRAFFUR_RAND
100
AcDbVertex
100
AcDb2dVertex
 10
498.6342009999999
 20
516.0571169999999
 30
0.0
  0
VERTEX
  5
12ED
330
12D3
100
AcDbEntity
  8
SCHRAFFUR_RAND
100
AcDbVertex
100
AcDb2dVertex
 10
493.6442009999999
 20
516.1381169999999
 30
0.0
  0
VERTEX
  5
12EE
330
12D3
100
AcDbEntity
  8
SCHRAFFUR_RAND
100
AcDbVertex
100
AcDb2dVertex
 10
493.037201
 20
481.340117
 30
0.0
  0
VERTEX
  5
12EF
330
12D3
100
AcDbEntity
  8
SCHRAFFUR_RAND
100
AcDbVertex
100
AcDb2dVertex
 10
492.4842009999999
 20
479.380117
 30
0.0
  0
VERTEX
  5
12F0
330
12D3
100
AcDbEntity
  8
SCHRAFFUR_RAND
100
AcDbVertex
100
AcDb2dVertex
 10
491.0372009999999
 20
477.946117
 30
0.0
  0
VERTEX
  5
12F1
330
12D3
100
AcDbEntity
  8
SCHRAFFUR_RAND
100
AcDbVertex
100
AcDb2dVertex
 10
483.6442009999999
 20
473.6771169999999
 30
0.0
  0
VERTEX
  5
12F2
330
12D3
100
AcDbEntity
  8
SCHRAFFUR_RAND
100
AcDbVertex
100
AcDb2dVertex
 10
480.8772009999999
 20
471.534117
 30
0.0
  0
VERTEX
  5
12F3
330
12D3
100
AcDbEntity
  8
SCHRAFFUR_RAND
100
AcDbVertex
100
AcDb2dVertex
 10
479.1172009999999
 20
468.4851169999999
 30
0.0
  0
VERTEX
  5
12F4
330
12D3
100
AcDbEntity
  8
SCHRAFFUR_RAND
100
AcDbVertex
100
AcDb2dVertex
 10
478.644201
 20
465.017117
 30
0.0
  0
VERTEX
  5
12F5
330
12D3
100
AcDbEntity
  8
SCHRAFFUR_RAND
100
AcDbVertex
100
AcDb2dVertex
 10
478.644201
 20
412.1381169999999
 30
0.0
  0
VERTEX
  5
12F6
330
12D3
100
AcDbEntity
  8
SCHRAFFUR_RAND
100
AcDbVertex
100
AcDb2dVertex
 10
477.9642009999999
 20
407.1381169999999
 30
0.0
  0
VERTEX
  5
12F7
330
12D3
100
AcDbEntity
  8
SCHRAFFUR_RAND
100
AcDbVertex
100
AcDb2dVertex
 10
477.9642009999999
 20
387.138117
 30
0.0
  0
VERTEX
  5
12F8
330
12D3
100
AcDbEntity
  8
SCHRAFFUR_RAND
100
AcDbVertex
100
AcDb2dVertex
 10
485.6442009999999
 20
387.138117
 30
0.0
  0
VERTEX
  5
12F9
330
12D3
100
AcDbEntity
  8
SCHRAFFUR_RAND
100
AcDbVertex
100
AcDb2dVertex
 10
485.6442009999999
 20
404.0121169999999
 30
0.0
  0
VERTEX
  5
12FA
330
12D3
100
AcDbEntity
  8
SCHRAFFUR_RAND
100
AcDbVertex
100
AcDb2dVertex
 10
485.6442009999999
 20
425.841117
 30
0.0
  0
VERTEX
  5
12FB
330
12D3
100
AcDbEntity
  8
SCHRAFFUR_RAND
100
AcDbVertex
100
AcDb2dVertex
 10
485.6442009999999
 20
437.1381169999999
 30
0.0
  0
VERTEX
  5
12FC
330
12D3
100
AcDbEntity
  8
SCHRAFFUR_RAND
100
AcDbVertex
100
AcDb2dVertex
 10
485.6442009999999
 20
448.4801169999999
 30
0.0
  0
VERTEX
  5
12FD
330
12D3
100
AcDbEntity
  8
SCHRAFFUR_RAND
100
AcDbVertex
100
AcDb2dVertex
 10
485.6442009999999
 20
464.480117
 30
0.0
  0
SEQEND
  5
12FE
330
12D3
100
AcDbEntity
  8
SCHRAFFUR_RAND
  0
POLYLINE
  5
1486
330
1638
100
AcDbEntity
  8
SCHRAFFUR_RAND
100
AcDb2dPolyline
 66
     1
 10
0.0
 20
0.0
 30
0.0
 70
     1
  0
VERTEX
  5
1487
330
1486
100
AcDbEntity
  8
SCHRAFFUR_RAND
100
AcDbVertex
100
AcDb2dVertex
 10
537.117201
 20
512.1381169999999
 30
0.0
  0
VERTEX
  5
1488
330
1486
100
AcDbEntity
  8
SCHRAFFUR_RAND
100
AcDbVertex
100
AcDb2dVertex
 10
548.1442009999999
 20
512.1381169999999
 30
0.0
  0
VERTEX
  5
1489
330
1486
100
AcDbEntity
  8
SCHRAFFUR_RAND
100
AcDbVertex
100
AcDb2dVertex
 10
547.6202009999999
 20
522.1241169999999
 30
0.0
  0
VERTEX
  5
148A
330
1486
100
AcDbEntity
  8
SCHRAFFUR_RAND
100
AcDbVertex
100
AcDb2dVertex
 10
539.367201
 20
522.1921169999999
 30
0.0
  0
VERTEX
  5
148B
330
1486
100
AcDbEntity
  8
SCHRAFFUR_RAND
100
AcDbVertex
100
AcDb2dVertex
 10
537.117201
 20
512.1381169999999
 30
0.0
  0
SEQEND
  5
148C
330
1486
100
AcDbEntity
  8
SCHRAFFUR_RAND
  0
POLYLINE
  5
14A6
330
1638
100
AcDbEntity
  8
SCHRAFFUR_RAND
100
AcDb2dPolyline
 66
     1
 10
0.0
 20
0.0
 30
0.0
 70
     1
  0
VERTEX
  5
14A7
330
14A6
100
AcDbEntity
  8
SCHRAFFUR_RAND
100
AcDbVertex
100
AcDb2dVertex
 10
296.921201
 20
522.1921169999999
 30
0.0
  0
VERTEX
  5
14A8
330
14A6
100
AcDbEntity
  8
SCHRAFFUR_RAND
100
AcDbVertex
100
AcDb2dVertex
 10
288.667201
 20
522.1241169999999
 30
0.0
  0
VERTEX
  5
14A9
330
14A6
100
AcDbEntity
  8
SCHRAFFUR_RAND
100
AcDbVertex
100
AcDb2dVertex
 10
288.144201
 20
512.1381169999999
 30
0.0
  0
VERTEX
  5
14AA
330
14A6
100
AcDbEntity
  8
SCHRAFFUR_RAND
100
AcDbVertex
100
AcDb2dVertex
 10
299.171201
 20
512.1381169999999
 30
0.0
  0
VERTEX
  5
14AB
330
14A6
100
AcDbEntity
  8
SCHRAFFUR_RAND
100
AcDbVertex
100
AcDb2dVertex
 10
296.921201
 20
522.1921169999999
 30
0.0
  0
SEQEND
  5
14AC
330
14A6
100
AcDbEntity
  8
SCHRAFFUR_RAND
  0
POLYLINE
  5
14C6
330
1638
100
AcDbEntity
  8
SCHRAFFUR_RAND
100
AcDb2dPolyline
 66
     1
 10
0.0
 20
0.0
 30
0.0
 70
     1
  0
VERTEX
  5
14C7
330
14C6
100
AcDbEntity
  8
SCHRAFFUR_RAND
100
AcDbVertex
100
AcDb2dVertex
 10
504.143201
 20
562.1201169999999
 30
0.0
  0
VERTEX
  5
14C8
330
14C6
100
AcDbEntity
  8
SCHRAFFUR_RAND
100
AcDbVertex
100
AcDb2dVertex
 10
498.1442009999999
 20
562.1381169999999
 30
0.0
  0
VERTEX
  5
14C9
330
14C6
100
AcDbEntity
  8
SCHRAFFUR_RAND
100
AcDbVertex
100
AcDb2dVertex
 10
497.511201
 20
543.998117
 30
0.0
  0
VERTEX
  5
14CA
330
14C6
100
AcDbEntity
  8
SCHRAFFUR_RAND
100
AcDbVertex
100
AcDb2dVertex
 10
497.036201
 20
541.9931169999999
 30
0.0
  0
VERTEX
  5
14CB
330
14C6
100
AcDbEntity
  8
SCHRAFFUR_RAND
100
AcDbVertex
100
AcDb2dVertex
 10
495.5342009999999
 20
540.5421169999999
 30
0.0
  0
VERTEX
  5
14CC
330
14C6
100
AcDbEntity
  8
SCHRAFFUR_RAND
100
AcDbVertex
100
AcDb2dVertex
 10
493.513201
 20
540.1381169999999
 30
0.0
  0
VERTEX
  5
14CD
330
14C6
100
AcDbEntity
  8
SCHRAFFUR_RAND
100
AcDbVertex
100
AcDb2dVertex
 10
342.775201
 20
540.1381169999999
 30
0.0
  0
VERTEX
  5
14CE
330
14C6
100
AcDbEntity
  8
SCHRAFFUR_RAND
100
AcDbVertex
100
AcDb2dVertex
 10
340.755201
 20
540.5421169999999
 30
0.0
  0
VERTEX
  5
14CF
330
14C6
100
AcDbEntity
  8
SCHRAFFUR_RAND
100
AcDbVertex
100
AcDb2dVertex
 10
339.2522009999999
 20
541.9931169999999
 30
0.0
  0
VERTEX
  5
14D0
330
14C6
100
AcDbEntity
  8
SCHRAFFUR_RAND
100
AcDbVertex
100
AcDb2dVertex
 10
338.778201
 20
543.998117
 30
0.0
  0
VERTEX
  5
14D1
330
14C6
100
AcDbEntity
  8
SCHRAFFUR_RAND
100
AcDbVertex
100
AcDb2dVertex
 10
338.144201
 20
562.1381169999999
 30
0.0
  0
VERTEX
  5
14D2
330
14C6
100
AcDbEntity
  8
SCHRAFFUR_RAND
100
AcDbVertex
100
AcDb2dVertex
 10
332.145201
 20
562.1201169999999
 30
0.0
  0
VERTEX
  5
14D3
330
14C6
100
AcDbEntity
  8
SCHRAFFUR_RAND
100
AcDbVertex
100
AcDb2dVertex
 10
332.319201
 20
557.1381169999999
 30
0.0
  0
VERTEX
  5
14D4
330
14C6
100
AcDbEntity
  8
SCHRAFFUR_RAND
100
AcDbVertex
100
AcDb2dVertex
 10
333.275201
 20
557.1381169999999
 30
0.0
  0
VERTEX
  5
14D5
330
14C6
100
AcDbEntity
  8
SCHRAFFUR_RAND
100
AcDbVertex
100
AcDb2dVertex
 10
334.386201
 20
556.6891169999999
 30
0.0
  0
VERTEX
  5
14D6
330
14C6
100
AcDbEntity
  8
SCHRAFFUR_RAND
100
AcDbVertex
100
AcDb2dVertex
 10
334.874201
 20
555.593117
 30
0.0
  0
VERTEX
  5
14D7
330
14C6
100
AcDbEntity
  8
SCHRAFFUR_RAND
100
AcDbVertex
100
AcDb2dVertex
 10
335.871201
 20
527.050117
 30
0.0
  0
VERTEX
  5
14D8
330
14C6
100
AcDbEntity
  8
SCHRAFFUR_RAND
100
AcDbVertex
100
AcDb2dVertex
 10
339.188201
 20
526.7541169999999
 30
0.0
  0
VERTEX
  5
14D9
330
14C6
100
AcDbEntity
  8
SCHRAFFUR_RAND
100
AcDbVertex
100
AcDb2dVertex
 10
341.583201
 20
524.679117
 30
0.0
  0
VERTEX
  5
14DA
330
14C6
100
AcDbEntity
  8
SCHRAFFUR_RAND
100
AcDbVertex
100
AcDb2dVertex
 10
342.3292009999999
 20
522.1381169999999
 30
0.0
  0
VERTEX
  5
14DB
330
14C6
100
AcDbEntity
  8
SCHRAFFUR_RAND
100
AcDbVertex
100
AcDb2dVertex
 10
347.6442009999999
 20
522.1381169999999
 30
0.0
  0
VERTEX
  5
14DC
330
14C6
100
AcDbEntity
  8
SCHRAFFUR_RAND
100
AcDbVertex
100
AcDb2dVertex
 10
347.713201
 20
523.452117
 30
0.0
  0
VERTEX
  5
14DD
330
14C6
100
AcDbEntity
  8
SCHRAFFUR_RAND
100
AcDbVertex
100
AcDb2dVertex
 10
348.142201
 20
525.702117
 30
0.0
  0
VERTEX
  5
14DE
330
14C6
100
AcDbEntity
  8
SCHRAFFUR_RAND
100
AcDbVertex
100
AcDb2dVertex
 10
349.489201
 20
527.5811169999999
 30
0.0
  0
VERTEX
  5
14DF
330
14C6
100
AcDbEntity
  8
SCHRAFFUR_RAND
100
AcDbVertex
100
AcDb2dVertex
 10
351.435201
 20
528.8261169999999
 30
0.0
  0
VERTEX
  5
14E0
330
14C6
100
AcDbEntity
  8
SCHRAFFUR_RAND
100
AcDbVertex
100
AcDb2dVertex
 10
353.705201
 20
529.138117
 30
0.0
  0
VERTEX
  5
14E1
330
14C6
100
AcDbEntity
  8
SCHRAFFUR_RAND
100
AcDbVertex
100
AcDb2dVertex
 10
482.583201
 20
529.138117
 30
0.0
  0
VERTEX
  5
14E2
330
14C6
100
AcDbEntity
  8
SCHRAFFUR_RAND
100
AcDbVertex
100
AcDb2dVertex
 10
484.8532009999999
 20
528.8261169999999
 30
0.0
  0
VERTEX
  5
14E3
330
14C6
100
AcDbEntity
  8
SCHRAFFUR_RAND
100
AcDbVertex
100
AcDb2dVertex
 10
486.8002009999999
 20
527.5811169999999
 30
0.0
  0
VERTEX
  5
14E4
330
14C6
100
AcDbEntity
  8
SCHRAFFUR_RAND
100
AcDbVertex
100
AcDb2dVertex
 10
488.1462009999999
 20
525.702117
 30
0.0
  0
VERTEX
  5
14E5
330
14C6
100
AcDbEntity
  8
SCHRAFFUR_RAND
100
AcDbVertex
100
AcDb2dVertex
 10
488.575201
 20
523.452117
 30
0.0
  0
VERTEX
  5
14E6
330
14C6
100
AcDbEntity
  8
SCHRAFFUR_RAND
100
AcDbVertex
100
AcDb2dVertex
 10
488.6442009999999
 20
522.1381169999999
 30
0.0
  0
VERTEX
  5
14E7
330
14C6
100
AcDbEntity
  8
SCHRAFFUR_RAND
100
AcDbVertex
100
AcDb2dVertex
 10
493.9592009999999
 20
522.1381169999999
 30
0.0
  0
VERTEX
  5
14E8
330
14C6
100
AcDbEntity
  8
SCHRAFFUR_RAND
100
AcDbVertex
100
AcDb2dVertex
 10
494.039201
 20
523.223117
 30
0.0
  0
VERTEX
  5
14E9
330
14C6
100
AcDbEntity
  8
SCHRAFFUR_RAND
100
AcDbVertex
100
AcDb2dVertex
 10
495.753201
 20
525.8891169999999
 30
0.0
  0
VERTEX
  5
14EA
330
14C6
100
AcDbEntity
  8
SCHRAFFUR_RAND
100
AcDbVertex
100
AcDb2dVertex
 10
498.6362009999999
 20
527.205117
 30
0.0
  0
VERTEX
  5
14EB
330
14C6
100
AcDbEntity
  8
SCHRAFFUR_RAND
100
AcDbVertex
100
AcDb2dVertex
 10
500.418201
 20
527.050117
 30
0.0
  0
VERTEX
  5
14EC
330
14C6
100
AcDbEntity
  8
SCHRAFFUR_RAND
100
AcDbVertex
100
AcDb2dVertex
 10
501.4142009999999
 20
555.593117
 30
0.0
  0
VERTEX
  5
14ED
330
14C6
100
AcDbEntity
  8
SCHRAFFUR_RAND
100
AcDbVertex
100
AcDb2dVertex
 10
501.9022009999999
 20
556.6891169999999
 30
0.0
  0
VERTEX
  5
14EE
330
14C6
100
AcDbEntity
  8
SCHRAFFUR_RAND
100
AcDbVertex
100
AcDb2dVertex
 10
503.0132009999999
 20
557.1381169999999
 30
0.0
  0
VERTEX
  5
14EF
330
14C6
100
AcDbEntity
  8
SCHRAFFUR_RAND
100
AcDbVertex
100
AcDb2dVertex
 10
503.4692009999999
 20
557.1381169999999
 30
0.0
  0
VERTEX
  5
14F0
330
14C6
100
AcDbEntity
  8
SCHRAFFUR_RAND
100
AcDbVertex
100
AcDb2dVertex
 10
503.969201
 20
557.1381169999999
 30
0.0
  0
VERTEX
  5
14F1
330
14C6
100
AcDbEntity
  8
SCHRAFFUR_RAND
100
AcDbVertex
100
AcDb2dVertex
 10
504.143201
 20
562.1201169999999
 30
0.0
  0
SEQEND
  5
14F2
330
14C6
100
AcDbEntity
  8
SCHRAFFUR_RAND
  0
DIMENSION
  5
1598
330
1638
100
AcDbEntity
  8
5
100
AcDbDimension
  2
*D6
 10
133.144201
 20
562.1381169999999
 30
0.0
 11
121.394201
 21
474.6381169999999
 31
0.0
 70
    32
  1
175
 71
     5
 42
-1.0
  3
GEN-ISO
100
AcDbAlignedDimension
 13
350.644201
 23
387.138117
 33
0.0
 14
319.644201
 24
562.1381169999999
 34
0.0
 50
90.0
100
AcDbRotatedDimension
  0
DIMENSION
  5
15A1
330
1638
100
AcDbEntity
  8
5
100
AcDbDimension
  2
*D11
 10
183.144201
 20
562.1381169999999
 30
0.0
 11
171.394201
 21
537.1381169999999
 31
0.0
 70
    32
  1
50
 71
     5
 42
-1.0
  3
GEN-ISO
100
AcDbAlignedDimension
 13
288.144201
 23
512.1381169999999
 33
0.0
 14
257.246201
 24
562.1381169999999
 34
0.0
 50
90.0
100
AcDbRotatedDimension
  0
DIMENSION
  5
15AB
330
1638
100
AcDbEntity
  8
5
100
AcDbDimension
  2
*D10
 10
233.144201
 20
562.1381169999999
 30
0.0
 11
221.392479
 21
600.510828
 31
0.0
 70
    32
  1
22
 71
     5
 42
-1.0
  3
GEN-ISO
100
AcDbAlignedDimension
 13
342.775201
 23
540.1381169999999
 33
0.0
 14
288.516201
 24
562.1381169999999
 34
0.0
 50
90.0
100
AcDbRotatedDimension
  0
POLYLINE
  5
15AC
330
1638
100
AcDbEntity
  8
SCHRAFFUR_RAND
100
AcDb2dPolyline
 66
     1
 10
0.0
 20
0.0
 30
0.0
 70
     1
  0
VERTEX
  5
15AD
330
15AC
100
AcDbEntity
  8
SCHRAFFUR_RAND
100
AcDbVertex
100
AcDb2dVertex
 10
498.1432009999999
 20
562.1381169999999
 30
0.0
  0
VERTEX
  5
15AE
330
15AC
100
AcDbEntity
  8
SCHRAFFUR_RAND
100
AcDbVertex
100
AcDb2dVertex
 10
338.143201
 20
562.1381169999999
 30
0.0
  0
VERTEX
  5
15AF
330
15AC
100
AcDbEntity
  8
SCHRAFFUR_RAND
100
AcDbVertex
100
AcDb2dVertex
 10
338.7762009999999
 20
543.998117
 30
0.0
  0
VERTEX
  5
15B0
330
15AC
100
AcDbEntity
  8
SCHRAFFUR_RAND
100
AcDbVertex
100
AcDb2dVertex
 10
339.996201
 20
541.260117
 30
0.0
  0
VERTEX
  5
15B1
330
15AC
100
AcDbEntity
  8
SCHRAFFUR_RAND
100
AcDbVertex
100
AcDb2dVertex
 10
342.775201
 20
540.1381169999999
 30
0.0
  0
VERTEX
  5
15B2
330
15AC
100
AcDbEntity
  8
SCHRAFFUR_RAND
100
AcDbVertex
100
AcDb2dVertex
 10
493.513201
 20
540.1381169999999
 30
0.0
  0
VERTEX
  5
15B3
330
15AC
100
AcDbEntity
  8
SCHRAFFUR_RAND
100
AcDbVertex
100
AcDb2dVertex
 10
496.2922009999999
 20
541.260117
 30
0.0
  0
VERTEX
  5
15B4
330
15AC
100
AcDbEntity
  8
SCHRAFFUR_RAND
100
AcDbVertex
100
AcDb2dVertex
 10
497.5102009999999
 20
543.998117
 30
0.0
  0
VERTEX
  5
15B5
330
15AC
100
AcDbEntity
  8
SCHRAFFUR_RAND
100
AcDbVertex
100
AcDb2dVertex
 10
498.1432009999999
 20
562.1381169999999
 30
0.0
  0
SEQEND
  5
15B6
330
15AC
100
AcDbEntity
  8
SCHRAFFUR_RAND
  0
INSERT
  5
15DD
330
1638
100
AcDbEntity
  8
8
100
AcDbBlockReference
  2
*X3
 10
186.301201
 20
-134.861883
 30
0.0
1001
ACAD
1000
HATCH
1002
{
1070
    19
1000
ANSI35,_I
1040
3.491999999999999
1040
2.355999999999999
1002
}
  0
DIMENSION
  5
15E7
330
1638
100
AcDbEntity
  8
5
100
AcDbDimension
  2
*D9
 10
203.144201
 20
287.138117
 30
0.0
 11
191.394201
 21
188.638117
 31
0.0
 70
    32
  1
{\Fgeniso.shx;\U+25A1}197
 71
     5
 42
-1.0
  3
GEN-ISO
100
AcDbAlignedDimension
 13
317.551201
 23
90.13811700000001
 33
0.0
 14
317.551201
 24
287.138117
 34
0.0
 50
90.0
100
AcDbRotatedDimension
1001
GENIUS_GENDTOL_13
1000

1000
B2/max
1000

1040
0.0
1000
{\Fgeniso.shx;\U+25A1}197
  0
DIMENSION
  5
15F1
330
1638
100
AcDbEntity
  8
5
100
AcDbDimension
  2
*D8
 10
548.1442009999999
 20
40.138117
 30
0.0
 11
418.1442009999999
 21
51.889839
 31
0.0
 70
    32
  1
260
 71
     5
 42
-1.0
  3
GEN-ISO
100
AcDbAlignedDimension
 13
288.144201
 23
161.121117
 33
0.0
 14
548.1442009999999
 24
161.121117
 34
0.0
100
AcDbRotatedDimension
  0
DIMENSION
  5
15FC
330
1638
100
AcDbEntity
  8
5
100
AcDbDimension
  2
*D7
 10
238.144201
 20
193.138117
 30
0.0
 11
226.394201
 21
225.596421
 31
0.0
 70
    32
  1
9
 71
     5
 42
-1.0
  3
GEN-ISO
100
AcDbAlignedDimension
 13
303.671201
 23
184.138117
 33
0.0
 14
303.671201
 24
193.138117
 34
0.0
 50
90.0
100
AcDbRotatedDimension
  0
INSERT
  5
16C9
330
1638
100
AcDbEntity
  8
0
100
AcDbBlockReference
  2
KATALOG_LEER
 10
251.839706
 20
11.304483
 30
0.0
 41
5.0
 42
5.0
 43
5.0
1001
GENIUS_GENOREF_13
1005
16CA
  0
POINT
  5
16CA
330
1638
100
AcDbEntity
  8
0
 60
     1
100
AcDbPoint
 10
0.0
 20
0.0
 30
0.0
1001
GENIUS_GENOBJ-N-TIT_13
1002
{
1000
OWNER
1000
GEN
1002
}
1001
GENIUS_GENOENT_13
1002
{
1000
MYREF
1005
16CA
1002
}
1002
{
1000
GRP
1005
0
1002
}
1001
GENIUS_GENOLIS_13
1002
{
1000
ENT
1005
16C9
1002
}
1001
GENIUS_GENTITLE_13
1002
{
1000
SCALE
1000
1:5
1002
}
1002
{
1000
BORDER
1000
KATALOG
1002
}
1002
{
1000
TITLE
1000
KATALOG_LEER
1002
}
1002
{
1000
UNCHG
1002
{
1000
GEN-TITLE-SCA
1000
GEN-TITLE-SIZ
1002
}
1002
}
1002
{
1000
HRA
1005
16C2
1002
}
1002
{
1000
HTIT
1005
16C9
1002
}
1002
{
1000
GENIUSID
1005
16CA
1002
}
1001
GENIUS_GENODEF_13
1002
{
1000
HIER
1070
     1
1002
}
1002
{
1000
MANEDIT
1070
     1
1002
}
1002
{
1000
NOSEL
1070
     0
1002
}
1002
{
1000
BEHIND
1070
     0
1002
}
1002
{
1000
REACTOR
1002
}
  0
HATCH
  5
1771
330
1638
100
AcDbEntity
  8
8
100
AcDbHatch
 10
0.0
 20
0.0
 30
0.0
210
0.0
220
0.0
230
1.0
  2
_U
 70
     0
 71
     0
 91
        1
 92
        1
 93
        4
 72
     1
 10
288.667201
 20
522.1241169999999
 11
288.144201
 21
512.1381169999999
 72
     1
 10
288.144201
 20
512.1381169999999
 11
299.171201
 21
512.1381169999999
 72
     1
 10
299.171201
 20
512.1381169999999
 11
296.921201
 21
522.1921169999999
 72
     1
 10
296.921201
 20
522.1921169999999
 11
288.667201
 21
522.1241169999999
 97
        0
 75
     0
 76
     0
 52
45.0
 41
5.0
 77
     0
 78
     1
 53
45.0
 43
0.0
 44
0.0
 45
-3.535533905932736
 46
3.535533905932736
 79
     0
 98
        1
 10
0.0
 20
0.0
1001
GENIUS_GENODEF_13
1002
{
1000
HIER
1070
     0
1002
}
1002
{
1000
MANEDIT
1070
     0
1002
}
1002
{
1000
NOSEL
1070
     0
1002
}
1002
{
1000
BEHIND
1070
     0
1002
}
1002
{
1000
REACTOR
1002
}
1001
GENIUS_GENOBJ-N-HTC_13
1002
{
1000
OWNER
1000
GEN
1002
}
1001
GENIUS_GENHATCH_13
1002
{
1000
DATA
1040
45.0
1042
2.5
1000
_U
1070
     0
1011
295.368698
1021
517.3372059999999
1031
0.0
1002
}
1002
{
1000
UCS
1010
0.0
1020
0.0
1030
0.0
1010
1.0
1020
0.0
1030
0.0
1010
0.0
1020
1.0
1030
0.0
1002
}
  0
HATCH
  5
17AB
330
1638
100
AcDbEntity
  8
8
100
AcDbHatch
 10
0.0
 20
0.0
 30
0.0
210
0.0
220
0.0
230
1.0
  2
_U
 70
     0
 71
     0
 91
        1
 92
        1
 93
       52
 72
     1
 10
342.644201
 20
516.1381169999999
 11
336.852201
 21
516.1381169999999
 72
     1
 10
336.852201
 20
516.1381169999999
 11
336.049201
 21
516.0571169999999
 72
     1
 10
336.049201
 20
516.0571169999999
 11
334.061201
 21
516.7381169999999
 72
     1
 10
334.061201
 20
516.7381169999999
 11
333.159201
 21
517.377117
 72
     1
 10
333.159201
 20
517.377117
 11
332.002201
 21
518.7621169999999
 72
     1
 10
332.002201
 20
518.7621169999999
 11
331.4422009999999
 21
520.049117
 72
     1
 10
331.4422009999999
 20
520.049117
 11
331.380967
 21
521.076336
 72
     2
 10
336.852201
 20
521.638117
 40
5.5
 50
174.137477
 51
179.438954
 73
     0
 72
     1
 10
331.352465
 20
521.5842610000001
 11
330.795201
 21
553.4801169999999
 72
     1
 10
330.795201
 20
553.4801169999999
 11
327.644201
 21
562.1381169999999
 72
     1
 10
327.644201
 20
562.1381169999999
 11
319.644201
 21
562.1381169999999
 72
     1
 10
319.644201
 20
562.1381169999999
 11
317.551201
 21
522.1921169999999
 72
     1
 10
317.551201
 20
522.1921169999999
 11
310.421201
 21
522.1921169999999
 72
     1
 10
310.421201
 20
522.1921169999999
 11
309.296201
 21
517.165117
 72
     1
 10
309.296201
 20
517.165117
 11
308.171425
 21
512.1381169999999
 72
     1
 10
308.171425
 20
512.1381169999999
 11
323.327201
 21
512.1381169999999
 72
     2
 10
323.327201
 20
502.1381169999999
 40
10.0
 50
270.0
 51
287.6412730000001
 73
     0
 72
     1
 10
326.357766
 20
511.6678429999999
 11
327.0842009999999
 21
511.5551169999999
 72
     1
 10
327.0842009999999
 20
511.5551169999999
 11
327.911394
 21
511.0254779999999
 72
     2
 10
323.327201
 20
502.1381169999999
 40
10.0
 50
297.28515
 51
307.976546
 73
     0
 72
     1
 10
329.48059
 20
510.020744
 11
330.306201
 21
509.492117
 72
     1
 10
330.306201
 20
509.492117
 11
330.877063
 21
508.695524
 72
     2
 10
323.327201
 20
502.1381169999999
 40
10.0
 50
319.024159
 51
329.722867
 73
     0
 72
     1
 10
331.96317
 20
507.179947
 11
332.534201
 21
506.3831169999999
 72
     1
 10
332.534201
 20
506.3831169999999
 11
333.313201
 21
502.6611169999999
 72
     1
 10
333.313201
 20
502.6611169999999
 11
334.367201
 21
482.5601169999999
 72
     1
 10
334.367201
 20
482.5601169999999
 11
334.805463
 21
480.110785
 72
     2
 10
344.353201
 20
483.084117
 40
10.0
 50
197.297496
 51
211.275202
 73
     1
 72
     1
 10
335.806365
 20
477.892624
 11
335.846506
 21
477.827109
 72
     2
 10
344.353201
 20
483.084117
 40
10.0
 50
211.715434
 51
225.7365640000001
 73
     1
 72
     1
 10
337.373617
 20
475.9227339999999
 11
339.349054
 21
474.426258
 72
     1
 10
339.349054
 20
474.426258
 11
339.3532009999999
 21
474.4231169999999
 72
     1
 10
339.3532009999999
 20
474.4231169999999
 11
347.6442009999999
 21
469.636117
 72
     1
 10
347.6442009999999
 20
469.636117
 11
349.347201
 21
468.386117
 72
     1
 10
349.347201
 20
468.386117
 11
350.412201
 21
466.5391169999999
 72
     1
 10
350.412201
 20
466.5391169999999
 11
350.502804
 21
465.7350219999999
 72
     2
 10
344.644201
 20
464.440117
 40
6.0
 50
347.536502
 51
359.606002
 73
     0
 72
     1
 10
350.64406
 20
464.4813759999999
 11
350.644201
 21
464.480117
 72
     1
 10
350.644201
 20
464.480117
 11
350.644201
 21
387.138117
 72
     1
 10
350.644201
 20
387.138117
 11
358.324201
 21
387.138117
 72
     1
 10
358.324201
 20
387.138117
 11
358.324201
 21
407.1381169999999
 72
     1
 10
358.324201
 20
407.1381169999999
 11
357.644201
 21
412.1381169999999
 72
     1
 10
357.644201
 20
412.1381169999999
 11
357.644201
 21
465.017117
 72
     1
 10
357.644201
 20
465.017117
 11
357.278952
 21
467.695097
 72
     2
 10
347.6442009999999
 20
465.017117
 40
10.0
 50
15.533281
 51
26.832774
 73
     1
 72
     1
 10
356.567479
 20
469.5309969999999
 11
356.015893
 21
470.4865569999999
 72
     2
 10
347.6442009999999
 20
465.017117
 40
10.0
 50
33.157615
 51
44.476989
 73
     1
 72
     1
 10
354.77952
 20
472.023344
 11
352.644201
 21
473.6771169999999
 72
     1
 10
352.644201
 20
473.6771169999999
 11
345.251201
 21
477.946117
 72
     1
 10
345.251201
 20
477.946117
 11
343.805201
 21
479.380117
 72
     1
 10
343.805201
 20
479.380117
 11
343.252201
 21
481.340117
 72
     1
 10
343.252201
 20
481.340117
 11
342.644201
 21
516.1381169999999
 97
        0
 75
     0
 76
     0
 52
45.0
 41
5.0
 77
     0
 78
     1
 53
45.0
 43
0.0
 44
0.0
 45
-3.535533905932736
 46
3.535533905932736
 79
     0
 98
        1
 10
0.0
 20
0.0
1001
GENIUS_GENODEF_13
1002
{
1000
HIER
1070
     0
1002
}
1002
{
1000
MANEDIT
1070
     0
1002
}
1002
{
1000
NOSEL
1070
     0
1002
}
1002
{
1000
BEHIND
1070
     0
1002
}
1002
{
1000
REACTOR
1002
}
1001
GENIUS_GENOBJ-N-HTC_13
1002
{
1000
OWNER
1000
GEN
1002
}
1001
GENIUS_GENHATCH_13
1002
{
1000
DATA
1040
45.0
1042
2.5
1000
_U
1070
     0
1011
319.46309
1021
517.3372059999999
1031
0.0
1002
}
1002
{
1000
UCS
1010
0.0
1020
0.0
1030
0.0
1010
1.0
1020
0.0
1030
0.0
1010
0.0
1020
1.0
1030
0.0
1002
}
  0
HATCH
  5
17FE
330
1638
100
AcDbEntity
  8
8
100
AcDbHatch
 10
0.0
 20
0.0
 30
0.0
210
0.0
220
0.0
230
1.0
  2
_U
 70
     0
 71
     0
 91
        1
 92
        1
 93
        4
 72
     1
 10
548.1442009999999
 20
512.1381169999999
 11
547.6202009999999
 21
522.1241169999999
 72
     1
 10
547.6202009999999
 20
522.1241169999999
 11
539.367201
 21
522.1921169999999
 72
     1
 10
539.367201
 20
522.1921169999999
 11
537.117201
 21
512.1381169999999
 72
     1
 10
537.117201
 20
512.1381169999999
 11
548.1442009999999
 21
512.1381169999999
 97
        0
 75
     0
 76
     0
 52
45.0
 41
5.0
 77
     0
 78
     1
 53
45.0
 43
0.0
 44
0.0
 45
-3.535533905932736
 46
3.535533905932736
 79
     0
 98
        1
 10
0.0
 20
0.0
1001
GENIUS_GENODEF_13
1002
{
1000
HIER
1070
     0
1002
}
1002
{
1000
MANEDIT
1070
     0
1002
}
1002
{
1000
NOSEL
1070
     0
1002
}
1002
{
1000
BEHIND
1070
     0
1002
}
1002
{
1000
REACTOR
1002
}
1001
GENIUS_GENOBJ-N-HTC_13
1002
{
1000
OWNER
1000
GEN
1002
}
1001
GENIUS_GENHATCH_13
1002
{
1000
DATA
1040
45.0
1042
2.5
1000
_U
1070
     0
1011
542.7769599999999
1021
516.749815
1031
0.0
1002
}
1002
{
1000
UCS
1010
0.0
1020
0.0
1030
0.0
1010
1.0
1020
0.0
1030
0.0
1010
0.0
1020
1.0
1030
0.0
1002
}
  0
HATCH
  5
18D1
330
1638
100
AcDbEntity
  8
8
100
AcDbHatch
 10
0.0
 20
0.0
 30
0.0
210
0.0
220
0.0
230
1.0
  2
_U
 70
     0
 71
     0
 91
        1
 92
        1
 93
      101
 72
     1
 10
333.275201
 20
557.1381169999999
 11
334.386201
 21
556.6891169999999
 72
     1
 10
334.386201
 20
556.6891169999999
 11
334.874201
 21
555.593117
 72
     1
 10
334.874201
 20
555.593117
 11
335.871201
 21
527.050117
 72
     1
 10
335.871201
 20
527.050117
 11
335.893871
 21
527.053983
 72
     2
 10
336.852201
 20
521.638117
 40
5.5
 50
259.965453
 51
260.679456
 73
     0
 72
     1
 10
335.961434
 20
527.065504
 11
336.475201
 21
527.1531169999999
 72
     1
 10
336.475201
 20
527.1531169999999
 11
336.717866
 21
527.1364759999999
 72
     2
 10
336.852201
 20
521.638117
 40
5.5
 50
268.600434
 51
279.245425
 73
     0
 72
     1
 10
337.735852
 20
527.0666669999999
 11
337.977201
 21
527.050117
 72
     1
 10
337.977201
 20
527.050117
 11
338.204984
 21
526.969156
 72
     2
 10
336.852201
 20
521.638117
 40
5.5
 50
284.238598
 51
290.46567
 73
     0
 72
     1
 10
338.775255
 20
526.790967
 11
339.188201
 21
526.7541169999999
 72
     1
 10
339.188201
 20
526.7541169999999
 11
339.573534
 21
526.4202690000001
 72
     1
 10
339.573534
 20
526.4202690000001
 11
339.592809
 21
526.406667
 72
     2
 10
336.852201
 20
521.638117
 40
5.5
 50
299.887082
 51
310.533472
 73
     0
 72
     1
 10
340.426608
 20
525.818262
 11
340.625201
 21
525.678117
 72
     1
 10
340.625201
 20
525.678117
 11
340.779484
 21
525.4886299999999
 72
     2
 10
336.852201
 20
521.638117
 40
5.5
 50
315.565505
 51
322.050344
 73
     0
 72
     1
 10
341.189234
 20
525.020445
 11
341.583201
 21
524.679117
 72
     1
 10
341.583201
 20
524.679117
 11
341.729933
 21
524.179323
 72
     2
 10
336.852201
 20
521.638117
 40
5.5
 50
332.481334
 51
341.824764
 73
     0
 72
     1
 10
342.07779
 20
523.3537
 11
342.175201
 21
523.1291169999999
 72
     1
 10
342.175201
 20
523.1291169999999
 11
342.222104
 21
522.827296
 72
     2
 10
336.852201
 20
521.638117
 40
5.5
 50
347.513221
 51
354.784091
 73
     0
 72
     1
 10
342.329427
 20
522.1381169999999
 11
347.6442009999999
 21
522.1381169999999
 72
     1
 10
347.6442009999999
 20
522.1381169999999
 11
347.713201
 21
523.452117
 72
     1
 10
347.713201
 20
523.452117
 11
347.713508
 21
523.4537239999999
 72
     2
 10
353.705201
 20
523.1381169999999
 40
6.0
 50
183.015216
 51
198.574442
 73
     0
 72
     1
 10
348.017738
 20
525.049336
 11
348.142201
 21
525.702117
 72
     1
 10
348.142201
 20
525.702117
 11
349.489201
 21
527.5811169999999
 72
     1
 10
349.489201
 20
527.5811169999999
 11
351.435201
 21
528.8261169999999
 72
     1
 10
351.435201
 20
528.8261169999999
 11
352.086442
 21
528.9156269999999
 72
     2
 10
353.705201
 20
523.1381169999999
 40
6.0
 50
254.34804
 51
270.0
 73
     0
 72
     1
 10
353.705201
 20
529.138117
 11
482.583201
 21
529.138117
 72
     2
 10
482.583201
 20
523.1381169999999
 40
6.0
 50
270.0
 51
285.65196
 73
     0
 72
     1
 10
484.2019599999999
 20
528.9156269999999
 11
484.8532009999999
 21
528.8261169999999
 72
     1
 10
484.8532009999999
 20
528.8261169999999
 11
486.8002009999999
 21
527.5811169999999
 72
     1
 10
486.8002009999999
 20
527.5811169999999
 11
488.1462009999999
 21
525.702117
 72
     1
 10
488.1462009999999
 20
525.702117
 11
488.2706650000001
 21
525.049336
 72
     2
 10
482.583201
 20
523.1381169999999
 40
6.0
 50
341.425558
 51
356.984784
 73
     0
 72
     1
 10
488.5748949999999
 20
523.4537239999999
 11
488.575201
 21
523.452117
 72
     1
 10
488.575201
 20
523.452117
 11
488.6442009999999
 21
522.1381169999999
 72
     1
 10
488.6442009999999
 20
522.1381169999999
 11
493.9589759999999
 21
522.1381169999999
 72
     2
 10
499.4362009999999
 20
521.638117
 40
5.5
 50
185.215909
 51
185.342331
 73
     0
 72
     1
 10
493.960092
 20
522.1502009999999
 11
494.039201
 21
523.223117
 72
     1
 10
494.039201
 20
523.223117
 11
494.323316
 21
523.6650349999999
 72
     2
 10
499.4362009999999
 20
521.638117
 40
5.5
 50
201.625028
 51
203.701207
 73
     0
 72
     1
 10
494.4001039999999
 20
523.8489359999999
 11
494.4642009999999
 21
524.0321169999999
 72
     1
 10
494.4642009999999
 20
524.0321169999999
 11
494.5671849999999
 21
524.195982
 72
     2
 10
499.4362009999999
 20
521.638117
 40
5.5
 50
207.714519
 51
216.581105
 73
     0
 72
     1
 10
495.019624
 20
524.9158969999999
 11
495.1222009999999
 21
525.079117
 72
     1
 10
495.1222009999999
 20
525.079117
 11
495.2577879999999
 21
525.214549
 72
     2
 10
499.4362009999999
 20
521.638117
 40
5.5
 50
220.561234
 51
223.849769
 73
     0
 72
     1
 10
495.469828
 20
525.448351
 11
495.753201
 21
525.8891169999999
 72
     1
 10
495.753201
 20
525.8891169999999
 11
496.2293589999999
 21
526.1064679999999
 72
     2
 10
499.4362009999999
 20
521.638117
 40
5.5
 50
234.333787
 51
242.296636
 73
     0
 72
     1
 10
496.8792839999999
 20
526.507632
 11
497.042201
 21
526.6101169999999
 72
     1
 10
497.042201
 20
526.6101169999999
 11
497.225383
 21
526.6742139999999
 72
     2
 10
499.4362009999999
 20
521.638117
 40
5.5
 50
246.2987930000001
 51
255.12987
 73
     0
 72
     1
 10
498.024742
 20
526.9539219999999
 11
498.208201
 21
527.0181169999999
 72
     1
 10
498.208201
 20
527.0181169999999
 11
498.232523
 21
527.0208499999999
 72
     1
 10
498.232523
 20
527.0208499999999
 11
498.6362009999999
 21
527.205117
 72
     1
 10
498.6362009999999
 20
527.205117
 11
499.3329469999999
 21
527.144513
 72
     1
 10
499.3329469999999
 20
527.144513
 11
499.4362009999999
 21
527.156117
 72
     1
 10
499.4362009999999
 20
527.156117
 11
499.636886
 21
527.134454
 72
     2
 10
499.4362009999999
 20
521.638117
 40
5.5
 50
272.0910830000001
 51
280.230563
 73
     0
 72
     1
 10
500.413055
 20
527.0506719999999
 11
500.418201
 21
527.050117
 72
     1
 10
500.418201
 20
527.050117
 11
501.4142009999999
 21
555.593117
 72
     1
 10
501.4142009999999
 20
555.593117
 11
501.9022009999999
 21
556.6891169999999
 72
     1
 10
501.9022009999999
 20
556.6891169999999
 11
503.0132009999999
 21
557.1381169999999
 72
     1
 10
503.0132009999999
 20
557.1381169999999
 11
503.969201
 21
557.1381169999999
 72
     1
 10
503.969201
 20
557.1381169999999
 11
504.143201
 21
562.1201169999999
 72
     1
 10
504.143201
 20
562.1201169999999
 11
498.1442009999999
 21
562.1381169999999
 72
     1
 10
498.1442009999999
 20
562.1381169999999
 11
497.511201
 21
543.998117
 72
     1
 10
497.511201
 20
543.998117
 11
497.510672
 21
543.9958809999999
 72
     2
 10
493.513201
 20
544.1381169999999
 40
4.0
 50
2.037806999999999
 51
24.618376
 73
     0
 72
     1
 10
497.149612
 20
542.4718269999999
 11
497.036201
 21
541.9931169999999
 72
     1
 10
497.036201
 20
541.9931169999999
 11
496.48433
 21
541.459984
 72
     2
 10
493.513201
 20
544.1381169999999
 40
4.0
 50
42.031052
 51
45.977243
 73
     0
 72
     1
 10
496.292978
 20
541.261861
 11
496.2922009999999
 21
541.260117
 72
     1
 10
496.2922009999999
 20
541.260117
 11
496.2904299999999
 21
541.2594019999999
 72
     2
 10
493.513201
 20
544.1381169999999
 40
4.0
 50
46.02796699999999
 51
49.94781300000001
 73
     0
 72
     1
 10
496.087142
 20
541.076282
 11
495.5342009999999
 21
540.5421169999999
 72
     1
 10
495.5342009999999
 20
540.5421169999999
 11
495.05096
 21
540.445516
 72
     2
 10
493.513201
 20
544.1381169999999
 40
4.0
 50
67.391039
 51
90.0
 73
     0
 72
     1
 10
493.513201
 20
540.1381169999999
 11
342.775201
 21
540.1381169999999
 72
     2
 10
342.775201
 20
544.1381169999999
 40
4.0
 50
90.0
 51
112.619865
 73
     0
 72
     1
 10
341.23674
 20
540.4458089999999
 11
340.755201
 21
540.5421169999999
 72
     1
 10
340.755201
 20
540.5421169999999
 11
340.206099
 21
541.072222
 72
     2
 10
342.775201
 20
544.1381169999999
 40
4.0
 50
129.961721
 51
133.972033
 73
     0
 72
     1
 10
339.997973
 20
541.2594019999999
 11
339.996201
 21
541.260117
 72
     1
 10
339.996201
 20
541.260117
 11
339.995423
 21
541.2618639999999
 72
     2
 10
342.775201
 20
544.1381169999999
 40
4.0
 50
134.022802
 51
138.021303
 73
     0
 72
     1
 10
339.801627
 20
541.4627
 11
339.2522009999999
 21
541.9931169999999
 72
     1
 10
339.2522009999999
 20
541.9931169999999
 11
339.139284
 21
542.4707519999999
 72
     2
 10
342.775201
 20
544.1381169999999
 40
4.0
 50
155.364677
 51
177.943536
 73
     0
 72
     1
 10
338.7777779999999
 20
543.994579
 11
338.7762009999999
 21
543.998117
 72
     1
 10
338.7762009999999
 20
543.998117
 11
338.143202
 21
562.1381139999999
 72
     1
 10
338.143202
 20
562.1381139999999
 11
332.145201
 21
562.1201169999999
 72
     1
 10
332.145201
 20
562.1201169999999
 11
332.319201
 21
557.1381169999999
 72
     1
 10
332.319201
 20
557.1381169999999
 11
333.275201
 21
557.1381169999999
 97
        0
 75
     0
 76
     0
 52
135.0
 41
5.0
 77
     0
 78
     1
 53
135.0
 43
0.0
 44
0.0
 45
-3.535533905932736
 46
-3.535533905932736
 79
     0
 98
        1
 10
0.0
 20
0.0
1001
GENIUS_GENODEF_13
1002
{
1000
HIER
1070
     0
1002
}
1002
{
1000
MANEDIT
1070
     0
1002
}
1002
{
1000
NOSEL
1070
     0
1002
}
1002
{
1000
BEHIND
1070
     0
1002
}
1002
{
1000
REACTOR
1002
}
1001
GENIUS_GENOBJ-N-HTC_13
1002
{
1000
OWNER
1000
GEN
1002
}
1001
GENIUS_GENHATCH_13
1002
{
1000
DATA
1040
135.0
1042
1.0
1000
_U
1070
     0
1011
461.091096
1021
531.7283049999999
1031
0.0
1002
}
1002
{
1000
UCS
1010
0.0
1020
0.0
1030
0.0
1010
1.0
1020
0.0
1030
0.0
1010
0.0
1020
1.0
1030
0.0
1002
}
  0
HATCH
  5
191D
330
1638
100
AcDbEntity
  8
8
100
AcDbHatch
 10
0.0
 20
0.0
 30
0.0
210
0.0
220
0.0
230
1.0
  2
_U
 70
     0
 71
     0
 91
        1
 92
        1
 93
       71
 72
     1
 10
496.9403419999999
 20
474.426255
 11
498.918391
 21
475.9252739999999
 72
     2
 10
491.9362009999999
 20
483.084117
 40
10.0
 50
314.284283
 51
327.9171100000001
 73
     1
 72
     1
 10
500.409007
 20
477.772661
 11
500.5135369999999
 21
477.9431719999999
 72
     2
 10
491.9362009999999
 20
483.084117
 40
10.0
 50
329.0630549999999
 51
342.702504
 73
     1
 72
     1
 10
501.4839389999999
 20
480.110785
 11
501.922201
 21
482.5601169999999
 72
     1
 10
501.922201
 20
482.5601169999999
 11
502.975201
 21
502.6611169999999
 72
     1
 10
502.975201
 20
502.6611169999999
 11
502.9761169999999
 21
502.6654929999999
 72
     2
 10
512.9622009999999
 20
502.1381169999999
 40
10.0
 50
183.023047
 51
200.619244
 73
     0
 72
     1
 10
503.6027879999999
 20
505.6596769999999
 11
503.754201
 21
506.3831169999999
 72
     1
 10
503.754201
 20
506.3831169999999
 11
504.330653
 21
507.1875099999999
 72
     2
 10
512.9622009999999
 20
502.1381169999999
 40
10.0
 50
210.327322
 51
220.925651
 73
     0
 72
     1
 10
505.406599
 20
508.688908
 11
505.9822009999999
 21
509.492117
 72
     1
 10
505.9822009999999
 20
509.492117
 11
506.813391
 21
510.024315
 72
     2
 10
512.9622009999999
 20
502.1381169999999
 40
10.0
 50
232.05672
 51
242.681585
 73
     0
 72
     1
 10
508.37285
 20
511.022815
 11
509.2042009999999
 21
511.5551169999999
 72
     1
 10
509.2042009999999
 20
511.5551169999999
 11
509.9324059999999
 21
511.668087
 72
     2
 10
512.9622009999999
 20
502.1381169999999
 40
10.0
 50
252.363348
 51
270.0
 73
     0
 72
     1
 10
512.9622009999999
 20
512.1381169999999
 11
528.117201
 21
512.1381169999999
 72
     1
 10
528.117201
 20
512.1381169999999
 11
525.867201
 21
522.1921169999999
 72
     1
 10
525.867201
 20
522.1921169999999
 11
518.737201
 21
522.1921169999999
 72
     1
 10
518.737201
 20
522.1921169999999
 11
516.6442009999999
 21
562.1381169999999
 72
     1
 10
516.6442009999999
 20
562.1381169999999
 11
508.6442009999999
 21
562.1381169999999
 72
     1
 10
508.6442009999999
 20
562.1381169999999
 11
505.4932009999999
 21
553.4801169999999
 72
     1
 10
505.4932009999999
 20
553.4801169999999
 11
504.9359379999999
 21
521.5842610000001
 72
     2
 10
499.4362009999999
 20
521.638117
 40
5.5
 50
0.5610460000000001
 51
10.089952
 73
     0
 72
     1
 10
504.8511379999999
 20
520.6745490000001
 11
504.8322009999999
 21
520.479117
 72
     1
 10
504.8322009999999
 20
520.479117
 11
504.8162009999999
 21
520.410117
 72
     1
 10
504.8162009999999
 20
520.410117
 11
504.726885
 21
520.1352289999999
 72
     2
 10
499.4362009999999
 20
521.638117
 40
5.5
 50
15.857888
 51
20.142261
 73
     0
 72
     1
 10
504.599824
 20
519.744179
 11
504.5072009999999
 21
519.4591169999999
 72
     1
 10
504.5072009999999
 20
519.4591169999999
 11
504.4082009999999
 21
519.2431169999999
 72
     1
 10
504.4082009999999
 20
519.2431169999999
 11
504.3919209999999
 21
519.214967
 72
     1
 10
504.3919209999999
 20
519.214967
 11
504.286201
 21
518.7621169999999
 72
     1
 10
504.286201
 20
518.7621169999999
 11
503.85653
 21
518.3397489999999
 72
     1
 10
503.85653
 20
518.3397489999999
 11
503.7512009999999
 21
518.197117
 72
     1
 10
503.7512009999999
 20
518.197117
 11
503.3052009999999
 21
517.7011169999999
 72
     1
 10
503.3052009999999
 20
517.7011169999999
 11
502.8772009999999
 21
517.323117
 72
     1
 10
502.8772009999999
 20
517.323117
 11
502.667337
 21
517.1707709999999
 72
     1
 10
502.667337
 20
517.1707709999999
 11
502.227201
 21
516.7381169999999
 72
     1
 10
502.227201
 20
516.7381169999999
 11
501.7792009999999
 21
516.5091169999999
 72
     1
 10
501.7792009999999
 20
516.5091169999999
 11
501.140621
 21
516.408001
 72
     1
 10
501.140621
 20
516.408001
 11
500.664201
 21
516.2571169999999
 72
     1
 10
500.664201
 20
516.2571169999999
 11
500.5012009999999
 21
516.223117
 72
     1
 10
500.5012009999999
 20
516.223117
 11
500.308579
 21
516.2077429999999
 72
     2
 10
499.4362009999999
 20
521.638117
 40
5.5
 50
80.87354000000001
 51
90.0
 73
     0
 72
     1
 10
499.4362009999999
 20
516.1381169999999
 11
498.6342009999999
 21
516.0571169999999
 72
     1
 10
498.6342009999999
 20
516.0571169999999
 11
493.6442009999999
 21
516.1381169999999
 72
     1
 10
493.6442009999999
 20
516.1381169999999
 11
493.037201
 21
481.340117
 72
     1
 10
493.037201
 20
481.340117
 11
493.036548
 21
481.3378
 72
     2
 10
489.037201
 20
481.4101169999999
 40
4.0
 50
1.035924
 51
30.476144
 73
     0
 72
     1
 10
492.484563
 20
479.381399
 11
492.4842009999999
 21
479.380117
 72
     1
 10
492.4842009999999
 20
479.380117
 11
492.483257
 21
479.379181
 72
     1
 10
492.483257
 20
479.379181
 11
491.0372009999999
 21
477.946117
 72
     1
 10
491.0372009999999
 20
477.946117
 11
483.6442009999999
 21
473.6771169999999
 72
     1
 10
483.6442009999999
 20
473.6771169999999
 11
481.508883
 21
472.023344
 72
     2
 10
488.6442009999999
 20
465.017117
 40
10.0
 50
135.523011
 51
146.842385
 73
     1
 72
     1
 10
480.2725099999999
 20
470.4865569999999
 11
479.7209239999999
 21
469.5309969999999
 72
     2
 10
488.6442009999999
 20
465.017117
 40
10.0
 50
153.167226
 51
164.466719
 73
     1
 72
     1
 10
479.0094509999999
 20
467.695097
 11
478.644201
 21
465.017117
 72
     1
 10
478.644201
 20
465.017117
 11
478.644201
 21
412.1381169999999
 72
     1
 10
478.644201
 20
412.1381169999999
 11
477.9642009999999
 21
407.1381169999999
 72
     1
 10
477.9642009999999
 20
407.1381169999999
 11
477.9642009999999
 21
387.138117
 72
     1
 10
477.9642009999999
 20
387.138117
 11
485.6442009999999
 21
387.138117
 72
     1
 10
485.6442009999999
 20
387.138117
 11
485.6442009999999
 21
464.480117
 72
     1
 10
485.6442009999999
 20
464.480117
 11
485.6443429999999
 21
464.4813759999999
 72
     2
 10
491.6442009999999
 20
464.440117
 40
6.0
 50
180.393998
 51
192.463498
 73
     0
 72
     1
 10
485.785599
 20
465.7350219999999
 11
485.8762009999999
 21
466.5391169999999
 72
     1
 10
485.8762009999999
 20
466.5391169999999
 11
486.942201
 21
468.386117
 72
     1
 10
486.942201
 20
468.386117
 11
488.6442009999999
 21
469.636117
 72
     1
 10
488.6442009999999
 20
469.636117
 11
496.936201
 21
474.4231169999999
 72
     1
 10
496.936201
 20
474.4231169999999
 11
496.9403419999999
 21
474.426255
 97
        0
 75
     0
 76
     0
 52
45.0
 41
5.0
 77
     0
 78
     1
 53
45.0
 43
0.0
 44
0.0
 45
-3.535533905932736
 46
3.535533905932736
 79
     0
 98
        1
 10
0.0
 20
0.0
1001
GENIUS_GENODEF_13
1002
{
1000
HIER
1070
     0
1002
}
1002
{
1000
MANEDIT
1070
     0
1002
}
1002
{
1000
NOSEL
1070
     0
1002
}
1002
{
1000
BEHIND
1070
     0
1002
}
1002
{
1000
REACTOR
1002
}
1001
GENIUS_GENOBJ-N-HTC_13
1002
{
1000
OWNER
1000
GEN
1002
}
1001
GENIUS_GENHATCH_13
1002
{
1000
DATA
1040
45.0
1042
1.0
1000
_U
1070
     0
1011
513.0997219999999
1021
532.315698
1031
0.0
1002
}
1002
{
1000
UCS
1010
0.0
1020
0.0
1030
0.0
1010
1.0
1020
0.0
1030
0.0
1010
0.0
1020
1.0
1030
0.0
1002
}
  0
HATCH
  5
1A0E
330
1638
100
AcDbEntity
  8
8
100
AcDbHatch
 10
0.0
 20
0.0
 30
0.0
210
0.0
220
0.0
230
1.0
  2
_U
 70
     0
 71
     0
 91
        1
 92
        1
 93
       16
 72
     1
 10
342.144201
 20
135.138117
 11
362.1442009999999
 21
135.138117
 72
     2
 10
362.1442009999999
 20
131.138117
 40
4.0
 50
270.0
 51
360.0
 73
     0
 72
     1
 10
366.144201
 20
131.138117
 11
366.144201
 21
111.138117
 72
     2
 10
370.144201
 20
111.138117
 40
4.0
 50
180.0
 51
270.0
 73
     1
 72
     1
 10
370.144201
 20
107.138117
 11
494.1442009999999
 21
107.138117
 72
     2
 10
494.1442009999999
 20
111.138117
 40
4.0
 50
270.0
 51
360.0
 73
     1
 72
     1
 10
498.1442009999999
 20
111.138117
 11
498.1442009999999
 21
235.138117
 72
     2
 10
494.1442009999999
 20
235.138117
 40
4.0
 50
0.0
 51
90.0
 73
     1
 72
     1
 10
494.1442009999999
 20
239.138117
 11
474.1442009999999
 21
239.138117
 72
     2
 10
474.1442009999999
 20
243.138117
 40
4.0
 50
90.0
 51
180.0
 73
     0
 72
     1
 10
470.144201
 20
243.138117
 11
470.144201
 21
263.138117
 72
     2
 10
466.144201
 20
263.138117
 40
4.0
 50
0.0
 51
90.0
 73
     1
 72
     1
 10
466.144201
 20
267.138117
 11
342.144201
 21
267.138117
 72
     2
 10
342.144201
 20
263.138117
 40
4.0
 50
90.0
 51
180.0
 73
     1
 72
     1
 10
338.144201
 20
263.138117
 11
338.144201
 21
139.138117
 72
     2
 10
342.144201
 20
139.138117
 40
4.0
 50
180.0
 51
270.0
 73
     1
 97
        0
 75
     0
 76
     0
 52
45.0
 41
11.5
 77
     1
 78
     2
 53
45.0
 43
0.0
 44
0.0
 45
-8.131727983645296
 46
8.131727983645296
 79
     0
 53
135.0
 43
0.0
 44
0.0
 45
-8.131727983645296
 46
-8.131727983645296
 79
     0
 98
        1
 10
0.0
 20
0.0
1001
GENIUS_GENODEF_13
1002
{
1000
HIER
1070
     0
1002
}
1002
{
1000
MANEDIT
1070
     0
1002
}
1002
{
1000
NOSEL
1070
     0
1002
}
1002
{
1000
BEHIND
1070
     0
1002
}
1002
{
1000
REACTOR
1002
}
1001
GENIUS_GENOBJ-N-HTC_13
1002
{
1000
OWNER
1000
GEN
1002
}
1001
GENIUS_GENHATCH_13
1002
{
1000
DATA
1040
45.0
1042
2.299999999999999
1000
_U
1070
     1
1011
390.831046
1021
210.437479
1031
0.0
1002
}
1002
{
1000
UCS
1010
0.0
1020
0.0
1030
0.0
1010
1.0
1020
0.0
1030
0.0
1010
0.0
1020
1.0
1030
0.0
1002
}
  0
POLYLINE
  5
1AB9
330
1638
100
AcDbEntity
  8
SCHRAFFUR_RAND
100
AcDb2dPolyline
 66
     1
 10
0.0
 20
0.0
 30
0.0
 70
   129
  0
VERTEX
  5
1ABA
330
1AB9
100
AcDbEntity
  8
SCHRAFFUR_RAND
100
AcDbVertex
100
AcDb2dVertex
 10
498.1442009999999
 20
235.138117
 30
0.0
 42
0.4142140000000001
  0
VERTEX
  5
1ABB
330
1AB9
100
AcDbEntity
  8
SCHRAFFUR_RAND
100
AcDbVertex
100
AcDb2dVertex
 10
494.1442009999999
 20
239.138117
 30
0.0
  0
VERTEX
  5
1ABC
330
1AB9
100
AcDbEntity
  8
SCHRAFFUR_RAND
100
AcDbVertex
100
AcDb2dVertex
 10
474.1442009999999
 20
239.138117
 30
0.0
 42
-0.4142140000000001
  0
VERTEX
  5
1ABD
330
1AB9
100
AcDbEntity
  8
SCHRAFFUR_RAND
100
AcDbVertex
100
AcDb2dVertex
 10
470.144201
 20
243.138117
 30
0.0
  0
VERTEX
  5
1ABE
330
1AB9
100
AcDbEntity
  8
SCHRAFFUR_RAND
100
AcDbVertex
100
AcDb2dVertex
 10
470.144201
 20
263.138117
 30
0.0
 42
0.4142140000000001
  0
VERTEX
  5
1ABF
330
1AB9
100
AcDbEntity
  8
SCHRAFFUR_RAND
100
AcDbVertex
100
AcDb2dVertex
 10
466.144201
 20
267.138117
 30
0.0
  0
VERTEX
  5
1AC0
330
1AB9
100
AcDbEntity
  8
SCHRAFFUR_RAND
100
AcDbVertex
100
AcDb2dVertex
 10
342.144201
 20
267.138117
 30
0.0
 42
0.4142140000000001
  0
VERTEX
  5
1AC1
330
1AB9
100
AcDbEntity
  8
SCHRAFFUR_RAND
100
AcDbVertex
100
AcDb2dVertex
 10
338.144201
 20
263.138117
 30
0.0
  0
VERTEX
  5
1AC2
330
1AB9
100
AcDbEntity
  8
SCHRAFFUR_RAND
100
AcDbVertex
100
AcDb2dVertex
 10
338.144201
 20
139.138117
 30
0.0
 42
0.4142140000000001
  0
VERTEX
  5
1AC3
330
1AB9
100
AcDbEntity
  8
SCHRAFFUR_RAND
100
AcDbVertex
100
AcDb2dVertex
 10
342.144201
 20
135.138117
 30
0.0
  0
VERTEX
  5
1AC4
330
1AB9
100
AcDbEntity
  8
SCHRAFFUR_RAND
100
AcDbVertex
100
AcDb2dVertex
 10
362.1442009999999
 20
135.138117
 30
0.0
 42
-0.4142140000000001
  0
VERTEX
  5
1AC5
330
1AB9
100
AcDbEntity
  8
SCHRAFFUR_RAND
100
AcDbVertex
100
AcDb2dVertex
 10
366.144201
 20
131.138117
 30
0.0
  0
VERTEX
  5
1AC6
330
1AB9
100
AcDbEntity
  8
SCHRAFFUR_RAND
100
AcDbVertex
100
AcDb2dVertex
 10
366.144201
 20
111.138117
 30
0.0
 42
0.4142140000000001
  0
VERTEX
  5
1AC7
330
1AB9
100
AcDbEntity
  8
SCHRAFFUR_RAND
100
AcDbVertex
100
AcDb2dVertex
 10
370.144201
 20
107.138117
 30
0.0
  0
VERTEX
  5
1AC8
330
1AB9
100
AcDbEntity
  8
SCHRAFFUR_RAND
100
AcDbVertex
100
AcDb2dVertex
 10
494.1442009999999
 20
107.138117
 30
0.0
 42
0.4142140000000001
  0
VERTEX
  5
1AC9
330
1AB9
100
AcDbEntity
  8
SCHRAFFUR_RAND
100
AcDbVertex
100
AcDb2dVertex
 10
498.1442009999999
 20
111.138117
 30
0.0
  0
SEQEND
  5
1ACA
330
1AB9
100
AcDbEntity
  8
SCHRAFFUR_RAND
  0
ENDSEC
  0
SECTION
  2
OBJECTS
  0
DICTIONARY
  5
162C
330
0
100
AcDbDictionary
281
     1
  3
ACAD_COLOR
350
1AF0
  3
ACAD_GROUP
350
162D
  3
ACAD_LAYOUT
350
1AF3
  3
ACAD_MATERIAL
350
1AEF
  3
ACAD_MLINESTYLE
350
163B
  3
ACAD_PLOTSETTINGS
350
1AF4
  3
ACAD_PLOTSTYLENAME
350
1AED
  3
ACAD_TABLESTYLE
350
1AF1
  3
ACDBHEADERROUNDTRIPXREC
350
1BCB
  3
ACDBVARIABLEDICTIONARY
350
1A0F
  3
AcmDictionary
350
1B52
  3
AMG
350
1AF8
  3
AMGSNAPSETTINGS
350
1BBF
  0
DICTIONARY
  5
1AF0
102
{ACAD_REACTORS
330
162C
102
}
330
162C
100
AcDbDictionary
281
     1
  0
DICTIONARY
  5
162D
102
{ACAD_REACTORS
330
162C
102
}
330
162C
100
AcDbDictionary
281
     1
  0
DICTIONARY
  5
1AF3
102
{ACAD_REACTORS
330
162C
102
}
330
162C
100
AcDbDictionary
281
     1
  3
Layout1
350
1AF6
  3
Model
350
1AF5
  0
DICTIONARY
  5
1AEF
102
{ACAD_REACTORS
330
162C
102
}
330
162C
100
AcDbDictionary
281
     1
  0
DICTIONARY
  5
163B
102
{ACAD_REACTORS
330
162C
102
}
330
162C
100
AcDbDictionary
281
     1
  3
STANDARD
350
163C
  0
DICTIONARY
  5
1AF4
102
{ACAD_REACTORS
330
162C
102
}
330
162C
100
AcDbDictionary
281
     1
  0
ACDBDICTIONARYWDFLT
  5
1AED
102
{ACAD_REACTORS
330
162C
102
}
330
162C
100
AcDbDictionary
281
     1
  3
Normal
350
1AEE
100
AcDbDictionaryWithDefault
340
1AEE
  0
DICTIONARY
  5
1AF1
102
{ACAD_REACTORS
330
162C
102
}
330
162C
100
AcDbDictionary
281
     1
  3
Standard
350
1AF2
  0
DICTIONARY
  5
1BCB
102
{ACAD_REACTORS
330
162C
102
}
330
162C
100
AcDbDictionary
281
     1
  0
DICTIONARY
  5
1A0F
102
{ACAD_REACTORS
330
162C
102
}
330
162C
100
AcDbDictionary
281
     1
  3
CTABLESTYLE
350
1BC7
  3
DIMASSOC
350
1BC8
  3
PROJECTNAME
350
1BC9
  3
SORTENTS
350
1A10
  0
DICTIONARY
  5
1B52
102
{ACAD_REACTORS
330
162C
102
}
330
162C
100
AcDbDictionary
281
     1
  3
AcmStdDictionary
350
1B5D
  3
AMDTSECTSYM_ARROWCOLOR
350
1B80
  0
DICTIONARY
  5
1AF8
102
{ACAD_REACTORS
330
162C
102
}
330
162C
100
AcDbDictionary
281
     1
  0
DICTIONARY
  5
1BBF
102
{ACAD_REACTORS
330
162C
102
}
330
162C
100
AcDbDictionary
281
     1
  0
LAYOUT
  5
1AF6
102
{ACAD_XDICTIONARY
360
1BCE
102
}
102
{ACAD_REACTORS
330
1AF3
102
}
330
1AF3
100
AcDbPlotSettings
  1

  2
Xerox Document Centre CS50 PS
  4

  6

 40
0.0
 41
0.0
 42
0.0
 43
0.0
 44
0.0
 45
0.0
 46
0.0
 47
0.0
 48
0.0
 49
0.0
140
0.0
141
0.0
142
1.0
143
1.0
 70
   688
 72
     0
 73
     0
 74
     5
  7

 75
    16
147
1.0
148
0.0
149
0.0
100
AcDbLayout
  1
Layout1
 70
     1
 71
     1
 10
0.0
 20
0.0
 11
144.737
 21
293.6479999999999
 12
0.0
 22
0.0
 32
0.0
 14
0.0
 24
0.0
 34
0.0
 15
144.737
 25
293.6479999999999
 35
0.0
146
0.0
 13
0.0
 23
0.0
 33
0.0
 16
1.0
 26
0.0
 36
0.0
 17
0.0
 27
1.0
 37
0.0
 76
     0
330
1635
  0
LAYOUT
  5
1AF5
102
{ACAD_XDICTIONARY
360
1BCC
102
}
102
{ACAD_REACTORS
330
1AF3
102
}
330
1AF3
100
AcDbPlotSettings
  1

  2
Xerox Document Centre CS50 PS
  4

  6

 40
0.0
 41
0.0
 42
0.0
 43
0.0
 44
0.0
 45
0.0
 46
0.0
 47
0.0
 48
0.0
 49
0.0
140
0.0
141
0.0
142
1.0
143
1.0
 70
  1712
 72
     0
 73
     0
 74
     0
  7

 75
     0
147
1.0
148
0.0
149
0.0
100
AcDbLayout
  1
Model
 70
     1
 71
     0
 10
0.0
 20
0.0
 11
12.0
 21
9.0
 12
0.0
 22
0.0
 32
0.0
 14
0.0
 24
0.0
 34
0.0
 15
0.0
 25
0.0
 35
0.0
146
0.0
 13
0.0
 23
0.0
 33
0.0
 16
1.0
 26
0.0
 36
0.0
 17
0.0
 27
1.0
 37
0.0
 76
     0
330
1638
  0
MLINESTYLE
  5
163C
102
{ACAD_REACTORS
330
163B
102
}
330
163B
100
AcDbMlineStyle
  2
STANDARD
 70
     0
  3

 62
   256
 51
90.0
 52
90.0
 71
     2
 49
0.5
 62
   256
  6
BYLAYER
 49
-0.5
 62
   256
  6
BYLAYER
  0
ACDBPLACEHOLDER
  5
1AEE
102
{ACAD_REACTORS
330
1AED
102
}
330
1AED
  0
TABLESTYLE
  5
1AF2
102
{ACAD_REACTORS
330
1AF1
102
}
330
1AF1
100
AcDbTableStyle
  3
Standard
 70
     0
 71
     0
 40
1.5
 41
1.5
280
     0
281
     0
  7
STANDARD
140
4.5
170
     2
 62
     0
 63
     7
283
     0
274
    -2
284
     1
 64
     0
275
    -2
285
     1
 65
     0
276
    -2
286
     1
 66
     0
277
    -2
287
     1
 67
     0
278
    -2
288
     1
 68
     0
279
    -2
289
     1
 69
     0
  7
STANDARD
140
6.0
170
     5
 62
     0
 63
     7
283
     0
274
    -2
284
     1
 64
     0
275
    -2
285
     1
 65
     0
276
    -2
286
     1
 66
     0
277
    -2
287
     1
 67
     0
278
    -2
288
     1
 68
     0
279
    -2
289
     1
 69
     0
  7
STANDARD
140
4.5
170
     5
 62
     0
 63
     7
283
     0
274
    -2
284
     1
 64
     0
275
    -2
285
     1
 65
     0
276
    -2
286
     1
 66
     0
277
    -2
287
     1
 67
     0
278
    -2
288
     1
 68
     0
279
    -2
289
     1
 69
     0
  0
DICTIONARYVAR
  5
1BC7
102
{ACAD_REACTORS
330
1A0F
102
}
330
1A0F
100
DictionaryVariables
280
     0
  1
STANDARD
  0
DICTIONARYVAR
  5
1BC8
102
{ACAD_REACTORS
330
1A0F
102
}
330
1A0F
100
DictionaryVariables
280
     0
  1
1
  0
DICTIONARYVAR
  5
1BC9
102
{ACAD_REACTORS
330
1A0F
102
}
330
1A0F
100
DictionaryVariables
280
     0
  1

  0
DICTIONARYVAR
  5
1A10
102
{ACAD_REACTORS
330
1A0F
102
}
330
1A0F
100
DictionaryVariables
280
     0
  1
96
  0
DICTIONARY
  5
1B5D
102
{ACAD_REACTORS
330
1B52
102
}
330
1B52
100
AcDbDictionary
281
     1
  0
XRECORD
  5
1B80
102
{ACAD_REACTORS
330
1B52
102
}
330
1B52
100
AcDbXrecord
280
     1
 90
-1023410169
  0
DICTIONARY
  5
1BCE
330
1AF6
100
AcDbDictionary
280
     1
281
     1
  3
ACAD_XREC_ROUNDTRIP
360
1BCF
  0
DICTIONARY
  5
1BCC
330
1AF5
100
AcDbDictionary
280
     1
281
     1
  3
ACAD_XREC_ROUNDTRIP
360
1BCD
  0
XRECORD
  5
1BCF
102
{ACAD_REACTORS
330
1BCE
102
}
330
1BCE
100
AcDbXrecord
280
     1
102
SHADEPLOT
 70
     0
102
SHADEPLOTRESLEVEL
 70
     2
102
SHADEPLOTCUSTOMDPI
 70
   300
  0
XRECORD
  5
1BCD
102
{ACAD_REACTORS
330
1BCC
102
}
330
1BCC
100
AcDbXrecord
280
     1
102
SHADEPLOT
 70
     0
102
SHADEPLOTRESLEVEL
 70
     2
102
SHADEPLOTCUSTOMDPI
 70
   300
  0
ENDSEC
  0
EOF
