  0
SECTION
  2
HEADER
  9
$ACADVER
  1
AC1015
  9
$ACADMAINTVER
 70
    20
  9
$DWGCODEPAGE
  3
ANSI_1252
  9
$INSBASE
 10
0.0
 20
0.0
 30
0.0
  9
$EXTMIN
 10
104.8869687702242
 20
125.8215446702442
 30
0.0
  9
$EXTMAX
 10
570.3869687702242
 20
578.9795446702444
 30
0.0
  9
$LIMMIN
 10
0.0
 20
0.0
  9
$LIMMAX
 10
1050.0
 20
1050.0
  9
$ORTHOMODE
 70
     0
  9
$REGENMODE
 70
     1
  9
$FILLMODE
 70
     1
  9
$QTEXTMODE
 70
     0
  9
$MIRRTEXT
 70
     0
  9
$LTSCALE
 40
5.0
  9
$ATTMODE
 70
     1
  9
$TEXTSIZE
 40
17.5
  9
$TRACEWID
 40
0.05
  9
$TEXTSTYLE
  7
STANDARD
  9
$CLAYER
  8
0
  9
$CELTYPE
  6
BYLAYER
  9
$CECOLOR
 62
   256
  9
$CELTSCALE
 40
1.0
  9
$DISPSILH
 70
     0
  9
$DIMSCALE
 40
5.0
  9
$DIMASZ
 40
2.5
  9
$DIMEXO
 40
1.0
  9
$DIMDLI
 40
7.0
  9
$DIMRND
 40
0.0
  9
$DIMDLE
 40
0.0
  9
$DIMEXE
 40
1.0
  9
$DIMTP
 40
0.1
  9
$DIMTM
 40
0.1
  9
$DIMTXT
 40
3.5
  9
$DIMCEN
 40
0.0
  9
$DIMTSZ
 40
0.0
  9
$DIMTOL
 70
     0
  9
$DIMLIM
 70
     0
  9
$DIMTIH
 70
     0
  9
$DIMTOH
 70
     0
  9
$DIMSE1
 70
     0
  9
$DIMSE2
 70
     0
  9
$DIMTAD
 70
     1
  9
$DIMZIN
 70
    12
  9
$DIMBLK
  1

  9
$DIMASO
 70
     1
  9
$DIMSHO
 70
     1
  9
$DIMPOST
  1

  9
$DIMAPOST
  1
"
  9
$DIMALT
 70
     0
  9
$DIMALTD
 70
     2
  9
$DIMALTF
 40
0.0393701
  9
$DIMLFAC
 40
1.0
  9
$DIMTOFL
 70
     1
  9
$DIMTVP
 40
0.0
  9
$DIMTIX
 70
     0
  9
$DIMSOXD
 70
     0
  9
$DIMSAH
 70
     0
  9
$DIMBLK1
  1

  9
$DIMBLK2
  1

  9
$DIMSTYLE
  2
GEN-ISO
  9
$DIMCLRD
 70
   256
  9
$DIMCLRE
 70
   256
  9
$DIMCLRT
 70
     2
  9
$DIMTFAC
 40
0.71
  9
$DIMGAP
 40
0.6
  9
$DIMJUST
 70
     0
  9
$DIMSD1
 70
     0
  9
$DIMSD2
 70
     0
  9
$DIMTOLJ
 70
     0
  9
$DIMTZIN
 70
     0
  9
$DIMALTZ
 70
     0
  9
$DIMALTTZ
 70
     0
  9
$DIMUPT
 70
     0
  9
$DIMDEC
 70
     2
  9
$DIMTDEC
 70
     3
  9
$DIMALTU
 70
     2
  9
$DIMALTTD
 70
     4
  9
$DIMTXSTY
  7
STANDARD
  9
$DIMAUNIT
 70
     0
  9
$DIMADEC
 70
     0
  9
$DIMALTRND
 40
0.0
  9
$DIMAZIN
 70
     0
  9
$DIMDSEP
 70
    46
  9
$DIMATFIT
 70
     3
  9
$DIMFRAC
 70
     0
  9
$DIMLDRBLK
  1

  9
$DIMLUNIT
 70
     2
  9
$DIMLWD
 70
    -2
  9
$DIMLWE
 70
    -2
  9
$DIMTMOVE
 70
     0
  9
$LUNITS
 70
     2
  9
$LUPREC
 70
     2
  9
$SKETCHINC
 40
0.1
  9
$FILLETRAD
 40
0.000005
  9
$AUNITS
 70
     0
  9
$AUPREC
 70
     2
  9
$MENU
  1
.
  9
$ELEVATION
 40
0.0
  9
$PELEVATION
 40
0.0
  9
$THICKNESS
 40
0.0
  9
$LIMCHECK
 70
     0
  9
$CHAMFERA
 40
12.5
  9
$CHAMFERB
 40
12.5
  9
$CHAMFERC
 40
0.0
  9
$CHAMFERD
 40
0.0
  9
$SKPOLY
 70
     0
  9
$TDCREATE
 40
2451421.470859179
  9
$TDUCREATE
 40
2451421.429192512
  9
$TDUPDATE
 40
2454099.473314317
  9
$TDUUPDATE
 40
2454099.431647651
  9
$TDINDWG
 40
0.0116910880
  9
$TDUSRTIMER
 40
0.0116910880
  9
$USRTIMER
 70
     1
  9
$ANGBASE
 50
0.0
  9
$ANGDIR
 70
     0
  9
$PDMODE
 70
     0
  9
$PDSIZE
 40
0.0
  9
$PLINEWID
 40
0.0
  9
$SPLFRAME
 70
     0
  9
$SPLINETYPE
 70
     6
  9
$SPLINESEGS
 70
     8
  9
$HANDSEED
  5
2324
  9
$SURFTAB1
 70
     6
  9
$SURFTAB2
 70
     6
  9
$SURFTYPE
 70
     6
  9
$SURFU
 70
     6
  9
$SURFV
 70
     6
  9
$UCSBASE
  2

  9
$UCSNAME
  2

  9
$UCSORG
 10
0.0
 20
0.0
 30
0.0
  9
$UCSXDIR
 10
1.0
 20
0.0
 30
0.0
  9
$UCSYDIR
 10
0.0
 20
1.0
 30
0.0
  9
$UCSORTHOREF
  2

  9
$UCSORTHOVIEW
 70
     0
  9
$UCSORGTOP
 10
0.0
 20
0.0
 30
0.0
  9
$UCSORGBOTTOM
 10
0.0
 20
0.0
 30
0.0
  9
$UCSORGLEFT
 10
0.0
 20
0.0
 30
0.0
  9
$UCSORGRIGHT
 10
0.0
 20
0.0
 30
0.0
  9
$UCSORGFRONT
 10
0.0
 20
0.0
 30
0.0
  9
$UCSORGBACK
 10
0.0
 20
0.0
 30
0.0
  9
$PUCSBASE
  2

  9
$PUCSNAME
  2

  9
$PUCSORG
 10
0.0
 20
0.0
 30
0.0
  9
$PUCSXDIR
 10
1.0
 20
0.0
 30
0.0
  9
$PUCSYDIR
 10
0.0
 20
1.0
 30
0.0
  9
$PUCSORTHOREF
  2

  9
$PUCSORTHOVIEW
 70
     0
  9
$PUCSORGTOP
 10
0.0
 20
0.0
 30
0.0
  9
$PUCSORGBOTTOM
 10
0.0
 20
0.0
 30
0.0
  9
$PUCSORGLEFT
 10
0.0
 20
0.0
 30
0.0
  9
$PUCSORGRIGHT
 10
0.0
 20
0.0
 30
0.0
  9
$PUCSORGFRONT
 10
0.0
 20
0.0
 30
0.0
  9
$PUCSORGBACK
 10
0.0
 20
0.0
 30
0.0
  9
$USERI1
 70
     0
  9
$USERI2
 70
     0
  9
$USERI3
 70
     0
  9
$USERI4
 70
     0
  9
$USERI5
 70
     0
  9
$USERR1
 40
0.0
  9
$USERR2
 40
0.0
  9
$USERR3
 40
0.0
  9
$USERR4
 40
0.0
  9
$USERR5
 40
0.0
  9
$WORLDVIEW
 70
     1
  9
$SHADEDGE
 70
     3
  9
$SHADEDIF
 70
    70
  9
$TILEMODE
 70
     1
  9
$MAXACTVP
 70
    48
  9
$PINSBASE
 10
0.0
 20
0.0
 30
0.0
  9
$PLIMCHECK
 70
     0
  9
$PEXTMIN
 10
0.0
 20
0.0
 30
0.0
  9
$PEXTMAX
 10
209.9
 20
296.9
 30
0.0
  9
$PLIMMIN
 10
0.0
 20
0.0
  9
$PLIMMAX
 10
209.9
 20
296.9
  9
$UNITMODE
 70
     0
  9
$VISRETAIN
 70
     1
  9
$PLINEGEN
 70
     1
  9
$PSLTSCALE
 70
     1
  9
$TREEDEPTH
 70
 -3020
  9
$CMLSTYLE
  2
STANDARD
  9
$CMLJUST
 70
     0
  9
$CMLSCALE
 40
1.0
  9
$PROXYGRAPHICS
 70
     1
  9
$MEASUREMENT
 70
     1
  9
$CELWEIGHT
370
    -1
  9
$ENDCAPS
280
     0
  9
$JOINSTYLE
280
     0
  9
$LWDISPLAY
290
     0
  9
$INSUNITS
 70
     0
  9
$HYPERLINKBASE
  1

  9
$STYLESHEET
  1

  9
$XEDIT
290
     1
  9
$CEPSNTYPE
380
     0
  9
$PSTYLEMODE
290
     1
  9
$FINGERPRINTGUID
  2
{5D46BC17-D6EA-4916-B939-5DAF5805F0E5}
  9
$VERSIONGUID
  2
{B425B734-4593-4A5E-B04C-8BC44A6A204D}
  9
$EXTNAMES
290
     1
  9
$PSVPSCALE
 40
0.0
  9
$OLESTARTUP
290
     0
  0
ENDSEC
  0
SECTION
  2
CLASSES
  0
CLASS
  1
ACDBDICTIONARYWDFLT
  2
AcDbDictionaryWithDefault
  3
ObjectDBX Classes
 90
        0
280
     0
281
     0
  0
CLASS
  1
TABLESTYLE
  2
AcDbTableStyle
  3
ObjectDBX Classes
 90
     2047
280
     0
281
     0
  0
CLASS
  1
ACME_DOCUMENT
  2
AcMeDbDoc
  3
AcMeServices
 90
        0
280
     0
281
     0
  0
CLASS
  1
AMGSETTINGSOBJ
  2
AmgSettingsObj
  3
"AcadM|Product Description: AutoCAD Mechanical 2000|Company: Autodesk"
 90
        0
280
     0
281
     0
  0
CLASS
  1
ACMESCOPE
  2
AcMeScope
  3
AcMeServices
 90
        0
280
     0
281
     0
  0
CLASS
  1
ACMECOMMANDHISTORY
  2
AcMeCommandHistory
  3
AcMeServices
 90
        0
280
     0
281
     0
  0
CLASS
  1
ACIMSYSVARMAN
  2
AcImSysVarManager
  3
AcMeServices
 90
        0
280
     0
281
     0
  0
CLASS
  1
ACIMINTSYSVAR
  2
AcImIntSysVar
  3
AcMeServices
 90
        0
280
     0
281
     0
  0
CLASS
  1
ACMEDRAWINGMAN
  2
AcMeDrawingMan
  3
AcMeServices
 90
        0
280
     0
281
     0
  0
CLASS
  1
ACMEVIEW
  2
AcMeView
  3
AcMeServices
 90
        0
280
     0
281
     0
  0
CLASS
  1
ACDBENTITYCACHE
  2
AcMeEntityCache
  3
AcMeServices
 90
        0
280
     0
281
     0
  0
CLASS
  1
GSMANAGER
  2
AcMeGSManager
  3
AcMeServices
 90
        0
280
     0
281
     0
  0
CLASS
  1
AMDTINTERNALREACTOR
  2
AmdtInternalReactor
  3
AcMeServices
 90
        0
280
     0
281
     0
  0
CLASS
  1
ACMESTATEMGR
  2
AcMeStateMgr
  3
AcMeServices
 90
        0
280
     0
281
     0
  0
CLASS
  1
ACGREFMASTER
  2
AcGrefMaster
  3
AcAttribServices
 90
        0
280
     0
281
     0
  0
CLASS
  1
AM_DRAWING_MGR
  2
AcDmDwgMgr
  3
AcMechDwgViewMgmt
 90
        0
280
     0
281
     0
  0
CLASS
  1
AM_DWG_DOCUMENT
  2
AcDmDwgDocument
  3
AcMechDwgViewMgmt
 90
        0
280
     0
281
     0
  0
CLASS
  1
AM_DWG_SHEET
  2
AcDmSheet
  3
AcMechDwgViewMgmt
 90
        0
280
     0
281
     0
  0
CLASS
  1
AM_VIEWDIMPARMAP
  2
AcDmViewDimParMap
  3
AcMechDwgViewMgmt
 90
        0
280
     0
281
     0
  0
CLASS
  1
ACIMREALSYSVAR
  2
AcImRealSysVar
  3
AcMeServices
 90
        0
280
     0
281
     0
  0
CLASS
  1
AM_DWGMGR_NAME
  2
AcDmDwgMgrName
  3
AcMechDwgViewMgmt
 90
        0
280
     0
281
     0
  0
CLASS
  1
ACME_DATABASE
  2
AcMeDbDatabase
  3
AcMeServices
 90
        0
280
     0
281
     0
  0
CLASS
  1
ACRFINSADJUSTERMGR
  2
AcRfInsAdjusterMgr
  3
AcMeServices
 90
        0
280
     0
281
     0
  0
CLASS
  1
ACGREFACADMASTER
  2
AcGrefacadMaster
  3
AcGrefServices
 90
        0
280
     0
281
     0
  0
CLASS
  1
AMDTMENUSTATEMGR
  2
AmdtMenuStateMgr
  3
McadcomServices
 90
        0
280
     0
281
     0
  0
CLASS
  1
AMDTMCOMMENUSTATE
  2
AmdtMcomMenuState
  3
McadcomServices
 90
        0
280
     0
281
     0
  0
CLASS
  1
AMIMASTER
  2
AmiMaster
  3
AmiServices
 90
        0
280
     0
281
     0
  0
CLASS
  1
MAPIAMMOUDLE
  2
MApiAmModule
  3
MApiAmServices
 90
        0
280
     0
281
     0
  0
CLASS
  1
ACIMSTRSYSVAR
  2
AcImStrSysVar
  3
AcMeServices
 90
        0
280
     0
281
     0
  0
CLASS
  1
AMDTADMENUSTATE
  2
AmdtAdMenuState
  3
DesignerServices
 90
        0
280
     0
281
     0
  0
CLASS
  1
ADAPPL
  2
AcAdAppl
  3
DesignerServices
 90
        0
280
     0
281
     0
  0
CLASS
  1
DEPMGR
  2
AcAdDepMgr
  3
DesignerServices
 90
        0
280
     0
281
     0
  0
CLASS
  1
PARAMMGR
  2
AcAdParamMgr
  3
DesignerServices
 90
        0
280
     0
281
     0
  0
CLASS
  1
PARAMSCOPE
  2
AcAdParamScope
  3
DesignerServices
 90
        0
280
     0
281
     0
  0
CLASS
  1
NAMEDAPPL
  2
AcAdNamedAppl
  3
DesignerServices
 90
        0
280
     0
281
     0
  0
CLASS
  1
AMDTDMMENUSTATE
  2
AmdtDmMenuState
  3
AcMechDwgViewMgmt
 90
        0
280
     0
281
     0
  0
CLASS
  1
AMDTAMMENUSTATE
  2
AmdtAmMenuState
  3
DesignerAssemblies
 90
        0
280
     0
281
     0
  0
CLASS
  1
ACAMPROJECT
  2
AcAmProject
  3
DesignerAssemblies
 90
        0
280
     0
281
     0
  0
CLASS
  1
ACAMGRCOMPDEF
  2
AcAmGrCompDef
  3
DesignerAssemblies
 90
        0
280
     0
281
     0
  0
CLASS
  1
ACCMCONTEXT
  2
AcCmContext
  3
DesignerAssemblies
 90
        0
280
     0
281
     0
  0
CLASS
  1
ACAMCOMPDEF
  2
AcAmCompDef
  3
DesignerAssemblies
 90
        0
280
     0
281
     0
  0
CLASS
  1
ACAMCOMPDEFMGR
  2
AcAmCompDefMgr
  3
DesignerAssemblies
 90
        0
280
     0
281
     0
  0
CLASS
  1
AMCONTEXTMGR
  2
AcAmContextMgr
  3
DesignerAssemblies
 90
        0
280
     0
281
     0
  0
CLASS
  1
ACAMCONTEXTMODELER
  2
AcAmContextModeler
  3
DesignerAssemblies
 90
        0
280
     0
281
     0
  0
CLASS
  1
ACMDATADICTIONARY
  2
AcmDataDictionary
  3
"AcmSymBB|Product Description: AutoCAD Mechanical 2004 DX|Company: Autodesk"
 90
        0
280
     0
281
     0
  0
CLASS
  1
CATALOGSTATE
  2
AcAmCatalogState
  3
DesignerAssemblies
 90
        0
280
     0
281
     0
  0
CLASS
  1
ACAMGRCOMPDEFSET
  2
AcAmGrCompDefSet
  3
DesignerAssemblies
 90
        0
280
     0
281
     0
  0
CLASS
  1
AMDTBROWSERDBTAB
  2
AmdtBrowserDbTab
  3
McadcomServices
 90
        0
280
     0
281
     0
  0
CLASS
  1
CBROWSERAPPOBJECT
  2
CBrowserAppObject
  3
McadcomServices
 90
        0
280
     0
281
     0
  0
CLASS
  1
DM_PLACEHOLDER
  2
AcDmSelsetPlaceholder
  3
AcMechDwgViewMgmt
 90
        0
280
     0
281
     0
  0
CLASS
  1
ACMSTANDARDDIN
  2
AcmStandardDIN
  3
"Amdt_StdImp|Product Description: AutoCAD Mechanical 2004 DX|Company: Autodesk"
 90
        0
280
     0
281
     0
  0
CLASS
  1
AMGOBJPROPCFG
  2
AmgObjPropCfg
  3
"AmgLay|Product Description: AutoCAD Mechanical 2000|Company: Autodesk"
 90
        1
280
     0
281
     0
  0
CLASS
  1
AMDTEDGESTANDARDDIN13715
  2
AmdtEdgeStdDIN13715
  3
"Amdt_StdImp|Product Description: AutoCAD Mechanical 2004 DX|Company: Autodesk"
 90
        0
280
     0
281
     0
  0
CLASS
  1
ACMSURFSTANDARDDIN
  2
AcmSurfTextStdDIN
  3
"Amdt_StdImp|Product Description: AutoCAD Mechanical 2004 DX|Company: Autodesk"
 90
        0
280
     0
281
     0
  0
CLASS
  1
ACMFCFSTANDARDDIN
  2
AcmFCFStdDIN
  3
"Amdt_StdImp|Product Description: AutoCAD Mechanical 2004 DX|Company: Autodesk"
 90
        0
280
     0
281
     0
  0
CLASS
  1
ACMWELDSTANDARDDIN
  2
AcmWeldingStdDIN
  3
"Amdt_StdImp|Product Description: AutoCAD Mechanical 2004 DX|Company: Autodesk"
 90
        0
280
     0
281
     0
  0
CLASS
  1
ACMIDSTANDARDDIN
  2
AcmIdStdDIN
  3
"Amdt_StdImp|Product Description: AutoCAD Mechanical 2004 DX|Company: Autodesk"
 90
        0
280
     0
281
     0
  0
CLASS
  1
ACMDATUMSTANDARDDIN
  2
AcmDatumStdDIN
  3
"Amdt_StdImp|Product Description: AutoCAD Mechanical 2004 DX|Company: Autodesk"
 90
        0
280
     0
281
     0
  0
CLASS
  1
ACMBOMSTANDARDDIN
  2
AcmBOMStdDIN
  3
"Amdt_StdImp|Product Description: AutoCAD Mechanical 2004 DX|Company: Autodesk"
 90
        0
280
     0
281
     0
  0
CLASS
  1
ACMDETAILSTANDARDDIN
  2
AmdtDetailSymStdDIN
  3
"Amdt_StdImp|Product Description: AutoCAD Mechanical 2004 DX|Company: Autodesk"
 90
        0
280
     0
281
     0
  0
CLASS
  1
ACMSECTIONSTANDARDDIN
  2
AmdtSectionSymStdDIN
  3
"Amdt_StdImp|Product Description: AutoCAD Mechanical 2004 DX|Company: Autodesk"
 90
        0
280
     0
281
     0
  0
CLASS
  1
ACMCENTERLINESTANDARDDIN
  2
AmdtCenterLineStdDIN
  3
"Amdt_StdImp|Product Description: AutoCAD Mechanical 2004 DX|Company: Autodesk"
 90
        0
280
     0
281
     0
  0
CLASS
  1
ACMTHREADLINESTANDARDDIN
  2
AmdtThreadLineStdDIN
  3
"Amdt_StdImp|Product Description: AutoCAD Mechanical 2004 DX|Company: Autodesk"
 90
        0
280
     0
281
     0
  0
CLASS
  1
ACMNOTESTANDARDDIN
  2
AmdtNoteStdDIN
  3
"Amdt_StdImp|Product Description: AutoCAD Mechanical 2004 DX|Company: Autodesk"
 90
        0
280
     0
281
     0
  0
CLASS
  1
AMDTNOTETEMPLATEDB
  2
AmdtNoteTemplateDB
  3
AMDT_STDIMP_MODULE_NAME
 90
        0
280
     0
281
     0
  0
CLASS
  1
ACAMGLAYSTD
  2
AcAmgLayStd
  3
"AcAmgLayStd|Product Description: AutoCAD Mechanical 2000|Company: Autodesk"
 90
        0
280
     0
281
     0
  0
CLASS
  1
ACAMGDIMSTD
  2
AcAmgDimStd
  3
"AcAmgDimStd|Product Description: AutoCAD Mechanical 2000|Company: Autodesk"
 90
        0
280
     0
281
     0
  0
CLASS
  1
ACAMGHOLECHARTSTDDIN
  2
AcAmgHoleChartStdDIN
  3
ACMSYMBB_MODULE_NAME
 90
        0
280
     0
281
     0
  0
CLASS
  1
ACAMGTITLESTD
  2
AcAmgTitleStd
  3
"TITLEAPP"
 90
        0
280
     0
281
     0
  0
CLASS
  1
ACAMGFILTERDAT
  2
AcAmgFilterDat
  3
"AcadM|Product Description: AutoCAD Mechanical 2000|Company: Autodesk"
 90
        0
280
     0
281
     0
  0
CLASS
  1
DICTIONARYVAR
  2
AcDbDictionaryVar
  3
ObjectDBX Classes
 90
        0
280
     0
281
     0
  0
CLASS
  1
EXACXREFPANELOBJECT
  2
ExAcXREFPanelObject
  3
EXAC_ESW
 90
        0
280
     0
281
     0
  0
CLASS
  1
ACDBPLACEHOLDER
  2
AcDbPlaceHolder
  3
ObjectDBX Classes
 90
        0
280
     0
281
     0
  0
CLASS
  1
LAYOUT
  2
AcDbLayout
  3
ObjectDBX Classes
 90
        0
280
     0
281
     0
  0
ENDSEC
  0
SECTION
  2
TABLES
  0
TABLE
  2
VPORT
  5
1D57
330
0
100
AcDbSymbolTable
 70
     3
  0
VPORT
  5
231E
330
1D57
100
AcDbSymbolTableRecord
100
AcDbViewportTableRecord
  2
*Active
 70
     0
 10
0.0
 20
0.0
 11
1.0
 21
1.0
 12
337.6258872363551
 22
357.445508390349
 13
0.0
 23
0.0
 14
5.0
 24
5.0
 15
50.0
 25
50.0
 16
0.0
 26
0.0
 36
1.0
 17
0.0
 27
0.0
 37
0.0
 40
541.3171912105651
 41
1.363870967741935
 42
50.0
 43
0.0
 44
0.0
 50
0.0
 51
0.0
 71
     0
 72
  1000
 73
     1
 74
     1
 75
     0
 76
     0
 77
     0
 78
     0
281
     0
 65
     1
110
0.0
120
0.0
130
0.0
111
1.0
121
0.0
131
0.0
112
0.0
122
1.0
132
0.0
 79
     0
146
0.0
  0
ENDTAB
  0
TABLE
  2
LTYPE
  5
1D54
330
0
100
AcDbSymbolTable
 70
    25
  0
LTYPE
  5
1D61
330
1D54
100
AcDbSymbolTableRecord
100
AcDbLinetypeTableRecord
  2
BYBLOCK
 70
     0
  3

 72
    65
 73
     0
 40
0.0
  0
LTYPE
  5
1D62
330
1D54
100
AcDbSymbolTableRecord
100
AcDbLinetypeTableRecord
  2
BYLAYER
 70
     0
  3

 72
    65
 73
     0
 40
0.0
  0
LTYPE
  5
1D63
330
1D54
100
AcDbSymbolTableRecord
100
AcDbLinetypeTableRecord
  2
CONTINUOUS
 70
     0
  3
Solid line
 72
    65
 73
     0
 40
0.0
  0
LTYPE
  5
21A6
330
1D54
100
AcDbSymbolTableRecord
100
AcDbLinetypeTableRecord
  2
GEN3A
 70
     0
  3
 - - - - -
 72
    65
 73
     2
 40
3.125
 49
2.25
 74
     0
 49
-0.875
 74
     0
  0
LTYPE
  5
225D
330
1D54
100
AcDbSymbolTableRecord
100
AcDbLinetypeTableRecord
  2
HIDDEN
 70
     0
  3
Verdeckt
 72
    65
 73
     2
 40
9.525
 49
6.349999999999999
 74
     0
 49
-3.174999999999999
 74
     0
  0
LTYPE
  5
225E
330
1D54
100
AcDbSymbolTableRecord
100
AcDbLinetypeTableRecord
  2
PHANTOM2
 70
     0
  3
Phantom (.5x) ___ _ _ ___ _ _ ___ _ _ ___ _ _
 72
    65
 73
     6
 40
31.75
 49
15.875
 74
     0
 49
-3.174999999999999
 74
     0
 49
3.174999999999999
 74
     0
 49
-3.174999999999999
 74
     0
 49
3.174999999999999
 74
     0
 49
-3.174999999999999
 74
     0
  0
LTYPE
  5
225F
330
1D54
100
AcDbSymbolTableRecord
100
AcDbLinetypeTableRecord
  2
CENTER
 70
     0
  3
Mitte ____ _ ____ _ ____ _ ____ _ ____ _ ____
 72
    65
 73
     4
 40
50.8
 49
31.75
 74
     0
 49
-6.349999999999999
 74
     0
 49
6.349999999999999
 74
     0
 49
-6.349999999999999
 74
     0
  0
LTYPE
  5
2293
330
1D54
100
AcDbSymbolTableRecord
100
AcDbLinetypeTableRecord
  2
AM_ISO02W050
 70
     0
  3
__ __ __ __ __ __ __ __ __ __ __ __ __ __ __
 72
    65
 73
     2
 40
7.5
 49
6.0
 74
     0
 49
-1.5
 74
     0
  0
LTYPE
  5
2294
330
1D54
100
AcDbSymbolTableRecord
100
AcDbLinetypeTableRecord
  2
AM_ISO08W050
 70
     0
  3
____ . ____ . ____ . ____ . ____ . ____ . ____
 72
    65
 73
     4
 40
18.0
 49
12.0
 74
     0
 49
-1.5
 74
     0
 49
3.0
 74
     0
 49
-1.5
 74
     0
  0
LTYPE
  5
2295
330
1D54
100
AcDbSymbolTableRecord
100
AcDbLinetypeTableRecord
  2
AM_ISO09W050
 70
     0
  3
_____ . . _____ . . _____ . . ____ .. ____
 72
    65
 73
     6
 40
22.5
 49
12.0
 74
     0
 49
-1.5
 74
     0
 49
3.0
 74
     0
 49
-1.5
 74
     0
 49
3.0
 74
     0
 49
-1.5
 74
     0
  0
LTYPE
  5
2296
330
1D54
100
AcDbSymbolTableRecord
100
AcDbLinetypeTableRecord
  2
Amconstr
 70
     0
  3
_______________________
 72
    65
 73
     2
 40
9999.0
 49
9999.0
 74
     0
 49
0.0
 74
     0
  0
LTYPE
  5
2297
330
1D54
100
AcDbSymbolTableRecord
100
AcDbLinetypeTableRecord
  2
AM_ISO08W050x2
 70
     0
  3
__ . __ . __ . __ . __ . __
 72
    65
 73
     4
 40
9.0
 49
6.0
 74
     0
 49
-0.75
 74
     0
 49
1.5
 74
     0
 49
-0.75
 74
     0
  0
LTYPE
  5
2298
330
1D54
100
AcDbSymbolTableRecord
100
AcDbLinetypeTableRecord
  2
AM_ISO02W050x2
 70
     0
  3
 _ _ _ _ _ _ _ _ _ _ _ _
 72
    65
 73
     2
 40
3.75
 49
3.0
 74
     0
 49
-0.75
 74
     0
  0
LTYPE
  5
229B
330
1D54
100
AcDbSymbolTableRecord
100
AcDbLinetypeTableRecord
  2
Amzigzag
 70
     0
  3
/\/-/\/-/\/-/\/-/\/-/\/
 72
    65
 73
     2
 40
11.0001
 49
0.0001
 74
     4
 75
   136
340
229A
 46
0.04
 50
0.0
 44
0.0
 45
0.0
 49
-11.0
 74
     0
  0
LTYPE
  5
229C
330
1D54
100
AcDbSymbolTableRecord
100
AcDbLinetypeTableRecord
  2
AM_DIN_F_W050
 70
     0
  3
__ __ __ __ __ __ __ __ __ __ __ __ __ __ __
 72
    65
 73
     2
 40
6.25
 49
4.75
 74
     0
 49
-1.5
 74
     0
  0
LTYPE
  5
229D
330
1D54
100
AcDbSymbolTableRecord
100
AcDbLinetypeTableRecord
  2
AM_DIN_G_W050
 70
     0
  3
____ . ____ . ____ . ____ . ____ . ____ . ____
 72
    65
 73
     4
 40
13.75
 49
9.75
 74
     0
 49
-1.5
 74
     0
 49
1.0
 74
     0
 49
-1.5
 74
     0
  0
LTYPE
  5
229E
330
1D54
100
AcDbSymbolTableRecord
100
AcDbLinetypeTableRecord
  2
AM_DIN_K_W050
 70
     0
  3
_____ . . _____ . . _____ . . ____ .. ____
 72
    65
 73
     6
 40
16.25
 49
9.75
 74
     0
 49
-1.5
 74
     0
 49
1.0
 74
     0
 49
-1.5
 74
     0
 49
1.0
 74
     0
 49
-1.5
 74
     0
  0
LTYPE
  5
229F
330
1D54
100
AcDbSymbolTableRecord
100
AcDbLinetypeTableRecord
  2
AM_DIN_G_W050x2
 70
     0
  3
__ . __ . __ . __ . __ . __
 72
    65
 73
     4
 40
6.875
 49
4.75
 74
     0
 49
-0.875
 74
     0
 49
0.375
 74
     0
 49
-0.875
 74
     0
  0
LTYPE
  5
22A0
330
1D54
100
AcDbSymbolTableRecord
100
AcDbLinetypeTableRecord
  2
AM_DIN_F_W050x2
 70
     0
  3
 _ _ _ _ _ _ _ _ _ _ _ _
 72
    65
 73
     2
 40
3.125
 49
2.25
 74
     0
 49
-0.875
 74
     0
  0
LTYPE
  5
22AF
330
1D54
100
AcDbSymbolTableRecord
100
AcDbLinetypeTableRecord
  2
ACDINWELD
 70
     0
  3
_ _ _ _ _
 72
    65
 73
     2
 40
2.0
 49
2.0
 74
     0
 49
-1.0
 74
     0
  0
LTYPE
  5
22B0
330
1D54
100
AcDbSymbolTableRecord
100
AcDbLinetypeTableRecord
  2
ACDINTGB
 70
     0
  3
__ . . __ . .
 72
    65
 73
     6
 40
9.0
 49
4.0
 74
     0
 49
-1.0
 74
     0
 49
1.0
 74
     0
 49
-1.0
 74
     0
 49
1.0
 74
     0
 49
-1.0
 74
     0
  0
LTYPE
  5
22B1
330
1D54
100
AcDbSymbolTableRecord
100
AcDbLinetypeTableRecord
  2
ACDINTGL
 70
     0
  3
_ _ _ _ _
 72
    65
 73
     2
 40
3.0
 49
2.0
 74
     0
 49
-1.0
 74
     0
  0
LTYPE
  5
22F1
330
1D54
100
AcDbSymbolTableRecord
100
AcDbLinetypeTableRecord
  2
gen3
 70
     0
  3
-- -- -- -- -- -- -- -- -- -- -- -- -- -- --
 72
    65
 73
     2
 40
6.25
 49
4.75
 74
     0
 49
-1.5
 74
     0
  0
LTYPE
  5
22F2
330
1D54
100
AcDbSymbolTableRecord
100
AcDbLinetypeTableRecord
  2
gen7
 70
     0
  3
____ . ____ . ____ . ____ . ____ . ____ . ____
 72
    65
 73
     4
 40
13.75
 49
9.75
 74
     0
 49
-1.5
 74
     0
 49
1.0
 74
     0
 49
-1.5
 74
     0
  0
LTYPE
  5
22F3
330
1D54
100
AcDbSymbolTableRecord
100
AcDbLinetypeTableRecord
  2
gen7a
 70
     0
  3
__ . __ . __
 72
    65
 73
     4
 40
6.875
 49
4.75
 74
     0
 49
-0.875
 74
     0
 49
0.375
 74
     0
 49
-0.875
 74
     0
  0
LTYPE
  5
22F4
330
1D54
100
AcDbSymbolTableRecord
100
AcDbLinetypeTableRecord
  2
gen4a
 70
     0
  3
_____ . . _____ . . _____ . . ____ .. ____
 72
    65
 73
     6
 40
16.25
 49
9.75
 74
     0
 49
-1.5
 74
     0
 49
1.0
 74
     0
 49
-1.5
 74
     0
 49
1.0
 74
     0
 49
-1.5
 74
     0
  0
LTYPE
  5
22F5
330
1D54
100
AcDbSymbolTableRecord
100
AcDbLinetypeTableRecord
  2
genzigzag
 70
     0
  3
/\/-/\/-/\/-/\/-/\/-/\/
 72
    65
 73
     2
 40
12.0001
 49
0.0001
 74
     4
 75
   135
340
229A
 46
2.0
 50
0.0
 44
0.0
 45
0.0
 49
-12.0
 74
     0
  0
ENDTAB
  0
TABLE
  2
LAYER
  5
1D51
330
0
100
AcDbSymbolTable
 70
    13
  0
LAYER
  5
1D5D
330
1D51
100
AcDbSymbolTableRecord
100
AcDbLayerTableRecord
  2
0
 70
     0
 62
     7
  6
CONTINUOUS
370
    -3
390
221F
  0
LAYER
  5
1D77
330
1D51
100
AcDbSymbolTableRecord
100
AcDbLayerTableRecord
  2
3A
 70
     0
 62
     6
  6
GEN3A
370
    -3
390
221F
  0
LAYER
  5
1D78
330
1D51
100
AcDbSymbolTableRecord
100
AcDbLayerTableRecord
  2
4
 70
     0
 62
     3
  6
CONTINUOUS
370
    -3
390
221F
  0
LAYER
  5
1D7A
330
1D51
100
AcDbSymbolTableRecord
100
AcDbLayerTableRecord
  2
5
 70
     0
 62
     3
  6
CONTINUOUS
370
    -3
390
221F
  0
LAYER
  5
1D7B
330
1D51
100
AcDbSymbolTableRecord
100
AcDbLayerTableRecord
  2
6
 70
     0
 62
     2
  6
CONTINUOUS
370
    -3
390
221F
  0
LAYER
  5
1D7D
330
1D51
100
AcDbSymbolTableRecord
100
AcDbLayerTableRecord
  2
8
 70
     0
 62
     1
  6
CONTINUOUS
370
    -3
390
221F
  0
LAYER
  5
1D7E
330
1D51
100
AcDbSymbolTableRecord
100
AcDbLayerTableRecord
  2
SCHRAFFUR_RAND
 70
     0
 62
    36
  6
CONTINUOUS
370
    -3
390
221F
  0
LAYER
  5
1E19
330
1D51
100
AcDbSymbolTableRecord
100
AcDbLayerTableRecord
  2
DEFPOINTS
 70
     0
 62
     7
  6
CONTINUOUS
290
     0
370
    -3
390
221F
  0
LAYER
  5
1E1D
330
1D51
100
AcDbSymbolTableRecord
100
AcDbLayerTableRecord
  2
RAHM2
 70
     0
 62
     1
  6
CONTINUOUS
370
    -3
390
221F
  0
LAYER
  5
1E1E
330
1D51
100
AcDbSymbolTableRecord
100
AcDbLayerTableRecord
  2
RAHM3
 70
     0
 62
     2
  6
CONTINUOUS
370
    -3
390
221F
  0
LAYER
  5
21FB
330
1D51
100
AcDbSymbolTableRecord
100
AcDbLayerTableRecord
  2
GEVACTIVE
 70
     0
 62
     2
  6
CONTINUOUS
370
    -3
390
221F
  0
LAYER
  5
21FC
330
1D51
100
AcDbSymbolTableRecord
100
AcDbLayerTableRecord
  2
GEVINACTIVE
 70
     0
 62
     8
  6
CONTINUOUS
370
    -3
390
221F
  0
LAYER
  5
21FD
330
1D51
100
AcDbSymbolTableRecord
100
AcDbLayerTableRecord
  2
VCCNULL
 70
     0
 62
    -5
  6
CONTINUOUS
370
    -3
390
221F
  0
ENDTAB
  0
TABLE
  2
STYLE
  5
1D52
330
0
100
AcDbSymbolTable
 70
     4
  0
STYLE
  5
1D5E
330
1D52
100
AcDbSymbolTableRecord
100
AcDbTextStyleTableRecord
  2
STANDARD
 70
     0
 40
0.0
 41
1.0
 50
0.0
 71
     0
 42
17.5
  3
ISOCP.SHX
  4

  0
STYLE
  5
229A
330
1D52
100
AcDbSymbolTableRecord
100
AcDbTextStyleTableRecord
  2

 70
     1
 40
0.0
 41
1.0
 50
0.0
 71
     0
 42
17.5
  3
genltshp.shx
  4

  0
STYLE
  5
22A1
330
1D52
100
AcDbSymbolTableRecord
100
AcDbTextStyleTableRecord
  2
ACDINTS
 70
     0
 40
1.0
 41
1.0
 50
0.0
 71
     0
 42
17.5
  3
isocp.shx
  4

  0
STYLE
  5
22AE
330
1D52
100
AcDbSymbolTableRecord
100
AcDbTextStyleTableRecord
  2
ACDINGDT
 70
     0
 40
0.0
 41
1.0
 50
0.0
 71
     0
 42
17.5
  3
AMGDT
  4

  0
ENDTAB
  0
TABLE
  2
VIEW
  5
1D55
330
0
100
AcDbSymbolTable
 70
     6
  0
VIEW
  5
1E54
330
1D55
100
AcDbSymbolTableRecord
100
AcDbViewTableRecord
  2
GEN1
 70
     0
 40
524.9999999999999
 10
402.9481132075471
 20
787.4999999999998
 41
805.8962264150942
 11
0.0
 21
0.0
 31
1.0
 12
0.0
 22
0.0
 32
0.0
 42
50.0
 43
0.0
 44
0.0
 50
0.0
 71
     0
281
     0
 72
     0
  0
VIEW
  5
1E55
330
1D55
100
AcDbSymbolTableRecord
100
AcDbViewTableRecord
  2
GEN2
 70
     0
 40
524.9999999999999
 10
647.0518867924529
 20
787.4999999999998
 41
805.8962264150942
 11
0.0
 21
0.0
 31
1.0
 12
0.0
 22
0.0
 32
0.0
 42
50.0
 43
0.0
 44
0.0
 50
0.0
 71
     0
281
     0
 72
     0
  0
VIEW
  5
1E56
330
1D55
100
AcDbSymbolTableRecord
100
AcDbViewTableRecord
  2
GEN3
 70
     0
 40
524.9999999999999
 10
402.9481132075471
 20
262.5
 41
805.8962264150942
 11
0.0
 21
0.0
 31
1.0
 12
0.0
 22
0.0
 32
0.0
 42
50.0
 43
0.0
 44
0.0
 50
0.0
 71
     0
281
     0
 72
     0
  0
VIEW
  5
1E57
330
1D55
100
AcDbSymbolTableRecord
100
AcDbViewTableRecord
  2
GEN4
 70
     0
 40
524.9999999999999
 10
647.0518867924529
 20
262.5
 41
805.8962264150942
 11
0.0
 21
0.0
 31
1.0
 12
0.0
 22
0.0
 32
0.0
 42
50.0
 43
0.0
 44
0.0
 50
0.0
 71
     0
281
     0
 72
     0
  0
VIEW
  5
1E58
330
1D55
100
AcDbSymbolTableRecord
100
AcDbViewTableRecord
  2
GEN5
 70
     0
 40
524.9999999999998
 10
525.0
 20
524.9999999999999
 41
805.8962264150942
 11
0.0
 21
0.0
 31
1.0
 12
0.0
 22
0.0
 32
0.0
 42
50.0
 43
0.0
 44
0.0
 50
0.0
 71
     0
281
     0
 72
     0
  0
VIEW
  5
1E59
330
1D55
100
AcDbSymbolTableRecord
100
AcDbViewTableRecord
  2
GEN6
 70
     0
 40
1049.9895
 10
525.0
 20
524.9999999999999
 41
1611.77633490566
 11
0.0
 21
0.0
 31
1.0
 12
0.0
 22
0.0
 32
0.0
 42
50.0
 43
0.0
 44
0.0
 50
0.0
 71
     0
281
     0
 72
     0
  0
ENDTAB
  0
TABLE
  2
UCS
  5
1D56
330
0
100
AcDbSymbolTable
 70
     0
  0
ENDTAB
  0
TABLE
  2
APPID
  5
1D58
330
0
100
AcDbSymbolTable
 70
    38
  0
APPID
  5
1D5F
330
1D58
100
AcDbSymbolTableRecord
100
AcDbRegAppTableRecord
  2
ACAD
 70
     0
  0
APPID
  5
1D9D
330
1D58
100
AcDbSymbolTableRecord
100
AcDbRegAppTableRecord
  2
GENIUS_GENCFG_13
 70
     0
1001
GENIUS_GENCFG0_13
1000
GEN@INFO_POS@XLATE
1001
GENIUS_GENCFG1_13
1000
GEN@INFO_POS
1001
GENIUS_GENCFG2_13
1000
GEN@LAYER@DEFS
1001
GENIUS_GENCFG3_13
1000
GEN@LAYER@ENTSORT
1001
GENIUS_GENCFG4_13
1000
GEN
1001
GENIUS_GEVCFG0_13
1000
GEV
1001
GENIUS_DUMCFG0_13
1000
DUM
  0
APPID
  5
1D9E
330
1D58
100
AcDbSymbolTableRecord
100
AcDbRegAppTableRecord
  2
GENIUS_DUMCFG0_13
 70
     0
1001
GENIUS_GENCFG_13
1071
937475536
1000
1D9E
1000
DUM
1070
     0
  0
APPID
  5
1D9F
330
1D58
100
AcDbSymbolTableRecord
100
AcDbRegAppTableRecord
  2
GENIUS_GENCFG0_13
 70
     0
1001
GENIUS_GENCFG_13
1071
955962966
1000
1D9F
1000
GEN@INFO_POS@XLATE
1070
     7
1000
GenCfgObject
1000
GenCfgShort
1000
GenCfgReal
1000
GenCfgBool
1000
GenCfgString
1000
GenCfgDim
1000
GenCfgAttrInf
1000
INFOPOINTS
1070
     0
1002
{
1000
GENINF14
1070
     0
1002
{
1000
2GENINF
1070
     4
1000
2
1002
{
1002
}
1000
5GENINF
1070
     4
1000
5
1002
{
1002
}
1000
7GENINF
1070
     4
1000
7
1002
{
1002
}
1000
9GENINF
1070
     4
1000
9
1002
{
1002
}
1000
11GENINF
1070
     4
1000
11
1002
{
1002
}
1000
14GENINF
1070
     4
1000
14
1002
{
1002
}
1002
}
1000
GENINF13
1070
     0
1002
{
1000
2GENINF
1070
     4
1000
2
1002
{
1002
}
1000
3GENINF
1070
     4
1000
3
1002
{
1002
}
1000
4GENINF
1070
     4
1000
4
1002
{
1002
}
1000
5GENINF
1070
     4
1000
5
1002
{
1002
}
1000
6GENINF
1070
     4
1000
6
1002
{
1002
}
1000
7GENINF
1070
     4
1000
7
1002
{
1002
}
1000
8GENINF
1070
     4
1000
8
1002
{
1002
}
1000
9GENINF
1070
     4
1000
9
1002
{
1002
}
1000
10GENINF
1070
     4
1000
10
1002
{
1002
}
1000
11GENINF
1070
     4
1000
11
1002
{
1002
}
1000
12GENINF
1070
     4
1000
12
1002
{
1002
}
1000
13GENINF
1070
     4
1000
13
1002
{
1002
}
1000
14GENINF
1070
     4
1000
14
1002
{
1002
}
1000
15GENINF
1070
     4
1000
15
1002
{
1002
}
1000
16GENINF
1070
     4
1000
16
1002
{
1002
}
1000
17GENINF
1070
     4
1000
17
1002
{
1002
}
1000
18GENINF
1070
     4
1000
18
1002
{
1002
}
1000
19GENINF
1070
     4
1000
19
1002
{
1002
}
1000
20GENINF
1070
     4
1000
20
1002
{
1002
}
1000
21GENINF
1070
     4
1000
21
1002
{
1002
}
1000
22GENINF
1070
     4
1000
22
1002
{
1002
}
1000
23GENINF
1070
     4
1000
23
1002
{
1002
}
1000
24GENINF
1070
     4
1000
24
1002
{
1002
}
1000
0GENINF
1070
     4
1000
0
1002
{
1002
}
1002
}
1000
GENINFO
1070
     0
1002
{
1000
3GENINF
1070
     4
1000
3
1002
{
1002
}
1000
4GENINF
1070
     4
1000
4
1002
{
1002
}
1000
5GENINF
1070
     4
1000
5
1002
{
1002
}
1000
6GENINF
1070
     4
1000
6
1002
{
1002
}
1000
7GENINF
1070
     4
1000
7
1002
{
1002
}
1000
8GENINF
1070
     4
1000
8
1002
{
1002
}
1000
9GENINF
1070
     4
1000
9
1002
{
1002
}
1000
10GENINF
1070
     4
1000
10
1002
{
1002
}
1000
11GENINF
1070
     4
1000
11
1002
{
1002
}
1000
12GENINF
1070
     4
1000
12
1002
{
1002
}
1000
13GENINF
1070
     4
1000
13
1002
{
1002
}
1000
14GENINF
1070
     4
1000
14
1002
{
1002
}
1000
15GENINF
1070
     4
1000
15
1002
{
1002
}
1000
16GENINF
1070
     4
1000
16
1002
{
1002
}
1000
17GENINF
1070
     4
1000
17
1002
{
1002
}
1000
18GENINF
1070
     4
1000
18
1002
{
1002
}
1000
19GENINF
1070
     4
1000
19
1002
{
1002
}
1000
20GENINF
1070
     4
1000
20
1002
{
1002
}
1000
21GENINF
1070
     4
1000
21
1002
{
1002
}
1000
22GENINF
1070
     4
1000
22
1002
{
1002
}
1002
}
1000
DININFO
1070
     0
1002
{
1000
ST-NAME1
1070
     4
1000
5
1002
{
1002
}
1000
ST-NAME2
1070
     4
1000
6
1002
{
1002
}
1000
ST-NORM1
1070
     4
1000
7
1002
{
1002
}
1000
ST-NORM2
1070
     4
1000
8
1002
{
1002
}
1000
ST-MAT1
1070
     4
1000
9
1002
{
1002
}
1000
ST-MAT2
1070
     4
1000
10
1002
{
1002
}
1002
}
1002
}
1000
POS_NUMBERS
1070
     0
1002
{
1000
GENPOS14
1070
     0
1002
{
1000
1GENPOS
1070
     4
1000
1
1002
{
1002
}
1000
2GENPOS
1070
     4
1000
2
1002
{
1002
}
1000
5GENPOS
1070
     4
1000
5
1002
{
1002
}
1000
7GENPOS
1070
     4
1000
7
1002
{
1002
}
1000
9GENPOS
1070
     4
1000
9
1002
{
1002
}
1000
11GENPOS
1070
     4
1000
11
1002
{
1002
}
1000
14GENPOS
1070
     4
1000
14
1002
{
1002
}
1002
}
1000
GENPOS13
1070
     0
1002
{
1000
1GENPOS
1070
     4
1000
1
1002
{
1002
}
1000
2GENPOS
1070
     4
1000
2
1002
{
1002
}
1000
3GENPOS
1070
     4
1000
3
1002
{
1002
}
1000
4GENPOS
1070
     4
1000
4
1002
{
1002
}
1000
5GENPOS
1070
     4
1000
5
1002
{
1002
}
1000
6GENPOS
1070
     4
1000
6
1002
{
1002
}
1000
7GENPOS
1070
     4
1000
7
1002
{
1002
}
1000
8GENPOS
1070
     4
1000
8
1002
{
1002
}
1000
9GENPOS
1070
     4
1000
9
1002
{
1002
}
1000
10GENPOS
1070
     4
1000
10
1002
{
1002
}
1000
11GENPOS
1070
     4
1000
11
1002
{
1002
}
1000
12GENPOS
1070
     4
1000
12
1002
{
1002
}
1000
13GENPOS
1070
     4
1000
13
1002
{
1002
}
1000
14GENPOS
1070
     4
1000
14
1002
{
1002
}
1000
15GENPOS
1070
     4
1000
15
1002
{
1002
}
1000
16GENPOS
1070
     4
1000
16
1002
{
1002
}
1000
17GENPOS
1070
     4
1000
17
1002
{
1002
}
1000
18GENPOS
1070
     4
1000
18
1002
{
1002
}
1000
19GENPOS
1070
     4
1000
19
1002
{
1002
}
1000
20GENPOS
1070
     4
1000
20
1002
{
1002
}
1000
21GENPOS
1070
     4
1000
21
1002
{
1002
}
1000
22GENPOS
1070
     4
1000
22
1002
{
1002
}
1000
23GENPOS
1070
     4
1000
23
1002
{
1002
}
1000
24GENPOS
1070
     4
1000
24
1002
{
1002
}
1000
0GENPOS
1070
     4
1000
0
1002
{
1002
}
1002
}
1000
GENPOS
1070
     0
1002
{
1000
1GENPOS
1070
     4
1000
1
1002
{
1002
}
1000
2GENPOS
1070
     4
1000
2
1002
{
1002
}
1000
3GENPOS
1070
     4
1000
3
1002
{
1002
}
1000
4GENPOS
1070
     4
1000
4
1002
{
1002
}
1000
5GENPOS
1070
     4
1000
5
1002
{
1002
}
1000
6GENPOS
1070
     4
1000
6
1002
{
1002
}
1000
7GENPOS
1070
     4
1000
7
1002
{
1002
}
1000
8GENPOS
1070
     4
1000
8
1002
{
1002
}
1000
9GENPOS
1070
     4
1000
9
1002
{
1002
}
1000
10GENPOS
1070
     4
1000
10
1002
{
1002
}
1000
11GENPOS
1070
     4
1000
11
1002
{
1002
}
1000
12GENPOS
1070
     4
1000
12
1002
{
1002
}
1000
13GENPOS
1070
     4
1000
13
1002
{
1002
}
1000
14GENPOS
1070
     4
1000
14
1002
{
1002
}
1000
15GENPOS
1070
     4
1000
15
1002
{
1002
}
1000
16GENPOS
1070
     4
1000
16
1002
{
1002
}
1000
17GENPOS
1070
     4
1000
17
1002
{
1002
}
1000
18GENPOS
1070
     4
1000
18
1002
{
1002
}
1000
19GENPOS
1070
     4
1000
19
1002
{
1002
}
1000
20GENPOS
1070
     4
1000
20
1002
{
1002
}
1000
21GENPOS
1070
     4
1000
21
1002
{
1002
}
1000
22GENPOS
1070
     4
1000
22
1002
{
1002
}
1000
23GENPOS
1070
     4
1000
23
1002
{
1002
}
1002
}
1000
DIN985
1070
     0
1002
{
1000
POSITION
1070
     4
1000
1
1002
{
1002
}
1000
MENGE
1070
     4
1000
2
1002
{
1002
}
1000
BLATT
1070
     4
1000
3
1002
{
1002
}
1000
BENENN
1070
     4
1000
5
1002
{
1002
}
1000
BENENN2
1070
     4
1000
6
1002
{
1002
}
1000
NORM
1070
     4
1000
7
1002
{
1002
}
1000
NORM2
1070
     4
1000
8
1002
{
1002
}
1000
WERKSTOFF
1070
     4
1000
9
1002
{
1002
}
1000
WERKSTOFF2
1070
     4
1000
10
1002
{
1002
}
1002
}
1000
DIN986
1070
     0
1002
{
1000
POSITION
1070
     4
1000
1
1002
{
1002
}
1000
MENGE
1070
     4
1000
2
1002
{
1002
}
1000
BLATT
1070
     4
1000
3
1002
{
1002
}
1000
BENENN
1070
     4
1000
5
1002
{
1002
}
1000
BENENN2
1070
     4
1000
6
1002
{
1002
}
1000
NORM
1070
     4
1000
7
1002
{
1002
}
1000
NORM2
1070
     4
1000
8
1002
{
1002
}
1000
WERKSTOFF
1070
     4
1000
9
1002
{
1002
}
1000
WERKSTOFF2
1070
     4
1000
10
1002
{
1002
}
1002
}
1000
DIN987
1070
     0
1002
{
1000
POSITION
1070
     4
1000
1
1002
{
1002
}
1000
MENGE
1070
     4
1000
2
1002
{
1002
}
1000
BLATT
1070
     4
1000
3
1002
{
1002
}
1000
BENENN
1070
     4
1000
5
1002
{
1002
}
1000
BENENN2
1070
     4
1000
6
1002
{
1002
}
1000
NORM
1070
     4
1000
7
1002
{
1002
}
1000
NORM2
1070
     4
1000
8
1002
{
1002
}
1000
WERKSTOFF
1070
     4
1000
9
1002
{
1002
}
1000
WERKSTOFF2
1070
     4
1000
10
1002
{
1002
}
1002
}
1002
}
  0
APPID
  5
1DA0
330
1D58
100
AcDbSymbolTableRecord
100
AcDbRegAppTableRecord
  2
GENIUS_GENCFG1_13
 70
     0
1001
GENIUS_GENCFG_13
1071
955962966
1000
1DA0
1000
GEN@INFO_POS
1070
     7
1000
GenCfgObject
1000
GenCfgShort
1000
GenCfgReal
1000
GenCfgBool
1000
GenCfgString
1000
GenCfgDim
1000
GenCfgAttrInf
1000
DescrText
1070
     4
1000
5, ,6, ,7, ,8
1002
{
1002
}
1000
DescrText2
1070
     4
1000
26
1002
{
1002
}
1000
VisibleAttr1
1070
     4
1000
1
1002
{
1002
}
1000
VisibleAttr2
1070
     4
1000
26
1002
{
1002
}
1000
UpdateBlock
1070
     3
1070
     1
1002
{
1002
}
1000
Attrib
1070
     0
1002
{
1000
0
1070
     6
1002
{
1000
Prompt
1070
     4
1000
(genmsg gendwg 103)
1002
{
1002
}
1000
Value
1070
     4
1000

1002
{
1002
}
1000
EditFlag
1070
     1
1070
     0
1002
{
1002
}
1000
PosInDDATTE
1070
     1
1070
    27
1002
{
1002
}
1000
FieldLen
1070
     1
1070
    -1
1002
{
1002
}
1002
}
1000
1
1070
     6
1002
{
1000
Prompt
1070
     4
1000
(genmsg gendwg 31)
1002
{
1002
}
1000
Value
1070
     4
1000
1
1002
{
1002
}
1000
EditFlag
1070
     1
1070
     1
1002
{
1002
}
1000
PosInDDATTE
1070
     1
1070
     1
1002
{
1002
}
1000
FieldLen
1070
     1
1070
    -1
1002
{
1002
}
1002
}
1000
2
1070
     6
1002
{
1000
Prompt
1070
     4
1000
(genmsg gendwg 32)
1002
{
1002
}
1000
Value
1070
     4
1000
1
1002
{
1002
}
1000
EditFlag
1070
     1
1070
     1
1002
{
1002
}
1000
PosInDDATTE
1070
     1
1070
     2
1002
{
1002
}
1000
FieldLen
1070
     1
1070
    -1
1002
{
1002
}
1002
}
1000
3
1070
     6
1002
{
1000
Prompt
1070
     4
1000
(genmsg gendwg 33)
1002
{
1002
}
1000
Value
1070
     4
1000

1002
{
1002
}
1000
EditFlag
1070
     1
1070
     1
1002
{
1002
}
1000
PosInDDATTE
1070
     1
1070
     3
1002
{
1002
}
1000
FieldLen
1070
     1
1070
    -1
1002
{
1002
}
1002
}
1000
4
1070
     6
1002
{
1000
Prompt
1070
     4
1000
(genmsg gendwg 34)
1002
{
1002
}
1000
Value
1070
     4
1000

1002
{
1002
}
1000
EditFlag
1070
     1
1070
     1
1002
{
1002
}
1000
PosInDDATTE
1070
     1
1070
     4
1002
{
1002
}
1000
FieldLen
1070
     1
1070
    -1
1002
{
1002
}
1002
}
1000
5
1070
     6
1002
{
1000
Prompt
1070
     4
1000
(genmsg gendwg 35)
1002
{
1002
}
1000
Value
1070
     4
1000

1002
{
1002
}
1000
EditFlag
1070
     1
1070
     1
1002
{
1002
}
1000
PosInDDATTE
1070
     1
1070
     5
1002
{
1002
}
1000
FieldLen
1070
     1
1070
    -1
1002
{
1002
}
1002
}
1000
6
1070
     6
1002
{
1000
Prompt
1070
     4
1000
(genmsg gendwg 36)
1002
{
1002
}
1000
Value
1070
     4
1000

1002
{
1002
}
1000
EditFlag
1070
     1
1070
     1
1002
{
1002
}
1000
PosInDDATTE
1070
     1
1070
     6
1002
{
1002
}
1000
FieldLen
1070
     1
1070
    -1
1002
{
1002
}
1002
}
1000
7
1070
     6
1002
{
1000
Prompt
1070
     4
1000
(genmsg gendwg 37)
1002
{
1002
}
1000
Value
1070
     4
1000

1002
{
1002
}
1000
EditFlag
1070
     1
1070
     1
1002
{
1002
}
1000
PosInDDATTE
1070
     1
1070
     7
1002
{
1002
}
1000
FieldLen
1070
     1
1070
    -1
1002
{
1002
}
1002
}
1000
8
1070
     6
1002
{
1000
Prompt
1070
     4
1000
(genmsg gendwg 38)
1002
{
1002
}
1000
Value
1070
     4
1000

1002
{
1002
}
1000
EditFlag
1070
     1
1070
     1
1002
{
1002
}
1000
PosInDDATTE
1070
     1
1070
     8
1002
{
1002
}
1000
FieldLen
1070
     1
1070
    -1
1002
{
1002
}
1002
}
1000
9
1070
     6
1002
{
1000
Prompt
1070
     4
1000
(genmsg gendwg 39)
1002
{
1002
}
1000
Value
1070
     4
1000

1002
{
1002
}
1000
EditFlag
1070
     1
1070
     1
1002
{
1002
}
1000
PosInDDATTE
1070
     1
1070
     9
1002
{
1002
}
1000
FieldLen
1070
     1
1070
    -1
1002
{
1002
}
1002
}
1000
10
1070
     6
1002
{
1000
Prompt
1070
     4
1000
(genmsg gendwg 40)
1002
{
1002
}
1000
Value
1070
     4
1000

1002
{
1002
}
1000
EditFlag
1070
     1
1070
     1
1002
{
1002
}
1000
PosInDDATTE
1070
     1
1070
    10
1002
{
1002
}
1000
FieldLen
1070
     1
1070
    -1
1002
{
1002
}
1002
}
1000
11
1070
     6
1002
{
1000
Prompt
1070
     4
1000
(genmsg gendwg 41)
1002
{
1002
}
1000
Value
1070
     4
1000

1002
{
1002
}
1000
EditFlag
1070
     1
1070
     1
1002
{
1002
}
1000
PosInDDATTE
1070
     1
1070
    11
1002
{
1002
}
1000
FieldLen
1070
     1
1070
    -1
1002
{
1002
}
1002
}
1000
12
1070
     6
1002
{
1000
Prompt
1070
     4
1000
(genmsg gendwg 42)
1002
{
1002
}
1000
Value
1070
     4
1000

1002
{
1002
}
1000
EditFlag
1070
     1
1070
     1
1002
{
1002
}
1000
PosInDDATTE
1070
     1
1070
    12
1002
{
1002
}
1000
FieldLen
1070
     1
1070
    -1
1002
{
1002
}
1002
}
1000
13
1070
     6
1002
{
1000
Prompt
1070
     4
1000
(genmsg gendwg 43)
1002
{
1002
}
1000
Value
1070
     4
1000

1002
{
1002
}
1000
EditFlag
1070
     1
1070
     1
1002
{
1002
}
1000
PosInDDATTE
1070
     1
1070
    13
1002
{
1002
}
1000
FieldLen
1070
     1
1070
    -1
1002
{
1002
}
1002
}
1000
14
1070
     6
1002
{
1000
Prompt
1070
     4
1000
(genmsg gendwg 44)
1002
{
1002
}
1000
Value
1070
     4
1000

1002
{
1002
}
1000
EditFlag
1070
     1
1070
     1
1002
{
1002
}
1000
PosInDDATTE
1070
     1
1070
    14
1002
{
1002
}
1000
FieldLen
1070
     1
1070
    -1
1002
{
1002
}
1002
}
1000
15
1070
     6
1002
{
1000
Prompt
1070
     4
1000
(genmsg gendwg 45)
1002
{
1002
}
1000
Value
1070
     4
1000

1002
{
1002
}
1000
EditFlag
1070
     1
1070
     1
1002
{
1002
}
1000
PosInDDATTE
1070
     1
1070
    15
1002
{
1002
}
1000
FieldLen
1070
     1
1070
    -1
1002
{
1002
}
1002
}
1000
16
1070
     6
1002
{
1000
Prompt
1070
     4
1000
(genmsg gendwg 46)
1002
{
1002
}
1000
Value
1070
     4
1000

1002
{
1002
}
1000
EditFlag
1070
     1
1070
     1
1002
{
1002
}
1000
PosInDDATTE
1070
     1
1070
    16
1002
{
1002
}
1000
FieldLen
1070
     1
1070
    -1
1002
{
1002
}
1002
}
1000
17
1070
     6
1002
{
1000
Prompt
1070
     4
1000
(genmsg gendwg 47)
1002
{
1002
}
1000
Value
1070
     4
1000

1002
{
1002
}
1000
EditFlag
1070
     1
1070
     1
1002
{
1002
}
1000
PosInDDATTE
1070
     1
1070
    17
1002
{
1002
}
1000
FieldLen
1070
     1
1070
    -1
1002
{
1002
}
1002
}
1000
18
1070
     6
1002
{
1000
Prompt
1070
     4
1000
(genmsg gendwg 48)
1002
{
1002
}
1000
Value
1070
     4
1000

1002
{
1002
}
1000
EditFlag
1070
     1
1070
     1
1002
{
1002
}
1000
PosInDDATTE
1070
     1
1070
    18
1002
{
1002
}
1000
FieldLen
1070
     1
1070
    -1
1002
{
1002
}
1002
}
1000
19
1070
     6
1002
{
1000
Prompt
1070
     4
1000
(genmsg gendwg 99)
1002
{
1002
}
1000
Value
1070
     4
1000

1002
{
1002
}
1000
EditFlag
1070
     1
1070
     1
1002
{
1002
}
1000
PosInDDATTE
1070
     1
1070
    19
1002
{
1002
}
1000
FieldLen
1070
     1
1070
    -1
1002
{
1002
}
1002
}
1000
20
1070
     6
1002
{
1000
Prompt
1070
     4
1000
(genmsg gendwg 100)
1002
{
1002
}
1000
Value
1070
     4
1000

1002
{
1002
}
1000
EditFlag
1070
     1
1070
     1
1002
{
1002
}
1000
PosInDDATTE
1070
     1
1070
    20
1002
{
1002
}
1000
FieldLen
1070
     1
1070
    -1
1002
{
1002
}
1002
}
1000
21
1070
     6
1002
{
1000
Prompt
1070
     4
1000
(genmsg gendwg 101)
1002
{
1002
}
1000
Value
1070
     4
1000

1002
{
1002
}
1000
EditFlag
1070
     1
1070
     1
1002
{
1002
}
1000
PosInDDATTE
1070
     1
1070
    21
1002
{
1002
}
1000
FieldLen
1070
     1
1070
    -1
1002
{
1002
}
1002
}
1000
22
1070
     6
1002
{
1000
Prompt
1070
     4
1000
(genmsg gendwg 102)
1002
{
1002
}
1000
Value
1070
     4
1000

1002
{
1002
}
1000
EditFlag
1070
     1
1070
     1
1002
{
1002
}
1000
PosInDDATTE
1070
     1
1070
    22
1002
{
1002
}
1000
FieldLen
1070
     1
1070
    -1
1002
{
1002
}
1002
}
1000
23
1070
     6
1002
{
1000
Prompt
1070
     4
1000
(genmsg gendwg 30)
1002
{
1002
}
1000
Value
1070
     4
1000

1002
{
1002
}
1000
EditFlag
1070
     1
1070
     1
1002
{
1002
}
1000
PosInDDATTE
1070
     1
1070
    23
1002
{
1002
}
1000
FieldLen
1070
     1
1070
    -1
1002
{
1002
}
1002
}
1000
24
1070
     6
1002
{
1000
Prompt
1070
     4
1000
(genmsg gendwg 104)
1002
{
1002
}
1000
Value
1070
     4
1000

1002
{
1002
}
1000
EditFlag
1070
     1
1070
     1
1002
{
1002
}
1000
PosInDDATTE
1070
     1
1070
    24
1002
{
1002
}
1000
FieldLen
1070
     1
1070
    -1
1002
{
1002
}
1002
}
1000
25
1070
     6
1002
{
1000
Prompt
1070
     4
1000
(genmsg gendwg 105)
1002
{
1002
}
1000
Value
1070
     4
1000

1002
{
1002
}
1000
EditFlag
1070
     1
1070
     1
1002
{
1002
}
1000
PosInDDATTE
1070
     1
1070
    25
1002
{
1002
}
1000
FieldLen
1070
     1
1070
    -1
1002
{
1002
}
1002
}
1000
26
1070
     6
1002
{
1000
Prompt
1070
     4
1000
(genmsg gendwg 106)
1002
{
1002
}
1000
Value
1070
     4
1000

1002
{
1002
}
1000
EditFlag
1070
     1
1070
     1
1002
{
1002
}
1000
PosInDDATTE
1070
     1
1070
    26
1002
{
1002
}
1000
FieldLen
1070
     1
1070
    -1
1002
{
1002
}
1002
}
1000
27
1070
     6
1002
{
1000
Prompt
1070
     4
1000
(genmsg gendwg 109)
1002
{
1002
}
1000
Value
1070
     4
1000

1002
{
1002
}
1000
EditFlag
1070
     1
1070
     2
1002
{
1002
}
1000
PosInDDATTE
1070
     1
1070
    27
1002
{
1002
}
1000
FieldLen
1070
     1
1070
    -1
1002
{
1002
}
1002
}
1002
}
1000
Xlate
1070
     0
1002
{
1000
>
1002
}
  0
APPID
  5
1DA1
330
1D58
100
AcDbSymbolTableRecord
100
AcDbRegAppTableRecord
  2
GENIUS_GENCFG2_13
 70
     0
1001
GENIUS_GENCFG_13
1071
955962966
1000
1DA1
1000
GEN@LAYER@DEFS
1070
     9
1000
GenCfgObject
1000
GenCfgShort
1000
GenCfgReal
1000
GenCfgBool
1000
GenCfgString
1000
GenCfgDim
1000
GenCfgAttrInf
1000
GenCfgLaySection
1000
GenCfgLayer
1000
Basic
1070
     0
1002
{
1000
0
1070
     8
1000
0
1002
{
1000
Color
1070
     1
1070
     7
1002
{
1002
}
1000
LType
1070
     4
1000
CONTINUOUS
1002
{
1002
}
1000
Base
1070
     3
1070
     0
1002
{
1002
}
1002
}
1000
1
1070
     8
1000
1
1002
{
1000
Color
1070
     1
1070
    14
1002
{
1002
}
1000
LType
1070
     4
1000
CONTINUOUS
1002
{
1002
}
1000
Base
1070
     3
1070
     0
1002
{
1002
}
1002
}
1000
2
1070
     8
1000
2
1002
{
1000
Color
1070
     1
1070
     5
1002
{
1002
}
1000
LType
1070
     4
1000
CONTINUOUS
1002
{
1002
}
1000
Base
1070
     3
1070
     0
1002
{
1002
}
1002
}
1000
3
1070
     8
1000
3
1002
{
1000
Color
1070
     1
1070
     6
1002
{
1002
}
1000
LType
1070
     4
1000
GEN3
1002
{
1002
}
1000
Base
1070
     3
1070
     0
1002
{
1002
}
1002
}
1000
4
1070
     8
1000
4
1002
{
1000
Color
1070
     1
1070
     3
1002
{
1002
}
1000
LType
1070
     4
1000
CONTINUOUS
1002
{
1002
}
1000
Base
1070
     3
1070
     0
1002
{
1002
}
1002
}
1000
5
1070
     8
1000
5
1002
{
1000
Color
1070
     1
1070
     3
1002
{
1002
}
1000
LType
1070
     4
1000
CONTINUOUS
1002
{
1002
}
1000
Base
1070
     3
1070
     0
1002
{
1002
}
1002
}
1000
6
1070
     8
1000
6
1002
{
1000
Color
1070
     1
1070
     2
1002
{
1002
}
1000
LType
1070
     4
1000
CONTINUOUS
1002
{
1002
}
1000
Base
1070
     3
1070
     0
1002
{
1002
}
1002
}
1000
7
1070
     8
1000
7
1002
{
1000
Color
1070
     1
1070
     4
1002
{
1002
}
1000
LType
1070
     4
1000
GEN7
1002
{
1002
}
1000
Base
1070
     3
1070
     0
1002
{
1002
}
1002
}
1000
8
1070
     8
1000
8
1002
{
1000
Color
1070
     1
1070
     1
1002
{
1002
}
1000
LType
1070
     4
1000
CONTINUOUS
1002
{
1002
}
1000
Base
1070
     3
1070
     0
1002
{
1002
}
1002
}
1000
3A
1070
     8
1000
3A
1002
{
1000
Color
1070
     1
1070
     6
1002
{
1002
}
1000
LType
1070
     4
1000
GEN3A
1002
{
1002
}
1000
Base
1070
     3
1070
     0
1002
{
1002
}
1002
}
1000
7A
1070
     8
1000
7A
1002
{
1000
Color
1070
     1
1070
     4
1002
{
1002
}
1000
LType
1070
     4
1000
GEN7A
1002
{
1002
}
1000
Base
1070
     3
1070
     0
1002
{
1002
}
1002
}
1000
2A
1070
     8
1000
2A
1002
{
1000
Color
1070
     1
1070
     7
1002
{
1002
}
1000
LType
1070
     4
1000
GEN7
1002
{
1002
}
1000
Base
1070
     3
1070
     0
1002
{
1002
}
1002
}
1000
4A
1070
     8
1000
4A
1002
{
1000
Color
1070
     1
1070
     3
1002
{
1002
}
1000
LType
1070
     4
1000
GEN4A
1002
{
1002
}
1000
Base
1070
     3
1070
     0
1002
{
1002
}
1002
}
1000
9
1070
     8
1000
9
1002
{
1000
Color
1070
     1
1070
   253
1002
{
1002
}
1000
LType
1070
     4
1000
CONTINUOUS
1002
{
1002
}
1000
Base
1070
     3
1070
     0
1002
{
1002
}
1002
}
1000
IP
1070
     8
1000
IP
1002
{
1000
Color
1070
     1
1070
     7
1002
{
1002
}
1000
LType
1070
     4
1000
CONTINUOUS
1002
{
1002
}
1000
Base
1070
     3
1070
     0
1002
{
1002
}
1002
}
1002
}
1000
Standard
1070
     0
1002
{
1000
0N
1070
     8
1000
0N
1002
{
1000
Color
1070
     1
1070
     7
1002
{
1002
}
1000
LType
1070
     4
1000
CONTINUOUS
1002
{
1002
}
1000
Base
1070
     3
1070
     0
1002
{
1002
}
1002
}
1000
1N
1070
     8
1000
1N
1002
{
1000
Color
1070
     1
1070
    14
1002
{
1002
}
1000
LType
1070
     4
1000
CONTINUOUS
1002
{
1002
}
1000
Base
1070
     3
1070
     0
1002
{
1002
}
1002
}
1000
2N
1070
     8
1000
2N
1002
{
1000
Color
1070
     1
1070
     5
1002
{
1002
}
1000
LType
1070
     4
1000
CONTINUOUS
1002
{
1002
}
1000
Base
1070
     3
1070
     0
1002
{
1002
}
1002
}
1000
3N
1070
     8
1000
3N
1002
{
1000
Color
1070
     1
1070
     6
1002
{
1002
}
1000
LType
1070
     4
1000
GEN3
1002
{
1002
}
1000
Base
1070
     3
1070
     0
1002
{
1002
}
1002
}
1000
4N
1070
     8
1000
4N
1002
{
1000
Color
1070
     1
1070
     3
1002
{
1002
}
1000
LType
1070
     4
1000
CONTINUOUS
1002
{
1002
}
1000
Base
1070
     3
1070
     0
1002
{
1002
}
1002
}
1000
5N
1070
     8
1000
5N
1002
{
1000
Color
1070
     1
1070
     3
1002
{
1002
}
1000
LType
1070
     4
1000
CONTINUOUS
1002
{
1002
}
1000
Base
1070
     3
1070
     0
1002
{
1002
}
1002
}
1000
6N
1070
     8
1000
6N
1002
{
1000
Color
1070
     1
1070
     2
1002
{
1002
}
1000
LType
1070
     4
1000
CONTINUOUS
1002
{
1002
}
1000
Base
1070
     3
1070
     0
1002
{
1002
}
1002
}
1000
7N
1070
     8
1000
7N
1002
{
1000
Color
1070
     1
1070
     4
1002
{
1002
}
1000
LType
1070
     4
1000
GEN7
1002
{
1002
}
1000
Base
1070
     3
1070
     0
1002
{
1002
}
1002
}
1000
8N
1070
     8
1000
8N
1002
{
1000
Color
1070
     1
1070
     1
1002
{
1002
}
1000
LType
1070
     4
1000
CONTINUOUS
1002
{
1002
}
1000
Base
1070
     3
1070
     0
1002
{
1002
}
1002
}
1000
3AN
1070
     8
1000
3AN
1002
{
1000
Color
1070
     1
1070
     6
1002
{
1002
}
1000
LType
1070
     4
1000
GEN3A
1002
{
1002
}
1000
Base
1070
     3
1070
     0
1002
{
1002
}
1002
}
1000
7AN
1070
     8
1000
7AN
1002
{
1000
Color
1070
     1
1070
     4
1002
{
1002
}
1000
LType
1070
     4
1000
GEN7A
1002
{
1002
}
1000
Base
1070
     3
1070
     0
1002
{
1002
}
1002
}
1000
2AN
1070
     8
1000
2AN
1002
{
1000
Color
1070
     1
1070
     7
1002
{
1002
}
1000
LType
1070
     4
1000
GEN7
1002
{
1002
}
1000
Base
1070
     3
1070
     0
1002
{
1002
}
1002
}
1000
4AN
1070
     8
1000
4AN
1002
{
1000
Color
1070
     1
1070
     3
1002
{
1002
}
1000
LType
1070
     4
1000
GEN4A
1002
{
1002
}
1000
Base
1070
     3
1070
     0
1002
{
1002
}
1002
}
1000
9N
1070
     8
1000
9N
1002
{
1000
Color
1070
     1
1070
   253
1002
{
1002
}
1000
LType
1070
     4
1000
CONTINUOUS
1002
{
1002
}
1000
Base
1070
     3
1070
     0
1002
{
1002
}
1002
}
1000
IPN
1070
     8
1000
IPN
1002
{
1000
Color
1070
     1
1070
     7
1002
{
1002
}
1000
LType
1070
     4
1000
CONTINUOUS
1002
{
1002
}
1000
Base
1070
     3
1070
     0
1002
{
1002
}
1002
}
1002
}
1000
Extra
1070
     0
1002
{
1000
Klin
1070
     8
1000
KLIN
1002
{
1000
Color
1070
     1
1070
     1
1002
{
1002
}
1000
LType
1070
     4
1000
CONTINUOUS
1002
{
1002
}
1000
Base
1070
     3
1070
     1
1002
{
1002
}
1002
}
1000
Info
1070
     8
1000
INFO
1002
{
1000
Color
1070
     1
1070
     4
1002
{
1002
}
1000
LType
1070
     4
1000
CONTINUOUS
1002
{
1002
}
1000
Base
1070
     3
1070
     1
1002
{
1002
}
1002
}
1000
Rahm2
1070
     8
1000
RAHM2
1002
{
1000
Color
1070
     1
1070
     1
1002
{
1002
}
1000
LType
1070
     4
1000
CONTINUOUS
1002
{
1002
}
1000
Base
1070
     3
1070
     1
1002
{
1002
}
1002
}
1000
Rahm3
1070
     8
1000
RAHM3
1002
{
1000
Color
1070
     1
1070
     2
1002
{
1002
}
1000
LType
1070
     4
1000
CONTINUOUS
1002
{
1002
}
1000
Base
1070
     3
1070
     1
1002
{
1002
}
1002
}
1000
Rahm5
1070
     8
1000
RAHM5
1002
{
1000
Color
1070
     1
1070
     7
1002
{
1002
}
1000
LType
1070
     4
1000
CONTINUOUS
1002
{
1002
}
1000
Base
1070
     3
1070
     1
1002
{
1002
}
1002
}
1000
View
1070
     8
1000
VIEW
1002
{
1000
Color
1070
     1
1070
     1
1002
{
1002
}
1000
LType
1070
     4
1000
CONTINUOUS
1002
{
1002
}
1000
Base
1070
     3
1070
     1
1002
{
1002
}
1002
}
1000
Behind
1070
     8
1000
BEHIND
1002
{
1000
Color
1070
     1
1070
   253
1002
{
1002
}
1000
LType
1070
     4
1000
CONTINUOUS
1002
{
1002
}
1000
Base
1070
     3
1070
     1
1002
{
1002
}
1002
}
1002
}
  0
APPID
  5
1DA2
330
1D58
100
AcDbSymbolTableRecord
100
AcDbRegAppTableRecord
  2
GENIUS_GENCFG3_13
 70
     0
1001
GENIUS_GENCFG_13
1071
955962966
1000
1DA2
1000
GEN@LAYER@ENTSORT
1070
    10
1000
GenCfgObject
1000
GenCfgShort
1000
GenCfgReal
1000
GenCfgBool
1000
GenCfgString
1000
GenCfgDim
1000
GenCfgAttrInf
1000
GenCfgLaySection
1000
GenCfgLayer
1000
GenCfgEntSort
1000
ADDL
1070
     9
1000
5
1002
{
1000
Class
1070
     4
1000
SYM
1002
{
1002
}
1000
Color
1070
     1
1070
     1
1002
{
1002
}
1000
LType
1070
     4
1000
BYLAYER
1002
{
1002
}
1002
}
1000
ALTR
1070
     9
1000
4
1002
{
1000
Class
1070
     4
1000

1002
{
1002
}
1000
Color
1070
     1
1070
     7
1002
{
1002
}
1000
LType
1070
     4
1000
GEN3A
1002
{
1002
}
1002
}
1000
BELI
1070
     9
1000
4
1002
{
1000
Class
1070
     4
1000

1002
{
1002
}
1000
Color
1070
     1
1070
   256
1002
{
1002
}
1000
LType
1070
     4
1000
BYLAYER
1002
{
1002
}
1002
}
1000
BHNV
1070
     9
1000
9
1002
{
1000
Class
1070
     4
1000
INV
1002
{
1002
}
1000
Color
1070
     1
1070
   256
1002
{
1002
}
1000
LType
1070
     4
1000
BYLAYER
1002
{
1002
}
1002
}
1000
BHNVS
1070
     9
1000
BEHIND
1002
{
1000
Class
1070
     4
1000
INV
1002
{
1002
}
1000
Color
1070
     1
1070
   256
1002
{
1002
}
1000
LType
1070
     4
1000
BYLAYER
1002
{
1002
}
1002
}
1000
BLID
1070
     9
1000
4A
1002
{
1000
Class
1070
     4
1000

1002
{
1002
}
1000
Color
1070
     1
1070
   256
1002
{
1002
}
1000
LType
1070
     4
1000
BYLAYER
1002
{
1002
}
1002
}
1000
BOAP
1070
     9
1000
4A
1002
{
1000
Class
1070
     4
1000

1002
{
1002
}
1000
Color
1070
     1
1070
   256
1002
{
1002
}
1000
LType
1070
     4
1000
BYLAYER
1002
{
1002
}
1002
}
1000
BOR2
1070
     9
1000
RAHM2
1002
{
1000
Class
1070
     4
1000
SPZ,SYM
1002
{
1002
}
1000
Color
1070
     1
1070
   256
1002
{
1002
}
1000
LType
1070
     4
1000
BYLAYER
1002
{
1002
}
1002
}
1000
BOR3
1070
     9
1000
RAHM3
1002
{
1000
Class
1070
     4
1000
SPZ,SYM
1002
{
1002
}
1000
Color
1070
     1
1070
   256
1002
{
1002
}
1000
LType
1070
     4
1000
BYLAYER
1002
{
1002
}
1002
}
1000
BOR5
1070
     9
1000
RAHM5
1002
{
1000
Class
1070
     4
1000
SPZ,SYM
1002
{
1002
}
1000
Color
1070
     1
1070
   256
1002
{
1002
}
1000
LType
1070
     4
1000
BYLAYER
1002
{
1002
}
1002
}
1000
BOR7
1070
     9
1000
RAHM5
1002
{
1000
Class
1070
     4
1000
SPZ,SYM
1002
{
1002
}
1000
Color
1070
     1
1070
     7
1002
{
1002
}
1000
LType
1070
     4
1000
CONTINUOUS
1002
{
1002
}
1002
}
1000
BPAP
1070
     9
1000
4A
1002
{
1000
Class
1070
     4
1000

1002
{
1002
}
1000
Color
1070
     1
1070
   256
1002
{
1002
}
1000
LType
1070
     4
1000
BYLAYER
1002
{
1002
}
1002
}
1000
BPEX
1070
     9
1000
4A
1002
{
1000
Class
1070
     4
1000

1002
{
1002
}
1000
Color
1070
     1
1070
   256
1002
{
1002
}
1000
LType
1070
     4
1000
BYLAYER
1002
{
1002
}
1002
}
1000
BTDI
1070
     9
1000
5
1002
{
1000
Class
1070
     4
1000
DIM,SYM
1002
{
1002
}
1000
Color
1070
     1
1070
   256
1002
{
1002
}
1000
LType
1070
     4
1000
BYLAYER
1002
{
1002
}
1002
}
1000
CAL2
1070
     9
1000
4
1002
{
1000
Class
1070
     4
1000
SYM
1002
{
1002
}
1000
Color
1070
     1
1070
   256
1002
{
1002
}
1000
LType
1070
     4
1000
BYLAYER
1002
{
1002
}
1002
}
1000
CAL3
1070
     9
1000
4
1002
{
1000
Class
1070
     4
1000
SYM
1002
{
1002
}
1000
Color
1070
     1
1070
     2
1002
{
1002
}
1000
LType
1070
     4
1000
BYLAYER
1002
{
1002
}
1002
}
1000
CAL5
1070
     9
1000
4
1002
{
1000
Class
1070
     4
1000
SYM
1002
{
1002
}
1000
Color
1070
     1
1070
     7
1002
{
1002
}
1000
LType
1070
     4
1000
BYLAYER
1002
{
1002
}
1002
}
1000
CAL7
1070
     9
1000
4
1002
{
1000
Class
1070
     4
1000
SYM
1002
{
1002
}
1000
Color
1070
     1
1070
     5
1002
{
1002
}
1000
LType
1070
     4
1000
BYLAYER
1002
{
1002
}
1002
}
1000
CENN
1070
     9
1000
7A
1002
{
1000
Class
1070
     4
1000
CEN
1002
{
1002
}
1000
Color
1070
     1
1070
   256
1002
{
1002
}
1000
LType
1070
     4
1000
BYLAYER
1002
{
1002
}
1002
}
1000
CENW
1070
     9
1000
7
1002
{
1000
Class
1070
     4
1000
CEN
1002
{
1002
}
1000
Color
1070
     1
1070
   256
1002
{
1002
}
1000
LType
1070
     4
1000
BYLAYER
1002
{
1002
}
1002
}
1000
CLIN
1070
     9
1000
KLIN
1002
{
1000
Class
1070
     4
1000
SPZ
1002
{
1002
}
1000
Color
1070
     1
1070
   256
1002
{
1002
}
1000
LType
1070
     4
1000
BYLAYER
1002
{
1002
}
1002
}
1000
CON1
1070
     9
1000
0
1002
{
1000
Class
1070
     4
1000
CON,BGD
1002
{
1002
}
1000
Color
1070
     1
1070
   256
1002
{
1002
}
1000
LType
1070
     4
1000
BYLAYER
1002
{
1002
}
1002
}
1000
CON2
1070
     9
1000
1
1002
{
1000
Class
1070
     4
1000
CON,BGD
1002
{
1002
}
1000
Color
1070
     1
1070
   256
1002
{
1002
}
1000
LType
1070
     4
1000
BYLAYER
1002
{
1002
}
1002
}
1000
CON3
1070
     9
1000
2
1002
{
1000
Class
1070
     4
1000
CON,BGD
1002
{
1002
}
1000
Color
1070
     1
1070
   256
1002
{
1002
}
1000
LType
1070
     4
1000
BYLAYER
1002
{
1002
}
1002
}
1000
CON4
1070
     9
1000
2
1002
{
1000
Class
1070
     4
1000
CON,BGD
1002
{
1002
}
1000
Color
1070
     1
1070
   256
1002
{
1002
}
1000
LType
1070
     4
1000
BYLAYER
1002
{
1002
}
1002
}
1000
DERP
1070
     9
1000
4
1002
{
1000
Class
1070
     4
1000

1002
{
1002
}
1000
Color
1070
     1
1070
   256
1002
{
1002
}
1000
LType
1070
     4
1000
BYLAYER
1002
{
1002
}
1002
}
1000
DETA
1070
     9
1000
4
1002
{
1000
Class
1070
     4
1000

1002
{
1002
}
1000
Color
1070
     1
1070
   256
1002
{
1002
}
1000
LType
1070
     4
1000
BYLAYER
1002
{
1002
}
1002
}
1000
DIAG
1070
     9
1000
5
1002
{
1000
Class
1070
     4
1000
SYM
1002
{
1002
}
1000
Color
1070
     1
1070
   256
1002
{
1002
}
1000
LType
1070
     4
1000
BYLAYER
1002
{
1002
}
1002
}
1000
DILI
1070
     9
1000
5
1002
{
1000
Class
1070
     4
1000
DIM,SYM
1002
{
1002
}
1000
Color
1070
     1
1070
   256
1002
{
1002
}
1000
LType
1070
     4
1000
BYLAYER
1002
{
1002
}
1002
}
1000
DITO2
1070
     9
1000
5
1002
{
1000
Class
1070
     4
1000
DIM,SYM
1002
{
1002
}
1000
Color
1070
     1
1070
     3
1002
{
1002
}
1000
LType
1070
     4
1000
BYLAYER
1002
{
1002
}
1002
}
1000
DITO3
1070
     9
1000
5
1002
{
1000
Class
1070
     4
1000
DIM,SYM
1002
{
1002
}
1000
Color
1070
     1
1070
     2
1002
{
1002
}
1000
LType
1070
     4
1000
BYLAYER
1002
{
1002
}
1002
}
1000
DITX
1070
     9
1000
5
1002
{
1000
Class
1070
     4
1000
DIM,SYM
1002
{
1002
}
1000
Color
1070
     1
1070
     2
1002
{
1002
}
1000
LType
1070
     4
1000
CONTINUOUS
1002
{
1002
}
1002
}
1000
DIXL
1070
     9
1000
5
1002
{
1000
Class
1070
     4
1000
DIM,SYM
1002
{
1002
}
1000
Color
1070
     1
1070
   256
1002
{
1002
}
1000
LType
1070
     4
1000
BYLAYER
1002
{
1002
}
1002
}
1000
EXMP
1070
     9
1000
4A
1002
{
1000
Class
1070
     4
1000

1002
{
1002
}
1000
Color
1070
     1
1070
   256
1002
{
1002
}
1000
LType
1070
     4
1000
BYLAYER
1002
{
1002
}
1002
}
1000
FEMN
1070
     9
1000
8
1002
{
1000
Class
1070
     4
1000

1002
{
1002
}
1000
Color
1070
     1
1070
   256
1002
{
1002
}
1000
LType
1070
     4
1000
BYLAYER
1002
{
1002
}
1002
}
1000
FEMPN
1070
     9
1000
8
1002
{
1000
Class
1070
     4
1000
SYM
1002
{
1002
}
1000
Color
1070
     1
1070
     3
1002
{
1002
}
1000
LType
1070
     4
1000
BYLAYER
1002
{
1002
}
1002
}
1000
FEMSP
1070
     9
1000
4A
1002
{
1000
Class
1070
     4
1000

1002
{
1002
}
1000
Color
1070
     1
1070
   256
1002
{
1002
}
1000
LType
1070
     4
1000
CONTINUOUS
1002
{
1002
}
1002
}
1000
FEMST
1070
     9
1000
4A
1002
{
1000
Class
1070
     4
1000
SYM
1002
{
1002
}
1000
Color
1070
     1
1070
     3
1002
{
1002
}
1000
LType
1070
     4
1000
BYLAYER
1002
{
1002
}
1002
}
1000
FEMVN
1070
     9
1000
2
1002
{
1000
Class
1070
     4
1000
CON
1002
{
1002
}
1000
Color
1070
     1
1070
   256
1002
{
1002
}
1000
LType
1070
     4
1000
BYLAYER
1002
{
1002
}
1002
}
1000
FEMVT
1070
     9
1000
2
1002
{
1000
Class
1070
     4
1000
SYM
1002
{
1002
}
1000
Color
1070
     1
1070
     3
1002
{
1002
}
1000
LType
1070
     4
1000
BYLAYER
1002
{
1002
}
1002
}
1000
FLAT
1070
     9
1000
0
1002
{
1000
Class
1070
     4
1000

1002
{
1002
}
1000
Color
1070
     1
1070
   256
1002
{
1002
}
1000
LType
1070
     4
1000
BYLAYER
1002
{
1002
}
1002
}
1000
FRAR
1070
     9
1000
4A
1002
{
1000
Class
1070
     4
1000

1002
{
1002
}
1000
Color
1070
     1
1070
   256
1002
{
1002
}
1000
LType
1070
     4
1000
BYLAYER
1002
{
1002
}
1002
}
1000
GRLI
1070
     9
1000
5
1002
{
1000
Class
1070
     4
1000
SYM
1002
{
1002
}
1000
Color
1070
     1
1070
   256
1002
{
1002
}
1000
LType
1070
     4
1000
BYLAYER
1002
{
1002
}
1002
}
1000
GVLI
1070
     9
1000
4A
1002
{
1000
Class
1070
     4
1000

1002
{
1002
}
1000
Color
1070
     1
1070
   256
1002
{
1002
}
1000
LType
1070
     4
1000
BYLAYER
1002
{
1002
}
1002
}
1000
HATC
1070
     9
1000
8
1002
{
1000
Class
1070
     4
1000
HTC,BGD
1002
{
1002
}
1000
Color
1070
     1
1070
   256
1002
{
1002
}
1000
LType
1070
     4
1000
BYLAYER
1002
{
1002
}
1002
}
1000
HIDN
1070
     9
1000
3A
1002
{
1000
Class
1070
     4
1000
HID,BGD
1002
{
1002
}
1000
Color
1070
     1
1070
   256
1002
{
1002
}
1000
LType
1070
     4
1000
BYLAYER
1002
{
1002
}
1002
}
1000
HIDW
1070
     9
1000
3
1002
{
1000
Class
1070
     4
1000
HID,BGD
1002
{
1002
}
1000
Color
1070
     1
1070
   256
1002
{
1002
}
1000
LType
1070
     4
1000
BYLAYER
1002
{
1002
}
1002
}
1000
HLIN
1070
     9
1000
4
1002
{
1000
Class
1070
     4
1000
BGD
1002
{
1002
}
1000
Color
1070
     1
1070
   256
1002
{
1002
}
1000
LType
1070
     4
1000
BYLAYER
1002
{
1002
}
1002
}
1000
HOCN
1070
     9
1000
7A
1002
{
1000
Class
1070
     4
1000
CEN
1002
{
1002
}
1000
Color
1070
     1
1070
   256
1002
{
1002
}
1000
LType
1070
     4
1000
BYLAYER
1002
{
1002
}
1002
}
1000
HOCW
1070
     9
1000
7
1002
{
1000
Class
1070
     4
1000
CEN
1002
{
1002
}
1000
Color
1070
     1
1070
   256
1002
{
1002
}
1000
LType
1070
     4
1000
BYLAYER
1002
{
1002
}
1002
}
1000
INFO
1070
     9
1000
INFO
1002
{
1000
Class
1070
     4
1000
SPZ,SYM
1002
{
1002
}
1000
Color
1070
     1
1070
   256
1002
{
1002
}
1000
LType
1070
     4
1000
BYLAYER
1002
{
1002
}
1002
}
1000
LADI
1070
     9
1000
4
1002
{
1000
Class
1070
     4
1000
BGD
1002
{
1002
}
1000
Color
1070
     1
1070
   256
1002
{
1002
}
1000
LType
1070
     4
1000
BYLAYER
1002
{
1002
}
1002
}
1000
LEAD
1070
     9
1000
5
1002
{
1000
Class
1070
     4
1000
SYM
1002
{
1002
}
1000
Color
1070
     1
1070
   256
1002
{
1002
}
1000
LType
1070
     4
1000
BYLAYER
1002
{
1002
}
1002
}
1000
N_ADDL
1070
     9
1000
5N
1002
{
1000
Class
1070
     4
1000
SYM
1002
{
1002
}
1000
Color
1070
     1
1070
     1
1002
{
1002
}
1000
LType
1070
     4
1000
BYLAYER
1002
{
1002
}
1002
}
1000
N_BHNV
1070
     9
1000
9N
1002
{
1000
Class
1070
     4
1000
INV
1002
{
1002
}
1000
Color
1070
     1
1070
   256
1002
{
1002
}
1000
LType
1070
     4
1000
BYLAYER
1002
{
1002
}
1002
}
1000
N_CON1
1070
     9
1000
0N
1002
{
1000
Class
1070
     4
1000
CON,BGD
1002
{
1002
}
1000
Color
1070
     1
1070
   256
1002
{
1002
}
1000
LType
1070
     4
1000
BYLAYER
1002
{
1002
}
1002
}
1000
N_CON2
1070
     9
1000
1N
1002
{
1000
Class
1070
     4
1000
CON,BGD
1002
{
1002
}
1000
Color
1070
     1
1070
   256
1002
{
1002
}
1000
LType
1070
     4
1000
BYLAYER
1002
{
1002
}
1002
}
1000
N_CON3
1070
     9
1000
2N
1002
{
1000
Class
1070
     4
1000
CON,BGD
1002
{
1002
}
1000
Color
1070
     1
1070
   256
1002
{
1002
}
1000
LType
1070
     4
1000
BYLAYER
1002
{
1002
}
1002
}
1000
N_CON4
1070
     9
1000
2N
1002
{
1000
Class
1070
     4
1000
CON,BGD
1002
{
1002
}
1000
Color
1070
     1
1070
   256
1002
{
1002
}
1000
LType
1070
     4
1000
BYLAYER
1002
{
1002
}
1002
}
1000
N_CENN
1070
     9
1000
7AN
1002
{
1000
Class
1070
     4
1000
CEN
1002
{
1002
}
1000
Color
1070
     1
1070
   256
1002
{
1002
}
1000
LType
1070
     4
1000
BYLAYER
1002
{
1002
}
1002
}
1000
N_CENW
1070
     9
1000
7N
1002
{
1000
Class
1070
     4
1000
CEN
1002
{
1002
}
1000
Color
1070
     1
1070
   256
1002
{
1002
}
1000
LType
1070
     4
1000
BYLAYER
1002
{
1002
}
1002
}
1000
N_DILI
1070
     9
1000
5N
1002
{
1000
Class
1070
     4
1000
DIM,SYM
1002
{
1002
}
1000
Color
1070
     1
1070
   256
1002
{
1002
}
1000
LType
1070
     4
1000
BYLAYER
1002
{
1002
}
1002
}
1000
N_DITX
1070
     9
1000
5N
1002
{
1000
Class
1070
     4
1000
DIM,SYM
1002
{
1002
}
1000
Color
1070
     1
1070
     2
1002
{
1002
}
1000
LType
1070
     4
1000
CONTINUOUS
1002
{
1002
}
1002
}
1000
N_DIXL
1070
     9
1000
5N
1002
{
1000
Class
1070
     4
1000
DIM,SYM
1002
{
1002
}
1000
Color
1070
     1
1070
   256
1002
{
1002
}
1000
LType
1070
     4
1000
BYLAYER
1002
{
1002
}
1002
}
1000
N_HATC
1070
     9
1000
8N
1002
{
1000
Class
1070
     4
1000
HTC,BGD
1002
{
1002
}
1000
Color
1070
     1
1070
   256
1002
{
1002
}
1000
LType
1070
     4
1000
BYLAYER
1002
{
1002
}
1002
}
1000
N_HIDN
1070
     9
1000
3AN
1002
{
1000
Class
1070
     4
1000
HID,BGD
1002
{
1002
}
1000
Color
1070
     1
1070
   256
1002
{
1002
}
1000
LType
1070
     4
1000
BYLAYER
1002
{
1002
}
1002
}
1000
N_HIDW
1070
     9
1000
3N
1002
{
1000
Class
1070
     4
1000
HID,BGD
1002
{
1002
}
1000
Color
1070
     1
1070
   256
1002
{
1002
}
1000
LType
1070
     4
1000
BYLAYER
1002
{
1002
}
1002
}
1000
N_NGIP
1070
     9
1000
IPN
1002
{
1000
Class
1070
     4
1000

1002
{
1002
}
1000
Color
1070
     1
1070
   256
1002
{
1002
}
1000
LType
1070
     4
1000
BYLAYER
1002
{
1002
}
1002
}
1000
N_PHAN
1070
     9
1000
4AN
1002
{
1000
Class
1070
     4
1000

1002
{
1002
}
1000
Color
1070
     1
1070
   256
1002
{
1002
}
1000
LType
1070
     4
1000
BYLAYER
1002
{
1002
}
1002
}
1000
N_POSL
1070
     9
1000
5N
1002
{
1000
Class
1070
     4
1000
SYM
1002
{
1002
}
1000
Color
1070
     1
1070
   256
1002
{
1002
}
1000
LType
1070
     4
1000
BYLAYER
1002
{
1002
}
1002
}
1000
N_TCON
1070
     9
1000
0N
1002
{
1000
Class
1070
     4
1000
CON,BGD
1002
{
1002
}
1000
Color
1070
     1
1070
   256
1002
{
1002
}
1000
LType
1070
     4
1000
BYLAYER
1002
{
1002
}
1002
}
1000
N_THLI
1070
     9
1000
4N
1002
{
1000
Class
1070
     4
1000
BGD
1002
{
1002
}
1000
Color
1070
     1
1070
   256
1002
{
1002
}
1000
LType
1070
     4
1000
BYLAYER
1002
{
1002
}
1002
}
1000
N_TLEN
1070
     9
1000
0N
1002
{
1000
Class
1070
     4
1000
CON,BGD
1002
{
1002
}
1000
Color
1070
     1
1070
   256
1002
{
1002
}
1000
LType
1070
     4
1000
BYLAYER
1002
{
1002
}
1002
}
1000
N_TXT3
1070
     9
1000
6N
1002
{
1000
Class
1070
     4
1000
SYM
1002
{
1002
}
1000
Color
1070
     1
1070
   256
1002
{
1002
}
1000
LType
1070
     4
1000
BYLAYER
1002
{
1002
}
1002
}
1000
N_VPLI
1070
     9
1000
2AN
1002
{
1000
Class
1070
     4
1000

1002
{
1002
}
1000
Color
1070
     1
1070
   256
1002
{
1002
}
1000
LType
1070
     4
1000
BYLAYER
1002
{
1002
}
1002
}
1000
NGIP
1070
     9
1000
IP
1002
{
1000
Class
1070
     4
1000

1002
{
1002
}
1000
Color
1070
     1
1070
   256
1002
{
1002
}
1000
LType
1070
     4
1000
BYLAYER
1002
{
1002
}
1002
}
1000
PAL2
1070
     9
1000
RAHM2
1002
{
1000
Class
1070
     4
1000
SPZ,SYM
1002
{
1002
}
1000
Color
1070
     1
1070
   256
1002
{
1002
}
1000
LType
1070
     4
1000
BYLAYER
1002
{
1002
}
1002
}
1000
PAL3
1070
     9
1000
RAHM3
1002
{
1000
Class
1070
     4
1000
SPZ,SYM
1002
{
1002
}
1000
Color
1070
     1
1070
   256
1002
{
1002
}
1000
LType
1070
     4
1000
BYLAYER
1002
{
1002
}
1002
}
1000
PAL5
1070
     9
1000
RAHM5
1002
{
1000
Class
1070
     4
1000
SPZ,SYM
1002
{
1002
}
1000
Color
1070
     1
1070
   256
1002
{
1002
}
1000
LType
1070
     4
1000
BYLAYER
1002
{
1002
}
1002
}
1000
PAL7
1070
     9
1000
RAHM5
1002
{
1000
Class
1070
     4
1000
SPZ,SYM
1002
{
1002
}
1000
Color
1070
     1
1070
     7
1002
{
1002
}
1000
LType
1070
     4
1000
CONTINUOUS
1002
{
1002
}
1002
}
1000
PHAN
1070
     9
1000
4A
1002
{
1000
Class
1070
     4
1000

1002
{
1002
}
1000
Color
1070
     1
1070
   256
1002
{
1002
}
1000
LType
1070
     4
1000
BYLAYER
1002
{
1002
}
1002
}
1000
POSL
1070
     9
1000
5
1002
{
1000
Class
1070
     4
1000
SYM
1002
{
1002
}
1000
Color
1070
     1
1070
   256
1002
{
1002
}
1000
LType
1070
     4
1000
BYLAYER
1002
{
1002
}
1002
}
1000
POSN
1070
     9
1000
6
1002
{
1000
Class
1070
     4
1000
SYM
1002
{
1002
}
1000
Color
1070
     1
1070
     7
1002
{
1002
}
1000
LType
1070
     4
1000
BYLAYER
1002
{
1002
}
1002
}
1000
POSREF
1070
     9
1000
6
1002
{
1000
Class
1070
     4
1000
SYM
1002
{
1002
}
1000
Color
1070
     1
1070
     5
1002
{
1002
}
1000
LType
1070
     4
1000
BYLAYER
1002
{
1002
}
1002
}
1000
POSX
1070
     9
1000
5
1002
{
1000
Class
1070
     4
1000
SYM
1002
{
1002
}
1000
Color
1070
     1
1070
     2
1002
{
1002
}
1000
LType
1070
     4
1000
CONTINUOUS
1002
{
1002
}
1002
}
1000
PSEC
1070
     9
1000
4A
1002
{
1000
Class
1070
     4
1000

1002
{
1002
}
1000
Color
1070
     1
1070
   256
1002
{
1002
}
1000
LType
1070
     4
1000
BYLAYER
1002
{
1002
}
1002
}
1000
RCGN
1070
     9
1000
7A
1002
{
1000
Class
1070
     4
1000
CEN
1002
{
1002
}
1000
Color
1070
     1
1070
   256
1002
{
1002
}
1000
LType
1070
     4
1000
BYLAYER
1002
{
1002
}
1002
}
1000
RCGW
1070
     9
1000
7
1002
{
1000
Class
1070
     4
1000
CEN
1002
{
1002
}
1000
Color
1070
     1
1070
   256
1002
{
1002
}
1000
LType
1070
     4
1000
BYLAYER
1002
{
1002
}
1002
}
1000
RFDI
1070
     9
1000
4
1002
{
1000
Class
1070
     4
1000
BGD
1002
{
1002
}
1000
Color
1070
     1
1070
   256
1002
{
1002
}
1000
LType
1070
     4
1000
BYLAYER
1002
{
1002
}
1002
}
1000
RQTR
1070
     9
1000
4
1002
{
1000
Class
1070
     4
1000

1002
{
1002
}
1000
Color
1070
     1
1070
     7
1002
{
1002
}
1000
LType
1070
     4
1000
GEN7A
1002
{
1002
}
1002
}
1000
RSBO
1070
     9
1000
4
1002
{
1000
Class
1070
     4
1000
BGD
1002
{
1002
}
1000
Color
1070
     1
1070
   256
1002
{
1002
}
1000
LType
1070
     4
1000
BYLAYER
1002
{
1002
}
1002
}
1000
SBRK
1070
     9
1000
4
1002
{
1000
Class
1070
     4
1000
BGD
1002
{
1002
}
1000
Color
1070
     1
1070
   256
1002
{
1002
}
1000
LType
1070
     4
1000
BYLAYER
1002
{
1002
}
1002
}
1000
SCEN
1070
     9
1000
7
1002
{
1000
Class
1070
     4
1000

1002
{
1002
}
1000
Color
1070
     1
1070
   256
1002
{
1002
}
1000
LType
1070
     4
1000
CONTINUOUS
1002
{
1002
}
1002
}
1000
SECT
1070
     9
1000
4
1002
{
1000
Class
1070
     4
1000
BGD
1002
{
1002
}
1000
Color
1070
     1
1070
   256
1002
{
1002
}
1000
LType
1070
     4
1000
BYLAYER
1002
{
1002
}
1002
}
1000
SELN
1070
     9
1000
7A
1002
{
1000
Class
1070
     4
1000

1002
{
1002
}
1000
Color
1070
     1
1070
   256
1002
{
1002
}
1000
LType
1070
     4
1000
BYLAYER
1002
{
1002
}
1002
}
1000
SELW
1070
     9
1000
7
1002
{
1000
Class
1070
     4
1000

1002
{
1002
}
1000
Color
1070
     1
1070
   256
1002
{
1002
}
1000
LType
1070
     4
1000
BYLAYER
1002
{
1002
}
1002
}
1000
SSYS
1070
     9
1000
0
1002
{
1000
Class
1070
     4
1000

1002
{
1002
}
1000
Color
1070
     1
1070
   256
1002
{
1002
}
1000
LType
1070
     4
1000
BYLAYER
1002
{
1002
}
1002
}
1000
STLI
1070
     9
1000
4
1002
{
1000
Class
1070
     4
1000

1002
{
1002
}
1000
Color
1070
     1
1070
     7
1002
{
1002
}
1000
LType
1070
     4
1000
GEN3A
1002
{
1002
}
1002
}
1000
SYB1
1070
     9
1000
5
1002
{
1000
Class
1070
     4
1000
SYM
1002
{
1002
}
1000
Color
1070
     1
1070
   256
1002
{
1002
}
1000
LType
1070
     4
1000
BYLAYER
1002
{
1002
}
1002
}
1000
SYB2
1070
     9
1000
5
1002
{
1000
Class
1070
     4
1000
SYM
1002
{
1002
}
1000
Color
1070
     1
1070
   256
1002
{
1002
}
1000
LType
1070
     4
1000
BYLAYER
1002
{
1002
}
1002
}
1000
SYB3
1070
     9
1000
6
1002
{
1000
Class
1070
     4
1000
SYM
1002
{
1002
}
1000
Color
1070
     1
1070
   256
1002
{
1002
}
1000
LType
1070
     4
1000
CONTINUOUS
1002
{
1002
}
1002
}
1000
SYB5
1070
     9
1000
5
1002
{
1000
Class
1070
     4
1000
SYM
1002
{
1002
}
1000
Color
1070
     1
1070
     7
1002
{
1002
}
1000
LType
1070
     4
1000
BYLAYER
1002
{
1002
}
1002
}
1000
SYMN
1070
     9
1000
7A
1002
{
1000
Class
1070
     4
1000
CEN
1002
{
1002
}
1000
Color
1070
     1
1070
   256
1002
{
1002
}
1000
LType
1070
     4
1000
BYLAYER
1002
{
1002
}
1002
}
1000
SYMW
1070
     9
1000
7
1002
{
1000
Class
1070
     4
1000
CEN
1002
{
1002
}
1000
Color
1070
     1
1070
   256
1002
{
1002
}
1000
LType
1070
     4
1000
BYLAYER
1002
{
1002
}
1002
}
1000
TCON
1070
     9
1000
0
1002
{
1000
Class
1070
     4
1000
CON,BGD
1002
{
1002
}
1000
Color
1070
     1
1070
   256
1002
{
1002
}
1000
LType
1070
     4
1000
BYLAYER
1002
{
1002
}
1002
}
1000
THLI
1070
     9
1000
4
1002
{
1000
Class
1070
     4
1000
BGD
1002
{
1002
}
1000
Color
1070
     1
1070
   256
1002
{
1002
}
1000
LType
1070
     4
1000
BYLAYER
1002
{
1002
}
1002
}
1000
TIT2
1070
     9
1000
RAHM2
1002
{
1000
Class
1070
     4
1000
SPZ,SYM
1002
{
1002
}
1000
Color
1070
     1
1070
   256
1002
{
1002
}
1000
LType
1070
     4
1000
BYLAYER
1002
{
1002
}
1002
}
1000
TIT3
1070
     9
1000
RAHM3
1002
{
1000
Class
1070
     4
1000
SPZ,SYM
1002
{
1002
}
1000
Color
1070
     1
1070
   256
1002
{
1002
}
1000
LType
1070
     4
1000
BYLAYER
1002
{
1002
}
1002
}
1000
TIT5
1070
     9
1000
RAHM5
1002
{
1000
Class
1070
     4
1000
SPZ,SYM
1002
{
1002
}
1000
Color
1070
     1
1070
   256
1002
{
1002
}
1000
LType
1070
     4
1000
BYLAYER
1002
{
1002
}
1002
}
1000
TIT7
1070
     9
1000
RAHM5
1002
{
1000
Class
1070
     4
1000
SPZ,SYM
1002
{
1002
}
1000
Color
1070
     1
1070
     7
1002
{
1002
}
1000
LType
1070
     4
1000
CONTINUOUS
1002
{
1002
}
1002
}
1000
TLEN
1070
     9
1000
0
1002
{
1000
Class
1070
     4
1000
CON,BGD
1002
{
1002
}
1000
Color
1070
     1
1070
   256
1002
{
1002
}
1000
LType
1070
     4
1000
BYLAYER
1002
{
1002
}
1002
}
1000
TRKN
1070
     9
1000
7A
1002
{
1000
Class
1070
     4
1000

1002
{
1002
}
1000
Color
1070
     1
1070
   256
1002
{
1002
}
1000
LType
1070
     4
1000
BYLAYER
1002
{
1002
}
1002
}
1000
TRKW
1070
     9
1000
7
1002
{
1000
Class
1070
     4
1000

1002
{
1002
}
1000
Color
1070
     1
1070
   256
1002
{
1002
}
1000
LType
1070
     4
1000
BYLAYER
1002
{
1002
}
1002
}
1000
TRLI
1070
     9
1000
4
1002
{
1000
Class
1070
     4
1000
BGD
1002
{
1002
}
1000
Color
1070
     1
1070
   256
1002
{
1002
}
1000
LType
1070
     4
1000
BYLAYER
1002
{
1002
}
1002
}
1000
TXT1
1070
     9
1000
6
1002
{
1000
Class
1070
     4
1000
SYM
1002
{
1002
}
1000
Color
1070
     1
1070
     2
1002
{
1002
}
1000
LType
1070
     4
1000
BYLAYER
1002
{
1002
}
1002
}
1000
TXT2
1070
     9
1000
6
1002
{
1000
Class
1070
     4
1000
SYM
1002
{
1002
}
1000
Color
1070
     1
1070
     2
1002
{
1002
}
1000
LType
1070
     4
1000
BYLAYER
1002
{
1002
}
1002
}
1000
TXT3
1070
     9
1000
6
1002
{
1000
Class
1070
     4
1000
SYM
1002
{
1002
}
1000
Color
1070
     1
1070
   256
1002
{
1002
}
1000
LType
1070
     4
1000
BYLAYER
1002
{
1002
}
1002
}
1000
TXT5
1070
     9
1000
6
1002
{
1000
Class
1070
     4
1000
SYM
1002
{
1002
}
1000
Color
1070
     1
1070
     7
1002
{
1002
}
1000
LType
1070
     4
1000
BYLAYER
1002
{
1002
}
1002
}
1000
TXT7
1070
     9
1000
6
1002
{
1000
Class
1070
     4
1000
SYM
1002
{
1002
}
1000
Color
1070
     1
1070
     7
1002
{
1002
}
1000
LType
1070
     4
1000
BYLAYER
1002
{
1002
}
1002
}
1000
VIEW
1070
     9
1000
VIEW
1002
{
1000
Class
1070
     4
1000
SPZ
1002
{
1002
}
1000
Color
1070
     1
1070
   256
1002
{
1002
}
1000
LType
1070
     4
1000
BYLAYER
1002
{
1002
}
1002
}
1000
VPLI
1070
     9
1000
2A
1002
{
1000
Class
1070
     4
1000

1002
{
1002
}
1000
Color
1070
     1
1070
   256
1002
{
1002
}
1000
LType
1070
     4
1000
BYLAYER
1002
{
1002
}
1002
}
1000
ZIZA
1070
     9
1000
4
1002
{
1000
Class
1070
     4
1000
BGD
1002
{
1002
}
1000
Color
1070
     1
1070
   256
1002
{
1002
}
1000
LType
1070
     4
1000
GENZIGZAG
1002
{
1002
}
1002
}
  0
APPID
  5
1DA3
330
1D58
100
AcDbSymbolTableRecord
100
AcDbRegAppTableRecord
  2
GENIUS_GENCFG4_13
 70
     0
1001
GENIUS_GENCFG_13
1071
955963050
1000
1DA3
1000
GEN
1070
     9
1000
GenCfgObject
1000
GenCfgShort
1000
GenCfgReal
1000
GenCfgBool
1000
GenCfgString
1000
GenCfgDim
1000
GenCfgLaySection
1000
GenCfgLType
1000
GenCfgFilter
1000
Balloon
1070
     0
1002
{
1000
GenIF
1070
     1
1070
     0
1002
{
1002
}
1000
GenPosInc
1070
     1
1070
     1
1002
{
1002
}
1000
GenPosBlk
1070
     1
1070
     8
1002
{
1002
}
1000
GenPosVar
1070
     1
1070
     0
1002
{
1002
}
1000
GenZiCir
1070
     2
1040
1.5
1002
{
1002
}
1000
MaxCharForCenteredText
1070
     1
1070
    30
1002
{
1002
}
1000
Snap
1070
     0
1002
{
1000
ActivationRadius
1070
     2
1040
1.0
1002
{
1002
}
1000
M
1070
     0
1002
{
1000
SnapStepX
1070
     2
1040
20.0
1002
{
1002
}
1000
SnapStepY
1070
     2
1040
10.0
1002
{
1002
}
1002
}
1000
I
1070
     0
1002
{
1000
SnapStepX
1070
     2
1040
1.0
1002
{
1002
}
1000
SnapStepY
1070
     2
1040
0.5
1002
{
1002
}
1002
}
1002
}
1002
}
1000
Centerline
1070
     0
1002
{
1000
ScaleNot
1070
     3
1070
     0
1002
{
1002
}
1000
M
1070
     0
1002
{
1000
GenCenAng
1070
     4
1000
45|90|135
1002
{
1002
}
1000
GenCenDia
1070
     2
1040
10.0
1002
{
1002
}
1000
GenCenDias
1070
     4
1000
10|20|30
1002
{
1002
}
1000
GenCenDist
1070
     2
1040
3.0
1002
{
1002
}
1000
GenCenLen
1070
     2
1040
10.0
1002
{
1002
}
1000
GenCenOff
1070
     2
1040
10.0
1002
{
1002
}
1002
}
1000
I
1070
     0
1002
{
1000
GenCenAng
1070
     4
1000
45|90|135
1002
{
1002
}
1000
GenCenDia
1070
     2
1040
0.5
1002
{
1002
}
1000
GenCenDias
1070
     4
1000
0.5|1.0|1.5
1002
{
1002
}
1000
GenCenDist
1070
     2
1040
0.125
1002
{
1002
}
1000
GenCenLen
1070
     2
1040
0.5
1002
{
1002
}
1000
GenCenOff
1070
     2
1040
0.5
1002
{
1002
}
1002
}
1002
}
1000
CLine
1070
     0
1002
{
1000
CAngArray
1070
     4
1000
30|45|60
1002
{
1002
}
1000
Typ
1070
     4
1000
XLINE
1002
{
1002
}
1000
M
1070
     0
1002
{
1000
CLinArray
1070
     4
1000
10|20|30
1002
{
1002
}
1002
}
1000
I
1070
     0
1002
{
1000
CLinArray
1070
     4
1000
0.125|0.25|0.5
1002
{
1002
}
1002
}
1002
}
1000
Detail
1070
     0
1002
{
1002
}
1000
Dimension
1070
     5
1002
{
1000
DIMALT
1070
     1
1070
     0
1002
{
1002
}
1000
DIMALTD
1070
     1
1070
     2
1002
{
1002
}
1000
DIMALTTD
1070
     1
1070
     4
1002
{
1002
}
1000
DIMALTTZ
1070
     1
1070
     0
1002
{
1002
}
1000
DIMALTU
1070
     1
1070
     2
1002
{
1002
}
1000
DIMALTZ
1070
     1
1070
     0
1002
{
1002
}
1000
DIMAUNIT
1070
     1
1070
     0
1002
{
1002
}
1000
DIMBLK
1070
     4
1000

1002
{
1002
}
1000
DIMBLK1
1070
     4
1000

1002
{
1002
}
1000
DIMBLK2
1070
     4
1000

1002
{
1002
}
1000
DIMCLRD
1070
     1
1070
   256
1002
{
1002
}
1000
DIMCLRE
1070
     1
1070
   256
1002
{
1002
}
1000
DIMCLRT
1070
     1
1070
     2
1002
{
1002
}
1000
DIMDLE
1070
     2
1040
0.0
1002
{
1002
}
1000
DIMFIT
1070
     1
1070
     3
1002
{
1002
}
1000
DIMJUST
1070
     1
1070
     0
1002
{
1002
}
1000
DIMLFAC
1070
     2
1040
1.0
1002
{
1002
}
1000
DIMLIM
1070
     1
1070
     0
1002
{
1002
}
1000
DIMPOST
1070
     4
1000

1002
{
1002
}
1000
DIMRND
1070
     2
1040
0.0
1002
{
1002
}
1000
DIMSAH
1070
     1
1070
     0
1002
{
1002
}
1000
DIMSCALE
1070
     2
1040
1.0
1002
{
1002
}
1000
DIMSD1
1070
     1
1070
     0
1002
{
1002
}
1000
DIMSD2
1070
     1
1070
     0
1002
{
1002
}
1000
DIMSE1
1070
     1
1070
     0
1002
{
1002
}
1000
DIMSE2
1070
     1
1070
     0
1002
{
1002
}
1000
DIMSOXD
1070
     1
1070
     0
1002
{
1002
}
1000
DIMTAD
1070
     1
1070
     0
1002
{
1002
}
1000
DIMTFAC
1070
     2
1040
0.71
1002
{
1002
}
1000
DIMTIH
1070
     1
1070
     0
1002
{
1002
}
1000
DIMTIX
1070
     1
1070
     0
1002
{
1002
}
1000
DIMTM
1070
     2
1040
0.1
1002
{
1002
}
1000
DIMTOFL
1070
     1
1070
     0
1002
{
1002
}
1000
DIMTOH
1070
     1
1070
     0
1002
{
1002
}
1000
DIMTOL
1070
     1
1070
     0
1002
{
1002
}
1000
DIMTOLJ
1070
     1
1070
     1
1002
{
1002
}
1000
DIMTP
1070
     2
1040
0.1
1002
{
1002
}
1000
DIMTSZ
1070
     2
1040
0.0
1002
{
1002
}
1000
DIMTVP
1070
     2
1040
0.0
1002
{
1002
}
1000
DIMTXSTY
1070
     4
1000
STANDARD
1002
{
1002
}
1000
DIMTZIN
1070
     1
1070
     0
1002
{
1002
}
1000
DIMUNIT
1070
     1
1070
     2
1002
{
1002
}
1000
DIMUPT
1070
     1
1070
     0
1002
{
1002
}
1000
M
1070
     0
1002
{
1000
DIMALTF
1070
     2
1040
0.0393701
1002
{
1002
}
1000
DIMAPOST
1070
     4
1000
"
1002
{
1002
}
1000
DIMASZ
1070
     2
1040
2.5
1002
{
1002
}
1000
DIMCEN
1070
     2
1040
0.0
1002
{
1002
}
1000
DIMDEC
1070
     1
1070
     2
1002
{
1002
}
1000
DIMDLI
1070
     2
1040
7.0
1002
{
1002
}
1000
DIMEXE
1070
     2
1040
1.0
1002
{
1002
}
1000
DIMEXO
1070
     2
1040
1.0
1002
{
1002
}
1000
DIMGAP
1070
     2
1040
0.6
1002
{
1002
}
1000
DIMTDEC
1070
     1
1070
     3
1002
{
1002
}
1000
DIMTXT
1070
     2
1040
3.5
1002
{
1002
}
1000
DIMZIN
1070
     1
1070
     8
1002
{
1002
}
1002
}
1000
I
1070
     0
1002
{
1000
DIMALTF
1070
     2
1040
25.4
1002
{
1002
}
1000
DIMAPOST
1070
     4
1000
mm
1002
{
1002
}
1000
DIMASZ
1070
     2
1040
0.1
1002
{
1002
}
1000
DIMCEN
1070
     2
1040
0.0
1002
{
1002
}
1000
DIMDEC
1070
     1
1070
     4
1002
{
1002
}
1000
DIMDLI
1070
     2
1040
0.5
1002
{
1002
}
1000
DIMEXE
1070
     2
1040
0.1
1002
{
1002
}
1000
DIMEXO
1070
     2
1040
0.05
1002
{
1002
}
1000
DIMGAP
1070
     2
1040
0.06
1002
{
1002
}
1000
DIMTDEC
1070
     1
1070
     4
1002
{
1002
}
1000
DIMTXT
1070
     2
1040
0.12
1002
{
1002
}
1000
DIMZIN
1070
     1
1070
     7
1002
{
1002
}
1002
}
1000
GEN-ISO
1070
     5
1002
{
1000
NAME
1070
     4
1000
GEN-ISO
1002
{
1002
}
1000
DIMTAD
1070
     1
1070
     1
1002
{
1002
}
1000
DIMTOLJ
1070
     1
1070
     0
1002
{
1002
}
1000
DIMTOFL
1070
     1
1070
     1
1002
{
1002
}
1000
M
1070
     0
1002
{
1002
}
1000
I
1070
     0
1002
{
1002
}
1002
}
1000
GEN-ISO-POS
1070
     5
1002
{
1000
NAME
1070
     4
1000
GEN-ISO-POS
1002
{
1002
}
1000
DIMTOLJ
1070
     1
1070
     0
1002
{
1002
}
1000
DIMTXSTY
1070
     4
1000
STANDARD
1002
{
1002
}
1000
M
1070
     0
1002
{
1000
DIMASZ
1070
     2
1040
2.5
1002
{
1002
}
1000
DIMGAP
1070
     2
1040
1.5
1002
{
1002
}
1000
DIMTXT
1070
     2
1040
5.0
1002
{
1002
}
1002
}
1000
I
1070
     0
1002
{
1000
DIMASZ
1070
     2
1040
0.1
1002
{
1002
}
1000
DIMGAP
1070
     2
1040
0.06
1002
{
1002
}
1000
DIMTXT
1070
     2
1040
0.2
1002
{
1002
}
1002
}
1002
}
1000
GEN-ISO-CIR
1070
     5
1002
{
1000
NAME
1070
     4
1000
GEN-ISO$3
1002
{
1002
}
1000
DIMFIT
1070
     1
1070
     0
1002
{
1002
}
1000
DIMTAD
1070
     1
1070
     1
1002
{
1002
}
1000
DIMTOH
1070
     1
1070
     1
1002
{
1002
}
1000
DIMTOLJ
1070
     1
1070
     0
1002
{
1002
}
1000
DIMUPT
1070
     1
1070
     1
1002
{
1002
}
1000
M
1070
     0
1002
{
1002
}
1000
I
1070
     0
1002
{
1002
}
1002
}
1000
GEN-ISO-RAD
1070
     5
1002
{
1000
NAME
1070
     4
1000
GEN-ISO$4
1002
{
1002
}
1000
DIMFIT
1070
     1
1070
     0
1002
{
1002
}
1000
DIMTAD
1070
     1
1070
     1
1002
{
1002
}
1000
DIMTIH
1070
     1
1070
     0
1002
{
1002
}
1000
DIMTIX
1070
     1
1070
     0
1002
{
1002
}
1000
DIMTOH
1070
     1
1070
     1
1002
{
1002
}
1000
DIMTOLJ
1070
     1
1070
     0
1002
{
1002
}
1000
DIMTOFL
1070
     1
1070
     0
1002
{
1002
}
1000
DIMUPT
1070
     1
1070
     1
1002
{
1002
}
1000
M
1070
     0
1002
{
1002
}
1000
I
1070
     0
1002
{
1002
}
1002
}
1000
GEN-ISO-ORD
1070
     5
1002
{
1000
NAME
1070
     4
1000
GEN-ISO$6
1002
{
1002
}
1000
DIMTOLJ
1070
     1
1070
     0
1002
{
1002
}
1000
M
1070
     0
1002
{
1002
}
1000
I
1070
     0
1002
{
1002
}
1002
}
1000
GEN-ISO-AXE-F
1070
     5
1002
{
1000
NAME
1070
     4
1000
GEN-ISO-AXE-F
1002
{
1002
}
1000
DIMSE1
1070
     1
1070
     1
1002
{
1002
}
1000
DIMSE2
1070
     1
1070
     1
1002
{
1002
}
1000
DIMTAD
1070
     1
1070
     1
1002
{
1002
}
1000
DIMTOLJ
1070
     1
1070
     0
1002
{
1002
}
1000
DIMTOFL
1070
     1
1070
     1
1002
{
1002
}
1000
M
1070
     0
1002
{
1002
}
1000
I
1070
     0
1002
{
1002
}
1002
}
1000
GEN-ISO-AXE-H
1070
     5
1002
{
1000
NAME
1070
     4
1000
GEN-ISO-AXE-H
1002
{
1002
}
1000
DIMBLK1
1070
     4
1000
GENAXEH
1002
{
1002
}
1000
DIMLFAC
1070
     2
1040
2.0
1002
{
1002
}
1000
DIMSAH
1070
     1
1070
     1
1002
{
1002
}
1000
DIMSE1
1070
     1
1070
     1
1002
{
1002
}
1000
DIMSE2
1070
     1
1070
     1
1002
{
1002
}
1000
DIMTAD
1070
     1
1070
     1
1002
{
1002
}
1000
DIMTOLJ
1070
     1
1070
     0
1002
{
1002
}
1000
DIMTOFL
1070
     1
1070
     1
1002
{
1002
}
1000
M
1070
     0
1002
{
1002
}
1000
I
1070
     0
1002
{
1002
}
1002
}
1000
GEN-ANSI
1070
     5
1002
{
1000
NAME
1070
     4
1000
GEN-ANSI
1002
{
1002
}
1000
DIMTIH
1070
     1
1070
     1
1002
{
1002
}
1000
DIMTOH
1070
     1
1070
     1
1002
{
1002
}
1000
DIMTAD
1070
     1
1070
     0
1002
{
1002
}
1000
DIMTOLJ
1070
     1
1070
     1
1002
{
1002
}
1000
M
1070
     0
1002
{
1002
}
1000
I
1070
     0
1002
{
1002
}
1002
}
1000
GEN-ANSI-POS
1070
     5
1002
{
1000
NAME
1070
     4
1000
GEN-ANSI-POS
1002
{
1002
}
1000
DIMTOLJ
1070
     1
1070
     1
1002
{
1002
}
1000
DIMTXSTY
1070
     4
1000
STANDARD
1002
{
1002
}
1000
M
1070
     0
1002
{
1000
DIMASZ
1070
     2
1040
2.5
1002
{
1002
}
1000
DIMGAP
1070
     2
1040
1.5
1002
{
1002
}
1000
DIMTXT
1070
     2
1040
5.0
1002
{
1002
}
1002
}
1000
I
1070
     0
1002
{
1000
DIMASZ
1070
     2
1040
0.1
1002
{
1002
}
1000
DIMGAP
1070
     2
1040
0.06
1002
{
1002
}
1000
DIMTXT
1070
     2
1040
0.2
1002
{
1002
}
1002
}
1002
}
1000
GEN-ANSI-CIR
1070
     5
1002
{
1000
NAME
1070
     4
1000
GEN-ANSI$3
1002
{
1002
}
1000
DIMFIT
1070
     1
1070
     0
1002
{
1002
}
1000
DIMTAD
1070
     1
1070
     0
1002
{
1002
}
1000
DIMTIH
1070
     1
1070
     1
1002
{
1002
}
1000
DIMTIX
1070
     1
1070
     0
1002
{
1002
}
1000
DIMTOFL
1070
     1
1070
     0
1002
{
1002
}
1000
DIMTOH
1070
     1
1070
     1
1002
{
1002
}
1000
DIMTOLJ
1070
     1
1070
     1
1002
{
1002
}
1000
DIMUPT
1070
     1
1070
     1
1002
{
1002
}
1000
M
1070
     0
1002
{
1002
}
1000
I
1070
     0
1002
{
1002
}
1002
}
1000
GEN-ANSI-RAD
1070
     5
1002
{
1000
NAME
1070
     4
1000
GEN-ANSI$4
1002
{
1002
}
1000
DIMFIT
1070
     1
1070
     0
1002
{
1002
}
1000
DIMTAD
1070
     1
1070
     0
1002
{
1002
}
1000
DIMTIH
1070
     1
1070
     1
1002
{
1002
}
1000
DIMTIX
1070
     1
1070
     0
1002
{
1002
}
1000
DIMTOFL
1070
     1
1070
     0
1002
{
1002
}
1000
DIMTOH
1070
     1
1070
     1
1002
{
1002
}
1000
DIMTOLJ
1070
     1
1070
     1
1002
{
1002
}
1000
DIMUPT
1070
     1
1070
     1
1002
{
1002
}
1000
M
1070
     0
1002
{
1002
}
1000
I
1070
     0
1002
{
1002
}
1002
}
1000
GEN-ANSI-ORD
1070
     5
1002
{
1000
NAME
1070
     4
1000
GEN-ANSI$6
1002
{
1002
}
1000
DIMTAD
1070
     1
1070
     0
1002
{
1002
}
1000
DIMTIH
1070
     1
1070
     1
1002
{
1002
}
1000
DIMTOH
1070
     1
1070
     1
1002
{
1002
}
1000
DIMTOLJ
1070
     1
1070
     1
1002
{
1002
}
1000
M
1070
     0
1002
{
1002
}
1000
I
1070
     0
1002
{
1002
}
1002
}
1000
GEN-ANSI-AXE-F
1070
     5
1002
{
1000
NAME
1070
     4
1000
GEN-ANSI-AXE-F
1002
{
1002
}
1000
DIMBLK1
1070
     4
1000
GENAXEH
1002
{
1002
}
1000
DIMSAH
1070
     1
1070
     1
1002
{
1002
}
1000
DIMSE1
1070
     1
1070
     1
1002
{
1002
}
1000
DIMSE2
1070
     1
1070
     1
1002
{
1002
}
1000
DIMTAD
1070
     1
1070
     0
1002
{
1002
}
1000
DIMTIH
1070
     1
1070
     1
1002
{
1002
}
1000
DIMTOH
1070
     1
1070
     1
1002
{
1002
}
1000
DIMTOLJ
1070
     1
1070
     1
1002
{
1002
}
1000
M
1070
     0
1002
{
1002
}
1000
I
1070
     0
1002
{
1002
}
1002
}
1000
GEN-ANSI-AXE-H
1070
     5
1002
{
1000
NAME
1070
     4
1000
GEN-ANSI-AXE-H
1002
{
1002
}
1000
DIMBLK1
1070
     4
1000
GENAXEH
1002
{
1002
}
1000
DIMLFAC
1070
     2
1040
2.0
1002
{
1002
}
1000
DIMSAH
1070
     1
1070
     1
1002
{
1002
}
1000
DIMSE1
1070
     1
1070
     1
1002
{
1002
}
1000
DIMSE2
1070
     1
1070
     1
1002
{
1002
}
1000
DIMTAD
1070
     1
1070
     0
1002
{
1002
}
1000
DIMTOFL
1070
     1
1070
     1
1002
{
1002
}
1000
DIMTOLJ
1070
     1
1070
     1
1002
{
1002
}
1000
M
1070
     0
1002
{
1002
}
1000
I
1070
     0
1002
{
1002
}
1002
}
1002
}
1000
DimSet
1070
     0
1002
{
1000
ChainSum
1070
     3
1070
     0
1002
{
1002
}
1000
DimDclTyp0
1070
     4
1000
dim23
1002
{
1002
}
1000
HorBra
1070
     3
1070
     0
1002
{
1002
}
1000
StrDia
1070
     4
1000
%%c<>
1002
{
1002
}
1000
StrRad
1070
     4
1000
R<>
1002
{
1002
}
1000
TextMinus
1070
     4
1000
<>
1002
{
1002
}
1000
TextPlus
1070
     4
1000
<>
1002
{
1002
}
1000
M
1070
     0
1002
{
1000
DimdliFirst
1070
     2
1040
10.0
1002
{
1002
}
1000
PointMakeDist
1070
     2
1040
10.0
1002
{
1002
}
1002
}
1000
I
1070
     0
1002
{
1000
DimdliFirst
1070
     2
1040
0.5
1002
{
1002
}
1000
PointMakeDist
1070
     2
1040
0.5
1002
{
1002
}
1002
}
1000
FitGrade
1070
     4
1000
h7
1002
{
1002
}
1002
}
1000
Drawing
1070
     0
1002
{
1000
ChamferDimMode
1070
     1
1070
     2
1002
{
1002
}
1000
Gen_Fiso
1070
    -3
1040
1.0
1002
{
1002
}
1000
GenDimStil
1070
     4
1000
ISO
1002
{
1002
}
1000
GenDwgUScale
1070
     2
1040
1.0
1002
{
1002
}
1000
GenInch
1070
     4
1000
M
1002
{
1002
}
1000
GenPlotScale
1070
     4
1000
1:5
1002
{
1002
}
1000
Revisi
1070
     4
1000
0
1002
{
1002
}
1000
Version
1070
    -5
1000
14.01/Apr  1 1998
1002
{
1002
}
1000
Platform
1070
    -5
1000
WINNT
1002
{
1002
}
1002
}
1000
DwgVar
1070
     0
1002
{
1000
M
1070
     0
1002
{
1000
FILLETRAD
1070
     2
1040
0.000001
1002
{
1002
}
1002
}
1000
I
1070
     0
1002
{
1002
}
1002
}
1000
Hatch
1070
     0
1002
{
1000
GenHtcFlag
1070
     3
1070
     0
1002
{
1002
}
1002
}
1000
Info_Pos
1070
     0
1002
{
1000
>
1002
}
1000
Layer
1070
     6
1002
{
1000
Defs
1070
     0
1002
{
1000
>
1002
}
1000
EntSort
1070
     0
1002
{
1000
>
1002
}
1000
Match
1070
     0
1002
{
1002
}
1000
Settings
1070
     0
1002
{
1000
FocGrNC
1070
     3
1070
     0
1002
{
1002
}
1000
FocGrLo
1070
     3
1070
     0
1002
{
1002
}
1000
FocLoNC
1070
     3
1070
     0
1002
{
1002
}
1000
FocusCol
1070
     1
1070
   253
1002
{
1002
}
1000
GenStdLG
1070
     4
1000

1002
{
1002
}
1000
LayMatch
1070
     3
1070
     0
1002
{
1002
}
1000
LgOff
1070
     3
1070
     0
1002
{
1002
}
1000
CurLG
1070
    -5
1000

1002
{
1002
}
1002
}
1002
}
1000
LType
1070
     0
1002
{
1000
GEN3
1070
     7
1000
genius.lin
1002
{
1002
}
1000
GEN7
1070
     7
1000
genius.lin
1002
{
1002
}
1000
GEN4A
1070
     7
1000
genius.lin
1002
{
1002
}
1000
GEN3A
1070
     7
1000
genius.lin
1002
{
1002
}
1000
GEN7A
1070
     7
1000
genius.lin
1002
{
1002
}
1000
GENZIGZAG
1070
     7
1000
genius.lin
1002
{
1002
}
1002
}
1000
Objecter
1070
     0
1002
{
1000
CreateGroups
1070
     3
1070
     0
1002
{
1002
}
1000
LaySwitch
1070
     3
1070
     1
1002
{
1002
}
1000
LastObj
1070
    -5
1000
1E5B
1002
{
1002
}
1000
TimeStamp
1070
    -5
1000
20000417.11155909
1002
{
1002
}
1002
}
1000
OSWiz
1070
     0
1002
{
1000
Filter
1070
     0
1002
{
1000
HATCH
1070
     8
1002
{
1000
EntityType
1070
     4
1000
LINE
1002
{
1002
}
1000
Layer
1070
     4
1000
8,8N,*-8,*-8N
1002
{
1002
}
1000
Linetype
1070
     4
1000
*
1002
{
1002
}
1000
Color
1070
     4
1000
*
1002
{
1002
}
1000
ApplyInDims
1070
     3
1070
     1
1002
{
1002
}
1002
}
1000
SYMBOLS
1070
     8
1002
{
1000
EntityType
1070
     4
1000
*
1002
{
1002
}
1000
Layer
1070
     4
1000
[5-6],[5-6]N,*-[5-6],*-[5-6]N
1002
{
1002
}
1000
Linetype
1070
     4
1000
*
1002
{
1002
}
1000
Color
1070
     4
1000
*
1002
{
1002
}
1000
ApplyInDims
1070
     3
1070
     1
1002
{
1002
}
1002
}
1000
FEM
1070
     8
1002
{
1000
EntityType
1070
     4
1000
*
1002
{
1002
}
1000
Layer
1070
     4
1000
4A,4AN,*-4A,*-4AN
1002
{
1002
}
1000
Linetype
1070
     4
1000
*
1002
{
1002
}
1000
Color
1070
     4
1000
*
1002
{
1002
}
1000
ApplyInDims
1070
     3
1070
     1
1002
{
1002
}
1002
}
1002
}
1002
}
1000
PaList
1070
     0
1002
{
1000
AutoUpdatePartList
1070
     1
1070
     0
1002
{
1002
}
1000
ReadInfoPoint
1070
     3
1070
     0
1002
{
1002
}
1000
ReadPosNr
1070
     3
1070
     1
1002
{
1002
}
1000
RevStr
1070
     4
1000
0
1002
{
1002
}
1002
}
1000
Paper
1070
     0
1002
{
1002
}
1000
PartDB
1070
     0
1002
{
1000
GenDbOwner
1070
     4
1000

1002
{
1002
}
1002
}
1000
System
1070
     0
1002
{
1000
Menu
1070
     4
1000
GEV
1002
{
1002
}
1002
}
1000
Title
1070
     0
1002
{
1000
MakeView
1070
     1
1070
     2
1002
{
1002
}
1002
}
1000
Tools
1070
     0
1002
{
1000
Trans
1070
     0
1002
{
1000
Drawingtranslation
1070
    -4
1070
     1
1002
{
1002
}
1000
upreserve
1070
     3
1070
     0
1002
{
1002
}
1000
originally_on
1070
    -4
1070
     0
1002
{
1002
}
1000
sourcelang
1070
    -5
1000
D
1002
{
1002
}
1002
}
1002
}
  0
APPID
  5
1DA4
330
1D58
100
AcDbSymbolTableRecord
100
AcDbRegAppTableRecord
  2
GENIUS_GEVCFG0_13
 70
     0
1001
GENIUS_GENCFG_13
1071
955962966
1000
1DA4
1000
GEV
1070
     1
1000
GenCfgObject
1000
VED
1070
     0
1002
{
1002
}
  0
APPID
  5
1E2A
330
1D58
100
AcDbSymbolTableRecord
100
AcDbRegAppTableRecord
  2
GEV_VCCNULL_SWITCH_OFF
 70
     0
  0
APPID
  5
1E2B
330
1D58
100
AcDbSymbolTableRecord
100
AcDbRegAppTableRecord
  2
GENIUS_GENDTOL_13
 70
     0
  0
APPID
  5
1E2C
330
1D58
100
AcDbSymbolTableRecord
100
AcDbRegAppTableRecord
  2
GENIUS_GENOENT_13
 70
     0
  0
APPID
  5
1E2D
330
1D58
100
AcDbSymbolTableRecord
100
AcDbRegAppTableRecord
  2
GENIUS_GENBLLY_14
 70
     0
  0
APPID
  5
1E2E
330
1D58
100
AcDbSymbolTableRecord
100
AcDbRegAppTableRecord
  2
GENIUS_GENODEF_13
 70
     0
  0
APPID
  5
1E2F
330
1D58
100
AcDbSymbolTableRecord
100
AcDbRegAppTableRecord
  2
GENIUS_GENOBJ-N-CRS_13
 70
     0
  0
APPID
  5
1E30
330
1D58
100
AcDbSymbolTableRecord
100
AcDbRegAppTableRecord
  2
GENIUS_GENOREF_13
 70
     0
  0
APPID
  5
1E31
330
1D58
100
AcDbSymbolTableRecord
100
AcDbRegAppTableRecord
  2
GENIUS_GENOLIS_13
 70
     0
  0
APPID
  5
1E32
330
1D58
100
AcDbSymbolTableRecord
100
AcDbRegAppTableRecord
  2
GENIUS_GEFCFG0_13
 70
     0
  0
APPID
  5
1E33
330
1D58
100
AcDbSymbolTableRecord
100
AcDbRegAppTableRecord
  2
GENIUS_VERSION2
 70
     0
  0
APPID
  5
1E34
330
1D58
100
AcDbSymbolTableRecord
100
AcDbRegAppTableRecord
  2
GENIUS_GENREC_14
 70
     0
  0
APPID
  5
1E35
330
1D58
100
AcDbSymbolTableRecord
100
AcDbRegAppTableRecord
  2
GENIUS_GENOBJ-N-REC_13
 70
     0
  0
APPID
  5
1E36
330
1D58
100
AcDbSymbolTableRecord
100
AcDbRegAppTableRecord
  2
GENIUS_GENOBJ-N-TIT_13
 70
     0
  0
APPID
  5
1E37
330
1D58
100
AcDbSymbolTableRecord
100
AcDbRegAppTableRecord
  2
GENIUS_GENTITLE_13
 70
     0
  0
APPID
  5
1E38
330
1D58
100
AcDbSymbolTableRecord
100
AcDbRegAppTableRecord
  2
GENIUS_GENZVEED_13
 70
     0
  0
APPID
  5
1E39
330
1D58
100
AcDbSymbolTableRecord
100
AcDbRegAppTableRecord
  2
GENIUS_GENOBJ-N-SDF_13
 70
     0
  0
APPID
  5
1E3A
330
1D58
100
AcDbSymbolTableRecord
100
AcDbRegAppTableRecord
  2
GENIUS_GENSCREG_13
 70
     0
  0
APPID
  5
1E3B
330
1D58
100
AcDbSymbolTableRecord
100
AcDbRegAppTableRecord
  2
GENIUS_GENBLKED_14
 70
     0
  0
APPID
  5
1F59
330
1D58
100
AcDbSymbolTableRecord
100
AcDbRegAppTableRecord
  2
GENIUS_GENOBJ-N-HTC_13
 70
     0
  0
APPID
  5
1F5A
330
1D58
100
AcDbSymbolTableRecord
100
AcDbRegAppTableRecord
  2
GENIUS_GENHATCH_13
 70
     0
  0
APPID
  5
2230
330
1D58
100
AcDbSymbolTableRecord
100
AcDbRegAppTableRecord
  2
MCAD_NO_VIS
 70
     0
  0
APPID
  5
2231
330
1D58
100
AcDbSymbolTableRecord
100
AcDbRegAppTableRecord
  2
ACAD_TEMP_GRAPHIC
 70
     0
  0
APPID
  5
2261
330
1D58
100
AcDbSymbolTableRecord
100
AcDbRegAppTableRecord
  2
AD_DRAW
 70
     0
  0
APPID
  5
2264
330
1D58
100
AcDbSymbolTableRecord
100
AcDbRegAppTableRecord
  2
ACATTRIBSERVICES
 70
     0
  0
APPID
  5
2284
330
1D58
100
AcDbSymbolTableRecord
100
AcDbRegAppTableRecord
  2
DESIGNERASSEMBLIES
 70
     0
  0
APPID
  5
228A
330
1D58
100
AcDbSymbolTableRecord
100
AcDbRegAppTableRecord
  2
ACADM_DIM_EDIT
 70
     0
  0
APPID
  5
228B
330
1D58
100
AcDbSymbolTableRecord
100
AcDbRegAppTableRecord
  2
AMDT_DM_ADJ
 70
     0
  0
APPID
  5
22BD
330
1D58
100
AcDbSymbolTableRecord
100
AcDbRegAppTableRecord
  2
ACAD_DSTYLE_DIMARC_LENGTH_SYMBOL
 70
     0
  0
APPID
  5
22BE
330
1D58
100
AcDbSymbolTableRecord
100
AcDbRegAppTableRecord
  2
ACAD_DSTYLE_DIMJOGGED_JOGANGLE_SYMBOL
 70
     0
  0
ENDTAB
  0
TABLE
  2
DIMSTYLE
  5
1D59
330
0
100
AcDbSymbolTable
 70
     9
100
AcDbDimStyleTable
 71
     0
  0
DIMSTYLE
105
1D7F
102
{ACAD_REACTORS
330
1D02
330
1D0D
330
1D16
330
1D21
330
1D2B
102
}
330
1D59
100
AcDbSymbolTableRecord
100
AcDbDimStyleTableRecord
  2
GEN-ISO
 70
     0
  4
"
 40
5.0
 41
2.5
 42
1.0
 43
7.0
 44
1.0
 47
0.1
 48
0.1
 73
     0
 74
     0
 77
     1
 78
     8
140
3.5
141
0.0
143
0.0393701
146
0.71
147
0.6
172
     1
176
   256
177
   256
178
     2
271
     2
272
     3
274
     4
283
     0
340
1D5E
  0
DIMSTYLE
105
21EA
330
1D59
100
AcDbSymbolTableRecord
100
AcDbDimStyleTableRecord
  2
ISO-25
 70
     0
 41
2.5
 42
0.625
 43
3.75
 44
1.25
 74
     0
 77
     1
 78
     8
140
2.5
141
2.5
143
0.0394
145
1.0
147
0.625
172
     1
340
1D5E
  0
DIMSTYLE
105
22BC
330
1D59
100
AcDbSymbolTableRecord
100
AcDbDimStyleTableRecord
  2
AM_DIN
 70
     0
  4
"
 40
5.0
 41
2.5
 42
1.0
 43
10.0
 44
1.0
 47
0.1
 48
0.1
 73
     0
 74
     0
 77
     1
 78
     8
 79
     2
140
3.5
141
0.0
143
0.0393701
146
0.71
147
1.5
172
     1
176
   256
177
   256
178
     2
271
     2
272
     3
274
     4
283
     0
284
     8
340
1D5E
371
    -1
372
    -1
1001
ACAD_DSTYLE_DIMARC_LENGTH_SYMBOL
1070
   379
1070
     0
1001
ACAD_DSTYLE_DIMJOGGED_JOGANGLE_SYMBOL
1070
   384
1040
1.570796326794896
  0
DIMSTYLE
105
22CD
330
1D59
100
AcDbSymbolTableRecord
100
AcDbDimStyleTableRecord
  2
AM_DIN$3
 70
     0
  4
"
 40
5.0
 41
2.5
 42
1.0
 43
10.0
 44
1.0
 47
0.1
 48
0.1
 73
     0
 77
     1
 78
     8
 79
     2
140
3.5
141
0.0
143
0.0393701
146
0.71
147
1.5
176
   256
177
   256
178
     2
271
     2
272
     3
274
     4
283
     0
284
     8
288
     1
289
     0
340
1D5E
371
    -1
372
    -1
1001
ACAD_DSTYLE_DIMARC_LENGTH_SYMBOL
1070
   379
1070
     0
1001
ACAD_DSTYLE_DIMJOGGED_JOGANGLE_SYMBOL
1070
   384
1040
1.570796326794896
  0
DIMSTYLE
105
22D2
330
1D59
100
AcDbSymbolTableRecord
100
AcDbDimStyleTableRecord
  2
AM_DIN$4
 70
     0
  4
"
 40
5.0
 41
2.5
 42
1.0
 43
10.0
 44
1.0
 47
0.1
 48
0.1
 73
     0
 77
     1
 78
     8
 79
     2
140
3.5
141
0.0
143
0.0393701
146
0.71
147
1.5
176
   256
177
   256
178
     2
271
     2
272
     3
274
     4
283
     0
284
     8
288
     1
289
     0
340
1D5E
371
    -1
372
    -1
1001
ACAD_DSTYLE_DIMARC_LENGTH_SYMBOL
1070
   379
1070
     0
1001
ACAD_DSTYLE_DIMJOGGED_JOGANGLE_SYMBOL
1070
   384
1040
1.570796326794896
  0
DIMSTYLE
105
22D7
330
1D59
100
AcDbSymbolTableRecord
100
AcDbDimStyleTableRecord
  2
AM_DIN$6
 70
     0
  4
"
 40
5.0
 41
2.5
 42
1.0
 43
10.0
 44
1.0
 47
0.1
 48
0.1
 73
     0
 74
     0
 78
     8
 79
     2
140
3.5
141
0.0
143
0.0393701
146
0.71
147
1.5
172
     1
176
   256
177
   256
178
     2
271
     2
272
     3
274
     4
283
     0
284
     8
340
1D5E
371
    -1
372
    -1
1001
ACAD_DSTYLE_DIMARC_LENGTH_SYMBOL
1070
   379
1070
     0
1001
ACAD_DSTYLE_DIMJOGGED_JOGANGLE_SYMBOL
1070
   384
1040
1.570796326794896
  0
DIMSTYLE
105
22DC
330
1D59
100
AcDbSymbolTableRecord
100
AcDbDimStyleTableRecord
  2
AM_DIN$7
 70
     0
  4
"
 40
5.0
 41
2.5
 42
1.0
 43
10.0
 44
1.0
 47
0.1
 48
0.1
 73
     0
 74
     0
 77
     1
 78
     8
 79
     2
140
5.0
141
0.0
143
0.0393701
146
0.71
147
1.5
172
     1
176
   256
177
   256
178
     2
271
     2
272
     3
274
     4
283
     0
284
     8
340
1D5E
371
    -1
372
    -1
1001
ACAD_DSTYLE_DIMARC_LENGTH_SYMBOL
1070
   379
1070
     0
1001
ACAD_DSTYLE_DIMJOGGED_JOGANGLE_SYMBOL
1070
   384
1040
1.570796326794896
  0
DIMSTYLE
105
22E1
330
1D59
100
AcDbSymbolTableRecord
100
AcDbDimStyleTableRecord
  2
AM_DIN$SF
 70
     0
  4
"
 40
5.0
 41
2.5
 42
1.0
 43
10.0
 44
1.0
 47
0.1
 48
0.1
 73
     0
 74
     0
 75
     1
 76
     1
 77
     1
 78
     8
 79
     2
140
3.5
141
0.0
143
0.0393701
146
0.71
147
1.5
172
     1
176
   256
177
   256
178
     2
271
     2
272
     3
274
     4
283
     0
284
     8
340
1D5E
371
    -1
372
    -1
1001
ACAD_DSTYLE_DIMARC_LENGTH_SYMBOL
1070
   379
1070
     0
1001
ACAD_DSTYLE_DIMJOGGED_JOGANGLE_SYMBOL
1070
   384
1040
1.570796326794896
  0
DIMSTYLE
105
22EA
330
1D59
100
AcDbSymbolTableRecord
100
AcDbDimStyleTableRecord
  2
AM_DIN$SH
 70
     0
  4
"
 40
5.0
 41
2.5
 42
1.0
 43
10.0
 44
1.0
 47
0.1
 48
0.1
 73
     0
 74
     0
 75
     1
 76
     1
 77
     1
 78
     8
 79
     2
140
3.5
141
0.0
143
0.0393701
144
2.0
146
0.71
147
1.5
172
     1
173
     1
176
   256
177
   256
178
     2
271
     2
272
     3
274
     4
283
     0
284
     8
340
1D5E
343
22E2
371
    -1
372
    -1
1001
ACAD_DSTYLE_DIMARC_LENGTH_SYMBOL
1070
   379
1070
     0
1001
ACAD_DSTYLE_DIMJOGGED_JOGANGLE_SYMBOL
1070
   384
1040
1.570796326794896
  0
ENDTAB
  0
TABLE
  2
BLOCK_RECORD
  5
1D50
330
0
100
AcDbSymbolTable
 70
    17
  0
BLOCK_RECORD
  5
1D67
330
1D50
100
AcDbSymbolTableRecord
100
AcDbBlockTableRecord
  2
*MODEL_SPACE
340
2226
  0
BLOCK_RECORD
  5
1D64
330
1D50
100
AcDbSymbolTableRecord
100
AcDbBlockTableRecord
  2
*PAPER_SPACE
340
2227
  0
BLOCK_RECORD
  5
1D81
330
1D50
100
AcDbSymbolTableRecord
100
AcDbBlockTableRecord
  2
*X0
340
0
102
{BLKREFS
331
114A
102
}
  0
BLOCK_RECORD
  5
1D82
330
1D50
100
AcDbSymbolTableRecord
100
AcDbBlockTableRecord
  2
*X1
340
0
102
{BLKREFS
331
1172
102
}
  0
BLOCK_RECORD
  5
1D84
330
1D50
100
AcDbSymbolTableRecord
100
AcDbBlockTableRecord
  2
*X2
340
0
102
{BLKREFS
331
1274
102
}
  0
BLOCK_RECORD
  5
1D85
330
1D50
100
AcDbSymbolTableRecord
100
AcDbBlockTableRecord
  2
*X3
340
0
102
{BLKREFS
331
12A0
102
}
  0
BLOCK_RECORD
  5
1D86
330
1D50
100
AcDbSymbolTableRecord
100
AcDbBlockTableRecord
  2
*X4
340
0
102
{BLKREFS
331
12D1
102
}
  0
BLOCK_RECORD
  5
1E01
330
1D50
100
AcDbSymbolTableRecord
100
AcDbBlockTableRecord
  2
KATALOG_LEER
340
0
102
{BLKREFS
331
1E5A
331
1E3D
102
}
  0
BLOCK_RECORD
  5
1E3C
330
1D50
100
AcDbSymbolTableRecord
100
AcDbBlockTableRecord
  2
KATALOG
340
0
  0
BLOCK_RECORD
  5
1E5C
330
1D50
100
AcDbSymbolTableRecord
100
AcDbBlockTableRecord
  2
*D7
340
0
  0
BLOCK_RECORD
  5
1E68
330
1D50
100
AcDbSymbolTableRecord
100
AcDbBlockTableRecord
  2
*D8
340
0
  0
BLOCK_RECORD
  5
1E7F
330
1D50
100
AcDbSymbolTableRecord
100
AcDbBlockTableRecord
  2
*D9
340
0
  0
BLOCK_RECORD
  5
1E96
330
1D50
100
AcDbSymbolTableRecord
100
AcDbBlockTableRecord
  2
*D10
340
0
  0
BLOCK_RECORD
  5
1EAD
330
1D50
100
AcDbSymbolTableRecord
100
AcDbBlockTableRecord
  2
*D11
340
0
  0
BLOCK_RECORD
  5
21E7
330
1D50
100
AcDbSymbolTableRecord
100
AcDbBlockTableRecord
  2
GEVCON
340
0
  0
BLOCK_RECORD
  5
21EB
330
1D50
100
AcDbSymbolTableRecord
100
AcDbBlockTableRecord
  2
GEVEP
340
0
  0
BLOCK_RECORD
  5
21F4
330
1D50
100
AcDbSymbolTableRecord
100
AcDbBlockTableRecord
  2
GEVFRAME
340
0
  0
BLOCK_RECORD
  5
22E2
330
1D50
100
AcDbSymbolTableRecord
100
AcDbBlockTableRecord
  2
GENAXEH
340
0
  0
ENDTAB
  0
ENDSEC
  0
SECTION
  2
BLOCKS
  0
BLOCK
  5
1D68
330
1D67
100
AcDbEntity
  8
0
100
AcDbBlockBegin
  2
*MODEL_SPACE
 70
     0
 10
0.0
 20
0.0
 30
0.0
  3
*MODEL_SPACE
  1

  0
ENDBLK
  5
1D69
330
1D67
100
AcDbEntity
  8
0
100
AcDbBlockEnd
  0
BLOCK
  5
1D65
330
1D64
100
AcDbEntity
 67
     1
  8
0
100
AcDbBlockBegin
  2
*PAPER_SPACE
 70
     0
 10
0.0
 20
0.0
 30
0.0
  3
*PAPER_SPACE
  1

  0
ENDBLK
  5
1D66
330
1D64
100
AcDbEntity
 67
     1
  8
0
100
AcDbBlockEnd
  0
BLOCK
  5
1145
330
1D81
100
AcDbEntity
  8
0
100
AcDbBlockBegin
  2
*X0
 70
     1
 10
0.0
 20
0.0
 30
0.0
  3
*X0
  1

  0
LINE
  5
1146
330
1D81
100
AcDbEntity
  8
8
100
AcDbLine
 10
196.6929999999999
 20
403.779
 30
0.0
 11
204.326
 21
411.4119999999999
 31
0.0
  0
LINE
  5
1147
330
1D81
100
AcDbEntity
  8
8
100
AcDbLine
 10
194.639
 20
406.2149999999999
 30
0.0
 11
201.87
 21
413.4469999999999
 31
0.0
  0
LINE
  5
1148
330
1D81
100
AcDbEntity
  8
8
100
AcDbLine
 10
194.815
 20
410.881
 30
0.0
 11
197.199
 21
413.2649999999999
 31
0.0
  0
ENDBLK
  5
1149
330
1D81
100
AcDbEntity
  8
0
100
AcDbBlockEnd
  0
BLOCK
  5
116D
330
1D82
100
AcDbEntity
  8
0
100
AcDbBlockBegin
  2
*X1
 70
     1
 10
0.0
 20
0.0
 30
0.0
  3
*X1
  1

  0
LINE
  5
116E
330
1D82
100
AcDbEntity
  8
8
100
AcDbLine
 10
194.228
 20
408.739
 30
0.0
 11
200.042
 21
402.9259999999999
 31
0.0
  0
LINE
  5
116F
330
1D82
100
AcDbEntity
  8
8
100
AcDbLine
 10
195.501
 20
411.957
 30
0.0
 11
203.26
 21
404.198
 31
0.0
  0
LINE
  5
1170
330
1D82
100
AcDbEntity
  8
8
100
AcDbLine
 10
198.249
 20
413.6989999999999
 30
0.0
 11
205.039
 21
406.909
 31
0.0
  0
ENDBLK
  5
1171
330
1D82
100
AcDbEntity
  8
0
100
AcDbBlockEnd
  0
BLOCK
  5
1262
330
1D84
100
AcDbEntity
  8
0
100
AcDbBlockBegin
  2
*X2
 70
     1
 10
0.0
 20
0.0
 30
0.0
  3
*X2
  1

  0
LINE
  5
1263
330
1D84
100
AcDbEntity
  8
8
100
AcDbLine
 10
355.869
 20
286.508
 30
0.0
 11
366.033
 21
296.672
 31
0.0
  0
LINE
  5
1264
330
1D84
100
AcDbEntity
  8
8
100
AcDbLine
 10
352.418
 20
287.547
 30
0.0
 11
366.112
 21
301.242
 31
0.0
  0
LINE
  5
1265
330
1D84
100
AcDbEntity
  8
8
100
AcDbLine
 10
349.748
 20
289.368
 30
0.0
 11
365.304
 21
304.923
 31
0.0
  0
LINE
  5
1266
330
1D84
100
AcDbEntity
  8
8
100
AcDbLine
 10
348.508
 20
292.617
 30
0.0
 11
362.804
 21
306.913
 31
0.0
  0
LINE
  5
1267
330
1D84
100
AcDbEntity
  8
8
100
AcDbLine
 10
348.508
 20
297.108
 30
0.0
 11
359.564
 21
308.163
 31
0.0
  0
LINE
  5
1268
330
1D84
100
AcDbEntity
  8
8
100
AcDbLine
 10
348.508
 20
301.598
 30
0.0
 11
355.139
 21
308.228
 31
0.0
  0
LINE
  5
1269
330
1D84
100
AcDbEntity
  8
8
100
AcDbLine
 10
348.508
 20
306.088
 30
0.0
 11
350.893
 21
308.473
 31
0.0
  0
LINE
  5
126A
330
1D84
100
AcDbEntity
  8
8
100
AcDbLine
 10
348.508
 20
310.578
 30
0.0
 11
349.25
 21
311.32
 31
0.0
  0
LINE
  5
126B
330
1D84
100
AcDbEntity
  8
8
100
AcDbLine
 10
366.12
 20
301.651
 30
0.0
 11
359.618
 21
308.152
 31
0.0
  0
LINE
  5
126C
330
1D84
100
AcDbEntity
  8
8
100
AcDbLine
 10
366.043
 20
297.238
 30
0.0
 11
355.067
 21
308.214
 31
0.0
  0
LINE
  5
126D
330
1D84
100
AcDbEntity
  8
8
100
AcDbLine
 10
365.965
 20
292.824
 30
0.0
 11
351.824
 21
306.966
 31
0.0
  0
LINE
  5
126E
330
1D84
100
AcDbEntity
  8
8
100
AcDbLine
 10
351.68
 20
307.11
 30
0.0
 11
348.508
 21
310.282
 31
0.0
  0
LINE
  5
126F
330
1D84
100
AcDbEntity
  8
8
100
AcDbLine
 10
364.859
 20
289.441
 30
0.0
 11
348.508
 21
305.792
 31
0.0
  0
LINE
  5
1270
330
1D84
100
AcDbEntity
  8
8
100
AcDbLine
 10
362.213
 20
287.597
 30
0.0
 11
348.508
 21
301.302
 31
0.0
  0
LINE
  5
1271
330
1D84
100
AcDbEntity
  8
8
100
AcDbLine
 10
358.788
 20
286.532
 30
0.0
 11
348.508
 21
296.811
 31
0.0
  0
LINE
  5
1272
330
1D84
100
AcDbEntity
  8
8
100
AcDbLine
 10
353.858
 20
286.971
 30
0.0
 11
348.508
 21
292.321
 31
0.0
  0
ENDBLK
  5
1273
330
1D84
100
AcDbEntity
  8
0
100
AcDbBlockEnd
  0
BLOCK
  5
128F
330
1D85
100
AcDbEntity
  8
0
100
AcDbBlockBegin
  2
*X3
 70
     1
 10
0.0
 20
0.0
 30
0.0
  3
*X3
  1

  0
LINE
  5
1290
330
1D85
100
AcDbEntity
  8
8
100
AcDbLine
 10
203.228
 20
286.532
 30
0.0
 11
213.508
 21
296.811
 31
0.0
  0
LINE
  5
1291
330
1D85
100
AcDbEntity
  8
8
100
AcDbLine
 10
199.804
 20
287.597
 30
0.0
 11
213.508
 21
301.302
 31
0.0
  0
LINE
  5
1292
330
1D85
100
AcDbEntity
  8
8
100
AcDbLine
 10
197.157
 20
289.441
 30
0.0
 11
213.508
 21
305.792
 31
0.0
  0
LINE
  5
1293
330
1D85
100
AcDbEntity
  8
8
100
AcDbLine
 10
196.051
 20
292.824
 30
0.0
 11
210.192
 21
306.966
 31
0.0
  0
LINE
  5
1294
330
1D85
100
AcDbEntity
  8
8
100
AcDbLine
 10
210.336
 20
307.11
 30
0.0
 11
213.508
 21
310.282
 31
0.0
  0
LINE
  5
1295
330
1D85
100
AcDbEntity
  8
8
100
AcDbLine
 10
195.974
 20
297.238
 30
0.0
 11
206.95
 21
308.214
 31
0.0
  0
LINE
  5
1296
330
1D85
100
AcDbEntity
  8
8
100
AcDbLine
 10
195.897
 20
301.651
 30
0.0
 11
202.398
 21
308.152
 31
0.0
  0
LINE
  5
1297
330
1D85
100
AcDbEntity
  8
8
100
AcDbLine
 10
213.508
 20
306.088
 30
0.0
 11
211.123
 21
308.473
 31
0.0
  0
LINE
  5
1298
330
1D85
100
AcDbEntity
  8
8
100
AcDbLine
 10
213.508
 20
301.598
 30
0.0
 11
206.877
 21
308.228
 31
0.0
  0
LINE
  5
1299
330
1D85
100
AcDbEntity
  8
8
100
AcDbLine
 10
213.508
 20
297.108
 30
0.0
 11
202.452
 21
308.163
 31
0.0
  0
LINE
  5
129A
330
1D85
100
AcDbEntity
  8
8
100
AcDbLine
 10
213.508
 20
292.617
 30
0.0
 11
199.212
 21
306.913
 31
0.0
  0
LINE
  5
129B
330
1D85
100
AcDbEntity
  8
8
100
AcDbLine
 10
212.268
 20
289.368
 30
0.0
 11
196.712
 21
304.923
 31
0.0
  0
LINE
  5
129C
330
1D85
100
AcDbEntity
  8
8
100
AcDbLine
 10
209.598
 20
287.547
 30
0.0
 11
195.904
 21
301.242
 31
0.0
  0
LINE
  5
129D
330
1D85
100
AcDbEntity
  8
8
100
AcDbLine
 10
206.147
 20
286.508
 30
0.0
 11
195.984
 21
296.672
 31
0.0
  0
LINE
  5
129E
330
1D85
100
AcDbEntity
  8
8
100
AcDbLine
 10
201.125
 20
287.04
 30
0.0
 11
196.063
 21
292.102
 31
0.0
  0
ENDBLK
  5
129F
330
1D85
100
AcDbEntity
  8
0
100
AcDbBlockEnd
  0
BLOCK
  5
12C9
330
1D86
100
AcDbEntity
  8
0
100
AcDbBlockBegin
  2
*X4
 70
     1
 10
0.0
 20
0.0
 30
0.0
  3
*X4
  1

  0
LINE
  5
12CA
330
1D86
100
AcDbEntity
  8
8
100
AcDbLine
 10
360.373
 20
403.265
 30
0.0
 11
367.436
 21
410.328
 31
0.0
  0
LINE
  5
12CB
330
1D86
100
AcDbEntity
  8
8
100
AcDbLine
 10
357.828
 20
405.21
 30
0.0
 11
365.49
 21
412.873
 31
0.0
  0
LINE
  5
12CC
330
1D86
100
AcDbEntity
  8
8
100
AcDbLine
 10
356.814
 20
408.6859999999999
 30
0.0
 11
362.014
 21
413.8869999999999
 31
0.0
  0
LINE
  5
12CD
330
1D86
100
AcDbEntity
  8
8
100
AcDbLine
 10
367.749
 20
407.784
 30
0.0
 11
361.684
 21
413.85
 31
0.0
  0
LINE
  5
12CE
330
1D86
100
AcDbEntity
  8
8
100
AcDbLine
 10
366.3630000000001
 20
404.68
 30
0.0
 11
358.594
 21
412.4489999999999
 31
0.0
  0
LINE
  5
12CF
330
1D86
100
AcDbEntity
  8
8
100
AcDbLine
 10
363.532
 20
403.0209999999999
 30
0.0
 11
356.921
 21
409.6319999999999
 31
0.0
  0
ENDBLK
  5
12D0
330
1D86
100
AcDbEntity
  8
0
100
AcDbBlockEnd
  0
BLOCK
  5
1E02
330
1E01
100
AcDbEntity
  8
0
100
AcDbBlockBegin
  2
KATALOG_LEER
 70
     0
 10
0.0
 20
0.0
 30
0.0
  3
KATALOG_LEER
  1

  0
ENDBLK
  5
1E03
330
1E01
100
AcDbEntity
  8
0
100
AcDbBlockEnd
  0
BLOCK
  5
1E4E
330
1E3C
100
AcDbEntity
  8
0
100
AcDbBlockBegin
  2
KATALOG
 70
     0
 10
0.0
 20
0.0
 30
0.0
  3
KATALOG
  1

  0
INSERT
  5
1E3D
330
1E3C
100
AcDbEntity
  8
0
100
AcDbBlockReference
  2
KATALOG_LEER
 10
205.0
 20
5.0
 30
0.0
1001
GENIUS_GENOREF_13
1005
1E3E
  0
POINT
  5
1E3E
330
1E3C
100
AcDbEntity
  8
0
 60
     1
100
AcDbPoint
 10
0.0
 20
0.0
 30
0.0
1001
GENIUS_GENOBJ-N-TIT_13
1002
{
1000
OWNER
1000
GEN
1002
}
1001
GENIUS_GENOENT_13
1002
{
1000
MYREF
1005
1E3E
1002
}
1002
{
1000
GRP
1005
0
1002
}
1001
GENIUS_GENOLIS_13
1002
{
1000
ENT
1005
1E3D
1005
0
1002
}
1001
GENIUS_GENTITLE_13
1002
{
1000
SCALE
1000
1:1
1002
}
1002
{
1000
BORDER
1000
KATALOG
1002
}
1002
{
1000
TITLE
1000
KATALOG_LEER
1002
}
1002
{
1000
UNCHG
1002
{
1000
GEN-TITLE-SCA
1000
GEN-TITLE-SIZ
1002
}
1002
}
1002
{
1000
HRA
1005
0
1002
}
1002
{
1000
HTIT
1005
1E3D
1002
}
1002
{
1000
GENIUSID
1005
1E3E
1002
}
1001
GENIUS_GENODEF_13
1002
{
1000
HIER
1070
     1
1002
}
1002
{
1000
MANEDIT
1070
     0
1002
}
1002
{
1000
NOSEL
1070
     0
1002
}
1002
{
1000
BEHIND
1070
     0
1002
}
1002
{
1000
REACTOR
1002
}
  0
TEXT
  5
1E3F
330
1E3C
100
AcDbEntity
  8
RAHM3
 60
     1
100
AcDbText
 10
29.39138263182826
 20
162.2831646564826
 30
0.0
 40
3.5
  1
!GENTITLE-MAX
100
AcDbText
  0
TEXT
  5
1E40
330
1E3C
100
AcDbEntity
  8
RAHM3
 60
     1
100
AcDbText
 10
30.98843195097265
 20
153.5032787504772
 30
0.0
 40
3.5
  1
!GENTITLE-RU
100
AcDbText
  0
TEXT
  5
1E41
330
1E3C
100
AcDbEntity
  8
RAHM3
 60
     1
100
AcDbText
 10
-85.99541788658644
 20
56.92453739668223
 30
0.0
 40
3.5
  1
!GENTITLE-LL
100
AcDbText
  0
TEXT
  5
1E42
330
1E3C
100
AcDbEntity
  8
RAHM3
 60
     1
100
AcDbText
 10
50.36794115378597
 20
2.260896646263518
 30
0.0
 40
3.5
  1
!GENTITLE-INSERT
100
AcDbText
  0
LINE
  5
1E43
330
1E3C
100
AcDbEntity
  8
RAHM2
100
AcDbLine
 10
0.0
 20
0.0
 30
0.0
 11
148.5
 21
0.0
 31
0.0
  0
LINE
  5
1E44
330
1E3C
100
AcDbEntity
  8
RAHM2
100
AcDbLine
 10
148.5
 20
210.0
 30
0.0
 11
0.0
 21
210.0
 31
0.0
  0
LINE
  5
1E45
330
1E3C
100
AcDbEntity
  8
RAHM2
100
AcDbLine
 10
0.0
 20
210.0
 30
0.0
 11
0.0
 21
0.0
 31
0.0
  0
TEXT
  5
1E46
330
1E3C
100
AcDbEntity
  8
RAHM3
 60
     1
100
AcDbText
 10
184.0234414780423
 20
165.0222680102191
 30
0.0
 40
3.5
  1
!GENTITLE-MAX
100
AcDbText
  0
TEXT
  5
1E47
330
1E3C
100
AcDbEntity
  8
RAHM3
 60
     1
100
AcDbText
 10
185.6204907971866
 20
156.2423821042137
 30
0.0
 40
3.5
  1
!GENTITLE-RU
100
AcDbText
  0
TEXT
  5
1E48
330
1E3C
100
AcDbEntity
  8
RAHM3
 60
     1
100
AcDbText
 10
68.63664095962758
 20
59.66364075041872
 30
0.0
 40
3.5
  1
!GENTITLE-LL
100
AcDbText
  0
TEXT
  5
1E49
330
1E3C
100
AcDbEntity
  8
RAHM3
 60
     1
100
AcDbText
 10
205.0
 20
5.0
 30
0.0
 40
3.5
  1
!GENTITLE-INSERT
100
AcDbText
  0
LINE
  5
1E4A
330
1E3C
100
AcDbEntity
  8
RAHM2
100
AcDbLine
 10
148.5
 20
0.0
 30
0.0
 11
148.5
 21
210.0
 31
0.0
  0
LINE
  5
1E4B
330
1E3C
100
AcDbEntity
  8
RAHM2
100
AcDbLine
 10
210.0
 20
148.4999999999999
 30
0.0
 11
0.0
 21
148.4999999999999
 31
0.0
  0
LINE
  5
1E4C
330
1E3C
100
AcDbEntity
  8
RAHM2
100
AcDbLine
 10
210.0
 20
-0.0000000000000071
 30
0.0
 11
210.0
 21
148.4999999999999
 31
0.0
  0
LINE
  5
1E4D
330
1E3C
100
AcDbEntity
  8
RAHM2
100
AcDbLine
 10
0.0
 20
0.0
 30
0.0
 11
210.0
 21
-0.0000000000000071
 31
0.0
  0
ENDBLK
  5
1E4F
330
1E3C
100
AcDbEntity
  8
0
100
AcDbBlockEnd
  0
BLOCK
  5
21D5
330
1E5C
100
AcDbEntity
  8
0
100
AcDbBlockBegin
  2
*D7
 70
     1
 10
0.0
 20
0.0
 30
0.0
  3
*D7
  1

  0
LINE
  5
21D6
330
1E5C
100
AcDbEntity
  8
0
  6
ByBlock
100
AcDbLine
 10
224.3869687702242
 20
373.8225446702442
 30
0.0
 11
120.3869687702242
 21
373.8225446702442
 31
0.0
  0
LINE
  5
21D7
330
1E5C
100
AcDbEntity
  8
0
  6
ByBlock
100
AcDbLine
 10
336.8869687702241
 20
125.8215446702442
 30
0.0
 11
120.3869687702242
 21
125.8215446702442
 31
0.0
  0
LINE
  5
21D8
330
1E5C
100
AcDbEntity
  8
0
  6
ByBlock
100
AcDbLine
 10
125.3869687702242
 20
361.3225446702442
 30
0.0
 11
125.3869687702242
 21
138.3215446702442
 31
0.0
  0
SOLID
  5
21D9
330
1E5C
100
AcDbEntity
  8
0
  6
ByBlock
100
AcDbTrace
 10
123.3036354368909
 20
361.3225446702442
 30
0.0
 11
127.4703021035575
 21
361.3225446702442
 31
0.0
 12
125.3869687702242
 22
373.8225446702442
 32
0.0
 13
125.3869687702242
 23
373.8225446702442
 33
0.0
  0
SOLID
  5
21DA
330
1E5C
100
AcDbEntity
  8
0
  6
ByBlock
100
AcDbTrace
 10
123.3036354368908
 20
138.3215446702442
 30
0.0
 11
127.4703021035575
 21
138.3215446702442
 31
0.0
 12
125.3869687702242
 22
125.8215446702442
 32
0.0
 13
125.3869687702242
 23
125.8215446702442
 33
0.0
  0
MTEXT
  5
21DB
330
1E5C
100
AcDbEntity
  8
0
  6
ByBlock
 62
     2
100
AcDbMText
 10
113.6352463292793
 20
249.8220446702442
 30
0.0
 40
17.5
 41
0.0
 71
     5
 72
     1
  1
250
 11
0.0000000000000001
 21
1.0
 31
0.0
 73
     1
 44
1.0
1001
ACAD
1000
MTEXTBEGIN
1070
    73
1070
     1
1070
    44
1040
1.0
1070
    74
1070
     0
1000
MTEXTEND
  0
POINT
  5
21DC
330
1E5C
100
AcDbEntity
  8
DEFPOINTS
  6
ByBlock
 62
     0
100
AcDbPoint
 10
229.3869687702242
 20
373.8225446702442
 30
0.0
  0
POINT
  5
21DD
330
1E5C
100
AcDbEntity
  8
DEFPOINTS
  6
ByBlock
 62
     0
100
AcDbPoint
 10
341.8869687702241
 20
125.8215446702442
 30
0.0
  0
POINT
  5
21DE
330
1E5C
100
AcDbEntity
  8
DEFPOINTS
  6
ByBlock
 62
     0
100
AcDbPoint
 10
125.3869687702242
 20
125.8215446702442
 30
0.0
  0
ENDBLK
  5
21DF
330
1E5C
100
AcDbEntity
  8
0
100
AcDbBlockEnd
  0
BLOCK
  5
214D
330
1E68
100
AcDbEntity
  8
0
100
AcDbBlockBegin
  2
*D8
 70
     1
 10
0.0
 20
0.0
 30
0.0
  3
*D8
  1

  0
LINE
  5
214E
330
1E68
100
AcDbEntity
  8
0
  6
ByBlock
100
AcDbLine
 10
260.3869687702241
 20
428.4795446702441
 30
0.0
 11
260.3869687702241
 21
528.4795446702442
 31
0.0
  0
LINE
  5
214F
330
1E68
100
AcDbEntity
  8
0
  6
ByBlock
100
AcDbLine
 10
520.3869687702242
 20
428.4795446702441
 30
0.0
 11
520.3869687702242
 21
528.4795446702442
 31
0.0
  0
LINE
  5
2150
330
1E68
100
AcDbEntity
  8
0
  6
ByBlock
100
AcDbLine
 10
272.8869687702241
 20
523.4795446702442
 30
0.0
 11
507.8869687702242
 21
523.4795446702442
 31
0.0
  0
SOLID
  5
2151
330
1E68
100
AcDbEntity
  8
0
  6
ByBlock
100
AcDbTrace
 10
272.8869687702241
 20
525.5628780035776
 30
0.0
 11
272.8869687702241
 21
521.3962113369108
 31
0.0
 12
260.3869687702241
 22
523.4795446702442
 32
0.0
 13
260.3869687702241
 23
523.4795446702442
 33
0.0
  0
SOLID
  5
2152
330
1E68
100
AcDbEntity
  8
0
  6
ByBlock
100
AcDbTrace
 10
507.8869687702242
 20
525.5628780035776
 30
0.0
 11
507.8869687702242
 21
521.3962113369108
 31
0.0
 12
520.3869687702242
 22
523.4795446702442
 32
0.0
 13
520.3869687702242
 23
523.4795446702442
 33
0.0
  0
MTEXT
  5
2153
330
1E68
100
AcDbEntity
  8
0
  6
ByBlock
 62
     2
100
AcDbMText
 10
390.3869687702242
 20
535.231267111189
 30
0.0
 40
17.5
 41
0.0
 71
     5
 72
     1
  1
260
 73
     1
 44
1.0
1001
ACAD
1000
MTEXTBEGIN
1070
    73
1070
     1
1070
    44
1040
1.0
1070
    74
1070
     0
1000
MTEXTEND
  0
POINT
  5
2154
330
1E68
100
AcDbEntity
  8
DEFPOINTS
  6
ByBlock
 62
     0
100
AcDbPoint
 10
260.3869687702241
 20
423.4795446702441
 30
0.0
  0
POINT
  5
2155
330
1E68
100
AcDbEntity
  8
DEFPOINTS
  6
ByBlock
 62
     0
100
AcDbPoint
 10
520.3869687702242
 20
423.4795446702441
 30
0.0
  0
POINT
  5
2156
330
1E68
100
AcDbEntity
  8
DEFPOINTS
  6
ByBlock
 62
     0
100
AcDbPoint
 10
520.3869687702242
 20
523.4795446702442
 30
0.0
  0
ENDBLK
  5
2157
330
1E68
100
AcDbEntity
  8
0
100
AcDbBlockEnd
  0
BLOCK
  5
2142
330
1E7F
100
AcDbEntity
  8
0
100
AcDbBlockBegin
  2
*D9
 70
     1
 10
0.0
 20
0.0
 30
0.0
  3
*D9
  1

  0
LINE
  5
2143
330
1E7F
100
AcDbEntity
  8
0
  6
ByBlock
100
AcDbLine
 10
210.3869687702242
 20
366.8225446702442
 30
0.0
 11
210.3869687702242
 21
563.4795446702441
 31
0.0
  0
LINE
  5
2144
330
1E7F
100
AcDbEntity
  8
0
  6
ByBlock
100
AcDbLine
 10
570.3869687702242
 20
366.8225446702442
 30
0.0
 11
570.3869687702242
 21
563.4795446702441
 31
0.0
  0
LINE
  5
2145
330
1E7F
100
AcDbEntity
  8
0
  6
ByBlock
100
AcDbLine
 10
222.8869687702242
 20
558.4795446702441
 30
0.0
 11
557.8869687702242
 21
558.4795446702441
 31
0.0
  0
SOLID
  5
2146
330
1E7F
100
AcDbEntity
  8
0
  6
ByBlock
100
AcDbTrace
 10
222.8869687702242
 20
560.5628780035775
 30
0.0
 11
222.8869687702242
 21
556.3962113369107
 31
0.0
 12
210.3869687702242
 22
558.4795446702441
 32
0.0
 13
210.3869687702242
 23
558.4795446702441
 33
0.0
  0
SOLID
  5
2147
330
1E7F
100
AcDbEntity
  8
0
  6
ByBlock
100
AcDbTrace
 10
557.8869687702242
 20
560.5628780035775
 30
0.0
 11
557.8869687702242
 21
556.3962113369107
 31
0.0
 12
570.3869687702242
 22
558.4795446702441
 32
0.0
 13
570.3869687702242
 23
558.4795446702441
 33
0.0
  0
MTEXT
  5
2148
330
1E7F
100
AcDbEntity
  8
0
  6
ByBlock
 62
     2
100
AcDbMText
 10
390.3869687702242
 20
570.2295446702442
 30
0.0
 40
17.5
 41
0.0
 71
     5
 72
     1
  1
\U+2205 360
 73
     1
 44
1.0
1001
ACAD
1000
MTEXTBEGIN
1070
    73
1070
     1
1070
    44
1040
1.0
1070
    74
1070
     0
1000
MTEXTEND
  0
POINT
  5
2149
330
1E7F
100
AcDbEntity
  8
DEFPOINTS
  6
ByBlock
 62
     0
100
AcDbPoint
 10
210.3869687702242
 20
361.8225446702442
 30
0.0
  0
POINT
  5
214A
330
1E7F
100
AcDbEntity
  8
DEFPOINTS
  6
ByBlock
 62
     0
100
AcDbPoint
 10
570.3869687702242
 20
361.8225446702442
 30
0.0
  0
POINT
  5
214B
330
1E7F
100
AcDbEntity
  8
DEFPOINTS
  6
ByBlock
 62
     0
100
AcDbPoint
 10
570.3869687702242
 20
558.4795446702441
 30
0.0
  0
ENDBLK
  5
214C
330
1E7F
100
AcDbEntity
  8
0
100
AcDbBlockEnd
  0
BLOCK
  5
2209
330
1E96
100
AcDbEntity
  8
0
100
AcDbBlockBegin
  2
*D10
 70
     1
 10
0.0
 20
0.0
 30
0.0
  3
*D10
  1
GEVFRAME
  0
LINE
  5
220A
330
1E96
100
AcDbEntity
  8
0
  6
ByBlock
100
AcDbLine
 10
327.8729687702242
 20
240.8375446702442
 30
0.0
 11
155.3869687702242
 21
240.8375446702442
 31
0.0
  0
LINE
  5
220B
330
1E96
100
AcDbEntity
  8
0
  6
ByBlock
100
AcDbLine
 10
205.2329687702242
 20
125.8215446702442
 30
0.0
 11
155.3869687702242
 21
125.8215446702442
 31
0.0
  0
LINE
  5
220C
330
1E96
100
AcDbEntity
  8
0
  6
ByBlock
100
AcDbLine
 10
160.3869687702242
 20
228.3375446702442
 30
0.0
 11
160.3869687702242
 21
138.3215446702442
 31
0.0
  0
SOLID
  5
220D
330
1E96
100
AcDbEntity
  8
0
  6
ByBlock
100
AcDbTrace
 10
158.3036354368909
 20
228.3375446702442
 30
0.0
 11
162.4703021035576
 21
228.3375446702442
 31
0.0
 12
160.3869687702242
 22
240.8375446702442
 32
0.0
 13
160.3869687702242
 23
240.8375446702442
 33
0.0
  0
SOLID
  5
220E
330
1E96
100
AcDbEntity
  8
0
  6
ByBlock
100
AcDbTrace
 10
158.3036354368908
 20
138.3215446702442
 30
0.0
 11
162.4703021035575
 21
138.3215446702442
 31
0.0
 12
160.3869687702242
 22
125.8215446702442
 32
0.0
 13
160.3869687702242
 23
125.8215446702442
 33
0.0
  0
MTEXT
  5
220F
330
1E96
100
AcDbEntity
  8
0
  6
ByBlock
 62
     2
100
AcDbMText
 10
148.6369687702242
 20
183.3295446702441
 30
0.0
 40
17.5
 41
0.0
 71
     5
 72
     1
  1
H
 11
0.0000000000000001
 21
1.0
 31
0.0
 73
     1
 44
1.0
1001
ACAD
1000
MTEXTBEGIN
1070
    73
1070
     1
1070
    44
1040
1.0
1070
    74
1070
     0
1000
MTEXTEND
  0
POINT
  5
2210
330
1E96
100
AcDbEntity
  8
DEFPOINTS
  6
ByBlock
 62
     0
100
AcDbPoint
 10
332.8729687702243
 20
240.8375446702442
 30
0.0
  0
POINT
  5
2211
330
1E96
100
AcDbEntity
  8
DEFPOINTS
  6
ByBlock
 62
     0
100
AcDbPoint
 10
210.2329687702242
 20
125.8215446702442
 30
0.0
  0
POINT
  5
2212
330
1E96
100
AcDbEntity
  8
DEFPOINTS
  6
ByBlock
 62
     0
100
AcDbPoint
 10
160.3869687702242
 20
125.8215446702442
 30
0.0
  0
ENDBLK
  5
2213
330
1E96
100
AcDbEntity
  8
0
100
AcDbBlockEnd
  0
BLOCK
  5
2197
330
1EAD
100
AcDbEntity
  8
0
100
AcDbBlockBegin
  2
*D11
 70
     1
 10
0.0
 20
0.0
 30
0.0
  3
*D11
  1

  0
LINE
  5
2198
330
1EAD
100
AcDbEntity
  8
0
  6
ByBlock
100
AcDbLine
 10
205.3869687702242
 20
361.8225446702442
 30
0.0
 11
155.3869687702242
 21
361.8225446702442
 31
0.0
  0
LINE
  5
2199
330
1EAD
100
AcDbEntity
  8
0
  6
ByBlock
100
AcDbLine
 10
210.7159687702242
 20
371.7125446702442
 30
0.0
 11
155.3869687702242
 21
371.7125446702442
 31
0.0
  0
LINE
  5
219A
330
1EAD
100
AcDbEntity
  8
0
  6
ByBlock
100
AcDbLine
 10
160.3869687702242
 20
349.3225446702442
 30
0.0
 11
160.3869687702242
 21
336.8225446702442
 31
0.0
  0
LINE
  5
219B
330
1EAD
100
AcDbEntity
  8
0
  6
ByBlock
100
AcDbLine
 10
160.3869687702242
 20
384.2125446702442
 30
0.0
 11
160.3869687702242
 21
418.4763241978031
 31
0.0
  0
LINE
  5
219C
330
1EAD
100
AcDbEntity
  8
0
  6
ByBlock
100
AcDbLine
 10
160.3869687702242
 20
361.8225446702442
 30
0.0
 11
160.3869687702242
 21
371.7125446702442
 31
0.0
  0
SOLID
  5
219D
330
1EAD
100
AcDbEntity
  8
0
  6
ByBlock
100
AcDbTrace
 10
158.3036354368908
 20
349.3225446702442
 30
0.0
 11
162.4703021035575
 21
349.3225446702442
 31
0.0
 12
160.3869687702242
 22
361.8225446702442
 32
0.0
 13
160.3869687702242
 23
361.8225446702442
 33
0.0
  0
SOLID
  5
219E
330
1EAD
100
AcDbEntity
  8
0
  6
ByBlock
100
AcDbTrace
 10
158.3036354368908
 20
384.2125446702442
 30
0.0
 11
162.4703021035575
 21
384.2125446702442
 31
0.0
 12
160.3869687702242
 22
371.7125446702442
 32
0.0
 13
160.3869687702242
 23
371.7125446702442
 33
0.0
  0
MTEXT
  5
219F
330
1EAD
100
AcDbEntity
  8
0
  6
ByBlock
 62
     2
100
AcDbMText
 10
148.6369687702242
 20
407.5944344340237
 30
0.0
 40
17.5
 41
0.0
 71
     5
 72
     1
  1
10
 11
0.0000000000000001
 21
1.0
 31
0.0
 73
     1
 44
1.0
1001
ACAD
1000
MTEXTBEGIN
1070
    73
1070
     1
1070
    44
1040
1.0
1070
    74
1070
     0
1000
MTEXTEND
  0
POINT
  5
21A0
330
1EAD
100
AcDbEntity
  8
DEFPOINTS
  6
ByBlock
 62
     0
100
AcDbPoint
 10
210.3869687702242
 20
361.8225446702442
 30
0.0
  0
POINT
  5
21A1
330
1EAD
100
AcDbEntity
  8
DEFPOINTS
  6
ByBlock
 62
     0
100
AcDbPoint
 10
215.7159687702242
 20
371.7125446702442
 30
0.0
  0
POINT
  5
21A2
330
1EAD
100
AcDbEntity
  8
DEFPOINTS
  6
ByBlock
 62
     0
100
AcDbPoint
 10
160.3869687702242
 20
371.7125446702442
 30
0.0
  0
ENDBLK
  5
21A3
330
1EAD
100
AcDbEntity
  8
0
100
AcDbBlockEnd
  0
BLOCK
  5
21E8
330
21E7
100
AcDbEntity
  8
0
100
AcDbBlockBegin
  2
GEVCON
 70
     0
 10
0.0
 20
0.0
 30
0.0
  3
GEVCON
  1
GEVCON
  0
ENDBLK
  5
21E9
330
21E7
100
AcDbEntity
  8
0
100
AcDbBlockEnd
  0
BLOCK
  5
21F2
330
21EB
100
AcDbEntity
  8
0
100
AcDbBlockBegin
  2
GEVEP
 70
     0
 10
0.0
 20
0.0
 30
0.0
  3
GEVEP
  1

  0
LINE
  5
21EC
330
21EB
100
AcDbEntity
  8
0
100
AcDbLine
 10
2.0
 20
-2.0
 30
0.0
 11
-2.0
 21
-2.0
 31
0.0
  0
LINE
  5
21ED
330
21EB
100
AcDbEntity
  8
0
100
AcDbLine
 10
-2.0
 20
2.0
 30
0.0
 11
2.0
 21
2.0
 31
0.0
  0
LINE
  5
21EE
330
21EB
100
AcDbEntity
  8
0
100
AcDbLine
 10
2.0
 20
-2.0
 30
0.0
 11
-2.0
 21
2.0
 31
0.0
  0
LINE
  5
21EF
330
21EB
100
AcDbEntity
  8
0
100
AcDbLine
 10
-2.0
 20
-2.0
 30
0.0
 11
2.0
 21
2.0
 31
0.0
  0
LINE
  5
21F0
330
21EB
100
AcDbEntity
  8
0
100
AcDbLine
 10
-2.0
 20
-2.0
 30
0.0
 11
-2.0
 21
2.0
 31
0.0
  0
LINE
  5
21F1
330
21EB
100
AcDbEntity
  8
0
100
AcDbLine
 10
2.0
 20
2.0
 30
0.0
 11
2.0
 21
-2.0
 31
0.0
  0
ENDBLK
  5
21F3
330
21EB
100
AcDbEntity
  8
0
100
AcDbBlockEnd
  0
BLOCK
  5
21F5
330
21F4
100
AcDbEntity
  8
0
100
AcDbBlockBegin
  2
GEVFRAME
 70
     0
 10
0.0
 20
0.0
 30
0.0
  3
GEVFRAME
  1
GEVFRAME
  0
LINE
  5
21F6
330
21F4
100
AcDbEntity
  8
0
100
AcDbLine
 10
0.0
 20
0.0
 30
0.0
 11
1.0
 21
0.0
 31
0.0
  0
LINE
  5
21F7
330
21F4
100
AcDbEntity
  8
0
100
AcDbLine
 10
1.0
 20
0.0
 30
0.0
 11
1.0
 21
1.0
 31
0.0
  0
LINE
  5
21F8
330
21F4
100
AcDbEntity
  8
0
100
AcDbLine
 10
1.0
 20
1.0
 30
0.0
 11
0.0
 21
1.0
 31
0.0
  0
LINE
  5
21F9
330
21F4
100
AcDbEntity
  8
0
100
AcDbLine
 10
0.0
 20
1.0
 30
0.0
 11
0.0
 21
0.0
 31
0.0
  0
ENDBLK
  5
21FA
330
21F4
100
AcDbEntity
  8
0
100
AcDbBlockEnd
  0
BLOCK
  5
22E4
330
22E2
100
AcDbEntity
  8
0
100
AcDbBlockBegin
  2
GENAXEH
 70
     0
 10
0.0
 20
0.0
 30
0.0
  3
GENAXEH
  1

  0
LINE
  5
22E3
330
22E2
100
AcDbEntity
  8
0
100
AcDbLine
 10
-1.0
 20
0.0
 30
0.0
 11
1.0
 21
0.0
 31
0.0
  0
ENDBLK
  5
22E5
330
22E2
100
AcDbEntity
  8
0
100
AcDbBlockEnd
  0
ENDSEC
  0
SECTION
  2
ENTITIES
  0
LINE
  5
1001
330
1D67
100
AcDbEntity
  8
0
100
AcDbLine
 10
438.8869687702242
 20
125.8215446702442
 30
0.0
 11
341.8869687702241
 21
125.8215446702442
 31
0.0
  0
LINE
  5
1002
330
1D67
100
AcDbEntity
  8
0
100
AcDbLine
 10
441.9029687702241
 20
240.9945446702442
 30
0.0
 11
438.8869687702242
 21
125.8215446702442
 31
0.0
  0
LINE
  5
1003
330
1D67
100
AcDbEntity
  8
0
100
AcDbLine
 10
338.8709687702242
 20
240.9945446702442
 30
0.0
 11
341.8869687702241
 21
125.8215446702442
 31
0.0
  0
LINE
  5
1004
330
1D67
100
AcDbEntity
  8
0
100
AcDbLine
 10
438.8869687702242
 20
125.8215446702442
 30
0.0
 11
445.3869687702242
 21
127.5635446702441
 31
0.0
  0
LINE
  5
1005
330
1D67
100
AcDbEntity
  8
0
100
AcDbLine
 10
341.8869687702241
 20
125.8225446702441
 30
0.0
 11
335.3869687702241
 21
127.5635446702441
 31
0.0
  0
LINE
  5
1006
330
1D67
100
AcDbEntity
  8
0
100
AcDbLine
 10
445.3869687702242
 20
127.5635446702441
 30
0.0
 11
446.4039687702242
 21
185.8225446702441
 31
0.0
  0
LINE
  5
1007
330
1D67
100
AcDbEntity
  8
0
100
AcDbLine
 10
335.3869687702241
 20
127.5635446702441
 30
0.0
 11
334.3699687702242
 21
185.8225446702441
 31
0.0
  0
LINE
  5
1008
330
1D67
100
AcDbEntity
  8
0
100
AcDbLine
 10
446.4039687702242
 20
185.8215446702442
 30
0.0
 11
447.7269687702241
 21
236.3425446702442
 31
0.0
  0
LINE
  5
1009
330
1D67
100
AcDbEntity
  8
0
100
AcDbLine
 10
334.3699687702242
 20
185.8215446702442
 30
0.0
 11
333.0459687702242
 21
236.3435446702442
 31
0.0
  0
LINE
  5
100A
330
1D67
100
AcDbEntity
  8
0
100
AcDbLine
 10
452.1719687702242
 20
241.9815446702442
 30
0.0
 11
476.0979687702241
 21
248.3925446702441
 31
0.0
  0
LINE
  5
100B
330
1D67
100
AcDbEntity
  8
0
100
AcDbLine
 10
328.6019687702242
 20
241.9815446702442
 30
0.0
 11
304.6749687702241
 21
248.3925446702441
 31
0.0
  0
LINE
  5
100C
330
1D67
100
AcDbEntity
  8
0
100
AcDbLine
 10
300.2319687702242
 20
253.9785446702442
 30
0.0
 11
296.9819687702242
 21
347.0335446702442
 31
0.0
  0
LINE
  5
100D
330
1D67
100
AcDbEntity
  8
0
100
AcDbLine
 10
480.5419687702242
 20
253.9785446702442
 30
0.0
 11
483.7909687702241
 21
347.0335446702442
 31
0.0
  0
LINE
  5
100E
330
1D67
100
AcDbEntity
  8
0
100
AcDbLine
 10
304.8869687702242
 20
348.4795446702441
 30
0.0
 11
306.4549687702242
 21
258.6275446702442
 31
0.0
  0
LINE
  5
100F
330
1D67
100
AcDbEntity
  8
0
100
AcDbLine
 10
475.8869687702242
 20
348.4795446702441
 30
0.0
 11
474.3189687702241
 21
258.6275446702442
 31
0.0
  0
ARC
  5
1010
330
1D67
100
AcDbEntity
  8
0
100
AcDbCircle
 10
474.5459687702241
 20
254.1885446702442
 30
0.0
 40
6.0
100
AcDbArc
 50
284.999
 51
358.0
  0
ARC
  5
1011
330
1D67
100
AcDbEntity
  8
0
100
AcDbCircle
 10
453.7249687702241
 20
236.1865446702442
 30
0.0
 40
6.0
100
AcDbArc
 50
105.001
 51
178.5
  0
ARC
  5
1012
330
1D67
100
AcDbEntity
  8
0
100
AcDbCircle
 10
327.0489687702242
 20
236.1865446702442
 30
0.0
 40
6.0
100
AcDbArc
 50
1.500999999999999
 51
75.001
  0
ARC
  5
1013
330
1D67
100
AcDbEntity
  8
0
100
AcDbCircle
 10
306.2279687702242
 20
254.1885446702442
 30
0.0
 40
6.0
100
AcDbArc
 50
182.001
 51
254.999
  0
LINE
  5
1014
330
1D67
100
AcDbEntity
  8
0
100
AcDbLine
 10
446.3469687702241
 20
246.6325446702442
 30
0.0
 11
469.8719687702243
 21
252.9355446702441
 31
0.0
  0
LINE
  5
1015
330
1D67
100
AcDbEntity
  8
0
100
AcDbLine
 10
334.4259687702242
 20
246.6325446702442
 30
0.0
 11
310.9009687702242
 21
252.9365446702442
 31
0.0
  0
ARC
  5
1016
330
1D67
100
AcDbEntity
  8
0
100
AcDbCircle
 10
447.9009687702241
 20
240.8375446702442
 30
0.0
 40
6.0
100
AcDbArc
 50
105.001
 51
178.5
  0
ARC
  5
1017
330
1D67
100
AcDbEntity
  8
0
100
AcDbCircle
 10
468.3199687702241
 20
258.7315446702441
 30
0.0
 40
6.0
100
AcDbArc
 50
285.001
 51
359.0
  0
ARC
  5
1018
330
1D67
100
AcDbEntity
  8
0
100
AcDbCircle
 10
332.8729687702243
 20
240.8375446702442
 30
0.0
 40
6.0
100
AcDbArc
 50
1.5
 51
74.999
  0
ARC
  5
1019
330
1D67
100
AcDbEntity
  8
0
100
AcDbCircle
 10
312.4549687702242
 20
258.7315446702441
 30
0.0
 40
6.0
100
AcDbArc
 50
181.0
 51
255.0
  0
LINE
  5
101A
330
1D67
100
AcDbEntity
  8
4
100
AcDbLine
 10
439.0919687702242
 20
245.4735446702442
 30
0.0
 11
341.6819687702242
 21
245.4735446702442
 31
0.0
  0
LINE
  5
101B
330
1D67
100
AcDbEntity
  8
4
100
AcDbLine
 10
467.1409687702241
 20
254.1065446702442
 30
0.0
 11
313.6329687702243
 21
254.1065446702442
 31
0.0
  0
LINE
  5
101C
330
1D67
100
AcDbEntity
  8
0
100
AcDbLine
 10
487.8869687702242
 20
375.8225446702442
 30
0.0
 11
457.8869687702242
 21
375.8225446702442
 31
0.0
  0
LINE
  5
101D
330
1D67
100
AcDbEntity
  8
0
100
AcDbLine
 10
483.8649687702242
 20
356.3225446702442
 30
0.0
 11
477.2699687702242
 21
356.3225446702442
 31
0.0
  0
LINE
  5
101E
330
1D67
100
AcDbEntity
  8
0
100
AcDbLine
 10
303.5039687702242
 20
356.3225446702442
 30
0.0
 11
296.9089687702242
 21
356.3225446702442
 31
0.0
  0
LINE
  5
101F
330
1D67
100
AcDbEntity
  8
0
100
AcDbLine
 10
302.8869687702242
 20
359.8215446702441
 30
0.0
 11
304.8869687702242
 21
348.4795446702441
 31
0.0
  0
LINE
  5
1020
330
1D67
100
AcDbEntity
  8
0
100
AcDbLine
 10
477.8869687702242
 20
359.8215446702441
 30
0.0
 11
475.8869687702242
 21
348.4795446702441
 31
0.0
  0
LINE
  5
1021
330
1D67
100
AcDbEntity
  8
0
100
AcDbLine
 10
475.8869687702242
 20
348.4795446702441
 30
0.0
 11
457.8869687702242
 21
348.4795446702441
 31
0.0
  0
LINE
  5
1022
330
1D67
100
AcDbEntity
  8
0
100
AcDbLine
 10
295.8869687702241
 20
375.8225446702442
 30
0.0
 11
296.7249687702242
 21
359.8225446702442
 31
0.0
  0
LINE
  5
1023
330
1D67
100
AcDbEntity
  8
0
100
AcDbLine
 10
484.8869687702242
 20
375.8215446702441
 30
0.0
 11
484.0479687702242
 21
359.8225446702442
 31
0.0
  0
LINE
  5
1024
330
1D67
100
AcDbEntity
  8
0
100
AcDbLine
 10
227.5449687702242
 20
361.8225446702442
 30
0.0
 11
210.3869687702242
 21
361.8225446702442
 31
0.0
  0
LINE
  5
1025
330
1D67
100
AcDbEntity
  8
0
100
AcDbLine
 10
570.3869687702242
 20
361.8225446702442
 30
0.0
 11
553.2289687702242
 21
361.8225446702442
 31
0.0
  0
LINE
  5
1026
330
1D67
100
AcDbEntity
  8
0
100
AcDbLine
 10
565.7889687702241
 20
371.8225446702442
 30
0.0
 11
553.3869687702242
 21
371.8225446702442
 31
0.0
  0
LINE
  5
1027
330
1D67
100
AcDbEntity
  8
0
100
AcDbLine
 10
210.3869687702242
 20
361.8215446702441
 30
0.0
 11
212.5699687702242
 21
369.9695446702441
 31
0.0
  0
LINE
  5
1028
330
1D67
100
AcDbEntity
  8
0
100
AcDbLine
 10
570.3869687702242
 20
361.8215446702441
 30
0.0
 11
568.2039687702241
 21
369.9685446702442
 31
0.0
  0
ARC
  5
1029
330
1D67
100
AcDbEntity
  8
0
100
AcDbCircle
 10
565.7889687702241
 20
369.3225446702442
 30
0.0
 40
2.5
100
AcDbArc
 50
15.0
 51
107.0
  0
ARC
  5
102A
330
1D67
100
AcDbEntity
  8
0
100
AcDbCircle
 10
214.9849687702242
 20
369.3225446702442
 30
0.0
 40
2.5
100
AcDbArc
 50
73.0
 51
165.0
  0
LINE
  5
102B
330
1D67
100
AcDbEntity
  8
0
100
AcDbLine
 10
292.8869687702242
 20
375.8215446702441
 30
0.0
 11
289.7739687702242
 21
361.1805446702442
 31
0.0
  0
LINE
  5
102C
330
1D67
100
AcDbEntity
  8
0
100
AcDbLine
 10
487.8869687702242
 20
375.8215446702441
 30
0.0
 11
490.9989687702242
 21
361.1805446702442
 31
0.0
  0
LINE
  5
102D
330
1D67
100
AcDbEntity
  8
0
100
AcDbLine
 10
565.0579687702242
 20
371.7125446702442
 30
0.0
 11
536.3869687702242
 21
362.9475446702442
 31
0.0
  0
LINE
  5
102E
330
1D67
100
AcDbEntity
  8
0
100
AcDbLine
 10
553.2279687702241
 20
361.8215446702441
 30
0.0
 11
537.5379687702242
 21
357.0245446702442
 31
0.0
  0
LINE
  5
102F
330
1D67
100
AcDbEntity
  8
0
100
AcDbLine
 10
215.7159687702242
 20
371.7125446702442
 30
0.0
 11
244.3869687702242
 21
362.9475446702442
 31
0.0
  0
LINE
  5
1030
330
1D67
100
AcDbEntity
  8
0
100
AcDbLine
 10
227.5449687702242
 20
361.8215446702441
 30
0.0
 11
243.2359687702242
 21
357.0245446702442
 31
0.0
  0
LINE
  5
1031
330
1D67
100
AcDbEntity
  8
0
100
AcDbLine
 10
244.3869687702242
 20
362.9475446702442
 30
0.0
 11
258.7489687702242
 21
361.6905446702442
 31
0.0
  0
LINE
  5
1032
330
1D67
100
AcDbEntity
  8
0
100
AcDbLine
 10
536.3869687702242
 20
362.9475446702442
 30
0.0
 11
522.0249687702241
 21
361.6905446702442
 31
0.0
  0
ARC
  5
1033
330
1D67
100
AcDbEntity
  8
0
100
AcDbCircle
 10
493.4449687702241
 20
361.7005446702441
 30
0.0
 40
2.5
100
AcDbArc
 50
183.0359999999999
 51
274.998
  0
ARC
  5
1034
330
1D67
100
AcDbEntity
  8
0
100
AcDbCircle
 10
287.3289687702241
 20
361.6995446702442
 30
0.0
 40
2.5
100
AcDbArc
 50
265.001
 51
348.0
  0
ARC
  5
1035
330
1D67
100
AcDbEntity
  8
0
100
AcDbCircle
 10
515.3869687702242
 20
341.8225446702442
 30
0.0
 40
12.0
100
AcDbArc
 50
190.22
 51
350.0
  0
ARC
  5
1036
330
1D67
100
AcDbEntity
  8
0
100
AcDbCircle
 10
265.3869687702242
 20
341.8225446702442
 30
0.0
 40
12.0
100
AcDbArc
 50
190.243
 51
350.0
  0
LINE
  5
1037
330
1D67
100
AcDbEntity
  8
0
100
AcDbLine
 10
537.5379687702242
 20
357.0245446702442
 30
0.0
 11
532.0499687702241
 21
356.5445446702441
 31
0.0
  0
LINE
  5
1038
330
1D67
100
AcDbEntity
  8
0
100
AcDbLine
 10
243.2359687702242
 20
357.0255446702441
 30
0.0
 11
248.7249687702242
 21
356.5445446702441
 31
0.0
  0
LINE
  5
1039
330
1D67
100
AcDbEntity
  8
0
100
AcDbLine
 10
527.2039687702241
 20
339.7385446702442
 30
0.0
 11
529.8049687702241
 21
354.4885446702441
 31
0.0
  0
LINE
  5
103A
330
1D67
100
AcDbEntity
  8
0
100
AcDbLine
 10
277.2039687702242
 20
339.7385446702442
 30
0.0
 11
279.2919687702242
 21
351.5795446702441
 31
0.0
  0
LINE
  5
103B
330
1D67
100
AcDbEntity
  8
0
100
AcDbLine
 10
253.5689687702242
 20
339.7385446702442
 30
0.0
 11
250.9689687702242
 21
354.4885446702441
 31
0.0
  0
LINE
  5
103C
330
1D67
100
AcDbEntity
  8
0
100
AcDbLine
 10
503.5689687702241
 20
339.7385446702442
 30
0.0
 11
501.4809687702242
 21
351.5795446702441
 31
0.0
  0
LINE
  5
103D
330
1D67
100
AcDbEntity
  8
0
100
AcDbLine
 10
281.9729687702242
 20
353.6365446702441
 30
0.0
 11
291.5089687702242
 21
352.8015446702442
 31
0.0
  0
ARC
  5
103E
330
1D67
100
AcDbEntity
  8
0
100
AcDbCircle
 10
248.5069687702242
 20
354.0545446702442
 30
0.0
 40
2.5
100
AcDbArc
 50
10.001
 51
85.0
  0
ARC
  5
103F
330
1D67
100
AcDbEntity
  8
0
100
AcDbCircle
 10
281.7549687702242
 20
351.1455446702441
 30
0.0
 40
2.5
100
AcDbArc
 50
84.999
 51
170.0009999999999
  0
LINE
  5
1040
330
1D67
100
AcDbEntity
  8
0
100
AcDbLine
 10
498.8009687702241
 20
353.6355446702442
 30
0.0
 11
489.2649687702242
 21
352.8015446702442
 31
0.0
  0
ARC
  5
1041
330
1D67
100
AcDbEntity
  8
0
100
AcDbCircle
 10
532.2679687702242
 20
354.0545446702442
 30
0.0
 40
2.5
100
AcDbArc
 50
94.99700000000002
 51
169.999
  0
ARC
  5
1042
330
1D67
100
AcDbEntity
  8
0
100
AcDbCircle
 10
499.0189687702241
 20
351.1455446702441
 30
0.0
 40
2.5
100
AcDbArc
 50
9.998000000000001
 51
95.0
  0
ARC
  5
1043
330
1D67
100
AcDbEntity
  8
0
100
AcDbCircle
 10
489.7879687702242
 20
346.8245446702442
 30
0.0
 40
6.0
100
AcDbArc
 50
95.0
 51
178.001
  0
ARC
  5
1044
330
1D67
100
AcDbEntity
  8
0
100
AcDbCircle
 10
290.9859687702242
 20
346.8245446702442
 30
0.0
 40
6.0
100
AcDbArc
 50
1.999
 51
85.00100000000001
  0
LINE
  5
1045
330
1D67
100
AcDbEntity
  8
0
100
AcDbLine
 10
271.3869687702242
 20
360.5855446702441
 30
0.0
 11
287.1109687702242
 21
359.2095446702442
 31
0.0
  0
LINE
  5
1046
330
1D67
100
AcDbEntity
  8
0
100
AcDbLine
 10
271.3899687702242
 20
360.5845446702442
 30
0.0
 11
270.3859687702242
 21
360.5845446702442
 31
0.0
  0
LINE
  5
1047
330
1D67
100
AcDbEntity
  8
0
100
AcDbLine
 10
259.3869687702242
 20
360.5855446702441
 30
0.0
 11
258.7489687702242
 21
361.6905446702442
 31
0.0
  0
LINE
  5
1048
330
1D67
100
AcDbEntity
  8
0
100
AcDbLine
 10
509.3869687702242
 20
360.5845446702442
 30
0.0
 11
493.6619687702242
 21
359.2095446702442
 31
0.0
  0
LINE
  5
1049
330
1D67
100
AcDbEntity
  8
3A
 48
0.066
100
AcDbLine
 10
509.3909687702241
 20
360.5855446702441
 30
0.0
 11
510.3859687702241
 21
360.5855446702441
 31
0.0
  0
LINE
  5
104A
330
1D67
100
AcDbEntity
  8
0
100
AcDbLine
 10
521.3869687702242
 20
360.5855446702441
 30
0.0
 11
522.0249687702241
 21
361.6905446702442
 31
0.0
  0
LINE
  5
104B
330
1D67
100
AcDbEntity
  8
0
100
AcDbLine
 10
511.3869687702242
 20
340.0855446702441
 30
0.0
 11
519.3869687702242
 21
340.0855446702441
 31
0.0
  0
LINE
  5
104C
330
1D67
100
AcDbEntity
  8
0
100
AcDbLine
 10
269.3869687702242
 20
340.0855446702441
 30
0.0
 11
261.3869687702242
 21
340.0855446702441
 31
0.0
  0
LINE
  5
104D
330
1D67
100
AcDbEntity
  8
0
100
AcDbLine
 10
519.3869687702242
 20
340.0855446702441
 30
0.0
 11
515.3869687702242
 21
337.7755446702441
 31
0.0
  0
LINE
  5
104E
330
1D67
100
AcDbEntity
  8
0
100
AcDbLine
 10
511.3869687702242
 20
340.0855446702441
 30
0.0
 11
515.3869687702242
 21
337.7755446702441
 31
0.0
  0
LINE
  5
104F
330
1D67
100
AcDbEntity
  8
0
100
AcDbLine
 10
269.3869687702242
 20
340.0855446702441
 30
0.0
 11
265.3869687702242
 21
337.7755446702441
 31
0.0
  0
LINE
  5
1050
330
1D67
100
AcDbEntity
  8
0
100
AcDbLine
 10
261.3869687702242
 20
340.0855446702441
 30
0.0
 11
265.3869687702242
 21
337.7755446702441
 31
0.0
  0
LINE
  5
1051
330
1D67
100
AcDbEntity
  8
0
100
AcDbLine
 10
227.3869687702242
 20
371.8225446702442
 30
0.0
 11
214.9849687702242
 21
371.8225446702442
 31
0.0
  0
LINE
  5
1052
330
1D67
100
AcDbEntity
  8
0
100
AcDbLine
 10
274.8869687702241
 20
373.8225446702442
 30
0.0
 11
292.4619687702242
 21
373.8225446702442
 31
0.0
  0
LINE
  5
1053
330
1D67
100
AcDbEntity
  8
0
100
AcDbLine
 10
493.9849687702242
 20
362.4075446702442
 30
0.0
 11
493.6489687702241
 21
368.8225446702442
 31
0.0
  0
LINE
  5
1054
330
1D67
100
AcDbEntity
  8
0
100
AcDbLine
 10
457.8869687702242
 20
359.8225446702442
 30
0.0
 11
484.0479687702242
 21
359.8225446702442
 31
0.0
  0
LINE
  5
1055
330
1D67
100
AcDbEntity
  8
0
100
AcDbLine
 10
489.3749687702242
 20
368.8225446702442
 30
0.0
 11
493.6489687702241
 21
368.8225446702442
 31
0.0
  0
LINE
  5
1056
330
1D67
100
AcDbEntity
  8
0
100
AcDbLine
 10
493.0969687702241
 20
368.7935446702442
 30
0.0
 11
504.3869687702242
 21
369.3845446702442
 31
0.0
  0
LINE
  5
1057
330
1D67
100
AcDbEntity
  8
0
100
AcDbLine
 10
525.9499687702241
 20
369.3845446702442
 30
0.0
 11
529.2259687702242
 21
372.6605446702441
 31
0.0
  0
LINE
  5
1058
330
1D67
100
AcDbEntity
  8
0
100
AcDbLine
 10
504.3869687702242
 20
369.3845446702442
 30
0.0
 11
509.1579687702242
 21
369.3845446702442
 31
0.0
  0
ARC
  5
1059
330
1D67
100
AcDbEntity
  8
0
100
AcDbCircle
 10
551.3869687702242
 20
371.8225446702442
 30
0.0
 40
2.0
100
AcDbArc
 50
305.6620000000001
 51
90.0
  0
LINE
  5
105A
330
1D67
100
AcDbEntity
  8
0
100
AcDbLine
 10
529.2259687702242
 20
372.6605446702441
 30
0.0
 11
551.3869687702242
 21
373.8225446702442
 31
0.0
  0
LINE
  5
105B
330
1D67
100
AcDbEntity
  8
0
100
AcDbLine
 10
494.1209687702241
 20
359.8225446702442
 30
0.0
 11
505.4949687702242
 21
360.8175446702442
 31
0.0
  0
LINE
  5
105C
330
1D67
100
AcDbEntity
  8
0
100
AcDbLine
 10
530.3869687702242
 20
362.9945446702442
 30
0.0
 11
552.5529687702242
 21
370.1975446702442
 31
0.0
  0
LINE
  5
105D
330
1D67
100
AcDbEntity
  8
0
100
AcDbLine
 10
525.9499687702241
 20
369.3845446702442
 30
0.0
 11
521.6159687702242
 21
369.3845446702442
 31
0.0
  0
LINE
  5
105E
330
1D67
100
AcDbEntity
  8
0
100
AcDbLine
 10
509.1579687702242
 20
369.3845446702442
 30
0.0
 11
520.3859687702241
 21
369.3845446702442
 31
0.0
  0
LINE
  5
105F
330
1D67
100
AcDbEntity
  8
0
100
AcDbLine
 10
505.4949687702242
 20
360.8175446702442
 30
0.0
 11
510.3859687702241
 21
361.2455446702441
 31
0.0
  0
ARC
  5
1060
330
1D67
100
AcDbEntity
  8
0
100
AcDbCircle
 10
496.4819687702242
 20
362.5385446702442
 30
0.0
 40
2.5
100
AcDbArc
 50
183.0
 51
275.0
  0
LINE
  5
1061
330
1D67
100
AcDbEntity
  8
0
100
AcDbLine
 10
522.7279687702242
 20
364.6155446702441
 30
0.0
 11
521.8869687702242
 21
369.3845446702442
 31
0.0
  0
LINE
  5
1062
330
1D67
100
AcDbEntity
  8
0
100
AcDbLine
 10
507.7389687702242
 20
362.8735446702442
 30
0.0
 11
508.8869687702242
 21
369.3845446702442
 31
0.0
  0
ARC
  5
1063
330
1D67
100
AcDbEntity
  8
0
100
AcDbCircle
 10
505.2769687702242
 20
363.3075446702442
 30
0.0
 40
2.5
100
AcDbArc
 50
275.0
 51
350.0
  0
LINE
  5
1064
330
1D67
100
AcDbEntity
  8
0
100
AcDbLine
 10
525.4079687702242
 20
362.5595446702442
 30
0.0
 11
530.3869687702242
 21
362.9945446702442
 31
0.0
  0
ARC
  5
1065
330
1D67
100
AcDbEntity
  8
0
100
AcDbCircle
 10
525.1899687702241
 20
365.0495446702442
 30
0.0
 40
2.5
100
AcDbArc
 50
190.0
 51
275.0
  0
LINE
  5
1066
330
1D67
100
AcDbEntity
  8
0
100
AcDbLine
 10
286.7889687702242
 20
362.4075446702442
 30
0.0
 11
287.1249687702242
 21
368.8225446702442
 31
0.0
  0
LINE
  5
1067
330
1D67
100
AcDbEntity
  8
0
100
AcDbLine
 10
322.8869687702241
 20
359.8225446702442
 30
0.0
 11
296.7249687702242
 21
359.8225446702442
 31
0.0
  0
LINE
  5
1068
330
1D67
100
AcDbEntity
  8
0
100
AcDbLine
 10
287.6779687702242
 20
368.7935446702442
 30
0.0
 11
276.3869687702241
 21
369.3845446702442
 31
0.0
  0
LINE
  5
1069
330
1D67
100
AcDbEntity
  8
0
100
AcDbLine
 10
254.8239687702242
 20
369.3845446702442
 30
0.0
 11
251.5479687702242
 21
372.6605446702441
 31
0.0
  0
ARC
  5
106A
330
1D67
100
AcDbEntity
  8
0
100
AcDbCircle
 10
229.3869687702242
 20
371.8225446702442
 30
0.0
 40
2.0
100
AcDbArc
 50
90.0
 51
234.338
  0
LINE
  5
106B
330
1D67
100
AcDbEntity
  8
0
100
AcDbLine
 10
251.5489687702242
 20
372.6605446702441
 30
0.0
 11
229.3869687702242
 21
373.8225446702442
 31
0.0
  0
LINE
  5
106C
330
1D67
100
AcDbEntity
  8
0
100
AcDbLine
 10
286.6529687702242
 20
359.8225446702442
 30
0.0
 11
275.2789687702242
 21
360.8175446702442
 31
0.0
  0
LINE
  5
106D
330
1D67
100
AcDbEntity
  8
0
100
AcDbLine
 10
250.3869687702242
 20
362.9945446702442
 30
0.0
 11
228.2209687702242
 21
370.1975446702442
 31
0.0
  0
LINE
  5
106E
330
1D67
100
AcDbEntity
  8
0
100
AcDbLine
 10
254.8239687702242
 20
369.3845446702442
 30
0.0
 11
276.3869687702241
 21
369.3845446702442
 31
0.0
  0
LINE
  5
106F
330
1D67
100
AcDbEntity
  8
0
100
AcDbLine
 10
275.2789687702242
 20
360.8175446702442
 30
0.0
 11
270.3859687702242
 21
361.2455446702441
 31
0.0
  0
ARC
  5
1070
330
1D67
100
AcDbEntity
  8
0
100
AcDbCircle
 10
284.2919687702242
 20
362.5385446702442
 30
0.0
 40
2.5
100
AcDbArc
 50
265.0
 51
357.0
  0
LINE
  5
1071
330
1D67
100
AcDbEntity
  8
0
100
AcDbLine
 10
258.0459687702242
 20
364.6155446702441
 30
0.0
 11
258.8869687702242
 21
369.3845446702442
 31
0.0
  0
LINE
  5
1072
330
1D67
100
AcDbEntity
  8
0
100
AcDbLine
 10
273.0349687702242
 20
362.8735446702442
 30
0.0
 11
271.8869687702242
 21
369.3845446702442
 31
0.0
  0
ARC
  5
1073
330
1D67
100
AcDbEntity
  8
0
100
AcDbCircle
 10
275.4969687702242
 20
363.3075446702442
 30
0.0
 40
2.5
100
AcDbArc
 50
190.0
 51
265.0
  0
LINE
  5
1074
330
1D67
100
AcDbEntity
  8
0
100
AcDbLine
 10
255.3659687702242
 20
362.5595446702442
 30
0.0
 11
250.3869687702242
 21
362.9945446702442
 31
0.0
  0
ARC
  5
1075
330
1D67
100
AcDbEntity
  8
0
100
AcDbCircle
 10
255.5839687702242
 20
365.0495446702442
 30
0.0
 40
2.5
100
AcDbArc
 50
265.0
 51
350.0
  0
LINE
  5
1076
330
1D67
100
AcDbEntity
  8
0
100
AcDbLine
 10
296.7249687702242
 20
359.8225446702442
 30
0.0
 11
296.9089687702242
 21
356.3215446702441
 31
0.0
  0
LINE
  5
1077
330
1D67
100
AcDbEntity
  8
0
100
AcDbLine
 10
484.0479687702242
 20
359.8225446702442
 30
0.0
 11
483.8649687702242
 21
356.3225446702442
 31
0.0
  0
LINE
  5
1078
330
1D67
100
AcDbEntity
  8
0
100
AcDbLine
 10
520.3859687702241
 20
369.3845446702442
 30
0.0
 11
520.3859687702241
 21
345.8225446702442
 31
0.0
  0
LINE
  5
1079
330
1D67
100
AcDbEntity
  8
0
100
AcDbLine
 10
510.3859687702241
 20
369.3845446702442
 30
0.0
 11
510.3859687702241
 21
345.8225446702442
 31
0.0
  0
LINE
  5
107A
330
1D67
100
AcDbEntity
  8
0
100
AcDbLine
 10
519.3859687702241
 20
369.3845446702442
 30
0.0
 11
519.3859687702241
 21
340.0855446702441
 31
0.0
  0
LINE
  5
107B
330
1D67
100
AcDbEntity
  8
0
100
AcDbLine
 10
511.3869687702242
 20
369.3845446702442
 30
0.0
 11
511.3869687702242
 21
340.0855446702441
 31
0.0
  0
LINE
  5
107C
330
1D67
100
AcDbEntity
  8
0
100
AcDbLine
 10
510.3859687702241
 20
345.8225446702442
 30
0.0
 11
520.3859687702241
 21
345.8225446702442
 31
0.0
  0
LINE
  5
107D
330
1D67
100
AcDbEntity
  8
0
100
AcDbLine
 10
520.3859687702241
 20
383.3855446702441
 30
0.0
 11
510.3859687702241
 21
383.3855446702441
 31
0.0
  0
LINE
  5
107E
330
1D67
100
AcDbEntity
  8
0
100
AcDbLine
 10
525.8869687702242
 20
371.3845446702442
 30
0.0
 11
504.8869687702242
 21
371.3845446702442
 31
0.0
  0
LINE
  5
107F
330
1D67
100
AcDbEntity
  8
0
100
AcDbLine
 10
510.1369687702242
 20
371.3845446702442
 30
0.0
 11
510.1369687702242
 21
369.3845446702442
 31
0.0
  0
LINE
  5
1080
330
1D67
100
AcDbEntity
  8
0
100
AcDbLine
 10
504.8869687702242
 20
371.3845446702442
 30
0.0
 11
504.8869687702242
 21
369.3845446702442
 31
0.0
  0
LINE
  5
1081
330
1D67
100
AcDbEntity
  8
0
100
AcDbLine
 10
520.6359687702241
 20
371.3845446702442
 30
0.0
 11
520.6359687702241
 21
369.3845446702442
 31
0.0
  0
LINE
  5
1082
330
1D67
100
AcDbEntity
  8
0
100
AcDbLine
 10
525.8869687702242
 20
371.3845446702442
 30
0.0
 11
525.8869687702242
 21
369.3845446702442
 31
0.0
  0
LINE
  5
1083
330
1D67
100
AcDbEntity
  8
0
100
AcDbLine
 10
506.3869687702243
 20
372.2855446702441
 30
0.0
 11
524.3859687702241
 21
372.2855446702441
 31
0.0
  0
LINE
  5
1084
330
1D67
100
AcDbEntity
  8
0
100
AcDbLine
 10
506.3869687702243
 20
372.2855446702441
 30
0.0
 11
506.3869687702243
 21
371.3845446702442
 31
0.0
  0
LINE
  5
1085
330
1D67
100
AcDbEntity
  8
3A
 48
0.06
100
AcDbLine
 10
514.3629687702242
 20
372.2855446702441
 30
0.0
 11
514.3629687702242
 21
371.3845446702442
 31
0.0
  0
LINE
  5
1086
330
1D67
100
AcDbEntity
  8
3A
 48
0.06
100
AcDbLine
 10
511.8019687702242
 20
372.2855446702441
 30
0.0
 11
511.8019687702242
 21
371.3845446702442
 31
0.0
  0
LINE
  5
1087
330
1D67
100
AcDbEntity
  8
3A
 48
0.06
100
AcDbLine
 10
510.0279687702242
 20
372.2855446702441
 30
0.0
 11
510.0279687702242
 21
371.3845446702442
 31
0.0
  0
LINE
  5
1088
330
1D67
100
AcDbEntity
  8
3A
 48
0.06
100
AcDbLine
 10
508.1549687702241
 20
372.2855446702441
 30
0.0
 11
508.1549687702241
 21
371.3845446702442
 31
0.0
  0
LINE
  5
1089
330
1D67
100
AcDbEntity
  8
3A
 48
0.06
100
AcDbLine
 10
507.1299687702242
 20
372.2855446702441
 30
0.0
 11
507.1299687702242
 21
371.3845446702442
 31
0.0
  0
LINE
  5
108A
330
1D67
100
AcDbEntity
  8
3A
 48
0.06
100
AcDbLine
 10
516.4099687702242
 20
372.2855446702441
 30
0.0
 11
516.4099687702242
 21
371.3845446702442
 31
0.0
  0
LINE
  5
108B
330
1D67
100
AcDbEntity
  8
3A
 48
0.06
100
AcDbLine
 10
518.9699687702242
 20
372.2855446702441
 30
0.0
 11
518.9699687702242
 21
371.3845446702442
 31
0.0
  0
LINE
  5
108C
330
1D67
100
AcDbEntity
  8
3A
 48
0.06
100
AcDbLine
 10
520.7439687702242
 20
372.2855446702441
 30
0.0
 11
520.7439687702242
 21
371.3845446702442
 31
0.0
  0
LINE
  5
108D
330
1D67
100
AcDbEntity
  8
3A
 48
0.06
100
AcDbLine
 10
522.6179687702242
 20
372.2855446702441
 30
0.0
 11
522.6179687702242
 21
371.3845446702442
 31
0.0
  0
LINE
  5
108E
330
1D67
100
AcDbEntity
  8
3A
 48
0.06
100
AcDbLine
 10
523.6419687702242
 20
372.2855446702441
 30
0.0
 11
523.6419687702242
 21
371.3845446702442
 31
0.0
  0
LINE
  5
108F
330
1D67
100
AcDbEntity
  8
0
100
AcDbLine
 10
524.3859687702241
 20
372.2855446702441
 30
0.0
 11
524.3859687702241
 21
371.3845446702442
 31
0.0
  0
LINE
  5
1090
330
1D67
100
AcDbEntity
  8
3A
 48
0.06
100
AcDbLine
 10
510.1369687702242
 20
371.3845446702442
 30
0.0
 11
510.1369687702242
 21
372.2855446702441
 31
0.0
  0
LINE
  5
1091
330
1D67
100
AcDbEntity
  8
3A
 48
0.06
100
AcDbLine
 10
520.6359687702241
 20
371.3845446702442
 30
0.0
 11
520.6359687702241
 21
372.2855446702441
 31
0.0
  0
LINE
  5
1092
330
1D67
100
AcDbEntity
  8
0
100
AcDbLine
 10
522.4729687702241
 20
380.2845446702442
 30
0.0
 11
508.2989687702242
 21
380.2845446702442
 31
0.0
  0
ARC
  5
1093
330
1D67
100
AcDbEntity
  8
0
100
AcDbCircle
 10
515.3859687702241
 20
391.1845446702442
 30
0.0
 40
18.9
100
AcDbArc
 50
255.399
 51
284.601
  0
ARC
  5
1094
330
1D67
100
AcDbEntity
  8
0
100
AcDbCircle
 10
508.2989687702242
 20
377.0095446702442
 30
0.0
 40
4.724999999999999
100
AcDbArc
 50
240.0
 51
299.448
  0
ARC
  5
1095
330
1D67
100
AcDbEntity
  8
0
100
AcDbCircle
 10
515.3859687702241
 20
361.3845446702442
 30
0.0
 40
18.9
100
AcDbArc
 50
75.399
 51
104.601
  0
ARC
  5
1096
330
1D67
100
AcDbEntity
  8
0
100
AcDbCircle
 10
508.2989687702242
 20
375.5595446702442
 30
0.0
 40
4.724999999999999
100
AcDbArc
 50
60.55200000000001
 51
120.0
  0
LINE
  5
1097
330
1D67
100
AcDbEntity
  8
0
100
AcDbLine
 10
510.6219687702242
 20
372.8955446702441
 30
0.0
 11
510.6219687702242
 21
379.6745446702442
 31
0.0
  0
LINE
  5
1098
330
1D67
100
AcDbEntity
  8
0
100
AcDbLine
 10
520.1499687702241
 20
372.8955446702441
 30
0.0
 11
520.1499687702241
 21
379.6745446702442
 31
0.0
  0
ARC
  5
1099
330
1D67
100
AcDbEntity
  8
0
100
AcDbCircle
 10
522.4729687702241
 20
375.5595446702442
 30
0.0
 40
4.724999999999999
100
AcDbArc
 50
59.999
 51
119.449
  0
ARC
  5
109A
330
1D67
100
AcDbEntity
  8
0
100
AcDbCircle
 10
522.4729687702241
 20
377.0095446702442
 30
0.0
 40
4.724999999999999
100
AcDbArc
 50
240.552
 51
300.0
  0
LINE
  5
109B
330
1D67
100
AcDbEntity
  8
0
100
AcDbLine
 10
505.8869687702242
 20
372.9475446702442
 30
0.0
 11
505.8869687702242
 21
379.6225446702442
 31
0.0
  0
LINE
  5
109C
330
1D67
100
AcDbEntity
  8
0
100
AcDbLine
 10
524.8869687702242
 20
379.6225446702442
 30
0.0
 11
524.8869687702242
 21
372.9475446702442
 31
0.0
  0
LINE
  5
109D
330
1D67
100
AcDbEntity
  8
0
100
AcDbLine
 10
511.3859687702241
 20
380.2845446702442
 30
0.0
 11
511.3859687702241
 21
383.3855446702441
 31
0.0
  0
LINE
  5
109E
330
1D67
100
AcDbEntity
  8
0
100
AcDbLine
 10
519.3859687702241
 20
380.2845446702442
 30
0.0
 11
519.3859687702241
 21
383.3855446702441
 31
0.0
  0
LINE
  5
109F
330
1D67
100
AcDbEntity
  8
0
100
AcDbLine
 10
510.3859687702241
 20
380.2845446702442
 30
0.0
 11
510.3859687702241
 21
383.3855446702441
 31
0.0
  0
LINE
  5
10A0
330
1D67
100
AcDbEntity
  8
0
100
AcDbLine
 10
520.3859687702241
 20
380.2845446702442
 30
0.0
 11
520.3859687702241
 21
383.3855446702441
 31
0.0
  0
LINE
  5
10A1
330
1D67
100
AcDbEntity
  8
0
100
AcDbLine
 10
270.3859687702242
 20
369.3845446702442
 30
0.0
 11
270.3859687702242
 21
345.8225446702442
 31
0.0
  0
LINE
  5
10A2
330
1D67
100
AcDbEntity
  8
0
100
AcDbLine
 10
260.3859687702242
 20
369.3845446702442
 30
0.0
 11
260.3859687702242
 21
345.8225446702442
 31
0.0
  0
LINE
  5
10A3
330
1D67
100
AcDbEntity
  8
0
100
AcDbLine
 10
269.3859687702242
 20
369.3845446702442
 30
0.0
 11
269.3859687702242
 21
340.0855446702441
 31
0.0
  0
LINE
  5
10A4
330
1D67
100
AcDbEntity
  8
0
100
AcDbLine
 10
261.3869687702242
 20
369.3845446702442
 30
0.0
 11
261.3869687702242
 21
340.0855446702441
 31
0.0
  0
LINE
  5
10A5
330
1D67
100
AcDbEntity
  8
0
100
AcDbLine
 10
260.3859687702242
 20
345.8225446702442
 30
0.0
 11
270.3859687702242
 21
345.8225446702442
 31
0.0
  0
LINE
  5
10A6
330
1D67
100
AcDbEntity
  8
0
100
AcDbLine
 10
270.3859687702242
 20
383.3855446702441
 30
0.0
 11
260.3859687702242
 21
383.3855446702441
 31
0.0
  0
LINE
  5
10A7
330
1D67
100
AcDbEntity
  8
0
100
AcDbLine
 10
275.8869687702242
 20
371.3845446702442
 30
0.0
 11
254.8869687702242
 21
371.3845446702442
 31
0.0
  0
LINE
  5
10A8
330
1D67
100
AcDbEntity
  8
3A
 48
0.133
100
AcDbLine
 10
260.1369687702241
 20
371.3845446702442
 30
0.0
 11
260.1369687702241
 21
369.3845446702442
 31
0.0
  0
LINE
  5
10A9
330
1D67
100
AcDbEntity
  8
0
100
AcDbLine
 10
254.8869687702242
 20
371.3845446702442
 30
0.0
 11
254.8869687702242
 21
369.3845446702442
 31
0.0
  0
LINE
  5
10AA
330
1D67
100
AcDbEntity
  8
3A
 48
0.133
100
AcDbLine
 10
270.6359687702242
 20
371.3845446702442
 30
0.0
 11
270.6359687702242
 21
369.3845446702442
 31
0.0
  0
LINE
  5
10AB
330
1D67
100
AcDbEntity
  8
0
100
AcDbLine
 10
275.8869687702242
 20
371.3845446702442
 30
0.0
 11
275.8869687702242
 21
369.3845446702442
 31
0.0
  0
LINE
  5
10AC
330
1D67
100
AcDbEntity
  8
0
100
AcDbLine
 10
256.3869687702241
 20
372.2855446702441
 30
0.0
 11
274.3859687702242
 21
372.2855446702441
 31
0.0
  0
LINE
  5
10AD
330
1D67
100
AcDbEntity
  8
3A
 48
0.06
100
AcDbLine
 10
256.3869687702241
 20
372.2855446702441
 30
0.0
 11
256.3869687702241
 21
371.3845446702442
 31
0.0
  0
LINE
  5
10AE
330
1D67
100
AcDbEntity
  8
3A
 48
0.06
100
AcDbLine
 10
264.3629687702242
 20
372.2855446702441
 30
0.0
 11
264.3629687702242
 21
371.3845446702442
 31
0.0
  0
LINE
  5
10AF
330
1D67
100
AcDbEntity
  8
3A
 48
0.06
100
AcDbLine
 10
261.8019687702242
 20
372.2855446702441
 30
0.0
 11
261.8019687702242
 21
371.3845446702442
 31
0.0
  0
LINE
  5
10B0
330
1D67
100
AcDbEntity
  8
3A
 48
0.06
100
AcDbLine
 10
260.0279687702242
 20
372.2855446702441
 30
0.0
 11
260.0279687702242
 21
371.3845446702442
 31
0.0
  0
LINE
  5
10B1
330
1D67
100
AcDbEntity
  8
3A
 48
0.06
100
AcDbLine
 10
258.1549687702242
 20
372.2855446702441
 30
0.0
 11
258.1549687702242
 21
371.3845446702442
 31
0.0
  0
LINE
  5
10B2
330
1D67
100
AcDbEntity
  8
3A
 48
0.06
100
AcDbLine
 10
257.1299687702242
 20
372.2855446702441
 30
0.0
 11
257.1299687702242
 21
371.3845446702442
 31
0.0
  0
LINE
  5
10B3
330
1D67
100
AcDbEntity
  8
3A
 48
0.06
100
AcDbLine
 10
266.4099687702242
 20
372.2855446702441
 30
0.0
 11
266.4099687702242
 21
371.3845446702442
 31
0.0
  0
LINE
  5
10B4
330
1D67
100
AcDbEntity
  8
3A
 48
0.06
100
AcDbLine
 10
268.9699687702242
 20
372.2855446702441
 30
0.0
 11
268.9699687702242
 21
371.3845446702442
 31
0.0
  0
LINE
  5
10B5
330
1D67
100
AcDbEntity
  8
3A
 48
0.06
100
AcDbLine
 10
270.7439687702242
 20
372.2855446702441
 30
0.0
 11
270.7439687702242
 21
371.3845446702442
 31
0.0
  0
LINE
  5
10B6
330
1D67
100
AcDbEntity
  8
3A
 48
0.06
100
AcDbLine
 10
272.6179687702242
 20
372.2855446702441
 30
0.0
 11
272.6179687702242
 21
371.3845446702442
 31
0.0
  0
LINE
  5
10B7
330
1D67
100
AcDbEntity
  8
3A
 48
0.06
100
AcDbLine
 10
273.6419687702242
 20
372.2855446702441
 30
0.0
 11
273.6419687702242
 21
371.3845446702442
 31
0.0
  0
LINE
  5
10B8
330
1D67
100
AcDbEntity
  8
3A
 48
0.06
100
AcDbLine
 10
274.3859687702242
 20
372.2855446702441
 30
0.0
 11
274.3859687702242
 21
371.3845446702442
 31
0.0
  0
LINE
  5
10B9
330
1D67
100
AcDbEntity
  8
3A
 48
0.06
100
AcDbLine
 10
260.1369687702241
 20
371.3845446702442
 30
0.0
 11
260.1369687702241
 21
372.2855446702441
 31
0.0
  0
LINE
  5
10BA
330
1D67
100
AcDbEntity
  8
3A
 48
0.06
100
AcDbLine
 10
270.6359687702242
 20
371.3845446702442
 30
0.0
 11
270.6359687702242
 21
372.2855446702441
 31
0.0
  0
LINE
  5
10BB
330
1D67
100
AcDbEntity
  8
0
100
AcDbLine
 10
272.4729687702242
 20
380.2845446702442
 30
0.0
 11
258.2989687702242
 21
380.2845446702442
 31
0.0
  0
ARC
  5
10BC
330
1D67
100
AcDbEntity
  8
0
100
AcDbCircle
 10
265.3859687702242
 20
391.1845446702442
 30
0.0
 40
18.9
100
AcDbArc
 50
255.399
 51
284.601
  0
ARC
  5
10BD
330
1D67
100
AcDbEntity
  8
0
100
AcDbCircle
 10
258.2989687702242
 20
377.0095446702442
 30
0.0
 40
4.724999999999999
100
AcDbArc
 50
240.0
 51
299.448
  0
ARC
  5
10BE
330
1D67
100
AcDbEntity
  8
0
100
AcDbCircle
 10
265.3859687702242
 20
361.3845446702442
 30
0.0
 40
18.9
100
AcDbArc
 50
75.399
 51
104.601
  0
ARC
  5
10BF
330
1D67
100
AcDbEntity
  8
0
100
AcDbCircle
 10
258.2989687702242
 20
375.5595446702442
 30
0.0
 40
4.724999999999999
100
AcDbArc
 50
60.55200000000001
 51
120.0
  0
LINE
  5
10C0
330
1D67
100
AcDbEntity
  8
0
100
AcDbLine
 10
260.6219687702242
 20
372.8955446702441
 30
0.0
 11
260.6219687702242
 21
379.6745446702442
 31
0.0
  0
LINE
  5
10C1
330
1D67
100
AcDbEntity
  8
0
100
AcDbLine
 10
270.1499687702242
 20
372.8955446702441
 30
0.0
 11
270.1499687702242
 21
379.6745446702442
 31
0.0
  0
ARC
  5
10C2
330
1D67
100
AcDbEntity
  8
0
100
AcDbCircle
 10
272.4729687702242
 20
375.5595446702442
 30
0.0
 40
4.724999999999999
100
AcDbArc
 50
59.999
 51
119.449
  0
ARC
  5
10C3
330
1D67
100
AcDbEntity
  8
3A
 48
0.327
100
AcDbCircle
 10
272.4729687702242
 20
377.0095446702442
 30
0.0
 40
4.724999999999999
100
AcDbArc
 50
240.552
 51
300.0
  0
LINE
  5
10C4
330
1D67
100
AcDbEntity
  8
0
100
AcDbLine
 10
255.8869687702242
 20
372.9475446702442
 30
0.0
 11
255.8869687702242
 21
379.6225446702442
 31
0.0
  0
LINE
  5
10C5
330
1D67
100
AcDbEntity
  8
0
100
AcDbLine
 10
274.8869687702241
 20
379.6225446702442
 30
0.0
 11
274.8869687702241
 21
372.9475446702442
 31
0.0
  0
LINE
  5
10C6
330
1D67
100
AcDbEntity
  8
0
100
AcDbLine
 10
261.3859687702241
 20
380.2845446702442
 30
0.0
 11
261.3859687702241
 21
383.3855446702441
 31
0.0
  0
LINE
  5
10C7
330
1D67
100
AcDbEntity
  8
0
100
AcDbLine
 10
269.3859687702242
 20
380.2845446702442
 30
0.0
 11
269.3859687702242
 21
383.3855446702441
 31
0.0
  0
LINE
  5
10C8
330
1D67
100
AcDbEntity
  8
0
100
AcDbLine
 10
260.3859687702242
 20
380.2845446702442
 30
0.0
 11
260.3859687702242
 21
383.3855446702441
 31
0.0
  0
LINE
  5
10C9
330
1D67
100
AcDbEntity
  8
0
100
AcDbLine
 10
270.3859687702242
 20
380.2845446702442
 30
0.0
 11
270.3859687702242
 21
383.3855446702441
 31
0.0
  0
LINE
  5
10CA
330
1D67
100
AcDbEntity
  8
0
100
AcDbLine
 10
260.3859687702242
 20
362.1205446702441
 30
0.0
 11
255.3659687702242
 21
362.5595446702442
 31
0.0
  0
LINE
  5
10CB
330
1D67
100
AcDbEntity
  8
0
100
AcDbLine
 10
260.3859687702242
 20
360.5845446702442
 30
0.0
 11
259.3869687702242
 21
360.5845446702442
 31
0.0
  0
LINE
  5
10CC
330
1D67
100
AcDbEntity
  8
0
100
AcDbLine
 10
520.3859687702241
 20
362.1195446702442
 30
0.0
 11
525.4079687702242
 21
362.5595446702442
 31
0.0
  0
LINE
  5
10CD
330
1D67
100
AcDbEntity
  8
3A
 48
0.082
100
AcDbLine
 10
520.3859687702241
 20
369.3845446702442
 30
0.0
 11
521.6159687702242
 21
369.3845446702442
 31
0.0
  0
LINE
  5
10CE
330
1D67
100
AcDbEntity
  8
0
100
AcDbLine
 10
520.3859687702241
 20
360.5855446702441
 30
0.0
 11
521.3869687702242
 21
360.5855446702441
 31
0.0
  0
LINE
  5
10CF
330
1D67
100
AcDbEntity
  8
0
100
AcDbLine
 10
255.8869687702242
 20
373.8225446702442
 30
0.0
 11
229.3869687702242
 21
373.8225446702442
 31
0.0
  0
LINE
  5
10D0
330
1D67
100
AcDbEntity
  8
0
100
AcDbLine
 10
524.8869687702242
 20
373.8225446702442
 30
0.0
 11
551.3869687702242
 21
373.8225446702442
 31
0.0
  0
LINE
  5
10D1
330
1D67
100
AcDbEntity
  8
0
100
AcDbLine
 10
322.8869687702241
 20
375.8225446702442
 30
0.0
 11
292.8869687702242
 21
375.8225446702442
 31
0.0
  0
LINE
  5
10D2
330
1D67
100
AcDbEntity
  8
0
100
AcDbLine
 10
488.3119687702242
 20
373.8225446702442
 30
0.0
 11
505.8869687702242
 21
373.8225446702442
 31
0.0
  0
LINE
  5
10D3
330
1D67
100
AcDbEntity
  8
0
100
AcDbLine
 10
291.3989687702242
 20
368.8225446702442
 30
0.0
 11
287.1249687702242
 21
368.8225446702442
 31
0.0
  0
LINE
  5
10D4
330
1D67
100
AcDbEntity
  8
0
100
AcDbLine
 10
490.4379687702242
 20
363.8225446702442
 30
0.0
 11
484.2579687702242
 21
363.8225446702442
 31
0.0
  0
LINE
  5
10D5
330
1D67
100
AcDbEntity
  8
0
100
AcDbLine
 10
296.5159687702242
 20
363.8225446702442
 30
0.0
 11
290.3359687702242
 21
363.8225446702442
 31
0.0
  0
LINE
  5
10D6
330
1D67
100
AcDbEntity
  8
0
100
AcDbLine
 10
491.7939687702242
 20
359.8225446702442
 30
0.0
 11
500.6679687702241
 21
359.8225446702442
 31
0.0
  0
LINE
  5
10D7
330
1D67
100
AcDbEntity
  8
0
100
AcDbLine
 10
288.9799687702242
 20
359.8225446702442
 30
0.0
 11
286.6529687702242
 21
359.8225446702442
 31
0.0
  0
LINE
  5
10D8
330
1D67
100
AcDbEntity
  8
0
100
AcDbLine
 10
291.8869687702241
 20
473.4795446702441
 30
0.0
 11
390.3869687702242
 21
473.4795446702441
 31
0.0
  0
LINE
  5
10D9
330
1D67
100
AcDbEntity
  8
0
100
AcDbLine
 10
289.7939687702242
 20
433.5345446702441
 30
0.0
 11
291.8869687702241
 21
473.4795446702441
 31
0.0
  0
LINE
  5
10DA
330
1D67
100
AcDbEntity
  8
0
100
AcDbLine
 10
260.3869687702241
 20
423.4795446702441
 30
0.0
 11
260.9099687702242
 21
433.4665446702441
 31
0.0
  0
LINE
  5
10DB
330
1D67
100
AcDbEntity
  8
0
100
AcDbLine
 10
289.7939687702242
 20
433.5345446702441
 30
0.0
 11
260.9139687702242
 21
433.5345446702441
 31
0.0
  0
LINE
  5
10DC
330
1D67
100
AcDbEntity
  8
0
100
AcDbLine
 10
303.5959687702242
 20
432.8835446702441
 30
0.0
 11
303.0379687702242
 21
464.8225446702442
 31
0.0
  0
LINE
  5
10DD
330
1D67
100
AcDbEntity
  8
0
100
AcDbLine
 10
299.8869687702241
 20
473.4795446702441
 30
0.0
 11
303.0379687702242
 21
464.8225446702442
 31
0.0
  0
ARC
  5
10DE
330
1D67
100
AcDbEntity
  8
0
100
AcDbCircle
 10
309.0949687702242
 20
432.9795446702441
 30
0.0
 40
5.5
100
AcDbArc
 50
181.0
 51
270.0
  0
LINE
  5
10DF
330
1D67
100
AcDbEntity
  8
0
100
AcDbLine
 10
457.8869687702242
 20
298.4795446702441
 30
0.0
 11
322.8869687702241
 21
298.4795446702441
 31
0.0
  0
LINE
  5
10E0
330
1D67
100
AcDbEntity
  8
0
100
AcDbLine
 10
260.3869687702241
 20
423.4795446702441
 30
0.0
 11
295.5699687702241
 21
423.4795446702441
 31
0.0
  0
LINE
  5
10E1
330
1D67
100
AcDbEntity
  8
0
100
AcDbLine
 10
314.8869687702241
 20
427.4795446702441
 30
0.0
 11
315.4939687702242
 21
392.6825446702442
 31
0.0
  0
LINE
  5
10E2
330
1D67
100
AcDbEntity
  8
0
100
AcDbLine
 10
306.6099687702242
 20
393.9015446702441
 30
0.0
 11
305.5559687702242
 21
414.0035446702442
 31
0.0
  0
ARC
  5
10E3
330
1D67
100
AcDbEntity
  8
0
100
AcDbCircle
 10
295.5699687702241
 20
413.4795446702441
 30
0.0
 40
10.0
100
AcDbArc
 50
3.0
 51
90.0
  0
LINE
  5
10E4
330
1D67
100
AcDbEntity
  8
0
100
AcDbLine
 10
269.1639687702242
 20
433.5345446702441
 30
0.0
 11
271.4139687702242
 21
423.4795446702441
 31
0.0
  0
LINE
  5
10E5
330
1D67
100
AcDbEntity
  8
0
100
AcDbLine
 10
280.4139687702242
 20
423.4795446702441
 30
0.0
 11
282.6639687702242
 21
433.5345446702441
 31
0.0
  0
CIRCLE
  5
10E6
330
1D67
100
AcDbEntity
  8
0
100
AcDbCircle
 10
309.0949687702242
 20
432.9795446702441
 30
0.0
 40
5.5
  0
LINE
  5
10E7
330
1D67
100
AcDbEntity
  8
0
100
AcDbLine
 10
460.8869687702243
 20
433.4795446702441
 30
0.0
 11
314.5719687702242
 21
433.4795446702441
 31
0.0
  0
LINE
  5
10E8
330
1D67
100
AcDbEntity
  8
0
100
AcDbLine
 10
327.2579687702243
 20
465.4795446702441
 30
0.0
 11
390.3869687702242
 21
465.4795446702441
 31
0.0
  0
LINE
  5
10E9
330
1D67
100
AcDbEntity
  8
0
100
AcDbLine
 10
319.8869687702242
 20
433.4795446702441
 30
0.0
 11
321.2659687702242
 21
459.7935446702441
 31
0.0
  0
ARC
  5
10EA
330
1D67
100
AcDbEntity
  8
0
100
AcDbCircle
 10
327.2579687702243
 20
459.4795446702441
 30
0.0
 40
6.0
100
AcDbArc
 50
90.0
 51
177.0
  0
LINE
  5
10EB
330
1D67
100
AcDbEntity
  8
0
100
AcDbLine
 10
304.8869687702242
 20
473.4795446702441
 30
0.0
 11
305.0619687702242
 21
468.4795446702441
 31
0.0
  0
LINE
  5
10EC
330
1D67
100
AcDbEntity
  8
0
100
AcDbLine
 10
307.1169687702242
 20
466.9355446702441
 30
0.0
 11
308.1139687702243
 21
438.3915446702441
 31
0.0
  0
LINE
  5
10ED
330
1D67
100
AcDbEntity
  8
0
100
AcDbLine
 10
305.0619687702242
 20
468.4795446702441
 30
0.0
 11
305.5179687702243
 21
468.4795446702441
 31
0.0
  0
ARC
  5
10EE
330
1D67
100
AcDbEntity
  8
0
100
AcDbCircle
 10
305.5179687702243
 20
466.8795446702441
 30
0.0
 40
1.6
100
AcDbArc
 50
2.0
 51
90.0
  0
LINE
  5
10EF
330
1D67
100
AcDbEntity
  8
0
100
AcDbLine
 10
488.8869687702242
 20
473.4795446702441
 30
0.0
 11
390.3869687702242
 21
473.4795446702441
 31
0.0
  0
LINE
  5
10F0
330
1D67
100
AcDbEntity
  8
0
100
AcDbLine
 10
490.9809687702241
 20
433.5345446702441
 30
0.0
 11
488.8869687702242
 21
473.4795446702441
 31
0.0
  0
LINE
  5
10F1
330
1D67
100
AcDbEntity
  8
0
100
AcDbLine
 10
520.3869687702242
 20
423.4795446702441
 30
0.0
 11
519.8639687702242
 21
433.4665446702441
 31
0.0
  0
LINE
  5
10F2
330
1D67
100
AcDbEntity
  8
0
100
AcDbLine
 10
490.9809687702241
 20
433.5345446702441
 30
0.0
 11
519.8599687702242
 21
433.5345446702441
 31
0.0
  0
LINE
  5
10F3
330
1D67
100
AcDbEntity
  8
0
100
AcDbLine
 10
477.1779687702242
 20
432.8835446702441
 30
0.0
 11
477.7359687702242
 21
464.8225446702442
 31
0.0
  0
LINE
  5
10F4
330
1D67
100
AcDbEntity
  8
0
100
AcDbLine
 10
480.8869687702242
 20
473.4795446702441
 30
0.0
 11
477.7359687702242
 21
464.8225446702442
 31
0.0
  0
ARC
  5
10F5
330
1D67
100
AcDbEntity
  8
0
100
AcDbCircle
 10
471.6789687702242
 20
432.9795446702441
 30
0.0
 40
5.5
100
AcDbArc
 50
270.0
 51
359.0
  0
LINE
  5
10F6
330
1D67
100
AcDbEntity
  8
0
100
AcDbLine
 10
520.3869687702242
 20
423.4795446702441
 30
0.0
 11
485.2039687702241
 21
423.4795446702441
 31
0.0
  0
LINE
  5
10F7
330
1D67
100
AcDbEntity
  8
0
100
AcDbLine
 10
465.8869687702242
 20
427.4795446702441
 30
0.0
 11
465.2799687702241
 21
392.6825446702442
 31
0.0
  0
LINE
  5
10F8
330
1D67
100
AcDbEntity
  8
0
100
AcDbLine
 10
474.1649687702241
 20
393.9015446702441
 30
0.0
 11
475.2179687702241
 21
414.0035446702442
 31
0.0
  0
ARC
  5
10F9
330
1D67
100
AcDbEntity
  8
0
100
AcDbCircle
 10
485.2039687702241
 20
413.4795446702441
 30
0.0
 40
10.0
100
AcDbArc
 50
90.0
 51
177.0
  0
LINE
  5
10FA
330
1D67
100
AcDbEntity
  8
0
100
AcDbLine
 10
511.6099687702241
 20
433.5345446702441
 30
0.0
 11
509.3599687702242
 21
423.4795446702441
 31
0.0
  0
LINE
  5
10FB
330
1D67
100
AcDbEntity
  8
0
100
AcDbLine
 10
500.3599687702242
 20
423.4795446702441
 30
0.0
 11
498.1099687702242
 21
433.5345446702441
 31
0.0
  0
CIRCLE
  5
10FC
330
1D67
100
AcDbEntity
  8
0
100
AcDbCircle
 10
471.6789687702242
 20
432.9795446702441
 30
0.0
 40
5.5
  0
LINE
  5
10FD
330
1D67
100
AcDbEntity
  8
0
100
AcDbLine
 10
453.5159687702241
 20
465.4795446702441
 30
0.0
 11
390.3869687702242
 21
465.4795446702441
 31
0.0
  0
LINE
  5
10FE
330
1D67
100
AcDbEntity
  8
0
100
AcDbLine
 10
460.8869687702243
 20
433.4795446702441
 30
0.0
 11
459.5079687702242
 21
459.7935446702441
 31
0.0
  0
ARC
  5
10FF
330
1D67
100
AcDbEntity
  8
0
100
AcDbCircle
 10
453.5159687702241
 20
459.4795446702441
 30
0.0
 40
6.0
100
AcDbArc
 50
3.0
 51
90.0
  0
LINE
  5
1100
330
1D67
100
AcDbEntity
  8
0
100
AcDbLine
 10
475.8869687702242
 20
473.4795446702441
 30
0.0
 11
475.7119687702242
 21
468.4795446702441
 31
0.0
  0
LINE
  5
1101
330
1D67
100
AcDbEntity
  8
0
100
AcDbLine
 10
473.6569687702242
 20
466.9355446702441
 30
0.0
 11
472.6609687702241
 21
438.3915446702441
 31
0.0
  0
LINE
  5
1102
330
1D67
100
AcDbEntity
  8
0
100
AcDbLine
 10
475.7119687702242
 20
468.4795446702441
 30
0.0
 11
475.2559687702241
 21
468.4795446702441
 31
0.0
  0
ARC
  5
1103
330
1D67
100
AcDbEntity
  8
0
100
AcDbCircle
 10
475.2559687702241
 20
466.8795446702441
 30
0.0
 40
1.6
100
AcDbArc
 50
90.0
 51
178.0
  0
LINE
  5
1104
330
1D67
100
AcDbEntity
  8
0
100
AcDbLine
 10
471.6789687702242
 20
427.4795446702441
 30
0.0
 11
309.0949687702242
 21
427.4795446702441
 31
0.0
  0
LINE
  5
1105
330
1D67
100
AcDbEntity
  8
0
100
AcDbLine
 10
311.5959687702242
 20
385.7655446702441
 30
0.0
 11
319.8869687702242
 21
380.9785446702442
 31
0.0
  0
LINE
  5
1106
330
1D67
100
AcDbEntity
  8
0
100
AcDbLine
 10
460.8869687702243
 20
380.9785446702442
 30
0.0
 11
469.1779687702242
 21
385.7655446702441
 31
0.0
  0
LINE
  5
1107
330
1D67
100
AcDbEntity
  8
0
100
AcDbLine
 10
455.8869687702242
 20
385.0195446702441
 30
0.0
 11
463.2799687702242
 21
389.2875446702442
 31
0.0
  0
ARC
  5
1108
330
1D67
100
AcDbEntity
  8
0
100
AcDbCircle
 10
464.1779687702242
 20
394.4255446702442
 30
0.0
 40
10.0
100
AcDbArc
 50
300.0
 51
357.0
  0
ARC
  5
1109
330
1D67
100
AcDbEntity
  8
0
100
AcDbCircle
 10
316.5959687702242
 20
394.4255446702442
 30
0.0
 40
10.0
100
AcDbArc
 50
183.0
 51
240.0
  0
ARC
  5
110A
330
1D67
100
AcDbEntity
  8
0
100
AcDbCircle
 10
319.4939687702242
 20
392.7525446702442
 30
0.0
 40
4.0
100
AcDbArc
 50
181.0
 51
240.0
  0
ARC
  5
110B
330
1D67
100
AcDbEntity
  8
0
100
AcDbCircle
 10
461.2799687702241
 20
392.7525446702442
 30
0.0
 40
4.0
100
AcDbArc
 50
300.0
 51
359.0
  0
LINE
  5
110C
330
1D67
100
AcDbEntity
  8
0
100
AcDbLine
 10
457.8869687702242
 20
375.7815446702442
 30
0.0
 11
457.8869687702242
 21
298.4795446702441
 31
0.0
  0
LINE
  5
110D
330
1D67
100
AcDbEntity
  8
0
100
AcDbLine
 10
322.8869687702241
 20
375.7815446702442
 30
0.0
 11
322.8869687702241
 21
298.4795446702441
 31
0.0
  0
LINE
  5
110E
330
1D67
100
AcDbEntity
  8
0
100
AcDbLine
 10
329.8869687702242
 20
376.3595446702441
 30
0.0
 11
329.8869687702242
 21
323.4795446702441
 31
0.0
  0
LINE
  5
110F
330
1D67
100
AcDbEntity
  8
0
100
AcDbLine
 10
330.5669687702242
 20
318.4795446702441
 30
0.0
 11
330.5669687702242
 21
298.4795446702441
 31
0.0
  0
LINE
  5
1110
330
1D67
100
AcDbEntity
  8
0
100
AcDbLine
 10
329.8869687702242
 20
323.4795446702441
 30
0.0
 11
330.5669687702242
 21
318.4795446702441
 31
0.0
  0
LINE
  5
1111
330
1D67
100
AcDbEntity
  8
0
100
AcDbLine
 10
450.8869687702242
 20
376.3595446702441
 30
0.0
 11
450.8869687702242
 21
323.4795446702441
 31
0.0
  0
LINE
  5
1112
330
1D67
100
AcDbEntity
  8
0
100
AcDbLine
 10
450.2069687702242
 20
318.4795446702441
 30
0.0
 11
450.2069687702242
 21
298.4795446702441
 31
0.0
  0
LINE
  5
1113
330
1D67
100
AcDbEntity
  8
0
100
AcDbLine
 10
450.8869687702242
 20
323.4795446702441
 30
0.0
 11
450.2069687702242
 21
318.4795446702441
 31
0.0
  0
LINE
  5
1114
330
1D67
100
AcDbEntity
  8
0
100
AcDbLine
 10
317.4939687702242
 20
389.2875446702442
 30
0.0
 11
324.8869687702241
 21
385.0195446702441
 31
0.0
  0
ARC
  5
1115
330
1D67
100
AcDbEntity
  8
0
100
AcDbCircle
 10
316.8869687702241
 20
375.7815446702442
 30
0.0
 40
6.0
100
AcDbArc
 50
0.0
 51
60.0
  0
ARC
  5
1116
330
1D67
100
AcDbEntity
  8
0
100
AcDbCircle
 10
463.8869687702242
 20
375.7815446702442
 30
0.0
 40
6.0
100
AcDbArc
 50
120.0
 51
180.0
  0
ARC
  5
1117
330
1D67
100
AcDbEntity
  8
0
100
AcDbCircle
 10
460.8869687702243
 20
376.3595446702441
 30
0.0
 40
10.0
100
AcDbArc
 50
120.0
 51
180.0
  0
ARC
  5
1118
330
1D67
100
AcDbEntity
  8
0
100
AcDbCircle
 10
319.8869687702242
 20
376.3595446702441
 30
0.0
 40
10.0
100
AcDbArc
 50
0.0
 51
60.0
  0
ARC
  5
1119
330
1D67
100
AcDbEntity
  8
0
100
AcDbCircle
 10
466.6559687702241
 20
321.9955446702442
 30
0.0
 40
11.0
100
AcDbArc
 50
36.152
 51
120.0
  0
ARC
  5
111A
330
1D67
100
AcDbEntity
  8
0
100
AcDbCircle
 10
466.6559687702241
 20
321.9955446702442
 30
0.0
 40
11.0
100
AcDbArc
 50
217.14
 51
321.848
  0
LINE
  5
111B
330
1D67
100
AcDbEntity
  8
0
100
AcDbLine
 10
461.1559687702241
 20
331.5215446702442
 30
0.0
 11
457.8869687702242
 21
337.1835446702442
 31
0.0
  0
ARC
  5
111C
330
1D67
100
AcDbEntity
  8
0
100
AcDbCircle
 10
314.1179687702242
 20
321.9955446702442
 30
0.0
 40
11.0
100
AcDbArc
 50
60.0
 51
143.848
  0
ARC
  5
111D
330
1D67
100
AcDbEntity
  8
0
100
AcDbCircle
 10
314.1179687702242
 20
321.9955446702442
 30
0.0
 40
11.0
100
AcDbArc
 50
218.152
 51
322.86
  0
LINE
  5
111E
330
1D67
100
AcDbEntity
  8
0
100
AcDbLine
 10
319.6179687702242
 20
331.5215446702442
 30
0.0
 11
322.8869687702241
 21
337.1835446702442
 31
0.0
  0
LINE
  5
111F
330
1D67
100
AcDbEntity
  8
0
100
AcDbLine
 10
322.8869687702241
 20
348.4795446702441
 30
0.0
 11
304.8869687702242
 21
348.4795446702441
 31
0.0
  0
LINE
  5
1120
330
1D67
100
AcDbEntity
  8
4
100
AcDbLine
 10
333.0519687702242
 20
382.1325446702442
 30
0.0
 11
447.7219687702241
 21
382.1325446702442
 31
0.0
  0
LINE
  5
1121
330
1D67
100
AcDbEntity
  8
4
100
AcDbLine
 10
321.2439687702242
 20
390.4195446702441
 30
0.0
 11
459.5299687702241
 21
390.4195446702441
 31
0.0
  0
POLYLINE
  5
1123
330
1D67
100
AcDbEntity
  8
SCHRAFFUR_RAND
100
AcDb2dPolyline
 66
     1
 10
0.0
 20
0.0
 30
0.0
 70
     1
  0
VERTEX
  5
1124
330
1123
100
AcDbEntity
  8
SCHRAFFUR_RAND
100
AcDbVertex
100
AcDb2dVertex
 10
306.1389687702242
 20
437.6185446702441
 30
0.0
  0
VERTEX
  5
1125
330
1123
100
AcDbEntity
  8
SCHRAFFUR_RAND
100
AcDbVertex
100
AcDb2dVertex
 10
305.9069687702242
 20
437.4965446702441
 30
0.0
  0
VERTEX
  5
1126
330
1123
100
AcDbEntity
  8
SCHRAFFUR_RAND
100
AcDbVertex
100
AcDb2dVertex
 10
304.8069687702242
 20
436.4685446702441
 30
0.0
  0
VERTEX
  5
1127
330
1123
100
AcDbEntity
  8
SCHRAFFUR_RAND
100
AcDbVertex
100
AcDb2dVertex
 10
304.0239687702242
 20
435.1825446702441
 30
0.0
  0
VERTEX
  5
1128
330
1123
100
AcDbEntity
  8
SCHRAFFUR_RAND
100
AcDbVertex
100
AcDb2dVertex
 10
303.6179687702242
 20
433.7325446702442
 30
0.0
  0
VERTEX
  5
1129
330
1123
100
AcDbEntity
  8
SCHRAFFUR_RAND
100
AcDbVertex
100
AcDb2dVertex
 10
303.5959687702242
 20
432.8835446702441
 30
0.0
  0
VERTEX
  5
112A
330
1123
100
AcDbEntity
  8
SCHRAFFUR_RAND
100
AcDbVertex
100
AcDb2dVertex
 10
303.7759687702242
 20
431.4715446702441
 30
0.0
  0
VERTEX
  5
112B
330
1123
100
AcDbEntity
  8
SCHRAFFUR_RAND
100
AcDbVertex
100
AcDb2dVertex
 10
304.0239687702242
 20
430.7775446702442
 30
0.0
  0
VERTEX
  5
112C
330
1123
100
AcDbEntity
  8
SCHRAFFUR_RAND
100
AcDbVertex
100
AcDb2dVertex
 10
304.3399687702242
 20
430.1605446702441
 30
0.0
  0
VERTEX
  5
112D
330
1123
100
AcDbEntity
  8
SCHRAFFUR_RAND
100
AcDbVertex
100
AcDb2dVertex
 10
304.8069687702242
 20
429.4915446702441
 30
0.0
  0
VERTEX
  5
112E
330
1123
100
AcDbEntity
  8
SCHRAFFUR_RAND
100
AcDbVertex
100
AcDb2dVertex
 10
305.2199687702242
 20
429.0365446702441
 30
0.0
  0
VERTEX
  5
112F
330
1123
100
AcDbEntity
  8
SCHRAFFUR_RAND
100
AcDbVertex
100
AcDb2dVertex
 10
305.9069687702242
 20
428.4635446702441
 30
0.0
  0
VERTEX
  5
1130
330
1123
100
AcDbEntity
  8
SCHRAFFUR_RAND
100
AcDbVertex
100
AcDb2dVertex
 10
306.3589687702242
 20
428.1765446702441
 30
0.0
  0
VERTEX
  5
1131
330
1123
100
AcDbEntity
  8
SCHRAFFUR_RAND
100
AcDbVertex
100
AcDb2dVertex
 10
307.2439687702242
 20
427.7705446702441
 30
0.0
  0
VERTEX
  5
1132
330
1123
100
AcDbEntity
  8
SCHRAFFUR_RAND
100
AcDbVertex
100
AcDb2dVertex
 10
307.6799687702242
 20
427.6355446702441
 30
0.0
  0
VERTEX
  5
1133
330
1123
100
AcDbEntity
  8
SCHRAFFUR_RAND
100
AcDbVertex
100
AcDb2dVertex
 10
309.0949687702242
 20
427.4795446702441
 30
0.0
  0
VERTEX
  5
1134
330
1123
100
AcDbEntity
  8
SCHRAFFUR_RAND
100
AcDbVertex
100
AcDb2dVertex
 10
310.2199687702242
 20
427.5675446702442
 30
0.0
  0
VERTEX
  5
1135
330
1123
100
AcDbEntity
  8
SCHRAFFUR_RAND
100
AcDbVertex
100
AcDb2dVertex
 10
311.6379687702242
 20
428.0715446702441
 30
0.0
  0
VERTEX
  5
1136
330
1123
100
AcDbEntity
  8
SCHRAFFUR_RAND
100
AcDbVertex
100
AcDb2dVertex
 10
312.8679687702242
 20
428.9395446702441
 30
0.0
  0
VERTEX
  5
1137
330
1123
100
AcDbEntity
  8
SCHRAFFUR_RAND
100
AcDbVertex
100
AcDb2dVertex
 10
313.8179687702242
 20
430.1075446702442
 30
0.0
  0
VERTEX
  5
1138
330
1123
100
AcDbEntity
  8
SCHRAFFUR_RAND
100
AcDbVertex
100
AcDb2dVertex
 10
314.4179687702242
 20
431.4885446702441
 30
0.0
  0
VERTEX
  5
1139
330
1123
100
AcDbEntity
  8
SCHRAFFUR_RAND
100
AcDbVertex
100
AcDb2dVertex
 10
314.5949687702242
 20
432.9795446702441
 30
0.0
  0
VERTEX
  5
113A
330
1123
100
AcDbEntity
  8
SCHRAFFUR_RAND
100
AcDbVertex
100
AcDb2dVertex
 10
314.5719687702242
 20
433.4795446702441
 30
0.0
  0
VERTEX
  5
113B
330
1123
100
AcDbEntity
  8
SCHRAFFUR_RAND
100
AcDbVertex
100
AcDb2dVertex
 10
314.4179687702242
 20
434.4715446702442
 30
0.0
  0
VERTEX
  5
113C
330
1123
100
AcDbEntity
  8
SCHRAFFUR_RAND
100
AcDbVertex
100
AcDb2dVertex
 10
313.8179687702242
 20
435.8525446702442
 30
0.0
  0
VERTEX
  5
113D
330
1123
100
AcDbEntity
  8
SCHRAFFUR_RAND
100
AcDbVertex
100
AcDb2dVertex
 10
312.8679687702242
 20
437.0195446702441
 30
0.0
  0
VERTEX
  5
113E
330
1123
100
AcDbEntity
  8
SCHRAFFUR_RAND
100
AcDbVertex
100
AcDb2dVertex
 10
311.6379687702242
 20
437.8885446702441
 30
0.0
  0
VERTEX
  5
113F
330
1123
100
AcDbEntity
  8
SCHRAFFUR_RAND
100
AcDbVertex
100
AcDb2dVertex
 10
310.2199687702242
 20
438.3925446702441
 30
0.0
  0
VERTEX
  5
1140
330
1123
100
AcDbEntity
  8
SCHRAFFUR_RAND
100
AcDbVertex
100
AcDb2dVertex
 10
308.7179687702242
 20
438.4955446702441
 30
0.0
  0
VERTEX
  5
1141
330
1123
100
AcDbEntity
  8
SCHRAFFUR_RAND
100
AcDbVertex
100
AcDb2dVertex
 10
308.1139687702243
 20
438.3915446702441
 30
0.0
  0
VERTEX
  5
1142
330
1123
100
AcDbEntity
  8
SCHRAFFUR_RAND
100
AcDbVertex
100
AcDb2dVertex
 10
307.2439687702242
 20
438.1885446702441
 30
0.0
  0
VERTEX
  5
1143
330
1123
100
AcDbEntity
  8
SCHRAFFUR_RAND
100
AcDbVertex
100
AcDb2dVertex
 10
306.1389687702242
 20
437.6185446702441
 30
0.0
  0
SEQEND
  5
1144
330
1123
100
AcDbEntity
  8
SCHRAFFUR_RAND
  0
INSERT
  5
114A
330
1D67
100
AcDbEntity
  8
8
100
AcDbBlockReference
  2
*X0
 10
109.3789687702242
 20
24.57954467024416
 30
0.0
1001
ACAD
1000
HATCH
1002
{
1070
    19
1000
ANSI31,_I
1040
3.174999999999999
1040
0.7850000000000001
1002
}
  0
POLYLINE
  5
114B
330
1D67
100
AcDbEntity
  8
SCHRAFFUR_RAND
100
AcDb2dPolyline
 66
     1
 10
0.0
 20
0.0
 30
0.0
 70
     1
  0
VERTEX
  5
114C
330
114B
100
AcDbEntity
  8
SCHRAFFUR_RAND
100
AcDbVertex
100
AcDb2dVertex
 10
306.1389687702242
 20
437.6185446702441
 30
0.0
  0
VERTEX
  5
114D
330
114B
100
AcDbEntity
  8
SCHRAFFUR_RAND
100
AcDbVertex
100
AcDb2dVertex
 10
305.9069687702242
 20
437.4965446702441
 30
0.0
  0
VERTEX
  5
114E
330
114B
100
AcDbEntity
  8
SCHRAFFUR_RAND
100
AcDbVertex
100
AcDb2dVertex
 10
304.8069687702242
 20
436.4685446702441
 30
0.0
  0
VERTEX
  5
114F
330
114B
100
AcDbEntity
  8
SCHRAFFUR_RAND
100
AcDbVertex
100
AcDb2dVertex
 10
304.0239687702242
 20
435.1825446702441
 30
0.0
  0
VERTEX
  5
1150
330
114B
100
AcDbEntity
  8
SCHRAFFUR_RAND
100
AcDbVertex
100
AcDb2dVertex
 10
303.6179687702242
 20
433.7325446702442
 30
0.0
  0
VERTEX
  5
1151
330
114B
100
AcDbEntity
  8
SCHRAFFUR_RAND
100
AcDbVertex
100
AcDb2dVertex
 10
303.5959687702242
 20
432.8835446702441
 30
0.0
  0
VERTEX
  5
1152
330
114B
100
AcDbEntity
  8
SCHRAFFUR_RAND
100
AcDbVertex
100
AcDb2dVertex
 10
303.7759687702242
 20
431.4715446702441
 30
0.0
  0
VERTEX
  5
1153
330
114B
100
AcDbEntity
  8
SCHRAFFUR_RAND
100
AcDbVertex
100
AcDb2dVertex
 10
304.0239687702242
 20
430.7775446702442
 30
0.0
  0
VERTEX
  5
1154
330
114B
100
AcDbEntity
  8
SCHRAFFUR_RAND
100
AcDbVertex
100
AcDb2dVertex
 10
304.3399687702242
 20
430.1605446702441
 30
0.0
  0
VERTEX
  5
1155
330
114B
100
AcDbEntity
  8
SCHRAFFUR_RAND
100
AcDbVertex
100
AcDb2dVertex
 10
304.8069687702242
 20
429.4915446702441
 30
0.0
  0
VERTEX
  5
1156
330
114B
100
AcDbEntity
  8
SCHRAFFUR_RAND
100
AcDbVertex
100
AcDb2dVertex
 10
305.2199687702242
 20
429.0365446702441
 30
0.0
  0
VERTEX
  5
1157
330
114B
100
AcDbEntity
  8
SCHRAFFUR_RAND
100
AcDbVertex
100
AcDb2dVertex
 10
305.9069687702242
 20
428.4635446702441
 30
0.0
  0
VERTEX
  5
1158
330
114B
100
AcDbEntity
  8
SCHRAFFUR_RAND
100
AcDbVertex
100
AcDb2dVertex
 10
306.3589687702242
 20
428.1765446702441
 30
0.0
  0
VERTEX
  5
1159
330
114B
100
AcDbEntity
  8
SCHRAFFUR_RAND
100
AcDbVertex
100
AcDb2dVertex
 10
307.2439687702242
 20
427.7705446702441
 30
0.0
  0
VERTEX
  5
115A
330
114B
100
AcDbEntity
  8
SCHRAFFUR_RAND
100
AcDbVertex
100
AcDb2dVertex
 10
307.6799687702242
 20
427.6355446702441
 30
0.0
  0
VERTEX
  5
115B
330
114B
100
AcDbEntity
  8
SCHRAFFUR_RAND
100
AcDbVertex
100
AcDb2dVertex
 10
309.0949687702242
 20
427.4795446702441
 30
0.0
  0
VERTEX
  5
115C
330
114B
100
AcDbEntity
  8
SCHRAFFUR_RAND
100
AcDbVertex
100
AcDb2dVertex
 10
310.2199687702242
 20
427.5675446702442
 30
0.0
  0
VERTEX
  5
115D
330
114B
100
AcDbEntity
  8
SCHRAFFUR_RAND
100
AcDbVertex
100
AcDb2dVertex
 10
311.6379687702242
 20
428.0715446702441
 30
0.0
  0
VERTEX
  5
115E
330
114B
100
AcDbEntity
  8
SCHRAFFUR_RAND
100
AcDbVertex
100
AcDb2dVertex
 10
312.8679687702242
 20
428.9395446702441
 30
0.0
  0
VERTEX
  5
115F
330
114B
100
AcDbEntity
  8
SCHRAFFUR_RAND
100
AcDbVertex
100
AcDb2dVertex
 10
313.8179687702242
 20
430.1075446702442
 30
0.0
  0
VERTEX
  5
1160
330
114B
100
AcDbEntity
  8
SCHRAFFUR_RAND
100
AcDbVertex
100
AcDb2dVertex
 10
314.4179687702242
 20
431.4885446702441
 30
0.0
  0
VERTEX
  5
1161
330
114B
100
AcDbEntity
  8
SCHRAFFUR_RAND
100
AcDbVertex
100
AcDb2dVertex
 10
314.5949687702242
 20
432.9795446702441
 30
0.0
  0
VERTEX
  5
1162
330
114B
100
AcDbEntity
  8
SCHRAFFUR_RAND
100
AcDbVertex
100
AcDb2dVertex
 10
314.5719687702242
 20
433.4795446702441
 30
0.0
  0
VERTEX
  5
1163
330
114B
100
AcDbEntity
  8
SCHRAFFUR_RAND
100
AcDbVertex
100
AcDb2dVertex
 10
314.4179687702242
 20
434.4715446702442
 30
0.0
  0
VERTEX
  5
1164
330
114B
100
AcDbEntity
  8
SCHRAFFUR_RAND
100
AcDbVertex
100
AcDb2dVertex
 10
313.8179687702242
 20
435.8525446702442
 30
0.0
  0
VERTEX
  5
1165
330
114B
100
AcDbEntity
  8
SCHRAFFUR_RAND
100
AcDbVertex
100
AcDb2dVertex
 10
312.8679687702242
 20
437.0195446702441
 30
0.0
  0
VERTEX
  5
1166
330
114B
100
AcDbEntity
  8
SCHRAFFUR_RAND
100
AcDbVertex
100
AcDb2dVertex
 10
311.6379687702242
 20
437.8885446702441
 30
0.0
  0
VERTEX
  5
1167
330
114B
100
AcDbEntity
  8
SCHRAFFUR_RAND
100
AcDbVertex
100
AcDb2dVertex
 10
310.2199687702242
 20
438.3925446702441
 30
0.0
  0
VERTEX
  5
1168
330
114B
100
AcDbEntity
  8
SCHRAFFUR_RAND
100
AcDbVertex
100
AcDb2dVertex
 10
308.7179687702242
 20
438.4955446702441
 30
0.0
  0
VERTEX
  5
1169
330
114B
100
AcDbEntity
  8
SCHRAFFUR_RAND
100
AcDbVertex
100
AcDb2dVertex
 10
308.1139687702243
 20
438.3915446702441
 30
0.0
  0
VERTEX
  5
116A
330
114B
100
AcDbEntity
  8
SCHRAFFUR_RAND
100
AcDbVertex
100
AcDb2dVertex
 10
307.2439687702242
 20
438.1885446702441
 30
0.0
  0
VERTEX
  5
116B
330
114B
100
AcDbEntity
  8
SCHRAFFUR_RAND
100
AcDbVertex
100
AcDb2dVertex
 10
306.1389687702242
 20
437.6185446702441
 30
0.0
  0
SEQEND
  5
116C
330
114B
100
AcDbEntity
  8
SCHRAFFUR_RAND
  0
INSERT
  5
1172
330
1D67
100
AcDbEntity
  8
8
100
AcDbBlockReference
  2
*X1
 10
109.3789687702242
 20
24.57954467024416
 30
0.0
1001
ACAD
1000
HATCH
1002
{
1070
    19
1000
ANSI31,_I
1040
3.174999999999999
1040
-0.7850000000000001
1002
}
  0
POLYLINE
  5
1173
330
1D67
100
AcDbEntity
  8
SCHRAFFUR_RAND
100
AcDb2dPolyline
 66
     1
 10
0.0
 20
0.0
 30
0.0
 70
     1
  0
VERTEX
  5
1174
330
1173
100
AcDbEntity
  8
SCHRAFFUR_RAND
100
AcDbVertex
100
AcDb2dVertex
 10
475.8869687702242
 20
473.4795446702441
 30
0.0
  0
VERTEX
  5
1175
330
1173
100
AcDbEntity
  8
SCHRAFFUR_RAND
100
AcDbVertex
100
AcDb2dVertex
 10
390.3869687702242
 20
473.4795446702441
 30
0.0
  0
VERTEX
  5
1176
330
1173
100
AcDbEntity
  8
SCHRAFFUR_RAND
100
AcDbVertex
100
AcDb2dVertex
 10
304.8869687702242
 20
473.4795446702441
 30
0.0
  0
VERTEX
  5
1177
330
1173
100
AcDbEntity
  8
SCHRAFFUR_RAND
100
AcDbVertex
100
AcDb2dVertex
 10
305.0619687702242
 20
468.4795446702441
 30
0.0
  0
VERTEX
  5
1178
330
1173
100
AcDbEntity
  8
SCHRAFFUR_RAND
100
AcDbVertex
100
AcDb2dVertex
 10
305.5179687702243
 20
468.4795446702441
 30
0.0
  0
VERTEX
  5
1179
330
1173
100
AcDbEntity
  8
SCHRAFFUR_RAND
100
AcDbVertex
100
AcDb2dVertex
 10
306.1299687702242
 20
468.3955446702441
 30
0.0
  0
VERTEX
  5
117A
330
1173
100
AcDbEntity
  8
SCHRAFFUR_RAND
100
AcDbVertex
100
AcDb2dVertex
 10
306.6529687702242
 20
468.0555446702441
 30
0.0
  0
VERTEX
  5
117B
330
1173
100
AcDbEntity
  8
SCHRAFFUR_RAND
100
AcDbVertex
100
AcDb2dVertex
 10
307.0109687702242
 20
467.5445446702441
 30
0.0
  0
VERTEX
  5
117C
330
1173
100
AcDbEntity
  8
SCHRAFFUR_RAND
100
AcDbVertex
100
AcDb2dVertex
 10
307.1169687702242
 20
466.9355446702441
 30
0.0
  0
VERTEX
  5
117D
330
1173
100
AcDbEntity
  8
SCHRAFFUR_RAND
100
AcDbVertex
100
AcDb2dVertex
 10
308.1139687702243
 20
438.3915446702441
 30
0.0
  0
VERTEX
  5
117E
330
1173
100
AcDbEntity
  8
SCHRAFFUR_RAND
100
AcDbVertex
100
AcDb2dVertex
 10
309.5079687702242
 20
438.4985446702442
 30
0.0
  0
VERTEX
  5
117F
330
1173
100
AcDbEntity
  8
SCHRAFFUR_RAND
100
AcDbVertex
100
AcDb2dVertex
 10
311.1169687702242
 20
438.1315446702441
 30
0.0
  0
VERTEX
  5
1180
330
1173
100
AcDbEntity
  8
SCHRAFFUR_RAND
100
AcDbVertex
100
AcDb2dVertex
 10
312.5459687702242
 20
437.3065446702441
 30
0.0
  0
VERTEX
  5
1181
330
1173
100
AcDbEntity
  8
SCHRAFFUR_RAND
100
AcDbVertex
100
AcDb2dVertex
 10
313.6679687702242
 20
436.0975446702441
 30
0.0
  0
VERTEX
  5
1182
330
1173
100
AcDbEntity
  8
SCHRAFFUR_RAND
100
AcDbVertex
100
AcDb2dVertex
 10
314.3839687702242
 20
434.6115446702441
 30
0.0
  0
VERTEX
  5
1183
330
1173
100
AcDbEntity
  8
SCHRAFFUR_RAND
100
AcDbVertex
100
AcDb2dVertex
 10
314.5719687702242
 20
433.4795446702441
 30
0.0
  0
VERTEX
  5
1184
330
1173
100
AcDbEntity
  8
SCHRAFFUR_RAND
100
AcDbVertex
100
AcDb2dVertex
 10
319.8869687702242
 20
433.4795446702441
 30
0.0
  0
VERTEX
  5
1185
330
1173
100
AcDbEntity
  8
SCHRAFFUR_RAND
100
AcDbVertex
100
AcDb2dVertex
 10
321.2659687702242
 20
459.7935446702441
 30
0.0
  0
VERTEX
  5
1186
330
1173
100
AcDbEntity
  8
SCHRAFFUR_RAND
100
AcDbVertex
100
AcDb2dVertex
 10
321.5029687702243
 20
461.2945446702441
 30
0.0
  0
VERTEX
  5
1187
330
1173
100
AcDbEntity
  8
SCHRAFFUR_RAND
100
AcDbVertex
100
AcDb2dVertex
 10
322.1399687702242
 20
462.6775446702441
 30
0.0
  0
VERTEX
  5
1188
330
1173
100
AcDbEntity
  8
SCHRAFFUR_RAND
100
AcDbVertex
100
AcDb2dVertex
 10
323.1039687702242
 20
463.8575446702441
 30
0.0
  0
VERTEX
  5
1189
330
1173
100
AcDbEntity
  8
SCHRAFFUR_RAND
100
AcDbVertex
100
AcDb2dVertex
 10
324.3319687702242
 20
464.7575446702441
 30
0.0
  0
VERTEX
  5
118A
330
1173
100
AcDbEntity
  8
SCHRAFFUR_RAND
100
AcDbVertex
100
AcDb2dVertex
 10
325.7469687702242
 20
465.3225446702442
 30
0.0
  0
VERTEX
  5
118B
330
1173
100
AcDbEntity
  8
SCHRAFFUR_RAND
100
AcDbVertex
100
AcDb2dVertex
 10
327.2579687702243
 20
465.4795446702441
 30
0.0
  0
VERTEX
  5
118C
330
1173
100
AcDbEntity
  8
SCHRAFFUR_RAND
100
AcDbVertex
100
AcDb2dVertex
 10
390.3869687702242
 20
465.4795446702441
 30
0.0
  0
VERTEX
  5
118D
330
1173
100
AcDbEntity
  8
SCHRAFFUR_RAND
100
AcDbVertex
100
AcDb2dVertex
 10
453.5159687702241
 20
465.4795446702441
 30
0.0
  0
VERTEX
  5
118E
330
1173
100
AcDbEntity
  8
SCHRAFFUR_RAND
100
AcDbVertex
100
AcDb2dVertex
 10
455.0269687702242
 20
465.3225446702442
 30
0.0
  0
VERTEX
  5
118F
330
1173
100
AcDbEntity
  8
SCHRAFFUR_RAND
100
AcDbVertex
100
AcDb2dVertex
 10
456.4419687702241
 20
464.7575446702441
 30
0.0
  0
VERTEX
  5
1190
330
1173
100
AcDbEntity
  8
SCHRAFFUR_RAND
100
AcDbVertex
100
AcDb2dVertex
 10
457.6699687702241
 20
463.8575446702441
 30
0.0
  0
VERTEX
  5
1191
330
1173
100
AcDbEntity
  8
SCHRAFFUR_RAND
100
AcDbVertex
100
AcDb2dVertex
 10
458.6339687702242
 20
462.6775446702441
 30
0.0
  0
VERTEX
  5
1192
330
1173
100
AcDbEntity
  8
SCHRAFFUR_RAND
100
AcDbVertex
100
AcDb2dVertex
 10
459.2719687702242
 20
461.2945446702441
 30
0.0
  0
VERTEX
  5
1193
330
1173
100
AcDbEntity
  8
SCHRAFFUR_RAND
100
AcDbVertex
100
AcDb2dVertex
 10
459.5079687702242
 20
459.7935446702441
 30
0.0
  0
VERTEX
  5
1194
330
1173
100
AcDbEntity
  8
SCHRAFFUR_RAND
100
AcDbVertex
100
AcDb2dVertex
 10
460.8869687702243
 20
433.4795446702441
 30
0.0
  0
VERTEX
  5
1195
330
1173
100
AcDbEntity
  8
SCHRAFFUR_RAND
100
AcDbVertex
100
AcDb2dVertex
 10
466.2019687702241
 20
433.4795446702441
 30
0.0
  0
VERTEX
  5
1196
330
1173
100
AcDbEntity
  8
SCHRAFFUR_RAND
100
AcDbVertex
100
AcDb2dVertex
 10
466.2069687702241
 20
433.8045446702442
 30
0.0
  0
VERTEX
  5
1197
330
1173
100
AcDbEntity
  8
SCHRAFFUR_RAND
100
AcDbVertex
100
AcDb2dVertex
 10
466.6929687702242
 20
435.3815446702441
 30
0.0
  0
VERTEX
  5
1198
330
1173
100
AcDbEntity
  8
SCHRAFFUR_RAND
100
AcDbVertex
100
AcDb2dVertex
 10
467.6219687702242
 20
436.7445446702442
 30
0.0
  0
VERTEX
  5
1199
330
1173
100
AcDbEntity
  8
SCHRAFFUR_RAND
100
AcDbVertex
100
AcDb2dVertex
 10
468.9119687702242
 20
437.7725446702442
 30
0.0
  0
VERTEX
  5
119A
330
1173
100
AcDbEntity
  8
SCHRAFFUR_RAND
100
AcDbVertex
100
AcDb2dVertex
 10
470.4479687702241
 20
438.3755446702441
 30
0.0
  0
VERTEX
  5
119B
330
1173
100
AcDbEntity
  8
SCHRAFFUR_RAND
100
AcDbVertex
100
AcDb2dVertex
 10
472.0929687702241
 20
438.4985446702442
 30
0.0
  0
VERTEX
  5
119C
330
1173
100
AcDbEntity
  8
SCHRAFFUR_RAND
100
AcDbVertex
100
AcDb2dVertex
 10
472.6609687702241
 20
438.3915446702441
 30
0.0
  0
VERTEX
  5
119D
330
1173
100
AcDbEntity
  8
SCHRAFFUR_RAND
100
AcDbVertex
100
AcDb2dVertex
 10
473.6569687702242
 20
466.9355446702441
 30
0.0
  0
VERTEX
  5
119E
330
1173
100
AcDbEntity
  8
SCHRAFFUR_RAND
100
AcDbVertex
100
AcDb2dVertex
 10
473.7629687702242
 20
467.5445446702441
 30
0.0
  0
VERTEX
  5
119F
330
1173
100
AcDbEntity
  8
SCHRAFFUR_RAND
100
AcDbVertex
100
AcDb2dVertex
 10
474.1209687702242
 20
468.0555446702441
 30
0.0
  0
VERTEX
  5
11A0
330
1173
100
AcDbEntity
  8
SCHRAFFUR_RAND
100
AcDbVertex
100
AcDb2dVertex
 10
474.6439687702242
 20
468.3955446702441
 30
0.0
  0
VERTEX
  5
11A1
330
1173
100
AcDbEntity
  8
SCHRAFFUR_RAND
100
AcDbVertex
100
AcDb2dVertex
 10
475.2559687702241
 20
468.4795446702441
 30
0.0
  0
VERTEX
  5
11A2
330
1173
100
AcDbEntity
  8
SCHRAFFUR_RAND
100
AcDbVertex
100
AcDb2dVertex
 10
475.7119687702242
 20
468.4795446702441
 30
0.0
  0
VERTEX
  5
11A3
330
1173
100
AcDbEntity
  8
SCHRAFFUR_RAND
100
AcDbVertex
100
AcDb2dVertex
 10
475.8869687702242
 20
473.4795446702441
 30
0.0
  0
SEQEND
  5
11A4
330
1173
100
AcDbEntity
  8
SCHRAFFUR_RAND
  0
POLYLINE
  5
1248
330
1D67
100
AcDbEntity
  8
SCHRAFFUR_RAND
100
AcDb2dPolyline
 66
     1
 10
0.0
 20
0.0
 30
0.0
 70
     1
  0
VERTEX
  5
1249
330
1248
100
AcDbEntity
  8
SCHRAFFUR_RAND
100
AcDbVertex
100
AcDb2dVertex
 10
457.8869687702242
 20
315.3545446702441
 30
0.0
  0
VERTEX
  5
124A
330
1248
100
AcDbEntity
  8
SCHRAFFUR_RAND
100
AcDbVertex
100
AcDb2dVertex
 10
459.0889687702241
 20
313.9775446702441
 30
0.0
  0
VERTEX
  5
124B
330
1248
100
AcDbEntity
  8
SCHRAFFUR_RAND
100
AcDbVertex
100
AcDb2dVertex
 10
460.5189687702242
 20
312.8365446702442
 30
0.0
  0
VERTEX
  5
124C
330
1248
100
AcDbEntity
  8
SCHRAFFUR_RAND
100
AcDbVertex
100
AcDb2dVertex
 10
462.1189687702242
 20
311.9475446702442
 30
0.0
  0
VERTEX
  5
124D
330
1248
100
AcDbEntity
  8
SCHRAFFUR_RAND
100
AcDbVertex
100
AcDb2dVertex
 10
463.8429687702241
 20
311.3355446702442
 30
0.0
  0
VERTEX
  5
124E
330
1248
100
AcDbEntity
  8
SCHRAFFUR_RAND
100
AcDbVertex
100
AcDb2dVertex
 10
465.6439687702242
 20
311.0175446702442
 30
0.0
  0
VERTEX
  5
124F
330
1248
100
AcDbEntity
  8
SCHRAFFUR_RAND
100
AcDbVertex
100
AcDb2dVertex
 10
467.4739687702242
 20
311.0015446702442
 30
0.0
  0
VERTEX
  5
1250
330
1248
100
AcDbEntity
  8
SCHRAFFUR_RAND
100
AcDbVertex
100
AcDb2dVertex
 10
469.2799687702241
 20
311.2875446702441
 30
0.0
  0
VERTEX
  5
1251
330
1248
100
AcDbEntity
  8
SCHRAFFUR_RAND
100
AcDbVertex
100
AcDb2dVertex
 10
471.0149687702242
 20
311.8695446702442
 30
0.0
  0
VERTEX
  5
1252
330
1248
100
AcDbEntity
  8
SCHRAFFUR_RAND
100
AcDbVertex
100
AcDb2dVertex
 10
472.6299687702241
 20
312.7295446702441
 30
0.0
  0
VERTEX
  5
1253
330
1248
100
AcDbEntity
  8
SCHRAFFUR_RAND
100
AcDbVertex
100
AcDb2dVertex
 10
474.0799687702241
 20
313.8455446702441
 30
0.0
  0
VERTEX
  5
1254
330
1248
100
AcDbEntity
  8
SCHRAFFUR_RAND
100
AcDbVertex
100
AcDb2dVertex
 10
475.3059687702241
 20
315.2005446702442
 30
0.0
  0
VERTEX
  5
1255
330
1248
100
AcDbEntity
  8
SCHRAFFUR_RAND
100
AcDbVertex
100
AcDb2dVertex
 10
475.5379687702242
 20
328.4845446702441
 30
0.0
  0
VERTEX
  5
1256
330
1248
100
AcDbEntity
  8
SCHRAFFUR_RAND
100
AcDbVertex
100
AcDb2dVertex
 10
474.3869687702242
 20
329.8545446702441
 30
0.0
  0
VERTEX
  5
1257
330
1248
100
AcDbEntity
  8
SCHRAFFUR_RAND
100
AcDbVertex
100
AcDb2dVertex
 10
473.0129687702242
 20
331.0025446702442
 30
0.0
  0
VERTEX
  5
1258
330
1248
100
AcDbEntity
  8
SCHRAFFUR_RAND
100
AcDbVertex
100
AcDb2dVertex
 10
471.4709687702241
 20
331.9125446702441
 30
0.0
  0
VERTEX
  5
1259
330
1248
100
AcDbEntity
  8
SCHRAFFUR_RAND
100
AcDbVertex
100
AcDb2dVertex
 10
469.8019687702242
 20
332.5615446702442
 30
0.0
  0
VERTEX
  5
125A
330
1248
100
AcDbEntity
  8
SCHRAFFUR_RAND
100
AcDbVertex
100
AcDb2dVertex
 10
468.0499687702242
 20
332.9315446702442
 30
0.0
  0
VERTEX
  5
125B
330
1248
100
AcDbEntity
  8
SCHRAFFUR_RAND
100
AcDbVertex
100
AcDb2dVertex
 10
466.2609687702241
 20
333.0125446702441
 30
0.0
  0
VERTEX
  5
125C
330
1248
100
AcDbEntity
  8
SCHRAFFUR_RAND
100
AcDbVertex
100
AcDb2dVertex
 10
464.4829687702242
 20
332.8035446702442
 30
0.0
  0
VERTEX
  5
125D
330
1248
100
AcDbEntity
  8
SCHRAFFUR_RAND
100
AcDbVertex
100
AcDb2dVertex
 10
462.7619687702242
 20
332.3095446702442
 30
0.0
  0
VERTEX
  5
125E
330
1248
100
AcDbEntity
  8
SCHRAFFUR_RAND
100
AcDbVertex
100
AcDb2dVertex
 10
461.1559687702241
 20
331.5215446702442
 30
0.0
  0
VERTEX
  5
125F
330
1248
100
AcDbEntity
  8
SCHRAFFUR_RAND
100
AcDbVertex
100
AcDb2dVertex
 10
457.8869687702242
 20
337.1835446702442
 30
0.0
  0
VERTEX
  5
1260
330
1248
100
AcDbEntity
  8
SCHRAFFUR_RAND
100
AcDbVertex
100
AcDb2dVertex
 10
457.8869687702242
 20
315.3545446702441
 30
0.0
  0
SEQEND
  5
1261
330
1248
100
AcDbEntity
  8
SCHRAFFUR_RAND
  0
INSERT
  5
1274
330
1D67
100
AcDbEntity
  8
8
100
AcDbBlockReference
  2
*X2
 10
109.3789687702242
 20
24.57954467024416
 30
0.0
1001
ACAD
1000
HATCH
1002
{
1070
    19
1000
ANSI37,_I
1040
3.174999999999999
1040
3.926999999999999
1002
}
  0
POLYLINE
  5
1275
330
1D67
100
AcDbEntity
  8
SCHRAFFUR_RAND
100
AcDb2dPolyline
 66
     1
 10
0.0
 20
0.0
 30
0.0
 70
     1
  0
VERTEX
  5
1276
330
1275
100
AcDbEntity
  8
SCHRAFFUR_RAND
100
AcDbVertex
100
AcDb2dVertex
 10
322.8869687702241
 20
315.3545446702441
 30
0.0
  0
VERTEX
  5
1277
330
1275
100
AcDbEntity
  8
SCHRAFFUR_RAND
100
AcDbVertex
100
AcDb2dVertex
 10
321.6849687702242
 20
313.9775446702441
 30
0.0
  0
VERTEX
  5
1278
330
1275
100
AcDbEntity
  8
SCHRAFFUR_RAND
100
AcDbVertex
100
AcDb2dVertex
 10
320.2549687702242
 20
312.8365446702442
 30
0.0
  0
VERTEX
  5
1279
330
1275
100
AcDbEntity
  8
SCHRAFFUR_RAND
100
AcDbVertex
100
AcDb2dVertex
 10
318.6559687702242
 20
311.9475446702442
 30
0.0
  0
VERTEX
  5
127A
330
1275
100
AcDbEntity
  8
SCHRAFFUR_RAND
100
AcDbVertex
100
AcDb2dVertex
 10
316.9319687702242
 20
311.3355446702442
 30
0.0
  0
VERTEX
  5
127B
330
1275
100
AcDbEntity
  8
SCHRAFFUR_RAND
100
AcDbVertex
100
AcDb2dVertex
 10
315.1299687702242
 20
311.0175446702442
 30
0.0
  0
VERTEX
  5
127C
330
1275
100
AcDbEntity
  8
SCHRAFFUR_RAND
100
AcDbVertex
100
AcDb2dVertex
 10
313.3009687702242
 20
311.0015446702442
 30
0.0
  0
VERTEX
  5
127D
330
1275
100
AcDbEntity
  8
SCHRAFFUR_RAND
100
AcDbVertex
100
AcDb2dVertex
 10
311.4939687702242
 20
311.2875446702441
 30
0.0
  0
VERTEX
  5
127E
330
1275
100
AcDbEntity
  8
SCHRAFFUR_RAND
100
AcDbVertex
100
AcDb2dVertex
 10
309.7589687702242
 20
311.8695446702442
 30
0.0
  0
VERTEX
  5
127F
330
1275
100
AcDbEntity
  8
SCHRAFFUR_RAND
100
AcDbVertex
100
AcDb2dVertex
 10
308.1439687702242
 20
312.7295446702441
 30
0.0
  0
VERTEX
  5
1280
330
1275
100
AcDbEntity
  8
SCHRAFFUR_RAND
100
AcDbVertex
100
AcDb2dVertex
 10
306.6939687702241
 20
313.8455446702441
 30
0.0
  0
VERTEX
  5
1281
330
1275
100
AcDbEntity
  8
SCHRAFFUR_RAND
100
AcDbVertex
100
AcDb2dVertex
 10
305.4679687702242
 20
315.2005446702442
 30
0.0
  0
VERTEX
  5
1282
330
1275
100
AcDbEntity
  8
SCHRAFFUR_RAND
100
AcDbVertex
100
AcDb2dVertex
 10
305.2359687702242
 20
328.4845446702441
 30
0.0
  0
VERTEX
  5
1283
330
1275
100
AcDbEntity
  8
SCHRAFFUR_RAND
100
AcDbVertex
100
AcDb2dVertex
 10
306.3869687702241
 20
329.8545446702441
 30
0.0
  0
VERTEX
  5
1284
330
1275
100
AcDbEntity
  8
SCHRAFFUR_RAND
100
AcDbVertex
100
AcDb2dVertex
 10
307.7609687702242
 20
331.0025446702442
 30
0.0
  0
VERTEX
  5
1285
330
1275
100
AcDbEntity
  8
SCHRAFFUR_RAND
100
AcDbVertex
100
AcDb2dVertex
 10
309.3029687702242
 20
331.9125446702441
 30
0.0
  0
VERTEX
  5
1286
330
1275
100
AcDbEntity
  8
SCHRAFFUR_RAND
100
AcDbVertex
100
AcDb2dVertex
 10
310.9719687702242
 20
332.5615446702442
 30
0.0
  0
VERTEX
  5
1287
330
1275
100
AcDbEntity
  8
SCHRAFFUR_RAND
100
AcDbVertex
100
AcDb2dVertex
 10
312.7239687702242
 20
332.9315446702442
 30
0.0
  0
VERTEX
  5
1288
330
1275
100
AcDbEntity
  8
SCHRAFFUR_RAND
100
AcDbVertex
100
AcDb2dVertex
 10
314.5129687702242
 20
333.0125446702441
 30
0.0
  0
VERTEX
  5
1289
330
1275
100
AcDbEntity
  8
SCHRAFFUR_RAND
100
AcDbVertex
100
AcDb2dVertex
 10
316.2909687702242
 20
332.8035446702442
 30
0.0
  0
VERTEX
  5
128A
330
1275
100
AcDbEntity
  8
SCHRAFFUR_RAND
100
AcDbVertex
100
AcDb2dVertex
 10
318.0119687702241
 20
332.3095446702442
 30
0.0
  0
VERTEX
  5
128B
330
1275
100
AcDbEntity
  8
SCHRAFFUR_RAND
100
AcDbVertex
100
AcDb2dVertex
 10
319.6179687702242
 20
331.5215446702442
 30
0.0
  0
VERTEX
  5
128C
330
1275
100
AcDbEntity
  8
SCHRAFFUR_RAND
100
AcDbVertex
100
AcDb2dVertex
 10
322.8869687702241
 20
337.1835446702442
 30
0.0
  0
VERTEX
  5
128D
330
1275
100
AcDbEntity
  8
SCHRAFFUR_RAND
100
AcDbVertex
100
AcDb2dVertex
 10
322.8869687702241
 20
315.3545446702441
 30
0.0
  0
SEQEND
  5
128E
330
1275
100
AcDbEntity
  8
SCHRAFFUR_RAND
  0
INSERT
  5
12A0
330
1D67
100
AcDbEntity
  8
8
100
AcDbBlockReference
  2
*X3
 10
109.3789687702242
 20
24.57954467024416
 30
0.0
1001
ACAD
1000
HATCH
1002
{
1070
    19
1000
ANSI37,_I
1040
3.174999999999999
1040
3.926999999999999
1002
}
  0
POLYLINE
  5
12A1
330
1D67
100
AcDbEntity
  8
SCHRAFFUR_RAND
100
AcDb2dPolyline
 66
     1
 10
0.0
 20
0.0
 30
0.0
 70
     1
  0
VERTEX
  5
12A2
330
12A1
100
AcDbEntity
  8
SCHRAFFUR_RAND
100
AcDbVertex
100
AcDb2dVertex
 10
472.6609687702241
 20
438.3915446702441
 30
0.0
  0
VERTEX
  5
12A3
330
12A1
100
AcDbEntity
  8
SCHRAFFUR_RAND
100
AcDbVertex
100
AcDb2dVertex
 10
471.6789687702242
 20
438.4985446702442
 30
0.0
  0
VERTEX
  5
12A4
330
12A1
100
AcDbEntity
  8
SCHRAFFUR_RAND
100
AcDbVertex
100
AcDb2dVertex
 10
470.450968770224
 20
438.3605446702441
 30
0.0
  0
VERTEX
  5
12A5
330
12A1
100
AcDbEntity
  8
SCHRAFFUR_RAND
100
AcDbVertex
100
AcDb2dVertex
 10
469.2849687702241
 20
437.951544670244
 30
0.0
  0
VERTEX
  5
12A6
330
12A1
100
AcDbEntity
  8
SCHRAFFUR_RAND
100
AcDbVertex
100
AcDb2dVertex
 10
468.2379687702242
 20
437.2945446702441
 30
0.0
  0
VERTEX
  5
12A7
330
12A1
100
AcDbEntity
  8
SCHRAFFUR_RAND
100
AcDbVertex
100
AcDb2dVertex
 10
467.3649687702241
 20
436.4205446702441
 30
0.0
  0
VERTEX
  5
12A8
330
12A1
100
AcDbEntity
  8
SCHRAFFUR_RAND
100
AcDbVertex
100
AcDb2dVertex
 10
466.7069687702242
 20
435.3745446702442
 30
0.0
  0
VERTEX
  5
12A9
330
12A1
100
AcDbEntity
  8
SCHRAFFUR_RAND
100
AcDbVertex
100
AcDb2dVertex
 10
466.2989687702242
 20
434.2075446702442
 30
0.0
  0
VERTEX
  5
12AA
330
12A1
100
AcDbEntity
  8
SCHRAFFUR_RAND
100
AcDbVertex
100
AcDb2dVertex
 10
466.1609687702241
 20
432.9795446702441
 30
0.0
  0
VERTEX
  5
12AB
330
12A1
100
AcDbEntity
  8
SCHRAFFUR_RAND
100
AcDbVertex
100
AcDb2dVertex
 10
466.2989687702242
 20
431.7515446702441
 30
0.0
  0
VERTEX
  5
12AC
330
12A1
100
AcDbEntity
  8
SCHRAFFUR_RAND
100
AcDbVertex
100
AcDb2dVertex
 10
466.7069687702242
 20
430.5855446702441
 30
0.0
  0
VERTEX
  5
12AD
330
12A1
100
AcDbEntity
  8
SCHRAFFUR_RAND
100
AcDbVertex
100
AcDb2dVertex
 10
467.3649687702241
 20
429.5385446702441
 30
0.0
  0
VERTEX
  5
12AE
330
12A1
100
AcDbEntity
  8
SCHRAFFUR_RAND
100
AcDbVertex
100
AcDb2dVertex
 10
468.2379687702242
 20
428.6655446702441
 30
0.0
  0
VERTEX
  5
12AF
330
12A1
100
AcDbEntity
  8
SCHRAFFUR_RAND
100
AcDbVertex
100
AcDb2dVertex
 10
469.2849687702241
 20
428.0075446702442
 30
0.0
  0
VERTEX
  5
12B0
330
12A1
100
AcDbEntity
  8
SCHRAFFUR_RAND
100
AcDbVertex
100
AcDb2dVertex
 10
470.450968770224
 20
427.5995446702441
 30
0.0
  0
VERTEX
  5
12B1
330
12A1
100
AcDbEntity
  8
SCHRAFFUR_RAND
100
AcDbVertex
100
AcDb2dVertex
 10
471.6789687702242
 20
427.4795446702441
 30
0.0
  0
VERTEX
  5
12B2
330
12A1
100
AcDbEntity
  8
SCHRAFFUR_RAND
100
AcDbVertex
100
AcDb2dVertex
 10
472.7439687702242
 20
427.5645446702442
 30
0.0
  0
VERTEX
  5
12B3
330
12A1
100
AcDbEntity
  8
SCHRAFFUR_RAND
100
AcDbVertex
100
AcDb2dVertex
 10
472.9069687702242
 20
427.5995446702441
 30
0.0
  0
VERTEX
  5
12B4
330
12A1
100
AcDbEntity
  8
SCHRAFFUR_RAND
100
AcDbVertex
100
AcDb2dVertex
 10
473.7689687702242
 20
427.8725446702441
 30
0.0
  0
VERTEX
  5
12B5
330
12A1
100
AcDbEntity
  8
SCHRAFFUR_RAND
100
AcDbVertex
100
AcDb2dVertex
 10
474.0739687702241
 20
428.0075446702442
 30
0.0
  0
VERTEX
  5
12B6
330
12A1
100
AcDbEntity
  8
SCHRAFFUR_RAND
100
AcDbVertex
100
AcDb2dVertex
 10
474.7149687702242
 20
428.3715446702441
 30
0.0
  0
VERTEX
  5
12B7
330
12A1
100
AcDbEntity
  8
SCHRAFFUR_RAND
100
AcDbVertex
100
AcDb2dVertex
 10
475.1199687702242
 20
428.6655446702441
 30
0.0
  0
VERTEX
  5
12B8
330
12A1
100
AcDbEntity
  8
SCHRAFFUR_RAND
100
AcDbVertex
100
AcDb2dVertex
 10
475.5469687702242
 20
429.0435446702441
 30
0.0
  0
VERTEX
  5
12B9
330
12A1
100
AcDbEntity
  8
SCHRAFFUR_RAND
100
AcDbVertex
100
AcDb2dVertex
 10
475.9939687702241
 20
429.5385446702441
 30
0.0
  0
VERTEX
  5
12BA
330
12A1
100
AcDbEntity
  8
SCHRAFFUR_RAND
100
AcDbVertex
100
AcDb2dVertex
 10
476.2339687702242
 20
429.8635446702441
 30
0.0
  0
VERTEX
  5
12BB
330
12A1
100
AcDbEntity
  8
SCHRAFFUR_RAND
100
AcDbVertex
100
AcDb2dVertex
 10
476.6509687702241
 20
430.5855446702441
 30
0.0
  0
VERTEX
  5
12BC
330
12A1
100
AcDbEntity
  8
SCHRAFFUR_RAND
100
AcDbVertex
100
AcDb2dVertex
 10
476.7499687702241
 20
430.8015446702441
 30
0.0
  0
VERTEX
  5
12BD
330
12A1
100
AcDbEntity
  8
SCHRAFFUR_RAND
100
AcDbVertex
100
AcDb2dVertex
 10
477.0599687702241
 20
431.7515446702441
 30
0.0
  0
VERTEX
  5
12BE
330
12A1
100
AcDbEntity
  8
SCHRAFFUR_RAND
100
AcDbVertex
100
AcDb2dVertex
 10
477.0749687702241
 20
431.8205446702441
 30
0.0
  0
VERTEX
  5
12BF
330
12A1
100
AcDbEntity
  8
SCHRAFFUR_RAND
100
AcDbVertex
100
AcDb2dVertex
 10
477.1779687702242
 20
432.8835446702441
 30
0.0
  0
VERTEX
  5
12C0
330
12A1
100
AcDbEntity
  8
SCHRAFFUR_RAND
100
AcDbVertex
100
AcDb2dVertex
 10
477.1789687702241
 20
432.9795446702441
 30
0.0
  0
VERTEX
  5
12C1
330
12A1
100
AcDbEntity
  8
SCHRAFFUR_RAND
100
AcDbVertex
100
AcDb2dVertex
 10
477.0599687702241
 20
434.2075446702442
 30
0.0
  0
VERTEX
  5
12C2
330
12A1
100
AcDbEntity
  8
SCHRAFFUR_RAND
100
AcDbVertex
100
AcDb2dVertex
 10
476.6509687702241
 20
435.3745446702442
 30
0.0
  0
VERTEX
  5
12C3
330
12A1
100
AcDbEntity
  8
SCHRAFFUR_RAND
100
AcDbVertex
100
AcDb2dVertex
 10
475.9939687702241
 20
436.4205446702441
 30
0.0
  0
VERTEX
  5
12C4
330
12A1
100
AcDbEntity
  8
SCHRAFFUR_RAND
100
AcDbVertex
100
AcDb2dVertex
 10
475.1199687702242
 20
437.2945446702441
 30
0.0
  0
VERTEX
  5
12C5
330
12A1
100
AcDbEntity
  8
SCHRAFFUR_RAND
100
AcDbVertex
100
AcDb2dVertex
 10
474.0739687702241
 20
437.951544670244
 30
0.0
  0
VERTEX
  5
12C6
330
12A1
100
AcDbEntity
  8
SCHRAFFUR_RAND
100
AcDbVertex
100
AcDb2dVertex
 10
472.9069687702242
 20
438.3605446702441
 30
0.0
  0
VERTEX
  5
12C7
330
12A1
100
AcDbEntity
  8
SCHRAFFUR_RAND
100
AcDbVertex
100
AcDb2dVertex
 10
472.6609687702241
 20
438.3915446702441
 30
0.0
  0
SEQEND
  5
12C8
330
12A1
100
AcDbEntity
  8
SCHRAFFUR_RAND
  0
INSERT
  5
12D1
330
1D67
100
AcDbEntity
  8
8
100
AcDbBlockReference
  2
*X4
 10
109.3789687702242
 20
24.57954467024416
 30
0.0
1001
ACAD
1000
HATCH
1002
{
1070
    19
1000
ANSI37,_I
1040
3.174999999999999
1040
3.926999999999999
1002
}
  0
POLYLINE
  5
12D2
330
1D67
100
AcDbEntity
  8
SCHRAFFUR_RAND
100
AcDb2dPolyline
 66
     1
 10
0.0
 20
0.0
 30
0.0
 70
     1
  0
VERTEX
  5
12D3
330
12D2
100
AcDbEntity
  8
SCHRAFFUR_RAND
100
AcDbVertex
100
AcDb2dVertex
 10
438.8869687702242
 20
125.8215446702442
 30
0.0
  0
VERTEX
  5
12D4
330
12D2
100
AcDbEntity
  8
SCHRAFFUR_RAND
100
AcDbVertex
100
AcDb2dVertex
 10
445.3869687702242
 20
127.5635446702441
 30
0.0
  0
VERTEX
  5
12D5
330
12D2
100
AcDbEntity
  8
SCHRAFFUR_RAND
100
AcDbVertex
100
AcDb2dVertex
 10
446.4039687702242
 20
185.8225446702441
 30
0.0
  0
VERTEX
  5
12D6
330
12D2
100
AcDbEntity
  8
SCHRAFFUR_RAND
100
AcDbVertex
100
AcDb2dVertex
 10
447.7269687702241
 20
236.3425446702442
 30
0.0
  0
VERTEX
  5
12D7
330
12D2
100
AcDbEntity
  8
SCHRAFFUR_RAND
100
AcDbVertex
100
AcDb2dVertex
 10
448.2069687702241
 20
238.8765446702441
 30
0.0
  0
VERTEX
  5
12D8
330
12D2
100
AcDbEntity
  8
SCHRAFFUR_RAND
100
AcDbVertex
100
AcDb2dVertex
 10
449.8199687702241
 20
240.9225446702441
 30
0.0
  0
VERTEX
  5
12D9
330
12D2
100
AcDbEntity
  8
SCHRAFFUR_RAND
100
AcDbVertex
100
AcDb2dVertex
 10
452.1719687702242
 20
241.9815446702442
 30
0.0
  0
VERTEX
  5
12DA
330
12D2
100
AcDbEntity
  8
SCHRAFFUR_RAND
100
AcDbVertex
100
AcDb2dVertex
 10
476.0979687702241
 20
248.3925446702441
 30
0.0
  0
VERTEX
  5
12DB
330
12D2
100
AcDbEntity
  8
SCHRAFFUR_RAND
100
AcDbVertex
100
AcDb2dVertex
 10
478.4359687702241
 20
249.4405446702442
 30
0.0
  0
VERTEX
  5
12DC
330
12D2
100
AcDbEntity
  8
SCHRAFFUR_RAND
100
AcDbVertex
100
AcDb2dVertex
 10
480.0469687702242
 20
251.4655446702442
 30
0.0
  0
VERTEX
  5
12DD
330
12D2
100
AcDbEntity
  8
SCHRAFFUR_RAND
100
AcDbVertex
100
AcDb2dVertex
 10
480.5419687702242
 20
253.9785446702442
 30
0.0
  0
VERTEX
  5
12DE
330
12D2
100
AcDbEntity
  8
SCHRAFFUR_RAND
100
AcDbVertex
100
AcDb2dVertex
 10
483.7909687702241
 20
347.0335446702442
 30
0.0
  0
VERTEX
  5
12DF
330
12D2
100
AcDbEntity
  8
SCHRAFFUR_RAND
100
AcDbVertex
100
AcDb2dVertex
 10
484.4539687702241
 20
349.8625446702442
 30
0.0
  0
VERTEX
  5
12E0
330
12D2
100
AcDbEntity
  8
SCHRAFFUR_RAND
100
AcDbVertex
100
AcDb2dVertex
 10
486.4749687702242
 20
351.9925446702442
 30
0.0
  0
VERTEX
  5
12E1
330
12D2
100
AcDbEntity
  8
SCHRAFFUR_RAND
100
AcDbVertex
100
AcDb2dVertex
 10
489.2649687702242
 20
352.8015446702442
 30
0.0
  0
VERTEX
  5
12E2
330
12D2
100
AcDbEntity
  8
SCHRAFFUR_RAND
100
AcDbVertex
100
AcDb2dVertex
 10
498.8009687702241
 20
353.6355446702442
 30
0.0
  0
VERTEX
  5
12E3
330
12D2
100
AcDbEntity
  8
SCHRAFFUR_RAND
100
AcDbVertex
100
AcDb2dVertex
 10
500.0649687702241
 20
353.5685446702442
 30
0.0
  0
VERTEX
  5
12E4
330
12D2
100
AcDbEntity
  8
SCHRAFFUR_RAND
100
AcDbVertex
100
AcDb2dVertex
 10
501.0889687702241
 20
352.7815446702442
 30
0.0
  0
VERTEX
  5
12E5
330
12D2
100
AcDbEntity
  8
SCHRAFFUR_RAND
100
AcDbVertex
100
AcDb2dVertex
 10
501.4809687702242
 20
351.5795446702441
 30
0.0
  0
VERTEX
  5
12E6
330
12D2
100
AcDbEntity
  8
SCHRAFFUR_RAND
100
AcDbVertex
100
AcDb2dVertex
 10
503.5689687702241
 20
339.7385446702442
 30
0.0
  0
VERTEX
  5
12E7
330
12D2
100
AcDbEntity
  8
SCHRAFFUR_RAND
100
AcDbVertex
100
AcDb2dVertex
 10
505.2119687702242
 20
335.2025446702441
 30
0.0
  0
VERTEX
  5
12E8
330
12D2
100
AcDbEntity
  8
SCHRAFFUR_RAND
100
AcDbVertex
100
AcDb2dVertex
 10
508.5769687702241
 20
331.7745446702442
 30
0.0
  0
VERTEX
  5
12E9
330
12D2
100
AcDbEntity
  8
SCHRAFFUR_RAND
100
AcDbVertex
100
AcDb2dVertex
 10
513.0079687702242
 20
329.9195446702441
 30
0.0
  0
VERTEX
  5
12EA
330
12D2
100
AcDbEntity
  8
SCHRAFFUR_RAND
100
AcDbVertex
100
AcDb2dVertex
 10
517.8119687702242
 20
329.9285446702441
 30
0.0
  0
VERTEX
  5
12EB
330
12D2
100
AcDbEntity
  8
SCHRAFFUR_RAND
100
AcDbVertex
100
AcDb2dVertex
 10
522.2359687702241
 20
331.8005446702442
 30
0.0
  0
VERTEX
  5
12EC
330
12D2
100
AcDbEntity
  8
SCHRAFFUR_RAND
100
AcDbVertex
100
AcDb2dVertex
 10
525.5869687702242
 20
335.2425446702442
 30
0.0
  0
VERTEX
  5
12ED
330
12D2
100
AcDbEntity
  8
SCHRAFFUR_RAND
100
AcDbVertex
100
AcDb2dVertex
 10
527.2039687702241
 20
339.7385446702442
 30
0.0
  0
VERTEX
  5
12EE
330
12D2
100
AcDbEntity
  8
SCHRAFFUR_RAND
100
AcDbVertex
100
AcDb2dVertex
 10
529.8049687702241
 20
354.4885446702441
 30
0.0
  0
VERTEX
  5
12EF
330
12D2
100
AcDbEntity
  8
SCHRAFFUR_RAND
100
AcDbVertex
100
AcDb2dVertex
 10
530.5789687702241
 20
355.8975446702442
 30
0.0
  0
VERTEX
  5
12F0
330
12D2
100
AcDbEntity
  8
SCHRAFFUR_RAND
100
AcDbVertex
100
AcDb2dVertex
 10
532.0499687702241
 20
356.5445446702441
 30
0.0
  0
VERTEX
  5
12F1
330
12D2
100
AcDbEntity
  8
SCHRAFFUR_RAND
100
AcDbVertex
100
AcDb2dVertex
 10
537.5379687702242
 20
357.0245446702442
 30
0.0
  0
VERTEX
  5
12F2
330
12D2
100
AcDbEntity
  8
SCHRAFFUR_RAND
100
AcDbVertex
100
AcDb2dVertex
 10
553.2289687702242
 20
361.8225446702442
 30
0.0
  0
VERTEX
  5
12F3
330
12D2
100
AcDbEntity
  8
SCHRAFFUR_RAND
100
AcDbVertex
100
AcDb2dVertex
 10
570.3869687702242
 20
361.8225446702442
 30
0.0
  0
VERTEX
  5
12F4
330
12D2
100
AcDbEntity
  8
SCHRAFFUR_RAND
100
AcDbVertex
100
AcDb2dVertex
 10
568.2039687702241
 20
369.9685446702442
 30
0.0
  0
VERTEX
  5
12F5
330
12D2
100
AcDbEntity
  8
SCHRAFFUR_RAND
100
AcDbVertex
100
AcDb2dVertex
 10
567.6329687702242
 20
371.2095446702442
 30
0.0
  0
VERTEX
  5
12F6
330
12D2
100
AcDbEntity
  8
SCHRAFFUR_RAND
100
AcDbVertex
100
AcDb2dVertex
 10
566.4129687702241
 20
371.8855446702442
 30
0.0
  0
VERTEX
  5
12F7
330
12D2
100
AcDbEntity
  8
SCHRAFFUR_RAND
100
AcDbVertex
100
AcDb2dVertex
 10
565.7889687702241
 20
371.8225446702442
 30
0.0
  0
VERTEX
  5
12F8
330
12D2
100
AcDbEntity
  8
SCHRAFFUR_RAND
100
AcDbVertex
100
AcDb2dVertex
 10
565.0579687702242
 20
371.7125446702442
 30
0.0
  0
VERTEX
  5
12F9
330
12D2
100
AcDbEntity
  8
SCHRAFFUR_RAND
100
AcDbVertex
100
AcDb2dVertex
 10
536.3869687702242
 20
362.9475446702442
 30
0.0
  0
VERTEX
  5
12FA
330
12D2
100
AcDbEntity
  8
SCHRAFFUR_RAND
100
AcDbVertex
100
AcDb2dVertex
 10
522.0249687702241
 20
361.6905446702442
 30
0.0
  0
VERTEX
  5
12FB
330
12D2
100
AcDbEntity
  8
SCHRAFFUR_RAND
100
AcDbVertex
100
AcDb2dVertex
 10
521.3869687702242
 20
360.5855446702441
 30
0.0
  0
VERTEX
  5
12FC
330
12D2
100
AcDbEntity
  8
SCHRAFFUR_RAND
100
AcDbVertex
100
AcDb2dVertex
 10
520.3859687702241
 20
360.5855446702441
 30
0.0
  0
VERTEX
  5
12FD
330
12D2
100
AcDbEntity
  8
SCHRAFFUR_RAND
100
AcDbVertex
100
AcDb2dVertex
 10
520.3859687702241
 20
345.8225446702442
 30
0.0
  0
VERTEX
  5
12FE
330
12D2
100
AcDbEntity
  8
SCHRAFFUR_RAND
100
AcDbVertex
100
AcDb2dVertex
 10
519.3869687702242
 20
345.8225446702442
 30
0.0
  0
VERTEX
  5
12FF
330
12D2
100
AcDbEntity
  8
SCHRAFFUR_RAND
100
AcDbVertex
100
AcDb2dVertex
 10
519.3869687702242
 20
340.0855446702441
 30
0.0
  0
VERTEX
  5
1300
330
12D2
100
AcDbEntity
  8
SCHRAFFUR_RAND
100
AcDbVertex
100
AcDb2dVertex
 10
515.3869687702242
 20
337.7755446702441
 30
0.0
  0
VERTEX
  5
1301
330
12D2
100
AcDbEntity
  8
SCHRAFFUR_RAND
100
AcDbVertex
100
AcDb2dVertex
 10
511.3869687702242
 20
340.0855446702441
 30
0.0
  0
VERTEX
  5
1302
330
12D2
100
AcDbEntity
  8
SCHRAFFUR_RAND
100
AcDbVertex
100
AcDb2dVertex
 10
511.3869687702242
 20
345.8225446702442
 30
0.0
  0
VERTEX
  5
1303
330
12D2
100
AcDbEntity
  8
SCHRAFFUR_RAND
100
AcDbVertex
100
AcDb2dVertex
 10
510.3859687702241
 20
345.8225446702442
 30
0.0
  0
VERTEX
  5
1304
330
12D2
100
AcDbEntity
  8
SCHRAFFUR_RAND
100
AcDbVertex
100
AcDb2dVertex
 10
510.3859687702241
 20
360.5855446702441
 30
0.0
  0
VERTEX
  5
1305
330
12D2
100
AcDbEntity
  8
SCHRAFFUR_RAND
100
AcDbVertex
100
AcDb2dVertex
 10
509.3869687702242
 20
360.5845446702442
 30
0.0
  0
VERTEX
  5
1306
330
12D2
100
AcDbEntity
  8
SCHRAFFUR_RAND
100
AcDbVertex
100
AcDb2dVertex
 10
500.6679687702241
 20
359.8225446702442
 30
0.0
  0
VERTEX
  5
1307
330
12D2
100
AcDbEntity
  8
SCHRAFFUR_RAND
100
AcDbVertex
100
AcDb2dVertex
 10
493.6619687702242
 20
359.2095446702442
 30
0.0
  0
VERTEX
  5
1308
330
12D2
100
AcDbEntity
  8
SCHRAFFUR_RAND
100
AcDbVertex
100
AcDb2dVertex
 10
492.3019687702242
 20
359.3215446702441
 30
0.0
  0
VERTEX
  5
1309
330
12D2
100
AcDbEntity
  8
SCHRAFFUR_RAND
100
AcDbVertex
100
AcDb2dVertex
 10
491.7939687702242
 20
359.8225446702442
 30
0.0
  0
VERTEX
  5
130A
330
12D2
100
AcDbEntity
  8
SCHRAFFUR_RAND
100
AcDbVertex
100
AcDb2dVertex
 10
491.2489687702242
 20
360.2365446702441
 30
0.0
  0
VERTEX
  5
130B
330
12D2
100
AcDbEntity
  8
SCHRAFFUR_RAND
100
AcDbVertex
100
AcDb2dVertex
 10
490.9989687702242
 20
361.1805446702442
 30
0.0
  0
VERTEX
  5
130C
330
12D2
100
AcDbEntity
  8
SCHRAFFUR_RAND
100
AcDbVertex
100
AcDb2dVertex
 10
490.9479687702241
 20
361.5675446702442
 30
0.0
  0
VERTEX
  5
130D
330
12D2
100
AcDbEntity
  8
SCHRAFFUR_RAND
100
AcDbVertex
100
AcDb2dVertex
 10
490.4379687702242
 20
363.8225446702442
 30
0.0
  0
VERTEX
  5
130E
330
12D2
100
AcDbEntity
  8
SCHRAFFUR_RAND
100
AcDbVertex
100
AcDb2dVertex
 10
484.2579687702242
 20
363.8225446702442
 30
0.0
  0
VERTEX
  5
130F
330
12D2
100
AcDbEntity
  8
SCHRAFFUR_RAND
100
AcDbVertex
100
AcDb2dVertex
 10
484.0479687702242
 20
359.8225446702442
 30
0.0
  0
VERTEX
  5
1310
330
12D2
100
AcDbEntity
  8
SCHRAFFUR_RAND
100
AcDbVertex
100
AcDb2dVertex
 10
483.8649687702242
 20
356.3225446702442
 30
0.0
  0
VERTEX
  5
1311
330
12D2
100
AcDbEntity
  8
SCHRAFFUR_RAND
100
AcDbVertex
100
AcDb2dVertex
 10
477.2699687702242
 20
356.3225446702442
 30
0.0
  0
VERTEX
  5
1312
330
12D2
100
AcDbEntity
  8
SCHRAFFUR_RAND
100
AcDbVertex
100
AcDb2dVertex
 10
475.8869687702242
 20
348.4795446702441
 30
0.0
  0
VERTEX
  5
1313
330
12D2
100
AcDbEntity
  8
SCHRAFFUR_RAND
100
AcDbVertex
100
AcDb2dVertex
 10
475.5379687702242
 20
328.4845446702441
 30
0.0
  0
VERTEX
  5
1314
330
12D2
100
AcDbEntity
  8
SCHRAFFUR_RAND
100
AcDbVertex
100
AcDb2dVertex
 10
475.3059687702241
 20
315.2005446702442
 30
0.0
  0
VERTEX
  5
1315
330
12D2
100
AcDbEntity
  8
SCHRAFFUR_RAND
100
AcDbVertex
100
AcDb2dVertex
 10
474.3179687702242
 20
258.6275446702442
 30
0.0
  0
VERTEX
  5
1316
330
12D2
100
AcDbEntity
  8
SCHRAFFUR_RAND
100
AcDbVertex
100
AcDb2dVertex
 10
473.8519687702241
 20
256.0725446702441
 30
0.0
  0
VERTEX
  5
1317
330
12D2
100
AcDbEntity
  8
SCHRAFFUR_RAND
100
AcDbVertex
100
AcDb2dVertex
 10
472.2379687702242
 20
254.0065446702442
 30
0.0
  0
VERTEX
  5
1318
330
12D2
100
AcDbEntity
  8
SCHRAFFUR_RAND
100
AcDbVertex
100
AcDb2dVertex
 10
469.8719687702243
 20
252.9355446702441
 30
0.0
  0
VERTEX
  5
1319
330
12D2
100
AcDbEntity
  8
SCHRAFFUR_RAND
100
AcDbVertex
100
AcDb2dVertex
 10
446.3469687702241
 20
246.6325446702442
 30
0.0
  0
VERTEX
  5
131A
330
12D2
100
AcDbEntity
  8
SCHRAFFUR_RAND
100
AcDbVertex
100
AcDb2dVertex
 10
443.9959687702241
 20
245.5735446702442
 30
0.0
  0
VERTEX
  5
131B
330
12D2
100
AcDbEntity
  8
SCHRAFFUR_RAND
100
AcDbVertex
100
AcDb2dVertex
 10
442.3829687702242
 20
243.5285446702442
 30
0.0
  0
VERTEX
  5
131C
330
12D2
100
AcDbEntity
  8
SCHRAFFUR_RAND
100
AcDbVertex
100
AcDb2dVertex
 10
441.9029687702241
 20
240.9945446702442
 30
0.0
  0
VERTEX
  5
131D
330
12D2
100
AcDbEntity
  8
SCHRAFFUR_RAND
100
AcDbVertex
100
AcDb2dVertex
 10
438.8869687702242
 20
125.8215446702442
 30
0.0
  0
SEQEND
  5
131E
330
12D2
100
AcDbEntity
  8
SCHRAFFUR_RAND
  0
POLYLINE
  5
15B7
330
1D67
100
AcDbEntity
  8
SCHRAFFUR_RAND
100
AcDb2dPolyline
 66
     1
 10
0.0
 20
0.0
 30
0.0
 70
     1
  0
VERTEX
  5
15B8
330
15B7
100
AcDbEntity
  8
SCHRAFFUR_RAND
100
AcDbVertex
100
AcDb2dVertex
 10
299.8869687702241
 20
473.4795446702441
 30
0.0
  0
VERTEX
  5
15B9
330
15B7
100
AcDbEntity
  8
SCHRAFFUR_RAND
100
AcDbVertex
100
AcDb2dVertex
 10
291.8869687702241
 20
473.4795446702441
 30
0.0
  0
VERTEX
  5
15BA
330
15B7
100
AcDbEntity
  8
SCHRAFFUR_RAND
100
AcDbVertex
100
AcDb2dVertex
 10
289.7939687702242
 20
433.5345446702441
 30
0.0
  0
VERTEX
  5
15BB
330
15B7
100
AcDbEntity
  8
SCHRAFFUR_RAND
100
AcDbVertex
100
AcDb2dVertex
 10
282.6639687702242
 20
433.5345446702441
 30
0.0
  0
VERTEX
  5
15BC
330
15B7
100
AcDbEntity
  8
SCHRAFFUR_RAND
100
AcDbVertex
100
AcDb2dVertex
 10
280.4139687702242
 20
423.4795446702441
 30
0.0
  0
VERTEX
  5
15BD
330
15B7
100
AcDbEntity
  8
SCHRAFFUR_RAND
100
AcDbVertex
100
AcDb2dVertex
 10
295.5699687702241
 20
423.4795446702441
 30
0.0
  0
VERTEX
  5
15BE
330
15B7
100
AcDbEntity
  8
SCHRAFFUR_RAND
100
AcDbVertex
100
AcDb2dVertex
 10
299.3269687702242
 20
422.896544670244
 30
0.0
  0
VERTEX
  5
15BF
330
15B7
100
AcDbEntity
  8
SCHRAFFUR_RAND
100
AcDbVertex
100
AcDb2dVertex
 10
302.5489687702242
 20
420.8335446702442
 30
0.0
  0
VERTEX
  5
15C0
330
15B7
100
AcDbEntity
  8
SCHRAFFUR_RAND
100
AcDbVertex
100
AcDb2dVertex
 10
304.7769687702242
 20
417.7245446702441
 30
0.0
  0
VERTEX
  5
15C1
330
15B7
100
AcDbEntity
  8
SCHRAFFUR_RAND
100
AcDbVertex
100
AcDb2dVertex
 10
305.5559687702242
 20
414.0035446702442
 30
0.0
  0
VERTEX
  5
15C2
330
15B7
100
AcDbEntity
  8
SCHRAFFUR_RAND
100
AcDbVertex
100
AcDb2dVertex
 10
306.6099687702242
 20
393.9015446702441
 30
0.0
  0
VERTEX
  5
15C3
330
15B7
100
AcDbEntity
  8
SCHRAFFUR_RAND
100
AcDbVertex
100
AcDb2dVertex
 10
307.1959687702242
 20
390.6275446702442
 30
0.0
  0
VERTEX
  5
15C4
330
15B7
100
AcDbEntity
  8
SCHRAFFUR_RAND
100
AcDbVertex
100
AcDb2dVertex
 10
308.9439687702242
 20
387.7735446702442
 30
0.0
  0
VERTEX
  5
15C5
330
15B7
100
AcDbEntity
  8
SCHRAFFUR_RAND
100
AcDbVertex
100
AcDb2dVertex
 10
311.5959687702242
 20
385.7655446702441
 30
0.0
  0
VERTEX
  5
15C6
330
15B7
100
AcDbEntity
  8
SCHRAFFUR_RAND
100
AcDbVertex
100
AcDb2dVertex
 10
319.8869687702242
 20
380.9785446702442
 30
0.0
  0
VERTEX
  5
15C7
330
15B7
100
AcDbEntity
  8
SCHRAFFUR_RAND
100
AcDbVertex
100
AcDb2dVertex
 10
321.5889687702242
 20
379.7275446702442
 30
0.0
  0
VERTEX
  5
15C8
330
15B7
100
AcDbEntity
  8
SCHRAFFUR_RAND
100
AcDbVertex
100
AcDb2dVertex
 10
322.6549687702242
 20
377.8815446702441
 30
0.0
  0
VERTEX
  5
15C9
330
15B7
100
AcDbEntity
  8
SCHRAFFUR_RAND
100
AcDbVertex
100
AcDb2dVertex
 10
322.8869687702241
 20
375.8225446702442
 30
0.0
  0
VERTEX
  5
15CA
330
15B7
100
AcDbEntity
  8
SCHRAFFUR_RAND
100
AcDbVertex
100
AcDb2dVertex
 10
322.8869687702241
 20
359.8225446702442
 30
0.0
  0
VERTEX
  5
15CB
330
15B7
100
AcDbEntity
  8
SCHRAFFUR_RAND
100
AcDbVertex
100
AcDb2dVertex
 10
322.8869687702241
 20
348.4795446702441
 30
0.0
  0
VERTEX
  5
15CC
330
15B7
100
AcDbEntity
  8
SCHRAFFUR_RAND
100
AcDbVertex
100
AcDb2dVertex
 10
322.8869687702241
 20
337.1835446702442
 30
0.0
  0
VERTEX
  5
15CD
330
15B7
100
AcDbEntity
  8
SCHRAFFUR_RAND
100
AcDbVertex
100
AcDb2dVertex
 10
322.8869687702241
 20
315.3545446702441
 30
0.0
  0
VERTEX
  5
15CE
330
15B7
100
AcDbEntity
  8
SCHRAFFUR_RAND
100
AcDbVertex
100
AcDb2dVertex
 10
322.8869687702241
 20
298.4795446702441
 30
0.0
  0
VERTEX
  5
15CF
330
15B7
100
AcDbEntity
  8
SCHRAFFUR_RAND
100
AcDbVertex
100
AcDb2dVertex
 10
330.5669687702242
 20
298.4795446702441
 30
0.0
  0
VERTEX
  5
15D0
330
15B7
100
AcDbEntity
  8
SCHRAFFUR_RAND
100
AcDbVertex
100
AcDb2dVertex
 10
330.5669687702242
 20
318.4795446702441
 30
0.0
  0
VERTEX
  5
15D1
330
15B7
100
AcDbEntity
  8
SCHRAFFUR_RAND
100
AcDbVertex
100
AcDb2dVertex
 10
329.8869687702242
 20
323.4795446702441
 30
0.0
  0
VERTEX
  5
15D2
330
15B7
100
AcDbEntity
  8
SCHRAFFUR_RAND
100
AcDbVertex
100
AcDb2dVertex
 10
329.8869687702242
 20
376.3595446702441
 30
0.0
  0
VERTEX
  5
15D3
330
15B7
100
AcDbEntity
  8
SCHRAFFUR_RAND
100
AcDbVertex
100
AcDb2dVertex
 10
329.4139687702242
 20
379.8265446702441
 30
0.0
  0
VERTEX
  5
15D4
330
15B7
100
AcDbEntity
  8
SCHRAFFUR_RAND
100
AcDbVertex
100
AcDb2dVertex
 10
327.6539687702242
 20
382.8765446702441
 30
0.0
  0
VERTEX
  5
15D5
330
15B7
100
AcDbEntity
  8
SCHRAFFUR_RAND
100
AcDbVertex
100
AcDb2dVertex
 10
324.8869687702241
 20
385.0195446702441
 30
0.0
  0
VERTEX
  5
15D6
330
15B7
100
AcDbEntity
  8
SCHRAFFUR_RAND
100
AcDbVertex
100
AcDb2dVertex
 10
317.4939687702242
 20
389.2875446702442
 30
0.0
  0
VERTEX
  5
15D7
330
15B7
100
AcDbEntity
  8
SCHRAFFUR_RAND
100
AcDbVertex
100
AcDb2dVertex
 10
316.0469687702242
 20
390.7215446702442
 30
0.0
  0
VERTEX
  5
15D8
330
15B7
100
AcDbEntity
  8
SCHRAFFUR_RAND
100
AcDbVertex
100
AcDb2dVertex
 10
315.4939687702242
 20
392.6825446702442
 30
0.0
  0
VERTEX
  5
15D9
330
15B7
100
AcDbEntity
  8
SCHRAFFUR_RAND
100
AcDbVertex
100
AcDb2dVertex
 10
314.8869687702241
 20
427.4795446702441
 30
0.0
  0
VERTEX
  5
15DA
330
15B7
100
AcDbEntity
  8
SCHRAFFUR_RAND
100
AcDbVertex
100
AcDb2dVertex
 10
309.0949687702242
 20
427.4795446702441
 30
0.0
  0
VERTEX
  5
15DB
330
15B7
100
AcDbEntity
  8
SCHRAFFUR_RAND
100
AcDbVertex
100
AcDb2dVertex
 10
308.2919687702242
 20
427.3985446702441
 30
0.0
  0
VERTEX
  5
15DC
330
15B7
100
AcDbEntity
  8
SCHRAFFUR_RAND
100
AcDbVertex
100
AcDb2dVertex
 10
306.3039687702242
 20
428.0805446702441
 30
0.0
  0
VERTEX
  5
15DD
330
15B7
100
AcDbEntity
  8
SCHRAFFUR_RAND
100
AcDbVertex
100
AcDb2dVertex
 10
305.4019687702242
 20
428.7185446702442
 30
0.0
  0
VERTEX
  5
15DE
330
15B7
100
AcDbEntity
  8
SCHRAFFUR_RAND
100
AcDbVertex
100
AcDb2dVertex
 10
304.2449687702242
 20
430.1035446702441
 30
0.0
  0
VERTEX
  5
15DF
330
15B7
100
AcDbEntity
  8
SCHRAFFUR_RAND
100
AcDbVertex
100
AcDb2dVertex
 10
303.6849687702241
 20
431.391544670244
 30
0.0
  0
VERTEX
  5
15E0
330
15B7
100
AcDbEntity
  8
SCHRAFFUR_RAND
100
AcDbVertex
100
AcDb2dVertex
 10
303.5959687702242
 20
432.8835446702441
 30
0.0
  0
VERTEX
  5
15E1
330
15B7
100
AcDbEntity
  8
SCHRAFFUR_RAND
100
AcDbVertex
100
AcDb2dVertex
 10
303.6849687702241
 20
434.5685446702441
 30
0.0
  0
VERTEX
  5
15E2
330
15B7
100
AcDbEntity
  8
SCHRAFFUR_RAND
100
AcDbVertex
100
AcDb2dVertex
 10
303.0379687702242
 20
464.8225446702442
 30
0.0
  0
VERTEX
  5
15E3
330
15B7
100
AcDbEntity
  8
SCHRAFFUR_RAND
100
AcDbVertex
100
AcDb2dVertex
 10
299.8869687702241
 20
473.4795446702441
 30
0.0
  0
SEQEND
  5
15E4
330
15B7
100
AcDbEntity
  8
SCHRAFFUR_RAND
  0
POLYLINE
  5
176C
330
1D67
100
AcDbEntity
  8
SCHRAFFUR_RAND
100
AcDb2dPolyline
 66
     1
 10
0.0
 20
0.0
 30
0.0
 70
     1
  0
VERTEX
  5
176D
330
176C
100
AcDbEntity
  8
SCHRAFFUR_RAND
100
AcDbVertex
100
AcDb2dVertex
 10
457.8869687702242
 20
375.8225446702442
 30
0.0
  0
VERTEX
  5
176E
330
176C
100
AcDbEntity
  8
SCHRAFFUR_RAND
100
AcDbVertex
100
AcDb2dVertex
 10
458.1189687702241
 20
377.8815446702441
 30
0.0
  0
VERTEX
  5
176F
330
176C
100
AcDbEntity
  8
SCHRAFFUR_RAND
100
AcDbVertex
100
AcDb2dVertex
 10
459.1849687702241
 20
379.7275446702442
 30
0.0
  0
VERTEX
  5
1770
330
176C
100
AcDbEntity
  8
SCHRAFFUR_RAND
100
AcDbVertex
100
AcDb2dVertex
 10
460.8869687702243
 20
380.9785446702442
 30
0.0
  0
VERTEX
  5
1771
330
176C
100
AcDbEntity
  8
SCHRAFFUR_RAND
100
AcDbVertex
100
AcDb2dVertex
 10
469.1779687702242
 20
385.7655446702441
 30
0.0
  0
VERTEX
  5
1772
330
176C
100
AcDbEntity
  8
SCHRAFFUR_RAND
100
AcDbVertex
100
AcDb2dVertex
 10
471.829968770224
 20
387.7735446702442
 30
0.0
  0
VERTEX
  5
1773
330
176C
100
AcDbEntity
  8
SCHRAFFUR_RAND
100
AcDbVertex
100
AcDb2dVertex
 10
473.5789687702241
 20
390.6275446702442
 30
0.0
  0
VERTEX
  5
1774
330
176C
100
AcDbEntity
  8
SCHRAFFUR_RAND
100
AcDbVertex
100
AcDb2dVertex
 10
474.1649687702241
 20
393.9015446702441
 30
0.0
  0
VERTEX
  5
1775
330
176C
100
AcDbEntity
  8
SCHRAFFUR_RAND
100
AcDbVertex
100
AcDb2dVertex
 10
475.2179687702241
 20
414.0035446702442
 30
0.0
  0
VERTEX
  5
1776
330
176C
100
AcDbEntity
  8
SCHRAFFUR_RAND
100
AcDbVertex
100
AcDb2dVertex
 10
475.9969687702242
 20
417.7245446702441
 30
0.0
  0
VERTEX
  5
1777
330
176C
100
AcDbEntity
  8
SCHRAFFUR_RAND
100
AcDbVertex
100
AcDb2dVertex
 10
478.2249687702242
 20
420.8335446702442
 30
0.0
  0
VERTEX
  5
1778
330
176C
100
AcDbEntity
  8
SCHRAFFUR_RAND
100
AcDbVertex
100
AcDb2dVertex
 10
481.4469687702241
 20
422.896544670244
 30
0.0
  0
VERTEX
  5
1779
330
176C
100
AcDbEntity
  8
SCHRAFFUR_RAND
100
AcDbVertex
100
AcDb2dVertex
 10
485.2039687702241
 20
423.4795446702441
 30
0.0
  0
VERTEX
  5
177A
330
176C
100
AcDbEntity
  8
SCHRAFFUR_RAND
100
AcDbVertex
100
AcDb2dVertex
 10
500.3599687702242
 20
423.4795446702441
 30
0.0
  0
VERTEX
  5
177B
330
176C
100
AcDbEntity
  8
SCHRAFFUR_RAND
100
AcDbVertex
100
AcDb2dVertex
 10
498.1099687702242
 20
433.5345446702441
 30
0.0
  0
VERTEX
  5
177C
330
176C
100
AcDbEntity
  8
SCHRAFFUR_RAND
100
AcDbVertex
100
AcDb2dVertex
 10
490.9799687702242
 20
433.5345446702441
 30
0.0
  0
VERTEX
  5
177D
330
176C
100
AcDbEntity
  8
SCHRAFFUR_RAND
100
AcDbVertex
100
AcDb2dVertex
 10
488.8869687702242
 20
473.4795446702441
 30
0.0
  0
VERTEX
  5
177E
330
176C
100
AcDbEntity
  8
SCHRAFFUR_RAND
100
AcDbVertex
100
AcDb2dVertex
 10
480.8869687702242
 20
473.4795446702441
 30
0.0
  0
VERTEX
  5
177F
330
176C
100
AcDbEntity
  8
SCHRAFFUR_RAND
100
AcDbVertex
100
AcDb2dVertex
 10
477.7359687702242
 20
464.8225446702442
 30
0.0
  0
VERTEX
  5
1780
330
176C
100
AcDbEntity
  8
SCHRAFFUR_RAND
100
AcDbVertex
100
AcDb2dVertex
 10
477.1779687702242
 20
432.8835446702441
 30
0.0
  0
VERTEX
  5
1781
330
176C
100
AcDbEntity
  8
SCHRAFFUR_RAND
100
AcDbVertex
100
AcDb2dVertex
 10
476.5289687702241
 20
430.1035446702441
 30
0.0
  0
VERTEX
  5
1782
330
176C
100
AcDbEntity
  8
SCHRAFFUR_RAND
100
AcDbVertex
100
AcDb2dVertex
 10
474.4699687702242
 20
428.0805446702441
 30
0.0
  0
VERTEX
  5
1783
330
176C
100
AcDbEntity
  8
SCHRAFFUR_RAND
100
AcDbVertex
100
AcDb2dVertex
 10
474.0219687702242
 20
427.8505446702441
 30
0.0
  0
VERTEX
  5
1784
330
176C
100
AcDbEntity
  8
SCHRAFFUR_RAND
100
AcDbVertex
100
AcDb2dVertex
 10
471.6789687702242
 20
427.4795446702441
 30
0.0
  0
VERTEX
  5
1785
330
176C
100
AcDbEntity
  8
SCHRAFFUR_RAND
100
AcDbVertex
100
AcDb2dVertex
 10
470.8769687702242
 20
427.3985446702441
 30
0.0
  0
VERTEX
  5
1786
330
176C
100
AcDbEntity
  8
SCHRAFFUR_RAND
100
AcDbVertex
100
AcDb2dVertex
 10
465.8869687702242
 20
427.4795446702441
 30
0.0
  0
VERTEX
  5
1787
330
176C
100
AcDbEntity
  8
SCHRAFFUR_RAND
100
AcDbVertex
100
AcDb2dVertex
 10
465.2799687702241
 20
392.6825446702442
 30
0.0
  0
VERTEX
  5
1788
330
176C
100
AcDbEntity
  8
SCHRAFFUR_RAND
100
AcDbVertex
100
AcDb2dVertex
 10
464.7269687702241
 20
390.7215446702442
 30
0.0
  0
VERTEX
  5
1789
330
176C
100
AcDbEntity
  8
SCHRAFFUR_RAND
100
AcDbVertex
100
AcDb2dVertex
 10
463.2799687702242
 20
389.2875446702442
 30
0.0
  0
VERTEX
  5
178A
330
176C
100
AcDbEntity
  8
SCHRAFFUR_RAND
100
AcDbVertex
100
AcDb2dVertex
 10
455.8869687702242
 20
385.0195446702441
 30
0.0
  0
VERTEX
  5
178B
330
176C
100
AcDbEntity
  8
SCHRAFFUR_RAND
100
AcDbVertex
100
AcDb2dVertex
 10
453.1209687702242
 20
382.8765446702441
 30
0.0
  0
VERTEX
  5
178C
330
176C
100
AcDbEntity
  8
SCHRAFFUR_RAND
100
AcDbVertex
100
AcDb2dVertex
 10
451.3599687702241
 20
379.8265446702441
 30
0.0
  0
VERTEX
  5
178D
330
176C
100
AcDbEntity
  8
SCHRAFFUR_RAND
100
AcDbVertex
100
AcDb2dVertex
 10
450.8869687702242
 20
376.3595446702441
 30
0.0
  0
VERTEX
  5
178E
330
176C
100
AcDbEntity
  8
SCHRAFFUR_RAND
100
AcDbVertex
100
AcDb2dVertex
 10
450.8869687702242
 20
323.4795446702441
 30
0.0
  0
VERTEX
  5
178F
330
176C
100
AcDbEntity
  8
SCHRAFFUR_RAND
100
AcDbVertex
100
AcDb2dVertex
 10
450.2069687702242
 20
318.4795446702441
 30
0.0
  0
VERTEX
  5
1790
330
176C
100
AcDbEntity
  8
SCHRAFFUR_RAND
100
AcDbVertex
100
AcDb2dVertex
 10
450.2069687702242
 20
298.4795446702441
 30
0.0
  0
VERTEX
  5
1791
330
176C
100
AcDbEntity
  8
SCHRAFFUR_RAND
100
AcDbVertex
100
AcDb2dVertex
 10
457.8869687702242
 20
298.4795446702441
 30
0.0
  0
VERTEX
  5
1792
330
176C
100
AcDbEntity
  8
SCHRAFFUR_RAND
100
AcDbVertex
100
AcDb2dVertex
 10
457.8869687702242
 20
315.3545446702441
 30
0.0
  0
VERTEX
  5
1793
330
176C
100
AcDbEntity
  8
SCHRAFFUR_RAND
100
AcDbVertex
100
AcDb2dVertex
 10
457.8869687702242
 20
337.1835446702442
 30
0.0
  0
VERTEX
  5
1794
330
176C
100
AcDbEntity
  8
SCHRAFFUR_RAND
100
AcDbVertex
100
AcDb2dVertex
 10
457.8869687702242
 20
348.4795446702441
 30
0.0
  0
VERTEX
  5
1795
330
176C
100
AcDbEntity
  8
SCHRAFFUR_RAND
100
AcDbVertex
100
AcDb2dVertex
 10
457.8869687702242
 20
359.8225446702442
 30
0.0
  0
VERTEX
  5
1796
330
176C
100
AcDbEntity
  8
SCHRAFFUR_RAND
100
AcDbVertex
100
AcDb2dVertex
 10
457.8869687702242
 20
375.8225446702442
 30
0.0
  0
SEQEND
  5
1797
330
176C
100
AcDbEntity
  8
SCHRAFFUR_RAND
  0
POLYLINE
  5
191F
330
1D67
100
AcDbEntity
  8
SCHRAFFUR_RAND
100
AcDb2dPolyline
 66
     1
 10
0.0
 20
0.0
 30
0.0
 70
     1
  0
VERTEX
  5
1920
330
191F
100
AcDbEntity
  8
SCHRAFFUR_RAND
100
AcDbVertex
100
AcDb2dVertex
 10
509.3599687702242
 20
423.4795446702441
 30
0.0
  0
VERTEX
  5
1921
330
191F
100
AcDbEntity
  8
SCHRAFFUR_RAND
100
AcDbVertex
100
AcDb2dVertex
 10
520.3869687702242
 20
423.4795446702441
 30
0.0
  0
VERTEX
  5
1922
330
191F
100
AcDbEntity
  8
SCHRAFFUR_RAND
100
AcDbVertex
100
AcDb2dVertex
 10
519.8639687702242
 20
433.4665446702441
 30
0.0
  0
VERTEX
  5
1923
330
191F
100
AcDbEntity
  8
SCHRAFFUR_RAND
100
AcDbVertex
100
AcDb2dVertex
 10
511.6099687702241
 20
433.5345446702441
 30
0.0
  0
VERTEX
  5
1924
330
191F
100
AcDbEntity
  8
SCHRAFFUR_RAND
100
AcDbVertex
100
AcDb2dVertex
 10
509.3599687702242
 20
423.4795446702441
 30
0.0
  0
SEQEND
  5
1925
330
191F
100
AcDbEntity
  8
SCHRAFFUR_RAND
  0
POLYLINE
  5
193F
330
1D67
100
AcDbEntity
  8
SCHRAFFUR_RAND
100
AcDb2dPolyline
 66
     1
 10
0.0
 20
0.0
 30
0.0
 70
     1
  0
VERTEX
  5
1940
330
193F
100
AcDbEntity
  8
SCHRAFFUR_RAND
100
AcDbVertex
100
AcDb2dVertex
 10
269.1639687702242
 20
433.5345446702441
 30
0.0
  0
VERTEX
  5
1941
330
193F
100
AcDbEntity
  8
SCHRAFFUR_RAND
100
AcDbVertex
100
AcDb2dVertex
 10
260.9099687702242
 20
433.4665446702441
 30
0.0
  0
VERTEX
  5
1942
330
193F
100
AcDbEntity
  8
SCHRAFFUR_RAND
100
AcDbVertex
100
AcDb2dVertex
 10
260.3869687702241
 20
423.4795446702441
 30
0.0
  0
VERTEX
  5
1943
330
193F
100
AcDbEntity
  8
SCHRAFFUR_RAND
100
AcDbVertex
100
AcDb2dVertex
 10
271.4139687702242
 20
423.4795446702441
 30
0.0
  0
VERTEX
  5
1944
330
193F
100
AcDbEntity
  8
SCHRAFFUR_RAND
100
AcDbVertex
100
AcDb2dVertex
 10
269.1639687702242
 20
433.5345446702441
 30
0.0
  0
SEQEND
  5
1945
330
193F
100
AcDbEntity
  8
SCHRAFFUR_RAND
  0
POLYLINE
  5
195F
330
1D67
100
AcDbEntity
  8
SCHRAFFUR_RAND
100
AcDb2dPolyline
 66
     1
 10
0.0
 20
0.0
 30
0.0
 70
     1
  0
VERTEX
  5
1960
330
195F
100
AcDbEntity
  8
SCHRAFFUR_RAND
100
AcDbVertex
100
AcDb2dVertex
 10
341.8869687702241
 20
125.8215446702442
 30
0.0
  0
VERTEX
  5
1961
330
195F
100
AcDbEntity
  8
SCHRAFFUR_RAND
100
AcDbVertex
100
AcDb2dVertex
 10
338.8709687702242
 20
240.9945446702442
 30
0.0
  0
VERTEX
  5
1962
330
195F
100
AcDbEntity
  8
SCHRAFFUR_RAND
100
AcDbVertex
100
AcDb2dVertex
 10
338.3909687702242
 20
243.5285446702442
 30
0.0
  0
VERTEX
  5
1963
330
195F
100
AcDbEntity
  8
SCHRAFFUR_RAND
100
AcDbVertex
100
AcDb2dVertex
 10
336.7779687702242
 20
245.5735446702442
 30
0.0
  0
VERTEX
  5
1964
330
195F
100
AcDbEntity
  8
SCHRAFFUR_RAND
100
AcDbVertex
100
AcDb2dVertex
 10
334.4259687702242
 20
246.6325446702442
 30
0.0
  0
VERTEX
  5
1965
330
195F
100
AcDbEntity
  8
SCHRAFFUR_RAND
100
AcDbVertex
100
AcDb2dVertex
 10
310.9019687702242
 20
252.9365446702442
 30
0.0
  0
VERTEX
  5
1966
330
195F
100
AcDbEntity
  8
SCHRAFFUR_RAND
100
AcDbVertex
100
AcDb2dVertex
 10
308.5359687702242
 20
254.0065446702442
 30
0.0
  0
VERTEX
  5
1967
330
195F
100
AcDbEntity
  8
SCHRAFFUR_RAND
100
AcDbVertex
100
AcDb2dVertex
 10
306.9219687702242
 20
256.0725446702441
 30
0.0
  0
VERTEX
  5
1968
330
195F
100
AcDbEntity
  8
SCHRAFFUR_RAND
100
AcDbVertex
100
AcDb2dVertex
 10
306.4549687702242
 20
258.6275446702442
 30
0.0
  0
VERTEX
  5
1969
330
195F
100
AcDbEntity
  8
SCHRAFFUR_RAND
100
AcDbVertex
100
AcDb2dVertex
 10
305.4679687702242
 20
315.2005446702442
 30
0.0
  0
VERTEX
  5
196A
330
195F
100
AcDbEntity
  8
SCHRAFFUR_RAND
100
AcDbVertex
100
AcDb2dVertex
 10
305.2359687702242
 20
328.4845446702441
 30
0.0
  0
VERTEX
  5
196B
330
195F
100
AcDbEntity
  8
SCHRAFFUR_RAND
100
AcDbVertex
100
AcDb2dVertex
 10
304.8869687702242
 20
348.4795446702441
 30
0.0
  0
VERTEX
  5
196C
330
195F
100
AcDbEntity
  8
SCHRAFFUR_RAND
100
AcDbVertex
100
AcDb2dVertex
 10
303.5039687702242
 20
356.3225446702442
 30
0.0
  0
VERTEX
  5
196D
330
195F
100
AcDbEntity
  8
SCHRAFFUR_RAND
100
AcDbVertex
100
AcDb2dVertex
 10
296.9089687702242
 20
356.3225446702442
 30
0.0
  0
VERTEX
  5
196E
330
195F
100
AcDbEntity
  8
SCHRAFFUR_RAND
100
AcDbVertex
100
AcDb2dVertex
 10
296.7249687702242
 20
359.8225446702442
 30
0.0
  0
VERTEX
  5
196F
330
195F
100
AcDbEntity
  8
SCHRAFFUR_RAND
100
AcDbVertex
100
AcDb2dVertex
 10
296.5159687702242
 20
363.8225446702442
 30
0.0
  0
VERTEX
  5
1970
330
195F
100
AcDbEntity
  8
SCHRAFFUR_RAND
100
AcDbVertex
100
AcDb2dVertex
 10
290.3359687702242
 20
363.8225446702442
 30
0.0
  0
VERTEX
  5
1971
330
195F
100
AcDbEntity
  8
SCHRAFFUR_RAND
100
AcDbVertex
100
AcDb2dVertex
 10
289.7739687702242
 20
361.1805446702442
 30
0.0
  0
VERTEX
  5
1972
330
195F
100
AcDbEntity
  8
SCHRAFFUR_RAND
100
AcDbVertex
100
AcDb2dVertex
 10
289.3599687702242
 20
360.0155446702441
 30
0.0
  0
VERTEX
  5
1973
330
195F
100
AcDbEntity
  8
SCHRAFFUR_RAND
100
AcDbVertex
100
AcDb2dVertex
 10
288.9799687702242
 20
359.8225446702442
 30
0.0
  0
VERTEX
  5
1974
330
195F
100
AcDbEntity
  8
SCHRAFFUR_RAND
100
AcDbVertex
100
AcDb2dVertex
 10
288.3459687702242
 20
359.2655446702441
 30
0.0
  0
VERTEX
  5
1975
330
195F
100
AcDbEntity
  8
SCHRAFFUR_RAND
100
AcDbVertex
100
AcDb2dVertex
 10
287.1109687702242
 20
359.2095446702442
 30
0.0
  0
VERTEX
  5
1976
330
195F
100
AcDbEntity
  8
SCHRAFFUR_RAND
100
AcDbVertex
100
AcDb2dVertex
 10
271.3869687702242
 20
360.5855446702441
 30
0.0
  0
VERTEX
  5
1977
330
195F
100
AcDbEntity
  8
SCHRAFFUR_RAND
100
AcDbVertex
100
AcDb2dVertex
 10
270.3859687702242
 20
360.5845446702442
 30
0.0
  0
VERTEX
  5
1978
330
195F
100
AcDbEntity
  8
SCHRAFFUR_RAND
100
AcDbVertex
100
AcDb2dVertex
 10
270.3859687702242
 20
345.8225446702442
 30
0.0
  0
VERTEX
  5
1979
330
195F
100
AcDbEntity
  8
SCHRAFFUR_RAND
100
AcDbVertex
100
AcDb2dVertex
 10
269.3869687702242
 20
345.8225446702442
 30
0.0
  0
VERTEX
  5
197A
330
195F
100
AcDbEntity
  8
SCHRAFFUR_RAND
100
AcDbVertex
100
AcDb2dVertex
 10
269.3869687702242
 20
340.0855446702441
 30
0.0
  0
VERTEX
  5
197B
330
195F
100
AcDbEntity
  8
SCHRAFFUR_RAND
100
AcDbVertex
100
AcDb2dVertex
 10
265.3869687702242
 20
337.7755446702441
 30
0.0
  0
VERTEX
  5
197C
330
195F
100
AcDbEntity
  8
SCHRAFFUR_RAND
100
AcDbVertex
100
AcDb2dVertex
 10
261.3869687702242
 20
340.0855446702441
 30
0.0
  0
VERTEX
  5
197D
330
195F
100
AcDbEntity
  8
SCHRAFFUR_RAND
100
AcDbVertex
100
AcDb2dVertex
 10
261.3869687702242
 20
345.8225446702442
 30
0.0
  0
VERTEX
  5
197E
330
195F
100
AcDbEntity
  8
SCHRAFFUR_RAND
100
AcDbVertex
100
AcDb2dVertex
 10
260.3859687702242
 20
345.8225446702442
 30
0.0
  0
VERTEX
  5
197F
330
195F
100
AcDbEntity
  8
SCHRAFFUR_RAND
100
AcDbVertex
100
AcDb2dVertex
 10
260.3859687702242
 20
360.5845446702442
 30
0.0
  0
VERTEX
  5
1980
330
195F
100
AcDbEntity
  8
SCHRAFFUR_RAND
100
AcDbVertex
100
AcDb2dVertex
 10
259.3869687702242
 20
360.5855446702441
 30
0.0
  0
VERTEX
  5
1981
330
195F
100
AcDbEntity
  8
SCHRAFFUR_RAND
100
AcDbVertex
100
AcDb2dVertex
 10
258.7489687702242
 20
361.6905446702442
 30
0.0
  0
VERTEX
  5
1982
330
195F
100
AcDbEntity
  8
SCHRAFFUR_RAND
100
AcDbVertex
100
AcDb2dVertex
 10
244.3869687702242
 20
362.9475446702442
 30
0.0
  0
VERTEX
  5
1983
330
195F
100
AcDbEntity
  8
SCHRAFFUR_RAND
100
AcDbVertex
100
AcDb2dVertex
 10
215.7159687702242
 20
371.7125446702442
 30
0.0
  0
VERTEX
  5
1984
330
195F
100
AcDbEntity
  8
SCHRAFFUR_RAND
100
AcDbVertex
100
AcDb2dVertex
 10
214.9849687702242
 20
371.8225446702442
 30
0.0
  0
VERTEX
  5
1985
330
195F
100
AcDbEntity
  8
SCHRAFFUR_RAND
100
AcDbVertex
100
AcDb2dVertex
 10
214.3619687702241
 20
371.8855446702442
 30
0.0
  0
VERTEX
  5
1986
330
195F
100
AcDbEntity
  8
SCHRAFFUR_RAND
100
AcDbVertex
100
AcDb2dVertex
 10
213.1409687702242
 20
371.2095446702442
 30
0.0
  0
VERTEX
  5
1987
330
195F
100
AcDbEntity
  8
SCHRAFFUR_RAND
100
AcDbVertex
100
AcDb2dVertex
 10
212.5699687702242
 20
369.9695446702441
 30
0.0
  0
VERTEX
  5
1988
330
195F
100
AcDbEntity
  8
SCHRAFFUR_RAND
100
AcDbVertex
100
AcDb2dVertex
 10
210.3869687702242
 20
361.8225446702442
 30
0.0
  0
VERTEX
  5
1989
330
195F
100
AcDbEntity
  8
SCHRAFFUR_RAND
100
AcDbVertex
100
AcDb2dVertex
 10
227.5449687702242
 20
361.8225446702442
 30
0.0
  0
VERTEX
  5
198A
330
195F
100
AcDbEntity
  8
SCHRAFFUR_RAND
100
AcDbVertex
100
AcDb2dVertex
 10
243.2359687702242
 20
357.0245446702442
 30
0.0
  0
VERTEX
  5
198B
330
195F
100
AcDbEntity
  8
SCHRAFFUR_RAND
100
AcDbVertex
100
AcDb2dVertex
 10
248.7249687702242
 20
356.5445446702441
 30
0.0
  0
VERTEX
  5
198C
330
195F
100
AcDbEntity
  8
SCHRAFFUR_RAND
100
AcDbVertex
100
AcDb2dVertex
 10
250.1959687702242
 20
355.8975446702442
 30
0.0
  0
VERTEX
  5
198D
330
195F
100
AcDbEntity
  8
SCHRAFFUR_RAND
100
AcDbVertex
100
AcDb2dVertex
 10
250.9689687702242
 20
354.4885446702441
 30
0.0
  0
VERTEX
  5
198E
330
195F
100
AcDbEntity
  8
SCHRAFFUR_RAND
100
AcDbVertex
100
AcDb2dVertex
 10
253.5689687702242
 20
339.7385446702442
 30
0.0
  0
VERTEX
  5
198F
330
195F
100
AcDbEntity
  8
SCHRAFFUR_RAND
100
AcDbVertex
100
AcDb2dVertex
 10
255.2139687702242
 20
335.1995446702442
 30
0.0
  0
VERTEX
  5
1990
330
195F
100
AcDbEntity
  8
SCHRAFFUR_RAND
100
AcDbVertex
100
AcDb2dVertex
 10
258.5799687702242
 20
331.7725446702441
 30
0.0
  0
VERTEX
  5
1991
330
195F
100
AcDbEntity
  8
SCHRAFFUR_RAND
100
AcDbVertex
100
AcDb2dVertex
 10
263.0109687702242
 20
329.9185446702442
 30
0.0
  0
VERTEX
  5
1992
330
195F
100
AcDbEntity
  8
SCHRAFFUR_RAND
100
AcDbVertex
100
AcDb2dVertex
 10
267.8139687702242
 20
329.9285446702441
 30
0.0
  0
VERTEX
  5
1993
330
195F
100
AcDbEntity
  8
SCHRAFFUR_RAND
100
AcDbVertex
100
AcDb2dVertex
 10
272.2369687702242
 20
331.8015446702442
 30
0.0
  0
VERTEX
  5
1994
330
195F
100
AcDbEntity
  8
SCHRAFFUR_RAND
100
AcDbVertex
100
AcDb2dVertex
 10
275.5879687702242
 20
335.2425446702442
 30
0.0
  0
VERTEX
  5
1995
330
195F
100
AcDbEntity
  8
SCHRAFFUR_RAND
100
AcDbVertex
100
AcDb2dVertex
 10
277.2039687702242
 20
339.7385446702442
 30
0.0
  0
VERTEX
  5
1996
330
195F
100
AcDbEntity
  8
SCHRAFFUR_RAND
100
AcDbVertex
100
AcDb2dVertex
 10
279.2919687702242
 20
351.5795446702441
 30
0.0
  0
VERTEX
  5
1997
330
195F
100
AcDbEntity
  8
SCHRAFFUR_RAND
100
AcDbVertex
100
AcDb2dVertex
 10
279.6849687702241
 20
352.7815446702442
 30
0.0
  0
VERTEX
  5
1998
330
195F
100
AcDbEntity
  8
SCHRAFFUR_RAND
100
AcDbVertex
100
AcDb2dVertex
 10
280.7099687702242
 20
353.5675446702442
 30
0.0
  0
VERTEX
  5
1999
330
195F
100
AcDbEntity
  8
SCHRAFFUR_RAND
100
AcDbVertex
100
AcDb2dVertex
 10
281.9729687702242
 20
353.6365446702441
 30
0.0
  0
VERTEX
  5
199A
330
195F
100
AcDbEntity
  8
SCHRAFFUR_RAND
100
AcDbVertex
100
AcDb2dVertex
 10
291.5089687702242
 20
352.8015446702442
 30
0.0
  0
VERTEX
  5
199B
330
195F
100
AcDbEntity
  8
SCHRAFFUR_RAND
100
AcDbVertex
100
AcDb2dVertex
 10
294.2989687702242
 20
351.9915446702442
 30
0.0
  0
VERTEX
  5
199C
330
195F
100
AcDbEntity
  8
SCHRAFFUR_RAND
100
AcDbVertex
100
AcDb2dVertex
 10
296.3199687702241
 20
349.8625446702442
 30
0.0
  0
VERTEX
  5
199D
330
195F
100
AcDbEntity
  8
SCHRAFFUR_RAND
100
AcDbVertex
100
AcDb2dVertex
 10
296.9819687702242
 20
347.0335446702442
 30
0.0
  0
VERTEX
  5
199E
330
195F
100
AcDbEntity
  8
SCHRAFFUR_RAND
100
AcDbVertex
100
AcDb2dVertex
 10
300.2319687702242
 20
253.9785446702442
 30
0.0
  0
VERTEX
  5
199F
330
195F
100
AcDbEntity
  8
SCHRAFFUR_RAND
100
AcDbVertex
100
AcDb2dVertex
 10
300.7269687702242
 20
251.4655446702442
 30
0.0
  0
VERTEX
  5
19A0
330
195F
100
AcDbEntity
  8
SCHRAFFUR_RAND
100
AcDbVertex
100
AcDb2dVertex
 10
302.3379687702242
 20
249.4405446702442
 30
0.0
  0
VERTEX
  5
19A1
330
195F
100
AcDbEntity
  8
SCHRAFFUR_RAND
100
AcDbVertex
100
AcDb2dVertex
 10
304.6749687702241
 20
248.3925446702441
 30
0.0
  0
VERTEX
  5
19A2
330
195F
100
AcDbEntity
  8
SCHRAFFUR_RAND
100
AcDbVertex
100
AcDb2dVertex
 10
328.6019687702242
 20
241.9815446702442
 30
0.0
  0
VERTEX
  5
19A3
330
195F
100
AcDbEntity
  8
SCHRAFFUR_RAND
100
AcDbVertex
100
AcDb2dVertex
 10
330.9529687702242
 20
240.9225446702441
 30
0.0
  0
VERTEX
  5
19A4
330
195F
100
AcDbEntity
  8
SCHRAFFUR_RAND
100
AcDbVertex
100
AcDb2dVertex
 10
332.5659687702242
 20
238.8775446702442
 30
0.0
  0
VERTEX
  5
19A5
330
195F
100
AcDbEntity
  8
SCHRAFFUR_RAND
100
AcDbVertex
100
AcDb2dVertex
 10
333.0469687702242
 20
236.3435446702442
 30
0.0
  0
VERTEX
  5
19A6
330
195F
100
AcDbEntity
  8
SCHRAFFUR_RAND
100
AcDbVertex
100
AcDb2dVertex
 10
334.3699687702242
 20
185.8225446702441
 30
0.0
  0
VERTEX
  5
19A7
330
195F
100
AcDbEntity
  8
SCHRAFFUR_RAND
100
AcDbVertex
100
AcDb2dVertex
 10
335.3869687702241
 20
127.5635446702441
 30
0.0
  0
VERTEX
  5
19A8
330
195F
100
AcDbEntity
  8
SCHRAFFUR_RAND
100
AcDbVertex
100
AcDb2dVertex
 10
341.8869687702241
 20
125.8215446702442
 30
0.0
  0
SEQEND
  5
19A9
330
195F
100
AcDbEntity
  8
SCHRAFFUR_RAND
  0
POLYLINE
  5
1C42
330
1D67
100
AcDbEntity
  8
SCHRAFFUR_RAND
100
AcDb2dPolyline
 66
     1
 10
0.0
 20
0.0
 30
0.0
 70
     1
  0
VERTEX
  5
1C43
330
1C42
100
AcDbEntity
  8
SCHRAFFUR_RAND
100
AcDbVertex
100
AcDb2dVertex
 10
504.8869687702242
 20
369.3845446702442
 30
0.0
  0
VERTEX
  5
1C44
330
1C42
100
AcDbEntity
  8
SCHRAFFUR_RAND
100
AcDbVertex
100
AcDb2dVertex
 10
504.3869687702242
 20
369.3845446702442
 30
0.0
  0
VERTEX
  5
1C45
330
1C42
100
AcDbEntity
  8
SCHRAFFUR_RAND
100
AcDbVertex
100
AcDb2dVertex
 10
493.6489687702241
 20
368.8225446702442
 30
0.0
  0
VERTEX
  5
1C46
330
1C42
100
AcDbEntity
  8
SCHRAFFUR_RAND
100
AcDbVertex
100
AcDb2dVertex
 10
493.9849687702242
 20
362.4075446702442
 30
0.0
  0
VERTEX
  5
1C47
330
1C42
100
AcDbEntity
  8
SCHRAFFUR_RAND
100
AcDbVertex
100
AcDb2dVertex
 10
494.0949687702242
 20
361.7475446702442
 30
0.0
  0
VERTEX
  5
1C48
330
1C42
100
AcDbEntity
  8
SCHRAFFUR_RAND
100
AcDbVertex
100
AcDb2dVertex
 10
494.3889687702242
 20
361.1445446702441
 30
0.0
  0
VERTEX
  5
1C49
330
1C42
100
AcDbEntity
  8
SCHRAFFUR_RAND
100
AcDbVertex
100
AcDb2dVertex
 10
494.8319687702242
 20
360.6405446702441
 30
0.0
  0
VERTEX
  5
1C4A
330
1C42
100
AcDbEntity
  8
SCHRAFFUR_RAND
100
AcDbVertex
100
AcDb2dVertex
 10
495.3929687702242
 20
360.2715446702441
 30
0.0
  0
VERTEX
  5
1C4B
330
1C42
100
AcDbEntity
  8
SCHRAFFUR_RAND
100
AcDbVertex
100
AcDb2dVertex
 10
496.0309687702241
 20
360.0645446702442
 30
0.0
  0
VERTEX
  5
1C4C
330
1C42
100
AcDbEntity
  8
SCHRAFFUR_RAND
100
AcDbVertex
100
AcDb2dVertex
 10
496.6999687702241
 20
360.0475446702442
 30
0.0
  0
VERTEX
  5
1C4D
330
1C42
100
AcDbEntity
  8
SCHRAFFUR_RAND
100
AcDbVertex
100
AcDb2dVertex
 10
505.4949687702242
 20
360.8175446702442
 30
0.0
  0
VERTEX
  5
1C4E
330
1C42
100
AcDbEntity
  8
SCHRAFFUR_RAND
100
AcDbVertex
100
AcDb2dVertex
 10
506.1369687702242
 20
360.9445446702442
 30
0.0
  0
VERTEX
  5
1C4F
330
1C42
100
AcDbEntity
  8
SCHRAFFUR_RAND
100
AcDbVertex
100
AcDb2dVertex
 10
506.7189687702241
 20
361.2475446702442
 30
0.0
  0
VERTEX
  5
1C50
330
1C42
100
AcDbEntity
  8
SCHRAFFUR_RAND
100
AcDbVertex
100
AcDb2dVertex
 10
507.2029687702241
 20
361.6915446702441
 30
0.0
  0
VERTEX
  5
1C51
330
1C42
100
AcDbEntity
  8
SCHRAFFUR_RAND
100
AcDbVertex
100
AcDb2dVertex
 10
507.5559687702241
 20
362.2445446702442
 30
0.0
  0
VERTEX
  5
1C52
330
1C42
100
AcDbEntity
  8
SCHRAFFUR_RAND
100
AcDbVertex
100
AcDb2dVertex
 10
507.7389687702242
 20
362.8735446702442
 30
0.0
  0
VERTEX
  5
1C53
330
1C42
100
AcDbEntity
  8
SCHRAFFUR_RAND
100
AcDbVertex
100
AcDb2dVertex
 10
508.8869687702242
 20
369.3845446702442
 30
0.0
  0
VERTEX
  5
1C54
330
1C42
100
AcDbEntity
  8
SCHRAFFUR_RAND
100
AcDbVertex
100
AcDb2dVertex
 10
504.8869687702242
 20
369.3845446702442
 30
0.0
  0
SEQEND
  5
1C55
330
1C42
100
AcDbEntity
  8
SCHRAFFUR_RAND
  0
POLYLINE
  5
1C6D
330
1D67
100
AcDbEntity
  8
SCHRAFFUR_RAND
100
AcDb2dPolyline
 66
     1
 10
0.0
 20
0.0
 30
0.0
 70
     1
  0
VERTEX
  5
1C6E
330
1C6D
100
AcDbEntity
  8
SCHRAFFUR_RAND
100
AcDbVertex
100
AcDb2dVertex
 10
553.3869687702242
 20
371.8225446702442
 30
0.0
  0
VERTEX
  5
1C6F
330
1C6D
100
AcDbEntity
  8
SCHRAFFUR_RAND
100
AcDbVertex
100
AcDb2dVertex
 10
553.3049687702241
 20
372.4385446702442
 30
0.0
  0
VERTEX
  5
1C70
330
1C6D
100
AcDbEntity
  8
SCHRAFFUR_RAND
100
AcDbVertex
100
AcDb2dVertex
 10
553.0189687702241
 20
373.0025446702442
 30
0.0
  0
VERTEX
  5
1C71
330
1C6D
100
AcDbEntity
  8
SCHRAFFUR_RAND
100
AcDbVertex
100
AcDb2dVertex
 10
552.5739687702241
 20
373.4505446702442
 30
0.0
  0
VERTEX
  5
1C72
330
1C6D
100
AcDbEntity
  8
SCHRAFFUR_RAND
100
AcDbVertex
100
AcDb2dVertex
 10
552.0109687702241
 20
373.7375446702442
 30
0.0
  0
VERTEX
  5
1C73
330
1C6D
100
AcDbEntity
  8
SCHRAFFUR_RAND
100
AcDbVertex
100
AcDb2dVertex
 10
551.3869687702242
 20
373.8225446702442
 30
0.0
  0
VERTEX
  5
1C74
330
1C6D
100
AcDbEntity
  8
SCHRAFFUR_RAND
100
AcDbVertex
100
AcDb2dVertex
 10
529.2259687702242
 20
372.6605446702441
 30
0.0
  0
VERTEX
  5
1C75
330
1C6D
100
AcDbEntity
  8
SCHRAFFUR_RAND
100
AcDbVertex
100
AcDb2dVertex
 10
525.9499687702241
 20
369.3845446702442
 30
0.0
  0
VERTEX
  5
1C76
330
1C6D
100
AcDbEntity
  8
SCHRAFFUR_RAND
100
AcDbVertex
100
AcDb2dVertex
 10
525.8869687702242
 20
369.3845446702442
 30
0.0
  0
VERTEX
  5
1C77
330
1C6D
100
AcDbEntity
  8
SCHRAFFUR_RAND
100
AcDbVertex
100
AcDb2dVertex
 10
521.8869687702242
 20
369.3845446702442
 30
0.0
  0
VERTEX
  5
1C78
330
1C6D
100
AcDbEntity
  8
SCHRAFFUR_RAND
100
AcDbVertex
100
AcDb2dVertex
 10
522.7279687702242
 20
364.6155446702441
 30
0.0
  0
VERTEX
  5
1C79
330
1C6D
100
AcDbEntity
  8
SCHRAFFUR_RAND
100
AcDbVertex
100
AcDb2dVertex
 10
522.8959687702241
 20
364.0205446702442
 30
0.0
  0
VERTEX
  5
1C7A
330
1C6D
100
AcDbEntity
  8
SCHRAFFUR_RAND
100
AcDbVertex
100
AcDb2dVertex
 10
523.2179687702241
 20
363.4905446702441
 30
0.0
  0
VERTEX
  5
1C7B
330
1C6D
100
AcDbEntity
  8
SCHRAFFUR_RAND
100
AcDbVertex
100
AcDb2dVertex
 10
523.6589687702242
 20
363.0545446702442
 30
0.0
  0
VERTEX
  5
1C7C
330
1C6D
100
AcDbEntity
  8
SCHRAFFUR_RAND
100
AcDbVertex
100
AcDb2dVertex
 10
524.1939687702241
 20
362.7405446702442
 30
0.0
  0
VERTEX
  5
1C7D
330
1C6D
100
AcDbEntity
  8
SCHRAFFUR_RAND
100
AcDbVertex
100
AcDb2dVertex
 10
524.7889687702241
 20
362.5675446702442
 30
0.0
  0
VERTEX
  5
1C7E
330
1C6D
100
AcDbEntity
  8
SCHRAFFUR_RAND
100
AcDbVertex
100
AcDb2dVertex
 10
525.4079687702242
 20
362.5595446702442
 30
0.0
  0
VERTEX
  5
1C7F
330
1C6D
100
AcDbEntity
  8
SCHRAFFUR_RAND
100
AcDbVertex
100
AcDb2dVertex
 10
530.3869687702242
 20
362.9945446702442
 30
0.0
  0
VERTEX
  5
1C80
330
1C6D
100
AcDbEntity
  8
SCHRAFFUR_RAND
100
AcDbVertex
100
AcDb2dVertex
 10
552.5529687702242
 20
370.1975446702442
 30
0.0
  0
VERTEX
  5
1C81
330
1C6D
100
AcDbEntity
  8
SCHRAFFUR_RAND
100
AcDbVertex
100
AcDb2dVertex
 10
553.0109687702242
 20
370.6295446702442
 30
0.0
  0
VERTEX
  5
1C82
330
1C6D
100
AcDbEntity
  8
SCHRAFFUR_RAND
100
AcDbVertex
100
AcDb2dVertex
 10
553.2999687702242
 20
371.1915446702442
 30
0.0
  0
VERTEX
  5
1C83
330
1C6D
100
AcDbEntity
  8
SCHRAFFUR_RAND
100
AcDbVertex
100
AcDb2dVertex
 10
553.3869687702242
 20
371.8225446702442
 30
0.0
  0
SEQEND
  5
1C84
330
1C6D
100
AcDbEntity
  8
SCHRAFFUR_RAND
  0
POLYLINE
  5
1CA1
330
1D67
100
AcDbEntity
  8
SCHRAFFUR_RAND
100
AcDb2dPolyline
 66
     1
 10
0.0
 20
0.0
 30
0.0
 70
     1
  0
VERTEX
  5
1CA2
330
1CA1
100
AcDbEntity
  8
SCHRAFFUR_RAND
100
AcDbVertex
100
AcDb2dVertex
 10
287.1249687702242
 20
368.8225446702442
 30
0.0
  0
VERTEX
  5
1CA3
330
1CA1
100
AcDbEntity
  8
SCHRAFFUR_RAND
100
AcDbVertex
100
AcDb2dVertex
 10
276.3869687702241
 20
369.3845446702442
 30
0.0
  0
VERTEX
  5
1CA4
330
1CA1
100
AcDbEntity
  8
SCHRAFFUR_RAND
100
AcDbVertex
100
AcDb2dVertex
 10
275.8869687702242
 20
369.3845446702442
 30
0.0
  0
VERTEX
  5
1CA5
330
1CA1
100
AcDbEntity
  8
SCHRAFFUR_RAND
100
AcDbVertex
100
AcDb2dVertex
 10
271.8869687702242
 20
369.3845446702442
 30
0.0
  0
VERTEX
  5
1CA6
330
1CA1
100
AcDbEntity
  8
SCHRAFFUR_RAND
100
AcDbVertex
100
AcDb2dVertex
 10
273.0349687702242
 20
362.8735446702442
 30
0.0
  0
VERTEX
  5
1CA7
330
1CA1
100
AcDbEntity
  8
SCHRAFFUR_RAND
100
AcDbVertex
100
AcDb2dVertex
 10
273.2709687702242
 20
362.0865446702441
 30
0.0
  0
VERTEX
  5
1CA8
330
1CA1
100
AcDbEntity
  8
SCHRAFFUR_RAND
100
AcDbVertex
100
AcDb2dVertex
 10
273.7819687702242
 20
361.4355446702441
 30
0.0
  0
VERTEX
  5
1CA9
330
1CA1
100
AcDbEntity
  8
SCHRAFFUR_RAND
100
AcDbVertex
100
AcDb2dVertex
 10
274.4739687702242
 20
360.9835446702442
 30
0.0
  0
VERTEX
  5
1CAA
330
1CA1
100
AcDbEntity
  8
SCHRAFFUR_RAND
100
AcDbVertex
100
AcDb2dVertex
 10
275.2789687702242
 20
360.8175446702442
 30
0.0
  0
VERTEX
  5
1CAB
330
1CA1
100
AcDbEntity
  8
SCHRAFFUR_RAND
100
AcDbVertex
100
AcDb2dVertex
 10
284.0739687702241
 20
360.0475446702442
 30
0.0
  0
VERTEX
  5
1CAC
330
1CA1
100
AcDbEntity
  8
SCHRAFFUR_RAND
100
AcDbVertex
100
AcDb2dVertex
 10
285.0769687702242
 20
360.1235446702442
 30
0.0
  0
VERTEX
  5
1CAD
330
1CA1
100
AcDbEntity
  8
SCHRAFFUR_RAND
100
AcDbVertex
100
AcDb2dVertex
 10
285.9579687702242
 20
360.6215446702441
 30
0.0
  0
VERTEX
  5
1CAE
330
1CA1
100
AcDbEntity
  8
SCHRAFFUR_RAND
100
AcDbVertex
100
AcDb2dVertex
 10
286.5749687702242
 20
361.4255446702442
 30
0.0
  0
VERTEX
  5
1CAF
330
1CA1
100
AcDbEntity
  8
SCHRAFFUR_RAND
100
AcDbVertex
100
AcDb2dVertex
 10
286.7889687702242
 20
362.4075446702442
 30
0.0
  0
VERTEX
  5
1CB0
330
1CA1
100
AcDbEntity
  8
SCHRAFFUR_RAND
100
AcDbVertex
100
AcDb2dVertex
 10
287.1249687702242
 20
368.8225446702442
 30
0.0
  0
SEQEND
  5
1CB1
330
1CA1
100
AcDbEntity
  8
SCHRAFFUR_RAND
  0
POLYLINE
  5
1CC9
330
1D67
100
AcDbEntity
  8
SCHRAFFUR_RAND
100
AcDb2dPolyline
 66
     1
 10
0.0
 20
0.0
 30
0.0
 70
     1
  0
VERTEX
  5
1CCA
330
1CC9
100
AcDbEntity
  8
SCHRAFFUR_RAND
100
AcDbVertex
100
AcDb2dVertex
 10
254.8869687702242
 20
369.3845446702442
 30
0.0
  0
VERTEX
  5
1CCB
330
1CC9
100
AcDbEntity
  8
SCHRAFFUR_RAND
100
AcDbVertex
100
AcDb2dVertex
 10
254.8239687702242
 20
369.3845446702442
 30
0.0
  0
VERTEX
  5
1CCC
330
1CC9
100
AcDbEntity
  8
SCHRAFFUR_RAND
100
AcDbVertex
100
AcDb2dVertex
 10
251.5479687702242
 20
372.6605446702441
 30
0.0
  0
VERTEX
  5
1CCD
330
1CC9
100
AcDbEntity
  8
SCHRAFFUR_RAND
100
AcDbVertex
100
AcDb2dVertex
 10
229.3869687702242
 20
373.8225446702442
 30
0.0
  0
VERTEX
  5
1CCE
330
1CC9
100
AcDbEntity
  8
SCHRAFFUR_RAND
100
AcDbVertex
100
AcDb2dVertex
 10
228.4029687702242
 20
373.6085446702442
 30
0.0
  0
VERTEX
  5
1CCF
330
1CC9
100
AcDbEntity
  8
SCHRAFFUR_RAND
100
AcDbVertex
100
AcDb2dVertex
 10
227.6629687702242
 20
372.9105446702441
 30
0.0
  0
VERTEX
  5
1CD0
330
1CC9
100
AcDbEntity
  8
SCHRAFFUR_RAND
100
AcDbVertex
100
AcDb2dVertex
 10
227.3509687702242
 20
371.9425446702442
 30
0.0
  0
VERTEX
  5
1CD1
330
1CC9
100
AcDbEntity
  8
SCHRAFFUR_RAND
100
AcDbVertex
100
AcDb2dVertex
 10
227.3869687702242
 20
371.8225446702442
 30
0.0
  0
VERTEX
  5
1CD2
330
1CC9
100
AcDbEntity
  8
SCHRAFFUR_RAND
100
AcDbVertex
100
AcDb2dVertex
 10
227.5459687702242
 20
370.9455446702441
 30
0.0
  0
VERTEX
  5
1CD3
330
1CC9
100
AcDbEntity
  8
SCHRAFFUR_RAND
100
AcDbVertex
100
AcDb2dVertex
 10
228.2209687702242
 20
370.1975446702442
 30
0.0
  0
VERTEX
  5
1CD4
330
1CC9
100
AcDbEntity
  8
SCHRAFFUR_RAND
100
AcDbVertex
100
AcDb2dVertex
 10
250.3869687702242
 20
362.9945446702442
 30
0.0
  0
VERTEX
  5
1CD5
330
1CC9
100
AcDbEntity
  8
SCHRAFFUR_RAND
100
AcDbVertex
100
AcDb2dVertex
 10
255.3659687702242
 20
362.5595446702442
 30
0.0
  0
VERTEX
  5
1CD6
330
1CC9
100
AcDbEntity
  8
SCHRAFFUR_RAND
100
AcDbVertex
100
AcDb2dVertex
 10
256.2949687702241
 20
362.6115446702442
 30
0.0
  0
VERTEX
  5
1CD7
330
1CC9
100
AcDbEntity
  8
SCHRAFFUR_RAND
100
AcDbVertex
100
AcDb2dVertex
 10
257.1299687702242
 20
363.0355446702441
 30
0.0
  0
VERTEX
  5
1CD8
330
1CC9
100
AcDbEntity
  8
SCHRAFFUR_RAND
100
AcDbVertex
100
AcDb2dVertex
 10
257.7549687702242
 20
363.7325446702442
 30
0.0
  0
VERTEX
  5
1CD9
330
1CC9
100
AcDbEntity
  8
SCHRAFFUR_RAND
100
AcDbVertex
100
AcDb2dVertex
 10
258.0459687702242
 20
364.6155446702441
 30
0.0
  0
VERTEX
  5
1CDA
330
1CC9
100
AcDbEntity
  8
SCHRAFFUR_RAND
100
AcDbVertex
100
AcDb2dVertex
 10
258.8869687702242
 20
369.3845446702442
 30
0.0
  0
VERTEX
  5
1CDB
330
1CC9
100
AcDbEntity
  8
SCHRAFFUR_RAND
100
AcDbVertex
100
AcDb2dVertex
 10
254.8869687702242
 20
369.3845446702442
 30
0.0
  0
SEQEND
  5
1CDC
330
1CC9
100
AcDbEntity
  8
SCHRAFFUR_RAND
  0
DIMENSION
  5
1D02
330
1D67
100
AcDbEntity
  8
5
100
AcDbDimension
  2
*D7
 10
125.3869687702242
 20
125.8215446702442
 30
0.0
 11
113.6352463292793
 21
249.8220446702442
 31
0.0
 70
    32
  1
250
 71
     5
 42
-1.0
  3
GEN-ISO
100
AcDbAlignedDimension
 13
229.3869687702242
 23
373.8225446702442
 33
0.0
 14
341.8869687702241
 24
125.8215446702442
 34
0.0
 50
270.0
100
AcDbRotatedDimension
  0
DIMENSION
  5
1D0D
330
1D67
100
AcDbEntity
  8
5
100
AcDbDimension
  2
*D11
 10
160.3869687702242
 20
371.7125446702442
 30
0.0
 11
148.6369687702242
 21
407.5944344340237
 31
0.0
 70
    32
  1
10
 71
     5
 42
-1.0
  3
GEN-ISO
100
AcDbAlignedDimension
 13
210.3869687702242
 23
361.8225446702442
 33
0.0
 14
215.7159687702242
 24
371.7125446702442
 34
0.0
 50
90.0
100
AcDbRotatedDimension
  0
DIMENSION
  5
1D16
330
1D67
100
AcDbEntity
  8
5
100
AcDbDimension
  2
*D10
 10
160.3869687702242
 20
125.8215446702442
 30
0.0
 11
148.6369687702242
 21
183.3295446702441
 31
0.0
 70
    32
  1
H
 71
     5
 42
-1.0
  3
GEN-ISO
100
AcDbAlignedDimension
 13
332.8729687702243
 23
240.8375446702442
 33
0.0
 14
210.2329687702242
 24
125.8215446702442
 34
0.0
 50
270.0
100
AcDbRotatedDimension
1001
GENIUS_GENDTOL_13
1000

1000
B2/max
1000

1040
0.0
1000
H
  0
DIMENSION
  5
1D21
330
1D67
100
AcDbEntity
  8
5
100
AcDbDimension
  2
*D9
 10
570.3869687702242
 20
558.4795446702441
 30
0.0
 11
390.3869687702242
 21
570.2295446702442
 31
0.0
 70
    32
  1
%%c 360
 71
     5
 42
-1.0
  3
GEN-ISO
100
AcDbAlignedDimension
 13
210.3869687702242
 23
361.8225446702442
 33
0.0
 14
570.3869687702242
 24
361.8225446702442
 34
0.0
100
AcDbRotatedDimension
  0
DIMENSION
  5
1D2B
330
1D67
100
AcDbEntity
  8
5
100
AcDbDimension
  2
*D8
 10
520.3869687702242
 20
523.4795446702442
 30
0.0
 11
390.3869687702242
 21
535.231267111189
 31
0.0
 70
    32
  1
260
 71
     5
 42
-1.0
  3
GEN-ISO
100
AcDbAlignedDimension
 13
260.3869687702241
 23
423.4795446702441
 33
0.0
 14
520.3869687702242
 24
423.4795446702441
 34
0.0
100
AcDbRotatedDimension
  0
INSERT
  5
1E5A
330
1D67
100
AcDbEntity
  8
0
100
AcDbBlockReference
  2
KATALOG_LEER
 10
251.8397057689299
 20
11.30448323131759
 30
0.0
 41
5.0
 42
5.0
 43
5.0
1001
GENIUS_GENOREF_13
1005
1E5B
  0
POINT
  5
1E5B
330
1D67
100
AcDbEntity
  8
0
 60
     1
100
AcDbPoint
 10
0.0
 20
0.0
 30
0.0
1001
GENIUS_GENOBJ-N-TIT_13
1002
{
1000
OWNER
1000
GEN
1002
}
1001
GENIUS_GENOENT_13
1002
{
1000
MYREF
1005
1E5B
1002
}
1002
{
1000
GRP
1005
0
1002
}
1001
GENIUS_GENOLIS_13
1002
{
1000
ENT
1005
1E5A
1002
}
1001
GENIUS_GENTITLE_13
1002
{
1000
SCALE
1000
1:5
1002
}
1002
{
1000
BORDER
1000
KATALOG
1002
}
1002
{
1000
TITLE
1000
KATALOG_LEER
1002
}
1002
{
1000
UNCHG
1002
{
1000
GEN-TITLE-SCA
1000
GEN-TITLE-SIZ
1002
}
1002
}
1002
{
1000
HRA
1005
1E53
1002
}
1002
{
1000
HTIT
1005
1E5A
1002
}
1002
{
1000
GENIUSID
1005
1E5B
1002
}
1001
GENIUS_GENODEF_13
1002
{
1000
HIER
1070
     1
1002
}
1002
{
1000
MANEDIT
1070
     1
1002
}
1002
{
1000
NOSEL
1070
     0
1002
}
1002
{
1000
BEHIND
1070
     0
1002
}
1002
{
1000
REACTOR
1002
}
  0
HATCH
  5
1F58
330
1D67
100
AcDbEntity
  8
8
100
AcDbHatch
 10
0.0
 20
0.0
 30
0.0
210
0.0
220
0.0
230
1.0
  2
_U
 70
     0
 71
     0
 91
        1
 92
        1
 93
      117
 72
     1
 10
307.1169687702242
 20
466.9355446702441
 11
308.1139687702243
 21
438.3915446702441
 72
     1
 10
308.1139687702243
 20
438.3915446702441
 11
308.1464354998573
 21
438.3971349680617
 72
     2
 10
309.0949687702229
 20
432.9795446702439
 40
5.500000000000002
 50
260.069085850035
 51
260.3915140489225
 73
     0
 72
     1
 10
308.1769374880495
 20
438.4023869660286
 11
308.7179687702242
 21
438.4955446702441
 72
     1
 10
308.7179687702242
 20
438.4955446702441
 11
308.9715008624243
 21
438.4781586479428
 72
     2
 10
309.0949687702238
 20
432.9795446702441
 40
5.5
 50
268.7136755775187
 51
271.4761749739338
 73
     0
 72
     1
 10
309.2366557189259
 20
438.4777193499508
 11
309.5079687702242
 21
438.4985446702442
 72
     1
 10
309.5079687702242
 20
438.4985446702442
 11
309.7778524409325
 21
438.4369863687215
 72
     2
 10
309.094968770224
 20
432.9795446702441
 40
5.49999999999996
 50
277.1322879772148
 51
279.1321841210885
 73
     0
 72
     1
 10
309.9678885721053
 20
438.4098311285706
 11
310.2199687702242
 21
438.3925446702441
 72
     1
 10
310.2199687702242
 20
438.3925446702441
 11
310.4576832218529
 21
438.3080537791151
 72
     2
 10
309.0949687702245
 20
432.979544670244
 40
5.49999999999998
 50
284.345370468515
 51
288.5654970886549
 73
     0
 72
     1
 10
310.8461056049559
 20
438.1933263866229
 11
311.1169687702242
 21
438.1315446702441
 72
     1
 10
311.1169687702242
 20
438.1315446702441
 11
311.3579504648698
 21
437.9924194791436
 72
     2
 10
309.0949687702272
 20
432.9795446702427
 40
5.500000000000007
 50
294.2960306495529
 51
294.7881264761181
 73
     0
 72
     1
 10
311.4009205107411
 20
437.9727987765767
 11
311.6379687702242
 21
437.8885446702441
 72
     1
 10
311.6379687702242
 20
437.8885446702441
 11
311.8419892204128
 21
437.7444033928345
 72
     2
 10
309.0949687702243
 20
432.979544670244
 40
5.49999999999999
 50
299.9641654803993
 51
305.7019524700415
 73
     0
 72
     1
 10
312.3045976344938
 20
437.4458946961206
 11
312.5459687702242
 21
437.3065446702441
 72
     1
 10
312.5459687702242
 20
437.3065446702441
 11
312.7063458881731
 21
437.1337318934168
 72
     1
 10
312.7063458881731
 20
437.1337318934168
 11
312.8679687702242
 21
437.0195446702441
 72
     1
 10
312.8679687702242
 20
437.0195446702441
 11
313.0220733346193
 21
436.8302393790345
 72
     2
 10
309.0949687702242
 20
432.9795446702441
 40
5.499999999999973
 50
315.5628611963983
 51
322.8226036057995
 73
     0
 72
     1
 10
313.4771948317597
 20
436.3031112403009
 11
313.6679687702242
 21
436.0975446702441
 72
     1
 10
313.6679687702242
 20
436.0975446702441
 11
313.7396771405864
 21
435.948719756336
 72
     1
 10
313.7396771405864
 20
435.948719756336
 11
313.8179687702242
 21
435.8525446702442
 72
     1
 10
313.8179687702242
 20
435.8525446702442
 11
313.9163470777512
 21
435.6261105990864
 72
     2
 10
309.0949687702241
 20
432.9795446702442
 40
5.499999999999978
 50
331.2365996220494
 51
339.9374449819357
 73
     0
 72
     1
 10
314.2612213247398
 20
434.8662970501183
 11
314.3839687702242
 21
434.6115446702441
 72
     1
 10
314.3839687702242
 20
434.6115446702441
 11
314.4005681810524
 21
434.5115950263212
 72
     1
 10
314.4005681810524
 20
434.5115950263212
 11
314.4179687702242
 21
434.4715446702442
 72
     1
 10
314.4179687702242
 20
434.4715446702442
 11
314.4652330693512
 21
434.167088925218
 72
     2
 10
309.0949687702242
 20
432.9795446702441
 40
5.499999999999994
 50
347.5306607152825
 51
354.7840914295387
 73
     0
 72
     1
 10
314.5721943452758
 20
433.4795446702448
 11
319.8869687702242
 21
433.4795446702441
 72
     1
 10
319.8869687702242
 20
433.4795446702441
 11
321.2659687702242
 21
459.7935446702441
 72
     1
 10
321.2659687702242
 20
459.7935446702441
 11
321.2663015620317
 21
459.7956523516921
 72
     2
 10
327.2579687702243
 20
459.4795446702444
 40
6.000000000000015
 50
183.0200041918202
 51
194.9252490379729
 73
     0
 72
     1
 10
321.4603927351735
 20
461.0248964482562
 11
321.5029687702243
 21
461.2945446702441
 72
     1
 10
321.5029687702243
 20
461.2945446702441
 11
321.6521773265464
 21
461.6184935452731
 72
     2
 10
327.2579687702244
 20
459.4795446702445
 40
5.999999999999991
 50
200.8848814119012
 51
208.5760434527061
 73
     0
 72
     1
 10
321.9888704725306
 20
462.3494929501339
 11
322.1399687702242
 21
462.6775446702441
 72
     1
 10
322.1399687702242
 20
462.6775446702441
 11
322.3697380405645
 21
462.958797511532
 72
     2
 10
327.2579687702243
 20
459.4795446702441
 40
5.999999999999961
 50
215.4417845890244
 51
223.0523660120917
 73
     0
 72
     1
 10
322.8735883053088
 20
463.5755436862191
 11
323.1039687702242
 21
463.8575446702441
 72
     1
 10
323.1039687702242
 20
463.8575446702441
 11
323.3975514575539
 21
464.0727111348995
 72
     2
 10
327.257968770224
 20
459.4795446702439
 40
6.0
 50
229.9539653401974
 51
237.5707296809558
 73
     0
 72
     1
 10
324.0404204023719
 20
464.543869156346
 11
324.3319687702242
 21
464.7575446702441
 72
     1
 10
324.3319687702242
 20
464.7575446702441
 11
324.6675067828817
 21
464.8915227459696
 72
     2
 10
327.2579687702239
 20
459.479544670244
 40
5.999999999999979
 50
244.4217315328955
 51
252.0452798081441
 73
     0
 72
     1
 10
325.4083769980629
 20
465.1873472488511
 11
325.7469687702242
 21
465.3225446702442
 72
     1
 10
325.7469687702242
 20
465.3225446702442
 11
326.024429899367
 21
465.3513741853172
 72
     2
 10
327.2579687702243
 20
459.4795446702441
 40
5.999999999999999
 50
258.1359717570063
 51
270.0
 73
     0
 72
     1
 10
327.2579687702243
 20
465.4795446702441
 11
453.5159687702241
 21
465.4795446702441
 72
     2
 10
453.5159687702241
 20
459.4795446702441
 40
6.0
 50
270.0
 51
281.8640282429937
 73
     0
 72
     1
 10
454.7495076410814
 20
465.3513741853172
 11
455.0269687702242
 21
465.3225446702442
 72
     1
 10
455.0269687702242
 20
465.3225446702442
 11
455.3655605423855
 21
465.1873472488511
 72
     2
 10
453.5159687702245
 20
459.4795446702439
 40
6.000000000000035
 50
287.9547201918557
 51
295.5782684671042
 73
     0
 72
     1
 10
456.1064307575667
 20
464.8915227459696
 11
456.4419687702241
 21
464.7575446702441
 72
     1
 10
456.4419687702241
 20
464.7575446702441
 11
456.7335171380758
 21
464.5438691563464
 72
     2
 10
453.5159687702238
 20
459.4795446702444
 40
5.999999999999971
 50
302.4292703190437
 51
310.0460346598191
 73
     0
 72
     1
 10
457.3763860828952
 20
464.0727111348988
 11
457.6699687702241
 21
463.8575446702441
 72
     1
 10
457.6699687702241
 20
463.8575446702441
 11
457.9003492351396
 21
463.575543686219
 72
     2
 10
453.5159687702241
 20
459.4795446702441
 40
5.999999999999963
 50
316.9476339879091
 51
324.558215410971
 73
     0
 72
     1
 10
458.4041994998836
 20
462.9587975115325
 11
458.6339687702242
 21
462.6775446702441
 72
     1
 10
458.6339687702242
 20
462.6775446702441
 11
458.7866225248839
 21
462.3466353556761
 72
     2
 10
453.5159687702242
 20
459.4795446702439
 40
5.999999999999968
 50
331.4550252284419
 51
339.0157128584949
 73
     0
 72
     1
 10
459.1180407939191
 20
461.6282161298522
 11
459.2719687702242
 21
461.2945446702441
 72
     1
 10
459.2719687702242
 20
461.2945446702441
 11
459.3155525703655
 21
461.017344314261
 72
     2
 10
453.5159687702241
 20
459.479544670244
 40
6.000000000000012
 50
345.1493736022608
 51
356.9798672766401
 73
     0
 72
     1
 10
459.5076352692777
 20
459.7956657927894
 11
459.5079687702242
 21
459.7935446702441
 72
     1
 10
459.5079687702242
 20
459.7935446702441
 11
460.8869687702243
 21
433.4795446702441
 72
     1
 10
460.8869687702243
 20
433.4795446702441
 11
466.2017431951725
 21
433.4795446702441
 72
     2
 10
471.6789687702309
 20
432.9795446703071
 40
5.500000000000992
 50
185.2159085697937
 51
185.2468863967754
 73
     0
 72
     1
 10
466.202014328245
 20
433.4825059416017
 11
466.2069687702241
 21
433.8045446702442
 72
     1
 10
466.2069687702241
 20
433.8045446702442
 11
466.2804900133211
 21
434.0431105146143
 72
     1
 10
466.2804900133211
 20
434.0431105146143
 11
466.2989687702242
 21
434.2075446702442
 72
     1
 10
466.2989687702242
 20
434.2075446702442
 11
466.3633376313806
 21
434.3916585451696
 72
     2
 10
471.6789687702243
 20
432.9795446702444
 40
5.50000000000002
 50
194.8771857356285
 51
202.8833998491634
 73
     0
 72
     1
 10
466.61182918322
 20
435.1182583971873
 11
466.6929687702242
 21
435.3815446702441
 72
     1
 10
466.6929687702242
 20
435.3815446702441
 11
466.8491858264821
 21
435.6107414922889
 72
     2
 10
471.678968770224
 20
432.979544670244
 40
5.499999999999984
 50
208.5809178378572
 51
216.5698409015447
 73
     0
 72
     1
 10
467.2617471583181
 20
436.2564568190986
 11
467.3649687702241
 21
436.4205446702441
 72
     1
 10
467.3649687702241
 20
436.4205446702441
 11
467.4788309038758
 21
436.5345372301657
 72
     1
 10
467.4788309038758
 20
436.5345372301657
 11
467.6219687702242
 21
436.7445446702442
 72
     1
 10
467.6219687702242
 20
436.7445446702442
 11
467.841018271987
 21
436.9191050483931
 72
     2
 10
471.678968770224
 20
432.979544670244
 40
5.500000000000023
 50
225.7485024673771
 51
229.343321214592
 73
     0
 72
     1
 10
468.0955813045383
 20
437.151994103223
 11
468.2379687702242
 21
437.2945446702441
 72
     1
 10
468.2379687702242
 20
437.2945446702441
 11
468.4086358125191
 21
437.4016394618275
 72
     2
 10
471.6789687702238
 20
432.9795446702438
 40
5.500000000000037
 50
233.51545072027
 51
237.1488691366683
 73
     0
 72
     1
 10
468.695449122729
 20
437.6000003309999
 11
468.9119687702242
 21
437.7725446702442
 72
     1
 10
468.9119687702242
 20
437.7725446702442
 11
469.1463381453882
 21
437.8645529601034
 72
     1
 10
469.1463381453882
 20
437.8645529601034
 11
469.2849687702241
 21
437.951544670244
 72
     1
 10
469.2849687702241
 20
437.951544670244
 11
469.4699348924425
 21
438.0164255827547
 72
     2
 10
471.678968770224
 20
432.9795446702441
 40
5.500000000000015
 50
246.3190992334337
 51
254.2821056239819
 73
     0
 72
     1
 10
470.1890127389434
 20
438.2738841970264
 11
470.4479687702241
 21
438.3755446702441
 72
     1
 10
470.4479687702241
 20
438.3755446702441
 11
470.7257738632058
 21
438.3963167227893
 72
     2
 10
471.6789687702242
 20
432.9795446702441
 40
5.500000000000009
 50
260.0197812244918
 51
267.8937777879608
 73
     0
 72
     1
 10
471.4768314851934
 20
438.4758289167146
 11
471.6789687702242
 21
438.4985446702442
 72
     1
 10
471.6789687702242
 20
438.4985446702442
 11
471.8474500219719
 21
438.4801867334448
 72
     1
 10
471.8474500219719
 20
438.4801867334448
 11
472.0929687702241
 21
438.4985446702442
 72
     1
 10
472.0929687702241
 20
438.4985446702442
 11
472.6609687702241
 21
438.3915446702441
 72
     1
 10
472.6609687702241
 20
438.3915446702441
 11
473.6569687702242
 21
466.9355446702441
 72
     1
 10
473.6569687702242
 20
466.9355446702441
 11
473.7629687702242
 21
467.5445446702441
 72
     1
 10
473.7629687702242
 20
467.5445446702441
 11
474.1209687702242
 21
468.0555446702441
 72
     1
 10
474.1209687702242
 20
468.0555446702441
 11
474.6439687702242
 21
468.3955446702441
 72
     1
 10
474.6439687702242
 20
468.3955446702441
 11
474.8248744306011
 21
468.4203748589233
 72
     2
 10
475.2559687702243
 20
466.8795446702441
 40
1.600000000000016
 50
254.3694129064498
 51
269.9999999999959
 73
     0
 72
     1
 10
475.2559687702241
 20
468.4795446702442
 11
475.7119687702242
 21
468.4795446702441
 72
     1
 10
475.7119687702242
 20
468.4795446702441
 11
475.8869687702242
 21
473.4795446702441
 72
     1
 10
475.8869687702242
 20
473.4795446702441
 11
304.8869687702242
 21
473.4795446702441
 72
     1
 10
304.8869687702242
 20
473.4795446702441
 11
305.0619687702242
 21
468.4795446702441
 72
     1
 10
305.0619687702242
 20
468.4795446702441
 11
305.5179687702243
 21
468.4795446702441
 72
     2
 10
305.5179687702243
 20
466.8795446702441
 40
1.599999999999965
 50
269.9999999999959
 51
285.6305870935423
 73
     0
 72
     1
 10
305.9490631098472
 20
468.4203748589233
 11
306.1299687702242
 21
468.3955446702441
 72
     1
 10
306.1299687702242
 20
468.3955446702441
 11
306.6529687702242
 21
468.0555446702441
 72
     1
 10
306.6529687702242
 20
468.0555446702441
 11
307.0109687702242
 21
467.5445446702441
 72
     1
 10
307.0109687702242
 20
467.5445446702441
 11
307.1169687702242
 21
466.9355446702441
 97
        0
 75
     0
 76
     0
 52
45.0
 41
2.5
 77
     0
 78
     1
 53
45.0
 43
0.0
 44
0.0
 45
-1.767766952966368
 46
1.767766952966368
 79
     0
 98
        1
 10
0.0
 20
0.0
1001
GENIUS_GENODEF_13
1002
{
1000
HIER
1070
     0
1002
}
1002
{
1000
MANEDIT
1070
     0
1002
}
1002
{
1000
NOSEL
1070
     0
1002
}
1002
{
1000
BEHIND
1070
     0
1002
}
1002
{
1000
REACTOR
1002
}
1001
GENIUS_GENOBJ-N-HTC_13
1002
{
1000
OWNER
1000
GEN
1002
}
1001
GENIUS_GENHATCH_13
1002
{
1000
DATA
1040
45.0
1042
2.5
1000
_U
1070
     0
1011
314.6283832627112
1021
463.5159033042059
1031
0.0
1002
}
1002
{
1000
UCS
1010
0.0
1020
0.0
1030
0.0
1010
1.0
1020
0.0
1030
0.0
1010
0.0
1020
1.0
1030
0.0
1002
}
  0
HATCH
  5
1F75
330
1D67
100
AcDbEntity
  8
8
100
AcDbHatch
 10
0.0
 20
0.0
 30
0.0
210
0.0
220
0.0
230
1.0
  2
_U
 70
     0
 71
     0
 91
        1
 92
        1
 93
       23
 72
     1
 10
228.2208261566321
 20
370.1977027072323
 11
228.2209687702242
 21
370.1975446702442
 72
     1
 10
228.2209687702242
 20
370.1975446702442
 11
250.3869687702242
 21
362.9945446702442
 72
     1
 10
250.3869687702242
 20
362.9945446702442
 11
255.3659687702242
 21
362.5595446702442
 72
     1
 10
255.3659687702242
 20
362.5595446702442
 11
256.0817965844275
 21
362.5996125349789
 72
     2
 10
255.5839687702243
 20
365.0495446702442
 40
2.500000000000011
 50
281.4861542344459
 51
293.5650445847715
 73
     1
 72
     1
 10
256.5834435127667
 20
362.7580276532837
 11
256.844400814561
 21
362.8905377083265
 72
     2
 10
255.5839687702242
 20
365.0495446702442
 40
2.499999999999984
 50
300.2764575445791
 51
314.7092744370846
 73
     1
 72
     1
 10
257.3427431460351
 20
363.2728306541484
 11
257.5411831944829
 21
363.4941309961775
 72
     2
 10
255.5839687702241
 20
365.0495446702441
 40
2.50000000000001
 50
321.5255584456812
 51
333.5109008071177
 73
     1
 72
     1
 10
257.8215168621203
 20
363.934475821943
 11
258.0459687702242
 21
364.6155446702441
 72
     1
 10
258.0459687702242
 20
364.6155446702441
 11
258.8869687702242
 21
369.3845446702442
 72
     1
 10
258.8869687702242
 20
369.3845446702442
 11
254.8239687702242
 21
369.3845446702442
 72
     1
 10
254.8239687702242
 20
369.3845446702442
 11
251.5479687702242
 21
372.6605446702441
 72
     1
 10
251.5479687702242
 20
372.6605446702441
 11
229.3869687702242
 21
373.8225446702442
 72
     1
 10
229.3869687702242
 20
373.8225446702442
 11
228.5563368105217
 21
373.6418991017723
 72
     2
 10
229.3869687702243
 20
371.8225446702443
 40
1.999999999999985
 50
114.5392168135514
 51
124.1511914131872
 73
     1
 72
     1
 10
228.2642115534002
 20
373.4776628630237
 11
227.800201369826
 21
373.0399883925713
 72
     2
 10
229.3869687702243
 20
371.8225446702443
 40
2.000000000000019
 50
142.5028575251947
 51
153.0016496864713
 73
     1
 72
     1
 10
227.604929579579
 20
372.7304743608066
 11
227.4101469288189
 21
372.126148700756
 72
     2
 10
229.3869687702242
 20
371.8225446702442
 40
1.999999999999999
 50
171.2686295576836
 51
179.9999999999984
 73
     1
 72
     1
 10
227.3869687702242
 20
371.8225446702443
 11
227.5142632403341
 21
371.1204235992608
 72
     2
 10
229.3869687702242
 20
371.8225446702442
 40
2.000000000000011
 50
200.5521959232732
 51
209.7934469199408
 73
     1
 72
     1
 10
227.651324194208
 20
370.8287952522591
 11
228.2208261566321
 21
370.1977027072323
 97
        0
 75
     0
 76
     0
 52
45.0
 41
2.5
 77
     0
 78
     1
 53
45.0
 43
0.0
 44
0.0
 45
-1.767766952966368
 46
1.767766952966368
 79
     0
 98
        1
 10
0.0
 20
0.0
1001
GENIUS_GENODEF_13
1002
{
1000
HIER
1070
     0
1002
}
1002
{
1000
MANEDIT
1070
     0
1002
}
1002
{
1000
NOSEL
1070
     0
1002
}
1002
{
1000
BEHIND
1070
     0
1002
}
1002
{
1000
REACTOR
1002
}
1001
GENIUS_GENOBJ-N-HTC_13
1002
{
1000
OWNER
1000
GEN
1002
}
1001
GENIUS_GENHATCH_13
1002
{
1000
DATA
1040
45.0
1042
2.5
1000
_U
1070
     0
1011
242.9411601722663
1021
369.6250840968962
1031
0.0
1002
}
1002
{
1000
UCS
1010
0.0
1020
0.0
1030
0.0
1010
1.0
1020
0.0
1030
0.0
1010
0.0
1020
1.0
1030
0.0
1002
}
  0
HATCH
  5
1F89
330
1D67
100
AcDbEntity
  8
8
100
AcDbHatch
 10
0.0
 20
0.0
 30
0.0
210
0.0
220
0.0
230
1.0
  2
_U
 70
     0
 71
     0
 91
        1
 92
        1
 93
       16
 72
     1
 10
286.7883945553139
 20
362.4049097214503
 11
286.7889687702242
 21
362.4075446702442
 72
     1
 10
286.7889687702242
 20
362.4075446702442
 11
287.124965920506
 21
368.8224902626791
 72
     1
 10
287.124965920506
 20
368.8224902626791
 11
276.3869687702241
 21
369.3845446702442
 72
     1
 10
276.3869687702241
 20
369.3845446702442
 11
271.8869687702242
 21
369.3845446702442
 72
     1
 10
271.8869687702242
 20
369.3845446702442
 11
273.0349687702242
 21
362.8735446702442
 72
     1
 10
273.0349687702242
 20
362.8735446702442
 11
273.2025055497745
 21
362.3148521045402
 72
     2
 10
275.4969687702242
 20
363.3075446702442
 40
2.500000000000017
 50
203.3955759846755
 51
251.6072830372813
 73
     1
 72
     1
 10
274.7081477203748
 20
360.9352543525734
 11
275.2789687702242
 21
360.8175446702442
 72
     1
 10
275.2789687702242
 20
360.8175446702442
 11
284.0777143841041
 21
360.0478284854534
 72
     1
 10
284.0777143841041
 20
360.0478284854534
 11
284.8796092352474
 21
360.1085902089697
 72
     2
 10
284.2919687702241
 20
362.5385446702442
 40
2.500000000000037
 50
283.5949347688368
 51
294.0175847870299
 73
     1
 72
     1
 10
285.309511276157
 20
360.254993215028
 11
285.723710139448
 21
360.4891260571607
 72
     2
 10
284.2919687702243
 20
362.5385446702443
 40
2.500000000000018
 50
304.9384790989083
 51
317.0592395546736
 73
     1
 72
     1
 10
286.1221148850429
 20
360.8354400937681
 11
286.410574559057
 21
361.2113259574752
 72
     2
 10
284.2919687702242
 20
362.5385446702443
 40
2.499999999999989
 50
327.9345617488266
 51
338.4764714080463
 73
     1
 72
     1
 10
286.6176362334614
 20
361.6213364875289
 11
286.7883945553139
 21
362.4049097214503
 97
        0
 75
     0
 76
     0
 52
45.0
 41
2.5
 77
     0
 78
     1
 53
45.0
 43
0.0
 44
0.0
 45
-1.767766952966368
 46
1.767766952966368
 79
     0
 98
        1
 10
0.0
 20
0.0
1001
GENIUS_GENODEF_13
1002
{
1000
HIER
1070
     0
1002
}
1002
{
1000
MANEDIT
1070
     0
1002
}
1002
{
1000
NOSEL
1070
     0
1002
}
1002
{
1000
BEHIND
1070
     0
1002
}
1002
{
1000
REACTOR
1002
}
1001
GENIUS_GENOBJ-N-HTC_13
1002
{
1000
OWNER
1000
GEN
1002
}
1001
GENIUS_GENHATCH_13
1002
{
1000
DATA
1040
45.0
1042
2.5
1000
_U
1070
     0
1011
278.7847717174888
1021
365.3011657272309
1031
0.0
1002
}
1002
{
1000
UCS
1010
0.0
1020
0.0
1030
0.0
1010
1.0
1020
0.0
1030
0.0
1010
0.0
1020
1.0
1030
0.0
1002
}
  0
HATCH
  5
1FA7
330
1D67
100
AcDbEntity
  8
8
100
AcDbHatch
 10
0.0
 20
0.0
 30
0.0
210
0.0
220
0.0
230
1.0
  2
_U
 70
     0
 71
     0
 91
        1
 92
        1
 93
       26
 72
     1
 10
493.9856073108917
 20
362.4037134262386
 11
494.0768167160431
 21
361.8564569953307
 72
     2
 10
496.4819687702242
 20
362.5385446702442
 40
2.500000000000035
 50
195.8330399221132
 51
201.4704861078697
 73
     1
 72
     1
 10
494.1554531835643
 20
361.6234899041077
 11
494.3282001853011
 21
361.2691822780967
 72
     2
 10
496.4819687702243
 20
362.538544670244
 40
2.499999999999967
 50
210.5137388509102
 51
216.8321542196756
 73
     1
 72
     1
 10
494.480981083657
 20
361.0398624897247
 11
494.7389538982979
 21
360.7463674590723
 72
     2
 10
496.4819687702242
 20
362.5385446702442
 40
2.499999999999985
 50
225.7967354877901
 51
232.2126614100253
 73
     1
 72
     1
 10
494.9501377011426
 20
360.562818581993
 11
495.2744191055439
 21
360.3495211876542
 72
     2
 10
496.481968770224
 20
362.5385446702442
 40
2.5
 50
241.1171793295598
 51
247.5621385998805
 73
     1
 72
     1
 10
495.5277656733322
 20
360.2278096248783
 11
495.8977785913817
 21
360.1077584116554
 72
     2
 10
496.4819687702238
 20
362.5385446702442
 40
2.499999999999993
 50
256.4864054278473
 51
262.1935957809888
 73
     1
 72
     1
 10
496.1424029898823
 20
360.0617130084592
 11
496.6945522107538
 21
360.0476823107688
 72
     1
 10
496.6945522107538
 20
360.0476823107688
 11
505.4949687702242
 21
360.8175446702442
 72
     1
 10
505.4949687702242
 20
360.8175446702442
 11
506.0277209043682
 21
360.9229333322945
 72
     2
 10
505.2769687702243
 20
363.3075446702442
 40
2.499999999999968
 50
287.4756739819172
 51
293.2435598584419
 73
     1
 72
     1
 10
506.2635702207751
 20
361.0104557347062
 11
506.5929148038386
 21
361.1819186361981
 72
     2
 10
505.2769687702242
 20
363.3075446702442
 40
2.500000000000003
 50
301.7610838013768
 51
308.1851688266041
 73
     1
 72
     1
 10
506.8224811536703
 20
361.3425023112567
 11
507.1017361879795
 21
361.5986784171107
 72
     2
 10
505.2769687702244
 20
363.3075446702444
 40
2.499999999999986
 50
316.8785953457232
 51
323.1421814853395
 73
     1
 72
     1
 10
507.2772849566916
 20
361.8079663447951
 11
507.4792922410203
 21
362.1244253482905
 72
     2
 10
505.2769687702244
 20
363.3075446702447
 40
2.500000000000038
 50
331.7546789871684
 51
337.545517561957
 73
     1
 72
     1
 10
507.5874269118371
 20
362.3526712881382
 11
507.7389687702242
 21
362.8735446702442
 72
     1
 10
507.7389687702242
 20
362.8735446702442
 11
508.8869687702242
 21
369.3845446702442
 72
     1
 10
508.8869687702242
 20
369.3845446702442
 11
504.3869687702242
 21
369.3845446702442
 72
     1
 10
504.3869687702242
 20
369.3845446702442
 11
493.6489742203288
 21
368.8224406154179
 72
     1
 10
493.6489742203288
 20
368.8224406154179
 11
493.9849687702242
 21
362.4075446702442
 72
     1
 10
493.9849687702242
 20
362.4075446702442
 11
493.9856073108917
 21
362.4037134262386
 97
        0
 75
     0
 76
     0
 52
45.0
 41
2.5
 77
     0
 78
     1
 53
45.0
 43
0.0
 44
0.0
 45
-1.767766952966368
 46
1.767766952966368
 79
     0
 98
        1
 10
0.0
 20
0.0
1001
GENIUS_GENODEF_13
1002
{
1000
HIER
1070
     0
1002
}
1002
{
1000
MANEDIT
1070
     0
1002
}
1002
{
1000
NOSEL
1070
     0
1002
}
1002
{
1000
BEHIND
1070
     0
1002
}
1002
{
1000
REACTOR
1002
}
1001
GENIUS_GENOBJ-N-HTC_13
1002
{
1000
OWNER
1000
GEN
1002
}
1001
GENIUS_GENHATCH_13
1002
{
1000
DATA
1040
45.0
1042
2.5
1000
_U
1070
     0
1011
498.7903911430059
1021
365.3011657272309
1031
0.0
1002
}
1002
{
1000
UCS
1010
0.0
1020
0.0
1030
0.0
1010
1.0
1020
0.0
1030
0.0
1010
0.0
1020
1.0
1030
0.0
1002
}
  0
HATCH
  5
1FCB
330
1D67
100
AcDbEntity
  8
8
100
AcDbHatch
 10
0.0
 20
0.0
 30
0.0
210
0.0
220
0.0
230
1.0
  2
_U
 70
     0
 71
     0
 91
        1
 92
        1
 93
       32
 72
     1
 10
552.5532156886597
 20
370.197777571476
 11
552.9408828253801
 21
370.5634374034918
 72
     2
 10
551.3869687702245
 20
371.8225446702447
 40
2.000000000000004
 50
320.9828019109257
 51
326.9990645265886
 73
     1
 72
     1
 10
553.0642921211495
 20
370.7332392142583
 11
553.2487403825529
 21
371.0919240686136
 72
     2
 10
551.3869687702244
 20
371.8225446702446
 40
1.999999999999998
 50
338.5733196102519
 51
344.2995187040502
 73
     1
 72
     1
 10
553.3123477168142
 20
371.2813276047075
 11
553.3869687702242
 21
371.8225446702442
 72
     1
 10
553.3869687702242
 20
371.8225446702442
 11
553.3173224912868
 21
372.3457411071394
 72
     2
 10
551.3869687702242
 20
371.8225446702442
 40
2.000000000000002
 50
15.1649159253501
 51
20.93973569727797
 73
     1
 72
     1
 10
553.2548824606019
 20
372.5373162738349
 11
553.0673700848979
 21
372.9070959238247
 72
     2
 10
551.3869687702241
 20
371.8225446702444
 40
1.999999999999998
 50
32.83868539163568
 51
38.91899256403114
 73
     1
 72
     1
 10
552.9430386638949
 20
373.0789866649307
 11
552.6538374037232
 21
373.3701375965192
 72
     2
 10
551.3869687702244
 20
371.8225446702442
 40
1.999999999999958
 50
50.69604284044396
 51
57.1172122416436
 73
     1
 72
     1
 10
552.4728131602225
 20
373.5021106739217
 11
552.1082445190558
 21
373.6879564998806
 72
     2
 10
551.3869687702245
 20
371.8225446702442
 40
1.999999999999993
 50
68.86062476279779
 51
74.48605808804811
 73
     1
 72
     1
 10
551.9219144713196
 20
373.7496754641655
 11
551.3869687702242
 21
373.8225446702442
 72
     1
 10
551.3869687702242
 20
373.8225446702442
 11
529.2259687702242
 21
372.6605446702441
 72
     1
 10
529.2259687702242
 20
372.6605446702441
 11
525.9499687702241
 21
369.3845446702442
 72
     1
 10
525.9499687702241
 20
369.3845446702442
 11
521.8869687702242
 21
369.3845446702442
 72
     1
 10
521.8869687702242
 20
369.3845446702442
 11
522.7279687702242
 21
364.6155446702441
 72
     1
 10
522.7279687702242
 20
364.6155446702441
 11
522.8646623685773
 21
364.1314215094098
 72
     2
 10
525.1899687702241
 20
365.0495446702444
 40
2.500000000000109
 50
201.5460719927234
 51
207.5913456996537
 73
     1
 72
     1
 10
522.9742848998466
 20
363.8916392394992
 11
523.1413372244638
 21
363.6166773387317
 72
     2
 10
525.1899687702243
 20
365.0495446702439
 40
2.499999999999993
 50
214.9699637723023
 51
221.7345858647901
 73
     1
 72
     1
 10
523.3243775490199
 20
363.3853423401876
 11
523.5471463525474
 21
363.1650992600561
 72
     2
 10
525.1899687702239
 20
365.0495446702443
 40
2.499999999999928
 50
228.9187226727137
 51
236.1536010935086
 73
     1
 72
     1
 10
523.7975478311856
 20
362.9732104176425
 11
524.0560695448222
 21
362.8214799165548
 72
     2
 10
525.1899687702238
 20
365.0495446702444
 40
2.500000000000027
 50
243.0276996084343
 51
250.2588198608917
 73
     1
 72
     1
 10
524.3455391864882
 20
362.6964746164397
 11
524.6410741588745
 21
362.610545960603
 72
     2
 10
525.1899687702237
 20
365.0495446702442
 40
2.499999999999974
 50
257.3169355871228
 51
263.4083110580463
 73
     1
 72
     1
 10
524.9029861320422
 20
362.5660711017555
 11
525.4079687702242
 21
362.5595446702442
 72
     1
 10
525.4079687702242
 20
362.5595446702442
 11
530.3869687702242
 21
362.9945446702442
 72
     1
 10
530.3869687702242
 20
362.9945446702442
 11
552.5529687702242
 21
370.1975446702442
 72
     1
 10
552.5529687702242
 20
370.1975446702442
 11
552.5532156886597
 21
370.197777571476
 97
        0
 75
     0
 76
     0
 52
45.0
 41
2.5
 77
     0
 78
     1
 53
45.0
 43
0.0
 44
0.0
 45
-1.767766952966368
 46
1.767766952966368
 79
     0
 98
        1
 10
0.0
 20
0.0
1001
GENIUS_GENODEF_13
1002
{
1000
HIER
1070
     0
1002
}
1002
{
1000
MANEDIT
1070
     0
1002
}
1002
{
1000
NOSEL
1070
     0
1002
}
1002
{
1000
BEHIND
1070
     0
1002
}
1002
{
1000
REACTOR
1002
}
1001
GENIUS_GENOBJ-N-HTC_13
1002
{
1000
OWNER
1000
GEN
1002
}
1001
GENIUS_GENHATCH_13
1002
{
1000
DATA
1040
45.0
1042
2.5
1000
_U
1070
     0
1011
534.6340026882282
1021
369.0073823562734
1031
0.0
1002
}
1002
{
1000
UCS
1010
0.0
1020
0.0
1030
0.0
1010
1.0
1020
0.0
1030
0.0
1010
0.0
1020
1.0
1030
0.0
1002
}
  0
HATCH
  5
202E
330
1D67
100
AcDbEntity
  8
8
100
AcDbHatch
 10
0.0
 20
0.0
 30
0.0
210
0.0
220
0.0
230
1.0
  2
_U
 70
     0
 71
     0
 91
        1
 92
        1
 93
       95
 72
     1
 10
270.3859687702242
 20
360.5845446702442
 11
270.3859687702242
 21
345.8225446702442
 72
     1
 10
270.3859687702242
 20
345.8225446702442
 11
269.3869687702242
 21
345.8225446702442
 72
     1
 10
269.3869687702242
 20
345.8225446702442
 11
269.3869687702242
 21
340.0855446702441
 72
     1
 10
269.3869687702242
 20
340.0855446702441
 11
265.3869687702242
 21
337.7755446702441
 72
     1
 10
265.3869687702242
 20
337.7755446702441
 11
261.3869687702242
 21
340.0855446702441
 72
     1
 10
261.3869687702242
 20
340.0855446702441
 11
261.3869687702242
 21
345.8225446702442
 72
     1
 10
261.3869687702242
 20
345.8225446702442
 11
260.3859687702242
 21
345.8225446702442
 72
     1
 10
260.3859687702242
 20
345.8225446702442
 11
260.3859687702242
 21
360.5845446702442
 72
     1
 10
260.3859687702242
 20
360.5845446702442
 11
259.3869687702242
 21
360.5855446702441
 72
     1
 10
259.3869687702242
 20
360.5855446702441
 11
258.7489687702242
 21
361.6905446702442
 72
     1
 10
258.7489687702242
 20
361.6905446702442
 11
244.3869687702242
 21
362.9475446702442
 72
     1
 10
244.3869687702242
 20
362.9475446702442
 11
215.7159687702242
 21
371.7125446702442
 72
     1
 10
215.7159687702242
 20
371.7125446702442
 11
214.9849687702242
 21
371.8225446702442
 72
     2
 10
214.9849687702242
 20
369.3225446702442
 40
2.5
 50
90.0
 51
145.5695546624079
 73
     1
 72
     1
 10
212.9229358339571
 20
370.7360580836045
 11
212.5703821429596
 21
369.9704423623489
 72
     1
 10
212.5703821429596
 20
369.9704423623489
 11
212.5699687702242
 21
369.9695446702441
 72
     1
 10
212.5699687702242
 20
369.9695446702441
 11
210.3872366887318
 21
361.8225446702442
 72
     1
 10
210.3872366887318
 20
361.8225446702442
 11
227.5449687702242
 21
361.8225446702442
 72
     1
 10
227.5449687702242
 20
361.8225446702442
 11
243.2359687702242
 21
357.0245446702442
 72
     1
 10
243.2359687702242
 20
357.0245446702442
 11
248.7249687702242
 21
356.5445446702441
 72
     1
 10
248.7249687702242
 20
356.5445446702441
 11
250.1959687702242
 21
355.8975446702442
 72
     1
 10
250.1959687702242
 20
355.8975446702442
 11
250.9689687702242
 21
354.4885446702441
 72
     1
 10
250.9689687702242
 20
354.4885446702441
 11
253.5689687702242
 21
339.7385446702442
 72
     1
 10
253.5689687702242
 20
339.7385446702442
 11
254.9771591353591
 21
335.8529665138021
 72
     2
 10
265.3869687702242
 20
341.822544670244
 40
12.0
 50
209.8324168439797
 51
217.0328024376868
 73
     1
 72
     1
 10
255.8074787653642
 20
334.5952788492861
 11
257.9888378777952
 21
332.3743882734391
 72
     2
 10
265.3869687702242
 20
341.822544670244
 40
11.99999999999996
 50
231.9382122506245
 51
239.8406566075107
 73
     1
 72
     1
 10
259.3580903160643
 20
331.4469663931086
 11
262.2303806150879
 21
330.2451550154535
 72
     2
 10
265.3869687702242
 20
341.8225446702442
 40
12.00000000000006
 50
254.7489430004364
 51
262.6813289435655
 73
     1
 72
     1
 10
263.858314787554
 20
329.9203088718209
 11
266.9651709582297
 21
329.9267774459843
 72
     2
 10
265.3869687702241
 20
341.8225446702442
 40
12.00000000000001
 50
277.5572540117684
 51
285.5063904784716
 73
     1
 72
     1
 10
268.5951190042142
 20
330.2593369805004
 11
271.4586221333643
 21
331.4719395943141
 72
     2
 10
265.3869687702242
 20
341.8225446702443
 40
12.00000000000011
 50
300.3958382871134
 51
308.3143928807012
 73
     1
 72
     1
 10
272.826682576704
 20
332.4070968063519
 11
274.9962417214292
 21
334.634925220855
 72
     2
 10
265.3869687702242
 20
341.8225446702442
 40
11.99999999999993
 50
323.2039576428622
 51
330.4437940457445
 73
     1
 72
     1
 10
275.8254354112421
 20
335.9032191863436
 11
277.2039687702242
 21
339.7385446702442
 72
     1
 10
277.2039687702242
 20
339.7385446702442
 11
279.2919687702242
 21
351.5795446702441
 72
     1
 10
279.2919687702242
 20
351.5795446702441
 11
279.2940692826422
 21
351.5859691382503
 72
     2
 10
281.7549687702242
 20
351.1455446702441
 40
2.500000000000014
 50
190.1467396770176
 51
206.0640990048159
 73
     0
 72
     1
 10
279.5092111172536
 20
352.2439856400391
 11
279.6849687702241
 21
352.7815446702442
 72
     1
 10
279.6849687702241
 20
352.7815446702442
 11
280.7099687702242
 21
353.5675446702442
 72
     1
 10
280.7099687702242
 20
353.5675446702442
 11
281.2705981876134
 21
353.5981728806953
 72
     2
 10
281.7549687702244
 20
351.1455446702441
 40
2.500000000000008
 50
258.8283918734159
 51
274.9174788283672
 73
     0
 72
     1
 10
281.9692709385923
 20
353.6363426509388
 11
281.9729687702242
 21
353.6365446702441
 72
     1
 10
281.9729687702242
 20
353.6365446702441
 11
291.5089687702242
 21
352.8015446702442
 72
     1
 10
291.5089687702242
 20
352.8015446702442
 11
294.2989687702242
 21
351.9915446702442
 72
     1
 10
294.2989687702242
 20
351.9915446702442
 11
294.833215135368
 21
351.4287487714856
 72
     2
 10
290.9859687702242
 20
346.8245446702441
 40
6.00000000000004
 50
309.8819357612768
 51
323.0995330671462
 73
     0
 72
     1
 10
295.7840473621832
 20
350.4271051243358
 11
296.3199687702241
 21
349.8625446702442
 72
     1
 10
296.3199687702241
 20
349.8625446702442
 11
296.9819687702242
 21
347.0335446702442
 72
     1
 10
296.9819687702242
 20
347.0335446702442
 11
300.2319687702242
 21
253.9785446702442
 72
     1
 10
300.2319687702242
 20
253.9785446702442
 11
300.600626856053
 21
252.106953216329
 72
     2
 10
306.2279687702242
 20
254.1885446702441
 40
5.99999999999999
 50
200.2997713649276
 51
236.7199509018659
 73
     1
 72
     1
 10
302.9355782754097
 20
249.1725537582055
 11
304.6723720530911
 21
248.3937091373196
 72
     1
 10
304.6723720530911
 20
248.3937091373196
 11
304.6749687702241
 21
248.3925446702441
 72
     1
 10
304.6749687702241
 20
248.3925446702441
 11
328.6019687702242
 21
241.9815446702442
 72
     1
 10
328.6019687702242
 20
241.9815446702442
 11
330.9529687702242
 21
240.9225446702441
 72
     1
 10
330.9529687702242
 20
240.9225446702441
 11
331.6685558337951
 21
240.0153062666469
 72
     2
 10
327.0489687702245
 20
236.1865446702438
 40
5.999999999999996
 50
320.3477090338744
 51
323.1228537718219
 73
     0
 72
     1
 10
331.8485132899531
 20
239.7871518972463
 11
332.5659687702242
 21
238.8775446702442
 72
     1
 10
332.5659687702242
 20
238.8775446702442
 11
332.6873655893894
 21
238.2380030075319
 72
     2
 10
327.0489687702242
 20
236.186544670244
 40
6.000000000000023
 50
340.0067325102087
 51
358.4974111363464
 73
     0
 72
     1
 10
333.0469056172489
 20
236.3438773721977
 11
333.0469687702242
 21
236.3435446702442
 72
     1
 10
333.0469687702242
 20
236.3435446702442
 11
334.3699687702242
 21
185.8225446702441
 72
     1
 10
334.3699687702242
 20
185.8225446702441
 11
335.3869687702241
 21
127.5635446702441
 72
     1
 10
335.3869687702241
 20
127.5635446702441
 11
341.8869423985601
 21
125.8225517337929
 72
     1
 10
341.8869423985601
 20
125.8225517337929
 11
338.8709687702242
 21
240.9945446702442
 72
     1
 10
338.8709687702242
 20
240.9945446702442
 11
338.8709055961448
 21
240.9948781767378
 72
     1
 10
338.8709055961448
 20
240.9948781767378
 11
338.5129271760357
 21
242.884705919564
 72
     2
 10
332.8729687702243
 20
240.8375446702442
 40
6.0
 50
19.94960775609104
 51
37.23218865190163
 73
     1
 72
     1
 10
337.6501095489948
 20
244.467823720098
 11
337.5161925205065
 21
244.6376069335254
 72
     2
 10
332.8729687702243
 20
240.8375446702441
 40
6.000000000000021
 50
39.29724854238681
 51
56.4922425599828
 73
     1
 72
     1
 10
336.1852680649088
 20
245.8404111867956
 11
334.4259687702242
 21
246.6325446702442
 72
     1
 10
334.4259687702242
 20
246.6325446702442
 11
310.9019687702242
 21
252.9365446702442
 72
     1
 10
310.9019687702242
 20
252.9365446702442
 11
308.5359687702242
 21
254.0065446702442
 72
     1
 10
308.5359687702242
 20
254.0065446702442
 11
307.8426069156902
 21
254.8940822114258
 72
     2
 10
312.4549687702244
 20
258.7315446702439
 40
5.999999999999995
 50
140.2397096176477
 51
143.7649782196162
 73
     0
 72
     1
 10
307.6153738316243
 20
255.1849518221322
 11
306.9219687702242
 21
256.0725446702441
 72
     1
 10
306.9219687702242
 20
256.0725446702441
 11
306.8051183267552
 21
256.7118442057114
 72
     2
 10
312.4549687702242
 20
258.7315446702441
 40
5.999999999999997
 50
160.329118657888
 51
178.9546430275976
 73
     0
 72
     1
 10
306.4559673739525
 20
258.6220812172976
 11
306.4549687702242
 21
258.6275446702442
 72
     1
 10
306.4549687702242
 20
258.6275446702442
 11
304.8869687702242
 21
348.4795446702441
 72
     1
 10
304.8869687702242
 20
348.4795446702441
 11
303.5039675358739
 21
356.3225446702442
 72
     1
 10
303.5039675358739
 20
356.3225446702442
 11
296.9089687702242
 21
356.3225446702442
 72
     1
 10
296.9089687702242
 20
356.3225446702442
 11
296.7249687702242
 21
359.8225446702442
 72
     1
 10
296.7249687702242
 20
359.8225446702442
 11
296.5154687702242
 21
363.8225446702442
 72
     1
 10
296.5154687702242
 20
363.8225446702442
 11
290.3359687702242
 21
363.8225446702442
 72
     1
 10
290.3359687702242
 20
363.8225446702442
 11
289.7739687702242
 21
361.1805446702442
 72
     1
 10
289.7739687702242
 20
361.1805446702442
 11
289.3599687702242
 21
360.0155446702441
 72
     1
 10
289.3599687702242
 20
360.0155446702441
 11
288.9807350663024
 21
359.8229338679892
 72
     2
 10
287.3289687702255
 20
361.6995446702454
 40
2.499999999999988
 50
48.64622181661665
 51
49.44957404924412
 73
     0
 72
     1
 10
288.9542613431041
 20
359.7999594385314
 11
288.3459687702242
 21
359.2655446702441
 72
     1
 10
288.3459687702242
 20
359.2655446702441
 11
287.1109687702242
 21
359.2095446702442
 72
     1
 10
287.1109687702242
 20
359.2095446702442
 11
271.3869687702242
 21
360.5855446702441
 72
     1
 10
271.3869687702242
 20
360.5855446702441
 11
270.3859687702242
 21
360.5845446702442
 97
        0
 75
     0
 76
     0
 52
135.0
 41
2.7
 77
     0
 78
     1
 53
135.0
 43
0.0
 44
0.0
 45
-1.909188309203678
 46
-1.909188309203678
 79
     0
 98
        1
 10
0.0
 20
0.0
1001
GENIUS_GENODEF_13
1002
{
1000
HIER
1070
     0
1002
}
1002
{
1000
MANEDIT
1070
     0
1002
}
1002
{
1000
NOSEL
1070
     0
1002
}
1002
{
1000
BEHIND
1070
     0
1002
}
1002
{
1000
REACTOR
1002
}
1001
GENIUS_GENOBJ-N-HTC_13
1002
{
1000
OWNER
1000
GEN
1002
}
1001
GENIUS_GENHATCH_13
1002
{
1000
DATA
1040
135.0
1042
2.7
1000
_U
1070
     0
1011
255.9190195903582
1021
356.6533265137778
1031
0.0
1002
}
1002
{
1000
UCS
1010
0.0
1020
0.0
1030
0.0
1010
1.0
1020
0.0
1030
0.0
1010
0.0
1020
1.0
1030
0.0
1002
}
  0
HATCH
  5
2093
330
1D67
100
AcDbEntity
  8
8
100
AcDbHatch
 10
0.0
 20
0.0
 30
0.0
210
0.0
220
0.0
230
1.0
  2
_U
 70
     0
 71
     0
 91
        1
 92
        1
 93
       97
 72
     1
 10
529.8063835349283
 20
354.4911201269211
 11
530.5789687702241
 21
355.8975446702442
 72
     1
 10
530.5789687702241
 20
355.8975446702442
 11
532.0499687702241
 21
356.5445446702441
 72
     1
 10
532.0499687702241
 20
356.5445446702441
 11
537.5379687702242
 21
357.0245446702442
 72
     1
 10
537.5379687702242
 20
357.0245446702442
 11
553.2289687702242
 21
361.8225446702442
 72
     1
 10
553.2289687702242
 20
361.8225446702442
 11
570.386700818831
 21
361.8225446702442
 72
     1
 10
570.386700818831
 20
361.8225446702442
 11
568.2039687702241
 21
369.9685446702442
 72
     1
 10
568.2039687702241
 20
369.9685446702442
 11
567.8504677864489
 21
370.7368366507435
 72
     2
 10
565.7889687702241
 20
369.3225446702442
 40
2.500000000000023
 50
34.45208145493719
 51
90.00000000000261
 73
     1
 72
     1
 10
565.788968770224
 20
371.8225446702442
 11
565.0579687702242
 21
371.7125446702442
 72
     1
 10
565.0579687702242
 20
371.7125446702442
 11
536.3869687702242
 21
362.9475446702442
 72
     1
 10
536.3869687702242
 20
362.9475446702442
 11
522.0249687702241
 21
361.6905446702442
 72
     1
 10
522.0249687702241
 20
361.6905446702442
 11
521.3869687702242
 21
360.5855446702441
 72
     1
 10
521.3869687702242
 20
360.5855446702441
 11
520.3859687702241
 21
360.5855446702441
 72
     1
 10
520.3859687702241
 20
360.5855446702441
 11
520.3859687702241
 21
345.8225446702442
 72
     1
 10
520.3859687702241
 20
345.8225446702442
 11
519.3869687702242
 21
345.8225446702442
 72
     1
 10
519.3869687702242
 20
345.8225446702442
 11
519.3869687702242
 21
340.0855446702441
 72
     1
 10
519.3869687702242
 20
340.0855446702441
 11
515.3869687702242
 21
337.7755446702441
 72
     1
 10
515.3869687702242
 20
337.7755446702441
 11
511.3869687702242
 21
340.0855446702441
 72
     1
 10
511.3869687702242
 20
340.0855446702441
 11
511.3869687702242
 21
345.8225446702442
 72
     1
 10
511.3869687702242
 20
345.8225446702442
 11
510.3859687702241
 21
345.8225446702442
 72
     1
 10
510.3859687702241
 20
345.8225446702442
 11
510.3859687702241
 21
360.5855446702441
 72
     1
 10
510.3859687702241
 20
360.5855446702441
 11
509.3869687702242
 21
360.5845446702442
 72
     1
 10
509.3869687702242
 20
360.5845446702442
 11
493.6619687702242
 21
359.2095446702442
 72
     1
 10
493.6619687702242
 20
359.2095446702442
 11
493.6593906138027
 21
359.2097569890082
 72
     2
 10
493.4449687702241
 20
361.7005446702441
 40
2.500000000000001
 50
85.07976827930185
 51
104.3359362094407
 73
     0
 72
     1
 10
492.8259519307699
 20
359.2783931158463
 11
492.3019687702242
 21
359.3215446702441
 72
     1
 10
492.3019687702242
 20
359.3215446702441
 11
491.7939687702242
 21
359.8225446702442
 72
     1
 10
491.7939687702242
 20
359.8225446702442
 11
491.2489687702242
 21
360.2365446702441
 72
     1
 10
491.2489687702242
 20
360.2365446702441
 11
491.0585642414041
 21
360.955512171069
 72
     2
 10
493.4449687702241
 20
361.7005446702441
 40
2.5
 50
162.661701703353
 51
167.6719928067013
 73
     0
 72
     1
 10
491.0026154585265
 20
361.1667747752145
 11
490.9989687702242
 21
361.1805446702442
 72
     1
 10
490.9989687702242
 20
361.1805446702442
 11
490.4374016641522
 21
363.8225446702442
 72
     1
 10
490.4374016641522
 20
363.8225446702442
 11
484.2579687702242
 21
363.8225446702442
 72
     1
 10
484.2579687702242
 20
363.8225446702442
 11
484.0479687702242
 21
359.8225446702442
 72
     1
 10
484.0479687702242
 20
359.8225446702442
 11
483.8649687702242
 21
356.3225446702442
 72
     1
 10
483.8649687702242
 20
356.3225446702442
 11
477.2699700045745
 21
356.3225446702442
 72
     1
 10
477.2699700045745
 20
356.3225446702442
 11
475.8869687702242
 21
348.4795446702441
 72
     1
 10
475.8869687702242
 20
348.4795446702441
 11
475.5379687702242
 21
328.4845446702441
 72
     1
 10
475.5379687702242
 20
328.4845446702441
 11
475.3059687702241
 21
315.2005446702442
 72
     1
 10
475.3059687702241
 20
315.2005446702442
 11
475.3059615746902
 21
315.2001326531047
 72
     1
 10
475.3059615746902
 20
315.2001326531047
 11
474.3179687702242
 21
258.6275446702442
 72
     1
 10
474.3179687702242
 20
258.6275446702442
 11
473.8519687702241
 21
256.0725446702441
 72
     1
 10
473.8519687702241
 20
256.0725446702441
 11
473.1737425546184
 21
255.2043814971082
 72
     2
 10
468.319968770224
 20
258.7315446702439
 40
5.99999999999995
 50
36.00533137772851
 51
39.98998078500648
 73
     0
 72
     1
 10
472.9169097776812
 20
254.8756228123793
 11
472.2379687702242
 21
254.0065446702442
 72
     1
 10
472.2379687702242
 20
254.0065446702442
 11
471.6496722517979
 21
253.7402447669328
 72
     2
 10
468.3199687702241
 20
258.7315446702441
 40
6.000000000000007
 50
56.292689059531
 51
74.99833072633842
 73
     0
 72
     1
 10
469.8730518897416
 20
252.9360349580731
 11
469.8719687702243
 21
252.9355446702441
 72
     1
 10
469.8719687702243
 20
252.9355446702441
 11
446.3469687702241
 21
246.6325446702442
 72
     1
 10
446.3469687702241
 20
246.6325446702442
 11
444.5892060314687
 21
245.8407663885163
 72
     2
 10
447.9009687702241
 20
240.8375446702441
 40
6.000000000000019
 50
123.5016127030412
 51
140.7027514576131
 73
     1
 72
     1
 10
443.2577450199418
 20
244.6376069335254
 11
443.1238279914536
 21
244.467823720098
 72
     2
 10
447.9009687702241
 20
240.8375446702442
 40
5.999999999999995
 50
142.7678113480983
 51
160.0503922439089
 73
     1
 72
     1
 10
442.2610103644126
 20
242.884705919564
 11
441.9030319443035
 21
240.9948781767378
 72
     1
 10
441.9030319443035
 20
240.9948781767378
 11
441.9029687702241
 21
240.9945446702442
 72
     1
 10
441.9029687702241
 20
240.9945446702442
 11
438.8869687702242
 21
125.8215446702442
 72
     1
 10
438.8869687702242
 20
125.8215446702442
 11
445.3869687702242
 21
127.5635446702441
 72
     1
 10
445.3869687702242
 20
127.5635446702441
 11
446.4039687702242
 21
185.8225446702441
 72
     1
 10
446.4039687702242
 20
185.8225446702441
 11
447.7269687702241
 21
236.3425446702442
 72
     1
 10
447.7269687702241
 20
236.3425446702442
 11
448.2069687702241
 21
238.8765446702441
 72
     1
 10
448.2069687702241
 20
238.8765446702441
 11
448.9373170915006
 21
239.8029505383977
 72
     2
 10
453.7249687702241
 20
236.1865446702441
 40
5.999999999999981
 50
217.0659802985141
 51
219.4362183802124
 73
     0
 72
     1
 10
449.0909756485422
 20
239.9978577967406
 11
449.8199687702241
 21
240.9225446702441
 72
     1
 10
449.8199687702241
 20
240.9225446702441
 11
452.1719687702242
 21
241.9815446702442
 72
     1
 10
452.1719687702242
 20
241.9815446702442
 11
476.0979687702241
 21
248.3925446702441
 72
     1
 10
476.0979687702241
 20
248.3925446702441
 11
476.0990784255803
 21
248.3930420692233
 72
     1
 10
476.0990784255803
 20
248.3930420692233
 11
477.8389097833983
 21
249.1729151500588
 72
     2
 10
474.5459687702241
 20
254.1885446702442
 40
6.000000000000011
 50
303.2863376890418
 51
339.700228635075
 73
     1
 72
     1
 10
480.1733106843953
 20
252.1069532163294
 11
480.5419687702242
 21
253.9785446702442
 72
     1
 10
480.5419687702242
 20
253.9785446702442
 11
483.7909687702241
 21
347.0335446702442
 72
     1
 10
483.7909687702241
 20
347.0335446702442
 11
483.7917229934184
 21
347.0367629167251
 72
     2
 10
489.7879687702242
 20
346.8245446702442
 40
5.999999999999988
 50
182.0269577525746
 51
204.3524638138425
 73
     0
 72
     1
 10
484.3218122615347
 20
349.2986370336195
 11
484.4539687702241
 21
349.8625446702442
 72
     1
 10
484.4539687702241
 20
349.8625446702442
 11
484.9908455932604
 21
350.4283772447455
 72
     2
 10
489.7879687702242
 20
346.8245446702441
 40
6.000000000000038
 50
216.9156593450272
 51
230.0760028316361
 73
     0
 72
     1
 10
485.9373434495935
 20
351.4259232289066
 11
486.4749687702242
 21
351.9925446702442
 72
     1
 10
486.4749687702242
 20
351.9925446702442
 11
489.2649687702242
 21
352.8015446702442
 72
     1
 10
489.2649687702242
 20
352.8015446702442
 11
498.8009687702241
 21
353.6355446702442
 72
     1
 10
498.8009687702241
 20
353.6355446702442
 11
500.0649687702241
 21
353.5685446702442
 72
     1
 10
500.0649687702241
 20
353.5685446702442
 11
501.0889687702241
 21
352.7815446702442
 72
     1
 10
501.0889687702241
 20
352.7815446702442
 11
501.4809687702242
 21
351.5795446702441
 72
     1
 10
501.4809687702242
 20
351.5795446702441
 11
503.5689687702241
 21
339.7385446702442
 72
     1
 10
503.5689687702241
 20
339.7385446702442
 11
504.9750350989394
 21
335.8566719574917
 72
     2
 10
515.3869687702242
 20
341.8225446702441
 40
11.99999999999996
 50
209.81202409595
 51
217.0171412452251
 73
     1
 72
     1
 10
505.805503626942
 20
334.597897571038
 11
507.9858577963889
 21
332.3767225062939
 72
     2
 10
515.3869687702241
 20
341.8225446702442
 40
11.99999999999992
 50
231.9201381234406
 51
239.8213543180244
 73
     1
 72
     1
 10
509.3545952451994
 20
331.4489980417001
 11
512.2298341897351
 21
330.245304012787
 72
     2
 10
515.386968770224
 20
341.8225446702442
 40
11.99999999999995
 50
254.7462387580369
 51
262.650771088501
 73
     1
 72
     1
 10
513.8519671241545
 20
329.9211258495085
 11
516.9665526444173
 21
329.9269608348711
 72
     2
 10
515.3869687702243
 20
341.8225446702442
 40
12.0
 50
277.5639089332865
 51
285.4861848334382
 73
     1
 72
     1
 10
518.5910409814141
 20
330.2582063292287
 11
521.4566235597139
 21
331.47076749256
 72
     2
 10
515.3869687702246
 20
341.8225446702444
 40
11.99999999999998
 50
300.3847758080737
 51
308.3091787695109
 73
     1
 72
     1
 10
522.8258257080572
 20
332.4064198060309
 11
524.9989828922736
 21
334.6385914049785
 72
     2
 10
515.3869687702241
 20
341.8225446702441
 40
12.00000000000002
 50
323.2258143347535
 51
330.4212451661813
 73
     1
 72
     1
 10
525.8231050394165
 20
335.8991115634345
 11
527.2039687702241
 21
339.7385446702442
 72
     1
 10
527.2039687702241
 20
339.7385446702442
 11
529.8049687702241
 21
354.4885446702441
 72
     1
 10
529.8049687702241
 20
354.4885446702441
 11
529.8063835349283
 21
354.4911201269211
 97
        0
 75
     0
 76
     0
 52
135.0
 41
2.7
 77
     0
 78
     1
 53
135.0
 43
0.0
 44
0.0
 45
-1.909188309203678
 46
-1.909188309203678
 79
     0
 98
        1
 10
0.0
 20
0.0
1001
GENIUS_GENODEF_13
1002
{
1000
HIER
1070
     0
1002
}
1002
{
1000
MANEDIT
1070
     0
1002
}
1002
{
1000
NOSEL
1070
     0
1002
}
1002
{
1000
BEHIND
1070
     0
1002
}
1002
{
1000
REACTOR
1002
}
1001
GENIUS_GENOBJ-N-HTC_13
1002
{
1000
OWNER
1000
GEN
1002
}
1001
GENIUS_GENHATCH_13
1002
{
1000
DATA
1040
135.0
1042
2.7
1000
_U
1070
     0
1011
525.9820970427774
1021
356.0356235360939
1031
0.0
1002
}
1002
{
1000
UCS
1010
0.0
1020
0.0
1030
0.0
1010
1.0
1020
0.0
1030
0.0
1010
0.0
1020
1.0
1030
0.0
1002
}
  0
HATCH
  5
20CF
330
1D67
100
AcDbEntity
  8
8
100
AcDbHatch
 10
0.0
 20
0.0
 30
0.0
210
0.0
220
0.0
230
1.0
  2
_U
 70
     0
 71
     0
 91
        1
 92
        1
 93
       56
 72
     1
 10
305.5559687702242
 20
414.0035446702442
 11
306.6099687702242
 21
393.9015446702441
 72
     1
 10
306.6099687702242
 20
393.9015446702441
 11
307.0485455412592
 21
391.4512027788303
 72
     2
 10
316.5959687702242
 20
394.4255446702442
 40
10.00000000000003
 50
197.3035595676853
 51
211.01718145776
 73
     1
 72
     1
 10
308.0258406087474
 20
389.2725937393832
 11
308.111380863413
 21
389.1329301885731
 72
     2
 10
316.5959687702242
 20
394.4255446702442
 40
10.00000000000003
 50
211.9555674277695
 51
225.727240907216
 73
     1
 72
     1
 10
309.6152194198986
 20
387.265297571999
 11
311.5959687702242
 21
385.7655446702441
 72
     1
 10
311.5959687702242
 20
385.7655446702441
 11
319.8869687702242
 21
380.9785446702442
 72
     1
 10
319.8869687702242
 20
380.9785446702442
 11
319.8923682393971
 21
380.9745759652293
 72
     2
 10
316.886968770224
 20
375.7815446702442
 40
6.000000000000019
 50
300.0595555484974
 51
312.573528673202
 73
     0
 72
     1
 10
320.9461836416598
 20
380.2000030696767
 11
321.5889687702242
 21
379.7275446702442
 72
     1
 10
321.5889687702242
 20
379.7275446702442
 11
322.6549687702242
 21
377.8815446702441
 72
     1
 10
322.6549687702242
 20
377.8815446702441
 11
322.7458009151491
 21
377.0754093840354
 72
     2
 10
316.8869687702241
 20
375.7815446702439
 40
6.000000000000032
 50
347.5466809178732
 51
359.5958235844629
 73
     0
 72
     1
 10
322.8868194852405
 20
375.8238695744743
 11
322.8869687702241
 21
375.8225446702442
 72
     1
 10
322.8869687702241
 20
375.8225446702442
 11
322.8869687702241
 21
298.4795446702441
 72
     1
 10
322.8869687702241
 20
298.4795446702441
 11
330.5669687702242
 21
298.4795446702441
 72
     1
 10
330.5669687702242
 20
298.4795446702441
 11
330.5669687702242
 21
318.4795446702441
 72
     1
 10
330.5669687702242
 20
318.4795446702441
 11
329.8869687702242
 21
323.4795446702441
 72
     1
 10
329.8869687702242
 20
323.4795446702441
 11
329.8869687702242
 21
376.3595446702441
 72
     1
 10
329.8869687702242
 20
376.3595446702441
 11
329.5215125048664
 21
379.0382695581833
 72
     2
 10
319.8869687702242
 20
376.3595446702441
 40
10.00000000000001
 50
15.5377066754187
 51
26.79876582167703
 73
     1
 72
     1
 10
328.8129240738399
 20
380.8681278088647
 11
328.2569664831165
 21
381.8315770427889
 72
     2
 10
319.8869687702242
 20
376.3595446702441
 40
10.00000000000003
 50
33.17535412308783
 51
44.4769892149663
 73
     1
 72
     1
 10
327.0222876359446
 20
383.3657722346681
 11
324.8869687702241
 21
385.0195446702441
 72
     1
 10
324.8869687702241
 20
385.0195446702441
 11
317.4939687702242
 21
389.2875446702442
 72
     1
 10
317.4939687702242
 20
389.2875446702442
 11
317.4917948048782
 21
389.2896991044572
 72
     2
 10
319.4939687702242
 20
392.7525446702442
 40
4.000000000000008
 50
120.0359636162339
 51
149.4469658676537
 73
     0
 72
     1
 10
316.0493327557261
 20
390.7192019230363
 11
316.0469687702242
 21
390.7215446702442
 72
     1
 10
316.0469687702242
 20
390.7215446702442
 11
316.0460658688764
 21
390.7247464596528
 72
     2
 10
319.4939687702242
 20
392.7525446702441
 40
3.999999999999971
 50
149.5391462623801
 51
178.9640581928399
 73
     0
 72
     1
 10
315.4946225682726
 20
392.6802262290637
 11
315.4939687702242
 21
392.6825446702442
 72
     1
 10
315.4939687702242
 20
392.6825446702442
 11
314.8869687702241
 21
427.4795446702441
 72
     1
 10
314.8869687702241
 20
427.4795446702441
 11
309.0949687702242
 21
427.4795446702441
 72
     1
 10
309.0949687702242
 20
427.4795446702441
 11
308.2919687702242
 21
427.3985446702441
 72
     1
 10
308.2919687702242
 20
427.3985446702441
 11
306.3039687702242
 21
428.0805446702441
 72
     1
 10
306.3039687702242
 20
428.0805446702441
 11
305.4019687702242
 21
428.7185446702442
 72
     1
 10
305.4019687702242
 20
428.7185446702442
 11
304.2449687702242
 21
430.1035446702441
 72
     1
 10
304.2449687702242
 20
430.1035446702441
 11
303.6849687702241
 21
431.391544670244
 72
     1
 10
303.6849687702241
 20
431.391544670244
 11
303.6237790291653
 21
432.4173322394567
 72
     2
 10
309.0949687702241
 20
432.9795446702442
 40
5.49999999999994
 50
174.1329522006014
 51
179.4389848845274
 73
     0
 72
     1
 10
303.595232423447
 20
432.925691945721
 11
303.0379687702242
 21
464.8225446702442
 72
     1
 10
303.0379687702242
 20
464.8225446702442
 11
299.8869687702241
 21
473.4795446702441
 72
     1
 10
299.8869687702241
 20
473.4795446702441
 11
291.8869687702241
 21
473.4795446702441
 72
     1
 10
291.8869687702241
 20
473.4795446702441
 11
289.7939687702242
 21
433.5345446702441
 72
     1
 10
289.7939687702242
 20
433.5345446702441
 11
282.6639687702242
 21
433.5345446702441
 72
     1
 10
282.6639687702242
 20
433.5345446702441
 11
280.4139687702242
 21
423.4795446702441
 72
     1
 10
280.4139687702242
 20
423.4795446702441
 11
295.5699687702241
 21
423.4795446702441
 72
     2
 10
295.5699687702241
 20
413.4795446702441
 40
10.0
 50
270.0
 51
287.6412726152173
 73
     0
 72
     1
 10
298.6005331351493
 20
423.0092707749149
 11
299.3269687702242
 21
422.896544670244
 72
     1
 10
299.3269687702242
 20
422.896544670244
 11
300.154161007157
 21
422.3669054446723
 72
     2
 10
295.569968770224
 20
413.4795446702442
 40
9.999999999999968
 50
297.2851498494211
 51
307.9765456293531
 73
     0
 72
     1
 10
301.7233572384959
 20
421.3621717931353
 11
302.5489687702242
 21
420.8335446702442
 72
     1
 10
302.5489687702242
 20
420.8335446702442
 11
303.1198302529998
 21
420.0369520535702
 72
     2
 10
295.5699687702244
 20
413.4795446702439
 40
9.999999999999982
 50
319.0241594524509
 51
329.7228669704026
 73
     0
 72
     1
 10
304.2059371781551
 20
418.5213746611522
 11
304.7769687702242
 21
417.7245446702441
 72
     1
 10
304.7769687702242
 20
417.7245446702441
 11
305.5559687702242
 21
414.0035446702442
 97
        0
 75
     0
 76
     0
 52
135.0
 41
2.7
 77
     0
 78
     1
 53
135.0
 43
0.0
 44
0.0
 45
-1.909188309203678
 46
-1.909188309203678
 79
     0
 98
        1
 10
0.0
 20
0.0
1001
GENIUS_GENODEF_13
1002
{
1000
HIER
1070
     0
1002
}
1002
{
1000
MANEDIT
1070
     0
1002
}
1002
{
1000
NOSEL
1070
     0
1002
}
1002
{
1000
BEHIND
1070
     0
1002
}
1002
{
1000
REACTOR
1002
}
1001
GENIUS_GENOBJ-N-HTC_13
1002
{
1000
OWNER
1000
GEN
1002
}
1001
GENIUS_GENHATCH_13
1002
{
1000
DATA
1040
135.0
1042
2.7
1000
_U
1070
     0
1011
312.1564110353677
1021
420.8944139258083
1031
0.0
1002
}
1002
{
1000
UCS
1010
0.0
1020
0.0
1030
0.0
1010
1.0
1020
0.0
1030
0.0
1010
0.0
1020
1.0
1030
0.0
1002
}
  0
HATCH
  5
211A
330
1D67
100
AcDbEntity
  8
8
100
AcDbHatch
 10
0.0
 20
0.0
 30
0.0
210
0.0
220
0.0
230
1.0
  2
_U
 70
     0
 71
     0
 91
        1
 92
        1
 93
       71
 72
     1
 10
475.9969687702242
 20
417.7245446702441
 11
476.5680003622926
 21
418.521374661151
 72
     2
 10
485.2039687702243
 20
413.4795446702443
 40
9.999999999999989
 50
210.2771330295873
 51
220.9758405475512
 73
     0
 72
     1
 10
477.654107287449
 20
420.0369520535709
 11
478.2249687702242
 21
420.8335446702442
 72
     1
 10
478.2249687702242
 20
420.8335446702442
 11
479.0505803019518
 21
421.3621717931348
 72
     2
 10
485.2039687702241
 20
413.4795446702441
 40
9.999999999999953
 50
232.0234543706428
 51
242.7148501505847
 73
     0
 72
     1
 10
480.6197765332921
 20
422.3669054446727
 11
481.4469687702241
 21
422.896544670244
 72
     1
 10
481.4469687702241
 20
422.896544670244
 11
482.1734044052989
 21
423.0092707749149
 72
     2
 10
485.2039687702241
 20
413.4795446702441
 40
10.0
 50
252.3587273847827
 51
270.0
 73
     0
 72
     1
 10
485.2039687702241
 20
423.4795446702441
 11
500.3599687702242
 21
423.4795446702441
 72
     1
 10
500.3599687702242
 20
423.4795446702441
 11
498.1099687702242
 21
433.5345446702441
 72
     1
 10
498.1099687702242
 20
433.5345446702441
 11
490.9799687702242
 21
433.5345446702441
 72
     1
 10
490.9799687702242
 20
433.5345446702441
 11
488.8869687702242
 21
473.4795446702441
 72
     1
 10
488.8869687702242
 20
473.4795446702441
 11
480.8869687702242
 21
473.4795446702441
 72
     1
 10
480.8869687702242
 20
473.4795446702441
 11
477.7359687702242
 21
464.8225446702442
 72
     1
 10
477.7359687702242
 20
464.8225446702442
 11
477.1787051170012
 21
432.9256919457136
 72
     2
 10
471.6789687702242
 20
432.9795446702441
 40
5.500000000000013
 50
0.5610151155484158
 51
10.08995180585466
 73
     0
 72
     1
 10
477.0939053280866
 20
432.0159773013877
 11
477.0749687702241
 21
431.8205446702441
 72
     1
 10
477.0749687702241
 20
431.8205446702441
 11
477.0599687702241
 21
431.7515446702441
 72
     1
 10
477.0599687702241
 20
431.7515446702441
 11
476.9653253030455
 21
431.4615082385677
 72
     2
 10
471.678968770224
 20
432.9795446702436
 40
5.499999999999948
 50
16.0220113534522
 51
20.12263294445116
 73
     0
 72
     1
 10
476.8432401164336
 20
431.0873762150793
 11
476.7499687702241
 21
430.8015446702441
 72
     1
 10
476.7499687702241
 20
430.8015446702441
 11
476.6509687702241
 21
430.5855446702441
 72
     1
 10
476.6509687702241
 20
430.5855446702441
 11
476.6350647594059
 21
430.5580082294509
 72
     1
 10
476.6350647594059
 20
430.5580082294509
 11
476.5289687702241
 21
430.1035446702441
 72
     1
 10
476.5289687702241
 20
430.1035446702441
 11
476.0998586180368
 21
429.6819371724903
 72
     1
 10
476.0998586180368
 20
429.6819371724903
 11
475.9939687702241
 21
429.5385446702441
 72
     1
 10
475.9939687702241
 20
429.5385446702441
 11
475.5469687702242
 21
429.0435446702441
 72
     1
 10
475.5469687702242
 20
429.0435446702441
 11
475.1199687702242
 21
428.6655446702441
 72
     1
 10
475.1199687702242
 20
428.6655446702441
 11
474.9109376722614
 21
428.5138035769082
 72
     1
 10
474.9109376722614
 20
428.5138035769082
 11
474.4699687702242
 21
428.0805446702441
 72
     1
 10
474.4699687702242
 20
428.0805446702441
 11
474.0219687702242
 21
427.8505446702441
 72
     1
 10
474.0219687702242
 20
427.8505446702441
 11
473.3781495481827
 21
427.7485997571509
 72
     2
 10
471.6789687702252
 20
432.9795446702445
 40
5.500000000000022
 50
72.0045203614184
 51
73.03677700879704
 73
     0
 72
     1
 10
473.2836367348002
 20
427.7188374246864
 11
472.9069687702242
 21
427.5995446702441
 72
     1
 10
472.9069687702242
 20
427.5995446702441
 11
472.7439687702242
 21
427.5645446702442
 72
     1
 10
472.7439687702242
 20
427.5645446702442
 11
472.5513460097002
 21
427.5491710226906
 72
     2
 10
471.6789687702242
 20
432.9795446702441
 40
5.499999999999995
 50
80.87354049152471
 51
89.99999999999884
 73
     0
 72
     1
 10
471.6789687702243
 20
427.4795446702441
 11
470.8769687702242
 21
427.3985446702441
 72
     1
 10
470.8769687702242
 20
427.3985446702441
 11
465.8869687702242
 21
427.4795446702441
 72
     1
 10
465.8869687702242
 20
427.4795446702441
 11
465.2799687702241
 21
392.6825446702442
 72
     1
 10
465.2799687702241
 20
392.6825446702442
 11
465.2793149721758
 21
392.6802262290637
 72
     2
 10
461.2799687702241
 20
392.7525446702441
 40
3.999999999999984
 50
1.035941807160039
 51
30.46085373761987
 73
     0
 72
     1
 10
464.7278716715719
 20
390.7247464596528
 11
464.7269687702241
 21
390.7215446702442
 72
     1
 10
464.7269687702241
 20
390.7215446702442
 11
464.7246047847223
 21
390.7192019230363
 72
     2
 10
461.2799687702242
 20
392.7525446702442
 40
4.0
 50
30.55303413234631
 51
59.96403638376605
 73
     0
 72
     1
 10
463.2821427355702
 20
389.2896991044572
 11
463.2799687702242
 21
389.2875446702442
 72
     1
 10
463.2799687702242
 20
389.2875446702442
 11
455.8869687702242
 21
385.0195446702441
 72
     1
 10
455.8869687702242
 20
385.0195446702441
 11
453.7491996891452
 21
383.3632760004132
 72
     2
 10
460.8869687702241
 20
376.359544670244
 40
9.99999999999998
 50
135.5430518142142
 51
146.7662732894228
 73
     1
 72
     1
 10
452.5225502730471
 20
381.84010150364
 11
451.9586389884913
 21
380.8634238103433
 72
     2
 10
460.8869687702243
 20
376.3595446702441
 40
10.00000000000001
 50
153.2314251666025
 51
164.4622933245813
 73
     1
 72
     1
 10
451.2524250355819
 20
379.0382695581833
 11
450.8869687702242
 21
376.3595446702441
 72
     1
 10
450.8869687702242
 20
376.3595446702441
 11
450.8869687702242
 21
323.4795446702441
 72
     1
 10
450.8869687702242
 20
323.4795446702441
 11
450.2069687702242
 21
318.4795446702441
 72
     1
 10
450.2069687702242
 20
318.4795446702441
 11
450.2069687702242
 21
298.4795446702441
 72
     1
 10
450.2069687702242
 20
298.4795446702441
 11
457.8869687702242
 21
298.4795446702441
 72
     1
 10
457.8869687702242
 20
298.4795446702441
 11
457.8869687702242
 21
375.8225446702442
 72
     1
 10
457.8869687702242
 20
375.8225446702442
 11
457.8871180552079
 21
375.8238695744743
 72
     2
 10
463.8869687702242
 20
375.7815446702439
 40
6.000000000000027
 50
180.4041764155371
 51
192.4533190821267
 73
     0
 72
     1
 10
458.0281366252993
 20
377.0754093840354
 11
458.1189687702241
 21
377.8815446702441
 72
     1
 10
458.1189687702241
 20
377.8815446702441
 11
459.1849687702241
 21
379.7275446702442
 72
     1
 10
459.1849687702241
 20
379.7275446702442
 11
459.8277538987885
 21
380.2000030696766
 72
     2
 10
463.8869687702244
 20
375.7815446702442
 40
6.000000000000018
 50
227.4264713267972
 51
239.9404444515057
 73
     0
 72
     1
 10
460.8815693010515
 20
380.9745759652295
 11
460.8869687702243
 21
380.9785446702442
 72
     1
 10
460.8869687702243
 20
380.9785446702442
 11
469.1779687702242
 21
385.7655446702441
 72
     1
 10
469.1779687702242
 20
385.7655446702441
 11
471.1587181205501
 21
387.2652975719993
 72
     2
 10
464.1779687702242
 20
394.4255446702441
 40
9.999999999999978
 50
314.2727590927874
 51
342.7418594927831
 73
     1
 72
     1
 10
473.7277467961281
 20
391.4587720709436
 11
474.1639219168826
 21
393.895695868469
 72
     1
 10
474.1639219168826
 20
393.895695868469
 11
474.1649687702241
 21
393.9015446702441
 72
     1
 10
474.1649687702241
 20
393.9015446702441
 11
475.2179687702241
 21
414.0035446702442
 72
     1
 10
475.2179687702241
 20
414.0035446702442
 11
475.9969687702242
 21
417.7245446702441
 97
        0
 75
     0
 76
     0
 52
135.0
 41
2.7
 77
     0
 78
     1
 53
135.0
 43
0.0
 44
0.0
 45
-1.909188309203678
 46
-1.909188309203678
 79
     0
 98
        1
 10
0.0
 20
0.0
1001
GENIUS_GENODEF_13
1002
{
1000
HIER
1070
     0
1002
}
1002
{
1000
MANEDIT
1070
     0
1002
}
1002
{
1000
NOSEL
1070
     0
1002
}
1002
{
1000
BEHIND
1070
     0
1002
}
1002
{
1000
REACTOR
1002
}
1001
GENIUS_GENOBJ-N-HTC_13
1002
{
1000
OWNER
1000
GEN
1002
}
1001
GENIUS_GENHATCH_13
1002
{
1000
DATA
1040
135.0
1042
2.7
1000
_U
1070
     0
1011
485.8125317249139
1021
429.5422519022001
1031
0.0
1002
}
1002
{
1000
UCS
1010
0.0
1020
0.0
1030
0.0
1010
1.0
1020
0.0
1030
0.0
1010
0.0
1020
1.0
1030
0.0
1002
}
  0
HATCH
  5
2122
330
1D67
100
AcDbEntity
  8
8
100
AcDbHatch
 10
0.0
 20
0.0
 30
0.0
210
0.0
220
0.0
230
1.0
  2
_U
 70
     0
 71
     0
 91
        1
 92
        1
 93
        4
 72
     1
 10
520.3869687702242
 20
423.4795446702441
 11
519.8639687702242
 21
433.4665446702441
 72
     1
 10
519.8639687702242
 20
433.4665446702441
 11
511.6099687702241
 21
433.5345446702441
 72
     1
 10
511.6099687702241
 20
433.5345446702441
 11
509.3599687702242
 21
423.4795446702441
 72
     1
 10
509.3599687702242
 20
423.4795446702441
 11
520.3869687702242
 21
423.4795446702441
 97
        0
 75
     0
 76
     0
 52
135.0
 41
2.7
 77
     0
 78
     1
 53
135.0
 43
0.0
 44
0.0
 45
-1.909188309203678
 46
-1.909188309203678
 79
     0
 98
        1
 10
0.0
 20
0.0
1001
GENIUS_GENODEF_13
1002
{
1000
HIER
1070
     0
1002
}
1002
{
1000
MANEDIT
1070
     0
1002
}
1002
{
1000
NOSEL
1070
     0
1002
}
1002
{
1000
BEHIND
1070
     0
1002
}
1002
{
1000
REACTOR
1002
}
1001
GENIUS_GENOBJ-N-HTC_13
1002
{
1000
OWNER
1000
GEN
1002
}
1001
GENIUS_GENHATCH_13
1002
{
1000
DATA
1040
135.0
1042
2.7
1000
_U
1070
     0
1011
514.8582172701515
1021
428.3068459468323
1031
0.0
1002
}
1002
{
1000
UCS
1010
0.0
1020
0.0
1030
0.0
1010
1.0
1020
0.0
1030
0.0
1010
0.0
1020
1.0
1030
0.0
1002
}
  0
HATCH
  5
212A
330
1D67
100
AcDbEntity
  8
8
100
AcDbHatch
 10
0.0
 20
0.0
 30
0.0
210
0.0
220
0.0
230
1.0
  2
_U
 70
     0
 71
     0
 91
        1
 92
        1
 93
        4
 72
     1
 10
269.1639687702242
 20
433.5345446702441
 11
260.9099687702242
 21
433.4665446702441
 72
     1
 10
260.9099687702242
 20
433.4665446702441
 11
260.3869687702241
 21
423.4795446702441
 72
     1
 10
260.3869687702241
 20
423.4795446702441
 11
271.4139687702242
 21
423.4795446702441
 72
     1
 10
271.4139687702242
 20
423.4795446702441
 11
269.1639687702242
 21
433.5345446702441
 97
        0
 75
     0
 76
     0
 52
135.0
 41
2.7
 77
     0
 78
     1
 53
135.0
 43
0.0
 44
0.0
 45
-1.909188309203678
 46
-1.909188309203678
 79
     0
 98
        1
 10
0.0
 20
0.0
1001
GENIUS_GENODEF_13
1002
{
1000
HIER
1070
     0
1002
}
1002
{
1000
MANEDIT
1070
     0
1002
}
1002
{
1000
NOSEL
1070
     0
1002
}
1002
{
1000
BEHIND
1070
     0
1002
}
1002
{
1000
REACTOR
1002
}
1001
GENIUS_GENOBJ-N-HTC_13
1002
{
1000
OWNER
1000
GEN
1002
}
1001
GENIUS_GENHATCH_13
1002
{
1000
DATA
1040
135.0
1042
2.7
1000
_U
1070
     0
1011
266.4249048812747
1021
427.0714412285253
1031
0.0
1002
}
1002
{
1000
UCS
1010
0.0
1020
0.0
1030
0.0
1010
1.0
1020
0.0
1030
0.0
1010
0.0
1020
1.0
1030
0.0
1002
}
  0
ENDSEC
  0
SECTION
  2
OBJECTS
  0
DICTIONARY
  5
1D5B
330
0
100
AcDbDictionary
281
     1
  3
ACAD_COLOR
350
2221
  3
ACAD_GROUP
350
1D5C
  3
ACAD_LAYOUT
350
2224
  3
ACAD_MATERIAL
350
2220
  3
ACAD_MLINESTYLE
350
1D6A
  3
ACAD_PLOTSETTINGS
350
2225
  3
ACAD_PLOTSTYLENAME
350
221E
  3
ACAD_TABLESTYLE
350
2222
  3
ACDBHEADERROUNDTRIPXREC
350
231F
  3
AcDbVariableDictionary
350
22FF
  3
AcmDictionary
350
2285
  3
AMG
350
222B
  3
AMGSNAPSETTINGS
350
22F7
  0
DICTIONARY
  5
2221
102
{ACAD_REACTORS
330
1D5B
102
}
330
1D5B
100
AcDbDictionary
281
     1
  0
DICTIONARY
  5
1D5C
102
{ACAD_REACTORS
330
1D5B
102
}
330
1D5B
100
AcDbDictionary
281
     1
  0
DICTIONARY
  5
2224
102
{ACAD_REACTORS
330
1D5B
102
}
330
1D5B
100
AcDbDictionary
281
     1
  3
Layout1
350
2227
  3
Model
350
2226
  0
DICTIONARY
  5
2220
102
{ACAD_REACTORS
330
1D5B
102
}
330
1D5B
100
AcDbDictionary
281
     1
  0
DICTIONARY
  5
1D6A
102
{ACAD_REACTORS
330
1D5B
102
}
330
1D5B
100
AcDbDictionary
281
     1
  3
STANDARD
350
1D6B
  0
DICTIONARY
  5
2225
102
{ACAD_REACTORS
330
1D5B
102
}
330
1D5B
100
AcDbDictionary
281
     1
  0
ACDBDICTIONARYWDFLT
  5
221E
102
{ACAD_REACTORS
330
1D5B
102
}
330
1D5B
100
AcDbDictionary
281
     1
  3
Normal
350
221F
100
AcDbDictionaryWithDefault
340
221F
  0
DICTIONARY
  5
2222
102
{ACAD_REACTORS
330
1D5B
102
}
330
1D5B
100
AcDbDictionary
281
     1
  3
Standard
350
2223
  0
DICTIONARY
  5
231F
102
{ACAD_REACTORS
330
1D5B
102
}
330
1D5B
100
AcDbDictionary
281
     1
  0
DICTIONARY
  5
22FF
102
{ACAD_REACTORS
330
1D5B
102
}
330
1D5B
100
AcDbDictionary
281
     1
  3
CTABLESTYLE
350
2300
  3
DIMASSOC
350
231C
  3
PROJECTNAME
350
231D
  0
DICTIONARY
  5
2285
102
{ACAD_REACTORS
330
1D5B
102
}
330
1D5B
100
AcDbDictionary
281
     1
  3
AcmStdDictionary
350
2290
  3
AMDTSECTSYM_ARROWCOLOR
350
22B3
  0
DICTIONARY
  5
222B
102
{ACAD_REACTORS
330
1D5B
102
}
330
1D5B
100
AcDbDictionary
281
     1
  0
DICTIONARY
  5
22F7
102
{ACAD_REACTORS
330
1D5B
102
}
330
1D5B
100
AcDbDictionary
281
     1
  0
LAYOUT
  5
2227
102
{ACAD_XDICTIONARY
360
2322
102
}
102
{ACAD_REACTORS
330
2224
102
}
330
2224
100
AcDbPlotSettings
  1

  2
Xerox Document Centre CS50 PS
  4

  6

 40
0.0
 41
0.0
 42
0.0
 43
0.0
 44
0.0
 45
0.0
 46
0.0
 47
0.0
 48
0.0
 49
0.0
140
0.0
141
0.0
142
1.0
143
1.0
 70
   688
 72
     0
 73
     0
 74
     5
  7

 75
    16
147
1.0
148
0.0
149
0.0
100
AcDbLayout
  1
Layout1
 70
     1
 71
     1
 10
0.0
 20
0.0
 11
209.9
 21
296.9
 12
0.0
 22
0.0
 32
0.0
 14
0.0
 24
0.0
 34
0.0
 15
209.9
 25
296.9
 35
0.0
146
0.0
 13
0.0
 23
0.0
 33
0.0
 16
1.0
 26
0.0
 36
0.0
 17
0.0
 27
1.0
 37
0.0
 76
     0
330
1D64
  0
LAYOUT
  5
2226
102
{ACAD_XDICTIONARY
360
2320
102
}
102
{ACAD_REACTORS
330
2224
102
}
330
2224
100
AcDbPlotSettings
  1

  2
Xerox Document Centre CS50 PS
  4

  6

 40
0.0
 41
0.0
 42
0.0
 43
0.0
 44
0.0
 45
0.0
 46
0.0
 47
0.0
 48
0.0
 49
0.0
140
0.0
141
0.0
142
1.0
143
1.0
 70
  1712
 72
     0
 73
     0
 74
     0
  7

 75
     0
147
1.0
148
0.0
149
0.0
100
AcDbLayout
  1
Model
 70
     1
 71
     0
 10
0.0
 20
0.0
 11
12.0
 21
9.0
 12
0.0
 22
0.0
 32
0.0
 14
0.0
 24
0.0
 34
0.0
 15
0.0
 25
0.0
 35
0.0
146
0.0
 13
0.0
 23
0.0
 33
0.0
 16
1.0
 26
0.0
 36
0.0
 17
0.0
 27
1.0
 37
0.0
 76
     0
330
1D67
  0
MLINESTYLE
  5
1D6B
102
{ACAD_REACTORS
330
1D6A
102
}
330
1D6A
100
AcDbMlineStyle
  2
STANDARD
 70
     0
  3

 62
   256
 51
90.0
 52
90.0
 71
     2
 49
0.5
 62
   256
  6
BYLAYER
 49
-0.5
 62
   256
  6
BYLAYER
  0
ACDBPLACEHOLDER
  5
221F
102
{ACAD_REACTORS
330
221E
102
}
330
221E
  0
TABLESTYLE
  5
2223
102
{ACAD_REACTORS
330
2222
102
}
330
2222
100
AcDbTableStyle
  3
Standard
 70
     0
 71
     0
 40
1.5
 41
1.5
280
     0
281
     0
  7
STANDARD
140
4.5
170
     2
 62
     0
 63
     7
283
     0
274
    -2
284
     1
 64
     0
275
    -2
285
     1
 65
     0
276
    -2
286
     1
 66
     0
277
    -2
287
     1
 67
     0
278
    -2
288
     1
 68
     0
279
    -2
289
     1
 69
     0
  7
STANDARD
140
6.0
170
     5
 62
     0
 63
     7
283
     0
274
    -2
284
     1
 64
     0
275
    -2
285
     1
 65
     0
276
    -2
286
     1
 66
     0
277
    -2
287
     1
 67
     0
278
    -2
288
     1
 68
     0
279
    -2
289
     1
 69
     0
  7
STANDARD
140
4.5
170
     5
 62
     0
 63
     7
283
     0
274
    -2
284
     1
 64
     0
275
    -2
285
     1
 65
     0
276
    -2
286
     1
 66
     0
277
    -2
287
     1
 67
     0
278
    -2
288
     1
 68
     0
279
    -2
289
     1
 69
     0
  0
DICTIONARYVAR
  5
2300
102
{ACAD_REACTORS
330
22FF
102
}
330
22FF
100
DictionaryVariables
280
     0
  1
STANDARD
  0
DICTIONARYVAR
  5
231C
102
{ACAD_REACTORS
330
22FF
102
}
330
22FF
100
DictionaryVariables
280
     0
  1
1
  0
DICTIONARYVAR
  5
231D
102
{ACAD_REACTORS
330
22FF
102
}
330
22FF
100
DictionaryVariables
280
     0
  1

  0
DICTIONARY
  5
2290
102
{ACAD_REACTORS
330
2285
102
}
330
2285
100
AcDbDictionary
281
     1
  0
XRECORD
  5
22B3
102
{ACAD_REACTORS
330
2285
102
}
330
2285
100
AcDbXrecord
280
     1
 90
-1023410169
  0
DICTIONARY
  5
2322
330
2227
100
AcDbDictionary
280
     1
281
     1
  3
ACAD_XREC_ROUNDTRIP
360
2323
  0
DICTIONARY
  5
2320
330
2226
100
AcDbDictionary
280
     1
281
     1
  3
ACAD_XREC_ROUNDTRIP
360
2321
  0
XRECORD
  5
2323
102
{ACAD_REACTORS
330
2322
102
}
330
2322
100
AcDbXrecord
280
     1
102
SHADEPLOT
 70
     0
102
SHADEPLOTRESLEVEL
 70
     2
102
SHADEPLOTCUSTOMDPI
 70
   300
  0
XRECORD
  5
2321
102
{ACAD_REACTORS
330
2320
102
}
330
2320
100
AcDbXrecord
280
     1
102
SHADEPLOT
 70
     0
102
SHADEPLOTRESLEVEL
 70
     2
102
SHADEPLOTCUSTOMDPI
 70
   300
  0
ENDSEC
  0
EOF
