  0
SECTION
  2
HEADER
  9
$ACADVER
  1
AC1015
  9
$ACADMAINTVER
 70
    20
  9
$DWGCODEPAGE
  3
ANSI_1252
  9
$INSBASE
 10
0.0
 20
0.0
 30
0.0
  9
$EXTMIN
 10
-600.8468610477248
 20
-47.21603154579179
 30
-0.0015258207003583
  9
$EXTMAX
 10
-166.0972584924861
 20
531.6490191752659
 30
0.0000000349246037
  9
$LIMMIN
 10
0.0
 20
0.0
  9
$LIMMAX
 10
1050.0
 20
1050.0
  9
$ORTHOMODE
 70
     0
  9
$REGENMODE
 70
     1
  9
$FILLMODE
 70
     1
  9
$QTEXTMODE
 70
     0
  9
$MIRRTEXT
 70
     0
  9
$LTSCALE
 40
5.0
  9
$ATTMODE
 70
     1
  9
$TEXTSIZE
 40
17.5
  9
$TRACEWID
 40
0.05
  9
$TEXTSTYLE
  7
STANDARD
  9
$CLAYER
  8
0
  9
$CELTYPE
  6
BYLAYER
  9
$CECOLOR
 62
   256
  9
$CELTSCALE
 40
1.0
  9
$DISPSILH
 70
     0
  9
$DIMSCALE
 40
5.0
  9
$DIMASZ
 40
2.5
  9
$DIMEXO
 40
1.0
  9
$DIMDLI
 40
7.0
  9
$DIMRND
 40
0.0
  9
$DIMDLE
 40
0.0
  9
$DIMEXE
 40
1.0
  9
$DIMTP
 40
0.1
  9
$DIMTM
 40
0.1
  9
$DIMTXT
 40
3.5
  9
$DIMCEN
 40
0.0
  9
$DIMTSZ
 40
0.0
  9
$DIMTOL
 70
     0
  9
$DIMLIM
 70
     0
  9
$DIMTIH
 70
     0
  9
$DIMTOH
 70
     0
  9
$DIMSE1
 70
     0
  9
$DIMSE2
 70
     0
  9
$DIMTAD
 70
     1
  9
$DIMZIN
 70
    12
  9
$DIMBLK
  1

  9
$DIMASO
 70
     1
  9
$DIMSHO
 70
     1
  9
$DIMPOST
  1

  9
$DIMAPOST
  1
"
  9
$DIMALT
 70
     0
  9
$DIMALTD
 70
     2
  9
$DIMALTF
 40
0.03937
  9
$DIMLFAC
 40
1.0
  9
$DIMTOFL
 70
     1
  9
$DIMTVP
 40
0.0
  9
$DIMTIX
 70
     0
  9
$DIMSOXD
 70
     0
  9
$DIMSAH
 70
     0
  9
$DIMBLK1
  1

  9
$DIMBLK2
  1

  9
$DIMSTYLE
  2
GEN-ISO
  9
$DIMCLRD
 70
   256
  9
$DIMCLRE
 70
   256
  9
$DIMCLRT
 70
     2
  9
$DIMTFAC
 40
0.71
  9
$DIMGAP
 40
0.6
  9
$DIMJUST
 70
     0
  9
$DIMSD1
 70
     0
  9
$DIMSD2
 70
     0
  9
$DIMTOLJ
 70
     0
  9
$DIMTZIN
 70
     0
  9
$DIMALTZ
 70
     0
  9
$DIMALTTZ
 70
     0
  9
$DIMUPT
 70
     0
  9
$DIMDEC
 70
     2
  9
$DIMTDEC
 70
     3
  9
$DIMALTU
 70
     2
  9
$DIMALTTD
 70
     4
  9
$DIMTXSTY
  7
STANDARD
  9
$DIMAUNIT
 70
     0
  9
$DIMADEC
 70
     0
  9
$DIMALTRND
 40
0.0
  9
$DIMAZIN
 70
     0
  9
$DIMDSEP
 70
    46
  9
$DIMATFIT
 70
     3
  9
$DIMFRAC
 70
     0
  9
$DIMLDRBLK
  1

  9
$DIMLUNIT
 70
     2
  9
$DIMLWD
 70
    -2
  9
$DIMLWE
 70
    -2
  9
$DIMTMOVE
 70
     0
  9
$LUNITS
 70
     2
  9
$LUPREC
 70
     2
  9
$SKETCHINC
 40
0.1
  9
$FILLETRAD
 40
0.000005
  9
$AUNITS
 70
     0
  9
$AUPREC
 70
     2
  9
$MENU
  1
.
  9
$ELEVATION
 40
0.0
  9
$PELEVATION
 40
0.0
  9
$THICKNESS
 40
0.0
  9
$LIMCHECK
 70
     0
  9
$CHAMFERA
 40
12.5
  9
$CHAMFERB
 40
12.5
  9
$CHAMFERC
 40
0.0
  9
$CHAMFERD
 40
0.0
  9
$SKPOLY
 70
     0
  9
$TDCREATE
 40
2451421.460304421
  9
$TDUCREATE
 40
2451421.418637755
  9
$TDUPDATE
 40
2454088.867180150
  9
$TDUUPDATE
 40
2454088.825513484
  9
$TDINDWG
 40
0.1882453472
  9
$TDUSRTIMER
 40
0.1882453472
  9
$USRTIMER
 70
     1
  9
$ANGBASE
 50
0.0
  9
$ANGDIR
 70
     0
  9
$PDMODE
 70
     0
  9
$PDSIZE
 40
0.0
  9
$PLINEWID
 40
0.0
  9
$SPLFRAME
 70
     0
  9
$SPLINETYPE
 70
     6
  9
$SPLINESEGS
 70
     8
  9
$HANDSEED
  5
1CC1
  9
$SURFTAB1
 70
     6
  9
$SURFTAB2
 70
     6
  9
$SURFTYPE
 70
     6
  9
$SURFU
 70
     6
  9
$SURFV
 70
     6
  9
$UCSBASE
  2

  9
$UCSNAME
  2

  9
$UCSORG
 10
0.0
 20
0.0
 30
0.0
  9
$UCSXDIR
 10
1.0
 20
0.0
 30
0.0
  9
$UCSYDIR
 10
0.0
 20
1.0
 30
0.0
  9
$UCSORTHOREF
  2

  9
$UCSORTHOVIEW
 70
     0
  9
$UCSORGTOP
 10
0.0
 20
0.0
 30
0.0
  9
$UCSORGBOTTOM
 10
0.0
 20
0.0
 30
0.0
  9
$UCSORGLEFT
 10
0.0
 20
0.0
 30
0.0
  9
$UCSORGRIGHT
 10
0.0
 20
0.0
 30
0.0
  9
$UCSORGFRONT
 10
0.0
 20
0.0
 30
0.0
  9
$UCSORGBACK
 10
0.0
 20
0.0
 30
0.0
  9
$PUCSBASE
  2

  9
$PUCSNAME
  2

  9
$PUCSORG
 10
0.0
 20
0.0
 30
0.0
  9
$PUCSXDIR
 10
1.0
 20
0.0
 30
0.0
  9
$PUCSYDIR
 10
0.0
 20
1.0
 30
0.0
  9
$PUCSORTHOREF
  2

  9
$PUCSORTHOVIEW
 70
     0
  9
$PUCSORGTOP
 10
0.0
 20
0.0
 30
0.0
  9
$PUCSORGBOTTOM
 10
0.0
 20
0.0
 30
0.0
  9
$PUCSORGLEFT
 10
0.0
 20
0.0
 30
0.0
  9
$PUCSORGRIGHT
 10
0.0
 20
0.0
 30
0.0
  9
$PUCSORGFRONT
 10
0.0
 20
0.0
 30
0.0
  9
$PUCSORGBACK
 10
0.0
 20
0.0
 30
0.0
  9
$USERI1
 70
     0
  9
$USERI2
 70
     0
  9
$USERI3
 70
     0
  9
$USERI4
 70
     0
  9
$USERI5
 70
     0
  9
$USERR1
 40
0.0
  9
$USERR2
 40
0.0
  9
$USERR3
 40
0.0
  9
$USERR4
 40
0.0
  9
$USERR5
 40
0.0
  9
$WORLDVIEW
 70
     1
  9
$SHADEDGE
 70
     3
  9
$SHADEDIF
 70
    70
  9
$TILEMODE
 70
     1
  9
$MAXACTVP
 70
    48
  9
$PINSBASE
 10
0.0
 20
0.0
 30
0.0
  9
$PLIMCHECK
 70
     0
  9
$PEXTMIN
 10
0.0
 20
0.0
 30
0.0
  9
$PEXTMAX
 10
144.737
 20
293.6479999999999
 30
0.0
  9
$PLIMMIN
 10
0.0
 20
0.0
  9
$PLIMMAX
 10
144.737
 20
293.6479999999999
  9
$UNITMODE
 70
     0
  9
$VISRETAIN
 70
     1
  9
$PLINEGEN
 70
     1
  9
$PSLTSCALE
 70
     1
  9
$TREEDEPTH
 70
 -3020
  9
$CMLSTYLE
  2
STANDARD
  9
$CMLJUST
 70
     0
  9
$CMLSCALE
 40
1.0
  9
$PROXYGRAPHICS
 70
     1
  9
$MEASUREMENT
 70
     1
  9
$CELWEIGHT
370
    -1
  9
$ENDCAPS
280
     0
  9
$JOINSTYLE
280
     0
  9
$LWDISPLAY
290
     0
  9
$INSUNITS
 70
     0
  9
$HYPERLINKBASE
  1

  9
$STYLESHEET
  1

  9
$XEDIT
290
     1
  9
$CEPSNTYPE
380
     0
  9
$PSTYLEMODE
290
     1
  9
$FINGERPRINTGUID
  2
{3CDCF838-95BE-44D8-8DEC-639C454842E9}
  9
$VERSIONGUID
  2
{40AC1CA6-5089-4265-85A0-ECFC1013577B}
  9
$EXTNAMES
290
     1
  9
$PSVPSCALE
 40
0.0
  9
$OLESTARTUP
290
     0
  0
ENDSEC
  0
SECTION
  2
CLASSES
  0
CLASS
  1
DICTIONARYVAR
  2
AcDbDictionaryVar
  3
ObjectDBX Classes
 90
        0
280
     0
281
     0
  0
CLASS
  1
ACDBDICTIONARYWDFLT
  2
AcDbDictionaryWithDefault
  3
ObjectDBX Classes
 90
        0
280
     0
281
     0
  0
CLASS
  1
TABLESTYLE
  2
AcDbTableStyle
  3
ObjectDBX Classes
 90
     2047
280
     0
281
     0
  0
CLASS
  1
AMGSETTINGSOBJ
  2
AmgSettingsObj
  3
"AcadM|Product Description: AutoCAD Mechanical 2000|Company: Autodesk"
 90
        0
280
     0
281
     0
  0
CLASS
  1
ACME_DOCUMENT
  2
AcMeDbDoc
  3
AcMeServices
 90
        0
280
     0
281
     0
  0
CLASS
  1
ACMESCOPE
  2
AcMeScope
  3
AcMeServices
 90
        0
280
     0
281
     0
  0
CLASS
  1
ACMECOMMANDHISTORY
  2
AcMeCommandHistory
  3
AcMeServices
 90
        0
280
     0
281
     0
  0
CLASS
  1
ACIMSYSVARMAN
  2
AcImSysVarManager
  3
AcMeServices
 90
        0
280
     0
281
     0
  0
CLASS
  1
ACIMINTSYSVAR
  2
AcImIntSysVar
  3
AcMeServices
 90
        0
280
     0
281
     0
  0
CLASS
  1
ACMEDRAWINGMAN
  2
AcMeDrawingMan
  3
AcMeServices
 90
        0
280
     0
281
     0
  0
CLASS
  1
ACMEVIEW
  2
AcMeView
  3
AcMeServices
 90
        0
280
     0
281
     0
  0
CLASS
  1
ACDBENTITYCACHE
  2
AcMeEntityCache
  3
AcMeServices
 90
        0
280
     0
281
     0
  0
CLASS
  1
GSMANAGER
  2
AcMeGSManager
  3
AcMeServices
 90
        0
280
     0
281
     0
  0
CLASS
  1
AMDTINTERNALREACTOR
  2
AmdtInternalReactor
  3
AcMeServices
 90
        0
280
     0
281
     0
  0
CLASS
  1
ACMESTATEMGR
  2
AcMeStateMgr
  3
AcMeServices
 90
        0
280
     0
281
     0
  0
CLASS
  1
ACGREFMASTER
  2
AcGrefMaster
  3
AcAttribServices
 90
        0
280
     0
281
     0
  0
CLASS
  1
AM_DRAWING_MGR
  2
AcDmDwgMgr
  3
AcMechDwgViewMgmt
 90
        0
280
     0
281
     0
  0
CLASS
  1
AM_DWG_DOCUMENT
  2
AcDmDwgDocument
  3
AcMechDwgViewMgmt
 90
        0
280
     0
281
     0
  0
CLASS
  1
AM_DWG_SHEET
  2
AcDmSheet
  3
AcMechDwgViewMgmt
 90
        0
280
     0
281
     0
  0
CLASS
  1
AM_VIEWDIMPARMAP
  2
AcDmViewDimParMap
  3
AcMechDwgViewMgmt
 90
        0
280
     0
281
     0
  0
CLASS
  1
ACIMREALSYSVAR
  2
AcImRealSysVar
  3
AcMeServices
 90
        0
280
     0
281
     0
  0
CLASS
  1
AM_DWGMGR_NAME
  2
AcDmDwgMgrName
  3
AcMechDwgViewMgmt
 90
        0
280
     0
281
     0
  0
CLASS
  1
ACME_DATABASE
  2
AcMeDbDatabase
  3
AcMeServices
 90
        0
280
     0
281
     0
  0
CLASS
  1
ACRFINSADJUSTERMGR
  2
AcRfInsAdjusterMgr
  3
AcMeServices
 90
        0
280
     0
281
     0
  0
CLASS
  1
ACGREFACADMASTER
  2
AcGrefacadMaster
  3
AcGrefServices
 90
        0
280
     0
281
     0
  0
CLASS
  1
AMDTMENUSTATEMGR
  2
AmdtMenuStateMgr
  3
McadcomServices
 90
        0
280
     0
281
     0
  0
CLASS
  1
AMDTMCOMMENUSTATE
  2
AmdtMcomMenuState
  3
McadcomServices
 90
        0
280
     0
281
     0
  0
CLASS
  1
AMIMASTER
  2
AmiMaster
  3
AmiServices
 90
        0
280
     0
281
     0
  0
CLASS
  1
MAPIAMMOUDLE
  2
MApiAmModule
  3
MApiAmServices
 90
        0
280
     0
281
     0
  0
CLASS
  1
ACIMSTRSYSVAR
  2
AcImStrSysVar
  3
AcMeServices
 90
        0
280
     0
281
     0
  0
CLASS
  1
AMDTADMENUSTATE
  2
AmdtAdMenuState
  3
DesignerServices
 90
        0
280
     0
281
     0
  0
CLASS
  1
ADAPPL
  2
AcAdAppl
  3
DesignerServices
 90
        0
280
     0
281
     0
  0
CLASS
  1
DEPMGR
  2
AcAdDepMgr
  3
DesignerServices
 90
        0
280
     0
281
     0
  0
CLASS
  1
PARAMMGR
  2
AcAdParamMgr
  3
DesignerServices
 90
        0
280
     0
281
     0
  0
CLASS
  1
PARAMSCOPE
  2
AcAdParamScope
  3
DesignerServices
 90
        0
280
     0
281
     0
  0
CLASS
  1
NAMEDAPPL
  2
AcAdNamedAppl
  3
DesignerServices
 90
        0
280
     0
281
     0
  0
CLASS
  1
AMDTDMMENUSTATE
  2
AmdtDmMenuState
  3
AcMechDwgViewMgmt
 90
        0
280
     0
281
     0
  0
CLASS
  1
AMDTAMMENUSTATE
  2
AmdtAmMenuState
  3
DesignerAssemblies
 90
        0
280
     0
281
     0
  0
CLASS
  1
ACAMPROJECT
  2
AcAmProject
  3
DesignerAssemblies
 90
        0
280
     0
281
     0
  0
CLASS
  1
ACAMGRCOMPDEF
  2
AcAmGrCompDef
  3
DesignerAssemblies
 90
        0
280
     0
281
     0
  0
CLASS
  1
ACCMCONTEXT
  2
AcCmContext
  3
DesignerAssemblies
 90
        0
280
     0
281
     0
  0
CLASS
  1
ACAMCOMPDEF
  2
AcAmCompDef
  3
DesignerAssemblies
 90
        0
280
     0
281
     0
  0
CLASS
  1
ACAMCOMPDEFMGR
  2
AcAmCompDefMgr
  3
DesignerAssemblies
 90
        0
280
     0
281
     0
  0
CLASS
  1
AMCONTEXTMGR
  2
AcAmContextMgr
  3
DesignerAssemblies
 90
        0
280
     0
281
     0
  0
CLASS
  1
ACAMCONTEXTMODELER
  2
AcAmContextModeler
  3
DesignerAssemblies
 90
        0
280
     0
281
     0
  0
CLASS
  1
ACMDATADICTIONARY
  2
AcmDataDictionary
  3
"AcmSymBB|Product Description: AutoCAD Mechanical 2004 DX|Company: Autodesk"
 90
        0
280
     0
281
     0
  0
CLASS
  1
CATALOGSTATE
  2
AcAmCatalogState
  3
DesignerAssemblies
 90
        0
280
     0
281
     0
  0
CLASS
  1
ACAMGRCOMPDEFSET
  2
AcAmGrCompDefSet
  3
DesignerAssemblies
 90
        0
280
     0
281
     0
  0
CLASS
  1
AMDTBROWSERDBTAB
  2
AmdtBrowserDbTab
  3
McadcomServices
 90
        0
280
     0
281
     0
  0
CLASS
  1
CBROWSERAPPOBJECT
  2
CBrowserAppObject
  3
McadcomServices
 90
        0
280
     0
281
     0
  0
CLASS
  1
DM_PLACEHOLDER
  2
AcDmSelsetPlaceholder
  3
AcMechDwgViewMgmt
 90
        0
280
     0
281
     0
  0
CLASS
  1
ACMSTANDARDDIN
  2
AcmStandardDIN
  3
"Amdt_StdImp|Product Description: AutoCAD Mechanical 2004 DX|Company: Autodesk"
 90
        0
280
     0
281
     0
  0
CLASS
  1
AMGOBJPROPCFG
  2
AmgObjPropCfg
  3
"AmgLay|Product Description: AutoCAD Mechanical 2000|Company: Autodesk"
 90
        1
280
     0
281
     0
  0
CLASS
  1
AMDTEDGESTANDARDDIN13715
  2
AmdtEdgeStdDIN13715
  3
"Amdt_StdImp|Product Description: AutoCAD Mechanical 2004 DX|Company: Autodesk"
 90
        0
280
     0
281
     0
  0
CLASS
  1
ACMSURFSTANDARDDIN
  2
AcmSurfTextStdDIN
  3
"Amdt_StdImp|Product Description: AutoCAD Mechanical 2004 DX|Company: Autodesk"
 90
        0
280
     0
281
     0
  0
CLASS
  1
ACMFCFSTANDARDDIN
  2
AcmFCFStdDIN
  3
"Amdt_StdImp|Product Description: AutoCAD Mechanical 2004 DX|Company: Autodesk"
 90
        0
280
     0
281
     0
  0
CLASS
  1
ACMWELDSTANDARDDIN
  2
AcmWeldingStdDIN
  3
"Amdt_StdImp|Product Description: AutoCAD Mechanical 2004 DX|Company: Autodesk"
 90
        0
280
     0
281
     0
  0
CLASS
  1
ACMIDSTANDARDDIN
  2
AcmIdStdDIN
  3
"Amdt_StdImp|Product Description: AutoCAD Mechanical 2004 DX|Company: Autodesk"
 90
        0
280
     0
281
     0
  0
CLASS
  1
ACMDATUMSTANDARDDIN
  2
AcmDatumStdDIN
  3
"Amdt_StdImp|Product Description: AutoCAD Mechanical 2004 DX|Company: Autodesk"
 90
        0
280
     0
281
     0
  0
CLASS
  1
ACMBOMSTANDARDDIN
  2
AcmBOMStdDIN
  3
"Amdt_StdImp|Product Description: AutoCAD Mechanical 2004 DX|Company: Autodesk"
 90
        0
280
     0
281
     0
  0
CLASS
  1
ACMDETAILSTANDARDDIN
  2
AmdtDetailSymStdDIN
  3
"Amdt_StdImp|Product Description: AutoCAD Mechanical 2004 DX|Company: Autodesk"
 90
        0
280
     0
281
     0
  0
CLASS
  1
ACMSECTIONSTANDARDDIN
  2
AmdtSectionSymStdDIN
  3
"Amdt_StdImp|Product Description: AutoCAD Mechanical 2004 DX|Company: Autodesk"
 90
        0
280
     0
281
     0
  0
CLASS
  1
ACMCENTERLINESTANDARDDIN
  2
AmdtCenterLineStdDIN
  3
"Amdt_StdImp|Product Description: AutoCAD Mechanical 2004 DX|Company: Autodesk"
 90
        0
280
     0
281
     0
  0
CLASS
  1
ACMTHREADLINESTANDARDDIN
  2
AmdtThreadLineStdDIN
  3
"Amdt_StdImp|Product Description: AutoCAD Mechanical 2004 DX|Company: Autodesk"
 90
        0
280
     0
281
     0
  0
CLASS
  1
ACMNOTESTANDARDDIN
  2
AmdtNoteStdDIN
  3
"Amdt_StdImp|Product Description: AutoCAD Mechanical 2004 DX|Company: Autodesk"
 90
        0
280
     0
281
     0
  0
CLASS
  1
AMDTNOTETEMPLATEDB
  2
AmdtNoteTemplateDB
  3
AMDT_STDIMP_MODULE_NAME
 90
        0
280
     0
281
     0
  0
CLASS
  1
ACAMGLAYSTD
  2
AcAmgLayStd
  3
"AcAmgLayStd|Product Description: AutoCAD Mechanical 2000|Company: Autodesk"
 90
        0
280
     0
281
     0
  0
CLASS
  1
ACAMGDIMSTD
  2
AcAmgDimStd
  3
"AcAmgDimStd|Product Description: AutoCAD Mechanical 2000|Company: Autodesk"
 90
        0
280
     0
281
     0
  0
CLASS
  1
ACAMGHOLECHARTSTDDIN
  2
AcAmgHoleChartStdDIN
  3
ACMSYMBB_MODULE_NAME
 90
        0
280
     0
281
     0
  0
CLASS
  1
ACAMGTITLESTD
  2
AcAmgTitleStd
  3
"TITLEAPP"
 90
        0
280
     0
281
     0
  0
CLASS
  1
ACAMGFILTERDAT
  2
AcAmgFilterDat
  3
"AcadM|Product Description: AutoCAD Mechanical 2000|Company: Autodesk"
 90
        0
280
     0
281
     0
  0
CLASS
  1
ACMDATAENTRYBLOCK
  2
AcmDataEntryBlock
  3
"AcmSymBB|Product Description: AutoCAD Mechanical 2004 DX|Company: Autodesk"
 90
        0
280
     0
281
     0
  0
CLASS
  1
ACDBPLACEHOLDER
  2
AcDbPlaceHolder
  3
ObjectDBX Classes
 90
        0
280
     0
281
     0
  0
CLASS
  1
LAYOUT
  2
AcDbLayout
  3
ObjectDBX Classes
 90
        0
280
     0
281
     0
  0
ENDSEC
  0
SECTION
  2
TABLES
  0
TABLE
  2
VPORT
  5
1628
330
0
100
AcDbSymbolTable
 70
     6
  0
VPORT
  5
1CBB
330
1628
100
AcDbSymbolTableRecord
100
AcDbViewportTableRecord
  2
*Active
 70
     0
 10
0.0
 20
0.0
 11
1.0
 21
1.0
 12
-383.4720597701055
 22
242.216493814737
 13
0.0
 23
0.0
 14
5.0
 24
5.0
 15
50.0
 25
50.0
 16
0.0
 26
0.0
 36
1.0
 17
0.0
 27
0.0
 37
0.0
 40
583.069881597966
 41
1.494545454545454
 42
50.0
 43
0.0
 44
0.0
 50
0.0
 51
0.0
 71
     0
 72
  1000
 73
     1
 74
     1
 75
     0
 76
     0
 77
     0
 78
     0
281
     0
 65
     0
110
0.0
120
0.0
130
0.0
111
1.0
121
0.0
131
0.0
112
0.0
122
1.0
132
0.0
 79
     0
146
0.0
  0
ENDTAB
  0
TABLE
  2
LTYPE
  5
1625
330
0
100
AcDbSymbolTable
 70
    22
  0
LTYPE
  5
1632
330
1625
100
AcDbSymbolTableRecord
100
AcDbLinetypeTableRecord
  2
BYBLOCK
 70
     0
  3

 72
    65
 73
     0
 40
0.0
  0
LTYPE
  5
1633
330
1625
100
AcDbSymbolTableRecord
100
AcDbLinetypeTableRecord
  2
BYLAYER
 70
     0
  3

 72
    65
 73
     0
 40
0.0
  0
LTYPE
  5
1634
330
1625
100
AcDbSymbolTableRecord
100
AcDbLinetypeTableRecord
  2
CONTINUOUS
 70
     0
  3
Solid line
 72
    65
 73
     0
 40
0.0
  0
LTYPE
  5
1640
330
1625
100
AcDbSymbolTableRecord
100
AcDbLinetypeTableRecord
  2
GEN3
 70
     0
  3
_ _ _ _ _ _ _ _ _ _ _ _ _ _ _ _ _ _ _ _ _ _ _ _ _ _ _ _ _ _ _
 72
    65
 73
     3
 40
3.0
 49
0.0
 74
     0
 49
2.0
 74
     0
 49
-1.0
 74
     0
  0
LTYPE
  5
1641
330
1625
100
AcDbSymbolTableRecord
100
AcDbLinetypeTableRecord
  2
GEN3_
 70
     0
  3
_ _ _ _ _ _ _ _ _ _ _ _ _ _ _ _ _ _ _ _ _ _ _ _ _ _ _ _ _ _ _
 72
    65
 73
     4
 40
3.0
 49
0.0
 74
     0
 49
0.5
 74
     0
 49
-1.0
 74
     0
 49
1.5
 74
     0
  0
LTYPE
  5
19CA
330
1625
100
AcDbSymbolTableRecord
100
AcDbLinetypeTableRecord
  2
GEN3A
 70
     0
  3
 - - - - -
 72
    65
 73
     2
 40
3.125
 49
2.25
 74
     0
 49
-0.875
 74
     0
  0
LTYPE
  5
1B2A
330
1625
100
AcDbSymbolTableRecord
100
AcDbLinetypeTableRecord
  2
HIDDEN
 70
     0
  3
Verdeckt
 72
    65
 73
     2
 40
9.525
 49
6.349999999999999
 74
     0
 49
-3.174999999999999
 74
     0
  0
LTYPE
  5
1B2B
330
1625
100
AcDbSymbolTableRecord
100
AcDbLinetypeTableRecord
  2
PHANTOM2
 70
     0
  3
Phantom (.5x) ___ _ _ ___ _ _ ___ _ _ ___ _ _
 72
    65
 73
     6
 40
31.75
 49
15.875
 74
     0
 49
-3.174999999999999
 74
     0
 49
3.174999999999999
 74
     0
 49
-3.174999999999999
 74
     0
 49
3.174999999999999
 74
     0
 49
-3.174999999999999
 74
     0
  0
LTYPE
  5
1B2C
330
1625
100
AcDbSymbolTableRecord
100
AcDbLinetypeTableRecord
  2
CENTER
 70
     0
  3
Mitte ____ _ ____ _ ____ _ ____ _ ____ _ ____
 72
    65
 73
     4
 40
50.8
 49
31.75
 74
     0
 49
-6.349999999999999
 74
     0
 49
6.349999999999999
 74
     0
 49
-6.349999999999999
 74
     0
  0
LTYPE
  5
1B60
330
1625
100
AcDbSymbolTableRecord
100
AcDbLinetypeTableRecord
  2
AM_ISO02W050
 70
     0
  3
__ __ __ __ __ __ __ __ __ __ __ __ __ __ __
 72
    65
 73
     2
 40
7.5
 49
6.0
 74
     0
 49
-1.5
 74
     0
  0
LTYPE
  5
1B61
330
1625
100
AcDbSymbolTableRecord
100
AcDbLinetypeTableRecord
  2
AM_ISO08W050
 70
     0
  3
____ . ____ . ____ . ____ . ____ . ____ . ____
 72
    65
 73
     4
 40
18.0
 49
12.0
 74
     0
 49
-1.5
 74
     0
 49
3.0
 74
     0
 49
-1.5
 74
     0
  0
LTYPE
  5
1B62
330
1625
100
AcDbSymbolTableRecord
100
AcDbLinetypeTableRecord
  2
AM_ISO09W050
 70
     0
  3
_____ . . _____ . . _____ . . ____ .. ____
 72
    65
 73
     6
 40
22.5
 49
12.0
 74
     0
 49
-1.5
 74
     0
 49
3.0
 74
     0
 49
-1.5
 74
     0
 49
3.0
 74
     0
 49
-1.5
 74
     0
  0
LTYPE
  5
1B63
330
1625
100
AcDbSymbolTableRecord
100
AcDbLinetypeTableRecord
  2
Amconstr
 70
     0
  3
_______________________
 72
    65
 73
     2
 40
9999.0
 49
9999.0
 74
     0
 49
0.0
 74
     0
  0
LTYPE
  5
1B64
330
1625
100
AcDbSymbolTableRecord
100
AcDbLinetypeTableRecord
  2
AM_ISO08W050x2
 70
     0
  3
__ . __ . __ . __ . __ . __
 72
    65
 73
     4
 40
9.0
 49
6.0
 74
     0
 49
-0.75
 74
     0
 49
1.5
 74
     0
 49
-0.75
 74
     0
  0
LTYPE
  5
1B65
330
1625
100
AcDbSymbolTableRecord
100
AcDbLinetypeTableRecord
  2
AM_ISO02W050x2
 70
     0
  3
 _ _ _ _ _ _ _ _ _ _ _ _
 72
    65
 73
     2
 40
3.75
 49
3.0
 74
     0
 49
-0.75
 74
     0
  0
LTYPE
  5
1B68
330
1625
100
AcDbSymbolTableRecord
100
AcDbLinetypeTableRecord
  2
Amzigzag
 70
     0
  3
/\/-/\/-/\/-/\/-/\/-/\/
 72
    65
 73
     2
 40
11.0001
 49
0.0001
 74
     4
 75
   136
340
1B67
 46
0.04
 50
0.0
 44
0.0
 45
0.0
 49
-11.0
 74
     0
  0
LTYPE
  5
1B69
330
1625
100
AcDbSymbolTableRecord
100
AcDbLinetypeTableRecord
  2
AM_DIN_F_W050
 70
     0
  3
__ __ __ __ __ __ __ __ __ __ __ __ __ __ __
 72
    65
 73
     2
 40
6.25
 49
4.75
 74
     0
 49
-1.5
 74
     0
  0
LTYPE
  5
1B6A
330
1625
100
AcDbSymbolTableRecord
100
AcDbLinetypeTableRecord
  2
AM_DIN_G_W050
 70
     0
  3
____ . ____ . ____ . ____ . ____ . ____ . ____
 72
    65
 73
     4
 40
13.75
 49
9.75
 74
     0
 49
-1.5
 74
     0
 49
1.0
 74
     0
 49
-1.5
 74
     0
  0
LTYPE
  5
1B6B
330
1625
100
AcDbSymbolTableRecord
100
AcDbLinetypeTableRecord
  2
AM_DIN_K_W050
 70
     0
  3
_____ . . _____ . . _____ . . ____ .. ____
 72
    65
 73
     6
 40
16.25
 49
9.75
 74
     0
 49
-1.5
 74
     0
 49
1.0
 74
     0
 49
-1.5
 74
     0
 49
1.0
 74
     0
 49
-1.5
 74
     0
  0
LTYPE
  5
1B6C
330
1625
100
AcDbSymbolTableRecord
100
AcDbLinetypeTableRecord
  2
AM_DIN_G_W050x2
 70
     0
  3
__ . __ . __ . __ . __ . __
 72
    65
 73
     4
 40
6.875
 49
4.75
 74
     0
 49
-0.875
 74
     0
 49
0.375
 74
     0
 49
-0.875
 74
     0
  0
LTYPE
  5
1B6D
330
1625
100
AcDbSymbolTableRecord
100
AcDbLinetypeTableRecord
  2
AM_DIN_F_W050x2
 70
     0
  3
 _ _ _ _ _ _ _ _ _ _ _ _
 72
    65
 73
     2
 40
3.125
 49
2.25
 74
     0
 49
-0.875
 74
     0
  0
LTYPE
  5
1B7C
330
1625
100
AcDbSymbolTableRecord
100
AcDbLinetypeTableRecord
  2
ACDINWELD
 70
     0
  3
_ _ _ _ _
 72
    65
 73
     2
 40
2.0
 49
2.0
 74
     0
 49
-1.0
 74
     0
  0
LTYPE
  5
1B7D
330
1625
100
AcDbSymbolTableRecord
100
AcDbLinetypeTableRecord
  2
ACDINTGB
 70
     0
  3
__ . . __ . .
 72
    65
 73
     6
 40
9.0
 49
4.0
 74
     0
 49
-1.0
 74
     0
 49
1.0
 74
     0
 49
-1.0
 74
     0
 49
1.0
 74
     0
 49
-1.0
 74
     0
  0
LTYPE
  5
1B7E
330
1625
100
AcDbSymbolTableRecord
100
AcDbLinetypeTableRecord
  2
ACDINTGL
 70
     0
  3
_ _ _ _ _
 72
    65
 73
     2
 40
3.0
 49
2.0
 74
     0
 49
-1.0
 74
     0
  0
ENDTAB
  0
TABLE
  2
LAYER
  5
1622
330
0
100
AcDbSymbolTable
 70
    14
  0
LAYER
  5
162E
330
1622
100
AcDbSymbolTableRecord
100
AcDbLayerTableRecord
  2
0
 70
     0
 62
     7
  6
CONTINUOUS
370
    -3
390
1AEE
  0
LAYER
  5
1648
330
1622
100
AcDbSymbolTableRecord
100
AcDbLayerTableRecord
  2
3A
 70
     0
 62
     6
  6
GEN3A
370
    -3
390
1AEE
  0
LAYER
  5
1649
330
1622
100
AcDbSymbolTableRecord
100
AcDbLayerTableRecord
  2
4
 70
     0
 62
     3
  6
CONTINUOUS
370
    -3
390
1AEE
  0
LAYER
  5
164B
330
1622
100
AcDbSymbolTableRecord
100
AcDbLayerTableRecord
  2
5
 70
     0
 62
     3
  6
CONTINUOUS
370
    -3
390
1AEE
  0
LAYER
  5
164C
330
1622
100
AcDbSymbolTableRecord
100
AcDbLayerTableRecord
  2
6
 70
     0
 62
     2
  6
CONTINUOUS
370
    -3
390
1AEE
  0
LAYER
  5
164E
330
1622
100
AcDbSymbolTableRecord
100
AcDbLayerTableRecord
  2
8
 70
     0
 62
     1
  6
CONTINUOUS
370
    -3
390
1AEE
  0
LAYER
  5
164F
330
1622
100
AcDbSymbolTableRecord
100
AcDbLayerTableRecord
  2
SCHRAFFUR_RAND
 70
     0
 62
    36
  6
CONTINUOUS
370
    -3
390
1AEE
  0
LAYER
  5
1680
330
1622
100
AcDbSymbolTableRecord
100
AcDbLayerTableRecord
  2
DEFPOINTS
 70
     0
 62
     7
  6
CONTINUOUS
290
     0
370
    -3
390
1AEE
  0
LAYER
  5
1684
330
1622
100
AcDbSymbolTableRecord
100
AcDbLayerTableRecord
  2
RAHM2
 70
     0
 62
     1
  6
CONTINUOUS
370
    -3
390
1AEE
  0
LAYER
  5
1685
330
1622
100
AcDbSymbolTableRecord
100
AcDbLayerTableRecord
  2
RAHM3
 70
     0
 62
     2
  6
CONTINUOUS
370
    -3
390
1AEE
  0
LAYER
  5
1BD1
330
1622
100
AcDbSymbolTableRecord
100
AcDbLayerTableRecord
  2
BEMASS
 70
     0
 62
     3
  6
CONTINUOUS
370
    -3
390
1AEE
  0
LAYER
  5
1BD2
330
1622
100
AcDbSymbolTableRecord
100
AcDbLayerTableRecord
  2
Kontur
 70
     0
 62
     7
  6
CONTINUOUS
370
    -3
390
1AEE
  0
LAYER
  5
1BD3
330
1622
100
AcDbSymbolTableRecord
100
AcDbLayerTableRecord
  2
AM_7
 70
     0
 62
     4
  6
AM_DIN_G_W050
370
    25
390
1AEE
1001
AcAecLayerStandard
1000

1000

  0
LAYER
  5
1BD4
330
1622
100
AcDbSymbolTableRecord
100
AcDbLayerTableRecord
  2
AM_8
 70
     0
 62
     1
  6
CONTINUOUS
370
    25
390
1AEE
1001
AcAecLayerStandard
1000

1000

  0
ENDTAB
  0
TABLE
  2
STYLE
  5
1623
330
0
100
AcDbSymbolTable
 70
     4
  0
STYLE
  5
162F
330
1623
100
AcDbSymbolTableRecord
100
AcDbTextStyleTableRecord
  2
STANDARD
 70
     0
 40
0.0
 41
1.0
 50
0.0
 71
     0
 42
17.5
  3
ISOCP.SHX
  4

  0
STYLE
  5
1B67
330
1623
100
AcDbSymbolTableRecord
100
AcDbTextStyleTableRecord
  2

 70
     1
 40
0.0
 41
1.0
 50
0.0
 71
     0
 42
17.5
  3
genltshp.shx
  4

  0
STYLE
  5
1B6E
330
1623
100
AcDbSymbolTableRecord
100
AcDbTextStyleTableRecord
  2
ACDINTS
 70
     0
 40
1.0
 41
1.0
 50
0.0
 71
     0
 42
17.5
  3
isocp.shx
  4

  0
STYLE
  5
1B7B
330
1623
100
AcDbSymbolTableRecord
100
AcDbTextStyleTableRecord
  2
ACDINGDT
 70
     0
 40
0.0
 41
1.0
 50
0.0
 71
     0
 42
17.5
  3
AMGDT
  4

  0
ENDTAB
  0
TABLE
  2
VIEW
  5
1626
330
0
100
AcDbSymbolTable
 70
     6
  0
VIEW
  5
16C3
330
1626
100
AcDbSymbolTableRecord
100
AcDbViewTableRecord
  2
GEN1
 70
     0
 40
525.0
 10
402.9481129999999
 20
787.5
 41
805.8962259999999
 11
0.0
 21
0.0
 31
1.0
 12
0.0
 22
0.0
 32
0.0
 42
50.0
 43
0.0
 44
0.0
 50
0.0
 71
     0
281
     0
 72
     0
  0
VIEW
  5
16C4
330
1626
100
AcDbSymbolTableRecord
100
AcDbViewTableRecord
  2
GEN2
 70
     0
 40
525.0
 10
647.0518869999999
 20
787.5
 41
805.8962259999999
 11
0.0
 21
0.0
 31
1.0
 12
0.0
 22
0.0
 32
0.0
 42
50.0
 43
0.0
 44
0.0
 50
0.0
 71
     0
281
     0
 72
     0
  0
VIEW
  5
16C5
330
1626
100
AcDbSymbolTableRecord
100
AcDbViewTableRecord
  2
GEN3
 70
     0
 40
525.0
 10
402.9481129999999
 20
262.5
 41
805.8962259999999
 11
0.0
 21
0.0
 31
1.0
 12
0.0
 22
0.0
 32
0.0
 42
50.0
 43
0.0
 44
0.0
 50
0.0
 71
     0
281
     0
 72
     0
  0
VIEW
  5
16C6
330
1626
100
AcDbSymbolTableRecord
100
AcDbViewTableRecord
  2
GEN4
 70
     0
 40
525.0
 10
647.0518869999999
 20
262.5
 41
805.8962259999999
 11
0.0
 21
0.0
 31
1.0
 12
0.0
 22
0.0
 32
0.0
 42
50.0
 43
0.0
 44
0.0
 50
0.0
 71
     0
281
     0
 72
     0
  0
VIEW
  5
16C7
330
1626
100
AcDbSymbolTableRecord
100
AcDbViewTableRecord
  2
GEN5
 70
     0
 40
525.0
 10
525.0
 20
525.0
 41
805.8962259999999
 11
0.0
 21
0.0
 31
1.0
 12
0.0
 22
0.0
 32
0.0
 42
50.0
 43
0.0
 44
0.0
 50
0.0
 71
     0
281
     0
 72
     0
  0
VIEW
  5
16C8
330
1626
100
AcDbSymbolTableRecord
100
AcDbViewTableRecord
  2
GEN6
 70
     0
 40
1049.9895
 10
525.0
 20
525.0
 41
1611.776335
 11
0.0
 21
0.0
 31
1.0
 12
0.0
 22
0.0
 32
0.0
 42
50.0
 43
0.0
 44
0.0
 50
0.0
 71
     0
281
     0
 72
     0
  0
ENDTAB
  0
TABLE
  2
UCS
  5
1627
330
0
100
AcDbSymbolTable
 70
     0
  0
ENDTAB
  0
TABLE
  2
APPID
  5
1629
330
0
100
AcDbSymbolTable
 70
    41
  0
APPID
  5
1630
330
1629
100
AcDbSymbolTableRecord
100
AcDbRegAppTableRecord
  2
ACAD
 70
     0
  0
APPID
  5
1691
330
1629
100
AcDbSymbolTableRecord
100
AcDbRegAppTableRecord
  2
GENIUS_GENCFG_13
 70
     0
1001
GENIUS_GENCFG0_13
1000
GEN@INFO_POS@XLATE
1001
GENIUS_GENCFG1_13
1000
GEN@INFO_POS
1001
GENIUS_GENCFG2_13
1000
GEN@LAYER@DEFS
1001
GENIUS_GENCFG3_13
1000
GEN@LAYER@ENTSORT
1001
GENIUS_GENCFG4_13
1000
GEN
1001
GENIUS_GEVCFG0_13
1000
GEV
1001
GENIUS_DUMCFG0_13
1000
DUM
  0
APPID
  5
1692
330
1629
100
AcDbSymbolTableRecord
100
AcDbRegAppTableRecord
  2
GENIUS_DUMCFG0_13
 70
     0
1001
GENIUS_GENCFG_13
1071
936005558
1000
1692
1000
DUM
1070
     0
  0
APPID
  5
1693
330
1629
100
AcDbSymbolTableRecord
100
AcDbRegAppTableRecord
  2
GENIUS_GENCFG0_13
 70
     0
1001
GENIUS_GENCFG_13
1071
1023340779
1000
1693
1000
GEN@INFO_POS@XLATE
1070
     7
1000
GenCfgObject
1000
GenCfgShort
1000
GenCfgReal
1000
GenCfgBool
1000
GenCfgString
1000
GenCfgDim
1000
GenCfgAttrInf
1000
INFOPOINTS
1070
     0
1002
{
1000
GENINF14
1070
     0
1002
{
1000
2GENINF
1070
     4
1000
2
1002
{
1002
}
1000
5GENINF
1070
     4
1000
5
1002
{
1002
}
1000
7GENINF
1070
     4
1000
7
1002
{
1002
}
1000
9GENINF
1070
     4
1000
9
1002
{
1002
}
1000
11GENINF
1070
     4
1000
11
1002
{
1002
}
1000
14GENINF
1070
     4
1000
14
1002
{
1002
}
1002
}
1000
GENINF13
1070
     0
1002
{
1000
2GENINF
1070
     4
1000
2
1002
{
1002
}
1000
3GENINF
1070
     4
1000
3
1002
{
1002
}
1000
4GENINF
1070
     4
1000
4
1002
{
1002
}
1000
5GENINF
1070
     4
1000
5
1002
{
1002
}
1000
6GENINF
1070
     4
1000
6
1002
{
1002
}
1000
7GENINF
1070
     4
1000
7
1002
{
1002
}
1000
8GENINF
1070
     4
1000
8
1002
{
1002
}
1000
9GENINF
1070
     4
1000
9
1002
{
1002
}
1000
10GENINF
1070
     4
1000
10
1002
{
1002
}
1000
11GENINF
1070
     4
1000
11
1002
{
1002
}
1000
12GENINF
1070
     4
1000
12
1002
{
1002
}
1000
13GENINF
1070
     4
1000
13
1002
{
1002
}
1000
14GENINF
1070
     4
1000
14
1002
{
1002
}
1000
15GENINF
1070
     4
1000
15
1002
{
1002
}
1000
16GENINF
1070
     4
1000
16
1002
{
1002
}
1000
17GENINF
1070
     4
1000
17
1002
{
1002
}
1000
18GENINF
1070
     4
1000
18
1002
{
1002
}
1000
19GENINF
1070
     4
1000
19
1002
{
1002
}
1000
20GENINF
1070
     4
1000
20
1002
{
1002
}
1000
21GENINF
1070
     4
1000
21
1002
{
1002
}
1000
22GENINF
1070
     4
1000
22
1002
{
1002
}
1000
23GENINF
1070
     4
1000
23
1002
{
1002
}
1000
24GENINF
1070
     4
1000
24
1002
{
1002
}
1000
0GENINF
1070
     4
1000
0
1002
{
1002
}
1002
}
1000
GENINFO
1070
     0
1002
{
1000
3GENINF
1070
     4
1000
3
1002
{
1002
}
1000
4GENINF
1070
     4
1000
4
1002
{
1002
}
1000
5GENINF
1070
     4
1000
5
1002
{
1002
}
1000
6GENINF
1070
     4
1000
6
1002
{
1002
}
1000
7GENINF
1070
     4
1000
7
1002
{
1002
}
1000
8GENINF
1070
     4
1000
8
1002
{
1002
}
1000
9GENINF
1070
     4
1000
9
1002
{
1002
}
1000
10GENINF
1070
     4
1000
10
1002
{
1002
}
1000
11GENINF
1070
     4
1000
11
1002
{
1002
}
1000
12GENINF
1070
     4
1000
12
1002
{
1002
}
1000
13GENINF
1070
     4
1000
13
1002
{
1002
}
1000
14GENINF
1070
     4
1000
14
1002
{
1002
}
1000
15GENINF
1070
     4
1000
15
1002
{
1002
}
1000
16GENINF
1070
     4
1000
16
1002
{
1002
}
1000
17GENINF
1070
     4
1000
17
1002
{
1002
}
1000
18GENINF
1070
     4
1000
18
1002
{
1002
}
1000
19GENINF
1070
     4
1000
19
1002
{
1002
}
1000
20GENINF
1070
     4
1000
20
1002
{
1002
}
1000
21GENINF
1070
     4
1000
21
1002
{
1002
}
1000
22GENINF
1070
     4
1000
22
1002
{
1002
}
1002
}
1000
DININFO
1070
     0
1002
{
1000
ST-NAME1
1070
     4
1000
5
1002
{
1002
}
1000
ST-NAME2
1070
     4
1000
6
1002
{
1002
}
1000
ST-NORM1
1070
     4
1000
7
1002
{
1002
}
1000
ST-NORM2
1070
     4
1000
8
1002
{
1002
}
1000
ST-MAT1
1070
     4
1000
9
1002
{
1002
}
1000
ST-MAT2
1070
     4
1000
10
1002
{
1002
}
1002
}
1002
}
1000
POS_NUMBERS
1070
     0
1002
{
1000
GENPOS14
1070
     0
1002
{
1000
1GENPOS
1070
     4
1000
1
1002
{
1002
}
1000
2GENPOS
1070
     4
1000
2
1002
{
1002
}
1000
5GENPOS
1070
     4
1000
5
1002
{
1002
}
1000
7GENPOS
1070
     4
1000
7
1002
{
1002
}
1000
9GENPOS
1070
     4
1000
9
1002
{
1002
}
1000
11GENPOS
1070
     4
1000
11
1002
{
1002
}
1000
14GENPOS
1070
     4
1000
14
1002
{
1002
}
1002
}
1000
GENPOS13
1070
     0
1002
{
1000
1GENPOS
1070
     4
1000
1
1002
{
1002
}
1000
2GENPOS
1070
     4
1000
2
1002
{
1002
}
1000
3GENPOS
1070
     4
1000
3
1002
{
1002
}
1000
4GENPOS
1070
     4
1000
4
1002
{
1002
}
1000
5GENPOS
1070
     4
1000
5
1002
{
1002
}
1000
6GENPOS
1070
     4
1000
6
1002
{
1002
}
1000
7GENPOS
1070
     4
1000
7
1002
{
1002
}
1000
8GENPOS
1070
     4
1000
8
1002
{
1002
}
1000
9GENPOS
1070
     4
1000
9
1002
{
1002
}
1000
10GENPOS
1070
     4
1000
10
1002
{
1002
}
1000
11GENPOS
1070
     4
1000
11
1002
{
1002
}
1000
12GENPOS
1070
     4
1000
12
1002
{
1002
}
1000
13GENPOS
1070
     4
1000
13
1002
{
1002
}
1000
14GENPOS
1070
     4
1000
14
1002
{
1002
}
1000
15GENPOS
1070
     4
1000
15
1002
{
1002
}
1000
16GENPOS
1070
     4
1000
16
1002
{
1002
}
1000
17GENPOS
1070
     4
1000
17
1002
{
1002
}
1000
18GENPOS
1070
     4
1000
18
1002
{
1002
}
1000
19GENPOS
1070
     4
1000
19
1002
{
1002
}
1000
20GENPOS
1070
     4
1000
20
1002
{
1002
}
1000
21GENPOS
1070
     4
1000
21
1002
{
1002
}
1000
22GENPOS
1070
     4
1000
22
1002
{
1002
}
1000
23GENPOS
1070
     4
1000
23
1002
{
1002
}
1000
24GENPOS
1070
     4
1000
24
1002
{
1002
}
1000
0GENPOS
1070
     4
1000
0
1002
{
1002
}
1002
}
1000
GENPOS
1070
     0
1002
{
1000
1GENPOS
1070
     4
1000
1
1002
{
1002
}
1000
2GENPOS
1070
     4
1000
2
1002
{
1002
}
1000
3GENPOS
1070
     4
1000
3
1002
{
1002
}
1000
4GENPOS
1070
     4
1000
4
1002
{
1002
}
1000
5GENPOS
1070
     4
1000
5
1002
{
1002
}
1000
6GENPOS
1070
     4
1000
6
1002
{
1002
}
1000
7GENPOS
1070
     4
1000
7
1002
{
1002
}
1000
8GENPOS
1070
     4
1000
8
1002
{
1002
}
1000
9GENPOS
1070
     4
1000
9
1002
{
1002
}
1000
10GENPOS
1070
     4
1000
10
1002
{
1002
}
1000
11GENPOS
1070
     4
1000
11
1002
{
1002
}
1000
12GENPOS
1070
     4
1000
12
1002
{
1002
}
1000
13GENPOS
1070
     4
1000
13
1002
{
1002
}
1000
14GENPOS
1070
     4
1000
14
1002
{
1002
}
1000
15GENPOS
1070
     4
1000
15
1002
{
1002
}
1000
16GENPOS
1070
     4
1000
16
1002
{
1002
}
1000
17GENPOS
1070
     4
1000
17
1002
{
1002
}
1000
18GENPOS
1070
     4
1000
18
1002
{
1002
}
1000
19GENPOS
1070
     4
1000
19
1002
{
1002
}
1000
20GENPOS
1070
     4
1000
20
1002
{
1002
}
1000
21GENPOS
1070
     4
1000
21
1002
{
1002
}
1000
22GENPOS
1070
     4
1000
22
1002
{
1002
}
1000
23GENPOS
1070
     4
1000
23
1002
{
1002
}
1002
}
1000
DIN985
1070
     0
1002
{
1000
POSITION
1070
     4
1000
1
1002
{
1002
}
1000
MENGE
1070
     4
1000
2
1002
{
1002
}
1000
BLATT
1070
     4
1000
3
1002
{
1002
}
1000
BENENN
1070
     4
1000
5
1002
{
1002
}
1000
BENENN2
1070
     4
1000
6
1002
{
1002
}
1000
NORM
1070
     4
1000
7
1002
{
1002
}
1000
NORM2
1070
     4
1000
8
1002
{
1002
}
1000
WERKSTOFF
1070
     4
1000
9
1002
{
1002
}
1000
WERKSTOFF2
1070
     4
1000
10
1002
{
1002
}
1002
}
1000
DIN986
1070
     0
1002
{
1000
POSITION
1070
     4
1000
1
1002
{
1002
}
1000
MENGE
1070
     4
1000
2
1002
{
1002
}
1000
BLATT
1070
     4
1000
3
1002
{
1002
}
1000
BENENN
1070
     4
1000
5
1002
{
1002
}
1000
BENENN2
1070
     4
1000
6
1002
{
1002
}
1000
NORM
1070
     4
1000
7
1002
{
1002
}
1000
NORM2
1070
     4
1000
8
1002
{
1002
}
1000
WERKSTOFF
1070
     4
1000
9
1002
{
1002
}
1000
WERKSTOFF2
1070
     4
1000
10
1002
{
1002
}
1002
}
1000
DIN987
1070
     0
1002
{
1000
POSITION
1070
     4
1000
1
1002
{
1002
}
1000
MENGE
1070
     4
1000
2
1002
{
1002
}
1000
BLATT
1070
     4
1000
3
1002
{
1002
}
1000
BENENN
1070
     4
1000
5
1002
{
1002
}
1000
BENENN2
1070
     4
1000
6
1002
{
1002
}
1000
NORM
1070
     4
1000
7
1002
{
1002
}
1000
NORM2
1070
     4
1000
8
1002
{
1002
}
1000
WERKSTOFF
1070
     4
1000
9
1002
{
1002
}
1000
WERKSTOFF2
1070
     4
1000
10
1002
{
1002
}
1002
}
1002
}
  0
APPID
  5
1694
330
1629
100
AcDbSymbolTableRecord
100
AcDbRegAppTableRecord
  2
GENIUS_GENCFG1_13
 70
     0
1001
GENIUS_GENCFG_13
1071
1023340779
1000
1694
1000
GEN@INFO_POS
1070
     7
1000
GenCfgObject
1000
GenCfgShort
1000
GenCfgReal
1000
GenCfgBool
1000
GenCfgString
1000
GenCfgDim
1000
GenCfgAttrInf
1000
DescrText
1070
     4
1000
5, ,6, ,7, ,8
1002
{
1002
}
1000
DescrText2
1070
     4
1000
26
1002
{
1002
}
1000
VisibleAttr1
1070
     4
1000
1
1002
{
1002
}
1000
VisibleAttr2
1070
     4
1000
26
1002
{
1002
}
1000
UpdateBlock
1070
     3
1070
     1
1002
{
1002
}
1000
Attrib
1070
     0
1002
{
1000
0
1070
     6
1002
{
1000
Prompt
1070
     4
1000
(genmsg gendwg 103)
1002
{
1002
}
1000
Value
1070
     4
1000

1002
{
1002
}
1000
EditFlag
1070
     1
1070
     0
1002
{
1002
}
1000
PosInDDATTE
1070
     1
1070
    27
1002
{
1002
}
1000
FieldLen
1070
     1
1070
    -1
1002
{
1002
}
1002
}
1000
1
1070
     6
1002
{
1000
Prompt
1070
     4
1000
(genmsg gendwg 31)
1002
{
1002
}
1000
Value
1070
     4
1000
1
1002
{
1002
}
1000
EditFlag
1070
     1
1070
     1
1002
{
1002
}
1000
PosInDDATTE
1070
     1
1070
     1
1002
{
1002
}
1000
FieldLen
1070
     1
1070
    -1
1002
{
1002
}
1002
}
1000
2
1070
     6
1002
{
1000
Prompt
1070
     4
1000
(genmsg gendwg 32)
1002
{
1002
}
1000
Value
1070
     4
1000
1
1002
{
1002
}
1000
EditFlag
1070
     1
1070
     1
1002
{
1002
}
1000
PosInDDATTE
1070
     1
1070
     2
1002
{
1002
}
1000
FieldLen
1070
     1
1070
    -1
1002
{
1002
}
1002
}
1000
3
1070
     6
1002
{
1000
Prompt
1070
     4
1000
(genmsg gendwg 33)
1002
{
1002
}
1000
Value
1070
     4
1000

1002
{
1002
}
1000
EditFlag
1070
     1
1070
     1
1002
{
1002
}
1000
PosInDDATTE
1070
     1
1070
     3
1002
{
1002
}
1000
FieldLen
1070
     1
1070
    -1
1002
{
1002
}
1002
}
1000
4
1070
     6
1002
{
1000
Prompt
1070
     4
1000
(genmsg gendwg 34)
1002
{
1002
}
1000
Value
1070
     4
1000

1002
{
1002
}
1000
EditFlag
1070
     1
1070
     1
1002
{
1002
}
1000
PosInDDATTE
1070
     1
1070
     4
1002
{
1002
}
1000
FieldLen
1070
     1
1070
    -1
1002
{
1002
}
1002
}
1000
5
1070
     6
1002
{
1000
Prompt
1070
     4
1000
(genmsg gendwg 35)
1002
{
1002
}
1000
Value
1070
     4
1000

1002
{
1002
}
1000
EditFlag
1070
     1
1070
     1
1002
{
1002
}
1000
PosInDDATTE
1070
     1
1070
     5
1002
{
1002
}
1000
FieldLen
1070
     1
1070
    -1
1002
{
1002
}
1002
}
1000
6
1070
     6
1002
{
1000
Prompt
1070
     4
1000
(genmsg gendwg 36)
1002
{
1002
}
1000
Value
1070
     4
1000

1002
{
1002
}
1000
EditFlag
1070
     1
1070
     1
1002
{
1002
}
1000
PosInDDATTE
1070
     1
1070
     6
1002
{
1002
}
1000
FieldLen
1070
     1
1070
    -1
1002
{
1002
}
1002
}
1000
7
1070
     6
1002
{
1000
Prompt
1070
     4
1000
(genmsg gendwg 37)
1002
{
1002
}
1000
Value
1070
     4
1000

1002
{
1002
}
1000
EditFlag
1070
     1
1070
     1
1002
{
1002
}
1000
PosInDDATTE
1070
     1
1070
     7
1002
{
1002
}
1000
FieldLen
1070
     1
1070
    -1
1002
{
1002
}
1002
}
1000
8
1070
     6
1002
{
1000
Prompt
1070
     4
1000
(genmsg gendwg 38)
1002
{
1002
}
1000
Value
1070
     4
1000

1002
{
1002
}
1000
EditFlag
1070
     1
1070
     1
1002
{
1002
}
1000
PosInDDATTE
1070
     1
1070
     8
1002
{
1002
}
1000
FieldLen
1070
     1
1070
    -1
1002
{
1002
}
1002
}
1000
9
1070
     6
1002
{
1000
Prompt
1070
     4
1000
(genmsg gendwg 39)
1002
{
1002
}
1000
Value
1070
     4
1000

1002
{
1002
}
1000
EditFlag
1070
     1
1070
     1
1002
{
1002
}
1000
PosInDDATTE
1070
     1
1070
     9
1002
{
1002
}
1000
FieldLen
1070
     1
1070
    -1
1002
{
1002
}
1002
}
1000
10
1070
     6
1002
{
1000
Prompt
1070
     4
1000
(genmsg gendwg 40)
1002
{
1002
}
1000
Value
1070
     4
1000

1002
{
1002
}
1000
EditFlag
1070
     1
1070
     1
1002
{
1002
}
1000
PosInDDATTE
1070
     1
1070
    10
1002
{
1002
}
1000
FieldLen
1070
     1
1070
    -1
1002
{
1002
}
1002
}
1000
11
1070
     6
1002
{
1000
Prompt
1070
     4
1000
(genmsg gendwg 41)
1002
{
1002
}
1000
Value
1070
     4
1000

1002
{
1002
}
1000
EditFlag
1070
     1
1070
     1
1002
{
1002
}
1000
PosInDDATTE
1070
     1
1070
    11
1002
{
1002
}
1000
FieldLen
1070
     1
1070
    -1
1002
{
1002
}
1002
}
1000
12
1070
     6
1002
{
1000
Prompt
1070
     4
1000
(genmsg gendwg 42)
1002
{
1002
}
1000
Value
1070
     4
1000

1002
{
1002
}
1000
EditFlag
1070
     1
1070
     1
1002
{
1002
}
1000
PosInDDATTE
1070
     1
1070
    12
1002
{
1002
}
1000
FieldLen
1070
     1
1070
    -1
1002
{
1002
}
1002
}
1000
13
1070
     6
1002
{
1000
Prompt
1070
     4
1000
(genmsg gendwg 43)
1002
{
1002
}
1000
Value
1070
     4
1000

1002
{
1002
}
1000
EditFlag
1070
     1
1070
     1
1002
{
1002
}
1000
PosInDDATTE
1070
     1
1070
    13
1002
{
1002
}
1000
FieldLen
1070
     1
1070
    -1
1002
{
1002
}
1002
}
1000
14
1070
     6
1002
{
1000
Prompt
1070
     4
1000
(genmsg gendwg 44)
1002
{
1002
}
1000
Value
1070
     4
1000

1002
{
1002
}
1000
EditFlag
1070
     1
1070
     1
1002
{
1002
}
1000
PosInDDATTE
1070
     1
1070
    14
1002
{
1002
}
1000
FieldLen
1070
     1
1070
    -1
1002
{
1002
}
1002
}
1000
15
1070
     6
1002
{
1000
Prompt
1070
     4
1000
(genmsg gendwg 45)
1002
{
1002
}
1000
Value
1070
     4
1000

1002
{
1002
}
1000
EditFlag
1070
     1
1070
     1
1002
{
1002
}
1000
PosInDDATTE
1070
     1
1070
    15
1002
{
1002
}
1000
FieldLen
1070
     1
1070
    -1
1002
{
1002
}
1002
}
1000
16
1070
     6
1002
{
1000
Prompt
1070
     4
1000
(genmsg gendwg 46)
1002
{
1002
}
1000
Value
1070
     4
1000

1002
{
1002
}
1000
EditFlag
1070
     1
1070
     1
1002
{
1002
}
1000
PosInDDATTE
1070
     1
1070
    16
1002
{
1002
}
1000
FieldLen
1070
     1
1070
    -1
1002
{
1002
}
1002
}
1000
17
1070
     6
1002
{
1000
Prompt
1070
     4
1000
(genmsg gendwg 47)
1002
{
1002
}
1000
Value
1070
     4
1000

1002
{
1002
}
1000
EditFlag
1070
     1
1070
     1
1002
{
1002
}
1000
PosInDDATTE
1070
     1
1070
    17
1002
{
1002
}
1000
FieldLen
1070
     1
1070
    -1
1002
{
1002
}
1002
}
1000
18
1070
     6
1002
{
1000
Prompt
1070
     4
1000
(genmsg gendwg 48)
1002
{
1002
}
1000
Value
1070
     4
1000

1002
{
1002
}
1000
EditFlag
1070
     1
1070
     1
1002
{
1002
}
1000
PosInDDATTE
1070
     1
1070
    18
1002
{
1002
}
1000
FieldLen
1070
     1
1070
    -1
1002
{
1002
}
1002
}
1000
19
1070
     6
1002
{
1000
Prompt
1070
     4
1000
(genmsg gendwg 99)
1002
{
1002
}
1000
Value
1070
     4
1000

1002
{
1002
}
1000
EditFlag
1070
     1
1070
     1
1002
{
1002
}
1000
PosInDDATTE
1070
     1
1070
    19
1002
{
1002
}
1000
FieldLen
1070
     1
1070
    -1
1002
{
1002
}
1002
}
1000
20
1070
     6
1002
{
1000
Prompt
1070
     4
1000
(genmsg gendwg 100)
1002
{
1002
}
1000
Value
1070
     4
1000

1002
{
1002
}
1000
EditFlag
1070
     1
1070
     1
1002
{
1002
}
1000
PosInDDATTE
1070
     1
1070
    20
1002
{
1002
}
1000
FieldLen
1070
     1
1070
    -1
1002
{
1002
}
1002
}
1000
21
1070
     6
1002
{
1000
Prompt
1070
     4
1000
(genmsg gendwg 101)
1002
{
1002
}
1000
Value
1070
     4
1000

1002
{
1002
}
1000
EditFlag
1070
     1
1070
     1
1002
{
1002
}
1000
PosInDDATTE
1070
     1
1070
    21
1002
{
1002
}
1000
FieldLen
1070
     1
1070
    -1
1002
{
1002
}
1002
}
1000
22
1070
     6
1002
{
1000
Prompt
1070
     4
1000
(genmsg gendwg 102)
1002
{
1002
}
1000
Value
1070
     4
1000

1002
{
1002
}
1000
EditFlag
1070
     1
1070
     1
1002
{
1002
}
1000
PosInDDATTE
1070
     1
1070
    22
1002
{
1002
}
1000
FieldLen
1070
     1
1070
    -1
1002
{
1002
}
1002
}
1000
23
1070
     6
1002
{
1000
Prompt
1070
     4
1000
(genmsg gendwg 30)
1002
{
1002
}
1000
Value
1070
     4
1000

1002
{
1002
}
1000
EditFlag
1070
     1
1070
     1
1002
{
1002
}
1000
PosInDDATTE
1070
     1
1070
    23
1002
{
1002
}
1000
FieldLen
1070
     1
1070
    -1
1002
{
1002
}
1002
}
1000
24
1070
     6
1002
{
1000
Prompt
1070
     4
1000
(genmsg gendwg 104)
1002
{
1002
}
1000
Value
1070
     4
1000

1002
{
1002
}
1000
EditFlag
1070
     1
1070
     1
1002
{
1002
}
1000
PosInDDATTE
1070
     1
1070
    24
1002
{
1002
}
1000
FieldLen
1070
     1
1070
    -1
1002
{
1002
}
1002
}
1000
25
1070
     6
1002
{
1000
Prompt
1070
     4
1000
(genmsg gendwg 105)
1002
{
1002
}
1000
Value
1070
     4
1000

1002
{
1002
}
1000
EditFlag
1070
     1
1070
     1
1002
{
1002
}
1000
PosInDDATTE
1070
     1
1070
    25
1002
{
1002
}
1000
FieldLen
1070
     1
1070
    -1
1002
{
1002
}
1002
}
1000
26
1070
     6
1002
{
1000
Prompt
1070
     4
1000
(genmsg gendwg 106)
1002
{
1002
}
1000
Value
1070
     4
1000

1002
{
1002
}
1000
EditFlag
1070
     1
1070
     1
1002
{
1002
}
1000
PosInDDATTE
1070
     1
1070
    26
1002
{
1002
}
1000
FieldLen
1070
     1
1070
    -1
1002
{
1002
}
1002
}
1000
27
1070
     6
1002
{
1000
Prompt
1070
     4
1000
(genmsg gendwg 109)
1002
{
1002
}
1000
Value
1070
     4
1000

1002
{
1002
}
1000
EditFlag
1070
     1
1070
     2
1002
{
1002
}
1000
PosInDDATTE
1070
     1
1070
    27
1002
{
1002
}
1000
FieldLen
1070
     1
1070
    -1
1002
{
1002
}
1002
}
1002
}
1000
Xlate
1070
     0
1002
{
1000
>
1002
}
  0
APPID
  5
1695
330
1629
100
AcDbSymbolTableRecord
100
AcDbRegAppTableRecord
  2
GENIUS_GENCFG2_13
 70
     0
1001
GENIUS_GENCFG_13
1071
1023340779
1000
1695
1000
GEN@LAYER@DEFS
1070
     9
1000
GenCfgObject
1000
GenCfgShort
1000
GenCfgReal
1000
GenCfgBool
1000
GenCfgString
1000
GenCfgDim
1000
GenCfgAttrInf
1000
GenCfgLaySection
1000
GenCfgLayer
1000
Basic
1070
     0
1002
{
1000
0
1070
     8
1000
0
1002
{
1000
Color
1070
     1
1070
     7
1002
{
1002
}
1000
LType
1070
     4
1000
CONTINUOUS
1002
{
1002
}
1000
Base
1070
     3
1070
     0
1002
{
1002
}
1002
}
1000
1
1070
     8
1000
1
1002
{
1000
Color
1070
     1
1070
    14
1002
{
1002
}
1000
LType
1070
     4
1000
CONTINUOUS
1002
{
1002
}
1000
Base
1070
     3
1070
     0
1002
{
1002
}
1002
}
1000
2
1070
     8
1000
2
1002
{
1000
Color
1070
     1
1070
     5
1002
{
1002
}
1000
LType
1070
     4
1000
CONTINUOUS
1002
{
1002
}
1000
Base
1070
     3
1070
     0
1002
{
1002
}
1002
}
1000
3
1070
     8
1000
3
1002
{
1000
Color
1070
     1
1070
     6
1002
{
1002
}
1000
LType
1070
     4
1000
GEN3
1002
{
1002
}
1000
Base
1070
     3
1070
     0
1002
{
1002
}
1002
}
1000
4
1070
     8
1000
4
1002
{
1000
Color
1070
     1
1070
     3
1002
{
1002
}
1000
LType
1070
     4
1000
CONTINUOUS
1002
{
1002
}
1000
Base
1070
     3
1070
     0
1002
{
1002
}
1002
}
1000
5
1070
     8
1000
5
1002
{
1000
Color
1070
     1
1070
     3
1002
{
1002
}
1000
LType
1070
     4
1000
CONTINUOUS
1002
{
1002
}
1000
Base
1070
     3
1070
     0
1002
{
1002
}
1002
}
1000
6
1070
     8
1000
6
1002
{
1000
Color
1070
     1
1070
     2
1002
{
1002
}
1000
LType
1070
     4
1000
CONTINUOUS
1002
{
1002
}
1000
Base
1070
     3
1070
     0
1002
{
1002
}
1002
}
1000
7
1070
     8
1000
7
1002
{
1000
Color
1070
     1
1070
     4
1002
{
1002
}
1000
LType
1070
     4
1000
GEN7
1002
{
1002
}
1000
Base
1070
     3
1070
     0
1002
{
1002
}
1002
}
1000
8
1070
     8
1000
8
1002
{
1000
Color
1070
     1
1070
     1
1002
{
1002
}
1000
LType
1070
     4
1000
CONTINUOUS
1002
{
1002
}
1000
Base
1070
     3
1070
     0
1002
{
1002
}
1002
}
1000
3A
1070
     8
1000
3A
1002
{
1000
Color
1070
     1
1070
     6
1002
{
1002
}
1000
LType
1070
     4
1000
GEN3A
1002
{
1002
}
1000
Base
1070
     3
1070
     0
1002
{
1002
}
1002
}
1000
7A
1070
     8
1000
7A
1002
{
1000
Color
1070
     1
1070
     4
1002
{
1002
}
1000
LType
1070
     4
1000
GEN7A
1002
{
1002
}
1000
Base
1070
     3
1070
     0
1002
{
1002
}
1002
}
1000
2A
1070
     8
1000
2A
1002
{
1000
Color
1070
     1
1070
     7
1002
{
1002
}
1000
LType
1070
     4
1000
GEN7
1002
{
1002
}
1000
Base
1070
     3
1070
     0
1002
{
1002
}
1002
}
1000
4A
1070
     8
1000
4A
1002
{
1000
Color
1070
     1
1070
     3
1002
{
1002
}
1000
LType
1070
     4
1000
GEN4A
1002
{
1002
}
1000
Base
1070
     3
1070
     0
1002
{
1002
}
1002
}
1000
9
1070
     8
1000
9
1002
{
1000
Color
1070
     1
1070
   253
1002
{
1002
}
1000
LType
1070
     4
1000
CONTINUOUS
1002
{
1002
}
1000
Base
1070
     3
1070
     0
1002
{
1002
}
1002
}
1000
IP
1070
     8
1000
IP
1002
{
1000
Color
1070
     1
1070
     7
1002
{
1002
}
1000
LType
1070
     4
1000
CONTINUOUS
1002
{
1002
}
1000
Base
1070
     3
1070
     0
1002
{
1002
}
1002
}
1002
}
1000
Standard
1070
     0
1002
{
1000
0N
1070
     8
1000
0N
1002
{
1000
Color
1070
     1
1070
     7
1002
{
1002
}
1000
LType
1070
     4
1000
CONTINUOUS
1002
{
1002
}
1000
Base
1070
     3
1070
     0
1002
{
1002
}
1002
}
1000
1N
1070
     8
1000
1N
1002
{
1000
Color
1070
     1
1070
    14
1002
{
1002
}
1000
LType
1070
     4
1000
CONTINUOUS
1002
{
1002
}
1000
Base
1070
     3
1070
     0
1002
{
1002
}
1002
}
1000
2N
1070
     8
1000
2N
1002
{
1000
Color
1070
     1
1070
     5
1002
{
1002
}
1000
LType
1070
     4
1000
CONTINUOUS
1002
{
1002
}
1000
Base
1070
     3
1070
     0
1002
{
1002
}
1002
}
1000
3N
1070
     8
1000
3N
1002
{
1000
Color
1070
     1
1070
     6
1002
{
1002
}
1000
LType
1070
     4
1000
GEN3
1002
{
1002
}
1000
Base
1070
     3
1070
     0
1002
{
1002
}
1002
}
1000
4N
1070
     8
1000
4N
1002
{
1000
Color
1070
     1
1070
     3
1002
{
1002
}
1000
LType
1070
     4
1000
CONTINUOUS
1002
{
1002
}
1000
Base
1070
     3
1070
     0
1002
{
1002
}
1002
}
1000
5N
1070
     8
1000
5N
1002
{
1000
Color
1070
     1
1070
     3
1002
{
1002
}
1000
LType
1070
     4
1000
CONTINUOUS
1002
{
1002
}
1000
Base
1070
     3
1070
     0
1002
{
1002
}
1002
}
1000
6N
1070
     8
1000
6N
1002
{
1000
Color
1070
     1
1070
     2
1002
{
1002
}
1000
LType
1070
     4
1000
CONTINUOUS
1002
{
1002
}
1000
Base
1070
     3
1070
     0
1002
{
1002
}
1002
}
1000
7N
1070
     8
1000
7N
1002
{
1000
Color
1070
     1
1070
     4
1002
{
1002
}
1000
LType
1070
     4
1000
GEN7
1002
{
1002
}
1000
Base
1070
     3
1070
     0
1002
{
1002
}
1002
}
1000
8N
1070
     8
1000
8N
1002
{
1000
Color
1070
     1
1070
     1
1002
{
1002
}
1000
LType
1070
     4
1000
CONTINUOUS
1002
{
1002
}
1000
Base
1070
     3
1070
     0
1002
{
1002
}
1002
}
1000
3AN
1070
     8
1000
3AN
1002
{
1000
Color
1070
     1
1070
     6
1002
{
1002
}
1000
LType
1070
     4
1000
GEN3A
1002
{
1002
}
1000
Base
1070
     3
1070
     0
1002
{
1002
}
1002
}
1000
7AN
1070
     8
1000
7AN
1002
{
1000
Color
1070
     1
1070
     4
1002
{
1002
}
1000
LType
1070
     4
1000
GEN7A
1002
{
1002
}
1000
Base
1070
     3
1070
     0
1002
{
1002
}
1002
}
1000
2AN
1070
     8
1000
2AN
1002
{
1000
Color
1070
     1
1070
     7
1002
{
1002
}
1000
LType
1070
     4
1000
GEN7
1002
{
1002
}
1000
Base
1070
     3
1070
     0
1002
{
1002
}
1002
}
1000
4AN
1070
     8
1000
4AN
1002
{
1000
Color
1070
     1
1070
     3
1002
{
1002
}
1000
LType
1070
     4
1000
GEN4A
1002
{
1002
}
1000
Base
1070
     3
1070
     0
1002
{
1002
}
1002
}
1000
9N
1070
     8
1000
9N
1002
{
1000
Color
1070
     1
1070
   253
1002
{
1002
}
1000
LType
1070
     4
1000
CONTINUOUS
1002
{
1002
}
1000
Base
1070
     3
1070
     0
1002
{
1002
}
1002
}
1000
IPN
1070
     8
1000
IPN
1002
{
1000
Color
1070
     1
1070
     7
1002
{
1002
}
1000
LType
1070
     4
1000
CONTINUOUS
1002
{
1002
}
1000
Base
1070
     3
1070
     0
1002
{
1002
}
1002
}
1002
}
1000
Extra
1070
     0
1002
{
1000
Klin
1070
     8
1000
KLIN
1002
{
1000
Color
1070
     1
1070
     1
1002
{
1002
}
1000
LType
1070
     4
1000
CONTINUOUS
1002
{
1002
}
1000
Base
1070
     3
1070
     1
1002
{
1002
}
1002
}
1000
Info
1070
     8
1000
INFO
1002
{
1000
Color
1070
     1
1070
     4
1002
{
1002
}
1000
LType
1070
     4
1000
CONTINUOUS
1002
{
1002
}
1000
Base
1070
     3
1070
     1
1002
{
1002
}
1002
}
1000
Rahm2
1070
     8
1000
RAHM2
1002
{
1000
Color
1070
     1
1070
     1
1002
{
1002
}
1000
LType
1070
     4
1000
CONTINUOUS
1002
{
1002
}
1000
Base
1070
     3
1070
     1
1002
{
1002
}
1002
}
1000
Rahm3
1070
     8
1000
RAHM3
1002
{
1000
Color
1070
     1
1070
     2
1002
{
1002
}
1000
LType
1070
     4
1000
CONTINUOUS
1002
{
1002
}
1000
Base
1070
     3
1070
     1
1002
{
1002
}
1002
}
1000
Rahm5
1070
     8
1000
RAHM5
1002
{
1000
Color
1070
     1
1070
     7
1002
{
1002
}
1000
LType
1070
     4
1000
CONTINUOUS
1002
{
1002
}
1000
Base
1070
     3
1070
     1
1002
{
1002
}
1002
}
1000
View
1070
     8
1000
VIEW
1002
{
1000
Color
1070
     1
1070
     1
1002
{
1002
}
1000
LType
1070
     4
1000
CONTINUOUS
1002
{
1002
}
1000
Base
1070
     3
1070
     1
1002
{
1002
}
1002
}
1000
Behind
1070
     8
1000
BEHIND
1002
{
1000
Color
1070
     1
1070
   253
1002
{
1002
}
1000
LType
1070
     4
1000
CONTINUOUS
1002
{
1002
}
1000
Base
1070
     3
1070
     1
1002
{
1002
}
1002
}
1002
}
  0
APPID
  5
1696
330
1629
100
AcDbSymbolTableRecord
100
AcDbRegAppTableRecord
  2
GENIUS_GENCFG3_13
 70
     0
1001
GENIUS_GENCFG_13
1071
1023340779
1000
1696
1000
GEN@LAYER@ENTSORT
1070
    10
1000
GenCfgObject
1000
GenCfgShort
1000
GenCfgReal
1000
GenCfgBool
1000
GenCfgString
1000
GenCfgDim
1000
GenCfgAttrInf
1000
GenCfgLaySection
1000
GenCfgLayer
1000
GenCfgEntSort
1000
ADDL
1070
     9
1000
5
1002
{
1000
Class
1070
     4
1000
SYM
1002
{
1002
}
1000
Color
1070
     1
1070
     1
1002
{
1002
}
1000
LType
1070
     4
1000
BYLAYER
1002
{
1002
}
1002
}
1000
ALTR
1070
     9
1000
4
1002
{
1000
Class
1070
     4
1000

1002
{
1002
}
1000
Color
1070
     1
1070
     7
1002
{
1002
}
1000
LType
1070
     4
1000
GEN3A
1002
{
1002
}
1002
}
1000
BELI
1070
     9
1000
4
1002
{
1000
Class
1070
     4
1000

1002
{
1002
}
1000
Color
1070
     1
1070
   256
1002
{
1002
}
1000
LType
1070
     4
1000
BYLAYER
1002
{
1002
}
1002
}
1000
BHNV
1070
     9
1000
9
1002
{
1000
Class
1070
     4
1000
INV
1002
{
1002
}
1000
Color
1070
     1
1070
   256
1002
{
1002
}
1000
LType
1070
     4
1000
BYLAYER
1002
{
1002
}
1002
}
1000
BHNVS
1070
     9
1000
BEHIND
1002
{
1000
Class
1070
     4
1000
INV
1002
{
1002
}
1000
Color
1070
     1
1070
   256
1002
{
1002
}
1000
LType
1070
     4
1000
BYLAYER
1002
{
1002
}
1002
}
1000
BLID
1070
     9
1000
4A
1002
{
1000
Class
1070
     4
1000

1002
{
1002
}
1000
Color
1070
     1
1070
   256
1002
{
1002
}
1000
LType
1070
     4
1000
BYLAYER
1002
{
1002
}
1002
}
1000
BOAP
1070
     9
1000
4A
1002
{
1000
Class
1070
     4
1000

1002
{
1002
}
1000
Color
1070
     1
1070
   256
1002
{
1002
}
1000
LType
1070
     4
1000
BYLAYER
1002
{
1002
}
1002
}
1000
BOR2
1070
     9
1000
RAHM2
1002
{
1000
Class
1070
     4
1000
SPZ,SYM
1002
{
1002
}
1000
Color
1070
     1
1070
   256
1002
{
1002
}
1000
LType
1070
     4
1000
BYLAYER
1002
{
1002
}
1002
}
1000
BOR3
1070
     9
1000
RAHM3
1002
{
1000
Class
1070
     4
1000
SPZ,SYM
1002
{
1002
}
1000
Color
1070
     1
1070
   256
1002
{
1002
}
1000
LType
1070
     4
1000
BYLAYER
1002
{
1002
}
1002
}
1000
BOR5
1070
     9
1000
RAHM5
1002
{
1000
Class
1070
     4
1000
SPZ,SYM
1002
{
1002
}
1000
Color
1070
     1
1070
   256
1002
{
1002
}
1000
LType
1070
     4
1000
BYLAYER
1002
{
1002
}
1002
}
1000
BOR7
1070
     9
1000
RAHM5
1002
{
1000
Class
1070
     4
1000
SPZ,SYM
1002
{
1002
}
1000
Color
1070
     1
1070
     7
1002
{
1002
}
1000
LType
1070
     4
1000
CONTINUOUS
1002
{
1002
}
1002
}
1000
BPAP
1070
     9
1000
4A
1002
{
1000
Class
1070
     4
1000

1002
{
1002
}
1000
Color
1070
     1
1070
   256
1002
{
1002
}
1000
LType
1070
     4
1000
BYLAYER
1002
{
1002
}
1002
}
1000
BPEX
1070
     9
1000
4A
1002
{
1000
Class
1070
     4
1000

1002
{
1002
}
1000
Color
1070
     1
1070
   256
1002
{
1002
}
1000
LType
1070
     4
1000
BYLAYER
1002
{
1002
}
1002
}
1000
BTDI
1070
     9
1000
5
1002
{
1000
Class
1070
     4
1000
DIM,SYM
1002
{
1002
}
1000
Color
1070
     1
1070
   256
1002
{
1002
}
1000
LType
1070
     4
1000
BYLAYER
1002
{
1002
}
1002
}
1000
CAL2
1070
     9
1000
4
1002
{
1000
Class
1070
     4
1000
SYM
1002
{
1002
}
1000
Color
1070
     1
1070
   256
1002
{
1002
}
1000
LType
1070
     4
1000
BYLAYER
1002
{
1002
}
1002
}
1000
CAL3
1070
     9
1000
4
1002
{
1000
Class
1070
     4
1000
SYM
1002
{
1002
}
1000
Color
1070
     1
1070
     2
1002
{
1002
}
1000
LType
1070
     4
1000
BYLAYER
1002
{
1002
}
1002
}
1000
CAL5
1070
     9
1000
4
1002
{
1000
Class
1070
     4
1000
SYM
1002
{
1002
}
1000
Color
1070
     1
1070
     7
1002
{
1002
}
1000
LType
1070
     4
1000
BYLAYER
1002
{
1002
}
1002
}
1000
CAL7
1070
     9
1000
4
1002
{
1000
Class
1070
     4
1000
SYM
1002
{
1002
}
1000
Color
1070
     1
1070
     5
1002
{
1002
}
1000
LType
1070
     4
1000
BYLAYER
1002
{
1002
}
1002
}
1000
CENN
1070
     9
1000
7A
1002
{
1000
Class
1070
     4
1000
CEN
1002
{
1002
}
1000
Color
1070
     1
1070
   256
1002
{
1002
}
1000
LType
1070
     4
1000
BYLAYER
1002
{
1002
}
1002
}
1000
CENW
1070
     9
1000
7
1002
{
1000
Class
1070
     4
1000
CEN
1002
{
1002
}
1000
Color
1070
     1
1070
   256
1002
{
1002
}
1000
LType
1070
     4
1000
BYLAYER
1002
{
1002
}
1002
}
1000
CLIN
1070
     9
1000
KLIN
1002
{
1000
Class
1070
     4
1000
SPZ
1002
{
1002
}
1000
Color
1070
     1
1070
   256
1002
{
1002
}
1000
LType
1070
     4
1000
BYLAYER
1002
{
1002
}
1002
}
1000
CON1
1070
     9
1000
0
1002
{
1000
Class
1070
     4
1000
CON,BGD
1002
{
1002
}
1000
Color
1070
     1
1070
   256
1002
{
1002
}
1000
LType
1070
     4
1000
BYLAYER
1002
{
1002
}
1002
}
1000
CON2
1070
     9
1000
1
1002
{
1000
Class
1070
     4
1000
CON,BGD
1002
{
1002
}
1000
Color
1070
     1
1070
   256
1002
{
1002
}
1000
LType
1070
     4
1000
BYLAYER
1002
{
1002
}
1002
}
1000
CON3
1070
     9
1000
2
1002
{
1000
Class
1070
     4
1000
CON,BGD
1002
{
1002
}
1000
Color
1070
     1
1070
   256
1002
{
1002
}
1000
LType
1070
     4
1000
BYLAYER
1002
{
1002
}
1002
}
1000
CON4
1070
     9
1000
2
1002
{
1000
Class
1070
     4
1000
CON,BGD
1002
{
1002
}
1000
Color
1070
     1
1070
   256
1002
{
1002
}
1000
LType
1070
     4
1000
BYLAYER
1002
{
1002
}
1002
}
1000
DERP
1070
     9
1000
4
1002
{
1000
Class
1070
     4
1000

1002
{
1002
}
1000
Color
1070
     1
1070
   256
1002
{
1002
}
1000
LType
1070
     4
1000
BYLAYER
1002
{
1002
}
1002
}
1000
DETA
1070
     9
1000
4
1002
{
1000
Class
1070
     4
1000

1002
{
1002
}
1000
Color
1070
     1
1070
   256
1002
{
1002
}
1000
LType
1070
     4
1000
BYLAYER
1002
{
1002
}
1002
}
1000
DIAG
1070
     9
1000
5
1002
{
1000
Class
1070
     4
1000
SYM
1002
{
1002
}
1000
Color
1070
     1
1070
   256
1002
{
1002
}
1000
LType
1070
     4
1000
BYLAYER
1002
{
1002
}
1002
}
1000
DILI
1070
     9
1000
5
1002
{
1000
Class
1070
     4
1000
DIM,SYM
1002
{
1002
}
1000
Color
1070
     1
1070
   256
1002
{
1002
}
1000
LType
1070
     4
1000
BYLAYER
1002
{
1002
}
1002
}
1000
DITO2
1070
     9
1000
5
1002
{
1000
Class
1070
     4
1000
DIM,SYM
1002
{
1002
}
1000
Color
1070
     1
1070
     3
1002
{
1002
}
1000
LType
1070
     4
1000
BYLAYER
1002
{
1002
}
1002
}
1000
DITO3
1070
     9
1000
5
1002
{
1000
Class
1070
     4
1000
DIM,SYM
1002
{
1002
}
1000
Color
1070
     1
1070
     2
1002
{
1002
}
1000
LType
1070
     4
1000
BYLAYER
1002
{
1002
}
1002
}
1000
DITX
1070
     9
1000
5
1002
{
1000
Class
1070
     4
1000
DIM,SYM
1002
{
1002
}
1000
Color
1070
     1
1070
     2
1002
{
1002
}
1000
LType
1070
     4
1000
CONTINUOUS
1002
{
1002
}
1002
}
1000
DIXL
1070
     9
1000
5
1002
{
1000
Class
1070
     4
1000
DIM,SYM
1002
{
1002
}
1000
Color
1070
     1
1070
   256
1002
{
1002
}
1000
LType
1070
     4
1000
BYLAYER
1002
{
1002
}
1002
}
1000
EXMP
1070
     9
1000
4A
1002
{
1000
Class
1070
     4
1000

1002
{
1002
}
1000
Color
1070
     1
1070
   256
1002
{
1002
}
1000
LType
1070
     4
1000
BYLAYER
1002
{
1002
}
1002
}
1000
FEMN
1070
     9
1000
8
1002
{
1000
Class
1070
     4
1000

1002
{
1002
}
1000
Color
1070
     1
1070
   256
1002
{
1002
}
1000
LType
1070
     4
1000
BYLAYER
1002
{
1002
}
1002
}
1000
FEMPN
1070
     9
1000
8
1002
{
1000
Class
1070
     4
1000
SYM
1002
{
1002
}
1000
Color
1070
     1
1070
     3
1002
{
1002
}
1000
LType
1070
     4
1000
BYLAYER
1002
{
1002
}
1002
}
1000
FEMSP
1070
     9
1000
4A
1002
{
1000
Class
1070
     4
1000

1002
{
1002
}
1000
Color
1070
     1
1070
   256
1002
{
1002
}
1000
LType
1070
     4
1000
CONTINUOUS
1002
{
1002
}
1002
}
1000
FEMST
1070
     9
1000
4A
1002
{
1000
Class
1070
     4
1000
SYM
1002
{
1002
}
1000
Color
1070
     1
1070
     3
1002
{
1002
}
1000
LType
1070
     4
1000
BYLAYER
1002
{
1002
}
1002
}
1000
FEMVN
1070
     9
1000
2
1002
{
1000
Class
1070
     4
1000
CON
1002
{
1002
}
1000
Color
1070
     1
1070
   256
1002
{
1002
}
1000
LType
1070
     4
1000
BYLAYER
1002
{
1002
}
1002
}
1000
FEMVT
1070
     9
1000
2
1002
{
1000
Class
1070
     4
1000
SYM
1002
{
1002
}
1000
Color
1070
     1
1070
     3
1002
{
1002
}
1000
LType
1070
     4
1000
BYLAYER
1002
{
1002
}
1002
}
1000
FLAT
1070
     9
1000
0
1002
{
1000
Class
1070
     4
1000

1002
{
1002
}
1000
Color
1070
     1
1070
   256
1002
{
1002
}
1000
LType
1070
     4
1000
BYLAYER
1002
{
1002
}
1002
}
1000
FRAR
1070
     9
1000
4A
1002
{
1000
Class
1070
     4
1000

1002
{
1002
}
1000
Color
1070
     1
1070
   256
1002
{
1002
}
1000
LType
1070
     4
1000
BYLAYER
1002
{
1002
}
1002
}
1000
GRLI
1070
     9
1000
5
1002
{
1000
Class
1070
     4
1000
SYM
1002
{
1002
}
1000
Color
1070
     1
1070
   256
1002
{
1002
}
1000
LType
1070
     4
1000
BYLAYER
1002
{
1002
}
1002
}
1000
GVLI
1070
     9
1000
4A
1002
{
1000
Class
1070
     4
1000

1002
{
1002
}
1000
Color
1070
     1
1070
   256
1002
{
1002
}
1000
LType
1070
     4
1000
BYLAYER
1002
{
1002
}
1002
}
1000
HATC
1070
     9
1000
8
1002
{
1000
Class
1070
     4
1000
HTC,BGD
1002
{
1002
}
1000
Color
1070
     1
1070
   256
1002
{
1002
}
1000
LType
1070
     4
1000
BYLAYER
1002
{
1002
}
1002
}
1000
HIDN
1070
     9
1000
3A
1002
{
1000
Class
1070
     4
1000
HID,BGD
1002
{
1002
}
1000
Color
1070
     1
1070
   256
1002
{
1002
}
1000
LType
1070
     4
1000
BYLAYER
1002
{
1002
}
1002
}
1000
HIDW
1070
     9
1000
3
1002
{
1000
Class
1070
     4
1000
HID,BGD
1002
{
1002
}
1000
Color
1070
     1
1070
   256
1002
{
1002
}
1000
LType
1070
     4
1000
BYLAYER
1002
{
1002
}
1002
}
1000
HLIN
1070
     9
1000
4
1002
{
1000
Class
1070
     4
1000
BGD
1002
{
1002
}
1000
Color
1070
     1
1070
   256
1002
{
1002
}
1000
LType
1070
     4
1000
BYLAYER
1002
{
1002
}
1002
}
1000
HOCN
1070
     9
1000
7A
1002
{
1000
Class
1070
     4
1000
CEN
1002
{
1002
}
1000
Color
1070
     1
1070
   256
1002
{
1002
}
1000
LType
1070
     4
1000
BYLAYER
1002
{
1002
}
1002
}
1000
HOCW
1070
     9
1000
7
1002
{
1000
Class
1070
     4
1000
CEN
1002
{
1002
}
1000
Color
1070
     1
1070
   256
1002
{
1002
}
1000
LType
1070
     4
1000
BYLAYER
1002
{
1002
}
1002
}
1000
INFO
1070
     9
1000
INFO
1002
{
1000
Class
1070
     4
1000
SPZ,SYM
1002
{
1002
}
1000
Color
1070
     1
1070
   256
1002
{
1002
}
1000
LType
1070
     4
1000
BYLAYER
1002
{
1002
}
1002
}
1000
LADI
1070
     9
1000
4
1002
{
1000
Class
1070
     4
1000
BGD
1002
{
1002
}
1000
Color
1070
     1
1070
   256
1002
{
1002
}
1000
LType
1070
     4
1000
BYLAYER
1002
{
1002
}
1002
}
1000
LEAD
1070
     9
1000
5
1002
{
1000
Class
1070
     4
1000
SYM
1002
{
1002
}
1000
Color
1070
     1
1070
   256
1002
{
1002
}
1000
LType
1070
     4
1000
BYLAYER
1002
{
1002
}
1002
}
1000
N_ADDL
1070
     9
1000
5N
1002
{
1000
Class
1070
     4
1000
SYM
1002
{
1002
}
1000
Color
1070
     1
1070
     1
1002
{
1002
}
1000
LType
1070
     4
1000
BYLAYER
1002
{
1002
}
1002
}
1000
N_BHNV
1070
     9
1000
9N
1002
{
1000
Class
1070
     4
1000
INV
1002
{
1002
}
1000
Color
1070
     1
1070
   256
1002
{
1002
}
1000
LType
1070
     4
1000
BYLAYER
1002
{
1002
}
1002
}
1000
N_CON1
1070
     9
1000
0N
1002
{
1000
Class
1070
     4
1000
CON,BGD
1002
{
1002
}
1000
Color
1070
     1
1070
   256
1002
{
1002
}
1000
LType
1070
     4
1000
BYLAYER
1002
{
1002
}
1002
}
1000
N_CON2
1070
     9
1000
1N
1002
{
1000
Class
1070
     4
1000
CON,BGD
1002
{
1002
}
1000
Color
1070
     1
1070
   256
1002
{
1002
}
1000
LType
1070
     4
1000
BYLAYER
1002
{
1002
}
1002
}
1000
N_CON3
1070
     9
1000
2N
1002
{
1000
Class
1070
     4
1000
CON,BGD
1002
{
1002
}
1000
Color
1070
     1
1070
   256
1002
{
1002
}
1000
LType
1070
     4
1000
BYLAYER
1002
{
1002
}
1002
}
1000
N_CON4
1070
     9
1000
2N
1002
{
1000
Class
1070
     4
1000
CON,BGD
1002
{
1002
}
1000
Color
1070
     1
1070
   256
1002
{
1002
}
1000
LType
1070
     4
1000
BYLAYER
1002
{
1002
}
1002
}
1000
N_CENN
1070
     9
1000
7AN
1002
{
1000
Class
1070
     4
1000
CEN
1002
{
1002
}
1000
Color
1070
     1
1070
   256
1002
{
1002
}
1000
LType
1070
     4
1000
BYLAYER
1002
{
1002
}
1002
}
1000
N_CENW
1070
     9
1000
7N
1002
{
1000
Class
1070
     4
1000
CEN
1002
{
1002
}
1000
Color
1070
     1
1070
   256
1002
{
1002
}
1000
LType
1070
     4
1000
BYLAYER
1002
{
1002
}
1002
}
1000
N_DILI
1070
     9
1000
5N
1002
{
1000
Class
1070
     4
1000
DIM,SYM
1002
{
1002
}
1000
Color
1070
     1
1070
   256
1002
{
1002
}
1000
LType
1070
     4
1000
BYLAYER
1002
{
1002
}
1002
}
1000
N_DITX
1070
     9
1000
5N
1002
{
1000
Class
1070
     4
1000
DIM,SYM
1002
{
1002
}
1000
Color
1070
     1
1070
     2
1002
{
1002
}
1000
LType
1070
     4
1000
CONTINUOUS
1002
{
1002
}
1002
}
1000
N_DIXL
1070
     9
1000
5N
1002
{
1000
Class
1070
     4
1000
DIM,SYM
1002
{
1002
}
1000
Color
1070
     1
1070
   256
1002
{
1002
}
1000
LType
1070
     4
1000
BYLAYER
1002
{
1002
}
1002
}
1000
N_HATC
1070
     9
1000
8N
1002
{
1000
Class
1070
     4
1000
HTC,BGD
1002
{
1002
}
1000
Color
1070
     1
1070
   256
1002
{
1002
}
1000
LType
1070
     4
1000
BYLAYER
1002
{
1002
}
1002
}
1000
N_HIDN
1070
     9
1000
3AN
1002
{
1000
Class
1070
     4
1000
HID,BGD
1002
{
1002
}
1000
Color
1070
     1
1070
   256
1002
{
1002
}
1000
LType
1070
     4
1000
BYLAYER
1002
{
1002
}
1002
}
1000
N_HIDW
1070
     9
1000
3N
1002
{
1000
Class
1070
     4
1000
HID,BGD
1002
{
1002
}
1000
Color
1070
     1
1070
   256
1002
{
1002
}
1000
LType
1070
     4
1000
BYLAYER
1002
{
1002
}
1002
}
1000
N_NGIP
1070
     9
1000
IPN
1002
{
1000
Class
1070
     4
1000

1002
{
1002
}
1000
Color
1070
     1
1070
   256
1002
{
1002
}
1000
LType
1070
     4
1000
BYLAYER
1002
{
1002
}
1002
}
1000
N_PHAN
1070
     9
1000
4AN
1002
{
1000
Class
1070
     4
1000

1002
{
1002
}
1000
Color
1070
     1
1070
   256
1002
{
1002
}
1000
LType
1070
     4
1000
BYLAYER
1002
{
1002
}
1002
}
1000
N_POSL
1070
     9
1000
5N
1002
{
1000
Class
1070
     4
1000
SYM
1002
{
1002
}
1000
Color
1070
     1
1070
   256
1002
{
1002
}
1000
LType
1070
     4
1000
BYLAYER
1002
{
1002
}
1002
}
1000
N_TCON
1070
     9
1000
0N
1002
{
1000
Class
1070
     4
1000
CON,BGD
1002
{
1002
}
1000
Color
1070
     1
1070
   256
1002
{
1002
}
1000
LType
1070
     4
1000
BYLAYER
1002
{
1002
}
1002
}
1000
N_THLI
1070
     9
1000
4N
1002
{
1000
Class
1070
     4
1000
BGD
1002
{
1002
}
1000
Color
1070
     1
1070
   256
1002
{
1002
}
1000
LType
1070
     4
1000
BYLAYER
1002
{
1002
}
1002
}
1000
N_TLEN
1070
     9
1000
0N
1002
{
1000
Class
1070
     4
1000
CON,BGD
1002
{
1002
}
1000
Color
1070
     1
1070
   256
1002
{
1002
}
1000
LType
1070
     4
1000
BYLAYER
1002
{
1002
}
1002
}
1000
N_TXT3
1070
     9
1000
6N
1002
{
1000
Class
1070
     4
1000
SYM
1002
{
1002
}
1000
Color
1070
     1
1070
   256
1002
{
1002
}
1000
LType
1070
     4
1000
BYLAYER
1002
{
1002
}
1002
}
1000
N_VPLI
1070
     9
1000
2AN
1002
{
1000
Class
1070
     4
1000

1002
{
1002
}
1000
Color
1070
     1
1070
   256
1002
{
1002
}
1000
LType
1070
     4
1000
BYLAYER
1002
{
1002
}
1002
}
1000
NGIP
1070
     9
1000
IP
1002
{
1000
Class
1070
     4
1000

1002
{
1002
}
1000
Color
1070
     1
1070
   256
1002
{
1002
}
1000
LType
1070
     4
1000
BYLAYER
1002
{
1002
}
1002
}
1000
PAL2
1070
     9
1000
RAHM2
1002
{
1000
Class
1070
     4
1000
SPZ,SYM
1002
{
1002
}
1000
Color
1070
     1
1070
   256
1002
{
1002
}
1000
LType
1070
     4
1000
BYLAYER
1002
{
1002
}
1002
}
1000
PAL3
1070
     9
1000
RAHM3
1002
{
1000
Class
1070
     4
1000
SPZ,SYM
1002
{
1002
}
1000
Color
1070
     1
1070
   256
1002
{
1002
}
1000
LType
1070
     4
1000
BYLAYER
1002
{
1002
}
1002
}
1000
PAL5
1070
     9
1000
RAHM5
1002
{
1000
Class
1070
     4
1000
SPZ,SYM
1002
{
1002
}
1000
Color
1070
     1
1070
   256
1002
{
1002
}
1000
LType
1070
     4
1000
BYLAYER
1002
{
1002
}
1002
}
1000
PAL7
1070
     9
1000
RAHM5
1002
{
1000
Class
1070
     4
1000
SPZ,SYM
1002
{
1002
}
1000
Color
1070
     1
1070
     7
1002
{
1002
}
1000
LType
1070
     4
1000
CONTINUOUS
1002
{
1002
}
1002
}
1000
PHAN
1070
     9
1000
4A
1002
{
1000
Class
1070
     4
1000

1002
{
1002
}
1000
Color
1070
     1
1070
   256
1002
{
1002
}
1000
LType
1070
     4
1000
BYLAYER
1002
{
1002
}
1002
}
1000
POSL
1070
     9
1000
5
1002
{
1000
Class
1070
     4
1000
SYM
1002
{
1002
}
1000
Color
1070
     1
1070
   256
1002
{
1002
}
1000
LType
1070
     4
1000
BYLAYER
1002
{
1002
}
1002
}
1000
POSN
1070
     9
1000
6
1002
{
1000
Class
1070
     4
1000
SYM
1002
{
1002
}
1000
Color
1070
     1
1070
     7
1002
{
1002
}
1000
LType
1070
     4
1000
BYLAYER
1002
{
1002
}
1002
}
1000
POSREF
1070
     9
1000
6
1002
{
1000
Class
1070
     4
1000
SYM
1002
{
1002
}
1000
Color
1070
     1
1070
     5
1002
{
1002
}
1000
LType
1070
     4
1000
BYLAYER
1002
{
1002
}
1002
}
1000
POSX
1070
     9
1000
5
1002
{
1000
Class
1070
     4
1000
SYM
1002
{
1002
}
1000
Color
1070
     1
1070
     2
1002
{
1002
}
1000
LType
1070
     4
1000
CONTINUOUS
1002
{
1002
}
1002
}
1000
PSEC
1070
     9
1000
4A
1002
{
1000
Class
1070
     4
1000

1002
{
1002
}
1000
Color
1070
     1
1070
   256
1002
{
1002
}
1000
LType
1070
     4
1000
BYLAYER
1002
{
1002
}
1002
}
1000
RCGN
1070
     9
1000
7A
1002
{
1000
Class
1070
     4
1000
CEN
1002
{
1002
}
1000
Color
1070
     1
1070
   256
1002
{
1002
}
1000
LType
1070
     4
1000
BYLAYER
1002
{
1002
}
1002
}
1000
RCGW
1070
     9
1000
7
1002
{
1000
Class
1070
     4
1000
CEN
1002
{
1002
}
1000
Color
1070
     1
1070
   256
1002
{
1002
}
1000
LType
1070
     4
1000
BYLAYER
1002
{
1002
}
1002
}
1000
RFDI
1070
     9
1000
4
1002
{
1000
Class
1070
     4
1000
BGD
1002
{
1002
}
1000
Color
1070
     1
1070
   256
1002
{
1002
}
1000
LType
1070
     4
1000
BYLAYER
1002
{
1002
}
1002
}
1000
RQTR
1070
     9
1000
4
1002
{
1000
Class
1070
     4
1000

1002
{
1002
}
1000
Color
1070
     1
1070
     7
1002
{
1002
}
1000
LType
1070
     4
1000
GEN7A
1002
{
1002
}
1002
}
1000
RSBO
1070
     9
1000
4
1002
{
1000
Class
1070
     4
1000
BGD
1002
{
1002
}
1000
Color
1070
     1
1070
   256
1002
{
1002
}
1000
LType
1070
     4
1000
BYLAYER
1002
{
1002
}
1002
}
1000
SBRK
1070
     9
1000
4
1002
{
1000
Class
1070
     4
1000
BGD
1002
{
1002
}
1000
Color
1070
     1
1070
   256
1002
{
1002
}
1000
LType
1070
     4
1000
BYLAYER
1002
{
1002
}
1002
}
1000
SCEN
1070
     9
1000
7
1002
{
1000
Class
1070
     4
1000

1002
{
1002
}
1000
Color
1070
     1
1070
   256
1002
{
1002
}
1000
LType
1070
     4
1000
CONTINUOUS
1002
{
1002
}
1002
}
1000
SECT
1070
     9
1000
4
1002
{
1000
Class
1070
     4
1000
BGD
1002
{
1002
}
1000
Color
1070
     1
1070
   256
1002
{
1002
}
1000
LType
1070
     4
1000
BYLAYER
1002
{
1002
}
1002
}
1000
SELN
1070
     9
1000
7A
1002
{
1000
Class
1070
     4
1000

1002
{
1002
}
1000
Color
1070
     1
1070
   256
1002
{
1002
}
1000
LType
1070
     4
1000
BYLAYER
1002
{
1002
}
1002
}
1000
SELW
1070
     9
1000
7
1002
{
1000
Class
1070
     4
1000

1002
{
1002
}
1000
Color
1070
     1
1070
   256
1002
{
1002
}
1000
LType
1070
     4
1000
BYLAYER
1002
{
1002
}
1002
}
1000
SSYS
1070
     9
1000
0
1002
{
1000
Class
1070
     4
1000

1002
{
1002
}
1000
Color
1070
     1
1070
   256
1002
{
1002
}
1000
LType
1070
     4
1000
BYLAYER
1002
{
1002
}
1002
}
1000
STLI
1070
     9
1000
4
1002
{
1000
Class
1070
     4
1000

1002
{
1002
}
1000
Color
1070
     1
1070
     7
1002
{
1002
}
1000
LType
1070
     4
1000
GEN3A
1002
{
1002
}
1002
}
1000
SYB1
1070
     9
1000
5
1002
{
1000
Class
1070
     4
1000
SYM
1002
{
1002
}
1000
Color
1070
     1
1070
   256
1002
{
1002
}
1000
LType
1070
     4
1000
BYLAYER
1002
{
1002
}
1002
}
1000
SYB2
1070
     9
1000
5
1002
{
1000
Class
1070
     4
1000
SYM
1002
{
1002
}
1000
Color
1070
     1
1070
   256
1002
{
1002
}
1000
LType
1070
     4
1000
BYLAYER
1002
{
1002
}
1002
}
1000
SYB3
1070
     9
1000
6
1002
{
1000
Class
1070
     4
1000
SYM
1002
{
1002
}
1000
Color
1070
     1
1070
   256
1002
{
1002
}
1000
LType
1070
     4
1000
CONTINUOUS
1002
{
1002
}
1002
}
1000
SYB5
1070
     9
1000
5
1002
{
1000
Class
1070
     4
1000
SYM
1002
{
1002
}
1000
Color
1070
     1
1070
     7
1002
{
1002
}
1000
LType
1070
     4
1000
BYLAYER
1002
{
1002
}
1002
}
1000
SYMN
1070
     9
1000
7A
1002
{
1000
Class
1070
     4
1000
CEN
1002
{
1002
}
1000
Color
1070
     1
1070
   256
1002
{
1002
}
1000
LType
1070
     4
1000
BYLAYER
1002
{
1002
}
1002
}
1000
SYMW
1070
     9
1000
7
1002
{
1000
Class
1070
     4
1000
CEN
1002
{
1002
}
1000
Color
1070
     1
1070
   256
1002
{
1002
}
1000
LType
1070
     4
1000
BYLAYER
1002
{
1002
}
1002
}
1000
TCON
1070
     9
1000
0
1002
{
1000
Class
1070
     4
1000
CON,BGD
1002
{
1002
}
1000
Color
1070
     1
1070
   256
1002
{
1002
}
1000
LType
1070
     4
1000
BYLAYER
1002
{
1002
}
1002
}
1000
THLI
1070
     9
1000
4
1002
{
1000
Class
1070
     4
1000
BGD
1002
{
1002
}
1000
Color
1070
     1
1070
   256
1002
{
1002
}
1000
LType
1070
     4
1000
BYLAYER
1002
{
1002
}
1002
}
1000
TIT2
1070
     9
1000
RAHM2
1002
{
1000
Class
1070
     4
1000
SPZ,SYM
1002
{
1002
}
1000
Color
1070
     1
1070
   256
1002
{
1002
}
1000
LType
1070
     4
1000
BYLAYER
1002
{
1002
}
1002
}
1000
TIT3
1070
     9
1000
RAHM3
1002
{
1000
Class
1070
     4
1000
SPZ,SYM
1002
{
1002
}
1000
Color
1070
     1
1070
   256
1002
{
1002
}
1000
LType
1070
     4
1000
BYLAYER
1002
{
1002
}
1002
}
1000
TIT5
1070
     9
1000
RAHM5
1002
{
1000
Class
1070
     4
1000
SPZ,SYM
1002
{
1002
}
1000
Color
1070
     1
1070
   256
1002
{
1002
}
1000
LType
1070
     4
1000
BYLAYER
1002
{
1002
}
1002
}
1000
TIT7
1070
     9
1000
RAHM5
1002
{
1000
Class
1070
     4
1000
SPZ,SYM
1002
{
1002
}
1000
Color
1070
     1
1070
     7
1002
{
1002
}
1000
LType
1070
     4
1000
CONTINUOUS
1002
{
1002
}
1002
}
1000
TLEN
1070
     9
1000
0
1002
{
1000
Class
1070
     4
1000
CON,BGD
1002
{
1002
}
1000
Color
1070
     1
1070
   256
1002
{
1002
}
1000
LType
1070
     4
1000
BYLAYER
1002
{
1002
}
1002
}
1000
TRKN
1070
     9
1000
7A
1002
{
1000
Class
1070
     4
1000

1002
{
1002
}
1000
Color
1070
     1
1070
   256
1002
{
1002
}
1000
LType
1070
     4
1000
BYLAYER
1002
{
1002
}
1002
}
1000
TRKW
1070
     9
1000
7
1002
{
1000
Class
1070
     4
1000

1002
{
1002
}
1000
Color
1070
     1
1070
   256
1002
{
1002
}
1000
LType
1070
     4
1000
BYLAYER
1002
{
1002
}
1002
}
1000
TRLI
1070
     9
1000
4
1002
{
1000
Class
1070
     4
1000
BGD
1002
{
1002
}
1000
Color
1070
     1
1070
   256
1002
{
1002
}
1000
LType
1070
     4
1000
BYLAYER
1002
{
1002
}
1002
}
1000
TXT1
1070
     9
1000
6
1002
{
1000
Class
1070
     4
1000
SYM
1002
{
1002
}
1000
Color
1070
     1
1070
     2
1002
{
1002
}
1000
LType
1070
     4
1000
BYLAYER
1002
{
1002
}
1002
}
1000
TXT2
1070
     9
1000
6
1002
{
1000
Class
1070
     4
1000
SYM
1002
{
1002
}
1000
Color
1070
     1
1070
     2
1002
{
1002
}
1000
LType
1070
     4
1000
BYLAYER
1002
{
1002
}
1002
}
1000
TXT3
1070
     9
1000
6
1002
{
1000
Class
1070
     4
1000
SYM
1002
{
1002
}
1000
Color
1070
     1
1070
   256
1002
{
1002
}
1000
LType
1070
     4
1000
BYLAYER
1002
{
1002
}
1002
}
1000
TXT5
1070
     9
1000
6
1002
{
1000
Class
1070
     4
1000
SYM
1002
{
1002
}
1000
Color
1070
     1
1070
     7
1002
{
1002
}
1000
LType
1070
     4
1000
BYLAYER
1002
{
1002
}
1002
}
1000
TXT7
1070
     9
1000
6
1002
{
1000
Class
1070
     4
1000
SYM
1002
{
1002
}
1000
Color
1070
     1
1070
     7
1002
{
1002
}
1000
LType
1070
     4
1000
BYLAYER
1002
{
1002
}
1002
}
1000
VIEW
1070
     9
1000
VIEW
1002
{
1000
Class
1070
     4
1000
SPZ
1002
{
1002
}
1000
Color
1070
     1
1070
   256
1002
{
1002
}
1000
LType
1070
     4
1000
BYLAYER
1002
{
1002
}
1002
}
1000
VPLI
1070
     9
1000
2A
1002
{
1000
Class
1070
     4
1000

1002
{
1002
}
1000
Color
1070
     1
1070
   256
1002
{
1002
}
1000
LType
1070
     4
1000
BYLAYER
1002
{
1002
}
1002
}
1000
ZIZA
1070
     9
1000
4
1002
{
1000
Class
1070
     4
1000
BGD
1002
{
1002
}
1000
Color
1070
     1
1070
   256
1002
{
1002
}
1000
LType
1070
     4
1000
GENZIGZAG
1002
{
1002
}
1002
}
  0
APPID
  5
1697
330
1629
100
AcDbSymbolTableRecord
100
AcDbRegAppTableRecord
  2
GENIUS_GENCFG4_13
 70
     0
1001
GENIUS_GENCFG_13
1071
1023340791
1000
1697
1000
GEN
1070
     9
1000
GenCfgObject
1000
GenCfgShort
1000
GenCfgReal
1000
GenCfgBool
1000
GenCfgString
1000
GenCfgDim
1000
GenCfgLaySection
1000
GenCfgLType
1000
GenCfgFilter
1000
Balloon
1070
     0
1002
{
1000
GenIF
1070
     1
1070
     0
1002
{
1002
}
1000
GenPosInc
1070
     1
1070
     1
1002
{
1002
}
1000
GenPosBlk
1070
     1
1070
     8
1002
{
1002
}
1000
GenPosVar
1070
     1
1070
     0
1002
{
1002
}
1000
GenZiCir
1070
     2
1040
1.5
1002
{
1002
}
1000
MaxCharForCenteredText
1070
     1
1070
    30
1002
{
1002
}
1000
Snap
1070
     0
1002
{
1000
ActivationRadius
1070
     2
1040
1.0
1002
{
1002
}
1000
M
1070
     0
1002
{
1000
SnapStepX
1070
     2
1040
20.0
1002
{
1002
}
1000
SnapStepY
1070
     2
1040
10.0
1002
{
1002
}
1002
}
1000
I
1070
     0
1002
{
1000
SnapStepX
1070
     2
1040
1.0
1002
{
1002
}
1000
SnapStepY
1070
     2
1040
0.5
1002
{
1002
}
1002
}
1002
}
1002
}
1000
Centerline
1070
     0
1002
{
1000
ScaleNot
1070
     3
1070
     0
1002
{
1002
}
1000
M
1070
     0
1002
{
1000
GenCenAng
1070
     4
1000
45|90|135
1002
{
1002
}
1000
GenCenDia
1070
     2
1040
10.0
1002
{
1002
}
1000
GenCenDias
1070
     4
1000
10|20|30
1002
{
1002
}
1000
GenCenDist
1070
     2
1040
3.0
1002
{
1002
}
1000
GenCenLen
1070
     2
1040
10.0
1002
{
1002
}
1000
GenCenOff
1070
     2
1040
10.0
1002
{
1002
}
1002
}
1000
I
1070
     0
1002
{
1000
GenCenAng
1070
     4
1000
45|90|135
1002
{
1002
}
1000
GenCenDia
1070
     2
1040
0.5
1002
{
1002
}
1000
GenCenDias
1070
     4
1000
0.5|1.0|1.5
1002
{
1002
}
1000
GenCenDist
1070
     2
1040
0.125
1002
{
1002
}
1000
GenCenLen
1070
     2
1040
0.5
1002
{
1002
}
1000
GenCenOff
1070
     2
1040
0.5
1002
{
1002
}
1002
}
1002
}
1000
CLine
1070
     0
1002
{
1000
CAngArray
1070
     4
1000
30|45|60
1002
{
1002
}
1000
Typ
1070
     4
1000
XLINE
1002
{
1002
}
1000
M
1070
     0
1002
{
1000
CLinArray
1070
     4
1000
10|20|30
1002
{
1002
}
1002
}
1000
I
1070
     0
1002
{
1000
CLinArray
1070
     4
1000
0.125|0.25|0.5
1002
{
1002
}
1002
}
1002
}
1000
Detail
1070
     0
1002
{
1002
}
1000
Dimension
1070
     5
1002
{
1000
DIMALT
1070
     1
1070
     0
1002
{
1002
}
1000
DIMALTD
1070
     1
1070
     2
1002
{
1002
}
1000
DIMALTTD
1070
     1
1070
     4
1002
{
1002
}
1000
DIMALTTZ
1070
     1
1070
     0
1002
{
1002
}
1000
DIMALTU
1070
     1
1070
     2
1002
{
1002
}
1000
DIMALTZ
1070
     1
1070
     0
1002
{
1002
}
1000
DIMAUNIT
1070
     1
1070
     0
1002
{
1002
}
1000
DIMBLK
1070
     4
1000

1002
{
1002
}
1000
DIMBLK1
1070
     4
1000

1002
{
1002
}
1000
DIMBLK2
1070
     4
1000

1002
{
1002
}
1000
DIMCLRD
1070
     1
1070
   256
1002
{
1002
}
1000
DIMCLRE
1070
     1
1070
   256
1002
{
1002
}
1000
DIMCLRT
1070
     1
1070
     2
1002
{
1002
}
1000
DIMDLE
1070
     2
1040
0.0
1002
{
1002
}
1000
DIMFIT
1070
     1
1070
     3
1002
{
1002
}
1000
DIMJUST
1070
     1
1070
     0
1002
{
1002
}
1000
DIMLFAC
1070
     2
1040
1.0
1002
{
1002
}
1000
DIMLIM
1070
     1
1070
     0
1002
{
1002
}
1000
DIMPOST
1070
     4
1000

1002
{
1002
}
1000
DIMRND
1070
     2
1040
0.0
1002
{
1002
}
1000
DIMSAH
1070
     1
1070
     0
1002
{
1002
}
1000
DIMSCALE
1070
     2
1040
1.0
1002
{
1002
}
1000
DIMSD1
1070
     1
1070
     0
1002
{
1002
}
1000
DIMSD2
1070
     1
1070
     0
1002
{
1002
}
1000
DIMSE1
1070
     1
1070
     0
1002
{
1002
}
1000
DIMSE2
1070
     1
1070
     0
1002
{
1002
}
1000
DIMSOXD
1070
     1
1070
     0
1002
{
1002
}
1000
DIMTAD
1070
     1
1070
     0
1002
{
1002
}
1000
DIMTFAC
1070
     2
1040
0.71
1002
{
1002
}
1000
DIMTIH
1070
     1
1070
     0
1002
{
1002
}
1000
DIMTIX
1070
     1
1070
     0
1002
{
1002
}
1000
DIMTM
1070
     2
1040
0.1
1002
{
1002
}
1000
DIMTOFL
1070
     1
1070
     0
1002
{
1002
}
1000
DIMTOH
1070
     1
1070
     0
1002
{
1002
}
1000
DIMTOL
1070
     1
1070
     0
1002
{
1002
}
1000
DIMTOLJ
1070
     1
1070
     1
1002
{
1002
}
1000
DIMTP
1070
     2
1040
0.1
1002
{
1002
}
1000
DIMTSZ
1070
     2
1040
0.0
1002
{
1002
}
1000
DIMTVP
1070
     2
1040
0.0
1002
{
1002
}
1000
DIMTXSTY
1070
     4
1000
STANDARD
1002
{
1002
}
1000
DIMTZIN
1070
     1
1070
     0
1002
{
1002
}
1000
DIMUNIT
1070
     1
1070
     2
1002
{
1002
}
1000
DIMUPT
1070
     1
1070
     0
1002
{
1002
}
1000
M
1070
     0
1002
{
1000
DIMALTF
1070
     2
1040
0.03937
1002
{
1002
}
1000
DIMAPOST
1070
     4
1000
"
1002
{
1002
}
1000
DIMASZ
1070
     2
1040
2.5
1002
{
1002
}
1000
DIMCEN
1070
     2
1040
0.0
1002
{
1002
}
1000
DIMDEC
1070
     1
1070
     2
1002
{
1002
}
1000
DIMDLI
1070
     2
1040
7.0
1002
{
1002
}
1000
DIMEXE
1070
     2
1040
1.0
1002
{
1002
}
1000
DIMEXO
1070
     2
1040
1.0
1002
{
1002
}
1000
DIMGAP
1070
     2
1040
0.6
1002
{
1002
}
1000
DIMTDEC
1070
     1
1070
     3
1002
{
1002
}
1000
DIMTXT
1070
     2
1040
3.5
1002
{
1002
}
1000
DIMZIN
1070
     1
1070
     8
1002
{
1002
}
1002
}
1000
I
1070
     0
1002
{
1000
DIMALTF
1070
     2
1040
25.4
1002
{
1002
}
1000
DIMAPOST
1070
     4
1000
mm
1002
{
1002
}
1000
DIMASZ
1070
     2
1040
0.1
1002
{
1002
}
1000
DIMCEN
1070
     2
1040
0.0
1002
{
1002
}
1000
DIMDEC
1070
     1
1070
     4
1002
{
1002
}
1000
DIMDLI
1070
     2
1040
0.5
1002
{
1002
}
1000
DIMEXE
1070
     2
1040
0.1
1002
{
1002
}
1000
DIMEXO
1070
     2
1040
0.05
1002
{
1002
}
1000
DIMGAP
1070
     2
1040
0.06
1002
{
1002
}
1000
DIMTDEC
1070
     1
1070
     4
1002
{
1002
}
1000
DIMTXT
1070
     2
1040
0.12
1002
{
1002
}
1000
DIMZIN
1070
     1
1070
     7
1002
{
1002
}
1002
}
1000
GEN-ISO
1070
     5
1002
{
1000
NAME
1070
     4
1000
GEN-ISO
1002
{
1002
}
1000
DIMTAD
1070
     1
1070
     1
1002
{
1002
}
1000
DIMTOLJ
1070
     1
1070
     0
1002
{
1002
}
1000
DIMTOFL
1070
     1
1070
     1
1002
{
1002
}
1000
M
1070
     0
1002
{
1002
}
1000
I
1070
     0
1002
{
1002
}
1002
}
1000
GEN-ISO-POS
1070
     5
1002
{
1000
NAME
1070
     4
1000
GEN-ISO-POS
1002
{
1002
}
1000
DIMTOLJ
1070
     1
1070
     0
1002
{
1002
}
1000
DIMTXSTY
1070
     4
1000
STANDARD
1002
{
1002
}
1000
M
1070
     0
1002
{
1000
DIMASZ
1070
     2
1040
2.5
1002
{
1002
}
1000
DIMGAP
1070
     2
1040
1.5
1002
{
1002
}
1000
DIMTXT
1070
     2
1040
5.0
1002
{
1002
}
1002
}
1000
I
1070
     0
1002
{
1000
DIMASZ
1070
     2
1040
0.1
1002
{
1002
}
1000
DIMGAP
1070
     2
1040
0.06
1002
{
1002
}
1000
DIMTXT
1070
     2
1040
0.2
1002
{
1002
}
1002
}
1002
}
1000
GEN-ISO-CIR
1070
     5
1002
{
1000
NAME
1070
     4
1000
GEN-ISO$3
1002
{
1002
}
1000
DIMFIT
1070
     1
1070
     0
1002
{
1002
}
1000
DIMTAD
1070
     1
1070
     1
1002
{
1002
}
1000
DIMTOH
1070
     1
1070
     1
1002
{
1002
}
1000
DIMTOLJ
1070
     1
1070
     0
1002
{
1002
}
1000
DIMUPT
1070
     1
1070
     1
1002
{
1002
}
1000
M
1070
     0
1002
{
1002
}
1000
I
1070
     0
1002
{
1002
}
1002
}
1000
GEN-ISO-RAD
1070
     5
1002
{
1000
NAME
1070
     4
1000
GEN-ISO$4
1002
{
1002
}
1000
DIMFIT
1070
     1
1070
     0
1002
{
1002
}
1000
DIMTAD
1070
     1
1070
     1
1002
{
1002
}
1000
DIMTIH
1070
     1
1070
     0
1002
{
1002
}
1000
DIMTIX
1070
     1
1070
     0
1002
{
1002
}
1000
DIMTOH
1070
     1
1070
     1
1002
{
1002
}
1000
DIMTOLJ
1070
     1
1070
     0
1002
{
1002
}
1000
DIMTOFL
1070
     1
1070
     0
1002
{
1002
}
1000
DIMUPT
1070
     1
1070
     1
1002
{
1002
}
1000
M
1070
     0
1002
{
1002
}
1000
I
1070
     0
1002
{
1002
}
1002
}
1000
GEN-ISO-ORD
1070
     5
1002
{
1000
NAME
1070
     4
1000
GEN-ISO$6
1002
{
1002
}
1000
DIMTOLJ
1070
     1
1070
     0
1002
{
1002
}
1000
M
1070
     0
1002
{
1002
}
1000
I
1070
     0
1002
{
1002
}
1002
}
1000
GEN-ISO-AXE-F
1070
     5
1002
{
1000
NAME
1070
     4
1000
GEN-ISO-AXE-F
1002
{
1002
}
1000
DIMSE1
1070
     1
1070
     1
1002
{
1002
}
1000
DIMSE2
1070
     1
1070
     1
1002
{
1002
}
1000
DIMTAD
1070
     1
1070
     1
1002
{
1002
}
1000
DIMTOLJ
1070
     1
1070
     0
1002
{
1002
}
1000
DIMTOFL
1070
     1
1070
     1
1002
{
1002
}
1000
M
1070
     0
1002
{
1002
}
1000
I
1070
     0
1002
{
1002
}
1002
}
1000
GEN-ISO-AXE-H
1070
     5
1002
{
1000
NAME
1070
     4
1000
GEN-ISO-AXE-H
1002
{
1002
}
1000
DIMBLK1
1070
     4
1000
GENAXEH
1002
{
1002
}
1000
DIMLFAC
1070
     2
1040
2.0
1002
{
1002
}
1000
DIMSAH
1070
     1
1070
     1
1002
{
1002
}
1000
DIMSE1
1070
     1
1070
     1
1002
{
1002
}
1000
DIMSE2
1070
     1
1070
     1
1002
{
1002
}
1000
DIMTAD
1070
     1
1070
     1
1002
{
1002
}
1000
DIMTOLJ
1070
     1
1070
     0
1002
{
1002
}
1000
DIMTOFL
1070
     1
1070
     1
1002
{
1002
}
1000
M
1070
     0
1002
{
1002
}
1000
I
1070
     0
1002
{
1002
}
1002
}
1000
GEN-ANSI
1070
     5
1002
{
1000
NAME
1070
     4
1000
GEN-ANSI
1002
{
1002
}
1000
DIMTIH
1070
     1
1070
     1
1002
{
1002
}
1000
DIMTOH
1070
     1
1070
     1
1002
{
1002
}
1000
DIMTAD
1070
     1
1070
     0
1002
{
1002
}
1000
DIMTOLJ
1070
     1
1070
     1
1002
{
1002
}
1000
M
1070
     0
1002
{
1002
}
1000
I
1070
     0
1002
{
1002
}
1002
}
1000
GEN-ANSI-POS
1070
     5
1002
{
1000
NAME
1070
     4
1000
GEN-ANSI-POS
1002
{
1002
}
1000
DIMTOLJ
1070
     1
1070
     1
1002
{
1002
}
1000
DIMTXSTY
1070
     4
1000
STANDARD
1002
{
1002
}
1000
M
1070
     0
1002
{
1000
DIMASZ
1070
     2
1040
2.5
1002
{
1002
}
1000
DIMGAP
1070
     2
1040
1.5
1002
{
1002
}
1000
DIMTXT
1070
     2
1040
5.0
1002
{
1002
}
1002
}
1000
I
1070
     0
1002
{
1000
DIMASZ
1070
     2
1040
0.1
1002
{
1002
}
1000
DIMGAP
1070
     2
1040
0.06
1002
{
1002
}
1000
DIMTXT
1070
     2
1040
0.2
1002
{
1002
}
1002
}
1002
}
1000
GEN-ANSI-CIR
1070
     5
1002
{
1000
NAME
1070
     4
1000
GEN-ANSI$3
1002
{
1002
}
1000
DIMFIT
1070
     1
1070
     0
1002
{
1002
}
1000
DIMTAD
1070
     1
1070
     0
1002
{
1002
}
1000
DIMTIH
1070
     1
1070
     1
1002
{
1002
}
1000
DIMTIX
1070
     1
1070
     0
1002
{
1002
}
1000
DIMTOFL
1070
     1
1070
     0
1002
{
1002
}
1000
DIMTOH
1070
     1
1070
     1
1002
{
1002
}
1000
DIMTOLJ
1070
     1
1070
     1
1002
{
1002
}
1000
DIMUPT
1070
     1
1070
     1
1002
{
1002
}
1000
M
1070
     0
1002
{
1002
}
1000
I
1070
     0
1002
{
1002
}
1002
}
1000
GEN-ANSI-RAD
1070
     5
1002
{
1000
NAME
1070
     4
1000
GEN-ANSI$4
1002
{
1002
}
1000
DIMFIT
1070
     1
1070
     0
1002
{
1002
}
1000
DIMTAD
1070
     1
1070
     0
1002
{
1002
}
1000
DIMTIH
1070
     1
1070
     1
1002
{
1002
}
1000
DIMTIX
1070
     1
1070
     0
1002
{
1002
}
1000
DIMTOFL
1070
     1
1070
     0
1002
{
1002
}
1000
DIMTOH
1070
     1
1070
     1
1002
{
1002
}
1000
DIMTOLJ
1070
     1
1070
     1
1002
{
1002
}
1000
DIMUPT
1070
     1
1070
     1
1002
{
1002
}
1000
M
1070
     0
1002
{
1002
}
1000
I
1070
     0
1002
{
1002
}
1002
}
1000
GEN-ANSI-ORD
1070
     5
1002
{
1000
NAME
1070
     4
1000
GEN-ANSI$6
1002
{
1002
}
1000
DIMTAD
1070
     1
1070
     0
1002
{
1002
}
1000
DIMTIH
1070
     1
1070
     1
1002
{
1002
}
1000
DIMTOH
1070
     1
1070
     1
1002
{
1002
}
1000
DIMTOLJ
1070
     1
1070
     1
1002
{
1002
}
1000
M
1070
     0
1002
{
1002
}
1000
I
1070
     0
1002
{
1002
}
1002
}
1000
GEN-ANSI-AXE-F
1070
     5
1002
{
1000
NAME
1070
     4
1000
GEN-ANSI-AXE-F
1002
{
1002
}
1000
DIMBLK1
1070
     4
1000
GENAXEH
1002
{
1002
}
1000
DIMSAH
1070
     1
1070
     1
1002
{
1002
}
1000
DIMSE1
1070
     1
1070
     1
1002
{
1002
}
1000
DIMSE2
1070
     1
1070
     1
1002
{
1002
}
1000
DIMTAD
1070
     1
1070
     0
1002
{
1002
}
1000
DIMTIH
1070
     1
1070
     1
1002
{
1002
}
1000
DIMTOH
1070
     1
1070
     1
1002
{
1002
}
1000
DIMTOLJ
1070
     1
1070
     1
1002
{
1002
}
1000
M
1070
     0
1002
{
1002
}
1000
I
1070
     0
1002
{
1002
}
1002
}
1000
GEN-ANSI-AXE-H
1070
     5
1002
{
1000
NAME
1070
     4
1000
GEN-ANSI-AXE-H
1002
{
1002
}
1000
DIMBLK1
1070
     4
1000
GENAXEH
1002
{
1002
}
1000
DIMLFAC
1070
     2
1040
2.0
1002
{
1002
}
1000
DIMSAH
1070
     1
1070
     1
1002
{
1002
}
1000
DIMSE1
1070
     1
1070
     1
1002
{
1002
}
1000
DIMSE2
1070
     1
1070
     1
1002
{
1002
}
1000
DIMTAD
1070
     1
1070
     0
1002
{
1002
}
1000
DIMTOFL
1070
     1
1070
     1
1002
{
1002
}
1000
DIMTOLJ
1070
     1
1070
     1
1002
{
1002
}
1000
M
1070
     0
1002
{
1002
}
1000
I
1070
     0
1002
{
1002
}
1002
}
1002
}
1000
DimSet
1070
     0
1002
{
1000
ChainSum
1070
     3
1070
     0
1002
{
1002
}
1000
DimDclTyp0
1070
     4
1000
dim23
1002
{
1002
}
1000
HorBra
1070
     3
1070
     0
1002
{
1002
}
1000
StrDia
1070
     4
1000
%%c<>
1002
{
1002
}
1000
StrRad
1070
     4
1000
R<>
1002
{
1002
}
1000
TextMinus
1070
     4
1000
<>
1002
{
1002
}
1000
TextPlus
1070
     4
1000
<>
1002
{
1002
}
1000
M
1070
     0
1002
{
1000
DimdliFirst
1070
     2
1040
10.0
1002
{
1002
}
1000
PointMakeDist
1070
     2
1040
10.0
1002
{
1002
}
1002
}
1000
I
1070
     0
1002
{
1000
DimdliFirst
1070
     2
1040
0.5
1002
{
1002
}
1000
PointMakeDist
1070
     2
1040
0.5
1002
{
1002
}
1002
}
1000
FitGrade
1070
     4
1000
h7
1002
{
1002
}
1002
}
1000
Drawing
1070
     0
1002
{
1000
ChamferDimMode
1070
     1
1070
     2
1002
{
1002
}
1000
Gen_Fiso
1070
    -3
1040
1.0
1002
{
1002
}
1000
GenDimStil
1070
     4
1000
ISO
1002
{
1002
}
1000
GenDwgUScale
1070
     2
1040
1.0
1002
{
1002
}
1000
GenInch
1070
     4
1000
M
1002
{
1002
}
1000
GenPlotScale
1070
     4
1000
1:5
1002
{
1002
}
1000
Revisi
1070
     4
1000
0
1002
{
1002
}
1000
Version
1070
    -5
1000
14.01/Apr  1 1998
1002
{
1002
}
1000
Platform
1070
    -5
1000
WINNT
1002
{
1002
}
1002
}
1000
DwgVar
1070
     0
1002
{
1000
M
1070
     0
1002
{
1002
}
1000
I
1070
     0
1002
{
1002
}
1002
}
1000
Hatch
1070
     0
1002
{
1000
GenHtcFlag
1070
     3
1070
     0
1002
{
1002
}
1002
}
1000
Info_Pos
1070
     0
1002
{
1000
>
1002
}
1000
Layer
1070
     6
1002
{
1000
Defs
1070
     0
1002
{
1000
>
1002
}
1000
EntSort
1070
     0
1002
{
1000
>
1002
}
1000
Match
1070
     0
1002
{
1002
}
1000
Settings
1070
     0
1002
{
1000
FocGrNC
1070
     3
1070
     0
1002
{
1002
}
1000
FocGrLo
1070
     3
1070
     0
1002
{
1002
}
1000
FocLoNC
1070
     3
1070
     0
1002
{
1002
}
1000
FocusCol
1070
     1
1070
   253
1002
{
1002
}
1000
GenStdLG
1070
     4
1000

1002
{
1002
}
1000
LayMatch
1070
     3
1070
     0
1002
{
1002
}
1000
LgOff
1070
     3
1070
     0
1002
{
1002
}
1000
CurLG
1070
    -5
1000

1002
{
1002
}
1002
}
1002
}
1000
LType
1070
     0
1002
{
1000
GEN3
1070
     7
1000
genius.lin
1002
{
1002
}
1000
GEN7
1070
     7
1000
genius.lin
1002
{
1002
}
1000
GEN4A
1070
     7
1000
genius.lin
1002
{
1002
}
1000
GEN3A
1070
     7
1000
genius.lin
1002
{
1002
}
1000
GEN7A
1070
     7
1000
genius.lin
1002
{
1002
}
1000
GENZIGZAG
1070
     7
1000
genius.lin
1002
{
1002
}
1002
}
1000
Objecter
1070
     0
1002
{
1000
CreateGroups
1070
     3
1070
     0
1002
{
1002
}
1000
LaySwitch
1070
     3
1070
     1
1002
{
1002
}
1000
LastObj
1070
    -5
1000
16CA
1002
{
1002
}
1000
TimeStamp
1070
    -5
1000
20020606.07193423
1002
{
1002
}
1002
}
1000
OSWiz
1070
     0
1002
{
1000
Filter
1070
     0
1002
{
1000
HATCH
1070
     8
1002
{
1000
EntityType
1070
     4
1000
LINE
1002
{
1002
}
1000
Layer
1070
     4
1000
8,8N,*-8,*-8N
1002
{
1002
}
1000
Linetype
1070
     4
1000
*
1002
{
1002
}
1000
Color
1070
     4
1000
*
1002
{
1002
}
1000
ApplyInDims
1070
     3
1070
     1
1002
{
1002
}
1002
}
1000
SYMBOLS
1070
     8
1002
{
1000
EntityType
1070
     4
1000
*
1002
{
1002
}
1000
Layer
1070
     4
1000
[5-6],[5-6]N,*-[5-6],*-[5-6]N
1002
{
1002
}
1000
Linetype
1070
     4
1000
*
1002
{
1002
}
1000
Color
1070
     4
1000
*
1002
{
1002
}
1000
ApplyInDims
1070
     3
1070
     1
1002
{
1002
}
1002
}
1000
FEM
1070
     8
1002
{
1000
EntityType
1070
     4
1000
*
1002
{
1002
}
1000
Layer
1070
     4
1000
4A,4AN,*-4A,*-4AN
1002
{
1002
}
1000
Linetype
1070
     4
1000
*
1002
{
1002
}
1000
Color
1070
     4
1000
*
1002
{
1002
}
1000
ApplyInDims
1070
     3
1070
     1
1002
{
1002
}
1002
}
1002
}
1002
}
1000
PaList
1070
     0
1002
{
1000
AutoUpdatePartList
1070
     1
1070
     0
1002
{
1002
}
1000
ReadInfoPoint
1070
     3
1070
     0
1002
{
1002
}
1000
ReadPosNr
1070
     3
1070
     1
1002
{
1002
}
1000
RevStr
1070
     4
1000
0
1002
{
1002
}
1002
}
1000
Paper
1070
     0
1002
{
1002
}
1000
PartDB
1070
     0
1002
{
1000
GenDbOwner
1070
     4
1000

1002
{
1002
}
1002
}
1000
System
1070
     0
1002
{
1000
Menu
1070
     4
1000
GEV
1002
{
1002
}
1002
}
1000
Title
1070
     0
1002
{
1000
MakeView
1070
     1
1070
     2
1002
{
1002
}
1002
}
1000
Tools
1070
     0
1002
{
1000
Trans
1070
     0
1002
{
1000
Drawingtranslation
1070
    -4
1070
     1
1002
{
1002
}
1000
upreserve
1070
     3
1070
     0
1002
{
1002
}
1000
originally_on
1070
    -4
1070
     0
1002
{
1002
}
1000
sourcelang
1070
    -5
1000
D
1002
{
1002
}
1002
}
1002
}
  0
APPID
  5
1698
330
1629
100
AcDbSymbolTableRecord
100
AcDbRegAppTableRecord
  2
GENIUS_GEVCFG0_13
 70
     0
1001
GENIUS_GENCFG_13
1071
1023340779
1000
1698
1000
GEV
1070
     1
1000
GenCfgObject
1000
VED
1070
     0
1002
{
1002
}
  0
APPID
  5
1699
330
1629
100
AcDbSymbolTableRecord
100
AcDbRegAppTableRecord
  2
GEV_VCCNULL_SWITCH_OFF
 70
     0
  0
APPID
  5
169A
330
1629
100
AcDbSymbolTableRecord
100
AcDbRegAppTableRecord
  2
GENIUS_GENDTOL_13
 70
     0
  0
APPID
  5
169B
330
1629
100
AcDbSymbolTableRecord
100
AcDbRegAppTableRecord
  2
GENIUS_GENOENT_13
 70
     0
  0
APPID
  5
169C
330
1629
100
AcDbSymbolTableRecord
100
AcDbRegAppTableRecord
  2
GENIUS_GENBLLY_14
 70
     0
  0
APPID
  5
169D
330
1629
100
AcDbSymbolTableRecord
100
AcDbRegAppTableRecord
  2
GENIUS_GENODEF_13
 70
     0
  0
APPID
  5
169E
330
1629
100
AcDbSymbolTableRecord
100
AcDbRegAppTableRecord
  2
GENIUS_GENOBJ-N-CRS_13
 70
     0
  0
APPID
  5
169F
330
1629
100
AcDbSymbolTableRecord
100
AcDbRegAppTableRecord
  2
GENIUS_GENOREF_13
 70
     0
  0
APPID
  5
16A0
330
1629
100
AcDbSymbolTableRecord
100
AcDbRegAppTableRecord
  2
GENIUS_GENOLIS_13
 70
     0
  0
APPID
  5
16A1
330
1629
100
AcDbSymbolTableRecord
100
AcDbRegAppTableRecord
  2
GENIUS_GEFCFG0_13
 70
     0
  0
APPID
  5
16A2
330
1629
100
AcDbSymbolTableRecord
100
AcDbRegAppTableRecord
  2
GENIUS_VERSION2
 70
     0
  0
APPID
  5
16A3
330
1629
100
AcDbSymbolTableRecord
100
AcDbRegAppTableRecord
  2
GENIUS_GENREC_14
 70
     0
  0
APPID
  5
16A4
330
1629
100
AcDbSymbolTableRecord
100
AcDbRegAppTableRecord
  2
GENIUS_GENOBJ-N-REC_13
 70
     0
  0
APPID
  5
16A5
330
1629
100
AcDbSymbolTableRecord
100
AcDbRegAppTableRecord
  2
GENIUS_GENOBJ-N-TIT_13
 70
     0
  0
APPID
  5
16A6
330
1629
100
AcDbSymbolTableRecord
100
AcDbRegAppTableRecord
  2
GENIUS_GENTITLE_13
 70
     0
  0
APPID
  5
16A7
330
1629
100
AcDbSymbolTableRecord
100
AcDbRegAppTableRecord
  2
GENIUS_GENZVEED_13
 70
     0
  0
APPID
  5
16A8
330
1629
100
AcDbSymbolTableRecord
100
AcDbRegAppTableRecord
  2
GENIUS_GENOBJ-N-SDF_13
 70
     0
  0
APPID
  5
16A9
330
1629
100
AcDbSymbolTableRecord
100
AcDbRegAppTableRecord
  2
GENIUS_GENSCREG_13
 70
     0
  0
APPID
  5
16AA
330
1629
100
AcDbSymbolTableRecord
100
AcDbRegAppTableRecord
  2
GENIUS_GENBLKED_14
 70
     0
  0
APPID
  5
1772
330
1629
100
AcDbSymbolTableRecord
100
AcDbRegAppTableRecord
  2
GENIUS_GENOBJ-N-HTC_13
 70
     0
  0
APPID
  5
1773
330
1629
100
AcDbSymbolTableRecord
100
AcDbRegAppTableRecord
  2
GENIUS_GENHATCH_13
 70
     0
  0
APPID
  5
1AFD
330
1629
100
AcDbSymbolTableRecord
100
AcDbRegAppTableRecord
  2
MCAD_NO_VIS
 70
     0
  0
APPID
  5
1AFE
330
1629
100
AcDbSymbolTableRecord
100
AcDbRegAppTableRecord
  2
ACAD_TEMP_GRAPHIC
 70
     0
  0
APPID
  5
1B2E
330
1629
100
AcDbSymbolTableRecord
100
AcDbRegAppTableRecord
  2
AD_DRAW
 70
     0
  0
APPID
  5
1B31
330
1629
100
AcDbSymbolTableRecord
100
AcDbRegAppTableRecord
  2
ACATTRIBSERVICES
 70
     0
  0
APPID
  5
1B51
330
1629
100
AcDbSymbolTableRecord
100
AcDbRegAppTableRecord
  2
DESIGNERASSEMBLIES
 70
     0
  0
APPID
  5
1B57
330
1629
100
AcDbSymbolTableRecord
100
AcDbRegAppTableRecord
  2
ACADM_DIM_EDIT
 70
     0
  0
APPID
  5
1B58
330
1629
100
AcDbSymbolTableRecord
100
AcDbRegAppTableRecord
  2
AMDT_DM_ADJ
 70
     0
  0
APPID
  5
1B8A
330
1629
100
AcDbSymbolTableRecord
100
AcDbRegAppTableRecord
  2
ACAD_DSTYLE_DIMARC_LENGTH_SYMBOL
 70
     0
  0
APPID
  5
1B8B
330
1629
100
AcDbSymbolTableRecord
100
AcDbRegAppTableRecord
  2
ACAD_DSTYLE_DIMJOGGED_JOGANGLE_SYMBOL
 70
     0
  0
APPID
  5
1BD5
330
1629
100
AcDbSymbolTableRecord
100
AcDbRegAppTableRecord
  2
AcAecLayerStandard
 70
     0
  0
APPID
  5
1BD6
330
1629
100
AcDbSymbolTableRecord
100
AcDbRegAppTableRecord
  2
GENIUS_GENOBJ-N-CEN_13
 70
     0
  0
APPID
  5
1BD7
330
1629
100
AcDbSymbolTableRecord
100
AcDbRegAppTableRecord
  2
GENIUS_GENCEN_19
 70
     0
  0
ENDTAB
  0
TABLE
  2
DIMSTYLE
  5
162A
330
0
100
AcDbSymbolTable
 70
     8
100
AcDbDimStyleTable
 71
     0
  0
DIMSTYLE
105
1650
102
{ACAD_REACTORS
330
1598
330
15A1
330
15AB
330
15E7
330
15F1
330
15FC
102
}
330
162A
100
AcDbSymbolTableRecord
100
AcDbDimStyleTableRecord
  2
GEN-ISO
 70
     0
  4
"
 40
5.0
 41
2.5
 42
1.0
 43
7.0
 44
1.0
 47
0.1
 48
0.1
 73
     0
 74
     0
 77
     1
 78
     8
140
3.5
141
0.0
143
0.03937
146
0.71
147
0.6
172
     1
176
   256
177
   256
178
     2
271
     2
272
     3
274
     4
283
     0
340
162F
  0
DIMSTYLE
105
1B89
330
162A
100
AcDbSymbolTableRecord
100
AcDbDimStyleTableRecord
  2
AM_DIN
 70
     0
  4
"
 41
2.5
 42
1.0
 43
10.0
 44
1.0
 47
0.1
 48
0.1
 73
     0
 74
     0
 77
     1
 78
     8
 79
     2
140
3.5
141
0.0
143
0.0393701
146
0.71
147
1.5
172
     1
176
   256
177
   256
178
     2
271
     2
272
     3
274
     4
283
     0
284
     8
340
162F
371
    -1
372
    -1
1001
ACAD_DSTYLE_DIMARC_LENGTH_SYMBOL
1070
   379
1070
     0
1001
ACAD_DSTYLE_DIMJOGGED_JOGANGLE_SYMBOL
1070
   384
1040
1.570796326794896
  0
DIMSTYLE
105
1B9A
330
162A
100
AcDbSymbolTableRecord
100
AcDbDimStyleTableRecord
  2
AM_DIN$3
 70
     0
  4
"
 41
2.5
 42
1.0
 43
10.0
 44
1.0
 47
0.1
 48
0.1
 73
     0
 77
     1
 78
     8
 79
     2
140
3.5
141
0.0
143
0.0393701
146
0.71
147
1.5
176
   256
177
   256
178
     2
271
     2
272
     3
274
     4
283
     0
284
     8
288
     1
289
     0
340
162F
371
    -1
372
    -1
1001
ACAD_DSTYLE_DIMARC_LENGTH_SYMBOL
1070
   379
1070
     0
1001
ACAD_DSTYLE_DIMJOGGED_JOGANGLE_SYMBOL
1070
   384
1040
1.570796326794896
  0
DIMSTYLE
105
1B9F
330
162A
100
AcDbSymbolTableRecord
100
AcDbDimStyleTableRecord
  2
AM_DIN$4
 70
     0
  4
"
 41
2.5
 42
1.0
 43
10.0
 44
1.0
 47
0.1
 48
0.1
 73
     0
 77
     1
 78
     8
 79
     2
140
3.5
141
0.0
143
0.0393701
146
0.71
147
1.5
176
   256
177
   256
178
     2
271
     2
272
     3
274
     4
283
     0
284
     8
288
     1
289
     0
340
162F
371
    -1
372
    -1
1001
ACAD_DSTYLE_DIMARC_LENGTH_SYMBOL
1070
   379
1070
     0
1001
ACAD_DSTYLE_DIMJOGGED_JOGANGLE_SYMBOL
1070
   384
1040
1.570796326794896
  0
DIMSTYLE
105
1BA4
330
162A
100
AcDbSymbolTableRecord
100
AcDbDimStyleTableRecord
  2
AM_DIN$6
 70
     0
  4
"
 41
2.5
 42
1.0
 43
10.0
 44
1.0
 47
0.1
 48
0.1
 73
     0
 74
     0
 78
     8
 79
     2
140
3.5
141
0.0
143
0.0393701
146
0.71
147
1.5
172
     1
176
   256
177
   256
178
     2
271
     2
272
     3
274
     4
283
     0
284
     8
340
162F
371
    -1
372
    -1
1001
ACAD_DSTYLE_DIMARC_LENGTH_SYMBOL
1070
   379
1070
     0
1001
ACAD_DSTYLE_DIMJOGGED_JOGANGLE_SYMBOL
1070
   384
1040
1.570796326794896
  0
DIMSTYLE
105
1BA9
330
162A
100
AcDbSymbolTableRecord
100
AcDbDimStyleTableRecord
  2
AM_DIN$7
 70
     0
  4
"
 41
2.5
 42
1.0
 43
10.0
 44
1.0
 47
0.1
 48
0.1
 73
     0
 74
     0
 77
     1
 78
     8
 79
     2
140
5.0
141
0.0
143
0.0393701
146
0.71
147
1.5
172
     1
176
   256
177
   256
178
     2
271
     2
272
     3
274
     4
283
     0
284
     8
340
162F
371
    -1
372
    -1
1001
ACAD_DSTYLE_DIMARC_LENGTH_SYMBOL
1070
   379
1070
     0
1001
ACAD_DSTYLE_DIMJOGGED_JOGANGLE_SYMBOL
1070
   384
1040
1.570796326794896
  0
DIMSTYLE
105
1BAE
330
162A
100
AcDbSymbolTableRecord
100
AcDbDimStyleTableRecord
  2
AM_DIN$SF
 70
     0
  4
"
 41
2.5
 42
1.0
 43
10.0
 44
1.0
 47
0.1
 48
0.1
 73
     0
 74
     0
 75
     1
 76
     1
 77
     1
 78
     8
 79
     2
140
3.5
141
0.0
143
0.0393701
146
0.71
147
1.5
172
     1
176
   256
177
   256
178
     2
271
     2
272
     3
274
     4
283
     0
284
     8
340
162F
371
    -1
372
    -1
1001
ACAD_DSTYLE_DIMARC_LENGTH_SYMBOL
1070
   379
1070
     0
1001
ACAD_DSTYLE_DIMJOGGED_JOGANGLE_SYMBOL
1070
   384
1040
1.570796326794896
  0
DIMSTYLE
105
1BB7
330
162A
100
AcDbSymbolTableRecord
100
AcDbDimStyleTableRecord
  2
AM_DIN$SH
 70
     0
  4
"
 41
2.5
 42
1.0
 43
10.0
 44
1.0
 47
0.1
 48
0.1
 73
     0
 74
     0
 75
     1
 76
     1
 77
     1
 78
     8
 79
     2
140
3.5
141
0.0
143
0.0393701
144
2.0
146
0.71
147
1.5
172
     1
173
     1
176
   256
177
   256
178
     2
271
     2
272
     3
274
     4
283
     0
284
     8
340
162F
343
1BAF
371
    -1
372
    -1
1001
ACAD_DSTYLE_DIMARC_LENGTH_SYMBOL
1070
   379
1070
     0
1001
ACAD_DSTYLE_DIMJOGGED_JOGANGLE_SYMBOL
1070
   384
1040
1.570796326794896
  0
ENDTAB
  0
TABLE
  2
BLOCK_RECORD
  5
1621
330
0
100
AcDbSymbolTable
 70
    15
  0
BLOCK_RECORD
  5
1638
330
1621
100
AcDbSymbolTableRecord
100
AcDbBlockTableRecord
  2
*MODEL_SPACE
340
1AF5
  0
BLOCK_RECORD
  5
1635
330
1621
100
AcDbSymbolTableRecord
100
AcDbBlockTableRecord
  2
*PAPER_SPACE
340
1AF6
  0
BLOCK_RECORD
  5
1652
330
1621
100
AcDbSymbolTableRecord
100
AcDbBlockTableRecord
  2
*X0
340
0
102
{BLKREFS
331
10C4
102
}
  0
BLOCK_RECORD
  5
1653
330
1621
100
AcDbSymbolTableRecord
100
AcDbBlockTableRecord
  2
*X1
340
0
102
{BLKREFS
331
10EC
102
}
  0
BLOCK_RECORD
  5
1654
330
1621
100
AcDbSymbolTableRecord
100
AcDbBlockTableRecord
  2
*X2
340
0
102
{BLKREFS
331
111D
102
}
  0
BLOCK_RECORD
  5
165D
330
1621
100
AcDbSymbolTableRecord
100
AcDbBlockTableRecord
  2
*X3
340
0
102
{BLKREFS
331
15DD
102
}
  0
BLOCK_RECORD
  5
1668
330
1621
100
AcDbSymbolTableRecord
100
AcDbBlockTableRecord
  2
KATALOG_LEER
340
0
102
{BLKREFS
331
16AC
331
16C9
102
}
  0
BLOCK_RECORD
  5
16AB
330
1621
100
AcDbSymbolTableRecord
100
AcDbBlockTableRecord
  2
KATALOG
340
0
  0
BLOCK_RECORD
  5
16CB
330
1621
100
AcDbSymbolTableRecord
100
AcDbBlockTableRecord
  2
*D6
340
0
  0
BLOCK_RECORD
  5
16D7
330
1621
100
AcDbSymbolTableRecord
100
AcDbBlockTableRecord
  2
*D7
340
0
  0
BLOCK_RECORD
  5
16F2
330
1621
100
AcDbSymbolTableRecord
100
AcDbBlockTableRecord
  2
*D8
340
0
  0
BLOCK_RECORD
  5
1709
330
1621
100
AcDbSymbolTableRecord
100
AcDbBlockTableRecord
  2
*D9
340
0
  0
BLOCK_RECORD
  5
1720
330
1621
100
AcDbSymbolTableRecord
100
AcDbBlockTableRecord
  2
*D10
340
0
  0
BLOCK_RECORD
  5
173B
330
1621
100
AcDbSymbolTableRecord
100
AcDbBlockTableRecord
  2
*D11
340
0
  0
BLOCK_RECORD
  5
1BAF
330
1621
100
AcDbSymbolTableRecord
100
AcDbBlockTableRecord
  2
GENAXEH
340
0
  0
ENDTAB
  0
ENDSEC
  0
SECTION
  2
BLOCKS
  0
BLOCK
  5
1639
330
1638
100
AcDbEntity
  8
0
100
AcDbBlockBegin
  2
*MODEL_SPACE
 70
     0
 10
0.0
 20
0.0
 30
0.0
  3
*MODEL_SPACE
  1

  0
ENDBLK
  5
163A
330
1638
100
AcDbEntity
  8
0
100
AcDbBlockEnd
  0
BLOCK
  5
1636
330
1635
100
AcDbEntity
 67
     1
  8
0
100
AcDbBlockBegin
  2
*PAPER_SPACE
 70
     0
 10
0.0
 20
0.0
 30
0.0
  3
*PAPER_SPACE
  1

  0
ENDBLK
  5
1637
330
1635
100
AcDbEntity
 67
     1
  8
0
100
AcDbBlockEnd
  0
BLOCK
  5
10BF
330
1652
100
AcDbEntity
  8
0
100
AcDbBlockBegin
  2
*X0
 70
     1
 10
0.0
 20
0.0
 30
0.0
  3
*X0
  1

  0
LINE
  5
10C0
330
1652
100
AcDbEntity
  8
8
100
AcDbLine
 10
147.528
 20
651.879
 30
0.0
 11
155.161
 21
659.511
 31
0.0
  0
LINE
  5
10C1
330
1652
100
AcDbEntity
  8
8
100
AcDbLine
 10
145.474
 20
654.315
 30
0.0
 11
152.706
 21
661.546
 31
0.0
  0
LINE
  5
10C2
330
1652
100
AcDbEntity
  8
8
100
AcDbLine
 10
145.649
 20
658.9789999999999
 30
0.0
 11
148.035
 21
661.3649999999999
 31
0.0
  0
ENDBLK
  5
10C3
330
1652
100
AcDbEntity
  8
0
100
AcDbBlockEnd
  0
BLOCK
  5
10E7
330
1653
100
AcDbEntity
  8
0
100
AcDbBlockBegin
  2
*X1
 70
     1
 10
0.0
 20
0.0
 30
0.0
  3
*X1
  1

  0
LINE
  5
10E8
330
1653
100
AcDbEntity
  8
8
100
AcDbLine
 10
145.063
 20
656.8389999999999
 30
0.0
 11
150.877
 21
651.025
 31
0.0
  0
LINE
  5
10E9
330
1653
100
AcDbEntity
  8
8
100
AcDbLine
 10
146.336
 20
660.056
 30
0.0
 11
154.094
 21
652.297
 31
0.0
  0
LINE
  5
10EA
330
1653
100
AcDbEntity
  8
8
100
AcDbLine
 10
149.084
 20
661.798
 30
0.0
 11
155.874
 21
655.008
 31
0.0
  0
ENDBLK
  5
10EB
330
1653
100
AcDbEntity
  8
0
100
AcDbBlockEnd
  0
BLOCK
  5
1115
330
1654
100
AcDbEntity
  8
0
100
AcDbBlockBegin
  2
*X2
 70
     1
 10
0.0
 20
0.0
 30
0.0
  3
*X2
  1

  0
LINE
  5
1116
330
1654
100
AcDbEntity
  8
8
100
AcDbLine
 10
311.208
 20
651.364
 30
0.0
 11
318.271
 21
658.427
 31
0.0
  0
LINE
  5
1117
330
1654
100
AcDbEntity
  8
8
100
AcDbLine
 10
308.663
 20
653.3099999999999
 30
0.0
 11
316.325
 21
660.972
 31
0.0
  0
LINE
  5
1118
330
1654
100
AcDbEntity
  8
8
100
AcDbLine
 10
307.649
 20
656.7849999999999
 30
0.0
 11
312.85
 21
661.986
 31
0.0
  0
LINE
  5
1119
330
1654
100
AcDbEntity
  8
8
100
AcDbLine
 10
318.584
 20
655.8839999999999
 30
0.0
 11
312.519
 21
661.9489999999999
 31
0.0
  0
LINE
  5
111A
330
1654
100
AcDbEntity
  8
8
100
AcDbLine
 10
317.198
 20
652.779
 30
0.0
 11
309.429
 21
660.5489999999999
 31
0.0
  0
LINE
  5
111B
330
1654
100
AcDbEntity
  8
8
100
AcDbLine
 10
314.367
 20
651.12
 30
0.0
 11
307.756
 21
657.7310000000001
 31
0.0
  0
ENDBLK
  5
111C
330
1654
100
AcDbEntity
  8
0
100
AcDbBlockEnd
  0
BLOCK
  5
15B7
330
165D
100
AcDbEntity
  8
0
100
AcDbBlockBegin
  2
*X3
 70
     1
 10
0.0
 20
0.0
 30
0.0
  3
*X3
  1

  0
LINE
  5
15B8
330
165D
100
AcDbEntity
  8
8
  6
GEN3
100
AcDbLine
 10
305.706
 20
675.0
 30
0.0
 11
311.268
 21
680.562
 31
0.0
  0
LINE
  5
15B9
330
165D
100
AcDbEntity
  8
8
  6
GEN3_
100
AcDbLine
 10
300.767
 20
675.0
 30
0.0
 11
311.447
 21
685.6799999999999
 31
0.0
  0
LINE
  5
15BA
330
165D
100
AcDbEntity
  8
8
  6
GEN3
100
AcDbLine
 10
295.828
 20
675.0
 30
0.0
 11
311.626
 21
690.798
 31
0.0
  0
LINE
  5
15BB
330
165D
100
AcDbEntity
  8
8
  6
GEN3_
100
AcDbLine
 10
290.888
 20
675.0
 30
0.0
 11
311.805
 21
695.916
 31
0.0
  0
LINE
  5
15BC
330
165D
100
AcDbEntity
  8
8
  6
GEN3
100
AcDbLine
 10
285.949
 20
675.0
 30
0.0
 11
307.949
 21
697.0
 31
0.0
  0
LINE
  5
15BD
330
165D
100
AcDbEntity
  8
8
  6
GEN3_
100
AcDbLine
 10
281.01
 20
675.0
 30
0.0
 11
303.01
 21
697.0
 31
0.0
  0
LINE
  5
15BE
330
165D
100
AcDbEntity
  8
8
  6
GEN3
100
AcDbLine
 10
276.0709999999999
 20
675.0
 30
0.0
 11
298.071
 21
697.0
 31
0.0
  0
LINE
  5
15BF
330
165D
100
AcDbEntity
  8
8
  6
GEN3_
100
AcDbLine
 10
271.132
 20
675.0
 30
0.0
 11
293.131
 21
697.0
 31
0.0
  0
LINE
  5
15C0
330
165D
100
AcDbEntity
  8
8
  6
GEN3
100
AcDbLine
 10
266.193
 20
675.0
 30
0.0
 11
288.192
 21
697.0
 31
0.0
  0
LINE
  5
15C1
330
165D
100
AcDbEntity
  8
8
  6
GEN3_
100
AcDbLine
 10
261.254
 20
675.0
 30
0.0
 11
283.253
 21
697.0
 31
0.0
  0
LINE
  5
15C2
330
165D
100
AcDbEntity
  8
8
  6
GEN3
100
AcDbLine
 10
256.315
 20
675.0
 30
0.0
 11
278.314
 21
697.0
 31
0.0
  0
LINE
  5
15C3
330
165D
100
AcDbEntity
  8
8
  6
GEN3_
100
AcDbLine
 10
251.375
 20
675.0
 30
0.0
 11
273.375
 21
697.0
 31
0.0
  0
LINE
  5
15C4
330
165D
100
AcDbEntity
  8
8
  6
GEN3
100
AcDbLine
 10
246.436
 20
675.0
 30
0.0
 11
268.436
 21
697.0
 31
0.0
  0
LINE
  5
15C5
330
165D
100
AcDbEntity
  8
8
  6
GEN3_
100
AcDbLine
 10
241.497
 20
675.0
 30
0.0
 11
263.497
 21
697.0
 31
0.0
  0
LINE
  5
15C6
330
165D
100
AcDbEntity
  8
8
  6
GEN3
100
AcDbLine
 10
236.558
 20
675.0
 30
0.0
 11
258.557
 21
697.0
 31
0.0
  0
LINE
  5
15C7
330
165D
100
AcDbEntity
  8
8
  6
GEN3_
100
AcDbLine
 10
231.619
 20
675.0
 30
0.0
 11
253.618
 21
697.0
 31
0.0
  0
LINE
  5
15C8
330
165D
100
AcDbEntity
  8
8
  6
GEN3
100
AcDbLine
 10
226.68
 20
675.0
 30
0.0
 11
248.679
 21
697.0
 31
0.0
  0
LINE
  5
15C9
330
165D
100
AcDbEntity
  8
8
  6
GEN3_
100
AcDbLine
 10
221.741
 20
675.0
 30
0.0
 11
243.74
 21
697.0
 31
0.0
  0
LINE
  5
15CA
330
165D
100
AcDbEntity
  8
8
  6
GEN3
100
AcDbLine
 10
216.801
 20
675.0
 30
0.0
 11
238.801
 21
697.0
 31
0.0
  0
LINE
  5
15CB
330
165D
100
AcDbEntity
  8
8
  6
GEN3_
100
AcDbLine
 10
211.862
 20
675.0
 30
0.0
 11
233.862
 21
697.0
 31
0.0
  0
LINE
  5
15CC
330
165D
100
AcDbEntity
  8
8
  6
GEN3
100
AcDbLine
 10
206.923
 20
675.0
 30
0.0
 11
228.923
 21
697.0
 31
0.0
  0
LINE
  5
15CD
330
165D
100
AcDbEntity
  8
8
  6
GEN3_
100
AcDbLine
 10
201.984
 20
675.0
 30
0.0
 11
223.983
 21
697.0
 31
0.0
  0
LINE
  5
15CE
330
165D
100
AcDbEntity
  8
8
  6
GEN3
100
AcDbLine
 10
197.0449999999999
 20
675.0
 30
0.0
 11
219.044
 21
697.0
 31
0.0
  0
LINE
  5
15CF
330
165D
100
AcDbEntity
  8
8
  6
GEN3_
100
AcDbLine
 10
192.106
 20
675.0
 30
0.0
 11
214.105
 21
697.0
 31
0.0
  0
LINE
  5
15D0
330
165D
100
AcDbEntity
  8
8
  6
GEN3
100
AcDbLine
 10
187.167
 20
675.0
 30
0.0
 11
209.166
 21
697.0
 31
0.0
  0
LINE
  5
15D1
330
165D
100
AcDbEntity
  8
8
  6
GEN3_
100
AcDbLine
 10
182.227
 20
675.0
 30
0.0
 11
204.227
 21
697.0
 31
0.0
  0
LINE
  5
15D2
330
165D
100
AcDbEntity
  8
8
  6
GEN3
100
AcDbLine
 10
177.2879999999999
 20
675.0
 30
0.0
 11
199.2879999999999
 21
697.0
 31
0.0
  0
LINE
  5
15D3
330
165D
100
AcDbEntity
  8
8
  6
GEN3_
100
AcDbLine
 10
172.349
 20
675.0
 30
0.0
 11
194.349
 21
697.0
 31
0.0
  0
LINE
  5
15D4
330
165D
100
AcDbEntity
  8
8
  6
GEN3
100
AcDbLine
 10
167.41
 20
675.0
 30
0.0
 11
189.409
 21
697.0
 31
0.0
  0
LINE
  5
15D5
330
165D
100
AcDbEntity
  8
8
  6
GEN3_
100
AcDbLine
 10
162.471
 20
675.0
 30
0.0
 11
184.47
 21
697.0
 31
0.0
  0
LINE
  5
15D6
330
165D
100
AcDbEntity
  8
8
  6
GEN3
100
AcDbLine
 10
157.532
 20
675.0
 30
0.0
 11
179.5309999999999
 21
697.0
 31
0.0
  0
LINE
  5
15D7
330
165D
100
AcDbEntity
  8
8
  6
GEN3_
100
AcDbLine
 10
153.709
 20
676.1169999999999
 30
0.0
 11
174.592
 21
697.0
 31
0.0
  0
LINE
  5
15D8
330
165D
100
AcDbEntity
  8
8
  6
GEN3
100
AcDbLine
 10
152.443
 20
679.7899999999999
 30
0.0
 11
169.653
 21
697.0
 31
0.0
  0
LINE
  5
15D9
330
165D
100
AcDbEntity
  8
8
  6
GEN3_
100
AcDbLine
 10
152.276
 20
684.562
 30
0.0
 11
164.714
 21
697.0
 31
0.0
  0
LINE
  5
15DA
330
165D
100
AcDbEntity
  8
8
  6
GEN3
100
AcDbLine
 10
152.11
 20
689.335
 30
0.0
 11
159.775
 21
697.0
 31
0.0
  0
LINE
  5
15DB
330
165D
100
AcDbEntity
  8
8
  6
GEN3_
100
AcDbLine
 10
151.943
 20
694.1069999999999
 30
0.0
 11
154.836
 21
697.0
 31
0.0
  0
ENDBLK
  5
15DC
330
165D
100
AcDbEntity
  8
0
100
AcDbBlockEnd
  0
BLOCK
  5
1669
330
1668
100
AcDbEntity
  8
0
100
AcDbBlockBegin
  2
KATALOG_LEER
 70
     0
 10
0.0
 20
0.0
 30
0.0
  3
KATALOG_LEER
  1

  0
ENDBLK
  5
166A
330
1668
100
AcDbEntity
  8
0
100
AcDbBlockEnd
  0
BLOCK
  5
16BD
330
16AB
100
AcDbEntity
  8
0
100
AcDbBlockBegin
  2
KATALOG
 70
     0
 10
0.0
 20
0.0
 30
0.0
  3
KATALOG
  1

  0
INSERT
  5
16AC
330
16AB
100
AcDbEntity
  8
0
100
AcDbBlockReference
  2
KATALOG_LEER
 10
205.0
 20
5.0
 30
0.0
1001
GENIUS_GENOREF_13
1005
16AD
  0
POINT
  5
16AD
330
16AB
100
AcDbEntity
  8
0
 60
     1
100
AcDbPoint
 10
0.0
 20
0.0
 30
0.0
1001
GENIUS_GENOBJ-N-TIT_13
1002
{
1000
OWNER
1000
GEN
1002
}
1001
GENIUS_GENOENT_13
1002
{
1000
MYREF
1005
16AD
1002
}
1002
{
1000
GRP
1005
0
1002
}
1001
GENIUS_GENOLIS_13
1002
{
1000
ENT
1005
16AC
1005
0
1002
}
1001
GENIUS_GENTITLE_13
1002
{
1000
SCALE
1000
1:1
1002
}
1002
{
1000
BORDER
1000
KATALOG
1002
}
1002
{
1000
TITLE
1000
KATALOG_LEER
1002
}
1002
{
1000
UNCHG
1002
{
1000
GEN-TITLE-SCA
1000
GEN-TITLE-SIZ
1002
}
1002
}
1002
{
1000
HRA
1005
0
1002
}
1002
{
1000
HTIT
1005
16AC
1002
}
1002
{
1000
GENIUSID
1005
16AD
1002
}
1001
GENIUS_GENODEF_13
1002
{
1000
HIER
1070
     1
1002
}
1002
{
1000
MANEDIT
1070
     0
1002
}
1002
{
1000
NOSEL
1070
     0
1002
}
1002
{
1000
BEHIND
1070
     0
1002
}
1002
{
1000
REACTOR
1002
}
  0
TEXT
  5
16AE
330
16AB
100
AcDbEntity
  8
RAHM3
 60
     1
100
AcDbText
 10
29.391383
 20
162.283165
 30
0.0
 40
3.5
  1
!GENTITLE-MAX
100
AcDbText
  0
TEXT
  5
16AF
330
16AB
100
AcDbEntity
  8
RAHM3
 60
     1
100
AcDbText
 10
30.988432
 20
153.503279
 30
0.0
 40
3.5
  1
!GENTITLE-RU
100
AcDbText
  0
TEXT
  5
16B0
330
16AB
100
AcDbEntity
  8
RAHM3
 60
     1
100
AcDbText
 10
-85.995418
 20
56.924537
 30
0.0
 40
3.5
  1
!GENTITLE-LL
100
AcDbText
  0
TEXT
  5
16B1
330
16AB
100
AcDbEntity
  8
RAHM3
 60
     1
100
AcDbText
 10
50.36794099999999
 20
2.260896999999999
 30
0.0
 40
3.5
  1
!GENTITLE-INSERT
100
AcDbText
  0
LINE
  5
16B2
330
16AB
100
AcDbEntity
  8
RAHM2
100
AcDbLine
 10
0.0
 20
0.0
 30
0.0
 11
148.5
 21
0.0
 31
0.0
  0
LINE
  5
16B3
330
16AB
100
AcDbEntity
  8
RAHM2
100
AcDbLine
 10
148.5
 20
210.0
 30
0.0
 11
0.0
 21
210.0
 31
0.0
  0
LINE
  5
16B4
330
16AB
100
AcDbEntity
  8
RAHM2
100
AcDbLine
 10
0.0
 20
210.0
 30
0.0
 11
0.0
 21
0.0
 31
0.0
  0
TEXT
  5
16B5
330
16AB
100
AcDbEntity
  8
RAHM3
 60
     1
100
AcDbText
 10
184.023441
 20
165.022268
 30
0.0
 40
3.5
  1
!GENTITLE-MAX
100
AcDbText
  0
TEXT
  5
16B6
330
16AB
100
AcDbEntity
  8
RAHM3
 60
     1
100
AcDbText
 10
185.620491
 20
156.242382
 30
0.0
 40
3.5
  1
!GENTITLE-RU
100
AcDbText
  0
TEXT
  5
16B7
330
16AB
100
AcDbEntity
  8
RAHM3
 60
     1
100
AcDbText
 10
68.636641
 20
59.663641
 30
0.0
 40
3.5
  1
!GENTITLE-LL
100
AcDbText
  0
TEXT
  5
16B8
330
16AB
100
AcDbEntity
  8
RAHM3
 60
     1
100
AcDbText
 10
205.0
 20
5.0
 30
0.0
 40
3.5
  1
!GENTITLE-INSERT
100
AcDbText
  0
LINE
  5
16B9
330
16AB
100
AcDbEntity
  8
RAHM2
100
AcDbLine
 10
148.5
 20
0.0
 30
0.0
 11
148.5
 21
210.0
 31
0.0
  0
LINE
  5
16BA
330
16AB
100
AcDbEntity
  8
RAHM2
100
AcDbLine
 10
210.0
 20
148.5
 30
0.0
 11
0.0
 21
148.5
 31
0.0
  0
LINE
  5
16BB
330
16AB
100
AcDbEntity
  8
RAHM2
100
AcDbLine
 10
210.0
 20
0.0
 30
0.0
 11
210.0
 21
148.5
 31
0.0
  0
LINE
  5
16BC
330
16AB
100
AcDbEntity
  8
RAHM2
100
AcDbLine
 10
0.0
 20
0.0
 30
0.0
 11
210.0
 21
0.0
 31
0.0
  0
ENDBLK
  5
16BE
330
16AB
100
AcDbEntity
  8
0
100
AcDbBlockEnd
  0
BLOCK
  5
1ACD
330
16CB
100
AcDbEntity
  8
0
100
AcDbBlockBegin
  2
*D6
 70
     1
 10
0.0
 20
0.0
 30
0.0
  3
*D6
  1

  0
LINE
  5
1CAE
330
16CB
100
AcDbEntity
  8
5
370
    -2
100
AcDbLine
 10
-301.1808282736456
 20
304.8327754367217
 30
0.0
 11
-586.1573277538575
 21
304.8327754367217
 31
0.0
  0
LINE
  5
1CAF
330
16CB
100
AcDbEntity
  8
5
370
    -2
100
AcDbLine
 10
-399.6573277538577
 20
479.8418362979333
 30
0.0
 11
-586.1573277538575
 21
479.8418362979333
 31
0.0
  0
LINE
  5
1CB0
330
16CB
100
AcDbEntity
  8
5
370
    -2
100
AcDbLine
 10
-581.1573277538575
 20
317.3327754367217
 30
0.0
 11
-581.1573277538575
 21
467.3418362979333
 31
0.0
  0
SOLID
  5
1CB1
330
16CB
100
AcDbEntity
  8
5
100
AcDbTrace
 10
-583.2406610871909
 20
317.3327754367217
 30
0.0
 11
-579.0739944205241
 21
317.3327754367217
 31
0.0
 12
-581.1573277538575
 22
304.8327754367217
 32
0.0
 13
-581.1573277538575
 23
304.8327754367217
 33
0.0
  0
SOLID
  5
1CB2
330
16CB
100
AcDbEntity
  8
5
100
AcDbTrace
 10
-583.2406610871909
 20
467.3418362979333
 30
0.0
 11
-579.0739944205241
 21
467.3418362979333
 31
0.0
 12
-581.1573277538575
 22
479.8418362979333
 32
0.0
 13
-581.1573277538575
 23
479.8418362979333
 33
0.0
  0
MTEXT
  5
1CB3
330
16CB
100
AcDbEntity
  8
5
 62
     2
100
AcDbMText
 10
-592.9073277538576
 20
392.3373058673275
 30
0.0
 40
17.5
 41
0.0
 71
     5
 72
     1
  1
175
 11
0.0000000000000001
 21
1.0
 31
0.0
 73
     1
 44
1.0
1001
ACAD
1000
MTEXTBEGIN
1070
    73
1070
     1
1070
    44
1040
1.0
1070
    74
1070
     0
1000
MTEXTEND
  0
POINT
  5
1CB4
330
16CB
100
AcDbEntity
  8
DEFPOINTS
 62
     0
100
AcDbPoint
 10
-296.1808282736456
 20
304.8327754367217
 30
0.0
  0
POINT
  5
1CB5
330
16CB
100
AcDbEntity
  8
DEFPOINTS
 62
     0
100
AcDbPoint
 10
-394.6573277538576
 20
479.8418362979333
 30
0.0
  0
POINT
  5
1CB6
330
16CB
100
AcDbEntity
  8
DEFPOINTS
 62
     0
100
AcDbPoint
 10
-581.1573277538575
 20
479.8418362979333
 30
0.0
  0
ENDBLK
  5
1AD7
330
16CB
100
AcDbEntity
  8
0
100
AcDbBlockEnd
  0
BLOCK
  5
1980
330
16D7
100
AcDbEntity
  8
0
100
AcDbBlockBegin
  2
*D7
 70
     1
 10
0.0
 20
0.0
 30
0.0
  3
*D7
  1

  0
LINE
  5
1CA3
330
16D7
100
AcDbEntity
  8
5
370
    -2
100
AcDbLine
 10
-415.6303277538576
 20
101.8418362979333
 30
0.0
 11
-481.1573277538577
 21
101.8418362979334
 31
0.0
  0
LINE
  5
1CA4
330
16D7
100
AcDbEntity
  8
5
370
    -2
100
AcDbLine
 10
-415.6303277538576
 20
110.8418362979334
 30
0.0
 11
-481.1573277538577
 21
110.8418362979334
 31
0.0
  0
LINE
  5
1CA5
330
16D7
100
AcDbEntity
  8
5
370
    -2
100
AcDbLine
 10
-476.1573277538576
 20
89.3418362979334
 30
0.0
 11
-476.1573277538576
 21
76.8418362979334
 31
0.0
  0
LINE
  5
1CA6
330
16D7
100
AcDbEntity
  8
5
370
    -2
100
AcDbLine
 10
-476.1573277538576
 20
123.3418362979334
 30
0.0
 11
-476.1573277538576
 21
150.7584451309673
 31
0.0
  0
LINE
  5
1CA7
330
16D7
100
AcDbEntity
  8
5
370
    -2
100
AcDbLine
 10
-476.1573277538576
 20
101.8418362979334
 30
0.0
 11
-476.1573277538576
 21
110.8418362979334
 31
0.0
  0
SOLID
  5
1CA8
330
16D7
100
AcDbEntity
  8
5
100
AcDbTrace
 10
-478.2406610871909
 20
89.3418362979334
 30
0.0
 11
-474.0739944205243
 21
89.3418362979334
 31
0.0
 12
-476.1573277538576
 22
101.8418362979334
 32
0.0
 13
-476.1573277538576
 23
101.8418362979334
 33
0.0
  0
SOLID
  5
1CA9
330
16D7
100
AcDbEntity
  8
5
100
AcDbTrace
 10
-478.2406610871909
 20
123.3418362979334
 30
0.0
 11
-474.0739944205243
 21
123.3418362979334
 31
0.0
 12
-476.1573277538576
 22
110.8418362979334
 32
0.0
 13
-476.1573277538576
 23
110.8418362979334
 33
0.0
  0
MTEXT
  5
1CAA
330
16D7
100
AcDbEntity
  8
5
 62
     2
100
AcDbMText
 10
-487.9073277538577
 20
143.3001407144502
 30
0.0
 40
17.5
 41
0.0
 71
     5
 72
     1
  1
9
 11
0.0000000000000001
 21
1.0
 31
0.0
 73
     1
 44
1.0
1001
ACAD
1000
MTEXTBEGIN
1070
    73
1070
     1
1070
    44
1040
1.0
1070
    74
1070
     0
1000
MTEXTEND
  0
POINT
  5
1CAB
330
16D7
100
AcDbEntity
  8
DEFPOINTS
 62
     0
100
AcDbPoint
 10
-410.6303277538576
 20
101.8418362979333
 30
0.0
  0
POINT
  5
1CAC
330
16D7
100
AcDbEntity
  8
DEFPOINTS
 62
     0
100
AcDbPoint
 10
-410.6303277538576
 20
110.8418362979334
 30
0.0
  0
POINT
  5
1CAD
330
16D7
100
AcDbEntity
  8
DEFPOINTS
 62
     0
100
AcDbPoint
 10
-476.1573277538576
 20
110.8418362979334
 30
0.0
  0
ENDBLK
  5
198C
330
16D7
100
AcDbEntity
  8
0
100
AcDbBlockEnd
  0
BLOCK
  5
19A4
330
16F2
100
AcDbEntity
  8
0
100
AcDbBlockBegin
  2
*D8
 70
     1
 10
0.0
 20
0.0
 30
0.0
  3
*D8
  1

  0
LINE
  5
1C9A
330
16F2
100
AcDbEntity
  8
5
370
    -2
100
AcDbLine
 10
-426.1573277538576
 20
73.82483629793338
 30
0.0
 11
-426.1573277538576
 21
-47.15816370206662
 31
0.0
  0
LINE
  5
1C9B
330
16F2
100
AcDbEntity
  8
5
370
    -2
100
AcDbLine
 10
-166.1573277538576
 20
73.82483629793338
 30
0.0
 11
-166.1573277538576
 21
-47.15816370206662
 31
0.0
  0
LINE
  5
1C9C
330
16F2
100
AcDbEntity
  8
5
370
    -2
100
AcDbLine
 10
-413.6573277538576
 20
-42.15816370206661
 30
0.0
 11
-178.6573277538576
 21
-42.15816370206661
 31
0.0
  0
SOLID
  5
1C9D
330
16F2
100
AcDbEntity
  8
5
100
AcDbTrace
 10
-413.6573277538576
 20
-40.07483036873327
 30
0.0
 11
-413.6573277538576
 21
-44.24149703539995
 31
0.0
 12
-426.1573277538576
 22
-42.15816370206661
 32
0.0
 13
-426.1573277538576
 23
-42.15816370206661
 33
0.0
  0
SOLID
  5
1C9E
330
16F2
100
AcDbEntity
  8
5
100
AcDbTrace
 10
-178.6573277538576
 20
-40.07483036873327
 30
0.0
 11
-178.6573277538576
 21
-44.24149703539995
 31
0.0
 12
-166.1573277538576
 22
-42.15816370206661
 32
0.0
 13
-166.1573277538576
 23
-42.15816370206661
 33
0.0
  0
MTEXT
  5
1C9F
330
16F2
100
AcDbEntity
  8
5
 62
     2
100
AcDbMText
 10
-296.1573277538576
 20
-30.40644126112173
 30
0.0
 40
17.5
 41
0.0
 71
     5
 72
     1
  1
260
 73
     1
 44
1.0
1001
ACAD
1000
MTEXTBEGIN
1070
    73
1070
     1
1070
    44
1040
1.0
1070
    74
1070
     0
1000
MTEXTEND
  0
POINT
  5
1CA0
330
16F2
100
AcDbEntity
  8
DEFPOINTS
 62
     0
100
AcDbPoint
 10
-426.1573277538576
 20
78.82483629793338
 30
0.0
  0
POINT
  5
1CA1
330
16F2
100
AcDbEntity
  8
DEFPOINTS
 62
     0
100
AcDbPoint
 10
-166.1573277538576
 20
78.82483629793338
 30
0.0
  0
POINT
  5
1CA2
330
16F2
100
AcDbEntity
  8
DEFPOINTS
 62
     0
100
AcDbPoint
 10
-166.1573277538576
 20
-42.15816370206661
 30
0.0
  0
ENDBLK
  5
19AE
330
16F2
100
AcDbEntity
  8
0
100
AcDbBlockEnd
  0
BLOCK
  5
19BD
330
1709
100
AcDbEntity
  8
0
100
AcDbBlockBegin
  2
*D9
 70
     1
 10
0.0
 20
0.0
 30
0.0
  3
*D9
  1
GEVFRAME
  0
LINE
  5
1C91
330
1709
100
AcDbEntity
  8
5
370
    -2
100
AcDbLine
 10
-401.7503277538576
 20
7.841836297933398
 30
0.0
 11
-516.1573277538576
 21
7.841836297933431
 31
0.0
  0
LINE
  5
1C92
330
1709
100
AcDbEntity
  8
5
370
    -2
100
AcDbLine
 10
-401.7503277538576
 20
204.8418362979333
 30
0.0
 11
-516.1573277538576
 21
204.8418362979334
 31
0.0
  0
LINE
  5
1C93
330
1709
100
AcDbEntity
  8
5
370
    -2
100
AcDbLine
 10
-511.1573277538576
 20
20.34183629793343
 30
0.0
 11
-511.1573277538576
 21
192.3418362979333
 31
0.0
  0
SOLID
  5
1C94
330
1709
100
AcDbEntity
  8
5
100
AcDbTrace
 10
-513.2406610871909
 20
20.34183629793343
 30
0.0
 11
-509.0739944205243
 21
20.34183629793343
 31
0.0
 12
-511.1573277538576
 22
7.84183629793343
 32
0.0
 13
-511.1573277538576
 23
7.84183629793343
 33
0.0
  0
SOLID
  5
1C95
330
1709
100
AcDbEntity
  8
5
100
AcDbTrace
 10
-513.2406610871909
 20
192.3418362979333
 30
0.0
 11
-509.0739944205243
 21
192.3418362979333
 31
0.0
 12
-511.1573277538576
 22
204.8418362979334
 32
0.0
 13
-511.1573277538576
 23
204.8418362979334
 33
0.0
  0
MTEXT
  5
1C96
330
1709
100
AcDbEntity
  8
5
 62
     2
100
AcDbMText
 10
-522.9073277538576
 20
106.3418362979333
 30
0.0
 40
17.5
 41
0.0
 71
     5
 72
     1
  1
{\Fgeniso.shx|c0;\U+25A1}197
 11
0.0000000000000001
 21
1.0
 31
0.0
 73
     1
 44
1.0
1001
ACAD
1000
MTEXTBEGIN
1070
    73
1070
     1
1070
    44
1040
1.0
1070
    74
1070
     0
1000
MTEXTEND
  0
POINT
  5
1C97
330
1709
100
AcDbEntity
  8
DEFPOINTS
 62
     0
100
AcDbPoint
 10
-396.7503277538576
 20
7.841836297933397
 30
0.0
  0
POINT
  5
1C98
330
1709
100
AcDbEntity
  8
DEFPOINTS
 62
     0
100
AcDbPoint
 10
-396.7503277538576
 20
204.8418362979333
 30
0.0
  0
POINT
  5
1C99
330
1709
100
AcDbEntity
  8
DEFPOINTS
 62
     0
100
AcDbPoint
 10
-511.1573277538576
 20
204.8418362979334
 30
0.0
  0
ENDBLK
  5
19C7
330
1709
100
AcDbEntity
  8
0
100
AcDbBlockEnd
  0
BLOCK
  5
192C
330
1720
100
AcDbEntity
  8
0
100
AcDbBlockBegin
  2
*D10
 70
     1
 10
0.0
 20
0.0
 30
0.0
  3
*D10
  1

  0
LINE
  5
1C86
330
1720
100
AcDbEntity
  8
5
370
    -2
100
AcDbLine
 10
-376.5263277538576
 20
457.8418362979333
 30
0.0
 11
-486.1573277538576
 21
457.8418362979333
 31
0.0
  0
LINE
  5
1C87
330
1720
100
AcDbEntity
  8
5
370
    -2
100
AcDbLine
 10
-430.7853277538576
 20
479.8418362979333
 30
0.0
 11
-486.1573277538576
 21
479.8418362979333
 31
0.0
  0
LINE
  5
1C88
330
1720
100
AcDbEntity
  8
5
370
    -2
100
AcDbLine
 10
-481.1573277538577
 20
445.3418362979333
 30
0.0
 11
-481.1573277538577
 21
432.8418362979333
 31
0.0
  0
LINE
  5
1C89
330
1720
100
AcDbEntity
  8
5
370
    -2
100
AcDbLine
 10
-481.1573277538577
 20
492.3418362979333
 30
0.0
 11
-481.1573277538577
 21
531.5872595262797
 31
0.0
  0
LINE
  5
1C8A
330
1720
100
AcDbEntity
  8
5
370
    -2
100
AcDbLine
 10
-481.1573277538577
 20
457.8418362979333
 30
0.0
 11
-481.1573277538577
 21
479.8418362979333
 31
0.0
  0
SOLID
  5
1C8B
330
1720
100
AcDbEntity
  8
5
100
AcDbTrace
 10
-483.240661087191
 20
445.3418362979333
 30
0.0
 11
-479.0739944205243
 21
445.3418362979333
 31
0.0
 12
-481.1573277538577
 22
457.8418362979333
 32
0.0
 13
-481.1573277538577
 23
457.8418362979333
 33
0.0
  0
SOLID
  5
1C8C
330
1720
100
AcDbEntity
  8
5
100
AcDbTrace
 10
-483.240661087191
 20
492.3418362979333
 30
0.0
 11
-479.0739944205243
 21
492.3418362979333
 31
0.0
 12
-481.1573277538577
 22
479.8418362979333
 32
0.0
 13
-481.1573277538577
 23
479.8418362979333
 33
0.0
  0
MTEXT
  5
1C8D
330
1720
100
AcDbEntity
  8
5
 62
     2
100
AcDbMText
 10
-492.9090501948025
 20
518.2145479121064
 30
0.0
 40
17.5
 41
0.0
 71
     5
 72
     1
  1
22
 11
0.0000000000000001
 21
1.0
 31
0.0
 73
     1
 44
1.0
1001
ACAD
1000
MTEXTBEGIN
1070
    73
1070
     1
1070
    44
1040
1.0
1070
    74
1070
     0
1000
MTEXTEND
  0
POINT
  5
1C8E
330
1720
100
AcDbEntity
  8
DEFPOINTS
 62
     0
100
AcDbPoint
 10
-371.5263277538576
 20
457.8418362979333
 30
0.0
  0
POINT
  5
1C8F
330
1720
100
AcDbEntity
  8
DEFPOINTS
 62
     0
100
AcDbPoint
 10
-425.7853277538576
 20
479.8418362979333
 30
0.0
  0
POINT
  5
1C90
330
1720
100
AcDbEntity
  8
DEFPOINTS
 62
     0
100
AcDbPoint
 10
-481.1573277538577
 20
479.8418362979333
 30
0.0
  0
ENDBLK
  5
1938
330
1720
100
AcDbEntity
  8
0
100
AcDbBlockEnd
  0
BLOCK
  5
1945
330
173B
100
AcDbEntity
  8
0
100
AcDbBlockBegin
  2
*D11
 70
     1
 10
0.0
 20
0.0
 30
0.0
  3
*D11
  1

  0
LINE
  5
1C7D
330
173B
100
AcDbEntity
  8
5
370
    -2
100
AcDbLine
 10
-431.1573277538577
 20
429.8418362979333
 30
0.0
 11
-536.1573277538575
 21
429.8418362979333
 31
0.0
  0
LINE
  5
1C7E
330
173B
100
AcDbEntity
  8
5
370
    -2
100
AcDbLine
 10
-462.0553277538576
 20
479.8418362979333
 30
0.0
 11
-536.1573277538575
 21
479.8418362979333
 31
0.0
  0
LINE
  5
1C7F
330
173B
100
AcDbEntity
  8
5
370
    -2
100
AcDbLine
 10
-531.1573277538575
 20
442.3418362979333
 30
0.0
 11
-531.1573277538575
 21
467.3418362979333
 31
0.0
  0
SOLID
  5
1C80
330
173B
100
AcDbEntity
  8
5
100
AcDbTrace
 10
-533.2406610871909
 20
442.3418362979333
 30
0.0
 11
-529.0739944205241
 21
442.3418362979333
 31
0.0
 12
-531.1573277538575
 22
429.8418362979333
 32
0.0
 13
-531.1573277538575
 23
429.8418362979333
 33
0.0
  0
SOLID
  5
1C81
330
173B
100
AcDbEntity
  8
5
100
AcDbTrace
 10
-533.2406610871909
 20
467.3418362979333
 30
0.0
 11
-529.0739944205241
 21
467.3418362979333
 31
0.0
 12
-531.1573277538575
 22
479.8418362979333
 32
0.0
 13
-531.1573277538575
 23
479.8418362979333
 33
0.0
  0
MTEXT
  5
1C82
330
173B
100
AcDbEntity
  8
5
 62
     2
100
AcDbMText
 10
-542.9073277538576
 20
454.8418362979332
 30
0.0
 40
17.5
 41
0.0
 71
     5
 72
     1
  1
50
 11
0.0000000000000001
 21
1.0
 31
0.0
 73
     1
 44
1.0
1001
ACAD
1000
MTEXTBEGIN
1070
    73
1070
     1
1070
    44
1040
1.0
1070
    74
1070
     0
1000
MTEXTEND
  0
POINT
  5
1C83
330
173B
100
AcDbEntity
  8
DEFPOINTS
 62
     0
100
AcDbPoint
 10
-426.1573277538576
 20
429.8418362979333
 30
0.0
  0
POINT
  5
1C84
330
173B
100
AcDbEntity
  8
DEFPOINTS
 62
     0
100
AcDbPoint
 10
-457.0553277538576
 20
479.8418362979333
 30
0.0
  0
POINT
  5
1C85
330
173B
100
AcDbEntity
  8
DEFPOINTS
 62
     0
100
AcDbPoint
 10
-531.1573277538575
 20
479.8418362979333
 30
0.0
  0
ENDBLK
  5
194F
330
173B
100
AcDbEntity
  8
0
100
AcDbBlockEnd
  0
BLOCK
  5
1BB1
330
1BAF
100
AcDbEntity
  8
0
100
AcDbBlockBegin
  2
GENAXEH
 70
     0
 10
0.0
 20
0.0
 30
0.0
  3
GENAXEH
  1

  0
LINE
  5
1BB0
330
1BAF
100
AcDbEntity
  8
0
100
AcDbLine
 10
-1.0
 20
0.0
 30
0.0
 11
1.0
 21
0.0
 31
0.0
  0
ENDBLK
  5
1BB2
330
1BAF
100
AcDbEntity
  8
0
100
AcDbBlockEnd
  0
ENDSEC
  0
SECTION
  2
ENTITIES
  0
LINE
  5
1001
330
1638
100
AcDbEntity
  8
0
100
AcDbLine
 10
-396.7503277538576
 20
439.8958362979333
 30
0.0
 11
-394.6573277538576
 21
479.8418362979333
 31
0.0
  0
LINE
  5
1002
330
1638
100
AcDbEntity
  8
0
100
AcDbLine
 10
-426.1573277538576
 20
429.8418362979333
 30
0.0
 11
-425.6343277538576
 21
439.8278362979333
 31
0.0
  0
LINE
  5
1003
330
1638
100
AcDbEntity
  8
0
100
AcDbLine
 10
-396.7503277538576
 20
439.8958362979333
 30
0.0
 11
-425.6303277538576
 21
439.8958362979333
 31
0.0
  0
LINE
  5
1004
330
1638
100
AcDbEntity
  8
0
100
AcDbLine
 10
-382.9483277538577
 20
439.2458362979333
 30
0.0
 11
-383.5063277538576
 21
471.1838362979333
 31
0.0
  0
LINE
  5
1005
330
1638
100
AcDbEntity
  8
0
100
AcDbLine
 10
-386.6573277538577
 20
479.8418362979333
 30
0.0
 11
-383.5063277538576
 21
471.1838362979333
 31
0.0
  0
ARC
  5
1006
330
1638
100
AcDbEntity
  8
0
100
AcDbCircle
 10
-377.4493277538576
 20
439.3418362979333
 30
0.0
 40
5.5
100
AcDbArc
 50
181.0000000000001
 51
270.0
  0
LINE
  5
1008
330
1638
100
AcDbEntity
  8
0
100
AcDbLine
 10
-426.1573277538576
 20
429.8418362979333
 30
0.0
 11
-390.9743277538576
 21
429.8418362979333
 31
0.0
  0
ARC
  5
100B
330
1638
100
AcDbEntity
  8
0
100
AcDbCircle
 10
-390.9743277538576
 20
419.8418362979333
 30
0.0
 40
10.0
100
AcDbArc
 50
2.999999999999731
 51
90.0
  0
LINE
  5
100C
330
1638
100
AcDbEntity
  8
0
100
AcDbLine
 10
-417.3803277538576
 20
439.8968362979334
 30
0.0
 11
-415.1303277538576
 21
429.8418362979333
 31
0.0
  0
LINE
  5
100D
330
1638
100
AcDbEntity
  8
0
100
AcDbLine
 10
-406.1303277538575
 20
429.8408362979333
 30
0.0
 11
-403.8803277538575
 21
439.8968362979334
 31
0.0
  0
CIRCLE
  5
100E
330
1638
100
AcDbEntity
  8
0
100
AcDbCircle
 10
-377.4493277538576
 20
439.3418362979333
 30
0.0
 40
5.5
  0
LINE
  5
100F
330
1638
100
AcDbEntity
  8
0
100
AcDbLine
 10
-296.1573277538576
 20
439.8418362979334
 30
0.0
 11
-371.9723277538577
 21
439.8418362979334
 31
0.0
  0
LINE
  5
1010
330
1638
100
AcDbEntity
  8
0
100
AcDbLine
 10
-366.6573277538577
 20
439.8418362979334
 30
0.0
 11
-366.5883277538577
 21
441.1558362979334
 31
0.0
  0
LINE
  5
1011
330
1638
100
AcDbEntity
  8
0
100
AcDbLine
 10
-379.4283277538576
 20
473.2978362979333
 30
0.0
 11
-378.4313277538577
 21
444.7538362979334
 31
0.0
  0
LINE
  5
1012
330
1638
100
AcDbEntity
  8
0
100
AcDbLine
 10
-381.9823277538576
 20
474.8418362979333
 30
0.0
 11
-381.0263277538576
 21
474.8418362979333
 31
0.0
  0
ARC
  5
1013
330
1638
100
AcDbEntity
  8
0
100
AcDbCircle
 10
-381.0263277538576
 20
473.2418362979333
 30
0.0
 40
1.6
100
AcDbArc
 50
2.000000000000471
 51
90.0
  0
LINE
  5
1014
330
1638
100
AcDbEntity
  8
0
100
AcDbLine
 10
-197.6573277538576
 20
479.8418362979333
 30
0.0
 11
-394.6573277538576
 21
479.8418362979333
 31
0.0
  0
LINE
  5
1015
330
1638
100
AcDbEntity
  8
0
100
AcDbLine
 10
-195.5643277538576
 20
439.8968362979334
 30
0.0
 11
-197.6573277538576
 21
479.8418362979333
 31
0.0
  0
LINE
  5
1016
330
1638
100
AcDbEntity
  8
0
100
AcDbLine
 10
-166.1573277538576
 20
429.8418362979333
 30
0.0
 11
-166.6803277538576
 21
439.8278362979333
 31
0.0
  0
LINE
  5
1017
330
1638
100
AcDbEntity
  8
0
100
AcDbLine
 10
-195.5643277538576
 20
439.8958362979333
 30
0.0
 11
-166.6843277538576
 21
439.8958362979333
 31
0.0
  0
LINE
  5
1018
330
1638
100
AcDbEntity
  8
0
100
AcDbLine
 10
-209.3653277538576
 20
439.2458362979333
 30
0.0
 11
-208.8083277538576
 21
471.1838362979333
 31
0.0
  0
LINE
  5
1019
330
1638
100
AcDbEntity
  8
0
100
AcDbLine
 10
-205.6573277538577
 20
479.8418362979333
 30
0.0
 11
-208.8083277538576
 21
471.1838362979333
 31
0.0
  0
ARC
  5
101A
330
1638
100
AcDbEntity
  8
0
100
AcDbCircle
 10
-214.8653277538576
 20
439.3418362979333
 30
0.0
 40
5.5
100
AcDbArc
 50
270.0
 51
358.9999999999998
  0
LINE
  5
101B
330
1638
100
AcDbEntity
  8
0
100
AcDbLine
 10
-166.1573277538576
 20
429.8418362979333
 30
0.0
 11
-201.3393277538577
 21
429.8418362979333
 31
0.0
  0
ARC
  5
101E
330
1638
100
AcDbEntity
  8
0
100
AcDbCircle
 10
-201.3393277538577
 20
419.8418362979333
 30
0.0
 40
10.0
100
AcDbArc
 50
90.0
 51
177.0000000000002
  0
LINE
  5
101F
330
1638
100
AcDbEntity
  8
0
100
AcDbLine
 10
-174.9343277538576
 20
439.8958362979333
 30
0.0
 11
-177.1843277538576
 21
429.8418362979333
 31
0.0
  0
LINE
  5
1020
330
1638
100
AcDbEntity
  8
0
100
AcDbLine
 10
-186.1833277538576
 20
429.8418362979333
 30
0.0
 11
-188.4333277538576
 21
439.8968362979334
 31
0.0
  0
CIRCLE
  5
1021
330
1638
100
AcDbEntity
  8
0
100
AcDbCircle
 10
-214.8653277538576
 20
439.3418362979333
 30
0.0
 40
5.5
  0
LINE
  5
1022
330
1638
100
AcDbEntity
  8
0
100
AcDbLine
 10
-210.8323277538576
 20
474.8418362979333
 30
0.0
 11
-211.2883277538576
 21
474.8418362979333
 31
0.0
  0
LINE
  5
1023
330
1638
100
AcDbEntity
  8
0
100
AcDbLine
 10
-214.8653277538576
 20
433.8418362979333
 30
0.0
 11
-377.4493277538576
 21
433.8418362979333
 31
0.0
  0
LINE
  5
1038
330
1638
100
AcDbEntity
  8
0
100
AcDbLine
 10
-376.1573277538577
 20
479.8418362979333
 30
0.0
 11
-375.5243277538576
 21
461.7018362979333
 31
0.0
  0
LINE
  5
1039
330
1638
100
AcDbEntity
  8
0
100
AcDbLine
 10
-382.1563277538576
 20
479.8238362979333
 30
0.0
 11
-381.9823277538576
 21
474.8238362979333
 31
0.0
  0
ARC
  5
103A
330
1638
100
AcDbEntity
  8
0
100
AcDbCircle
 10
-371.5263277538576
 20
461.8418362979333
 30
0.0
 40
4.0
100
AcDbArc
 50
182.0000000000004
 51
270.0
  0
ARC
  5
103B
330
1638
100
AcDbEntity
  8
0
100
AcDbCircle
 10
-360.5963277538576
 20
440.8418362979333
 30
0.0
 40
6.0
100
AcDbArc
 50
90.0
 51
177.0000000000002
  0
LINE
  5
103C
330
1638
100
AcDbEntity
  8
0
100
AcDbLine
 10
-296.1573277538576
 20
439.8418362979334
 30
0.0
 11
-220.3423277538576
 21
439.8418362979334
 31
0.0
  0
LINE
  5
103D
330
1638
100
AcDbEntity
  8
0
100
AcDbLine
 10
-225.6573277538576
 20
439.8408362979333
 30
0.0
 11
-225.7263277538576
 21
441.1558362979334
 31
0.0
  0
LINE
  5
103E
330
1638
100
AcDbEntity
  8
0
100
AcDbLine
 10
-212.8863277538576
 20
473.2978362979333
 30
0.0
 11
-213.8833277538576
 21
444.7538362979334
 31
0.0
  0
LINE
  5
103F
330
1638
100
AcDbEntity
  8
0
100
AcDbLine
 10
-210.3323277538576
 20
474.8418362979333
 30
0.0
 11
-211.2883277538576
 21
474.8418362979333
 31
0.0
  0
ARC
  5
1040
330
1638
100
AcDbEntity
  8
0
100
AcDbCircle
 10
-211.2883277538576
 20
473.2418362979333
 30
0.0
 40
1.6
100
AcDbArc
 50
90.0
 51
177.9999999999995
  0
LINE
  5
1041
330
1638
100
AcDbEntity
  8
0
100
AcDbLine
 10
-220.7883277538576
 20
457.8418362979333
 30
0.0
 11
-371.5263277538576
 21
457.8418362979333
 31
0.0
  0
LINE
  5
1042
330
1638
100
AcDbEntity
  8
0
100
AcDbLine
 10
-216.1573277538577
 20
479.8418362979333
 30
0.0
 11
-216.7903277538576
 21
461.7018362979333
 31
0.0
  0
LINE
  5
1043
330
1638
100
AcDbEntity
  8
0
100
AcDbLine
 10
-210.1583277538576
 20
479.8238362979333
 30
0.0
 11
-210.3323277538576
 21
474.8238362979333
 31
0.0
  0
ARC
  5
1044
330
1638
100
AcDbEntity
  8
0
100
AcDbCircle
 10
-220.7883277538576
 20
461.8418362979333
 30
0.0
 40
4.0
100
AcDbArc
 50
270.0
 51
357.9999999999995
  0
LINE
  5
1045
330
1638
100
AcDbEntity
  8
0
100
AcDbLine
 10
-231.7183277538577
 20
446.8418362979333
 30
0.0
 11
-360.5963277538576
 21
446.8418362979333
 31
0.0
  0
ARC
  5
1046
330
1638
100
AcDbEntity
  8
0
100
AcDbCircle
 10
-231.7183277538577
 20
440.8418362979333
 30
0.0
 40
6.0
100
AcDbArc
 50
2.999999999999731
 51
90.0
  0
LINE
  5
1047
330
1638
100
AcDbEntity
  8
0
100
AcDbLine
 10
-426.1573277538576
 20
78.82483629793338
 30
0.0
 11
-426.1573277538576
 21
133.8578362979333
 31
0.0
  0
LINE
  5
1048
330
1638
100
AcDbEntity
  8
0
100
AcDbLine
 10
-394.6573277538576
 20
9.841836297933397
 30
0.0
 11
-394.6573277538576
 21
202.8418362979333
 31
0.0
  0
LINE
  5
1049
330
1638
100
AcDbEntity
  8
0
100
AcDbLine
 10
-396.7503277538576
 20
7.841836297933397
 30
0.0
 11
-396.7503277538576
 21
204.8418362979333
 31
0.0
  0
LINE
  5
104A
330
1638
100
AcDbEntity
  8
0
100
AcDbLine
 10
-197.6573277538576
 20
202.8418362979333
 30
0.0
 11
-394.6573277538576
 21
202.8418362979333
 31
0.0
  0
LINE
  5
104B
330
1638
100
AcDbEntity
  8
0
100
AcDbLine
 10
-195.5643277538576
 20
204.8418362979333
 30
0.0
 11
-396.7503277538576
 21
204.8418362979333
 31
0.0
  0
LINE
  5
104D
330
1638
100
AcDbEntity
  8
0
100
AcDbLine
 10
-424.1573277538576
 20
78.82483629793338
 30
0.0
 11
-424.1573277538576
 21
133.8578362979333
 31
0.0
  0
LINE
  5
104E
330
1638
100
AcDbEntity
  8
0
100
AcDbLine
 10
-396.7503277538576
 20
146.3418362979334
 30
0.0
 11
-421.7103277538576
 21
139.6538362979334
 31
0.0
  0
LINE
  5
104F
330
1638
100
AcDbEntity
  8
0
100
AcDbLine
 10
-396.7503277538576
 20
66.34183629793338
 30
0.0
 11
-421.7103277538576
 21
73.02983629793337
 31
0.0
  0
LINE
  5
1050
330
1638
100
AcDbEntity
  8
0
100
AcDbLine
 10
-396.7503277538576
 20
144.2708362979334
 30
0.0
 11
-421.1923277538576
 21
137.7218362979333
 31
0.0
  0
LINE
  5
1051
330
1638
100
AcDbEntity
  8
0
100
AcDbLine
 10
-396.7503277538576
 20
68.41283629793338
 30
0.0
 11
-421.1933277538576
 21
74.96183629793339
 31
0.0
  0
ARC
  5
1052
330
1638
100
AcDbEntity
  8
0
100
AcDbCircle
 10
-420.1573277538576
 20
133.8578362979333
 30
0.0
 40
6.0
100
AcDbArc
 50
105.0000000000011
 51
180.0
  0
ARC
  5
1053
330
1638
100
AcDbEntity
  8
0
100
AcDbCircle
 10
-420.1573277538576
 20
78.82483629793338
 30
0.0
 40
6.0
100
AcDbArc
 50
180.0
 51
254.9999999999988
  0
ARC
  5
1054
330
1638
100
AcDbEntity
  8
0
100
AcDbCircle
 10
-420.1573277538576
 20
133.8578362979333
 30
0.0
 40
4.0
100
AcDbArc
 50
105.0000000000011
 51
180.0
  0
ARC
  5
1055
330
1638
100
AcDbEntity
  8
0
100
AcDbCircle
 10
-420.1573277538576
 20
78.82483629793338
 30
0.0
 40
4.0
100
AcDbArc
 50
180.0
 51
254.9999999999988
  0
CIRCLE
  5
1056
330
1638
100
AcDbEntity
  8
0
100
AcDbCircle
 10
-410.6303277538576
 20
106.3418362979334
 30
0.0
 40
6.75
  0
LINE
  5
1057
330
1638
100
AcDbEntity
  8
0
100
AcDbLine
 10
-369.8323277538576
 20
35.41383629793339
 30
0.0
 11
-363.3323277538576
 21
31.66183629793338
 31
0.0
  0
LINE
  5
1058
330
1638
100
AcDbEntity
  8
0
100
AcDbLine
 10
-363.3303277538577
 20
31.66083629793339
 30
0.0
 11
-356.8323277538576
 21
35.41283629793338
 31
0.0
  0
LINE
  5
1059
330
1638
100
AcDbEntity
  8
0
100
AcDbLine
 10
-356.8313277538576
 20
35.41483629793338
 30
0.0
 11
-356.8313277538576
 21
42.91783629793338
 31
0.0
  0
LINE
  5
105A
330
1638
100
AcDbEntity
  8
0
100
AcDbLine
 10
-356.8323277538576
 20
42.91883629793338
 30
0.0
 11
-363.3333277538576
 21
46.67283629793337
 31
0.0
  0
LINE
  5
105B
330
1638
100
AcDbEntity
  8
0
100
AcDbLine
 10
-369.8323277538576
 20
42.92083629793338
 30
0.0
 11
-369.8323277538576
 21
35.41383629793339
 31
0.0
  0
LINE
  5
105C
330
1638
100
AcDbEntity
  8
0
100
AcDbLine
 10
-363.3343277538576
 20
46.67283629793337
 30
0.0
 11
-369.8313277538576
 21
42.92183629793338
 31
0.0
  0
LINE
  5
105D
330
1638
100
AcDbEntity
  8
0
100
AcDbLine
 10
-235.4823277538577
 20
169.7628362979334
 30
0.0
 11
-228.9833277538576
 21
166.0108362979334
 31
0.0
  0
LINE
  5
105E
330
1638
100
AcDbEntity
  8
0
100
AcDbLine
 10
-228.9813277538576
 20
166.0108362979334
 30
0.0
 11
-222.4823277538576
 21
169.7638362979334
 31
0.0
  0
LINE
  5
105F
330
1638
100
AcDbEntity
  8
0
100
AcDbLine
 10
-222.4803277538576
 20
169.7638362979334
 30
0.0
 11
-222.4803277538576
 21
177.2698362979334
 31
0.0
  0
LINE
  5
1060
330
1638
100
AcDbEntity
  8
0
100
AcDbLine
 10
-222.4813277538576
 20
177.2708362979334
 30
0.0
 11
-228.9813277538576
 21
181.0228362979334
 31
0.0
  0
LINE
  5
1061
330
1638
100
AcDbEntity
  8
0
100
AcDbLine
 10
-235.4823277538577
 20
177.2698362979334
 30
0.0
 11
-235.4813277538576
 21
169.7638362979334
 31
0.0
  0
LINE
  5
1062
330
1638
100
AcDbEntity
  8
0
100
AcDbLine
 10
-228.9823277538577
 20
181.0238362979333
 30
0.0
 11
-235.4813277538576
 21
177.2718362979333
 31
0.0
  0
LINE
  5
1063
330
1638
100
AcDbEntity
  8
0
100
AcDbLine
 10
-356.9093277538576
 20
40.16683629793338
 30
0.0
 11
-369.7543277538577
 21
40.16683629793338
 31
0.0
  0
LINE
  5
1064
330
1638
100
AcDbEntity
  8
0
100
AcDbLine
 10
-356.9093277538576
 20
38.16683629793338
 30
0.0
 11
-369.7553277538576
 21
38.16683629793338
 31
0.0
  0
LINE
  5
1065
330
1638
100
AcDbEntity
  8
0
100
AcDbLine
 10
-222.5593277538576
 20
174.5168362979334
 30
0.0
 11
-235.4043277538576
 21
174.5168362979334
 31
0.0
  0
LINE
  5
1066
330
1638
100
AcDbEntity
  8
0
100
AcDbLine
 10
-222.5593277538576
 20
172.5168362979334
 30
0.0
 11
-235.4043277538576
 21
172.5168362979334
 31
0.0
  0
LINE
  5
1067
330
1638
100
AcDbEntity
  8
0
100
AcDbLine
 10
-166.1573277538576
 20
78.82483629793338
 30
0.0
 11
-166.1573277538576
 21
133.8578362979333
 31
0.0
  0
LINE
  5
1068
330
1638
100
AcDbEntity
  8
0
100
AcDbLine
 10
-197.6573277538576
 20
9.841836297933397
 30
0.0
 11
-197.6573277538576
 21
202.8418362979333
 31
0.0
  0
LINE
  5
1069
330
1638
100
AcDbEntity
  8
0
100
AcDbLine
 10
-195.5643277538576
 20
7.841836297933397
 30
0.0
 11
-195.5643277538576
 21
204.8418362979333
 31
0.0
  0
LINE
  5
106A
330
1638
100
AcDbEntity
  8
0
100
AcDbLine
 10
-396.7503277538576
 20
7.841836297933397
 30
0.0
 11
-195.5643277538576
 21
7.841836297933397
 31
0.0
  0
LINE
  5
106B
330
1638
100
AcDbEntity
  8
0
100
AcDbLine
 10
-394.6573277538576
 20
9.841836297933397
 30
0.0
 11
-197.6573277538576
 21
9.841836297933397
 31
0.0
  0
LINE
  5
106C
330
1638
100
AcDbEntity
  8
0
100
AcDbLine
 10
-168.1573277538576
 20
78.82483629793338
 30
0.0
 11
-168.1573277538576
 21
133.8578362979333
 31
0.0
  0
LINE
  5
106D
330
1638
100
AcDbEntity
  8
0
100
AcDbLine
 10
-195.5633277538576
 20
146.3418362979334
 30
0.0
 11
-170.6043277538576
 21
139.6538362979334
 31
0.0
  0
LINE
  5
106E
330
1638
100
AcDbEntity
  8
0
100
AcDbLine
 10
-195.5633277538576
 20
66.34183629793338
 30
0.0
 11
-170.6043277538576
 21
73.02883629793339
 31
0.0
  0
LINE
  5
106F
330
1638
100
AcDbEntity
  8
0
100
AcDbLine
 10
-195.5633277538576
 20
144.2718362979334
 30
0.0
 11
-171.1213277538576
 21
137.7218362979333
 31
0.0
  0
LINE
  5
1070
330
1638
100
AcDbEntity
  8
0
100
AcDbLine
 10
-195.5633277538576
 20
68.41183629793338
 30
0.0
 11
-171.1223277538577
 21
74.96183629793339
 31
0.0
  0
ARC
  5
1071
330
1638
100
AcDbEntity
  8
0
100
AcDbCircle
 10
-172.1573277538576
 20
133.8578362979333
 30
0.0
 40
6.0
100
AcDbArc
 50
0.0
 51
74.99999999999883
  0
ARC
  5
1072
330
1638
100
AcDbEntity
  8
0
100
AcDbCircle
 10
-172.1573277538576
 20
78.82483629793338
 30
0.0
 40
6.0
100
AcDbArc
 50
285.0000000000012
 51
0.0
  0
ARC
  5
1073
330
1638
100
AcDbEntity
  8
0
100
AcDbCircle
 10
-172.1573277538576
 20
133.8578362979333
 30
0.0
 40
4.0
100
AcDbArc
 50
0.0
 51
74.99999999999883
  0
ARC
  5
1074
330
1638
100
AcDbEntity
  8
0
100
AcDbCircle
 10
-172.1573277538576
 20
78.82483629793338
 30
0.0
 40
4.0
100
AcDbArc
 50
285.0000000000012
 51
0.0
  0
CIRCLE
  5
1075
330
1638
100
AcDbEntity
  8
0
100
AcDbCircle
 10
-181.6843277538576
 20
106.3418362979334
 30
0.0
 40
6.75
  0
LINE
  5
1076
330
1638
100
AcDbEntity
  8
0
100
AcDbLine
 10
-205.6573277538577
 20
195.3418362979333
 30
0.0
 11
-205.6573277538577
 21
119.8418362979334
 31
0.0
  0
LINE
  5
1077
330
1638
100
AcDbEntity
  8
0
100
AcDbLine
 10
-210.1573277538577
 20
190.8418362979333
 30
0.0
 11
-210.1573277538577
 21
18.8418362979334
 31
0.0
  0
LINE
  5
1078
330
1638
100
AcDbEntity
  8
0
100
AcDbLine
 10
-216.1573277538577
 20
152.8418362979334
 30
0.0
 11
-216.1573277538577
 21
28.84183629793339
 31
0.0
  0
LINE
  5
1079
330
1638
100
AcDbEntity
  8
0
100
AcDbLine
 10
-386.6573277538577
 20
195.3418362979333
 30
0.0
 11
-386.6573277538577
 21
119.8418362979334
 31
0.0
  0
LINE
  5
107A
330
1638
100
AcDbEntity
  8
0
100
AcDbLine
 10
-382.1573277538576
 20
190.8418362979333
 30
0.0
 11
-382.1573277538576
 21
18.8418362979334
 31
0.0
  0
LINE
  5
107B
330
1638
100
AcDbEntity
  8
0
100
AcDbLine
 10
-376.1573277538577
 20
180.8418362979333
 30
0.0
 11
-376.1573277538577
 21
56.84183629793338
 31
0.0
  0
LINE
  5
107C
330
1638
100
AcDbEntity
  8
0
100
AcDbLine
 10
-205.6573277538577
 20
195.3418362979333
 30
0.0
 11
-386.6573277538577
 21
195.3418362979333
 31
0.0
  0
LINE
  5
107D
330
1638
100
AcDbEntity
  8
0
100
AcDbLine
 10
-205.6573277538577
 20
14.3418362979334
 30
0.0
 11
-386.6573277538577
 21
14.3418362979334
 31
0.0
  0
LINE
  5
107E
330
1638
100
AcDbEntity
  8
0
100
AcDbLine
 10
-210.1573277538577
 20
190.8418362979333
 30
0.0
 11
-382.1573277538576
 21
190.8418362979333
 31
0.0
  0
LINE
  5
107F
330
1638
100
AcDbEntity
  8
0
100
AcDbLine
 10
-210.1573277538577
 20
18.8418362979334
 30
0.0
 11
-382.1573277538576
 21
18.8418362979334
 31
0.0
  0
LINE
  5
1080
330
1638
100
AcDbEntity
  8
0
100
AcDbLine
 10
-220.1573277538577
 20
24.84183629793339
 30
0.0
 11
-344.1573277538577
 21
24.84183629793339
 31
0.0
  0
LINE
  5
1081
330
1638
100
AcDbEntity
  8
0
100
AcDbLine
 10
-220.1573277538577
 20
156.8418362979334
 30
0.0
 11
-240.1573277538576
 21
156.8418362979334
 31
0.0
  0
LINE
  5
1082
330
1638
100
AcDbEntity
  8
0
100
AcDbLine
 10
-352.1573277538577
 20
52.84183629793338
 30
0.0
 11
-372.1573277538577
 21
52.84183629793338
 31
0.0
  0
LINE
  5
1083
330
1638
100
AcDbEntity
  8
0
100
AcDbLine
 10
-348.1573277538577
 20
48.84183629793338
 30
0.0
 11
-348.1573277538577
 21
28.84183629793339
 31
0.0
  0
LINE
  5
1084
330
1638
100
AcDbEntity
  8
0
100
AcDbLine
 10
-244.1573277538577
 20
180.8418362979333
 30
0.0
 11
-244.1573277538577
 21
160.8418362979334
 31
0.0
  0
LINE
  5
1085
330
1638
100
AcDbEntity
  8
0
100
AcDbLine
 10
-248.1573277538577
 20
184.8418362979333
 30
0.0
 11
-372.1573277538577
 21
184.8418362979333
 31
0.0
  0
ARC
  5
1086
330
1638
100
AcDbEntity
  8
0
100
AcDbCircle
 10
-248.1573277538577
 20
180.8418362979333
 30
0.0
 40
4.0
100
AcDbArc
 50
0.0
 51
90.0
  0
ARC
  5
1087
330
1638
100
AcDbEntity
  8
0
100
AcDbCircle
 10
-220.1573277538577
 20
152.8418362979334
 30
0.0
 40
4.0
100
AcDbArc
 50
0.0
 51
90.0
  0
ARC
  5
1088
330
1638
100
AcDbEntity
  8
0
100
AcDbCircle
 10
-220.1573277538577
 20
28.84183629793339
 30
0.0
 40
4.0
100
AcDbArc
 50
270.0
 51
0.0
  0
ARC
  5
1089
330
1638
100
AcDbEntity
  8
0
100
AcDbCircle
 10
-344.1573277538577
 20
28.84183629793339
 30
0.0
 40
4.0
100
AcDbArc
 50
180.0
 51
270.0
  0
ARC
  5
108A
330
1638
100
AcDbEntity
  8
0
100
AcDbCircle
 10
-372.1573277538577
 20
56.84183629793338
 30
0.0
 40
4.0
100
AcDbArc
 50
180.0
 51
270.0
  0
ARC
  5
108B
330
1638
100
AcDbEntity
  8
0
100
AcDbCircle
 10
-372.1573277538577
 20
180.8418362979333
 30
0.0
 40
4.0
100
AcDbArc
 50
90.0
 51
180.0
  0
ARC
  5
108C
330
1638
100
AcDbEntity
  8
0
100
AcDbCircle
 10
-240.1573277538576
 20
160.8418362979334
 30
0.0
 40
4.0
100
AcDbArc
 50
180.0
 51
270.0
  0
ARC
  5
108D
330
1638
100
AcDbEntity
  8
0
100
AcDbCircle
 10
-352.1573277538577
 20
48.84183629793338
 30
0.0
 40
4.0
100
AcDbArc
 50
0.0
 51
90.0
  0
CIRCLE
  5
108E
330
1638
100
AcDbEntity
  8
0
100
AcDbCircle
 10
-363.3323277538576
 20
39.16583629793338
 30
0.0
 40
11.0
  0
CIRCLE
  5
108F
330
1638
100
AcDbEntity
  8
0
100
AcDbCircle
 10
-228.9823277538577
 20
173.5168362979334
 30
0.0
 40
11.0
  0
LINE
  5
1090
330
1638
100
AcDbEntity
  8
0
100
AcDbLine
 10
-203.6573277538577
 20
119.8418362979334
 30
0.0
 11
-205.6573277538577
 21
119.8418362979334
 31
0.0
  0
LINE
  5
1091
330
1638
100
AcDbEntity
  8
0
100
AcDbLine
 10
-203.6573277538577
 20
89.84183629793339
 30
0.0
 11
-205.6573277538577
 21
89.84183629793339
 31
0.0
  0
LINE
  5
1092
330
1638
100
AcDbEntity
  8
0
100
AcDbLine
 10
-203.6573277538577
 20
119.8418362979334
 30
0.0
 11
-203.6573277538577
 21
89.84183629793339
 31
0.0
  0
LINE
  5
1093
330
1638
100
AcDbEntity
  8
0
100
AcDbLine
 10
-205.6573277538577
 20
89.84183629793339
 30
0.0
 11
-205.6573277538577
 21
14.3418362979334
 31
0.0
  0
LINE
  5
1094
330
1638
100
AcDbEntity
  8
0
100
AcDbLine
 10
-388.6573277538577
 20
119.8418362979334
 30
0.0
 11
-386.6573277538577
 21
119.8418362979334
 31
0.0
  0
LINE
  5
1095
330
1638
100
AcDbEntity
  8
0
100
AcDbLine
 10
-388.6573277538577
 20
89.84183629793339
 30
0.0
 11
-386.6573277538577
 21
89.84183629793339
 31
0.0
  0
LINE
  5
1096
330
1638
100
AcDbEntity
  8
0
100
AcDbLine
 10
-388.6573277538577
 20
119.8418362979334
 30
0.0
 11
-388.6573277538577
 21
89.84183629793339
 31
0.0
  0
LINE
  5
1097
330
1638
100
AcDbEntity
  8
0
100
AcDbLine
 10
-386.6573277538577
 20
89.84183629793339
 30
0.0
 11
-386.6573277538577
 21
14.3418362979334
 31
0.0
  0
CIRCLE
  5
109A
330
1638
100
AcDbEntity
  8
0
100
AcDbCircle
 10
-181.6843277538576
 20
106.3418362979334
 30
0.0
 40
4.5
  0
CIRCLE
  5
109B
330
1638
100
AcDbEntity
  8
0
100
AcDbCircle
 10
-410.6303277538576
 20
106.3418362979334
 30
0.0
 40
4.5
  0
POLYLINE
  5
109D
330
1638
100
AcDbEntity
  8
SCHRAFFUR_RAND
100
AcDb2dPolyline
 66
     1
 10
0.0
 20
0.0
 30
0.0
 70
     1
  0
VERTEX
  5
109E
330
109D
100
AcDbEntity
  8
SCHRAFFUR_RAND
100
AcDbVertex
100
AcDb2dVertex
 10
-380.4043277538576
 20
443.9798362979334
 30
0.0
  0
VERTEX
  5
109F
330
109D
100
AcDbEntity
  8
SCHRAFFUR_RAND
100
AcDbVertex
100
AcDb2dVertex
 10
-380.6373277538576
 20
443.8578362979334
 30
0.0
  0
VERTEX
  5
10A0
330
109D
100
AcDbEntity
  8
SCHRAFFUR_RAND
100
AcDbVertex
100
AcDb2dVertex
 10
-381.7373277538576
 20
442.8298362979334
 30
0.0
  0
VERTEX
  5
10A1
330
109D
100
AcDbEntity
  8
SCHRAFFUR_RAND
100
AcDbVertex
100
AcDb2dVertex
 10
-382.5203277538577
 20
441.5438362979333
 30
0.0
  0
VERTEX
  5
10A2
330
109D
100
AcDbEntity
  8
SCHRAFFUR_RAND
100
AcDbVertex
100
AcDb2dVertex
 10
-382.9263277538576
 20
440.0938362979334
 30
0.0
  0
VERTEX
  5
10A3
330
109D
100
AcDbEntity
  8
SCHRAFFUR_RAND
100
AcDbVertex
100
AcDb2dVertex
 10
-382.9483277538577
 20
439.2458362979333
 30
0.0
  0
VERTEX
  5
10A4
330
109D
100
AcDbEntity
  8
SCHRAFFUR_RAND
100
AcDbVertex
100
AcDb2dVertex
 10
-382.7683277538577
 20
437.8328362979333
 30
0.0
  0
VERTEX
  5
10A5
330
109D
100
AcDbEntity
  8
SCHRAFFUR_RAND
100
AcDbVertex
100
AcDb2dVertex
 10
-382.5203277538577
 20
437.1388362979334
 30
0.0
  0
VERTEX
  5
10A6
330
109D
100
AcDbEntity
  8
SCHRAFFUR_RAND
100
AcDbVertex
100
AcDb2dVertex
 10
-382.2043277538576
 20
436.5218362979334
 30
0.0
  0
VERTEX
  5
10A7
330
109D
100
AcDbEntity
  8
SCHRAFFUR_RAND
100
AcDbVertex
100
AcDb2dVertex
 10
-381.7373277538576
 20
435.8528362979334
 30
0.0
  0
VERTEX
  5
10A8
330
109D
100
AcDbEntity
  8
SCHRAFFUR_RAND
100
AcDbVertex
100
AcDb2dVertex
 10
-381.3243277538576
 20
435.3988362979333
 30
0.0
  0
VERTEX
  5
10A9
330
109D
100
AcDbEntity
  8
SCHRAFFUR_RAND
100
AcDbVertex
100
AcDb2dVertex
 10
-380.6373277538576
 20
434.8258362979334
 30
0.0
  0
VERTEX
  5
10AA
330
109D
100
AcDbEntity
  8
SCHRAFFUR_RAND
100
AcDbVertex
100
AcDb2dVertex
 10
-380.1853277538576
 20
434.5378362979333
 30
0.0
  0
VERTEX
  5
10AB
330
109D
100
AcDbEntity
  8
SCHRAFFUR_RAND
100
AcDbVertex
100
AcDb2dVertex
 10
-379.3003277538576
 20
434.1328362979334
 30
0.0
  0
VERTEX
  5
10AC
330
109D
100
AcDbEntity
  8
SCHRAFFUR_RAND
100
AcDbVertex
100
AcDb2dVertex
 10
-378.8643277538576
 20
433.9978362979334
 30
0.0
  0
VERTEX
  5
10AD
330
109D
100
AcDbEntity
  8
SCHRAFFUR_RAND
100
AcDbVertex
100
AcDb2dVertex
 10
-377.4493277538576
 20
433.8418362979333
 30
0.0
  0
VERTEX
  5
10AE
330
109D
100
AcDbEntity
  8
SCHRAFFUR_RAND
100
AcDbVertex
100
AcDb2dVertex
 10
-376.3243277538576
 20
433.9288362979333
 30
0.0
  0
VERTEX
  5
10AF
330
109D
100
AcDbEntity
  8
SCHRAFFUR_RAND
100
AcDbVertex
100
AcDb2dVertex
 10
-374.9063277538576
 20
434.4328362979333
 30
0.0
  0
VERTEX
  5
10B0
330
109D
100
AcDbEntity
  8
SCHRAFFUR_RAND
100
AcDbVertex
100
AcDb2dVertex
 10
-373.6763277538576
 20
435.3018362979334
 30
0.0
  0
VERTEX
  5
10B1
330
109D
100
AcDbEntity
  8
SCHRAFFUR_RAND
100
AcDbVertex
100
AcDb2dVertex
 10
-372.7253277538576
 20
436.4688362979334
 30
0.0
  0
VERTEX
  5
10B2
330
109D
100
AcDbEntity
  8
SCHRAFFUR_RAND
100
AcDbVertex
100
AcDb2dVertex
 10
-372.1263277538576
 20
437.8508362979333
 30
0.0
  0
VERTEX
  5
10B3
330
109D
100
AcDbEntity
  8
SCHRAFFUR_RAND
100
AcDbVertex
100
AcDb2dVertex
 10
-371.9493277538576
 20
439.3418362979333
 30
0.0
  0
VERTEX
  5
10B4
330
109D
100
AcDbEntity
  8
SCHRAFFUR_RAND
100
AcDbVertex
100
AcDb2dVertex
 10
-371.9723277538577
 20
439.8418362979334
 30
0.0
  0
VERTEX
  5
10B5
330
109D
100
AcDbEntity
  8
SCHRAFFUR_RAND
100
AcDbVertex
100
AcDb2dVertex
 10
-372.1263277538576
 20
440.8328362979333
 30
0.0
  0
VERTEX
  5
10B6
330
109D
100
AcDbEntity
  8
SCHRAFFUR_RAND
100
AcDbVertex
100
AcDb2dVertex
 10
-372.7253277538576
 20
442.2138362979334
 30
0.0
  0
VERTEX
  5
10B7
330
109D
100
AcDbEntity
  8
SCHRAFFUR_RAND
100
AcDbVertex
100
AcDb2dVertex
 10
-373.6763277538576
 20
443.3818362979334
 30
0.0
  0
VERTEX
  5
10B8
330
109D
100
AcDbEntity
  8
SCHRAFFUR_RAND
100
AcDbVertex
100
AcDb2dVertex
 10
-374.9063277538576
 20
444.2498362979334
 30
0.0
  0
VERTEX
  5
10B9
330
109D
100
AcDbEntity
  8
SCHRAFFUR_RAND
100
AcDbVertex
100
AcDb2dVertex
 10
-376.3243277538576
 20
444.7538362979334
 30
0.0
  0
VERTEX
  5
10BA
330
109D
100
AcDbEntity
  8
SCHRAFFUR_RAND
100
AcDbVertex
100
AcDb2dVertex
 10
-377.8263277538576
 20
444.8568362979333
 30
0.0
  0
VERTEX
  5
10BB
330
109D
100
AcDbEntity
  8
SCHRAFFUR_RAND
100
AcDbVertex
100
AcDb2dVertex
 10
-378.4303277538576
 20
444.7538362979334
 30
0.0
  0
VERTEX
  5
10BC
330
109D
100
AcDbEntity
  8
SCHRAFFUR_RAND
100
AcDbVertex
100
AcDb2dVertex
 10
-379.3003277538576
 20
444.5508362979333
 30
0.0
  0
VERTEX
  5
10BD
330
109D
100
AcDbEntity
  8
SCHRAFFUR_RAND
100
AcDbVertex
100
AcDb2dVertex
 10
-380.4043277538576
 20
443.9798362979334
 30
0.0
  0
SEQEND
  5
10BE
330
109D
100
AcDbEntity
  8
SCHRAFFUR_RAND
  0
INSERT
  5
10C4
330
1638
100
AcDbEntity
  8
8
100
AcDbBlockReference
  2
*X0
 10
-528.0003277538575
 20
-217.1581637020666
 30
0.0
1001
ACAD
1000
HATCH
1002
{
1070
    19
1000
ANSI31,_I
1040
3.174999999999999
1040
2.355999999999999
1002
}
  0
POLYLINE
  5
10C5
330
1638
100
AcDbEntity
  8
SCHRAFFUR_RAND
100
AcDb2dPolyline
 66
     1
 10
0.0
 20
0.0
 30
0.0
 70
     1
  0
VERTEX
  5
10C6
330
10C5
100
AcDbEntity
  8
SCHRAFFUR_RAND
100
AcDbVertex
100
AcDb2dVertex
 10
-380.4043277538576
 20
443.9798362979334
 30
0.0
  0
VERTEX
  5
10C7
330
10C5
100
AcDbEntity
  8
SCHRAFFUR_RAND
100
AcDbVertex
100
AcDb2dVertex
 10
-380.6373277538576
 20
443.8578362979334
 30
0.0
  0
VERTEX
  5
10C8
330
10C5
100
AcDbEntity
  8
SCHRAFFUR_RAND
100
AcDbVertex
100
AcDb2dVertex
 10
-381.7373277538576
 20
442.8298362979334
 30
0.0
  0
VERTEX
  5
10C9
330
10C5
100
AcDbEntity
  8
SCHRAFFUR_RAND
100
AcDbVertex
100
AcDb2dVertex
 10
-382.5203277538577
 20
441.5438362979333
 30
0.0
  0
VERTEX
  5
10CA
330
10C5
100
AcDbEntity
  8
SCHRAFFUR_RAND
100
AcDbVertex
100
AcDb2dVertex
 10
-382.9263277538576
 20
440.0938362979334
 30
0.0
  0
VERTEX
  5
10CB
330
10C5
100
AcDbEntity
  8
SCHRAFFUR_RAND
100
AcDbVertex
100
AcDb2dVertex
 10
-382.9483277538577
 20
439.2458362979333
 30
0.0
  0
VERTEX
  5
10CC
330
10C5
100
AcDbEntity
  8
SCHRAFFUR_RAND
100
AcDbVertex
100
AcDb2dVertex
 10
-382.7683277538577
 20
437.8328362979333
 30
0.0
  0
VERTEX
  5
10CD
330
10C5
100
AcDbEntity
  8
SCHRAFFUR_RAND
100
AcDbVertex
100
AcDb2dVertex
 10
-382.5203277538577
 20
437.1388362979334
 30
0.0
  0
VERTEX
  5
10CE
330
10C5
100
AcDbEntity
  8
SCHRAFFUR_RAND
100
AcDbVertex
100
AcDb2dVertex
 10
-382.2043277538576
 20
436.5218362979334
 30
0.0
  0
VERTEX
  5
10CF
330
10C5
100
AcDbEntity
  8
SCHRAFFUR_RAND
100
AcDbVertex
100
AcDb2dVertex
 10
-381.7373277538576
 20
435.8528362979334
 30
0.0
  0
VERTEX
  5
10D0
330
10C5
100
AcDbEntity
  8
SCHRAFFUR_RAND
100
AcDbVertex
100
AcDb2dVertex
 10
-381.3243277538576
 20
435.3988362979333
 30
0.0
  0
VERTEX
  5
10D1
330
10C5
100
AcDbEntity
  8
SCHRAFFUR_RAND
100
AcDbVertex
100
AcDb2dVertex
 10
-380.6373277538576
 20
434.8258362979334
 30
0.0
  0
VERTEX
  5
10D2
330
10C5
100
AcDbEntity
  8
SCHRAFFUR_RAND
100
AcDbVertex
100
AcDb2dVertex
 10
-380.1853277538576
 20
434.5378362979333
 30
0.0
  0
VERTEX
  5
10D3
330
10C5
100
AcDbEntity
  8
SCHRAFFUR_RAND
100
AcDbVertex
100
AcDb2dVertex
 10
-379.3003277538576
 20
434.1328362979334
 30
0.0
  0
VERTEX
  5
10D4
330
10C5
100
AcDbEntity
  8
SCHRAFFUR_RAND
100
AcDbVertex
100
AcDb2dVertex
 10
-378.8643277538576
 20
433.9978362979334
 30
0.0
  0
VERTEX
  5
10D5
330
10C5
100
AcDbEntity
  8
SCHRAFFUR_RAND
100
AcDbVertex
100
AcDb2dVertex
 10
-377.4493277538576
 20
433.8418362979333
 30
0.0
  0
VERTEX
  5
10D6
330
10C5
100
AcDbEntity
  8
SCHRAFFUR_RAND
100
AcDbVertex
100
AcDb2dVertex
 10
-376.3243277538576
 20
433.9288362979333
 30
0.0
  0
VERTEX
  5
10D7
330
10C5
100
AcDbEntity
  8
SCHRAFFUR_RAND
100
AcDbVertex
100
AcDb2dVertex
 10
-374.9063277538576
 20
434.4328362979333
 30
0.0
  0
VERTEX
  5
10D8
330
10C5
100
AcDbEntity
  8
SCHRAFFUR_RAND
100
AcDbVertex
100
AcDb2dVertex
 10
-373.6763277538576
 20
435.3018362979334
 30
0.0
  0
VERTEX
  5
10D9
330
10C5
100
AcDbEntity
  8
SCHRAFFUR_RAND
100
AcDbVertex
100
AcDb2dVertex
 10
-372.7253277538576
 20
436.4688362979334
 30
0.0
  0
VERTEX
  5
10DA
330
10C5
100
AcDbEntity
  8
SCHRAFFUR_RAND
100
AcDbVertex
100
AcDb2dVertex
 10
-372.1263277538576
 20
437.8508362979333
 30
0.0
  0
VERTEX
  5
10DB
330
10C5
100
AcDbEntity
  8
SCHRAFFUR_RAND
100
AcDbVertex
100
AcDb2dVertex
 10
-371.9493277538576
 20
439.3418362979333
 30
0.0
  0
VERTEX
  5
10DC
330
10C5
100
AcDbEntity
  8
SCHRAFFUR_RAND
100
AcDbVertex
100
AcDb2dVertex
 10
-371.9723277538577
 20
439.8418362979334
 30
0.0
  0
VERTEX
  5
10DD
330
10C5
100
AcDbEntity
  8
SCHRAFFUR_RAND
100
AcDbVertex
100
AcDb2dVertex
 10
-372.1263277538576
 20
440.8328362979333
 30
0.0
  0
VERTEX
  5
10DE
330
10C5
100
AcDbEntity
  8
SCHRAFFUR_RAND
100
AcDbVertex
100
AcDb2dVertex
 10
-372.7253277538576
 20
442.2138362979334
 30
0.0
  0
VERTEX
  5
10DF
330
10C5
100
AcDbEntity
  8
SCHRAFFUR_RAND
100
AcDbVertex
100
AcDb2dVertex
 10
-373.6763277538576
 20
443.3818362979334
 30
0.0
  0
VERTEX
  5
10E0
330
10C5
100
AcDbEntity
  8
SCHRAFFUR_RAND
100
AcDbVertex
100
AcDb2dVertex
 10
-374.9063277538576
 20
444.2498362979334
 30
0.0
  0
VERTEX
  5
10E1
330
10C5
100
AcDbEntity
  8
SCHRAFFUR_RAND
100
AcDbVertex
100
AcDb2dVertex
 10
-376.3243277538576
 20
444.7538362979334
 30
0.0
  0
VERTEX
  5
10E2
330
10C5
100
AcDbEntity
  8
SCHRAFFUR_RAND
100
AcDbVertex
100
AcDb2dVertex
 10
-377.8263277538576
 20
444.8568362979333
 30
0.0
  0
VERTEX
  5
10E3
330
10C5
100
AcDbEntity
  8
SCHRAFFUR_RAND
100
AcDbVertex
100
AcDb2dVertex
 10
-378.4303277538576
 20
444.7538362979334
 30
0.0
  0
VERTEX
  5
10E4
330
10C5
100
AcDbEntity
  8
SCHRAFFUR_RAND
100
AcDbVertex
100
AcDb2dVertex
 10
-379.3003277538576
 20
444.5508362979333
 30
0.0
  0
VERTEX
  5
10E5
330
10C5
100
AcDbEntity
  8
SCHRAFFUR_RAND
100
AcDbVertex
100
AcDb2dVertex
 10
-380.4043277538576
 20
443.9798362979334
 30
0.0
  0
SEQEND
  5
10E6
330
10C5
100
AcDbEntity
  8
SCHRAFFUR_RAND
  0
INSERT
  5
10EC
330
1638
100
AcDbEntity
  8
8
100
AcDbBlockReference
  2
*X1
 10
-528.0003277538575
 20
-217.1581637020666
 30
0.0
1001
ACAD
1000
HATCH
1002
{
1070
    19
1000
ANSI31,_I
1040
3.174999999999999
1040
0.7850000000000001
1002
}
  0
POLYLINE
  5
10ED
330
1638
100
AcDbEntity
  8
SCHRAFFUR_RAND
100
AcDb2dPolyline
 66
     1
 10
0.0
 20
0.0
 30
0.0
 70
     1
  0
VERTEX
  5
10EE
330
10ED
100
AcDbEntity
  8
SCHRAFFUR_RAND
100
AcDbVertex
100
AcDb2dVertex
 10
-213.8833277538576
 20
444.7538362979334
 30
0.0
  0
VERTEX
  5
10EF
330
10ED
100
AcDbEntity
  8
SCHRAFFUR_RAND
100
AcDbVertex
100
AcDb2dVertex
 10
-214.8653277538576
 20
444.8598362979334
 30
0.0
  0
VERTEX
  5
10F0
330
10ED
100
AcDbEntity
  8
SCHRAFFUR_RAND
100
AcDbVertex
100
AcDb2dVertex
 10
-216.0933277538577
 20
444.7218362979334
 30
0.0
  0
VERTEX
  5
10F1
330
10ED
100
AcDbEntity
  8
SCHRAFFUR_RAND
100
AcDbVertex
100
AcDb2dVertex
 10
-217.2593277538577
 20
444.3138362979333
 30
0.0
  0
VERTEX
  5
10F2
330
10ED
100
AcDbEntity
  8
SCHRAFFUR_RAND
100
AcDbVertex
100
AcDb2dVertex
 10
-218.3053277538576
 20
443.6558362979334
 30
0.0
  0
VERTEX
  5
10F3
330
10ED
100
AcDbEntity
  8
SCHRAFFUR_RAND
100
AcDbVertex
100
AcDb2dVertex
 10
-219.1793277538577
 20
442.7828362979333
 30
0.0
  0
VERTEX
  5
10F4
330
10ED
100
AcDbEntity
  8
SCHRAFFUR_RAND
100
AcDbVertex
100
AcDb2dVertex
 10
-219.8373277538576
 20
441.7358362979333
 30
0.0
  0
VERTEX
  5
10F5
330
10ED
100
AcDbEntity
  8
SCHRAFFUR_RAND
100
AcDbVertex
100
AcDb2dVertex
 10
-220.2453277538576
 20
440.5698362979334
 30
0.0
  0
VERTEX
  5
10F6
330
10ED
100
AcDbEntity
  8
SCHRAFFUR_RAND
100
AcDbVertex
100
AcDb2dVertex
 10
-220.3843277538577
 20
439.3418362979333
 30
0.0
  0
VERTEX
  5
10F7
330
10ED
100
AcDbEntity
  8
SCHRAFFUR_RAND
100
AcDbVertex
100
AcDb2dVertex
 10
-220.2453277538576
 20
438.1138362979334
 30
0.0
  0
VERTEX
  5
10F8
330
10ED
100
AcDbEntity
  8
SCHRAFFUR_RAND
100
AcDbVertex
100
AcDb2dVertex
 10
-219.8373277538576
 20
436.9468362979334
 30
0.0
  0
VERTEX
  5
10F9
330
10ED
100
AcDbEntity
  8
SCHRAFFUR_RAND
100
AcDbVertex
100
AcDb2dVertex
 10
-219.1793277538577
 20
435.9008362979334
 30
0.0
  0
VERTEX
  5
10FA
330
10ED
100
AcDbEntity
  8
SCHRAFFUR_RAND
100
AcDbVertex
100
AcDb2dVertex
 10
-218.3053277538576
 20
435.0268362979334
 30
0.0
  0
VERTEX
  5
10FB
330
10ED
100
AcDbEntity
  8
SCHRAFFUR_RAND
100
AcDbVertex
100
AcDb2dVertex
 10
-217.2593277538577
 20
434.3698362979333
 30
0.0
  0
VERTEX
  5
10FC
330
10ED
100
AcDbEntity
  8
SCHRAFFUR_RAND
100
AcDbVertex
100
AcDb2dVertex
 10
-216.0933277538577
 20
433.9608362979333
 30
0.0
  0
VERTEX
  5
10FD
330
10ED
100
AcDbEntity
  8
SCHRAFFUR_RAND
100
AcDbVertex
100
AcDb2dVertex
 10
-214.8653277538576
 20
433.8418362979333
 30
0.0
  0
VERTEX
  5
10FE
330
10ED
100
AcDbEntity
  8
SCHRAFFUR_RAND
100
AcDbVertex
100
AcDb2dVertex
 10
-213.8003277538576
 20
433.9268362979334
 30
0.0
  0
VERTEX
  5
10FF
330
10ED
100
AcDbEntity
  8
SCHRAFFUR_RAND
100
AcDbVertex
100
AcDb2dVertex
 10
-213.6373277538576
 20
433.9608362979333
 30
0.0
  0
VERTEX
  5
1100
330
10ED
100
AcDbEntity
  8
SCHRAFFUR_RAND
100
AcDbVertex
100
AcDb2dVertex
 10
-212.7753277538576
 20
434.2338362979334
 30
0.0
  0
VERTEX
  5
1101
330
10ED
100
AcDbEntity
  8
SCHRAFFUR_RAND
100
AcDbVertex
100
AcDb2dVertex
 10
-212.4703277538576
 20
434.3698362979333
 30
0.0
  0
VERTEX
  5
1102
330
10ED
100
AcDbEntity
  8
SCHRAFFUR_RAND
100
AcDbVertex
100
AcDb2dVertex
 10
-211.8293277538576
 20
434.7328362979334
 30
0.0
  0
VERTEX
  5
1103
330
10ED
100
AcDbEntity
  8
SCHRAFFUR_RAND
100
AcDbVertex
100
AcDb2dVertex
 10
-211.4243277538577
 20
435.0268362979334
 30
0.0
  0
VERTEX
  5
1104
330
10ED
100
AcDbEntity
  8
SCHRAFFUR_RAND
100
AcDbVertex
100
AcDb2dVertex
 10
-210.9963277538577
 20
435.4048362979333
 30
0.0
  0
VERTEX
  5
1105
330
10ED
100
AcDbEntity
  8
SCHRAFFUR_RAND
100
AcDbVertex
100
AcDb2dVertex
 10
-210.5503277538576
 20
435.9008362979334
 30
0.0
  0
VERTEX
  5
1106
330
10ED
100
AcDbEntity
  8
SCHRAFFUR_RAND
100
AcDbVertex
100
AcDb2dVertex
 10
-210.3103277538576
 20
436.2258362979333
 30
0.0
  0
VERTEX
  5
1107
330
10ED
100
AcDbEntity
  8
SCHRAFFUR_RAND
100
AcDbVertex
100
AcDb2dVertex
 10
-209.8933277538577
 20
436.9468362979334
 30
0.0
  0
VERTEX
  5
1108
330
10ED
100
AcDbEntity
  8
SCHRAFFUR_RAND
100
AcDbVertex
100
AcDb2dVertex
 10
-209.7943277538576
 20
437.1628362979333
 30
0.0
  0
VERTEX
  5
1109
330
10ED
100
AcDbEntity
  8
SCHRAFFUR_RAND
100
AcDbVertex
100
AcDb2dVertex
 10
-209.4853277538576
 20
438.1138362979334
 30
0.0
  0
VERTEX
  5
110A
330
10ED
100
AcDbEntity
  8
SCHRAFFUR_RAND
100
AcDbVertex
100
AcDb2dVertex
 10
-209.4693277538576
 20
438.1828362979333
 30
0.0
  0
VERTEX
  5
110B
330
10ED
100
AcDbEntity
  8
SCHRAFFUR_RAND
100
AcDbVertex
100
AcDb2dVertex
 10
-209.3663277538577
 20
439.2458362979333
 30
0.0
  0
VERTEX
  5
110C
330
10ED
100
AcDbEntity
  8
SCHRAFFUR_RAND
100
AcDbVertex
100
AcDb2dVertex
 10
-209.3653277538576
 20
439.3418362979333
 30
0.0
  0
VERTEX
  5
110D
330
10ED
100
AcDbEntity
  8
SCHRAFFUR_RAND
100
AcDbVertex
100
AcDb2dVertex
 10
-209.4853277538576
 20
440.5698362979334
 30
0.0
  0
VERTEX
  5
110E
330
10ED
100
AcDbEntity
  8
SCHRAFFUR_RAND
100
AcDbVertex
100
AcDb2dVertex
 10
-209.8923277538576
 20
441.7358362979333
 30
0.0
  0
VERTEX
  5
110F
330
10ED
100
AcDbEntity
  8
SCHRAFFUR_RAND
100
AcDbVertex
100
AcDb2dVertex
 10
-210.5503277538576
 20
442.7828362979333
 30
0.0
  0
VERTEX
  5
1110
330
10ED
100
AcDbEntity
  8
SCHRAFFUR_RAND
100
AcDbVertex
100
AcDb2dVertex
 10
-211.4243277538577
 20
443.6558362979334
 30
0.0
  0
VERTEX
  5
1111
330
10ED
100
AcDbEntity
  8
SCHRAFFUR_RAND
100
AcDbVertex
100
AcDb2dVertex
 10
-212.4703277538576
 20
444.3138362979333
 30
0.0
  0
VERTEX
  5
1112
330
10ED
100
AcDbEntity
  8
SCHRAFFUR_RAND
100
AcDbVertex
100
AcDb2dVertex
 10
-213.6373277538576
 20
444.7218362979334
 30
0.0
  0
VERTEX
  5
1113
330
10ED
100
AcDbEntity
  8
SCHRAFFUR_RAND
100
AcDbVertex
100
AcDb2dVertex
 10
-213.8833277538576
 20
444.7538362979334
 30
0.0
  0
SEQEND
  5
1114
330
10ED
100
AcDbEntity
  8
SCHRAFFUR_RAND
  0
INSERT
  5
111D
330
1638
100
AcDbEntity
  8
8
100
AcDbBlockReference
  2
*X2
 10
-528.0003277538575
 20
-217.1581637020666
 30
0.0
1001
ACAD
1000
HATCH
1002
{
1070
    19
1000
ANSI37,_I
1040
3.174999999999999
1040
5.497999999999999
1002
}
  0
POLYLINE
  5
1486
330
1638
100
AcDbEntity
  8
SCHRAFFUR_RAND
100
AcDb2dPolyline
 66
     1
 10
0.0
 20
0.0
 30
0.0
 70
     1
  0
VERTEX
  5
1487
330
1486
100
AcDbEntity
  8
SCHRAFFUR_RAND
100
AcDbVertex
100
AcDb2dVertex
 10
-177.1843277538576
 20
429.8418362979333
 30
0.0
  0
VERTEX
  5
1488
330
1486
100
AcDbEntity
  8
SCHRAFFUR_RAND
100
AcDbVertex
100
AcDb2dVertex
 10
-166.1573277538576
 20
429.8418362979333
 30
0.0
  0
VERTEX
  5
1489
330
1486
100
AcDbEntity
  8
SCHRAFFUR_RAND
100
AcDbVertex
100
AcDb2dVertex
 10
-166.6813277538576
 20
439.8278362979333
 30
0.0
  0
VERTEX
  5
148A
330
1486
100
AcDbEntity
  8
SCHRAFFUR_RAND
100
AcDbVertex
100
AcDb2dVertex
 10
-174.9343277538576
 20
439.8958362979333
 30
0.0
  0
VERTEX
  5
148B
330
1486
100
AcDbEntity
  8
SCHRAFFUR_RAND
100
AcDbVertex
100
AcDb2dVertex
 10
-177.1843277538576
 20
429.8418362979333
 30
0.0
  0
SEQEND
  5
148C
330
1486
100
AcDbEntity
  8
SCHRAFFUR_RAND
  0
POLYLINE
  5
14A6
330
1638
100
AcDbEntity
  8
SCHRAFFUR_RAND
100
AcDb2dPolyline
 66
     1
 10
0.0
 20
0.0
 30
0.0
 70
     1
  0
VERTEX
  5
14A7
330
14A6
100
AcDbEntity
  8
SCHRAFFUR_RAND
100
AcDbVertex
100
AcDb2dVertex
 10
-417.3803277538576
 20
439.8958362979333
 30
0.0
  0
VERTEX
  5
14A8
330
14A6
100
AcDbEntity
  8
SCHRAFFUR_RAND
100
AcDbVertex
100
AcDb2dVertex
 10
-425.6343277538576
 20
439.8278362979333
 30
0.0
  0
VERTEX
  5
14A9
330
14A6
100
AcDbEntity
  8
SCHRAFFUR_RAND
100
AcDbVertex
100
AcDb2dVertex
 10
-426.1573277538576
 20
429.8418362979333
 30
0.0
  0
VERTEX
  5
14AA
330
14A6
100
AcDbEntity
  8
SCHRAFFUR_RAND
100
AcDbVertex
100
AcDb2dVertex
 10
-415.1303277538576
 20
429.8418362979333
 30
0.0
  0
VERTEX
  5
14AB
330
14A6
100
AcDbEntity
  8
SCHRAFFUR_RAND
100
AcDbVertex
100
AcDb2dVertex
 10
-417.3803277538576
 20
439.8958362979333
 30
0.0
  0
SEQEND
  5
14AC
330
14A6
100
AcDbEntity
  8
SCHRAFFUR_RAND
  0
POLYLINE
  5
14C6
330
1638
100
AcDbEntity
  8
SCHRAFFUR_RAND
100
AcDb2dPolyline
 66
     1
 10
0.0
 20
0.0
 30
0.0
 70
     1
  0
VERTEX
  5
14C7
330
14C6
100
AcDbEntity
  8
SCHRAFFUR_RAND
100
AcDbVertex
100
AcDb2dVertex
 10
-210.1583277538576
 20
479.8238362979333
 30
0.0
  0
VERTEX
  5
14C8
330
14C6
100
AcDbEntity
  8
SCHRAFFUR_RAND
100
AcDbVertex
100
AcDb2dVertex
 10
-216.1573277538577
 20
479.8418362979333
 30
0.0
  0
VERTEX
  5
14C9
330
14C6
100
AcDbEntity
  8
SCHRAFFUR_RAND
100
AcDbVertex
100
AcDb2dVertex
 10
-216.7903277538576
 20
461.7018362979333
 30
0.0
  0
VERTEX
  5
14CA
330
14C6
100
AcDbEntity
  8
SCHRAFFUR_RAND
100
AcDbVertex
100
AcDb2dVertex
 10
-217.2653277538576
 20
459.6968362979334
 30
0.0
  0
VERTEX
  5
14CB
330
14C6
100
AcDbEntity
  8
SCHRAFFUR_RAND
100
AcDbVertex
100
AcDb2dVertex
 10
-218.7673277538576
 20
458.2458362979333
 30
0.0
  0
VERTEX
  5
14CC
330
14C6
100
AcDbEntity
  8
SCHRAFFUR_RAND
100
AcDbVertex
100
AcDb2dVertex
 10
-220.7883277538576
 20
457.8418362979333
 30
0.0
  0
VERTEX
  5
14CD
330
14C6
100
AcDbEntity
  8
SCHRAFFUR_RAND
100
AcDbVertex
100
AcDb2dVertex
 10
-371.5263277538576
 20
457.8418362979333
 30
0.0
  0
VERTEX
  5
14CE
330
14C6
100
AcDbEntity
  8
SCHRAFFUR_RAND
100
AcDbVertex
100
AcDb2dVertex
 10
-373.5463277538576
 20
458.2458362979333
 30
0.0
  0
VERTEX
  5
14CF
330
14C6
100
AcDbEntity
  8
SCHRAFFUR_RAND
100
AcDbVertex
100
AcDb2dVertex
 10
-375.0493277538577
 20
459.6968362979334
 30
0.0
  0
VERTEX
  5
14D0
330
14C6
100
AcDbEntity
  8
SCHRAFFUR_RAND
100
AcDbVertex
100
AcDb2dVertex
 10
-375.5233277538577
 20
461.7018362979333
 30
0.0
  0
VERTEX
  5
14D1
330
14C6
100
AcDbEntity
  8
SCHRAFFUR_RAND
100
AcDbVertex
100
AcDb2dVertex
 10
-376.1573277538577
 20
479.8418362979333
 30
0.0
  0
VERTEX
  5
14D2
330
14C6
100
AcDbEntity
  8
SCHRAFFUR_RAND
100
AcDbVertex
100
AcDb2dVertex
 10
-382.1563277538576
 20
479.8238362979333
 30
0.0
  0
VERTEX
  5
14D3
330
14C6
100
AcDbEntity
  8
SCHRAFFUR_RAND
100
AcDbVertex
100
AcDb2dVertex
 10
-381.9823277538576
 20
474.8418362979333
 30
0.0
  0
VERTEX
  5
14D4
330
14C6
100
AcDbEntity
  8
SCHRAFFUR_RAND
100
AcDbVertex
100
AcDb2dVertex
 10
-381.0263277538576
 20
474.8418362979333
 30
0.0
  0
VERTEX
  5
14D5
330
14C6
100
AcDbEntity
  8
SCHRAFFUR_RAND
100
AcDbVertex
100
AcDb2dVertex
 10
-379.9153277538577
 20
474.3928362979334
 30
0.0
  0
VERTEX
  5
14D6
330
14C6
100
AcDbEntity
  8
SCHRAFFUR_RAND
100
AcDbVertex
100
AcDb2dVertex
 10
-379.4273277538577
 20
473.2968362979334
 30
0.0
  0
VERTEX
  5
14D7
330
14C6
100
AcDbEntity
  8
SCHRAFFUR_RAND
100
AcDbVertex
100
AcDb2dVertex
 10
-378.4303277538576
 20
444.7538362979334
 30
0.0
  0
VERTEX
  5
14D8
330
14C6
100
AcDbEntity
  8
SCHRAFFUR_RAND
100
AcDbVertex
100
AcDb2dVertex
 10
-375.1133277538576
 20
444.4578362979333
 30
0.0
  0
VERTEX
  5
14D9
330
14C6
100
AcDbEntity
  8
SCHRAFFUR_RAND
100
AcDbVertex
100
AcDb2dVertex
 10
-372.7183277538576
 20
442.3828362979334
 30
0.0
  0
VERTEX
  5
14DA
330
14C6
100
AcDbEntity
  8
SCHRAFFUR_RAND
100
AcDbVertex
100
AcDb2dVertex
 10
-371.9723277538577
 20
439.8418362979334
 30
0.0
  0
VERTEX
  5
14DB
330
14C6
100
AcDbEntity
  8
SCHRAFFUR_RAND
100
AcDbVertex
100
AcDb2dVertex
 10
-366.6573277538577
 20
439.8418362979334
 30
0.0
  0
VERTEX
  5
14DC
330
14C6
100
AcDbEntity
  8
SCHRAFFUR_RAND
100
AcDbVertex
100
AcDb2dVertex
 10
-366.5883277538577
 20
441.1558362979334
 30
0.0
  0
VERTEX
  5
14DD
330
14C6
100
AcDbEntity
  8
SCHRAFFUR_RAND
100
AcDbVertex
100
AcDb2dVertex
 10
-366.1593277538576
 20
443.4058362979334
 30
0.0
  0
VERTEX
  5
14DE
330
14C6
100
AcDbEntity
  8
SCHRAFFUR_RAND
100
AcDbVertex
100
AcDb2dVertex
 10
-364.8123277538577
 20
445.2848362979333
 30
0.0
  0
VERTEX
  5
14DF
330
14C6
100
AcDbEntity
  8
SCHRAFFUR_RAND
100
AcDbVertex
100
AcDb2dVertex
 10
-362.8663277538576
 20
446.5298362979333
 30
0.0
  0
VERTEX
  5
14E0
330
14C6
100
AcDbEntity
  8
SCHRAFFUR_RAND
100
AcDbVertex
100
AcDb2dVertex
 10
-360.5963277538576
 20
446.8418362979333
 30
0.0
  0
VERTEX
  5
14E1
330
14C6
100
AcDbEntity
  8
SCHRAFFUR_RAND
100
AcDbVertex
100
AcDb2dVertex
 10
-231.7183277538577
 20
446.8418362979333
 30
0.0
  0
VERTEX
  5
14E2
330
14C6
100
AcDbEntity
  8
SCHRAFFUR_RAND
100
AcDbVertex
100
AcDb2dVertex
 10
-229.4483277538577
 20
446.5298362979333
 30
0.0
  0
VERTEX
  5
14E3
330
14C6
100
AcDbEntity
  8
SCHRAFFUR_RAND
100
AcDbVertex
100
AcDb2dVertex
 10
-227.5013277538576
 20
445.2848362979333
 30
0.0
  0
VERTEX
  5
14E4
330
14C6
100
AcDbEntity
  8
SCHRAFFUR_RAND
100
AcDbVertex
100
AcDb2dVertex
 10
-226.1553277538577
 20
443.4058362979334
 30
0.0
  0
VERTEX
  5
14E5
330
14C6
100
AcDbEntity
  8
SCHRAFFUR_RAND
100
AcDbVertex
100
AcDb2dVertex
 10
-225.7263277538576
 20
441.1558362979334
 30
0.0
  0
VERTEX
  5
14E6
330
14C6
100
AcDbEntity
  8
SCHRAFFUR_RAND
100
AcDbVertex
100
AcDb2dVertex
 10
-225.6573277538576
 20
439.8418362979334
 30
0.0
  0
VERTEX
  5
14E7
330
14C6
100
AcDbEntity
  8
SCHRAFFUR_RAND
100
AcDbVertex
100
AcDb2dVertex
 10
-220.3423277538576
 20
439.8418362979334
 30
0.0
  0
VERTEX
  5
14E8
330
14C6
100
AcDbEntity
  8
SCHRAFFUR_RAND
100
AcDbVertex
100
AcDb2dVertex
 10
-220.2623277538576
 20
440.9268362979333
 30
0.0
  0
VERTEX
  5
14E9
330
14C6
100
AcDbEntity
  8
SCHRAFFUR_RAND
100
AcDbVertex
100
AcDb2dVertex
 10
-218.5483277538576
 20
443.5928362979333
 30
0.0
  0
VERTEX
  5
14EA
330
14C6
100
AcDbEntity
  8
SCHRAFFUR_RAND
100
AcDbVertex
100
AcDb2dVertex
 10
-215.6653277538576
 20
444.9088362979333
 30
0.0
  0
VERTEX
  5
14EB
330
14C6
100
AcDbEntity
  8
SCHRAFFUR_RAND
100
AcDbVertex
100
AcDb2dVertex
 10
-213.8833277538576
 20
444.7538362979334
 30
0.0
  0
VERTEX
  5
14EC
330
14C6
100
AcDbEntity
  8
SCHRAFFUR_RAND
100
AcDbVertex
100
AcDb2dVertex
 10
-212.8873277538576
 20
473.2968362979334
 30
0.0
  0
VERTEX
  5
14ED
330
14C6
100
AcDbEntity
  8
SCHRAFFUR_RAND
100
AcDbVertex
100
AcDb2dVertex
 10
-212.3993277538576
 20
474.3928362979334
 30
0.0
  0
VERTEX
  5
14EE
330
14C6
100
AcDbEntity
  8
SCHRAFFUR_RAND
100
AcDbVertex
100
AcDb2dVertex
 10
-211.2883277538576
 20
474.8418362979333
 30
0.0
  0
VERTEX
  5
14EF
330
14C6
100
AcDbEntity
  8
SCHRAFFUR_RAND
100
AcDbVertex
100
AcDb2dVertex
 10
-210.8323277538576
 20
474.8418362979333
 30
0.0
  0
VERTEX
  5
14F0
330
14C6
100
AcDbEntity
  8
SCHRAFFUR_RAND
100
AcDbVertex
100
AcDb2dVertex
 10
-210.3323277538576
 20
474.8418362979333
 30
0.0
  0
VERTEX
  5
14F1
330
14C6
100
AcDbEntity
  8
SCHRAFFUR_RAND
100
AcDbVertex
100
AcDb2dVertex
 10
-210.1583277538576
 20
479.8238362979333
 30
0.0
  0
SEQEND
  5
14F2
330
14C6
100
AcDbEntity
  8
SCHRAFFUR_RAND
  0
DIMENSION
  5
1598
330
1638
100
AcDbEntity
  8
5
100
AcDbDimension
  2
*D6
 10
-581.1573277538575
 20
479.8418362979333
 30
0.0
 11
-592.9073277538576
 21
392.3373058673275
 31
0.0
 70
    32
  1
175
 71
     5
 42
175.0090608612116
  3
GEN-ISO
100
AcDbAlignedDimension
 13
-296.1808282736456
 23
304.8327754367217
 33
0.0
 14
-394.6573277538576
 24
479.8418362979333
 34
0.0
 50
90.0
100
AcDbRotatedDimension
  0
DIMENSION
  5
15A1
330
1638
100
AcDbEntity
  8
5
100
AcDbDimension
  2
*D11
 10
-531.1573277538575
 20
479.8418362979333
 30
0.0
 11
-542.9073277538576
 21
454.8418362979332
 31
0.0
 70
    32
  1
50
 71
     5
 42
50.0
  3
GEN-ISO
100
AcDbAlignedDimension
 13
-426.1573277538576
 23
429.8418362979333
 33
0.0
 14
-457.0553277538576
 24
479.8418362979333
 34
0.0
 50
90.0
100
AcDbRotatedDimension
  0
DIMENSION
  5
15AB
330
1638
100
AcDbEntity
  8
5
100
AcDbDimension
  2
*D10
 10
-481.1573277538577
 20
479.8418362979333
 30
0.0
 11
-492.9090501948025
 21
518.2145479121064
 31
0.0
 70
    32
  1
22
 71
     5
 42
21.99999999999994
  3
GEN-ISO
100
AcDbAlignedDimension
 13
-371.5263277538576
 23
457.8418362979333
 33
0.0
 14
-425.7853277538576
 24
479.8418362979333
 34
0.0
 50
90.0
100
AcDbRotatedDimension
  0
POLYLINE
  5
15AC
330
1638
100
AcDbEntity
  8
SCHRAFFUR_RAND
100
AcDb2dPolyline
 66
     1
 10
0.0
 20
0.0
 30
0.0
 70
     1
  0
VERTEX
  5
15AD
330
15AC
100
AcDbEntity
  8
SCHRAFFUR_RAND
100
AcDbVertex
100
AcDb2dVertex
 10
-216.1583277538576
 20
479.8418362979333
 30
0.0
  0
VERTEX
  5
15AE
330
15AC
100
AcDbEntity
  8
SCHRAFFUR_RAND
100
AcDbVertex
100
AcDb2dVertex
 10
-376.1583277538576
 20
479.8418362979333
 30
0.0
  0
VERTEX
  5
15AF
330
15AC
100
AcDbEntity
  8
SCHRAFFUR_RAND
100
AcDbVertex
100
AcDb2dVertex
 10
-375.5253277538577
 20
461.7018362979333
 30
0.0
  0
VERTEX
  5
15B0
330
15AC
100
AcDbEntity
  8
SCHRAFFUR_RAND
100
AcDbVertex
100
AcDb2dVertex
 10
-374.3053277538576
 20
458.9638362979334
 30
0.0
  0
VERTEX
  5
15B1
330
15AC
100
AcDbEntity
  8
SCHRAFFUR_RAND
100
AcDbVertex
100
AcDb2dVertex
 10
-371.5263277538576
 20
457.8418362979333
 30
0.0
  0
VERTEX
  5
15B2
330
15AC
100
AcDbEntity
  8
SCHRAFFUR_RAND
100
AcDbVertex
100
AcDb2dVertex
 10
-220.7883277538576
 20
457.8418362979333
 30
0.0
  0
VERTEX
  5
15B3
330
15AC
100
AcDbEntity
  8
SCHRAFFUR_RAND
100
AcDbVertex
100
AcDb2dVertex
 10
-218.0093277538576
 20
458.9638362979334
 30
0.0
  0
VERTEX
  5
15B4
330
15AC
100
AcDbEntity
  8
SCHRAFFUR_RAND
100
AcDbVertex
100
AcDb2dVertex
 10
-216.7913277538576
 20
461.7018362979333
 30
0.0
  0
VERTEX
  5
15B5
330
15AC
100
AcDbEntity
  8
SCHRAFFUR_RAND
100
AcDbVertex
100
AcDb2dVertex
 10
-216.1583277538576
 20
479.8418362979333
 30
0.0
  0
SEQEND
  5
15B6
330
15AC
100
AcDbEntity
  8
SCHRAFFUR_RAND
  0
INSERT
  5
15DD
330
1638
100
AcDbEntity
  8
8
100
AcDbBlockReference
  2
*X3
 10
-528.0003277538575
 20
-217.1581637020666
 30
0.0
1001
ACAD
1000
HATCH
1002
{
1070
    19
1000
ANSI35,_I
1040
3.491999999999999
1040
2.355999999999999
1002
}
  0
DIMENSION
  5
15E7
330
1638
100
AcDbEntity
  8
5
100
AcDbDimension
  2
*D9
 10
-511.1573277538576
 20
204.8418362979334
 30
0.0
 11
-522.9073277538576
 21
106.3418362979333
 31
0.0
 70
    32
  1
{\Fgeniso.shx;\U+25A1}197
 71
     5
 42
196.9999999999999
  3
GEN-ISO
100
AcDbAlignedDimension
 13
-396.7503277538576
 23
7.841836297933397
 33
0.0
 14
-396.7503277538576
 24
204.8418362979333
 34
0.0
 50
90.0
100
AcDbRotatedDimension
1001
GENIUS_GENDTOL_13
1000

1000
B2/max
1000

1040
0.0
1000
{\Fgeniso.shx;\U+25A1}197
  0
DIMENSION
  5
15F1
330
1638
100
AcDbEntity
  8
5
100
AcDbDimension
  2
*D8
 10
-166.1573277538576
 20
-42.15816370206661
 30
0.0
 11
-296.1573277538576
 21
-30.40644126112173
 31
0.0
 70
    32
  1
260
 71
     5
 42
260.0
  3
GEN-ISO
100
AcDbAlignedDimension
 13
-426.1573277538576
 23
78.82483629793338
 33
0.0
 14
-166.1573277538576
 24
78.82483629793338
 34
0.0
100
AcDbRotatedDimension
  0
DIMENSION
  5
15FC
330
1638
100
AcDbEntity
  8
5
100
AcDbDimension
  2
*D7
 10
-476.1573277538576
 20
110.8418362979334
 30
0.0
 11
-487.9073277538577
 21
143.3001407144502
 31
0.0
 70
    32
  1
9
 71
     5
 42
9.0
  3
GEN-ISO
100
AcDbAlignedDimension
 13
-410.6303277538576
 23
101.8418362979333
 33
0.0
 14
-410.6303277538576
 24
110.8418362979334
 34
0.0
 50
90.0
100
AcDbRotatedDimension
  0
INSERT
  5
16C9
330
1638
100
AcDbEntity
  8
0
100
AcDbBlockReference
  2
KATALOG_LEER
 10
251.839706
 20
11.304483
 30
0.0
 41
5.0
 42
5.0
 43
5.0
1001
GENIUS_GENOREF_13
1005
16CA
  0
POINT
  5
16CA
330
1638
100
AcDbEntity
  8
0
 60
     1
100
AcDbPoint
 10
0.0
 20
0.0
 30
0.0
1001
GENIUS_GENOBJ-N-TIT_13
1002
{
1000
OWNER
1000
GEN
1002
}
1001
GENIUS_GENOENT_13
1002
{
1000
MYREF
1005
16CA
1002
}
1002
{
1000
GRP
1005
0
1002
}
1001
GENIUS_GENOLIS_13
1002
{
1000
ENT
1005
16C9
1002
}
1001
GENIUS_GENTITLE_13
1002
{
1000
SCALE
1000
1:5
1002
}
1002
{
1000
BORDER
1000
KATALOG
1002
}
1002
{
1000
TITLE
1000
KATALOG_LEER
1002
}
1002
{
1000
UNCHG
1002
{
1000
GEN-TITLE-SCA
1000
GEN-TITLE-SIZ
1002
}
1002
}
1002
{
1000
HRA
1005
16C2
1002
}
1002
{
1000
HTIT
1005
16C9
1002
}
1002
{
1000
GENIUSID
1005
16CA
1002
}
1001
GENIUS_GENODEF_13
1002
{
1000
HIER
1070
     1
1002
}
1002
{
1000
MANEDIT
1070
     1
1002
}
1002
{
1000
NOSEL
1070
     0
1002
}
1002
{
1000
BEHIND
1070
     0
1002
}
1002
{
1000
REACTOR
1002
}
  0
HATCH
  5
1771
330
1638
100
AcDbEntity
  8
8
100
AcDbHatch
 10
0.0
 20
0.0
 30
0.0
210
0.0
220
0.0
230
1.0
  2
_U
 70
     0
 71
     0
 91
        1
 92
        1
 93
        4
 72
     1
 10
-425.6343277538576
 20
439.8278362979333
 11
-426.1573277538576
 21
429.8418362979333
 72
     1
 10
-426.1573277538576
 20
429.8418362979333
 11
-415.1303277538576
 21
429.8418362979333
 72
     1
 10
-415.1303277538576
 20
429.8418362979333
 11
-417.3803277538576
 21
439.8958362979333
 72
     1
 10
-417.3803277538576
 20
439.8958362979333
 11
-425.6343277538576
 21
439.8278362979333
 97
        0
 75
     0
 76
     0
 52
45.0
 41
2.5
 77
     0
 78
     1
 53
45.0
 43
-714.3015287538576
 44
-82.29628070206661
 45
-1.767766952966368
 46
1.767766952966368
 79
     0
 98
        1
 10
-714.3015287538576
 20
-82.29628070206661
1001
GENIUS_GENODEF_13
1002
{
1000
HIER
1070
     0
1002
}
1002
{
1000
MANEDIT
1070
     0
1002
}
1002
{
1000
NOSEL
1070
     0
1002
}
1002
{
1000
BEHIND
1070
     0
1002
}
1002
{
1000
REACTOR
1002
}
1001
GENIUS_GENOBJ-N-HTC_13
1002
{
1000
OWNER
1000
GEN
1002
}
1001
GENIUS_GENHATCH_13
1002
{
1000
DATA
1040
45.0
1042
2.5
1000
_U
1070
     0
1011
-418.9328307538576
1021
435.0409252979333
1031
0.0
1002
}
1002
{
1000
UCS
1010
0.0
1020
0.0
1030
0.0
1010
1.0
1020
0.0
1030
0.0
1010
0.0
1020
1.0
1030
0.0
1002
}
1001
ACAD
1010
0.0
1020
0.0
1030
0.0
  0
HATCH
  5
17FE
330
1638
100
AcDbEntity
  8
8
100
AcDbHatch
 10
0.0
 20
0.0
 30
0.0
210
0.0
220
0.0
230
1.0
  2
_U
 70
     0
 71
     0
 91
        1
 92
        1
 93
        4
 72
     1
 10
-166.1573277538576
 20
429.8418362979333
 11
-166.6813277538576
 21
439.8278362979333
 72
     1
 10
-166.6813277538576
 20
439.8278362979333
 11
-174.9343277538576
 21
439.8958362979333
 72
     1
 10
-174.9343277538576
 20
439.8958362979333
 11
-177.1843277538576
 21
429.8418362979333
 72
     1
 10
-177.1843277538576
 20
429.8418362979333
 11
-166.1573277538576
 21
429.8418362979333
 97
        0
 75
     0
 76
     0
 52
45.0
 41
2.5
 77
     0
 78
     1
 53
45.0
 43
-714.3015287538576
 44
-82.29628070206661
 45
-1.767766952966368
 46
1.767766952966368
 79
     0
 98
        1
 10
-714.3015287538576
 20
-82.29628070206661
1001
GENIUS_GENODEF_13
1002
{
1000
HIER
1070
     0
1002
}
1002
{
1000
MANEDIT
1070
     0
1002
}
1002
{
1000
NOSEL
1070
     0
1002
}
1002
{
1000
BEHIND
1070
     0
1002
}
1002
{
1000
REACTOR
1002
}
1001
GENIUS_GENOBJ-N-HTC_13
1002
{
1000
OWNER
1000
GEN
1002
}
1001
GENIUS_GENHATCH_13
1002
{
1000
DATA
1040
45.0
1042
2.5
1000
_U
1070
     0
1011
-171.5245687538577
1021
434.4535342979334
1031
0.0
1002
}
1002
{
1000
UCS
1010
0.0
1020
0.0
1030
0.0
1010
1.0
1020
0.0
1030
0.0
1010
0.0
1020
1.0
1030
0.0
1002
}
1001
ACAD
1010
0.0
1020
0.0
1030
0.0
  0
HATCH
  5
18D1
330
1638
100
AcDbEntity
  8
8
100
AcDbHatch
 10
0.0
 20
0.0
 30
0.0
210
0.0
220
0.0
230
1.0
  2
_U
 70
     0
 71
     0
 91
        1
 92
        1
 93
      101
 72
     1
 10
-381.0263277538576
 20
474.8418362979333
 11
-379.9153277538577
 21
474.3928362979334
 72
     1
 10
-379.9153277538577
 20
474.3928362979334
 11
-379.4273277538577
 21
473.2968362979334
 72
     1
 10
-379.4273277538577
 20
473.2968362979334
 11
-378.4303277538576
 21
444.7538362979334
 72
     1
 10
-378.4303277538576
 20
444.7538362979334
 11
-378.4076577538576
 21
444.7577022979333
 72
     2
 10
-377.4493277538576
 20
439.3418362979333
 40
5.5
 50
259.965453
 51
260.679456
 73
     0
 72
     1
 10
-378.3400947538576
 20
444.7692232979334
 11
-377.8263277538576
 21
444.8568362979333
 72
     1
 10
-377.8263277538576
 20
444.8568362979333
 11
-377.5836627538576
 21
444.8401952979334
 72
     2
 10
-377.4493277538576
 20
439.3418362979333
 40
5.5
 50
268.600434
 51
279.245425
 73
     0
 72
     1
 10
-376.5656767538576
 20
444.7703862979333
 11
-376.3243277538576
 21
444.7538362979334
 72
     1
 10
-376.3243277538576
 20
444.7538362979334
 11
-376.0965447538576
 21
444.6728752979334
 72
     2
 10
-377.4493277538576
 20
439.3418362979333
 40
5.5
 50
284.238598
 51
290.46567
 73
     0
 72
     1
 10
-375.5262737538576
 20
444.4946862979334
 11
-375.1133277538576
 21
444.4578362979333
 72
     1
 10
-375.1133277538576
 20
444.4578362979333
 11
-374.7279947538576
 21
444.1239882979334
 72
     1
 10
-374.7279947538576
 20
444.1239882979334
 11
-374.7087197538576
 21
444.1103862979333
 72
     2
 10
-377.4493277538576
 20
439.3418362979333
 40
5.5
 50
299.887082
 51
310.533472
 73
     0
 72
     1
 10
-373.8749207538576
 20
443.5219812979333
 11
-373.6763277538576
 21
443.3818362979334
 72
     1
 10
-373.6763277538576
 20
443.3818362979334
 11
-373.5220447538576
 21
443.1923492979333
 72
     2
 10
-377.4493277538576
 20
439.3418362979333
 40
5.5
 50
315.565505
 51
322.050344
 73
     0
 72
     1
 10
-373.1122947538576
 20
442.7241642979334
 11
-372.7183277538576
 21
442.3828362979334
 72
     1
 10
-372.7183277538576
 20
442.3828362979334
 11
-372.5715957538576
 21
441.8830422979334
 72
     2
 10
-377.4493277538576
 20
439.3418362979333
 40
5.5
 50
332.481334
 51
341.824764
 73
     0
 72
     1
 10
-372.2237387538576
 20
441.0574192979334
 11
-372.1263277538576
 21
440.8328362979333
 72
     1
 10
-372.1263277538576
 20
440.8328362979333
 11
-372.0794247538576
 21
440.5310152979334
 72
     2
 10
-377.4493277538576
 20
439.3418362979333
 40
5.5
 50
347.513221
 51
354.784091
 73
     0
 72
     1
 10
-371.9721017538576
 20
439.8418362979334
 11
-366.6573277538577
 21
439.8418362979334
 72
     1
 10
-366.6573277538577
 20
439.8418362979334
 11
-366.5883277538577
 21
441.1558362979334
 72
     1
 10
-366.5883277538577
 20
441.1558362979334
 11
-366.5880207538576
 21
441.1574432979334
 72
     2
 10
-360.5963277538576
 20
440.8418362979333
 40
6.0
 50
183.015216
 51
198.574442
 73
     0
 72
     1
 10
-366.2837907538576
 20
442.7530552979334
 11
-366.1593277538576
 21
443.4058362979334
 72
     1
 10
-366.1593277538576
 20
443.4058362979334
 11
-364.8123277538577
 21
445.2848362979333
 72
     1
 10
-364.8123277538577
 20
445.2848362979333
 11
-362.8663277538576
 21
446.5298362979333
 72
     1
 10
-362.8663277538576
 20
446.5298362979333
 11
-362.2150867538576
 21
446.6193462979333
 72
     2
 10
-360.5963277538576
 20
440.8418362979333
 40
6.0
 50
254.34804
 51
270.0
 73
     0
 72
     1
 10
-360.5963277538576
 20
446.8418362979333
 11
-231.7183277538577
 21
446.8418362979333
 72
     2
 10
-231.7183277538577
 20
440.8418362979333
 40
6.0
 50
270.0
 51
285.65196
 73
     0
 72
     1
 10
-230.0995687538576
 20
446.6193462979333
 11
-229.4483277538577
 21
446.5298362979333
 72
     1
 10
-229.4483277538577
 20
446.5298362979333
 11
-227.5013277538576
 21
445.2848362979333
 72
     1
 10
-227.5013277538576
 20
445.2848362979333
 11
-226.1553277538577
 21
443.4058362979334
 72
     1
 10
-226.1553277538577
 20
443.4058362979334
 11
-226.0308637538575
 21
442.7530552979334
 72
     2
 10
-231.7183277538577
 20
440.8418362979333
 40
6.0
 50
341.425558
 51
356.984784
 73
     0
 72
     1
 10
-225.7266337538576
 20
441.1574432979334
 11
-225.7263277538576
 21
441.1558362979334
 72
     1
 10
-225.7263277538576
 20
441.1558362979334
 11
-225.6573277538576
 21
439.8418362979334
 72
     1
 10
-225.6573277538576
 20
439.8418362979334
 11
-220.3425527538577
 21
439.8418362979334
 72
     2
 10
-214.8653277538576
 20
439.3418362979333
 40
5.5
 50
185.215909
 51
185.342331
 73
     0
 72
     1
 10
-220.3414367538576
 20
439.8539202979333
 11
-220.2623277538576
 21
440.9268362979333
 72
     1
 10
-220.2623277538576
 20
440.9268362979333
 11
-219.9782127538576
 21
441.3687542979333
 72
     2
 10
-214.8653277538576
 20
439.3418362979333
 40
5.5
 50
201.625028
 51
203.701207
 73
     0
 72
     1
 10
-219.9014247538576
 20
441.5526552979334
 11
-219.8373277538576
 21
441.7358362979333
 72
     1
 10
-219.8373277538576
 20
441.7358362979333
 11
-219.7343437538577
 21
441.8997012979335
 72
     2
 10
-214.8653277538576
 20
439.3418362979333
 40
5.5
 50
207.714519
 51
216.581105
 73
     0
 72
     1
 10
-219.2819047538576
 20
442.6196162979334
 11
-219.1793277538577
 21
442.7828362979333
 72
     1
 10
-219.1793277538577
 20
442.7828362979333
 11
-219.0437407538576
 21
442.9182682979334
 72
     2
 10
-214.8653277538576
 20
439.3418362979333
 40
5.5
 50
220.561234
 51
223.849769
 73
     0
 72
     1
 10
-218.8317007538576
 20
443.1520702979334
 11
-218.5483277538576
 21
443.5928362979333
 72
     1
 10
-218.5483277538576
 20
443.5928362979333
 11
-218.0721697538576
 21
443.8101872979333
 72
     2
 10
-214.8653277538576
 20
439.3418362979333
 40
5.5
 50
234.333787
 51
242.296636
 73
     0
 72
     1
 10
-217.4222447538576
 20
444.2113512979334
 11
-217.2593277538577
 21
444.3138362979333
 72
     1
 10
-217.2593277538577
 20
444.3138362979333
 11
-217.0761457538576
 21
444.3779332979334
 72
     2
 10
-214.8653277538576
 20
439.3418362979333
 40
5.5
 50
246.2987930000001
 51
255.12987
 73
     0
 72
     1
 10
-216.2767867538576
 20
444.6576412979332
 11
-216.0933277538577
 21
444.7218362979334
 72
     1
 10
-216.0933277538577
 20
444.7218362979334
 11
-216.0690057538575
 21
444.7245692979334
 72
     1
 10
-216.0690057538575
 20
444.7245692979334
 11
-215.6653277538576
 21
444.9088362979333
 72
     1
 10
-215.6653277538576
 20
444.9088362979333
 11
-214.9685817538576
 21
444.8482322979333
 72
     1
 10
-214.9685817538576
 20
444.8482322979333
 11
-214.8653277538576
 21
444.8598362979334
 72
     1
 10
-214.8653277538576
 20
444.8598362979334
 11
-214.6646427538576
 21
444.8381732979334
 72
     2
 10
-214.8653277538576
 20
439.3418362979333
 40
5.5
 50
272.0910830000001
 51
280.230563
 73
     0
 72
     1
 10
-213.8884737538576
 20
444.7543912979333
 11
-213.8833277538576
 21
444.7538362979334
 72
     1
 10
-213.8833277538576
 20
444.7538362979334
 11
-212.8873277538576
 21
473.2968362979334
 72
     1
 10
-212.8873277538576
 20
473.2968362979334
 11
-212.3993277538576
 21
474.3928362979334
 72
     1
 10
-212.3993277538576
 20
474.3928362979334
 11
-211.2883277538576
 21
474.8418362979333
 72
     1
 10
-211.2883277538576
 20
474.8418362979333
 11
-210.3323277538576
 21
474.8418362979333
 72
     1
 10
-210.3323277538576
 20
474.8418362979333
 11
-210.1583277538576
 21
479.8238362979333
 72
     1
 10
-210.1583277538576
 20
479.8238362979333
 11
-216.1573277538577
 21
479.8418362979333
 72
     1
 10
-216.1573277538577
 20
479.8418362979333
 11
-216.7903277538576
 21
461.7018362979333
 72
     1
 10
-216.7903277538576
 20
461.7018362979333
 11
-216.7908567538576
 21
461.6996002979333
 72
     2
 10
-220.7883277538576
 20
461.8418362979333
 40
4.0
 50
2.037806999999999
 51
24.618376
 73
     0
 72
     1
 10
-217.1519167538576
 20
460.1755462979333
 11
-217.2653277538576
 21
459.6968362979334
 72
     1
 10
-217.2653277538576
 20
459.6968362979334
 11
-217.8171987538576
 21
459.1637032979333
 72
     2
 10
-220.7883277538576
 20
461.8418362979333
 40
4.0
 50
42.031052
 51
45.977243
 73
     0
 72
     1
 10
-218.0085507538576
 20
458.9655802979335
 11
-218.0093277538576
 21
458.9638362979334
 72
     1
 10
-218.0093277538576
 20
458.9638362979334
 11
-218.0110987538577
 21
458.9631212979333
 72
     2
 10
-220.7883277538576
 20
461.8418362979333
 40
4.0
 50
46.02796699999999
 51
49.94781300000001
 73
     0
 72
     1
 10
-218.2143867538576
 20
458.7800012979333
 11
-218.7673277538576
 21
458.2458362979333
 72
     1
 10
-218.7673277538576
 20
458.2458362979333
 11
-219.2505687538576
 21
458.1492352979333
 72
     2
 10
-220.7883277538576
 20
461.8418362979333
 40
4.0
 50
67.391039
 51
90.0
 73
     0
 72
     1
 10
-220.7883277538576
 20
457.8418362979333
 11
-371.5263277538576
 21
457.8418362979333
 72
     2
 10
-371.5263277538576
 20
461.8418362979333
 40
4.0
 50
90.0
 51
112.619865
 73
     0
 72
     1
 10
-373.0647887538576
 20
458.1495282979333
 11
-373.5463277538576
 21
458.2458362979333
 72
     1
 10
-373.5463277538576
 20
458.2458362979333
 11
-374.0954297538576
 21
458.7759412979334
 72
     2
 10
-371.5263277538576
 20
461.8418362979333
 40
4.0
 50
129.961721
 51
133.972033
 73
     0
 72
     1
 10
-374.3035557538576
 20
458.9631212979333
 11
-374.3053277538576
 21
458.9638362979334
 72
     1
 10
-374.3053277538576
 20
458.9638362979334
 11
-374.3061057538576
 21
458.9655832979333
 72
     2
 10
-371.5263277538576
 20
461.8418362979333
 40
4.0
 50
134.022802
 51
138.021303
 73
     0
 72
     1
 10
-374.4999017538576
 20
459.1664192979334
 11
-375.0493277538577
 21
459.6968362979334
 72
     1
 10
-375.0493277538577
 20
459.6968362979334
 11
-375.1622447538576
 21
460.1744712979333
 72
     2
 10
-371.5263277538576
 20
461.8418362979333
 40
4.0
 50
155.364677
 51
177.943536
 73
     0
 72
     1
 10
-375.5237507538577
 20
461.6982982979334
 11
-375.5253277538577
 21
461.7018362979333
 72
     1
 10
-375.5253277538577
 20
461.7018362979333
 11
-376.1583267538576
 21
479.8418332979333
 72
     1
 10
-376.1583267538576
 20
479.8418332979333
 11
-382.1563277538576
 21
479.8238362979333
 72
     1
 10
-382.1563277538576
 20
479.8238362979333
 11
-381.9823277538576
 21
474.8418362979333
 72
     1
 10
-381.9823277538576
 20
474.8418362979333
 11
-381.0263277538576
 21
474.8418362979333
 97
        0
 75
     0
 76
     0
 52
135.0
 41
5.0
 77
     0
 78
     1
 53
135.0
 43
-714.3015287538576
 44
-82.29628070206661
 45
-3.535533905932736
 46
-3.535533905932736
 79
     0
 98
        1
 10
-714.3015287538576
 20
-82.29628070206661
1001
GENIUS_GENODEF_13
1002
{
1000
HIER
1070
     0
1002
}
1002
{
1000
MANEDIT
1070
     0
1002
}
1002
{
1000
NOSEL
1070
     0
1002
}
1002
{
1000
BEHIND
1070
     0
1002
}
1002
{
1000
REACTOR
1002
}
1001
GENIUS_GENOBJ-N-HTC_13
1002
{
1000
OWNER
1000
GEN
1002
}
1001
GENIUS_GENHATCH_13
1002
{
1000
DATA
1040
135.0
1042
1.0
1000
_U
1070
     0
1011
-253.2104327538576
1021
449.4320242979333
1031
0.0
1002
}
1002
{
1000
UCS
1010
0.0
1020
0.0
1030
0.0
1010
1.0
1020
0.0
1030
0.0
1010
0.0
1020
1.0
1030
0.0
1002
}
  0
HATCH
  5
1A0E
330
1638
100
AcDbEntity
  8
8
100
AcDbHatch
 10
0.0
 20
0.0
 30
0.0
210
0.0
220
0.0
230
1.0
  2
_U
 70
     0
 71
     0
 91
        1
 92
        1
 93
       16
 72
     1
 10
-372.1573277538577
 20
52.84183629793338
 11
-352.1573277538577
 21
52.84183629793338
 72
     2
 10
-352.1573277538577
 20
48.84183629793338
 40
4.0
 50
270.0
 51
360.0
 73
     0
 72
     1
 10
-348.1573277538577
 20
48.84183629793338
 11
-348.1573277538577
 21
28.84183629793339
 72
     2
 10
-344.1573277538577
 20
28.84183629793339
 40
4.0
 50
180.0
 51
270.0
 73
     1
 72
     1
 10
-344.1573277538577
 20
24.84183629793339
 11
-220.1573277538577
 21
24.84183629793339
 72
     2
 10
-220.1573277538577
 20
28.84183629793339
 40
4.0
 50
270.0
 51
360.0
 73
     1
 72
     1
 10
-216.1573277538577
 20
28.84183629793339
 11
-216.1573277538577
 21
152.8418362979334
 72
     2
 10
-220.1573277538577
 20
152.8418362979334
 40
4.0
 50
0.0
 51
90.0
 73
     1
 72
     1
 10
-220.1573277538577
 20
156.8418362979334
 11
-240.1573277538576
 21
156.8418362979334
 72
     2
 10
-240.1573277538576
 20
160.8418362979334
 40
4.0
 50
90.0
 51
180.0
 73
     0
 72
     1
 10
-244.1573277538577
 20
160.8418362979334
 11
-244.1573277538577
 21
180.8418362979333
 72
     2
 10
-248.1573277538577
 20
180.8418362979333
 40
4.0
 50
0.0
 51
90.0
 73
     1
 72
     1
 10
-248.1573277538577
 20
184.8418362979333
 11
-372.1573277538577
 21
184.8418362979333
 72
     2
 10
-372.1573277538577
 20
180.8418362979333
 40
4.0
 50
90.0
 51
180.0
 73
     1
 72
     1
 10
-376.1573277538577
 20
180.8418362979333
 11
-376.1573277538577
 21
56.84183629793338
 72
     2
 10
-372.1573277538577
 20
56.84183629793338
 40
4.0
 50
180.0
 51
270.0
 73
     1
 97
        0
 75
     0
 76
     0
 52
45.0
 41
11.5
 77
     1
 78
     2
 53
45.0
 43
-714.3015287538576
 44
-82.29628070206661
 45
-8.131727983645296
 46
8.131727983645296
 79
     0
 53
135.0
 43
-714.3015287538576
 44
-82.29628070206661
 45
-8.131727983645296
 46
-8.131727983645296
 79
     0
 98
        1
 10
-714.3015287538576
 20
-82.29628070206661
1001
GENIUS_GENODEF_13
1002
{
1000
HIER
1070
     0
1002
}
1002
{
1000
MANEDIT
1070
     0
1002
}
1002
{
1000
NOSEL
1070
     0
1002
}
1002
{
1000
BEHIND
1070
     0
1002
}
1002
{
1000
REACTOR
1002
}
1001
GENIUS_GENOBJ-N-HTC_13
1002
{
1000
OWNER
1000
GEN
1002
}
1001
GENIUS_GENHATCH_13
1002
{
1000
DATA
1040
45.0
1042
2.299999999999999
1000
_U
1070
     1
1011
-323.4704827538576
1021
128.1411982979333
1031
0.0
1002
}
1002
{
1000
UCS
1010
0.0
1020
0.0
1030
0.0
1010
1.0
1020
0.0
1030
0.0
1010
0.0
1020
1.0
1030
0.0
1002
}
  0
POLYLINE
  5
1AB9
330
1638
100
AcDbEntity
  8
SCHRAFFUR_RAND
100
AcDb2dPolyline
 66
     1
 10
0.0
 20
0.0
 30
0.0
 70
   129
  0
VERTEX
  5
1ABA
330
1AB9
100
AcDbEntity
  8
SCHRAFFUR_RAND
100
AcDbVertex
100
AcDb2dVertex
 10
-216.1573277538577
 20
152.8418362979334
 30
0.0
 42
0.4142140000000001
  0
VERTEX
  5
1ABB
330
1AB9
100
AcDbEntity
  8
SCHRAFFUR_RAND
100
AcDbVertex
100
AcDb2dVertex
 10
-220.1573277538577
 20
156.8418362979334
 30
0.0
  0
VERTEX
  5
1ABC
330
1AB9
100
AcDbEntity
  8
SCHRAFFUR_RAND
100
AcDbVertex
100
AcDb2dVertex
 10
-240.1573277538576
 20
156.8418362979334
 30
0.0
 42
-0.4142140000000001
  0
VERTEX
  5
1ABD
330
1AB9
100
AcDbEntity
  8
SCHRAFFUR_RAND
100
AcDbVertex
100
AcDb2dVertex
 10
-244.1573277538577
 20
160.8418362979334
 30
0.0
  0
VERTEX
  5
1ABE
330
1AB9
100
AcDbEntity
  8
SCHRAFFUR_RAND
100
AcDbVertex
100
AcDb2dVertex
 10
-244.1573277538577
 20
180.8418362979333
 30
0.0
 42
0.4142140000000001
  0
VERTEX
  5
1ABF
330
1AB9
100
AcDbEntity
  8
SCHRAFFUR_RAND
100
AcDbVertex
100
AcDb2dVertex
 10
-248.1573277538577
 20
184.8418362979333
 30
0.0
  0
VERTEX
  5
1AC0
330
1AB9
100
AcDbEntity
  8
SCHRAFFUR_RAND
100
AcDbVertex
100
AcDb2dVertex
 10
-372.1573277538577
 20
184.8418362979333
 30
0.0
 42
0.4142140000000001
  0
VERTEX
  5
1AC1
330
1AB9
100
AcDbEntity
  8
SCHRAFFUR_RAND
100
AcDbVertex
100
AcDb2dVertex
 10
-376.1573277538577
 20
180.8418362979333
 30
0.0
  0
VERTEX
  5
1AC2
330
1AB9
100
AcDbEntity
  8
SCHRAFFUR_RAND
100
AcDbVertex
100
AcDb2dVertex
 10
-376.1573277538577
 20
56.84183629793338
 30
0.0
 42
0.4142140000000001
  0
VERTEX
  5
1AC3
330
1AB9
100
AcDbEntity
  8
SCHRAFFUR_RAND
100
AcDbVertex
100
AcDb2dVertex
 10
-372.1573277538577
 20
52.84183629793338
 30
0.0
  0
VERTEX
  5
1AC4
330
1AB9
100
AcDbEntity
  8
SCHRAFFUR_RAND
100
AcDbVertex
100
AcDb2dVertex
 10
-352.1573277538577
 20
52.84183629793338
 30
0.0
 42
-0.4142140000000001
  0
VERTEX
  5
1AC5
330
1AB9
100
AcDbEntity
  8
SCHRAFFUR_RAND
100
AcDbVertex
100
AcDb2dVertex
 10
-348.1573277538577
 20
48.84183629793338
 30
0.0
  0
VERTEX
  5
1AC6
330
1AB9
100
AcDbEntity
  8
SCHRAFFUR_RAND
100
AcDbVertex
100
AcDb2dVertex
 10
-348.1573277538577
 20
28.84183629793339
 30
0.0
 42
0.4142140000000001
  0
VERTEX
  5
1AC7
330
1AB9
100
AcDbEntity
  8
SCHRAFFUR_RAND
100
AcDbVertex
100
AcDb2dVertex
 10
-344.1573277538577
 20
24.84183629793339
 30
0.0
  0
VERTEX
  5
1AC8
330
1AB9
100
AcDbEntity
  8
SCHRAFFUR_RAND
100
AcDbVertex
100
AcDb2dVertex
 10
-220.1573277538577
 20
24.84183629793339
 30
0.0
 42
0.4142140000000001
  0
VERTEX
  5
1AC9
330
1AB9
100
AcDbEntity
  8
SCHRAFFUR_RAND
100
AcDbVertex
100
AcDb2dVertex
 10
-216.1573277538577
 20
28.84183629793339
 30
0.0
  0
SEQEND
  5
1ACA
330
1AB9
100
AcDbEntity
  8
SCHRAFFUR_RAND
  0
ARC
  5
1C29
330
1638
100
AcDbEntity
  8
Kontur
100
AcDbCircle
 10
-203.174705324875
 20
419.8418362979333
 30
0.0
 40
10.0
100
AcDbArc
 50
90.0
 51
176.9999999999976
  0
LINE
  5
1C2A
330
1638
100
AcDbEntity
  8
0
100
AcDbLine
 10
-205.6573277538577
 20
479.8418362979333
 30
0.0
 11
-208.8084472413095
 21
471.1842066601559
 31
0.0
  0
LINE
  5
1C2B
330
1638
100
AcDbEntity
  8
0
100
AcDbLine
 10
-296.1573277538576
 20
479.8418362979333
 30
0.0
 11
-197.6573277538576
 21
479.8418362979333
 31
0.0
  0
LINE
  5
1C2C
330
1638
100
AcDbEntity
  8
Kontur
100
AcDbLine
 10
-250.3013663688451
 20
304.8381913494178
 30
0.0
 11
-250.5641950162628
 21
324.8418362979334
 31
0.0
  0
LINE
  5
1C2D
330
1638
100
AcDbEntity
  8
Kontur
100
AcDbLine
 10
-243.9122936413327
 20
304.8381913494178
 30
0.0
 11
-243.3013663688452
 21
339.8381913494177
 31
0.0
  0
LINE
  5
1C2E
330
1638
100
AcDbEntity
  8
0
100
AcDbLine
 10
-296.1573277538576
 20
304.8418362979333
 30
0.0
 11
-243.9121075611389
 21
304.8488518765835
 31
0.0
  0
LINE
  5
1C2F
330
1638
100
AcDbEntity
  8
0
100
AcDbLine
 10
-208.6573277538577
 20
479.8418362979333
 30
0.0
 11
-209.3659333643318
 21
439.2458480625283
 31
0.0
  0
LINE
  5
1C30
330
1638
100
AcDbEntity
  8
Kontur
100
AcDbLine
 10
-214.0010594294348
 20
404.3359198920533
 30
0.0
 11
-213.1610006724206
 21
420.3651958603628
 31
0.0
  0
ARC
  5
1C31
330
1638
100
AcDbEntity
  8
Kontur
100
AcDbCircle
 10
-236.6152510307045
 20
379.0933515390291
 30
0.0
 40
6.0
100
AcDbArc
 50
120.0000000000005
 51
178.9999999999982
  0
ARC
  5
1C32
330
1638
100
AcDbEntity
  8
Kontur
100
AcDbCircle
 10
-239.6055323869569
 20
379.6763128698024
 30
0.0
 40
10.0
100
AcDbArc
 50
120.0000000000005
 51
178.9999999999982
  0
LINE
  5
1C33
330
1638
100
AcDbEntity
  8
0
100
AcDbLine
 10
-250.5641950162628
 20
324.8418362979334
 30
0.0
 11
-296.1573277538576
 21
324.8418362979334
 31
0.0
  0
LINE
  5
1C34
330
1638
100
AcDbEntity
  8
0
100
AcDbLine
 10
-296.1573277538576
 20
329.8418362979333
 30
0.0
 11
-250.4769196916218
 21
329.8418362979334
 31
0.0
  0
LINE
  5
1C35
330
1638
100
AcDbEntity
  8
Kontur
100
AcDbLine
 10
-243.3013663688452
 20
339.8381913494177
 30
0.0
 11
-242.6143372016428
 21
379.198065977653
 31
0.0
  0
LINE
  5
1C36
330
1638
100
AcDbEntity
  8
Kontur
100
AcDbLine
 10
-249.6040093385209
 20
379.8508369341753
 30
0.0
 11
-250.5641950162628
 21
324.8418362979334
 31
0.0
  0
LINE
  5
1C37
330
1638
100
AcDbEntity
  8
0
100
AcDbLine
 10
-296.1573277538576
 20
441.2510100702456
 30
0.0
 11
-209.329347753594
 21
441.2510100702456
 31
0.0
  0
LINE
  5
1C38
330
1638
100
AcDbEntity
  8
0
100
AcDbLine
 10
-296.1573277538576
 20
433.8418362979333
 30
0.0
 11
-214.865095687692
 21
433.8418362979333
 31
0.0
  0
LINE
  5
1C39
330
1638
100
AcDbEntity
  8
0
100
AcDbLine
 10
-221.4283170438314
 20
403.9578816090454
 30
0.0
 11
-220.906690674425
 21
433.8418362979333
 31
0.0
  0
LINE
  5
1C3A
330
1638
100
AcDbEntity
  8
Kontur
100
AcDbLine
 10
-223.427707824457
 20
400.5635896196568
 30
0.0
 11
-244.6055323869571
 21
388.3365669076468
 31
0.0
  0
LINE
  5
1C3B
330
1638
100
AcDbEntity
  8
Kontur
100
AcDbLine
 10
-218.9873547769806
 20
396.1990254166389
 30
0.0
 11
-239.6152510307045
 21
384.2895039617358
 31
0.0
  0
ARC
  5
1C3C
330
1638
100
AcDbEntity
  8
Kontur
100
AcDbCircle
 10
-223.9873547769805
 20
404.8592794544831
 30
0.0
 40
10.0
100
AcDbArc
 50
300.0000000000005
 51
356.9999999999976
  0
ARC
  5
1C3D
330
1638
100
AcDbEntity
  8
Kontur
100
AcDbCircle
 10
-225.427707824457
 20
404.0276912347946
 30
0.0
 40
4.0
100
AcDbArc
 50
300.0000000000005
 51
358.9999999999982
  0
LINE
  5
1C3E
330
1638
100
AcDbEntity
  8
0
100
AcDbLine
 10
-250.9386060950428
 20
443.7510100702456
 30
0.0
 11
-209.2857100912736
 21
443.7510100702456
 31
0.0
  0
LINE
  5
1C3F
330
1638
100
AcDbEntity
  8
Kontur
100
AcDbLine
 10
-251.1573277538577
 20
441.2510100702456
 30
0.0
 11
-250.9386060950428
 21
443.7510100702456
 31
0.0
  0
ARC
  5
1C40
330
1638
100
AcDbEntity
  8
0
100
AcDbCircle
 10
-214.865095687692
 20
439.3418362979333
 30
0.0
 40
5.5
100
AcDbArc
 50
270.0
 51
358.9999999999982
  0
LINE
  5
1C41
330
1638
100
AcDbEntity
  8
Kontur
100
AcDbLine
 10
-220.6573277538577
 20
441.2510100702456
 30
0.0
 11
-220.4386060950428
 21
443.7510100702456
 31
0.0
  0
LINE
  5
1C42
330
1638
100
AcDbEntity
  8
0
100
AcDbLine
 10
-197.6573277538576
 20
479.8418362979333
 30
0.0
 11
-195.6355140345956
 21
441.2633323635689
 31
0.0
  0
LINE
  5
1C43
330
1638
100
AcDbEntity
  8
0
100
AcDbLine
 10
-168.5793346801178
 20
439.8418362979334
 30
0.0
 11
-194.1375697324637
 21
439.8418362979334
 31
0.0
  0
LINE
  5
1C44
330
1638
100
AcDbEntity
  8
0
100
AcDbLine
 10
-166.1573277538576
 20
429.8418362979333
 30
0.0
 11
-203.174705324875
 21
429.8418362979334
 31
0.0
  0
LINE
  5
1C45
330
1638
100
AcDbEntity
  8
0
100
AcDbLine
 10
-185.6573277538576
 20
429.8418362979333
 30
0.0
 11
-187.9073277538576
 21
439.8418362979334
 31
0.0
  0
ARC
  5
1C46
330
1638
100
AcDbEntity
  8
0
100
AcDbCircle
 10
-194.1375697324637
 20
441.3418362979333
 30
0.0
 40
1.5
100
AcDbArc
 50
182.9999999999991
 51
270.0
  0
LINE
  5
1C47
330
1638
100
AcDbEntity
  8
BEMASS
100
AcDbLine
 10
-166.1573277538576
 20
429.8418362979333
 30
0.0
 11
-166.1573277538576
 21
435.8660315902528
 31
0.0
  0
LINE
  5
1C48
330
1638
100
AcDbEntity
  8
0
100
AcDbLine
 10
-176.6573277538576
 20
429.8418362979333
 30
0.0
 11
-174.4073277538576
 21
439.8418362979334
 31
0.0
  0
LINE
  5
1C49
330
1638
100
AcDbEntity
  8
0
100
AcDbLine
 10
-166.1573277538576
 20
429.8418362979333
 30
0.0
 11
-166.5820756106087
 21
437.9465082104192
 31
0.0
  0
ARC
  5
1C4A
330
1638
100
AcDbEntity
  8
0
100
AcDbCircle
 10
-168.5793346801178
 20
437.8418362979333
 30
0.0
 40
2.0
100
AcDbArc
 50
3.000000000002342
 51
90.0
  0
LINE
  5
1C4B
330
1638
100
AcDbEntity
  8
BEMASS
100
AcDbLine
 10
-197.6573277538576
 20
479.8418362979333
 30
0.0
 11
-197.6573277538576
 21
468.3480946606804
 31
0.0
  0
ARC
  5
1C4C
330
1638
100
AcDbEntity
  8
Kontur
100
AcDbCircle
 10
-389.1399501828404
 20
419.8418362979333
 30
0.0
 40
10.0
100
AcDbArc
 50
3.000000000002342
 51
90.0
  0
LINE
  5
1C4D
330
1638
100
AcDbEntity
  8
0
100
AcDbLine
 10
-386.6573277538577
 20
479.8418362979333
 30
0.0
 11
-383.5062082664058
 21
471.1842066601559
 31
0.0
  0
LINE
  5
1C4E
330
1638
100
AcDbEntity
  8
0
100
AcDbLine
 10
-296.1573277538576
 20
479.8418362979333
 30
0.0
 11
-394.6573277538576
 21
479.8418362979333
 31
0.0
  0
LINE
  5
1C4F
330
1638
100
AcDbEntity
  8
Kontur
100
AcDbLine
 10
-342.0132891388703
 20
304.8381913494178
 30
0.0
 11
-341.7504604914525
 21
324.8418362979334
 31
0.0
  0
LINE
  5
1C50
330
1638
100
AcDbEntity
  8
Kontur
100
AcDbLine
 10
-348.4023618663826
 20
304.8381913494178
 30
0.0
 11
-349.0132891388703
 21
339.8381913494177
 31
0.0
  0
LINE
  5
1C51
330
1638
100
AcDbEntity
  8
0
100
AcDbLine
 10
-296.1573277538578
 20
304.8418362979333
 30
0.0
 11
-348.4025479465765
 21
304.8488518765835
 31
0.0
  0
LINE
  5
1C52
330
1638
100
AcDbEntity
  8
0
100
AcDbLine
 10
-383.6573277538576
 20
479.8418362979333
 30
0.0
 11
-382.9487221433835
 21
439.2458480625283
 31
0.0
  0
LINE
  5
1C53
330
1638
100
AcDbEntity
  8
Kontur
100
AcDbLine
 10
-378.3135960782805
 20
404.3359198920533
 30
0.0
 11
-379.1536548352947
 21
420.3651958603628
 31
0.0
  0
ARC
  5
1C54
330
1638
100
AcDbEntity
  8
Kontur
100
AcDbCircle
 10
-355.6994044770108
 20
379.0933515390291
 30
0.0
 40
6.0
100
AcDbArc
 50
1.000000000001761
 51
59.99999999999946
  0
ARC
  5
1C55
330
1638
100
AcDbEntity
  8
Kontur
100
AcDbCircle
 10
-352.7091231207584
 20
379.6763128698024
 30
0.0
 40
10.0
100
AcDbArc
 50
1.000000000001761
 51
59.99999999999946
  0
LINE
  5
1C56
330
1638
100
AcDbEntity
  8
0
100
AcDbLine
 10
-341.7504604914525
 20
324.8418362979334
 30
0.0
 11
-296.1573277538578
 21
324.8418362979334
 31
0.0
  0
LINE
  5
1C57
330
1638
100
AcDbEntity
  8
0
100
AcDbLine
 10
-296.1573277538578
 20
329.8418362979333
 30
0.0
 11
-341.8377358160936
 21
329.8418362979334
 31
0.0
  0
LINE
  5
1C58
330
1638
100
AcDbEntity
  8
Kontur
100
AcDbLine
 10
-349.0132891388703
 20
339.8381913494177
 30
0.0
 11
-349.7003183060725
 21
379.198065977653
 31
0.0
  0
LINE
  5
1C59
330
1638
100
AcDbEntity
  8
Kontur
100
AcDbLine
 10
-342.7106461691944
 20
379.8508369341753
 30
0.0
 11
-341.7504604914525
 21
324.8418362979334
 31
0.0
  0
LINE
  5
1C5A
330
1638
100
AcDbEntity
  8
0
100
AcDbLine
 10
-296.1573277538576
 20
441.2510100702456
 30
0.0
 11
-382.9853077541213
 21
441.2510100702456
 31
0.0
  0
LINE
  5
1C5B
330
1638
100
AcDbEntity
  8
0
100
AcDbLine
 10
-296.1573277538576
 20
433.8418362979333
 30
0.0
 11
-377.4495598200233
 21
433.8418362979333
 31
0.0
  0
LINE
  5
1C5C
330
1638
100
AcDbEntity
  8
0
100
AcDbLine
 10
-370.8863384638839
 20
403.9578816090454
 30
0.0
 11
-371.4079648332903
 21
433.8418362979333
 31
0.0
  0
LINE
  5
1C5D
330
1638
100
AcDbEntity
  8
Kontur
100
AcDbLine
 10
-368.8869476832583
 20
400.5635896196568
 30
0.0
 11
-347.7091231207584
 21
388.3365669076468
 31
0.0
  0
LINE
  5
1C5E
330
1638
100
AcDbEntity
  8
Kontur
100
AcDbLine
 10
-373.3273007307347
 20
396.1990254166389
 30
0.0
 11
-352.6994044770108
 21
384.2895039617358
 31
0.0
  0
ARC
  5
1C5F
330
1638
100
AcDbEntity
  8
Kontur
100
AcDbCircle
 10
-368.3273007307348
 20
404.8592794544831
 30
0.0
 40
10.0
100
AcDbArc
 50
183.0000000000023
 51
239.9999999999995
  0
ARC
  5
1C60
330
1638
100
AcDbEntity
  8
Kontur
100
AcDbCircle
 10
-366.8869476832583
 20
404.0276912347946
 30
0.0
 40
4.0
100
AcDbArc
 50
181.0000000000017
 51
239.9999999999995
  0
LINE
  5
1C61
330
1638
100
AcDbEntity
  8
0
100
AcDbLine
 10
-341.3760494126725
 20
443.7510100702456
 30
0.0
 11
-383.0289454164418
 21
443.7510100702456
 31
0.0
  0
LINE
  5
1C62
330
1638
100
AcDbEntity
  8
Kontur
100
AcDbLine
 10
-341.1573277538577
 20
441.2510100702456
 30
0.0
 11
-341.3760494126725
 21
443.7510100702456
 31
0.0
  0
ARC
  5
1C63
330
1638
100
AcDbEntity
  8
0
100
AcDbCircle
 10
-377.4495598200233
 20
439.3418362979333
 30
0.0
 40
5.5
100
AcDbArc
 50
181.0000000000017
 51
270.0
  0
LINE
  5
1C64
330
1638
100
AcDbEntity
  8
Kontur
100
AcDbLine
 10
-371.6573277538576
 20
441.2510100702456
 30
0.0
 11
-371.8760494126725
 21
443.7510100702456
 31
0.0
  0
LINE
  5
1C65
330
1638
100
AcDbEntity
  8
0
100
AcDbLine
 10
-394.6573277538576
 20
479.8418362979333
 30
0.0
 11
-396.6791414731198
 21
441.2633323635689
 31
0.0
  0
LINE
  5
1C66
330
1638
100
AcDbEntity
  8
0
100
AcDbLine
 10
-423.7353208275974
 20
439.8418362979334
 30
0.0
 11
-398.1770857752516
 21
439.8418362979334
 31
0.0
  0
LINE
  5
1C67
330
1638
100
AcDbEntity
  8
0
100
AcDbLine
 10
-426.1573277538576
 20
429.8418362979333
 30
0.0
 11
-389.1399501828404
 21
429.8418362979334
 31
0.0
  0
LINE
  5
1C68
330
1638
100
AcDbEntity
  8
0
100
AcDbLine
 10
-406.6573277538577
 20
429.8418362979333
 30
0.0
 11
-404.4073277538577
 21
439.8418362979334
 31
0.0
  0
ARC
  5
1C69
330
1638
100
AcDbEntity
  8
0
100
AcDbCircle
 10
-398.1770857752516
 20
441.3418362979333
 30
0.0
 40
1.5
100
AcDbArc
 50
270.0
 51
357.0000000000009
  0
LINE
  5
1C6A
330
1638
100
AcDbEntity
  8
BEMASS
100
AcDbLine
 10
-426.1573277538576
 20
429.8418362979333
 30
0.0
 11
-426.1573277538576
 21
435.8660315902528
 31
0.0
  0
LINE
  5
1C6B
330
1638
100
AcDbEntity
  8
0
100
AcDbLine
 10
-415.6573277538576
 20
429.8418362979333
 30
0.0
 11
-417.9073277538576
 21
439.8418362979334
 31
0.0
  0
LINE
  5
1C6C
330
1638
100
AcDbEntity
  8
0
100
AcDbLine
 10
-426.1573277538576
 20
429.8418362979333
 30
0.0
 11
-425.7325798971066
 21
437.9465082104192
 31
0.0
  0
ARC
  5
1C6D
330
1638
100
AcDbEntity
  8
0
100
AcDbCircle
 10
-423.7353208275974
 20
437.8418362979333
 30
0.0
 40
2.0
100
AcDbArc
 50
90.0
 51
176.9999999999976
  0
LINE
  5
1C6E
330
1638
100
AcDbEntity
  8
BEMASS
100
AcDbLine
 10
-394.6573277538576
 20
479.8418362979333
 30
0.0
 11
-394.6573277538576
 21
468.3480946606804
 31
0.0
  0
HATCH
  5
1C6F
330
1638
100
AcDbEntity
  8
8
100
AcDbHatch
 10
0.0
 20
0.0
 30
0.0
210
0.0
220
0.0
230
1.0
  2
_U
 70
     0
 71
     0
 91
        1
 92
        1
 93
       23
 72
     1
 10
-214.865095687692
 20
433.8418362979333
 11
-220.906690674425
 21
433.8418362979333
 72
     1
 10
-220.906690674425
 20
433.8418362979333
 11
-221.4283170438314
 21
403.9578816090454
 72
     2
 10
-225.427707824457
 20
404.0276912347946
 40
3.999999999999995
 50
1.000000000000141
 51
59.99999999999947
 73
     0
 72
     1
 10
-223.427707824457
 20
400.5635896196568
 11
-244.6055323869571
 21
388.3365669076468
 72
     2
 10
-239.6055323869569
 20
379.6763128698024
 40
10.00000000000001
 50
120.0000000000003
 51
178.9999999999998
 73
     1
 72
     1
 10
-249.6040093385209
 20
379.8508369341753
 11
-250.5641950162628
 21
324.8418362979334
 72
     1
 10
-250.5641950162628
 20
324.8418362979334
 11
-250.3014951649088
 21
304.8479938985504
 72
     1
 10
-250.3014951649088
 20
304.8479938985504
 11
-243.9121075611389
 21
304.8488518765835
 72
     1
 10
-243.9121075611389
 20
304.8488518765835
 11
-242.6143372016429
 21
379.198065977653
 72
     2
 10
-236.6152510307045
 20
379.0933515390291
 40
5.999999999999993
 50
181.0000000000017
 51
239.9999999999992
 73
     0
 72
     1
 10
-239.6152510307046
 20
384.2895039617357
 11
-218.9873547769806
 21
396.1990254166389
 72
     2
 10
-223.9873547769805
 20
404.8592794544832
 40
9.999999999999998
 50
299.9999999999996
 51
356.9999999999973
 73
     1
 72
     1
 10
-214.0010594294348
 20
404.3359198920533
 11
-213.1610006724206
 21
420.3651958603628
 72
     2
 10
-203.174705324875
 20
419.8418362979333
 40
10.00000000000001
 50
183.0
 51
270.0000000000001
 73
     0
 72
     1
 10
-203.174705324875
 20
429.8418362979334
 11
-185.6573277538576
 21
429.8418362979334
 72
     1
 10
-185.6573277538576
 20
429.8418362979334
 11
-187.9073277538576
 21
439.8418362979334
 72
     1
 10
-187.9073277538576
 20
439.8418362979334
 11
-194.1375697324637
 21
439.8418362979334
 72
     2
 10
-194.1375697324637
 20
441.3418362979333
 40
1.5
 50
90.0
 51
177.0000000000009
 73
     0
 72
     1
 10
-195.6355140345955
 20
441.2633323635689
 11
-197.6573277538576
 21
479.8418362979333
 72
     1
 10
-197.6573277538576
 20
479.8418362979333
 11
-205.6573277538577
 21
479.8418362979333
 72
     1
 10
-205.6573277538577
 20
479.8418362979333
 11
-208.8084472413096
 21
471.1842066601559
 72
     1
 10
-208.8084472413095
 20
471.1842066601559
 11
-209.3659333643318
 21
439.2458480625283
 72
     2
 10
-214.865095687692
 20
439.3418362979333
 40
5.500000000000007
 50
0.9999999999999886
 51
90.0000000000001
 73
     0
 97
        0
 75
     0
 76
     0
 52
45.0
 41
2.5
 77
     0
 78
     1
 53
45.0
 43
-207.4923221791091
 44
-56.03787302449461
 45
-1.767766952966368
 46
1.767766952966368
 79
     0
 98
        1
 10
-207.4923221791091
 20
-56.03787302449461
1001
ACAD
1010
0.0
1020
0.0
1030
0.0
1001
GENIUS_GENOBJ-N-HTC_13
1002
{
1000
OWNER
1000
GEN
1002
}
1001
GENIUS_GENODEF_13
1002
{
1000
HIER
1070
     0
1002
}
1002
{
1000
MANEDIT
1070
     0
1002
}
1002
{
1000
NOSEL
1070
     0
1002
}
1002
{
1000
BEHIND
1070
     0
1002
}
1002
{
1000
OTHER
1070
     0
1002
}
1002
{
1000
REACTOR
1002
}
1001
GENIUS_GENHATCH_13
1002
{
1000
DATA
1040
45.0
1042
2.5
1000
_U
1070
     0
1011
-246.8126828852687
1021
356.6819467272966
1031
0.0
1002
}
1002
{
1000
UCS
1010
0.0
1020
0.0
1030
0.0
1010
1.0
1020
0.0
1030
0.0
1010
0.0
1020
1.0
1030
0.0
1002
}
  0
HATCH
  5
1C70
330
1638
100
AcDbEntity
  8
8
100
AcDbHatch
 10
0.0
 20
0.0
 30
0.0
210
0.0
220
0.0
230
1.0
  2
_U
 70
     0
 71
     0
 91
        1
 92
        1
 93
       23
 72
     1
 10
-386.6573277538577
 20
479.8418362979333
 11
-394.6573277538576
 21
479.8418362979333
 72
     1
 10
-394.6573277538576
 20
479.8418362979333
 11
-396.6791414731198
 21
441.2633323635689
 72
     2
 10
-398.1770857752516
 20
441.3418362979333
 40
1.500000000000025
 50
3.000000000001187
 51
90.0
 73
     0
 72
     1
 10
-398.1770857752516
 20
439.8418362979334
 11
-404.4073277538577
 21
439.8418362979334
 72
     1
 10
-404.4073277538577
 20
439.8418362979334
 11
-406.6573277538577
 21
429.8418362979333
 72
     1
 10
-406.6573277538577
 20
429.8418362979333
 11
-389.1399501828404
 21
429.8418362979334
 72
     2
 10
-389.1399501828404
 20
419.8418362979333
 40
10.0
 50
270.0
 51
356.9999999999976
 73
     0
 72
     1
 10
-379.1536548352947
 20
420.3651958603632
 11
-378.3135960782804
 21
404.3359198920533
 72
     2
 10
-368.3273007307348
 20
404.8592794544831
 40
9.99999999999996
 50
183.0000000000023
 51
239.9999999999999
 73
     1
 72
     1
 10
-373.3273007307348
 20
396.1990254166389
 11
-352.6994044770108
 21
384.2895039617358
 72
     2
 10
-355.6994044770108
 20
379.0933515390291
 40
5.999999999999985
 50
299.9999999999998
 51
358.9999999999982
 73
     0
 72
     1
 10
-349.7003183060725
 20
379.198065977653
 11
-348.4025479465765
 21
304.8488518765835
 72
     1
 10
-348.4025479465765
 20
304.8488518765835
 11
-342.0131603428066
 21
304.8479938985504
 72
     1
 10
-342.0131603428065
 20
304.8479938985504
 11
-341.7504604914525
 21
324.8418362979334
 72
     1
 10
-341.7504604914525
 20
324.8418362979334
 11
-342.7106461691944
 21
379.8508369341753
 72
     2
 10
-352.7091231207584
 20
379.6763128698024
 40
9.999999999999991
 50
1.000000000000473
 51
60.0000000000001
 73
     1
 72
     1
 10
-347.7091231207584
 20
388.3365669076468
 11
-368.8869476832583
 21
400.5635896196568
 72
     2
 10
-366.8869476832583
 20
404.0276912347946
 40
3.999999999999983
 50
120.0000000000001
 51
178.9999999999982
 73
     0
 72
     1
 10
-370.8863384638839
 20
403.9578816090453
 11
-371.4079648332904
 21
433.8418362979333
 72
     1
 10
-371.4079648332903
 20
433.8418362979333
 11
-377.4495598200233
 21
433.8418362979333
 72
     2
 10
-377.4495598200233
 20
439.3418362979333
 40
5.5
 50
90.0
 51
179.0
 73
     0
 72
     1
 10
-382.9487221433835
 20
439.2458480625283
 11
-383.5062082664058
 21
471.184206660156
 72
     1
 10
-383.5062082664058
 20
471.184206660156
 11
-386.6573277538577
 21
479.8418362979333
 97
        0
 75
     0
 76
     0
 52
45.0
 41
2.5
 77
     0
 78
     1
 53
45.0
 43
-207.4923221791091
 44
-56.03787302449461
 45
-1.767766952966368
 46
1.767766952966368
 79
     0
 98
        1
 10
-207.4923221791091
 20
-56.03787302449461
1001
ACAD
1010
0.0
1020
0.0
1030
0.0
1001
GENIUS_GENOBJ-N-HTC_13
1002
{
1000
OWNER
1000
GEN
1002
}
1001
GENIUS_GENODEF_13
1002
{
1000
HIER
1070
     0
1002
}
1002
{
1000
MANEDIT
1070
     0
1002
}
1002
{
1000
NOSEL
1070
     0
1002
}
1002
{
1000
BEHIND
1070
     0
1002
}
1002
{
1000
OTHER
1070
     0
1002
}
1002
{
1000
REACTOR
1002
}
1001
GENIUS_GENHATCH_13
1002
{
1000
DATA
1040
45.0
1042
2.5
1000
_U
1070
     0
1011
-388.4402975769347
1021
447.6917971724316
1031
0.0
1002
}
1002
{
1000
UCS
1010
0.0
1020
0.0
1030
0.0
1010
1.0
1020
0.0
1030
0.0
1010
0.0
1020
1.0
1030
0.0
1002
}
  0
HATCH
  5
1C71
330
1638
100
AcDbEntity
  8
AM_8
100
AcDbHatch
 10
0.0
 20
0.0
 30
0.0
210
0.0
220
0.0
230
1.0
  2
_U
 70
     0
 71
     0
 91
        1
 92
        1
 93
        5
 72
     1
 10
-168.5793346801178
 20
439.8418362979334
 11
-174.4073277538576
 21
439.8418362979334
 72
     1
 10
-174.4073277538576
 20
439.8418362979334
 11
-176.6573277538576
 21
429.8418362979333
 72
     1
 10
-176.6573277538576
 20
429.8418362979333
 11
-166.1573277538576
 21
429.8418362979333
 72
     1
 10
-166.1573277538576
 20
429.8418362979333
 11
-166.5820756106087
 21
437.9465082104192
 72
     2
 10
-168.5793346801178
 20
437.8418362979333
 40
1.999999999999998
 50
2.999999999999078
 51
89.9999999999998
 73
     1
 97
        0
 75
     0
 76
     0
 52
45.0
 41
2.5
 77
     0
 78
     1
 53
45.0
 43
-207.4923221791091
 44
-56.03787302449461
 45
-1.767766952966368
 46
1.767766952966368
 79
     0
 98
        1
 10
-207.4923221791091
 20
-56.03787302449461
1001
GENIUS_GENODEF_13
1002
{
1000
HIER
1070
     0
1002
}
1002
{
1000
MANEDIT
1070
     0
1002
}
1002
{
1000
NOSEL
1070
     0
1002
}
1002
{
1000
BEHIND
1070
     0
1002
}
1002
{
1000
OTHER
1070
     0
1002
}
1002
{
1000
REACTOR
1002
}
1001
GENIUS_GENOBJ-N-HTC_13
1002
{
1000
OWNER
1000
GEN
1002
}
1001
GENIUS_GENHATCH_13
1002
{
1000
DATA
1040
45.0
1042
2.5
1000
_U
1070
     0
1011
-169.9291199686249
1021
435.557151060403
1031
0.0
1002
}
1002
{
1000
UCS
1010
0.0
1020
0.0
1030
0.0
1010
1.0
1020
0.0
1030
0.0
1010
0.0
1020
1.0
1030
0.0
1002
}
  0
HATCH
  5
1C72
330
1638
100
AcDbEntity
  8
AM_8
100
AcDbHatch
 10
0.0
 20
0.0
 30
0.0
210
0.0
220
0.0
230
1.0
  2
_U
 70
     0
 71
     0
 91
        1
 92
        1
 93
        5
 72
     1
 10
-417.9073277538576
 20
439.8418362979334
 11
-423.7353208275974
 21
439.8418362979334
 72
     2
 10
-423.7353208275974
 20
437.8418362979333
 40
2.0
 50
90.0
 51
176.9999999999976
 73
     1
 72
     1
 10
-425.7325798971066
 20
437.9465082104193
 11
-426.1573277538578
 21
429.8418362979333
 72
     1
 10
-426.1573277538576
 20
429.8418362979333
 11
-415.6573277538576
 21
429.8418362979333
 72
     1
 10
-415.6573277538576
 20
429.8418362979333
 11
-417.9073277538576
 21
439.8418362979334
 97
        0
 75
     0
 76
     0
 52
45.0
 41
2.5
 77
     0
 78
     1
 53
45.0
 43
-207.4923221791091
 44
-56.03787302449461
 45
-1.767766952966368
 46
1.767766952966368
 79
     0
 98
        1
 10
-207.4923221791091
 20
-56.03787302449461
1001
GENIUS_GENOBJ-N-HTC_13
1002
{
1000
OWNER
1000
GEN
1002
}
1001
GENIUS_GENODEF_13
1002
{
1000
HIER
1070
     0
1002
}
1002
{
1000
MANEDIT
1070
     0
1002
}
1002
{
1000
NOSEL
1070
     0
1002
}
1002
{
1000
BEHIND
1070
     0
1002
}
1002
{
1000
OTHER
1070
     0
1002
}
1002
{
1000
REACTOR
1002
}
1001
GENIUS_GENHATCH_13
1002
{
1000
DATA
1040
45.0
1042
2.5
1000
_U
1070
     0
1011
-421.486741769686
1021
434.2088561951921
1031
0.0
1002
}
1002
{
1000
UCS
1010
0.0
1020
0.0
1030
0.0
1010
1.0
1020
0.0
1030
0.0
1010
0.0
1020
1.0
1030
0.0
1002
}
  0
LINE
  5
1C73
330
1638
100
AcDbEntity
  8
AM_7
100
AcDbLine
 10
-296.1553135278975
 20
494.8418361626965
 30
0.0
 11
-296.1828412824739
 21
289.8418395886972
 31
0.0
1001
GENIUS_GENOBJ-N-CEN_13
1002
{
1000
OWNER
1000
GEN
1002
}
1001
GENIUS_GENODEF_13
1002
{
1000
HIER
1070
     0
1002
}
1002
{
1000
MANEDIT
1070
     0
1002
}
1002
{
1000
NOSEL
1070
     0
1002
}
1002
{
1000
BEHIND
1070
     0
1002
}
1002
{
1000
OTHER
1070
     0
1002
}
1002
{
1000
REACTOR
1002
}
1001
GENIUS_GENCEN_19
1002
{
1040
15.0
1002
}
  0
ENDSEC
  0
SECTION
  2
OBJECTS
  0
DICTIONARY
  5
162C
330
0
100
AcDbDictionary
281
     1
  3
ACAD_COLOR
350
1AF0
  3
ACAD_GROUP
350
162D
  3
ACAD_LAYOUT
350
1AF3
  3
ACAD_MATERIAL
350
1AEF
  3
ACAD_MLINESTYLE
350
163B
  3
ACAD_PLOTSETTINGS
350
1AF4
  3
ACAD_PLOTSTYLENAME
350
1AED
  3
ACAD_TABLESTYLE
350
1AF1
  3
ACDBHEADERROUNDTRIPXREC
350
1CBC
  3
ACDBVARIABLEDICTIONARY
350
1A0F
  3
AcmDictionary
350
1B52
  3
AMG
350
1AF8
  3
AMGSNAPSETTINGS
350
1BBF
  0
DICTIONARY
  5
1AF0
102
{ACAD_REACTORS
330
162C
102
}
330
162C
100
AcDbDictionary
281
     1
  0
DICTIONARY
  5
162D
102
{ACAD_REACTORS
330
162C
102
}
330
162C
100
AcDbDictionary
281
     1
  0
DICTIONARY
  5
1AF3
102
{ACAD_REACTORS
330
162C
102
}
330
162C
100
AcDbDictionary
281
     1
  3
Layout1
350
1AF6
  3
Model
350
1AF5
  0
DICTIONARY
  5
1AEF
102
{ACAD_REACTORS
330
162C
102
}
330
162C
100
AcDbDictionary
281
     1
  0
DICTIONARY
  5
163B
102
{ACAD_REACTORS
330
162C
102
}
330
162C
100
AcDbDictionary
281
     1
  3
STANDARD
350
163C
  0
DICTIONARY
  5
1AF4
102
{ACAD_REACTORS
330
162C
102
}
330
162C
100
AcDbDictionary
281
     1
  0
ACDBDICTIONARYWDFLT
  5
1AED
102
{ACAD_REACTORS
330
162C
102
}
330
162C
100
AcDbDictionary
281
     1
  3
Normal
350
1AEE
100
AcDbDictionaryWithDefault
340
1AEE
  0
DICTIONARY
  5
1AF1
102
{ACAD_REACTORS
330
162C
102
}
330
162C
100
AcDbDictionary
281
     1
  3
Standard
350
1AF2
  0
DICTIONARY
  5
1CBC
102
{ACAD_REACTORS
330
162C
102
}
330
162C
100
AcDbDictionary
281
     1
  0
DICTIONARY
  5
1A0F
102
{ACAD_REACTORS
330
162C
102
}
330
162C
100
AcDbDictionary
281
     1
  3
CTABLESTYLE
350
1BC7
  3
DIMASSOC
350
1CB9
  3
PROJECTNAME
350
1CBA
  3
SORTENTS
350
1A10
  0
DICTIONARY
  5
1B52
102
{ACAD_REACTORS
330
162C
102
}
330
162C
100
AcDbDictionary
281
     1
  3
AcmStdDictionary
350
1B5D
  3
AMDTSECTSYM_ARROWCOLOR
350
1B80
  0
DICTIONARY
  5
1AF8
102
{ACAD_REACTORS
330
162C
102
}
330
162C
100
AcDbDictionary
281
     1
  0
DICTIONARY
  5
1BBF
102
{ACAD_REACTORS
330
162C
102
}
330
162C
100
AcDbDictionary
281
     1
  0
LAYOUT
  5
1AF6
102
{ACAD_XDICTIONARY
360
1CBF
102
}
102
{ACAD_REACTORS
330
1AF3
102
}
330
1AF3
100
AcDbPlotSettings
  1

  2
Xerox Document Centre CS50 PS
  4

  6

 40
0.0
 41
0.0
 42
0.0
 43
0.0
 44
0.0
 45
0.0
 46
0.0
 47
0.0
 48
0.0
 49
0.0
140
0.0
141
0.0
142
1.0
143
1.0
 70
   688
 72
     0
 73
     0
 74
     5
  7

 75
    16
147
1.0
148
0.0
149
0.0
100
AcDbLayout
  1
Layout1
 70
     1
 71
     1
 10
0.0
 20
0.0
 11
144.737
 21
293.6479999999999
 12
0.0
 22
0.0
 32
0.0
 14
0.0
 24
0.0
 34
0.0
 15
144.737
 25
293.6479999999999
 35
0.0
146
0.0
 13
0.0
 23
0.0
 33
0.0
 16
1.0
 26
0.0
 36
0.0
 17
0.0
 27
1.0
 37
0.0
 76
     0
330
1635
  0
LAYOUT
  5
1AF5
102
{ACAD_XDICTIONARY
360
1CBD
102
}
102
{ACAD_REACTORS
330
1AF3
102
}
330
1AF3
100
AcDbPlotSettings
  1

  2
Xerox Document Centre CS50 PS
  4

  6

 40
0.0
 41
0.0
 42
0.0
 43
0.0
 44
0.0
 45
0.0
 46
0.0
 47
0.0
 48
0.0
 49
0.0
140
0.0
141
0.0
142
1.0
143
1.0
 70
  1712
 72
     0
 73
     0
 74
     0
  7

 75
     0
147
1.0
148
0.0
149
0.0
100
AcDbLayout
  1
Model
 70
     1
 71
     0
 10
0.0
 20
0.0
 11
12.0
 21
9.0
 12
0.0
 22
0.0
 32
0.0
 14
0.0
 24
0.0
 34
0.0
 15
0.0
 25
0.0
 35
0.0
146
0.0
 13
0.0
 23
0.0
 33
0.0
 16
1.0
 26
0.0
 36
0.0
 17
0.0
 27
1.0
 37
0.0
 76
     0
330
1638
  0
MLINESTYLE
  5
163C
102
{ACAD_REACTORS
330
163B
102
}
330
163B
100
AcDbMlineStyle
  2
STANDARD
 70
     0
  3

 62
   256
 51
90.0
 52
90.0
 71
     2
 49
0.5
 62
   256
  6
BYLAYER
 49
-0.5
 62
   256
  6
BYLAYER
  0
ACDBPLACEHOLDER
  5
1AEE
102
{ACAD_REACTORS
330
1AED
102
}
330
1AED
  0
TABLESTYLE
  5
1AF2
102
{ACAD_REACTORS
330
1AF1
102
}
330
1AF1
100
AcDbTableStyle
  3
Standard
 70
     0
 71
     0
 40
1.5
 41
1.5
280
     0
281
     0
  7
STANDARD
140
4.5
170
     2
 62
     0
 63
     7
283
     0
274
    -2
284
     1
 64
     0
275
    -2
285
     1
 65
     0
276
    -2
286
     1
 66
     0
277
    -2
287
     1
 67
     0
278
    -2
288
     1
 68
     0
279
    -2
289
     1
 69
     0
  7
STANDARD
140
6.0
170
     5
 62
     0
 63
     7
283
     0
274
    -2
284
     1
 64
     0
275
    -2
285
     1
 65
     0
276
    -2
286
     1
 66
     0
277
    -2
287
     1
 67
     0
278
    -2
288
     1
 68
     0
279
    -2
289
     1
 69
     0
  7
STANDARD
140
4.5
170
     5
 62
     0
 63
     7
283
     0
274
    -2
284
     1
 64
     0
275
    -2
285
     1
 65
     0
276
    -2
286
     1
 66
     0
277
    -2
287
     1
 67
     0
278
    -2
288
     1
 68
     0
279
    -2
289
     1
 69
     0
  0
DICTIONARYVAR
  5
1BC7
102
{ACAD_REACTORS
330
1A0F
102
}
330
1A0F
100
DictionaryVariables
280
     0
  1
STANDARD
  0
DICTIONARYVAR
  5
1CB9
102
{ACAD_REACTORS
330
1A0F
102
}
330
1A0F
100
DictionaryVariables
280
     0
  1
1
  0
DICTIONARYVAR
  5
1CBA
102
{ACAD_REACTORS
330
1A0F
102
}
330
1A0F
100
DictionaryVariables
280
     0
  1

  0
DICTIONARYVAR
  5
1A10
102
{ACAD_REACTORS
330
1A0F
102
}
330
1A0F
100
DictionaryVariables
280
     0
  1
96
  0
DICTIONARY
  5
1B5D
102
{ACAD_REACTORS
330
1B52
102
}
330
1B52
100
AcDbDictionary
281
     1
  0
XRECORD
  5
1B80
102
{ACAD_REACTORS
330
1B52
102
}
330
1B52
100
AcDbXrecord
280
     1
 90
-1023410169
  0
DICTIONARY
  5
1CBF
330
1AF6
100
AcDbDictionary
280
     1
281
     1
  3
ACAD_XREC_ROUNDTRIP
360
1CC0
  0
DICTIONARY
  5
1CBD
330
1AF5
100
AcDbDictionary
280
     1
281
     1
  3
ACAD_XREC_ROUNDTRIP
360
1CBE
  0
XRECORD
  5
1CC0
102
{ACAD_REACTORS
330
1CBF
102
}
330
1CBF
100
AcDbXrecord
280
     1
102
SHADEPLOT
 70
     0
102
SHADEPLOTRESLEVEL
 70
     2
102
SHADEPLOTCUSTOMDPI
 70
   300
  0
XRECORD
  5
1CBE
102
{ACAD_REACTORS
330
1CBD
102
}
330
1CBD
100
AcDbXrecord
280
     1
102
SHADEPLOT
 70
     0
102
SHADEPLOTRESLEVEL
 70
     2
102
SHADEPLOTCUSTOMDPI
 70
   300
  0
ENDSEC
  0
EOF
