  0
SECTION
  2
HEADER
  9
$ACADVER
  1
AC1015
  9
$ACADMAINTVER
 70
    20
  9
$DWGCODEPAGE
  3
ANSI_1252
  9
$INSBASE
 10
0.0
 20
0.0
 30
0.0
  9
$EXTMIN
 10
-457.5324993086194
 20
-72.93090584330617
 30
-0.0015258207003583
  9
$EXTMAX
 10
-28.55071902572035
 20
505.9341448777518
 30
0.0000000349246037
  9
$LIMMIN
 10
0.0
 20
0.0
  9
$LIMMAX
 10
1050.0
 20
1050.0
  9
$ORTHOMODE
 70
     0
  9
$REGENMODE
 70
     1
  9
$FILLMODE
 70
     1
  9
$QTEXTMODE
 70
     0
  9
$MIRRTEXT
 70
     0
  9
$LTSCALE
 40
5.0
  9
$ATTMODE
 70
     1
  9
$TEXTSIZE
 40
17.5
  9
$TRACEWID
 40
0.05
  9
$TEXTSTYLE
  7
STANDARD
  9
$CLAYER
  8
0
  9
$CELTYPE
  6
BYLAYER
  9
$CECOLOR
 62
   256
  9
$CELTSCALE
 40
1.0
  9
$DISPSILH
 70
     0
  9
$DIMSCALE
 40
5.0
  9
$DIMASZ
 40
2.5
  9
$DIMEXO
 40
1.0
  9
$DIMDLI
 40
7.0
  9
$DIMRND
 40
0.0
  9
$DIMDLE
 40
0.0
  9
$DIMEXE
 40
1.0
  9
$DIMTP
 40
0.1
  9
$DIMTM
 40
0.1
  9
$DIMTXT
 40
3.5
  9
$DIMCEN
 40
0.0
  9
$DIMTSZ
 40
0.0
  9
$DIMTOL
 70
     0
  9
$DIMLIM
 70
     0
  9
$DIMTIH
 70
     0
  9
$DIMTOH
 70
     0
  9
$DIMSE1
 70
     0
  9
$DIMSE2
 70
     0
  9
$DIMTAD
 70
     1
  9
$DIMZIN
 70
    12
  9
$DIMBLK
  1

  9
$DIMASO
 70
     1
  9
$DIMSHO
 70
     1
  9
$DIMPOST
  1

  9
$DIMAPOST
  1
"
  9
$DIMALT
 70
     0
  9
$DIMALTD
 70
     2
  9
$DIMALTF
 40
0.03937
  9
$DIMLFAC
 40
1.0
  9
$DIMTOFL
 70
     1
  9
$DIMTVP
 40
0.0
  9
$DIMTIX
 70
     0
  9
$DIMSOXD
 70
     0
  9
$DIMSAH
 70
     0
  9
$DIMBLK1
  1

  9
$DIMBLK2
  1

  9
$DIMSTYLE
  2
GEN-ISO
  9
$DIMCLRD
 70
   256
  9
$DIMCLRE
 70
   256
  9
$DIMCLRT
 70
     2
  9
$DIMTFAC
 40
0.71
  9
$DIMGAP
 40
0.6
  9
$DIMJUST
 70
     0
  9
$DIMSD1
 70
     0
  9
$DIMSD2
 70
     0
  9
$DIMTOLJ
 70
     0
  9
$DIMTZIN
 70
     0
  9
$DIMALTZ
 70
     0
  9
$DIMALTTZ
 70
     0
  9
$DIMUPT
 70
     0
  9
$DIMDEC
 70
     2
  9
$DIMTDEC
 70
     3
  9
$DIMALTU
 70
     2
  9
$DIMALTTD
 70
     4
  9
$DIMTXSTY
  7
STANDARD
  9
$DIMAUNIT
 70
     0
  9
$DIMADEC
 70
     0
  9
$DIMALTRND
 40
0.0
  9
$DIMAZIN
 70
     0
  9
$DIMDSEP
 70
    46
  9
$DIMATFIT
 70
     3
  9
$DIMFRAC
 70
     0
  9
$DIMLDRBLK
  1

  9
$DIMLUNIT
 70
     2
  9
$DIMLWD
 70
    -2
  9
$DIMLWE
 70
    -2
  9
$DIMTMOVE
 70
     0
  9
$LUNITS
 70
     2
  9
$LUPREC
 70
     2
  9
$SKETCHINC
 40
0.1
  9
$FILLETRAD
 40
0.000005
  9
$AUNITS
 70
     0
  9
$AUPREC
 70
     2
  9
$MENU
  1
.
  9
$ELEVATION
 40
0.0
  9
$PELEVATION
 40
0.0
  9
$THICKNESS
 40
0.0
  9
$LIMCHECK
 70
     0
  9
$CHAMFERA
 40
12.5
  9
$CHAMFERB
 40
12.5
  9
$CHAMFERC
 40
0.0
  9
$CHAMFERD
 40
0.0
  9
$SKPOLY
 70
     0
  9
$TDCREATE
 40
2451421.455512581
  9
$TDUCREATE
 40
2451421.413845914
  9
$TDUPDATE
 40
2454088.866004386
  9
$TDUUPDATE
 40
2454088.824337720
  9
$TDINDWG
 40
0.0359103241
  9
$TDUSRTIMER
 40
0.0359103241
  9
$USRTIMER
 70
     1
  9
$ANGBASE
 50
0.0
  9
$ANGDIR
 70
     0
  9
$PDMODE
 70
     0
  9
$PDSIZE
 40
0.0
  9
$PLINEWID
 40
0.0
  9
$SPLFRAME
 70
     0
  9
$SPLINETYPE
 70
     6
  9
$SPLINESEGS
 70
     8
  9
$HANDSEED
  5
1D91
  9
$SURFTAB1
 70
     6
  9
$SURFTAB2
 70
     6
  9
$SURFTYPE
 70
     6
  9
$SURFU
 70
     6
  9
$SURFV
 70
     6
  9
$UCSBASE
  2

  9
$UCSNAME
  2

  9
$UCSORG
 10
0.0
 20
0.0
 30
0.0
  9
$UCSXDIR
 10
1.0
 20
0.0
 30
0.0
  9
$UCSYDIR
 10
0.0
 20
1.0
 30
0.0
  9
$UCSORTHOREF
  2

  9
$UCSORTHOVIEW
 70
     0
  9
$UCSORGTOP
 10
0.0
 20
0.0
 30
0.0
  9
$UCSORGBOTTOM
 10
0.0
 20
0.0
 30
0.0
  9
$UCSORGLEFT
 10
0.0
 20
0.0
 30
0.0
  9
$UCSORGRIGHT
 10
0.0
 20
0.0
 30
0.0
  9
$UCSORGFRONT
 10
0.0
 20
0.0
 30
0.0
  9
$UCSORGBACK
 10
0.0
 20
0.0
 30
0.0
  9
$PUCSBASE
  2

  9
$PUCSNAME
  2

  9
$PUCSORG
 10
0.0
 20
0.0
 30
0.0
  9
$PUCSXDIR
 10
1.0
 20
0.0
 30
0.0
  9
$PUCSYDIR
 10
0.0
 20
1.0
 30
0.0
  9
$PUCSORTHOREF
  2

  9
$PUCSORTHOVIEW
 70
     0
  9
$PUCSORGTOP
 10
0.0
 20
0.0
 30
0.0
  9
$PUCSORGBOTTOM
 10
0.0
 20
0.0
 30
0.0
  9
$PUCSORGLEFT
 10
0.0
 20
0.0
 30
0.0
  9
$PUCSORGRIGHT
 10
0.0
 20
0.0
 30
0.0
  9
$PUCSORGFRONT
 10
0.0
 20
0.0
 30
0.0
  9
$PUCSORGBACK
 10
0.0
 20
0.0
 30
0.0
  9
$USERI1
 70
     0
  9
$USERI2
 70
     0
  9
$USERI3
 70
     0
  9
$USERI4
 70
     0
  9
$USERI5
 70
     0
  9
$USERR1
 40
0.0
  9
$USERR2
 40
0.0
  9
$USERR3
 40
0.0
  9
$USERR4
 40
0.0
  9
$USERR5
 40
0.0
  9
$WORLDVIEW
 70
     1
  9
$SHADEDGE
 70
     3
  9
$SHADEDIF
 70
    70
  9
$TILEMODE
 70
     1
  9
$MAXACTVP
 70
    48
  9
$PINSBASE
 10
0.0
 20
0.0
 30
0.0
  9
$PLIMCHECK
 70
     0
  9
$PEXTMIN
 10
0.0
 20
0.0
 30
0.0
  9
$PEXTMAX
 10
139.442
 20
285.648
 30
0.0
  9
$PLIMMIN
 10
0.0
 20
0.0
  9
$PLIMMAX
 10
139.442
 20
285.648
  9
$UNITMODE
 70
     0
  9
$VISRETAIN
 70
     1
  9
$PLINEGEN
 70
     1
  9
$PSLTSCALE
 70
     1
  9
$TREEDEPTH
 70
 -3020
  9
$CMLSTYLE
  2
STANDARD
  9
$CMLJUST
 70
     0
  9
$CMLSCALE
 40
1.0
  9
$PROXYGRAPHICS
 70
     1
  9
$MEASUREMENT
 70
     1
  9
$CELWEIGHT
370
    -1
  9
$ENDCAPS
280
     0
  9
$JOINSTYLE
280
     0
  9
$LWDISPLAY
290
     0
  9
$INSUNITS
 70
     0
  9
$HYPERLINKBASE
  1

  9
$STYLESHEET
  1

  9
$XEDIT
290
     1
  9
$CEPSNTYPE
380
     0
  9
$PSTYLEMODE
290
     1
  9
$FINGERPRINTGUID
  2
{5D8D6585-B700-42BC-BCE3-D0BBB23B99B3}
  9
$VERSIONGUID
  2
{057D7D28-1F8B-49B2-83B1-CF3D8D3016B9}
  9
$EXTNAMES
290
     1
  9
$PSVPSCALE
 40
0.0
  9
$OLESTARTUP
290
     0
  0
ENDSEC
  0
SECTION
  2
CLASSES
  0
CLASS
  1
ACDBDICTIONARYWDFLT
  2
AcDbDictionaryWithDefault
  3
ObjectDBX Classes
 90
        0
280
     0
281
     0
  0
CLASS
  1
TABLESTYLE
  2
AcDbTableStyle
  3
ObjectDBX Classes
 90
     2047
280
     0
281
     0
  0
CLASS
  1
AMGSETTINGSOBJ
  2
AmgSettingsObj
  3
"AcadM|Product Description: AutoCAD Mechanical 2000|Company: Autodesk"
 90
        0
280
     0
281
     0
  0
CLASS
  1
ACME_DOCUMENT
  2
AcMeDbDoc
  3
AcMeServices
 90
        0
280
     0
281
     0
  0
CLASS
  1
ACMESCOPE
  2
AcMeScope
  3
AcMeServices
 90
        0
280
     0
281
     0
  0
CLASS
  1
ACMECOMMANDHISTORY
  2
AcMeCommandHistory
  3
AcMeServices
 90
        0
280
     0
281
     0
  0
CLASS
  1
ACIMSYSVARMAN
  2
AcImSysVarManager
  3
AcMeServices
 90
        0
280
     0
281
     0
  0
CLASS
  1
ACIMINTSYSVAR
  2
AcImIntSysVar
  3
AcMeServices
 90
        0
280
     0
281
     0
  0
CLASS
  1
ACMEDRAWINGMAN
  2
AcMeDrawingMan
  3
AcMeServices
 90
        0
280
     0
281
     0
  0
CLASS
  1
ACMEVIEW
  2
AcMeView
  3
AcMeServices
 90
        0
280
     0
281
     0
  0
CLASS
  1
ACDBENTITYCACHE
  2
AcMeEntityCache
  3
AcMeServices
 90
        0
280
     0
281
     0
  0
CLASS
  1
GSMANAGER
  2
AcMeGSManager
  3
AcMeServices
 90
        0
280
     0
281
     0
  0
CLASS
  1
AMDTINTERNALREACTOR
  2
AmdtInternalReactor
  3
AcMeServices
 90
        0
280
     0
281
     0
  0
CLASS
  1
ACMESTATEMGR
  2
AcMeStateMgr
  3
AcMeServices
 90
        0
280
     0
281
     0
  0
CLASS
  1
ACGREFMASTER
  2
AcGrefMaster
  3
AcAttribServices
 90
        0
280
     0
281
     0
  0
CLASS
  1
AM_DRAWING_MGR
  2
AcDmDwgMgr
  3
AcMechDwgViewMgmt
 90
        0
280
     0
281
     0
  0
CLASS
  1
AM_DWG_DOCUMENT
  2
AcDmDwgDocument
  3
AcMechDwgViewMgmt
 90
        0
280
     0
281
     0
  0
CLASS
  1
AM_DWG_SHEET
  2
AcDmSheet
  3
AcMechDwgViewMgmt
 90
        0
280
     0
281
     0
  0
CLASS
  1
AM_VIEWDIMPARMAP
  2
AcDmViewDimParMap
  3
AcMechDwgViewMgmt
 90
        0
280
     0
281
     0
  0
CLASS
  1
ACIMREALSYSVAR
  2
AcImRealSysVar
  3
AcMeServices
 90
        0
280
     0
281
     0
  0
CLASS
  1
AM_DWGMGR_NAME
  2
AcDmDwgMgrName
  3
AcMechDwgViewMgmt
 90
        0
280
     0
281
     0
  0
CLASS
  1
ACME_DATABASE
  2
AcMeDbDatabase
  3
AcMeServices
 90
        0
280
     0
281
     0
  0
CLASS
  1
ACRFINSADJUSTERMGR
  2
AcRfInsAdjusterMgr
  3
AcMeServices
 90
        0
280
     0
281
     0
  0
CLASS
  1
ACGREFACADMASTER
  2
AcGrefacadMaster
  3
AcGrefServices
 90
        0
280
     0
281
     0
  0
CLASS
  1
AMDTMENUSTATEMGR
  2
AmdtMenuStateMgr
  3
McadcomServices
 90
        0
280
     0
281
     0
  0
CLASS
  1
AMDTMCOMMENUSTATE
  2
AmdtMcomMenuState
  3
McadcomServices
 90
        0
280
     0
281
     0
  0
CLASS
  1
AMIMASTER
  2
AmiMaster
  3
AmiServices
 90
        0
280
     0
281
     0
  0
CLASS
  1
MAPIAMMOUDLE
  2
MApiAmModule
  3
MApiAmServices
 90
        0
280
     0
281
     0
  0
CLASS
  1
ACIMSTRSYSVAR
  2
AcImStrSysVar
  3
AcMeServices
 90
        0
280
     0
281
     0
  0
CLASS
  1
AMDTADMENUSTATE
  2
AmdtAdMenuState
  3
DesignerServices
 90
        0
280
     0
281
     0
  0
CLASS
  1
ADAPPL
  2
AcAdAppl
  3
DesignerServices
 90
        0
280
     0
281
     0
  0
CLASS
  1
DEPMGR
  2
AcAdDepMgr
  3
DesignerServices
 90
        0
280
     0
281
     0
  0
CLASS
  1
PARAMMGR
  2
AcAdParamMgr
  3
DesignerServices
 90
        0
280
     0
281
     0
  0
CLASS
  1
PARAMSCOPE
  2
AcAdParamScope
  3
DesignerServices
 90
        0
280
     0
281
     0
  0
CLASS
  1
NAMEDAPPL
  2
AcAdNamedAppl
  3
DesignerServices
 90
        0
280
     0
281
     0
  0
CLASS
  1
AMDTDMMENUSTATE
  2
AmdtDmMenuState
  3
AcMechDwgViewMgmt
 90
        0
280
     0
281
     0
  0
CLASS
  1
AMDTAMMENUSTATE
  2
AmdtAmMenuState
  3
DesignerAssemblies
 90
        0
280
     0
281
     0
  0
CLASS
  1
ACAMPROJECT
  2
AcAmProject
  3
DesignerAssemblies
 90
        0
280
     0
281
     0
  0
CLASS
  1
ACAMGRCOMPDEF
  2
AcAmGrCompDef
  3
DesignerAssemblies
 90
        0
280
     0
281
     0
  0
CLASS
  1
ACCMCONTEXT
  2
AcCmContext
  3
DesignerAssemblies
 90
        0
280
     0
281
     0
  0
CLASS
  1
ACAMCOMPDEF
  2
AcAmCompDef
  3
DesignerAssemblies
 90
        0
280
     0
281
     0
  0
CLASS
  1
ACAMCOMPDEFMGR
  2
AcAmCompDefMgr
  3
DesignerAssemblies
 90
        0
280
     0
281
     0
  0
CLASS
  1
AMCONTEXTMGR
  2
AcAmContextMgr
  3
DesignerAssemblies
 90
        0
280
     0
281
     0
  0
CLASS
  1
ACAMCONTEXTMODELER
  2
AcAmContextModeler
  3
DesignerAssemblies
 90
        0
280
     0
281
     0
  0
CLASS
  1
ACMDATADICTIONARY
  2
AcmDataDictionary
  3
"AcmSymBB|Product Description: AutoCAD Mechanical 2004 DX|Company: Autodesk"
 90
        0
280
     0
281
     0
  0
CLASS
  1
CATALOGSTATE
  2
AcAmCatalogState
  3
DesignerAssemblies
 90
        0
280
     0
281
     0
  0
CLASS
  1
ACAMGRCOMPDEFSET
  2
AcAmGrCompDefSet
  3
DesignerAssemblies
 90
        0
280
     0
281
     0
  0
CLASS
  1
AMDTBROWSERDBTAB
  2
AmdtBrowserDbTab
  3
McadcomServices
 90
        0
280
     0
281
     0
  0
CLASS
  1
CBROWSERAPPOBJECT
  2
CBrowserAppObject
  3
McadcomServices
 90
        0
280
     0
281
     0
  0
CLASS
  1
DM_PLACEHOLDER
  2
AcDmSelsetPlaceholder
  3
AcMechDwgViewMgmt
 90
        0
280
     0
281
     0
  0
CLASS
  1
ACMSTANDARDDIN
  2
AcmStandardDIN
  3
"Amdt_StdImp|Product Description: AutoCAD Mechanical 2004 DX|Company: Autodesk"
 90
        0
280
     0
281
     0
  0
CLASS
  1
AMGOBJPROPCFG
  2
AmgObjPropCfg
  3
"AmgLay|Product Description: AutoCAD Mechanical 2000|Company: Autodesk"
 90
        1
280
     0
281
     0
  0
CLASS
  1
AMDTEDGESTANDARDDIN13715
  2
AmdtEdgeStdDIN13715
  3
"Amdt_StdImp|Product Description: AutoCAD Mechanical 2004 DX|Company: Autodesk"
 90
        0
280
     0
281
     0
  0
CLASS
  1
ACMSURFSTANDARDDIN
  2
AcmSurfTextStdDIN
  3
"Amdt_StdImp|Product Description: AutoCAD Mechanical 2004 DX|Company: Autodesk"
 90
        0
280
     0
281
     0
  0
CLASS
  1
ACMFCFSTANDARDDIN
  2
AcmFCFStdDIN
  3
"Amdt_StdImp|Product Description: AutoCAD Mechanical 2004 DX|Company: Autodesk"
 90
        0
280
     0
281
     0
  0
CLASS
  1
ACMWELDSTANDARDDIN
  2
AcmWeldingStdDIN
  3
"Amdt_StdImp|Product Description: AutoCAD Mechanical 2004 DX|Company: Autodesk"
 90
        0
280
     0
281
     0
  0
CLASS
  1
ACMIDSTANDARDDIN
  2
AcmIdStdDIN
  3
"Amdt_StdImp|Product Description: AutoCAD Mechanical 2004 DX|Company: Autodesk"
 90
        0
280
     0
281
     0
  0
CLASS
  1
ACMDATUMSTANDARDDIN
  2
AcmDatumStdDIN
  3
"Amdt_StdImp|Product Description: AutoCAD Mechanical 2004 DX|Company: Autodesk"
 90
        0
280
     0
281
     0
  0
CLASS
  1
ACMBOMSTANDARDDIN
  2
AcmBOMStdDIN
  3
"Amdt_StdImp|Product Description: AutoCAD Mechanical 2004 DX|Company: Autodesk"
 90
        0
280
     0
281
     0
  0
CLASS
  1
ACMDETAILSTANDARDDIN
  2
AmdtDetailSymStdDIN
  3
"Amdt_StdImp|Product Description: AutoCAD Mechanical 2004 DX|Company: Autodesk"
 90
        0
280
     0
281
     0
  0
CLASS
  1
ACMSECTIONSTANDARDDIN
  2
AmdtSectionSymStdDIN
  3
"Amdt_StdImp|Product Description: AutoCAD Mechanical 2004 DX|Company: Autodesk"
 90
        0
280
     0
281
     0
  0
CLASS
  1
ACMCENTERLINESTANDARDDIN
  2
AmdtCenterLineStdDIN
  3
"Amdt_StdImp|Product Description: AutoCAD Mechanical 2004 DX|Company: Autodesk"
 90
        0
280
     0
281
     0
  0
CLASS
  1
ACMTHREADLINESTANDARDDIN
  2
AmdtThreadLineStdDIN
  3
"Amdt_StdImp|Product Description: AutoCAD Mechanical 2004 DX|Company: Autodesk"
 90
        0
280
     0
281
     0
  0
CLASS
  1
ACMNOTESTANDARDDIN
  2
AmdtNoteStdDIN
  3
"Amdt_StdImp|Product Description: AutoCAD Mechanical 2004 DX|Company: Autodesk"
 90
        0
280
     0
281
     0
  0
CLASS
  1
AMDTNOTETEMPLATEDB
  2
AmdtNoteTemplateDB
  3
AMDT_STDIMP_MODULE_NAME
 90
        0
280
     0
281
     0
  0
CLASS
  1
ACAMGLAYSTD
  2
AcAmgLayStd
  3
"AcAmgLayStd|Product Description: AutoCAD Mechanical 2000|Company: Autodesk"
 90
        0
280
     0
281
     0
  0
CLASS
  1
ACAMGDIMSTD
  2
AcAmgDimStd
  3
"AcAmgDimStd|Product Description: AutoCAD Mechanical 2000|Company: Autodesk"
 90
        0
280
     0
281
     0
  0
CLASS
  1
ACAMGHOLECHARTSTDDIN
  2
AcAmgHoleChartStdDIN
  3
ACMSYMBB_MODULE_NAME
 90
        0
280
     0
281
     0
  0
CLASS
  1
ACAMGTITLESTD
  2
AcAmgTitleStd
  3
"TITLEAPP"
 90
        0
280
     0
281
     0
  0
CLASS
  1
ACAMGFILTERDAT
  2
AcAmgFilterDat
  3
"AcadM|Product Description: AutoCAD Mechanical 2000|Company: Autodesk"
 90
        0
280
     0
281
     0
  0
CLASS
  1
DICTIONARYVAR
  2
AcDbDictionaryVar
  3
ObjectDBX Classes
 90
        0
280
     0
281
     0
  0
CLASS
  1
ACMDATAENTRYBLOCK
  2
AcmDataEntryBlock
  3
"AcmSymBB|Product Description: AutoCAD Mechanical 2004 DX|Company: Autodesk"
 90
        0
280
     0
281
     0
  0
CLASS
  1
ACDBPLACEHOLDER
  2
AcDbPlaceHolder
  3
ObjectDBX Classes
 90
        0
280
     0
281
     0
  0
CLASS
  1
LAYOUT
  2
AcDbLayout
  3
ObjectDBX Classes
 90
        0
280
     0
281
     0
  0
ENDSEC
  0
SECTION
  2
TABLES
  0
TABLE
  2
VPORT
  5
15F9
330
0
100
AcDbSymbolTable
 70
    18
  0
VPORT
  5
1D8B
330
15F9
100
AcDbSymbolTableRecord
100
AcDbViewportTableRecord
  2
*Active
 70
     0
 10
0.0
 20
0.0
 11
1.0
 21
1.0
 12
-243.0416091671699
 22
216.5016195172228
 13
0.0
 23
0.0
 14
5.0
 24
5.0
 15
50.0
 25
50.0
 16
0.0
 26
0.0
 36
1.0
 17
0.0
 27
0.0
 37
0.0
 40
583.0698815979664
 41
1.494545454545454
 42
50.0
 43
0.0
 44
0.0
 50
0.0
 51
0.0
 71
     0
 72
  1000
 73
     1
 74
     1
 75
     0
 76
     0
 77
     0
 78
     0
281
     0
 65
     0
110
0.0
120
0.0
130
0.0
111
1.0
121
0.0
131
0.0
112
0.0
122
1.0
132
0.0
 79
     0
146
0.0
  0
ENDTAB
  0
TABLE
  2
LTYPE
  5
15F6
330
0
100
AcDbSymbolTable
 70
    20
  0
LTYPE
  5
1603
330
15F6
100
AcDbSymbolTableRecord
100
AcDbLinetypeTableRecord
  2
BYBLOCK
 70
     0
  3

 72
    65
 73
     0
 40
0.0
  0
LTYPE
  5
1604
330
15F6
100
AcDbSymbolTableRecord
100
AcDbLinetypeTableRecord
  2
BYLAYER
 70
     0
  3

 72
    65
 73
     0
 40
0.0
  0
LTYPE
  5
1605
330
15F6
100
AcDbSymbolTableRecord
100
AcDbLinetypeTableRecord
  2
CONTINUOUS
 70
     0
  3
Solid line
 72
    65
 73
     0
 40
0.0
  0
LTYPE
  5
1B69
330
15F6
100
AcDbSymbolTableRecord
100
AcDbLinetypeTableRecord
  2
GEN3A
 70
     0
  3
 - - - - -
 72
    65
 73
     2
 40
3.125
 49
2.25
 74
     0
 49
-0.875
 74
     0
  0
LTYPE
  5
1BD2
330
15F6
100
AcDbSymbolTableRecord
100
AcDbLinetypeTableRecord
  2
HIDDEN
 70
     0
  3
Verdeckt
 72
    65
 73
     2
 40
9.525
 49
6.349999999999999
 74
     0
 49
-3.174999999999999
 74
     0
  0
LTYPE
  5
1BD3
330
15F6
100
AcDbSymbolTableRecord
100
AcDbLinetypeTableRecord
  2
PHANTOM2
 70
     0
  3
Phantom (.5x) ___ _ _ ___ _ _ ___ _ _ ___ _ _
 72
    65
 73
     6
 40
31.75
 49
15.875
 74
     0
 49
-3.174999999999999
 74
     0
 49
3.174999999999999
 74
     0
 49
-3.174999999999999
 74
     0
 49
3.174999999999999
 74
     0
 49
-3.174999999999999
 74
     0
  0
LTYPE
  5
1BD4
330
15F6
100
AcDbSymbolTableRecord
100
AcDbLinetypeTableRecord
  2
CENTER
 70
     0
  3
Mitte ____ _ ____ _ ____ _ ____ _ ____ _ ____
 72
    65
 73
     4
 40
50.8
 49
31.75
 74
     0
 49
-6.349999999999999
 74
     0
 49
6.349999999999999
 74
     0
 49
-6.349999999999999
 74
     0
  0
LTYPE
  5
1C08
330
15F6
100
AcDbSymbolTableRecord
100
AcDbLinetypeTableRecord
  2
AM_ISO02W050
 70
     0
  3
__ __ __ __ __ __ __ __ __ __ __ __ __ __ __
 72
    65
 73
     2
 40
7.5
 49
6.0
 74
     0
 49
-1.5
 74
     0
  0
LTYPE
  5
1C09
330
15F6
100
AcDbSymbolTableRecord
100
AcDbLinetypeTableRecord
  2
AM_ISO08W050
 70
     0
  3
____ . ____ . ____ . ____ . ____ . ____ . ____
 72
    65
 73
     4
 40
18.0
 49
12.0
 74
     0
 49
-1.5
 74
     0
 49
3.0
 74
     0
 49
-1.5
 74
     0
  0
LTYPE
  5
1C0A
330
15F6
100
AcDbSymbolTableRecord
100
AcDbLinetypeTableRecord
  2
AM_ISO09W050
 70
     0
  3
_____ . . _____ . . _____ . . ____ .. ____
 72
    65
 73
     6
 40
22.5
 49
12.0
 74
     0
 49
-1.5
 74
     0
 49
3.0
 74
     0
 49
-1.5
 74
     0
 49
3.0
 74
     0
 49
-1.5
 74
     0
  0
LTYPE
  5
1C0B
330
15F6
100
AcDbSymbolTableRecord
100
AcDbLinetypeTableRecord
  2
Amconstr
 70
     0
  3
_______________________
 72
    65
 73
     2
 40
9999.0
 49
9999.0
 74
     0
 49
0.0
 74
     0
  0
LTYPE
  5
1C0C
330
15F6
100
AcDbSymbolTableRecord
100
AcDbLinetypeTableRecord
  2
AM_ISO08W050x2
 70
     0
  3
__ . __ . __ . __ . __ . __
 72
    65
 73
     4
 40
9.0
 49
6.0
 74
     0
 49
-0.75
 74
     0
 49
1.5
 74
     0
 49
-0.75
 74
     0
  0
LTYPE
  5
1C0D
330
15F6
100
AcDbSymbolTableRecord
100
AcDbLinetypeTableRecord
  2
AM_ISO02W050x2
 70
     0
  3
 _ _ _ _ _ _ _ _ _ _ _ _
 72
    65
 73
     2
 40
3.75
 49
3.0
 74
     0
 49
-0.75
 74
     0
  0
LTYPE
  5
1C10
330
15F6
100
AcDbSymbolTableRecord
100
AcDbLinetypeTableRecord
  2
Amzigzag
 70
     0
  3
/\/-/\/-/\/-/\/-/\/-/\/
 72
    65
 73
     2
 40
11.0001
 49
0.0001
 74
     4
 75
   136
340
1C0F
 46
0.04
 50
0.0
 44
0.0
 45
0.0
 49
-11.0
 74
     0
  0
LTYPE
  5
1C11
330
15F6
100
AcDbSymbolTableRecord
100
AcDbLinetypeTableRecord
  2
AM_DIN_F_W050
 70
     0
  3
__ __ __ __ __ __ __ __ __ __ __ __ __ __ __
 72
    65
 73
     2
 40
6.25
 49
4.75
 74
     0
 49
-1.5
 74
     0
  0
LTYPE
  5
1C12
330
15F6
100
AcDbSymbolTableRecord
100
AcDbLinetypeTableRecord
  2
AM_DIN_G_W050
 70
     0
  3
____ . ____ . ____ . ____ . ____ . ____ . ____
 72
    65
 73
     4
 40
13.75
 49
9.75
 74
     0
 49
-1.5
 74
     0
 49
1.0
 74
     0
 49
-1.5
 74
     0
  0
LTYPE
  5
1C13
330
15F6
100
AcDbSymbolTableRecord
100
AcDbLinetypeTableRecord
  2
AM_DIN_K_W050
 70
     0
  3
_____ . . _____ . . _____ . . ____ .. ____
 72
    65
 73
     6
 40
16.25
 49
9.75
 74
     0
 49
-1.5
 74
     0
 49
1.0
 74
     0
 49
-1.5
 74
     0
 49
1.0
 74
     0
 49
-1.5
 74
     0
  0
LTYPE
  5
1C14
330
15F6
100
AcDbSymbolTableRecord
100
AcDbLinetypeTableRecord
  2
AM_DIN_G_W050x2
 70
     0
  3
__ . __ . __ . __ . __ . __
 72
    65
 73
     4
 40
6.875
 49
4.75
 74
     0
 49
-0.875
 74
     0
 49
0.375
 74
     0
 49
-0.875
 74
     0
  0
LTYPE
  5
1C15
330
15F6
100
AcDbSymbolTableRecord
100
AcDbLinetypeTableRecord
  2
AM_DIN_F_W050x2
 70
     0
  3
 _ _ _ _ _ _ _ _ _ _ _ _
 72
    65
 73
     2
 40
3.125
 49
2.25
 74
     0
 49
-0.875
 74
     0
  0
LTYPE
  5
1C24
330
15F6
100
AcDbSymbolTableRecord
100
AcDbLinetypeTableRecord
  2
ACDINWELD
 70
     0
  3
_ _ _ _ _
 72
    65
 73
     2
 40
2.0
 49
2.0
 74
     0
 49
-1.0
 74
     0
  0
LTYPE
  5
1C25
330
15F6
100
AcDbSymbolTableRecord
100
AcDbLinetypeTableRecord
  2
ACDINTGB
 70
     0
  3
__ . . __ . .
 72
    65
 73
     6
 40
9.0
 49
4.0
 74
     0
 49
-1.0
 74
     0
 49
1.0
 74
     0
 49
-1.0
 74
     0
 49
1.0
 74
     0
 49
-1.0
 74
     0
  0
LTYPE
  5
1C26
330
15F6
100
AcDbSymbolTableRecord
100
AcDbLinetypeTableRecord
  2
ACDINTGL
 70
     0
  3
_ _ _ _ _
 72
    65
 73
     2
 40
3.0
 49
2.0
 74
     0
 49
-1.0
 74
     0
  0
ENDTAB
  0
TABLE
  2
LAYER
  5
15F3
330
0
100
AcDbSymbolTable
 70
    16
  0
LAYER
  5
15FF
330
15F3
100
AcDbSymbolTableRecord
100
AcDbLayerTableRecord
  2
0
 70
     0
 62
     7
  6
CONTINUOUS
370
    -3
390
1B96
  0
LAYER
  5
1619
330
15F3
100
AcDbSymbolTableRecord
100
AcDbLayerTableRecord
  2
3A
 70
     0
 62
     6
  6
GEN3A
370
    -3
390
1B96
  0
LAYER
  5
161A
330
15F3
100
AcDbSymbolTableRecord
100
AcDbLayerTableRecord
  2
4
 70
     0
 62
     3
  6
CONTINUOUS
370
    -3
390
1B96
  0
LAYER
  5
161C
330
15F3
100
AcDbSymbolTableRecord
100
AcDbLayerTableRecord
  2
5
 70
     0
 62
     3
  6
CONTINUOUS
370
    -3
390
1B96
  0
LAYER
  5
161D
330
15F3
100
AcDbSymbolTableRecord
100
AcDbLayerTableRecord
  2
6
 70
     0
 62
     2
  6
CONTINUOUS
370
    -3
390
1B96
  0
LAYER
  5
161F
330
15F3
100
AcDbSymbolTableRecord
100
AcDbLayerTableRecord
  2
8
 70
     0
 62
     1
  6
CONTINUOUS
370
    -3
390
1B96
  0
LAYER
  5
1620
330
15F3
100
AcDbSymbolTableRecord
100
AcDbLayerTableRecord
  2
PUNKTE
 70
     0
 62
     1
  6
CONTINUOUS
370
    -3
390
1B96
  0
LAYER
  5
1621
330
15F3
100
AcDbSymbolTableRecord
100
AcDbLayerTableRecord
  2
SCHRAFFUR_RAND
 70
     0
 62
    36
  6
CONTINUOUS
370
    -3
390
1B96
  0
LAYER
  5
165C
330
15F3
100
AcDbSymbolTableRecord
100
AcDbLayerTableRecord
  2
DEFPOINTS
 70
     0
 62
     7
  6
CONTINUOUS
290
     0
370
    -3
390
1B96
  0
LAYER
  5
1660
330
15F3
100
AcDbSymbolTableRecord
100
AcDbLayerTableRecord
  2
RAHM2
 70
     0
 62
     1
  6
CONTINUOUS
370
    -3
390
1B96
  0
LAYER
  5
1661
330
15F3
100
AcDbSymbolTableRecord
100
AcDbLayerTableRecord
  2
RAHM3
 70
     0
 62
     2
  6
CONTINUOUS
370
    -3
390
1B96
  0
LAYER
  5
1C68
330
15F3
100
AcDbSymbolTableRecord
100
AcDbLayerTableRecord
  2
AM_5
 70
     0
 62
     3
  6
CONTINUOUS
370
    25
390
1B96
1001
AcAecLayerStandard
1000

1000

  0
LAYER
  5
1CA2
330
15F3
100
AcDbSymbolTableRecord
100
AcDbLayerTableRecord
  2
BEMASS
 70
     0
 62
     3
  6
CONTINUOUS
370
    -3
390
1B96
  0
LAYER
  5
1CA3
330
15F3
100
AcDbSymbolTableRecord
100
AcDbLayerTableRecord
  2
Kontur
 70
     0
 62
     7
  6
CONTINUOUS
370
    -3
390
1B96
  0
LAYER
  5
1CA4
330
15F3
100
AcDbSymbolTableRecord
100
AcDbLayerTableRecord
  2
AM_7
 70
     0
 62
     4
  6
AM_DIN_G_W050
370
    25
390
1B96
1001
AcAecLayerStandard
1000

1000

  0
LAYER
  5
1CA5
330
15F3
100
AcDbSymbolTableRecord
100
AcDbLayerTableRecord
  2
AM_8
 70
     0
 62
     1
  6
CONTINUOUS
370
    25
390
1B96
1001
AcAecLayerStandard
1000

1000

  0
ENDTAB
  0
TABLE
  2
STYLE
  5
15F4
330
0
100
AcDbSymbolTable
 70
     4
  0
STYLE
  5
1600
330
15F4
100
AcDbSymbolTableRecord
100
AcDbTextStyleTableRecord
  2
STANDARD
 70
     0
 40
0.0
 41
1.0
 50
0.0
 71
     0
 42
17.5
  3
ISOCP.SHX
  4

  0
STYLE
  5
1C0F
330
15F4
100
AcDbSymbolTableRecord
100
AcDbTextStyleTableRecord
  2

 70
     1
 40
0.0
 41
1.0
 50
0.0
 71
     0
 42
17.5
  3
genltshp.shx
  4

  0
STYLE
  5
1C16
330
15F4
100
AcDbSymbolTableRecord
100
AcDbTextStyleTableRecord
  2
ACDINTS
 70
     0
 40
1.0
 41
1.0
 50
0.0
 71
     0
 42
17.5
  3
isocp.shx
  4

  0
STYLE
  5
1C23
330
15F4
100
AcDbSymbolTableRecord
100
AcDbTextStyleTableRecord
  2
ACDINGDT
 70
     0
 40
0.0
 41
1.0
 50
0.0
 71
     0
 42
17.5
  3
AMGDT
  4

  0
ENDTAB
  0
TABLE
  2
VIEW
  5
15F7
330
0
100
AcDbSymbolTable
 70
     6
  0
VIEW
  5
1696
330
15F7
100
AcDbSymbolTableRecord
100
AcDbViewTableRecord
  2
GEN1
 70
     0
 40
525.0
 10
402.9481129999999
 20
787.5
 41
805.8962259999999
 11
0.0
 21
0.0
 31
1.0
 12
0.0
 22
0.0
 32
0.0
 42
50.0
 43
0.0
 44
0.0
 50
0.0
 71
     0
281
     0
 72
     0
  0
VIEW
  5
1697
330
15F7
100
AcDbSymbolTableRecord
100
AcDbViewTableRecord
  2
GEN2
 70
     0
 40
525.0
 10
647.0518869999999
 20
787.5
 41
805.8962259999999
 11
0.0
 21
0.0
 31
1.0
 12
0.0
 22
0.0
 32
0.0
 42
50.0
 43
0.0
 44
0.0
 50
0.0
 71
     0
281
     0
 72
     0
  0
VIEW
  5
1698
330
15F7
100
AcDbSymbolTableRecord
100
AcDbViewTableRecord
  2
GEN3
 70
     0
 40
525.0
 10
402.9481129999999
 20
262.5
 41
805.8962259999999
 11
0.0
 21
0.0
 31
1.0
 12
0.0
 22
0.0
 32
0.0
 42
50.0
 43
0.0
 44
0.0
 50
0.0
 71
     0
281
     0
 72
     0
  0
VIEW
  5
1699
330
15F7
100
AcDbSymbolTableRecord
100
AcDbViewTableRecord
  2
GEN4
 70
     0
 40
525.0
 10
647.0518869999999
 20
262.5
 41
805.8962259999999
 11
0.0
 21
0.0
 31
1.0
 12
0.0
 22
0.0
 32
0.0
 42
50.0
 43
0.0
 44
0.0
 50
0.0
 71
     0
281
     0
 72
     0
  0
VIEW
  5
169A
330
15F7
100
AcDbSymbolTableRecord
100
AcDbViewTableRecord
  2
GEN5
 70
     0
 40
525.0
 10
525.0
 20
525.0
 41
805.8962259999999
 11
0.0
 21
0.0
 31
1.0
 12
0.0
 22
0.0
 32
0.0
 42
50.0
 43
0.0
 44
0.0
 50
0.0
 71
     0
281
     0
 72
     0
  0
VIEW
  5
169B
330
15F7
100
AcDbSymbolTableRecord
100
AcDbViewTableRecord
  2
GEN6
 70
     0
 40
1049.9895
 10
525.0
 20
525.0
 41
1611.776335
 11
0.0
 21
0.0
 31
1.0
 12
0.0
 22
0.0
 32
0.0
 42
50.0
 43
0.0
 44
0.0
 50
0.0
 71
     0
281
     0
 72
     0
  0
ENDTAB
  0
TABLE
  2
UCS
  5
15F8
330
0
100
AcDbSymbolTable
 70
     0
  0
ENDTAB
  0
TABLE
  2
APPID
  5
15FA
330
0
100
AcDbSymbolTable
 70
    41
  0
APPID
  5
1601
330
15FA
100
AcDbSymbolTableRecord
100
AcDbRegAppTableRecord
  2
ACAD
 70
     0
  0
APPID
  5
163A
330
15FA
100
AcDbSymbolTableRecord
100
AcDbRegAppTableRecord
  2
GENIUS_GENOENT_13
 70
     0
  0
APPID
  5
163B
330
15FA
100
AcDbSymbolTableRecord
100
AcDbRegAppTableRecord
  2
GENIUS_GENCFG_13
 70
     0
1001
GENIUS_DUMCFG0_13
1000
DUM
1001
GENIUS_GENCFG0_13
1000
GEN@INFO_POS@XLATE
1001
GENIUS_GENCFG1_13
1000
GEN@INFO_POS
1001
GENIUS_GENCFG2_13
1000
GEN@LAYER@DEFS
1001
GENIUS_GENCFG3_13
1000
GEN@LAYER@ENTSORT
1001
GENIUS_GENCFG4_13
1000
GEN
1001
GENIUS_GEVCFG0_13
1000
GEV
  0
APPID
  5
163C
330
15FA
100
AcDbSymbolTableRecord
100
AcDbRegAppTableRecord
  2
GENIUS_DUMCFG0_13
 70
     0
1001
GENIUS_GENCFG_13
1071
936003705
1000
163C
1000
DUM
1070
     0
  0
APPID
  5
163D
330
15FA
100
AcDbSymbolTableRecord
100
AcDbRegAppTableRecord
  2
GENIUS_GENCFG0_13
 70
     0
1001
GENIUS_GENCFG_13
1071
1023340746
1000
163D
1000
GEN@INFO_POS@XLATE
1070
     7
1000
GenCfgObject
1000
GenCfgShort
1000
GenCfgReal
1000
GenCfgBool
1000
GenCfgString
1000
GenCfgDim
1000
GenCfgAttrInf
1000
INFOPOINTS
1070
     0
1002
{
1000
GENINF14
1070
     0
1002
{
1000
2GENINF
1070
     4
1000
2
1002
{
1002
}
1000
5GENINF
1070
     4
1000
5
1002
{
1002
}
1000
7GENINF
1070
     4
1000
7
1002
{
1002
}
1000
9GENINF
1070
     4
1000
9
1002
{
1002
}
1000
11GENINF
1070
     4
1000
11
1002
{
1002
}
1000
14GENINF
1070
     4
1000
14
1002
{
1002
}
1002
}
1000
GENINF13
1070
     0
1002
{
1000
2GENINF
1070
     4
1000
2
1002
{
1002
}
1000
3GENINF
1070
     4
1000
3
1002
{
1002
}
1000
4GENINF
1070
     4
1000
4
1002
{
1002
}
1000
5GENINF
1070
     4
1000
5
1002
{
1002
}
1000
6GENINF
1070
     4
1000
6
1002
{
1002
}
1000
7GENINF
1070
     4
1000
7
1002
{
1002
}
1000
8GENINF
1070
     4
1000
8
1002
{
1002
}
1000
9GENINF
1070
     4
1000
9
1002
{
1002
}
1000
10GENINF
1070
     4
1000
10
1002
{
1002
}
1000
11GENINF
1070
     4
1000
11
1002
{
1002
}
1000
12GENINF
1070
     4
1000
12
1002
{
1002
}
1000
13GENINF
1070
     4
1000
13
1002
{
1002
}
1000
14GENINF
1070
     4
1000
14
1002
{
1002
}
1000
15GENINF
1070
     4
1000
15
1002
{
1002
}
1000
16GENINF
1070
     4
1000
16
1002
{
1002
}
1000
17GENINF
1070
     4
1000
17
1002
{
1002
}
1000
18GENINF
1070
     4
1000
18
1002
{
1002
}
1000
19GENINF
1070
     4
1000
19
1002
{
1002
}
1000
20GENINF
1070
     4
1000
20
1002
{
1002
}
1000
21GENINF
1070
     4
1000
21
1002
{
1002
}
1000
22GENINF
1070
     4
1000
22
1002
{
1002
}
1000
23GENINF
1070
     4
1000
23
1002
{
1002
}
1000
24GENINF
1070
     4
1000
24
1002
{
1002
}
1000
0GENINF
1070
     4
1000
0
1002
{
1002
}
1002
}
1000
GENINFO
1070
     0
1002
{
1000
3GENINF
1070
     4
1000
3
1002
{
1002
}
1000
4GENINF
1070
     4
1000
4
1002
{
1002
}
1000
5GENINF
1070
     4
1000
5
1002
{
1002
}
1000
6GENINF
1070
     4
1000
6
1002
{
1002
}
1000
7GENINF
1070
     4
1000
7
1002
{
1002
}
1000
8GENINF
1070
     4
1000
8
1002
{
1002
}
1000
9GENINF
1070
     4
1000
9
1002
{
1002
}
1000
10GENINF
1070
     4
1000
10
1002
{
1002
}
1000
11GENINF
1070
     4
1000
11
1002
{
1002
}
1000
12GENINF
1070
     4
1000
12
1002
{
1002
}
1000
13GENINF
1070
     4
1000
13
1002
{
1002
}
1000
14GENINF
1070
     4
1000
14
1002
{
1002
}
1000
15GENINF
1070
     4
1000
15
1002
{
1002
}
1000
16GENINF
1070
     4
1000
16
1002
{
1002
}
1000
17GENINF
1070
     4
1000
17
1002
{
1002
}
1000
18GENINF
1070
     4
1000
18
1002
{
1002
}
1000
19GENINF
1070
     4
1000
19
1002
{
1002
}
1000
20GENINF
1070
     4
1000
20
1002
{
1002
}
1000
21GENINF
1070
     4
1000
21
1002
{
1002
}
1000
22GENINF
1070
     4
1000
22
1002
{
1002
}
1002
}
1000
DININFO
1070
     0
1002
{
1000
ST-NAME1
1070
     4
1000
5
1002
{
1002
}
1000
ST-NAME2
1070
     4
1000
6
1002
{
1002
}
1000
ST-NORM1
1070
     4
1000
7
1002
{
1002
}
1000
ST-NORM2
1070
     4
1000
8
1002
{
1002
}
1000
ST-MAT1
1070
     4
1000
9
1002
{
1002
}
1000
ST-MAT2
1070
     4
1000
10
1002
{
1002
}
1002
}
1002
}
1000
POS_NUMBERS
1070
     0
1002
{
1000
GENPOS14
1070
     0
1002
{
1000
1GENPOS
1070
     4
1000
1
1002
{
1002
}
1000
2GENPOS
1070
     4
1000
2
1002
{
1002
}
1000
5GENPOS
1070
     4
1000
5
1002
{
1002
}
1000
7GENPOS
1070
     4
1000
7
1002
{
1002
}
1000
9GENPOS
1070
     4
1000
9
1002
{
1002
}
1000
11GENPOS
1070
     4
1000
11
1002
{
1002
}
1000
14GENPOS
1070
     4
1000
14
1002
{
1002
}
1002
}
1000
GENPOS13
1070
     0
1002
{
1000
1GENPOS
1070
     4
1000
1
1002
{
1002
}
1000
2GENPOS
1070
     4
1000
2
1002
{
1002
}
1000
3GENPOS
1070
     4
1000
3
1002
{
1002
}
1000
4GENPOS
1070
     4
1000
4
1002
{
1002
}
1000
5GENPOS
1070
     4
1000
5
1002
{
1002
}
1000
6GENPOS
1070
     4
1000
6
1002
{
1002
}
1000
7GENPOS
1070
     4
1000
7
1002
{
1002
}
1000
8GENPOS
1070
     4
1000
8
1002
{
1002
}
1000
9GENPOS
1070
     4
1000
9
1002
{
1002
}
1000
10GENPOS
1070
     4
1000
10
1002
{
1002
}
1000
11GENPOS
1070
     4
1000
11
1002
{
1002
}
1000
12GENPOS
1070
     4
1000
12
1002
{
1002
}
1000
13GENPOS
1070
     4
1000
13
1002
{
1002
}
1000
14GENPOS
1070
     4
1000
14
1002
{
1002
}
1000
15GENPOS
1070
     4
1000
15
1002
{
1002
}
1000
16GENPOS
1070
     4
1000
16
1002
{
1002
}
1000
17GENPOS
1070
     4
1000
17
1002
{
1002
}
1000
18GENPOS
1070
     4
1000
18
1002
{
1002
}
1000
19GENPOS
1070
     4
1000
19
1002
{
1002
}
1000
20GENPOS
1070
     4
1000
20
1002
{
1002
}
1000
21GENPOS
1070
     4
1000
21
1002
{
1002
}
1000
22GENPOS
1070
     4
1000
22
1002
{
1002
}
1000
23GENPOS
1070
     4
1000
23
1002
{
1002
}
1000
24GENPOS
1070
     4
1000
24
1002
{
1002
}
1000
0GENPOS
1070
     4
1000
0
1002
{
1002
}
1002
}
1000
GENPOS
1070
     0
1002
{
1000
1GENPOS
1070
     4
1000
1
1002
{
1002
}
1000
2GENPOS
1070
     4
1000
2
1002
{
1002
}
1000
3GENPOS
1070
     4
1000
3
1002
{
1002
}
1000
4GENPOS
1070
     4
1000
4
1002
{
1002
}
1000
5GENPOS
1070
     4
1000
5
1002
{
1002
}
1000
6GENPOS
1070
     4
1000
6
1002
{
1002
}
1000
7GENPOS
1070
     4
1000
7
1002
{
1002
}
1000
8GENPOS
1070
     4
1000
8
1002
{
1002
}
1000
9GENPOS
1070
     4
1000
9
1002
{
1002
}
1000
10GENPOS
1070
     4
1000
10
1002
{
1002
}
1000
11GENPOS
1070
     4
1000
11
1002
{
1002
}
1000
12GENPOS
1070
     4
1000
12
1002
{
1002
}
1000
13GENPOS
1070
     4
1000
13
1002
{
1002
}
1000
14GENPOS
1070
     4
1000
14
1002
{
1002
}
1000
15GENPOS
1070
     4
1000
15
1002
{
1002
}
1000
16GENPOS
1070
     4
1000
16
1002
{
1002
}
1000
17GENPOS
1070
     4
1000
17
1002
{
1002
}
1000
18GENPOS
1070
     4
1000
18
1002
{
1002
}
1000
19GENPOS
1070
     4
1000
19
1002
{
1002
}
1000
20GENPOS
1070
     4
1000
20
1002
{
1002
}
1000
21GENPOS
1070
     4
1000
21
1002
{
1002
}
1000
22GENPOS
1070
     4
1000
22
1002
{
1002
}
1000
23GENPOS
1070
     4
1000
23
1002
{
1002
}
1002
}
1000
DIN985
1070
     0
1002
{
1000
POSITION
1070
     4
1000
1
1002
{
1002
}
1000
MENGE
1070
     4
1000
2
1002
{
1002
}
1000
BLATT
1070
     4
1000
3
1002
{
1002
}
1000
BENENN
1070
     4
1000
5
1002
{
1002
}
1000
BENENN2
1070
     4
1000
6
1002
{
1002
}
1000
NORM
1070
     4
1000
7
1002
{
1002
}
1000
NORM2
1070
     4
1000
8
1002
{
1002
}
1000
WERKSTOFF
1070
     4
1000
9
1002
{
1002
}
1000
WERKSTOFF2
1070
     4
1000
10
1002
{
1002
}
1002
}
1000
DIN986
1070
     0
1002
{
1000
POSITION
1070
     4
1000
1
1002
{
1002
}
1000
MENGE
1070
     4
1000
2
1002
{
1002
}
1000
BLATT
1070
     4
1000
3
1002
{
1002
}
1000
BENENN
1070
     4
1000
5
1002
{
1002
}
1000
BENENN2
1070
     4
1000
6
1002
{
1002
}
1000
NORM
1070
     4
1000
7
1002
{
1002
}
1000
NORM2
1070
     4
1000
8
1002
{
1002
}
1000
WERKSTOFF
1070
     4
1000
9
1002
{
1002
}
1000
WERKSTOFF2
1070
     4
1000
10
1002
{
1002
}
1002
}
1000
DIN987
1070
     0
1002
{
1000
POSITION
1070
     4
1000
1
1002
{
1002
}
1000
MENGE
1070
     4
1000
2
1002
{
1002
}
1000
BLATT
1070
     4
1000
3
1002
{
1002
}
1000
BENENN
1070
     4
1000
5
1002
{
1002
}
1000
BENENN2
1070
     4
1000
6
1002
{
1002
}
1000
NORM
1070
     4
1000
7
1002
{
1002
}
1000
NORM2
1070
     4
1000
8
1002
{
1002
}
1000
WERKSTOFF
1070
     4
1000
9
1002
{
1002
}
1000
WERKSTOFF2
1070
     4
1000
10
1002
{
1002
}
1002
}
1002
}
  0
APPID
  5
163E
330
15FA
100
AcDbSymbolTableRecord
100
AcDbRegAppTableRecord
  2
GENIUS_GENCFG1_13
 70
     0
1001
GENIUS_GENCFG_13
1071
1023340746
1000
163E
1000
GEN@INFO_POS
1070
     7
1000
GenCfgObject
1000
GenCfgShort
1000
GenCfgReal
1000
GenCfgBool
1000
GenCfgString
1000
GenCfgDim
1000
GenCfgAttrInf
1000
DescrText
1070
     4
1000
5, ,6, ,7, ,8
1002
{
1002
}
1000
DescrText2
1070
     4
1000
26
1002
{
1002
}
1000
VisibleAttr1
1070
     4
1000
1
1002
{
1002
}
1000
VisibleAttr2
1070
     4
1000
26
1002
{
1002
}
1000
UpdateBlock
1070
     3
1070
     1
1002
{
1002
}
1000
Attrib
1070
     0
1002
{
1000
0
1070
     6
1002
{
1000
Prompt
1070
     4
1000
(genmsg gendwg 103)
1002
{
1002
}
1000
Value
1070
     4
1000

1002
{
1002
}
1000
EditFlag
1070
     1
1070
     0
1002
{
1002
}
1000
PosInDDATTE
1070
     1
1070
    27
1002
{
1002
}
1000
FieldLen
1070
     1
1070
    -1
1002
{
1002
}
1002
}
1000
1
1070
     6
1002
{
1000
Prompt
1070
     4
1000
(genmsg gendwg 31)
1002
{
1002
}
1000
Value
1070
     4
1000
1
1002
{
1002
}
1000
EditFlag
1070
     1
1070
     1
1002
{
1002
}
1000
PosInDDATTE
1070
     1
1070
     1
1002
{
1002
}
1000
FieldLen
1070
     1
1070
    -1
1002
{
1002
}
1002
}
1000
2
1070
     6
1002
{
1000
Prompt
1070
     4
1000
(genmsg gendwg 32)
1002
{
1002
}
1000
Value
1070
     4
1000
1
1002
{
1002
}
1000
EditFlag
1070
     1
1070
     1
1002
{
1002
}
1000
PosInDDATTE
1070
     1
1070
     2
1002
{
1002
}
1000
FieldLen
1070
     1
1070
    -1
1002
{
1002
}
1002
}
1000
3
1070
     6
1002
{
1000
Prompt
1070
     4
1000
(genmsg gendwg 33)
1002
{
1002
}
1000
Value
1070
     4
1000

1002
{
1002
}
1000
EditFlag
1070
     1
1070
     1
1002
{
1002
}
1000
PosInDDATTE
1070
     1
1070
     3
1002
{
1002
}
1000
FieldLen
1070
     1
1070
    -1
1002
{
1002
}
1002
}
1000
4
1070
     6
1002
{
1000
Prompt
1070
     4
1000
(genmsg gendwg 34)
1002
{
1002
}
1000
Value
1070
     4
1000

1002
{
1002
}
1000
EditFlag
1070
     1
1070
     1
1002
{
1002
}
1000
PosInDDATTE
1070
     1
1070
     4
1002
{
1002
}
1000
FieldLen
1070
     1
1070
    -1
1002
{
1002
}
1002
}
1000
5
1070
     6
1002
{
1000
Prompt
1070
     4
1000
(genmsg gendwg 35)
1002
{
1002
}
1000
Value
1070
     4
1000

1002
{
1002
}
1000
EditFlag
1070
     1
1070
     1
1002
{
1002
}
1000
PosInDDATTE
1070
     1
1070
     5
1002
{
1002
}
1000
FieldLen
1070
     1
1070
    -1
1002
{
1002
}
1002
}
1000
6
1070
     6
1002
{
1000
Prompt
1070
     4
1000
(genmsg gendwg 36)
1002
{
1002
}
1000
Value
1070
     4
1000

1002
{
1002
}
1000
EditFlag
1070
     1
1070
     1
1002
{
1002
}
1000
PosInDDATTE
1070
     1
1070
     6
1002
{
1002
}
1000
FieldLen
1070
     1
1070
    -1
1002
{
1002
}
1002
}
1000
7
1070
     6
1002
{
1000
Prompt
1070
     4
1000
(genmsg gendwg 37)
1002
{
1002
}
1000
Value
1070
     4
1000

1002
{
1002
}
1000
EditFlag
1070
     1
1070
     1
1002
{
1002
}
1000
PosInDDATTE
1070
     1
1070
     7
1002
{
1002
}
1000
FieldLen
1070
     1
1070
    -1
1002
{
1002
}
1002
}
1000
8
1070
     6
1002
{
1000
Prompt
1070
     4
1000
(genmsg gendwg 38)
1002
{
1002
}
1000
Value
1070
     4
1000

1002
{
1002
}
1000
EditFlag
1070
     1
1070
     1
1002
{
1002
}
1000
PosInDDATTE
1070
     1
1070
     8
1002
{
1002
}
1000
FieldLen
1070
     1
1070
    -1
1002
{
1002
}
1002
}
1000
9
1070
     6
1002
{
1000
Prompt
1070
     4
1000
(genmsg gendwg 39)
1002
{
1002
}
1000
Value
1070
     4
1000

1002
{
1002
}
1000
EditFlag
1070
     1
1070
     1
1002
{
1002
}
1000
PosInDDATTE
1070
     1
1070
     9
1002
{
1002
}
1000
FieldLen
1070
     1
1070
    -1
1002
{
1002
}
1002
}
1000
10
1070
     6
1002
{
1000
Prompt
1070
     4
1000
(genmsg gendwg 40)
1002
{
1002
}
1000
Value
1070
     4
1000

1002
{
1002
}
1000
EditFlag
1070
     1
1070
     1
1002
{
1002
}
1000
PosInDDATTE
1070
     1
1070
    10
1002
{
1002
}
1000
FieldLen
1070
     1
1070
    -1
1002
{
1002
}
1002
}
1000
11
1070
     6
1002
{
1000
Prompt
1070
     4
1000
(genmsg gendwg 41)
1002
{
1002
}
1000
Value
1070
     4
1000

1002
{
1002
}
1000
EditFlag
1070
     1
1070
     1
1002
{
1002
}
1000
PosInDDATTE
1070
     1
1070
    11
1002
{
1002
}
1000
FieldLen
1070
     1
1070
    -1
1002
{
1002
}
1002
}
1000
12
1070
     6
1002
{
1000
Prompt
1070
     4
1000
(genmsg gendwg 42)
1002
{
1002
}
1000
Value
1070
     4
1000

1002
{
1002
}
1000
EditFlag
1070
     1
1070
     1
1002
{
1002
}
1000
PosInDDATTE
1070
     1
1070
    12
1002
{
1002
}
1000
FieldLen
1070
     1
1070
    -1
1002
{
1002
}
1002
}
1000
13
1070
     6
1002
{
1000
Prompt
1070
     4
1000
(genmsg gendwg 43)
1002
{
1002
}
1000
Value
1070
     4
1000

1002
{
1002
}
1000
EditFlag
1070
     1
1070
     1
1002
{
1002
}
1000
PosInDDATTE
1070
     1
1070
    13
1002
{
1002
}
1000
FieldLen
1070
     1
1070
    -1
1002
{
1002
}
1002
}
1000
14
1070
     6
1002
{
1000
Prompt
1070
     4
1000
(genmsg gendwg 44)
1002
{
1002
}
1000
Value
1070
     4
1000

1002
{
1002
}
1000
EditFlag
1070
     1
1070
     1
1002
{
1002
}
1000
PosInDDATTE
1070
     1
1070
    14
1002
{
1002
}
1000
FieldLen
1070
     1
1070
    -1
1002
{
1002
}
1002
}
1000
15
1070
     6
1002
{
1000
Prompt
1070
     4
1000
(genmsg gendwg 45)
1002
{
1002
}
1000
Value
1070
     4
1000

1002
{
1002
}
1000
EditFlag
1070
     1
1070
     1
1002
{
1002
}
1000
PosInDDATTE
1070
     1
1070
    15
1002
{
1002
}
1000
FieldLen
1070
     1
1070
    -1
1002
{
1002
}
1002
}
1000
16
1070
     6
1002
{
1000
Prompt
1070
     4
1000
(genmsg gendwg 46)
1002
{
1002
}
1000
Value
1070
     4
1000

1002
{
1002
}
1000
EditFlag
1070
     1
1070
     1
1002
{
1002
}
1000
PosInDDATTE
1070
     1
1070
    16
1002
{
1002
}
1000
FieldLen
1070
     1
1070
    -1
1002
{
1002
}
1002
}
1000
17
1070
     6
1002
{
1000
Prompt
1070
     4
1000
(genmsg gendwg 47)
1002
{
1002
}
1000
Value
1070
     4
1000

1002
{
1002
}
1000
EditFlag
1070
     1
1070
     1
1002
{
1002
}
1000
PosInDDATTE
1070
     1
1070
    17
1002
{
1002
}
1000
FieldLen
1070
     1
1070
    -1
1002
{
1002
}
1002
}
1000
18
1070
     6
1002
{
1000
Prompt
1070
     4
1000
(genmsg gendwg 48)
1002
{
1002
}
1000
Value
1070
     4
1000

1002
{
1002
}
1000
EditFlag
1070
     1
1070
     1
1002
{
1002
}
1000
PosInDDATTE
1070
     1
1070
    18
1002
{
1002
}
1000
FieldLen
1070
     1
1070
    -1
1002
{
1002
}
1002
}
1000
19
1070
     6
1002
{
1000
Prompt
1070
     4
1000
(genmsg gendwg 99)
1002
{
1002
}
1000
Value
1070
     4
1000

1002
{
1002
}
1000
EditFlag
1070
     1
1070
     1
1002
{
1002
}
1000
PosInDDATTE
1070
     1
1070
    19
1002
{
1002
}
1000
FieldLen
1070
     1
1070
    -1
1002
{
1002
}
1002
}
1000
20
1070
     6
1002
{
1000
Prompt
1070
     4
1000
(genmsg gendwg 100)
1002
{
1002
}
1000
Value
1070
     4
1000

1002
{
1002
}
1000
EditFlag
1070
     1
1070
     1
1002
{
1002
}
1000
PosInDDATTE
1070
     1
1070
    20
1002
{
1002
}
1000
FieldLen
1070
     1
1070
    -1
1002
{
1002
}
1002
}
1000
21
1070
     6
1002
{
1000
Prompt
1070
     4
1000
(genmsg gendwg 101)
1002
{
1002
}
1000
Value
1070
     4
1000

1002
{
1002
}
1000
EditFlag
1070
     1
1070
     1
1002
{
1002
}
1000
PosInDDATTE
1070
     1
1070
    21
1002
{
1002
}
1000
FieldLen
1070
     1
1070
    -1
1002
{
1002
}
1002
}
1000
22
1070
     6
1002
{
1000
Prompt
1070
     4
1000
(genmsg gendwg 102)
1002
{
1002
}
1000
Value
1070
     4
1000

1002
{
1002
}
1000
EditFlag
1070
     1
1070
     1
1002
{
1002
}
1000
PosInDDATTE
1070
     1
1070
    22
1002
{
1002
}
1000
FieldLen
1070
     1
1070
    -1
1002
{
1002
}
1002
}
1000
23
1070
     6
1002
{
1000
Prompt
1070
     4
1000
(genmsg gendwg 30)
1002
{
1002
}
1000
Value
1070
     4
1000

1002
{
1002
}
1000
EditFlag
1070
     1
1070
     1
1002
{
1002
}
1000
PosInDDATTE
1070
     1
1070
    23
1002
{
1002
}
1000
FieldLen
1070
     1
1070
    -1
1002
{
1002
}
1002
}
1000
24
1070
     6
1002
{
1000
Prompt
1070
     4
1000
(genmsg gendwg 104)
1002
{
1002
}
1000
Value
1070
     4
1000

1002
{
1002
}
1000
EditFlag
1070
     1
1070
     1
1002
{
1002
}
1000
PosInDDATTE
1070
     1
1070
    24
1002
{
1002
}
1000
FieldLen
1070
     1
1070
    -1
1002
{
1002
}
1002
}
1000
25
1070
     6
1002
{
1000
Prompt
1070
     4
1000
(genmsg gendwg 105)
1002
{
1002
}
1000
Value
1070
     4
1000

1002
{
1002
}
1000
EditFlag
1070
     1
1070
     1
1002
{
1002
}
1000
PosInDDATTE
1070
     1
1070
    25
1002
{
1002
}
1000
FieldLen
1070
     1
1070
    -1
1002
{
1002
}
1002
}
1000
26
1070
     6
1002
{
1000
Prompt
1070
     4
1000
(genmsg gendwg 106)
1002
{
1002
}
1000
Value
1070
     4
1000

1002
{
1002
}
1000
EditFlag
1070
     1
1070
     1
1002
{
1002
}
1000
PosInDDATTE
1070
     1
1070
    26
1002
{
1002
}
1000
FieldLen
1070
     1
1070
    -1
1002
{
1002
}
1002
}
1000
27
1070
     6
1002
{
1000
Prompt
1070
     4
1000
(genmsg gendwg 109)
1002
{
1002
}
1000
Value
1070
     4
1000

1002
{
1002
}
1000
EditFlag
1070
     1
1070
     2
1002
{
1002
}
1000
PosInDDATTE
1070
     1
1070
    27
1002
{
1002
}
1000
FieldLen
1070
     1
1070
    -1
1002
{
1002
}
1002
}
1002
}
1000
Xlate
1070
     0
1002
{
1000
>
1002
}
  0
APPID
  5
163F
330
15FA
100
AcDbSymbolTableRecord
100
AcDbRegAppTableRecord
  2
GENIUS_GENCFG2_13
 70
     0
1001
GENIUS_GENCFG_13
1071
1023340746
1000
163F
1000
GEN@LAYER@DEFS
1070
     9
1000
GenCfgObject
1000
GenCfgShort
1000
GenCfgReal
1000
GenCfgBool
1000
GenCfgString
1000
GenCfgDim
1000
GenCfgAttrInf
1000
GenCfgLaySection
1000
GenCfgLayer
1000
Basic
1070
     0
1002
{
1000
0
1070
     8
1000
0
1002
{
1000
Color
1070
     1
1070
     7
1002
{
1002
}
1000
LType
1070
     4
1000
CONTINUOUS
1002
{
1002
}
1000
Base
1070
     3
1070
     0
1002
{
1002
}
1002
}
1000
1
1070
     8
1000
1
1002
{
1000
Color
1070
     1
1070
    14
1002
{
1002
}
1000
LType
1070
     4
1000
CONTINUOUS
1002
{
1002
}
1000
Base
1070
     3
1070
     0
1002
{
1002
}
1002
}
1000
2
1070
     8
1000
2
1002
{
1000
Color
1070
     1
1070
     5
1002
{
1002
}
1000
LType
1070
     4
1000
CONTINUOUS
1002
{
1002
}
1000
Base
1070
     3
1070
     0
1002
{
1002
}
1002
}
1000
3
1070
     8
1000
3
1002
{
1000
Color
1070
     1
1070
     6
1002
{
1002
}
1000
LType
1070
     4
1000
GEN3
1002
{
1002
}
1000
Base
1070
     3
1070
     0
1002
{
1002
}
1002
}
1000
4
1070
     8
1000
4
1002
{
1000
Color
1070
     1
1070
     3
1002
{
1002
}
1000
LType
1070
     4
1000
CONTINUOUS
1002
{
1002
}
1000
Base
1070
     3
1070
     0
1002
{
1002
}
1002
}
1000
5
1070
     8
1000
5
1002
{
1000
Color
1070
     1
1070
     3
1002
{
1002
}
1000
LType
1070
     4
1000
CONTINUOUS
1002
{
1002
}
1000
Base
1070
     3
1070
     0
1002
{
1002
}
1002
}
1000
6
1070
     8
1000
6
1002
{
1000
Color
1070
     1
1070
     2
1002
{
1002
}
1000
LType
1070
     4
1000
CONTINUOUS
1002
{
1002
}
1000
Base
1070
     3
1070
     0
1002
{
1002
}
1002
}
1000
7
1070
     8
1000
7
1002
{
1000
Color
1070
     1
1070
     4
1002
{
1002
}
1000
LType
1070
     4
1000
GEN7
1002
{
1002
}
1000
Base
1070
     3
1070
     0
1002
{
1002
}
1002
}
1000
8
1070
     8
1000
8
1002
{
1000
Color
1070
     1
1070
     1
1002
{
1002
}
1000
LType
1070
     4
1000
CONTINUOUS
1002
{
1002
}
1000
Base
1070
     3
1070
     0
1002
{
1002
}
1002
}
1000
3A
1070
     8
1000
3A
1002
{
1000
Color
1070
     1
1070
     6
1002
{
1002
}
1000
LType
1070
     4
1000
GEN3A
1002
{
1002
}
1000
Base
1070
     3
1070
     0
1002
{
1002
}
1002
}
1000
7A
1070
     8
1000
7A
1002
{
1000
Color
1070
     1
1070
     4
1002
{
1002
}
1000
LType
1070
     4
1000
GEN7A
1002
{
1002
}
1000
Base
1070
     3
1070
     0
1002
{
1002
}
1002
}
1000
2A
1070
     8
1000
2A
1002
{
1000
Color
1070
     1
1070
     7
1002
{
1002
}
1000
LType
1070
     4
1000
GEN7
1002
{
1002
}
1000
Base
1070
     3
1070
     0
1002
{
1002
}
1002
}
1000
4A
1070
     8
1000
4A
1002
{
1000
Color
1070
     1
1070
     3
1002
{
1002
}
1000
LType
1070
     4
1000
GEN4A
1002
{
1002
}
1000
Base
1070
     3
1070
     0
1002
{
1002
}
1002
}
1000
9
1070
     8
1000
9
1002
{
1000
Color
1070
     1
1070
   253
1002
{
1002
}
1000
LType
1070
     4
1000
CONTINUOUS
1002
{
1002
}
1000
Base
1070
     3
1070
     0
1002
{
1002
}
1002
}
1000
IP
1070
     8
1000
IP
1002
{
1000
Color
1070
     1
1070
     7
1002
{
1002
}
1000
LType
1070
     4
1000
CONTINUOUS
1002
{
1002
}
1000
Base
1070
     3
1070
     0
1002
{
1002
}
1002
}
1002
}
1000
Standard
1070
     0
1002
{
1000
0N
1070
     8
1000
0N
1002
{
1000
Color
1070
     1
1070
     7
1002
{
1002
}
1000
LType
1070
     4
1000
CONTINUOUS
1002
{
1002
}
1000
Base
1070
     3
1070
     0
1002
{
1002
}
1002
}
1000
1N
1070
     8
1000
1N
1002
{
1000
Color
1070
     1
1070
    14
1002
{
1002
}
1000
LType
1070
     4
1000
CONTINUOUS
1002
{
1002
}
1000
Base
1070
     3
1070
     0
1002
{
1002
}
1002
}
1000
2N
1070
     8
1000
2N
1002
{
1000
Color
1070
     1
1070
     5
1002
{
1002
}
1000
LType
1070
     4
1000
CONTINUOUS
1002
{
1002
}
1000
Base
1070
     3
1070
     0
1002
{
1002
}
1002
}
1000
3N
1070
     8
1000
3N
1002
{
1000
Color
1070
     1
1070
     6
1002
{
1002
}
1000
LType
1070
     4
1000
GEN3
1002
{
1002
}
1000
Base
1070
     3
1070
     0
1002
{
1002
}
1002
}
1000
4N
1070
     8
1000
4N
1002
{
1000
Color
1070
     1
1070
     3
1002
{
1002
}
1000
LType
1070
     4
1000
CONTINUOUS
1002
{
1002
}
1000
Base
1070
     3
1070
     0
1002
{
1002
}
1002
}
1000
5N
1070
     8
1000
5N
1002
{
1000
Color
1070
     1
1070
     3
1002
{
1002
}
1000
LType
1070
     4
1000
CONTINUOUS
1002
{
1002
}
1000
Base
1070
     3
1070
     0
1002
{
1002
}
1002
}
1000
6N
1070
     8
1000
6N
1002
{
1000
Color
1070
     1
1070
     2
1002
{
1002
}
1000
LType
1070
     4
1000
CONTINUOUS
1002
{
1002
}
1000
Base
1070
     3
1070
     0
1002
{
1002
}
1002
}
1000
7N
1070
     8
1000
7N
1002
{
1000
Color
1070
     1
1070
     4
1002
{
1002
}
1000
LType
1070
     4
1000
GEN7
1002
{
1002
}
1000
Base
1070
     3
1070
     0
1002
{
1002
}
1002
}
1000
8N
1070
     8
1000
8N
1002
{
1000
Color
1070
     1
1070
     1
1002
{
1002
}
1000
LType
1070
     4
1000
CONTINUOUS
1002
{
1002
}
1000
Base
1070
     3
1070
     0
1002
{
1002
}
1002
}
1000
3AN
1070
     8
1000
3AN
1002
{
1000
Color
1070
     1
1070
     6
1002
{
1002
}
1000
LType
1070
     4
1000
GEN3A
1002
{
1002
}
1000
Base
1070
     3
1070
     0
1002
{
1002
}
1002
}
1000
7AN
1070
     8
1000
7AN
1002
{
1000
Color
1070
     1
1070
     4
1002
{
1002
}
1000
LType
1070
     4
1000
GEN7A
1002
{
1002
}
1000
Base
1070
     3
1070
     0
1002
{
1002
}
1002
}
1000
2AN
1070
     8
1000
2AN
1002
{
1000
Color
1070
     1
1070
     7
1002
{
1002
}
1000
LType
1070
     4
1000
GEN7
1002
{
1002
}
1000
Base
1070
     3
1070
     0
1002
{
1002
}
1002
}
1000
4AN
1070
     8
1000
4AN
1002
{
1000
Color
1070
     1
1070
     3
1002
{
1002
}
1000
LType
1070
     4
1000
GEN4A
1002
{
1002
}
1000
Base
1070
     3
1070
     0
1002
{
1002
}
1002
}
1000
9N
1070
     8
1000
9N
1002
{
1000
Color
1070
     1
1070
   253
1002
{
1002
}
1000
LType
1070
     4
1000
CONTINUOUS
1002
{
1002
}
1000
Base
1070
     3
1070
     0
1002
{
1002
}
1002
}
1000
IPN
1070
     8
1000
IPN
1002
{
1000
Color
1070
     1
1070
     7
1002
{
1002
}
1000
LType
1070
     4
1000
CONTINUOUS
1002
{
1002
}
1000
Base
1070
     3
1070
     0
1002
{
1002
}
1002
}
1002
}
1000
Extra
1070
     0
1002
{
1000
Klin
1070
     8
1000
KLIN
1002
{
1000
Color
1070
     1
1070
     1
1002
{
1002
}
1000
LType
1070
     4
1000
CONTINUOUS
1002
{
1002
}
1000
Base
1070
     3
1070
     1
1002
{
1002
}
1002
}
1000
Info
1070
     8
1000
INFO
1002
{
1000
Color
1070
     1
1070
     4
1002
{
1002
}
1000
LType
1070
     4
1000
CONTINUOUS
1002
{
1002
}
1000
Base
1070
     3
1070
     1
1002
{
1002
}
1002
}
1000
Rahm2
1070
     8
1000
RAHM2
1002
{
1000
Color
1070
     1
1070
     1
1002
{
1002
}
1000
LType
1070
     4
1000
CONTINUOUS
1002
{
1002
}
1000
Base
1070
     3
1070
     1
1002
{
1002
}
1002
}
1000
Rahm3
1070
     8
1000
RAHM3
1002
{
1000
Color
1070
     1
1070
     2
1002
{
1002
}
1000
LType
1070
     4
1000
CONTINUOUS
1002
{
1002
}
1000
Base
1070
     3
1070
     1
1002
{
1002
}
1002
}
1000
Rahm5
1070
     8
1000
RAHM5
1002
{
1000
Color
1070
     1
1070
     7
1002
{
1002
}
1000
LType
1070
     4
1000
CONTINUOUS
1002
{
1002
}
1000
Base
1070
     3
1070
     1
1002
{
1002
}
1002
}
1000
View
1070
     8
1000
VIEW
1002
{
1000
Color
1070
     1
1070
     1
1002
{
1002
}
1000
LType
1070
     4
1000
CONTINUOUS
1002
{
1002
}
1000
Base
1070
     3
1070
     1
1002
{
1002
}
1002
}
1000
Behind
1070
     8
1000
BEHIND
1002
{
1000
Color
1070
     1
1070
   253
1002
{
1002
}
1000
LType
1070
     4
1000
CONTINUOUS
1002
{
1002
}
1000
Base
1070
     3
1070
     1
1002
{
1002
}
1002
}
1002
}
  0
APPID
  5
1640
330
15FA
100
AcDbSymbolTableRecord
100
AcDbRegAppTableRecord
  2
GENIUS_GENCFG3_13
 70
     0
1001
GENIUS_GENCFG_13
1071
1023340746
1000
1640
1000
GEN@LAYER@ENTSORT
1070
    10
1000
GenCfgObject
1000
GenCfgShort
1000
GenCfgReal
1000
GenCfgBool
1000
GenCfgString
1000
GenCfgDim
1000
GenCfgAttrInf
1000
GenCfgLaySection
1000
GenCfgLayer
1000
GenCfgEntSort
1000
ADDL
1070
     9
1000
5
1002
{
1000
Class
1070
     4
1000
SYM
1002
{
1002
}
1000
Color
1070
     1
1070
     1
1002
{
1002
}
1000
LType
1070
     4
1000
BYLAYER
1002
{
1002
}
1002
}
1000
ALTR
1070
     9
1000
4
1002
{
1000
Class
1070
     4
1000

1002
{
1002
}
1000
Color
1070
     1
1070
     7
1002
{
1002
}
1000
LType
1070
     4
1000
GEN3A
1002
{
1002
}
1002
}
1000
BELI
1070
     9
1000
4
1002
{
1000
Class
1070
     4
1000

1002
{
1002
}
1000
Color
1070
     1
1070
   256
1002
{
1002
}
1000
LType
1070
     4
1000
BYLAYER
1002
{
1002
}
1002
}
1000
BHNV
1070
     9
1000
9
1002
{
1000
Class
1070
     4
1000
INV
1002
{
1002
}
1000
Color
1070
     1
1070
   256
1002
{
1002
}
1000
LType
1070
     4
1000
BYLAYER
1002
{
1002
}
1002
}
1000
BHNVS
1070
     9
1000
BEHIND
1002
{
1000
Class
1070
     4
1000
INV
1002
{
1002
}
1000
Color
1070
     1
1070
   256
1002
{
1002
}
1000
LType
1070
     4
1000
BYLAYER
1002
{
1002
}
1002
}
1000
BLID
1070
     9
1000
4A
1002
{
1000
Class
1070
     4
1000

1002
{
1002
}
1000
Color
1070
     1
1070
   256
1002
{
1002
}
1000
LType
1070
     4
1000
BYLAYER
1002
{
1002
}
1002
}
1000
BOAP
1070
     9
1000
4A
1002
{
1000
Class
1070
     4
1000

1002
{
1002
}
1000
Color
1070
     1
1070
   256
1002
{
1002
}
1000
LType
1070
     4
1000
BYLAYER
1002
{
1002
}
1002
}
1000
BOR2
1070
     9
1000
RAHM2
1002
{
1000
Class
1070
     4
1000
SPZ,SYM
1002
{
1002
}
1000
Color
1070
     1
1070
   256
1002
{
1002
}
1000
LType
1070
     4
1000
BYLAYER
1002
{
1002
}
1002
}
1000
BOR3
1070
     9
1000
RAHM3
1002
{
1000
Class
1070
     4
1000
SPZ,SYM
1002
{
1002
}
1000
Color
1070
     1
1070
   256
1002
{
1002
}
1000
LType
1070
     4
1000
BYLAYER
1002
{
1002
}
1002
}
1000
BOR5
1070
     9
1000
RAHM5
1002
{
1000
Class
1070
     4
1000
SPZ,SYM
1002
{
1002
}
1000
Color
1070
     1
1070
   256
1002
{
1002
}
1000
LType
1070
     4
1000
BYLAYER
1002
{
1002
}
1002
}
1000
BOR7
1070
     9
1000
RAHM5
1002
{
1000
Class
1070
     4
1000
SPZ,SYM
1002
{
1002
}
1000
Color
1070
     1
1070
     7
1002
{
1002
}
1000
LType
1070
     4
1000
CONTINUOUS
1002
{
1002
}
1002
}
1000
BPAP
1070
     9
1000
4A
1002
{
1000
Class
1070
     4
1000

1002
{
1002
}
1000
Color
1070
     1
1070
   256
1002
{
1002
}
1000
LType
1070
     4
1000
BYLAYER
1002
{
1002
}
1002
}
1000
BPEX
1070
     9
1000
4A
1002
{
1000
Class
1070
     4
1000

1002
{
1002
}
1000
Color
1070
     1
1070
   256
1002
{
1002
}
1000
LType
1070
     4
1000
BYLAYER
1002
{
1002
}
1002
}
1000
BTDI
1070
     9
1000
5
1002
{
1000
Class
1070
     4
1000
DIM,SYM
1002
{
1002
}
1000
Color
1070
     1
1070
   256
1002
{
1002
}
1000
LType
1070
     4
1000
BYLAYER
1002
{
1002
}
1002
}
1000
CAL2
1070
     9
1000
4
1002
{
1000
Class
1070
     4
1000
SYM
1002
{
1002
}
1000
Color
1070
     1
1070
   256
1002
{
1002
}
1000
LType
1070
     4
1000
BYLAYER
1002
{
1002
}
1002
}
1000
CAL3
1070
     9
1000
4
1002
{
1000
Class
1070
     4
1000
SYM
1002
{
1002
}
1000
Color
1070
     1
1070
     2
1002
{
1002
}
1000
LType
1070
     4
1000
BYLAYER
1002
{
1002
}
1002
}
1000
CAL5
1070
     9
1000
4
1002
{
1000
Class
1070
     4
1000
SYM
1002
{
1002
}
1000
Color
1070
     1
1070
     7
1002
{
1002
}
1000
LType
1070
     4
1000
BYLAYER
1002
{
1002
}
1002
}
1000
CAL7
1070
     9
1000
4
1002
{
1000
Class
1070
     4
1000
SYM
1002
{
1002
}
1000
Color
1070
     1
1070
     5
1002
{
1002
}
1000
LType
1070
     4
1000
BYLAYER
1002
{
1002
}
1002
}
1000
CENN
1070
     9
1000
7A
1002
{
1000
Class
1070
     4
1000
CEN
1002
{
1002
}
1000
Color
1070
     1
1070
   256
1002
{
1002
}
1000
LType
1070
     4
1000
BYLAYER
1002
{
1002
}
1002
}
1000
CENW
1070
     9
1000
7
1002
{
1000
Class
1070
     4
1000
CEN
1002
{
1002
}
1000
Color
1070
     1
1070
   256
1002
{
1002
}
1000
LType
1070
     4
1000
BYLAYER
1002
{
1002
}
1002
}
1000
CLIN
1070
     9
1000
KLIN
1002
{
1000
Class
1070
     4
1000
SPZ
1002
{
1002
}
1000
Color
1070
     1
1070
   256
1002
{
1002
}
1000
LType
1070
     4
1000
BYLAYER
1002
{
1002
}
1002
}
1000
CON1
1070
     9
1000
0
1002
{
1000
Class
1070
     4
1000
CON,BGD
1002
{
1002
}
1000
Color
1070
     1
1070
   256
1002
{
1002
}
1000
LType
1070
     4
1000
BYLAYER
1002
{
1002
}
1002
}
1000
CON2
1070
     9
1000
1
1002
{
1000
Class
1070
     4
1000
CON,BGD
1002
{
1002
}
1000
Color
1070
     1
1070
   256
1002
{
1002
}
1000
LType
1070
     4
1000
BYLAYER
1002
{
1002
}
1002
}
1000
CON3
1070
     9
1000
2
1002
{
1000
Class
1070
     4
1000
CON,BGD
1002
{
1002
}
1000
Color
1070
     1
1070
   256
1002
{
1002
}
1000
LType
1070
     4
1000
BYLAYER
1002
{
1002
}
1002
}
1000
CON4
1070
     9
1000
2
1002
{
1000
Class
1070
     4
1000
CON,BGD
1002
{
1002
}
1000
Color
1070
     1
1070
   256
1002
{
1002
}
1000
LType
1070
     4
1000
BYLAYER
1002
{
1002
}
1002
}
1000
DERP
1070
     9
1000
4
1002
{
1000
Class
1070
     4
1000

1002
{
1002
}
1000
Color
1070
     1
1070
   256
1002
{
1002
}
1000
LType
1070
     4
1000
BYLAYER
1002
{
1002
}
1002
}
1000
DETA
1070
     9
1000
4
1002
{
1000
Class
1070
     4
1000

1002
{
1002
}
1000
Color
1070
     1
1070
   256
1002
{
1002
}
1000
LType
1070
     4
1000
BYLAYER
1002
{
1002
}
1002
}
1000
DIAG
1070
     9
1000
5
1002
{
1000
Class
1070
     4
1000
SYM
1002
{
1002
}
1000
Color
1070
     1
1070
   256
1002
{
1002
}
1000
LType
1070
     4
1000
BYLAYER
1002
{
1002
}
1002
}
1000
DILI
1070
     9
1000
5
1002
{
1000
Class
1070
     4
1000
DIM,SYM
1002
{
1002
}
1000
Color
1070
     1
1070
   256
1002
{
1002
}
1000
LType
1070
     4
1000
BYLAYER
1002
{
1002
}
1002
}
1000
DITO2
1070
     9
1000
5
1002
{
1000
Class
1070
     4
1000
DIM,SYM
1002
{
1002
}
1000
Color
1070
     1
1070
     3
1002
{
1002
}
1000
LType
1070
     4
1000
BYLAYER
1002
{
1002
}
1002
}
1000
DITO3
1070
     9
1000
5
1002
{
1000
Class
1070
     4
1000
DIM,SYM
1002
{
1002
}
1000
Color
1070
     1
1070
     2
1002
{
1002
}
1000
LType
1070
     4
1000
BYLAYER
1002
{
1002
}
1002
}
1000
DITX
1070
     9
1000
5
1002
{
1000
Class
1070
     4
1000
DIM,SYM
1002
{
1002
}
1000
Color
1070
     1
1070
     2
1002
{
1002
}
1000
LType
1070
     4
1000
CONTINUOUS
1002
{
1002
}
1002
}
1000
DIXL
1070
     9
1000
5
1002
{
1000
Class
1070
     4
1000
DIM,SYM
1002
{
1002
}
1000
Color
1070
     1
1070
   256
1002
{
1002
}
1000
LType
1070
     4
1000
BYLAYER
1002
{
1002
}
1002
}
1000
EXMP
1070
     9
1000
4A
1002
{
1000
Class
1070
     4
1000

1002
{
1002
}
1000
Color
1070
     1
1070
   256
1002
{
1002
}
1000
LType
1070
     4
1000
BYLAYER
1002
{
1002
}
1002
}
1000
FEMN
1070
     9
1000
8
1002
{
1000
Class
1070
     4
1000

1002
{
1002
}
1000
Color
1070
     1
1070
   256
1002
{
1002
}
1000
LType
1070
     4
1000
BYLAYER
1002
{
1002
}
1002
}
1000
FEMPN
1070
     9
1000
8
1002
{
1000
Class
1070
     4
1000
SYM
1002
{
1002
}
1000
Color
1070
     1
1070
     3
1002
{
1002
}
1000
LType
1070
     4
1000
BYLAYER
1002
{
1002
}
1002
}
1000
FEMSP
1070
     9
1000
4A
1002
{
1000
Class
1070
     4
1000

1002
{
1002
}
1000
Color
1070
     1
1070
   256
1002
{
1002
}
1000
LType
1070
     4
1000
CONTINUOUS
1002
{
1002
}
1002
}
1000
FEMST
1070
     9
1000
4A
1002
{
1000
Class
1070
     4
1000
SYM
1002
{
1002
}
1000
Color
1070
     1
1070
     3
1002
{
1002
}
1000
LType
1070
     4
1000
BYLAYER
1002
{
1002
}
1002
}
1000
FEMVN
1070
     9
1000
2
1002
{
1000
Class
1070
     4
1000
CON
1002
{
1002
}
1000
Color
1070
     1
1070
   256
1002
{
1002
}
1000
LType
1070
     4
1000
BYLAYER
1002
{
1002
}
1002
}
1000
FEMVT
1070
     9
1000
2
1002
{
1000
Class
1070
     4
1000
SYM
1002
{
1002
}
1000
Color
1070
     1
1070
     3
1002
{
1002
}
1000
LType
1070
     4
1000
BYLAYER
1002
{
1002
}
1002
}
1000
FLAT
1070
     9
1000
0
1002
{
1000
Class
1070
     4
1000

1002
{
1002
}
1000
Color
1070
     1
1070
   256
1002
{
1002
}
1000
LType
1070
     4
1000
BYLAYER
1002
{
1002
}
1002
}
1000
FRAR
1070
     9
1000
4A
1002
{
1000
Class
1070
     4
1000

1002
{
1002
}
1000
Color
1070
     1
1070
   256
1002
{
1002
}
1000
LType
1070
     4
1000
BYLAYER
1002
{
1002
}
1002
}
1000
GRLI
1070
     9
1000
5
1002
{
1000
Class
1070
     4
1000
SYM
1002
{
1002
}
1000
Color
1070
     1
1070
   256
1002
{
1002
}
1000
LType
1070
     4
1000
BYLAYER
1002
{
1002
}
1002
}
1000
GVLI
1070
     9
1000
4A
1002
{
1000
Class
1070
     4
1000

1002
{
1002
}
1000
Color
1070
     1
1070
   256
1002
{
1002
}
1000
LType
1070
     4
1000
BYLAYER
1002
{
1002
}
1002
}
1000
HATC
1070
     9
1000
8
1002
{
1000
Class
1070
     4
1000
HTC,BGD
1002
{
1002
}
1000
Color
1070
     1
1070
   256
1002
{
1002
}
1000
LType
1070
     4
1000
BYLAYER
1002
{
1002
}
1002
}
1000
HIDN
1070
     9
1000
3A
1002
{
1000
Class
1070
     4
1000
HID,BGD
1002
{
1002
}
1000
Color
1070
     1
1070
   256
1002
{
1002
}
1000
LType
1070
     4
1000
BYLAYER
1002
{
1002
}
1002
}
1000
HIDW
1070
     9
1000
3
1002
{
1000
Class
1070
     4
1000
HID,BGD
1002
{
1002
}
1000
Color
1070
     1
1070
   256
1002
{
1002
}
1000
LType
1070
     4
1000
BYLAYER
1002
{
1002
}
1002
}
1000
HLIN
1070
     9
1000
4
1002
{
1000
Class
1070
     4
1000
BGD
1002
{
1002
}
1000
Color
1070
     1
1070
   256
1002
{
1002
}
1000
LType
1070
     4
1000
BYLAYER
1002
{
1002
}
1002
}
1000
HOCN
1070
     9
1000
7A
1002
{
1000
Class
1070
     4
1000
CEN
1002
{
1002
}
1000
Color
1070
     1
1070
   256
1002
{
1002
}
1000
LType
1070
     4
1000
BYLAYER
1002
{
1002
}
1002
}
1000
HOCW
1070
     9
1000
7
1002
{
1000
Class
1070
     4
1000
CEN
1002
{
1002
}
1000
Color
1070
     1
1070
   256
1002
{
1002
}
1000
LType
1070
     4
1000
BYLAYER
1002
{
1002
}
1002
}
1000
INFO
1070
     9
1000
INFO
1002
{
1000
Class
1070
     4
1000
SPZ,SYM
1002
{
1002
}
1000
Color
1070
     1
1070
   256
1002
{
1002
}
1000
LType
1070
     4
1000
BYLAYER
1002
{
1002
}
1002
}
1000
LADI
1070
     9
1000
4
1002
{
1000
Class
1070
     4
1000
BGD
1002
{
1002
}
1000
Color
1070
     1
1070
   256
1002
{
1002
}
1000
LType
1070
     4
1000
BYLAYER
1002
{
1002
}
1002
}
1000
LEAD
1070
     9
1000
5
1002
{
1000
Class
1070
     4
1000
SYM
1002
{
1002
}
1000
Color
1070
     1
1070
   256
1002
{
1002
}
1000
LType
1070
     4
1000
BYLAYER
1002
{
1002
}
1002
}
1000
N_ADDL
1070
     9
1000
5N
1002
{
1000
Class
1070
     4
1000
SYM
1002
{
1002
}
1000
Color
1070
     1
1070
     1
1002
{
1002
}
1000
LType
1070
     4
1000
BYLAYER
1002
{
1002
}
1002
}
1000
N_BHNV
1070
     9
1000
9N
1002
{
1000
Class
1070
     4
1000
INV
1002
{
1002
}
1000
Color
1070
     1
1070
   256
1002
{
1002
}
1000
LType
1070
     4
1000
BYLAYER
1002
{
1002
}
1002
}
1000
N_CON1
1070
     9
1000
0N
1002
{
1000
Class
1070
     4
1000
CON,BGD
1002
{
1002
}
1000
Color
1070
     1
1070
   256
1002
{
1002
}
1000
LType
1070
     4
1000
BYLAYER
1002
{
1002
}
1002
}
1000
N_CON2
1070
     9
1000
1N
1002
{
1000
Class
1070
     4
1000
CON,BGD
1002
{
1002
}
1000
Color
1070
     1
1070
   256
1002
{
1002
}
1000
LType
1070
     4
1000
BYLAYER
1002
{
1002
}
1002
}
1000
N_CON3
1070
     9
1000
2N
1002
{
1000
Class
1070
     4
1000
CON,BGD
1002
{
1002
}
1000
Color
1070
     1
1070
   256
1002
{
1002
}
1000
LType
1070
     4
1000
BYLAYER
1002
{
1002
}
1002
}
1000
N_CON4
1070
     9
1000
2N
1002
{
1000
Class
1070
     4
1000
CON,BGD
1002
{
1002
}
1000
Color
1070
     1
1070
   256
1002
{
1002
}
1000
LType
1070
     4
1000
BYLAYER
1002
{
1002
}
1002
}
1000
N_CENN
1070
     9
1000
7AN
1002
{
1000
Class
1070
     4
1000
CEN
1002
{
1002
}
1000
Color
1070
     1
1070
   256
1002
{
1002
}
1000
LType
1070
     4
1000
BYLAYER
1002
{
1002
}
1002
}
1000
N_CENW
1070
     9
1000
7N
1002
{
1000
Class
1070
     4
1000
CEN
1002
{
1002
}
1000
Color
1070
     1
1070
   256
1002
{
1002
}
1000
LType
1070
     4
1000
BYLAYER
1002
{
1002
}
1002
}
1000
N_DILI
1070
     9
1000
5N
1002
{
1000
Class
1070
     4
1000
DIM,SYM
1002
{
1002
}
1000
Color
1070
     1
1070
   256
1002
{
1002
}
1000
LType
1070
     4
1000
BYLAYER
1002
{
1002
}
1002
}
1000
N_DITX
1070
     9
1000
5N
1002
{
1000
Class
1070
     4
1000
DIM,SYM
1002
{
1002
}
1000
Color
1070
     1
1070
     2
1002
{
1002
}
1000
LType
1070
     4
1000
CONTINUOUS
1002
{
1002
}
1002
}
1000
N_DIXL
1070
     9
1000
5N
1002
{
1000
Class
1070
     4
1000
DIM,SYM
1002
{
1002
}
1000
Color
1070
     1
1070
   256
1002
{
1002
}
1000
LType
1070
     4
1000
BYLAYER
1002
{
1002
}
1002
}
1000
N_HATC
1070
     9
1000
8N
1002
{
1000
Class
1070
     4
1000
HTC,BGD
1002
{
1002
}
1000
Color
1070
     1
1070
   256
1002
{
1002
}
1000
LType
1070
     4
1000
BYLAYER
1002
{
1002
}
1002
}
1000
N_HIDN
1070
     9
1000
3AN
1002
{
1000
Class
1070
     4
1000
HID,BGD
1002
{
1002
}
1000
Color
1070
     1
1070
   256
1002
{
1002
}
1000
LType
1070
     4
1000
BYLAYER
1002
{
1002
}
1002
}
1000
N_HIDW
1070
     9
1000
3N
1002
{
1000
Class
1070
     4
1000
HID,BGD
1002
{
1002
}
1000
Color
1070
     1
1070
   256
1002
{
1002
}
1000
LType
1070
     4
1000
BYLAYER
1002
{
1002
}
1002
}
1000
N_NGIP
1070
     9
1000
IPN
1002
{
1000
Class
1070
     4
1000

1002
{
1002
}
1000
Color
1070
     1
1070
   256
1002
{
1002
}
1000
LType
1070
     4
1000
BYLAYER
1002
{
1002
}
1002
}
1000
N_PHAN
1070
     9
1000
4AN
1002
{
1000
Class
1070
     4
1000

1002
{
1002
}
1000
Color
1070
     1
1070
   256
1002
{
1002
}
1000
LType
1070
     4
1000
BYLAYER
1002
{
1002
}
1002
}
1000
N_POSL
1070
     9
1000
5N
1002
{
1000
Class
1070
     4
1000
SYM
1002
{
1002
}
1000
Color
1070
     1
1070
   256
1002
{
1002
}
1000
LType
1070
     4
1000
BYLAYER
1002
{
1002
}
1002
}
1000
N_TCON
1070
     9
1000
0N
1002
{
1000
Class
1070
     4
1000
CON,BGD
1002
{
1002
}
1000
Color
1070
     1
1070
   256
1002
{
1002
}
1000
LType
1070
     4
1000
BYLAYER
1002
{
1002
}
1002
}
1000
N_THLI
1070
     9
1000
4N
1002
{
1000
Class
1070
     4
1000
BGD
1002
{
1002
}
1000
Color
1070
     1
1070
   256
1002
{
1002
}
1000
LType
1070
     4
1000
BYLAYER
1002
{
1002
}
1002
}
1000
N_TLEN
1070
     9
1000
0N
1002
{
1000
Class
1070
     4
1000
CON,BGD
1002
{
1002
}
1000
Color
1070
     1
1070
   256
1002
{
1002
}
1000
LType
1070
     4
1000
BYLAYER
1002
{
1002
}
1002
}
1000
N_TXT3
1070
     9
1000
6N
1002
{
1000
Class
1070
     4
1000
SYM
1002
{
1002
}
1000
Color
1070
     1
1070
   256
1002
{
1002
}
1000
LType
1070
     4
1000
BYLAYER
1002
{
1002
}
1002
}
1000
N_VPLI
1070
     9
1000
2AN
1002
{
1000
Class
1070
     4
1000

1002
{
1002
}
1000
Color
1070
     1
1070
   256
1002
{
1002
}
1000
LType
1070
     4
1000
BYLAYER
1002
{
1002
}
1002
}
1000
NGIP
1070
     9
1000
IP
1002
{
1000
Class
1070
     4
1000

1002
{
1002
}
1000
Color
1070
     1
1070
   256
1002
{
1002
}
1000
LType
1070
     4
1000
BYLAYER
1002
{
1002
}
1002
}
1000
PAL2
1070
     9
1000
RAHM2
1002
{
1000
Class
1070
     4
1000
SPZ,SYM
1002
{
1002
}
1000
Color
1070
     1
1070
   256
1002
{
1002
}
1000
LType
1070
     4
1000
BYLAYER
1002
{
1002
}
1002
}
1000
PAL3
1070
     9
1000
RAHM3
1002
{
1000
Class
1070
     4
1000
SPZ,SYM
1002
{
1002
}
1000
Color
1070
     1
1070
   256
1002
{
1002
}
1000
LType
1070
     4
1000
BYLAYER
1002
{
1002
}
1002
}
1000
PAL5
1070
     9
1000
RAHM5
1002
{
1000
Class
1070
     4
1000
SPZ,SYM
1002
{
1002
}
1000
Color
1070
     1
1070
   256
1002
{
1002
}
1000
LType
1070
     4
1000
BYLAYER
1002
{
1002
}
1002
}
1000
PAL7
1070
     9
1000
RAHM5
1002
{
1000
Class
1070
     4
1000
SPZ,SYM
1002
{
1002
}
1000
Color
1070
     1
1070
     7
1002
{
1002
}
1000
LType
1070
     4
1000
CONTINUOUS
1002
{
1002
}
1002
}
1000
PHAN
1070
     9
1000
4A
1002
{
1000
Class
1070
     4
1000

1002
{
1002
}
1000
Color
1070
     1
1070
   256
1002
{
1002
}
1000
LType
1070
     4
1000
BYLAYER
1002
{
1002
}
1002
}
1000
POSL
1070
     9
1000
5
1002
{
1000
Class
1070
     4
1000
SYM
1002
{
1002
}
1000
Color
1070
     1
1070
   256
1002
{
1002
}
1000
LType
1070
     4
1000
BYLAYER
1002
{
1002
}
1002
}
1000
POSN
1070
     9
1000
6
1002
{
1000
Class
1070
     4
1000
SYM
1002
{
1002
}
1000
Color
1070
     1
1070
     7
1002
{
1002
}
1000
LType
1070
     4
1000
BYLAYER
1002
{
1002
}
1002
}
1000
POSREF
1070
     9
1000
6
1002
{
1000
Class
1070
     4
1000
SYM
1002
{
1002
}
1000
Color
1070
     1
1070
     5
1002
{
1002
}
1000
LType
1070
     4
1000
BYLAYER
1002
{
1002
}
1002
}
1000
POSX
1070
     9
1000
5
1002
{
1000
Class
1070
     4
1000
SYM
1002
{
1002
}
1000
Color
1070
     1
1070
     2
1002
{
1002
}
1000
LType
1070
     4
1000
CONTINUOUS
1002
{
1002
}
1002
}
1000
PSEC
1070
     9
1000
4A
1002
{
1000
Class
1070
     4
1000

1002
{
1002
}
1000
Color
1070
     1
1070
   256
1002
{
1002
}
1000
LType
1070
     4
1000
BYLAYER
1002
{
1002
}
1002
}
1000
RCGN
1070
     9
1000
7A
1002
{
1000
Class
1070
     4
1000
CEN
1002
{
1002
}
1000
Color
1070
     1
1070
   256
1002
{
1002
}
1000
LType
1070
     4
1000
BYLAYER
1002
{
1002
}
1002
}
1000
RCGW
1070
     9
1000
7
1002
{
1000
Class
1070
     4
1000
CEN
1002
{
1002
}
1000
Color
1070
     1
1070
   256
1002
{
1002
}
1000
LType
1070
     4
1000
BYLAYER
1002
{
1002
}
1002
}
1000
RFDI
1070
     9
1000
4
1002
{
1000
Class
1070
     4
1000
BGD
1002
{
1002
}
1000
Color
1070
     1
1070
   256
1002
{
1002
}
1000
LType
1070
     4
1000
BYLAYER
1002
{
1002
}
1002
}
1000
RQTR
1070
     9
1000
4
1002
{
1000
Class
1070
     4
1000

1002
{
1002
}
1000
Color
1070
     1
1070
     7
1002
{
1002
}
1000
LType
1070
     4
1000
GEN7A
1002
{
1002
}
1002
}
1000
RSBO
1070
     9
1000
4
1002
{
1000
Class
1070
     4
1000
BGD
1002
{
1002
}
1000
Color
1070
     1
1070
   256
1002
{
1002
}
1000
LType
1070
     4
1000
BYLAYER
1002
{
1002
}
1002
}
1000
SBRK
1070
     9
1000
4
1002
{
1000
Class
1070
     4
1000
BGD
1002
{
1002
}
1000
Color
1070
     1
1070
   256
1002
{
1002
}
1000
LType
1070
     4
1000
BYLAYER
1002
{
1002
}
1002
}
1000
SCEN
1070
     9
1000
7
1002
{
1000
Class
1070
     4
1000

1002
{
1002
}
1000
Color
1070
     1
1070
   256
1002
{
1002
}
1000
LType
1070
     4
1000
CONTINUOUS
1002
{
1002
}
1002
}
1000
SECT
1070
     9
1000
4
1002
{
1000
Class
1070
     4
1000
BGD
1002
{
1002
}
1000
Color
1070
     1
1070
   256
1002
{
1002
}
1000
LType
1070
     4
1000
BYLAYER
1002
{
1002
}
1002
}
1000
SELN
1070
     9
1000
7A
1002
{
1000
Class
1070
     4
1000

1002
{
1002
}
1000
Color
1070
     1
1070
   256
1002
{
1002
}
1000
LType
1070
     4
1000
BYLAYER
1002
{
1002
}
1002
}
1000
SELW
1070
     9
1000
7
1002
{
1000
Class
1070
     4
1000

1002
{
1002
}
1000
Color
1070
     1
1070
   256
1002
{
1002
}
1000
LType
1070
     4
1000
BYLAYER
1002
{
1002
}
1002
}
1000
SSYS
1070
     9
1000
0
1002
{
1000
Class
1070
     4
1000

1002
{
1002
}
1000
Color
1070
     1
1070
   256
1002
{
1002
}
1000
LType
1070
     4
1000
BYLAYER
1002
{
1002
}
1002
}
1000
STLI
1070
     9
1000
4
1002
{
1000
Class
1070
     4
1000

1002
{
1002
}
1000
Color
1070
     1
1070
     7
1002
{
1002
}
1000
LType
1070
     4
1000
GEN3A
1002
{
1002
}
1002
}
1000
SYB1
1070
     9
1000
5
1002
{
1000
Class
1070
     4
1000
SYM
1002
{
1002
}
1000
Color
1070
     1
1070
   256
1002
{
1002
}
1000
LType
1070
     4
1000
BYLAYER
1002
{
1002
}
1002
}
1000
SYB2
1070
     9
1000
5
1002
{
1000
Class
1070
     4
1000
SYM
1002
{
1002
}
1000
Color
1070
     1
1070
   256
1002
{
1002
}
1000
LType
1070
     4
1000
BYLAYER
1002
{
1002
}
1002
}
1000
SYB3
1070
     9
1000
6
1002
{
1000
Class
1070
     4
1000
SYM
1002
{
1002
}
1000
Color
1070
     1
1070
   256
1002
{
1002
}
1000
LType
1070
     4
1000
CONTINUOUS
1002
{
1002
}
1002
}
1000
SYB5
1070
     9
1000
5
1002
{
1000
Class
1070
     4
1000
SYM
1002
{
1002
}
1000
Color
1070
     1
1070
     7
1002
{
1002
}
1000
LType
1070
     4
1000
BYLAYER
1002
{
1002
}
1002
}
1000
SYMN
1070
     9
1000
7A
1002
{
1000
Class
1070
     4
1000
CEN
1002
{
1002
}
1000
Color
1070
     1
1070
   256
1002
{
1002
}
1000
LType
1070
     4
1000
BYLAYER
1002
{
1002
}
1002
}
1000
SYMW
1070
     9
1000
7
1002
{
1000
Class
1070
     4
1000
CEN
1002
{
1002
}
1000
Color
1070
     1
1070
   256
1002
{
1002
}
1000
LType
1070
     4
1000
BYLAYER
1002
{
1002
}
1002
}
1000
TCON
1070
     9
1000
0
1002
{
1000
Class
1070
     4
1000
CON,BGD
1002
{
1002
}
1000
Color
1070
     1
1070
   256
1002
{
1002
}
1000
LType
1070
     4
1000
BYLAYER
1002
{
1002
}
1002
}
1000
THLI
1070
     9
1000
4
1002
{
1000
Class
1070
     4
1000
BGD
1002
{
1002
}
1000
Color
1070
     1
1070
   256
1002
{
1002
}
1000
LType
1070
     4
1000
BYLAYER
1002
{
1002
}
1002
}
1000
TIT2
1070
     9
1000
RAHM2
1002
{
1000
Class
1070
     4
1000
SPZ,SYM
1002
{
1002
}
1000
Color
1070
     1
1070
   256
1002
{
1002
}
1000
LType
1070
     4
1000
BYLAYER
1002
{
1002
}
1002
}
1000
TIT3
1070
     9
1000
RAHM3
1002
{
1000
Class
1070
     4
1000
SPZ,SYM
1002
{
1002
}
1000
Color
1070
     1
1070
   256
1002
{
1002
}
1000
LType
1070
     4
1000
BYLAYER
1002
{
1002
}
1002
}
1000
TIT5
1070
     9
1000
RAHM5
1002
{
1000
Class
1070
     4
1000
SPZ,SYM
1002
{
1002
}
1000
Color
1070
     1
1070
   256
1002
{
1002
}
1000
LType
1070
     4
1000
BYLAYER
1002
{
1002
}
1002
}
1000
TIT7
1070
     9
1000
RAHM5
1002
{
1000
Class
1070
     4
1000
SPZ,SYM
1002
{
1002
}
1000
Color
1070
     1
1070
     7
1002
{
1002
}
1000
LType
1070
     4
1000
CONTINUOUS
1002
{
1002
}
1002
}
1000
TLEN
1070
     9
1000
0
1002
{
1000
Class
1070
     4
1000
CON,BGD
1002
{
1002
}
1000
Color
1070
     1
1070
   256
1002
{
1002
}
1000
LType
1070
     4
1000
BYLAYER
1002
{
1002
}
1002
}
1000
TRKN
1070
     9
1000
7A
1002
{
1000
Class
1070
     4
1000

1002
{
1002
}
1000
Color
1070
     1
1070
   256
1002
{
1002
}
1000
LType
1070
     4
1000
BYLAYER
1002
{
1002
}
1002
}
1000
TRKW
1070
     9
1000
7
1002
{
1000
Class
1070
     4
1000

1002
{
1002
}
1000
Color
1070
     1
1070
   256
1002
{
1002
}
1000
LType
1070
     4
1000
BYLAYER
1002
{
1002
}
1002
}
1000
TRLI
1070
     9
1000
4
1002
{
1000
Class
1070
     4
1000
BGD
1002
{
1002
}
1000
Color
1070
     1
1070
   256
1002
{
1002
}
1000
LType
1070
     4
1000
BYLAYER
1002
{
1002
}
1002
}
1000
TXT1
1070
     9
1000
6
1002
{
1000
Class
1070
     4
1000
SYM
1002
{
1002
}
1000
Color
1070
     1
1070
     2
1002
{
1002
}
1000
LType
1070
     4
1000
BYLAYER
1002
{
1002
}
1002
}
1000
TXT2
1070
     9
1000
6
1002
{
1000
Class
1070
     4
1000
SYM
1002
{
1002
}
1000
Color
1070
     1
1070
     2
1002
{
1002
}
1000
LType
1070
     4
1000
BYLAYER
1002
{
1002
}
1002
}
1000
TXT3
1070
     9
1000
6
1002
{
1000
Class
1070
     4
1000
SYM
1002
{
1002
}
1000
Color
1070
     1
1070
   256
1002
{
1002
}
1000
LType
1070
     4
1000
BYLAYER
1002
{
1002
}
1002
}
1000
TXT5
1070
     9
1000
6
1002
{
1000
Class
1070
     4
1000
SYM
1002
{
1002
}
1000
Color
1070
     1
1070
     7
1002
{
1002
}
1000
LType
1070
     4
1000
BYLAYER
1002
{
1002
}
1002
}
1000
TXT7
1070
     9
1000
6
1002
{
1000
Class
1070
     4
1000
SYM
1002
{
1002
}
1000
Color
1070
     1
1070
     7
1002
{
1002
}
1000
LType
1070
     4
1000
BYLAYER
1002
{
1002
}
1002
}
1000
VIEW
1070
     9
1000
VIEW
1002
{
1000
Class
1070
     4
1000
SPZ
1002
{
1002
}
1000
Color
1070
     1
1070
   256
1002
{
1002
}
1000
LType
1070
     4
1000
BYLAYER
1002
{
1002
}
1002
}
1000
VPLI
1070
     9
1000
2A
1002
{
1000
Class
1070
     4
1000

1002
{
1002
}
1000
Color
1070
     1
1070
   256
1002
{
1002
}
1000
LType
1070
     4
1000
BYLAYER
1002
{
1002
}
1002
}
1000
ZIZA
1070
     9
1000
4
1002
{
1000
Class
1070
     4
1000
BGD
1002
{
1002
}
1000
Color
1070
     1
1070
   256
1002
{
1002
}
1000
LType
1070
     4
1000
GENZIGZAG
1002
{
1002
}
1002
}
  0
APPID
  5
1641
330
15FA
100
AcDbSymbolTableRecord
100
AcDbRegAppTableRecord
  2
GENIUS_GENCFG4_13
 70
     0
1001
GENIUS_GENCFG_13
1071
1023340754
1000
1641
1000
GEN
1070
     9
1000
GenCfgObject
1000
GenCfgShort
1000
GenCfgReal
1000
GenCfgBool
1000
GenCfgString
1000
GenCfgDim
1000
GenCfgLaySection
1000
GenCfgLType
1000
GenCfgFilter
1000
Balloon
1070
     0
1002
{
1000
GenIF
1070
     1
1070
     0
1002
{
1002
}
1000
GenPosInc
1070
     1
1070
     1
1002
{
1002
}
1000
GenPosBlk
1070
     1
1070
     8
1002
{
1002
}
1000
GenPosVar
1070
     1
1070
     0
1002
{
1002
}
1000
GenZiCir
1070
     2
1040
1.5
1002
{
1002
}
1000
MaxCharForCenteredText
1070
     1
1070
    30
1002
{
1002
}
1000
Snap
1070
     0
1002
{
1000
ActivationRadius
1070
     2
1040
1.0
1002
{
1002
}
1000
M
1070
     0
1002
{
1000
SnapStepX
1070
     2
1040
20.0
1002
{
1002
}
1000
SnapStepY
1070
     2
1040
10.0
1002
{
1002
}
1002
}
1000
I
1070
     0
1002
{
1000
SnapStepX
1070
     2
1040
1.0
1002
{
1002
}
1000
SnapStepY
1070
     2
1040
0.5
1002
{
1002
}
1002
}
1002
}
1002
}
1000
Centerline
1070
     0
1002
{
1000
ScaleNot
1070
     3
1070
     0
1002
{
1002
}
1000
M
1070
     0
1002
{
1000
GenCenAng
1070
     4
1000
45|90|135
1002
{
1002
}
1000
GenCenDia
1070
     2
1040
10.0
1002
{
1002
}
1000
GenCenDias
1070
     4
1000
10|20|30
1002
{
1002
}
1000
GenCenDist
1070
     2
1040
3.0
1002
{
1002
}
1000
GenCenLen
1070
     2
1040
10.0
1002
{
1002
}
1000
GenCenOff
1070
     2
1040
10.0
1002
{
1002
}
1002
}
1000
I
1070
     0
1002
{
1000
GenCenAng
1070
     4
1000
45|90|135
1002
{
1002
}
1000
GenCenDia
1070
     2
1040
0.5
1002
{
1002
}
1000
GenCenDias
1070
     4
1000
0.5|1.0|1.5
1002
{
1002
}
1000
GenCenDist
1070
     2
1040
0.125
1002
{
1002
}
1000
GenCenLen
1070
     2
1040
0.5
1002
{
1002
}
1000
GenCenOff
1070
     2
1040
0.5
1002
{
1002
}
1002
}
1002
}
1000
CLine
1070
     0
1002
{
1000
CAngArray
1070
     4
1000
30|45|60
1002
{
1002
}
1000
Typ
1070
     4
1000
XLINE
1002
{
1002
}
1000
M
1070
     0
1002
{
1000
CLinArray
1070
     4
1000
10|20|30
1002
{
1002
}
1002
}
1000
I
1070
     0
1002
{
1000
CLinArray
1070
     4
1000
0.125|0.25|0.5
1002
{
1002
}
1002
}
1002
}
1000
Detail
1070
     0
1002
{
1002
}
1000
Dimension
1070
     5
1002
{
1000
DIMALT
1070
     1
1070
     0
1002
{
1002
}
1000
DIMALTD
1070
     1
1070
     2
1002
{
1002
}
1000
DIMALTTD
1070
     1
1070
     4
1002
{
1002
}
1000
DIMALTTZ
1070
     1
1070
     0
1002
{
1002
}
1000
DIMALTU
1070
     1
1070
     2
1002
{
1002
}
1000
DIMALTZ
1070
     1
1070
     0
1002
{
1002
}
1000
DIMAUNIT
1070
     1
1070
     0
1002
{
1002
}
1000
DIMBLK
1070
     4
1000

1002
{
1002
}
1000
DIMBLK1
1070
     4
1000

1002
{
1002
}
1000
DIMBLK2
1070
     4
1000

1002
{
1002
}
1000
DIMCLRD
1070
     1
1070
   256
1002
{
1002
}
1000
DIMCLRE
1070
     1
1070
   256
1002
{
1002
}
1000
DIMCLRT
1070
     1
1070
     2
1002
{
1002
}
1000
DIMDLE
1070
     2
1040
0.0
1002
{
1002
}
1000
DIMFIT
1070
     1
1070
     3
1002
{
1002
}
1000
DIMJUST
1070
     1
1070
     0
1002
{
1002
}
1000
DIMLFAC
1070
     2
1040
1.0
1002
{
1002
}
1000
DIMLIM
1070
     1
1070
     0
1002
{
1002
}
1000
DIMPOST
1070
     4
1000

1002
{
1002
}
1000
DIMRND
1070
     2
1040
0.0
1002
{
1002
}
1000
DIMSAH
1070
     1
1070
     0
1002
{
1002
}
1000
DIMSCALE
1070
     2
1040
1.0
1002
{
1002
}
1000
DIMSD1
1070
     1
1070
     0
1002
{
1002
}
1000
DIMSD2
1070
     1
1070
     0
1002
{
1002
}
1000
DIMSE1
1070
     1
1070
     0
1002
{
1002
}
1000
DIMSE2
1070
     1
1070
     0
1002
{
1002
}
1000
DIMSOXD
1070
     1
1070
     0
1002
{
1002
}
1000
DIMTAD
1070
     1
1070
     0
1002
{
1002
}
1000
DIMTFAC
1070
     2
1040
0.71
1002
{
1002
}
1000
DIMTIH
1070
     1
1070
     0
1002
{
1002
}
1000
DIMTIX
1070
     1
1070
     0
1002
{
1002
}
1000
DIMTM
1070
     2
1040
0.1
1002
{
1002
}
1000
DIMTOFL
1070
     1
1070
     0
1002
{
1002
}
1000
DIMTOH
1070
     1
1070
     0
1002
{
1002
}
1000
DIMTOL
1070
     1
1070
     0
1002
{
1002
}
1000
DIMTOLJ
1070
     1
1070
     1
1002
{
1002
}
1000
DIMTP
1070
     2
1040
0.1
1002
{
1002
}
1000
DIMTSZ
1070
     2
1040
0.0
1002
{
1002
}
1000
DIMTVP
1070
     2
1040
0.0
1002
{
1002
}
1000
DIMTXSTY
1070
     4
1000
STANDARD
1002
{
1002
}
1000
DIMTZIN
1070
     1
1070
     0
1002
{
1002
}
1000
DIMUNIT
1070
     1
1070
     2
1002
{
1002
}
1000
DIMUPT
1070
     1
1070
     0
1002
{
1002
}
1000
M
1070
     0
1002
{
1000
DIMALTF
1070
     2
1040
0.03937
1002
{
1002
}
1000
DIMAPOST
1070
     4
1000
"
1002
{
1002
}
1000
DIMASZ
1070
     2
1040
2.5
1002
{
1002
}
1000
DIMCEN
1070
     2
1040
0.0
1002
{
1002
}
1000
DIMDEC
1070
     1
1070
     2
1002
{
1002
}
1000
DIMDLI
1070
     2
1040
7.0
1002
{
1002
}
1000
DIMEXE
1070
     2
1040
1.0
1002
{
1002
}
1000
DIMEXO
1070
     2
1040
1.0
1002
{
1002
}
1000
DIMGAP
1070
     2
1040
0.6
1002
{
1002
}
1000
DIMTDEC
1070
     1
1070
     3
1002
{
1002
}
1000
DIMTXT
1070
     2
1040
3.5
1002
{
1002
}
1000
DIMZIN
1070
     1
1070
     8
1002
{
1002
}
1002
}
1000
I
1070
     0
1002
{
1000
DIMALTF
1070
     2
1040
25.4
1002
{
1002
}
1000
DIMAPOST
1070
     4
1000
mm
1002
{
1002
}
1000
DIMASZ
1070
     2
1040
0.1
1002
{
1002
}
1000
DIMCEN
1070
     2
1040
0.0
1002
{
1002
}
1000
DIMDEC
1070
     1
1070
     4
1002
{
1002
}
1000
DIMDLI
1070
     2
1040
0.5
1002
{
1002
}
1000
DIMEXE
1070
     2
1040
0.1
1002
{
1002
}
1000
DIMEXO
1070
     2
1040
0.05
1002
{
1002
}
1000
DIMGAP
1070
     2
1040
0.06
1002
{
1002
}
1000
DIMTDEC
1070
     1
1070
     4
1002
{
1002
}
1000
DIMTXT
1070
     2
1040
0.12
1002
{
1002
}
1000
DIMZIN
1070
     1
1070
     7
1002
{
1002
}
1002
}
1000
GEN-ISO
1070
     5
1002
{
1000
NAME
1070
     4
1000
GEN-ISO
1002
{
1002
}
1000
DIMTAD
1070
     1
1070
     1
1002
{
1002
}
1000
DIMTOLJ
1070
     1
1070
     0
1002
{
1002
}
1000
DIMTOFL
1070
     1
1070
     1
1002
{
1002
}
1000
M
1070
     0
1002
{
1002
}
1000
I
1070
     0
1002
{
1002
}
1002
}
1000
GEN-ISO-POS
1070
     5
1002
{
1000
NAME
1070
     4
1000
GEN-ISO-POS
1002
{
1002
}
1000
DIMTOLJ
1070
     1
1070
     0
1002
{
1002
}
1000
DIMTXSTY
1070
     4
1000
STANDARD
1002
{
1002
}
1000
M
1070
     0
1002
{
1000
DIMASZ
1070
     2
1040
2.5
1002
{
1002
}
1000
DIMGAP
1070
     2
1040
1.5
1002
{
1002
}
1000
DIMTXT
1070
     2
1040
5.0
1002
{
1002
}
1002
}
1000
I
1070
     0
1002
{
1000
DIMASZ
1070
     2
1040
0.1
1002
{
1002
}
1000
DIMGAP
1070
     2
1040
0.06
1002
{
1002
}
1000
DIMTXT
1070
     2
1040
0.2
1002
{
1002
}
1002
}
1002
}
1000
GEN-ISO-CIR
1070
     5
1002
{
1000
NAME
1070
     4
1000
GEN-ISO$3
1002
{
1002
}
1000
DIMFIT
1070
     1
1070
     0
1002
{
1002
}
1000
DIMTAD
1070
     1
1070
     1
1002
{
1002
}
1000
DIMTOH
1070
     1
1070
     1
1002
{
1002
}
1000
DIMTOLJ
1070
     1
1070
     0
1002
{
1002
}
1000
DIMUPT
1070
     1
1070
     1
1002
{
1002
}
1000
M
1070
     0
1002
{
1002
}
1000
I
1070
     0
1002
{
1002
}
1002
}
1000
GEN-ISO-RAD
1070
     5
1002
{
1000
NAME
1070
     4
1000
GEN-ISO$4
1002
{
1002
}
1000
DIMFIT
1070
     1
1070
     0
1002
{
1002
}
1000
DIMTAD
1070
     1
1070
     1
1002
{
1002
}
1000
DIMTIH
1070
     1
1070
     0
1002
{
1002
}
1000
DIMTIX
1070
     1
1070
     0
1002
{
1002
}
1000
DIMTOH
1070
     1
1070
     1
1002
{
1002
}
1000
DIMTOLJ
1070
     1
1070
     0
1002
{
1002
}
1000
DIMTOFL
1070
     1
1070
     0
1002
{
1002
}
1000
DIMUPT
1070
     1
1070
     1
1002
{
1002
}
1000
M
1070
     0
1002
{
1002
}
1000
I
1070
     0
1002
{
1002
}
1002
}
1000
GEN-ISO-ORD
1070
     5
1002
{
1000
NAME
1070
     4
1000
GEN-ISO$6
1002
{
1002
}
1000
DIMTOLJ
1070
     1
1070
     0
1002
{
1002
}
1000
M
1070
     0
1002
{
1002
}
1000
I
1070
     0
1002
{
1002
}
1002
}
1000
GEN-ISO-AXE-F
1070
     5
1002
{
1000
NAME
1070
     4
1000
GEN-ISO-AXE-F
1002
{
1002
}
1000
DIMSE1
1070
     1
1070
     1
1002
{
1002
}
1000
DIMSE2
1070
     1
1070
     1
1002
{
1002
}
1000
DIMTAD
1070
     1
1070
     1
1002
{
1002
}
1000
DIMTOLJ
1070
     1
1070
     0
1002
{
1002
}
1000
DIMTOFL
1070
     1
1070
     1
1002
{
1002
}
1000
M
1070
     0
1002
{
1002
}
1000
I
1070
     0
1002
{
1002
}
1002
}
1000
GEN-ISO-AXE-H
1070
     5
1002
{
1000
NAME
1070
     4
1000
GEN-ISO-AXE-H
1002
{
1002
}
1000
DIMBLK1
1070
     4
1000
GENAXEH
1002
{
1002
}
1000
DIMLFAC
1070
     2
1040
2.0
1002
{
1002
}
1000
DIMSAH
1070
     1
1070
     1
1002
{
1002
}
1000
DIMSE1
1070
     1
1070
     1
1002
{
1002
}
1000
DIMSE2
1070
     1
1070
     1
1002
{
1002
}
1000
DIMTAD
1070
     1
1070
     1
1002
{
1002
}
1000
DIMTOLJ
1070
     1
1070
     0
1002
{
1002
}
1000
DIMTOFL
1070
     1
1070
     1
1002
{
1002
}
1000
M
1070
     0
1002
{
1002
}
1000
I
1070
     0
1002
{
1002
}
1002
}
1000
GEN-ANSI
1070
     5
1002
{
1000
NAME
1070
     4
1000
GEN-ANSI
1002
{
1002
}
1000
DIMTIH
1070
     1
1070
     1
1002
{
1002
}
1000
DIMTOH
1070
     1
1070
     1
1002
{
1002
}
1000
DIMTAD
1070
     1
1070
     0
1002
{
1002
}
1000
DIMTOLJ
1070
     1
1070
     1
1002
{
1002
}
1000
M
1070
     0
1002
{
1002
}
1000
I
1070
     0
1002
{
1002
}
1002
}
1000
GEN-ANSI-POS
1070
     5
1002
{
1000
NAME
1070
     4
1000
GEN-ANSI-POS
1002
{
1002
}
1000
DIMTOLJ
1070
     1
1070
     1
1002
{
1002
}
1000
DIMTXSTY
1070
     4
1000
STANDARD
1002
{
1002
}
1000
M
1070
     0
1002
{
1000
DIMASZ
1070
     2
1040
2.5
1002
{
1002
}
1000
DIMGAP
1070
     2
1040
1.5
1002
{
1002
}
1000
DIMTXT
1070
     2
1040
5.0
1002
{
1002
}
1002
}
1000
I
1070
     0
1002
{
1000
DIMASZ
1070
     2
1040
0.1
1002
{
1002
}
1000
DIMGAP
1070
     2
1040
0.06
1002
{
1002
}
1000
DIMTXT
1070
     2
1040
0.2
1002
{
1002
}
1002
}
1002
}
1000
GEN-ANSI-CIR
1070
     5
1002
{
1000
NAME
1070
     4
1000
GEN-ANSI$3
1002
{
1002
}
1000
DIMFIT
1070
     1
1070
     0
1002
{
1002
}
1000
DIMTAD
1070
     1
1070
     0
1002
{
1002
}
1000
DIMTIH
1070
     1
1070
     1
1002
{
1002
}
1000
DIMTIX
1070
     1
1070
     0
1002
{
1002
}
1000
DIMTOFL
1070
     1
1070
     0
1002
{
1002
}
1000
DIMTOH
1070
     1
1070
     1
1002
{
1002
}
1000
DIMTOLJ
1070
     1
1070
     1
1002
{
1002
}
1000
DIMUPT
1070
     1
1070
     1
1002
{
1002
}
1000
M
1070
     0
1002
{
1002
}
1000
I
1070
     0
1002
{
1002
}
1002
}
1000
GEN-ANSI-RAD
1070
     5
1002
{
1000
NAME
1070
     4
1000
GEN-ANSI$4
1002
{
1002
}
1000
DIMFIT
1070
     1
1070
     0
1002
{
1002
}
1000
DIMTAD
1070
     1
1070
     0
1002
{
1002
}
1000
DIMTIH
1070
     1
1070
     1
1002
{
1002
}
1000
DIMTIX
1070
     1
1070
     0
1002
{
1002
}
1000
DIMTOFL
1070
     1
1070
     0
1002
{
1002
}
1000
DIMTOH
1070
     1
1070
     1
1002
{
1002
}
1000
DIMTOLJ
1070
     1
1070
     1
1002
{
1002
}
1000
DIMUPT
1070
     1
1070
     1
1002
{
1002
}
1000
M
1070
     0
1002
{
1002
}
1000
I
1070
     0
1002
{
1002
}
1002
}
1000
GEN-ANSI-ORD
1070
     5
1002
{
1000
NAME
1070
     4
1000
GEN-ANSI$6
1002
{
1002
}
1000
DIMTAD
1070
     1
1070
     0
1002
{
1002
}
1000
DIMTIH
1070
     1
1070
     1
1002
{
1002
}
1000
DIMTOH
1070
     1
1070
     1
1002
{
1002
}
1000
DIMTOLJ
1070
     1
1070
     1
1002
{
1002
}
1000
M
1070
     0
1002
{
1002
}
1000
I
1070
     0
1002
{
1002
}
1002
}
1000
GEN-ANSI-AXE-F
1070
     5
1002
{
1000
NAME
1070
     4
1000
GEN-ANSI-AXE-F
1002
{
1002
}
1000
DIMBLK1
1070
     4
1000
GENAXEH
1002
{
1002
}
1000
DIMSAH
1070
     1
1070
     1
1002
{
1002
}
1000
DIMSE1
1070
     1
1070
     1
1002
{
1002
}
1000
DIMSE2
1070
     1
1070
     1
1002
{
1002
}
1000
DIMTAD
1070
     1
1070
     0
1002
{
1002
}
1000
DIMTIH
1070
     1
1070
     1
1002
{
1002
}
1000
DIMTOH
1070
     1
1070
     1
1002
{
1002
}
1000
DIMTOLJ
1070
     1
1070
     1
1002
{
1002
}
1000
M
1070
     0
1002
{
1002
}
1000
I
1070
     0
1002
{
1002
}
1002
}
1000
GEN-ANSI-AXE-H
1070
     5
1002
{
1000
NAME
1070
     4
1000
GEN-ANSI-AXE-H
1002
{
1002
}
1000
DIMBLK1
1070
     4
1000
GENAXEH
1002
{
1002
}
1000
DIMLFAC
1070
     2
1040
2.0
1002
{
1002
}
1000
DIMSAH
1070
     1
1070
     1
1002
{
1002
}
1000
DIMSE1
1070
     1
1070
     1
1002
{
1002
}
1000
DIMSE2
1070
     1
1070
     1
1002
{
1002
}
1000
DIMTAD
1070
     1
1070
     0
1002
{
1002
}
1000
DIMTOFL
1070
     1
1070
     1
1002
{
1002
}
1000
DIMTOLJ
1070
     1
1070
     1
1002
{
1002
}
1000
M
1070
     0
1002
{
1002
}
1000
I
1070
     0
1002
{
1002
}
1002
}
1002
}
1000
DimSet
1070
     0
1002
{
1000
ChainSum
1070
     3
1070
     0
1002
{
1002
}
1000
DimDclTyp0
1070
     4
1000
dim23
1002
{
1002
}
1000
HorBra
1070
     3
1070
     0
1002
{
1002
}
1000
StrDia
1070
     4
1000
%%c<>
1002
{
1002
}
1000
StrRad
1070
     4
1000
R<>
1002
{
1002
}
1000
TextMinus
1070
     4
1000
<>
1002
{
1002
}
1000
TextPlus
1070
     4
1000
<>
1002
{
1002
}
1000
M
1070
     0
1002
{
1000
DimdliFirst
1070
     2
1040
10.0
1002
{
1002
}
1000
PointMakeDist
1070
     2
1040
10.0
1002
{
1002
}
1002
}
1000
I
1070
     0
1002
{
1000
DimdliFirst
1070
     2
1040
0.5
1002
{
1002
}
1000
PointMakeDist
1070
     2
1040
0.5
1002
{
1002
}
1002
}
1000
FitGrade
1070
     4
1000
h7
1002
{
1002
}
1002
}
1000
Drawing
1070
     0
1002
{
1000
ChamferDimMode
1070
     1
1070
     2
1002
{
1002
}
1000
Gen_Fiso
1070
    -3
1040
1.0
1002
{
1002
}
1000
GenDimStil
1070
     4
1000
ISO
1002
{
1002
}
1000
GenDwgUScale
1070
     2
1040
1.0
1002
{
1002
}
1000
GenInch
1070
     4
1000
M
1002
{
1002
}
1000
GenPlotScale
1070
     4
1000
1:5
1002
{
1002
}
1000
Revisi
1070
     4
1000
0
1002
{
1002
}
1000
Version
1070
    -5
1000
14.01/Apr  1 1998
1002
{
1002
}
1000
Platform
1070
    -5
1000
WINNT
1002
{
1002
}
1002
}
1000
DwgVar
1070
     0
1002
{
1000
M
1070
     0
1002
{
1002
}
1000
I
1070
     0
1002
{
1002
}
1002
}
1000
Hatch
1070
     0
1002
{
1000
GenHtcFlag
1070
     3
1070
     0
1002
{
1002
}
1002
}
1000
Info_Pos
1070
     0
1002
{
1000
>
1002
}
1000
Layer
1070
     6
1002
{
1000
Defs
1070
     0
1002
{
1000
>
1002
}
1000
EntSort
1070
     0
1002
{
1000
>
1002
}
1000
Match
1070
     0
1002
{
1002
}
1000
Settings
1070
     0
1002
{
1000
FocGrNC
1070
     3
1070
     0
1002
{
1002
}
1000
FocGrLo
1070
     3
1070
     0
1002
{
1002
}
1000
FocLoNC
1070
     3
1070
     0
1002
{
1002
}
1000
FocusCol
1070
     1
1070
   253
1002
{
1002
}
1000
GenStdLG
1070
     4
1000

1002
{
1002
}
1000
LayMatch
1070
     3
1070
     0
1002
{
1002
}
1000
LgOff
1070
     3
1070
     0
1002
{
1002
}
1000
CurLG
1070
    -5
1000

1002
{
1002
}
1002
}
1002
}
1000
LType
1070
     0
1002
{
1000
GEN3
1070
     7
1000
genius.lin
1002
{
1002
}
1000
GEN7
1070
     7
1000
genius.lin
1002
{
1002
}
1000
GEN4A
1070
     7
1000
genius.lin
1002
{
1002
}
1000
GEN3A
1070
     7
1000
genius.lin
1002
{
1002
}
1000
GEN7A
1070
     7
1000
genius.lin
1002
{
1002
}
1000
GENZIGZAG
1070
     7
1000
genius.lin
1002
{
1002
}
1002
}
1000
Objecter
1070
     0
1002
{
1000
CreateGroups
1070
     3
1070
     0
1002
{
1002
}
1000
LaySwitch
1070
     3
1070
     1
1002
{
1002
}
1000
LastObj
1070
    -5
1000
169D
1002
{
1002
}
1000
TimeStamp
1070
    -5
1000
20020606.07190142
1002
{
1002
}
1002
}
1000
OSWiz
1070
     0
1002
{
1000
Filter
1070
     0
1002
{
1000
HATCH
1070
     8
1002
{
1000
EntityType
1070
     4
1000
LINE
1002
{
1002
}
1000
Layer
1070
     4
1000
8,8N,*-8,*-8N
1002
{
1002
}
1000
Linetype
1070
     4
1000
*
1002
{
1002
}
1000
Color
1070
     4
1000
*
1002
{
1002
}
1000
ApplyInDims
1070
     3
1070
     1
1002
{
1002
}
1002
}
1000
SYMBOLS
1070
     8
1002
{
1000
EntityType
1070
     4
1000
*
1002
{
1002
}
1000
Layer
1070
     4
1000
[5-6],[5-6]N,*-[5-6],*-[5-6]N
1002
{
1002
}
1000
Linetype
1070
     4
1000
*
1002
{
1002
}
1000
Color
1070
     4
1000
*
1002
{
1002
}
1000
ApplyInDims
1070
     3
1070
     1
1002
{
1002
}
1002
}
1000
FEM
1070
     8
1002
{
1000
EntityType
1070
     4
1000
*
1002
{
1002
}
1000
Layer
1070
     4
1000
4A,4AN,*-4A,*-4AN
1002
{
1002
}
1000
Linetype
1070
     4
1000
*
1002
{
1002
}
1000
Color
1070
     4
1000
*
1002
{
1002
}
1000
ApplyInDims
1070
     3
1070
     1
1002
{
1002
}
1002
}
1002
}
1002
}
1000
PaList
1070
     0
1002
{
1000
AutoUpdatePartList
1070
     1
1070
     0
1002
{
1002
}
1000
ReadInfoPoint
1070
     3
1070
     0
1002
{
1002
}
1000
ReadPosNr
1070
     3
1070
     1
1002
{
1002
}
1000
RevStr
1070
     4
1000
0
1002
{
1002
}
1002
}
1000
Paper
1070
     0
1002
{
1002
}
1000
PartDB
1070
     0
1002
{
1000
GenDbOwner
1070
     4
1000

1002
{
1002
}
1002
}
1000
System
1070
     0
1002
{
1000
Menu
1070
     4
1000
GEV
1002
{
1002
}
1002
}
1000
Title
1070
     0
1002
{
1000
MakeView
1070
     1
1070
     2
1002
{
1002
}
1002
}
1000
Tools
1070
     0
1002
{
1000
Trans
1070
     0
1002
{
1000
Drawingtranslation
1070
    -4
1070
     1
1002
{
1002
}
1000
upreserve
1070
     3
1070
     0
1002
{
1002
}
1000
originally_on
1070
    -4
1070
     0
1002
{
1002
}
1000
sourcelang
1070
    -5
1000
D
1002
{
1002
}
1002
}
1002
}
  0
APPID
  5
1642
330
15FA
100
AcDbSymbolTableRecord
100
AcDbRegAppTableRecord
  2
GENIUS_GEVCFG0_13
 70
     0
1001
GENIUS_GENCFG_13
1071
1023340746
1000
1642
1000
GEV
1070
     1
1000
GenCfgObject
1000
VED
1070
     0
1002
{
1002
}
  0
APPID
  5
166D
330
15FA
100
AcDbSymbolTableRecord
100
AcDbRegAppTableRecord
  2
GEV_VCCNULL_SWITCH_OFF
 70
     0
  0
APPID
  5
166E
330
15FA
100
AcDbSymbolTableRecord
100
AcDbRegAppTableRecord
  2
GENIUS_GENDTOL_13
 70
     0
  0
APPID
  5
166F
330
15FA
100
AcDbSymbolTableRecord
100
AcDbRegAppTableRecord
  2
GENIUS_GENBLLY_14
 70
     0
  0
APPID
  5
1670
330
15FA
100
AcDbSymbolTableRecord
100
AcDbRegAppTableRecord
  2
GENIUS_GENODEF_13
 70
     0
  0
APPID
  5
1671
330
15FA
100
AcDbSymbolTableRecord
100
AcDbRegAppTableRecord
  2
GENIUS_GENOBJ-N-CRS_13
 70
     0
  0
APPID
  5
1672
330
15FA
100
AcDbSymbolTableRecord
100
AcDbRegAppTableRecord
  2
GENIUS_GENOREF_13
 70
     0
  0
APPID
  5
1673
330
15FA
100
AcDbSymbolTableRecord
100
AcDbRegAppTableRecord
  2
GENIUS_GENOLIS_13
 70
     0
  0
APPID
  5
1674
330
15FA
100
AcDbSymbolTableRecord
100
AcDbRegAppTableRecord
  2
GENIUS_GEFCFG0_13
 70
     0
  0
APPID
  5
1675
330
15FA
100
AcDbSymbolTableRecord
100
AcDbRegAppTableRecord
  2
GENIUS_VERSION2
 70
     0
  0
APPID
  5
1676
330
15FA
100
AcDbSymbolTableRecord
100
AcDbRegAppTableRecord
  2
GENIUS_GENREC_14
 70
     0
  0
APPID
  5
1677
330
15FA
100
AcDbSymbolTableRecord
100
AcDbRegAppTableRecord
  2
GENIUS_GENOBJ-N-REC_13
 70
     0
  0
APPID
  5
1678
330
15FA
100
AcDbSymbolTableRecord
100
AcDbRegAppTableRecord
  2
GENIUS_GENOBJ-N-TIT_13
 70
     0
  0
APPID
  5
1679
330
15FA
100
AcDbSymbolTableRecord
100
AcDbRegAppTableRecord
  2
GENIUS_GENTITLE_13
 70
     0
  0
APPID
  5
167A
330
15FA
100
AcDbSymbolTableRecord
100
AcDbRegAppTableRecord
  2
GENIUS_GENZVEED_13
 70
     0
  0
APPID
  5
167B
330
15FA
100
AcDbSymbolTableRecord
100
AcDbRegAppTableRecord
  2
GENIUS_GENOBJ-N-SDF_13
 70
     0
  0
APPID
  5
167C
330
15FA
100
AcDbSymbolTableRecord
100
AcDbRegAppTableRecord
  2
GENIUS_GENSCREG_13
 70
     0
  0
APPID
  5
167D
330
15FA
100
AcDbSymbolTableRecord
100
AcDbRegAppTableRecord
  2
GENIUS_GENBLKED_14
 70
     0
  0
APPID
  5
1743
330
15FA
100
AcDbSymbolTableRecord
100
AcDbRegAppTableRecord
  2
GENIUS_GENOBJ-N-HTC_13
 70
     0
  0
APPID
  5
1744
330
15FA
100
AcDbSymbolTableRecord
100
AcDbRegAppTableRecord
  2
GENIUS_GENHATCH_13
 70
     0
  0
APPID
  5
1BA5
330
15FA
100
AcDbSymbolTableRecord
100
AcDbRegAppTableRecord
  2
MCAD_NO_VIS
 70
     0
  0
APPID
  5
1BA6
330
15FA
100
AcDbSymbolTableRecord
100
AcDbRegAppTableRecord
  2
ACAD_TEMP_GRAPHIC
 70
     0
  0
APPID
  5
1BD6
330
15FA
100
AcDbSymbolTableRecord
100
AcDbRegAppTableRecord
  2
AD_DRAW
 70
     0
  0
APPID
  5
1BD9
330
15FA
100
AcDbSymbolTableRecord
100
AcDbRegAppTableRecord
  2
ACATTRIBSERVICES
 70
     0
  0
APPID
  5
1BF9
330
15FA
100
AcDbSymbolTableRecord
100
AcDbRegAppTableRecord
  2
DESIGNERASSEMBLIES
 70
     0
  0
APPID
  5
1BFF
330
15FA
100
AcDbSymbolTableRecord
100
AcDbRegAppTableRecord
  2
ACADM_DIM_EDIT
 70
     0
  0
APPID
  5
1C00
330
15FA
100
AcDbSymbolTableRecord
100
AcDbRegAppTableRecord
  2
AMDT_DM_ADJ
 70
     0
  0
APPID
  5
1C32
330
15FA
100
AcDbSymbolTableRecord
100
AcDbRegAppTableRecord
  2
ACAD_DSTYLE_DIMARC_LENGTH_SYMBOL
 70
     0
  0
APPID
  5
1C33
330
15FA
100
AcDbSymbolTableRecord
100
AcDbRegAppTableRecord
  2
ACAD_DSTYLE_DIMJOGGED_JOGANGLE_SYMBOL
 70
     0
  0
APPID
  5
1C69
330
15FA
100
AcDbSymbolTableRecord
100
AcDbRegAppTableRecord
  2
AcAecLayerStandard
 70
     0
  0
APPID
  5
1CA6
330
15FA
100
AcDbSymbolTableRecord
100
AcDbRegAppTableRecord
  2
GENIUS_GENOBJ-N-CEN_13
 70
     0
  0
APPID
  5
1CA7
330
15FA
100
AcDbSymbolTableRecord
100
AcDbRegAppTableRecord
  2
GENIUS_GENCEN_19
 70
     0
  0
ENDTAB
  0
TABLE
  2
DIMSTYLE
  5
15FB
330
0
100
AcDbSymbolTable
 70
     8
100
AcDbDimStyleTable
 71
     0
  0
DIMSTYLE
105
1622
102
{ACAD_REACTORS
330
159A
330
15A3
330
15AD
330
15B7
330
15C1
330
15CC
102
}
330
15FB
100
AcDbSymbolTableRecord
100
AcDbDimStyleTableRecord
  2
GEN-ISO
 70
     0
  4
"
 40
5.0
 41
2.5
 42
1.0
 43
7.0
 44
1.0
 47
0.1
 48
0.1
 73
     0
 74
     0
 77
     1
 78
     8
140
3.5
141
0.0
143
0.03937
146
0.71
147
0.6
172
     1
176
   256
177
   256
178
     2
271
     2
272
     3
274
     4
283
     0
340
1600
  0
DIMSTYLE
105
1C31
330
15FB
100
AcDbSymbolTableRecord
100
AcDbDimStyleTableRecord
  2
AM_DIN
 70
     0
  4
"
 41
2.5
 42
1.0
 43
10.0
 44
1.0
 47
0.1
 48
0.1
 73
     0
 74
     0
 77
     1
 78
     8
 79
     2
140
3.5
141
0.0
143
0.0393701
146
0.71
147
1.5
172
     1
176
   256
177
   256
178
     2
271
     2
272
     3
274
     4
283
     0
284
     8
340
1600
371
    -1
372
    -1
1001
ACAD_DSTYLE_DIMARC_LENGTH_SYMBOL
1070
   379
1070
     0
1001
ACAD_DSTYLE_DIMJOGGED_JOGANGLE_SYMBOL
1070
   384
1040
1.570796326794896
  0
DIMSTYLE
105
1C42
330
15FB
100
AcDbSymbolTableRecord
100
AcDbDimStyleTableRecord
  2
AM_DIN$3
 70
     0
  4
"
 41
2.5
 42
1.0
 43
10.0
 44
1.0
 47
0.1
 48
0.1
 73
     0
 77
     1
 78
     8
 79
     2
140
3.5
141
0.0
143
0.0393701
146
0.71
147
1.5
176
   256
177
   256
178
     2
271
     2
272
     3
274
     4
283
     0
284
     8
288
     1
289
     0
340
1600
371
    -1
372
    -1
1001
ACAD_DSTYLE_DIMARC_LENGTH_SYMBOL
1070
   379
1070
     0
1001
ACAD_DSTYLE_DIMJOGGED_JOGANGLE_SYMBOL
1070
   384
1040
1.570796326794896
  0
DIMSTYLE
105
1C47
330
15FB
100
AcDbSymbolTableRecord
100
AcDbDimStyleTableRecord
  2
AM_DIN$4
 70
     0
  4
"
 41
2.5
 42
1.0
 43
10.0
 44
1.0
 47
0.1
 48
0.1
 73
     0
 77
     1
 78
     8
 79
     2
140
3.5
141
0.0
143
0.0393701
146
0.71
147
1.5
176
   256
177
   256
178
     2
271
     2
272
     3
274
     4
283
     0
284
     8
288
     1
289
     0
340
1600
371
    -1
372
    -1
1001
ACAD_DSTYLE_DIMARC_LENGTH_SYMBOL
1070
   379
1070
     0
1001
ACAD_DSTYLE_DIMJOGGED_JOGANGLE_SYMBOL
1070
   384
1040
1.570796326794896
  0
DIMSTYLE
105
1C4C
330
15FB
100
AcDbSymbolTableRecord
100
AcDbDimStyleTableRecord
  2
AM_DIN$6
 70
     0
  4
"
 41
2.5
 42
1.0
 43
10.0
 44
1.0
 47
0.1
 48
0.1
 73
     0
 74
     0
 78
     8
 79
     2
140
3.5
141
0.0
143
0.0393701
146
0.71
147
1.5
172
     1
176
   256
177
   256
178
     2
271
     2
272
     3
274
     4
283
     0
284
     8
340
1600
371
    -1
372
    -1
1001
ACAD_DSTYLE_DIMARC_LENGTH_SYMBOL
1070
   379
1070
     0
1001
ACAD_DSTYLE_DIMJOGGED_JOGANGLE_SYMBOL
1070
   384
1040
1.570796326794896
  0
DIMSTYLE
105
1C51
330
15FB
100
AcDbSymbolTableRecord
100
AcDbDimStyleTableRecord
  2
AM_DIN$7
 70
     0
  4
"
 41
2.5
 42
1.0
 43
10.0
 44
1.0
 47
0.1
 48
0.1
 73
     0
 74
     0
 77
     1
 78
     8
 79
     2
140
5.0
141
0.0
143
0.0393701
146
0.71
147
1.5
172
     1
176
   256
177
   256
178
     2
271
     2
272
     3
274
     4
283
     0
284
     8
340
1600
371
    -1
372
    -1
1001
ACAD_DSTYLE_DIMARC_LENGTH_SYMBOL
1070
   379
1070
     0
1001
ACAD_DSTYLE_DIMJOGGED_JOGANGLE_SYMBOL
1070
   384
1040
1.570796326794896
  0
DIMSTYLE
105
1C56
330
15FB
100
AcDbSymbolTableRecord
100
AcDbDimStyleTableRecord
  2
AM_DIN$SF
 70
     0
  4
"
 41
2.5
 42
1.0
 43
10.0
 44
1.0
 47
0.1
 48
0.1
 73
     0
 74
     0
 75
     1
 76
     1
 77
     1
 78
     8
 79
     2
140
3.5
141
0.0
143
0.0393701
146
0.71
147
1.5
172
     1
176
   256
177
   256
178
     2
271
     2
272
     3
274
     4
283
     0
284
     8
340
1600
371
    -1
372
    -1
1001
ACAD_DSTYLE_DIMARC_LENGTH_SYMBOL
1070
   379
1070
     0
1001
ACAD_DSTYLE_DIMJOGGED_JOGANGLE_SYMBOL
1070
   384
1040
1.570796326794896
  0
DIMSTYLE
105
1C5F
330
15FB
100
AcDbSymbolTableRecord
100
AcDbDimStyleTableRecord
  2
AM_DIN$SH
 70
     0
  4
"
 41
2.5
 42
1.0
 43
10.0
 44
1.0
 47
0.1
 48
0.1
 73
     0
 74
     0
 75
     1
 76
     1
 77
     1
 78
     8
 79
     2
140
3.5
141
0.0
143
0.0393701
144
2.0
146
0.71
147
1.5
172
     1
173
     1
176
   256
177
   256
178
     2
271
     2
272
     3
274
     4
283
     0
284
     8
340
1600
343
1C57
371
    -1
372
    -1
1001
ACAD_DSTYLE_DIMARC_LENGTH_SYMBOL
1070
   379
1070
     0
1001
ACAD_DSTYLE_DIMJOGGED_JOGANGLE_SYMBOL
1070
   384
1040
1.570796326794896
  0
ENDTAB
  0
TABLE
  2
BLOCK_RECORD
  5
15F2
330
0
100
AcDbSymbolTable
 70
    14
  0
BLOCK_RECORD
  5
1609
330
15F2
100
AcDbSymbolTableRecord
100
AcDbBlockTableRecord
  2
*MODEL_SPACE
340
1B9D
  0
BLOCK_RECORD
  5
1606
330
15F2
100
AcDbSymbolTableRecord
100
AcDbBlockTableRecord
  2
*PAPER_SPACE
340
1B9E
  0
BLOCK_RECORD
  5
1624
330
15F2
100
AcDbSymbolTableRecord
100
AcDbBlockTableRecord
  2
*X0
340
0
102
{BLKREFS
331
10C6
102
}
  0
BLOCK_RECORD
  5
1625
330
15F2
100
AcDbSymbolTableRecord
100
AcDbBlockTableRecord
  2
*X1
340
0
102
{BLKREFS
331
10EE
102
}
  0
BLOCK_RECORD
  5
1626
330
15F2
100
AcDbSymbolTableRecord
100
AcDbBlockTableRecord
  2
*X2
340
0
102
{BLKREFS
331
111F
102
}
  0
BLOCK_RECORD
  5
1644
330
15F2
100
AcDbSymbolTableRecord
100
AcDbBlockTableRecord
  2
KATALOG_LEER
340
0
102
{BLKREFS
331
167F
331
169C
102
}
  0
BLOCK_RECORD
  5
167E
330
15F2
100
AcDbSymbolTableRecord
100
AcDbBlockTableRecord
  2
KATALOG
340
0
  0
BLOCK_RECORD
  5
169E
330
15F2
100
AcDbSymbolTableRecord
100
AcDbBlockTableRecord
  2
*D5
340
0
  0
BLOCK_RECORD
  5
16AA
330
15F2
100
AcDbSymbolTableRecord
100
AcDbBlockTableRecord
  2
*D6
340
0
  0
BLOCK_RECORD
  5
16C5
330
15F2
100
AcDbSymbolTableRecord
100
AcDbBlockTableRecord
  2
*D7
340
0
  0
BLOCK_RECORD
  5
16DC
330
15F2
100
AcDbSymbolTableRecord
100
AcDbBlockTableRecord
  2
*D8
340
0
  0
BLOCK_RECORD
  5
16F7
330
15F2
100
AcDbSymbolTableRecord
100
AcDbBlockTableRecord
  2
*D9
340
0
  0
BLOCK_RECORD
  5
170E
330
15F2
100
AcDbSymbolTableRecord
100
AcDbBlockTableRecord
  2
*D10
340
0
  0
BLOCK_RECORD
  5
1C57
330
15F2
100
AcDbSymbolTableRecord
100
AcDbBlockTableRecord
  2
GENAXEH
340
0
  0
ENDTAB
  0
ENDSEC
  0
SECTION
  2
BLOCKS
  0
BLOCK
  5
160A
330
1609
100
AcDbEntity
  8
0
100
AcDbBlockBegin
  2
*MODEL_SPACE
 70
     0
 10
0.0
 20
0.0
 30
0.0
  3
*MODEL_SPACE
  1

  0
ENDBLK
  5
160B
330
1609
100
AcDbEntity
  8
0
100
AcDbBlockEnd
  0
BLOCK
  5
1607
330
1606
100
AcDbEntity
 67
     1
  8
0
100
AcDbBlockBegin
  2
*PAPER_SPACE
 70
     0
 10
0.0
 20
0.0
 30
0.0
  3
*PAPER_SPACE
  1

  0
ENDBLK
  5
1608
330
1606
100
AcDbEntity
 67
     1
  8
0
100
AcDbBlockEnd
  0
BLOCK
  5
10C1
330
1624
100
AcDbEntity
  8
0
100
AcDbBlockBegin
  2
*X0
 70
     1
 10
0.0
 20
0.0
 30
0.0
  3
*X0
  1

  0
LINE
  5
10C2
330
1624
100
AcDbEntity
  8
8
100
AcDbLine
 10
134.289
 20
631.878
 30
0.0
 11
141.922
 21
639.5109999999999
 31
0.0
  0
LINE
  5
10C3
330
1624
100
AcDbEntity
  8
8
100
AcDbLine
 10
132.235
 20
634.315
 30
0.0
 11
139.467
 21
641.5459999999999
 31
0.0
  0
LINE
  5
10C4
330
1624
100
AcDbEntity
  8
8
100
AcDbLine
 10
132.41
 20
638.98
 30
0.0
 11
134.796
 21
641.365
 31
0.0
  0
ENDBLK
  5
10C5
330
1624
100
AcDbEntity
  8
0
100
AcDbBlockEnd
  0
BLOCK
  5
10E9
330
1625
100
AcDbEntity
  8
0
100
AcDbBlockBegin
  2
*X1
 70
     1
 10
0.0
 20
0.0
 30
0.0
  3
*X1
  1

  0
LINE
  5
10EA
330
1625
100
AcDbEntity
  8
8
100
AcDbLine
 10
131.824
 20
636.839
 30
0.0
 11
137.638
 21
631.0249999999999
 31
0.0
  0
LINE
  5
10EB
330
1625
100
AcDbEntity
  8
8
100
AcDbLine
 10
133.097
 20
640.056
 30
0.0
 11
140.855
 21
632.298
 31
0.0
  0
LINE
  5
10EC
330
1625
100
AcDbEntity
  8
8
100
AcDbLine
 10
135.845
 20
641.798
 30
0.0
 11
142.635
 21
635.008
 31
0.0
  0
ENDBLK
  5
10ED
330
1625
100
AcDbEntity
  8
0
100
AcDbBlockEnd
  0
BLOCK
  5
1117
330
1626
100
AcDbEntity
  8
0
100
AcDbBlockBegin
  2
*X2
 70
     1
 10
0.0
 20
0.0
 30
0.0
  3
*X2
  1

  0
LINE
  5
1118
330
1626
100
AcDbEntity
  8
8
100
AcDbLine
 10
297.969
 20
631.364
 30
0.0
 11
305.032
 21
638.427
 31
0.0
  0
LINE
  5
1119
330
1626
100
AcDbEntity
  8
8
100
AcDbLine
 10
295.424
 20
633.3099999999999
 30
0.0
 11
303.086
 21
640.972
 31
0.0
  0
LINE
  5
111A
330
1626
100
AcDbEntity
  8
8
100
AcDbLine
 10
294.41
 20
636.7859999999999
 30
0.0
 11
299.611
 21
641.9859999999999
 31
0.0
  0
LINE
  5
111B
330
1626
100
AcDbEntity
  8
8
100
AcDbLine
 10
305.345
 20
635.884
 30
0.0
 11
299.28
 21
641.949
 31
0.0
  0
LINE
  5
111C
330
1626
100
AcDbEntity
  8
8
100
AcDbLine
 10
303.959
 20
632.779
 30
0.0
 11
296.19
 21
640.549
 31
0.0
  0
LINE
  5
111D
330
1626
100
AcDbEntity
  8
8
100
AcDbLine
 10
301.128
 20
631.12
 30
0.0
 11
294.517
 21
637.731
 31
0.0
  0
ENDBLK
  5
111E
330
1626
100
AcDbEntity
  8
0
100
AcDbBlockEnd
  0
BLOCK
  5
1645
330
1644
100
AcDbEntity
  8
0
100
AcDbBlockBegin
  2
KATALOG_LEER
 70
     0
 10
0.0
 20
0.0
 30
0.0
  3
KATALOG_LEER
  1

  0
ENDBLK
  5
1646
330
1644
100
AcDbEntity
  8
0
100
AcDbBlockEnd
  0
BLOCK
  5
1690
330
167E
100
AcDbEntity
  8
0
100
AcDbBlockBegin
  2
KATALOG
 70
     0
 10
0.0
 20
0.0
 30
0.0
  3
KATALOG
  1

  0
INSERT
  5
167F
330
167E
100
AcDbEntity
  8
0
100
AcDbBlockReference
  2
KATALOG_LEER
 10
205.0
 20
5.0
 30
0.0
1001
GENIUS_GENOREF_13
1005
1680
  0
POINT
  5
1680
330
167E
100
AcDbEntity
  8
0
 60
     1
100
AcDbPoint
 10
0.0
 20
0.0
 30
0.0
1001
GENIUS_GENOBJ-N-TIT_13
1002
{
1000
OWNER
1000
GEN
1002
}
1001
GENIUS_GENOENT_13
1002
{
1000
MYREF
1005
1680
1002
}
1002
{
1000
GRP
1005
0
1002
}
1001
GENIUS_GENOLIS_13
1002
{
1000
ENT
1005
167F
1005
0
1002
}
1001
GENIUS_GENTITLE_13
1002
{
1000
SCALE
1000
1:1
1002
}
1002
{
1000
BORDER
1000
KATALOG
1002
}
1002
{
1000
TITLE
1000
KATALOG_LEER
1002
}
1002
{
1000
UNCHG
1002
{
1000
GEN-TITLE-SCA
1000
GEN-TITLE-SIZ
1002
}
1002
}
1002
{
1000
HRA
1005
0
1002
}
1002
{
1000
HTIT
1005
167F
1002
}
1002
{
1000
GENIUSID
1005
1680
1002
}
1001
GENIUS_GENODEF_13
1002
{
1000
HIER
1070
     1
1002
}
1002
{
1000
MANEDIT
1070
     0
1002
}
1002
{
1000
NOSEL
1070
     0
1002
}
1002
{
1000
BEHIND
1070
     0
1002
}
1002
{
1000
REACTOR
1002
}
  0
TEXT
  5
1681
330
167E
100
AcDbEntity
  8
RAHM3
 60
     1
100
AcDbText
 10
29.391383
 20
162.283165
 30
0.0
 40
3.5
  1
!GENTITLE-MAX
100
AcDbText
  0
TEXT
  5
1682
330
167E
100
AcDbEntity
  8
RAHM3
 60
     1
100
AcDbText
 10
30.988432
 20
153.503279
 30
0.0
 40
3.5
  1
!GENTITLE-RU
100
AcDbText
  0
TEXT
  5
1683
330
167E
100
AcDbEntity
  8
RAHM3
 60
     1
100
AcDbText
 10
-85.995418
 20
56.924537
 30
0.0
 40
3.5
  1
!GENTITLE-LL
100
AcDbText
  0
TEXT
  5
1684
330
167E
100
AcDbEntity
  8
RAHM3
 60
     1
100
AcDbText
 10
50.36794099999999
 20
2.260896999999999
 30
0.0
 40
3.5
  1
!GENTITLE-INSERT
100
AcDbText
  0
LINE
  5
1685
330
167E
100
AcDbEntity
  8
RAHM2
100
AcDbLine
 10
0.0
 20
0.0
 30
0.0
 11
148.5
 21
0.0
 31
0.0
  0
LINE
  5
1686
330
167E
100
AcDbEntity
  8
RAHM2
100
AcDbLine
 10
148.5
 20
210.0
 30
0.0
 11
0.0
 21
210.0
 31
0.0
  0
LINE
  5
1687
330
167E
100
AcDbEntity
  8
RAHM2
100
AcDbLine
 10
0.0
 20
210.0
 30
0.0
 11
0.0
 21
0.0
 31
0.0
  0
TEXT
  5
1688
330
167E
100
AcDbEntity
  8
RAHM3
 60
     1
100
AcDbText
 10
184.023441
 20
165.022268
 30
0.0
 40
3.5
  1
!GENTITLE-MAX
100
AcDbText
  0
TEXT
  5
1689
330
167E
100
AcDbEntity
  8
RAHM3
 60
     1
100
AcDbText
 10
185.620491
 20
156.242382
 30
0.0
 40
3.5
  1
!GENTITLE-RU
100
AcDbText
  0
TEXT
  5
168A
330
167E
100
AcDbEntity
  8
RAHM3
 60
     1
100
AcDbText
 10
68.636641
 20
59.663641
 30
0.0
 40
3.5
  1
!GENTITLE-LL
100
AcDbText
  0
TEXT
  5
168B
330
167E
100
AcDbEntity
  8
RAHM3
 60
     1
100
AcDbText
 10
205.0
 20
5.0
 30
0.0
 40
3.5
  1
!GENTITLE-INSERT
100
AcDbText
  0
LINE
  5
168C
330
167E
100
AcDbEntity
  8
RAHM2
100
AcDbLine
 10
148.5
 20
0.0
 30
0.0
 11
148.5
 21
210.0
 31
0.0
  0
LINE
  5
168D
330
167E
100
AcDbEntity
  8
RAHM2
100
AcDbLine
 10
210.0
 20
148.5
 30
0.0
 11
0.0
 21
148.5
 31
0.0
  0
LINE
  5
168E
330
167E
100
AcDbEntity
  8
RAHM2
100
AcDbLine
 10
210.0
 20
0.0
 30
0.0
 11
210.0
 21
148.5
 31
0.0
  0
LINE
  5
168F
330
167E
100
AcDbEntity
  8
RAHM2
100
AcDbLine
 10
0.0
 20
0.0
 30
0.0
 11
210.0
 21
0.0
 31
0.0
  0
ENDBLK
  5
1691
330
167E
100
AcDbEntity
  8
0
100
AcDbBlockEnd
  0
BLOCK
  5
1B77
330
169E
100
AcDbEntity
  8
0
100
AcDbBlockBegin
  2
*D5
 70
     1
 10
0.0
 20
0.0
 30
0.0
  3
*D5
  1

  0
LINE
  5
1D7F
330
169E
100
AcDbEntity
  8
5
370
    -2
100
AcDbLine
 10
-163.6161606683384
 20
279.1221444947349
 30
0.0
 11
-442.8432763656823
 21
279.1221444947349
 31
0.0
  0
LINE
  5
1D80
330
169E
100
AcDbEntity
  8
5
370
    -2
100
AcDbLine
 10
-262.0926613656823
 20
454.1131413392077
 30
0.0
 11
-442.8432763656823
 21
454.1131413392078
 31
0.0
  0
LINE
  5
1D81
330
169E
100
AcDbEntity
  8
5
370
    -2
100
AcDbLine
 10
-437.8432763656824
 20
291.6221444947349
 30
0.0
 11
-437.8432763656823
 21
441.6131413392078
 31
0.0
  0
SOLID
  5
1D82
330
169E
100
AcDbEntity
  8
5
100
AcDbTrace
 10
-439.9266096990157
 20
291.6221444947349
 30
0.0
 11
-435.759943032349
 21
291.6221444947349
 31
0.0
 12
-437.8432763656824
 22
279.1221444947349
 32
0.0
 13
-437.8432763656824
 23
279.1221444947349
 33
0.0
  0
SOLID
  5
1D83
330
169E
100
AcDbEntity
  8
5
100
AcDbTrace
 10
-439.9266096990156
 20
441.6131413392078
 30
0.0
 11
-435.759943032349
 21
441.6131413392078
 31
0.0
 12
-437.8432763656823
 22
454.1131413392078
 32
0.0
 13
-437.8432763656823
 23
454.1131413392078
 33
0.0
  0
MTEXT
  5
1D84
330
169E
100
AcDbEntity
  8
5
 62
     2
100
AcDbMText
 10
-449.5932763656823
 20
366.6176429169713
 30
0.0
 40
17.5
 41
0.0
 71
     5
 72
     1
  1
175
 11
0.0000000000000001
 21
1.0
 31
0.0
 73
     1
 44
1.0
1001
ACAD
1000
MTEXTBEGIN
1070
    73
1070
     1
1070
    44
1040
1.0
1070
    74
1070
     0
1000
MTEXTEND
  0
POINT
  5
1D85
330
169E
100
AcDbEntity
  8
DEFPOINTS
 62
     0
100
AcDbPoint
 10
-158.6161606683385
 20
279.1221444947349
 30
0.0
  0
POINT
  5
1D86
330
169E
100
AcDbEntity
  8
DEFPOINTS
 62
     0
100
AcDbPoint
 10
-257.0926613656823
 20
454.1131413392077
 30
0.0
  0
POINT
  5
1D87
330
169E
100
AcDbEntity
  8
DEFPOINTS
 62
     0
100
AcDbPoint
 10
-437.8432763656823
 20
454.1131413392078
 30
0.0
  0
ENDBLK
  5
1B81
330
169E
100
AcDbEntity
  8
0
100
AcDbBlockEnd
  0
BLOCK
  5
1AF8
330
16AA
100
AcDbEntity
  8
0
100
AcDbBlockBegin
  2
*D6
 70
     1
 10
0.0
 20
0.0
 30
0.0
  3
*D6
  1

  0
LINE
  5
1D73
330
16AA
100
AcDbEntity
  8
5
370
    -2
100
AcDbLine
 10
-278.0656613656823
 20
76.12214133920781
 30
0.0
 11
-341.5926613656822
 21
76.12214133920783
 31
0.0
  0
LINE
  5
1D74
330
16AA
100
AcDbEntity
  8
5
370
    -2
100
AcDbLine
 10
-278.0656613656823
 20
85.12214133920782
 30
0.0
 11
-341.5926613656822
 21
85.12214133920783
 31
0.0
  0
LINE
  5
1D75
330
16AA
100
AcDbEntity
  8
5
370
    -2
100
AcDbLine
 10
-336.5926613656823
 20
63.62214133920783
 30
0.0
 11
-336.5926613656823
 21
51.12214133920783
 31
0.0
  0
LINE
  5
1D76
330
16AA
100
AcDbEntity
  8
5
370
    -2
100
AcDbLine
 10
-336.5926613656823
 20
97.62214133920783
 30
0.0
 11
-336.5926613656823
 21
125.0387501722417
 31
0.0
  0
LINE
  5
1D77
330
16AA
100
AcDbEntity
  8
5
370
    -2
100
AcDbLine
 10
-336.5926613656823
 20
76.12214133920783
 30
0.0
 11
-336.5926613656823
 21
85.12214133920783
 31
0.0
  0
SOLID
  5
1D78
330
16AA
100
AcDbEntity
  8
5
100
AcDbTrace
 10
-338.6759946990156
 20
63.62214133920783
 30
0.0
 11
-334.509328032349
 21
63.62214133920783
 31
0.0
 12
-336.5926613656823
 22
76.12214133920783
 32
0.0
 13
-336.5926613656823
 23
76.12214133920783
 33
0.0
  0
SOLID
  5
1D79
330
16AA
100
AcDbEntity
  8
5
100
AcDbTrace
 10
-338.6759946990156
 20
97.62214133920783
 30
0.0
 11
-334.509328032349
 21
97.62214133920783
 31
0.0
 12
-336.5926613656823
 22
85.12214133920783
 32
0.0
 13
-336.5926613656823
 23
85.12214133920783
 33
0.0
  0
MTEXT
  5
1D7A
330
16AA
100
AcDbEntity
  8
5
 62
     2
100
AcDbMText
 10
-348.3426613656823
 20
117.5804457557247
 30
0.0
 40
17.5
 41
0.0
 71
     5
 72
     1
  1
9
 11
0.0000000000000001
 21
1.0
 31
0.0
 73
     1
 44
1.0
1001
ACAD
1000
MTEXTBEGIN
1070
    73
1070
     1
1070
    44
1040
1.0
1070
    74
1070
     0
1000
MTEXTEND
  0
POINT
  5
1D7B
330
16AA
100
AcDbEntity
  8
DEFPOINTS
 62
     0
100
AcDbPoint
 10
-273.0656613656823
 20
76.12214133920781
 30
0.0
  0
POINT
  5
1D7C
330
16AA
100
AcDbEntity
  8
DEFPOINTS
 62
     0
100
AcDbPoint
 10
-273.0656613656823
 20
85.12214133920782
 30
0.0
  0
POINT
  5
1D7D
330
16AA
100
AcDbEntity
  8
DEFPOINTS
 62
     0
100
AcDbPoint
 10
-336.5926613656823
 20
85.12214133920783
 30
0.0
  0
ENDBLK
  5
1B04
330
16AA
100
AcDbEntity
  8
0
100
AcDbBlockEnd
  0
BLOCK
  5
1B28
330
16C5
100
AcDbEntity
  8
0
100
AcDbBlockBegin
  2
*D7
 70
     1
 10
0.0
 20
0.0
 30
0.0
  3
*D7
  1

  0
LINE
  5
1D6A
330
16C5
100
AcDbEntity
  8
5
370
    -2
100
AcDbLine
 10
-288.5926613656823
 20
48.10514133920782
 30
0.0
 11
-288.5926613656823
 21
-72.87785866079218
 31
0.0
  0
LINE
  5
1D6B
330
16C5
100
AcDbEntity
  8
5
370
    -2
100
AcDbLine
 10
-28.59266136568226
 20
48.10514133920782
 30
0.0
 11
-28.59266136568227
 21
-72.87785866079218
 31
0.0
  0
LINE
  5
1D6C
330
16C5
100
AcDbEntity
  8
5
370
    -2
100
AcDbLine
 10
-276.0926613656823
 20
-67.87785866079218
 30
0.0
 11
-41.09266136568226
 21
-67.87785866079218
 31
0.0
  0
SOLID
  5
1D6D
330
16C5
100
AcDbEntity
  8
5
100
AcDbTrace
 10
-276.0926613656823
 20
-65.79452532745886
 30
0.0
 11
-276.0926613656823
 21
-69.96119199412551
 31
0.0
 12
-288.5926613656823
 22
-67.87785866079218
 32
0.0
 13
-288.5926613656823
 23
-67.87785866079218
 33
0.0
  0
SOLID
  5
1D6E
330
16C5
100
AcDbEntity
  8
5
100
AcDbTrace
 10
-41.09266136568226
 20
-65.79452532745886
 30
0.0
 11
-41.09266136568226
 21
-69.96119199412551
 31
0.0
 12
-28.59266136568227
 22
-67.87785866079218
 32
0.0
 13
-28.59266136568227
 23
-67.87785866079218
 33
0.0
  0
MTEXT
  5
1D6F
330
16C5
100
AcDbEntity
  8
5
 62
     2
100
AcDbMText
 10
-158.5926613656823
 20
-56.1261362198473
 30
0.0
 40
17.5
 41
0.0
 71
     5
 72
     1
  1
260
 73
     1
 44
1.0
1001
ACAD
1000
MTEXTBEGIN
1070
    73
1070
     1
1070
    44
1040
1.0
1070
    74
1070
     0
1000
MTEXTEND
  0
POINT
  5
1D70
330
16C5
100
AcDbEntity
  8
DEFPOINTS
 62
     0
100
AcDbPoint
 10
-288.5926613656823
 20
53.10514133920782
 30
0.0
  0
POINT
  5
1D71
330
16C5
100
AcDbEntity
  8
DEFPOINTS
 62
     0
100
AcDbPoint
 10
-28.59266136568226
 20
53.10514133920782
 30
0.0
  0
POINT
  5
1D72
330
16C5
100
AcDbEntity
  8
DEFPOINTS
 62
     0
100
AcDbPoint
 10
-28.59266136568227
 20
-67.87785866079218
 30
0.0
  0
ENDBLK
  5
1B32
330
16C5
100
AcDbEntity
  8
0
100
AcDbBlockEnd
  0
BLOCK
  5
1AAE
330
16DC
100
AcDbEntity
  8
0
100
AcDbBlockBegin
  2
*D8
 70
     1
 10
0.0
 20
0.0
 30
0.0
  3
*D8
  1

  0
LINE
  5
1D5F
330
16DC
100
AcDbEntity
  8
5
370
    -2
100
AcDbLine
 10
-238.9616613656823
 20
432.1211413392078
 30
0.0
 11
-342.8432763656823
 21
432.1211413392078
 31
0.0
  0
LINE
  5
1D60
330
16DC
100
AcDbEntity
  8
5
370
    -2
100
AcDbLine
 10
-283.2586613656823
 20
454.1221413392078
 30
0.0
 11
-342.8432763656823
 21
454.1221413392078
 31
0.0
  0
LINE
  5
1D61
330
16DC
100
AcDbEntity
  8
5
370
    -2
100
AcDbLine
 10
-337.8432763656823
 20
419.6211413392078
 30
0.0
 11
-337.8432763656823
 21
407.1211413392078
 31
0.0
  0
LINE
  5
1D62
330
16DC
100
AcDbEntity
  8
5
370
    -2
100
AcDbLine
 10
-337.8432763656823
 20
466.6221413392078
 30
0.0
 11
-337.8432763656823
 21
505.8675645675542
 31
0.0
  0
LINE
  5
1D63
330
16DC
100
AcDbEntity
  8
5
370
    -2
100
AcDbLine
 10
-337.8432763656823
 20
432.1211413392078
 30
0.0
 11
-337.8432763656823
 21
454.1221413392078
 31
0.0
  0
SOLID
  5
1D64
330
16DC
100
AcDbEntity
  8
5
100
AcDbTrace
 10
-339.9266096990156
 20
419.6211413392078
 30
0.0
 11
-335.759943032349
 21
419.6211413392078
 31
0.0
 12
-337.8432763656823
 22
432.1211413392078
 32
0.0
 13
-337.8432763656823
 23
432.1211413392078
 33
0.0
  0
SOLID
  5
1D65
330
16DC
100
AcDbEntity
  8
5
100
AcDbTrace
 10
-339.9266096990156
 20
466.6221413392078
 30
0.0
 11
-335.759943032349
 21
466.6221413392078
 31
0.0
 12
-337.8432763656823
 22
454.1221413392078
 32
0.0
 13
-337.8432763656823
 23
454.1221413392078
 33
0.0
  0
MTEXT
  5
1D66
330
16DC
100
AcDbEntity
  8
5
 62
     2
100
AcDbMText
 10
-349.5949988066272
 20
492.494852953381
 30
0.0
 40
17.5
 41
0.0
 71
     5
 72
     1
  1
22
 11
0.0000000000000001
 21
1.0
 31
0.0
 73
     1
 44
1.0
1001
ACAD
1000
MTEXTBEGIN
1070
    73
1070
     1
1070
    44
1040
1.0
1070
    74
1070
     0
1000
MTEXTEND
  0
POINT
  5
1D67
330
16DC
100
AcDbEntity
  8
DEFPOINTS
 62
     0
100
AcDbPoint
 10
-233.9616613656823
 20
432.1211413392078
 30
0.0
  0
POINT
  5
1D68
330
16DC
100
AcDbEntity
  8
DEFPOINTS
 62
     0
100
AcDbPoint
 10
-278.2586613656823
 20
454.1221413392078
 30
0.0
  0
POINT
  5
1D69
330
16DC
100
AcDbEntity
  8
DEFPOINTS
 62
     0
100
AcDbPoint
 10
-337.8432763656823
 20
454.1221413392078
 30
0.0
  0
ENDBLK
  5
1ABA
330
16DC
100
AcDbEntity
  8
0
100
AcDbBlockEnd
  0
BLOCK
  5
1B57
330
16F7
100
AcDbEntity
  8
0
100
AcDbBlockBegin
  2
*D9
 70
     1
 10
0.0
 20
0.0
 30
0.0
  3
*D9
  1
GEVFRAME
  0
LINE
  5
1D56
330
16F7
100
AcDbEntity
  8
5
370
    -2
100
AcDbLine
 10
-264.1856613656823
 20
-17.87785866079219
 30
0.0
 11
-391.5926613656823
 21
-17.87785866079216
 31
0.0
  0
LINE
  5
1D57
330
16F7
100
AcDbEntity
  8
5
370
    -2
100
AcDbLine
 10
-264.1856613656823
 20
179.1221413392078
 30
0.0
 11
-391.5926613656822
 21
179.1221413392078
 31
0.0
  0
LINE
  5
1D58
330
16F7
100
AcDbEntity
  8
5
370
    -2
100
AcDbLine
 10
-386.5926613656823
 20
-5.377858660792163
 30
0.0
 11
-386.5926613656823
 21
166.6221413392078
 31
0.0
  0
SOLID
  5
1D59
330
16F7
100
AcDbEntity
  8
5
100
AcDbTrace
 10
-388.6759946990157
 20
-5.377858660792163
 30
0.0
 11
-384.509328032349
 21
-5.377858660792163
 31
0.0
 12
-386.5926613656823
 22
-17.87785866079216
 32
0.0
 13
-386.5926613656823
 23
-17.87785866079216
 33
0.0
  0
SOLID
  5
1D5A
330
16F7
100
AcDbEntity
  8
5
100
AcDbTrace
 10
-388.6759946990156
 20
166.6221413392078
 30
0.0
 11
-384.509328032349
 21
166.6221413392078
 31
0.0
 12
-386.5926613656823
 22
179.1221413392078
 32
0.0
 13
-386.5926613656823
 23
179.1221413392078
 33
0.0
  0
MTEXT
  5
1D5B
330
16F7
100
AcDbEntity
  8
5
 62
     2
100
AcDbMText
 10
-398.3426613656823
 20
80.62214133920779
 30
0.0
 40
17.5
 41
0.0
 71
     5
 72
     1
  1
{\Fgeniso.shx|c0;\U+25A1}197
 11
0.0000000000000001
 21
1.0
 31
0.0
 73
     1
 44
1.0
1001
ACAD
1000
MTEXTBEGIN
1070
    73
1070
     1
1070
    44
1040
1.0
1070
    74
1070
     0
1000
MTEXTEND
  0
POINT
  5
1D5C
330
16F7
100
AcDbEntity
  8
DEFPOINTS
 62
     0
100
AcDbPoint
 10
-259.1856613656823
 20
-17.8778586607922
 30
0.0
  0
POINT
  5
1D5D
330
16F7
100
AcDbEntity
  8
DEFPOINTS
 62
     0
100
AcDbPoint
 10
-259.1856613656823
 20
179.1221413392078
 30
0.0
  0
POINT
  5
1D5E
330
16F7
100
AcDbEntity
  8
DEFPOINTS
 62
     0
100
AcDbPoint
 10
-386.5926613656823
 20
179.1221413392078
 30
0.0
  0
ENDBLK
  5
1B61
330
16F7
100
AcDbEntity
  8
0
100
AcDbBlockEnd
  0
BLOCK
  5
1AC8
330
170E
100
AcDbEntity
  8
0
100
AcDbBlockBegin
  2
*D10
 70
     1
 10
0.0
 20
0.0
 30
0.0
  3
*D10
  1

  0
LINE
  5
1D4D
330
170E
100
AcDbEntity
  8
5
370
    -2
100
AcDbLine
 10
-293.5926613656823
 20
404.1201413392078
 30
0.0
 11
-392.8432763656823
 21
404.1201413392078
 31
0.0
  0
LINE
  5
1D4E
330
170E
100
AcDbEntity
  8
5
370
    -2
100
AcDbLine
 10
-317.1026613656823
 20
454.1201413392078
 30
0.0
 11
-392.8432763656823
 21
454.1201413392079
 31
0.0
  0
LINE
  5
1D4F
330
170E
100
AcDbEntity
  8
5
370
    -2
100
AcDbLine
 10
-387.8432763656823
 20
416.6201413392078
 30
0.0
 11
-387.8432763656823
 21
441.6201413392079
 31
0.0
  0
SOLID
  5
1D50
330
170E
100
AcDbEntity
  8
5
100
AcDbTrace
 10
-389.9266096990156
 20
416.6201413392078
 30
0.0
 11
-385.759943032349
 21
416.6201413392078
 31
0.0
 12
-387.8432763656823
 22
404.1201413392078
 32
0.0
 13
-387.8432763656823
 23
404.1201413392078
 33
0.0
  0
SOLID
  5
1D51
330
170E
100
AcDbEntity
  8
5
100
AcDbTrace
 10
-389.9266096990156
 20
441.6201413392079
 30
0.0
 11
-385.759943032349
 21
441.6201413392079
 31
0.0
 12
-387.8432763656823
 22
454.1201413392079
 32
0.0
 13
-387.8432763656823
 23
454.1201413392079
 33
0.0
  0
MTEXT
  5
1D52
330
170E
100
AcDbEntity
  8
5
 62
     2
100
AcDbMText
 10
-399.5932763656824
 20
429.1201413392077
 30
0.0
 40
17.5
 41
0.0
 71
     5
 72
     1
  1
50
 11
0.0000000000000001
 21
1.0
 31
0.0
 73
     1
 44
1.0
1001
ACAD
1000
MTEXTBEGIN
1070
    73
1070
     1
1070
    44
1040
1.0
1070
    74
1070
     0
1000
MTEXTEND
  0
POINT
  5
1D53
330
170E
100
AcDbEntity
  8
DEFPOINTS
 62
     0
100
AcDbPoint
 10
-288.5926613656823
 20
404.1201413392078
 30
0.0
  0
POINT
  5
1D54
330
170E
100
AcDbEntity
  8
DEFPOINTS
 62
     0
100
AcDbPoint
 10
-312.1026613656823
 20
454.1201413392078
 30
0.0
  0
POINT
  5
1D55
330
170E
100
AcDbEntity
  8
DEFPOINTS
 62
     0
100
AcDbPoint
 10
-387.8432763656823
 20
454.1201413392079
 30
0.0
  0
ENDBLK
  5
1AD2
330
170E
100
AcDbEntity
  8
0
100
AcDbBlockEnd
  0
BLOCK
  5
1C59
330
1C57
100
AcDbEntity
  8
0
100
AcDbBlockBegin
  2
GENAXEH
 70
     0
 10
0.0
 20
0.0
 30
0.0
  3
GENAXEH
  1

  0
LINE
  5
1C58
330
1C57
100
AcDbEntity
  8
0
100
AcDbLine
 10
-1.0
 20
0.0
 30
0.0
 11
1.0
 21
0.0
 31
0.0
  0
ENDBLK
  5
1C5A
330
1C57
100
AcDbEntity
  8
0
100
AcDbBlockEnd
  0
ENDSEC
  0
SECTION
  2
ENTITIES
  0
POINT
  5
1001
330
1609
100
AcDbEntity
  8
PUNKTE
100
AcDbPoint
 10
-273.0656613656823
 20
76.12214133920781
 30
0.0
  0
POINT
  5
1002
330
1609
100
AcDbEntity
  8
PUNKTE
100
AcDbPoint
 10
-273.0656613656823
 20
85.12214133920782
 30
0.0
  0
LINE
  5
1003
330
1609
100
AcDbEntity
  8
0
100
AcDbLine
 10
-259.1856613656823
 20
414.1771413392077
 30
0.0
 11
-257.0926613656823
 21
454.1221413392078
 31
0.0
  0
LINE
  5
1004
330
1609
100
AcDbEntity
  8
0
100
AcDbLine
 10
-288.5926613656823
 20
404.1221413392078
 30
0.0
 11
-288.0696613656823
 21
414.1081413392077
 31
0.0
  0
LINE
  5
1005
330
1609
100
AcDbEntity
  8
0
100
AcDbLine
 10
-259.1856613656823
 20
414.1771413392077
 30
0.0
 11
-288.0656613656823
 21
414.1771413392077
 31
0.0
  0
LINE
  5
1006
330
1609
100
AcDbEntity
  8
0
100
AcDbLine
 10
-245.3836613656823
 20
413.5261413392077
 30
0.0
 11
-245.9416613656823
 21
445.4641413392078
 31
0.0
  0
LINE
  5
1007
330
1609
100
AcDbEntity
  8
0
100
AcDbLine
 10
-249.0926613656823
 20
454.1221413392078
 30
0.0
 11
-245.9416613656823
 21
445.4641413392078
 31
0.0
  0
ARC
  5
1008
330
1609
100
AcDbEntity
  8
0
100
AcDbCircle
 10
-239.8846613656823
 20
413.6221413392077
 30
0.0
 40
5.5
100
AcDbArc
 50
181.0000000000001
 51
270.0
  0
LINE
  5
100A
330
1609
100
AcDbEntity
  8
0
100
AcDbLine
 10
-288.5926613656823
 20
404.1221413392078
 30
0.0
 11
-253.4096613656823
 21
404.1221413392078
 31
0.0
  0
ARC
  5
100D
330
1609
100
AcDbEntity
  8
0
100
AcDbCircle
 10
-253.4096613656823
 20
394.1221413392078
 30
0.0
 40
10.0
100
AcDbArc
 50
2.999999999999731
 51
90.0
  0
LINE
  5
100E
330
1609
100
AcDbEntity
  8
0
100
AcDbLine
 10
-279.8156613656823
 20
414.1761413392077
 30
0.0
 11
-277.5656613656823
 21
404.1221413392078
 31
0.0
  0
LINE
  5
100F
330
1609
100
AcDbEntity
  8
0
100
AcDbLine
 10
-268.5656613656823
 20
404.1221413392078
 30
0.0
 11
-266.3156613656823
 21
414.1761413392077
 31
0.0
  0
CIRCLE
  5
1010
330
1609
100
AcDbEntity
  8
0
100
AcDbCircle
 10
-239.8846613656823
 20
413.6221413392077
 30
0.0
 40
5.5
  0
LINE
  5
1011
330
1609
100
AcDbEntity
  8
0
100
AcDbLine
 10
-158.5926613656823
 20
414.1221413392078
 30
0.0
 11
-234.4076613656823
 21
414.1221413392078
 31
0.0
  0
LINE
  5
1012
330
1609
100
AcDbEntity
  8
0
100
AcDbLine
 10
-229.0926613656823
 20
414.1221413392078
 30
0.0
 11
-229.0236613656823
 21
415.4361413392077
 31
0.0
  0
LINE
  5
1013
330
1609
100
AcDbEntity
  8
0
100
AcDbLine
 10
-241.8626613656823
 20
447.5771413392078
 30
0.0
 11
-240.8656613656823
 21
419.0331413392077
 31
0.0
  0
LINE
  5
1014
330
1609
100
AcDbEntity
  8
0
100
AcDbLine
 10
-244.4176613656823
 20
449.1221413392078
 30
0.0
 11
-243.4616613656823
 21
449.1221413392078
 31
0.0
  0
ARC
  5
1015
330
1609
100
AcDbEntity
  8
0
100
AcDbCircle
 10
-243.4616613656823
 20
447.5221413392078
 30
0.0
 40
1.6
100
AcDbArc
 50
2.000000000000471
 51
90.0
  0
LINE
  5
1016
330
1609
100
AcDbEntity
  8
0
100
AcDbLine
 10
-60.09266136568226
 20
454.1221413392078
 30
0.0
 11
-257.0926613656823
 21
454.1221413392078
 31
0.0
  0
LINE
  5
1017
330
1609
100
AcDbEntity
  8
0
100
AcDbLine
 10
-57.9996613656823
 20
414.1771413392077
 30
0.0
 11
-60.09266136568226
 21
454.1221413392078
 31
0.0
  0
LINE
  5
1018
330
1609
100
AcDbEntity
  8
0
100
AcDbLine
 10
-28.59266136568226
 20
404.1221413392078
 30
0.0
 11
-29.11566136568229
 21
414.1081413392077
 31
0.0
  0
LINE
  5
1019
330
1609
100
AcDbEntity
  8
0
100
AcDbLine
 10
-57.9996613656823
 20
414.1771413392077
 30
0.0
 11
-29.11966136568231
 21
414.1771413392077
 31
0.0
  0
LINE
  5
101A
330
1609
100
AcDbEntity
  8
0
100
AcDbLine
 10
-71.80166136568232
 20
413.5261413392077
 30
0.0
 11
-71.24366136568233
 21
445.4641413392078
 31
0.0
  0
LINE
  5
101B
330
1609
100
AcDbEntity
  8
0
100
AcDbLine
 10
-68.09266136568232
 20
454.1221413392078
 30
0.0
 11
-71.24366136568233
 21
445.4641413392078
 31
0.0
  0
ARC
  5
101C
330
1609
100
AcDbEntity
  8
0
100
AcDbCircle
 10
-77.29966136568231
 20
413.6221413392077
 30
0.0
 40
5.5
100
AcDbArc
 50
270.0
 51
358.9999999999998
  0
LINE
  5
101D
330
1609
100
AcDbEntity
  8
0
100
AcDbLine
 10
-28.59266136568226
 20
404.1221413392078
 30
0.0
 11
-63.77566136568225
 21
404.1221413392078
 31
0.0
  0
ARC
  5
1020
330
1609
100
AcDbEntity
  8
0
100
AcDbCircle
 10
-63.77566136568225
 20
394.1221413392078
 30
0.0
 40
10.0
100
AcDbArc
 50
90.0
 51
177.0000000000002
  0
LINE
  5
1021
330
1609
100
AcDbEntity
  8
0
100
AcDbLine
 10
-37.36966136568231
 20
414.1761413392077
 30
0.0
 11
-39.61966136568231
 21
404.1221413392078
 31
0.0
  0
LINE
  5
1022
330
1609
100
AcDbEntity
  8
0
100
AcDbLine
 10
-48.61966136568231
 20
404.1221413392078
 30
0.0
 11
-50.8696613656823
 21
414.1771413392077
 31
0.0
  0
CIRCLE
  5
1023
330
1609
100
AcDbEntity
  8
0
100
AcDbCircle
 10
-77.29966136568231
 20
413.6221413392077
 30
0.0
 40
5.5
  0
LINE
  5
1024
330
1609
100
AcDbEntity
  8
0
100
AcDbLine
 10
-73.26666136568229
 20
449.1221413392078
 30
0.0
 11
-73.72366136568229
 21
449.1221413392078
 31
0.0
  0
LINE
  5
1025
330
1609
100
AcDbEntity
  8
0
100
AcDbLine
 10
-77.30066136568229
 20
408.1221413392078
 30
0.0
 11
-239.8846613656823
 21
408.1221413392078
 31
0.0
  0
LINE
  5
103A
330
1609
100
AcDbEntity
  8
0
100
AcDbLine
 10
-238.5926613656823
 20
454.1221413392078
 30
0.0
 11
-237.9586613656823
 21
435.9821413392078
 31
0.0
  0
LINE
  5
103B
330
1609
100
AcDbEntity
  8
0
100
AcDbLine
 10
-244.5916613656823
 20
454.1041413392077
 30
0.0
 11
-244.4176613656823
 21
449.1041413392077
 31
0.0
  0
ARC
  5
103C
330
1609
100
AcDbEntity
  8
0
100
AcDbCircle
 10
-233.9616613656823
 20
436.1221413392078
 30
0.0
 40
4.0
100
AcDbArc
 50
182.0000000000004
 51
270.0
  0
ARC
  5
103D
330
1609
100
AcDbEntity
  8
0
100
AcDbCircle
 10
-223.0316613656823
 20
415.1221413392078
 30
0.0
 40
6.0
100
AcDbArc
 50
90.0
 51
177.0000000000002
  0
LINE
  5
103E
330
1609
100
AcDbEntity
  8
0
100
AcDbLine
 10
-158.5926613656823
 20
414.1221413392078
 30
0.0
 11
-82.77766136568232
 21
414.1221413392078
 31
0.0
  0
LINE
  5
103F
330
1609
100
AcDbEntity
  8
0
100
AcDbLine
 10
-88.09266136568231
 20
414.1221413392078
 30
0.0
 11
-88.16166136568227
 21
415.4361413392077
 31
0.0
  0
LINE
  5
1040
330
1609
100
AcDbEntity
  8
0
100
AcDbLine
 10
-75.32266136568228
 20
447.5781413392078
 30
0.0
 11
-76.31866136568231
 21
419.0341413392078
 31
0.0
  0
LINE
  5
1041
330
1609
100
AcDbEntity
  8
0
100
AcDbLine
 10
-72.76766136568227
 20
449.1221413392078
 30
0.0
 11
-73.72366136568229
 21
449.1221413392078
 31
0.0
  0
ARC
  5
1042
330
1609
100
AcDbEntity
  8
0
100
AcDbCircle
 10
-73.72366136568229
 20
447.5221413392078
 30
0.0
 40
1.6
100
AcDbArc
 50
90.0
 51
177.9999999999995
  0
LINE
  5
1043
330
1609
100
AcDbEntity
  8
0
100
AcDbLine
 10
-83.22366136568229
 20
432.1221413392078
 30
0.0
 11
-233.9616613656823
 21
432.1221413392078
 31
0.0
  0
LINE
  5
1044
330
1609
100
AcDbEntity
  8
0
100
AcDbLine
 10
-78.59266136568232
 20
454.1221413392078
 30
0.0
 11
-79.2256613656823
 21
435.9821413392078
 31
0.0
  0
LINE
  5
1045
330
1609
100
AcDbEntity
  8
0
100
AcDbLine
 10
-72.59366136568229
 20
454.1041413392077
 30
0.0
 11
-72.76766136568227
 21
449.1041413392077
 31
0.0
  0
ARC
  5
1046
330
1609
100
AcDbEntity
  8
0
100
AcDbCircle
 10
-83.22366136568229
 20
436.1221413392078
 30
0.0
 40
4.0
100
AcDbArc
 50
270.0
 51
357.9999999999995
  0
LINE
  5
1047
330
1609
100
AcDbEntity
  8
0
100
AcDbLine
 10
-94.15366136568229
 20
421.1221413392078
 30
0.0
 11
-223.0316613656823
 21
421.1221413392078
 31
0.0
  0
ARC
  5
1048
330
1609
100
AcDbEntity
  8
0
100
AcDbCircle
 10
-94.15266136568233
 20
415.1221413392078
 30
0.0
 40
6.0
100
AcDbArc
 50
2.999999999999731
 51
90.0
  0
LINE
  5
1049
330
1609
100
AcDbEntity
  8
0
100
AcDbLine
 10
-288.5926613656823
 20
53.10514133920782
 30
0.0
 11
-288.5926613656823
 21
108.1381413392078
 31
0.0
  0
LINE
  5
104A
330
1609
100
AcDbEntity
  8
0
100
AcDbLine
 10
-257.0926613656823
 20
-15.87885866079219
 30
0.0
 11
-257.0926613656823
 21
177.1221413392078
 31
0.0
  0
LINE
  5
104B
330
1609
100
AcDbEntity
  8
0
100
AcDbLine
 10
-259.1856613656823
 20
-17.8778586607922
 30
0.0
 11
-259.1856613656823
 21
179.1221413392078
 31
0.0
  0
LINE
  5
104C
330
1609
100
AcDbEntity
  8
0
100
AcDbLine
 10
-57.99866136568232
 20
-17.8778586607922
 30
0.0
 11
-259.1856613656823
 21
-17.8778586607922
 31
0.0
  0
LINE
  5
104D
330
1609
100
AcDbEntity
  8
0
100
AcDbLine
 10
-60.09266136568226
 20
-15.8778586607922
 30
0.0
 11
-257.0926613656823
 21
-15.87885866079219
 31
0.0
  0
LINE
  5
104E
330
1609
100
AcDbEntity
  8
0
100
AcDbLine
 10
-60.09266136568226
 20
177.1221413392078
 30
0.0
 11
-257.0926613656823
 21
177.1221413392078
 31
0.0
  0
LINE
  5
104F
330
1609
100
AcDbEntity
  8
0
100
AcDbLine
 10
-57.99866136568232
 20
179.1221413392078
 30
0.0
 11
-259.1856613656823
 21
179.1221413392078
 31
0.0
  0
LINE
  5
1051
330
1609
100
AcDbEntity
  8
0
100
AcDbLine
 10
-286.5926613656823
 20
53.10514133920782
 30
0.0
 11
-286.5926613656823
 21
108.1381413392078
 31
0.0
  0
LINE
  5
1052
330
1609
100
AcDbEntity
  8
0
100
AcDbLine
 10
-259.1856613656823
 20
120.6221413392078
 30
0.0
 11
-284.1456613656823
 21
113.9341413392078
 31
0.0
  0
LINE
  5
1053
330
1609
100
AcDbEntity
  8
0
100
AcDbLine
 10
-259.1856613656823
 20
40.62214133920782
 30
0.0
 11
-284.1456613656823
 21
47.3101413392078
 31
0.0
  0
LINE
  5
1054
330
1609
100
AcDbEntity
  8
0
100
AcDbLine
 10
-259.1856613656823
 20
118.5511413392078
 30
0.0
 11
-283.6276613656823
 21
112.0021413392078
 31
0.0
  0
LINE
  5
1055
330
1609
100
AcDbEntity
  8
0
100
AcDbLine
 10
-259.1856613656823
 20
42.6921413392078
 30
0.0
 11
-283.6276613656823
 21
49.24114133920781
 31
0.0
  0
ARC
  5
1056
330
1609
100
AcDbEntity
  8
0
100
AcDbCircle
 10
-282.5926613656823
 20
108.1381413392078
 30
0.0
 40
6.0
100
AcDbArc
 50
105.0000000000011
 51
180.0
  0
ARC
  5
1057
330
1609
100
AcDbEntity
  8
0
100
AcDbCircle
 10
-282.5926613656823
 20
53.10514133920782
 30
0.0
 40
6.0
100
AcDbArc
 50
180.0
 51
254.9999999999988
  0
ARC
  5
1058
330
1609
100
AcDbEntity
  8
0
100
AcDbCircle
 10
-282.5926613656823
 20
108.1381413392078
 30
0.0
 40
4.0
100
AcDbArc
 50
105.0000000000011
 51
180.0
  0
ARC
  5
1059
330
1609
100
AcDbEntity
  8
0
100
AcDbCircle
 10
-282.5926613656823
 20
53.10514133920782
 30
0.0
 40
4.0
100
AcDbArc
 50
180.0
 51
254.9999999999988
  0
CIRCLE
  5
105A
330
1609
100
AcDbEntity
  8
0
100
AcDbCircle
 10
-273.0656613656823
 20
80.62214133920781
 30
0.0
 40
6.75
  0
LINE
  5
105B
330
1609
100
AcDbEntity
  8
0
100
AcDbLine
 10
-232.2676613656823
 20
9.694141339207817
 30
0.0
 11
-225.7676613656823
 21
5.942141339207807
 31
0.0
  0
LINE
  5
105C
330
1609
100
AcDbEntity
  8
0
100
AcDbLine
 10
-225.7666613656823
 20
5.942141339207807
 30
0.0
 11
-219.2676613656823
 21
9.694141339207817
 31
0.0
  0
LINE
  5
105D
330
1609
100
AcDbEntity
  8
0
100
AcDbLine
 10
-219.2676613656823
 20
9.695141339207793
 30
0.0
 11
-219.2666613656823
 21
17.19814133920781
 31
0.0
  0
LINE
  5
105E
330
1609
100
AcDbEntity
  8
0
100
AcDbLine
 10
-219.2676613656823
 20
17.19914133920781
 30
0.0
 11
-225.7686613656823
 21
20.9531413392078
 31
0.0
  0
LINE
  5
105F
330
1609
100
AcDbEntity
  8
0
100
AcDbLine
 10
-232.2676613656823
 20
17.20114133920779
 30
0.0
 11
-232.2676613656823
 21
9.694141339207817
 31
0.0
  0
LINE
  5
1060
330
1609
100
AcDbEntity
  8
0
100
AcDbLine
 10
-225.7696613656823
 20
20.9531413392078
 30
0.0
 11
-232.2666613656823
 21
17.2021413392078
 31
0.0
  0
LINE
  5
1061
330
1609
100
AcDbEntity
  8
0
100
AcDbLine
 10
-97.91666136568228
 20
144.0431413392078
 30
0.0
 11
-91.41766136568231
 21
140.2901413392078
 31
0.0
  0
LINE
  5
1062
330
1609
100
AcDbEntity
  8
0
100
AcDbLine
 10
-91.41666136568227
 20
140.2911413392078
 30
0.0
 11
-84.91666136568227
 21
144.0431413392078
 31
0.0
  0
LINE
  5
1063
330
1609
100
AcDbEntity
  8
0
100
AcDbLine
 10
-84.91666136568227
 20
144.0441413392077
 30
0.0
 11
-84.91666136568227
 21
151.5501413392078
 31
0.0
  0
LINE
  5
1064
330
1609
100
AcDbEntity
  8
0
100
AcDbLine
 10
-84.9176613656823
 20
151.5511413392078
 30
0.0
 11
-91.41666136568227
 21
155.3031413392078
 31
0.0
  0
LINE
  5
1065
330
1609
100
AcDbEntity
  8
0
100
AcDbLine
 10
-97.91766136568231
 20
151.5501413392078
 30
0.0
 11
-97.91766136568231
 21
144.0441413392077
 31
0.0
  0
LINE
  5
1066
330
1609
100
AcDbEntity
  8
0
100
AcDbLine
 10
-91.41766136568231
 20
155.3031413392078
 30
0.0
 11
-97.91666136568228
 21
151.5511413392078
 31
0.0
  0
LINE
  5
106B
330
1609
100
AcDbEntity
  8
0
100
AcDbLine
 10
-28.59266136568226
 20
53.10514133920782
 30
0.0
 11
-28.59266136568226
 21
108.1381413392078
 31
0.0
  0
LINE
  5
106C
330
1609
100
AcDbEntity
  8
0
100
AcDbLine
 10
-60.09266136568226
 20
-15.8778586607922
 30
0.0
 11
-60.09266136568226
 21
177.1221413392078
 31
0.0
  0
LINE
  5
106D
330
1609
100
AcDbEntity
  8
0
100
AcDbLine
 10
-57.99866136568232
 20
-17.8778586607922
 30
0.0
 11
-57.99866136568232
 21
179.1221413392078
 31
0.0
  0
LINE
  5
106E
330
1609
100
AcDbEntity
  8
0
100
AcDbLine
 10
-30.59266136568226
 20
53.10514133920782
 30
0.0
 11
-30.59266136568226
 21
108.1381413392078
 31
0.0
  0
LINE
  5
106F
330
1609
100
AcDbEntity
  8
0
100
AcDbLine
 10
-57.99866136568232
 20
120.6221413392078
 30
0.0
 11
-33.03966136568226
 21
113.9341413392078
 31
0.0
  0
LINE
  5
1070
330
1609
100
AcDbEntity
  8
0
100
AcDbLine
 10
-57.99866136568232
 20
40.62214133920782
 30
0.0
 11
-33.03966136568226
 21
47.30914133920779
 31
0.0
  0
LINE
  5
1071
330
1609
100
AcDbEntity
  8
0
100
AcDbLine
 10
-57.99866136568232
 20
118.5511413392078
 30
0.0
 11
-33.5576613656823
 21
112.0021413392078
 31
0.0
  0
LINE
  5
1072
330
1609
100
AcDbEntity
  8
0
100
AcDbLine
 10
-57.99866136568232
 20
42.6921413392078
 30
0.0
 11
-33.55666136568232
 21
49.24214133920782
 31
0.0
  0
ARC
  5
1073
330
1609
100
AcDbEntity
  8
0
100
AcDbCircle
 10
-34.59266136568226
 20
108.1381413392078
 30
0.0
 40
6.0
100
AcDbArc
 50
0.0
 51
74.99999999999883
  0
ARC
  5
1074
330
1609
100
AcDbEntity
  8
0
100
AcDbCircle
 10
-34.59266136568226
 20
53.10514133920782
 30
0.0
 40
6.0
100
AcDbArc
 50
285.0000000000012
 51
0.0
  0
ARC
  5
1075
330
1609
100
AcDbEntity
  8
0
100
AcDbCircle
 10
-34.59266136568226
 20
108.1381413392078
 30
0.0
 40
4.0
100
AcDbArc
 50
0.0
 51
74.99999999999883
  0
ARC
  5
1076
330
1609
100
AcDbEntity
  8
0
100
AcDbCircle
 10
-34.59266136568226
 20
53.10514133920782
 30
0.0
 40
4.0
100
AcDbArc
 50
285.0000000000012
 51
0.0
  0
CIRCLE
  5
1077
330
1609
100
AcDbEntity
  8
0
100
AcDbCircle
 10
-44.11966136568231
 20
80.62214133920781
 30
0.0
 40
6.75
  0
LINE
  5
1078
330
1609
100
AcDbEntity
  8
0
100
AcDbLine
 10
-68.09266136568232
 20
169.6221413392078
 30
0.0
 11
-68.09266136568232
 21
94.12214133920782
 31
0.0
  0
LINE
  5
1079
330
1609
100
AcDbEntity
  8
0
100
AcDbLine
 10
-72.59266136568232
 20
165.1221413392078
 30
0.0
 11
-72.59266136568232
 21
-6.877858660792199
 31
0.0
  0
LINE
  5
107A
330
1609
100
AcDbEntity
  8
0
100
AcDbLine
 10
-78.59266136568232
 20
127.1221413392078
 30
0.0
 11
-78.59266136568232
 21
3.122141339207814
 31
0.0
  0
LINE
  5
107B
330
1609
100
AcDbEntity
  8
0
100
AcDbLine
 10
-249.0926613656823
 20
169.6221413392078
 30
0.0
 11
-249.0926613656823
 21
94.12214133920782
 31
0.0
  0
LINE
  5
107C
330
1609
100
AcDbEntity
  8
0
100
AcDbLine
 10
-244.5926613656823
 20
165.1221413392078
 30
0.0
 11
-244.5926613656823
 21
-6.877858660792199
 31
0.0
  0
LINE
  5
107D
330
1609
100
AcDbEntity
  8
0
100
AcDbLine
 10
-238.5926613656823
 20
155.1221413392078
 30
0.0
 11
-238.5926613656823
 21
31.12214133920782
 31
0.0
  0
LINE
  5
107E
330
1609
100
AcDbEntity
  8
0
100
AcDbLine
 10
-68.09266136568232
 20
169.6221413392078
 30
0.0
 11
-249.0926613656823
 21
169.6221413392078
 31
0.0
  0
LINE
  5
107F
330
1609
100
AcDbEntity
  8
0
100
AcDbLine
 10
-68.09266136568232
 20
-11.3778586607922
 30
0.0
 11
-249.0926613656823
 21
-11.3778586607922
 31
0.0
  0
LINE
  5
1080
330
1609
100
AcDbEntity
  8
0
100
AcDbLine
 10
-72.59266136568232
 20
165.1221413392078
 30
0.0
 11
-244.5926613656823
 21
165.1221413392078
 31
0.0
  0
LINE
  5
1081
330
1609
100
AcDbEntity
  8
0
100
AcDbLine
 10
-72.59266136568232
 20
-6.877858660792199
 30
0.0
 11
-244.5926613656823
 21
-6.877858660792199
 31
0.0
  0
LINE
  5
1082
330
1609
100
AcDbEntity
  8
0
100
AcDbLine
 10
-82.59266136568232
 20
-0.8778586607921994
 30
0.0
 11
-206.5926613656823
 21
-0.8778586607921994
 31
0.0
  0
LINE
  5
1083
330
1609
100
AcDbEntity
  8
0
100
AcDbLine
 10
-82.59266136568232
 20
131.1221413392078
 30
0.0
 11
-102.5926613656823
 21
131.1221413392078
 31
0.0
  0
LINE
  5
1084
330
1609
100
AcDbEntity
  8
0
100
AcDbLine
 10
-214.5926613656823
 20
27.12214133920781
 30
0.0
 11
-234.5926613656823
 21
27.12214133920781
 31
0.0
  0
LINE
  5
1085
330
1609
100
AcDbEntity
  8
0
100
AcDbLine
 10
-210.5926613656823
 20
23.12214133920782
 30
0.0
 11
-210.5926613656823
 21
3.122141339207814
 31
0.0
  0
LINE
  5
1086
330
1609
100
AcDbEntity
  8
0
100
AcDbLine
 10
-106.5926613656823
 20
155.1221413392078
 30
0.0
 11
-106.5926613656823
 21
135.1221413392078
 31
0.0
  0
LINE
  5
1087
330
1609
100
AcDbEntity
  8
0
100
AcDbLine
 10
-110.5926613656823
 20
159.1221413392078
 30
0.0
 11
-234.5926613656823
 21
159.1221413392078
 31
0.0
  0
ARC
  5
1088
330
1609
100
AcDbEntity
  8
0
100
AcDbCircle
 10
-110.5926613656823
 20
155.1221413392078
 30
0.0
 40
4.0
100
AcDbArc
 50
0.0
 51
90.0
  0
ARC
  5
1089
330
1609
100
AcDbEntity
  8
0
100
AcDbCircle
 10
-82.59266136568232
 20
127.1221413392078
 30
0.0
 40
4.0
100
AcDbArc
 50
0.0
 51
90.0
  0
ARC
  5
108A
330
1609
100
AcDbEntity
  8
0
100
AcDbCircle
 10
-82.59266136568232
 20
3.122141339207814
 30
0.0
 40
4.0
100
AcDbArc
 50
270.0
 51
0.0
  0
ARC
  5
108B
330
1609
100
AcDbEntity
  8
0
100
AcDbCircle
 10
-206.5926613656823
 20
3.122141339207814
 30
0.0
 40
4.0
100
AcDbArc
 50
180.0
 51
270.0
  0
ARC
  5
108C
330
1609
100
AcDbEntity
  8
0
100
AcDbCircle
 10
-234.5926613656823
 20
31.12214133920782
 30
0.0
 40
4.0
100
AcDbArc
 50
180.0
 51
270.0
  0
ARC
  5
108D
330
1609
100
AcDbEntity
  8
0
100
AcDbCircle
 10
-234.5926613656823
 20
155.1221413392078
 30
0.0
 40
4.0
100
AcDbArc
 50
90.0
 51
180.0
  0
ARC
  5
108E
330
1609
100
AcDbEntity
  8
0
100
AcDbCircle
 10
-102.5926613656823
 20
135.1221413392078
 30
0.0
 40
4.0
100
AcDbArc
 50
180.0
 51
270.0
  0
ARC
  5
108F
330
1609
100
AcDbEntity
  8
0
100
AcDbCircle
 10
-214.5926613656823
 20
23.12214133920782
 30
0.0
 40
4.0
100
AcDbArc
 50
0.0
 51
90.0
  0
CIRCLE
  5
1090
330
1609
100
AcDbEntity
  8
0
100
AcDbCircle
 10
-225.7676613656823
 20
13.4461413392078
 30
0.0
 40
11.0
  0
CIRCLE
  5
1091
330
1609
100
AcDbEntity
  8
0
100
AcDbCircle
 10
-91.41766136568231
 20
147.7971413392078
 30
0.0
 40
11.0
  0
LINE
  5
1092
330
1609
100
AcDbEntity
  8
0
100
AcDbLine
 10
-66.09266136568232
 20
94.12214133920782
 30
0.0
 11
-68.09266136568232
 21
94.12214133920782
 31
0.0
  0
LINE
  5
1093
330
1609
100
AcDbEntity
  8
0
100
AcDbLine
 10
-66.09266136568232
 20
64.12214133920781
 30
0.0
 11
-68.09266136568232
 21
64.12214133920781
 31
0.0
  0
LINE
  5
1094
330
1609
100
AcDbEntity
  8
0
100
AcDbLine
 10
-66.09266136568232
 20
94.12214133920782
 30
0.0
 11
-66.09266136568232
 21
64.12214133920781
 31
0.0
  0
LINE
  5
1095
330
1609
100
AcDbEntity
  8
0
100
AcDbLine
 10
-68.09266136568232
 20
64.12214133920781
 30
0.0
 11
-68.09266136568232
 21
-11.3778586607922
 31
0.0
  0
LINE
  5
1096
330
1609
100
AcDbEntity
  8
0
100
AcDbLine
 10
-251.0926613656823
 20
94.12214133920782
 30
0.0
 11
-249.0926613656823
 21
94.12214133920782
 31
0.0
  0
LINE
  5
1097
330
1609
100
AcDbEntity
  8
0
100
AcDbLine
 10
-251.0926613656823
 20
64.12214133920781
 30
0.0
 11
-249.0926613656823
 21
64.12214133920781
 31
0.0
  0
LINE
  5
1098
330
1609
100
AcDbEntity
  8
0
100
AcDbLine
 10
-251.0926613656823
 20
94.12214133920782
 30
0.0
 11
-251.0926613656823
 21
64.12214133920781
 31
0.0
  0
LINE
  5
1099
330
1609
100
AcDbEntity
  8
0
100
AcDbLine
 10
-249.0926613656823
 20
64.12214133920781
 30
0.0
 11
-249.0926613656823
 21
-11.3778586607922
 31
0.0
  0
CIRCLE
  5
109C
330
1609
100
AcDbEntity
  8
0
100
AcDbCircle
 10
-44.11966136568231
 20
80.62214133920781
 30
0.0
 40
4.5
  0
CIRCLE
  5
109D
330
1609
100
AcDbEntity
  8
0
100
AcDbCircle
 10
-273.0656613656823
 20
80.62214133920781
 30
0.0
 40
4.5
  0
POLYLINE
  5
109F
330
1609
100
AcDbEntity
  8
SCHRAFFUR_RAND
100
AcDb2dPolyline
 66
     1
 10
0.0
 20
0.0
 30
0.0
 70
     1
  0
VERTEX
  5
10A0
330
109F
100
AcDbEntity
  8
SCHRAFFUR_RAND
100
AcDbVertex
100
AcDb2dVertex
 10
-242.8406613656823
 20
418.2601413392078
 30
0.0
  0
VERTEX
  5
10A1
330
109F
100
AcDbEntity
  8
SCHRAFFUR_RAND
100
AcDbVertex
100
AcDb2dVertex
 10
-243.0726613656823
 20
418.1381413392077
 30
0.0
  0
VERTEX
  5
10A2
330
109F
100
AcDbEntity
  8
SCHRAFFUR_RAND
100
AcDbVertex
100
AcDb2dVertex
 10
-244.1726613656823
 20
417.1101413392078
 30
0.0
  0
VERTEX
  5
10A3
330
109F
100
AcDbEntity
  8
SCHRAFFUR_RAND
100
AcDbVertex
100
AcDb2dVertex
 10
-244.9556613656823
 20
415.8241413392078
 30
0.0
  0
VERTEX
  5
10A4
330
109F
100
AcDbEntity
  8
SCHRAFFUR_RAND
100
AcDbVertex
100
AcDb2dVertex
 10
-245.3616613656823
 20
414.3741413392077
 30
0.0
  0
VERTEX
  5
10A5
330
109F
100
AcDbEntity
  8
SCHRAFFUR_RAND
100
AcDbVertex
100
AcDb2dVertex
 10
-245.3836613656823
 20
413.5261413392077
 30
0.0
  0
VERTEX
  5
10A6
330
109F
100
AcDbEntity
  8
SCHRAFFUR_RAND
100
AcDbVertex
100
AcDb2dVertex
 10
-245.2036613656823
 20
412.1131413392078
 30
0.0
  0
VERTEX
  5
10A7
330
109F
100
AcDbEntity
  8
SCHRAFFUR_RAND
100
AcDbVertex
100
AcDb2dVertex
 10
-244.9556613656823
 20
411.4191413392078
 30
0.0
  0
VERTEX
  5
10A8
330
109F
100
AcDbEntity
  8
SCHRAFFUR_RAND
100
AcDbVertex
100
AcDb2dVertex
 10
-244.6396613656823
 20
410.8021413392077
 30
0.0
  0
VERTEX
  5
10A9
330
109F
100
AcDbEntity
  8
SCHRAFFUR_RAND
100
AcDbVertex
100
AcDb2dVertex
 10
-244.1726613656823
 20
410.1331413392077
 30
0.0
  0
VERTEX
  5
10AA
330
109F
100
AcDbEntity
  8
SCHRAFFUR_RAND
100
AcDbVertex
100
AcDb2dVertex
 10
-243.7596613656823
 20
409.6791413392078
 30
0.0
  0
VERTEX
  5
10AB
330
109F
100
AcDbEntity
  8
SCHRAFFUR_RAND
100
AcDbVertex
100
AcDb2dVertex
 10
-243.0726613656823
 20
409.1061413392078
 30
0.0
  0
VERTEX
  5
10AC
330
109F
100
AcDbEntity
  8
SCHRAFFUR_RAND
100
AcDbVertex
100
AcDb2dVertex
 10
-242.6206613656823
 20
408.8181413392078
 30
0.0
  0
VERTEX
  5
10AD
330
109F
100
AcDbEntity
  8
SCHRAFFUR_RAND
100
AcDbVertex
100
AcDb2dVertex
 10
-241.7356613656823
 20
408.4131413392077
 30
0.0
  0
VERTEX
  5
10AE
330
109F
100
AcDbEntity
  8
SCHRAFFUR_RAND
100
AcDbVertex
100
AcDb2dVertex
 10
-241.2996613656823
 20
408.2781413392077
 30
0.0
  0
VERTEX
  5
10AF
330
109F
100
AcDbEntity
  8
SCHRAFFUR_RAND
100
AcDbVertex
100
AcDb2dVertex
 10
-239.8846613656823
 20
408.1221413392078
 30
0.0
  0
VERTEX
  5
10B0
330
109F
100
AcDbEntity
  8
SCHRAFFUR_RAND
100
AcDbVertex
100
AcDb2dVertex
 10
-238.7596613656823
 20
408.2091413392078
 30
0.0
  0
VERTEX
  5
10B1
330
109F
100
AcDbEntity
  8
SCHRAFFUR_RAND
100
AcDbVertex
100
AcDb2dVertex
 10
-237.3416613656823
 20
408.7131413392078
 30
0.0
  0
VERTEX
  5
10B2
330
109F
100
AcDbEntity
  8
SCHRAFFUR_RAND
100
AcDbVertex
100
AcDb2dVertex
 10
-236.1116613656823
 20
409.5821413392078
 30
0.0
  0
VERTEX
  5
10B3
330
109F
100
AcDbEntity
  8
SCHRAFFUR_RAND
100
AcDbVertex
100
AcDb2dVertex
 10
-235.1616613656823
 20
410.7491413392077
 30
0.0
  0
VERTEX
  5
10B4
330
109F
100
AcDbEntity
  8
SCHRAFFUR_RAND
100
AcDbVertex
100
AcDb2dVertex
 10
-234.5616613656823
 20
412.1311413392078
 30
0.0
  0
VERTEX
  5
10B5
330
109F
100
AcDbEntity
  8
SCHRAFFUR_RAND
100
AcDbVertex
100
AcDb2dVertex
 10
-234.3846613656823
 20
413.6221413392077
 30
0.0
  0
VERTEX
  5
10B6
330
109F
100
AcDbEntity
  8
SCHRAFFUR_RAND
100
AcDbVertex
100
AcDb2dVertex
 10
-234.4076613656823
 20
414.1221413392078
 30
0.0
  0
VERTEX
  5
10B7
330
109F
100
AcDbEntity
  8
SCHRAFFUR_RAND
100
AcDbVertex
100
AcDb2dVertex
 10
-234.5616613656823
 20
415.1131413392078
 30
0.0
  0
VERTEX
  5
10B8
330
109F
100
AcDbEntity
  8
SCHRAFFUR_RAND
100
AcDbVertex
100
AcDb2dVertex
 10
-235.1616613656823
 20
416.4941413392077
 30
0.0
  0
VERTEX
  5
10B9
330
109F
100
AcDbEntity
  8
SCHRAFFUR_RAND
100
AcDbVertex
100
AcDb2dVertex
 10
-236.1116613656823
 20
417.6621413392077
 30
0.0
  0
VERTEX
  5
10BA
330
109F
100
AcDbEntity
  8
SCHRAFFUR_RAND
100
AcDbVertex
100
AcDb2dVertex
 10
-237.3416613656823
 20
418.5301413392078
 30
0.0
  0
VERTEX
  5
10BB
330
109F
100
AcDbEntity
  8
SCHRAFFUR_RAND
100
AcDbVertex
100
AcDb2dVertex
 10
-238.7596613656823
 20
419.0341413392078
 30
0.0
  0
VERTEX
  5
10BC
330
109F
100
AcDbEntity
  8
SCHRAFFUR_RAND
100
AcDbVertex
100
AcDb2dVertex
 10
-240.2616613656823
 20
419.1371413392078
 30
0.0
  0
VERTEX
  5
10BD
330
109F
100
AcDbEntity
  8
SCHRAFFUR_RAND
100
AcDbVertex
100
AcDb2dVertex
 10
-240.8656613656823
 20
419.0341413392078
 30
0.0
  0
VERTEX
  5
10BE
330
109F
100
AcDbEntity
  8
SCHRAFFUR_RAND
100
AcDbVertex
100
AcDb2dVertex
 10
-241.7356613656823
 20
418.8311413392077
 30
0.0
  0
VERTEX
  5
10BF
330
109F
100
AcDbEntity
  8
SCHRAFFUR_RAND
100
AcDbVertex
100
AcDb2dVertex
 10
-242.8406613656823
 20
418.2601413392078
 30
0.0
  0
SEQEND
  5
10C0
330
109F
100
AcDbEntity
  8
SCHRAFFUR_RAND
  0
INSERT
  5
10C6
330
1609
100
AcDbEntity
  8
8
100
AcDbBlockReference
  2
*X0
 10
-377.1966613656823
 20
-222.8778586607922
 30
0.0
1001
ACAD
1000
HATCH
1002
{
1070
    19
1000
ANSI31,_I
1040
3.174999999999999
1040
2.355999999999999
1002
}
  0
POLYLINE
  5
10C7
330
1609
100
AcDbEntity
  8
SCHRAFFUR_RAND
100
AcDb2dPolyline
 66
     1
 10
0.0
 20
0.0
 30
0.0
 70
     1
  0
VERTEX
  5
10C8
330
10C7
100
AcDbEntity
  8
SCHRAFFUR_RAND
100
AcDbVertex
100
AcDb2dVertex
 10
-242.8406613656823
 20
418.2601413392078
 30
0.0
  0
VERTEX
  5
10C9
330
10C7
100
AcDbEntity
  8
SCHRAFFUR_RAND
100
AcDbVertex
100
AcDb2dVertex
 10
-243.0726613656823
 20
418.1381413392077
 30
0.0
  0
VERTEX
  5
10CA
330
10C7
100
AcDbEntity
  8
SCHRAFFUR_RAND
100
AcDbVertex
100
AcDb2dVertex
 10
-244.1726613656823
 20
417.1101413392078
 30
0.0
  0
VERTEX
  5
10CB
330
10C7
100
AcDbEntity
  8
SCHRAFFUR_RAND
100
AcDbVertex
100
AcDb2dVertex
 10
-244.9556613656823
 20
415.8241413392078
 30
0.0
  0
VERTEX
  5
10CC
330
10C7
100
AcDbEntity
  8
SCHRAFFUR_RAND
100
AcDbVertex
100
AcDb2dVertex
 10
-245.3616613656823
 20
414.3741413392077
 30
0.0
  0
VERTEX
  5
10CD
330
10C7
100
AcDbEntity
  8
SCHRAFFUR_RAND
100
AcDbVertex
100
AcDb2dVertex
 10
-245.3836613656823
 20
413.5261413392077
 30
0.0
  0
VERTEX
  5
10CE
330
10C7
100
AcDbEntity
  8
SCHRAFFUR_RAND
100
AcDbVertex
100
AcDb2dVertex
 10
-245.2036613656823
 20
412.1131413392078
 30
0.0
  0
VERTEX
  5
10CF
330
10C7
100
AcDbEntity
  8
SCHRAFFUR_RAND
100
AcDbVertex
100
AcDb2dVertex
 10
-244.9556613656823
 20
411.4191413392078
 30
0.0
  0
VERTEX
  5
10D0
330
10C7
100
AcDbEntity
  8
SCHRAFFUR_RAND
100
AcDbVertex
100
AcDb2dVertex
 10
-244.6396613656823
 20
410.8021413392077
 30
0.0
  0
VERTEX
  5
10D1
330
10C7
100
AcDbEntity
  8
SCHRAFFUR_RAND
100
AcDbVertex
100
AcDb2dVertex
 10
-244.1726613656823
 20
410.1331413392077
 30
0.0
  0
VERTEX
  5
10D2
330
10C7
100
AcDbEntity
  8
SCHRAFFUR_RAND
100
AcDbVertex
100
AcDb2dVertex
 10
-243.7596613656823
 20
409.6791413392078
 30
0.0
  0
VERTEX
  5
10D3
330
10C7
100
AcDbEntity
  8
SCHRAFFUR_RAND
100
AcDbVertex
100
AcDb2dVertex
 10
-243.0726613656823
 20
409.1061413392078
 30
0.0
  0
VERTEX
  5
10D4
330
10C7
100
AcDbEntity
  8
SCHRAFFUR_RAND
100
AcDbVertex
100
AcDb2dVertex
 10
-242.6206613656823
 20
408.8181413392078
 30
0.0
  0
VERTEX
  5
10D5
330
10C7
100
AcDbEntity
  8
SCHRAFFUR_RAND
100
AcDbVertex
100
AcDb2dVertex
 10
-241.7356613656823
 20
408.4131413392077
 30
0.0
  0
VERTEX
  5
10D6
330
10C7
100
AcDbEntity
  8
SCHRAFFUR_RAND
100
AcDbVertex
100
AcDb2dVertex
 10
-241.2996613656823
 20
408.2781413392077
 30
0.0
  0
VERTEX
  5
10D7
330
10C7
100
AcDbEntity
  8
SCHRAFFUR_RAND
100
AcDbVertex
100
AcDb2dVertex
 10
-239.8846613656823
 20
408.1221413392078
 30
0.0
  0
VERTEX
  5
10D8
330
10C7
100
AcDbEntity
  8
SCHRAFFUR_RAND
100
AcDbVertex
100
AcDb2dVertex
 10
-238.7596613656823
 20
408.2091413392078
 30
0.0
  0
VERTEX
  5
10D9
330
10C7
100
AcDbEntity
  8
SCHRAFFUR_RAND
100
AcDbVertex
100
AcDb2dVertex
 10
-237.3416613656823
 20
408.7131413392078
 30
0.0
  0
VERTEX
  5
10DA
330
10C7
100
AcDbEntity
  8
SCHRAFFUR_RAND
100
AcDbVertex
100
AcDb2dVertex
 10
-236.1116613656823
 20
409.5821413392078
 30
0.0
  0
VERTEX
  5
10DB
330
10C7
100
AcDbEntity
  8
SCHRAFFUR_RAND
100
AcDbVertex
100
AcDb2dVertex
 10
-235.1616613656823
 20
410.7491413392077
 30
0.0
  0
VERTEX
  5
10DC
330
10C7
100
AcDbEntity
  8
SCHRAFFUR_RAND
100
AcDbVertex
100
AcDb2dVertex
 10
-234.5616613656823
 20
412.1311413392078
 30
0.0
  0
VERTEX
  5
10DD
330
10C7
100
AcDbEntity
  8
SCHRAFFUR_RAND
100
AcDbVertex
100
AcDb2dVertex
 10
-234.3846613656823
 20
413.6221413392077
 30
0.0
  0
VERTEX
  5
10DE
330
10C7
100
AcDbEntity
  8
SCHRAFFUR_RAND
100
AcDbVertex
100
AcDb2dVertex
 10
-234.4076613656823
 20
414.1221413392078
 30
0.0
  0
VERTEX
  5
10DF
330
10C7
100
AcDbEntity
  8
SCHRAFFUR_RAND
100
AcDbVertex
100
AcDb2dVertex
 10
-234.5616613656823
 20
415.1131413392078
 30
0.0
  0
VERTEX
  5
10E0
330
10C7
100
AcDbEntity
  8
SCHRAFFUR_RAND
100
AcDbVertex
100
AcDb2dVertex
 10
-235.1616613656823
 20
416.4941413392077
 30
0.0
  0
VERTEX
  5
10E1
330
10C7
100
AcDbEntity
  8
SCHRAFFUR_RAND
100
AcDbVertex
100
AcDb2dVertex
 10
-236.1116613656823
 20
417.6621413392077
 30
0.0
  0
VERTEX
  5
10E2
330
10C7
100
AcDbEntity
  8
SCHRAFFUR_RAND
100
AcDbVertex
100
AcDb2dVertex
 10
-237.3416613656823
 20
418.5301413392078
 30
0.0
  0
VERTEX
  5
10E3
330
10C7
100
AcDbEntity
  8
SCHRAFFUR_RAND
100
AcDbVertex
100
AcDb2dVertex
 10
-238.7596613656823
 20
419.0341413392078
 30
0.0
  0
VERTEX
  5
10E4
330
10C7
100
AcDbEntity
  8
SCHRAFFUR_RAND
100
AcDbVertex
100
AcDb2dVertex
 10
-240.2616613656823
 20
419.1371413392078
 30
0.0
  0
VERTEX
  5
10E5
330
10C7
100
AcDbEntity
  8
SCHRAFFUR_RAND
100
AcDbVertex
100
AcDb2dVertex
 10
-240.8656613656823
 20
419.0341413392078
 30
0.0
  0
VERTEX
  5
10E6
330
10C7
100
AcDbEntity
  8
SCHRAFFUR_RAND
100
AcDbVertex
100
AcDb2dVertex
 10
-241.7356613656823
 20
418.8311413392077
 30
0.0
  0
VERTEX
  5
10E7
330
10C7
100
AcDbEntity
  8
SCHRAFFUR_RAND
100
AcDbVertex
100
AcDb2dVertex
 10
-242.8406613656823
 20
418.2601413392078
 30
0.0
  0
SEQEND
  5
10E8
330
10C7
100
AcDbEntity
  8
SCHRAFFUR_RAND
  0
INSERT
  5
10EE
330
1609
100
AcDbEntity
  8
8
100
AcDbBlockReference
  2
*X1
 10
-377.1966613656823
 20
-222.8778586607922
 30
0.0
1001
ACAD
1000
HATCH
1002
{
1070
    19
1000
ANSI31,_I
1040
3.174999999999999
1040
0.7850000000000001
1002
}
  0
POLYLINE
  5
10EF
330
1609
100
AcDbEntity
  8
SCHRAFFUR_RAND
100
AcDb2dPolyline
 66
     1
 10
0.0
 20
0.0
 30
0.0
 70
     1
  0
VERTEX
  5
10F0
330
10EF
100
AcDbEntity
  8
SCHRAFFUR_RAND
100
AcDbVertex
100
AcDb2dVertex
 10
-76.31966136568229
 20
419.0341413392078
 30
0.0
  0
VERTEX
  5
10F1
330
10EF
100
AcDbEntity
  8
SCHRAFFUR_RAND
100
AcDbVertex
100
AcDb2dVertex
 10
-77.29966136568231
 20
419.1401413392078
 30
0.0
  0
VERTEX
  5
10F2
330
10EF
100
AcDbEntity
  8
SCHRAFFUR_RAND
100
AcDbVertex
100
AcDb2dVertex
 10
-78.52766136568232
 20
419.0021413392078
 30
0.0
  0
VERTEX
  5
10F3
330
10EF
100
AcDbEntity
  8
SCHRAFFUR_RAND
100
AcDbVertex
100
AcDb2dVertex
 10
-79.69466136568229
 20
418.5941413392077
 30
0.0
  0
VERTEX
  5
10F4
330
10EF
100
AcDbEntity
  8
SCHRAFFUR_RAND
100
AcDbVertex
100
AcDb2dVertex
 10
-80.74166136568232
 20
417.9361413392078
 30
0.0
  0
VERTEX
  5
10F5
330
10EF
100
AcDbEntity
  8
SCHRAFFUR_RAND
100
AcDbVertex
100
AcDb2dVertex
 10
-81.61466136568231
 20
417.0631413392078
 30
0.0
  0
VERTEX
  5
10F6
330
10EF
100
AcDbEntity
  8
SCHRAFFUR_RAND
100
AcDbVertex
100
AcDb2dVertex
 10
-82.27266136568232
 20
416.0161413392078
 30
0.0
  0
VERTEX
  5
10F7
330
10EF
100
AcDbEntity
  8
SCHRAFFUR_RAND
100
AcDbVertex
100
AcDb2dVertex
 10
-82.68066136568227
 20
414.8501413392077
 30
0.0
  0
VERTEX
  5
10F8
330
10EF
100
AcDbEntity
  8
SCHRAFFUR_RAND
100
AcDbVertex
100
AcDb2dVertex
 10
-82.81866136568231
 20
413.6221413392077
 30
0.0
  0
VERTEX
  5
10F9
330
10EF
100
AcDbEntity
  8
SCHRAFFUR_RAND
100
AcDbVertex
100
AcDb2dVertex
 10
-82.68066136568227
 20
412.3941413392079
 30
0.0
  0
VERTEX
  5
10FA
330
10EF
100
AcDbEntity
  8
SCHRAFFUR_RAND
100
AcDbVertex
100
AcDb2dVertex
 10
-82.27266136568232
 20
411.2271413392078
 30
0.0
  0
VERTEX
  5
10FB
330
10EF
100
AcDbEntity
  8
SCHRAFFUR_RAND
100
AcDbVertex
100
AcDb2dVertex
 10
-81.61466136568231
 20
410.1811413392077
 30
0.0
  0
VERTEX
  5
10FC
330
10EF
100
AcDbEntity
  8
SCHRAFFUR_RAND
100
AcDbVertex
100
AcDb2dVertex
 10
-80.74166136568232
 20
409.3071413392078
 30
0.0
  0
VERTEX
  5
10FD
330
10EF
100
AcDbEntity
  8
SCHRAFFUR_RAND
100
AcDbVertex
100
AcDb2dVertex
 10
-79.69466136568229
 20
408.6501413392078
 30
0.0
  0
VERTEX
  5
10FE
330
10EF
100
AcDbEntity
  8
SCHRAFFUR_RAND
100
AcDbVertex
100
AcDb2dVertex
 10
-78.52766136568232
 20
408.2411413392078
 30
0.0
  0
VERTEX
  5
10FF
330
10EF
100
AcDbEntity
  8
SCHRAFFUR_RAND
100
AcDbVertex
100
AcDb2dVertex
 10
-77.29966136568231
 20
408.1221413392078
 30
0.0
  0
VERTEX
  5
1100
330
10EF
100
AcDbEntity
  8
SCHRAFFUR_RAND
100
AcDbVertex
100
AcDb2dVertex
 10
-76.23566136568229
 20
408.2071413392078
 30
0.0
  0
VERTEX
  5
1101
330
10EF
100
AcDbEntity
  8
SCHRAFFUR_RAND
100
AcDbVertex
100
AcDb2dVertex
 10
-76.0716613656823
 20
408.2411413392078
 30
0.0
  0
VERTEX
  5
1102
330
10EF
100
AcDbEntity
  8
SCHRAFFUR_RAND
100
AcDbVertex
100
AcDb2dVertex
 10
-75.21066136568231
 20
408.5141413392078
 30
0.0
  0
VERTEX
  5
1103
330
10EF
100
AcDbEntity
  8
SCHRAFFUR_RAND
100
AcDbVertex
100
AcDb2dVertex
 10
-74.9056613656823
 20
408.6501413392078
 30
0.0
  0
VERTEX
  5
1104
330
10EF
100
AcDbEntity
  8
SCHRAFFUR_RAND
100
AcDbVertex
100
AcDb2dVertex
 10
-74.26466136568229
 20
409.0131413392077
 30
0.0
  0
VERTEX
  5
1105
330
10EF
100
AcDbEntity
  8
SCHRAFFUR_RAND
100
AcDbVertex
100
AcDb2dVertex
 10
-73.85966136568232
 20
409.3071413392078
 30
0.0
  0
VERTEX
  5
1106
330
10EF
100
AcDbEntity
  8
SCHRAFFUR_RAND
100
AcDbVertex
100
AcDb2dVertex
 10
-73.43266136568229
 20
409.6851413392077
 30
0.0
  0
VERTEX
  5
1107
330
10EF
100
AcDbEntity
  8
SCHRAFFUR_RAND
100
AcDbVertex
100
AcDb2dVertex
 10
-72.98566136568229
 20
410.1811413392077
 30
0.0
  0
VERTEX
  5
1108
330
10EF
100
AcDbEntity
  8
SCHRAFFUR_RAND
100
AcDbVertex
100
AcDb2dVertex
 10
-72.7446613656823
 20
410.5061413392077
 30
0.0
  0
VERTEX
  5
1109
330
10EF
100
AcDbEntity
  8
SCHRAFFUR_RAND
100
AcDbVertex
100
AcDb2dVertex
 10
-72.3286613656823
 20
411.2271413392078
 30
0.0
  0
VERTEX
  5
110A
330
10EF
100
AcDbEntity
  8
SCHRAFFUR_RAND
100
AcDbVertex
100
AcDb2dVertex
 10
-72.22966136568231
 20
411.4431413392078
 30
0.0
  0
VERTEX
  5
110B
330
10EF
100
AcDbEntity
  8
SCHRAFFUR_RAND
100
AcDbVertex
100
AcDb2dVertex
 10
-71.91966136568232
 20
412.3941413392079
 30
0.0
  0
VERTEX
  5
110C
330
10EF
100
AcDbEntity
  8
SCHRAFFUR_RAND
100
AcDbVertex
100
AcDb2dVertex
 10
-71.90466136568227
 20
412.4631413392078
 30
0.0
  0
VERTEX
  5
110D
330
10EF
100
AcDbEntity
  8
SCHRAFFUR_RAND
100
AcDbVertex
100
AcDb2dVertex
 10
-71.80066136568228
 20
413.5261413392077
 30
0.0
  0
VERTEX
  5
110E
330
10EF
100
AcDbEntity
  8
SCHRAFFUR_RAND
100
AcDbVertex
100
AcDb2dVertex
 10
-71.80066136568228
 20
413.6221413392077
 30
0.0
  0
VERTEX
  5
110F
330
10EF
100
AcDbEntity
  8
SCHRAFFUR_RAND
100
AcDbVertex
100
AcDb2dVertex
 10
-71.91966136568232
 20
414.8501413392077
 30
0.0
  0
VERTEX
  5
1110
330
10EF
100
AcDbEntity
  8
SCHRAFFUR_RAND
100
AcDbVertex
100
AcDb2dVertex
 10
-72.3286613656823
 20
416.0161413392078
 30
0.0
  0
VERTEX
  5
1111
330
10EF
100
AcDbEntity
  8
SCHRAFFUR_RAND
100
AcDbVertex
100
AcDb2dVertex
 10
-72.98566136568229
 20
417.0631413392078
 30
0.0
  0
VERTEX
  5
1112
330
10EF
100
AcDbEntity
  8
SCHRAFFUR_RAND
100
AcDbVertex
100
AcDb2dVertex
 10
-73.85966136568232
 20
417.9361413392078
 30
0.0
  0
VERTEX
  5
1113
330
10EF
100
AcDbEntity
  8
SCHRAFFUR_RAND
100
AcDbVertex
100
AcDb2dVertex
 10
-74.9056613656823
 20
418.5941413392077
 30
0.0
  0
VERTEX
  5
1114
330
10EF
100
AcDbEntity
  8
SCHRAFFUR_RAND
100
AcDbVertex
100
AcDb2dVertex
 10
-76.0716613656823
 20
419.0021413392078
 30
0.0
  0
VERTEX
  5
1115
330
10EF
100
AcDbEntity
  8
SCHRAFFUR_RAND
100
AcDbVertex
100
AcDb2dVertex
 10
-76.31966136568229
 20
419.0341413392078
 30
0.0
  0
SEQEND
  5
1116
330
10EF
100
AcDbEntity
  8
SCHRAFFUR_RAND
  0
INSERT
  5
111F
330
1609
100
AcDbEntity
  8
8
100
AcDbBlockReference
  2
*X2
 10
-377.1966613656823
 20
-222.8778586607922
 30
0.0
1001
ACAD
1000
HATCH
1002
{
1070
    19
1000
ANSI37,_I
1040
3.174999999999999
1040
5.497999999999999
1002
}
  0
POLYLINE
  5
1488
330
1609
100
AcDbEntity
  8
SCHRAFFUR_RAND
100
AcDb2dPolyline
 66
     1
 10
0.0
 20
0.0
 30
0.0
 70
     1
  0
VERTEX
  5
1489
330
1488
100
AcDbEntity
  8
SCHRAFFUR_RAND
100
AcDbVertex
100
AcDb2dVertex
 10
-39.61966136568231
 20
404.1221413392078
 30
0.0
  0
VERTEX
  5
148A
330
1488
100
AcDbEntity
  8
SCHRAFFUR_RAND
100
AcDbVertex
100
AcDb2dVertex
 10
-28.59266136568226
 20
404.1221413392078
 30
0.0
  0
VERTEX
  5
148B
330
1488
100
AcDbEntity
  8
SCHRAFFUR_RAND
100
AcDbVertex
100
AcDb2dVertex
 10
-29.11566136568229
 20
414.1081413392077
 30
0.0
  0
VERTEX
  5
148C
330
1488
100
AcDbEntity
  8
SCHRAFFUR_RAND
100
AcDbVertex
100
AcDb2dVertex
 10
-37.36966136568231
 20
414.1761413392077
 30
0.0
  0
VERTEX
  5
148D
330
1488
100
AcDbEntity
  8
SCHRAFFUR_RAND
100
AcDbVertex
100
AcDb2dVertex
 10
-39.61966136568231
 20
404.1221413392078
 30
0.0
  0
SEQEND
  5
148E
330
1488
100
AcDbEntity
  8
SCHRAFFUR_RAND
  0
POLYLINE
  5
14A8
330
1609
100
AcDbEntity
  8
SCHRAFFUR_RAND
100
AcDb2dPolyline
 66
     1
 10
0.0
 20
0.0
 30
0.0
 70
     1
  0
VERTEX
  5
14A9
330
14A8
100
AcDbEntity
  8
SCHRAFFUR_RAND
100
AcDbVertex
100
AcDb2dVertex
 10
-279.8156613656823
 20
414.1761413392077
 30
0.0
  0
VERTEX
  5
14AA
330
14A8
100
AcDbEntity
  8
SCHRAFFUR_RAND
100
AcDbVertex
100
AcDb2dVertex
 10
-288.0686613656823
 20
414.1081413392077
 30
0.0
  0
VERTEX
  5
14AB
330
14A8
100
AcDbEntity
  8
SCHRAFFUR_RAND
100
AcDbVertex
100
AcDb2dVertex
 10
-288.5926613656823
 20
404.1221413392078
 30
0.0
  0
VERTEX
  5
14AC
330
14A8
100
AcDbEntity
  8
SCHRAFFUR_RAND
100
AcDbVertex
100
AcDb2dVertex
 10
-277.5656613656823
 20
404.1221413392078
 30
0.0
  0
VERTEX
  5
14AD
330
14A8
100
AcDbEntity
  8
SCHRAFFUR_RAND
100
AcDbVertex
100
AcDb2dVertex
 10
-279.8156613656823
 20
414.1761413392077
 30
0.0
  0
SEQEND
  5
14AE
330
14A8
100
AcDbEntity
  8
SCHRAFFUR_RAND
  0
POLYLINE
  5
14C8
330
1609
100
AcDbEntity
  8
SCHRAFFUR_RAND
100
AcDb2dPolyline
 66
     1
 10
0.0
 20
0.0
 30
0.0
 70
     1
  0
VERTEX
  5
14C9
330
14C8
100
AcDbEntity
  8
SCHRAFFUR_RAND
100
AcDbVertex
100
AcDb2dVertex
 10
-72.59266136568232
 20
454.1041413392077
 30
0.0
  0
VERTEX
  5
14CA
330
14C8
100
AcDbEntity
  8
SCHRAFFUR_RAND
100
AcDbVertex
100
AcDb2dVertex
 10
-78.59266136568232
 20
454.1221413392078
 30
0.0
  0
VERTEX
  5
14CB
330
14C8
100
AcDbEntity
  8
SCHRAFFUR_RAND
100
AcDbVertex
100
AcDb2dVertex
 10
-79.2256613656823
 20
435.9821413392078
 30
0.0
  0
VERTEX
  5
14CC
330
14C8
100
AcDbEntity
  8
SCHRAFFUR_RAND
100
AcDbVertex
100
AcDb2dVertex
 10
-79.69966136568229
 20
433.9771413392078
 30
0.0
  0
VERTEX
  5
14CD
330
14C8
100
AcDbEntity
  8
SCHRAFFUR_RAND
100
AcDbVertex
100
AcDb2dVertex
 10
-81.20266136568227
 20
432.5261413392078
 30
0.0
  0
VERTEX
  5
14CE
330
14C8
100
AcDbEntity
  8
SCHRAFFUR_RAND
100
AcDbVertex
100
AcDb2dVertex
 10
-83.22366136568229
 20
432.1221413392078
 30
0.0
  0
VERTEX
  5
14CF
330
14C8
100
AcDbEntity
  8
SCHRAFFUR_RAND
100
AcDbVertex
100
AcDb2dVertex
 10
-233.9616613656823
 20
432.1221413392078
 30
0.0
  0
VERTEX
  5
14D0
330
14C8
100
AcDbEntity
  8
SCHRAFFUR_RAND
100
AcDbVertex
100
AcDb2dVertex
 10
-235.9826613656823
 20
432.5261413392078
 30
0.0
  0
VERTEX
  5
14D1
330
14C8
100
AcDbEntity
  8
SCHRAFFUR_RAND
100
AcDbVertex
100
AcDb2dVertex
 10
-237.4846613656823
 20
433.9771413392078
 30
0.0
  0
VERTEX
  5
14D2
330
14C8
100
AcDbEntity
  8
SCHRAFFUR_RAND
100
AcDbVertex
100
AcDb2dVertex
 10
-237.9586613656823
 20
435.9821413392078
 30
0.0
  0
VERTEX
  5
14D3
330
14C8
100
AcDbEntity
  8
SCHRAFFUR_RAND
100
AcDbVertex
100
AcDb2dVertex
 10
-238.5926613656823
 20
454.1221413392078
 30
0.0
  0
VERTEX
  5
14D4
330
14C8
100
AcDbEntity
  8
SCHRAFFUR_RAND
100
AcDbVertex
100
AcDb2dVertex
 10
-244.5916613656823
 20
454.1041413392077
 30
0.0
  0
VERTEX
  5
14D5
330
14C8
100
AcDbEntity
  8
SCHRAFFUR_RAND
100
AcDbVertex
100
AcDb2dVertex
 10
-244.4176613656823
 20
449.1221413392078
 30
0.0
  0
VERTEX
  5
14D6
330
14C8
100
AcDbEntity
  8
SCHRAFFUR_RAND
100
AcDbVertex
100
AcDb2dVertex
 10
-243.4616613656823
 20
449.1221413392078
 30
0.0
  0
VERTEX
  5
14D7
330
14C8
100
AcDbEntity
  8
SCHRAFFUR_RAND
100
AcDbVertex
100
AcDb2dVertex
 10
-242.3506613656823
 20
448.6731413392078
 30
0.0
  0
VERTEX
  5
14D8
330
14C8
100
AcDbEntity
  8
SCHRAFFUR_RAND
100
AcDbVertex
100
AcDb2dVertex
 10
-241.8626613656823
 20
447.5771413392078
 30
0.0
  0
VERTEX
  5
14D9
330
14C8
100
AcDbEntity
  8
SCHRAFFUR_RAND
100
AcDbVertex
100
AcDb2dVertex
 10
-240.8656613656823
 20
419.0341413392078
 30
0.0
  0
VERTEX
  5
14DA
330
14C8
100
AcDbEntity
  8
SCHRAFFUR_RAND
100
AcDbVertex
100
AcDb2dVertex
 10
-237.5476613656823
 20
418.7381413392078
 30
0.0
  0
VERTEX
  5
14DB
330
14C8
100
AcDbEntity
  8
SCHRAFFUR_RAND
100
AcDbVertex
100
AcDb2dVertex
 10
-235.1526613656823
 20
416.6631413392077
 30
0.0
  0
VERTEX
  5
14DC
330
14C8
100
AcDbEntity
  8
SCHRAFFUR_RAND
100
AcDbVertex
100
AcDb2dVertex
 10
-234.4076613656823
 20
414.1221413392078
 30
0.0
  0
VERTEX
  5
14DD
330
14C8
100
AcDbEntity
  8
SCHRAFFUR_RAND
100
AcDbVertex
100
AcDb2dVertex
 10
-229.0926613656823
 20
414.1221413392078
 30
0.0
  0
VERTEX
  5
14DE
330
14C8
100
AcDbEntity
  8
SCHRAFFUR_RAND
100
AcDbVertex
100
AcDb2dVertex
 10
-229.0236613656823
 20
415.4361413392077
 30
0.0
  0
VERTEX
  5
14DF
330
14C8
100
AcDbEntity
  8
SCHRAFFUR_RAND
100
AcDbVertex
100
AcDb2dVertex
 10
-228.5936613656823
 20
417.6861413392077
 30
0.0
  0
VERTEX
  5
14E0
330
14C8
100
AcDbEntity
  8
SCHRAFFUR_RAND
100
AcDbVertex
100
AcDb2dVertex
 10
-227.2476613656823
 20
419.5651413392077
 30
0.0
  0
VERTEX
  5
14E1
330
14C8
100
AcDbEntity
  8
SCHRAFFUR_RAND
100
AcDbVertex
100
AcDb2dVertex
 10
-225.3016613656823
 20
420.8101413392077
 30
0.0
  0
VERTEX
  5
14E2
330
14C8
100
AcDbEntity
  8
SCHRAFFUR_RAND
100
AcDbVertex
100
AcDb2dVertex
 10
-223.0316613656823
 20
421.1221413392078
 30
0.0
  0
VERTEX
  5
14E3
330
14C8
100
AcDbEntity
  8
SCHRAFFUR_RAND
100
AcDbVertex
100
AcDb2dVertex
 10
-94.15266136568233
 20
421.1221413392078
 30
0.0
  0
VERTEX
  5
14E4
330
14C8
100
AcDbEntity
  8
SCHRAFFUR_RAND
100
AcDbVertex
100
AcDb2dVertex
 10
-91.88366136568232
 20
420.8101413392077
 30
0.0
  0
VERTEX
  5
14E5
330
14C8
100
AcDbEntity
  8
SCHRAFFUR_RAND
100
AcDbVertex
100
AcDb2dVertex
 10
-89.93666136568231
 20
419.5651413392077
 30
0.0
  0
VERTEX
  5
14E6
330
14C8
100
AcDbEntity
  8
SCHRAFFUR_RAND
100
AcDbVertex
100
AcDb2dVertex
 10
-88.5906613656823
 20
417.6861413392077
 30
0.0
  0
VERTEX
  5
14E7
330
14C8
100
AcDbEntity
  8
SCHRAFFUR_RAND
100
AcDbVertex
100
AcDb2dVertex
 10
-88.16166136568227
 20
415.4361413392077
 30
0.0
  0
VERTEX
  5
14E8
330
14C8
100
AcDbEntity
  8
SCHRAFFUR_RAND
100
AcDbVertex
100
AcDb2dVertex
 10
-88.09266136568231
 20
414.1221413392078
 30
0.0
  0
VERTEX
  5
14E9
330
14C8
100
AcDbEntity
  8
SCHRAFFUR_RAND
100
AcDbVertex
100
AcDb2dVertex
 10
-82.77766136568232
 20
414.1221413392078
 30
0.0
  0
VERTEX
  5
14EA
330
14C8
100
AcDbEntity
  8
SCHRAFFUR_RAND
100
AcDbVertex
100
AcDb2dVertex
 10
-82.69766136568227
 20
415.2071413392078
 30
0.0
  0
VERTEX
  5
14EB
330
14C8
100
AcDbEntity
  8
SCHRAFFUR_RAND
100
AcDbVertex
100
AcDb2dVertex
 10
-80.98366136568229
 20
417.8731413392077
 30
0.0
  0
VERTEX
  5
14EC
330
14C8
100
AcDbEntity
  8
SCHRAFFUR_RAND
100
AcDbVertex
100
AcDb2dVertex
 10
-78.1006613656823
 20
419.1891413392077
 30
0.0
  0
VERTEX
  5
14ED
330
14C8
100
AcDbEntity
  8
SCHRAFFUR_RAND
100
AcDbVertex
100
AcDb2dVertex
 10
-76.31966136568229
 20
419.0341413392078
 30
0.0
  0
VERTEX
  5
14EE
330
14C8
100
AcDbEntity
  8
SCHRAFFUR_RAND
100
AcDbVertex
100
AcDb2dVertex
 10
-75.3216613656823
 20
447.5771413392078
 30
0.0
  0
VERTEX
  5
14EF
330
14C8
100
AcDbEntity
  8
SCHRAFFUR_RAND
100
AcDbVertex
100
AcDb2dVertex
 10
-74.83466136568228
 20
448.6731413392078
 30
0.0
  0
VERTEX
  5
14F0
330
14C8
100
AcDbEntity
  8
SCHRAFFUR_RAND
100
AcDbVertex
100
AcDb2dVertex
 10
-73.72366136568229
 20
449.1221413392078
 30
0.0
  0
VERTEX
  5
14F1
330
14C8
100
AcDbEntity
  8
SCHRAFFUR_RAND
100
AcDbVertex
100
AcDb2dVertex
 10
-73.26666136568229
 20
449.1221413392078
 30
0.0
  0
VERTEX
  5
14F2
330
14C8
100
AcDbEntity
  8
SCHRAFFUR_RAND
100
AcDbVertex
100
AcDb2dVertex
 10
-72.7666613656823
 20
449.1221413392078
 30
0.0
  0
VERTEX
  5
14F3
330
14C8
100
AcDbEntity
  8
SCHRAFFUR_RAND
100
AcDbVertex
100
AcDb2dVertex
 10
-72.59266136568232
 20
454.1041413392077
 30
0.0
  0
SEQEND
  5
14F4
330
14C8
100
AcDbEntity
  8
SCHRAFFUR_RAND
  0
DIMENSION
  5
159A
330
1609
100
AcDbEntity
  8
5
100
AcDbDimension
  2
*D5
 10
-437.8432763656823
 20
454.1131413392078
 30
0.0
 11
-449.5932763656823
 21
366.6176429169713
 31
0.0
 70
    32
  1
175
 71
     5
 42
174.9909968444729
  3
GEN-ISO
100
AcDbAlignedDimension
 13
-158.6161606683385
 23
279.1221444947349
 33
0.0
 14
-257.0926613656823
 24
454.1131413392077
 34
0.0
 50
90.0
100
AcDbRotatedDimension
  0
DIMENSION
  5
15A3
330
1609
100
AcDbEntity
  8
5
100
AcDbDimension
  2
*D10
 10
-387.8432763656823
 20
454.1201413392079
 30
0.0
 11
-399.5932763656824
 21
429.1201413392077
 31
0.0
 70
    32
  1
50
 71
     5
 42
50.0
  3
GEN-ISO
100
AcDbAlignedDimension
 13
-288.5926613656823
 23
404.1201413392078
 33
0.0
 14
-312.1026613656823
 24
454.1201413392078
 34
0.0
 50
90.0
100
AcDbRotatedDimension
  0
DIMENSION
  5
15AD
330
1609
100
AcDbEntity
  8
5
100
AcDbDimension
  2
*D9
 10
-386.5926613656823
 20
179.1221413392078
 30
0.0
 11
-398.3426613656823
 21
80.62214133920779
 31
0.0
 70
    32
  1
{\Fgeniso.shx;\U+25A1}197
 71
     5
 42
197.0
  3
GEN-ISO
100
AcDbAlignedDimension
 13
-259.1856613656823
 23
-17.8778586607922
 33
0.0
 14
-259.1856613656823
 24
179.1221413392078
 34
0.0
 50
90.0
100
AcDbRotatedDimension
1001
GENIUS_GENDTOL_13
1000

1000
B2/max
1000

1040
0.0
1000
{\Fgeniso.shx;\U+25A1}197
  0
DIMENSION
  5
15B7
330
1609
100
AcDbEntity
  8
5
100
AcDbDimension
  2
*D8
 10
-337.8432763656823
 20
454.1221413392078
 30
0.0
 11
-349.5949988066272
 21
492.494852953381
 31
0.0
 70
    32
  1
22
 71
     5
 42
22.00099999999998
  3
GEN-ISO
100
AcDbAlignedDimension
 13
-233.9616613656823
 23
432.1211413392078
 33
0.0
 14
-278.2586613656823
 24
454.1221413392078
 34
0.0
 50
90.0
100
AcDbRotatedDimension
  0
DIMENSION
  5
15C1
330
1609
100
AcDbEntity
  8
5
100
AcDbDimension
  2
*D7
 10
-28.59266136568227
 20
-67.87785866079218
 30
0.0
 11
-158.5926613656823
 21
-56.1261362198473
 31
0.0
 70
    32
  1
260
 71
     5
 42
260.0
  3
GEN-ISO
100
AcDbAlignedDimension
 13
-288.5926613656823
 23
53.10514133920782
 33
0.0
 14
-28.59266136568226
 24
53.10514133920782
 34
0.0
100
AcDbRotatedDimension
  0
DIMENSION
  5
15CC
330
1609
100
AcDbEntity
  8
5
100
AcDbDimension
  2
*D6
 10
-336.5926613656823
 20
85.12214133920783
 30
0.0
 11
-348.3426613656823
 21
117.5804457557247
 31
0.0
 70
    32
  1
9
 71
     5
 42
9.0
  3
GEN-ISO
100
AcDbAlignedDimension
 13
-273.0656613656823
 23
76.12214133920781
 33
0.0
 14
-273.0656613656823
 24
85.12214133920782
 34
0.0
 50
90.0
100
AcDbRotatedDimension
  0
INSERT
  5
169C
330
1609
100
AcDbEntity
  8
0
100
AcDbBlockReference
  2
KATALOG_LEER
 10
251.839706
 20
11.304483
 30
0.0
 41
5.0
 42
5.0
 43
5.0
1001
GENIUS_GENOREF_13
1005
169D
  0
POINT
  5
169D
330
1609
100
AcDbEntity
  8
0
 60
     1
100
AcDbPoint
 10
0.0
 20
0.0
 30
0.0
1001
GENIUS_GENOBJ-N-TIT_13
1002
{
1000
OWNER
1000
GEN
1002
}
1001
GENIUS_GENOENT_13
1002
{
1000
MYREF
1005
169D
1002
}
1002
{
1000
GRP
1005
0
1002
}
1001
GENIUS_GENOLIS_13
1002
{
1000
ENT
1005
169C
1002
}
1001
GENIUS_GENTITLE_13
1002
{
1000
SCALE
1000
1:5
1002
}
1002
{
1000
BORDER
1000
KATALOG
1002
}
1002
{
1000
TITLE
1000
KATALOG_LEER
1002
}
1002
{
1000
UNCHG
1002
{
1000
GEN-TITLE-SCA
1000
GEN-TITLE-SIZ
1002
}
1002
}
1002
{
1000
HRA
1005
1695
1002
}
1002
{
1000
HTIT
1005
169C
1002
}
1002
{
1000
GENIUSID
1005
169D
1002
}
1001
GENIUS_GENODEF_13
1002
{
1000
HIER
1070
     1
1002
}
1002
{
1000
MANEDIT
1070
     1
1002
}
1002
{
1000
NOSEL
1070
     0
1002
}
1002
{
1000
BEHIND
1070
     0
1002
}
1002
{
1000
REACTOR
1002
}
  0
HATCH
  5
19B0
330
1609
100
AcDbEntity
  8
8
100
AcDbHatch
 10
0.0
 20
0.0
 30
0.0
210
0.0
220
0.0
230
1.0
  2
_U
 70
     0
 71
     0
 91
        1
 92
        1
 93
        4
 72
     1
 10
-37.36966136568231
 20
414.1761413392077
 11
-39.61966136568231
 21
404.1221413392078
 72
     1
 10
-39.61966136568231
 20
404.1221413392078
 11
-28.59266136568226
 21
404.1221413392078
 72
     1
 10
-28.59266136568226
 20
404.1221413392078
 11
-29.11566136568229
 21
414.1081413392077
 72
     1
 10
-29.11566136568229
 20
414.1081413392077
 11
-37.36966136568231
 21
414.1761413392077
 97
        0
 75
     0
 76
     0
 52
45.0
 41
2.5
 77
     0
 78
     1
 53
45.0
 43
-575.9267203656823
 44
-124.8967256607922
 45
-1.767766952966368
 46
1.767766952966368
 79
     0
 98
        1
 10
-575.9267203656823
 20
-124.8967256607922
1001
GENIUS_GENODEF_13
1002
{
1000
HIER
1070
     0
1002
}
1002
{
1000
MANEDIT
1070
     0
1002
}
1002
{
1000
NOSEL
1070
     0
1002
}
1002
{
1000
BEHIND
1070
     0
1002
}
1002
{
1000
REACTOR
1002
}
1001
GENIUS_GENOBJ-N-HTC_13
1002
{
1000
OWNER
1000
GEN
1002
}
1001
GENIUS_GENHATCH_13
1002
{
1000
DATA
1040
45.0
1042
1.0
1000
_U
1070
     0
1011
-32.57735636568237
1021
408.5069813392078
1031
0.0
1002
}
1002
{
1000
UCS
1010
0.0
1020
0.0
1030
0.0
1010
1.0
1020
0.0
1030
0.0
1010
0.0
1020
1.0
1030
0.0
1002
}
1001
ACAD
1010
0.0
1020
0.0
1030
0.0
  0
HATCH
  5
1A40
330
1609
100
AcDbEntity
  8
8
100
AcDbHatch
 10
0.0
 20
0.0
 30
0.0
210
0.0
220
0.0
230
1.0
  2
_U
 70
     0
 71
     0
 91
        1
 92
        1
 93
        4
 72
     1
 10
-279.8156613656823
 20
414.1761413392077
 11
-288.0686613656823
 21
414.1081413392077
 72
     1
 10
-288.0686613656823
 20
414.1081413392077
 11
-288.5926613656823
 21
404.1221413392078
 72
     1
 10
-288.5926613656823
 20
404.1221413392078
 11
-277.5656613656823
 21
404.1221413392078
 72
     1
 10
-277.5656613656823
 20
404.1221413392078
 11
-279.8156613656823
 21
414.1761413392077
 97
        0
 75
     0
 76
     0
 52
45.0
 41
2.5
 77
     0
 78
     1
 53
45.0
 43
-575.9267203656823
 44
-124.8967256607922
 45
-1.767766952966368
 46
1.767766952966368
 79
     0
 98
        1
 10
-575.9267203656823
 20
-124.8967256607922
1001
GENIUS_GENODEF_13
1002
{
1000
HIER
1070
     0
1002
}
1002
{
1000
MANEDIT
1070
     0
1002
}
1002
{
1000
NOSEL
1070
     0
1002
}
1002
{
1000
BEHIND
1070
     0
1002
}
1002
{
1000
REACTOR
1002
}
1001
GENIUS_GENOBJ-N-HTC_13
1002
{
1000
OWNER
1000
GEN
1002
}
1001
GENIUS_GENHATCH_13
1002
{
1000
DATA
1040
45.0
1042
1.0
1000
_U
1070
     0
1011
-282.9850143656823
1021
407.0346873392078
1031
0.0
1002
}
1002
{
1000
UCS
1010
0.0
1020
0.0
1030
0.0
1010
1.0
1020
0.0
1030
0.0
1010
0.0
1020
1.0
1030
0.0
1002
}
1001
ACAD
1010
0.0
1020
0.0
1030
0.0
  0
HATCH
  5
1A9F
330
1609
100
AcDbEntity
  8
8
100
AcDbHatch
 10
0.0
 20
0.0
 30
0.0
210
0.0
220
0.0
230
1.0
  2
_U
 70
     0
 71
     0
 91
        1
 92
        1
 93
       90
 72
     1
 10
-72.59266136568232
 20
454.1041413392077
 11
-78.59266136568232
 21
454.1221413392078
 72
     1
 10
-78.59266136568232
 20
454.1221413392078
 11
-79.2256613656823
 21
435.9821413392078
 72
     1
 10
-79.2256613656823
 20
435.9821413392078
 11
-79.22619136568227
 21
435.9798993392078
 72
     2
 10
-83.22366136568229
 20
436.1221413392078
 40
4.0
 50
2.037887
 51
24.564175
 73
     0
 72
     1
 10
-79.58567636568222
 20
434.4592923392077
 11
-79.69966136568229
 21
433.9771413392078
 72
     1
 10
-79.69966136568229
 20
433.9771413392078
 11
-80.25682736568233
 21
433.4392523392079
 72
     2
 10
-83.22366136568229
 20
436.1221413392078
 40
4.0
 50
42.122839
 51
49.894137
 73
     0
 72
     1
 10
-80.64685436568225
 20
433.0627193392079
 11
-81.20266136568227
 21
432.5261413392078
 72
     1
 10
-81.20266136568227
 20
432.5261413392078
 11
-81.68590236568229
 21
432.4295403392078
 72
     2
 10
-83.22366136568229
 20
436.1221413392078
 40
4.0
 50
67.391039
 51
90.0
 73
     0
 72
     1
 10
-83.22366136568229
 20
432.1221413392078
 11
-233.9616613656823
 21
432.1221413392078
 72
     2
 10
-233.9616613656823
 20
436.1221413392078
 40
4.0
 50
90.0
 51
112.608961
 73
     0
 72
     1
 10
-235.4994203656823
 20
432.4295403392078
 11
-235.9826613656823
 21
432.5261413392078
 72
     1
 10
-235.9826613656823
 20
432.5261413392078
 11
-236.5356023656823
 21
433.0603063392078
 72
     2
 10
-233.9616613656823
 20
436.1221413392078
 40
4.0
 50
130.052187
 51
137.968948
 73
     0
 72
     1
 10
-236.9327903656823
 20
433.4440083392077
 11
-237.4846613656823
 21
433.9771413392078
 72
     1
 10
-237.4846613656823
 20
433.9771413392078
 11
-237.9586613656823
 21
435.9821413392078
 72
     1
 10
-237.9586613656823
 20
435.9821413392078
 11
-238.5926613656823
 21
454.1221413392078
 72
     1
 10
-238.5926613656823
 20
454.1221413392078
 11
-244.5916613656823
 21
454.1041413392077
 72
     1
 10
-244.5916613656823
 20
454.1041413392077
 11
-244.4176613656823
 21
449.1221413392078
 72
     1
 10
-244.4176613656823
 20
449.1221413392078
 11
-243.4616613656823
 21
449.1221413392078
 72
     1
 10
-243.4616613656823
 20
449.1221413392078
 11
-242.3506613656823
 21
448.6731413392078
 72
     1
 10
-242.3506613656823
 20
448.6731413392078
 11
-241.8626613656823
 21
447.5771413392078
 72
     1
 10
-241.8626613656823
 20
447.5771413392078
 11
-240.8656613656823
 21
419.0341413392078
 72
     1
 10
-240.8656613656823
 20
419.0341413392078
 11
-240.8429923656823
 21
419.0380073392078
 72
     2
 10
-239.8846613656823
 20
413.6221413392077
 40
5.5
 50
259.965453
 51
260.679456
 73
     0
 72
     1
 10
-240.7754283656823
 20
419.0495283392078
 11
-240.2616613656823
 21
419.1371413392078
 72
     1
 10
-240.2616613656823
 20
419.1371413392078
 11
-240.0189973656823
 21
419.1205003392077
 72
     2
 10
-239.8846613656823
 20
413.6221413392077
 40
5.5
 50
268.600434
 51
279.245425
 73
     0
 72
     1
 10
-239.0010113656823
 20
419.0506913392077
 11
-238.7596613656823
 21
419.0341413392078
 72
     1
 10
-238.7596613656823
 20
419.0341413392078
 11
-238.5318793656822
 21
418.9531803392076
 72
     2
 10
-239.8846613656823
 20
413.6221413392077
 40
5.5
 50
284.238598
 51
290.462611
 73
     0
 72
     1
 10
-237.9618833656823
 20
418.7750943392078
 11
-237.5476613656823
 21
418.7381413392078
 72
     1
 10
-237.5476613656823
 20
418.7381413392078
 11
-237.1579373656823
 21
418.4004883392077
 72
     1
 10
-237.1579373656823
 20
418.4004883392077
 11
-237.1440543656823
 21
418.3906913392077
 72
     2
 10
-239.8846613656823
 20
413.6221413392077
 40
5.5
 50
299.887082
 51
310.533472
 73
     0
 72
     1
 10
-236.3102543656823
 20
417.8022863392078
 11
-236.1116613656823
 21
417.6621413392077
 72
     1
 10
-236.1116613656823
 20
417.6621413392077
 11
-235.9583303656823
 21
417.4736243392078
 72
     2
 10
-239.8846613656823
 20
413.6221413392077
 40
5.5
 50
315.55136
 51
322.014998
 73
     0
 72
     1
 10
-235.5497163656823
 20
417.0071443392077
 11
-235.1526613656823
 21
416.6631413392077
 72
     1
 10
-235.1526613656823
 20
416.6631413392077
 11
-235.0050903656823
 21
416.1598143392078
 72
     2
 10
-239.8846613656823
 20
413.6221413392077
 40
5.5
 50
332.522834
 51
341.841533
 73
     0
 72
     1
 10
-234.6585713656823
 20
415.3361953392078
 11
-234.5616613656823
 21
415.1131413392078
 72
     1
 10
-234.5616613656823
 20
415.1131413392078
 11
-234.5147593656823
 21
414.8113203392077
 72
     2
 10
-239.8846613656823
 20
413.6221413392077
 40
5.5
 50
347.513221
 51
354.784091
 73
     0
 72
     1
 10
-234.4074363656823
 20
414.1221413392078
 11
-229.0926613656823
 21
414.1221413392078
 72
     1
 10
-229.0926613656823
 20
414.1221413392078
 11
-229.0236613656823
 21
415.4361413392077
 72
     1
 10
-229.0236613656823
 20
415.4361413392077
 11
-229.0233553656823
 21
415.4377433392077
 72
     2
 10
-223.0316613656823
 20
415.1221413392078
 40
6.0
 50
183.015167
 51
198.62363
 73
     0
 72
     1
 10
-228.7174823656823
 20
417.0382423392078
 11
-228.5936613656823
 21
417.6861413392077
 72
     1
 10
-228.5936613656823
 20
417.6861413392077
 11
-227.2476613656823
 21
419.5651413392077
 72
     1
 10
-227.2476613656823
 20
419.5651413392077
 11
-225.3016613656823
 21
420.8101413392077
 72
     1
 10
-225.3016613656823
 20
420.8101413392077
 11
-224.6504203656823
 21
420.8996513392078
 72
     2
 10
-223.0316613656823
 20
415.1221413392078
 40
6.0
 50
254.34804
 51
270.0
 73
     0
 72
     1
 10
-223.0316613656823
 20
421.1221413392078
 11
-94.15266136568233
 21
421.1221413392078
 72
     2
 10
-94.15266136568233
 20
415.1221413392078
 40
6.0
 50
270.0
 51
285.658773
 73
     0
 72
     1
 10
-92.53321536568227
 20
420.8994583392078
 11
-91.88366136568232
 21
420.8101413392077
 72
     1
 10
-91.88366136568232
 20
420.8101413392077
 11
-89.93666136568231
 21
419.5651413392077
 72
     1
 10
-89.93666136568231
 20
419.5651413392077
 11
-88.5906613656823
 21
417.6861413392077
 72
     1
 10
-88.5906613656823
 20
417.6861413392077
 11
-88.16166136568227
 21
415.4361413392077
 72
     1
 10
-88.16166136568227
 20
415.4361413392077
 11
-88.09266136568231
 21
414.1221413392078
 72
     1
 10
-88.09266136568231
 20
414.1221413392078
 11
-82.77766136568232
 21
414.1221413392078
 72
     1
 10
-82.77766136568232
 20
414.1221413392078
 11
-82.69766136568227
 21
415.2071413392078
 72
     1
 10
-82.69766136568227
 20
415.2071413392078
 11
-82.41093436568224
 21
415.6531243392078
 72
     2
 10
-77.29966136568231
 20
413.6221413392077
 40
5.5
 50
201.670585
 51
203.571592
 73
     0
 72
     1
 10
-82.34074736568226
 20
415.8215613392078
 11
-82.27266136568232
 21
416.0161413392078
 72
     1
 10
-82.27266136568232
 20
416.0161413392078
 11
-82.16350736568228
 21
416.1898253392077
 72
     2
 10
-77.29966136568231
 20
413.6221413392077
 40
5.5
 50
207.83013
 51
216.465494
 73
     0
 72
     1
 10
-81.7228433656823
 20
416.8910033392078
 11
-81.61466136568231
 21
417.0631413392078
 72
     1
 10
-81.61466136568231
 20
417.0631413392078
 11
-81.47111636568229
 21
417.2066863392078
 72
     2
 10
-77.29966136568231
 20
413.6221413392077
 40
5.5
 50
220.6725720000001
 51
223.804212
 73
     0
 72
     1
 10
-81.26906336568225
 20
417.4292203392078
 11
-80.98366136568229
 21
417.8731413392077
 72
     1
 10
-80.98366136568229
 20
417.8731413392077
 11
-80.50475436568229
 21
418.0917473392078
 72
     2
 10
-77.29966136568231
 20
413.6221413392077
 40
5.5
 50
234.356217
 51
242.213181
 73
     0
 72
     1
 10
-79.86366836568231
 20
418.4879263392077
 11
-79.69466136568229
 21
418.5941413392077
 72
     1
 10
-79.69466136568229
 20
418.5941413392077
 11
-79.50716936568233
 21
418.6596913392078
 72
     2
 10
-77.29966136568231
 20
413.6221413392077
 40
5.5
 50
246.336463
 51
255.122814
 73
     0
 72
     1
 10
-78.71177536568229
 20
418.9377723392079
 11
-78.52766136568232
 21
419.0021413392078
 72
     1
 10
-78.52766136568232
 20
419.0021413392078
 11
-78.50466736568228
 21
419.0047253392077
 72
     1
 10
-78.50466736568228
 20
419.0047253392077
 11
-78.1006613656823
 21
419.1891413392077
 72
     1
 10
-78.1006613656823
 20
419.1891413392077
 11
-77.4035233656823
 21
419.1284693392078
 72
     1
 10
-77.4035233656823
 20
419.1284693392078
 11
-77.29966136568231
 21
419.1401413392078
 72
     1
 10
-77.29966136568231
 20
419.1401413392078
 11
-77.09959336568232
 21
419.1185013392077
 72
     2
 10
-77.29966136568231
 20
413.6221413392077
 40
5.5
 50
272.084656
 51
280.261942
 73
     0
 72
     1
 10
-76.31984436568228
 20
419.0341613392077
 11
-76.31966136568229
 21
419.0341413392078
 72
     1
 10
-76.31966136568229
 20
419.0341413392078
 11
-75.3216613656823
 21
447.5771413392078
 72
     1
 10
-75.3216613656823
 20
447.5771413392078
 11
-74.83466136568228
 21
448.6731413392078
 72
     1
 10
-74.83466136568228
 20
448.6731413392078
 11
-73.72366136568229
 21
449.1221413392078
 72
     1
 10
-73.72366136568229
 20
449.1221413392078
 11
-72.7666613656823
 21
449.1221413392078
 72
     1
 10
-72.7666613656823
 20
449.1221413392078
 11
-72.59266136568232
 21
454.1041413392077
 97
        0
 75
     0
 76
     0
 52
135.0
 41
5.0
 77
     0
 78
     1
 53
135.0
 43
-575.9267203656823
 44
-124.8967256607922
 45
-3.535533905932736
 46
-3.535533905932736
 79
     0
 98
        1
 10
-575.9267203656823
 20
-124.8967256607922
1001
GENIUS_GENODEF_13
1002
{
1000
HIER
1070
     0
1002
}
1002
{
1000
MANEDIT
1070
     0
1002
}
1002
{
1000
NOSEL
1070
     0
1002
}
1002
{
1000
BEHIND
1070
     0
1002
}
1002
{
1000
REACTOR
1002
}
1001
GENIUS_GENOBJ-N-HTC_13
1002
{
1000
OWNER
1000
GEN
1002
}
1001
GENIUS_GENHATCH_13
1002
{
1000
DATA
1040
135.0
1042
1.0
1000
_U
1070
     0
1011
-127.2167203656823
1021
426.9106523392077
1031
0.0
1002
}
1002
{
1000
UCS
1010
0.0
1020
0.0
1030
0.0
1010
1.0
1020
0.0
1030
0.0
1010
0.0
1020
1.0
1030
0.0
1002
}
  0
ARC
  5
1CF9
330
1609
100
AcDbEntity
  8
Kontur
100
AcDbCircle
 10
-65.61003893669965
 20
394.1221413392079
 30
0.0
 40
10.0
100
AcDbArc
 50
90.0
 51
176.9999999999976
  0
LINE
  5
1CFA
330
1609
100
AcDbEntity
  8
0
100
AcDbLine
 10
-68.09266136568237
 20
454.1221413392078
 30
0.0
 11
-71.24378085313423
 21
445.4645117014304
 31
0.0
  0
LINE
  5
1CFB
330
1609
100
AcDbEntity
  8
0
100
AcDbLine
 10
-158.5926613656823
 20
454.1221413392078
 30
0.0
 11
-60.09266136568237
 21
454.1221413392078
 31
0.0
  0
LINE
  5
1CFC
330
1609
100
AcDbEntity
  8
Kontur
100
AcDbLine
 10
-112.7366999806697
 20
279.1184963906922
 30
0.0
 11
-112.9995286280875
 21
299.1221413392078
 31
0.0
  0
LINE
  5
1CFD
330
1609
100
AcDbEntity
  8
Kontur
100
AcDbLine
 10
-106.3476272531574
 20
279.1184963906922
 30
0.0
 11
-105.7366999806699
 21
314.1184963906922
 31
0.0
  0
LINE
  5
1CFE
330
1609
100
AcDbEntity
  8
0
100
AcDbLine
 10
-158.5926613656823
 20
279.1221413392078
 30
0.0
 11
-106.3474411729636
 21
279.129156917858
 31
0.0
  0
LINE
  5
1CFF
330
1609
100
AcDbEntity
  8
0
100
AcDbLine
 10
-71.09266136568237
 20
454.1221413392078
 30
0.0
 11
-71.80126697615651
 21
413.5261531038027
 31
0.0
  0
LINE
  5
1D00
330
1609
100
AcDbEntity
  8
Kontur
100
AcDbLine
 10
-76.43639304125952
 20
378.6162249333278
 30
0.0
 11
-75.59633428424536
 21
394.6455009016373
 31
0.0
  0
ARC
  5
1D01
330
1609
100
AcDbEntity
  8
Kontur
100
AcDbCircle
 10
-99.0505846425292
 20
353.3736565803036
 30
0.0
 40
6.0
100
AcDbArc
 50
120.0000000000005
 51
178.9999999999982
  0
ARC
  5
1D02
330
1609
100
AcDbEntity
  8
Kontur
100
AcDbCircle
 10
-102.0408659987816
 20
353.9566179110769
 30
0.0
 40
10.0
100
AcDbArc
 50
120.0000000000005
 51
178.9999999999982
  0
LINE
  5
1D03
330
1609
100
AcDbEntity
  8
0
100
AcDbLine
 10
-112.9995286280875
 20
299.1221413392078
 30
0.0
 11
-158.5926613656823
 21
299.1221413392078
 31
0.0
  0
LINE
  5
1D04
330
1609
100
AcDbEntity
  8
0
100
AcDbLine
 10
-158.5926613656823
 20
304.1221413392078
 30
0.0
 11
-112.9122533034465
 21
304.1221413392079
 31
0.0
  0
LINE
  5
1D05
330
1609
100
AcDbEntity
  8
Kontur
100
AcDbLine
 10
-105.7366999806699
 20
314.1184963906922
 30
0.0
 11
-105.0496708134675
 21
353.4783710189275
 31
0.0
  0
LINE
  5
1D06
330
1609
100
AcDbEntity
  8
Kontur
100
AcDbLine
 10
-112.0393429503456
 20
354.1311419754497
 30
0.0
 11
-112.9995286280875
 21
299.1221413392078
 31
0.0
  0
LINE
  5
1D07
330
1609
100
AcDbEntity
  8
0
100
AcDbLine
 10
-158.5926613656823
 20
415.53131511152
 30
0.0
 11
-71.7646813654187
 21
415.53131511152
 31
0.0
  0
LINE
  5
1D08
330
1609
100
AcDbEntity
  8
0
100
AcDbLine
 10
-158.5926613656823
 20
408.1221413392078
 30
0.0
 11
-77.30042929951673
 21
408.1221413392078
 31
0.0
  0
LINE
  5
1D09
330
1609
100
AcDbEntity
  8
0
100
AcDbLine
 10
-83.86365065565611
 20
378.2381866503199
 30
0.0
 11
-83.34202428624974
 21
408.1221413392078
 31
0.0
  0
LINE
  5
1D0A
330
1609
100
AcDbEntity
  8
Kontur
100
AcDbLine
 10
-85.86304143628172
 20
374.8438946609313
 30
0.0
 11
-107.0408659987817
 21
362.6168719489212
 31
0.0
  0
LINE
  5
1D0B
330
1609
100
AcDbEntity
  8
Kontur
100
AcDbLine
 10
-81.42268838880534
 20
370.4793304579133
 30
0.0
 11
-102.0505846425292
 21
358.5698090030102
 31
0.0
  0
ARC
  5
1D0C
330
1609
100
AcDbEntity
  8
Kontur
100
AcDbCircle
 10
-86.42268838880523
 20
379.1395844957577
 30
0.0
 40
10.0
100
AcDbArc
 50
300.0000000000005
 51
356.9999999999976
  0
ARC
  5
1D0D
330
1609
100
AcDbEntity
  8
Kontur
100
AcDbCircle
 10
-87.86304143628171
 20
378.3079962760691
 30
0.0
 40
4.0
100
AcDbArc
 50
300.0000000000005
 51
358.9999999999982
  0
LINE
  5
1D0E
330
1609
100
AcDbEntity
  8
0
100
AcDbLine
 10
-113.3739397068675
 20
418.0313151115201
 30
0.0
 11
-71.7210437030983
 21
418.0313151115201
 31
0.0
  0
LINE
  5
1D0F
330
1609
100
AcDbEntity
  8
Kontur
100
AcDbLine
 10
-113.5926613656824
 20
415.53131511152
 30
0.0
 11
-113.3739397068675
 21
418.0313151115201
 31
0.0
  0
ARC
  5
1D10
330
1609
100
AcDbEntity
  8
0
100
AcDbCircle
 10
-77.30042929951673
 20
413.6221413392077
 30
0.0
 40
5.5
100
AcDbArc
 50
270.0
 51
358.9999999999982
  0
LINE
  5
1D11
330
1609
100
AcDbEntity
  8
Kontur
100
AcDbLine
 10
-83.09266136568238
 20
415.53131511152
 30
0.0
 11
-82.87393970686753
 21
418.0313151115201
 31
0.0
  0
LINE
  5
1D12
330
1609
100
AcDbEntity
  8
0
100
AcDbLine
 10
-60.09266136568237
 20
454.1221413392078
 30
0.0
 11
-58.07084764642036
 21
415.5436374048433
 31
0.0
  0
LINE
  5
1D13
330
1609
100
AcDbEntity
  8
0
100
AcDbLine
 10
-31.01466829194254
 20
414.1221413392078
 30
0.0
 11
-56.57290334428842
 21
414.1221413392078
 31
0.0
  0
LINE
  5
1D14
330
1609
100
AcDbEntity
  8
0
100
AcDbLine
 10
-28.59266136568237
 20
404.1221413392078
 30
0.0
 11
-65.61003893669965
 21
404.1221413392078
 31
0.0
  0
LINE
  5
1D15
330
1609
100
AcDbEntity
  8
0
100
AcDbLine
 10
-48.09266136568237
 20
404.1221413392078
 30
0.0
 11
-50.34266136568238
 21
414.1221413392078
 31
0.0
  0
ARC
  5
1D16
330
1609
100
AcDbEntity
  8
0
100
AcDbCircle
 10
-56.57290334428842
 20
415.6221413392078
 30
0.0
 40
1.5
100
AcDbArc
 50
182.9999999999991
 51
270.0
  0
LINE
  5
1D17
330
1609
100
AcDbEntity
  8
BEMASS
100
AcDbLine
 10
-28.59266136568237
 20
404.1221413392078
 30
0.0
 11
-28.59266136568237
 21
410.1463366315273
 31
0.0
  0
LINE
  5
1D18
330
1609
100
AcDbEntity
  8
0
100
AcDbLine
 10
-39.09266136568238
 20
404.1221413392078
 30
0.0
 11
-36.84266136568238
 21
414.1221413392078
 31
0.0
  0
LINE
  5
1D19
330
1609
100
AcDbEntity
  8
0
100
AcDbLine
 10
-28.59266136568237
 20
404.1221413392078
 30
0.0
 11
-29.0174092224334
 21
412.2268132516937
 31
0.0
  0
ARC
  5
1D1A
330
1609
100
AcDbEntity
  8
0
100
AcDbCircle
 10
-31.01466829194254
 20
412.1221413392078
 30
0.0
 40
2.0
100
AcDbArc
 50
3.000000000002342
 51
90.0
  0
LINE
  5
1D1B
330
1609
100
AcDbEntity
  8
BEMASS
100
AcDbLine
 10
-60.09266136568237
 20
454.1221413392078
 30
0.0
 11
-60.09266136568237
 21
442.6283997019549
 31
0.0
  0
ARC
  5
1D1C
330
1609
100
AcDbEntity
  8
Kontur
100
AcDbCircle
 10
-251.5752837946651
 20
394.1221413392079
 30
0.0
 40
10.0
100
AcDbArc
 50
3.000000000002342
 51
90.0
  0
LINE
  5
1D1D
330
1609
100
AcDbEntity
  8
0
100
AcDbLine
 10
-249.0926613656824
 20
454.1221413392078
 30
0.0
 11
-245.9415418782305
 21
445.4645117014304
 31
0.0
  0
LINE
  5
1D1E
330
1609
100
AcDbEntity
  8
0
100
AcDbLine
 10
-158.5926613656823
 20
454.1221413392078
 30
0.0
 11
-257.0926613656824
 21
454.1221413392078
 31
0.0
  0
LINE
  5
1D1F
330
1609
100
AcDbEntity
  8
Kontur
100
AcDbLine
 10
-204.448622750695
 20
279.1184963906922
 30
0.0
 11
-204.1857941032772
 21
299.1221413392078
 31
0.0
  0
LINE
  5
1D20
330
1609
100
AcDbEntity
  8
Kontur
100
AcDbLine
 10
-210.8376954782074
 20
279.1184963906922
 30
0.0
 11
-211.448622750695
 21
314.1184963906922
 31
0.0
  0
LINE
  5
1D21
330
1609
100
AcDbEntity
  8
0
100
AcDbLine
 10
-158.5926613656825
 20
279.1221413392078
 30
0.0
 11
-210.8378815584012
 21
279.129156917858
 31
0.0
  0
LINE
  5
1D22
330
1609
100
AcDbEntity
  8
0
100
AcDbLine
 10
-246.0926613656824
 20
454.1221413392078
 30
0.0
 11
-245.3840557552082
 21
413.5261531038027
 31
0.0
  0
LINE
  5
1D23
330
1609
100
AcDbEntity
  8
Kontur
100
AcDbLine
 10
-240.7489296901052
 20
378.6162249333278
 30
0.0
 11
-241.5889884471194
 21
394.6455009016373
 31
0.0
  0
ARC
  5
1D24
330
1609
100
AcDbEntity
  8
Kontur
100
AcDbCircle
 10
-218.1347380888356
 20
353.3736565803036
 30
0.0
 40
6.0
100
AcDbArc
 50
1.000000000001761
 51
59.99999999999946
  0
ARC
  5
1D25
330
1609
100
AcDbEntity
  8
Kontur
100
AcDbCircle
 10
-215.1444567325831
 20
353.9566179110769
 30
0.0
 40
10.0
100
AcDbArc
 50
1.000000000001761
 51
59.99999999999946
  0
LINE
  5
1D26
330
1609
100
AcDbEntity
  8
0
100
AcDbLine
 10
-204.1857941032772
 20
299.1221413392078
 30
0.0
 11
-158.5926613656825
 21
299.1221413392078
 31
0.0
  0
LINE
  5
1D27
330
1609
100
AcDbEntity
  8
0
100
AcDbLine
 10
-158.5926613656825
 20
304.1221413392078
 30
0.0
 11
-204.2730694279184
 21
304.1221413392079
 31
0.0
  0
LINE
  5
1D28
330
1609
100
AcDbEntity
  8
Kontur
100
AcDbLine
 10
-211.448622750695
 20
314.1184963906922
 30
0.0
 11
-212.1356519178972
 21
353.4783710189275
 31
0.0
  0
LINE
  5
1D29
330
1609
100
AcDbEntity
  8
Kontur
100
AcDbLine
 10
-205.1459797810192
 20
354.1311419754497
 30
0.0
 11
-204.1857941032772
 21
299.1221413392078
 31
0.0
  0
LINE
  5
1D2A
330
1609
100
AcDbEntity
  8
0
100
AcDbLine
 10
-158.5926613656823
 20
415.53131511152
 30
0.0
 11
-245.4206413659461
 21
415.53131511152
 31
0.0
  0
LINE
  5
1D2B
330
1609
100
AcDbEntity
  8
0
100
AcDbLine
 10
-158.5926613656823
 20
408.1221413392078
 30
0.0
 11
-239.884893431848
 21
408.1221413392078
 31
0.0
  0
LINE
  5
1D2C
330
1609
100
AcDbEntity
  8
0
100
AcDbLine
 10
-233.3216720757087
 20
378.2381866503199
 30
0.0
 11
-233.843298445115
 21
408.1221413392078
 31
0.0
  0
LINE
  5
1D2D
330
1609
100
AcDbEntity
  8
Kontur
100
AcDbLine
 10
-231.322281295083
 20
374.8438946609313
 30
0.0
 11
-210.1444567325831
 21
362.6168719489212
 31
0.0
  0
LINE
  5
1D2E
330
1609
100
AcDbEntity
  8
Kontur
100
AcDbLine
 10
-235.7626343425594
 20
370.4793304579133
 30
0.0
 11
-215.1347380888355
 21
358.5698090030102
 31
0.0
  0
ARC
  5
1D2F
330
1609
100
AcDbEntity
  8
Kontur
100
AcDbCircle
 10
-230.7626343425595
 20
379.1395844957577
 30
0.0
 40
10.0
100
AcDbArc
 50
183.0000000000023
 51
239.9999999999995
  0
ARC
  5
1D30
330
1609
100
AcDbEntity
  8
Kontur
100
AcDbCircle
 10
-229.322281295083
 20
378.3079962760691
 30
0.0
 40
4.0
100
AcDbArc
 50
181.0000000000017
 51
239.9999999999995
  0
LINE
  5
1D31
330
1609
100
AcDbEntity
  8
0
100
AcDbLine
 10
-203.8113830244972
 20
418.0313151115201
 30
0.0
 11
-245.4642790282666
 21
418.0313151115201
 31
0.0
  0
LINE
  5
1D32
330
1609
100
AcDbEntity
  8
Kontur
100
AcDbLine
 10
-203.5926613656824
 20
415.53131511152
 30
0.0
 11
-203.8113830244972
 21
418.0313151115201
 31
0.0
  0
ARC
  5
1D33
330
1609
100
AcDbEntity
  8
0
100
AcDbCircle
 10
-239.884893431848
 20
413.6221413392077
 30
0.0
 40
5.5
100
AcDbArc
 50
181.0000000000017
 51
270.0
  0
LINE
  5
1D34
330
1609
100
AcDbEntity
  8
Kontur
100
AcDbLine
 10
-234.0926613656824
 20
415.53131511152
 30
0.0
 11
-234.3113830244972
 21
418.0313151115201
 31
0.0
  0
LINE
  5
1D35
330
1609
100
AcDbEntity
  8
0
100
AcDbLine
 10
-257.0926613656824
 20
454.1221413392078
 30
0.0
 11
-259.1144750849445
 21
415.5436374048433
 31
0.0
  0
LINE
  5
1D36
330
1609
100
AcDbEntity
  8
0
100
AcDbLine
 10
-286.1706544394222
 20
414.1221413392078
 30
0.0
 11
-260.6124193870763
 21
414.1221413392078
 31
0.0
  0
LINE
  5
1D37
330
1609
100
AcDbEntity
  8
0
100
AcDbLine
 10
-288.5926613656824
 20
404.1221413392078
 30
0.0
 11
-251.5752837946651
 21
404.1221413392078
 31
0.0
  0
LINE
  5
1D38
330
1609
100
AcDbEntity
  8
0
100
AcDbLine
 10
-269.0926613656824
 20
404.1221413392078
 30
0.0
 11
-266.8426613656824
 21
414.1221413392078
 31
0.0
  0
ARC
  5
1D39
330
1609
100
AcDbEntity
  8
0
100
AcDbCircle
 10
-260.6124193870763
 20
415.6221413392078
 30
0.0
 40
1.5
100
AcDbArc
 50
270.0
 51
357.0000000000009
  0
LINE
  5
1D3A
330
1609
100
AcDbEntity
  8
BEMASS
100
AcDbLine
 10
-288.5926613656824
 20
404.1221413392078
 30
0.0
 11
-288.5926613656824
 21
410.1463366315273
 31
0.0
  0
LINE
  5
1D3B
330
1609
100
AcDbEntity
  8
0
100
AcDbLine
 10
-278.0926613656824
 20
404.1221413392078
 30
0.0
 11
-280.3426613656824
 21
414.1221413392078
 31
0.0
  0
LINE
  5
1D3C
330
1609
100
AcDbEntity
  8
0
100
AcDbLine
 10
-288.5926613656824
 20
404.1221413392078
 30
0.0
 11
-288.1679135089314
 21
412.2268132516937
 31
0.0
  0
ARC
  5
1D3D
330
1609
100
AcDbEntity
  8
0
100
AcDbCircle
 10
-286.1706544394222
 20
412.1221413392078
 30
0.0
 40
2.0
100
AcDbArc
 50
90.0
 51
176.9999999999976
  0
LINE
  5
1D3E
330
1609
100
AcDbEntity
  8
BEMASS
100
AcDbLine
 10
-257.0926613656824
 20
454.1221413392078
 30
0.0
 11
-257.0926613656824
 21
442.6283997019549
 31
0.0
  0
HATCH
  5
1D3F
330
1609
100
AcDbEntity
  8
8
100
AcDbHatch
 10
0.0
 20
0.0
 30
0.0
210
0.0
220
0.0
230
1.0
  2
_U
 70
     0
 71
     0
 91
        1
 92
        1
 93
       23
 72
     1
 10
-77.30042929951673
 20
408.1221413392078
 11
-83.34202428624974
 21
408.1221413392078
 72
     1
 10
-83.34202428624974
 20
408.1221413392078
 11
-83.86365065565611
 21
378.2381866503199
 72
     2
 10
-87.86304143628171
 20
378.3079962760691
 40
3.999999999999995
 50
1.000000000000141
 51
59.99999999999947
 73
     0
 72
     1
 10
-85.86304143628172
 20
374.8438946609313
 11
-107.0408659987817
 21
362.6168719489212
 72
     2
 10
-102.0408659987816
 20
353.9566179110769
 40
10.00000000000001
 50
120.0000000000003
 51
178.9999999999998
 73
     1
 72
     1
 10
-112.0393429503456
 20
354.1311419754497
 11
-112.9995286280875
 21
299.1221413392078
 72
     1
 10
-112.9995286280875
 20
299.1221413392078
 11
-112.7368287767335
 21
279.1282989398248
 72
     1
 10
-112.7368287767335
 20
279.1282989398248
 11
-106.3474411729636
 21
279.129156917858
 72
     1
 10
-106.3474411729636
 20
279.129156917858
 11
-105.0496708134676
 21
353.4783710189275
 72
     2
 10
-99.0505846425292
 20
353.3736565803036
 40
5.999999999999993
 50
181.0000000000017
 51
239.9999999999992
 73
     0
 72
     1
 10
-102.0505846425293
 20
358.5698090030102
 11
-81.42268838880534
 21
370.4793304579133
 72
     2
 10
-86.42268838880523
 20
379.1395844957577
 40
9.999999999999998
 50
299.9999999999996
 51
356.9999999999973
 73
     1
 72
     1
 10
-76.43639304125952
 20
378.6162249333278
 11
-75.59633428424536
 21
394.6455009016373
 72
     2
 10
-65.61003893669965
 20
394.1221413392079
 40
10.00000000000001
 50
183.0
 51
270.0000000000001
 73
     0
 72
     1
 10
-65.61003893669965
 20
404.1221413392078
 11
-48.09266136568237
 21
404.1221413392078
 72
     1
 10
-48.09266136568237
 20
404.1221413392078
 11
-50.34266136568238
 21
414.1221413392078
 72
     1
 10
-50.34266136568238
 20
414.1221413392078
 11
-56.57290334428842
 21
414.1221413392078
 72
     2
 10
-56.57290334428842
 20
415.6221413392078
 40
1.5
 50
90.0
 51
177.0000000000009
 73
     0
 72
     1
 10
-58.07084764642024
 20
415.5436374048433
 11
-60.09266136568237
 21
454.1221413392078
 72
     1
 10
-60.09266136568237
 20
454.1221413392078
 11
-68.09266136568237
 21
454.1221413392078
 72
     1
 10
-68.09266136568237
 20
454.1221413392078
 11
-71.24378085313435
 21
445.4645117014304
 72
     1
 10
-71.24378085313423
 20
445.4645117014304
 11
-71.80126697615651
 21
413.5261531038027
 72
     2
 10
-77.30042929951673
 20
413.6221413392077
 40
5.500000000000007
 50
0.9999999999999886
 51
90.0000000000001
 73
     0
 97
        0
 75
     0
 76
     0
 52
45.0
 41
2.5
 77
     0
 78
     1
 53
45.0
 43
-69.92765579093384
 44
-81.75756798322016
 45
-1.767766952966368
 46
1.767766952966368
 79
     0
 98
        1
 10
-69.92765579093384
 20
-81.75756798322016
1001
ACAD
1010
0.0
1020
0.0
1030
0.0
1001
GENIUS_GENOBJ-N-HTC_13
1002
{
1000
OWNER
1000
GEN
1002
}
1001
GENIUS_GENODEF_13
1002
{
1000
HIER
1070
     0
1002
}
1002
{
1000
MANEDIT
1070
     0
1002
}
1002
{
1000
NOSEL
1070
     0
1002
}
1002
{
1000
BEHIND
1070
     0
1002
}
1002
{
1000
OTHER
1070
     0
1002
}
1002
{
1000
REACTOR
1002
}
1001
GENIUS_GENHATCH_13
1002
{
1000
DATA
1040
45.0
1042
2.5
1000
_U
1070
     0
1011
-109.2480164970934
1021
330.962251768571
1031
0.0
1002
}
1002
{
1000
UCS
1010
0.0
1020
0.0
1030
0.0
1010
1.0
1020
0.0
1030
0.0
1010
0.0
1020
1.0
1030
0.0
1002
}
  0
HATCH
  5
1D40
330
1609
100
AcDbEntity
  8
8
100
AcDbHatch
 10
0.0
 20
0.0
 30
0.0
210
0.0
220
0.0
230
1.0
  2
_U
 70
     0
 71
     0
 91
        1
 92
        1
 93
       23
 72
     1
 10
-249.0926613656824
 20
454.1221413392078
 11
-257.0926613656824
 21
454.1221413392078
 72
     1
 10
-257.0926613656824
 20
454.1221413392078
 11
-259.1144750849445
 21
415.5436374048433
 72
     2
 10
-260.6124193870763
 20
415.6221413392078
 40
1.500000000000025
 50
3.000000000001187
 51
90.0
 73
     0
 72
     1
 10
-260.6124193870763
 20
414.1221413392078
 11
-266.8426613656824
 21
414.1221413392078
 72
     1
 10
-266.8426613656824
 20
414.1221413392078
 11
-269.0926613656824
 21
404.1221413392078
 72
     1
 10
-269.0926613656824
 20
404.1221413392078
 11
-251.5752837946651
 21
404.1221413392078
 72
     2
 10
-251.5752837946651
 20
394.1221413392079
 40
10.0
 50
270.0
 51
356.9999999999976
 73
     0
 72
     1
 10
-241.5889884471194
 20
394.6455009016377
 11
-240.7489296901051
 21
378.6162249333278
 72
     2
 10
-230.7626343425595
 20
379.1395844957577
 40
9.99999999999996
 50
183.0000000000023
 51
239.9999999999999
 73
     1
 72
     1
 10
-235.7626343425595
 20
370.4793304579133
 11
-215.1347380888355
 21
358.5698090030102
 72
     2
 10
-218.1347380888356
 20
353.3736565803036
 40
5.999999999999985
 50
299.9999999999998
 51
358.9999999999982
 73
     0
 72
     1
 10
-212.1356519178972
 20
353.4783710189275
 11
-210.8378815584012
 21
279.129156917858
 72
     1
 10
-210.8378815584012
 20
279.129156917858
 11
-204.4484939546313
 21
279.1282989398248
 72
     1
 10
-204.4484939546312
 20
279.1282989398248
 11
-204.1857941032772
 21
299.1221413392078
 72
     1
 10
-204.1857941032772
 20
299.1221413392078
 11
-205.1459797810192
 21
354.1311419754497
 72
     2
 10
-215.1444567325831
 20
353.9566179110768
 40
9.999999999999991
 50
1.000000000000473
 51
60.0000000000001
 73
     1
 72
     1
 10
-210.1444567325831
 20
362.6168719489212
 11
-231.322281295083
 21
374.8438946609313
 72
     2
 10
-229.322281295083
 20
378.3079962760691
 40
3.999999999999983
 50
120.0000000000001
 51
178.9999999999982
 73
     0
 72
     1
 10
-233.3216720757087
 20
378.2381866503198
 11
-233.8432984451151
 21
408.1221413392078
 72
     1
 10
-233.843298445115
 20
408.1221413392078
 11
-239.884893431848
 21
408.1221413392078
 72
     2
 10
-239.884893431848
 20
413.6221413392077
 40
5.5
 50
90.0
 51
179.0
 73
     0
 72
     1
 10
-245.3840557552082
 20
413.5261531038027
 11
-245.9415418782305
 21
445.4645117014305
 72
     1
 10
-245.9415418782305
 20
445.4645117014305
 11
-249.0926613656824
 21
454.1221413392078
 97
        0
 75
     0
 76
     0
 52
45.0
 41
2.5
 77
     0
 78
     1
 53
45.0
 43
-69.92765579093384
 44
-81.75756798322016
 45
-1.767766952966368
 46
1.767766952966368
 79
     0
 98
        1
 10
-69.92765579093384
 20
-81.75756798322016
1001
ACAD
1010
0.0
1020
0.0
1030
0.0
1001
GENIUS_GENOBJ-N-HTC_13
1002
{
1000
OWNER
1000
GEN
1002
}
1001
GENIUS_GENODEF_13
1002
{
1000
HIER
1070
     0
1002
}
1002
{
1000
MANEDIT
1070
     0
1002
}
1002
{
1000
NOSEL
1070
     0
1002
}
1002
{
1000
BEHIND
1070
     0
1002
}
1002
{
1000
OTHER
1070
     0
1002
}
1002
{
1000
REACTOR
1002
}
1001
GENIUS_GENHATCH_13
1002
{
1000
DATA
1040
45.0
1042
2.5
1000
_U
1070
     0
1011
-250.8756311887594
1021
421.972102213706
1031
0.0
1002
}
1002
{
1000
UCS
1010
0.0
1020
0.0
1030
0.0
1010
1.0
1020
0.0
1030
0.0
1010
0.0
1020
1.0
1030
0.0
1002
}
  0
HATCH
  5
1D41
330
1609
100
AcDbEntity
  8
AM_8
100
AcDbHatch
 10
0.0
 20
0.0
 30
0.0
210
0.0
220
0.0
230
1.0
  2
_U
 70
     0
 71
     0
 91
        1
 92
        1
 93
        5
 72
     1
 10
-31.01466829194254
 20
414.1221413392078
 11
-36.84266136568238
 21
414.1221413392078
 72
     1
 10
-36.84266136568238
 20
414.1221413392078
 11
-39.09266136568238
 21
404.1221413392078
 72
     1
 10
-39.09266136568238
 20
404.1221413392078
 11
-28.59266136568237
 21
404.1221413392078
 72
     1
 10
-28.59266136568237
 20
404.1221413392078
 11
-29.0174092224334
 21
412.2268132516937
 72
     2
 10
-31.01466829194254
 20
412.1221413392078
 40
1.999999999999998
 50
2.999999999999078
 51
89.9999999999998
 73
     1
 97
        0
 75
     0
 76
     0
 52
45.0
 41
2.5
 77
     0
 78
     1
 53
45.0
 43
-69.92765579093384
 44
-81.75756798322016
 45
-1.767766952966368
 46
1.767766952966368
 79
     0
 98
        1
 10
-69.92765579093384
 20
-81.75756798322016
1001
GENIUS_GENODEF_13
1002
{
1000
HIER
1070
     0
1002
}
1002
{
1000
MANEDIT
1070
     0
1002
}
1002
{
1000
NOSEL
1070
     0
1002
}
1002
{
1000
BEHIND
1070
     0
1002
}
1002
{
1000
OTHER
1070
     0
1002
}
1002
{
1000
REACTOR
1002
}
1001
GENIUS_GENOBJ-N-HTC_13
1002
{
1000
OWNER
1000
GEN
1002
}
1001
GENIUS_GENHATCH_13
1002
{
1000
DATA
1040
45.0
1042
2.5
1000
_U
1070
     0
1011
-32.36445358044966
1021
409.8374561016774
1031
0.0
1002
}
1002
{
1000
UCS
1010
0.0
1020
0.0
1030
0.0
1010
1.0
1020
0.0
1030
0.0
1010
0.0
1020
1.0
1030
0.0
1002
}
  0
HATCH
  5
1D42
330
1609
100
AcDbEntity
  8
AM_8
100
AcDbHatch
 10
0.0
 20
0.0
 30
0.0
210
0.0
220
0.0
230
1.0
  2
_U
 70
     0
 71
     0
 91
        1
 92
        1
 93
        5
 72
     1
 10
-280.3426613656824
 20
414.1221413392078
 11
-286.1706544394222
 21
414.1221413392078
 72
     2
 10
-286.1706544394222
 20
412.1221413392078
 40
2.0
 50
90.0
 51
176.9999999999976
 73
     1
 72
     1
 10
-288.1679135089314
 20
412.2268132516937
 11
-288.5926613656825
 21
404.1221413392078
 72
     1
 10
-288.5926613656824
 20
404.1221413392078
 11
-278.0926613656824
 21
404.1221413392078
 72
     1
 10
-278.0926613656824
 20
404.1221413392078
 11
-280.3426613656824
 21
414.1221413392078
 97
        0
 75
     0
 76
     0
 52
45.0
 41
2.5
 77
     0
 78
     1
 53
45.0
 43
-69.92765579093384
 44
-81.75756798322016
 45
-1.767766952966368
 46
1.767766952966368
 79
     0
 98
        1
 10
-69.92765579093384
 20
-81.75756798322016
1001
GENIUS_GENOBJ-N-HTC_13
1002
{
1000
OWNER
1000
GEN
1002
}
1001
GENIUS_GENODEF_13
1002
{
1000
HIER
1070
     0
1002
}
1002
{
1000
MANEDIT
1070
     0
1002
}
1002
{
1000
NOSEL
1070
     0
1002
}
1002
{
1000
BEHIND
1070
     0
1002
}
1002
{
1000
OTHER
1070
     0
1002
}
1002
{
1000
REACTOR
1002
}
1001
GENIUS_GENHATCH_13
1002
{
1000
DATA
1040
45.0
1042
2.5
1000
_U
1070
     0
1011
-283.9220753815107
1021
408.4891612364666
1031
0.0
1002
}
1002
{
1000
UCS
1010
0.0
1020
0.0
1030
0.0
1010
1.0
1020
0.0
1030
0.0
1010
0.0
1020
1.0
1030
0.0
1002
}
  0
LINE
  5
1D43
330
1609
100
AcDbEntity
  8
AM_7
100
AcDbLine
 10
-158.5906471397222
 20
469.1221412039709
 30
0.0
 11
-158.6181748942986
 21
264.1221446299717
 31
0.0
1001
GENIUS_GENOBJ-N-CEN_13
1002
{
1000
OWNER
1000
GEN
1002
}
1001
GENIUS_GENODEF_13
1002
{
1000
HIER
1070
     0
1002
}
1002
{
1000
MANEDIT
1070
     0
1002
}
1002
{
1000
NOSEL
1070
     0
1002
}
1002
{
1000
BEHIND
1070
     0
1002
}
1002
{
1000
OTHER
1070
     0
1002
}
1002
{
1000
REACTOR
1002
}
1001
GENIUS_GENCEN_19
1002
{
1040
15.0
1002
}
  0
ENDSEC
  0
SECTION
  2
OBJECTS
  0
DICTIONARY
  5
15FD
330
0
100
AcDbDictionary
281
     1
  3
ACAD_COLOR
350
1B98
  3
ACAD_GROUP
350
15FE
  3
ACAD_LAYOUT
350
1B9B
  3
ACAD_MATERIAL
350
1B97
  3
ACAD_MLINESTYLE
350
160C
  3
ACAD_PLOTSETTINGS
350
1B9C
  3
ACAD_PLOTSTYLENAME
350
1B95
  3
ACAD_TABLESTYLE
350
1B99
  3
ACDBHEADERROUNDTRIPXREC
350
1D8C
  3
AcDbVariableDictionary
350
1C97
  3
AcmDictionary
350
1BFA
  3
AMG
350
1BA0
  3
AMGSNAPSETTINGS
350
1C6C
  0
DICTIONARY
  5
1B98
102
{ACAD_REACTORS
330
15FD
102
}
330
15FD
100
AcDbDictionary
281
     1
  0
DICTIONARY
  5
15FE
102
{ACAD_REACTORS
330
15FD
102
}
330
15FD
100
AcDbDictionary
281
     1
  0
DICTIONARY
  5
1B9B
102
{ACAD_REACTORS
330
15FD
102
}
330
15FD
100
AcDbDictionary
281
     1
  3
Layout1
350
1B9E
  3
Model
350
1B9D
  0
DICTIONARY
  5
1B97
102
{ACAD_REACTORS
330
15FD
102
}
330
15FD
100
AcDbDictionary
281
     1
  0
DICTIONARY
  5
160C
102
{ACAD_REACTORS
330
15FD
102
}
330
15FD
100
AcDbDictionary
281
     1
  3
STANDARD
350
160D
  0
DICTIONARY
  5
1B9C
102
{ACAD_REACTORS
330
15FD
102
}
330
15FD
100
AcDbDictionary
281
     1
  0
ACDBDICTIONARYWDFLT
  5
1B95
102
{ACAD_REACTORS
330
15FD
102
}
330
15FD
100
AcDbDictionary
281
     1
  3
Normal
350
1B96
100
AcDbDictionaryWithDefault
340
1B96
  0
DICTIONARY
  5
1B99
102
{ACAD_REACTORS
330
15FD
102
}
330
15FD
100
AcDbDictionary
281
     1
  3
Standard
350
1B9A
  0
DICTIONARY
  5
1D8C
102
{ACAD_REACTORS
330
15FD
102
}
330
15FD
100
AcDbDictionary
281
     1
  0
DICTIONARY
  5
1C97
102
{ACAD_REACTORS
330
15FD
102
}
330
15FD
100
AcDbDictionary
281
     1
  3
CTABLESTYLE
350
1C98
  3
DIMASSOC
350
1D89
  3
PROJECTNAME
350
1D8A
  0
DICTIONARY
  5
1BFA
102
{ACAD_REACTORS
330
15FD
102
}
330
15FD
100
AcDbDictionary
281
     1
  3
AcmStdDictionary
350
1C05
  3
AMDTSECTSYM_ARROWCOLOR
350
1C28
  0
DICTIONARY
  5
1BA0
102
{ACAD_REACTORS
330
15FD
102
}
330
15FD
100
AcDbDictionary
281
     1
  0
DICTIONARY
  5
1C6C
102
{ACAD_REACTORS
330
15FD
102
}
330
15FD
100
AcDbDictionary
281
     1
  0
LAYOUT
  5
1B9E
102
{ACAD_XDICTIONARY
360
1D8F
102
}
102
{ACAD_REACTORS
330
1B9B
102
}
330
1B9B
100
AcDbPlotSettings
  1

  2
Xerox Document Centre CS50 PS
  4

  6

 40
0.0
 41
0.0
 42
0.0
 43
0.0
 44
0.0
 45
0.0
 46
0.0
 47
0.0
 48
0.0
 49
0.0
140
0.0
141
0.0
142
1.0
143
1.0
 70
   688
 72
     0
 73
     0
 74
     5
  7

 75
    16
147
1.0
148
0.0
149
0.0
100
AcDbLayout
  1
Layout1
 70
     1
 71
     1
 10
0.0
 20
0.0
 11
139.442
 21
285.648
 12
0.0
 22
0.0
 32
0.0
 14
0.0
 24
0.0
 34
0.0
 15
139.442
 25
285.648
 35
0.0
146
0.0
 13
0.0
 23
0.0
 33
0.0
 16
1.0
 26
0.0
 36
0.0
 17
0.0
 27
1.0
 37
0.0
 76
     0
330
1606
  0
LAYOUT
  5
1B9D
102
{ACAD_XDICTIONARY
360
1D8D
102
}
102
{ACAD_REACTORS
330
1B9B
102
}
330
1B9B
100
AcDbPlotSettings
  1

  2
Xerox Document Centre CS50 PS
  4

  6

 40
0.0
 41
0.0
 42
0.0
 43
0.0
 44
0.0
 45
0.0
 46
0.0
 47
0.0
 48
0.0
 49
0.0
140
0.0
141
0.0
142
1.0
143
1.0
 70
  1712
 72
     0
 73
     0
 74
     0
  7

 75
     0
147
1.0
148
0.0
149
0.0
100
AcDbLayout
  1
Model
 70
     1
 71
     0
 10
0.0
 20
0.0
 11
12.0
 21
9.0
 12
0.0
 22
0.0
 32
0.0
 14
0.0
 24
0.0
 34
0.0
 15
0.0
 25
0.0
 35
0.0
146
0.0
 13
0.0
 23
0.0
 33
0.0
 16
1.0
 26
0.0
 36
0.0
 17
0.0
 27
1.0
 37
0.0
 76
     0
330
1609
  0
MLINESTYLE
  5
160D
102
{ACAD_REACTORS
330
160C
102
}
330
160C
100
AcDbMlineStyle
  2
STANDARD
 70
     0
  3

 62
   256
 51
90.0
 52
90.0
 71
     2
 49
0.5
 62
   256
  6
BYLAYER
 49
-0.5
 62
   256
  6
BYLAYER
  0
ACDBPLACEHOLDER
  5
1B96
102
{ACAD_REACTORS
330
1B95
102
}
330
1B95
  0
TABLESTYLE
  5
1B9A
102
{ACAD_REACTORS
330
1B99
102
}
330
1B99
100
AcDbTableStyle
  3
Standard
 70
     0
 71
     0
 40
1.5
 41
1.5
280
     0
281
     0
  7
STANDARD
140
4.5
170
     2
 62
     0
 63
     7
283
     0
274
    -2
284
     1
 64
     0
275
    -2
285
     1
 65
     0
276
    -2
286
     1
 66
     0
277
    -2
287
     1
 67
     0
278
    -2
288
     1
 68
     0
279
    -2
289
     1
 69
     0
  7
STANDARD
140
6.0
170
     5
 62
     0
 63
     7
283
     0
274
    -2
284
     1
 64
     0
275
    -2
285
     1
 65
     0
276
    -2
286
     1
 66
     0
277
    -2
287
     1
 67
     0
278
    -2
288
     1
 68
     0
279
    -2
289
     1
 69
     0
  7
STANDARD
140
4.5
170
     5
 62
     0
 63
     7
283
     0
274
    -2
284
     1
 64
     0
275
    -2
285
     1
 65
     0
276
    -2
286
     1
 66
     0
277
    -2
287
     1
 67
     0
278
    -2
288
     1
 68
     0
279
    -2
289
     1
 69
     0
  0
DICTIONARYVAR
  5
1C98
102
{ACAD_REACTORS
330
1C97
102
}
330
1C97
100
DictionaryVariables
280
     0
  1
STANDARD
  0
DICTIONARYVAR
  5
1D89
102
{ACAD_REACTORS
330
1C97
102
}
330
1C97
100
DictionaryVariables
280
     0
  1
1
  0
DICTIONARYVAR
  5
1D8A
102
{ACAD_REACTORS
330
1C97
102
}
330
1C97
100
DictionaryVariables
280
     0
  1

  0
DICTIONARY
  5
1C05
102
{ACAD_REACTORS
330
1BFA
102
}
330
1BFA
100
AcDbDictionary
281
     1
  0
XRECORD
  5
1C28
102
{ACAD_REACTORS
330
1BFA
102
}
330
1BFA
100
AcDbXrecord
280
     1
 90
-1023410169
  0
DICTIONARY
  5
1D8F
330
1B9E
100
AcDbDictionary
280
     1
281
     1
  3
ACAD_XREC_ROUNDTRIP
360
1D90
  0
DICTIONARY
  5
1D8D
330
1B9D
100
AcDbDictionary
280
     1
281
     1
  3
ACAD_XREC_ROUNDTRIP
360
1D8E
  0
XRECORD
  5
1D90
102
{ACAD_REACTORS
330
1D8F
102
}
330
1D8F
100
AcDbXrecord
280
     1
102
SHADEPLOT
 70
     0
102
SHADEPLOTRESLEVEL
 70
     2
102
SHADEPLOTCUSTOMDPI
 70
   300
  0
XRECORD
  5
1D8E
102
{ACAD_REACTORS
330
1D8D
102
}
330
1D8D
100
AcDbXrecord
280
     1
102
SHADEPLOT
 70
     0
102
SHADEPLOTRESLEVEL
 70
     2
102
SHADEPLOTCUSTOMDPI
 70
   300
  0
ENDSEC
  0
EOF
