  0
SECTION
  2
HEADER
  9
$ACADVER
  1
AC1015
  9
$ACADMAINTVER
 70
    20
  9
$DWGCODEPAGE
  3
ANSI_1252
  9
$INSBASE
 10
0.0
 20
0.0
 30
0.0
  9
$EXTMIN
 10
-408.5060099937325
 20
11.18316896164697
 30
-0.0015258207003583
  9
$EXTMAX
 10
-28.7910449537344
 20
553.2783526965395
 30
0.0000000349246037
  9
$LIMMIN
 10
0.0
 20
0.0
  9
$LIMMAX
 10
1050.0
 20
1050.0
  9
$ORTHOMODE
 70
     0
  9
$REGENMODE
 70
     1
  9
$FILLMODE
 70
     1
  9
$QTEXTMODE
 70
     0
  9
$MIRRTEXT
 70
     0
  9
$LTSCALE
 40
5.0
  9
$ATTMODE
 70
     1
  9
$TEXTSIZE
 40
17.5
  9
$TRACEWID
 40
0.05
  9
$TEXTSTYLE
  7
STANDARD
  9
$CLAYER
  8
0
  9
$CELTYPE
  6
BYLAYER
  9
$CECOLOR
 62
   256
  9
$CELTSCALE
 40
1.0
  9
$DISPSILH
 70
     0
  9
$DIMSCALE
 40
5.0
  9
$DIMASZ
 40
2.5
  9
$DIMEXO
 40
1.0
  9
$DIMDLI
 40
7.0
  9
$DIMRND
 40
0.0
  9
$DIMDLE
 40
0.0
  9
$DIMEXE
 40
1.0
  9
$DIMTP
 40
0.1
  9
$DIMTM
 40
0.1
  9
$DIMTXT
 40
3.5
  9
$DIMCEN
 40
0.0
  9
$DIMTSZ
 40
0.0
  9
$DIMTOL
 70
     0
  9
$DIMLIM
 70
     0
  9
$DIMTIH
 70
     0
  9
$DIMTOH
 70
     0
  9
$DIMSE1
 70
     0
  9
$DIMSE2
 70
     0
  9
$DIMTAD
 70
     1
  9
$DIMZIN
 70
    12
  9
$DIMBLK
  1

  9
$DIMASO
 70
     1
  9
$DIMSHO
 70
     1
  9
$DIMPOST
  1

  9
$DIMAPOST
  1
"
  9
$DIMALT
 70
     0
  9
$DIMALTD
 70
     2
  9
$DIMALTF
 40
0.03937
  9
$DIMLFAC
 40
1.0
  9
$DIMTOFL
 70
     1
  9
$DIMTVP
 40
0.0
  9
$DIMTIX
 70
     0
  9
$DIMSOXD
 70
     0
  9
$DIMSAH
 70
     0
  9
$DIMBLK1
  1

  9
$DIMBLK2
  1

  9
$DIMSTYLE
  2
GEN-ISO
  9
$DIMCLRD
 70
   256
  9
$DIMCLRE
 70
   256
  9
$DIMCLRT
 70
     2
  9
$DIMTFAC
 40
0.71
  9
$DIMGAP
 40
0.6
  9
$DIMJUST
 70
     0
  9
$DIMSD1
 70
     0
  9
$DIMSD2
 70
     0
  9
$DIMTOLJ
 70
     0
  9
$DIMTZIN
 70
     0
  9
$DIMALTZ
 70
     0
  9
$DIMALTTZ
 70
     0
  9
$DIMUPT
 70
     0
  9
$DIMDEC
 70
     2
  9
$DIMTDEC
 70
     3
  9
$DIMALTU
 70
     2
  9
$DIMALTTD
 70
     4
  9
$DIMTXSTY
  7
STANDARD
  9
$DIMAUNIT
 70
     0
  9
$DIMADEC
 70
     0
  9
$DIMALTRND
 40
0.0
  9
$DIMAZIN
 70
     0
  9
$DIMDSEP
 70
    46
  9
$DIMATFIT
 70
     3
  9
$DIMFRAC
 70
     0
  9
$DIMLDRBLK
  1

  9
$DIMLUNIT
 70
     2
  9
$DIMLWD
 70
    -2
  9
$DIMLWE
 70
    -2
  9
$DIMTMOVE
 70
     0
  9
$LUNITS
 70
     2
  9
$LUPREC
 70
     2
  9
$SKETCHINC
 40
0.1
  9
$FILLETRAD
 40
0.000005
  9
$AUNITS
 70
     0
  9
$AUPREC
 70
     2
  9
$MENU
  1
.
  9
$ELEVATION
 40
0.0
  9
$PELEVATION
 40
0.0
  9
$THICKNESS
 40
0.0
  9
$LIMCHECK
 70
     0
  9
$CHAMFERA
 40
12.5
  9
$CHAMFERB
 40
12.5
  9
$CHAMFERC
 40
0.0
  9
$CHAMFERD
 40
0.0
  9
$SKPOLY
 70
     0
  9
$TDCREATE
 40
2451421.373453611
  9
$TDUCREATE
 40
2451421.331786944
  9
$TDUPDATE
 40
2454088.864921296
  9
$TDUUPDATE
 40
2454088.823254630
  9
$TDINDWG
 40
0.1139475579
  9
$TDUSRTIMER
 40
0.1139473264
  9
$USRTIMER
 70
     1
  9
$ANGBASE
 50
0.0
  9
$ANGDIR
 70
     0
  9
$PDMODE
 70
     0
  9
$PDSIZE
 40
0.0
  9
$PLINEWID
 40
0.0
  9
$SPLFRAME
 70
     0
  9
$SPLINETYPE
 70
     6
  9
$SPLINESEGS
 70
     8
  9
$HANDSEED
  5
1B62
  9
$SURFTAB1
 70
     6
  9
$SURFTAB2
 70
     6
  9
$SURFTYPE
 70
     6
  9
$SURFU
 70
     6
  9
$SURFV
 70
     6
  9
$UCSBASE
  2

  9
$UCSNAME
  2

  9
$UCSORG
 10
0.0
 20
0.0
 30
0.0
  9
$UCSXDIR
 10
1.0
 20
0.0
 30
0.0
  9
$UCSYDIR
 10
0.0
 20
1.0
 30
0.0
  9
$UCSORTHOREF
  2

  9
$UCSORTHOVIEW
 70
     0
  9
$UCSORGTOP
 10
0.0
 20
0.0
 30
0.0
  9
$UCSORGBOTTOM
 10
0.0
 20
0.0
 30
0.0
  9
$UCSORGLEFT
 10
0.0
 20
0.0
 30
0.0
  9
$UCSORGRIGHT
 10
0.0
 20
0.0
 30
0.0
  9
$UCSORGFRONT
 10
0.0
 20
0.0
 30
0.0
  9
$UCSORGBACK
 10
0.0
 20
0.0
 30
0.0
  9
$PUCSBASE
  2

  9
$PUCSNAME
  2

  9
$PUCSORG
 10
0.0
 20
0.0
 30
0.0
  9
$PUCSXDIR
 10
1.0
 20
0.0
 30
0.0
  9
$PUCSYDIR
 10
0.0
 20
1.0
 30
0.0
  9
$PUCSORTHOREF
  2

  9
$PUCSORTHOVIEW
 70
     0
  9
$PUCSORGTOP
 10
0.0
 20
0.0
 30
0.0
  9
$PUCSORGBOTTOM
 10
0.0
 20
0.0
 30
0.0
  9
$PUCSORGLEFT
 10
0.0
 20
0.0
 30
0.0
  9
$PUCSORGRIGHT
 10
0.0
 20
0.0
 30
0.0
  9
$PUCSORGFRONT
 10
0.0
 20
0.0
 30
0.0
  9
$PUCSORGBACK
 10
0.0
 20
0.0
 30
0.0
  9
$USERI1
 70
     0
  9
$USERI2
 70
     0
  9
$USERI3
 70
     0
  9
$USERI4
 70
     0
  9
$USERI5
 70
     0
  9
$USERR1
 40
0.0
  9
$USERR2
 40
0.0
  9
$USERR3
 40
0.0
  9
$USERR4
 40
0.0
  9
$USERR5
 40
0.0
  9
$WORLDVIEW
 70
     1
  9
$SHADEDGE
 70
     3
  9
$SHADEDIF
 70
    70
  9
$TILEMODE
 70
     1
  9
$MAXACTVP
 70
    48
  9
$PINSBASE
 10
0.0
 20
0.0
 30
0.0
  9
$PLIMCHECK
 70
     0
  9
$PEXTMIN
 10
0.0
 20
0.0
 30
0.0
  9
$PEXTMAX
 10
209.9
 20
296.9
 30
0.0
  9
$PLIMMIN
 10
0.0
 20
0.0
  9
$PLIMMAX
 10
209.9
 20
296.9
  9
$UNITMODE
 70
     0
  9
$VISRETAIN
 70
     1
  9
$PLINEGEN
 70
     1
  9
$PSLTSCALE
 70
     1
  9
$TREEDEPTH
 70
 -3020
  9
$CMLSTYLE
  2
STANDARD
  9
$CMLJUST
 70
     0
  9
$CMLSCALE
 40
1.0
  9
$PROXYGRAPHICS
 70
     1
  9
$MEASUREMENT
 70
     1
  9
$CELWEIGHT
370
    -1
  9
$ENDCAPS
280
     0
  9
$JOINSTYLE
280
     0
  9
$LWDISPLAY
290
     0
  9
$INSUNITS
 70
     0
  9
$HYPERLINKBASE
  1

  9
$STYLESHEET
  1

  9
$XEDIT
290
     1
  9
$CEPSNTYPE
380
     0
  9
$PSTYLEMODE
290
     1
  9
$FINGERPRINTGUID
  2
{D989195D-116C-4719-9B2E-DDB71E8C0DB9}
  9
$VERSIONGUID
  2
{AB47AB78-3704-4D6F-87BC-2CF8E4F4D798}
  9
$EXTNAMES
290
     1
  9
$PSVPSCALE
 40
0.0
  9
$OLESTARTUP
290
     0
  0
ENDSEC
  0
SECTION
  2
CLASSES
  0
CLASS
  1
ACDBDICTIONARYWDFLT
  2
AcDbDictionaryWithDefault
  3
ObjectDBX Classes
 90
        0
280
     0
281
     0
  0
CLASS
  1
TABLESTYLE
  2
AcDbTableStyle
  3
ObjectDBX Classes
 90
     2047
280
     0
281
     0
  0
CLASS
  1
AMGSETTINGSOBJ
  2
AmgSettingsObj
  3
"AcadM|Product Description: AutoCAD Mechanical 2000|Company: Autodesk"
 90
        0
280
     0
281
     0
  0
CLASS
  1
ACME_DOCUMENT
  2
AcMeDbDoc
  3
AcMeServices
 90
        0
280
     0
281
     0
  0
CLASS
  1
ACMESCOPE
  2
AcMeScope
  3
AcMeServices
 90
        0
280
     0
281
     0
  0
CLASS
  1
ACMECOMMANDHISTORY
  2
AcMeCommandHistory
  3
AcMeServices
 90
        0
280
     0
281
     0
  0
CLASS
  1
ACIMSYSVARMAN
  2
AcImSysVarManager
  3
AcMeServices
 90
        0
280
     0
281
     0
  0
CLASS
  1
ACIMINTSYSVAR
  2
AcImIntSysVar
  3
AcMeServices
 90
        0
280
     0
281
     0
  0
CLASS
  1
ACMEDRAWINGMAN
  2
AcMeDrawingMan
  3
AcMeServices
 90
        0
280
     0
281
     0
  0
CLASS
  1
ACMEVIEW
  2
AcMeView
  3
AcMeServices
 90
        0
280
     0
281
     0
  0
CLASS
  1
ACDBENTITYCACHE
  2
AcMeEntityCache
  3
AcMeServices
 90
        0
280
     0
281
     0
  0
CLASS
  1
GSMANAGER
  2
AcMeGSManager
  3
AcMeServices
 90
        0
280
     0
281
     0
  0
CLASS
  1
AMDTINTERNALREACTOR
  2
AmdtInternalReactor
  3
AcMeServices
 90
        0
280
     0
281
     0
  0
CLASS
  1
ACMESTATEMGR
  2
AcMeStateMgr
  3
AcMeServices
 90
        0
280
     0
281
     0
  0
CLASS
  1
ACGREFMASTER
  2
AcGrefMaster
  3
AcAttribServices
 90
        0
280
     0
281
     0
  0
CLASS
  1
AM_DRAWING_MGR
  2
AcDmDwgMgr
  3
AcMechDwgViewMgmt
 90
        0
280
     0
281
     0
  0
CLASS
  1
AM_DWG_DOCUMENT
  2
AcDmDwgDocument
  3
AcMechDwgViewMgmt
 90
        0
280
     0
281
     0
  0
CLASS
  1
AM_DWG_SHEET
  2
AcDmSheet
  3
AcMechDwgViewMgmt
 90
        0
280
     0
281
     0
  0
CLASS
  1
AM_VIEWDIMPARMAP
  2
AcDmViewDimParMap
  3
AcMechDwgViewMgmt
 90
        0
280
     0
281
     0
  0
CLASS
  1
ACIMREALSYSVAR
  2
AcImRealSysVar
  3
AcMeServices
 90
        0
280
     0
281
     0
  0
CLASS
  1
AM_DWGMGR_NAME
  2
AcDmDwgMgrName
  3
AcMechDwgViewMgmt
 90
        0
280
     0
281
     0
  0
CLASS
  1
ACME_DATABASE
  2
AcMeDbDatabase
  3
AcMeServices
 90
        0
280
     0
281
     0
  0
CLASS
  1
ACRFINSADJUSTERMGR
  2
AcRfInsAdjusterMgr
  3
AcMeServices
 90
        0
280
     0
281
     0
  0
CLASS
  1
ACGREFACADMASTER
  2
AcGrefacadMaster
  3
AcGrefServices
 90
        0
280
     0
281
     0
  0
CLASS
  1
AMDTMENUSTATEMGR
  2
AmdtMenuStateMgr
  3
McadcomServices
 90
        0
280
     0
281
     0
  0
CLASS
  1
AMDTMCOMMENUSTATE
  2
AmdtMcomMenuState
  3
McadcomServices
 90
        0
280
     0
281
     0
  0
CLASS
  1
AMIMASTER
  2
AmiMaster
  3
AmiServices
 90
        0
280
     0
281
     0
  0
CLASS
  1
MAPIAMMOUDLE
  2
MApiAmModule
  3
MApiAmServices
 90
        0
280
     0
281
     0
  0
CLASS
  1
ACIMSTRSYSVAR
  2
AcImStrSysVar
  3
AcMeServices
 90
        0
280
     0
281
     0
  0
CLASS
  1
AMDTADMENUSTATE
  2
AmdtAdMenuState
  3
DesignerServices
 90
        0
280
     0
281
     0
  0
CLASS
  1
ADAPPL
  2
AcAdAppl
  3
DesignerServices
 90
        0
280
     0
281
     0
  0
CLASS
  1
DEPMGR
  2
AcAdDepMgr
  3
DesignerServices
 90
        0
280
     0
281
     0
  0
CLASS
  1
PARAMMGR
  2
AcAdParamMgr
  3
DesignerServices
 90
        0
280
     0
281
     0
  0
CLASS
  1
PARAMSCOPE
  2
AcAdParamScope
  3
DesignerServices
 90
        0
280
     0
281
     0
  0
CLASS
  1
NAMEDAPPL
  2
AcAdNamedAppl
  3
DesignerServices
 90
        0
280
     0
281
     0
  0
CLASS
  1
AMDTDMMENUSTATE
  2
AmdtDmMenuState
  3
AcMechDwgViewMgmt
 90
        0
280
     0
281
     0
  0
CLASS
  1
AMDTAMMENUSTATE
  2
AmdtAmMenuState
  3
DesignerAssemblies
 90
        0
280
     0
281
     0
  0
CLASS
  1
ACAMPROJECT
  2
AcAmProject
  3
DesignerAssemblies
 90
        0
280
     0
281
     0
  0
CLASS
  1
ACAMGRCOMPDEF
  2
AcAmGrCompDef
  3
DesignerAssemblies
 90
        0
280
     0
281
     0
  0
CLASS
  1
ACCMCONTEXT
  2
AcCmContext
  3
DesignerAssemblies
 90
        0
280
     0
281
     0
  0
CLASS
  1
ACAMCOMPDEF
  2
AcAmCompDef
  3
DesignerAssemblies
 90
        0
280
     0
281
     0
  0
CLASS
  1
ACAMCOMPDEFMGR
  2
AcAmCompDefMgr
  3
DesignerAssemblies
 90
        0
280
     0
281
     0
  0
CLASS
  1
AMCONTEXTMGR
  2
AcAmContextMgr
  3
DesignerAssemblies
 90
        0
280
     0
281
     0
  0
CLASS
  1
ACAMCONTEXTMODELER
  2
AcAmContextModeler
  3
DesignerAssemblies
 90
        0
280
     0
281
     0
  0
CLASS
  1
ACMDATADICTIONARY
  2
AcmDataDictionary
  3
"AcmSymBB|Product Description: AutoCAD Mechanical 2004 DX|Company: Autodesk"
 90
        0
280
     0
281
     0
  0
CLASS
  1
CATALOGSTATE
  2
AcAmCatalogState
  3
DesignerAssemblies
 90
        0
280
     0
281
     0
  0
CLASS
  1
ACAMGRCOMPDEFSET
  2
AcAmGrCompDefSet
  3
DesignerAssemblies
 90
        0
280
     0
281
     0
  0
CLASS
  1
AMDTBROWSERDBTAB
  2
AmdtBrowserDbTab
  3
McadcomServices
 90
        0
280
     0
281
     0
  0
CLASS
  1
CBROWSERAPPOBJECT
  2
CBrowserAppObject
  3
McadcomServices
 90
        0
280
     0
281
     0
  0
CLASS
  1
DM_PLACEHOLDER
  2
AcDmSelsetPlaceholder
  3
AcMechDwgViewMgmt
 90
        0
280
     0
281
     0
  0
CLASS
  1
ACMSTANDARDDIN
  2
AcmStandardDIN
  3
"Amdt_StdImp|Product Description: AutoCAD Mechanical 2004 DX|Company: Autodesk"
 90
        0
280
     0
281
     0
  0
CLASS
  1
AMGOBJPROPCFG
  2
AmgObjPropCfg
  3
"AmgLay|Product Description: AutoCAD Mechanical 2000|Company: Autodesk"
 90
        1
280
     0
281
     0
  0
CLASS
  1
AMDTEDGESTANDARDDIN13715
  2
AmdtEdgeStdDIN13715
  3
"Amdt_StdImp|Product Description: AutoCAD Mechanical 2004 DX|Company: Autodesk"
 90
        0
280
     0
281
     0
  0
CLASS
  1
ACMSURFSTANDARDDIN
  2
AcmSurfTextStdDIN
  3
"Amdt_StdImp|Product Description: AutoCAD Mechanical 2004 DX|Company: Autodesk"
 90
        0
280
     0
281
     0
  0
CLASS
  1
ACMFCFSTANDARDDIN
  2
AcmFCFStdDIN
  3
"Amdt_StdImp|Product Description: AutoCAD Mechanical 2004 DX|Company: Autodesk"
 90
        0
280
     0
281
     0
  0
CLASS
  1
ACMWELDSTANDARDDIN
  2
AcmWeldingStdDIN
  3
"Amdt_StdImp|Product Description: AutoCAD Mechanical 2004 DX|Company: Autodesk"
 90
        0
280
     0
281
     0
  0
CLASS
  1
ACMIDSTANDARDDIN
  2
AcmIdStdDIN
  3
"Amdt_StdImp|Product Description: AutoCAD Mechanical 2004 DX|Company: Autodesk"
 90
        0
280
     0
281
     0
  0
CLASS
  1
ACMDATUMSTANDARDDIN
  2
AcmDatumStdDIN
  3
"Amdt_StdImp|Product Description: AutoCAD Mechanical 2004 DX|Company: Autodesk"
 90
        0
280
     0
281
     0
  0
CLASS
  1
ACMBOMSTANDARDDIN
  2
AcmBOMStdDIN
  3
"Amdt_StdImp|Product Description: AutoCAD Mechanical 2004 DX|Company: Autodesk"
 90
        0
280
     0
281
     0
  0
CLASS
  1
ACMDETAILSTANDARDDIN
  2
AmdtDetailSymStdDIN
  3
"Amdt_StdImp|Product Description: AutoCAD Mechanical 2004 DX|Company: Autodesk"
 90
        0
280
     0
281
     0
  0
CLASS
  1
ACMSECTIONSTANDARDDIN
  2
AmdtSectionSymStdDIN
  3
"Amdt_StdImp|Product Description: AutoCAD Mechanical 2004 DX|Company: Autodesk"
 90
        0
280
     0
281
     0
  0
CLASS
  1
ACMCENTERLINESTANDARDDIN
  2
AmdtCenterLineStdDIN
  3
"Amdt_StdImp|Product Description: AutoCAD Mechanical 2004 DX|Company: Autodesk"
 90
        0
280
     0
281
     0
  0
CLASS
  1
ACMTHREADLINESTANDARDDIN
  2
AmdtThreadLineStdDIN
  3
"Amdt_StdImp|Product Description: AutoCAD Mechanical 2004 DX|Company: Autodesk"
 90
        0
280
     0
281
     0
  0
CLASS
  1
ACMNOTESTANDARDDIN
  2
AmdtNoteStdDIN
  3
"Amdt_StdImp|Product Description: AutoCAD Mechanical 2004 DX|Company: Autodesk"
 90
        0
280
     0
281
     0
  0
CLASS
  1
AMDTNOTETEMPLATEDB
  2
AmdtNoteTemplateDB
  3
AMDT_STDIMP_MODULE_NAME
 90
        0
280
     0
281
     0
  0
CLASS
  1
ACAMGLAYSTD
  2
AcAmgLayStd
  3
"AcAmgLayStd|Product Description: AutoCAD Mechanical 2000|Company: Autodesk"
 90
        0
280
     0
281
     0
  0
CLASS
  1
ACAMGDIMSTD
  2
AcAmgDimStd
  3
"AcAmgDimStd|Product Description: AutoCAD Mechanical 2000|Company: Autodesk"
 90
        0
280
     0
281
     0
  0
CLASS
  1
ACAMGHOLECHARTSTDDIN
  2
AcAmgHoleChartStdDIN
  3
ACMSYMBB_MODULE_NAME
 90
        0
280
     0
281
     0
  0
CLASS
  1
ACAMGTITLESTD
  2
AcAmgTitleStd
  3
"TITLEAPP"
 90
        0
280
     0
281
     0
  0
CLASS
  1
ACAMGFILTERDAT
  2
AcAmgFilterDat
  3
"AcadM|Product Description: AutoCAD Mechanical 2000|Company: Autodesk"
 90
        0
280
     0
281
     0
  0
CLASS
  1
DICTIONARYVAR
  2
AcDbDictionaryVar
  3
ObjectDBX Classes
 90
        0
280
     0
281
     0
  0
CLASS
  1
SORTENTSTABLE
  2
AcDbSortentsTable
  3
ObjectDBX Classes
 90
        0
280
     0
281
     0
  0
CLASS
  1
ACMDATAENTRYBLOCK
  2
AcmDataEntryBlock
  3
"AcmSymBB|Product Description: AutoCAD Mechanical 2004 DX|Company: Autodesk"
 90
        0
280
     0
281
     0
  0
CLASS
  1
ACDBPLACEHOLDER
  2
AcDbPlaceHolder
  3
ObjectDBX Classes
 90
        0
280
     0
281
     0
  0
CLASS
  1
LAYOUT
  2
AcDbLayout
  3
ObjectDBX Classes
 90
        0
280
     0
281
     0
  0
ENDSEC
  0
SECTION
  2
TABLES
  0
TABLE
  2
VPORT
  5
15E6
330
0
100
AcDbSymbolTable
 70
    19
  0
VPORT
  5
1B5C
330
15E6
100
AcDbSymbolTableRecord
100
AcDbViewportTableRecord
  2
*Active
 70
     0
 10
0.0
 20
0.0
 11
1.0
 21
1.0
 12
-218.6485274737334
 22
282.2307608290933
 13
0.0
 23
0.0
 14
5.0
 24
5.0
 15
50.0
 25
50.0
 16
0.0
 26
0.0
 36
1.0
 17
0.0
 27
0.0
 37
0.0
 40
546.0329211470105
 41
1.494545454545454
 42
50.0
 43
0.0
 44
0.0
 50
0.0
 51
0.0
 71
     0
 72
  1000
 73
     1
 74
     1
 75
     0
 76
     0
 77
     0
 78
     0
281
     0
 65
     0
110
0.0
120
0.0
130
0.0
111
1.0
121
0.0
131
0.0
112
0.0
122
1.0
132
0.0
 79
     0
146
0.0
  0
ENDTAB
  0
TABLE
  2
LTYPE
  5
15E3
330
0
100
AcDbSymbolTable
 70
    20
  0
LTYPE
  5
15F0
330
15E3
100
AcDbSymbolTableRecord
100
AcDbLinetypeTableRecord
  2
BYBLOCK
 70
     0
  3

 72
    65
 73
     0
 40
0.0
  0
LTYPE
  5
15F1
330
15E3
100
AcDbSymbolTableRecord
100
AcDbLinetypeTableRecord
  2
BYLAYER
 70
     0
  3

 72
    65
 73
     0
 40
0.0
  0
LTYPE
  5
15F2
330
15E3
100
AcDbSymbolTableRecord
100
AcDbLinetypeTableRecord
  2
CONTINUOUS
 70
     0
  3
Solid line
 72
    65
 73
     0
 40
0.0
  0
LTYPE
  5
193E
330
15E3
100
AcDbSymbolTableRecord
100
AcDbLinetypeTableRecord
  2
GEN3A
 70
     0
  3
 - - - - -
 72
    65
 73
     2
 40
3.125
 49
2.25
 74
     0
 49
-0.875
 74
     0
  0
LTYPE
  5
19AB
330
15E3
100
AcDbSymbolTableRecord
100
AcDbLinetypeTableRecord
  2
HIDDEN
 70
     0
  3
Verdeckt
 72
    65
 73
     2
 40
9.525
 49
6.349999999999999
 74
     0
 49
-3.174999999999999
 74
     0
  0
LTYPE
  5
19AC
330
15E3
100
AcDbSymbolTableRecord
100
AcDbLinetypeTableRecord
  2
PHANTOM2
 70
     0
  3
Phantom (.5x) ___ _ _ ___ _ _ ___ _ _ ___ _ _
 72
    65
 73
     6
 40
31.75
 49
15.875
 74
     0
 49
-3.174999999999999
 74
     0
 49
3.174999999999999
 74
     0
 49
-3.174999999999999
 74
     0
 49
3.174999999999999
 74
     0
 49
-3.174999999999999
 74
     0
  0
LTYPE
  5
19AD
330
15E3
100
AcDbSymbolTableRecord
100
AcDbLinetypeTableRecord
  2
CENTER
 70
     0
  3
Mitte ____ _ ____ _ ____ _ ____ _ ____ _ ____
 72
    65
 73
     4
 40
50.8
 49
31.75
 74
     0
 49
-6.349999999999999
 74
     0
 49
6.349999999999999
 74
     0
 49
-6.349999999999999
 74
     0
  0
LTYPE
  5
19E1
330
15E3
100
AcDbSymbolTableRecord
100
AcDbLinetypeTableRecord
  2
AM_ISO02W050
 70
     0
  3
__ __ __ __ __ __ __ __ __ __ __ __ __ __ __
 72
    65
 73
     2
 40
7.5
 49
6.0
 74
     0
 49
-1.5
 74
     0
  0
LTYPE
  5
19E2
330
15E3
100
AcDbSymbolTableRecord
100
AcDbLinetypeTableRecord
  2
AM_ISO08W050
 70
     0
  3
____ . ____ . ____ . ____ . ____ . ____ . ____
 72
    65
 73
     4
 40
18.0
 49
12.0
 74
     0
 49
-1.5
 74
     0
 49
3.0
 74
     0
 49
-1.5
 74
     0
  0
LTYPE
  5
19E3
330
15E3
100
AcDbSymbolTableRecord
100
AcDbLinetypeTableRecord
  2
AM_ISO09W050
 70
     0
  3
_____ . . _____ . . _____ . . ____ .. ____
 72
    65
 73
     6
 40
22.5
 49
12.0
 74
     0
 49
-1.5
 74
     0
 49
3.0
 74
     0
 49
-1.5
 74
     0
 49
3.0
 74
     0
 49
-1.5
 74
     0
  0
LTYPE
  5
19E4
330
15E3
100
AcDbSymbolTableRecord
100
AcDbLinetypeTableRecord
  2
Amconstr
 70
     0
  3
_______________________
 72
    65
 73
     2
 40
9999.0
 49
9999.0
 74
     0
 49
0.0
 74
     0
  0
LTYPE
  5
19E5
330
15E3
100
AcDbSymbolTableRecord
100
AcDbLinetypeTableRecord
  2
AM_ISO08W050x2
 70
     0
  3
__ . __ . __ . __ . __ . __
 72
    65
 73
     4
 40
9.0
 49
6.0
 74
     0
 49
-0.75
 74
     0
 49
1.5
 74
     0
 49
-0.75
 74
     0
  0
LTYPE
  5
19E6
330
15E3
100
AcDbSymbolTableRecord
100
AcDbLinetypeTableRecord
  2
AM_ISO02W050x2
 70
     0
  3
 _ _ _ _ _ _ _ _ _ _ _ _
 72
    65
 73
     2
 40
3.75
 49
3.0
 74
     0
 49
-0.75
 74
     0
  0
LTYPE
  5
19E9
330
15E3
100
AcDbSymbolTableRecord
100
AcDbLinetypeTableRecord
  2
Amzigzag
 70
     0
  3
/\/-/\/-/\/-/\/-/\/-/\/
 72
    65
 73
     2
 40
11.0001
 49
0.0001
 74
     4
 75
   136
340
19E8
 46
0.04
 50
0.0
 44
0.0
 45
0.0
 49
-11.0
 74
     0
  0
LTYPE
  5
19EA
330
15E3
100
AcDbSymbolTableRecord
100
AcDbLinetypeTableRecord
  2
AM_DIN_F_W050
 70
     0
  3
__ __ __ __ __ __ __ __ __ __ __ __ __ __ __
 72
    65
 73
     2
 40
6.25
 49
4.75
 74
     0
 49
-1.5
 74
     0
  0
LTYPE
  5
19EB
330
15E3
100
AcDbSymbolTableRecord
100
AcDbLinetypeTableRecord
  2
AM_DIN_G_W050
 70
     0
  3
____ . ____ . ____ . ____ . ____ . ____ . ____
 72
    65
 73
     4
 40
13.75
 49
9.75
 74
     0
 49
-1.5
 74
     0
 49
1.0
 74
     0
 49
-1.5
 74
     0
  0
LTYPE
  5
19EC
330
15E3
100
AcDbSymbolTableRecord
100
AcDbLinetypeTableRecord
  2
AM_DIN_K_W050
 70
     0
  3
_____ . . _____ . . _____ . . ____ .. ____
 72
    65
 73
     6
 40
16.25
 49
9.75
 74
     0
 49
-1.5
 74
     0
 49
1.0
 74
     0
 49
-1.5
 74
     0
 49
1.0
 74
     0
 49
-1.5
 74
     0
  0
LTYPE
  5
19ED
330
15E3
100
AcDbSymbolTableRecord
100
AcDbLinetypeTableRecord
  2
AM_DIN_G_W050x2
 70
     0
  3
__ . __ . __ . __ . __ . __
 72
    65
 73
     4
 40
6.875
 49
4.75
 74
     0
 49
-0.875
 74
     0
 49
0.375
 74
     0
 49
-0.875
 74
     0
  0
LTYPE
  5
19EE
330
15E3
100
AcDbSymbolTableRecord
100
AcDbLinetypeTableRecord
  2
AM_DIN_F_W050x2
 70
     0
  3
 _ _ _ _ _ _ _ _ _ _ _ _
 72
    65
 73
     2
 40
3.125
 49
2.25
 74
     0
 49
-0.875
 74
     0
  0
LTYPE
  5
19FD
330
15E3
100
AcDbSymbolTableRecord
100
AcDbLinetypeTableRecord
  2
ACDINWELD
 70
     0
  3
_ _ _ _ _
 72
    65
 73
     2
 40
2.0
 49
2.0
 74
     0
 49
-1.0
 74
     0
  0
LTYPE
  5
19FE
330
15E3
100
AcDbSymbolTableRecord
100
AcDbLinetypeTableRecord
  2
ACDINTGB
 70
     0
  3
__ . . __ . .
 72
    65
 73
     6
 40
9.0
 49
4.0
 74
     0
 49
-1.0
 74
     0
 49
1.0
 74
     0
 49
-1.0
 74
     0
 49
1.0
 74
     0
 49
-1.0
 74
     0
  0
LTYPE
  5
19FF
330
15E3
100
AcDbSymbolTableRecord
100
AcDbLinetypeTableRecord
  2
ACDINTGL
 70
     0
  3
_ _ _ _ _
 72
    65
 73
     2
 40
3.0
 49
2.0
 74
     0
 49
-1.0
 74
     0
  0
ENDTAB
  0
TABLE
  2
LAYER
  5
15E0
330
0
100
AcDbSymbolTable
 70
    16
  0
LAYER
  5
15EC
330
15E0
100
AcDbSymbolTableRecord
100
AcDbLayerTableRecord
  2
0
 70
     0
 62
     7
  6
CONTINUOUS
370
    -3
390
196F
  0
LAYER
  5
1606
330
15E0
100
AcDbSymbolTableRecord
100
AcDbLayerTableRecord
  2
3A
 70
     0
 62
     6
  6
GEN3A
370
    -3
390
196F
  0
LAYER
  5
1607
330
15E0
100
AcDbSymbolTableRecord
100
AcDbLayerTableRecord
  2
4
 70
     0
 62
     3
  6
CONTINUOUS
370
    -3
390
196F
  0
LAYER
  5
1609
330
15E0
100
AcDbSymbolTableRecord
100
AcDbLayerTableRecord
  2
5
 70
     0
 62
     3
  6
CONTINUOUS
370
    -3
390
196F
  0
LAYER
  5
160A
330
15E0
100
AcDbSymbolTableRecord
100
AcDbLayerTableRecord
  2
6
 70
     0
 62
     2
  6
CONTINUOUS
370
    -3
390
196F
  0
LAYER
  5
160C
330
15E0
100
AcDbSymbolTableRecord
100
AcDbLayerTableRecord
  2
8
 70
     0
 62
     1
  6
CONTINUOUS
370
    -3
390
196F
  0
LAYER
  5
160D
330
15E0
100
AcDbSymbolTableRecord
100
AcDbLayerTableRecord
  2
PUNKTE
 70
     0
 62
     1
  6
CONTINUOUS
370
    -3
390
196F
  0
LAYER
  5
160E
330
15E0
100
AcDbSymbolTableRecord
100
AcDbLayerTableRecord
  2
SCHRAFFUR_RAND
 70
     0
 62
    36
  6
CONTINUOUS
370
    -3
390
196F
  0
LAYER
  5
1648
330
15E0
100
AcDbSymbolTableRecord
100
AcDbLayerTableRecord
  2
DEFPOINTS
 70
     0
 62
     7
  6
CONTINUOUS
290
     0
370
    -3
390
196F
  0
LAYER
  5
164C
330
15E0
100
AcDbSymbolTableRecord
100
AcDbLayerTableRecord
  2
RAHM2
 70
     0
 62
     1
  6
CONTINUOUS
370
    -3
390
196F
  0
LAYER
  5
164D
330
15E0
100
AcDbSymbolTableRecord
100
AcDbLayerTableRecord
  2
RAHM3
 70
     0
 62
     2
  6
CONTINUOUS
370
    -3
390
196F
  0
LAYER
  5
1A41
330
15E0
100
AcDbSymbolTableRecord
100
AcDbLayerTableRecord
  2
AM_5
 70
     0
 62
     3
  6
CONTINUOUS
370
    25
390
196F
1001
AcAecLayerStandard
1000

1000

  0
LAYER
  5
1A7B
330
15E0
100
AcDbSymbolTableRecord
100
AcDbLayerTableRecord
  2
BEMASS
 70
     0
 62
     3
  6
CONTINUOUS
370
    -3
390
196F
  0
LAYER
  5
1A7C
330
15E0
100
AcDbSymbolTableRecord
100
AcDbLayerTableRecord
  2
Kontur
 70
     0
 62
     7
  6
CONTINUOUS
370
    -3
390
196F
  0
LAYER
  5
1A7D
330
15E0
100
AcDbSymbolTableRecord
100
AcDbLayerTableRecord
  2
AM_7
 70
     0
 62
     4
  6
AM_DIN_G_W050
370
    25
390
196F
1001
AcAecLayerStandard
1000

1000

  0
LAYER
  5
1A7E
330
15E0
100
AcDbSymbolTableRecord
100
AcDbLayerTableRecord
  2
AM_8
 70
     0
 62
     1
  6
CONTINUOUS
370
    25
390
196F
1001
AcAecLayerStandard
1000

1000

  0
ENDTAB
  0
TABLE
  2
STYLE
  5
15E1
330
0
100
AcDbSymbolTable
 70
     4
  0
STYLE
  5
15ED
330
15E1
100
AcDbSymbolTableRecord
100
AcDbTextStyleTableRecord
  2
STANDARD
 70
     0
 40
0.0
 41
1.0
 50
0.0
 71
     0
 42
17.5
  3
ISOCP.SHX
  4

  0
STYLE
  5
19E8
330
15E1
100
AcDbSymbolTableRecord
100
AcDbTextStyleTableRecord
  2

 70
     1
 40
0.0
 41
1.0
 50
0.0
 71
     0
 42
17.5
  3
genltshp.shx
  4

  0
STYLE
  5
19EF
330
15E1
100
AcDbSymbolTableRecord
100
AcDbTextStyleTableRecord
  2
ACDINTS
 70
     0
 40
1.0
 41
1.0
 50
0.0
 71
     0
 42
17.5
  3
isocp.shx
  4

  0
STYLE
  5
19FC
330
15E1
100
AcDbSymbolTableRecord
100
AcDbTextStyleTableRecord
  2
ACDINGDT
 70
     0
 40
0.0
 41
1.0
 50
0.0
 71
     0
 42
17.5
  3
AMGDT
  4

  0
ENDTAB
  0
TABLE
  2
VIEW
  5
15E4
330
0
100
AcDbSymbolTable
 70
     6
  0
VIEW
  5
1683
330
15E4
100
AcDbSymbolTableRecord
100
AcDbViewTableRecord
  2
GEN1
 70
     0
 40
525.0
 10
402.9481129999999
 20
787.5
 41
805.8962259999999
 11
0.0
 21
0.0
 31
1.0
 12
0.0
 22
0.0
 32
0.0
 42
50.0
 43
0.0
 44
0.0
 50
0.0
 71
     0
281
     0
 72
     0
  0
VIEW
  5
1684
330
15E4
100
AcDbSymbolTableRecord
100
AcDbViewTableRecord
  2
GEN2
 70
     0
 40
525.0
 10
647.0518869999999
 20
787.5
 41
805.8962259999999
 11
0.0
 21
0.0
 31
1.0
 12
0.0
 22
0.0
 32
0.0
 42
50.0
 43
0.0
 44
0.0
 50
0.0
 71
     0
281
     0
 72
     0
  0
VIEW
  5
1685
330
15E4
100
AcDbSymbolTableRecord
100
AcDbViewTableRecord
  2
GEN3
 70
     0
 40
525.0
 10
402.9481129999999
 20
262.5
 41
805.8962259999999
 11
0.0
 21
0.0
 31
1.0
 12
0.0
 22
0.0
 32
0.0
 42
50.0
 43
0.0
 44
0.0
 50
0.0
 71
     0
281
     0
 72
     0
  0
VIEW
  5
1686
330
15E4
100
AcDbSymbolTableRecord
100
AcDbViewTableRecord
  2
GEN4
 70
     0
 40
525.0
 10
647.0518869999999
 20
262.5
 41
805.8962259999999
 11
0.0
 21
0.0
 31
1.0
 12
0.0
 22
0.0
 32
0.0
 42
50.0
 43
0.0
 44
0.0
 50
0.0
 71
     0
281
     0
 72
     0
  0
VIEW
  5
1687
330
15E4
100
AcDbSymbolTableRecord
100
AcDbViewTableRecord
  2
GEN5
 70
     0
 40
525.0
 10
525.0
 20
525.0
 41
805.8962259999999
 11
0.0
 21
0.0
 31
1.0
 12
0.0
 22
0.0
 32
0.0
 42
50.0
 43
0.0
 44
0.0
 50
0.0
 71
     0
281
     0
 72
     0
  0
VIEW
  5
1688
330
15E4
100
AcDbSymbolTableRecord
100
AcDbViewTableRecord
  2
GEN6
 70
     0
 40
1049.9895
 10
525.0
 20
525.0
 41
1611.776335
 11
0.0
 21
0.0
 31
1.0
 12
0.0
 22
0.0
 32
0.0
 42
50.0
 43
0.0
 44
0.0
 50
0.0
 71
     0
281
     0
 72
     0
  0
ENDTAB
  0
TABLE
  2
UCS
  5
15E5
330
0
100
AcDbSymbolTable
 70
     0
  0
ENDTAB
  0
TABLE
  2
APPID
  5
15E7
330
0
100
AcDbSymbolTable
 70
    41
  0
APPID
  5
15EE
330
15E7
100
AcDbSymbolTableRecord
100
AcDbRegAppTableRecord
  2
ACAD
 70
     0
  0
APPID
  5
1625
330
15E7
100
AcDbSymbolTableRecord
100
AcDbRegAppTableRecord
  2
GENIUS_GENOENT_13
 70
     0
  0
APPID
  5
1626
330
15E7
100
AcDbSymbolTableRecord
100
AcDbRegAppTableRecord
  2
GENIUS_GENCFG_13
 70
     0
1001
GENIUS_GENCFG0_13
1000
GEN@INFO_POS@XLATE
1001
GENIUS_GENCFG1_13
1000
GEN@INFO_POS
1001
GENIUS_GENCFG2_13
1000
GEN@LAYER@DEFS
1001
GENIUS_GENCFG3_13
1000
GEN@LAYER@ENTSORT
1001
GENIUS_GENCFG4_13
1000
GEN
1001
GENIUS_GEVCFG0_13
1000
GEV
1001
GENIUS_DUMCFG0_13
1000
DUM
  0
APPID
  5
1627
330
15E7
100
AcDbSymbolTableRecord
100
AcDbRegAppTableRecord
  2
GENIUS_GENCFG0_13
 70
     0
1001
GENIUS_GENCFG_13
1071
1023340674
1000
1627
1000
GEN@INFO_POS@XLATE
1070
     7
1000
GenCfgObject
1000
GenCfgShort
1000
GenCfgReal
1000
GenCfgBool
1000
GenCfgString
1000
GenCfgDim
1000
GenCfgAttrInf
1000
INFOPOINTS
1070
     0
1002
{
1000
GENINF14
1070
     0
1002
{
1000
2GENINF
1070
     4
1000
2
1002
{
1002
}
1000
5GENINF
1070
     4
1000
5
1002
{
1002
}
1000
7GENINF
1070
     4
1000
7
1002
{
1002
}
1000
9GENINF
1070
     4
1000
9
1002
{
1002
}
1000
11GENINF
1070
     4
1000
11
1002
{
1002
}
1000
14GENINF
1070
     4
1000
14
1002
{
1002
}
1002
}
1000
GENINF13
1070
     0
1002
{
1000
2GENINF
1070
     4
1000
2
1002
{
1002
}
1000
3GENINF
1070
     4
1000
3
1002
{
1002
}
1000
4GENINF
1070
     4
1000
4
1002
{
1002
}
1000
5GENINF
1070
     4
1000
5
1002
{
1002
}
1000
6GENINF
1070
     4
1000
6
1002
{
1002
}
1000
7GENINF
1070
     4
1000
7
1002
{
1002
}
1000
8GENINF
1070
     4
1000
8
1002
{
1002
}
1000
9GENINF
1070
     4
1000
9
1002
{
1002
}
1000
10GENINF
1070
     4
1000
10
1002
{
1002
}
1000
11GENINF
1070
     4
1000
11
1002
{
1002
}
1000
12GENINF
1070
     4
1000
12
1002
{
1002
}
1000
13GENINF
1070
     4
1000
13
1002
{
1002
}
1000
14GENINF
1070
     4
1000
14
1002
{
1002
}
1000
15GENINF
1070
     4
1000
15
1002
{
1002
}
1000
16GENINF
1070
     4
1000
16
1002
{
1002
}
1000
17GENINF
1070
     4
1000
17
1002
{
1002
}
1000
18GENINF
1070
     4
1000
18
1002
{
1002
}
1000
19GENINF
1070
     4
1000
19
1002
{
1002
}
1000
20GENINF
1070
     4
1000
20
1002
{
1002
}
1000
21GENINF
1070
     4
1000
21
1002
{
1002
}
1000
22GENINF
1070
     4
1000
22
1002
{
1002
}
1000
23GENINF
1070
     4
1000
23
1002
{
1002
}
1000
24GENINF
1070
     4
1000
24
1002
{
1002
}
1000
0GENINF
1070
     4
1000
0
1002
{
1002
}
1002
}
1000
GENINFO
1070
     0
1002
{
1000
3GENINF
1070
     4
1000
3
1002
{
1002
}
1000
4GENINF
1070
     4
1000
4
1002
{
1002
}
1000
5GENINF
1070
     4
1000
5
1002
{
1002
}
1000
6GENINF
1070
     4
1000
6
1002
{
1002
}
1000
7GENINF
1070
     4
1000
7
1002
{
1002
}
1000
8GENINF
1070
     4
1000
8
1002
{
1002
}
1000
9GENINF
1070
     4
1000
9
1002
{
1002
}
1000
10GENINF
1070
     4
1000
10
1002
{
1002
}
1000
11GENINF
1070
     4
1000
11
1002
{
1002
}
1000
12GENINF
1070
     4
1000
12
1002
{
1002
}
1000
13GENINF
1070
     4
1000
13
1002
{
1002
}
1000
14GENINF
1070
     4
1000
14
1002
{
1002
}
1000
15GENINF
1070
     4
1000
15
1002
{
1002
}
1000
16GENINF
1070
     4
1000
16
1002
{
1002
}
1000
17GENINF
1070
     4
1000
17
1002
{
1002
}
1000
18GENINF
1070
     4
1000
18
1002
{
1002
}
1000
19GENINF
1070
     4
1000
19
1002
{
1002
}
1000
20GENINF
1070
     4
1000
20
1002
{
1002
}
1000
21GENINF
1070
     4
1000
21
1002
{
1002
}
1000
22GENINF
1070
     4
1000
22
1002
{
1002
}
1002
}
1000
DININFO
1070
     0
1002
{
1000
ST-NAME1
1070
     4
1000
5
1002
{
1002
}
1000
ST-NAME2
1070
     4
1000
6
1002
{
1002
}
1000
ST-NORM1
1070
     4
1000
7
1002
{
1002
}
1000
ST-NORM2
1070
     4
1000
8
1002
{
1002
}
1000
ST-MAT1
1070
     4
1000
9
1002
{
1002
}
1000
ST-MAT2
1070
     4
1000
10
1002
{
1002
}
1002
}
1002
}
1000
POS_NUMBERS
1070
     0
1002
{
1000
GENPOS14
1070
     0
1002
{
1000
1GENPOS
1070
     4
1000
1
1002
{
1002
}
1000
2GENPOS
1070
     4
1000
2
1002
{
1002
}
1000
5GENPOS
1070
     4
1000
5
1002
{
1002
}
1000
7GENPOS
1070
     4
1000
7
1002
{
1002
}
1000
9GENPOS
1070
     4
1000
9
1002
{
1002
}
1000
11GENPOS
1070
     4
1000
11
1002
{
1002
}
1000
14GENPOS
1070
     4
1000
14
1002
{
1002
}
1002
}
1000
GENPOS13
1070
     0
1002
{
1000
1GENPOS
1070
     4
1000
1
1002
{
1002
}
1000
2GENPOS
1070
     4
1000
2
1002
{
1002
}
1000
3GENPOS
1070
     4
1000
3
1002
{
1002
}
1000
4GENPOS
1070
     4
1000
4
1002
{
1002
}
1000
5GENPOS
1070
     4
1000
5
1002
{
1002
}
1000
6GENPOS
1070
     4
1000
6
1002
{
1002
}
1000
7GENPOS
1070
     4
1000
7
1002
{
1002
}
1000
8GENPOS
1070
     4
1000
8
1002
{
1002
}
1000
9GENPOS
1070
     4
1000
9
1002
{
1002
}
1000
10GENPOS
1070
     4
1000
10
1002
{
1002
}
1000
11GENPOS
1070
     4
1000
11
1002
{
1002
}
1000
12GENPOS
1070
     4
1000
12
1002
{
1002
}
1000
13GENPOS
1070
     4
1000
13
1002
{
1002
}
1000
14GENPOS
1070
     4
1000
14
1002
{
1002
}
1000
15GENPOS
1070
     4
1000
15
1002
{
1002
}
1000
16GENPOS
1070
     4
1000
16
1002
{
1002
}
1000
17GENPOS
1070
     4
1000
17
1002
{
1002
}
1000
18GENPOS
1070
     4
1000
18
1002
{
1002
}
1000
19GENPOS
1070
     4
1000
19
1002
{
1002
}
1000
20GENPOS
1070
     4
1000
20
1002
{
1002
}
1000
21GENPOS
1070
     4
1000
21
1002
{
1002
}
1000
22GENPOS
1070
     4
1000
22
1002
{
1002
}
1000
23GENPOS
1070
     4
1000
23
1002
{
1002
}
1000
24GENPOS
1070
     4
1000
24
1002
{
1002
}
1000
0GENPOS
1070
     4
1000
0
1002
{
1002
}
1002
}
1000
GENPOS
1070
     0
1002
{
1000
1GENPOS
1070
     4
1000
1
1002
{
1002
}
1000
2GENPOS
1070
     4
1000
2
1002
{
1002
}
1000
3GENPOS
1070
     4
1000
3
1002
{
1002
}
1000
4GENPOS
1070
     4
1000
4
1002
{
1002
}
1000
5GENPOS
1070
     4
1000
5
1002
{
1002
}
1000
6GENPOS
1070
     4
1000
6
1002
{
1002
}
1000
7GENPOS
1070
     4
1000
7
1002
{
1002
}
1000
8GENPOS
1070
     4
1000
8
1002
{
1002
}
1000
9GENPOS
1070
     4
1000
9
1002
{
1002
}
1000
10GENPOS
1070
     4
1000
10
1002
{
1002
}
1000
11GENPOS
1070
     4
1000
11
1002
{
1002
}
1000
12GENPOS
1070
     4
1000
12
1002
{
1002
}
1000
13GENPOS
1070
     4
1000
13
1002
{
1002
}
1000
14GENPOS
1070
     4
1000
14
1002
{
1002
}
1000
15GENPOS
1070
     4
1000
15
1002
{
1002
}
1000
16GENPOS
1070
     4
1000
16
1002
{
1002
}
1000
17GENPOS
1070
     4
1000
17
1002
{
1002
}
1000
18GENPOS
1070
     4
1000
18
1002
{
1002
}
1000
19GENPOS
1070
     4
1000
19
1002
{
1002
}
1000
20GENPOS
1070
     4
1000
20
1002
{
1002
}
1000
21GENPOS
1070
     4
1000
21
1002
{
1002
}
1000
22GENPOS
1070
     4
1000
22
1002
{
1002
}
1000
23GENPOS
1070
     4
1000
23
1002
{
1002
}
1002
}
1000
DIN985
1070
     0
1002
{
1000
POSITION
1070
     4
1000
1
1002
{
1002
}
1000
MENGE
1070
     4
1000
2
1002
{
1002
}
1000
BLATT
1070
     4
1000
3
1002
{
1002
}
1000
BENENN
1070
     4
1000
5
1002
{
1002
}
1000
BENENN2
1070
     4
1000
6
1002
{
1002
}
1000
NORM
1070
     4
1000
7
1002
{
1002
}
1000
NORM2
1070
     4
1000
8
1002
{
1002
}
1000
WERKSTOFF
1070
     4
1000
9
1002
{
1002
}
1000
WERKSTOFF2
1070
     4
1000
10
1002
{
1002
}
1002
}
1000
DIN986
1070
     0
1002
{
1000
POSITION
1070
     4
1000
1
1002
{
1002
}
1000
MENGE
1070
     4
1000
2
1002
{
1002
}
1000
BLATT
1070
     4
1000
3
1002
{
1002
}
1000
BENENN
1070
     4
1000
5
1002
{
1002
}
1000
BENENN2
1070
     4
1000
6
1002
{
1002
}
1000
NORM
1070
     4
1000
7
1002
{
1002
}
1000
NORM2
1070
     4
1000
8
1002
{
1002
}
1000
WERKSTOFF
1070
     4
1000
9
1002
{
1002
}
1000
WERKSTOFF2
1070
     4
1000
10
1002
{
1002
}
1002
}
1000
DIN987
1070
     0
1002
{
1000
POSITION
1070
     4
1000
1
1002
{
1002
}
1000
MENGE
1070
     4
1000
2
1002
{
1002
}
1000
BLATT
1070
     4
1000
3
1002
{
1002
}
1000
BENENN
1070
     4
1000
5
1002
{
1002
}
1000
BENENN2
1070
     4
1000
6
1002
{
1002
}
1000
NORM
1070
     4
1000
7
1002
{
1002
}
1000
NORM2
1070
     4
1000
8
1002
{
1002
}
1000
WERKSTOFF
1070
     4
1000
9
1002
{
1002
}
1000
WERKSTOFF2
1070
     4
1000
10
1002
{
1002
}
1002
}
1002
}
  0
APPID
  5
1628
330
15E7
100
AcDbSymbolTableRecord
100
AcDbRegAppTableRecord
  2
GENIUS_GENCFG1_13
 70
     0
1001
GENIUS_GENCFG_13
1071
1023340674
1000
1628
1000
GEN@INFO_POS
1070
     7
1000
GenCfgObject
1000
GenCfgShort
1000
GenCfgReal
1000
GenCfgBool
1000
GenCfgString
1000
GenCfgDim
1000
GenCfgAttrInf
1000
DescrText
1070
     4
1000
5, ,6, ,7, ,8
1002
{
1002
}
1000
DescrText2
1070
     4
1000
26
1002
{
1002
}
1000
VisibleAttr1
1070
     4
1000
1
1002
{
1002
}
1000
VisibleAttr2
1070
     4
1000
26
1002
{
1002
}
1000
UpdateBlock
1070
     3
1070
     1
1002
{
1002
}
1000
Attrib
1070
     0
1002
{
1000
0
1070
     6
1002
{
1000
Prompt
1070
     4
1000
(genmsg gendwg 103)
1002
{
1002
}
1000
Value
1070
     4
1000

1002
{
1002
}
1000
EditFlag
1070
     1
1070
     0
1002
{
1002
}
1000
PosInDDATTE
1070
     1
1070
    27
1002
{
1002
}
1000
FieldLen
1070
     1
1070
    -1
1002
{
1002
}
1002
}
1000
1
1070
     6
1002
{
1000
Prompt
1070
     4
1000
(genmsg gendwg 31)
1002
{
1002
}
1000
Value
1070
     4
1000
1
1002
{
1002
}
1000
EditFlag
1070
     1
1070
     1
1002
{
1002
}
1000
PosInDDATTE
1070
     1
1070
     1
1002
{
1002
}
1000
FieldLen
1070
     1
1070
    -1
1002
{
1002
}
1002
}
1000
2
1070
     6
1002
{
1000
Prompt
1070
     4
1000
(genmsg gendwg 32)
1002
{
1002
}
1000
Value
1070
     4
1000
1
1002
{
1002
}
1000
EditFlag
1070
     1
1070
     1
1002
{
1002
}
1000
PosInDDATTE
1070
     1
1070
     2
1002
{
1002
}
1000
FieldLen
1070
     1
1070
    -1
1002
{
1002
}
1002
}
1000
3
1070
     6
1002
{
1000
Prompt
1070
     4
1000
(genmsg gendwg 33)
1002
{
1002
}
1000
Value
1070
     4
1000

1002
{
1002
}
1000
EditFlag
1070
     1
1070
     1
1002
{
1002
}
1000
PosInDDATTE
1070
     1
1070
     3
1002
{
1002
}
1000
FieldLen
1070
     1
1070
    -1
1002
{
1002
}
1002
}
1000
4
1070
     6
1002
{
1000
Prompt
1070
     4
1000
(genmsg gendwg 34)
1002
{
1002
}
1000
Value
1070
     4
1000

1002
{
1002
}
1000
EditFlag
1070
     1
1070
     1
1002
{
1002
}
1000
PosInDDATTE
1070
     1
1070
     4
1002
{
1002
}
1000
FieldLen
1070
     1
1070
    -1
1002
{
1002
}
1002
}
1000
5
1070
     6
1002
{
1000
Prompt
1070
     4
1000
(genmsg gendwg 35)
1002
{
1002
}
1000
Value
1070
     4
1000

1002
{
1002
}
1000
EditFlag
1070
     1
1070
     1
1002
{
1002
}
1000
PosInDDATTE
1070
     1
1070
     5
1002
{
1002
}
1000
FieldLen
1070
     1
1070
    -1
1002
{
1002
}
1002
}
1000
6
1070
     6
1002
{
1000
Prompt
1070
     4
1000
(genmsg gendwg 36)
1002
{
1002
}
1000
Value
1070
     4
1000

1002
{
1002
}
1000
EditFlag
1070
     1
1070
     1
1002
{
1002
}
1000
PosInDDATTE
1070
     1
1070
     6
1002
{
1002
}
1000
FieldLen
1070
     1
1070
    -1
1002
{
1002
}
1002
}
1000
7
1070
     6
1002
{
1000
Prompt
1070
     4
1000
(genmsg gendwg 37)
1002
{
1002
}
1000
Value
1070
     4
1000

1002
{
1002
}
1000
EditFlag
1070
     1
1070
     1
1002
{
1002
}
1000
PosInDDATTE
1070
     1
1070
     7
1002
{
1002
}
1000
FieldLen
1070
     1
1070
    -1
1002
{
1002
}
1002
}
1000
8
1070
     6
1002
{
1000
Prompt
1070
     4
1000
(genmsg gendwg 38)
1002
{
1002
}
1000
Value
1070
     4
1000

1002
{
1002
}
1000
EditFlag
1070
     1
1070
     1
1002
{
1002
}
1000
PosInDDATTE
1070
     1
1070
     8
1002
{
1002
}
1000
FieldLen
1070
     1
1070
    -1
1002
{
1002
}
1002
}
1000
9
1070
     6
1002
{
1000
Prompt
1070
     4
1000
(genmsg gendwg 39)
1002
{
1002
}
1000
Value
1070
     4
1000

1002
{
1002
}
1000
EditFlag
1070
     1
1070
     1
1002
{
1002
}
1000
PosInDDATTE
1070
     1
1070
     9
1002
{
1002
}
1000
FieldLen
1070
     1
1070
    -1
1002
{
1002
}
1002
}
1000
10
1070
     6
1002
{
1000
Prompt
1070
     4
1000
(genmsg gendwg 40)
1002
{
1002
}
1000
Value
1070
     4
1000

1002
{
1002
}
1000
EditFlag
1070
     1
1070
     1
1002
{
1002
}
1000
PosInDDATTE
1070
     1
1070
    10
1002
{
1002
}
1000
FieldLen
1070
     1
1070
    -1
1002
{
1002
}
1002
}
1000
11
1070
     6
1002
{
1000
Prompt
1070
     4
1000
(genmsg gendwg 41)
1002
{
1002
}
1000
Value
1070
     4
1000

1002
{
1002
}
1000
EditFlag
1070
     1
1070
     1
1002
{
1002
}
1000
PosInDDATTE
1070
     1
1070
    11
1002
{
1002
}
1000
FieldLen
1070
     1
1070
    -1
1002
{
1002
}
1002
}
1000
12
1070
     6
1002
{
1000
Prompt
1070
     4
1000
(genmsg gendwg 42)
1002
{
1002
}
1000
Value
1070
     4
1000

1002
{
1002
}
1000
EditFlag
1070
     1
1070
     1
1002
{
1002
}
1000
PosInDDATTE
1070
     1
1070
    12
1002
{
1002
}
1000
FieldLen
1070
     1
1070
    -1
1002
{
1002
}
1002
}
1000
13
1070
     6
1002
{
1000
Prompt
1070
     4
1000
(genmsg gendwg 43)
1002
{
1002
}
1000
Value
1070
     4
1000

1002
{
1002
}
1000
EditFlag
1070
     1
1070
     1
1002
{
1002
}
1000
PosInDDATTE
1070
     1
1070
    13
1002
{
1002
}
1000
FieldLen
1070
     1
1070
    -1
1002
{
1002
}
1002
}
1000
14
1070
     6
1002
{
1000
Prompt
1070
     4
1000
(genmsg gendwg 44)
1002
{
1002
}
1000
Value
1070
     4
1000

1002
{
1002
}
1000
EditFlag
1070
     1
1070
     1
1002
{
1002
}
1000
PosInDDATTE
1070
     1
1070
    14
1002
{
1002
}
1000
FieldLen
1070
     1
1070
    -1
1002
{
1002
}
1002
}
1000
15
1070
     6
1002
{
1000
Prompt
1070
     4
1000
(genmsg gendwg 45)
1002
{
1002
}
1000
Value
1070
     4
1000

1002
{
1002
}
1000
EditFlag
1070
     1
1070
     1
1002
{
1002
}
1000
PosInDDATTE
1070
     1
1070
    15
1002
{
1002
}
1000
FieldLen
1070
     1
1070
    -1
1002
{
1002
}
1002
}
1000
16
1070
     6
1002
{
1000
Prompt
1070
     4
1000
(genmsg gendwg 46)
1002
{
1002
}
1000
Value
1070
     4
1000

1002
{
1002
}
1000
EditFlag
1070
     1
1070
     1
1002
{
1002
}
1000
PosInDDATTE
1070
     1
1070
    16
1002
{
1002
}
1000
FieldLen
1070
     1
1070
    -1
1002
{
1002
}
1002
}
1000
17
1070
     6
1002
{
1000
Prompt
1070
     4
1000
(genmsg gendwg 47)
1002
{
1002
}
1000
Value
1070
     4
1000

1002
{
1002
}
1000
EditFlag
1070
     1
1070
     1
1002
{
1002
}
1000
PosInDDATTE
1070
     1
1070
    17
1002
{
1002
}
1000
FieldLen
1070
     1
1070
    -1
1002
{
1002
}
1002
}
1000
18
1070
     6
1002
{
1000
Prompt
1070
     4
1000
(genmsg gendwg 48)
1002
{
1002
}
1000
Value
1070
     4
1000

1002
{
1002
}
1000
EditFlag
1070
     1
1070
     1
1002
{
1002
}
1000
PosInDDATTE
1070
     1
1070
    18
1002
{
1002
}
1000
FieldLen
1070
     1
1070
    -1
1002
{
1002
}
1002
}
1000
19
1070
     6
1002
{
1000
Prompt
1070
     4
1000
(genmsg gendwg 99)
1002
{
1002
}
1000
Value
1070
     4
1000

1002
{
1002
}
1000
EditFlag
1070
     1
1070
     1
1002
{
1002
}
1000
PosInDDATTE
1070
     1
1070
    19
1002
{
1002
}
1000
FieldLen
1070
     1
1070
    -1
1002
{
1002
}
1002
}
1000
20
1070
     6
1002
{
1000
Prompt
1070
     4
1000
(genmsg gendwg 100)
1002
{
1002
}
1000
Value
1070
     4
1000

1002
{
1002
}
1000
EditFlag
1070
     1
1070
     1
1002
{
1002
}
1000
PosInDDATTE
1070
     1
1070
    20
1002
{
1002
}
1000
FieldLen
1070
     1
1070
    -1
1002
{
1002
}
1002
}
1000
21
1070
     6
1002
{
1000
Prompt
1070
     4
1000
(genmsg gendwg 101)
1002
{
1002
}
1000
Value
1070
     4
1000

1002
{
1002
}
1000
EditFlag
1070
     1
1070
     1
1002
{
1002
}
1000
PosInDDATTE
1070
     1
1070
    21
1002
{
1002
}
1000
FieldLen
1070
     1
1070
    -1
1002
{
1002
}
1002
}
1000
22
1070
     6
1002
{
1000
Prompt
1070
     4
1000
(genmsg gendwg 102)
1002
{
1002
}
1000
Value
1070
     4
1000

1002
{
1002
}
1000
EditFlag
1070
     1
1070
     1
1002
{
1002
}
1000
PosInDDATTE
1070
     1
1070
    22
1002
{
1002
}
1000
FieldLen
1070
     1
1070
    -1
1002
{
1002
}
1002
}
1000
23
1070
     6
1002
{
1000
Prompt
1070
     4
1000
(genmsg gendwg 30)
1002
{
1002
}
1000
Value
1070
     4
1000

1002
{
1002
}
1000
EditFlag
1070
     1
1070
     1
1002
{
1002
}
1000
PosInDDATTE
1070
     1
1070
    23
1002
{
1002
}
1000
FieldLen
1070
     1
1070
    -1
1002
{
1002
}
1002
}
1000
24
1070
     6
1002
{
1000
Prompt
1070
     4
1000
(genmsg gendwg 104)
1002
{
1002
}
1000
Value
1070
     4
1000

1002
{
1002
}
1000
EditFlag
1070
     1
1070
     1
1002
{
1002
}
1000
PosInDDATTE
1070
     1
1070
    24
1002
{
1002
}
1000
FieldLen
1070
     1
1070
    -1
1002
{
1002
}
1002
}
1000
25
1070
     6
1002
{
1000
Prompt
1070
     4
1000
(genmsg gendwg 105)
1002
{
1002
}
1000
Value
1070
     4
1000

1002
{
1002
}
1000
EditFlag
1070
     1
1070
     1
1002
{
1002
}
1000
PosInDDATTE
1070
     1
1070
    25
1002
{
1002
}
1000
FieldLen
1070
     1
1070
    -1
1002
{
1002
}
1002
}
1000
26
1070
     6
1002
{
1000
Prompt
1070
     4
1000
(genmsg gendwg 106)
1002
{
1002
}
1000
Value
1070
     4
1000

1002
{
1002
}
1000
EditFlag
1070
     1
1070
     1
1002
{
1002
}
1000
PosInDDATTE
1070
     1
1070
    26
1002
{
1002
}
1000
FieldLen
1070
     1
1070
    -1
1002
{
1002
}
1002
}
1000
27
1070
     6
1002
{
1000
Prompt
1070
     4
1000
(genmsg gendwg 109)
1002
{
1002
}
1000
Value
1070
     4
1000

1002
{
1002
}
1000
EditFlag
1070
     1
1070
     2
1002
{
1002
}
1000
PosInDDATTE
1070
     1
1070
    27
1002
{
1002
}
1000
FieldLen
1070
     1
1070
    -1
1002
{
1002
}
1002
}
1002
}
1000
Xlate
1070
     0
1002
{
1000
>
1002
}
  0
APPID
  5
1629
330
15E7
100
AcDbSymbolTableRecord
100
AcDbRegAppTableRecord
  2
GENIUS_GENCFG2_13
 70
     0
1001
GENIUS_GENCFG_13
1071
1023340674
1000
1629
1000
GEN@LAYER@DEFS
1070
     9
1000
GenCfgObject
1000
GenCfgShort
1000
GenCfgReal
1000
GenCfgBool
1000
GenCfgString
1000
GenCfgDim
1000
GenCfgAttrInf
1000
GenCfgLaySection
1000
GenCfgLayer
1000
Basic
1070
     0
1002
{
1000
0
1070
     8
1000
0
1002
{
1000
Color
1070
     1
1070
     7
1002
{
1002
}
1000
LType
1070
     4
1000
CONTINUOUS
1002
{
1002
}
1000
Base
1070
     3
1070
     0
1002
{
1002
}
1002
}
1000
1
1070
     8
1000
1
1002
{
1000
Color
1070
     1
1070
    14
1002
{
1002
}
1000
LType
1070
     4
1000
CONTINUOUS
1002
{
1002
}
1000
Base
1070
     3
1070
     0
1002
{
1002
}
1002
}
1000
2
1070
     8
1000
2
1002
{
1000
Color
1070
     1
1070
     5
1002
{
1002
}
1000
LType
1070
     4
1000
CONTINUOUS
1002
{
1002
}
1000
Base
1070
     3
1070
     0
1002
{
1002
}
1002
}
1000
3
1070
     8
1000
3
1002
{
1000
Color
1070
     1
1070
     6
1002
{
1002
}
1000
LType
1070
     4
1000
GEN3
1002
{
1002
}
1000
Base
1070
     3
1070
     0
1002
{
1002
}
1002
}
1000
4
1070
     8
1000
4
1002
{
1000
Color
1070
     1
1070
     3
1002
{
1002
}
1000
LType
1070
     4
1000
CONTINUOUS
1002
{
1002
}
1000
Base
1070
     3
1070
     0
1002
{
1002
}
1002
}
1000
5
1070
     8
1000
5
1002
{
1000
Color
1070
     1
1070
     3
1002
{
1002
}
1000
LType
1070
     4
1000
CONTINUOUS
1002
{
1002
}
1000
Base
1070
     3
1070
     0
1002
{
1002
}
1002
}
1000
6
1070
     8
1000
6
1002
{
1000
Color
1070
     1
1070
     2
1002
{
1002
}
1000
LType
1070
     4
1000
CONTINUOUS
1002
{
1002
}
1000
Base
1070
     3
1070
     0
1002
{
1002
}
1002
}
1000
7
1070
     8
1000
7
1002
{
1000
Color
1070
     1
1070
     4
1002
{
1002
}
1000
LType
1070
     4
1000
GEN7
1002
{
1002
}
1000
Base
1070
     3
1070
     0
1002
{
1002
}
1002
}
1000
8
1070
     8
1000
8
1002
{
1000
Color
1070
     1
1070
     1
1002
{
1002
}
1000
LType
1070
     4
1000
CONTINUOUS
1002
{
1002
}
1000
Base
1070
     3
1070
     0
1002
{
1002
}
1002
}
1000
3A
1070
     8
1000
3A
1002
{
1000
Color
1070
     1
1070
     6
1002
{
1002
}
1000
LType
1070
     4
1000
GEN3A
1002
{
1002
}
1000
Base
1070
     3
1070
     0
1002
{
1002
}
1002
}
1000
7A
1070
     8
1000
7A
1002
{
1000
Color
1070
     1
1070
     4
1002
{
1002
}
1000
LType
1070
     4
1000
GEN7A
1002
{
1002
}
1000
Base
1070
     3
1070
     0
1002
{
1002
}
1002
}
1000
2A
1070
     8
1000
2A
1002
{
1000
Color
1070
     1
1070
     7
1002
{
1002
}
1000
LType
1070
     4
1000
GEN7
1002
{
1002
}
1000
Base
1070
     3
1070
     0
1002
{
1002
}
1002
}
1000
4A
1070
     8
1000
4A
1002
{
1000
Color
1070
     1
1070
     3
1002
{
1002
}
1000
LType
1070
     4
1000
GEN4A
1002
{
1002
}
1000
Base
1070
     3
1070
     0
1002
{
1002
}
1002
}
1000
9
1070
     8
1000
9
1002
{
1000
Color
1070
     1
1070
   253
1002
{
1002
}
1000
LType
1070
     4
1000
CONTINUOUS
1002
{
1002
}
1000
Base
1070
     3
1070
     0
1002
{
1002
}
1002
}
1000
IP
1070
     8
1000
IP
1002
{
1000
Color
1070
     1
1070
     7
1002
{
1002
}
1000
LType
1070
     4
1000
CONTINUOUS
1002
{
1002
}
1000
Base
1070
     3
1070
     0
1002
{
1002
}
1002
}
1002
}
1000
Standard
1070
     0
1002
{
1000
0N
1070
     8
1000
0N
1002
{
1000
Color
1070
     1
1070
     7
1002
{
1002
}
1000
LType
1070
     4
1000
CONTINUOUS
1002
{
1002
}
1000
Base
1070
     3
1070
     0
1002
{
1002
}
1002
}
1000
1N
1070
     8
1000
1N
1002
{
1000
Color
1070
     1
1070
    14
1002
{
1002
}
1000
LType
1070
     4
1000
CONTINUOUS
1002
{
1002
}
1000
Base
1070
     3
1070
     0
1002
{
1002
}
1002
}
1000
2N
1070
     8
1000
2N
1002
{
1000
Color
1070
     1
1070
     5
1002
{
1002
}
1000
LType
1070
     4
1000
CONTINUOUS
1002
{
1002
}
1000
Base
1070
     3
1070
     0
1002
{
1002
}
1002
}
1000
3N
1070
     8
1000
3N
1002
{
1000
Color
1070
     1
1070
     6
1002
{
1002
}
1000
LType
1070
     4
1000
GEN3
1002
{
1002
}
1000
Base
1070
     3
1070
     0
1002
{
1002
}
1002
}
1000
4N
1070
     8
1000
4N
1002
{
1000
Color
1070
     1
1070
     3
1002
{
1002
}
1000
LType
1070
     4
1000
CONTINUOUS
1002
{
1002
}
1000
Base
1070
     3
1070
     0
1002
{
1002
}
1002
}
1000
5N
1070
     8
1000
5N
1002
{
1000
Color
1070
     1
1070
     3
1002
{
1002
}
1000
LType
1070
     4
1000
CONTINUOUS
1002
{
1002
}
1000
Base
1070
     3
1070
     0
1002
{
1002
}
1002
}
1000
6N
1070
     8
1000
6N
1002
{
1000
Color
1070
     1
1070
     2
1002
{
1002
}
1000
LType
1070
     4
1000
CONTINUOUS
1002
{
1002
}
1000
Base
1070
     3
1070
     0
1002
{
1002
}
1002
}
1000
7N
1070
     8
1000
7N
1002
{
1000
Color
1070
     1
1070
     4
1002
{
1002
}
1000
LType
1070
     4
1000
GEN7
1002
{
1002
}
1000
Base
1070
     3
1070
     0
1002
{
1002
}
1002
}
1000
8N
1070
     8
1000
8N
1002
{
1000
Color
1070
     1
1070
     1
1002
{
1002
}
1000
LType
1070
     4
1000
CONTINUOUS
1002
{
1002
}
1000
Base
1070
     3
1070
     0
1002
{
1002
}
1002
}
1000
3AN
1070
     8
1000
3AN
1002
{
1000
Color
1070
     1
1070
     6
1002
{
1002
}
1000
LType
1070
     4
1000
GEN3A
1002
{
1002
}
1000
Base
1070
     3
1070
     0
1002
{
1002
}
1002
}
1000
7AN
1070
     8
1000
7AN
1002
{
1000
Color
1070
     1
1070
     4
1002
{
1002
}
1000
LType
1070
     4
1000
GEN7A
1002
{
1002
}
1000
Base
1070
     3
1070
     0
1002
{
1002
}
1002
}
1000
2AN
1070
     8
1000
2AN
1002
{
1000
Color
1070
     1
1070
     7
1002
{
1002
}
1000
LType
1070
     4
1000
GEN7
1002
{
1002
}
1000
Base
1070
     3
1070
     0
1002
{
1002
}
1002
}
1000
4AN
1070
     8
1000
4AN
1002
{
1000
Color
1070
     1
1070
     3
1002
{
1002
}
1000
LType
1070
     4
1000
GEN4A
1002
{
1002
}
1000
Base
1070
     3
1070
     0
1002
{
1002
}
1002
}
1000
9N
1070
     8
1000
9N
1002
{
1000
Color
1070
     1
1070
   253
1002
{
1002
}
1000
LType
1070
     4
1000
CONTINUOUS
1002
{
1002
}
1000
Base
1070
     3
1070
     0
1002
{
1002
}
1002
}
1000
IPN
1070
     8
1000
IPN
1002
{
1000
Color
1070
     1
1070
     7
1002
{
1002
}
1000
LType
1070
     4
1000
CONTINUOUS
1002
{
1002
}
1000
Base
1070
     3
1070
     0
1002
{
1002
}
1002
}
1002
}
1000
Extra
1070
     0
1002
{
1000
Klin
1070
     8
1000
KLIN
1002
{
1000
Color
1070
     1
1070
     1
1002
{
1002
}
1000
LType
1070
     4
1000
CONTINUOUS
1002
{
1002
}
1000
Base
1070
     3
1070
     1
1002
{
1002
}
1002
}
1000
Info
1070
     8
1000
INFO
1002
{
1000
Color
1070
     1
1070
     4
1002
{
1002
}
1000
LType
1070
     4
1000
CONTINUOUS
1002
{
1002
}
1000
Base
1070
     3
1070
     1
1002
{
1002
}
1002
}
1000
Rahm2
1070
     8
1000
RAHM2
1002
{
1000
Color
1070
     1
1070
     1
1002
{
1002
}
1000
LType
1070
     4
1000
CONTINUOUS
1002
{
1002
}
1000
Base
1070
     3
1070
     1
1002
{
1002
}
1002
}
1000
Rahm3
1070
     8
1000
RAHM3
1002
{
1000
Color
1070
     1
1070
     2
1002
{
1002
}
1000
LType
1070
     4
1000
CONTINUOUS
1002
{
1002
}
1000
Base
1070
     3
1070
     1
1002
{
1002
}
1002
}
1000
Rahm5
1070
     8
1000
RAHM5
1002
{
1000
Color
1070
     1
1070
     7
1002
{
1002
}
1000
LType
1070
     4
1000
CONTINUOUS
1002
{
1002
}
1000
Base
1070
     3
1070
     1
1002
{
1002
}
1002
}
1000
View
1070
     8
1000
VIEW
1002
{
1000
Color
1070
     1
1070
     1
1002
{
1002
}
1000
LType
1070
     4
1000
CONTINUOUS
1002
{
1002
}
1000
Base
1070
     3
1070
     1
1002
{
1002
}
1002
}
1000
Behind
1070
     8
1000
BEHIND
1002
{
1000
Color
1070
     1
1070
   253
1002
{
1002
}
1000
LType
1070
     4
1000
CONTINUOUS
1002
{
1002
}
1000
Base
1070
     3
1070
     1
1002
{
1002
}
1002
}
1002
}
  0
APPID
  5
162A
330
15E7
100
AcDbSymbolTableRecord
100
AcDbRegAppTableRecord
  2
GENIUS_GENCFG3_13
 70
     0
1001
GENIUS_GENCFG_13
1071
1023340674
1000
162A
1000
GEN@LAYER@ENTSORT
1070
    10
1000
GenCfgObject
1000
GenCfgShort
1000
GenCfgReal
1000
GenCfgBool
1000
GenCfgString
1000
GenCfgDim
1000
GenCfgAttrInf
1000
GenCfgLaySection
1000
GenCfgLayer
1000
GenCfgEntSort
1000
ADDL
1070
     9
1000
5
1002
{
1000
Class
1070
     4
1000
SYM
1002
{
1002
}
1000
Color
1070
     1
1070
     1
1002
{
1002
}
1000
LType
1070
     4
1000
BYLAYER
1002
{
1002
}
1002
}
1000
ALTR
1070
     9
1000
4
1002
{
1000
Class
1070
     4
1000

1002
{
1002
}
1000
Color
1070
     1
1070
     7
1002
{
1002
}
1000
LType
1070
     4
1000
GEN3A
1002
{
1002
}
1002
}
1000
BELI
1070
     9
1000
4
1002
{
1000
Class
1070
     4
1000

1002
{
1002
}
1000
Color
1070
     1
1070
   256
1002
{
1002
}
1000
LType
1070
     4
1000
BYLAYER
1002
{
1002
}
1002
}
1000
BHNV
1070
     9
1000
9
1002
{
1000
Class
1070
     4
1000
INV
1002
{
1002
}
1000
Color
1070
     1
1070
   256
1002
{
1002
}
1000
LType
1070
     4
1000
BYLAYER
1002
{
1002
}
1002
}
1000
BHNVS
1070
     9
1000
BEHIND
1002
{
1000
Class
1070
     4
1000
INV
1002
{
1002
}
1000
Color
1070
     1
1070
   256
1002
{
1002
}
1000
LType
1070
     4
1000
BYLAYER
1002
{
1002
}
1002
}
1000
BLID
1070
     9
1000
4A
1002
{
1000
Class
1070
     4
1000

1002
{
1002
}
1000
Color
1070
     1
1070
   256
1002
{
1002
}
1000
LType
1070
     4
1000
BYLAYER
1002
{
1002
}
1002
}
1000
BOAP
1070
     9
1000
4A
1002
{
1000
Class
1070
     4
1000

1002
{
1002
}
1000
Color
1070
     1
1070
   256
1002
{
1002
}
1000
LType
1070
     4
1000
BYLAYER
1002
{
1002
}
1002
}
1000
BOR2
1070
     9
1000
RAHM2
1002
{
1000
Class
1070
     4
1000
SPZ,SYM
1002
{
1002
}
1000
Color
1070
     1
1070
   256
1002
{
1002
}
1000
LType
1070
     4
1000
BYLAYER
1002
{
1002
}
1002
}
1000
BOR3
1070
     9
1000
RAHM3
1002
{
1000
Class
1070
     4
1000
SPZ,SYM
1002
{
1002
}
1000
Color
1070
     1
1070
   256
1002
{
1002
}
1000
LType
1070
     4
1000
BYLAYER
1002
{
1002
}
1002
}
1000
BOR5
1070
     9
1000
RAHM5
1002
{
1000
Class
1070
     4
1000
SPZ,SYM
1002
{
1002
}
1000
Color
1070
     1
1070
   256
1002
{
1002
}
1000
LType
1070
     4
1000
BYLAYER
1002
{
1002
}
1002
}
1000
BOR7
1070
     9
1000
RAHM5
1002
{
1000
Class
1070
     4
1000
SPZ,SYM
1002
{
1002
}
1000
Color
1070
     1
1070
     7
1002
{
1002
}
1000
LType
1070
     4
1000
CONTINUOUS
1002
{
1002
}
1002
}
1000
BPAP
1070
     9
1000
4A
1002
{
1000
Class
1070
     4
1000

1002
{
1002
}
1000
Color
1070
     1
1070
   256
1002
{
1002
}
1000
LType
1070
     4
1000
BYLAYER
1002
{
1002
}
1002
}
1000
BPEX
1070
     9
1000
4A
1002
{
1000
Class
1070
     4
1000

1002
{
1002
}
1000
Color
1070
     1
1070
   256
1002
{
1002
}
1000
LType
1070
     4
1000
BYLAYER
1002
{
1002
}
1002
}
1000
BTDI
1070
     9
1000
5
1002
{
1000
Class
1070
     4
1000
DIM,SYM
1002
{
1002
}
1000
Color
1070
     1
1070
   256
1002
{
1002
}
1000
LType
1070
     4
1000
BYLAYER
1002
{
1002
}
1002
}
1000
CAL2
1070
     9
1000
4
1002
{
1000
Class
1070
     4
1000
SYM
1002
{
1002
}
1000
Color
1070
     1
1070
   256
1002
{
1002
}
1000
LType
1070
     4
1000
BYLAYER
1002
{
1002
}
1002
}
1000
CAL3
1070
     9
1000
4
1002
{
1000
Class
1070
     4
1000
SYM
1002
{
1002
}
1000
Color
1070
     1
1070
     2
1002
{
1002
}
1000
LType
1070
     4
1000
BYLAYER
1002
{
1002
}
1002
}
1000
CAL5
1070
     9
1000
4
1002
{
1000
Class
1070
     4
1000
SYM
1002
{
1002
}
1000
Color
1070
     1
1070
     7
1002
{
1002
}
1000
LType
1070
     4
1000
BYLAYER
1002
{
1002
}
1002
}
1000
CAL7
1070
     9
1000
4
1002
{
1000
Class
1070
     4
1000
SYM
1002
{
1002
}
1000
Color
1070
     1
1070
     5
1002
{
1002
}
1000
LType
1070
     4
1000
BYLAYER
1002
{
1002
}
1002
}
1000
CENN
1070
     9
1000
7A
1002
{
1000
Class
1070
     4
1000
CEN
1002
{
1002
}
1000
Color
1070
     1
1070
   256
1002
{
1002
}
1000
LType
1070
     4
1000
BYLAYER
1002
{
1002
}
1002
}
1000
CENW
1070
     9
1000
7
1002
{
1000
Class
1070
     4
1000
CEN
1002
{
1002
}
1000
Color
1070
     1
1070
   256
1002
{
1002
}
1000
LType
1070
     4
1000
BYLAYER
1002
{
1002
}
1002
}
1000
CLIN
1070
     9
1000
KLIN
1002
{
1000
Class
1070
     4
1000
SPZ
1002
{
1002
}
1000
Color
1070
     1
1070
   256
1002
{
1002
}
1000
LType
1070
     4
1000
BYLAYER
1002
{
1002
}
1002
}
1000
CON1
1070
     9
1000
0
1002
{
1000
Class
1070
     4
1000
CON,BGD
1002
{
1002
}
1000
Color
1070
     1
1070
   256
1002
{
1002
}
1000
LType
1070
     4
1000
BYLAYER
1002
{
1002
}
1002
}
1000
CON2
1070
     9
1000
1
1002
{
1000
Class
1070
     4
1000
CON,BGD
1002
{
1002
}
1000
Color
1070
     1
1070
   256
1002
{
1002
}
1000
LType
1070
     4
1000
BYLAYER
1002
{
1002
}
1002
}
1000
CON3
1070
     9
1000
2
1002
{
1000
Class
1070
     4
1000
CON,BGD
1002
{
1002
}
1000
Color
1070
     1
1070
   256
1002
{
1002
}
1000
LType
1070
     4
1000
BYLAYER
1002
{
1002
}
1002
}
1000
CON4
1070
     9
1000
2
1002
{
1000
Class
1070
     4
1000
CON,BGD
1002
{
1002
}
1000
Color
1070
     1
1070
   256
1002
{
1002
}
1000
LType
1070
     4
1000
BYLAYER
1002
{
1002
}
1002
}
1000
DERP
1070
     9
1000
4
1002
{
1000
Class
1070
     4
1000

1002
{
1002
}
1000
Color
1070
     1
1070
   256
1002
{
1002
}
1000
LType
1070
     4
1000
BYLAYER
1002
{
1002
}
1002
}
1000
DETA
1070
     9
1000
4
1002
{
1000
Class
1070
     4
1000

1002
{
1002
}
1000
Color
1070
     1
1070
   256
1002
{
1002
}
1000
LType
1070
     4
1000
BYLAYER
1002
{
1002
}
1002
}
1000
DIAG
1070
     9
1000
5
1002
{
1000
Class
1070
     4
1000
SYM
1002
{
1002
}
1000
Color
1070
     1
1070
   256
1002
{
1002
}
1000
LType
1070
     4
1000
BYLAYER
1002
{
1002
}
1002
}
1000
DILI
1070
     9
1000
5
1002
{
1000
Class
1070
     4
1000
DIM,SYM
1002
{
1002
}
1000
Color
1070
     1
1070
   256
1002
{
1002
}
1000
LType
1070
     4
1000
BYLAYER
1002
{
1002
}
1002
}
1000
DITO2
1070
     9
1000
5
1002
{
1000
Class
1070
     4
1000
DIM,SYM
1002
{
1002
}
1000
Color
1070
     1
1070
     3
1002
{
1002
}
1000
LType
1070
     4
1000
BYLAYER
1002
{
1002
}
1002
}
1000
DITO3
1070
     9
1000
5
1002
{
1000
Class
1070
     4
1000
DIM,SYM
1002
{
1002
}
1000
Color
1070
     1
1070
     2
1002
{
1002
}
1000
LType
1070
     4
1000
BYLAYER
1002
{
1002
}
1002
}
1000
DITX
1070
     9
1000
5
1002
{
1000
Class
1070
     4
1000
DIM,SYM
1002
{
1002
}
1000
Color
1070
     1
1070
     2
1002
{
1002
}
1000
LType
1070
     4
1000
CONTINUOUS
1002
{
1002
}
1002
}
1000
DIXL
1070
     9
1000
5
1002
{
1000
Class
1070
     4
1000
DIM,SYM
1002
{
1002
}
1000
Color
1070
     1
1070
   256
1002
{
1002
}
1000
LType
1070
     4
1000
BYLAYER
1002
{
1002
}
1002
}
1000
EXMP
1070
     9
1000
4A
1002
{
1000
Class
1070
     4
1000

1002
{
1002
}
1000
Color
1070
     1
1070
   256
1002
{
1002
}
1000
LType
1070
     4
1000
BYLAYER
1002
{
1002
}
1002
}
1000
FEMN
1070
     9
1000
8
1002
{
1000
Class
1070
     4
1000

1002
{
1002
}
1000
Color
1070
     1
1070
   256
1002
{
1002
}
1000
LType
1070
     4
1000
BYLAYER
1002
{
1002
}
1002
}
1000
FEMPN
1070
     9
1000
8
1002
{
1000
Class
1070
     4
1000
SYM
1002
{
1002
}
1000
Color
1070
     1
1070
     3
1002
{
1002
}
1000
LType
1070
     4
1000
BYLAYER
1002
{
1002
}
1002
}
1000
FEMSP
1070
     9
1000
4A
1002
{
1000
Class
1070
     4
1000

1002
{
1002
}
1000
Color
1070
     1
1070
   256
1002
{
1002
}
1000
LType
1070
     4
1000
CONTINUOUS
1002
{
1002
}
1002
}
1000
FEMST
1070
     9
1000
4A
1002
{
1000
Class
1070
     4
1000
SYM
1002
{
1002
}
1000
Color
1070
     1
1070
     3
1002
{
1002
}
1000
LType
1070
     4
1000
BYLAYER
1002
{
1002
}
1002
}
1000
FEMVN
1070
     9
1000
2
1002
{
1000
Class
1070
     4
1000
CON
1002
{
1002
}
1000
Color
1070
     1
1070
   256
1002
{
1002
}
1000
LType
1070
     4
1000
BYLAYER
1002
{
1002
}
1002
}
1000
FEMVT
1070
     9
1000
2
1002
{
1000
Class
1070
     4
1000
SYM
1002
{
1002
}
1000
Color
1070
     1
1070
     3
1002
{
1002
}
1000
LType
1070
     4
1000
BYLAYER
1002
{
1002
}
1002
}
1000
FLAT
1070
     9
1000
0
1002
{
1000
Class
1070
     4
1000

1002
{
1002
}
1000
Color
1070
     1
1070
   256
1002
{
1002
}
1000
LType
1070
     4
1000
BYLAYER
1002
{
1002
}
1002
}
1000
FRAR
1070
     9
1000
4A
1002
{
1000
Class
1070
     4
1000

1002
{
1002
}
1000
Color
1070
     1
1070
   256
1002
{
1002
}
1000
LType
1070
     4
1000
BYLAYER
1002
{
1002
}
1002
}
1000
GRLI
1070
     9
1000
5
1002
{
1000
Class
1070
     4
1000
SYM
1002
{
1002
}
1000
Color
1070
     1
1070
   256
1002
{
1002
}
1000
LType
1070
     4
1000
BYLAYER
1002
{
1002
}
1002
}
1000
GVLI
1070
     9
1000
4A
1002
{
1000
Class
1070
     4
1000

1002
{
1002
}
1000
Color
1070
     1
1070
   256
1002
{
1002
}
1000
LType
1070
     4
1000
BYLAYER
1002
{
1002
}
1002
}
1000
HATC
1070
     9
1000
8
1002
{
1000
Class
1070
     4
1000
HTC,BGD
1002
{
1002
}
1000
Color
1070
     1
1070
   256
1002
{
1002
}
1000
LType
1070
     4
1000
BYLAYER
1002
{
1002
}
1002
}
1000
HIDN
1070
     9
1000
3A
1002
{
1000
Class
1070
     4
1000
HID,BGD
1002
{
1002
}
1000
Color
1070
     1
1070
   256
1002
{
1002
}
1000
LType
1070
     4
1000
BYLAYER
1002
{
1002
}
1002
}
1000
HIDW
1070
     9
1000
3
1002
{
1000
Class
1070
     4
1000
HID,BGD
1002
{
1002
}
1000
Color
1070
     1
1070
   256
1002
{
1002
}
1000
LType
1070
     4
1000
BYLAYER
1002
{
1002
}
1002
}
1000
HLIN
1070
     9
1000
4
1002
{
1000
Class
1070
     4
1000
BGD
1002
{
1002
}
1000
Color
1070
     1
1070
   256
1002
{
1002
}
1000
LType
1070
     4
1000
BYLAYER
1002
{
1002
}
1002
}
1000
HOCN
1070
     9
1000
7A
1002
{
1000
Class
1070
     4
1000
CEN
1002
{
1002
}
1000
Color
1070
     1
1070
   256
1002
{
1002
}
1000
LType
1070
     4
1000
BYLAYER
1002
{
1002
}
1002
}
1000
HOCW
1070
     9
1000
7
1002
{
1000
Class
1070
     4
1000
CEN
1002
{
1002
}
1000
Color
1070
     1
1070
   256
1002
{
1002
}
1000
LType
1070
     4
1000
BYLAYER
1002
{
1002
}
1002
}
1000
INFO
1070
     9
1000
INFO
1002
{
1000
Class
1070
     4
1000
SPZ,SYM
1002
{
1002
}
1000
Color
1070
     1
1070
   256
1002
{
1002
}
1000
LType
1070
     4
1000
BYLAYER
1002
{
1002
}
1002
}
1000
LADI
1070
     9
1000
4
1002
{
1000
Class
1070
     4
1000
BGD
1002
{
1002
}
1000
Color
1070
     1
1070
   256
1002
{
1002
}
1000
LType
1070
     4
1000
BYLAYER
1002
{
1002
}
1002
}
1000
LEAD
1070
     9
1000
5
1002
{
1000
Class
1070
     4
1000
SYM
1002
{
1002
}
1000
Color
1070
     1
1070
   256
1002
{
1002
}
1000
LType
1070
     4
1000
BYLAYER
1002
{
1002
}
1002
}
1000
N_ADDL
1070
     9
1000
5N
1002
{
1000
Class
1070
     4
1000
SYM
1002
{
1002
}
1000
Color
1070
     1
1070
     1
1002
{
1002
}
1000
LType
1070
     4
1000
BYLAYER
1002
{
1002
}
1002
}
1000
N_BHNV
1070
     9
1000
9N
1002
{
1000
Class
1070
     4
1000
INV
1002
{
1002
}
1000
Color
1070
     1
1070
   256
1002
{
1002
}
1000
LType
1070
     4
1000
BYLAYER
1002
{
1002
}
1002
}
1000
N_CON1
1070
     9
1000
0N
1002
{
1000
Class
1070
     4
1000
CON,BGD
1002
{
1002
}
1000
Color
1070
     1
1070
   256
1002
{
1002
}
1000
LType
1070
     4
1000
BYLAYER
1002
{
1002
}
1002
}
1000
N_CON2
1070
     9
1000
1N
1002
{
1000
Class
1070
     4
1000
CON,BGD
1002
{
1002
}
1000
Color
1070
     1
1070
   256
1002
{
1002
}
1000
LType
1070
     4
1000
BYLAYER
1002
{
1002
}
1002
}
1000
N_CON3
1070
     9
1000
2N
1002
{
1000
Class
1070
     4
1000
CON,BGD
1002
{
1002
}
1000
Color
1070
     1
1070
   256
1002
{
1002
}
1000
LType
1070
     4
1000
BYLAYER
1002
{
1002
}
1002
}
1000
N_CON4
1070
     9
1000
2N
1002
{
1000
Class
1070
     4
1000
CON,BGD
1002
{
1002
}
1000
Color
1070
     1
1070
   256
1002
{
1002
}
1000
LType
1070
     4
1000
BYLAYER
1002
{
1002
}
1002
}
1000
N_CENN
1070
     9
1000
7AN
1002
{
1000
Class
1070
     4
1000
CEN
1002
{
1002
}
1000
Color
1070
     1
1070
   256
1002
{
1002
}
1000
LType
1070
     4
1000
BYLAYER
1002
{
1002
}
1002
}
1000
N_CENW
1070
     9
1000
7N
1002
{
1000
Class
1070
     4
1000
CEN
1002
{
1002
}
1000
Color
1070
     1
1070
   256
1002
{
1002
}
1000
LType
1070
     4
1000
BYLAYER
1002
{
1002
}
1002
}
1000
N_DILI
1070
     9
1000
5N
1002
{
1000
Class
1070
     4
1000
DIM,SYM
1002
{
1002
}
1000
Color
1070
     1
1070
   256
1002
{
1002
}
1000
LType
1070
     4
1000
BYLAYER
1002
{
1002
}
1002
}
1000
N_DITX
1070
     9
1000
5N
1002
{
1000
Class
1070
     4
1000
DIM,SYM
1002
{
1002
}
1000
Color
1070
     1
1070
     2
1002
{
1002
}
1000
LType
1070
     4
1000
CONTINUOUS
1002
{
1002
}
1002
}
1000
N_DIXL
1070
     9
1000
5N
1002
{
1000
Class
1070
     4
1000
DIM,SYM
1002
{
1002
}
1000
Color
1070
     1
1070
   256
1002
{
1002
}
1000
LType
1070
     4
1000
BYLAYER
1002
{
1002
}
1002
}
1000
N_HATC
1070
     9
1000
8N
1002
{
1000
Class
1070
     4
1000
HTC,BGD
1002
{
1002
}
1000
Color
1070
     1
1070
   256
1002
{
1002
}
1000
LType
1070
     4
1000
BYLAYER
1002
{
1002
}
1002
}
1000
N_HIDN
1070
     9
1000
3AN
1002
{
1000
Class
1070
     4
1000
HID,BGD
1002
{
1002
}
1000
Color
1070
     1
1070
   256
1002
{
1002
}
1000
LType
1070
     4
1000
BYLAYER
1002
{
1002
}
1002
}
1000
N_HIDW
1070
     9
1000
3N
1002
{
1000
Class
1070
     4
1000
HID,BGD
1002
{
1002
}
1000
Color
1070
     1
1070
   256
1002
{
1002
}
1000
LType
1070
     4
1000
BYLAYER
1002
{
1002
}
1002
}
1000
N_NGIP
1070
     9
1000
IPN
1002
{
1000
Class
1070
     4
1000

1002
{
1002
}
1000
Color
1070
     1
1070
   256
1002
{
1002
}
1000
LType
1070
     4
1000
BYLAYER
1002
{
1002
}
1002
}
1000
N_PHAN
1070
     9
1000
4AN
1002
{
1000
Class
1070
     4
1000

1002
{
1002
}
1000
Color
1070
     1
1070
   256
1002
{
1002
}
1000
LType
1070
     4
1000
BYLAYER
1002
{
1002
}
1002
}
1000
N_POSL
1070
     9
1000
5N
1002
{
1000
Class
1070
     4
1000
SYM
1002
{
1002
}
1000
Color
1070
     1
1070
   256
1002
{
1002
}
1000
LType
1070
     4
1000
BYLAYER
1002
{
1002
}
1002
}
1000
N_TCON
1070
     9
1000
0N
1002
{
1000
Class
1070
     4
1000
CON,BGD
1002
{
1002
}
1000
Color
1070
     1
1070
   256
1002
{
1002
}
1000
LType
1070
     4
1000
BYLAYER
1002
{
1002
}
1002
}
1000
N_THLI
1070
     9
1000
4N
1002
{
1000
Class
1070
     4
1000
BGD
1002
{
1002
}
1000
Color
1070
     1
1070
   256
1002
{
1002
}
1000
LType
1070
     4
1000
BYLAYER
1002
{
1002
}
1002
}
1000
N_TLEN
1070
     9
1000
0N
1002
{
1000
Class
1070
     4
1000
CON,BGD
1002
{
1002
}
1000
Color
1070
     1
1070
   256
1002
{
1002
}
1000
LType
1070
     4
1000
BYLAYER
1002
{
1002
}
1002
}
1000
N_TXT3
1070
     9
1000
6N
1002
{
1000
Class
1070
     4
1000
SYM
1002
{
1002
}
1000
Color
1070
     1
1070
   256
1002
{
1002
}
1000
LType
1070
     4
1000
BYLAYER
1002
{
1002
}
1002
}
1000
N_VPLI
1070
     9
1000
2AN
1002
{
1000
Class
1070
     4
1000

1002
{
1002
}
1000
Color
1070
     1
1070
   256
1002
{
1002
}
1000
LType
1070
     4
1000
BYLAYER
1002
{
1002
}
1002
}
1000
NGIP
1070
     9
1000
IP
1002
{
1000
Class
1070
     4
1000

1002
{
1002
}
1000
Color
1070
     1
1070
   256
1002
{
1002
}
1000
LType
1070
     4
1000
BYLAYER
1002
{
1002
}
1002
}
1000
PAL2
1070
     9
1000
RAHM2
1002
{
1000
Class
1070
     4
1000
SPZ,SYM
1002
{
1002
}
1000
Color
1070
     1
1070
   256
1002
{
1002
}
1000
LType
1070
     4
1000
BYLAYER
1002
{
1002
}
1002
}
1000
PAL3
1070
     9
1000
RAHM3
1002
{
1000
Class
1070
     4
1000
SPZ,SYM
1002
{
1002
}
1000
Color
1070
     1
1070
   256
1002
{
1002
}
1000
LType
1070
     4
1000
BYLAYER
1002
{
1002
}
1002
}
1000
PAL5
1070
     9
1000
RAHM5
1002
{
1000
Class
1070
     4
1000
SPZ,SYM
1002
{
1002
}
1000
Color
1070
     1
1070
   256
1002
{
1002
}
1000
LType
1070
     4
1000
BYLAYER
1002
{
1002
}
1002
}
1000
PAL7
1070
     9
1000
RAHM5
1002
{
1000
Class
1070
     4
1000
SPZ,SYM
1002
{
1002
}
1000
Color
1070
     1
1070
     7
1002
{
1002
}
1000
LType
1070
     4
1000
CONTINUOUS
1002
{
1002
}
1002
}
1000
PHAN
1070
     9
1000
4A
1002
{
1000
Class
1070
     4
1000

1002
{
1002
}
1000
Color
1070
     1
1070
   256
1002
{
1002
}
1000
LType
1070
     4
1000
BYLAYER
1002
{
1002
}
1002
}
1000
POSL
1070
     9
1000
5
1002
{
1000
Class
1070
     4
1000
SYM
1002
{
1002
}
1000
Color
1070
     1
1070
   256
1002
{
1002
}
1000
LType
1070
     4
1000
BYLAYER
1002
{
1002
}
1002
}
1000
POSN
1070
     9
1000
6
1002
{
1000
Class
1070
     4
1000
SYM
1002
{
1002
}
1000
Color
1070
     1
1070
     7
1002
{
1002
}
1000
LType
1070
     4
1000
BYLAYER
1002
{
1002
}
1002
}
1000
POSREF
1070
     9
1000
6
1002
{
1000
Class
1070
     4
1000
SYM
1002
{
1002
}
1000
Color
1070
     1
1070
     5
1002
{
1002
}
1000
LType
1070
     4
1000
BYLAYER
1002
{
1002
}
1002
}
1000
POSX
1070
     9
1000
5
1002
{
1000
Class
1070
     4
1000
SYM
1002
{
1002
}
1000
Color
1070
     1
1070
     2
1002
{
1002
}
1000
LType
1070
     4
1000
CONTINUOUS
1002
{
1002
}
1002
}
1000
PSEC
1070
     9
1000
4A
1002
{
1000
Class
1070
     4
1000

1002
{
1002
}
1000
Color
1070
     1
1070
   256
1002
{
1002
}
1000
LType
1070
     4
1000
BYLAYER
1002
{
1002
}
1002
}
1000
RCGN
1070
     9
1000
7A
1002
{
1000
Class
1070
     4
1000
CEN
1002
{
1002
}
1000
Color
1070
     1
1070
   256
1002
{
1002
}
1000
LType
1070
     4
1000
BYLAYER
1002
{
1002
}
1002
}
1000
RCGW
1070
     9
1000
7
1002
{
1000
Class
1070
     4
1000
CEN
1002
{
1002
}
1000
Color
1070
     1
1070
   256
1002
{
1002
}
1000
LType
1070
     4
1000
BYLAYER
1002
{
1002
}
1002
}
1000
RFDI
1070
     9
1000
4
1002
{
1000
Class
1070
     4
1000
BGD
1002
{
1002
}
1000
Color
1070
     1
1070
   256
1002
{
1002
}
1000
LType
1070
     4
1000
BYLAYER
1002
{
1002
}
1002
}
1000
RQTR
1070
     9
1000
4
1002
{
1000
Class
1070
     4
1000

1002
{
1002
}
1000
Color
1070
     1
1070
     7
1002
{
1002
}
1000
LType
1070
     4
1000
GEN7A
1002
{
1002
}
1002
}
1000
RSBO
1070
     9
1000
4
1002
{
1000
Class
1070
     4
1000
BGD
1002
{
1002
}
1000
Color
1070
     1
1070
   256
1002
{
1002
}
1000
LType
1070
     4
1000
BYLAYER
1002
{
1002
}
1002
}
1000
SBRK
1070
     9
1000
4
1002
{
1000
Class
1070
     4
1000
BGD
1002
{
1002
}
1000
Color
1070
     1
1070
   256
1002
{
1002
}
1000
LType
1070
     4
1000
BYLAYER
1002
{
1002
}
1002
}
1000
SCEN
1070
     9
1000
7
1002
{
1000
Class
1070
     4
1000

1002
{
1002
}
1000
Color
1070
     1
1070
   256
1002
{
1002
}
1000
LType
1070
     4
1000
CONTINUOUS
1002
{
1002
}
1002
}
1000
SECT
1070
     9
1000
4
1002
{
1000
Class
1070
     4
1000
BGD
1002
{
1002
}
1000
Color
1070
     1
1070
   256
1002
{
1002
}
1000
LType
1070
     4
1000
BYLAYER
1002
{
1002
}
1002
}
1000
SELN
1070
     9
1000
7A
1002
{
1000
Class
1070
     4
1000

1002
{
1002
}
1000
Color
1070
     1
1070
   256
1002
{
1002
}
1000
LType
1070
     4
1000
BYLAYER
1002
{
1002
}
1002
}
1000
SELW
1070
     9
1000
7
1002
{
1000
Class
1070
     4
1000

1002
{
1002
}
1000
Color
1070
     1
1070
   256
1002
{
1002
}
1000
LType
1070
     4
1000
BYLAYER
1002
{
1002
}
1002
}
1000
SSYS
1070
     9
1000
0
1002
{
1000
Class
1070
     4
1000

1002
{
1002
}
1000
Color
1070
     1
1070
   256
1002
{
1002
}
1000
LType
1070
     4
1000
BYLAYER
1002
{
1002
}
1002
}
1000
STLI
1070
     9
1000
4
1002
{
1000
Class
1070
     4
1000

1002
{
1002
}
1000
Color
1070
     1
1070
     7
1002
{
1002
}
1000
LType
1070
     4
1000
GEN3A
1002
{
1002
}
1002
}
1000
SYB1
1070
     9
1000
5
1002
{
1000
Class
1070
     4
1000
SYM
1002
{
1002
}
1000
Color
1070
     1
1070
   256
1002
{
1002
}
1000
LType
1070
     4
1000
BYLAYER
1002
{
1002
}
1002
}
1000
SYB2
1070
     9
1000
5
1002
{
1000
Class
1070
     4
1000
SYM
1002
{
1002
}
1000
Color
1070
     1
1070
   256
1002
{
1002
}
1000
LType
1070
     4
1000
BYLAYER
1002
{
1002
}
1002
}
1000
SYB3
1070
     9
1000
6
1002
{
1000
Class
1070
     4
1000
SYM
1002
{
1002
}
1000
Color
1070
     1
1070
   256
1002
{
1002
}
1000
LType
1070
     4
1000
CONTINUOUS
1002
{
1002
}
1002
}
1000
SYB5
1070
     9
1000
5
1002
{
1000
Class
1070
     4
1000
SYM
1002
{
1002
}
1000
Color
1070
     1
1070
     7
1002
{
1002
}
1000
LType
1070
     4
1000
BYLAYER
1002
{
1002
}
1002
}
1000
SYMN
1070
     9
1000
7A
1002
{
1000
Class
1070
     4
1000
CEN
1002
{
1002
}
1000
Color
1070
     1
1070
   256
1002
{
1002
}
1000
LType
1070
     4
1000
BYLAYER
1002
{
1002
}
1002
}
1000
SYMW
1070
     9
1000
7
1002
{
1000
Class
1070
     4
1000
CEN
1002
{
1002
}
1000
Color
1070
     1
1070
   256
1002
{
1002
}
1000
LType
1070
     4
1000
BYLAYER
1002
{
1002
}
1002
}
1000
TCON
1070
     9
1000
0
1002
{
1000
Class
1070
     4
1000
CON,BGD
1002
{
1002
}
1000
Color
1070
     1
1070
   256
1002
{
1002
}
1000
LType
1070
     4
1000
BYLAYER
1002
{
1002
}
1002
}
1000
THLI
1070
     9
1000
4
1002
{
1000
Class
1070
     4
1000
BGD
1002
{
1002
}
1000
Color
1070
     1
1070
   256
1002
{
1002
}
1000
LType
1070
     4
1000
BYLAYER
1002
{
1002
}
1002
}
1000
TIT2
1070
     9
1000
RAHM2
1002
{
1000
Class
1070
     4
1000
SPZ,SYM
1002
{
1002
}
1000
Color
1070
     1
1070
   256
1002
{
1002
}
1000
LType
1070
     4
1000
BYLAYER
1002
{
1002
}
1002
}
1000
TIT3
1070
     9
1000
RAHM3
1002
{
1000
Class
1070
     4
1000
SPZ,SYM
1002
{
1002
}
1000
Color
1070
     1
1070
   256
1002
{
1002
}
1000
LType
1070
     4
1000
BYLAYER
1002
{
1002
}
1002
}
1000
TIT5
1070
     9
1000
RAHM5
1002
{
1000
Class
1070
     4
1000
SPZ,SYM
1002
{
1002
}
1000
Color
1070
     1
1070
   256
1002
{
1002
}
1000
LType
1070
     4
1000
BYLAYER
1002
{
1002
}
1002
}
1000
TIT7
1070
     9
1000
RAHM5
1002
{
1000
Class
1070
     4
1000
SPZ,SYM
1002
{
1002
}
1000
Color
1070
     1
1070
     7
1002
{
1002
}
1000
LType
1070
     4
1000
CONTINUOUS
1002
{
1002
}
1002
}
1000
TLEN
1070
     9
1000
0
1002
{
1000
Class
1070
     4
1000
CON,BGD
1002
{
1002
}
1000
Color
1070
     1
1070
   256
1002
{
1002
}
1000
LType
1070
     4
1000
BYLAYER
1002
{
1002
}
1002
}
1000
TRKN
1070
     9
1000
7A
1002
{
1000
Class
1070
     4
1000

1002
{
1002
}
1000
Color
1070
     1
1070
   256
1002
{
1002
}
1000
LType
1070
     4
1000
BYLAYER
1002
{
1002
}
1002
}
1000
TRKW
1070
     9
1000
7
1002
{
1000
Class
1070
     4
1000

1002
{
1002
}
1000
Color
1070
     1
1070
   256
1002
{
1002
}
1000
LType
1070
     4
1000
BYLAYER
1002
{
1002
}
1002
}
1000
TRLI
1070
     9
1000
4
1002
{
1000
Class
1070
     4
1000
BGD
1002
{
1002
}
1000
Color
1070
     1
1070
   256
1002
{
1002
}
1000
LType
1070
     4
1000
BYLAYER
1002
{
1002
}
1002
}
1000
TXT1
1070
     9
1000
6
1002
{
1000
Class
1070
     4
1000
SYM
1002
{
1002
}
1000
Color
1070
     1
1070
     2
1002
{
1002
}
1000
LType
1070
     4
1000
BYLAYER
1002
{
1002
}
1002
}
1000
TXT2
1070
     9
1000
6
1002
{
1000
Class
1070
     4
1000
SYM
1002
{
1002
}
1000
Color
1070
     1
1070
     2
1002
{
1002
}
1000
LType
1070
     4
1000
BYLAYER
1002
{
1002
}
1002
}
1000
TXT3
1070
     9
1000
6
1002
{
1000
Class
1070
     4
1000
SYM
1002
{
1002
}
1000
Color
1070
     1
1070
   256
1002
{
1002
}
1000
LType
1070
     4
1000
BYLAYER
1002
{
1002
}
1002
}
1000
TXT5
1070
     9
1000
6
1002
{
1000
Class
1070
     4
1000
SYM
1002
{
1002
}
1000
Color
1070
     1
1070
     7
1002
{
1002
}
1000
LType
1070
     4
1000
BYLAYER
1002
{
1002
}
1002
}
1000
TXT7
1070
     9
1000
6
1002
{
1000
Class
1070
     4
1000
SYM
1002
{
1002
}
1000
Color
1070
     1
1070
     7
1002
{
1002
}
1000
LType
1070
     4
1000
BYLAYER
1002
{
1002
}
1002
}
1000
VIEW
1070
     9
1000
VIEW
1002
{
1000
Class
1070
     4
1000
SPZ
1002
{
1002
}
1000
Color
1070
     1
1070
   256
1002
{
1002
}
1000
LType
1070
     4
1000
BYLAYER
1002
{
1002
}
1002
}
1000
VPLI
1070
     9
1000
2A
1002
{
1000
Class
1070
     4
1000

1002
{
1002
}
1000
Color
1070
     1
1070
   256
1002
{
1002
}
1000
LType
1070
     4
1000
BYLAYER
1002
{
1002
}
1002
}
1000
ZIZA
1070
     9
1000
4
1002
{
1000
Class
1070
     4
1000
BGD
1002
{
1002
}
1000
Color
1070
     1
1070
   256
1002
{
1002
}
1000
LType
1070
     4
1000
GENZIGZAG
1002
{
1002
}
1002
}
  0
APPID
  5
162B
330
15E7
100
AcDbSymbolTableRecord
100
AcDbRegAppTableRecord
  2
GENIUS_GENCFG4_13
 70
     0
1001
GENIUS_GENCFG_13
1071
1023340689
1000
162B
1000
GEN
1070
     9
1000
GenCfgObject
1000
GenCfgShort
1000
GenCfgReal
1000
GenCfgBool
1000
GenCfgString
1000
GenCfgDim
1000
GenCfgLaySection
1000
GenCfgLType
1000
GenCfgFilter
1000
Balloon
1070
     0
1002
{
1000
GenIF
1070
     1
1070
     0
1002
{
1002
}
1000
GenPosInc
1070
     1
1070
     1
1002
{
1002
}
1000
GenPosBlk
1070
     1
1070
     8
1002
{
1002
}
1000
GenPosVar
1070
     1
1070
     0
1002
{
1002
}
1000
GenZiCir
1070
     2
1040
1.5
1002
{
1002
}
1000
MaxCharForCenteredText
1070
     1
1070
    30
1002
{
1002
}
1000
Snap
1070
     0
1002
{
1000
ActivationRadius
1070
     2
1040
1.0
1002
{
1002
}
1000
M
1070
     0
1002
{
1000
SnapStepX
1070
     2
1040
20.0
1002
{
1002
}
1000
SnapStepY
1070
     2
1040
10.0
1002
{
1002
}
1002
}
1000
I
1070
     0
1002
{
1000
SnapStepX
1070
     2
1040
1.0
1002
{
1002
}
1000
SnapStepY
1070
     2
1040
0.5
1002
{
1002
}
1002
}
1002
}
1002
}
1000
Centerline
1070
     0
1002
{
1000
ScaleNot
1070
     3
1070
     0
1002
{
1002
}
1000
M
1070
     0
1002
{
1000
GenCenAng
1070
     4
1000
45|90|135
1002
{
1002
}
1000
GenCenDia
1070
     2
1040
10.0
1002
{
1002
}
1000
GenCenDias
1070
     4
1000
10|20|30
1002
{
1002
}
1000
GenCenDist
1070
     2
1040
3.0
1002
{
1002
}
1000
GenCenLen
1070
     2
1040
10.0
1002
{
1002
}
1000
GenCenOff
1070
     2
1040
10.0
1002
{
1002
}
1002
}
1000
I
1070
     0
1002
{
1000
GenCenAng
1070
     4
1000
45|90|135
1002
{
1002
}
1000
GenCenDia
1070
     2
1040
0.5
1002
{
1002
}
1000
GenCenDias
1070
     4
1000
0.5|1.0|1.5
1002
{
1002
}
1000
GenCenDist
1070
     2
1040
0.125
1002
{
1002
}
1000
GenCenLen
1070
     2
1040
0.5
1002
{
1002
}
1000
GenCenOff
1070
     2
1040
0.5
1002
{
1002
}
1002
}
1002
}
1000
CLine
1070
     0
1002
{
1000
CAngArray
1070
     4
1000
30|45|60
1002
{
1002
}
1000
Typ
1070
     4
1000
XLINE
1002
{
1002
}
1000
M
1070
     0
1002
{
1000
CLinArray
1070
     4
1000
10|20|30
1002
{
1002
}
1002
}
1000
I
1070
     0
1002
{
1000
CLinArray
1070
     4
1000
0.125|0.25|0.5
1002
{
1002
}
1002
}
1002
}
1000
Detail
1070
     0
1002
{
1002
}
1000
Dimension
1070
     5
1002
{
1000
DIMALT
1070
     1
1070
     0
1002
{
1002
}
1000
DIMALTD
1070
     1
1070
     2
1002
{
1002
}
1000
DIMALTTD
1070
     1
1070
     4
1002
{
1002
}
1000
DIMALTTZ
1070
     1
1070
     0
1002
{
1002
}
1000
DIMALTU
1070
     1
1070
     2
1002
{
1002
}
1000
DIMALTZ
1070
     1
1070
     0
1002
{
1002
}
1000
DIMAUNIT
1070
     1
1070
     0
1002
{
1002
}
1000
DIMBLK
1070
     4
1000

1002
{
1002
}
1000
DIMBLK1
1070
     4
1000

1002
{
1002
}
1000
DIMBLK2
1070
     4
1000

1002
{
1002
}
1000
DIMCLRD
1070
     1
1070
   256
1002
{
1002
}
1000
DIMCLRE
1070
     1
1070
   256
1002
{
1002
}
1000
DIMCLRT
1070
     1
1070
     2
1002
{
1002
}
1000
DIMDLE
1070
     2
1040
0.0
1002
{
1002
}
1000
DIMFIT
1070
     1
1070
     3
1002
{
1002
}
1000
DIMJUST
1070
     1
1070
     0
1002
{
1002
}
1000
DIMLFAC
1070
     2
1040
1.0
1002
{
1002
}
1000
DIMLIM
1070
     1
1070
     0
1002
{
1002
}
1000
DIMPOST
1070
     4
1000

1002
{
1002
}
1000
DIMRND
1070
     2
1040
0.0
1002
{
1002
}
1000
DIMSAH
1070
     1
1070
     0
1002
{
1002
}
1000
DIMSCALE
1070
     2
1040
1.0
1002
{
1002
}
1000
DIMSD1
1070
     1
1070
     0
1002
{
1002
}
1000
DIMSD2
1070
     1
1070
     0
1002
{
1002
}
1000
DIMSE1
1070
     1
1070
     0
1002
{
1002
}
1000
DIMSE2
1070
     1
1070
     0
1002
{
1002
}
1000
DIMSOXD
1070
     1
1070
     0
1002
{
1002
}
1000
DIMTAD
1070
     1
1070
     0
1002
{
1002
}
1000
DIMTFAC
1070
     2
1040
0.71
1002
{
1002
}
1000
DIMTIH
1070
     1
1070
     0
1002
{
1002
}
1000
DIMTIX
1070
     1
1070
     0
1002
{
1002
}
1000
DIMTM
1070
     2
1040
0.1
1002
{
1002
}
1000
DIMTOFL
1070
     1
1070
     0
1002
{
1002
}
1000
DIMTOH
1070
     1
1070
     0
1002
{
1002
}
1000
DIMTOL
1070
     1
1070
     0
1002
{
1002
}
1000
DIMTOLJ
1070
     1
1070
     1
1002
{
1002
}
1000
DIMTP
1070
     2
1040
0.1
1002
{
1002
}
1000
DIMTSZ
1070
     2
1040
0.0
1002
{
1002
}
1000
DIMTVP
1070
     2
1040
0.0
1002
{
1002
}
1000
DIMTXSTY
1070
     4
1000
STANDARD
1002
{
1002
}
1000
DIMTZIN
1070
     1
1070
     0
1002
{
1002
}
1000
DIMUNIT
1070
     1
1070
     2
1002
{
1002
}
1000
DIMUPT
1070
     1
1070
     0
1002
{
1002
}
1000
M
1070
     0
1002
{
1000
DIMALTF
1070
     2
1040
0.03937
1002
{
1002
}
1000
DIMAPOST
1070
     4
1000
"
1002
{
1002
}
1000
DIMASZ
1070
     2
1040
2.5
1002
{
1002
}
1000
DIMCEN
1070
     2
1040
0.0
1002
{
1002
}
1000
DIMDEC
1070
     1
1070
     2
1002
{
1002
}
1000
DIMDLI
1070
     2
1040
7.0
1002
{
1002
}
1000
DIMEXE
1070
     2
1040
1.0
1002
{
1002
}
1000
DIMEXO
1070
     2
1040
1.0
1002
{
1002
}
1000
DIMGAP
1070
     2
1040
0.6
1002
{
1002
}
1000
DIMTDEC
1070
     1
1070
     3
1002
{
1002
}
1000
DIMTXT
1070
     2
1040
3.5
1002
{
1002
}
1000
DIMZIN
1070
     1
1070
     8
1002
{
1002
}
1002
}
1000
I
1070
     0
1002
{
1000
DIMALTF
1070
     2
1040
25.4
1002
{
1002
}
1000
DIMAPOST
1070
     4
1000
mm
1002
{
1002
}
1000
DIMASZ
1070
     2
1040
0.1
1002
{
1002
}
1000
DIMCEN
1070
     2
1040
0.0
1002
{
1002
}
1000
DIMDEC
1070
     1
1070
     4
1002
{
1002
}
1000
DIMDLI
1070
     2
1040
0.5
1002
{
1002
}
1000
DIMEXE
1070
     2
1040
0.1
1002
{
1002
}
1000
DIMEXO
1070
     2
1040
0.05
1002
{
1002
}
1000
DIMGAP
1070
     2
1040
0.06
1002
{
1002
}
1000
DIMTDEC
1070
     1
1070
     4
1002
{
1002
}
1000
DIMTXT
1070
     2
1040
0.12
1002
{
1002
}
1000
DIMZIN
1070
     1
1070
     7
1002
{
1002
}
1002
}
1000
GEN-ISO
1070
     5
1002
{
1000
NAME
1070
     4
1000
GEN-ISO
1002
{
1002
}
1000
DIMTAD
1070
     1
1070
     1
1002
{
1002
}
1000
DIMTOLJ
1070
     1
1070
     0
1002
{
1002
}
1000
DIMTOFL
1070
     1
1070
     1
1002
{
1002
}
1000
M
1070
     0
1002
{
1002
}
1000
I
1070
     0
1002
{
1002
}
1002
}
1000
GEN-ISO-POS
1070
     5
1002
{
1000
NAME
1070
     4
1000
GEN-ISO-POS
1002
{
1002
}
1000
DIMTOLJ
1070
     1
1070
     0
1002
{
1002
}
1000
DIMTXSTY
1070
     4
1000
STANDARD
1002
{
1002
}
1000
M
1070
     0
1002
{
1000
DIMASZ
1070
     2
1040
2.5
1002
{
1002
}
1000
DIMGAP
1070
     2
1040
1.5
1002
{
1002
}
1000
DIMTXT
1070
     2
1040
5.0
1002
{
1002
}
1002
}
1000
I
1070
     0
1002
{
1000
DIMASZ
1070
     2
1040
0.1
1002
{
1002
}
1000
DIMGAP
1070
     2
1040
0.06
1002
{
1002
}
1000
DIMTXT
1070
     2
1040
0.2
1002
{
1002
}
1002
}
1002
}
1000
GEN-ISO-CIR
1070
     5
1002
{
1000
NAME
1070
     4
1000
GEN-ISO$3
1002
{
1002
}
1000
DIMFIT
1070
     1
1070
     0
1002
{
1002
}
1000
DIMTAD
1070
     1
1070
     1
1002
{
1002
}
1000
DIMTOH
1070
     1
1070
     1
1002
{
1002
}
1000
DIMTOLJ
1070
     1
1070
     0
1002
{
1002
}
1000
DIMUPT
1070
     1
1070
     1
1002
{
1002
}
1000
M
1070
     0
1002
{
1002
}
1000
I
1070
     0
1002
{
1002
}
1002
}
1000
GEN-ISO-RAD
1070
     5
1002
{
1000
NAME
1070
     4
1000
GEN-ISO$4
1002
{
1002
}
1000
DIMFIT
1070
     1
1070
     0
1002
{
1002
}
1000
DIMTAD
1070
     1
1070
     1
1002
{
1002
}
1000
DIMTIH
1070
     1
1070
     0
1002
{
1002
}
1000
DIMTIX
1070
     1
1070
     0
1002
{
1002
}
1000
DIMTOH
1070
     1
1070
     1
1002
{
1002
}
1000
DIMTOLJ
1070
     1
1070
     0
1002
{
1002
}
1000
DIMTOFL
1070
     1
1070
     0
1002
{
1002
}
1000
DIMUPT
1070
     1
1070
     1
1002
{
1002
}
1000
M
1070
     0
1002
{
1002
}
1000
I
1070
     0
1002
{
1002
}
1002
}
1000
GEN-ISO-ORD
1070
     5
1002
{
1000
NAME
1070
     4
1000
GEN-ISO$6
1002
{
1002
}
1000
DIMTOLJ
1070
     1
1070
     0
1002
{
1002
}
1000
M
1070
     0
1002
{
1002
}
1000
I
1070
     0
1002
{
1002
}
1002
}
1000
GEN-ISO-AXE-F
1070
     5
1002
{
1000
NAME
1070
     4
1000
GEN-ISO-AXE-F
1002
{
1002
}
1000
DIMSE1
1070
     1
1070
     1
1002
{
1002
}
1000
DIMSE2
1070
     1
1070
     1
1002
{
1002
}
1000
DIMTAD
1070
     1
1070
     1
1002
{
1002
}
1000
DIMTOLJ
1070
     1
1070
     0
1002
{
1002
}
1000
DIMTOFL
1070
     1
1070
     1
1002
{
1002
}
1000
M
1070
     0
1002
{
1002
}
1000
I
1070
     0
1002
{
1002
}
1002
}
1000
GEN-ISO-AXE-H
1070
     5
1002
{
1000
NAME
1070
     4
1000
GEN-ISO-AXE-H
1002
{
1002
}
1000
DIMBLK1
1070
     4
1000
GENAXEH
1002
{
1002
}
1000
DIMLFAC
1070
     2
1040
2.0
1002
{
1002
}
1000
DIMSAH
1070
     1
1070
     1
1002
{
1002
}
1000
DIMSE1
1070
     1
1070
     1
1002
{
1002
}
1000
DIMSE2
1070
     1
1070
     1
1002
{
1002
}
1000
DIMTAD
1070
     1
1070
     1
1002
{
1002
}
1000
DIMTOLJ
1070
     1
1070
     0
1002
{
1002
}
1000
DIMTOFL
1070
     1
1070
     1
1002
{
1002
}
1000
M
1070
     0
1002
{
1002
}
1000
I
1070
     0
1002
{
1002
}
1002
}
1000
GEN-ANSI
1070
     5
1002
{
1000
NAME
1070
     4
1000
GEN-ANSI
1002
{
1002
}
1000
DIMTIH
1070
     1
1070
     1
1002
{
1002
}
1000
DIMTOH
1070
     1
1070
     1
1002
{
1002
}
1000
DIMTAD
1070
     1
1070
     0
1002
{
1002
}
1000
DIMTOLJ
1070
     1
1070
     1
1002
{
1002
}
1000
M
1070
     0
1002
{
1002
}
1000
I
1070
     0
1002
{
1002
}
1002
}
1000
GEN-ANSI-POS
1070
     5
1002
{
1000
NAME
1070
     4
1000
GEN-ANSI-POS
1002
{
1002
}
1000
DIMTOLJ
1070
     1
1070
     1
1002
{
1002
}
1000
DIMTXSTY
1070
     4
1000
STANDARD
1002
{
1002
}
1000
M
1070
     0
1002
{
1000
DIMASZ
1070
     2
1040
2.5
1002
{
1002
}
1000
DIMGAP
1070
     2
1040
1.5
1002
{
1002
}
1000
DIMTXT
1070
     2
1040
5.0
1002
{
1002
}
1002
}
1000
I
1070
     0
1002
{
1000
DIMASZ
1070
     2
1040
0.1
1002
{
1002
}
1000
DIMGAP
1070
     2
1040
0.06
1002
{
1002
}
1000
DIMTXT
1070
     2
1040
0.2
1002
{
1002
}
1002
}
1002
}
1000
GEN-ANSI-CIR
1070
     5
1002
{
1000
NAME
1070
     4
1000
GEN-ANSI$3
1002
{
1002
}
1000
DIMFIT
1070
     1
1070
     0
1002
{
1002
}
1000
DIMTAD
1070
     1
1070
     0
1002
{
1002
}
1000
DIMTIH
1070
     1
1070
     1
1002
{
1002
}
1000
DIMTIX
1070
     1
1070
     0
1002
{
1002
}
1000
DIMTOFL
1070
     1
1070
     0
1002
{
1002
}
1000
DIMTOH
1070
     1
1070
     1
1002
{
1002
}
1000
DIMTOLJ
1070
     1
1070
     1
1002
{
1002
}
1000
DIMUPT
1070
     1
1070
     1
1002
{
1002
}
1000
M
1070
     0
1002
{
1002
}
1000
I
1070
     0
1002
{
1002
}
1002
}
1000
GEN-ANSI-RAD
1070
     5
1002
{
1000
NAME
1070
     4
1000
GEN-ANSI$4
1002
{
1002
}
1000
DIMFIT
1070
     1
1070
     0
1002
{
1002
}
1000
DIMTAD
1070
     1
1070
     0
1002
{
1002
}
1000
DIMTIH
1070
     1
1070
     1
1002
{
1002
}
1000
DIMTIX
1070
     1
1070
     0
1002
{
1002
}
1000
DIMTOFL
1070
     1
1070
     0
1002
{
1002
}
1000
DIMTOH
1070
     1
1070
     1
1002
{
1002
}
1000
DIMTOLJ
1070
     1
1070
     1
1002
{
1002
}
1000
DIMUPT
1070
     1
1070
     1
1002
{
1002
}
1000
M
1070
     0
1002
{
1002
}
1000
I
1070
     0
1002
{
1002
}
1002
}
1000
GEN-ANSI-ORD
1070
     5
1002
{
1000
NAME
1070
     4
1000
GEN-ANSI$6
1002
{
1002
}
1000
DIMTAD
1070
     1
1070
     0
1002
{
1002
}
1000
DIMTIH
1070
     1
1070
     1
1002
{
1002
}
1000
DIMTOH
1070
     1
1070
     1
1002
{
1002
}
1000
DIMTOLJ
1070
     1
1070
     1
1002
{
1002
}
1000
M
1070
     0
1002
{
1002
}
1000
I
1070
     0
1002
{
1002
}
1002
}
1000
GEN-ANSI-AXE-F
1070
     5
1002
{
1000
NAME
1070
     4
1000
GEN-ANSI-AXE-F
1002
{
1002
}
1000
DIMBLK1
1070
     4
1000
GENAXEH
1002
{
1002
}
1000
DIMSAH
1070
     1
1070
     1
1002
{
1002
}
1000
DIMSE1
1070
     1
1070
     1
1002
{
1002
}
1000
DIMSE2
1070
     1
1070
     1
1002
{
1002
}
1000
DIMTAD
1070
     1
1070
     0
1002
{
1002
}
1000
DIMTIH
1070
     1
1070
     1
1002
{
1002
}
1000
DIMTOH
1070
     1
1070
     1
1002
{
1002
}
1000
DIMTOLJ
1070
     1
1070
     1
1002
{
1002
}
1000
M
1070
     0
1002
{
1002
}
1000
I
1070
     0
1002
{
1002
}
1002
}
1000
GEN-ANSI-AXE-H
1070
     5
1002
{
1000
NAME
1070
     4
1000
GEN-ANSI-AXE-H
1002
{
1002
}
1000
DIMBLK1
1070
     4
1000
GENAXEH
1002
{
1002
}
1000
DIMLFAC
1070
     2
1040
2.0
1002
{
1002
}
1000
DIMSAH
1070
     1
1070
     1
1002
{
1002
}
1000
DIMSE1
1070
     1
1070
     1
1002
{
1002
}
1000
DIMSE2
1070
     1
1070
     1
1002
{
1002
}
1000
DIMTAD
1070
     1
1070
     0
1002
{
1002
}
1000
DIMTOFL
1070
     1
1070
     1
1002
{
1002
}
1000
DIMTOLJ
1070
     1
1070
     1
1002
{
1002
}
1000
M
1070
     0
1002
{
1002
}
1000
I
1070
     0
1002
{
1002
}
1002
}
1002
}
1000
DimSet
1070
     0
1002
{
1000
ChainSum
1070
     3
1070
     0
1002
{
1002
}
1000
DimDclTyp0
1070
     4
1000
dim23
1002
{
1002
}
1000
HorBra
1070
     3
1070
     0
1002
{
1002
}
1000
StrDia
1070
     4
1000
%%c<>
1002
{
1002
}
1000
StrRad
1070
     4
1000
R<>
1002
{
1002
}
1000
TextMinus
1070
     4
1000
<>
1002
{
1002
}
1000
TextPlus
1070
     4
1000
<>
1002
{
1002
}
1000
M
1070
     0
1002
{
1000
DimdliFirst
1070
     2
1040
10.0
1002
{
1002
}
1000
PointMakeDist
1070
     2
1040
10.0
1002
{
1002
}
1002
}
1000
I
1070
     0
1002
{
1000
DimdliFirst
1070
     2
1040
0.5
1002
{
1002
}
1000
PointMakeDist
1070
     2
1040
0.5
1002
{
1002
}
1002
}
1000
FitGrade
1070
     4
1000
h7
1002
{
1002
}
1002
}
1000
Drawing
1070
     0
1002
{
1000
ChamferDimMode
1070
     1
1070
     2
1002
{
1002
}
1000
Gen_Fiso
1070
    -3
1040
1.0
1002
{
1002
}
1000
GenDimStil
1070
     4
1000
ISO
1002
{
1002
}
1000
GenDwgUScale
1070
     2
1040
1.0
1002
{
1002
}
1000
GenInch
1070
     4
1000
M
1002
{
1002
}
1000
GenPlotScale
1070
     4
1000
1:5
1002
{
1002
}
1000
Revisi
1070
     4
1000
0
1002
{
1002
}
1000
Version
1070
    -5
1000
14.01/Apr  1 1998
1002
{
1002
}
1000
Platform
1070
    -5
1000
WINNT
1002
{
1002
}
1002
}
1000
DwgVar
1070
     0
1002
{
1000
M
1070
     0
1002
{
1002
}
1000
I
1070
     0
1002
{
1002
}
1002
}
1000
Hatch
1070
     0
1002
{
1000
GenHtcFlag
1070
     3
1070
     0
1002
{
1002
}
1002
}
1000
Info_Pos
1070
     0
1002
{
1000
>
1002
}
1000
Layer
1070
     6
1002
{
1000
Defs
1070
     0
1002
{
1000
>
1002
}
1000
EntSort
1070
     0
1002
{
1000
>
1002
}
1000
Match
1070
     0
1002
{
1002
}
1000
Settings
1070
     0
1002
{
1000
FocGrNC
1070
     3
1070
     0
1002
{
1002
}
1000
FocGrLo
1070
     3
1070
     0
1002
{
1002
}
1000
FocLoNC
1070
     3
1070
     0
1002
{
1002
}
1000
FocusCol
1070
     1
1070
   253
1002
{
1002
}
1000
GenStdLG
1070
     4
1000

1002
{
1002
}
1000
LayMatch
1070
     3
1070
     0
1002
{
1002
}
1000
LgOff
1070
     3
1070
     0
1002
{
1002
}
1000
CurLG
1070
    -5
1000

1002
{
1002
}
1002
}
1002
}
1000
LType
1070
     0
1002
{
1000
GEN3
1070
     7
1000
genius.lin
1002
{
1002
}
1000
GEN7
1070
     7
1000
genius.lin
1002
{
1002
}
1000
GEN4A
1070
     7
1000
genius.lin
1002
{
1002
}
1000
GEN3A
1070
     7
1000
genius.lin
1002
{
1002
}
1000
GEN7A
1070
     7
1000
genius.lin
1002
{
1002
}
1000
GENZIGZAG
1070
     7
1000
genius.lin
1002
{
1002
}
1002
}
1000
Objecter
1070
     0
1002
{
1000
CreateGroups
1070
     3
1070
     0
1002
{
1002
}
1000
LaySwitch
1070
     3
1070
     1
1002
{
1002
}
1000
LastObj
1070
    -5
1000
168A
1002
{
1002
}
1000
TimeStamp
1070
    -5
1000
20020606.07150729
1002
{
1002
}
1002
}
1000
OSWiz
1070
     0
1002
{
1000
Filter
1070
     0
1002
{
1000
HATCH
1070
     8
1002
{
1000
EntityType
1070
     4
1000
LINE
1002
{
1002
}
1000
Layer
1070
     4
1000
8,8N,*-8,*-8N
1002
{
1002
}
1000
Linetype
1070
     4
1000
*
1002
{
1002
}
1000
Color
1070
     4
1000
*
1002
{
1002
}
1000
ApplyInDims
1070
     3
1070
     1
1002
{
1002
}
1002
}
1000
SYMBOLS
1070
     8
1002
{
1000
EntityType
1070
     4
1000
*
1002
{
1002
}
1000
Layer
1070
     4
1000
[5-6],[5-6]N,*-[5-6],*-[5-6]N
1002
{
1002
}
1000
Linetype
1070
     4
1000
*
1002
{
1002
}
1000
Color
1070
     4
1000
*
1002
{
1002
}
1000
ApplyInDims
1070
     3
1070
     1
1002
{
1002
}
1002
}
1000
FEM
1070
     8
1002
{
1000
EntityType
1070
     4
1000
*
1002
{
1002
}
1000
Layer
1070
     4
1000
4A,4AN,*-4A,*-4AN
1002
{
1002
}
1000
Linetype
1070
     4
1000
*
1002
{
1002
}
1000
Color
1070
     4
1000
*
1002
{
1002
}
1000
ApplyInDims
1070
     3
1070
     1
1002
{
1002
}
1002
}
1002
}
1002
}
1000
PaList
1070
     0
1002
{
1000
AutoUpdatePartList
1070
     1
1070
     0
1002
{
1002
}
1000
ReadInfoPoint
1070
     3
1070
     0
1002
{
1002
}
1000
ReadPosNr
1070
     3
1070
     1
1002
{
1002
}
1000
RevStr
1070
     4
1000
0
1002
{
1002
}
1002
}
1000
Paper
1070
     0
1002
{
1002
}
1000
PartDB
1070
     0
1002
{
1000
GenDbOwner
1070
     4
1000

1002
{
1002
}
1002
}
1000
System
1070
     0
1002
{
1000
Menu
1070
     4
1000
GEV
1002
{
1002
}
1002
}
1000
Title
1070
     0
1002
{
1000
MakeView
1070
     1
1070
     2
1002
{
1002
}
1002
}
1000
Tools
1070
     0
1002
{
1000
Trans
1070
     0
1002
{
1000
Drawingtranslation
1070
    -4
1070
     1
1002
{
1002
}
1000
upreserve
1070
     3
1070
     0
1002
{
1002
}
1000
originally_on
1070
    -4
1070
     0
1002
{
1002
}
1000
sourcelang
1070
    -5
1000
D
1002
{
1002
}
1002
}
1002
}
  0
APPID
  5
162C
330
15E7
100
AcDbSymbolTableRecord
100
AcDbRegAppTableRecord
  2
GENIUS_GEVCFG0_13
 70
     0
1001
GENIUS_GENCFG_13
1071
1023340674
1000
162C
1000
GEV
1070
     1
1000
GenCfgObject
1000
VED
1070
     0
1002
{
1002
}
  0
APPID
  5
1659
330
15E7
100
AcDbSymbolTableRecord
100
AcDbRegAppTableRecord
  2
GENIUS_DUMCFG0_13
 70
     0
1001
GENIUS_GENCFG_13
1071
935996460
1000
1659
1000
DUM
1070
     0
  0
APPID
  5
165A
330
15E7
100
AcDbSymbolTableRecord
100
AcDbRegAppTableRecord
  2
GEV_VCCNULL_SWITCH_OFF
 70
     0
  0
APPID
  5
165B
330
15E7
100
AcDbSymbolTableRecord
100
AcDbRegAppTableRecord
  2
GENIUS_GENDTOL_13
 70
     0
  0
APPID
  5
165C
330
15E7
100
AcDbSymbolTableRecord
100
AcDbRegAppTableRecord
  2
GENIUS_GENBLLY_14
 70
     0
  0
APPID
  5
165D
330
15E7
100
AcDbSymbolTableRecord
100
AcDbRegAppTableRecord
  2
GENIUS_GENODEF_13
 70
     0
  0
APPID
  5
165E
330
15E7
100
AcDbSymbolTableRecord
100
AcDbRegAppTableRecord
  2
GENIUS_GENOBJ-N-CRS_13
 70
     0
  0
APPID
  5
165F
330
15E7
100
AcDbSymbolTableRecord
100
AcDbRegAppTableRecord
  2
GENIUS_GENOREF_13
 70
     0
  0
APPID
  5
1660
330
15E7
100
AcDbSymbolTableRecord
100
AcDbRegAppTableRecord
  2
GENIUS_GENOLIS_13
 70
     0
  0
APPID
  5
1661
330
15E7
100
AcDbSymbolTableRecord
100
AcDbRegAppTableRecord
  2
GENIUS_GEFCFG0_13
 70
     0
  0
APPID
  5
1662
330
15E7
100
AcDbSymbolTableRecord
100
AcDbRegAppTableRecord
  2
GENIUS_VERSION2
 70
     0
  0
APPID
  5
1663
330
15E7
100
AcDbSymbolTableRecord
100
AcDbRegAppTableRecord
  2
GENIUS_GENREC_14
 70
     0
  0
APPID
  5
1664
330
15E7
100
AcDbSymbolTableRecord
100
AcDbRegAppTableRecord
  2
GENIUS_GENOBJ-N-REC_13
 70
     0
  0
APPID
  5
1665
330
15E7
100
AcDbSymbolTableRecord
100
AcDbRegAppTableRecord
  2
GENIUS_GENOBJ-N-TIT_13
 70
     0
  0
APPID
  5
1666
330
15E7
100
AcDbSymbolTableRecord
100
AcDbRegAppTableRecord
  2
GENIUS_GENTITLE_13
 70
     0
  0
APPID
  5
1667
330
15E7
100
AcDbSymbolTableRecord
100
AcDbRegAppTableRecord
  2
GENIUS_GENZVEED_13
 70
     0
  0
APPID
  5
1668
330
15E7
100
AcDbSymbolTableRecord
100
AcDbRegAppTableRecord
  2
GENIUS_GENOBJ-N-SDF_13
 70
     0
  0
APPID
  5
1669
330
15E7
100
AcDbSymbolTableRecord
100
AcDbRegAppTableRecord
  2
GENIUS_GENSCREG_13
 70
     0
  0
APPID
  5
166A
330
15E7
100
AcDbSymbolTableRecord
100
AcDbRegAppTableRecord
  2
GENIUS_GENBLKED_14
 70
     0
  0
APPID
  5
182A
330
15E7
100
AcDbSymbolTableRecord
100
AcDbRegAppTableRecord
  2
GENIUS_GENOBJ-N-HTC_13
 70
     0
  0
APPID
  5
182B
330
15E7
100
AcDbSymbolTableRecord
100
AcDbRegAppTableRecord
  2
GENIUS_GENHATCH_13
 70
     0
  0
APPID
  5
197E
330
15E7
100
AcDbSymbolTableRecord
100
AcDbRegAppTableRecord
  2
MCAD_NO_VIS
 70
     0
  0
APPID
  5
197F
330
15E7
100
AcDbSymbolTableRecord
100
AcDbRegAppTableRecord
  2
ACAD_TEMP_GRAPHIC
 70
     0
  0
APPID
  5
19AF
330
15E7
100
AcDbSymbolTableRecord
100
AcDbRegAppTableRecord
  2
AD_DRAW
 70
     0
  0
APPID
  5
19B2
330
15E7
100
AcDbSymbolTableRecord
100
AcDbRegAppTableRecord
  2
ACATTRIBSERVICES
 70
     0
  0
APPID
  5
19D2
330
15E7
100
AcDbSymbolTableRecord
100
AcDbRegAppTableRecord
  2
DESIGNERASSEMBLIES
 70
     0
  0
APPID
  5
19D8
330
15E7
100
AcDbSymbolTableRecord
100
AcDbRegAppTableRecord
  2
ACADM_DIM_EDIT
 70
     0
  0
APPID
  5
19D9
330
15E7
100
AcDbSymbolTableRecord
100
AcDbRegAppTableRecord
  2
AMDT_DM_ADJ
 70
     0
  0
APPID
  5
1A0B
330
15E7
100
AcDbSymbolTableRecord
100
AcDbRegAppTableRecord
  2
ACAD_DSTYLE_DIMARC_LENGTH_SYMBOL
 70
     0
  0
APPID
  5
1A0C
330
15E7
100
AcDbSymbolTableRecord
100
AcDbRegAppTableRecord
  2
ACAD_DSTYLE_DIMJOGGED_JOGANGLE_SYMBOL
 70
     0
  0
APPID
  5
1A42
330
15E7
100
AcDbSymbolTableRecord
100
AcDbRegAppTableRecord
  2
AcAecLayerStandard
 70
     0
  0
APPID
  5
1A7F
330
15E7
100
AcDbSymbolTableRecord
100
AcDbRegAppTableRecord
  2
GENIUS_GENOBJ-N-CEN_13
 70
     0
  0
APPID
  5
1A80
330
15E7
100
AcDbSymbolTableRecord
100
AcDbRegAppTableRecord
  2
GENIUS_GENCEN_19
 70
     0
  0
ENDTAB
  0
TABLE
  2
DIMSTYLE
  5
15E8
330
0
100
AcDbSymbolTable
 70
     8
100
AcDbDimStyleTable
 71
     0
  0
DIMSTYLE
105
160F
102
{ACAD_REACTORS
330
1591
330
159A
330
15A4
330
15AE
330
15B9
102
}
330
15E8
100
AcDbSymbolTableRecord
100
AcDbDimStyleTableRecord
  2
GEN-ISO
 70
     0
  4
"
 40
5.0
 41
2.5
 42
1.0
 43
7.0
 44
1.0
 47
0.1
 48
0.1
 73
     0
 74
     0
 77
     1
 78
     8
140
3.5
141
0.0
143
0.03937
146
0.71
147
0.6
172
     1
176
   256
177
   256
178
     2
271
     2
272
     3
274
     4
283
     0
340
15ED
  0
DIMSTYLE
105
1A0A
330
15E8
100
AcDbSymbolTableRecord
100
AcDbDimStyleTableRecord
  2
AM_DIN
 70
     0
  4
"
 41
2.5
 42
1.0
 43
10.0
 44
1.0
 47
0.1
 48
0.1
 73
     0
 74
     0
 77
     1
 78
     8
 79
     2
140
3.5
141
0.0
143
0.0393701
146
0.71
147
1.5
172
     1
176
   256
177
   256
178
     2
271
     2
272
     3
274
     4
283
     0
284
     8
340
15ED
371
    -1
372
    -1
1001
ACAD_DSTYLE_DIMARC_LENGTH_SYMBOL
1070
   379
1070
     0
1001
ACAD_DSTYLE_DIMJOGGED_JOGANGLE_SYMBOL
1070
   384
1040
1.570796326794896
  0
DIMSTYLE
105
1A1B
330
15E8
100
AcDbSymbolTableRecord
100
AcDbDimStyleTableRecord
  2
AM_DIN$3
 70
     0
  4
"
 41
2.5
 42
1.0
 43
10.0
 44
1.0
 47
0.1
 48
0.1
 73
     0
 77
     1
 78
     8
 79
     2
140
3.5
141
0.0
143
0.0393701
146
0.71
147
1.5
176
   256
177
   256
178
     2
271
     2
272
     3
274
     4
283
     0
284
     8
288
     1
289
     0
340
15ED
371
    -1
372
    -1
1001
ACAD_DSTYLE_DIMARC_LENGTH_SYMBOL
1070
   379
1070
     0
1001
ACAD_DSTYLE_DIMJOGGED_JOGANGLE_SYMBOL
1070
   384
1040
1.570796326794896
  0
DIMSTYLE
105
1A20
330
15E8
100
AcDbSymbolTableRecord
100
AcDbDimStyleTableRecord
  2
AM_DIN$4
 70
     0
  4
"
 41
2.5
 42
1.0
 43
10.0
 44
1.0
 47
0.1
 48
0.1
 73
     0
 77
     1
 78
     8
 79
     2
140
3.5
141
0.0
143
0.0393701
146
0.71
147
1.5
176
   256
177
   256
178
     2
271
     2
272
     3
274
     4
283
     0
284
     8
288
     1
289
     0
340
15ED
371
    -1
372
    -1
1001
ACAD_DSTYLE_DIMARC_LENGTH_SYMBOL
1070
   379
1070
     0
1001
ACAD_DSTYLE_DIMJOGGED_JOGANGLE_SYMBOL
1070
   384
1040
1.570796326794896
  0
DIMSTYLE
105
1A25
330
15E8
100
AcDbSymbolTableRecord
100
AcDbDimStyleTableRecord
  2
AM_DIN$6
 70
     0
  4
"
 41
2.5
 42
1.0
 43
10.0
 44
1.0
 47
0.1
 48
0.1
 73
     0
 74
     0
 78
     8
 79
     2
140
3.5
141
0.0
143
0.0393701
146
0.71
147
1.5
172
     1
176
   256
177
   256
178
     2
271
     2
272
     3
274
     4
283
     0
284
     8
340
15ED
371
    -1
372
    -1
1001
ACAD_DSTYLE_DIMARC_LENGTH_SYMBOL
1070
   379
1070
     0
1001
ACAD_DSTYLE_DIMJOGGED_JOGANGLE_SYMBOL
1070
   384
1040
1.570796326794896
  0
DIMSTYLE
105
1A2A
330
15E8
100
AcDbSymbolTableRecord
100
AcDbDimStyleTableRecord
  2
AM_DIN$7
 70
     0
  4
"
 41
2.5
 42
1.0
 43
10.0
 44
1.0
 47
0.1
 48
0.1
 73
     0
 74
     0
 77
     1
 78
     8
 79
     2
140
5.0
141
0.0
143
0.0393701
146
0.71
147
1.5
172
     1
176
   256
177
   256
178
     2
271
     2
272
     3
274
     4
283
     0
284
     8
340
15ED
371
    -1
372
    -1
1001
ACAD_DSTYLE_DIMARC_LENGTH_SYMBOL
1070
   379
1070
     0
1001
ACAD_DSTYLE_DIMJOGGED_JOGANGLE_SYMBOL
1070
   384
1040
1.570796326794896
  0
DIMSTYLE
105
1A2F
330
15E8
100
AcDbSymbolTableRecord
100
AcDbDimStyleTableRecord
  2
AM_DIN$SF
 70
     0
  4
"
 41
2.5
 42
1.0
 43
10.0
 44
1.0
 47
0.1
 48
0.1
 73
     0
 74
     0
 75
     1
 76
     1
 77
     1
 78
     8
 79
     2
140
3.5
141
0.0
143
0.0393701
146
0.71
147
1.5
172
     1
176
   256
177
   256
178
     2
271
     2
272
     3
274
     4
283
     0
284
     8
340
15ED
371
    -1
372
    -1
1001
ACAD_DSTYLE_DIMARC_LENGTH_SYMBOL
1070
   379
1070
     0
1001
ACAD_DSTYLE_DIMJOGGED_JOGANGLE_SYMBOL
1070
   384
1040
1.570796326794896
  0
DIMSTYLE
105
1A38
330
15E8
100
AcDbSymbolTableRecord
100
AcDbDimStyleTableRecord
  2
AM_DIN$SH
 70
     0
  4
"
 41
2.5
 42
1.0
 43
10.0
 44
1.0
 47
0.1
 48
0.1
 73
     0
 74
     0
 75
     1
 76
     1
 77
     1
 78
     8
 79
     2
140
3.5
141
0.0
143
0.0393701
144
2.0
146
0.71
147
1.5
172
     1
173
     1
176
   256
177
   256
178
     2
271
     2
272
     3
274
     4
283
     0
284
     8
340
15ED
343
1A30
371
    -1
372
    -1
1001
ACAD_DSTYLE_DIMARC_LENGTH_SYMBOL
1070
   379
1070
     0
1001
ACAD_DSTYLE_DIMJOGGED_JOGANGLE_SYMBOL
1070
   384
1040
1.570796326794896
  0
ENDTAB
  0
TABLE
  2
BLOCK_RECORD
  5
15DF
330
0
100
AcDbSymbolTable
 70
    13
  0
BLOCK_RECORD
  5
15F6
330
15DF
100
AcDbSymbolTableRecord
100
AcDbBlockTableRecord
  2
*MODEL_SPACE
340
1976
  0
BLOCK_RECORD
  5
15F3
330
15DF
100
AcDbSymbolTableRecord
100
AcDbBlockTableRecord
  2
*PAPER_SPACE
340
1977
  0
BLOCK_RECORD
  5
1611
330
15DF
100
AcDbSymbolTableRecord
100
AcDbBlockTableRecord
  2
*X0
340
0
102
{BLKREFS
331
10B1
102
}
  0
BLOCK_RECORD
  5
1612
330
15DF
100
AcDbSymbolTableRecord
100
AcDbBlockTableRecord
  2
*X1
340
0
102
{BLKREFS
331
10D9
102
}
  0
BLOCK_RECORD
  5
1614
330
15DF
100
AcDbSymbolTableRecord
100
AcDbBlockTableRecord
  2
*X2
340
0
102
{BLKREFS
331
11DF
102
}
  0
BLOCK_RECORD
  5
1630
330
15DF
100
AcDbSymbolTableRecord
100
AcDbBlockTableRecord
  2
KATALOG_LEER
340
0
102
{BLKREFS
331
166C
331
1714
102
}
  0
BLOCK_RECORD
  5
166B
330
15DF
100
AcDbSymbolTableRecord
100
AcDbBlockTableRecord
  2
KATALOG
340
0
  0
BLOCK_RECORD
  5
168B
330
15DF
100
AcDbSymbolTableRecord
100
AcDbBlockTableRecord
  2
*D5
340
0
  0
BLOCK_RECORD
  5
1697
330
15DF
100
AcDbSymbolTableRecord
100
AcDbBlockTableRecord
  2
*D6
340
0
  0
BLOCK_RECORD
  5
16B2
330
15DF
100
AcDbSymbolTableRecord
100
AcDbBlockTableRecord
  2
*D7
340
0
  0
BLOCK_RECORD
  5
16C9
330
15DF
100
AcDbSymbolTableRecord
100
AcDbBlockTableRecord
  2
*D8
340
0
  0
BLOCK_RECORD
  5
16E0
330
15DF
100
AcDbSymbolTableRecord
100
AcDbBlockTableRecord
  2
*D9
340
0
  0
BLOCK_RECORD
  5
1A30
330
15DF
100
AcDbSymbolTableRecord
100
AcDbBlockTableRecord
  2
GENAXEH
340
0
  0
ENDTAB
  0
ENDSEC
  0
SECTION
  2
BLOCKS
  0
BLOCK
  5
15F7
330
15F6
100
AcDbEntity
  8
0
100
AcDbBlockBegin
  2
*MODEL_SPACE
 70
     0
 10
0.0
 20
0.0
 30
0.0
  3
*MODEL_SPACE
  1

  0
ENDBLK
  5
15F8
330
15F6
100
AcDbEntity
  8
0
100
AcDbBlockEnd
  0
BLOCK
  5
15F4
330
15F3
100
AcDbEntity
 67
     1
  8
0
100
AcDbBlockBegin
  2
*PAPER_SPACE
 70
     0
 10
0.0
 20
0.0
 30
0.0
  3
*PAPER_SPACE
  1

  0
ENDBLK
  5
15F5
330
15F3
100
AcDbEntity
 67
     1
  8
0
100
AcDbBlockEnd
  0
BLOCK
  5
10AC
330
1611
100
AcDbEntity
  8
0
100
AcDbBlockBegin
  2
*X0
 70
     1
 10
0.0
 20
0.0
 30
0.0
  3
*X0
  1

  0
LINE
  5
10AD
330
1611
100
AcDbEntity
  8
8
100
AcDbLine
 10
180.5059999999999
 20
514.6599999999999
 30
0.0
 11
188.139
 21
522.2919999999999
 31
0.0
  0
LINE
  5
10AE
330
1611
100
AcDbEntity
  8
8
100
AcDbLine
 10
178.452
 20
517.096
 30
0.0
 11
185.684
 21
524.3269999999999
 31
0.0
  0
LINE
  5
10AF
330
1611
100
AcDbEntity
  8
8
100
AcDbLine
 10
178.627
 20
521.7609999999999
 30
0.0
 11
181.013
 21
524.146
 31
0.0
  0
ENDBLK
  5
10B0
330
1611
100
AcDbEntity
  8
0
100
AcDbBlockEnd
  0
BLOCK
  5
10D4
330
1612
100
AcDbEntity
  8
0
100
AcDbBlockBegin
  2
*X1
 70
     1
 10
0.0
 20
0.0
 30
0.0
  3
*X1
  1

  0
LINE
  5
10D5
330
1612
100
AcDbEntity
  8
8
100
AcDbLine
 10
178.041
 20
519.62
 30
0.0
 11
183.855
 21
513.806
 31
0.0
  0
LINE
  5
10D6
330
1612
100
AcDbEntity
  8
8
100
AcDbLine
 10
179.313
 20
522.838
 30
0.0
 11
187.072
 21
515.079
 31
0.0
  0
LINE
  5
10D7
330
1612
100
AcDbEntity
  8
8
100
AcDbLine
 10
182.062
 20
524.579
 30
0.0
 11
188.852
 21
517.7889999999999
 31
0.0
  0
ENDBLK
  5
10D8
330
1612
100
AcDbEntity
  8
0
100
AcDbBlockEnd
  0
BLOCK
  5
11D7
330
1614
100
AcDbEntity
  8
0
100
AcDbBlockBegin
  2
*X2
 70
     1
 10
0.0
 20
0.0
 30
0.0
  3
*X2
  1

  0
LINE
  5
11D8
330
1614
100
AcDbEntity
  8
8
100
AcDbLine
 10
344.186
 20
514.1449999999999
 30
0.0
 11
351.249
 21
521.2080000000001
 31
0.0
  0
LINE
  5
11D9
330
1614
100
AcDbEntity
  8
8
100
AcDbLine
 10
341.6409999999999
 20
516.091
 30
0.0
 11
349.303
 21
523.753
 31
0.0
  0
LINE
  5
11DA
330
1614
100
AcDbEntity
  8
8
100
AcDbLine
 10
340.627
 20
519.5669999999999
 30
0.0
 11
345.828
 21
524.7669999999999
 31
0.0
  0
LINE
  5
11DB
330
1614
100
AcDbEntity
  8
8
100
AcDbLine
 10
351.562
 20
518.6649999999999
 30
0.0
 11
345.4969999999999
 21
524.73
 31
0.0
  0
LINE
  5
11DC
330
1614
100
AcDbEntity
  8
8
100
AcDbLine
 10
350.176
 20
515.5599999999999
 30
0.0
 11
342.407
 21
523.33
 31
0.0
  0
LINE
  5
11DD
330
1614
100
AcDbEntity
  8
8
100
AcDbLine
 10
347.345
 20
513.9019999999999
 30
0.0
 11
340.734
 21
520.5119999999999
 31
0.0
  0
ENDBLK
  5
11DE
330
1614
100
AcDbEntity
  8
0
100
AcDbBlockEnd
  0
BLOCK
  5
1631
330
1630
100
AcDbEntity
  8
0
100
AcDbBlockBegin
  2
KATALOG_LEER
 70
     0
 10
0.0
 20
0.0
 30
0.0
  3
KATALOG_LEER
  1

  0
ENDBLK
  5
1632
330
1630
100
AcDbEntity
  8
0
100
AcDbBlockEnd
  0
BLOCK
  5
167D
330
166B
100
AcDbEntity
  8
0
100
AcDbBlockBegin
  2
KATALOG
 70
     0
 10
0.0
 20
0.0
 30
0.0
  3
KATALOG
  1

  0
INSERT
  5
166C
330
166B
100
AcDbEntity
  8
0
100
AcDbBlockReference
  2
KATALOG_LEER
 10
205.0
 20
5.0
 30
0.0
1001
GENIUS_GENOREF_13
1005
166D
  0
POINT
  5
166D
330
166B
100
AcDbEntity
  8
0
 60
     1
100
AcDbPoint
 10
0.0
 20
0.0
 30
0.0
1001
GENIUS_GENOBJ-N-TIT_13
1002
{
1000
OWNER
1000
GEN
1002
}
1001
GENIUS_GENOENT_13
1002
{
1000
MYREF
1005
166D
1002
}
1002
{
1000
GRP
1005
0
1002
}
1001
GENIUS_GENOLIS_13
1002
{
1000
ENT
1005
166C
1005
0
1002
}
1001
GENIUS_GENTITLE_13
1002
{
1000
SCALE
1000
1:1
1002
}
1002
{
1000
BORDER
1000
KATALOG
1002
}
1002
{
1000
TITLE
1000
KATALOG_LEER
1002
}
1002
{
1000
UNCHG
1002
{
1000
GEN-TITLE-SCA
1000
GEN-TITLE-SIZ
1002
}
1002
}
1002
{
1000
HRA
1005
0
1002
}
1002
{
1000
HTIT
1005
166C
1002
}
1002
{
1000
GENIUSID
1005
166D
1002
}
1001
GENIUS_GENODEF_13
1002
{
1000
HIER
1070
     1
1002
}
1002
{
1000
MANEDIT
1070
     0
1002
}
1002
{
1000
NOSEL
1070
     0
1002
}
1002
{
1000
BEHIND
1070
     0
1002
}
1002
{
1000
REACTOR
1002
}
  0
TEXT
  5
166E
330
166B
100
AcDbEntity
  8
RAHM3
 60
     1
100
AcDbText
 10
29.391383
 20
162.283165
 30
0.0
 40
3.5
  1
!GENTITLE-MAX
100
AcDbText
  0
TEXT
  5
166F
330
166B
100
AcDbEntity
  8
RAHM3
 60
     1
100
AcDbText
 10
30.988432
 20
153.503279
 30
0.0
 40
3.5
  1
!GENTITLE-RU
100
AcDbText
  0
TEXT
  5
1670
330
166B
100
AcDbEntity
  8
RAHM3
 60
     1
100
AcDbText
 10
-85.995418
 20
56.924537
 30
0.0
 40
3.5
  1
!GENTITLE-LL
100
AcDbText
  0
TEXT
  5
1671
330
166B
100
AcDbEntity
  8
RAHM3
 60
     1
100
AcDbText
 10
50.36794099999999
 20
2.260896999999999
 30
0.0
 40
3.5
  1
!GENTITLE-INSERT
100
AcDbText
  0
LINE
  5
1672
330
166B
100
AcDbEntity
  8
RAHM2
100
AcDbLine
 10
0.0
 20
0.0
 30
0.0
 11
148.5
 21
0.0
 31
0.0
  0
LINE
  5
1673
330
166B
100
AcDbEntity
  8
RAHM2
100
AcDbLine
 10
148.5
 20
210.0
 30
0.0
 11
0.0
 21
210.0
 31
0.0
  0
LINE
  5
1674
330
166B
100
AcDbEntity
  8
RAHM2
100
AcDbLine
 10
0.0
 20
210.0
 30
0.0
 11
0.0
 21
0.0
 31
0.0
  0
TEXT
  5
1675
330
166B
100
AcDbEntity
  8
RAHM3
 60
     1
100
AcDbText
 10
184.023441
 20
165.022268
 30
0.0
 40
3.5
  1
!GENTITLE-MAX
100
AcDbText
  0
TEXT
  5
1676
330
166B
100
AcDbEntity
  8
RAHM3
 60
     1
100
AcDbText
 10
185.620491
 20
156.242382
 30
0.0
 40
3.5
  1
!GENTITLE-RU
100
AcDbText
  0
TEXT
  5
1677
330
166B
100
AcDbEntity
  8
RAHM3
 60
     1
100
AcDbText
 10
68.636641
 20
59.663641
 30
0.0
 40
3.5
  1
!GENTITLE-LL
100
AcDbText
  0
TEXT
  5
1678
330
166B
100
AcDbEntity
  8
RAHM3
 60
     1
100
AcDbText
 10
205.0
 20
5.0
 30
0.0
 40
3.5
  1
!GENTITLE-INSERT
100
AcDbText
  0
LINE
  5
1679
330
166B
100
AcDbEntity
  8
RAHM2
100
AcDbLine
 10
148.5
 20
0.0
 30
0.0
 11
148.5
 21
210.0
 31
0.0
  0
LINE
  5
167A
330
166B
100
AcDbEntity
  8
RAHM2
100
AcDbLine
 10
210.0
 20
148.5
 30
0.0
 11
0.0
 21
148.5
 31
0.0
  0
LINE
  5
167B
330
166B
100
AcDbEntity
  8
RAHM2
100
AcDbLine
 10
210.0
 20
0.0
 30
0.0
 11
210.0
 21
148.5
 31
0.0
  0
LINE
  5
167C
330
166B
100
AcDbEntity
  8
RAHM2
100
AcDbLine
 10
0.0
 20
0.0
 30
0.0
 11
210.0
 21
0.0
 31
0.0
  0
ENDBLK
  5
167E
330
166B
100
AcDbEntity
  8
0
100
AcDbBlockEnd
  0
BLOCK
  5
194C
330
168B
100
AcDbEntity
  8
0
100
AcDbBlockBegin
  2
*D5
 70
     1
 10
0.0
 20
0.0
 30
0.0
  3
*D5
  1

  0
LINE
  5
1B4F
330
168B
100
AcDbEntity
  8
5
370
    -2
100
AcDbLine
 10
-163.8497911787238
 20
363.2234379760986
 30
0.0
 11
-393.8041564813801
 21
363.2234379760987
 31
0.0
  0
LINE
  5
1B50
330
168B
100
AcDbEntity
  8
5
370
    -2
100
AcDbLine
 10
-262.37329048138
 20
538.2234411316256
 30
0.0
 11
-393.80415648138
 21
538.2234411316256
 31
0.0
  0
LINE
  5
1B51
330
168B
100
AcDbEntity
  8
5
370
    -2
100
AcDbLine
 10
-388.8041564813801
 20
375.7234379760987
 30
0.0
 11
-388.80415648138
 21
525.7234411316256
 31
0.0
  0
SOLID
  5
1B52
330
168B
100
AcDbEntity
  8
5
100
AcDbTrace
 10
-390.8874898147134
 20
375.7234379760987
 30
0.0
 11
-386.7208231480467
 21
375.7234379760987
 31
0.0
 12
-388.8041564813801
 22
363.2234379760987
 32
0.0
 13
-388.8041564813801
 23
363.2234379760987
 33
0.0
  0
SOLID
  5
1B53
330
168B
100
AcDbEntity
  8
5
100
AcDbTrace
 10
-390.8874898147133
 20
525.7234411316256
 30
0.0
 11
-386.7208231480467
 21
525.7234411316256
 31
0.0
 12
-388.80415648138
 22
538.2234411316256
 32
0.0
 13
-388.80415648138
 23
538.2234411316256
 33
0.0
  0
MTEXT
  5
1B54
330
168B
100
AcDbEntity
  8
5
 62
     2
100
AcDbMText
 10
-400.5541564813801
 20
450.723439553862
 30
0.0
 40
17.5
 41
0.0
 71
     5
 72
     1
  1
175
 11
0.0000000000000001
 21
1.0
 31
0.0
 73
     1
 44
1.0
1001
ACAD
1000
MTEXTBEGIN
1070
    73
1070
     1
1070
    44
1040
1.0
1070
    74
1070
     0
1000
MTEXTEND
  0
POINT
  5
1B55
330
168B
100
AcDbEntity
  8
DEFPOINTS
 62
     0
100
AcDbPoint
 10
-158.8497911787239
 20
363.2234379760986
 30
0.0
  0
POINT
  5
1B56
330
168B
100
AcDbEntity
  8
DEFPOINTS
 62
     0
100
AcDbPoint
 10
-257.37329048138
 20
538.2234411316256
 30
0.0
  0
POINT
  5
1B57
330
168B
100
AcDbEntity
  8
DEFPOINTS
 62
     0
100
AcDbPoint
 10
-388.80415648138
 20
538.2234411316256
 30
0.0
  0
ENDBLK
  5
1956
330
168B
100
AcDbEntity
  8
0
100
AcDbBlockEnd
  0
BLOCK
  5
17DA
330
1697
100
AcDbEntity
  8
0
100
AcDbBlockBegin
  2
*D6
 70
     1
 10
0.0
 20
0.0
 30
0.0
  3
*D6
  1

  0
LINE
  5
1B44
330
1697
100
AcDbEntity
  8
5
370
    -2
100
AcDbLine
 10
-278.34629048138
 20
160.2234411316256
 30
0.0
 11
-343.87329048138
 21
160.2234411316256
 31
0.0
  0
LINE
  5
1B45
330
1697
100
AcDbEntity
  8
5
370
    -2
100
AcDbLine
 10
-278.34629048138
 20
169.2234411316255
 30
0.0
 11
-343.87329048138
 21
169.2234411316256
 31
0.0
  0
LINE
  5
1B46
330
1697
100
AcDbEntity
  8
5
370
    -2
100
AcDbLine
 10
-338.87329048138
 20
147.7234411316256
 30
0.0
 11
-338.87329048138
 21
135.2234411316256
 31
0.0
  0
LINE
  5
1B47
330
1697
100
AcDbEntity
  8
5
370
    -2
100
AcDbLine
 10
-338.87329048138
 20
181.7234411316256
 30
0.0
 11
-338.87329048138
 21
209.1400499646595
 31
0.0
  0
LINE
  5
1B48
330
1697
100
AcDbEntity
  8
5
370
    -2
100
AcDbLine
 10
-338.87329048138
 20
160.2234411316256
 30
0.0
 11
-338.87329048138
 21
169.2234411316256
 31
0.0
  0
SOLID
  5
1B49
330
1697
100
AcDbEntity
  8
5
100
AcDbTrace
 10
-340.9566238147133
 20
147.7234411316256
 30
0.0
 11
-336.7899571480466
 21
147.7234411316256
 31
0.0
 12
-338.87329048138
 22
160.2234411316256
 32
0.0
 13
-338.87329048138
 23
160.2234411316256
 33
0.0
  0
SOLID
  5
1B4A
330
1697
100
AcDbEntity
  8
5
100
AcDbTrace
 10
-340.9566238147133
 20
181.7234411316256
 30
0.0
 11
-336.7899571480466
 21
181.7234411316256
 31
0.0
 12
-338.87329048138
 22
169.2234411316256
 32
0.0
 13
-338.87329048138
 23
169.2234411316256
 33
0.0
  0
MTEXT
  5
1B4B
330
1697
100
AcDbEntity
  8
5
 62
     2
100
AcDbMText
 10
-350.62329048138
 20
201.6817455481425
 30
0.0
 40
17.5
 41
0.0
 71
     5
 72
     1
  1
9
 11
0.0000000000000001
 21
1.0
 31
0.0
 73
     1
 44
1.0
1001
ACAD
1000
MTEXTBEGIN
1070
    73
1070
     1
1070
    44
1040
1.0
1070
    74
1070
     0
1000
MTEXTEND
  0
POINT
  5
1B4C
330
1697
100
AcDbEntity
  8
DEFPOINTS
 62
     0
100
AcDbPoint
 10
-273.34629048138
 20
160.2234411316256
 30
0.0
  0
POINT
  5
1B4D
330
1697
100
AcDbEntity
  8
DEFPOINTS
 62
     0
100
AcDbPoint
 10
-273.34629048138
 20
169.2234411316255
 30
0.0
  0
POINT
  5
1B4E
330
1697
100
AcDbEntity
  8
DEFPOINTS
 62
     0
100
AcDbPoint
 10
-338.87329048138
 20
169.2234411316256
 30
0.0
  0
ENDBLK
  5
17E6
330
1697
100
AcDbEntity
  8
0
100
AcDbBlockEnd
  0
BLOCK
  5
17FE
330
16B2
100
AcDbEntity
  8
0
100
AcDbBlockBegin
  2
*D7
 70
     1
 10
0.0
 20
0.0
 30
0.0
  3
*D7
  1

  0
LINE
  5
1B3B
330
16B2
100
AcDbEntity
  8
5
370
    -2
100
AcDbLine
 10
-288.87329048138
 20
132.2064411316256
 30
0.0
 11
-288.87329048138
 21
11.22344113162559
 31
0.0
  0
LINE
  5
1B3C
330
16B2
100
AcDbEntity
  8
5
370
    -2
100
AcDbLine
 10
-28.87329048138008
 20
132.2064411316256
 30
0.0
 11
-28.87329048138009
 21
11.22344113162559
 31
0.0
  0
LINE
  5
1B3D
330
16B2
100
AcDbEntity
  8
5
370
    -2
100
AcDbLine
 10
-276.37329048138
 20
16.22344113162559
 30
0.0
 11
-41.37329048138009
 21
16.22344113162559
 31
0.0
  0
SOLID
  5
1B3E
330
16B2
100
AcDbEntity
  8
5
100
AcDbTrace
 10
-276.37329048138
 20
18.30677446495892
 30
0.0
 11
-276.37329048138
 21
14.14010779829226
 31
0.0
 12
-288.87329048138
 22
16.22344113162559
 32
0.0
 13
-288.87329048138
 23
16.22344113162559
 33
0.0
  0
SOLID
  5
1B3F
330
16B2
100
AcDbEntity
  8
5
100
AcDbTrace
 10
-41.37329048138009
 20
18.30677446495892
 30
0.0
 11
-41.37329048138009
 21
14.14010779829226
 31
0.0
 12
-28.87329048138009
 22
16.22344113162559
 32
0.0
 13
-28.87329048138009
 23
16.22344113162559
 33
0.0
  0
MTEXT
  5
1B40
330
16B2
100
AcDbEntity
  8
5
 62
     2
100
AcDbMText
 10
-158.87329048138
 20
27.97516357257047
 30
0.0
 40
17.5
 41
0.0
 71
     5
 72
     1
  1
260
 73
     1
 44
1.0
1001
ACAD
1000
MTEXTBEGIN
1070
    73
1070
     1
1070
    44
1040
1.0
1070
    74
1070
     0
1000
MTEXTEND
  0
POINT
  5
1B41
330
16B2
100
AcDbEntity
  8
DEFPOINTS
 62
     0
100
AcDbPoint
 10
-288.87329048138
 20
137.2064411316256
 30
0.0
  0
POINT
  5
1B42
330
16B2
100
AcDbEntity
  8
DEFPOINTS
 62
     0
100
AcDbPoint
 10
-28.87329048138008
 20
137.2064411316256
 30
0.0
  0
POINT
  5
1B43
330
16B2
100
AcDbEntity
  8
DEFPOINTS
 62
     0
100
AcDbPoint
 10
-28.87329048138009
 20
16.22344113162559
 30
0.0
  0
ENDBLK
  5
1808
330
16B2
100
AcDbEntity
  8
0
100
AcDbBlockEnd
  0
BLOCK
  5
1817
330
16C9
100
AcDbEntity
  8
0
100
AcDbBlockBegin
  2
*D8
 70
     1
 10
0.0
 20
0.0
 30
0.0
  3
*D8
  1
GEVFRAME
  0
LINE
  5
1B32
330
16C9
100
AcDbEntity
  8
5
370
    -2
100
AcDbLine
 10
-264.46629048138
 20
66.22344113162558
 30
0.0
 11
-378.87329048138
 21
66.22344113162561
 31
0.0
  0
LINE
  5
1B33
330
16C9
100
AcDbEntity
  8
5
370
    -2
100
AcDbLine
 10
-264.46629048138
 20
263.2234411316256
 30
0.0
 11
-378.87329048138
 21
263.2234411316256
 31
0.0
  0
LINE
  5
1B34
330
16C9
100
AcDbEntity
  8
5
370
    -2
100
AcDbLine
 10
-373.87329048138
 20
78.72344113162561
 30
0.0
 11
-373.87329048138
 21
250.7234411316256
 31
0.0
  0
SOLID
  5
1B35
330
16C9
100
AcDbEntity
  8
5
100
AcDbTrace
 10
-375.9566238147133
 20
78.72344113162561
 30
0.0
 11
-371.7899571480467
 21
78.72344113162561
 31
0.0
 12
-373.87329048138
 22
66.22344113162561
 32
0.0
 13
-373.87329048138
 23
66.22344113162561
 33
0.0
  0
SOLID
  5
1B36
330
16C9
100
AcDbEntity
  8
5
100
AcDbTrace
 10
-375.9566238147133
 20
250.7234411316256
 30
0.0
 11
-371.7899571480467
 21
250.7234411316256
 31
0.0
 12
-373.87329048138
 22
263.2234411316256
 32
0.0
 13
-373.87329048138
 23
263.2234411316256
 33
0.0
  0
MTEXT
  5
1B37
330
16C9
100
AcDbEntity
  8
5
 62
     2
100
AcDbMText
 10
-385.62329048138
 20
164.7234411316255
 30
0.0
 40
17.5
 41
0.0
 71
     5
 72
     1
  1
{\Fgeniso.shx|c0;\U+25A1}197
 11
0.0000000000000001
 21
1.0
 31
0.0
 73
     1
 44
1.0
1001
ACAD
1000
MTEXTBEGIN
1070
    73
1070
     1
1070
    44
1040
1.0
1070
    74
1070
     0
1000
MTEXTEND
  0
POINT
  5
1B38
330
16C9
100
AcDbEntity
  8
DEFPOINTS
 62
     0
100
AcDbPoint
 10
-259.46629048138
 20
66.22344113162558
 30
0.0
  0
POINT
  5
1B39
330
16C9
100
AcDbEntity
  8
DEFPOINTS
 62
     0
100
AcDbPoint
 10
-259.46629048138
 20
263.2234411316256
 30
0.0
  0
POINT
  5
1B3A
330
16C9
100
AcDbEntity
  8
DEFPOINTS
 62
     0
100
AcDbPoint
 10
-373.87329048138
 20
263.2234411316256
 30
0.0
  0
ENDBLK
  5
1821
330
16C9
100
AcDbEntity
  8
0
100
AcDbBlockEnd
  0
BLOCK
  5
179F
330
16E0
100
AcDbEntity
  8
0
100
AcDbBlockBegin
  2
*D9
 70
     1
 10
0.0
 20
0.0
 30
0.0
  3
*D9
  1

  0
LINE
  5
1B29
330
16E0
100
AcDbEntity
  8
5
370
    -2
100
AcDbLine
 10
-293.8732904806185
 20
488.2235283980884
 30
0.0
 11
-343.8046550873987
 21
488.2243998648035
 31
0.0
  0
LINE
  5
1B2A
330
16E0
100
AcDbEntity
  8
5
370
    -2
100
AcDbLine
 10
-311.8702904806184
 20
538.2205283980884
 30
0.0
 11
-343.8037824806124
 21
538.2210857426672
 31
0.0
  0
LINE
  5
1B2B
330
16E0
100
AcDbEntity
  8
5
370
    -2
100
AcDbLine
 10
-338.8044369220031
 20
500.7243125964368
 30
0.0
 11
-338.8040006475311
 21
525.7209984781082
 31
0.0
  0
SOLID
  5
1B2C
330
16E0
100
AcDbEntity
  8
5
100
AcDbTrace
 10
-340.8877702550191
 20
500.724348957463
 30
0.0
 11
-336.7211035889871
 21
500.7242762354106
 31
0.0
 12
-338.8046550881603
 22
488.2243125983406
 32
0.0
 13
-338.8046550881603
 23
488.2243125983406
 33
0.0
  0
SOLID
  5
1B2D
330
16E0
100
AcDbEntity
  8
5
100
AcDbTrace
 10
-340.8873339805471
 20
525.7210348391343
 30
0.0
 11
-336.720667314515
 21
525.720962117082
 31
0.0
 12
-338.8037824813739
 22
538.2209984762043
 32
0.0
 13
-338.8037824813739
 23
538.2209984762043
 33
0.0
  0
MTEXT
  5
1B2E
330
16E0
100
AcDbEntity
  8
5
 62
     2
100
AcDbMText
 10
-350.5542187829775
 20
513.2228606134601
 30
0.0
 40
17.5
 41
0.0
 71
     5
 72
     1
  1
50
 11
0.0000174532925713
 21
0.9999999998476912
 31
0.0
 73
     1
 44
1.0
1001
ACAD
1000
MTEXTBEGIN
1070
    73
1070
     1
1070
    44
1040
1.0
1070
    74
1070
     0
1000
MTEXTEND
  0
POINT
  5
1B2F
330
16E0
100
AcDbEntity
  8
DEFPOINTS
 62
     0
100
AcDbPoint
 10
-288.87329048138
 20
488.2234411316256
 30
0.0
  0
POINT
  5
1B30
330
16E0
100
AcDbEntity
  8
DEFPOINTS
 62
     0
100
AcDbPoint
 10
-306.8702904813799
 20
538.2204411316256
 30
0.0
  0
POINT
  5
1B31
330
16E0
100
AcDbEntity
  8
DEFPOINTS
 62
     0
100
AcDbPoint
 10
-338.8037824813739
 20
538.2209984762043
 30
0.0
  0
ENDBLK
  5
17A9
330
16E0
100
AcDbEntity
  8
0
100
AcDbBlockEnd
  0
BLOCK
  5
1A32
330
1A30
100
AcDbEntity
  8
0
100
AcDbBlockBegin
  2
GENAXEH
 70
     0
 10
0.0
 20
0.0
 30
0.0
  3
GENAXEH
  1

  0
LINE
  5
1A31
330
1A30
100
AcDbEntity
  8
0
100
AcDbLine
 10
-1.0
 20
0.0
 30
0.0
 11
1.0
 21
0.0
 31
0.0
  0
ENDBLK
  5
1A33
330
1A30
100
AcDbEntity
  8
0
100
AcDbBlockEnd
  0
ENDSEC
  0
SECTION
  2
ENTITIES
  0
POINT
  5
1001
330
15F6
100
AcDbEntity
  8
PUNKTE
100
AcDbPoint
 10
-273.34629048138
 20
169.2234411316255
 30
0.0
  0
POINT
  5
1002
330
15F6
100
AcDbEntity
  8
PUNKTE
100
AcDbPoint
 10
-273.34629048138
 20
160.2234411316256
 30
0.0
  0
LINE
  5
1003
330
15F6
100
AcDbEntity
  8
0
100
AcDbLine
 10
-257.37329048138
 20
538.2234411316256
 30
0.0
 11
-158.87329048138
 21
538.2234411316256
 31
0.0
  0
LINE
  5
1004
330
15F6
100
AcDbEntity
  8
0
100
AcDbLine
 10
-259.46729048138
 20
498.2784411316256
 30
0.0
 11
-257.37329048138
 21
538.2234411316256
 31
0.0
  0
LINE
  5
1005
330
15F6
100
AcDbEntity
  8
0
100
AcDbLine
 10
-288.87329048138
 20
488.2234411316256
 30
0.0
 11
-288.35029048138
 21
498.2094411316256
 31
0.0
  0
LINE
  5
1006
330
15F6
100
AcDbEntity
  8
0
100
AcDbLine
 10
-259.46629048138
 20
498.2784411316256
 30
0.0
 11
-288.34629048138
 21
498.2784411316256
 31
0.0
  0
LINE
  5
1007
330
15F6
100
AcDbEntity
  8
0
100
AcDbLine
 10
-245.66429048138
 20
497.6274411316256
 30
0.0
 11
-246.22229048138
 21
529.5664411316256
 31
0.0
  0
LINE
  5
1008
330
15F6
100
AcDbEntity
  8
0
100
AcDbLine
 10
-249.37329048138
 20
538.2234411316256
 30
0.0
 11
-246.22229048138
 21
529.5654411316256
 31
0.0
  0
ARC
  5
1009
330
15F6
100
AcDbEntity
  8
0
100
AcDbCircle
 10
-240.16529048138
 20
497.7234411316256
 30
0.0
 40
5.5
100
AcDbArc
 50
181.0000000000001
 51
270.0
  0
LINE
  5
100B
330
15F6
100
AcDbEntity
  8
0
100
AcDbLine
 10
-288.87329048138
 20
488.2234411316256
 30
0.0
 11
-253.69029048138
 21
488.2234411316256
 31
0.0
  0
ARC
  5
100E
330
15F6
100
AcDbEntity
  8
0
100
AcDbCircle
 10
-253.69029048138
 20
478.2234411316256
 30
0.0
 40
10.0
100
AcDbArc
 50
2.999999999999731
 51
90.0
  0
LINE
  5
100F
330
15F6
100
AcDbEntity
  8
0
100
AcDbLine
 10
-280.09629048138
 20
498.2784411316256
 30
0.0
 11
-277.84629048138
 21
488.2234411316256
 31
0.0
  0
LINE
  5
1010
330
15F6
100
AcDbEntity
  8
0
100
AcDbLine
 10
-268.84629048138
 20
488.2234411316256
 30
0.0
 11
-266.59629048138
 21
498.2784411316256
 31
0.0
  0
CIRCLE
  5
1011
330
15F6
100
AcDbEntity
  8
0
100
AcDbCircle
 10
-240.16529048138
 20
497.7234411316256
 30
0.0
 40
5.5
  0
LINE
  5
1012
330
15F6
100
AcDbEntity
  8
0
100
AcDbLine
 10
-88.37329048138002
 20
498.2234411316256
 30
0.0
 11
-234.68829048138
 21
498.2234411316256
 31
0.0
  0
LINE
  5
1013
330
15F6
100
AcDbEntity
  8
0
100
AcDbLine
 10
-222.00229048138
 20
530.2234411316256
 30
0.0
 11
-158.87329048138
 21
530.2234411316256
 31
0.0
  0
LINE
  5
1014
330
15F6
100
AcDbEntity
  8
0
100
AcDbLine
 10
-229.37329048138
 20
498.2234411316256
 30
0.0
 11
-227.99429048138
 21
524.5374411316256
 31
0.0
  0
ARC
  5
1015
330
15F6
100
AcDbEntity
  8
0
100
AcDbCircle
 10
-222.00229048138
 20
524.2234411316255
 30
0.0
 40
6.0
100
AcDbArc
 50
90.0
 51
177.0000000000002
  0
LINE
  5
1016
330
15F6
100
AcDbEntity
  8
0
100
AcDbLine
 10
-244.37229048138
 20
538.2234411316256
 30
0.0
 11
-244.19829048138
 21
533.2234411316256
 31
0.0
  0
LINE
  5
1017
330
15F6
100
AcDbEntity
  8
0
100
AcDbLine
 10
-242.14329048138
 20
531.6784411316257
 30
0.0
 11
-241.14629048138
 21
503.1344411316255
 31
0.0
  0
LINE
  5
1018
330
15F6
100
AcDbEntity
  8
0
100
AcDbLine
 10
-244.19829048138
 20
533.2234411316256
 30
0.0
 11
-243.74229048138
 21
533.2234411316256
 31
0.0
  0
ARC
  5
1019
330
15F6
100
AcDbEntity
  8
0
100
AcDbCircle
 10
-243.74229048138
 20
531.6234411316257
 30
0.0
 40
1.6
100
AcDbArc
 50
2.000000000000471
 51
90.0
  0
LINE
  5
101A
330
15F6
100
AcDbEntity
  8
0
100
AcDbLine
 10
-60.37329048138008
 20
538.2234411316256
 30
0.0
 11
-158.87329048138
 21
538.2234411316256
 31
0.0
  0
LINE
  5
101B
330
15F6
100
AcDbEntity
  8
0
100
AcDbLine
 10
-58.27929048138003
 20
498.2774411316255
 30
0.0
 11
-60.37329048138008
 21
538.2224411316256
 31
0.0
  0
LINE
  5
101C
330
15F6
100
AcDbEntity
  8
0
100
AcDbLine
 10
-28.87329048138008
 20
488.2234411316256
 30
0.0
 11
-29.39629048138011
 21
498.2094411316256
 31
0.0
  0
LINE
  5
101D
330
15F6
100
AcDbEntity
  8
0
100
AcDbLine
 10
-58.27929048138003
 20
498.2784411316256
 30
0.0
 11
-29.40029048138001
 21
498.2784411316256
 31
0.0
  0
LINE
  5
101E
330
15F6
100
AcDbEntity
  8
0
100
AcDbLine
 10
-72.08229048138003
 20
497.6274411316256
 30
0.0
 11
-71.52429048138003
 21
529.5664411316256
 31
0.0
  0
LINE
  5
101F
330
15F6
100
AcDbEntity
  8
0
100
AcDbLine
 10
-68.37329048138008
 20
538.2234411316256
 30
0.0
 11
-71.52429048138003
 21
529.5654411316256
 31
0.0
  0
ARC
  5
1020
330
15F6
100
AcDbEntity
  8
0
100
AcDbCircle
 10
-77.58129048138005
 20
497.7234411316256
 30
0.0
 40
5.5
100
AcDbArc
 50
270.0
 51
358.9999999999998
  0
LINE
  5
1021
330
15F6
100
AcDbEntity
  8
0
100
AcDbLine
 10
-28.87329048138008
 20
488.2234411316256
 30
0.0
 11
-64.05629048138007
 21
488.2234411316256
 31
0.0
  0
ARC
  5
1024
330
15F6
100
AcDbEntity
  8
0
100
AcDbCircle
 10
-64.05629048138007
 20
478.2234411316256
 30
0.0
 40
10.0
100
AcDbArc
 50
90.0
 51
177.0000000000002
  0
LINE
  5
1025
330
15F6
100
AcDbEntity
  8
0
100
AcDbLine
 10
-37.65029048138001
 20
498.2784411316256
 30
0.0
 11
-39.90029048138001
 21
488.2234411316256
 31
0.0
  0
LINE
  5
1026
330
15F6
100
AcDbEntity
  8
0
100
AcDbLine
 10
-48.90029048138001
 20
488.2234411316256
 30
0.0
 11
-51.15029048138001
 21
498.2774411316255
 31
0.0
  0
CIRCLE
  5
1027
330
15F6
100
AcDbEntity
  8
0
100
AcDbCircle
 10
-77.58129048138005
 20
497.7234411316256
 30
0.0
 40
5.5
  0
LINE
  5
1028
330
15F6
100
AcDbEntity
  8
0
100
AcDbLine
 10
-95.74429048138005
 20
530.2234411316256
 30
0.0
 11
-158.87329048138
 21
530.2234411316256
 31
0.0
  0
LINE
  5
1029
330
15F6
100
AcDbEntity
  8
0
100
AcDbLine
 10
-88.37329048138002
 20
498.2234411316256
 30
0.0
 11
-89.75229048138004
 21
524.5374411316256
 31
0.0
  0
ARC
  5
102A
330
15F6
100
AcDbEntity
  8
0
100
AcDbCircle
 10
-95.74429048138005
 20
524.2234411316255
 30
0.0
 40
6.0
100
AcDbArc
 50
2.999999999999731
 51
90.0
  0
LINE
  5
102B
330
15F6
100
AcDbEntity
  8
0
100
AcDbLine
 10
-73.37329048138002
 20
538.2234411316256
 30
0.0
 11
-73.54829048138004
 21
533.2234411316256
 31
0.0
  0
LINE
  5
102C
330
15F6
100
AcDbEntity
  8
0
100
AcDbLine
 10
-75.60329048138004
 20
531.6784411316257
 30
0.0
 11
-76.59929048138002
 21
503.1344411316255
 31
0.0
  0
LINE
  5
102D
330
15F6
100
AcDbEntity
  8
0
100
AcDbLine
 10
-73.54829048138004
 20
533.2234411316256
 30
0.0
 11
-74.00429048138005
 21
533.2234411316256
 31
0.0
  0
ARC
  5
102E
330
15F6
100
AcDbEntity
  8
0
100
AcDbCircle
 10
-74.00429048138005
 20
531.6234411316257
 30
0.0
 40
1.6
100
AcDbArc
 50
90.0
 51
177.9999999999995
  0
LINE
  5
102F
330
15F6
100
AcDbEntity
  8
0
100
AcDbLine
 10
-77.58129048138005
 20
492.2234411316256
 30
0.0
 11
-240.16529048138
 21
492.2234411316256
 31
0.0
  0
LINE
  5
1044
330
15F6
100
AcDbEntity
  8
0
100
AcDbLine
 10
-288.87329048138
 20
137.2064411316256
 30
0.0
 11
-288.87329048138
 21
192.2394411316256
 31
0.0
  0
LINE
  5
1045
330
15F6
100
AcDbEntity
  8
0
100
AcDbLine
 10
-257.37329048138
 20
68.22344113162557
 30
0.0
 11
-257.37329048138
 21
261.2234411316256
 31
0.0
  0
LINE
  5
1046
330
15F6
100
AcDbEntity
  8
0
100
AcDbLine
 10
-244.37329048138
 20
79.22344113162558
 30
0.0
 11
-244.37329048138
 21
250.2234411316256
 31
0.0
  0
LINE
  5
1047
330
15F6
100
AcDbEntity
  8
0
100
AcDbLine
 10
-259.46629048138
 20
66.22344113162558
 30
0.0
 11
-259.46629048138
 21
263.2234411316256
 31
0.0
  0
LINE
  5
1048
330
15F6
100
AcDbEntity
  8
0
100
AcDbLine
 10
-244.37329048138
 20
79.22344113162558
 30
0.0
 11
-73.37329048138002
 21
79.22344113162558
 31
0.0
  0
LINE
  5
1049
330
15F6
100
AcDbEntity
  8
0
100
AcDbLine
 10
-58.27929048138003
 20
66.22344113162558
 30
0.0
 11
-259.46629048138
 21
66.22344113162558
 31
0.0
  0
LINE
  5
104A
330
15F6
100
AcDbEntity
  8
0
100
AcDbLine
 10
-60.37329048138008
 20
68.22344113162557
 30
0.0
 11
-257.37329048138
 21
68.22344113162557
 31
0.0
  0
LINE
  5
104C
330
15F6
100
AcDbEntity
  8
0
100
AcDbLine
 10
-286.87329048138
 20
137.2064411316256
 30
0.0
 11
-286.87329048138
 21
192.2394411316256
 31
0.0
  0
LINE
  5
104D
330
15F6
100
AcDbEntity
  8
0
100
AcDbLine
 10
-259.46729048138
 20
204.7234411316256
 30
0.0
 11
-284.42629048138
 21
198.0354411316256
 31
0.0
  0
LINE
  5
104E
330
15F6
100
AcDbEntity
  8
0
100
AcDbLine
 10
-259.46629048138
 20
124.7234411316256
 30
0.0
 11
-284.42629048138
 21
131.4114411316256
 31
0.0
  0
LINE
  5
104F
330
15F6
100
AcDbEntity
  8
0
100
AcDbLine
 10
-259.46729048138
 20
202.6524411316256
 30
0.0
 11
-283.90929048138
 21
196.1034411316255
 31
0.0
  0
LINE
  5
1050
330
15F6
100
AcDbEntity
  8
0
100
AcDbLine
 10
-259.46629048138
 20
126.7934411316256
 30
0.0
 11
-283.90829048138
 21
133.3424411316256
 31
0.0
  0
ARC
  5
1051
330
15F6
100
AcDbEntity
  8
0
100
AcDbCircle
 10
-282.87329048138
 20
192.2394411316256
 30
0.0
 40
6.0
100
AcDbArc
 50
105.0000000000011
 51
180.0
  0
ARC
  5
1052
330
15F6
100
AcDbEntity
  8
0
100
AcDbCircle
 10
-282.87329048138
 20
137.2064411316256
 30
0.0
 40
6.0
100
AcDbArc
 50
180.0
 51
254.9999999999988
  0
ARC
  5
1053
330
15F6
100
AcDbEntity
  8
0
100
AcDbCircle
 10
-282.87329048138
 20
192.2394411316256
 30
0.0
 40
4.0
100
AcDbArc
 50
105.0000000000011
 51
180.0
  0
ARC
  5
1054
330
15F6
100
AcDbEntity
  8
0
100
AcDbCircle
 10
-282.87329048138
 20
137.2064411316256
 30
0.0
 40
4.0
100
AcDbArc
 50
180.0
 51
254.9999999999988
  0
LINE
  5
1055
330
15F6
100
AcDbEntity
  8
0
100
AcDbLine
 10
-246.37329048138
 20
252.2234411316256
 30
0.0
 11
-71.37329048138003
 21
252.2234411316256
 31
0.0
  0
LINE
  5
1056
330
15F6
100
AcDbEntity
  8
0
100
AcDbLine
 10
-246.37329048138
 20
77.22344113162558
 30
0.0
 11
-246.37329048138
 21
151.2234411316256
 31
0.0
  0
LINE
  5
1057
330
15F6
100
AcDbEntity
  8
0
100
AcDbLine
 10
-246.37329048138
 20
77.22344113162558
 30
0.0
 11
-71.37329048138003
 21
77.22344113162558
 31
0.0
  0
CIRCLE
  5
1058
330
15F6
100
AcDbEntity
  8
0
100
AcDbCircle
 10
-273.34629048138
 20
164.7234411316255
 30
0.0
 40
6.75
  0
LINE
  5
1059
330
15F6
100
AcDbEntity
  8
0
100
AcDbLine
 10
-232.54829048138
 20
93.79544113162557
 30
0.0
 11
-226.04829048138
 21
90.04344113162559
 31
0.0
  0
LINE
  5
105A
330
15F6
100
AcDbEntity
  8
0
100
AcDbLine
 10
-226.04629048138
 20
90.04344113162559
 30
0.0
 11
-219.54829048138
 21
93.79544113162557
 31
0.0
  0
LINE
  5
105B
330
15F6
100
AcDbEntity
  8
0
100
AcDbLine
 10
-219.54829048138
 20
93.79644113162559
 30
0.0
 11
-219.54829048138
 21
101.2994411316256
 31
0.0
  0
LINE
  5
105C
330
15F6
100
AcDbEntity
  8
0
100
AcDbLine
 10
-219.54829048138
 20
101.3004411316255
 30
0.0
 11
-226.04929048138
 21
105.0544411316256
 31
0.0
  0
LINE
  5
105D
330
15F6
100
AcDbEntity
  8
0
100
AcDbLine
 10
-232.54829048138
 20
101.3024411316256
 30
0.0
 11
-232.54829048138
 21
93.79544113162557
 31
0.0
  0
LINE
  5
105E
330
15F6
100
AcDbEntity
  8
0
100
AcDbLine
 10
-226.05029048138
 20
105.0544411316256
 30
0.0
 11
-232.54729048138
 21
101.3044411316256
 31
0.0
  0
LINE
  5
105F
330
15F6
100
AcDbEntity
  8
0
100
AcDbLine
 10
-98.19729048138004
 20
228.1444411316256
 30
0.0
 11
-91.69829048138007
 21
224.3924411316256
 31
0.0
  0
LINE
  5
1060
330
15F6
100
AcDbEntity
  8
0
100
AcDbLine
 10
-91.69729048138004
 20
224.3924411316256
 30
0.0
 11
-85.19729048138003
 21
228.1444411316256
 31
0.0
  0
LINE
  5
1061
330
15F6
100
AcDbEntity
  8
0
100
AcDbLine
 10
-85.19729048138003
 20
228.1454411316256
 30
0.0
 11
-85.19729048138003
 21
235.6514411316256
 31
0.0
  0
LINE
  5
1062
330
15F6
100
AcDbEntity
  8
0
100
AcDbLine
 10
-85.19829048138007
 20
235.6524411316256
 30
0.0
 11
-91.69729048138004
 21
239.4044411316256
 31
0.0
  0
LINE
  5
1063
330
15F6
100
AcDbEntity
  8
0
100
AcDbLine
 10
-98.19829048138007
 20
235.6514411316256
 30
0.0
 11
-98.19829048138007
 21
228.1454411316256
 31
0.0
  0
LINE
  5
1064
330
15F6
100
AcDbEntity
  8
0
100
AcDbLine
 10
-91.69829048138007
 20
239.4044411316256
 30
0.0
 11
-98.19729048138004
 21
235.6524411316256
 31
0.0
  0
LINE
  5
1069
330
15F6
100
AcDbEntity
  8
0
100
AcDbLine
 10
-28.87329048138008
 20
137.2064411316256
 30
0.0
 11
-28.87329048138008
 21
192.2394411316256
 31
0.0
  0
LINE
  5
106A
330
15F6
100
AcDbEntity
  8
0
100
AcDbLine
 10
-60.37329048138008
 20
68.22344113162557
 30
0.0
 11
-60.37329048138008
 21
261.2234411316256
 31
0.0
  0
LINE
  5
106B
330
15F6
100
AcDbEntity
  8
0
100
AcDbLine
 10
-73.37329048138002
 20
79.22344113162558
 30
0.0
 11
-73.37329048138002
 21
250.2234411316256
 31
0.0
  0
LINE
  5
106C
330
15F6
100
AcDbEntity
  8
0
100
AcDbLine
 10
-58.27929048138003
 20
66.22344113162558
 30
0.0
 11
-58.27929048138003
 21
263.2234411316256
 31
0.0
  0
LINE
  5
106D
330
15F6
100
AcDbEntity
  8
0
100
AcDbLine
 10
-73.37329048138002
 20
250.2234411316256
 30
0.0
 11
-244.37329048138
 21
250.2234411316256
 31
0.0
  0
LINE
  5
106E
330
15F6
100
AcDbEntity
  8
0
100
AcDbLine
 10
-257.37329048138
 20
261.2234411316256
 30
0.0
 11
-60.37329048138008
 21
261.2234411316256
 31
0.0
  0
LINE
  5
106F
330
15F6
100
AcDbEntity
  8
0
100
AcDbLine
 10
-259.46629048138
 20
263.2234411316256
 30
0.0
 11
-58.27929048138003
 21
263.2234411316256
 31
0.0
  0
LINE
  5
1070
330
15F6
100
AcDbEntity
  8
0
100
AcDbLine
 10
-30.87329048138008
 20
137.2064411316256
 30
0.0
 11
-30.87329048138008
 21
192.2394411316256
 31
0.0
  0
LINE
  5
1071
330
15F6
100
AcDbEntity
  8
0
100
AcDbLine
 10
-58.28029048138001
 20
204.7234411316256
 30
0.0
 11
-33.32029048138009
 21
198.0354411316256
 31
0.0
  0
LINE
  5
1072
330
15F6
100
AcDbEntity
  8
0
100
AcDbLine
 10
-58.27929048138003
 20
124.7234411316256
 30
0.0
 11
-33.32029048138009
 21
131.4114411316256
 31
0.0
  0
LINE
  5
1073
330
15F6
100
AcDbEntity
  8
0
100
AcDbLine
 10
-58.28029048138001
 20
202.6524411316256
 30
0.0
 11
-33.83829048138
 21
196.1034411316255
 31
0.0
  0
LINE
  5
1074
330
15F6
100
AcDbEntity
  8
0
100
AcDbLine
 10
-58.27929048138003
 20
126.7934411316256
 30
0.0
 11
-33.83829048138
 21
133.3434411316256
 31
0.0
  0
ARC
  5
1075
330
15F6
100
AcDbEntity
  8
0
100
AcDbCircle
 10
-34.87329048138008
 20
192.2394411316256
 30
0.0
 40
6.0
100
AcDbArc
 50
0.0
 51
74.99999999999883
  0
ARC
  5
1076
330
15F6
100
AcDbEntity
  8
0
100
AcDbCircle
 10
-34.87329048138008
 20
137.2064411316256
 30
0.0
 40
6.0
100
AcDbArc
 50
285.0000000000012
 51
0.0
  0
ARC
  5
1077
330
15F6
100
AcDbEntity
  8
0
100
AcDbCircle
 10
-34.87329048138008
 20
192.2394411316256
 30
0.0
 40
4.0
100
AcDbArc
 50
0.0
 51
74.99999999999883
  0
ARC
  5
1078
330
15F6
100
AcDbEntity
  8
0
100
AcDbCircle
 10
-34.87329048138008
 20
137.2064411316256
 30
0.0
 40
4.0
100
AcDbArc
 50
285.0000000000012
 51
0.0
  0
LINE
  5
1079
330
15F6
100
AcDbEntity
  8
0
100
AcDbLine
 10
-71.37329048138003
 20
77.22344113162558
 30
0.0
 11
-71.37329048138003
 21
151.2234411316256
 31
0.0
  0
CIRCLE
  5
107A
330
15F6
100
AcDbEntity
  8
0
100
AcDbCircle
 10
-44.40029048138001
 20
164.7234411316255
 30
0.0
 40
6.75
  0
CIRCLE
  5
107B
330
15F6
100
AcDbEntity
  8
0
100
AcDbCircle
 10
-226.04829048138
 20
97.5484411316256
 30
0.0
 40
11.0
  0
CIRCLE
  5
107C
330
15F6
100
AcDbEntity
  8
0
100
AcDbCircle
 10
-91.69829048138007
 20
231.8984411316256
 30
0.0
 40
11.0
  0
LINE
  5
107D
330
15F6
100
AcDbEntity
  8
0
100
AcDbLine
 10
-251.37329048138
 20
151.2234411316256
 30
0.0
 11
-246.37329048138
 21
151.2234411316256
 31
0.0
  0
LINE
  5
107E
330
15F6
100
AcDbEntity
  8
0
100
AcDbLine
 10
-251.37329048138
 20
181.2234411316256
 30
0.0
 11
-246.37329048138
 21
181.2234411316256
 31
0.0
  0
LINE
  5
107F
330
15F6
100
AcDbEntity
  8
0
100
AcDbLine
 10
-251.37329048138
 20
151.2234411316256
 30
0.0
 11
-251.37329048138
 21
181.2234411316256
 31
0.0
  0
LINE
  5
1080
330
15F6
100
AcDbEntity
  8
0
100
AcDbLine
 10
-66.37329048138008
 20
151.2234411316256
 30
0.0
 11
-71.37329048138003
 21
151.2234411316256
 31
0.0
  0
LINE
  5
1081
330
15F6
100
AcDbEntity
  8
0
100
AcDbLine
 10
-66.37329048138008
 20
181.2234411316256
 30
0.0
 11
-71.37329048138003
 21
181.2234411316256
 31
0.0
  0
LINE
  5
1082
330
15F6
100
AcDbEntity
  8
0
100
AcDbLine
 10
-66.37329048138008
 20
151.2234411316256
 30
0.0
 11
-66.37329048138008
 21
181.2234411316256
 31
0.0
  0
LINE
  5
1083
330
15F6
100
AcDbEntity
  8
0
100
AcDbLine
 10
-246.37329048138
 20
181.2234411316256
 30
0.0
 11
-246.37329048138
 21
252.2234411316256
 31
0.0
  0
LINE
  5
1084
330
15F6
100
AcDbEntity
  8
0
100
AcDbLine
 10
-71.37329048138003
 20
181.2234411316256
 30
0.0
 11
-71.37329048138003
 21
252.2234411316256
 31
0.0
  0
CIRCLE
  5
1087
330
15F6
100
AcDbEntity
  8
0
100
AcDbCircle
 10
-44.40029048138001
 20
164.7234411316255
 30
0.0
 40
4.5
  0
CIRCLE
  5
1088
330
15F6
100
AcDbEntity
  8
0
100
AcDbCircle
 10
-273.34629048138
 20
164.7234411316255
 30
0.0
 40
4.5
  0
POLYLINE
  5
108A
330
15F6
100
AcDbEntity
  8
SCHRAFFUR_RAND
100
AcDb2dPolyline
 66
     1
 10
0.0
 20
0.0
 30
0.0
 70
     1
  0
VERTEX
  5
108B
330
108A
100
AcDbEntity
  8
SCHRAFFUR_RAND
100
AcDbVertex
100
AcDb2dVertex
 10
-243.12129048138
 20
502.3614411316256
 30
0.0
  0
VERTEX
  5
108C
330
108A
100
AcDbEntity
  8
SCHRAFFUR_RAND
100
AcDbVertex
100
AcDb2dVertex
 10
-243.35329048138
 20
502.2394411316255
 30
0.0
  0
VERTEX
  5
108D
330
108A
100
AcDbEntity
  8
SCHRAFFUR_RAND
100
AcDbVertex
100
AcDb2dVertex
 10
-244.45429048138
 20
501.2114411316257
 30
0.0
  0
VERTEX
  5
108E
330
108A
100
AcDbEntity
  8
SCHRAFFUR_RAND
100
AcDbVertex
100
AcDb2dVertex
 10
-245.23529048138
 20
499.9254411316256
 30
0.0
  0
VERTEX
  5
108F
330
108A
100
AcDbEntity
  8
SCHRAFFUR_RAND
100
AcDbVertex
100
AcDb2dVertex
 10
-245.64229048138
 20
498.4754411316256
 30
0.0
  0
VERTEX
  5
1090
330
108A
100
AcDbEntity
  8
SCHRAFFUR_RAND
100
AcDbVertex
100
AcDb2dVertex
 10
-245.66529048138
 20
497.6274411316256
 30
0.0
  0
VERTEX
  5
1091
330
108A
100
AcDbEntity
  8
SCHRAFFUR_RAND
100
AcDbVertex
100
AcDb2dVertex
 10
-245.48429048138
 20
496.2154411316255
 30
0.0
  0
VERTEX
  5
1092
330
108A
100
AcDbEntity
  8
SCHRAFFUR_RAND
100
AcDbVertex
100
AcDb2dVertex
 10
-245.23529048138
 20
495.5214411316256
 30
0.0
  0
VERTEX
  5
1093
330
108A
100
AcDbEntity
  8
SCHRAFFUR_RAND
100
AcDbVertex
100
AcDb2dVertex
 10
-244.92029048138
 20
494.9034411316255
 30
0.0
  0
VERTEX
  5
1094
330
108A
100
AcDbEntity
  8
SCHRAFFUR_RAND
100
AcDbVertex
100
AcDb2dVertex
 10
-244.45429048138
 20
494.2344411316256
 30
0.0
  0
VERTEX
  5
1095
330
108A
100
AcDbEntity
  8
SCHRAFFUR_RAND
100
AcDbVertex
100
AcDb2dVertex
 10
-244.04029048138
 20
493.7804411316256
 30
0.0
  0
VERTEX
  5
1096
330
108A
100
AcDbEntity
  8
SCHRAFFUR_RAND
100
AcDbVertex
100
AcDb2dVertex
 10
-243.35329048138
 20
493.2074411316256
 30
0.0
  0
VERTEX
  5
1097
330
108A
100
AcDbEntity
  8
SCHRAFFUR_RAND
100
AcDbVertex
100
AcDb2dVertex
 10
-242.90129048138
 20
492.9194411316256
 30
0.0
  0
VERTEX
  5
1098
330
108A
100
AcDbEntity
  8
SCHRAFFUR_RAND
100
AcDbVertex
100
AcDb2dVertex
 10
-242.01629048138
 20
492.5144411316257
 30
0.0
  0
VERTEX
  5
1099
330
108A
100
AcDbEntity
  8
SCHRAFFUR_RAND
100
AcDbVertex
100
AcDb2dVertex
 10
-241.58129048138
 20
492.3794411316255
 30
0.0
  0
VERTEX
  5
109A
330
108A
100
AcDbEntity
  8
SCHRAFFUR_RAND
100
AcDbVertex
100
AcDb2dVertex
 10
-240.16529048138
 20
492.2234411316256
 30
0.0
  0
VERTEX
  5
109B
330
108A
100
AcDbEntity
  8
SCHRAFFUR_RAND
100
AcDbVertex
100
AcDb2dVertex
 10
-239.04029048138
 20
492.3104411316256
 30
0.0
  0
VERTEX
  5
109C
330
108A
100
AcDbEntity
  8
SCHRAFFUR_RAND
100
AcDbVertex
100
AcDb2dVertex
 10
-237.62229048138
 20
492.8144411316256
 30
0.0
  0
VERTEX
  5
109D
330
108A
100
AcDbEntity
  8
SCHRAFFUR_RAND
100
AcDbVertex
100
AcDb2dVertex
 10
-236.39229048138
 20
493.6834411316256
 30
0.0
  0
VERTEX
  5
109E
330
108A
100
AcDbEntity
  8
SCHRAFFUR_RAND
100
AcDbVertex
100
AcDb2dVertex
 10
-235.44229048138
 20
494.8504411316256
 30
0.0
  0
VERTEX
  5
109F
330
108A
100
AcDbEntity
  8
SCHRAFFUR_RAND
100
AcDbVertex
100
AcDb2dVertex
 10
-234.84229048138
 20
496.2324411316256
 30
0.0
  0
VERTEX
  5
10A0
330
108A
100
AcDbEntity
  8
SCHRAFFUR_RAND
100
AcDbVertex
100
AcDb2dVertex
 10
-234.66529048138
 20
497.7234411316256
 30
0.0
  0
VERTEX
  5
10A1
330
108A
100
AcDbEntity
  8
SCHRAFFUR_RAND
100
AcDbVertex
100
AcDb2dVertex
 10
-234.68829048138
 20
498.2234411316256
 30
0.0
  0
VERTEX
  5
10A2
330
108A
100
AcDbEntity
  8
SCHRAFFUR_RAND
100
AcDbVertex
100
AcDb2dVertex
 10
-234.84229048138
 20
499.2144411316256
 30
0.0
  0
VERTEX
  5
10A3
330
108A
100
AcDbEntity
  8
SCHRAFFUR_RAND
100
AcDbVertex
100
AcDb2dVertex
 10
-235.44229048138
 20
500.5954411316255
 30
0.0
  0
VERTEX
  5
10A4
330
108A
100
AcDbEntity
  8
SCHRAFFUR_RAND
100
AcDbVertex
100
AcDb2dVertex
 10
-236.39229048138
 20
501.7634411316255
 30
0.0
  0
VERTEX
  5
10A5
330
108A
100
AcDbEntity
  8
SCHRAFFUR_RAND
100
AcDbVertex
100
AcDb2dVertex
 10
-237.62229048138
 20
502.6314411316256
 30
0.0
  0
VERTEX
  5
10A6
330
108A
100
AcDbEntity
  8
SCHRAFFUR_RAND
100
AcDbVertex
100
AcDb2dVertex
 10
-239.04029048138
 20
503.1354411316256
 30
0.0
  0
VERTEX
  5
10A7
330
108A
100
AcDbEntity
  8
SCHRAFFUR_RAND
100
AcDbVertex
100
AcDb2dVertex
 10
-240.54229048138
 20
503.2384411316256
 30
0.0
  0
VERTEX
  5
10A8
330
108A
100
AcDbEntity
  8
SCHRAFFUR_RAND
100
AcDbVertex
100
AcDb2dVertex
 10
-241.14629048138
 20
503.1354411316256
 30
0.0
  0
VERTEX
  5
10A9
330
108A
100
AcDbEntity
  8
SCHRAFFUR_RAND
100
AcDbVertex
100
AcDb2dVertex
 10
-242.01629048138
 20
502.9324411316255
 30
0.0
  0
VERTEX
  5
10AA
330
108A
100
AcDbEntity
  8
SCHRAFFUR_RAND
100
AcDbVertex
100
AcDb2dVertex
 10
-243.12129048138
 20
502.3614411316256
 30
0.0
  0
SEQEND
  5
10AB
330
108A
100
AcDbEntity
  8
SCHRAFFUR_RAND
  0
INSERT
  5
10B1
330
15F6
100
AcDbEntity
  8
8
100
AcDbBlockReference
  2
*X0
 10
-423.6942904813799
 20
-21.5575588683744
 30
0.0
1001
ACAD
1000
HATCH
1002
{
1070
    19
1000
ANSI31,_I
1040
3.174999999999999
1040
5.497999999999999
1002
}
  0
POLYLINE
  5
10B2
330
15F6
100
AcDbEntity
  8
SCHRAFFUR_RAND
100
AcDb2dPolyline
 66
     1
 10
0.0
 20
0.0
 30
0.0
 70
     1
  0
VERTEX
  5
10B3
330
10B2
100
AcDbEntity
  8
SCHRAFFUR_RAND
100
AcDbVertex
100
AcDb2dVertex
 10
-243.12129048138
 20
502.3614411316256
 30
0.0
  0
VERTEX
  5
10B4
330
10B2
100
AcDbEntity
  8
SCHRAFFUR_RAND
100
AcDbVertex
100
AcDb2dVertex
 10
-243.35329048138
 20
502.2394411316255
 30
0.0
  0
VERTEX
  5
10B5
330
10B2
100
AcDbEntity
  8
SCHRAFFUR_RAND
100
AcDbVertex
100
AcDb2dVertex
 10
-244.45429048138
 20
501.2114411316257
 30
0.0
  0
VERTEX
  5
10B6
330
10B2
100
AcDbEntity
  8
SCHRAFFUR_RAND
100
AcDbVertex
100
AcDb2dVertex
 10
-245.23529048138
 20
499.9254411316256
 30
0.0
  0
VERTEX
  5
10B7
330
10B2
100
AcDbEntity
  8
SCHRAFFUR_RAND
100
AcDbVertex
100
AcDb2dVertex
 10
-245.64229048138
 20
498.4754411316256
 30
0.0
  0
VERTEX
  5
10B8
330
10B2
100
AcDbEntity
  8
SCHRAFFUR_RAND
100
AcDbVertex
100
AcDb2dVertex
 10
-245.66529048138
 20
497.6274411316256
 30
0.0
  0
VERTEX
  5
10B9
330
10B2
100
AcDbEntity
  8
SCHRAFFUR_RAND
100
AcDbVertex
100
AcDb2dVertex
 10
-245.48429048138
 20
496.2154411316255
 30
0.0
  0
VERTEX
  5
10BA
330
10B2
100
AcDbEntity
  8
SCHRAFFUR_RAND
100
AcDbVertex
100
AcDb2dVertex
 10
-245.23529048138
 20
495.5214411316256
 30
0.0
  0
VERTEX
  5
10BB
330
10B2
100
AcDbEntity
  8
SCHRAFFUR_RAND
100
AcDbVertex
100
AcDb2dVertex
 10
-244.92029048138
 20
494.9034411316255
 30
0.0
  0
VERTEX
  5
10BC
330
10B2
100
AcDbEntity
  8
SCHRAFFUR_RAND
100
AcDbVertex
100
AcDb2dVertex
 10
-244.45429048138
 20
494.2344411316256
 30
0.0
  0
VERTEX
  5
10BD
330
10B2
100
AcDbEntity
  8
SCHRAFFUR_RAND
100
AcDbVertex
100
AcDb2dVertex
 10
-244.04029048138
 20
493.7804411316256
 30
0.0
  0
VERTEX
  5
10BE
330
10B2
100
AcDbEntity
  8
SCHRAFFUR_RAND
100
AcDbVertex
100
AcDb2dVertex
 10
-243.35329048138
 20
493.2074411316256
 30
0.0
  0
VERTEX
  5
10BF
330
10B2
100
AcDbEntity
  8
SCHRAFFUR_RAND
100
AcDbVertex
100
AcDb2dVertex
 10
-242.90129048138
 20
492.9194411316256
 30
0.0
  0
VERTEX
  5
10C0
330
10B2
100
AcDbEntity
  8
SCHRAFFUR_RAND
100
AcDbVertex
100
AcDb2dVertex
 10
-242.01629048138
 20
492.5144411316257
 30
0.0
  0
VERTEX
  5
10C1
330
10B2
100
AcDbEntity
  8
SCHRAFFUR_RAND
100
AcDbVertex
100
AcDb2dVertex
 10
-241.58129048138
 20
492.3794411316255
 30
0.0
  0
VERTEX
  5
10C2
330
10B2
100
AcDbEntity
  8
SCHRAFFUR_RAND
100
AcDbVertex
100
AcDb2dVertex
 10
-240.16529048138
 20
492.2234411316256
 30
0.0
  0
VERTEX
  5
10C3
330
10B2
100
AcDbEntity
  8
SCHRAFFUR_RAND
100
AcDbVertex
100
AcDb2dVertex
 10
-239.04029048138
 20
492.3104411316256
 30
0.0
  0
VERTEX
  5
10C4
330
10B2
100
AcDbEntity
  8
SCHRAFFUR_RAND
100
AcDbVertex
100
AcDb2dVertex
 10
-237.62229048138
 20
492.8144411316256
 30
0.0
  0
VERTEX
  5
10C5
330
10B2
100
AcDbEntity
  8
SCHRAFFUR_RAND
100
AcDbVertex
100
AcDb2dVertex
 10
-236.39229048138
 20
493.6834411316256
 30
0.0
  0
VERTEX
  5
10C6
330
10B2
100
AcDbEntity
  8
SCHRAFFUR_RAND
100
AcDbVertex
100
AcDb2dVertex
 10
-235.44229048138
 20
494.8504411316256
 30
0.0
  0
VERTEX
  5
10C7
330
10B2
100
AcDbEntity
  8
SCHRAFFUR_RAND
100
AcDbVertex
100
AcDb2dVertex
 10
-234.84229048138
 20
496.2324411316256
 30
0.0
  0
VERTEX
  5
10C8
330
10B2
100
AcDbEntity
  8
SCHRAFFUR_RAND
100
AcDbVertex
100
AcDb2dVertex
 10
-234.66529048138
 20
497.7234411316256
 30
0.0
  0
VERTEX
  5
10C9
330
10B2
100
AcDbEntity
  8
SCHRAFFUR_RAND
100
AcDbVertex
100
AcDb2dVertex
 10
-234.68829048138
 20
498.2234411316256
 30
0.0
  0
VERTEX
  5
10CA
330
10B2
100
AcDbEntity
  8
SCHRAFFUR_RAND
100
AcDbVertex
100
AcDb2dVertex
 10
-234.84229048138
 20
499.2144411316256
 30
0.0
  0
VERTEX
  5
10CB
330
10B2
100
AcDbEntity
  8
SCHRAFFUR_RAND
100
AcDbVertex
100
AcDb2dVertex
 10
-235.44229048138
 20
500.5954411316255
 30
0.0
  0
VERTEX
  5
10CC
330
10B2
100
AcDbEntity
  8
SCHRAFFUR_RAND
100
AcDbVertex
100
AcDb2dVertex
 10
-236.39229048138
 20
501.7634411316255
 30
0.0
  0
VERTEX
  5
10CD
330
10B2
100
AcDbEntity
  8
SCHRAFFUR_RAND
100
AcDbVertex
100
AcDb2dVertex
 10
-237.62229048138
 20
502.6314411316256
 30
0.0
  0
VERTEX
  5
10CE
330
10B2
100
AcDbEntity
  8
SCHRAFFUR_RAND
100
AcDbVertex
100
AcDb2dVertex
 10
-239.04029048138
 20
503.1354411316256
 30
0.0
  0
VERTEX
  5
10CF
330
10B2
100
AcDbEntity
  8
SCHRAFFUR_RAND
100
AcDbVertex
100
AcDb2dVertex
 10
-240.54229048138
 20
503.2384411316256
 30
0.0
  0
VERTEX
  5
10D0
330
10B2
100
AcDbEntity
  8
SCHRAFFUR_RAND
100
AcDbVertex
100
AcDb2dVertex
 10
-241.14629048138
 20
503.1354411316256
 30
0.0
  0
VERTEX
  5
10D1
330
10B2
100
AcDbEntity
  8
SCHRAFFUR_RAND
100
AcDbVertex
100
AcDb2dVertex
 10
-242.01629048138
 20
502.9324411316255
 30
0.0
  0
VERTEX
  5
10D2
330
10B2
100
AcDbEntity
  8
SCHRAFFUR_RAND
100
AcDbVertex
100
AcDb2dVertex
 10
-243.12129048138
 20
502.3614411316256
 30
0.0
  0
SEQEND
  5
10D3
330
10B2
100
AcDbEntity
  8
SCHRAFFUR_RAND
  0
INSERT
  5
10D9
330
15F6
100
AcDbEntity
  8
8
100
AcDbBlockReference
  2
*X1
 10
-423.6942904813799
 20
-21.5575588683744
 30
0.0
1001
ACAD
1000
HATCH
1002
{
1070
    19
1000
ANSI31,_I
1040
3.174999999999999
1040
3.926999999999999
1002
}
  0
POLYLINE
  5
10DA
330
15F6
100
AcDbEntity
  8
SCHRAFFUR_RAND
100
AcDb2dPolyline
 66
     1
 10
0.0
 20
0.0
 30
0.0
 70
     1
  0
VERTEX
  5
10DB
330
10DA
100
AcDbEntity
  8
SCHRAFFUR_RAND
100
AcDbVertex
100
AcDb2dVertex
 10
-73.37329048138002
 20
538.2234411316256
 30
0.0
  0
VERTEX
  5
10DC
330
10DA
100
AcDbEntity
  8
SCHRAFFUR_RAND
100
AcDbVertex
100
AcDb2dVertex
 10
-158.87329048138
 20
538.2234411316256
 30
0.0
  0
VERTEX
  5
10DD
330
10DA
100
AcDbEntity
  8
SCHRAFFUR_RAND
100
AcDbVertex
100
AcDb2dVertex
 10
-244.37329048138
 20
538.2234411316256
 30
0.0
  0
VERTEX
  5
10DE
330
10DA
100
AcDbEntity
  8
SCHRAFFUR_RAND
100
AcDbVertex
100
AcDb2dVertex
 10
-244.19829048138
 20
533.2234411316256
 30
0.0
  0
VERTEX
  5
10DF
330
10DA
100
AcDbEntity
  8
SCHRAFFUR_RAND
100
AcDbVertex
100
AcDb2dVertex
 10
-243.74229048138
 20
533.2234411316256
 30
0.0
  0
VERTEX
  5
10E0
330
10DA
100
AcDbEntity
  8
SCHRAFFUR_RAND
100
AcDbVertex
100
AcDb2dVertex
 10
-243.13029048138
 20
533.1384411316255
 30
0.0
  0
VERTEX
  5
10E1
330
10DA
100
AcDbEntity
  8
SCHRAFFUR_RAND
100
AcDbVertex
100
AcDb2dVertex
 10
-242.60729048138
 20
532.7994411316256
 30
0.0
  0
VERTEX
  5
10E2
330
10DA
100
AcDbEntity
  8
SCHRAFFUR_RAND
100
AcDbVertex
100
AcDb2dVertex
 10
-242.24929048138
 20
532.2884411316256
 30
0.0
  0
VERTEX
  5
10E3
330
10DA
100
AcDbEntity
  8
SCHRAFFUR_RAND
100
AcDbVertex
100
AcDb2dVertex
 10
-242.14329048138
 20
531.6784411316257
 30
0.0
  0
VERTEX
  5
10E4
330
10DA
100
AcDbEntity
  8
SCHRAFFUR_RAND
100
AcDbVertex
100
AcDb2dVertex
 10
-241.14629048138
 20
503.1354411316256
 30
0.0
  0
VERTEX
  5
10E5
330
10DA
100
AcDbEntity
  8
SCHRAFFUR_RAND
100
AcDbVertex
100
AcDb2dVertex
 10
-239.75129048138
 20
503.2424411316256
 30
0.0
  0
VERTEX
  5
10E6
330
10DA
100
AcDbEntity
  8
SCHRAFFUR_RAND
100
AcDbVertex
100
AcDb2dVertex
 10
-238.14329048138
 20
502.8754411316256
 30
0.0
  0
VERTEX
  5
10E7
330
10DA
100
AcDbEntity
  8
SCHRAFFUR_RAND
100
AcDbVertex
100
AcDb2dVertex
 10
-236.71429048138
 20
502.0504411316256
 30
0.0
  0
VERTEX
  5
10E8
330
10DA
100
AcDbEntity
  8
SCHRAFFUR_RAND
100
AcDbVertex
100
AcDb2dVertex
 10
-235.59229048138
 20
500.8404411316256
 30
0.0
  0
VERTEX
  5
10E9
330
10DA
100
AcDbEntity
  8
SCHRAFFUR_RAND
100
AcDbVertex
100
AcDb2dVertex
 10
-234.87729048138
 20
499.3544411316256
 30
0.0
  0
VERTEX
  5
10EA
330
10DA
100
AcDbEntity
  8
SCHRAFFUR_RAND
100
AcDbVertex
100
AcDb2dVertex
 10
-234.68829048138
 20
498.2234411316256
 30
0.0
  0
VERTEX
  5
10EB
330
10DA
100
AcDbEntity
  8
SCHRAFFUR_RAND
100
AcDbVertex
100
AcDb2dVertex
 10
-229.37329048138
 20
498.2234411316256
 30
0.0
  0
VERTEX
  5
10EC
330
10DA
100
AcDbEntity
  8
SCHRAFFUR_RAND
100
AcDbVertex
100
AcDb2dVertex
 10
-227.99429048138
 20
524.5374411316256
 30
0.0
  0
VERTEX
  5
10ED
330
10DA
100
AcDbEntity
  8
SCHRAFFUR_RAND
100
AcDbVertex
100
AcDb2dVertex
 10
-227.75729048138
 20
526.0384411316256
 30
0.0
  0
VERTEX
  5
10EE
330
10DA
100
AcDbEntity
  8
SCHRAFFUR_RAND
100
AcDbVertex
100
AcDb2dVertex
 10
-227.12029048138
 20
527.4214411316257
 30
0.0
  0
VERTEX
  5
10EF
330
10DA
100
AcDbEntity
  8
SCHRAFFUR_RAND
100
AcDbVertex
100
AcDb2dVertex
 10
-226.15629048138
 20
528.6004411316254
 30
0.0
  0
VERTEX
  5
10F0
330
10DA
100
AcDbEntity
  8
SCHRAFFUR_RAND
100
AcDbVertex
100
AcDb2dVertex
 10
-224.92829048138
 20
529.5014411316255
 30
0.0
  0
VERTEX
  5
10F1
330
10DA
100
AcDbEntity
  8
SCHRAFFUR_RAND
100
AcDbVertex
100
AcDb2dVertex
 10
-223.51329048138
 20
530.0654411316257
 30
0.0
  0
VERTEX
  5
10F2
330
10DA
100
AcDbEntity
  8
SCHRAFFUR_RAND
100
AcDbVertex
100
AcDb2dVertex
 10
-222.00229048138
 20
530.2234411316256
 30
0.0
  0
VERTEX
  5
10F3
330
10DA
100
AcDbEntity
  8
SCHRAFFUR_RAND
100
AcDbVertex
100
AcDb2dVertex
 10
-158.87329048138
 20
530.2234411316256
 30
0.0
  0
VERTEX
  5
10F4
330
10DA
100
AcDbEntity
  8
SCHRAFFUR_RAND
100
AcDbVertex
100
AcDb2dVertex
 10
-95.74429048138005
 20
530.2234411316256
 30
0.0
  0
VERTEX
  5
10F5
330
10DA
100
AcDbEntity
  8
SCHRAFFUR_RAND
100
AcDbVertex
100
AcDb2dVertex
 10
-94.23329048138004
 20
530.0654411316257
 30
0.0
  0
VERTEX
  5
10F6
330
10DA
100
AcDbEntity
  8
SCHRAFFUR_RAND
100
AcDbVertex
100
AcDb2dVertex
 10
-92.81829048138007
 20
529.5014411316255
 30
0.0
  0
VERTEX
  5
10F7
330
10DA
100
AcDbEntity
  8
SCHRAFFUR_RAND
100
AcDbVertex
100
AcDb2dVertex
 10
-91.59029048138007
 20
528.6004411316254
 30
0.0
  0
VERTEX
  5
10F8
330
10DA
100
AcDbEntity
  8
SCHRAFFUR_RAND
100
AcDbVertex
100
AcDb2dVertex
 10
-90.62629048138006
 20
527.4214411316257
 30
0.0
  0
VERTEX
  5
10F9
330
10DA
100
AcDbEntity
  8
SCHRAFFUR_RAND
100
AcDbVertex
100
AcDb2dVertex
 10
-89.98829048138004
 20
526.0384411316256
 30
0.0
  0
VERTEX
  5
10FA
330
10DA
100
AcDbEntity
  8
SCHRAFFUR_RAND
100
AcDbVertex
100
AcDb2dVertex
 10
-89.75229048138004
 20
524.5374411316256
 30
0.0
  0
VERTEX
  5
10FB
330
10DA
100
AcDbEntity
  8
SCHRAFFUR_RAND
100
AcDbVertex
100
AcDb2dVertex
 10
-88.37329048138002
 20
498.2234411316256
 30
0.0
  0
VERTEX
  5
10FC
330
10DA
100
AcDbEntity
  8
SCHRAFFUR_RAND
100
AcDbVertex
100
AcDb2dVertex
 10
-83.05829048138003
 20
498.2234411316256
 30
0.0
  0
VERTEX
  5
10FD
330
10DA
100
AcDbEntity
  8
SCHRAFFUR_RAND
100
AcDbVertex
100
AcDb2dVertex
 10
-83.05329048138004
 20
498.5484411316257
 30
0.0
  0
VERTEX
  5
10FE
330
10DA
100
AcDbEntity
  8
SCHRAFFUR_RAND
100
AcDbVertex
100
AcDb2dVertex
 10
-82.56729048138003
 20
500.1244411316256
 30
0.0
  0
VERTEX
  5
10FF
330
10DA
100
AcDbEntity
  8
SCHRAFFUR_RAND
100
AcDbVertex
100
AcDb2dVertex
 10
-81.63829048138007
 20
501.4874411316256
 30
0.0
  0
VERTEX
  5
1100
330
10DA
100
AcDbEntity
  8
SCHRAFFUR_RAND
100
AcDbVertex
100
AcDb2dVertex
 10
-80.34829048138005
 20
502.5164411316256
 30
0.0
  0
VERTEX
  5
1101
330
10DA
100
AcDbEntity
  8
SCHRAFFUR_RAND
100
AcDbVertex
100
AcDb2dVertex
 10
-78.81229048138004
 20
503.1194411316255
 30
0.0
  0
VERTEX
  5
1102
330
10DA
100
AcDbEntity
  8
SCHRAFFUR_RAND
100
AcDbVertex
100
AcDb2dVertex
 10
-77.16729048138006
 20
503.2424411316256
 30
0.0
  0
VERTEX
  5
1103
330
10DA
100
AcDbEntity
  8
SCHRAFFUR_RAND
100
AcDbVertex
100
AcDb2dVertex
 10
-76.59929048138002
 20
503.1354411316256
 30
0.0
  0
VERTEX
  5
1104
330
10DA
100
AcDbEntity
  8
SCHRAFFUR_RAND
100
AcDbVertex
100
AcDb2dVertex
 10
-75.60329048138004
 20
531.6784411316257
 30
0.0
  0
VERTEX
  5
1105
330
10DA
100
AcDbEntity
  8
SCHRAFFUR_RAND
100
AcDbVertex
100
AcDb2dVertex
 10
-75.49729048138004
 20
532.2884411316256
 30
0.0
  0
VERTEX
  5
1106
330
10DA
100
AcDbEntity
  8
SCHRAFFUR_RAND
100
AcDbVertex
100
AcDb2dVertex
 10
-75.13929048138004
 20
532.7994411316256
 30
0.0
  0
VERTEX
  5
1107
330
10DA
100
AcDbEntity
  8
SCHRAFFUR_RAND
100
AcDbVertex
100
AcDb2dVertex
 10
-74.61629048138007
 20
533.1384411316255
 30
0.0
  0
VERTEX
  5
1108
330
10DA
100
AcDbEntity
  8
SCHRAFFUR_RAND
100
AcDbVertex
100
AcDb2dVertex
 10
-74.00429048138005
 20
533.2234411316256
 30
0.0
  0
VERTEX
  5
1109
330
10DA
100
AcDbEntity
  8
SCHRAFFUR_RAND
100
AcDbVertex
100
AcDb2dVertex
 10
-73.54829048138004
 20
533.2234411316256
 30
0.0
  0
VERTEX
  5
110A
330
10DA
100
AcDbEntity
  8
SCHRAFFUR_RAND
100
AcDbVertex
100
AcDb2dVertex
 10
-73.37329048138002
 20
538.2234411316256
 30
0.0
  0
SEQEND
  5
110B
330
10DA
100
AcDbEntity
  8
SCHRAFFUR_RAND
  0
POLYLINE
  5
11AF
330
15F6
100
AcDbEntity
  8
SCHRAFFUR_RAND
100
AcDb2dPolyline
 66
     1
 10
0.0
 20
0.0
 30
0.0
 70
     1
  0
VERTEX
  5
11B0
330
11AF
100
AcDbEntity
  8
SCHRAFFUR_RAND
100
AcDbVertex
100
AcDb2dVertex
 10
-76.59929048138002
 20
503.1354411316256
 30
0.0
  0
VERTEX
  5
11B1
330
11AF
100
AcDbEntity
  8
SCHRAFFUR_RAND
100
AcDbVertex
100
AcDb2dVertex
 10
-77.58129048138005
 20
503.2414411316256
 30
0.0
  0
VERTEX
  5
11B2
330
11AF
100
AcDbEntity
  8
SCHRAFFUR_RAND
100
AcDbVertex
100
AcDb2dVertex
 10
-78.80929048138006
 20
503.1034411316256
 30
0.0
  0
VERTEX
  5
11B3
330
11AF
100
AcDbEntity
  8
SCHRAFFUR_RAND
100
AcDbVertex
100
AcDb2dVertex
 10
-79.97529048138005
 20
502.6954411316256
 30
0.0
  0
VERTEX
  5
11B4
330
11AF
100
AcDbEntity
  8
SCHRAFFUR_RAND
100
AcDbVertex
100
AcDb2dVertex
 10
-81.02129048138005
 20
502.0374411316256
 30
0.0
  0
VERTEX
  5
11B5
330
11AF
100
AcDbEntity
  8
SCHRAFFUR_RAND
100
AcDbVertex
100
AcDb2dVertex
 10
-81.89529048138007
 20
501.1644411316257
 30
0.0
  0
VERTEX
  5
11B6
330
11AF
100
AcDbEntity
  8
SCHRAFFUR_RAND
100
AcDbVertex
100
AcDb2dVertex
 10
-82.55329048138003
 20
500.1174411316256
 30
0.0
  0
VERTEX
  5
11B7
330
11AF
100
AcDbEntity
  8
SCHRAFFUR_RAND
100
AcDbVertex
100
AcDb2dVertex
 10
-82.96129048138004
 20
498.9514411316256
 30
0.0
  0
VERTEX
  5
11B8
330
11AF
100
AcDbEntity
  8
SCHRAFFUR_RAND
100
AcDbVertex
100
AcDb2dVertex
 10
-83.09929048138002
 20
497.7234411316256
 30
0.0
  0
VERTEX
  5
11B9
330
11AF
100
AcDbEntity
  8
SCHRAFFUR_RAND
100
AcDbVertex
100
AcDb2dVertex
 10
-82.96129048138004
 20
496.4954411316257
 30
0.0
  0
VERTEX
  5
11BA
330
11AF
100
AcDbEntity
  8
SCHRAFFUR_RAND
100
AcDbVertex
100
AcDb2dVertex
 10
-82.55329048138003
 20
495.3284411316256
 30
0.0
  0
VERTEX
  5
11BB
330
11AF
100
AcDbEntity
  8
SCHRAFFUR_RAND
100
AcDbVertex
100
AcDb2dVertex
 10
-81.89529048138007
 20
494.2824411316256
 30
0.0
  0
VERTEX
  5
11BC
330
11AF
100
AcDbEntity
  8
SCHRAFFUR_RAND
100
AcDbVertex
100
AcDb2dVertex
 10
-81.02129048138005
 20
493.4084411316256
 30
0.0
  0
VERTEX
  5
11BD
330
11AF
100
AcDbEntity
  8
SCHRAFFUR_RAND
100
AcDbVertex
100
AcDb2dVertex
 10
-79.97529048138005
 20
492.7514411316257
 30
0.0
  0
VERTEX
  5
11BE
330
11AF
100
AcDbEntity
  8
SCHRAFFUR_RAND
100
AcDbVertex
100
AcDb2dVertex
 10
-78.80929048138006
 20
492.3424411316256
 30
0.0
  0
VERTEX
  5
11BF
330
11AF
100
AcDbEntity
  8
SCHRAFFUR_RAND
100
AcDbVertex
100
AcDb2dVertex
 10
-77.58129048138005
 20
492.2234411316256
 30
0.0
  0
VERTEX
  5
11C0
330
11AF
100
AcDbEntity
  8
SCHRAFFUR_RAND
100
AcDbVertex
100
AcDb2dVertex
 10
-76.51629048138005
 20
492.3084411316256
 30
0.0
  0
VERTEX
  5
11C1
330
11AF
100
AcDbEntity
  8
SCHRAFFUR_RAND
100
AcDbVertex
100
AcDb2dVertex
 10
-76.35329048138004
 20
492.3424411316256
 30
0.0
  0
VERTEX
  5
11C2
330
11AF
100
AcDbEntity
  8
SCHRAFFUR_RAND
100
AcDbVertex
100
AcDb2dVertex
 10
-75.49129048138008
 20
492.6154411316256
 30
0.0
  0
VERTEX
  5
11C3
330
11AF
100
AcDbEntity
  8
SCHRAFFUR_RAND
100
AcDbVertex
100
AcDb2dVertex
 10
-75.18629048138007
 20
492.7514411316257
 30
0.0
  0
VERTEX
  5
11C4
330
11AF
100
AcDbEntity
  8
SCHRAFFUR_RAND
100
AcDbVertex
100
AcDb2dVertex
 10
-74.54529048138005
 20
493.1144411316256
 30
0.0
  0
VERTEX
  5
11C5
330
11AF
100
AcDbEntity
  8
SCHRAFFUR_RAND
100
AcDbVertex
100
AcDb2dVertex
 10
-74.14029048138008
 20
493.4084411316256
 30
0.0
  0
VERTEX
  5
11C6
330
11AF
100
AcDbEntity
  8
SCHRAFFUR_RAND
100
AcDbVertex
100
AcDb2dVertex
 10
-73.71329048138005
 20
493.7874411316256
 30
0.0
  0
VERTEX
  5
11C7
330
11AF
100
AcDbEntity
  8
SCHRAFFUR_RAND
100
AcDbVertex
100
AcDb2dVertex
 10
-73.26629048138006
 20
494.2824411316256
 30
0.0
  0
VERTEX
  5
11C8
330
11AF
100
AcDbEntity
  8
SCHRAFFUR_RAND
100
AcDbVertex
100
AcDb2dVertex
 10
-73.02629048138005
 20
494.6074411316256
 30
0.0
  0
VERTEX
  5
11C9
330
11AF
100
AcDbEntity
  8
SCHRAFFUR_RAND
100
AcDbVertex
100
AcDb2dVertex
 10
-72.60929048138007
 20
495.3284411316256
 30
0.0
  0
VERTEX
  5
11CA
330
11AF
100
AcDbEntity
  8
SCHRAFFUR_RAND
100
AcDbVertex
100
AcDb2dVertex
 10
-72.51029048138002
 20
495.5444411316256
 30
0.0
  0
VERTEX
  5
11CB
330
11AF
100
AcDbEntity
  8
SCHRAFFUR_RAND
100
AcDbVertex
100
AcDb2dVertex
 10
-72.20029048138002
 20
496.4954411316257
 30
0.0
  0
VERTEX
  5
11CC
330
11AF
100
AcDbEntity
  8
SCHRAFFUR_RAND
100
AcDbVertex
100
AcDb2dVertex
 10
-72.18529048138004
 20
496.5644411316256
 30
0.0
  0
VERTEX
  5
11CD
330
11AF
100
AcDbEntity
  8
SCHRAFFUR_RAND
100
AcDbVertex
100
AcDb2dVertex
 10
-72.08229048138003
 20
497.6274411316256
 30
0.0
  0
VERTEX
  5
11CE
330
11AF
100
AcDbEntity
  8
SCHRAFFUR_RAND
100
AcDbVertex
100
AcDb2dVertex
 10
-72.08129048138005
 20
497.7234411316256
 30
0.0
  0
VERTEX
  5
11CF
330
11AF
100
AcDbEntity
  8
SCHRAFFUR_RAND
100
AcDbVertex
100
AcDb2dVertex
 10
-72.20029048138002
 20
498.9514411316256
 30
0.0
  0
VERTEX
  5
11D0
330
11AF
100
AcDbEntity
  8
SCHRAFFUR_RAND
100
AcDbVertex
100
AcDb2dVertex
 10
-72.60829048138004
 20
500.1174411316256
 30
0.0
  0
VERTEX
  5
11D1
330
11AF
100
AcDbEntity
  8
SCHRAFFUR_RAND
100
AcDbVertex
100
AcDb2dVertex
 10
-73.26629048138006
 20
501.1644411316257
 30
0.0
  0
VERTEX
  5
11D2
330
11AF
100
AcDbEntity
  8
SCHRAFFUR_RAND
100
AcDbVertex
100
AcDb2dVertex
 10
-74.14029048138008
 20
502.0374411316256
 30
0.0
  0
VERTEX
  5
11D3
330
11AF
100
AcDbEntity
  8
SCHRAFFUR_RAND
100
AcDbVertex
100
AcDb2dVertex
 10
-75.18629048138007
 20
502.6954411316256
 30
0.0
  0
VERTEX
  5
11D4
330
11AF
100
AcDbEntity
  8
SCHRAFFUR_RAND
100
AcDbVertex
100
AcDb2dVertex
 10
-76.35329048138004
 20
503.1034411316256
 30
0.0
  0
VERTEX
  5
11D5
330
11AF
100
AcDbEntity
  8
SCHRAFFUR_RAND
100
AcDbVertex
100
AcDb2dVertex
 10
-76.59929048138002
 20
503.1354411316256
 30
0.0
  0
SEQEND
  5
11D6
330
11AF
100
AcDbEntity
  8
SCHRAFFUR_RAND
  0
INSERT
  5
11DF
330
15F6
100
AcDbEntity
  8
8
100
AcDbBlockReference
  2
*X2
 10
-423.6942904813799
 20
-21.5575588683744
 30
0.0
1001
ACAD
1000
HATCH
1002
{
1070
    19
1000
ANSI37,_I
1040
3.174999999999999
1040
8.638999999999999
1002
}
  0
POLYLINE
  5
1548
330
15F6
100
AcDbEntity
  8
SCHRAFFUR_RAND
100
AcDb2dPolyline
 66
     1
 10
0.0
 20
0.0
 30
0.0
 70
     1
  0
VERTEX
  5
1549
330
1548
100
AcDbEntity
  8
SCHRAFFUR_RAND
100
AcDbVertex
100
AcDb2dVertex
 10
-39.90029048138001
 20
488.2234411316256
 30
0.0
  0
VERTEX
  5
154A
330
1548
100
AcDbEntity
  8
SCHRAFFUR_RAND
100
AcDbVertex
100
AcDb2dVertex
 10
-28.87329048138008
 20
488.2234411316256
 30
0.0
  0
VERTEX
  5
154B
330
1548
100
AcDbEntity
  8
SCHRAFFUR_RAND
100
AcDbVertex
100
AcDb2dVertex
 10
-29.39629048138011
 20
498.2094411316256
 30
0.0
  0
VERTEX
  5
154C
330
1548
100
AcDbEntity
  8
SCHRAFFUR_RAND
100
AcDbVertex
100
AcDb2dVertex
 10
-37.65029048138001
 20
498.2784411316256
 30
0.0
  0
VERTEX
  5
154D
330
1548
100
AcDbEntity
  8
SCHRAFFUR_RAND
100
AcDbVertex
100
AcDb2dVertex
 10
-39.90029048138001
 20
488.2234411316256
 30
0.0
  0
SEQEND
  5
154E
330
1548
100
AcDbEntity
  8
SCHRAFFUR_RAND
  0
POLYLINE
  5
1568
330
15F6
100
AcDbEntity
  8
SCHRAFFUR_RAND
100
AcDb2dPolyline
 66
     1
 10
0.0
 20
0.0
 30
0.0
 70
     1
  0
VERTEX
  5
1569
330
1568
100
AcDbEntity
  8
SCHRAFFUR_RAND
100
AcDbVertex
100
AcDb2dVertex
 10
-280.09629048138
 20
498.2784411316256
 30
0.0
  0
VERTEX
  5
156A
330
1568
100
AcDbEntity
  8
SCHRAFFUR_RAND
100
AcDbVertex
100
AcDb2dVertex
 10
-288.34929048138
 20
498.2094411316256
 30
0.0
  0
VERTEX
  5
156B
330
1568
100
AcDbEntity
  8
SCHRAFFUR_RAND
100
AcDbVertex
100
AcDb2dVertex
 10
-288.87329048138
 20
488.2234411316256
 30
0.0
  0
VERTEX
  5
156C
330
1568
100
AcDbEntity
  8
SCHRAFFUR_RAND
100
AcDbVertex
100
AcDb2dVertex
 10
-277.84629048138
 20
488.2234411316256
 30
0.0
  0
VERTEX
  5
156D
330
1568
100
AcDbEntity
  8
SCHRAFFUR_RAND
100
AcDbVertex
100
AcDb2dVertex
 10
-280.09629048138
 20
498.2784411316256
 30
0.0
  0
SEQEND
  5
156E
330
1568
100
AcDbEntity
  8
SCHRAFFUR_RAND
  0
DIMENSION
  5
1591
330
15F6
100
AcDbEntity
  8
5
100
AcDbDimension
  2
*D5
 10
-388.80415648138
 20
538.2234411316256
 30
0.0
 11
-400.5541564813801
 21
450.723439553862
 31
0.0
 70
    32
  1
175
 71
     5
 42
175.0000031555269
  3
GEN-ISO
100
AcDbAlignedDimension
 13
-158.8497911787239
 23
363.2234379760986
 33
0.0
 14
-257.37329048138
 24
538.2234411316256
 34
0.0
 50
90.0
100
AcDbRotatedDimension
  0
DIMENSION
  5
159A
330
15F6
100
AcDbEntity
  8
5
100
AcDbDimension
  2
*D9
 10
-338.8037824813739
 20
538.2209984762043
 30
0.0
 11
-350.5542187829775
 21
513.2228606134601
 31
0.0
 70
    32
  1
50
 71
     5
 42
49.99668588547854
  3
GEN-ISO
100
AcDbAlignedDimension
 13
-288.87329048138
 23
488.2234411316256
 33
0.0
 14
-306.87029048138
 24
538.2204411316256
 34
0.0
 50
89.99899999999701
100
AcDbRotatedDimension
  0
DIMENSION
  5
15A4
330
15F6
100
AcDbEntity
  8
5
100
AcDbDimension
  2
*D8
 10
-373.87329048138
 20
263.2234411316256
 30
0.0
 11
-385.62329048138
 21
164.7234411316255
 31
0.0
 70
    32
  1
{\Fgeniso.shx;\U+25A1}197
 71
     5
 42
197.0
  3
GEN-ISO
100
AcDbAlignedDimension
 13
-259.46629048138
 23
66.22344113162558
 33
0.0
 14
-259.46629048138
 24
263.2234411316256
 34
0.0
 50
90.0
100
AcDbRotatedDimension
1001
GENIUS_GENDTOL_13
1000

1000
B2/max
1000

1040
0.0
1000
{\Fgeniso.shx;\U+25A1}197
  0
DIMENSION
  5
15AE
330
15F6
100
AcDbEntity
  8
5
100
AcDbDimension
  2
*D7
 10
-28.87329048138009
 20
16.22344113162559
 30
0.0
 11
-158.87329048138
 21
27.97516357257047
 31
0.0
 70
    32
  1
260
 71
     5
 42
260.0
  3
GEN-ISO
100
AcDbAlignedDimension
 13
-288.87329048138
 23
137.2064411316256
 33
0.0
 14
-28.87329048138008
 24
137.2064411316256
 34
0.0
100
AcDbRotatedDimension
  0
DIMENSION
  5
15B9
330
15F6
100
AcDbEntity
  8
5
100
AcDbDimension
  2
*D6
 10
-338.87329048138
 20
169.2234411316256
 30
0.0
 11
-350.62329048138
 21
201.6817455481425
 31
0.0
 70
    32
  1
9
 71
     5
 42
9.0
  3
GEN-ISO
100
AcDbAlignedDimension
 13
-273.34629048138
 23
160.2234411316256
 33
0.0
 14
-273.34629048138
 24
169.2234411316255
 34
0.0
 50
90.0
100
AcDbRotatedDimension
  0
POINT
  5
168A
330
15F6
100
AcDbEntity
  8
0
 60
     1
100
AcDbPoint
 10
0.0
 20
0.0
 30
0.0
1001
GENIUS_GENOBJ-N-TIT_13
1002
{
1000
OWNER
1000
GEN
1002
}
1001
GENIUS_GENOENT_13
1002
{
1000
MYREF
1005
168A
1002
}
1002
{
1000
GRP
1005
0
1002
}
1001
GENIUS_GENOLIS_13
1002
{
1000
ENT
1005
1714
1002
}
1001
GENIUS_GENTITLE_13
1002
{
1000
SCALE
1000
1:5
1002
}
1002
{
1000
BORDER
1000
KATALOG
1002
}
1002
{
1000
TITLE
1000
KATALOG_LEER
1002
}
1002
{
1000
UNCHG
1002
{
1000
GEN-TITLE-SCA
1000
GEN-TITLE-SIZ
1002
}
1002
}
1002
{
1000
HRA
1005
1682
1002
}
1002
{
1000
HTIT
1005
1714
1002
}
1002
{
1000
GENIUSID
1005
168A
1002
}
1001
GENIUS_GENODEF_13
1002
{
1000
HIER
1070
     1
1002
}
1002
{
1000
MANEDIT
1070
     1
1002
}
1002
{
1000
NOSEL
1070
     0
1002
}
1002
{
1000
BEHIND
1070
     0
1002
}
1002
{
1000
REACTOR
1002
}
  0
INSERT
  5
1714
330
15F6
100
AcDbEntity
  8
0
100
AcDbBlockReference
  2
KATALOG_LEER
 10
251.839706
 20
11.304483
 30
0.0
 41
5.0
 42
5.0
 43
5.0
1001
GENIUS_GENOREF_13
1005
168A
  0
HATCH
  5
1829
330
15F6
100
AcDbEntity
  8
8
100
AcDbHatch
 10
0.0
 20
0.0
 30
0.0
210
0.0
220
0.0
230
1.0
  2
_U
 70
     0
 71
     0
 91
        1
 92
        1
 93
        4
 72
     1
 10
-277.84629048138
 20
488.2234411316256
 11
-280.09629048138
 21
498.2784411316256
 72
     1
 10
-280.09629048138
 20
498.2784411316256
 11
-288.34929048138
 21
498.2094411316256
 72
     1
 10
-288.34929048138
 20
498.2094411316256
 11
-288.87329048138
 21
488.2234411316256
 72
     1
 10
-288.87329048138
 20
488.2234411316256
 11
-277.84629048138
 21
488.2234411316256
 97
        0
 75
     0
 76
     0
 52
45.0
 41
2.5
 77
     0
 78
     1
 53
45.0
 43
-580.9854424813799
 44
-100.2051738683744
 45
-1.767766952966368
 46
1.767766952966368
 79
     0
 98
        1
 10
-580.9854424813799
 20
-100.2051738683744
1001
GENIUS_GENODEF_13
1002
{
1000
HIER
1070
     0
1002
}
1002
{
1000
MANEDIT
1070
     0
1002
}
1002
{
1000
NOSEL
1070
     0
1002
}
1002
{
1000
BEHIND
1070
     0
1002
}
1002
{
1000
REACTOR
1002
}
1001
GENIUS_GENOBJ-N-HTC_13
1002
{
1000
OWNER
1000
GEN
1002
}
1001
GENIUS_GENHATCH_13
1002
{
1000
DATA
1040
45.0
1042
2.5
1000
_U
1070
     0
1011
-284.71633048138
1021
493.4935781316254
1031
0.0
1002
}
1002
{
1000
UCS
1010
0.0
1020
0.0
1030
0.0
1010
1.0
1020
0.0
1030
0.0
1010
0.0
1020
1.0
1030
0.0
1002
}
  0
HATCH
  5
18E3
330
15F6
100
AcDbEntity
  8
8
100
AcDbHatch
 10
0.0
 20
0.0
 30
0.0
210
0.0
220
0.0
230
1.0
  2
_U
 70
     0
 71
     0
 91
        1
 92
        1
 93
      117
 72
     1
 10
-242.14329048138
 20
531.6784411316257
 11
-241.14629048138
 21
503.1354411316256
 72
     1
 10
-241.14629048138
 20
503.1354411316256
 11
-241.12362148138
 21
503.1393071316255
 72
     2
 10
-240.16529048138
 20
497.7234411316256
 40
5.5
 50
259.965453
 51
260.679456
 73
     0
 72
     1
 10
-241.05605848138
 20
503.1508291316256
 11
-240.54229048138
 21
503.2384411316256
 72
     1
 10
-240.54229048138
 20
503.2384411316256
 11
-240.29962648138
 21
503.2218001316255
 72
     2
 10
-240.16529048138
 20
497.7234411316256
 40
5.5
 50
268.600434
 51
271.482454
 73
     0
 72
     1
 10
-240.02300148138
 20
503.2216001316256
 11
-239.75129048138
 21
503.2424411316256
 72
     1
 10
-239.75129048138
 20
503.2424411316256
 11
-239.48056148138
 21
503.1806521316255
 72
     2
 10
-240.16529048138
 20
497.7234411316256
 40
5.5
 50
277.151662
 51
279.245425
 73
     0
 72
     1
 10
-239.28164048138
 20
503.1519921316256
 11
-239.04029048138
 21
503.1354411316256
 72
     1
 10
-239.04029048138
 20
503.1354411316256
 11
-238.81250848138
 21
503.0544801316255
 72
     2
 10
-240.16529048138
 20
497.7234411316256
 40
5.5
 50
284.238598
 51
288.561573
 73
     0
 72
     1
 10
-238.41451148138
 20
502.9373431316256
 11
-238.14329048138
 21
502.8754411316256
 72
     1
 10
-238.14329048138
 20
502.8754411316256
 11
-237.90230948138
 21
502.7363161316256
 72
     2
 10
-240.16529048138
 20
497.7234411316256
 40
5.5
 50
294.296031
 51
294.894899
 73
     0
 72
     1
 10
-237.85003848138
 20
502.7123891316255
 11
-237.62229048138
 21
502.6314411316256
 72
     1
 10
-237.62229048138
 20
502.6314411316256
 11
-237.4246834813801
 21
502.4919911316256
 72
     2
 10
-240.16529048138
 20
497.7234411316256
 40
5.5
 50
299.887082
 51
305.701952
 73
     0
 72
     1
 10
-236.95566248138
 20
502.1897911316257
 11
-236.71429048138
 21
502.0504411316256
 72
     1
 10
-236.71429048138
 20
502.0504411316256
 11
-236.55394448138
 21
501.8775191316255
 72
     1
 10
-236.55394448138
 20
501.8775191316255
 11
-236.39229048138
 21
501.7634411316255
 72
     1
 10
-236.39229048138
 20
501.7634411316255
 11
-236.23895948138
 21
501.5749241316256
 72
     2
 10
-240.16529048138
 20
497.7234411316256
 40
5.5
 50
315.55136
 51
322.881886
 73
     0
 72
     1
 10
-235.77962848138
 20
501.0424721316256
 11
-235.59229048138
 21
500.8404411316256
 72
     1
 10
-235.59229048138
 20
500.8404411316256
 11
-235.52092448138
 21
500.6921191316256
 72
     1
 10
-235.52092448138
 20
500.6921191316256
 11
-235.44229048138
 21
500.5954411316255
 72
     1
 10
-235.44229048138
 20
500.5954411316255
 11
-235.34598948138
 21
500.3737861316255
 72
     2
 10
-240.16529048138
 20
497.7234411316256
 40
5.5
 50
331.19168
 51
340.061358
 73
     0
 72
     1
 10
-234.99497048138
 20
499.5990161316256
 11
-234.87729048138
 21
499.3544411316256
 72
     1
 10
-234.87729048138
 20
499.3544411316256
 11
-234.86114948138
 21
499.2578461316256
 72
     1
 10
-234.86114948138
 20
499.2578461316256
 11
-234.84229048138
 21
499.2144411316256
 72
     1
 10
-234.84229048138
 20
499.2144411316256
 11
-234.79538848138
 21
498.9126201316255
 72
     2
 10
-240.16529048138
 20
497.7234411316256
 40
5.5
 50
347.513221
 51
354.784091
 73
     0
 72
     1
 10
-234.68806548138
 20
498.2234411316256
 11
-229.37329048138
 21
498.2234411316256
 72
     1
 10
-229.37329048138
 20
498.2234411316256
 11
-227.99429048138
 21
524.5374411316256
 72
     1
 10
-227.99429048138
 20
524.5374411316256
 11
-227.9939584813801
 21
524.5395491316257
 72
     2
 10
-222.00229048138
 20
524.2234411316255
 40
6.0
 50
183.020004
 51
194.925249
 73
     0
 72
     1
 10
-227.7998674813801
 20
525.7687931316256
 11
-227.75729048138
 21
526.0384411316257
 72
     1
 10
-227.75729048138
 20
526.0384411316256
 11
-227.60808248138
 21
526.3623901316255
 72
     2
 10
-222.00229048138
 20
524.2234411316255
 40
6.0
 50
200.884881
 51
208.576043
 73
     0
 72
     1
 10
-227.27138948138
 20
527.0933891316255
 11
-227.12029048138
 21
527.4214411316257
 72
     1
 10
-227.12029048138
 20
527.4214411316257
 11
-226.89182748138
 21
527.7008581316256
 72
     2
 10
-222.00229048138
 20
524.2234411316255
 40
6.0
 50
215.420271
 51
223.121484
 73
     0
 72
     1
 10
-226.3817274813801
 20
528.3247261316255
 11
-226.15629048138
 21
528.6004411316254
 72
     1
 10
-226.15629048138
 20
528.6004411316254
 11
-225.86974948138
 21
528.8106801316255
 72
     2
 10
-222.00229048138
 20
524.2234411316255
 40
6.0
 50
229.8660740000001
 51
237.597937
 73
     0
 72
     1
 10
-225.21743448138
 20
529.2892931316255
 11
-224.92829048138
 21
529.5014411316255
 72
     1
 10
-224.92829048138
 20
529.5014411316255
 11
-224.59570248138
 21
529.6340071316254
 72
     2
 10
-222.00229048138
 20
524.2234411316255
 40
6.0
 50
244.390504
 51
252.146372
 73
     0
 72
     1
 10
-223.84180948138
 20
529.9344981316255
 11
-223.51329048138
 21
530.0654411316255
 72
     1
 10
-223.51329048138
 20
530.0654411316257
 11
-223.24351748138
 21
530.0936501316256
 72
     2
 10
-222.00229048138
 20
524.2234411316255
 40
6.0
 50
258.060949
 51
270.0
 73
     0
 72
     1
 10
-222.00229048138
 20
530.2234411316256
 11
-95.74429048138005
 21
530.2234411316256
 72
     2
 10
-95.74429048138005
 20
524.2234411316255
 40
6.0
 50
270.0
 51
281.9390509999999
 73
     0
 72
     1
 10
-94.50306448137997
 20
530.0936501316255
 11
-94.23329048138004
 21
530.0654411316255
 72
     1
 10
-94.23329048138004
 20
530.0654411316257
 11
-93.90477248138001
 21
529.9344981316257
 72
     2
 10
-95.74429048138005
 20
524.2234411316255
 40
6.0
 50
287.853628
 51
295.609496
 73
     0
 72
     1
 10
-93.15087948138
 20
529.6340071316255
 11
-92.81829048138007
 21
529.5014411316257
 72
     1
 10
-92.81829048138007
 20
529.5014411316255
 11
-92.52914748138
 21
529.2892931316255
 72
     2
 10
-95.74429048138005
 20
524.2234411316255
 40
6.0
 50
302.402063
 51
310.133926
 73
     0
 72
     1
 10
-91.87683248138005
 20
528.8106801316255
 11
-91.59029048138007
 21
528.6004411316254
 72
     1
 10
-91.59029048138007
 20
528.6004411316254
 11
-91.36485448138001
 21
528.3247261316255
 72
     2
 10
-95.74429048138005
 20
524.2234411316255
 40
6.0
 50
316.878516
 51
324.579729
 73
     0
 72
     1
 10
-90.85475448138003
 20
527.7008581316256
 11
-90.62629048138006
 21
527.4214411316257
 72
     1
 10
-90.62629048138006
 20
527.4214411316257
 11
-90.47363748138002
 21
527.0905321316256
 72
     2
 10
-95.74429048138005
 20
524.2234411316255
 40
6.0
 50
331.455025
 51
339.015713
 73
     0
 72
     1
 10
-90.14221848137998
 20
526.3721131316255
 11
-89.98829048138004
 21
526.0384411316257
 72
     1
 10
-89.98829048138004
 20
526.0384411316256
 11
-89.94470748138002
 21
525.7612411316255
 72
     2
 10
-95.74429048138005
 20
524.2234411316255
 40
6.0
 50
345.149374
 51
356.9798670000001
 73
     0
 72
     1
 10
-89.75262448138005
 20
524.5395621316256
 11
-89.75229048138004
 21
524.5374411316256
 72
     1
 10
-89.75229048138004
 20
524.5374411316256
 11
-88.37329048138002
 21
498.2234411316256
 72
     1
 10
-88.37329048138002
 20
498.2234411316256
 11
-83.05851648138002
 21
498.2234411316256
 72
     2
 10
-77.58129048138005
 20
497.7234411316256
 40
5.5
 50
185.215909
 51
185.246886
 73
     0
 72
     1
 10
-83.05824548138003
 20
498.2264021316255
 11
-83.05329048138004
 21
498.5484411316257
 72
     1
 10
-83.05329048138004
 20
498.5484411316257
 11
-82.97979648137999
 21
498.7867691316256
 72
     1
 10
-82.97979648137999
 20
498.7867691316256
 11
-82.96129048138004
 21
498.9514411316256
 72
     1
 10
-82.96129048138004
 20
498.9514411316256
 11
-82.89709548138
 21
499.1349001316256
 72
     2
 10
-77.58129048138005
 20
497.7234411316256
 40
5.5
 50
194.87013
 51
202.908891
 73
     0
 72
     1
 10
-82.64747848138005
 20
499.8644091316255
 11
-82.56729048138003
 21
500.1244411316256
 72
     1
 10
-82.56729048138003
 20
500.1244411316256
 11
-82.41377148138003
 21
500.3496801316256
 72
     2
 10
-77.58129048138005
 20
497.7234411316256
 40
5.5
 50
208.522114
 51
216.581105
 73
     0
 72
     1
 10
-81.99786848138002
 20
501.0012221316256
 11
-81.89529048138007
 21
501.1644411316257
 72
     1
 10
-81.89529048138007
 20
501.1644411316257
 11
-81.77985048138003
 21
501.2797501316256
 72
     1
 10
-81.77985048138003
 20
501.2797501316256
 11
-81.63829048138007
 21
501.4874411316256
 72
     1
 10
-81.63829048138007
 20
501.4874411316256
 11
-81.42391348138
 21
501.6584441316255
 72
     2
 10
-77.58129048138005
 20
497.7234411316256
 40
5.5
 50
225.680513
 51
229.504359
 73
     0
 72
     1
 10
-81.15293748138004
 20
501.9059461316256
 11
-81.02129048138005
 21
502.0374411316256
 72
     1
 10
-81.02129048138005
 20
502.0374411316256
 11
-80.86373348138
 21
502.1365551316256
 72
     2
 10
-77.58129048138005
 20
497.7234411316256
 40
5.5
 50
233.358398
 51
237.16255
 73
     0
 72
     1
 10
-80.56370748138006
 20
502.3446091316256
 11
-80.34829048138005
 21
502.5164411316256
 72
     1
 10
-80.34829048138005
 20
502.5164411316256
 11
-80.11300948138
 21
502.6088071316256
 72
     1
 10
-80.11300948138
 20
502.6088071316256
 11
-79.97529048138005
 21
502.6954411316256
 72
     1
 10
-79.97529048138005
 20
502.6954411316256
 11
-79.79210948138001
 21
502.7595391316255
 72
     2
 10
-77.58129048138005
 20
497.7234411316256
 40
5.5
 50
246.2987930000001
 51
254.282106
 73
     0
 72
     1
 10
-79.07124748138
 20
503.0177811316256
 11
-78.81229048138004
 21
503.1194411316255
 72
     1
 10
-78.81229048138004
 20
503.1194411316255
 11
-78.53448548137999
 21
503.1402131316255
 72
     2
 10
-77.58129048138005
 20
497.7234411316256
 40
5.5
 50
260.019781
 51
268.02953
 73
     0
 72
     1
 10
-77.77040548138001
 20
503.2201891316255
 11
-77.58129048138005
 21
503.2414411316256
 72
     1
 10
-77.58129048138005
 20
503.2414411316256
 11
-77.41734348137999
 21
503.2237441316255
 72
     1
 10
-77.41734348137999
 20
503.2237441316255
 11
-77.16729048138006
 21
503.2424411316256
 72
     1
 10
-77.16729048138006
 20
503.2424411316256
 11
-76.59929048138002
 21
503.1354411316256
 72
     1
 10
-76.59929048138002
 20
503.1354411316256
 11
-75.60329048138004
 21
531.6784411316257
 72
     1
 10
-75.60329048138004
 20
531.6784411316257
 11
-75.49729048138004
 21
532.2884411316257
 72
     1
 10
-75.49729048138004
 20
532.2884411316256
 11
-75.13929048138004
 21
532.7994411316256
 72
     1
 10
-75.13929048138004
 20
532.7994411316256
 11
-74.61629048138007
 21
533.1384411316255
 72
     1
 10
-74.61629048138007
 20
533.1384411316255
 11
-74.44032448138006
 21
533.1628811316256
 72
     2
 10
-74.00429048138005
 20
531.6234411316257
 40
1.6
 50
254.185675
 51
270.0
 73
     0
 72
     1
 10
-74.00429048138005
 20
533.2234411316256
 11
-73.54829048138004
 21
533.2234411316256
 72
     1
 10
-73.54829048138004
 20
533.2234411316256
 11
-73.37329048138002
 21
538.2234411316256
 72
     1
 10
-73.37329048138002
 20
538.2234411316256
 11
-244.37229048138
 21
538.2234411316256
 72
     1
 10
-244.37229048138
 20
538.2234411316256
 11
-244.19829048138
 21
533.2234411316256
 72
     1
 10
-244.19829048138
 20
533.2234411316256
 11
-243.74229048138
 21
533.2234411316256
 72
     2
 10
-243.74229048138
 20
531.6234411316257
 40
1.6
 50
270.0
 51
285.814325
 73
     0
 72
     1
 10
-243.30625748138
 20
533.1628811316257
 11
-243.13029048138
 21
533.1384411316256
 72
     1
 10
-243.13029048138
 20
533.1384411316255
 11
-242.60729048138
 21
532.7994411316256
 72
     1
 10
-242.60729048138
 20
532.7994411316256
 11
-242.24929048138
 21
532.2884411316256
 72
     1
 10
-242.24929048138
 20
532.2884411316256
 11
-242.14329048138
 21
531.6784411316255
 97
        0
 75
     0
 76
     0
 52
45.0
 41
2.5
 77
     0
 78
     1
 53
45.0
 43
-580.9854424813799
 44
-100.2051738683744
 45
-1.767766952966368
 46
1.767766952966368
 79
     0
 98
        1
 10
-580.9854424813799
 20
-100.2051738683744
1001
GENIUS_GENODEF_13
1002
{
1000
HIER
1070
     0
1002
}
1002
{
1000
MANEDIT
1070
     0
1002
}
1002
{
1000
NOSEL
1070
     0
1002
}
1002
{
1000
BEHIND
1070
     0
1002
}
1002
{
1000
REACTOR
1002
}
1001
GENIUS_GENOBJ-N-HTC_13
1002
{
1000
OWNER
1000
GEN
1002
}
1001
GENIUS_GENHATCH_13
1002
{
1000
DATA
1040
45.0
1042
2.5
1000
_U
1070
     0
1011
-233.24136848138
1021
529.9378661316256
1031
0.0
1002
}
1002
{
1000
UCS
1010
0.0
1020
0.0
1030
0.0
1010
1.0
1020
0.0
1030
0.0
1010
0.0
1020
1.0
1030
0.0
1002
}
  0
HATCH
  5
1933
330
15F6
100
AcDbEntity
  8
8
100
AcDbHatch
 10
0.0
 20
0.0
 30
0.0
210
0.0
220
0.0
230
1.0
  2
_U
 70
     0
 71
     0
 91
        1
 92
        1
 93
        4
 72
     1
 10
-29.39629048138011
 20
498.2094411316256
 11
-37.65029048138001
 21
498.2784411316256
 72
     1
 10
-37.65029048138001
 20
498.2784411316256
 11
-39.90029048138001
 21
488.2234411316256
 72
     1
 10
-39.90029048138001
 20
488.2234411316256
 11
-28.87329048138008
 21
488.2234411316256
 72
     1
 10
-28.87329048138008
 20
488.2234411316256
 11
-29.39629048138011
 21
498.2094411316256
 97
        0
 75
     0
 76
     0
 52
45.0
 41
2.5
 77
     0
 78
     1
 53
45.0
 43
-580.9854424813799
 44
-100.2051738683744
 45
-1.767766952966368
 46
1.767766952966368
 79
     0
 98
        1
 10
-580.9854424813799
 20
-100.2051738683744
1001
GENIUS_GENODEF_13
1002
{
1000
HIER
1070
     0
1002
}
1002
{
1000
MANEDIT
1070
     0
1002
}
1002
{
1000
NOSEL
1070
     0
1002
}
1002
{
1000
BEHIND
1070
     0
1002
}
1002
{
1000
REACTOR
1002
}
1001
GENIUS_GENOBJ-N-HTC_13
1002
{
1000
OWNER
1000
GEN
1002
}
1001
GENIUS_GENHATCH_13
1002
{
1000
DATA
1040
45.0
1042
2.5
1000
_U
1070
     0
1011
-32.91797748137992
1021
490.9210401316256
1031
0.0
1002
}
1002
{
1000
UCS
1010
0.0
1020
0.0
1030
0.0
1010
1.0
1020
0.0
1030
0.0
1010
0.0
1020
1.0
1030
0.0
1002
}
  0
ARC
  5
1AD4
330
15F6
100
AcDbEntity
  8
Kontur
100
AcDbCircle
 10
-65.86716874974115
 20
478.2234379760986
 30
0.0
 40
10.0
100
AcDbArc
 50
90.0
 51
176.9999999999976
  0
LINE
  5
1AD5
330
15F6
100
AcDbEntity
  8
0
100
AcDbLine
 10
-68.34979117872387
 20
538.2234379760985
 30
0.0
 11
-71.50091066617574
 21
529.5658083383211
 31
0.0
  0
LINE
  5
1AD6
330
15F6
100
AcDbEntity
  8
0
100
AcDbLine
 10
-158.8497911787239
 20
538.2234379760985
 30
0.0
 11
-60.34979117872388
 21
538.2234379760985
 31
0.0
  0
LINE
  5
1AD7
330
15F6
100
AcDbEntity
  8
Kontur
100
AcDbLine
 10
-112.9938297937112
 20
363.219793027583
 30
0.0
 11
-113.256658441129
 21
383.2234379760986
 31
0.0
  0
LINE
  5
1AD8
330
15F6
100
AcDbEntity
  8
Kontur
100
AcDbLine
 10
-106.6047570661989
 20
363.219793027583
 30
0.0
 11
-105.9938297937113
 21
398.219793027583
 31
0.0
  0
LINE
  5
1AD9
330
15F6
100
AcDbEntity
  8
0
100
AcDbLine
 10
-158.8497911787239
 20
363.2234379760986
 30
0.0
 11
-106.6045709860051
 21
363.2304535547488
 31
0.0
  0
LINE
  5
1ADA
330
15F6
100
AcDbEntity
  8
0
100
AcDbLine
 10
-71.34979117872387
 20
538.2234379760985
 30
0.0
 11
-72.05839678919801
 21
497.6274497406935
 31
0.0
  0
LINE
  5
1ADB
330
15F6
100
AcDbEntity
  8
Kontur
100
AcDbLine
 10
-76.69352285430102
 20
462.7175215702186
 30
0.0
 11
-75.85346409728686
 21
478.7467975385281
 31
0.0
  0
ARC
  5
1ADC
330
15F6
100
AcDbEntity
  8
Kontur
100
AcDbCircle
 10
-99.3077144555707
 20
437.4749532171943
 30
0.0
 40
6.0
100
AcDbArc
 50
120.0000000000005
 51
178.9999999999982
  0
ARC
  5
1ADD
330
15F6
100
AcDbEntity
  8
Kontur
100
AcDbCircle
 10
-102.2979958118231
 20
438.0579145479676
 30
0.0
 40
10.0
100
AcDbArc
 50
120.0000000000005
 51
178.9999999999982
  0
LINE
  5
1ADE
330
15F6
100
AcDbEntity
  8
0
100
AcDbLine
 10
-113.256658441129
 20
383.2234379760986
 30
0.0
 11
-158.8497911787239
 21
383.2234379760986
 31
0.0
  0
LINE
  5
1ADF
330
15F6
100
AcDbEntity
  8
0
100
AcDbLine
 10
-158.8497911787239
 20
388.2234379760986
 30
0.0
 11
-113.169383116488
 21
388.2234379760987
 31
0.0
  0
LINE
  5
1AE0
330
15F6
100
AcDbEntity
  8
Kontur
100
AcDbLine
 10
-105.9938297937113
 20
398.219793027583
 30
0.0
 11
-105.306800626509
 21
437.5796676558182
 31
0.0
  0
LINE
  5
1AE1
330
15F6
100
AcDbEntity
  8
Kontur
100
AcDbLine
 10
-112.2964727633871
 20
438.2324386123404
 30
0.0
 11
-113.256658441129
 21
383.2234379760986
 31
0.0
  0
LINE
  5
1AE2
330
15F6
100
AcDbEntity
  8
0
100
AcDbLine
 10
-158.8497911787239
 20
499.6326117484108
 30
0.0
 11
-72.02181117846021
 21
499.6326117484108
 31
0.0
  0
LINE
  5
1AE3
330
15F6
100
AcDbEntity
  8
0
100
AcDbLine
 10
-158.8497911787239
 20
492.2234379760985
 30
0.0
 11
-77.55755911255824
 21
492.2234379760985
 31
0.0
  0
LINE
  5
1AE4
330
15F6
100
AcDbEntity
  8
0
100
AcDbLine
 10
-84.1207804686976
 20
462.3394832872106
 30
0.0
 11
-83.59915409929124
 21
492.2234379760985
 31
0.0
  0
LINE
  5
1AE5
330
15F6
100
AcDbEntity
  8
Kontur
100
AcDbLine
 10
-86.12017124932322
 20
458.945191297822
 30
0.0
 11
-107.2979958118233
 21
446.718168585812
 31
0.0
  0
LINE
  5
1AE6
330
15F6
100
AcDbEntity
  8
Kontur
100
AcDbLine
 10
-81.67981820184683
 20
454.580627094804
 30
0.0
 11
-102.3077144555707
 21
442.6711056399009
 31
0.0
  0
ARC
  5
1AE7
330
15F6
100
AcDbEntity
  8
Kontur
100
AcDbCircle
 10
-86.67981820184673
 20
463.2408811326484
 30
0.0
 40
10.0
100
AcDbArc
 50
300.0000000000005
 51
356.9999999999976
  0
ARC
  5
1AE8
330
15F6
100
AcDbEntity
  8
Kontur
100
AcDbCircle
 10
-88.12017124932323
 20
462.4092929129598
 30
0.0
 40
4.0
100
AcDbArc
 50
300.0000000000005
 51
358.9999999999982
  0
LINE
  5
1AE9
330
15F6
100
AcDbEntity
  8
0
100
AcDbLine
 10
-113.631069519909
 20
502.1326117484108
 30
0.0
 11
-71.97817351613981
 21
502.1326117484108
 31
0.0
  0
LINE
  5
1AEA
330
15F6
100
AcDbEntity
  8
Kontur
100
AcDbLine
 10
-113.8497911787238
 20
499.6326117484108
 30
0.0
 11
-113.631069519909
 21
502.1326117484108
 31
0.0
  0
ARC
  5
1AEB
330
15F6
100
AcDbEntity
  8
0
100
AcDbCircle
 10
-77.55755911255824
 20
497.7234379760985
 30
0.0
 40
5.5
100
AcDbArc
 50
270.0
 51
358.9999999999982
  0
LINE
  5
1AEC
330
15F6
100
AcDbEntity
  8
Kontur
100
AcDbLine
 10
-83.34979117872387
 20
499.6326117484108
 30
0.0
 11
-83.13106951990903
 21
502.1326117484108
 31
0.0
  0
LINE
  5
1AED
330
15F6
100
AcDbEntity
  8
0
100
AcDbLine
 10
-60.34979117872388
 20
538.2234379760985
 30
0.0
 11
-58.32797745946186
 21
499.6449340417341
 31
0.0
  0
LINE
  5
1AEE
330
15F6
100
AcDbEntity
  8
0
100
AcDbLine
 10
-31.27179810498404
 20
498.2234379760986
 30
0.0
 11
-56.83003315732992
 21
498.2234379760986
 31
0.0
  0
LINE
  5
1AEF
330
15F6
100
AcDbEntity
  8
0
100
AcDbLine
 10
-28.84979117872388
 20
488.2234379760985
 30
0.0
 11
-65.86716874974115
 21
488.2234379760986
 31
0.0
  0
LINE
  5
1AF0
330
15F6
100
AcDbEntity
  8
0
100
AcDbLine
 10
-48.34979117872387
 20
488.2234379760985
 30
0.0
 11
-50.59979117872387
 21
498.2234379760986
 31
0.0
  0
ARC
  5
1AF1
330
15F6
100
AcDbEntity
  8
0
100
AcDbCircle
 10
-56.83003315732992
 20
499.7234379760985
 30
0.0
 40
1.5
100
AcDbArc
 50
182.9999999999991
 51
270.0
  0
LINE
  5
1AF2
330
15F6
100
AcDbEntity
  8
BEMASS
100
AcDbLine
 10
-28.84979117872388
 20
488.2234379760985
 30
0.0
 11
-28.84979117872388
 21
494.247633268418
 31
0.0
  0
LINE
  5
1AF3
330
15F6
100
AcDbEntity
  8
0
100
AcDbLine
 10
-39.34979117872387
 20
488.2234379760985
 30
0.0
 11
-37.09979117872388
 21
498.2234379760986
 31
0.0
  0
LINE
  5
1AF4
330
15F6
100
AcDbEntity
  8
0
100
AcDbLine
 10
-28.84979117872388
 20
488.2234379760985
 30
0.0
 11
-29.2745390354749
 21
496.3281098885844
 31
0.0
  0
ARC
  5
1AF5
330
15F6
100
AcDbEntity
  8
0
100
AcDbCircle
 10
-31.27179810498404
 20
496.2234379760985
 30
0.0
 40
2.0
100
AcDbArc
 50
3.000000000002342
 51
90.0
  0
LINE
  5
1AF6
330
15F6
100
AcDbEntity
  8
BEMASS
100
AcDbLine
 10
-60.34979117872388
 20
538.2234379760985
 30
0.0
 11
-60.34979117872388
 21
526.7296963388456
 31
0.0
  0
ARC
  5
1AF7
330
15F6
100
AcDbEntity
  8
Kontur
100
AcDbCircle
 10
-251.8324136077066
 20
478.2234379760986
 30
0.0
 40
10.0
100
AcDbArc
 50
3.000000000002342
 51
90.0
  0
LINE
  5
1AF8
330
15F6
100
AcDbEntity
  8
0
100
AcDbLine
 10
-249.3497911787239
 20
538.2234379760985
 30
0.0
 11
-246.198671691272
 21
529.5658083383211
 31
0.0
  0
LINE
  5
1AF9
330
15F6
100
AcDbEntity
  8
0
100
AcDbLine
 10
-158.8497911787239
 20
538.2234379760985
 30
0.0
 11
-257.3497911787239
 21
538.2234379760985
 31
0.0
  0
LINE
  5
1AFA
330
15F6
100
AcDbEntity
  8
Kontur
100
AcDbLine
 10
-204.7057525637365
 20
363.219793027583
 30
0.0
 11
-204.4429239163187
 21
383.2234379760986
 31
0.0
  0
LINE
  5
1AFB
330
15F6
100
AcDbEntity
  8
Kontur
100
AcDbLine
 10
-211.0948252912489
 20
363.219793027583
 30
0.0
 11
-211.7057525637365
 21
398.219793027583
 31
0.0
  0
LINE
  5
1AFC
330
15F6
100
AcDbEntity
  8
0
100
AcDbLine
 10
-158.849791178724
 20
363.2234379760986
 30
0.0
 11
-211.0950113714427
 21
363.2304535547488
 31
0.0
  0
LINE
  5
1AFD
330
15F6
100
AcDbEntity
  8
0
100
AcDbLine
 10
-246.3497911787239
 20
538.2234379760985
 30
0.0
 11
-245.6411855682497
 21
497.6274497406935
 31
0.0
  0
LINE
  5
1AFE
330
15F6
100
AcDbEntity
  8
Kontur
100
AcDbLine
 10
-241.0060595031467
 20
462.7175215702186
 30
0.0
 11
-241.8461182601609
 21
478.7467975385281
 31
0.0
  0
ARC
  5
1AFF
330
15F6
100
AcDbEntity
  8
Kontur
100
AcDbCircle
 10
-218.391867901877
 20
437.4749532171943
 30
0.0
 40
6.0
100
AcDbArc
 50
1.000000000001761
 51
59.99999999999946
  0
ARC
  5
1B00
330
15F6
100
AcDbEntity
  8
Kontur
100
AcDbCircle
 10
-215.4015865456246
 20
438.0579145479676
 30
0.0
 40
10.0
100
AcDbArc
 50
1.000000000001761
 51
59.99999999999946
  0
LINE
  5
1B01
330
15F6
100
AcDbEntity
  8
0
100
AcDbLine
 10
-204.4429239163187
 20
383.2234379760986
 30
0.0
 11
-158.849791178724
 21
383.2234379760986
 31
0.0
  0
LINE
  5
1B02
330
15F6
100
AcDbEntity
  8
0
100
AcDbLine
 10
-158.849791178724
 20
388.2234379760986
 30
0.0
 11
-204.5301992409599
 21
388.2234379760987
 31
0.0
  0
LINE
  5
1B03
330
15F6
100
AcDbEntity
  8
Kontur
100
AcDbLine
 10
-211.7057525637365
 20
398.219793027583
 30
0.0
 11
-212.3927817309387
 21
437.5796676558182
 31
0.0
  0
LINE
  5
1B04
330
15F6
100
AcDbEntity
  8
Kontur
100
AcDbLine
 10
-205.4031095940607
 20
438.2324386123404
 30
0.0
 11
-204.4429239163187
 21
383.2234379760986
 31
0.0
  0
LINE
  5
1B05
330
15F6
100
AcDbEntity
  8
0
100
AcDbLine
 10
-158.8497911787239
 20
499.6326117484108
 30
0.0
 11
-245.6777711789875
 21
499.6326117484108
 31
0.0
  0
LINE
  5
1B06
330
15F6
100
AcDbEntity
  8
0
100
AcDbLine
 10
-158.8497911787239
 20
492.2234379760985
 30
0.0
 11
-240.1420232448895
 21
492.2234379760985
 31
0.0
  0
LINE
  5
1B07
330
15F6
100
AcDbEntity
  8
0
100
AcDbLine
 10
-233.5788018887502
 20
462.3394832872106
 30
0.0
 11
-234.1004282581565
 21
492.2234379760985
 31
0.0
  0
LINE
  5
1B08
330
15F6
100
AcDbEntity
  8
Kontur
100
AcDbLine
 10
-231.5794111081245
 20
458.945191297822
 30
0.0
 11
-210.4015865456246
 21
446.718168585812
 31
0.0
  0
LINE
  5
1B09
330
15F6
100
AcDbEntity
  8
Kontur
100
AcDbLine
 10
-236.0197641556009
 20
454.580627094804
 30
0.0
 11
-215.391867901877
 21
442.6711056399009
 31
0.0
  0
ARC
  5
1B0A
330
15F6
100
AcDbEntity
  8
Kontur
100
AcDbCircle
 10
-231.019764155601
 20
463.2408811326484
 30
0.0
 40
10.0
100
AcDbArc
 50
183.0000000000023
 51
239.9999999999995
  0
ARC
  5
1B0B
330
15F6
100
AcDbEntity
  8
Kontur
100
AcDbCircle
 10
-229.5794111081245
 20
462.4092929129598
 30
0.0
 40
4.0
100
AcDbArc
 50
181.0000000000017
 51
239.9999999999995
  0
LINE
  5
1B0C
330
15F6
100
AcDbEntity
  8
0
100
AcDbLine
 10
-204.0685128375387
 20
502.1326117484108
 30
0.0
 11
-245.7214088413081
 21
502.1326117484108
 31
0.0
  0
LINE
  5
1B0D
330
15F6
100
AcDbEntity
  8
Kontur
100
AcDbLine
 10
-203.8497911787239
 20
499.6326117484108
 30
0.0
 11
-204.0685128375387
 21
502.1326117484108
 31
0.0
  0
ARC
  5
1B0E
330
15F6
100
AcDbEntity
  8
0
100
AcDbCircle
 10
-240.1420232448895
 20
497.7234379760985
 30
0.0
 40
5.5
100
AcDbArc
 50
181.0000000000017
 51
270.0
  0
LINE
  5
1B0F
330
15F6
100
AcDbEntity
  8
Kontur
100
AcDbLine
 10
-234.3497911787239
 20
499.6326117484108
 30
0.0
 11
-234.5685128375387
 21
502.1326117484108
 31
0.0
  0
LINE
  5
1B10
330
15F6
100
AcDbEntity
  8
0
100
AcDbLine
 10
-257.3497911787239
 20
538.2234379760985
 30
0.0
 11
-259.371604897986
 21
499.6449340417341
 31
0.0
  0
LINE
  5
1B11
330
15F6
100
AcDbEntity
  8
0
100
AcDbLine
 10
-286.4277842524637
 20
498.2234379760986
 30
0.0
 11
-260.8695492001178
 21
498.2234379760986
 31
0.0
  0
LINE
  5
1B12
330
15F6
100
AcDbEntity
  8
0
100
AcDbLine
 10
-288.8497911787239
 20
488.2234379760985
 30
0.0
 11
-251.8324136077066
 21
488.2234379760986
 31
0.0
  0
LINE
  5
1B13
330
15F6
100
AcDbEntity
  8
0
100
AcDbLine
 10
-269.3497911787239
 20
488.2234379760985
 30
0.0
 11
-267.0997911787239
 21
498.2234379760986
 31
0.0
  0
ARC
  5
1B14
330
15F6
100
AcDbEntity
  8
0
100
AcDbCircle
 10
-260.8695492001178
 20
499.7234379760985
 30
0.0
 40
1.5
100
AcDbArc
 50
270.0
 51
357.0000000000009
  0
LINE
  5
1B15
330
15F6
100
AcDbEntity
  8
BEMASS
100
AcDbLine
 10
-288.8497911787239
 20
488.2234379760985
 30
0.0
 11
-288.8497911787239
 21
494.247633268418
 31
0.0
  0
LINE
  5
1B16
330
15F6
100
AcDbEntity
  8
0
100
AcDbLine
 10
-278.3497911787239
 20
488.2234379760985
 30
0.0
 11
-280.5997911787239
 21
498.2234379760986
 31
0.0
  0
LINE
  5
1B17
330
15F6
100
AcDbEntity
  8
0
100
AcDbLine
 10
-288.8497911787239
 20
488.2234379760985
 30
0.0
 11
-288.4250433219729
 21
496.3281098885844
 31
0.0
  0
ARC
  5
1B18
330
15F6
100
AcDbEntity
  8
0
100
AcDbCircle
 10
-286.4277842524637
 20
496.2234379760985
 30
0.0
 40
2.0
100
AcDbArc
 50
90.0
 51
176.9999999999976
  0
LINE
  5
1B19
330
15F6
100
AcDbEntity
  8
BEMASS
100
AcDbLine
 10
-257.3497911787239
 20
538.2234379760985
 30
0.0
 11
-257.3497911787239
 21
526.7296963388456
 31
0.0
  0
HATCH
  5
1B1A
330
15F6
100
AcDbEntity
  8
8
100
AcDbHatch
 10
0.0
 20
0.0
 30
0.0
210
0.0
220
0.0
230
1.0
  2
_U
 70
     0
 71
     0
 91
        1
 92
        1
 93
       23
 72
     1
 10
-77.55755911255824
 20
492.2234379760985
 11
-83.59915409929124
 21
492.2234379760985
 72
     1
 10
-83.59915409929124
 20
492.2234379760985
 11
-84.1207804686976
 21
462.3394832872106
 72
     2
 10
-88.12017124932323
 20
462.4092929129598
 40
3.999999999999995
 50
1.000000000000141
 51
59.99999999999947
 73
     0
 72
     1
 10
-86.12017124932322
 20
458.945191297822
 11
-107.2979958118233
 21
446.718168585812
 72
     2
 10
-102.2979958118231
 20
438.0579145479676
 40
10.00000000000001
 50
120.0000000000003
 51
178.9999999999998
 73
     1
 72
     1
 10
-112.2964727633871
 20
438.2324386123404
 11
-113.256658441129
 21
383.2234379760986
 72
     1
 10
-113.256658441129
 20
383.2234379760986
 11
-112.993958589775
 21
363.2295955767156
 72
     1
 10
-112.993958589775
 20
363.2295955767156
 11
-106.6045709860051
 21
363.2304535547488
 72
     1
 10
-106.6045709860051
 20
363.2304535547488
 11
-105.3068006265091
 21
437.5796676558182
 72
     2
 10
-99.3077144555707
 20
437.4749532171943
 40
5.999999999999993
 50
181.0000000000017
 51
239.9999999999992
 73
     0
 72
     1
 10
-102.3077144555708
 20
442.6711056399009
 11
-81.67981820184683
 21
454.580627094804
 72
     2
 10
-86.67981820184673
 20
463.2408811326484
 40
9.999999999999998
 50
299.9999999999996
 51
356.9999999999973
 73
     1
 72
     1
 10
-76.69352285430102
 20
462.7175215702186
 11
-75.85346409728686
 21
478.7467975385281
 72
     2
 10
-65.86716874974115
 20
478.2234379760986
 40
10.00000000000001
 50
183.0
 51
270.0000000000001
 73
     0
 72
     1
 10
-65.86716874974115
 20
488.2234379760986
 11
-48.34979117872387
 21
488.2234379760986
 72
     1
 10
-48.34979117872387
 20
488.2234379760986
 11
-50.59979117872387
 21
498.2234379760986
 72
     1
 10
-50.59979117872387
 20
498.2234379760986
 11
-56.83003315732992
 21
498.2234379760986
 72
     2
 10
-56.83003315732992
 20
499.7234379760985
 40
1.5
 50
90.0
 51
177.0000000000009
 73
     0
 72
     1
 10
-58.32797745946175
 20
499.6449340417341
 11
-60.34979117872388
 21
538.2234379760985
 72
     1
 10
-60.34979117872388
 20
538.2234379760985
 11
-68.34979117872387
 21
538.2234379760985
 72
     1
 10
-68.34979117872387
 20
538.2234379760985
 11
-71.50091066617585
 21
529.5658083383211
 72
     1
 10
-71.50091066617574
 20
529.5658083383211
 11
-72.05839678919801
 21
497.6274497406935
 72
     2
 10
-77.55755911255824
 20
497.7234379760985
 40
5.500000000000007
 50
0.9999999999999886
 51
90.0000000000001
 73
     0
 97
        0
 75
     0
 76
     0
 52
45.0
 41
2.5
 77
     0
 78
     1
 53
45.0
 43
-70.18478560397534
 44
2.343728653670609
 45
-1.767766952966368
 46
1.767766952966368
 79
     0
 98
        1
 10
-70.18478560397534
 20
2.343728653670609
1001
ACAD
1010
0.0
1020
0.0
1030
0.0
1001
GENIUS_GENOBJ-N-HTC_13
1002
{
1000
OWNER
1000
GEN
1002
}
1001
GENIUS_GENODEF_13
1002
{
1000
HIER
1070
     0
1002
}
1002
{
1000
MANEDIT
1070
     0
1002
}
1002
{
1000
NOSEL
1070
     0
1002
}
1002
{
1000
BEHIND
1070
     0
1002
}
1002
{
1000
OTHER
1070
     0
1002
}
1002
{
1000
REACTOR
1002
}
1001
GENIUS_GENHATCH_13
1002
{
1000
DATA
1040
45.0
1042
2.5
1000
_U
1070
     0
1011
-109.5051463101349
1021
415.0635484054618
1031
0.0
1002
}
1002
{
1000
UCS
1010
0.0
1020
0.0
1030
0.0
1010
1.0
1020
0.0
1030
0.0
1010
0.0
1020
1.0
1030
0.0
1002
}
  0
HATCH
  5
1B1B
330
15F6
100
AcDbEntity
  8
8
100
AcDbHatch
 10
0.0
 20
0.0
 30
0.0
210
0.0
220
0.0
230
1.0
  2
_U
 70
     0
 71
     0
 91
        1
 92
        1
 93
       23
 72
     1
 10
-249.3497911787239
 20
538.2234379760985
 11
-257.3497911787239
 21
538.2234379760985
 72
     1
 10
-257.3497911787239
 20
538.2234379760985
 11
-259.371604897986
 21
499.6449340417341
 72
     2
 10
-260.8695492001178
 20
499.7234379760985
 40
1.500000000000025
 50
3.000000000001187
 51
90.0
 73
     0
 72
     1
 10
-260.8695492001178
 20
498.2234379760986
 11
-267.0997911787239
 21
498.2234379760986
 72
     1
 10
-267.0997911787239
 20
498.2234379760986
 11
-269.3497911787239
 21
488.2234379760985
 72
     1
 10
-269.3497911787239
 20
488.2234379760985
 11
-251.8324136077066
 21
488.2234379760986
 72
     2
 10
-251.8324136077066
 20
478.2234379760986
 40
10.0
 50
270.0
 51
356.9999999999976
 73
     0
 72
     1
 10
-241.8461182601609
 20
478.7467975385284
 11
-241.0060595031466
 21
462.7175215702186
 72
     2
 10
-231.019764155601
 20
463.2408811326484
 40
9.99999999999996
 50
183.0000000000023
 51
239.9999999999999
 73
     1
 72
     1
 10
-236.019764155601
 20
454.580627094804
 11
-215.391867901877
 21
442.6711056399009
 72
     2
 10
-218.391867901877
 20
437.4749532171943
 40
5.999999999999985
 50
299.9999999999998
 51
358.9999999999982
 73
     0
 72
     1
 10
-212.3927817309387
 20
437.5796676558182
 11
-211.0950113714427
 21
363.2304535547488
 72
     1
 10
-211.0950113714427
 20
363.2304535547488
 11
-204.7056237676728
 21
363.2295955767156
 72
     1
 10
-204.7056237676727
 20
363.2295955767156
 11
-204.4429239163187
 21
383.2234379760986
 72
     1
 10
-204.4429239163187
 20
383.2234379760986
 11
-205.4031095940607
 21
438.2324386123404
 72
     2
 10
-215.4015865456246
 20
438.0579145479676
 40
9.999999999999991
 50
1.000000000000473
 51
60.0000000000001
 73
     1
 72
     1
 10
-210.4015865456246
 20
446.718168585812
 11
-231.5794111081245
 21
458.945191297822
 72
     2
 10
-229.5794111081245
 20
462.4092929129598
 40
3.999999999999983
 50
120.0000000000001
 51
178.9999999999982
 73
     0
 72
     1
 10
-233.5788018887502
 20
462.3394832872105
 11
-234.1004282581566
 21
492.2234379760985
 72
     1
 10
-234.1004282581565
 20
492.2234379760985
 11
-240.1420232448895
 21
492.2234379760985
 72
     2
 10
-240.1420232448895
 20
497.7234379760985
 40
5.5
 50
90.0
 51
179.0
 73
     0
 72
     1
 10
-245.6411855682497
 20
497.6274497406935
 11
-246.198671691272
 21
529.5658083383212
 72
     1
 10
-246.198671691272
 20
529.5658083383212
 11
-249.3497911787239
 21
538.2234379760985
 97
        0
 75
     0
 76
     0
 52
45.0
 41
2.5
 77
     0
 78
     1
 53
45.0
 43
-70.18478560397534
 44
2.343728653670609
 45
-1.767766952966368
 46
1.767766952966368
 79
     0
 98
        1
 10
-70.18478560397534
 20
2.343728653670609
1001
ACAD
1010
0.0
1020
0.0
1030
0.0
1001
GENIUS_GENOBJ-N-HTC_13
1002
{
1000
OWNER
1000
GEN
1002
}
1001
GENIUS_GENODEF_13
1002
{
1000
HIER
1070
     0
1002
}
1002
{
1000
MANEDIT
1070
     0
1002
}
1002
{
1000
NOSEL
1070
     0
1002
}
1002
{
1000
BEHIND
1070
     0
1002
}
1002
{
1000
OTHER
1070
     0
1002
}
1002
{
1000
REACTOR
1002
}
1001
GENIUS_GENHATCH_13
1002
{
1000
DATA
1040
45.0
1042
2.5
1000
_U
1070
     0
1011
-251.1327610018009
1021
506.0733988505968
1031
0.0
1002
}
1002
{
1000
UCS
1010
0.0
1020
0.0
1030
0.0
1010
1.0
1020
0.0
1030
0.0
1010
0.0
1020
1.0
1030
0.0
1002
}
  0
HATCH
  5
1B1C
330
15F6
100
AcDbEntity
  8
AM_8
100
AcDbHatch
 10
0.0
 20
0.0
 30
0.0
210
0.0
220
0.0
230
1.0
  2
_U
 70
     0
 71
     0
 91
        1
 92
        1
 93
        5
 72
     1
 10
-31.27179810498404
 20
498.2234379760986
 11
-37.09979117872388
 21
498.2234379760986
 72
     1
 10
-37.09979117872388
 20
498.2234379760986
 11
-39.34979117872387
 21
488.2234379760985
 72
     1
 10
-39.34979117872387
 20
488.2234379760985
 11
-28.84979117872388
 21
488.2234379760985
 72
     1
 10
-28.84979117872388
 20
488.2234379760985
 11
-29.2745390354749
 21
496.3281098885844
 72
     2
 10
-31.27179810498404
 20
496.2234379760985
 40
1.999999999999998
 50
2.999999999999078
 51
89.9999999999998
 73
     1
 97
        0
 75
     0
 76
     0
 52
45.0
 41
2.5
 77
     0
 78
     1
 53
45.0
 43
-70.18478560397534
 44
2.343728653670609
 45
-1.767766952966368
 46
1.767766952966368
 79
     0
 98
        1
 10
-70.18478560397534
 20
2.343728653670609
1001
GENIUS_GENODEF_13
1002
{
1000
HIER
1070
     0
1002
}
1002
{
1000
MANEDIT
1070
     0
1002
}
1002
{
1000
NOSEL
1070
     0
1002
}
1002
{
1000
BEHIND
1070
     0
1002
}
1002
{
1000
OTHER
1070
     0
1002
}
1002
{
1000
REACTOR
1002
}
1001
GENIUS_GENOBJ-N-HTC_13
1002
{
1000
OWNER
1000
GEN
1002
}
1001
GENIUS_GENHATCH_13
1002
{
1000
DATA
1040
45.0
1042
2.5
1000
_U
1070
     0
1011
-32.62158339349117
1021
493.9387527385682
1031
0.0
1002
}
1002
{
1000
UCS
1010
0.0
1020
0.0
1030
0.0
1010
1.0
1020
0.0
1030
0.0
1010
0.0
1020
1.0
1030
0.0
1002
}
  0
HATCH
  5
1B1D
330
15F6
100
AcDbEntity
  8
AM_8
100
AcDbHatch
 10
0.0
 20
0.0
 30
0.0
210
0.0
220
0.0
230
1.0
  2
_U
 70
     0
 71
     0
 91
        1
 92
        1
 93
        5
 72
     1
 10
-280.5997911787239
 20
498.2234379760986
 11
-286.4277842524637
 21
498.2234379760986
 72
     2
 10
-286.4277842524637
 20
496.2234379760985
 40
2.0
 50
90.0
 51
176.9999999999976
 73
     1
 72
     1
 10
-288.4250433219729
 20
496.3281098885845
 11
-288.849791178724
 21
488.2234379760985
 72
     1
 10
-288.8497911787239
 20
488.2234379760985
 11
-278.3497911787239
 21
488.2234379760985
 72
     1
 10
-278.3497911787239
 20
488.2234379760985
 11
-280.5997911787239
 21
498.2234379760986
 97
        0
 75
     0
 76
     0
 52
45.0
 41
2.5
 77
     0
 78
     1
 53
45.0
 43
-70.18478560397534
 44
2.343728653670609
 45
-1.767766952966368
 46
1.767766952966368
 79
     0
 98
        1
 10
-70.18478560397534
 20
2.343728653670609
1001
GENIUS_GENOBJ-N-HTC_13
1002
{
1000
OWNER
1000
GEN
1002
}
1001
GENIUS_GENODEF_13
1002
{
1000
HIER
1070
     0
1002
}
1002
{
1000
MANEDIT
1070
     0
1002
}
1002
{
1000
NOSEL
1070
     0
1002
}
1002
{
1000
BEHIND
1070
     0
1002
}
1002
{
1000
OTHER
1070
     0
1002
}
1002
{
1000
REACTOR
1002
}
1001
GENIUS_GENHATCH_13
1002
{
1000
DATA
1040
45.0
1042
2.5
1000
_U
1070
     0
1011
-284.1792051945522
1021
492.5904578733574
1031
0.0
1002
}
1002
{
1000
UCS
1010
0.0
1020
0.0
1030
0.0
1010
1.0
1020
0.0
1030
0.0
1010
0.0
1020
1.0
1030
0.0
1002
}
  0
LINE
  5
1B1E
330
15F6
100
AcDbEntity
  8
AM_7
100
AcDbLine
 10
-158.8477769527637
 20
553.2234378408617
 30
0.0
 11
-158.8753047073401
 21
348.2234412668625
 31
0.0
1001
GENIUS_GENOBJ-N-CEN_13
1002
{
1000
OWNER
1000
GEN
1002
}
1001
GENIUS_GENODEF_13
1002
{
1000
HIER
1070
     0
1002
}
1002
{
1000
MANEDIT
1070
     0
1002
}
1002
{
1000
NOSEL
1070
     0
1002
}
1002
{
1000
BEHIND
1070
     0
1002
}
1002
{
1000
OTHER
1070
     0
1002
}
1002
{
1000
REACTOR
1002
}
1001
GENIUS_GENCEN_19
1002
{
1040
15.0
1002
}
  0
ENDSEC
  0
SECTION
  2
OBJECTS
  0
DICTIONARY
  5
15EA
330
0
100
AcDbDictionary
281
     1
  3
ACAD_COLOR
350
1971
  3
ACAD_GROUP
350
15EB
  3
ACAD_LAYOUT
350
1974
  3
ACAD_MATERIAL
350
1970
  3
ACAD_MLINESTYLE
350
15F9
  3
ACAD_PLOTSETTINGS
350
1975
  3
ACAD_PLOTSTYLENAME
350
196E
  3
ACAD_TABLESTYLE
350
1972
  3
ACDBHEADERROUNDTRIPXREC
350
1B5D
  3
AcDbVariableDictionary
350
1A70
  3
AcmDictionary
350
19D3
  3
AMG
350
1979
  3
AMGSNAPSETTINGS
350
1A45
  0
DICTIONARY
  5
1971
102
{ACAD_REACTORS
330
15EA
102
}
330
15EA
100
AcDbDictionary
281
     1
  0
DICTIONARY
  5
15EB
102
{ACAD_REACTORS
330
15EA
102
}
330
15EA
100
AcDbDictionary
281
     1
  0
DICTIONARY
  5
1974
102
{ACAD_REACTORS
330
15EA
102
}
330
15EA
100
AcDbDictionary
281
     1
  3
Layout1
350
1977
  3
Model
350
1976
  0
DICTIONARY
  5
1970
102
{ACAD_REACTORS
330
15EA
102
}
330
15EA
100
AcDbDictionary
281
     1
  0
DICTIONARY
  5
15F9
102
{ACAD_REACTORS
330
15EA
102
}
330
15EA
100
AcDbDictionary
281
     1
  3
STANDARD
350
15FA
  0
DICTIONARY
  5
1975
102
{ACAD_REACTORS
330
15EA
102
}
330
15EA
100
AcDbDictionary
281
     1
  0
ACDBDICTIONARYWDFLT
  5
196E
102
{ACAD_REACTORS
330
15EA
102
}
330
15EA
100
AcDbDictionary
281
     1
  3
Normal
350
196F
100
AcDbDictionaryWithDefault
340
196F
  0
DICTIONARY
  5
1972
102
{ACAD_REACTORS
330
15EA
102
}
330
15EA
100
AcDbDictionary
281
     1
  3
Standard
350
1973
  0
DICTIONARY
  5
1B5D
102
{ACAD_REACTORS
330
15EA
102
}
330
15EA
100
AcDbDictionary
281
     1
  0
DICTIONARY
  5
1A70
102
{ACAD_REACTORS
330
15EA
102
}
330
15EA
100
AcDbDictionary
281
     1
  3
CTABLESTYLE
350
1A71
  3
DIMASSOC
350
1B5A
  3
PROJECTNAME
350
1B5B
  0
DICTIONARY
  5
19D3
102
{ACAD_REACTORS
330
15EA
102
}
330
15EA
100
AcDbDictionary
281
     1
  3
AcmStdDictionary
350
19DE
  3
AMDTSECTSYM_ARROWCOLOR
350
1A01
  0
DICTIONARY
  5
1979
102
{ACAD_REACTORS
330
15EA
102
}
330
15EA
100
AcDbDictionary
281
     1
  0
DICTIONARY
  5
1A45
102
{ACAD_REACTORS
330
15EA
102
}
330
15EA
100
AcDbDictionary
281
     1
  0
LAYOUT
  5
1977
102
{ACAD_XDICTIONARY
360
1B60
102
}
102
{ACAD_REACTORS
330
1974
102
}
330
1974
100
AcDbPlotSettings
  1

  2
Xerox Document Centre CS50 PS
  4

  6

 40
0.0
 41
0.0
 42
0.0
 43
0.0
 44
0.0
 45
0.0
 46
0.0
 47
0.0
 48
0.0
 49
0.0
140
0.0
141
0.0
142
1.0
143
1.0
 70
   688
 72
     0
 73
     0
 74
     5
  7

 75
    16
147
1.0
148
0.0
149
0.0
100
AcDbLayout
  1
Layout1
 70
     1
 71
     1
 10
0.0
 20
0.0
 11
209.9
 21
296.9
 12
0.0
 22
0.0
 32
0.0
 14
0.0
 24
0.0
 34
0.0
 15
209.9
 25
296.9
 35
0.0
146
0.0
 13
0.0
 23
0.0
 33
0.0
 16
1.0
 26
0.0
 36
0.0
 17
0.0
 27
1.0
 37
0.0
 76
     0
330
15F3
  0
LAYOUT
  5
1976
102
{ACAD_XDICTIONARY
360
1B5E
102
}
102
{ACAD_REACTORS
330
1974
102
}
330
1974
100
AcDbPlotSettings
  1

  2
Xerox Document Centre CS50 PS
  4

  6

 40
0.0
 41
0.0
 42
0.0
 43
0.0
 44
0.0
 45
0.0
 46
0.0
 47
0.0
 48
0.0
 49
0.0
140
0.0
141
0.0
142
1.0
143
1.0
 70
  1712
 72
     0
 73
     0
 74
     0
  7

 75
     0
147
1.0
148
0.0
149
0.0
100
AcDbLayout
  1
Model
 70
     1
 71
     0
 10
0.0
 20
0.0
 11
12.0
 21
9.0
 12
0.0
 22
0.0
 32
0.0
 14
0.0
 24
0.0
 34
0.0
 15
0.0
 25
0.0
 35
0.0
146
0.0
 13
0.0
 23
0.0
 33
0.0
 16
1.0
 26
0.0
 36
0.0
 17
0.0
 27
1.0
 37
0.0
 76
     0
330
15F6
  0
MLINESTYLE
  5
15FA
102
{ACAD_REACTORS
330
15F9
102
}
330
15F9
100
AcDbMlineStyle
  2
STANDARD
 70
     0
  3

 62
   256
 51
90.0
 52
90.0
 71
     2
 49
0.5
 62
   256
  6
BYLAYER
 49
-0.5
 62
   256
  6
BYLAYER
  0
ACDBPLACEHOLDER
  5
196F
102
{ACAD_REACTORS
330
196E
102
}
330
196E
  0
TABLESTYLE
  5
1973
102
{ACAD_REACTORS
330
1972
102
}
330
1972
100
AcDbTableStyle
  3
Standard
 70
     0
 71
     0
 40
1.5
 41
1.5
280
     0
281
     0
  7
STANDARD
140
4.5
170
     2
 62
     0
 63
     7
283
     0
274
    -2
284
     1
 64
     0
275
    -2
285
     1
 65
     0
276
    -2
286
     1
 66
     0
277
    -2
287
     1
 67
     0
278
    -2
288
     1
 68
     0
279
    -2
289
     1
 69
     0
  7
STANDARD
140
6.0
170
     5
 62
     0
 63
     7
283
     0
274
    -2
284
     1
 64
     0
275
    -2
285
     1
 65
     0
276
    -2
286
     1
 66
     0
277
    -2
287
     1
 67
     0
278
    -2
288
     1
 68
     0
279
    -2
289
     1
 69
     0
  7
STANDARD
140
4.5
170
     5
 62
     0
 63
     7
283
     0
274
    -2
284
     1
 64
     0
275
    -2
285
     1
 65
     0
276
    -2
286
     1
 66
     0
277
    -2
287
     1
 67
     0
278
    -2
288
     1
 68
     0
279
    -2
289
     1
 69
     0
  0
DICTIONARYVAR
  5
1A71
102
{ACAD_REACTORS
330
1A70
102
}
330
1A70
100
DictionaryVariables
280
     0
  1
STANDARD
  0
DICTIONARYVAR
  5
1B5A
102
{ACAD_REACTORS
330
1A70
102
}
330
1A70
100
DictionaryVariables
280
     0
  1
1
  0
DICTIONARYVAR
  5
1B5B
102
{ACAD_REACTORS
330
1A70
102
}
330
1A70
100
DictionaryVariables
280
     0
  1

  0
DICTIONARY
  5
19DE
102
{ACAD_REACTORS
330
19D3
102
}
330
19D3
100
AcDbDictionary
281
     1
  0
XRECORD
  5
1A01
102
{ACAD_REACTORS
330
19D3
102
}
330
19D3
100
AcDbXrecord
280
     1
 90
-1023410169
  0
DICTIONARY
  5
1B60
330
1977
100
AcDbDictionary
280
     1
281
     1
  3
ACAD_XREC_ROUNDTRIP
360
1B61
  0
DICTIONARY
  5
1B5E
330
1976
100
AcDbDictionary
280
     1
281
     1
  3
ACAD_XREC_ROUNDTRIP
360
1B5F
  0
XRECORD
  5
1B61
102
{ACAD_REACTORS
330
1B60
102
}
330
1B60
100
AcDbXrecord
280
     1
102
SHADEPLOT
 70
     0
102
SHADEPLOTRESLEVEL
 70
     2
102
SHADEPLOTCUSTOMDPI
 70
   300
  0
XRECORD
  5
1B5F
102
{ACAD_REACTORS
330
1B5E
102
}
330
1B5E
100
AcDbXrecord
280
     1
102
SHADEPLOT
 70
     0
102
SHADEPLOTRESLEVEL
 70
     2
102
SHADEPLOTCUSTOMDPI
 70
   300
  0
ENDSEC
  0
EOF
