  0
SECTION
  2
HEADER
  9
$ACADVER
  1
AC1015
  9
$ACADMAINTVER
 70
    20
  9
$DWGCODEPAGE
  3
ANSI_1252
  9
$INSBASE
 10
0.0
 20
0.0
 30
0.0
  9
$EXTMIN
 10
1048.740489515461
 20
817.3242546969458
 30
-0.0000000000112498
  9
$EXTMAX
 10
1654.958349231909
 20
1832.374261522499
 30
0.0000000000002956
  9
$LIMMIN
 10
0.0
 20
0.0
  9
$LIMMAX
 10
420.0
 20
297.0
  9
$ORTHOMODE
 70
     0
  9
$REGENMODE
 70
     1
  9
$FILLMODE
 70
     1
  9
$QTEXTMODE
 70
     0
  9
$MIRRTEXT
 70
     1
  9
$LTSCALE
 40
1.0
  9
$ATTMODE
 70
     1
  9
$TEXTSIZE
 40
2.5
  9
$TRACEWID
 40
1.0
  9
$TEXTSTYLE
  7
STANDARD
  9
$CLAYER
  8
0
  9
$CELTYPE
  6
ByLayer
  9
$CECOLOR
 62
   256
  9
$CELTSCALE
 40
1.0
  9
$DISPSILH
 70
     0
  9
$DIMSCALE
 40
1.0
  9
$DIMASZ
 40
2.5
  9
$DIMEXO
 40
1.0
  9
$DIMDLI
 40
10.0
  9
$DIMRND
 40
0.0
  9
$DIMDLE
 40
0.0
  9
$DIMEXE
 40
1.0
  9
$DIMTP
 40
0.1
  9
$DIMTM
 40
0.1
  9
$DIMTXT
 40
3.5
  9
$DIMCEN
 40
0.0
  9
$DIMTSZ
 40
0.0
  9
$DIMTOL
 70
     0
  9
$DIMLIM
 70
     0
  9
$DIMTIH
 70
     0
  9
$DIMTOH
 70
     0
  9
$DIMSE1
 70
     0
  9
$DIMSE2
 70
     0
  9
$DIMTAD
 70
     1
  9
$DIMZIN
 70
     8
  9
$DIMBLK
  1

  9
$DIMASO
 70
     1
  9
$DIMSHO
 70
     1
  9
$DIMPOST
  1

  9
$DIMAPOST
  1
"
  9
$DIMALT
 70
     0
  9
$DIMALTD
 70
     2
  9
$DIMALTF
 40
0.0393701
  9
$DIMLFAC
 40
1.0
  9
$DIMTOFL
 70
     1
  9
$DIMTVP
 40
0.0
  9
$DIMTIX
 70
     0
  9
$DIMSOXD
 70
     0
  9
$DIMSAH
 70
     0
  9
$DIMBLK1
  1

  9
$DIMBLK2
  1

  9
$DIMSTYLE
  2
AM_ISO
  9
$DIMCLRD
 70
   256
  9
$DIMCLRE
 70
   256
  9
$DIMCLRT
 70
     2
  9
$DIMTFAC
 40
0.71
  9
$DIMGAP
 40
1.5
  9
$DIMJUST
 70
     0
  9
$DIMSD1
 70
     0
  9
$DIMSD2
 70
     0
  9
$DIMTOLJ
 70
     0
  9
$DIMTZIN
 70
     8
  9
$DIMALTZ
 70
     0
  9
$DIMALTTZ
 70
     0
  9
$DIMUPT
 70
     0
  9
$DIMDEC
 70
     0
  9
$DIMTDEC
 70
     3
  9
$DIMALTU
 70
     2
  9
$DIMALTTD
 70
     4
  9
$DIMTXSTY
  7
STANDARD
  9
$DIMAUNIT
 70
     0
  9
$DIMADEC
 70
     0
  9
$DIMALTRND
 40
0.0
  9
$DIMAZIN
 70
     2
  9
$DIMDSEP
 70
    46
  9
$DIMATFIT
 70
     3
  9
$DIMFRAC
 70
     0
  9
$DIMLDRBLK
  1

  9
$DIMLUNIT
 70
     2
  9
$DIMLWD
 70
    -1
  9
$DIMLWE
 70
    -1
  9
$DIMTMOVE
 70
     0
  9
$LUNITS
 70
     2
  9
$LUPREC
 70
     2
  9
$SKETCHINC
 40
1.0
  9
$FILLETRAD
 40
2.5
  9
$AUNITS
 70
     0
  9
$AUPREC
 70
     0
  9
$MENU
  1
.
  9
$ELEVATION
 40
0.0
  9
$PELEVATION
 40
0.0
  9
$THICKNESS
 40
0.0
  9
$LIMCHECK
 70
     0
  9
$CHAMFERA
 40
2.5
  9
$CHAMFERB
 40
2.5
  9
$CHAMFERC
 40
20.0
  9
$CHAMFERD
 40
0.0
  9
$SKPOLY
 70
     0
  9
$TDCREATE
 40
2454068.346004213
  9
$TDUCREATE
 40
2454068.304337546
  9
$TDUPDATE
 40
2454087.930983681
  9
$TDUUPDATE
 40
2454087.889317014
  9
$TDINDWG
 40
0.0699015625
  9
$TDUSRTIMER
 40
0.0699015625
  9
$USRTIMER
 70
     1
  9
$ANGBASE
 50
0.0
  9
$ANGDIR
 70
     0
  9
$PDMODE
 70
     0
  9
$PDSIZE
 40
0.0
  9
$PLINEWID
 40
0.0
  9
$SPLFRAME
 70
     0
  9
$SPLINETYPE
 70
     6
  9
$SPLINESEGS
 70
     8
  9
$HANDSEED
  5
198C
  9
$SURFTAB1
 70
     6
  9
$SURFTAB2
 70
     6
  9
$SURFTYPE
 70
     6
  9
$SURFU
 70
     6
  9
$SURFV
 70
     6
  9
$UCSBASE
  2

  9
$UCSNAME
  2

  9
$UCSORG
 10
0.0
 20
0.0
 30
0.0
  9
$UCSXDIR
 10
1.0
 20
0.0
 30
0.0
  9
$UCSYDIR
 10
0.0
 20
1.0
 30
0.0
  9
$UCSORTHOREF
  2

  9
$UCSORTHOVIEW
 70
     0
  9
$UCSORGTOP
 10
0.0
 20
0.0
 30
0.0
  9
$UCSORGBOTTOM
 10
0.0
 20
0.0
 30
0.0
  9
$UCSORGLEFT
 10
0.0
 20
0.0
 30
0.0
  9
$UCSORGRIGHT
 10
0.0
 20
0.0
 30
0.0
  9
$UCSORGFRONT
 10
0.0
 20
0.0
 30
0.0
  9
$UCSORGBACK
 10
0.0
 20
0.0
 30
0.0
  9
$PUCSBASE
  2

  9
$PUCSNAME
  2

  9
$PUCSORG
 10
0.0
 20
0.0
 30
0.0
  9
$PUCSXDIR
 10
1.0
 20
0.0
 30
0.0
  9
$PUCSYDIR
 10
0.0
 20
1.0
 30
0.0
  9
$PUCSORTHOREF
  2

  9
$PUCSORTHOVIEW
 70
     0
  9
$PUCSORGTOP
 10
0.0
 20
0.0
 30
0.0
  9
$PUCSORGBOTTOM
 10
0.0
 20
0.0
 30
0.0
  9
$PUCSORGLEFT
 10
0.0
 20
0.0
 30
0.0
  9
$PUCSORGRIGHT
 10
0.0
 20
0.0
 30
0.0
  9
$PUCSORGFRONT
 10
0.0
 20
0.0
 30
0.0
  9
$PUCSORGBACK
 10
0.0
 20
0.0
 30
0.0
  9
$USERI1
 70
     0
  9
$USERI2
 70
     0
  9
$USERI3
 70
     0
  9
$USERI4
 70
     0
  9
$USERI5
 70
     0
  9
$USERR1
 40
0.0
  9
$USERR2
 40
0.0
  9
$USERR3
 40
0.0
  9
$USERR4
 40
0.0
  9
$USERR5
 40
0.0
  9
$WORLDVIEW
 70
     1
  9
$SHADEDGE
 70
     3
  9
$SHADEDIF
 70
    70
  9
$TILEMODE
 70
     1
  9
$MAXACTVP
 70
    64
  9
$PINSBASE
 10
0.0
 20
0.0
 30
0.0
  9
$PLIMCHECK
 70
     0
  9
$PEXTMIN
 10
1.000000000000000E+20
 20
1.000000000000000E+20
 30
1.000000000000000E+20
  9
$PEXTMAX
 10
-1.000000000000000E+20
 20
-1.000000000000000E+20
 30
-1.000000000000000E+20
  9
$PLIMMIN
 10
0.0
 20
0.0
  9
$PLIMMAX
 10
420.0
 20
297.0
  9
$UNITMODE
 70
     0
  9
$VISRETAIN
 70
     1
  9
$PLINEGEN
 70
     0
  9
$PSLTSCALE
 70
     1
  9
$TREEDEPTH
 70
  3020
  9
$CMLSTYLE
  2
Standard
  9
$CMLJUST
 70
     0
  9
$CMLSCALE
 40
20.0
  9
$PROXYGRAPHICS
 70
     1
  9
$MEASUREMENT
 70
     1
  9
$CELWEIGHT
370
    -1
  9
$ENDCAPS
280
     0
  9
$JOINSTYLE
280
     0
  9
$LWDISPLAY
290
     0
  9
$INSUNITS
 70
     4
  9
$HYPERLINKBASE
  1

  9
$STYLESHEET
  1
monochrome.ctb
  9
$XEDIT
290
     1
  9
$CEPSNTYPE
380
     0
  9
$PSTYLEMODE
290
     1
  9
$FINGERPRINTGUID
  2
{49BE5A58-DF93-4DEA-8B62-CF84069FAF8D}
  9
$VERSIONGUID
  2
{13EF17BD-5D81-4DA6-A022-2D82984EDC54}
  9
$EXTNAMES
290
     1
  9
$PSVPSCALE
 40
0.0
  9
$OLESTARTUP
290
     0
  0
ENDSEC
  0
SECTION
  2
CLASSES
  0
CLASS
  1
ACDBDICTIONARYWDFLT
  2
AcDbDictionaryWithDefault
  3
ObjectDBX Classes
 90
        0
280
     0
281
     0
  0
CLASS
  1
ACDBPLACEHOLDER
  2
AcDbPlaceHolder
  3
ObjectDBX Classes
 90
        0
280
     0
281
     0
  0
CLASS
  1
LAYOUT
  2
AcDbLayout
  3
ObjectDBX Classes
 90
        0
280
     0
281
     0
  0
CLASS
  1
ACME_DOCUMENT
  2
AcMeDbDoc
  3
AcMeServices
 90
        0
280
     0
281
     0
  0
CLASS
  1
AMGSETTINGSOBJ
  2
AmgSettingsObj
  3
"AcadM|Product Description: AutoCAD Mechanical 2000|Company: Autodesk"
 90
        0
280
     0
281
     0
  0
CLASS
  1
ACMESCOPE
  2
AcMeScope
  3
AcMeServices
 90
        0
280
     0
281
     0
  0
CLASS
  1
ACMECOMMANDHISTORY
  2
AcMeCommandHistory
  3
AcMeServices
 90
        0
280
     0
281
     0
  0
CLASS
  1
ACIMSYSVARMAN
  2
AcImSysVarManager
  3
AcMeServices
 90
        0
280
     0
281
     0
  0
CLASS
  1
ACIMREALSYSVAR
  2
AcImRealSysVar
  3
AcMeServices
 90
        0
280
     0
281
     0
  0
CLASS
  1
ACIMINTSYSVAR
  2
AcImIntSysVar
  3
AcMeServices
 90
        0
280
     0
281
     0
  0
CLASS
  1
ACMEDRAWINGMAN
  2
AcMeDrawingMan
  3
AcMeServices
 90
        0
280
     0
281
     0
  0
CLASS
  1
ACMEVIEW
  2
AcMeView
  3
AcMeServices
 90
        0
280
     0
281
     0
  0
CLASS
  1
ACDBENTITYCACHE
  2
AcMeEntityCache
  3
AcMeServices
 90
        0
280
     0
281
     0
  0
CLASS
  1
GSMANAGER
  2
AcMeGSManager
  3
AcMeServices
 90
        0
280
     0
281
     0
  0
CLASS
  1
AMDTINTERNALREACTOR
  2
AmdtInternalReactor
  3
AcMeServices
 90
        0
280
     0
281
     0
  0
CLASS
  1
ACMESTATEMGR
  2
AcMeStateMgr
  3
AcMeServices
 90
        0
280
     0
281
     0
  0
CLASS
  1
ACGREFMASTER
  2
AcGrefMaster
  3
AcAttribServices
 90
        0
280
     0
281
     0
  0
CLASS
  1
ACME_DATABASE
  2
AcMeDbDatabase
  3
AcMeServices
 90
        0
280
     0
281
     0
  0
CLASS
  1
ACRFINSADJUSTERMGR
  2
AcRfInsAdjusterMgr
  3
AcMeServices
 90
        0
280
     0
281
     0
  0
CLASS
  1
ACGREFACADMASTER
  2
AcGrefacadMaster
  3
AcGrefServices
 90
        0
280
     0
281
     0
  0
CLASS
  1
AMIMASTER
  2
AmiMaster
  3
AmiServices
 90
        0
280
     0
281
     0
  0
CLASS
  1
ACMDATADICTIONARY
  2
AcmDataDictionary
  3
"AcmSymBB|Product Description: AutoCAD Mechanical 2004 DX|Company: Autodesk"
 90
        0
280
     0
281
     0
  0
CLASS
  1
ACMDATAENTRYBLOCK
  2
AcmDataEntryBlock
  3
"AcmSymBB|Product Description: AutoCAD Mechanical 2004 DX|Company: Autodesk"
 90
        0
280
     0
281
     0
  0
CLASS
  1
ACIMSTRSYSVAR
  2
AcImStrSysVar
  3
AcMeServices
 90
        0
280
     0
281
     0
  0
CLASS
  1
ACMSTANDARDISO
  2
AcmStandardISO
  3
"Amdt_StdImp|Product Description: AutoCAD Mechanical 2004 DX|Company: Autodesk"
 90
        0
280
     0
281
     0
  0
CLASS
  1
AMGOBJPROPCFG
  2
AmgObjPropCfg
  3
"AmgLay|Product Description: AutoCAD Mechanical 2000|Company: Autodesk"
 90
        1
280
     0
281
     0
  0
CLASS
  1
AMDTEDGESTANDARDISO
  2
AmdtEdgeStdISO
  3
"Amdt_StdImp|Product Description: AutoCAD Mechanical 2004 DX|Company: Autodesk"
 90
        0
280
     0
281
     0
  0
CLASS
  1
ACMSURFSTANDARDISO
  2
AcmSurfTextStdISO
  3
"Amdt_StdImp|Product Description: AutoCAD Mechanical 2004 DX|Company: Autodesk"
 90
        0
280
     0
281
     0
  0
CLASS
  1
ACMFCFSTANDARDISO
  2
AcmFCFStdISO
  3
"Amdt_StdImp|Product Description: AutoCAD Mechanical 2004 DX|Company: Autodesk"
 90
        0
280
     0
281
     0
  0
CLASS
  1
ACMWELDSTANDARDISO
  2
AcmWeldingStdISO
  3
"Amdt_StdImp|Product Description: AutoCAD Mechanical 2004 DX|Company: Autodesk"
 90
        0
280
     0
281
     0
  0
CLASS
  1
ACMIDSTANDARDISO
  2
AcmIdStdISO
  3
"Amdt_StdImp|Product Description: AutoCAD Mechanical 2004 DX|Company: Autodesk"
 90
        0
280
     0
281
     0
  0
CLASS
  1
ACMDATUMSTANDARDISO
  2
AcmDatumStdISO
  3
"Amdt_StdImp|Product Description: AutoCAD Mechanical 2004 DX|Company: Autodesk"
 90
        0
280
     0
281
     0
  0
CLASS
  1
ACMBOMSTANDARDISO
  2
AcmBOMStdISO
  3
"Amdt_StdImp|Product Description: AutoCAD Mechanical 2004 DX|Company: Autodesk"
 90
        0
280
     0
281
     0
  0
CLASS
  1
ACMDETAILSTANDARDISO
  2
AmdtDetailSymStdISO
  3
"Amdt_StdImp|Product Description: AutoCAD Mechanical 2004 DX|Company: Autodesk"
 90
        0
280
     0
281
     0
  0
CLASS
  1
ACMSECTIONSTANDARDISO
  2
AmdtSectionSymStdISO
  3
"Amdt_StdImp|Product Description: AutoCAD Mechanical 2004 DX|Company: Autodesk"
 90
        0
280
     0
281
     0
  0
CLASS
  1
ACMCENTERLINESTANDARDISO
  2
AmdtCenterLineStdISO
  3
"Amdt_StdImp|Product Description: AutoCAD Mechanical 2004 DX|Company: Autodesk"
 90
        0
280
     0
281
     0
  0
CLASS
  1
ACMNOTESTANDARDISO
  2
AmdtNoteStdISO
  3
"Amdt_StdImp|Product Description: AutoCAD Mechanical 2004 DX|Company: Autodesk"
 90
        0
280
     0
281
     0
  0
CLASS
  1
ACAMGLAYSTD
  2
AcAmgLayStd
  3
"AcAmgLayStd|Product Description: AutoCAD Mechanical 2000|Company: Autodesk"
 90
        0
280
     0
281
     0
  0
CLASS
  1
ACAMGDIMSTD
  2
AcAmgDimStd
  3
"AcAmgDimStd|Product Description: AutoCAD Mechanical 2000|Company: Autodesk"
 90
        0
280
     0
281
     0
  0
CLASS
  1
ACAMGHOLECHARTSTDISO
  2
AcAmgHoleChartStdISO
  3
ACMSYMBB_MODULE_NAME
 90
        0
280
     0
281
     0
  0
CLASS
  1
ACAMGTITLESTD
  2
AcAmgTitleStd
  3
"TITLEAPP"
 90
        0
280
     0
281
     0
  0
CLASS
  1
LAYER_INDEX
  2
AcDbLayerIndex
  3
ObjectDBX Classes
 90
    32768
280
     0
281
     0
  0
CLASS
  1
IDBUFFER
  2
AcDbIdBuffer
  3
ObjectDBX Classes
 90
    32768
280
     0
281
     0
  0
CLASS
  1
DICTIONARYVAR
  2
AcDbDictionaryVar
  3
ObjectDBX Classes
 90
        0
280
     0
281
     0
  0
CLASS
  1
AM_DRAWING_MGR
  2
AcDmDwgMgr
  3
AcMechDwgViewMgmt
 90
        0
280
     0
281
     0
  0
CLASS
  1
AM_DWG_DOCUMENT
  2
AcDmDwgDocument
  3
AcMechDwgViewMgmt
 90
        0
280
     0
281
     0
  0
CLASS
  1
AM_DWG_SHEET
  2
AcDmSheet
  3
AcMechDwgViewMgmt
 90
        0
280
     0
281
     0
  0
CLASS
  1
AM_VIEWDIMPARMAP
  2
AcDmViewDimParMap
  3
AcMechDwgViewMgmt
 90
        0
280
     0
281
     0
  0
CLASS
  1
AM_DWGMGR_NAME
  2
AcDmDwgMgrName
  3
AcMechDwgViewMgmt
 90
        0
280
     0
281
     0
  0
CLASS
  1
AMDTMENUSTATEMGR
  2
AmdtMenuStateMgr
  3
McadcomServices
 90
        0
280
     0
281
     0
  0
CLASS
  1
AMDTMCOMMENUSTATE
  2
AmdtMcomMenuState
  3
McadcomServices
 90
        0
280
     0
281
     0
  0
CLASS
  1
MAPIAMMOUDLE
  2
MApiAmModule
  3
MApiAmServices
 90
        0
280
     0
281
     0
  0
CLASS
  1
AMDTADMENUSTATE
  2
AmdtAdMenuState
  3
DesignerServices
 90
        0
280
     0
281
     0
  0
CLASS
  1
ADAPPL
  2
AcAdAppl
  3
DesignerServices
 90
        0
280
     0
281
     0
  0
CLASS
  1
DEPMGR
  2
AcAdDepMgr
  3
DesignerServices
 90
        0
280
     0
281
     0
  0
CLASS
  1
PARAMMGR
  2
AcAdParamMgr
  3
DesignerServices
 90
        0
280
     0
281
     0
  0
CLASS
  1
PARAMSCOPE
  2
AcAdParamScope
  3
DesignerServices
 90
        0
280
     0
281
     0
  0
CLASS
  1
NAMEDAPPL
  2
AcAdNamedAppl
  3
DesignerServices
 90
        0
280
     0
281
     0
  0
CLASS
  1
AMDTDMMENUSTATE
  2
AmdtDmMenuState
  3
AcMechDwgViewMgmt
 90
        0
280
     0
281
     0
  0
CLASS
  1
AMDTAMMENUSTATE
  2
AmdtAmMenuState
  3
DesignerAssemblies
 90
        0
280
     0
281
     0
  0
CLASS
  1
ACAMPROJECT
  2
AcAmProject
  3
DesignerAssemblies
 90
        0
280
     0
281
     0
  0
CLASS
  1
ACAMGRCOMPDEF
  2
AcAmGrCompDef
  3
DesignerAssemblies
 90
        0
280
     0
281
     0
  0
CLASS
  1
ACCMCONTEXT
  2
AcCmContext
  3
DesignerAssemblies
 90
        0
280
     0
281
     0
  0
CLASS
  1
ACAMCOMPDEF
  2
AcAmCompDef
  3
DesignerAssemblies
 90
        0
280
     0
281
     0
  0
CLASS
  1
ACAMCOMPDEFMGR
  2
AcAmCompDefMgr
  3
DesignerAssemblies
 90
        0
280
     0
281
     0
  0
CLASS
  1
AMCONTEXTMGR
  2
AcAmContextMgr
  3
DesignerAssemblies
 90
        0
280
     0
281
     0
  0
CLASS
  1
ACAMCONTEXTMODELER
  2
AcAmContextModeler
  3
DesignerAssemblies
 90
        0
280
     0
281
     0
  0
CLASS
  1
ACMTHREADLINESTANDARDISO
  2
AmdtThreadLineStdISO
  3
"Amdt_StdImp|Product Description: AutoCAD Mechanical 2004 DX|Company: Autodesk"
 90
        0
280
     0
281
     0
  0
CLASS
  1
CATALOGSTATE
  2
AcAmCatalogState
  3
DesignerAssemblies
 90
        0
280
     0
281
     0
  0
CLASS
  1
ACAMGRCOMPDEFSET
  2
AcAmGrCompDefSet
  3
DesignerAssemblies
 90
        0
280
     0
281
     0
  0
CLASS
  1
AMDTBROWSERDBTAB
  2
AmdtBrowserDbTab
  3
McadcomServices
 90
        0
280
     0
281
     0
  0
CLASS
  1
CBROWSERAPPOBJECT
  2
CBrowserAppObject
  3
McadcomServices
 90
        0
280
     0
281
     0
  0
CLASS
  1
DM_PLACEHOLDER
  2
AcDmSelsetPlaceholder
  3
AcMechDwgViewMgmt
 90
        0
280
     0
281
     0
  0
CLASS
  1
TABLESTYLE
  2
AcDbTableStyle
  3
ObjectDBX Classes
 90
     2047
280
     0
281
     0
  0
CLASS
  1
VAACXREFPANELOBJECT
  2
VaAcXREFPanelObject
  3
VAAC_ADDIN
 90
    32768
280
     0
281
     0
  0
CLASS
  1
VAACIMAGEINVENTORY
  2
VaAcImageInventory
  3
VAAC_ADDIN
 90
    32768
280
     0
281
     0
  0
CLASS
  1
AMDTNOTETEMPLATEDB
  2
AmdtNoteTemplateDB
  3
AMDT_STDIMP_MODULE_NAME
 90
        0
280
     0
281
     0
  0
CLASS
  1
ACAMGFILTERDAT
  2
AcAmgFilterDat
  3
"AcadM|Product Description: AutoCAD Mechanical 2000|Company: Autodesk"
 90
        0
280
     0
281
     0
  0
CLASS
  1
ACMBOM
  2
AcmBom
  3
"AcmSymBB|Product Description: AutoCAD Mechanical 2004 DX|Company: Autodesk"
 90
    32768
280
     0
281
     0
  0
CLASS
  1
AMDTFORMULAUPDATEDISPATCHER
  2
AmdtFormulaUpdateDispatcher
  3
AcMeServices
 90
    32768
280
     0
281
     0
  0
CLASS
  1
DIMASSOC
  2
AcDbDimAssoc
  3
"AcDbDimAssoc|Product Desc:     AcDim ARX App For Dimension|Company:          Autodesk, Inc.|WEB Address:      www.autodesk.com"
 90
        0
280
     0
281
     0
  0
CLASS
  1
ACMSTANDARDANSI
  2
AcmStandardANSI
  3
"Amdt_StdImp|Product Description: AutoCAD Mechanical 2004 DX|Company: Autodesk"
 90
        0
280
     0
281
     0
  0
CLASS
  1
ACMSURFSTANDARDANSI
  2
AcmSurfTextStdANSI
  3
"Amdt_StdImp|Product Description: AutoCAD Mechanical 2004 DX|Company: Autodesk"
 90
        0
280
     0
281
     0
  0
CLASS
  1
ACMFCFSTANDARDANSI
  2
AcmFCFStdANSI
  3
"Amdt_StdImp|Product Description: AutoCAD Mechanical 2004 DX|Company: Autodesk"
 90
        0
280
     0
281
     0
  0
CLASS
  1
ACMWELDSTANDARDANSI
  2
AcmWeldingStdANSI
  3
"Amdt_StdImp|Product Description: AutoCAD Mechanical 2004 DX|Company: Autodesk"
 90
        0
280
     0
281
     0
  0
CLASS
  1
ACMIDSTANDARDANSI
  2
AcmIdStdANSI
  3
"Amdt_StdImp|Product Description: AutoCAD Mechanical 2004 DX|Company: Autodesk"
 90
        0
280
     0
281
     0
  0
CLASS
  1
ACMDATUMSTANDARDANSI
  2
AcmDatumStdANSI
  3
"Amdt_StdImp|Product Description: AutoCAD Mechanical 2004 DX|Company: Autodesk"
 90
        0
280
     0
281
     0
  0
CLASS
  1
ACMBOMSTANDARDANSI
  2
AcmBOMStdANSI
  3
"Amdt_StdImp|Product Description: AutoCAD Mechanical 2004 DX|Company: Autodesk"
 90
        0
280
     0
281
     0
  0
CLASS
  1
ACMDETAILSTANDARDANSI
  2
AmdtDetailSymStdANSI
  3
"Amdt_StdImp|Product Description: AutoCAD Mechanical 2004 DX|Company: Autodesk"
 90
        0
280
     0
281
     0
  0
CLASS
  1
ACMSECTIONSTANDARDANSI
  2
AmdtSectionSymStdANSI
  3
"Amdt_StdImp|Product Description: AutoCAD Mechanical 2004 DX|Company: Autodesk"
 90
        0
280
     0
281
     0
  0
CLASS
  1
ACMCENTERLINESTANDARDANSI
  2
AmdtCenterLineStdANSI
  3
"Amdt_StdImp|Product Description: AutoCAD Mechanical 2004 DX|Company: Autodesk"
 90
        0
280
     0
281
     0
  0
CLASS
  1
ACMTHREADLINESTANDARDANSI
  2
AmdtThreadLineStdANSI
  3
"Amdt_StdImp|Product Description: AutoCAD Mechanical 2004 DX|Company: Autodesk"
 90
        0
280
     0
281
     0
  0
CLASS
  1
ACMNOTESTANDARDANSI
  2
AmdtNoteStdANSI
  3
"Amdt_StdImp|Product Description: AutoCAD Mechanical 2004 DX|Company: Autodesk"
 90
        0
280
     0
281
     0
  0
CLASS
  1
ACAMGHOLECHARTSTDANSI
  2
AcAmgHoleChartStdANSI
  3
ACMSYMBB_MODULE_NAME
 90
        0
280
     0
281
     0
  0
CLASS
  1
SORTENTSTABLE
  2
AcDbSortentsTable
  3
ObjectDBX Classes
 90
        0
280
     0
281
     0
  0
ENDSEC
  0
SECTION
  2
TABLES
  0
TABLE
  2
VPORT
  5
8
330
0
100
AcDbSymbolTable
 70
     4
  0
VPORT
  5
1983
330
8
100
AcDbSymbolTableRecord
100
AcDbViewportTableRecord
  2
*Active
 70
     0
 10
0.0
 20
0.0
 11
1.0
 21
1.0
 12
1351.849419373685
 22
1324.849258109722
 13
0.0
 23
0.0
 14
2.5
 24
2.5
 15
10.0
 25
10.0
 16
0.0
 26
0.0
 36
1.0
 17
0.0
 27
0.0
 37
0.0
 40
1022.423251427191
 41
1.494545454545454
 42
50.0
 43
0.0
 44
0.0
 50
0.0
 51
0.0
 71
     0
 72
   100
 73
     1
 74
     3
 75
     0
 76
     0
 77
     0
 78
     0
281
     0
 65
     1
110
0.0
120
0.0
130
0.0
111
1.0
121
0.0
131
0.0
112
0.0
122
1.0
132
0.0
 79
     0
146
0.0
  0
ENDTAB
  0
TABLE
  2
LTYPE
  5
5
330
0
100
AcDbSymbolTable
 70
    18
  0
LTYPE
  5
14
330
5
100
AcDbSymbolTableRecord
100
AcDbLinetypeTableRecord
  2
ByBlock
 70
     0
  3

 72
    65
 73
     0
 40
0.0
  0
LTYPE
  5
15
330
5
100
AcDbSymbolTableRecord
100
AcDbLinetypeTableRecord
  2
ByLayer
 70
     0
  3

 72
    65
 73
     0
 40
0.0
  0
LTYPE
  5
16
330
5
100
AcDbSymbolTableRecord
100
AcDbLinetypeTableRecord
  2
Continuous
 70
     0
  3
Solid line
 72
    65
 73
     0
 40
0.0
  0
LTYPE
  5
64
330
5
100
AcDbSymbolTableRecord
100
AcDbLinetypeTableRecord
  2
AM_ISO02W050
 70
     0
  3
__ __ __ __ __ __ __ __ __ __ __ __ __ __ __
 72
    65
 73
     2
 40
7.5
 49
6.0
 74
     0
 49
-1.5
 74
     0
  0
LTYPE
  5
65
330
5
100
AcDbSymbolTableRecord
100
AcDbLinetypeTableRecord
  2
AM_ISO08W050
 70
     0
  3
____ . ____ . ____ . ____ . ____ . ____ . ____
 72
    65
 73
     4
 40
18.0
 49
12.0
 74
     0
 49
-1.5
 74
     0
 49
3.0
 74
     0
 49
-1.5
 74
     0
  0
LTYPE
  5
66
330
5
100
AcDbSymbolTableRecord
100
AcDbLinetypeTableRecord
  2
AM_ISO09W050
 70
     0
  3
_____ . . _____ . . _____ . . ____ .. ____
 72
    65
 73
     6
 40
22.5
 49
12.0
 74
     0
 49
-1.5
 74
     0
 49
3.0
 74
     0
 49
-1.5
 74
     0
 49
3.0
 74
     0
 49
-1.5
 74
     0
  0
LTYPE
  5
67
330
5
100
AcDbSymbolTableRecord
100
AcDbLinetypeTableRecord
  2
Amconstr
 70
     0
  3
_______________________
 72
    65
 73
     2
 40
9999.0
 49
9999.0
 74
     0
 49
0.0
 74
     0
  0
LTYPE
  5
68
330
5
100
AcDbSymbolTableRecord
100
AcDbLinetypeTableRecord
  2
AM_ISO08W050x2
 70
     0
  3
__ . __ . __ . __ . __ . __
 72
    65
 73
     4
 40
9.0
 49
6.0
 74
     0
 49
-0.75
 74
     0
 49
1.5
 74
     0
 49
-0.75
 74
     0
  0
LTYPE
  5
69
330
5
100
AcDbSymbolTableRecord
100
AcDbLinetypeTableRecord
  2
AM_ISO02W050x2
 70
     0
  3
 _ _ _ _ _ _ _ _ _ _ _ _
 72
    65
 73
     2
 40
3.75
 49
3.0
 74
     0
 49
-0.75
 74
     0
  0
LTYPE
  5
6C
330
5
100
AcDbSymbolTableRecord
100
AcDbLinetypeTableRecord
  2
Amzigzag
 70
     0
  3
/\/-/\/-/\/-/\/-/\/-/\/
 72
    65
 73
     2
 40
11.0001
 49
0.0001
 74
     4
 75
   136
340
22C
 46
0.04
 50
0.0
 44
0.0
 45
0.0
 49
-11.0
 74
     0
  0
LTYPE
  5
7A
330
5
100
AcDbSymbolTableRecord
100
AcDbLinetypeTableRecord
  2
ACISOWELD
 70
     0
  3
_ _ _ _ _
 72
    65
 73
     2
 40
2.0
 49
2.0
 74
     0
 49
-1.0
 74
     0
  0
LTYPE
  5
7B
330
5
100
AcDbSymbolTableRecord
100
AcDbLinetypeTableRecord
  2
ACISOTGB
 70
     0
  3
__ . . __ . .
 72
    65
 73
     6
 40
9.0
 49
4.0
 74
     0
 49
-1.0
 74
     0
 49
1.0
 74
     0
 49
-1.0
 74
     0
 49
1.0
 74
     0
 49
-1.0
 74
     0
  0
LTYPE
  5
7C
330
5
100
AcDbSymbolTableRecord
100
AcDbLinetypeTableRecord
  2
ACISOTGL
 70
     0
  3
_ _ _ _ _
 72
    65
 73
     2
 40
3.0
 49
2.0
 74
     0
 49
-1.0
 74
     0
  0
LTYPE
  5
7E
330
5
100
AcDbSymbolTableRecord
100
AcDbLinetypeTableRecord
  2
CENTER
 70
     0
  3
__ . __
 72
    65
 73
     4
 40
7.0
 49
4.0
 74
     0
 49
-1.0
 74
     0
 49
1.0
 74
     0
 49
-1.0
 74
     0
  0
LTYPE
  5
D8
330
5
100
AcDbSymbolTableRecord
100
AcDbLinetypeTableRecord
  2
HIDDEN
 70
     0
  3
Hidden __ __ __ __ __ __ __ __ __ __ __ __ __ _
 72
    65
 73
     2
 40
9.524999999999998
 49
6.349999999999999
 74
     0
 49
-3.174999999999999
 74
     0
  0
LTYPE
  5
D9
330
5
100
AcDbSymbolTableRecord
100
AcDbLinetypeTableRecord
  2
PHANTOM2
 70
     0
  3
Phantom (.5x) ___ _ _ ___ _ _ ___ _ _ ___ _ _
 72
    65
 73
     6
 40
31.75
 49
15.875
 74
     0
 49
-3.174999999999999
 74
     0
 49
3.174999999999999
 74
     0
 49
-3.174999999999999
 74
     0
 49
3.174999999999999
 74
     0
 49
-3.174999999999999
 74
     0
  0
LTYPE
  5
596
330
5
100
AcDbSymbolTableRecord
100
AcDbLinetypeTableRecord
  2
ACAD_ISO04W100
 70
     0
  3
ISO long-dash dot ____ . ____ . ____ . ____ . _
 72
    65
 73
     4
 40
30.0
 49
24.0
 74
     0
 49
-3.0
 74
     0
 49
0.0
 74
     0
 49
-3.0
 74
     0
  0
LTYPE
  5
597
330
5
100
AcDbSymbolTableRecord
100
AcDbLinetypeTableRecord
  2
GEN7A
 70
     0
  3
__ . __ . __
 72
    65
 73
     4
 40
6.875
 49
4.75
 74
     0
 49
-0.875
 74
     0
 49
0.375
 74
     0
 49
-0.875
 74
     0
  0
LTYPE
  5
59C
330
5
100
AcDbSymbolTableRecord
100
AcDbLinetypeTableRecord
  2
ACANSTGB
 70
     0
  3
__ . . __ . .
 72
    65
 73
     6
 40
0.35433070866
 49
0.15748031496
 74
     0
 49
-0.03937007874
 74
     0
 49
0.03937007874
 74
     0
 49
-0.03937007874
 74
     0
 49
0.03937007874
 74
     0
 49
-0.03937007874
 74
     0
  0
LTYPE
  5
59D
330
5
100
AcDbSymbolTableRecord
100
AcDbLinetypeTableRecord
  2
ACANSTGL
 70
     0
  3
_ _ _ _ _
 72
    65
 73
     2
 40
0.11811023622
 49
0.07874015748
 74
     0
 49
-0.03937007874
 74
     0
  0
ENDTAB
  0
TABLE
  2
LAYER
  5
2
102
{ACAD_XDICTIONARY
360
18FF
102
}
330
0
100
AcDbSymbolTable
 70
     7
  0
LAYER
  5
10
330
2
100
AcDbSymbolTableRecord
100
AcDbLayerTableRecord
  2
0
 70
     0
 62
     7
  6
Continuous
370
    -3
390
F
  0
LAYER
  5
59E
330
2
100
AcDbSymbolTableRecord
100
AcDbLayerTableRecord
  2
Defpoints
 70
     1
 62
     7
  6
Continuous
290
     0
370
    -3
390
F
  0
LAYER
  5
5A2
330
2
100
AcDbSymbolTableRecord
100
AcDbLayerTableRecord
  2
7A
 70
     0
 62
     4
  6
GEN7A
370
    -3
390
F
  0
LAYER
  5
5A3
330
2
100
AcDbSymbolTableRecord
100
AcDbLayerTableRecord
  2
8
 70
     0
 62
     1
  6
Continuous
370
    -3
390
F
  0
LAYER
  5
CE3
330
2
100
AcDbSymbolTableRecord
100
AcDbLayerTableRecord
  2
AM_5
 70
     0
 62
     3
  6
Continuous
370
    25
390
F
1001
AcAecLayerStandard
1000

1000

  0
LAYER
  5
D42
330
2
100
AcDbSymbolTableRecord
100
AcDbLayerTableRecord
  2
AM_7
 70
     0
 62
     4
  6
AM_ISO08W050
370
    25
390
F
1001
AcAecLayerStandard
1000

1000

  0
LAYER
  5
1904
330
2
100
AcDbSymbolTableRecord
100
AcDbLayerTableRecord
  2
AM_8
 70
     0
 62
     1
  6
Continuous
370
    25
390
F
1001
AcAecLayerStandard
1000

1000

  0
ENDTAB
  0
TABLE
  2
STYLE
  5
3
330
0
100
AcDbSymbolTable
 70
     6
  0
STYLE
  5
11
330
3
100
AcDbSymbolTableRecord
100
AcDbTextStyleTableRecord
  2
STANDARD
 70
     0
 40
0.0
 41
1.0
 50
0.0
 71
     0
 42
2.5
  3
ISOCP.SHX
  4

  0
STYLE
  5
6D
330
3
100
AcDbSymbolTableRecord
100
AcDbTextStyleTableRecord
  2
ACISOTS
 70
     0
 40
1.0
 41
1.0
 50
0.0
 71
     0
 42
2.5
  3
isocp.shx
  4
bigfont.shx
  0
STYLE
  5
79
330
3
100
AcDbSymbolTableRecord
100
AcDbTextStyleTableRecord
  2
ACISOGDT
 70
     0
 40
0.0
 41
1.0
 50
0.0
 71
     0
 42
2.5
  3
AMGDT
  4
bigfont.shx
  0
STYLE
  5
22C
330
3
100
AcDbSymbolTableRecord
100
AcDbTextStyleTableRecord
  2

 70
     1
 40
0.0
 41
1.0
 50
0.0
 71
     0
 42
2.5
  3
genltshp.shx
  4

  0
STYLE
  5
5A7
330
3
100
AcDbSymbolTableRecord
100
AcDbTextStyleTableRecord
  2
ACANSTS
 70
     0
 40
1.0
 41
1.0
 50
0.0
 71
     0
 42
15.0
  3
romans.shx
  4

  0
STYLE
  5
5A8
330
3
100
AcDbSymbolTableRecord
100
AcDbTextStyleTableRecord
  2
ACANSGDT
 70
     0
 40
0.0
 41
1.0
 50
0.0
 71
     0
 42
15.0
  3
amgdt.shx
  4

  0
ENDTAB
  0
TABLE
  2
VIEW
  5
6
330
0
100
AcDbSymbolTable
 70
     0
  0
ENDTAB
  0
TABLE
  2
UCS
  5
7
330
0
100
AcDbSymbolTable
 70
     0
  0
ENDTAB
  0
TABLE
  2
APPID
  5
9
330
0
100
AcDbSymbolTable
 70
    23
  0
APPID
  5
12
330
9
100
AcDbSymbolTableRecord
100
AcDbRegAppTableRecord
  2
ACAD
 70
     0
  0
APPID
  5
46
330
9
100
AcDbSymbolTableRecord
100
AcDbRegAppTableRecord
  2
MCAD_NO_VIS
 70
     0
  0
APPID
  5
47
330
9
100
AcDbSymbolTableRecord
100
AcDbRegAppTableRecord
  2
ACAD_TEMP_GRAPHIC
 70
     0
  0
APPID
  5
58
330
9
100
AcDbSymbolTableRecord
100
AcDbRegAppTableRecord
  2
ACATTRIBSERVICES
 70
     0
  0
APPID
  5
EE
330
9
100
AcDbSymbolTableRecord
100
AcDbRegAppTableRecord
  2
AD_DRAW
 70
     0
  0
APPID
  5
10C
330
9
100
AcDbSymbolTableRecord
100
AcDbRegAppTableRecord
  2
DESIGNERASSEMBLIES
 70
     0
  0
APPID
  5
111
330
9
100
AcDbSymbolTableRecord
100
AcDbRegAppTableRecord
  2
ACADM_DIM_EDIT
 70
     0
  0
APPID
  5
112
330
9
100
AcDbSymbolTableRecord
100
AcDbRegAppTableRecord
  2
AMDT_DM_ADJ
 70
     0
  0
APPID
  5
1A3
330
9
100
AcDbSymbolTableRecord
100
AcDbRegAppTableRecord
  2
ACAD_DSTYLE_DIMARC_LENGTH_SYMBOL
 70
     0
  0
APPID
  5
1A4
330
9
100
AcDbSymbolTableRecord
100
AcDbRegAppTableRecord
  2
ACAD_DSTYLE_DIMJOGGED_JOGANGLE_SYMBOL
 70
     0
  0
APPID
  5
CDB
330
9
100
AcDbSymbolTableRecord
100
AcDbRegAppTableRecord
  2
ACAD_EXEMPT_FROM_CAD_STANDARDS
 70
     0
  0
APPID
  5
CE4
330
9
100
AcDbSymbolTableRecord
100
AcDbRegAppTableRecord
  2
AcAecLayerStandard
 70
     0
  0
APPID
  5
D48
330
9
100
AcDbSymbolTableRecord
100
AcDbRegAppTableRecord
  2
GENIUS_GENOENT_13
 70
     0
  0
APPID
  5
D49
330
9
100
AcDbSymbolTableRecord
100
AcDbRegAppTableRecord
  2
GENIUS_GENOBJ-N-CRS_13
 70
     0
  0
APPID
  5
D4A
330
9
100
AcDbSymbolTableRecord
100
AcDbRegAppTableRecord
  2
GENIUS_GENOLIS_13
 70
     0
  0
APPID
  5
D4B
330
9
100
AcDbSymbolTableRecord
100
AcDbRegAppTableRecord
  2
GENIUS_GENODEF_13
 70
     0
  0
APPID
  5
D4C
330
9
100
AcDbSymbolTableRecord
100
AcDbRegAppTableRecord
  2
GENIUS_GENOREF_13
 70
     0
  0
APPID
  5
D50
330
9
100
AcDbSymbolTableRecord
100
AcDbRegAppTableRecord
  2
GENIUS_GENOBJ-N-CEN_13
 70
     0
  0
APPID
  5
D51
330
9
100
AcDbSymbolTableRecord
100
AcDbRegAppTableRecord
  2
GENIUS_GENCEN_19
 70
     0
  0
APPID
  5
18DA
330
9
100
AcDbSymbolTableRecord
100
AcDbRegAppTableRecord
  2
GENIUS_GENDTOL_13
 70
     0
  0
APPID
  5
1905
330
9
100
AcDbSymbolTableRecord
100
AcDbRegAppTableRecord
  2
GENIUS_GENOBJ-N-HTC_13
 70
     0
  0
APPID
  5
1906
330
9
100
AcDbSymbolTableRecord
100
AcDbRegAppTableRecord
  2
GENIUS_GENHATCH_13
 70
     0
  0
APPID
  5
193C
330
9
100
AcDbSymbolTableRecord
100
AcDbRegAppTableRecord
  2
ACAD_PSEXT
 70
     0
  0
ENDTAB
  0
TABLE
  2
DIMSTYLE
  5
A
330
0
100
AcDbSymbolTable
 70
    14
100
AcDbDimStyleTable
 71
     1
340
81
  0
DIMSTYLE
105
81
330
A
100
AcDbSymbolTableRecord
100
AcDbDimStyleTableRecord
  2
AM_ISO
 70
     0
  4
"
 41
2.5
 42
1.0
 43
10.0
 44
1.0
 47
0.1
 48
0.1
 73
     0
 74
     0
 77
     1
 78
     8
 79
     2
140
3.5
141
0.0
143
0.0393701
146
0.71
147
1.5
172
     1
176
   256
177
   256
178
     2
271
     2
272
     3
274
     4
283
     0
284
     8
340
11
371
    -1
372
    -1
1001
ACAD_DSTYLE_DIMARC_LENGTH_SYMBOL
1070
   379
1070
     1
1001
ACAD_DSTYLE_DIMJOGGED_JOGANGLE_SYMBOL
1070
   384
1040
0.7853981633974483
  0
DIMSTYLE
105
82
330
A
100
AcDbSymbolTableRecord
100
AcDbDimStyleTableRecord
  2
AM_ISO$3
 70
     0
  4
"
 41
2.5
 42
1.0
 43
10.0
 44
1.0
 47
0.1
 48
0.1
 73
     0
 77
     1
 78
     8
 79
     2
140
3.5
141
0.0
143
0.0393701
146
0.71
147
1.5
176
   256
177
   256
178
     2
271
     2
272
     3
274
     4
283
     0
284
     8
288
     1
289
     0
340
11
371
    -1
372
    -1
1001
ACAD_DSTYLE_DIMARC_LENGTH_SYMBOL
1070
   379
1070
     1
1001
ACAD_DSTYLE_DIMJOGGED_JOGANGLE_SYMBOL
1070
   384
1040
0.7853981633974483
  0
DIMSTYLE
105
83
330
A
100
AcDbSymbolTableRecord
100
AcDbDimStyleTableRecord
  2
AM_ISO$4
 70
     0
  4
"
 41
2.5
 42
1.0
 43
10.0
 44
1.0
 47
0.1
 48
0.1
 73
     0
 77
     1
 78
     8
 79
     2
140
3.5
141
0.0
143
0.0393701
146
0.71
147
1.5
176
   256
177
   256
178
     2
271
     2
272
     3
274
     4
283
     0
284
     8
288
     1
289
     0
340
11
371
    -1
372
    -1
1001
ACAD_DSTYLE_DIMARC_LENGTH_SYMBOL
1070
   379
1070
     1
1001
ACAD_DSTYLE_DIMJOGGED_JOGANGLE_SYMBOL
1070
   384
1040
0.7853981633974483
  0
DIMSTYLE
105
84
330
A
100
AcDbSymbolTableRecord
100
AcDbDimStyleTableRecord
  2
AM_ISO$6
 70
     0
  4
"
 41
2.5
 42
1.0
 43
10.0
 44
1.0
 47
0.1
 48
0.1
 73
     0
 74
     0
 78
     8
 79
     2
140
3.5
141
0.0
143
0.0393701
146
0.71
147
1.5
172
     1
176
   256
177
   256
178
     2
271
     2
272
     3
274
     4
283
     0
284
     8
340
11
371
    -1
372
    -1
1001
ACAD_DSTYLE_DIMARC_LENGTH_SYMBOL
1070
   379
1070
     1
1001
ACAD_DSTYLE_DIMJOGGED_JOGANGLE_SYMBOL
1070
   384
1040
0.7853981633974483
  0
DIMSTYLE
105
85
330
A
100
AcDbSymbolTableRecord
100
AcDbDimStyleTableRecord
  2
AM_ISO$7
 70
     0
  4
"
 41
2.5
 42
1.0
 43
10.0
 44
1.0
 47
0.1
 48
0.1
 73
     0
 74
     0
 77
     1
 78
     8
 79
     2
140
5.0
141
0.0
143
0.0393701
146
0.71
147
1.5
172
     1
176
   256
177
   256
178
     2
271
     2
272
     3
274
     4
283
     0
284
     8
340
11
371
    -1
372
    -1
1001
ACAD_DSTYLE_DIMARC_LENGTH_SYMBOL
1070
   379
1070
     1
1001
ACAD_DSTYLE_DIMJOGGED_JOGANGLE_SYMBOL
1070
   384
1040
0.7853981633974483
  0
DIMSTYLE
105
86
330
A
100
AcDbSymbolTableRecord
100
AcDbDimStyleTableRecord
  2
AM_ISO$SF
 70
     0
  4
"
 41
2.5
 42
1.0
 43
10.0
 44
1.0
 47
0.1
 48
0.1
 73
     0
 74
     0
 75
     1
 76
     1
 77
     1
 78
     8
 79
     2
140
3.5
141
0.0
143
0.0393701
146
0.71
147
1.5
172
     1
176
   256
177
   256
178
     2
271
     2
272
     3
274
     4
283
     0
284
     8
340
11
371
    -1
372
    -1
1001
ACAD_DSTYLE_DIMARC_LENGTH_SYMBOL
1070
   379
1070
     1
1001
ACAD_DSTYLE_DIMJOGGED_JOGANGLE_SYMBOL
1070
   384
1040
0.7853981633974483
  0
DIMSTYLE
105
8B
330
A
100
AcDbSymbolTableRecord
100
AcDbDimStyleTableRecord
  2
AM_ISO$SH
 70
     0
  4
"
 41
2.5
 42
1.0
 43
10.0
 44
1.0
 47
0.1
 48
0.1
 73
     0
 74
     0
 75
     1
 76
     1
 77
     1
 78
     8
 79
     2
140
3.5
141
0.0
143
0.0393701
144
2.0
146
0.71
147
1.5
172
     1
173
     1
176
   256
177
   256
178
     2
271
     2
272
     3
274
     4
283
     0
284
     8
340
11
343
87
371
    -1
372
    -1
1001
ACAD_DSTYLE_DIMARC_LENGTH_SYMBOL
1070
   379
1070
     1
1001
ACAD_DSTYLE_DIMJOGGED_JOGANGLE_SYMBOL
1070
   384
1040
0.7853981633974483
  0
DIMSTYLE
105
5AA
330
A
100
AcDbSymbolTableRecord
100
AcDbDimStyleTableRecord
  2
AM_ANSI
 70
     0
  4
mm
 41
0.1
 42
0.05
 43
0.5
 44
0.1
 47
0.1
 48
0.1
 78
     7
 79
     2
140
0.12
141
0.0
146
0.71
147
0.06
176
   256
177
   256
178
     2
274
     4
284
     7
340
11
371
    -1
372
    -1
1001
ACAD_DSTYLE_DIMARC_LENGTH_SYMBOL
1070
   379
1070
     1
1001
ACAD_DSTYLE_DIMJOGGED_JOGANGLE_SYMBOL
1070
   384
1040
0.7853981633974483
  0
DIMSTYLE
105
5AB
330
A
100
AcDbSymbolTableRecord
100
AcDbDimStyleTableRecord
  2
AM_ANSI$3
 70
     0
  4
mm
 41
0.1
 42
0.05
 43
0.5
 44
0.1
 47
0.1
 48
0.1
 78
     7
 79
     2
140
0.12
141
0.0
146
0.71
147
0.06
176
   256
177
   256
178
     2
274
     4
284
     7
288
     1
289
     0
340
11
371
    -1
372
    -1
1001
ACAD_DSTYLE_DIMARC_LENGTH_SYMBOL
1070
   379
1070
     1
1001
ACAD_DSTYLE_DIMJOGGED_JOGANGLE_SYMBOL
1070
   384
1040
0.7853981633974483
  0
DIMSTYLE
105
5AC
330
A
100
AcDbSymbolTableRecord
100
AcDbDimStyleTableRecord
  2
AM_ANSI$4
 70
     0
  4
mm
 41
0.1
 42
0.05
 43
0.5
 44
0.1
 47
0.1
 48
0.1
 78
     7
 79
     2
140
0.12
141
0.0
146
0.71
147
0.06
176
   256
177
   256
178
     2
274
     4
284
     7
288
     1
289
     0
340
11
371
    -1
372
    -1
1001
ACAD_DSTYLE_DIMARC_LENGTH_SYMBOL
1070
   379
1070
     1
1001
ACAD_DSTYLE_DIMJOGGED_JOGANGLE_SYMBOL
1070
   384
1040
0.7853981633974483
  0
DIMSTYLE
105
5AD
330
A
100
AcDbSymbolTableRecord
100
AcDbDimStyleTableRecord
  2
AM_ANSI$7
 70
     0
  4
mm
 41
0.1
 42
0.05
 43
0.5
 44
0.1
 47
0.1
 48
0.1
 78
     7
 79
     2
140
0.24
141
0.0
146
0.71
147
0.06
176
   256
177
   256
178
     2
274
     4
284
     7
340
11
371
    -1
372
    -1
1001
ACAD_DSTYLE_DIMARC_LENGTH_SYMBOL
1070
   379
1070
     1
1001
ACAD_DSTYLE_DIMJOGGED_JOGANGLE_SYMBOL
1070
   384
1040
0.7853981633974483
  0
DIMSTYLE
105
5AE
330
A
100
AcDbSymbolTableRecord
100
AcDbDimStyleTableRecord
  2
AM_ANSI$SF
 70
     0
  4
mm
 41
0.1
 42
0.05
 43
0.5
 44
0.1
 47
0.1
 48
0.1
 75
     1
 76
     1
 78
     7
 79
     2
140
0.12
141
0.0
146
0.71
147
0.06
176
   256
177
   256
178
     2
274
     4
284
     7
340
11
371
    -1
372
    -1
1001
ACAD_DSTYLE_DIMARC_LENGTH_SYMBOL
1070
   379
1070
     1
1001
ACAD_DSTYLE_DIMJOGGED_JOGANGLE_SYMBOL
1070
   384
1040
0.7853981633974483
  0
DIMSTYLE
105
5AF
330
A
100
AcDbSymbolTableRecord
100
AcDbDimStyleTableRecord
  2
AM_ANSI$SH
 70
     0
  4
mm
 41
0.1
 42
0.05
 43
0.5
 44
0.1
 47
0.1
 48
0.1
 75
     1
 76
     1
 78
     7
 79
     2
140
0.12
141
0.0
146
0.71
147
0.06
173
     1
176
   256
177
   256
178
     2
274
     4
284
     7
340
11
343
87
371
    -1
372
    -1
1001
ACAD_DSTYLE_DIMARC_LENGTH_SYMBOL
1070
   379
1070
     1
1001
ACAD_DSTYLE_DIMJOGGED_JOGANGLE_SYMBOL
1070
   384
1040
0.7853981633974483
  0
DIMSTYLE
105
16C5
102
{ACAD_REACTORS
330
171D
330
16C9
330
16F3
330
177A
330
17AD
330
1747
330
17D7
330
180A
102
}
330
A
100
AcDbSymbolTableRecord
100
AcDbDimStyleTableRecord
  2
AM_ISO$0
 70
     0
  4
"
 41
2.5
 42
1.0
 43
10.0
 44
1.0
 47
0.1
 48
0.1
 73
     0
 74
     0
 77
     1
 78
     8
 79
     2
140
3.5
141
0.0
143
0.0393701
146
0.71
147
1.5
172
     1
176
   256
177
   256
178
     2
271
     2
272
     3
274
     4
283
     0
284
     8
340
11
371
    -1
372
    -1
1001
ACAD_DSTYLE_DIMARC_LENGTH_SYMBOL
1070
   379
1070
     1
1001
ACAD_DSTYLE_DIMJOGGED_JOGANGLE_SYMBOL
1070
   384
1040
0.7853981633974483
  0
ENDTAB
  0
TABLE
  2
BLOCK_RECORD
  5
1
330
0
100
AcDbSymbolTable
 70
    11
  0
BLOCK_RECORD
  5
1F
102
{ACAD_XDICTIONARY
360
8F
102
}
330
1
100
AcDbSymbolTableRecord
100
AcDbBlockTableRecord
  2
*Model_Space
340
22
  0
BLOCK_RECORD
  5
1B
330
1
100
AcDbSymbolTableRecord
100
AcDbBlockTableRecord
  2
*Paper_Space
340
1E
  0
BLOCK_RECORD
  5
23
330
1
100
AcDbSymbolTableRecord
100
AcDbBlockTableRecord
  2
*Paper_Space0
340
26
  0
BLOCK_RECORD
  5
87
330
1
100
AcDbSymbolTableRecord
100
AcDbBlockTableRecord
  2
GENAXEH
340
0
  0
BLOCK_RECORD
  5
16CA
330
1
100
AcDbSymbolTableRecord
100
AcDbBlockTableRecord
  2
*D3
340
0
  0
BLOCK_RECORD
  5
16F4
330
1
100
AcDbSymbolTableRecord
100
AcDbBlockTableRecord
  2
*D4
340
0
  0
BLOCK_RECORD
  5
171E
330
1
100
AcDbSymbolTableRecord
100
AcDbBlockTableRecord
  2
*D5
340
0
  0
BLOCK_RECORD
  5
1748
330
1
100
AcDbSymbolTableRecord
100
AcDbBlockTableRecord
  2
*D6
340
0
  0
BLOCK_RECORD
  5
177B
330
1
100
AcDbSymbolTableRecord
100
AcDbBlockTableRecord
  2
*D7
340
0
  0
BLOCK_RECORD
  5
17AE
330
1
100
AcDbSymbolTableRecord
100
AcDbBlockTableRecord
  2
*D8
340
0
  0
BLOCK_RECORD
  5
17D8
330
1
100
AcDbSymbolTableRecord
100
AcDbBlockTableRecord
  2
*D9
340
0
  0
BLOCK_RECORD
  5
180B
330
1
100
AcDbSymbolTableRecord
100
AcDbBlockTableRecord
  2
*D10
340
0
  0
ENDTAB
  0
ENDSEC
  0
SECTION
  2
BLOCKS
  0
BLOCK
  5
20
330
1F
100
AcDbEntity
  8
0
100
AcDbBlockBegin
  2
*Model_Space
 70
     0
 10
0.0
 20
0.0
 30
0.0
  3
*Model_Space
  1

  0
ENDBLK
  5
21
330
1F
100
AcDbEntity
  8
0
100
AcDbBlockEnd
  0
BLOCK
  5
1C
330
1B
100
AcDbEntity
 67
     1
  8
0
100
AcDbBlockBegin
  2
*Paper_Space
 70
     0
 10
0.0
 20
0.0
 30
0.0
  3
*Paper_Space
  1

  0
ENDBLK
  5
1D
330
1B
100
AcDbEntity
 67
     1
  8
0
100
AcDbBlockEnd
  0
BLOCK
  5
24
330
23
100
AcDbEntity
 67
     1
  8
0
100
AcDbBlockBegin
  2
*Paper_Space0
 70
     0
 10
0.0
 20
0.0
 30
0.0
  3
*Paper_Space0
  1

  0
ENDBLK
  5
25
330
23
100
AcDbEntity
 67
     1
  8
0
100
AcDbBlockEnd
  0
BLOCK
  5
89
330
87
100
AcDbEntity
  8
0
100
AcDbBlockBegin
  2
GENAXEH
 70
     0
 10
0.0
 20
0.0
 30
0.0
  3
GENAXEH
  1

  0
LINE
  5
88
330
87
100
AcDbEntity
  8
0
100
AcDbLine
 10
-1.0
 20
0.0
 30
0.0
 11
1.0
 21
0.0
 31
0.0
  0
ENDBLK
  5
8A
330
87
100
AcDbEntity
  8
0
100
AcDbBlockEnd
  0
BLOCK
  5
16D4
330
16CA
100
AcDbEntity
  8
0
100
AcDbBlockBegin
  2
*D3
 70
     1
 10
0.0
 20
0.0
 30
0.0
  3
*D3
  1

  0
LINE
  5
1891
330
16CA
100
AcDbEntity
  8
AM_5
100
AcDbLine
 10
1228.093915474805
 20
1786.077273212467
 30
0.0
 11
1109.107835710671
 21
1786.077273212467
 31
0.0
  0
LINE
  5
1892
330
16CA
100
AcDbEntity
  8
AM_5
100
AcDbLine
 10
1181.262880669648
 20
1706.077273212467
 30
0.0
 11
1109.107835710671
 21
1706.077273212467
 31
0.0
  0
LINE
  5
1893
330
16CA
100
AcDbEntity
  8
AM_5
100
AcDbLine
 10
1110.107835710671
 20
1783.577273212467
 30
0.0
 11
1110.107835710671
 21
1708.577273212467
 31
0.0
  0
SOLID
  5
1894
330
16CA
100
AcDbEntity
  8
AM_5
100
AcDbTrace
 10
1109.691169044004
 20
1783.577273212467
 30
0.0
 11
1110.524502377337
 21
1783.577273212467
 31
0.0
 12
1110.107835710671
 22
1786.077273212467
 32
0.0
 13
1110.107835710671
 23
1786.077273212467
 33
0.0
  0
SOLID
  5
1895
330
16CA
100
AcDbEntity
  8
AM_5
100
AcDbTrace
 10
1109.691169044004
 20
1708.577273212467
 30
0.0
 11
1110.524502377337
 21
1708.577273212467
 31
0.0
 12
1110.107835710671
 22
1706.077273212467
 32
0.0
 13
1110.107835710671
 23
1706.077273212467
 33
0.0
  0
MTEXT
  5
1896
330
16CA
100
AcDbEntity
  8
AM_5
 62
     2
100
AcDbMText
 10
1104.60783571067
 20
1746.077273212468
 30
0.0
 40
8.0
 41
0.0
 71
     5
 72
     1
  1
80
 11
0.0000000000000001
 21
1.0
 31
0.0
 73
     1
 44
1.0
1001
ACAD
1000
MTEXTBEGIN
1070
    73
1070
     1
1070
    44
1040
1.0
1070
    74
1070
     0
1000
MTEXTEND
  0
POINT
  5
1897
330
16CA
100
AcDbEntity
  8
Defpoints
 62
     0
100
AcDbPoint
 10
1229.093915474805
 20
1786.077273212467
 30
0.0
  0
POINT
  5
1898
330
16CA
100
AcDbEntity
  8
Defpoints
 62
     0
100
AcDbPoint
 10
1182.262880669648
 20
1706.077273212467
 30
0.0
  0
POINT
  5
1899
330
16CA
100
AcDbEntity
  8
Defpoints
 62
     0
100
AcDbPoint
 10
1110.107835710671
 20
1706.077273212467
 30
0.0
  0
ENDBLK
  5
16D5
330
16CA
100
AcDbEntity
  8
0
100
AcDbBlockEnd
  0
BLOCK
  5
16FE
330
16F4
100
AcDbEntity
  8
0
100
AcDbBlockBegin
  2
*D4
 70
     1
 10
0.0
 20
0.0
 30
0.0
  3
*D4
  1

  0
LINE
  5
18E5
330
16F4
100
AcDbEntity
  8
AM_5
100
AcDbLine
 10
1475.460016093165
 20
1641.029655059812
 30
0.0
 11
1161.822864414267
 21
1641.029655059812
 31
0.0
  0
LINE
  5
18E6
330
16F4
100
AcDbEntity
  8
AM_5
100
AcDbLine
 10
1363.093915474805
 20
1581.077273212467
 30
0.0
 11
1161.822864414267
 21
1581.077273212467
 31
0.0
  0
LINE
  5
18E7
330
16F4
100
AcDbEntity
  8
AM_5
100
AcDbLine
 10
1162.822864414267
 20
1638.529655059812
 30
0.0
 11
1162.822864414267
 21
1583.577273212467
 31
0.0
  0
SOLID
  5
18E8
330
16F4
100
AcDbEntity
  8
AM_5
100
AcDbTrace
 10
1162.4061977476
 20
1638.529655059812
 30
0.0
 11
1163.239531080934
 21
1638.529655059812
 31
0.0
 12
1162.822864414267
 22
1641.029655059812
 32
0.0
 13
1162.822864414267
 23
1641.029655059812
 33
0.0
  0
SOLID
  5
18E9
330
16F4
100
AcDbEntity
  8
AM_5
100
AcDbTrace
 10
1162.4061977476
 20
1583.577273212467
 30
0.0
 11
1163.239531080934
 21
1583.577273212467
 31
0.0
 12
1162.822864414267
 22
1581.077273212467
 32
0.0
 13
1162.822864414267
 23
1581.077273212467
 33
0.0
  0
MTEXT
  5
18EA
330
16F4
100
AcDbEntity
  8
AM_5
 62
     2
100
AcDbMText
 10
1157.322864414267
 20
1611.05346413614
 30
0.0
 40
8.0
 41
0.0
 71
     5
 72
     1
  1
60
 11
0.0000000000000001
 21
1.0
 31
0.0
 73
     1
 44
1.0
1001
ACAD
1000
MTEXTBEGIN
1070
    73
1070
     1
1070
    44
1040
1.0
1070
    74
1070
     0
1000
MTEXTEND
  0
POINT
  5
18EB
330
16F4
100
AcDbEntity
  8
Defpoints
 62
     0
100
AcDbPoint
 10
1476.460016093165
 20
1641.029655059812
 30
0.0
  0
POINT
  5
18EC
330
16F4
100
AcDbEntity
  8
Defpoints
 62
     0
100
AcDbPoint
 10
1364.093915474805
 20
1581.077273212467
 30
0.0
  0
POINT
  5
18ED
330
16F4
100
AcDbEntity
  8
Defpoints
 62
     0
100
AcDbPoint
 10
1162.822864414267
 20
1581.077273212467
 30
0.0
  0
ENDBLK
  5
16FF
330
16F4
100
AcDbEntity
  8
0
100
AcDbBlockEnd
  0
BLOCK
  5
1728
330
171E
100
AcDbEntity
  8
0
100
AcDbBlockBegin
  2
*D5
 70
     1
 10
0.0
 20
0.0
 30
0.0
  3
*D5
  1

  0
LINE
  5
1888
330
171E
100
AcDbEntity
  8
AM_5
100
AcDbLine
 10
1228.093915474805
 20
1786.077273212467
 30
0.0
 11
1060.785035639346
 21
1786.077273212467
 31
0.0
  0
LINE
  5
1889
330
171E
100
AcDbEntity
  8
AM_5
100
AcDbLine
 10
1363.093915474805
 20
1516.077273212467
 30
0.0
 11
1060.785035639346
 21
1516.077273212467
 31
0.0
  0
LINE
  5
188A
330
171E
100
AcDbEntity
  8
AM_5
100
AcDbLine
 10
1061.785035639346
 20
1783.577273212467
 30
0.0
 11
1061.785035639346
 21
1518.577273212467
 31
0.0
  0
SOLID
  5
188B
330
171E
100
AcDbEntity
  8
AM_5
100
AcDbTrace
 10
1061.368368972679
 20
1783.577273212467
 30
0.0
 11
1062.201702306013
 21
1783.577273212467
 31
0.0
 12
1061.785035639346
 22
1786.077273212467
 32
0.0
 13
1061.785035639346
 23
1786.077273212467
 33
0.0
  0
SOLID
  5
188C
330
171E
100
AcDbEntity
  8
AM_5
100
AcDbTrace
 10
1061.368368972679
 20
1518.577273212467
 30
0.0
 11
1062.201702306013
 21
1518.577273212467
 31
0.0
 12
1061.785035639346
 22
1516.077273212467
 32
0.0
 13
1061.785035639346
 23
1516.077273212467
 33
0.0
  0
MTEXT
  5
188D
330
171E
100
AcDbEntity
  8
AM_5
 62
     2
100
AcDbMText
 10
1056.284248237771
 20
1651.077273212467
 30
0.0
 40
8.0
 41
0.0
 71
     5
 72
     1
  1
270
 11
0.0000000000000001
 21
1.0
 31
0.0
 73
     1
 44
1.0
1001
ACAD
1000
MTEXTBEGIN
1070
    73
1070
     1
1070
    44
1040
1.0
1070
    74
1070
     0
1000
MTEXTEND
  0
POINT
  5
188E
330
171E
100
AcDbEntity
  8
Defpoints
 62
     0
100
AcDbPoint
 10
1229.093915474805
 20
1786.077273212467
 30
0.0
  0
POINT
  5
188F
330
171E
100
AcDbEntity
  8
Defpoints
 62
     0
100
AcDbPoint
 10
1364.093915474805
 20
1516.077273212467
 30
0.0
  0
POINT
  5
1890
330
171E
100
AcDbEntity
  8
Defpoints
 62
     0
100
AcDbPoint
 10
1061.785035639346
 20
1516.077273212467
 30
0.0
  0
ENDBLK
  5
1729
330
171E
100
AcDbEntity
  8
0
100
AcDbBlockEnd
  0
BLOCK
  5
1752
330
1748
100
AcDbEntity
  8
0
100
AcDbBlockBegin
  2
*D6
 70
     1
 10
0.0
 20
0.0
 30
0.0
  3
*D6
  1

  0
LINE
  5
18DB
330
1748
100
AcDbEntity
  8
AM_5
100
AcDbLine
 10
1364.093915474805
 20
1515.077273212467
 30
0.0
 11
1364.093915474805
 21
1467.382451660628
 31
0.0
  0
LINE
  5
18DC
330
1748
100
AcDbEntity
  8
AM_5
100
AcDbLine
 10
1529.776965783985
 20
1500.077273212467
 30
0.0
 11
1529.776965783985
 21
1467.382451660628
 31
0.0
  0
LINE
  5
18DD
330
1748
100
AcDbEntity
  8
AM_5
100
AcDbLine
 10
1366.593915474805
 20
1468.382451660628
 30
0.0
 11
1527.276965783985
 21
1468.382451660628
 31
0.0
  0
SOLID
  5
18DE
330
1748
100
AcDbEntity
  8
AM_5
100
AcDbTrace
 10
1366.593915474805
 20
1468.799118327295
 30
0.0
 11
1366.593915474805
 21
1467.965784993961
 31
0.0
 12
1364.093915474805
 22
1468.382451660628
 32
0.0
 13
1364.093915474805
 23
1468.382451660628
 33
0.0
  0
SOLID
  5
18DF
330
1748
100
AcDbEntity
  8
AM_5
100
AcDbTrace
 10
1527.276965783985
 20
1468.799118327295
 30
0.0
 11
1527.276965783985
 21
1467.965784993961
 31
0.0
 12
1529.776965783985
 22
1468.382451660628
 32
0.0
 13
1529.776965783985
 23
1468.382451660628
 33
0.0
  0
MTEXT
  5
18E0
330
1748
100
AcDbEntity
  8
AM_5
 62
     2
100
AcDbMText
 10
1446.935440629395
 20
1473.882451660628
 30
0.0
 40
8.0
 41
0.0
 71
     5
 72
     1
  1
165
 73
     1
 44
1.0
1001
ACAD
1000
MTEXTBEGIN
1070
    73
1070
     1
1070
    44
1040
1.0
1070
    74
1070
     0
1000
MTEXTEND
  0
POINT
  5
18E1
330
1748
100
AcDbEntity
  8
Defpoints
 62
     0
100
AcDbPoint
 10
1364.093915474805
 20
1516.077273212467
 30
0.0
  0
POINT
  5
18E2
330
1748
100
AcDbEntity
  8
Defpoints
 62
     0
100
AcDbPoint
 10
1529.776965783985
 20
1501.077273212467
 30
0.0
  0
POINT
  5
18E3
330
1748
100
AcDbEntity
  8
Defpoints
 62
     0
100
AcDbPoint
 10
1529.776965783985
 20
1468.382451660628
 30
0.0
  0
ENDBLK
  5
1753
330
1748
100
AcDbEntity
  8
0
100
AcDbBlockEnd
  0
BLOCK
  5
1785
330
177B
100
AcDbEntity
  8
0
100
AcDbBlockBegin
  2
*D7
 70
     1
 10
0.0
 20
0.0
 30
0.0
  3
*D7
  1

  0
LINE
  5
18A3
330
177B
100
AcDbEntity
  8
AM_5
100
AcDbLine
 10
1229.093915474805
 20
1787.077273212467
 30
0.0
 11
1229.093915474805
 21
1823.802625904603
 31
0.0
  0
LINE
  5
18A4
330
177B
100
AcDbEntity
  8
AM_5
100
AcDbLine
 10
1499.093915474805
 20
1787.077273212467
 30
0.0
 11
1499.093915474805
 21
1823.802625904603
 31
0.0
  0
LINE
  5
18A5
330
177B
100
AcDbEntity
  8
AM_5
100
AcDbLine
 10
1231.593915474805
 20
1822.802625904603
 30
0.0
 11
1496.593915474805
 21
1822.802625904603
 31
0.0
  0
SOLID
  5
18A6
330
177B
100
AcDbEntity
  8
AM_5
100
AcDbTrace
 10
1231.593915474805
 20
1823.219292571269
 30
0.0
 11
1231.593915474805
 21
1822.385959237936
 31
0.0
 12
1229.093915474805
 22
1822.802625904603
 32
0.0
 13
1229.093915474805
 23
1822.802625904603
 33
0.0
  0
SOLID
  5
18A7
330
177B
100
AcDbEntity
  8
AM_5
100
AcDbTrace
 10
1496.593915474805
 20
1823.219292571269
 30
0.0
 11
1496.593915474805
 21
1822.385959237936
 31
0.0
 12
1499.093915474805
 22
1822.802625904603
 32
0.0
 13
1499.093915474805
 23
1822.802625904603
 33
0.0
  0
MTEXT
  5
18A8
330
177B
100
AcDbEntity
  8
AM_5
 62
     2
100
AcDbMText
 10
1364.093915474805
 20
1828.303413306177
 30
0.0
 40
8.0
 41
0.0
 71
     5
 72
     1
  1
%%c270
 73
     1
 44
1.0
1001
ACAD
1000
MTEXTBEGIN
1070
    73
1070
     1
1070
    44
1040
1.0
1070
    74
1070
     0
1000
MTEXTEND
  0
POINT
  5
18A9
330
177B
100
AcDbEntity
  8
Defpoints
 62
     0
100
AcDbPoint
 10
1229.093915474805
 20
1786.077273212467
 30
0.0
  0
POINT
  5
18AA
330
177B
100
AcDbEntity
  8
Defpoints
 62
     0
100
AcDbPoint
 10
1499.093915474805
 20
1786.077273212467
 30
0.0
  0
POINT
  5
18AB
330
177B
100
AcDbEntity
  8
Defpoints
 62
     0
100
AcDbPoint
 10
1499.093915474805
 20
1822.802625904603
 30
0.0
  0
ENDBLK
  5
1786
330
177B
100
AcDbEntity
  8
0
100
AcDbBlockEnd
  0
BLOCK
  5
17B8
330
17AE
100
AcDbEntity
  8
0
100
AcDbBlockBegin
  2
*D8
 70
     1
 10
0.0
 20
0.0
 30
0.0
  3
*D8
  1

  0
LINE
  5
18AC
330
17AE
100
AcDbEntity
  8
AM_5
100
AcDbLine
 10
1500.093915474805
 20
1786.077273212467
 30
0.0
 11
1654.931079163909
 21
1786.077273212467
 31
0.0
  0
LINE
  5
18AD
330
17AE
100
AcDbEntity
  8
AM_5
100
AcDbLine
 10
1590.093915474805
 20
1501.077273212467
 30
0.0
 11
1654.931079163909
 21
1501.077273212467
 31
0.0
  0
LINE
  5
18AE
330
17AE
100
AcDbEntity
  8
AM_5
100
AcDbLine
 10
1653.931079163909
 20
1783.577273212467
 30
0.0
 11
1653.931079163909
 21
1503.577273212467
 31
0.0
  0
SOLID
  5
18AF
330
17AE
100
AcDbEntity
  8
AM_5
100
AcDbTrace
 10
1653.514412497242
 20
1783.577273212467
 30
0.0
 11
1654.347745830576
 21
1783.577273212467
 31
0.0
 12
1653.931079163909
 22
1786.077273212467
 32
0.0
 13
1653.931079163909
 23
1786.077273212467
 33
0.0
  0
SOLID
  5
18B0
330
17AE
100
AcDbEntity
  8
AM_5
100
AcDbTrace
 10
1653.514412497242
 20
1503.577273212467
 30
0.0
 11
1654.347745830575
 21
1503.577273212467
 31
0.0
 12
1653.931079163909
 22
1501.077273212467
 32
0.0
 13
1653.931079163909
 23
1501.077273212467
 33
0.0
  0
MTEXT
  5
18B1
330
17AE
100
AcDbEntity
  8
AM_5
 62
     2
100
AcDbMText
 10
1648.430291762334
 20
1643.577273212468
 30
0.0
 40
8.0
 41
0.0
 71
     5
 72
     1
  1
285
 11
0.0000000000000001
 21
1.0
 31
0.0
 73
     1
 44
1.0
1001
ACAD
1000
MTEXTBEGIN
1070
    73
1070
     1
1070
    44
1040
1.0
1070
    74
1070
     0
1000
MTEXTEND
  0
POINT
  5
18B2
330
17AE
100
AcDbEntity
  8
Defpoints
 62
     0
100
AcDbPoint
 10
1499.093915474805
 20
1786.077273212467
 30
0.0
  0
POINT
  5
18B3
330
17AE
100
AcDbEntity
  8
Defpoints
 62
     0
100
AcDbPoint
 10
1589.093915474805
 20
1501.077273212467
 30
0.0
  0
POINT
  5
18B4
330
17AE
100
AcDbEntity
  8
Defpoints
 62
     0
100
AcDbPoint
 10
1653.931079163909
 20
1501.077273212467
 30
0.0
  0
ENDBLK
  5
17B9
330
17AE
100
AcDbEntity
  8
0
100
AcDbBlockEnd
  0
BLOCK
  5
17E2
330
17D8
100
AcDbEntity
  8
0
100
AcDbBlockBegin
  2
*D9
 70
     1
 10
0.0
 20
0.0
 30
0.0
  3
*D9
  1

  0
LINE
  5
18BE
330
17D8
100
AcDbEntity
  8
AM_5
100
AcDbLine
 10
1363.093915474805
 20
1292.077273212467
 30
0.0
 11
1057.278712252086
 21
1292.077273212467
 31
0.0
  0
LINE
  5
18BF
330
17D8
100
AcDbEntity
  8
AM_5
100
AcDbLine
 10
1363.093915474805
 20
842.0772732124676
 30
0.0
 11
1057.278712252086
 21
842.0772732124676
 31
0.0
  0
LINE
  5
18C0
330
17D8
100
AcDbEntity
  8
AM_5
100
AcDbLine
 10
1058.278712252086
 20
1289.577273212467
 30
0.0
 11
1058.278712252086
 21
844.5772732124677
 31
0.0
  0
SOLID
  5
18C1
330
17D8
100
AcDbEntity
  8
AM_5
100
AcDbTrace
 10
1057.862045585419
 20
1289.577273212467
 30
0.0
 11
1058.695378918752
 21
1289.577273212467
 31
0.0
 12
1058.278712252086
 22
1292.077273212467
 32
0.0
 13
1058.278712252086
 23
1292.077273212467
 33
0.0
  0
SOLID
  5
18C2
330
17D8
100
AcDbEntity
  8
AM_5
100
AcDbTrace
 10
1057.862045585419
 20
844.5772732124677
 30
0.0
 11
1058.695378918752
 21
844.5772732124677
 31
0.0
 12
1058.278712252086
 22
842.0772732124676
 32
0.0
 13
1058.278712252086
 23
842.0772732124676
 33
0.0
  0
MTEXT
  5
18C3
330
17D8
100
AcDbEntity
  8
AM_5
 62
     2
100
AcDbMText
 10
1052.778712252085
 20
1067.077273212468
 30
0.0
 40
8.0
 41
0.0
 71
     5
 72
     1
  1
%%c450
 11
0.0000000000000001
 21
1.0
 31
0.0
 73
     1
 44
1.0
1001
ACAD
1000
MTEXTBEGIN
1070
    73
1070
     1
1070
    44
1040
1.0
1070
    74
1070
     0
1000
MTEXTEND
  0
POINT
  5
18C4
330
17D8
100
AcDbEntity
  8
Defpoints
 62
     0
100
AcDbPoint
 10
1364.093915474805
 20
1292.077273212467
 30
0.0
  0
POINT
  5
18C5
330
17D8
100
AcDbEntity
  8
Defpoints
 62
     0
100
AcDbPoint
 10
1364.093915474805
 20
842.0772732124676
 30
0.0
  0
POINT
  5
18C6
330
17D8
100
AcDbEntity
  8
Defpoints
 62
     0
100
AcDbPoint
 10
1058.278712252086
 20
842.0772732124676
 30
0.0
  0
ENDBLK
  5
17E3
330
17D8
100
AcDbEntity
  8
0
100
AcDbBlockEnd
  0
BLOCK
  5
1815
330
180B
100
AcDbEntity
  8
0
100
AcDbBlockBegin
  2
*D10
 70
     1
 10
0.0
 20
0.0
 30
0.0
  3
*D10
  1

  0
LINE
  5
18C7
330
180B
100
AcDbEntity
  8
AM_5
100
AcDbLine
 10
1420.093915474805
 20
991.4783456062346
 30
0.0
 11
1420.093915474805
 21
817.386968284245
 31
0.0
  0
LINE
  5
18C8
330
180B
100
AcDbEntity
  8
AM_5
100
AcDbLine
 10
1436.093915474805
 20
994.9928164022763
 30
0.0
 11
1436.093915474805
 21
817.386968284245
 31
0.0
  0
LINE
  5
18C9
330
180B
100
AcDbEntity
  8
AM_5
100
AcDbLine
 10
1422.593915474805
 20
818.386968284245
 30
0.0
 11
1433.593915474805
 21
818.386968284245
 31
0.0
  0
SOLID
  5
18CA
330
180B
100
AcDbEntity
  8
AM_5
100
AcDbTrace
 10
1422.593915474805
 20
818.8036349509117
 30
0.0
 11
1422.593915474805
 21
817.9703016175784
 31
0.0
 12
1420.093915474805
 22
818.386968284245
 32
0.0
 13
1420.093915474805
 23
818.386968284245
 33
0.0
  0
SOLID
  5
18CB
330
180B
100
AcDbEntity
  8
AM_5
100
AcDbTrace
 10
1433.593915474805
 20
818.8036349509117
 30
0.0
 11
1433.593915474805
 21
817.9703016175784
 31
0.0
 12
1436.093915474805
 22
818.386968284245
 32
0.0
 13
1436.093915474805
 23
818.386968284245
 33
0.0
  0
MTEXT
  5
18CC
330
180B
100
AcDbEntity
  8
AM_5
 62
     2
100
AcDbMText
 10
1428.093915474805
 20
823.886968284245
 30
0.0
 40
8.0
 41
0.0
 71
     5
 72
     1
  1
16
 73
     1
 44
1.0
1001
ACAD
1000
MTEXTBEGIN
1070
    73
1070
     1
1070
    44
1040
1.0
1070
    74
1070
     0
1000
MTEXTEND
  0
POINT
  5
18CD
330
180B
100
AcDbEntity
  8
Defpoints
 62
     0
100
AcDbPoint
 10
1420.093915474805
 20
992.4783456062346
 30
0.0
  0
POINT
  5
18CE
330
180B
100
AcDbEntity
  8
Defpoints
 62
     0
100
AcDbPoint
 10
1436.093915474805
 20
995.9928164022763
 30
0.0
  0
POINT
  5
18CF
330
180B
100
AcDbEntity
  8
Defpoints
 62
     0
100
AcDbPoint
 10
1436.093915474805
 20
818.386968284245
 30
0.0
  0
ENDBLK
  5
1816
330
180B
100
AcDbEntity
  8
0
100
AcDbBlockEnd
  0
ENDSEC
  0
SECTION
  2
ENTITIES
  0
LINE
  5
780
330
1F
100
AcDbEntity
  8
0
100
AcDbLine
 10
1229.093915474805
 20
1786.077273212467
 30
0.0
 11
1234.093915474805
 21
1786.077273212467
 31
0.0
  0
LINE
  5
782
330
1F
100
AcDbEntity
  8
0
100
AcDbLine
 10
1481.093915474805
 20
1710.077273212467
 30
0.0
 11
1481.093915474805
 21
1731.077273212467
 31
0.0
  0
LINE
  5
78C
330
1F
100
AcDbEntity
  8
0
100
AcDbLine
 10
1236.976343335372
 20
1731.077273212467
 30
0.0
 11
1253.499993245487
 21
1731.077273212467
 31
0.0
  0
LINE
  5
78D
330
1F
100
AcDbEntity
  8
0
100
AcDbLine
 10
1143.371660815556
 20
1706.077273212467
 30
0.0
 11
1221.15410052374
 21
1706.077273212467
 31
0.0
  0
LINE
  5
78E
330
1F
100
AcDbEntity
  8
0
100
AcDbLine
 10
1139.093915474805
 20
1699.077273212467
 30
0.0
 11
1139.386882023189
 21
1702.425896183458
 31
0.0
  0
ARC
  5
78F
330
1F
100
AcDbEntity
  8
0
100
AcDbCircle
 10
1143.371660815556
 20
1702.077273212467
 30
0.0
 40
4.0
100
AcDbArc
 50
90.0
 51
175.0
  0
LINE
  5
795
330
1F
100
AcDbEntity
  8
0
100
AcDbLine
 10
1234.093915474805
 20
1786.077273212467
 30
0.0
 11
1236.976343335372
 21
1731.077273212467
 31
0.0
  0
LINE
  5
796
102
{ACAD_REACTORS
330
16D7
330
172B
330
1788
102
}
330
1F
100
AcDbEntity
  8
0
100
AcDbLine
 10
1229.093915474805
 20
1786.077273212467
 30
0.0
 11
1227.152044473594
 21
1711.92021152262
 31
0.0
  0
ARC
  5
797
330
1F
100
AcDbEntity
  8
0
100
AcDbCircle
 10
1194.093915474805
 20
1688.077273212467
 30
0.0
 40
10.0
100
AcDbArc
 50
180.0
 51
0.0
  0
LINE
  5
798
330
1F
100
AcDbEntity
  8
0
100
AcDbLine
 10
1139.093915474805
 20
1699.077273212467
 30
0.0
 11
1179.37856401702
 21
1696.966044243171
 31
0.0
  0
LINE
  5
799
330
1F
100
AcDbEntity
  8
0
100
AcDbLine
 10
1183.108451204097
 20
1693.666118814821
 30
0.0
 11
1184.093915474805
 21
1688.07727321247
 31
0.0
  0
ARC
  5
79A
330
1F
100
AcDbEntity
  8
0
100
AcDbCircle
 10
1179.169220192048
 20
1692.971526104154
 30
0.0
 40
4.0
100
AcDbArc
 50
9.999999999998609
 51
87.00000000000109
  0
LINE
  5
79B
330
1F
100
AcDbEntity
  8
0
100
AcDbLine
 10
1208.954644815213
 20
1695.416027528643
 30
0.0
 11
1236.478501553661
 21
1693.973563319676
 31
0.0
  0
LINE
  5
79C
330
1F
100
AcDbEntity
  8
0
100
AcDbLine
 10
1204.806069978193
 20
1692.116102100292
 30
0.0
 11
1204.093915474805
 21
1688.07727321247
 31
0.0
  0
ARC
  5
79D
330
1F
100
AcDbEntity
  8
0
100
AcDbCircle
 10
1208.745300990242
 20
1691.421509389624
 30
0.0
 40
4.0
100
AcDbArc
 50
87.00000000000109
 51
170.0000000000014
  0
LINE
  5
79E
330
1F
100
AcDbEntity
  8
0
100
AcDbLine
 10
1522.560824193643
 20
1696.771865923135
 30
0.0
 11
1524.093915474805
 21
1688.07727321247
 31
0.0
  0
LINE
  5
79F
330
1F
100
AcDbEntity
  8
0
100
AcDbLine
 10
1545.627006755967
 20
1696.771865923135
 30
0.0
 11
1544.093915474805
 21
1688.07727321247
 31
0.0
  0
ARC
  5
7A0
330
1F
100
AcDbEntity
  8
0
100
AcDbCircle
 10
1534.093915474805
 20
1688.077273212467
 30
0.0
 40
10.0
100
AcDbArc
 50
180.0
 51
0.0
  0
LINE
  5
7A1
330
1F
100
AcDbEntity
  8
0
100
AcDbLine
 10
1499.093915474805
 20
1786.077273212467
 30
0.0
 11
1501.035786476016
 21
1711.92021152262
 31
0.0
  0
LINE
  5
7A2
330
1F
100
AcDbEntity
  8
0
100
AcDbLine
 10
1494.093915474805
 20
1786.077273212467
 30
0.0
 11
1491.211487614238
 21
1731.077273212467
 31
0.0
  0
LINE
  5
7A4
330
1F
100
AcDbEntity
  8
0
100
AcDbLine
 10
1579.644957278782
 20
1706.077273212467
 30
0.0
 11
1507.03373042587
 21
1706.077273212467
 31
0.0
  0
LINE
  5
7A5
102
{ACAD_REACTORS
330
1788
330
17BB
102
}
330
1F
100
AcDbEntity
  8
0
100
AcDbLine
 10
1499.093915474805
 20
1786.077273212467
 30
0.0
 11
1494.093915474805
 21
1786.077273212467
 31
0.0
  0
ARC
  5
7A6
330
1F
100
AcDbEntity
  8
0
100
AcDbCircle
 10
1221.15410052374
 20
1712.077273212467
 30
0.0
 40
6.0
100
AcDbArc
 50
270.0
 51
358.4999999999973
  0
ARC
  5
7A7
330
1F
100
AcDbEntity
  8
0
100
AcDbCircle
 10
1507.03373042587
 20
1712.077273212467
 30
0.0
 40
6.0
100
AcDbArc
 50
181.5000000000026
 51
270.0
  0
LINE
  5
7A8
330
1F
100
AcDbEntity
  8
0
100
AcDbLine
 10
1579.644957278782
 20
1700.077273212467
 30
0.0
 11
1491.093915474805
 21
1700.077273212467
 31
0.0
  0
ARC
  5
7A9
330
1F
100
AcDbEntity
  8
0
100
AcDbCircle
 10
1491.093915474805
 20
1710.077273212467
 30
0.0
 40
10.0
100
AcDbArc
 50
180.0
 51
270.0
  0
LINE
  5
7B2
330
1F
100
AcDbEntity
  8
0
  6
ACAD_ISO04W100
 48
0.05
100
AcDbLine
 10
1583.093915474805
 20
1527.077273212467
 30
0.0
 11
1583.093915474805
 21
1698.103276016533
 31
0.0
  0
LINE
  5
7B3
330
1F
100
AcDbEntity
  8
0
100
AcDbLine
 10
1590.065354022035
 20
1694.56797144069
 30
0.0
 11
1589.493034808904
 21
1697.813754989137
 31
0.0
  0
ARC
  5
7B6
330
1F
100
AcDbEntity
  8
0
100
AcDbCircle
 10
1579.644957278782
 20
1696.077273212467
 30
0.0
 40
10.0
100
AcDbArc
 50
9.999999999998609
 51
90.0
  0
ARC
  5
7B7
330
1F
100
AcDbEntity
  8
0
100
AcDbCircle
 10
1579.644957278782
 20
1696.077273212467
 30
0.0
 40
4.0
100
AcDbArc
 50
9.999999999998609
 51
90.0
  0
ARC
  5
7C1
102
{ACAD_REACTORS
330
17E5
102
}
330
1F
100
AcDbEntity
  8
0
100
AcDbCircle
 10
1364.093915474805
 20
1067.077273212467
 30
0.0
 40
225.0
100
AcDbArc
 50
0.0
 51
180.0
  0
LINE
  5
7C9
330
1F
100
AcDbEntity
  8
0
100
AcDbLine
 10
1234.093915474805
 20
1786.077273212467
 30
0.0
 11
1494.093915474805
 21
1786.077273212467
 31
0.0
  0
LINE
  5
826
330
1F
100
AcDbEntity
  8
0
  6
ACAD_ISO04W100
 48
0.05
100
AcDbLine
 10
1589.093915474805
 20
1501.077273212467
 30
0.0
 11
1589.093915474805
 21
1683.262154074061
 31
0.0
  0
LINE
  5
852
330
1F
100
AcDbEntity
  8
0
100
AcDbLine
 10
1247.093915474805
 20
1731.077273212467
 30
0.0
 11
1260.715824952005
 21
1601.473461883962
 31
0.0
  0
LINE
  5
853
330
1F
100
AcDbEntity
  8
0
100
AcDbLine
 10
1245.900360944914
 20
1685.032552604807
 30
0.0
 11
1254.797105344037
 21
1600.385683935489
 31
0.0
  0
ARC
  5
854
330
1F
100
AcDbEntity
  8
0
100
AcDbCircle
 10
1235.955141991232
 20
1683.98726797213
 30
0.0
 40
10.0
100
AcDbArc
 50
6.000000000001699
 51
87.00000000000109
  0
LINE
  5
86A
330
1F
100
AcDbEntity
  8
0
100
AcDbLine
 10
1515.093915474805
 20
1700.077273212467
 30
0.0
 11
1515.093915474805
 21
1706.077273212467
 31
0.0
  0
LINE
  5
86F
330
1F
100
AcDbEntity
  8
0
100
AcDbLine
 10
1476.460016093165
 20
1641.029655059811
 30
0.0
 11
1459.093915474805
 21
1641.029655059812
 31
0.0
  0
LINE
  5
878
330
1F
100
AcDbEntity
  8
7A
  6
ACAD_ISO04W100
 48
0.05
100
AcDbLine
 10
1529.093915474805
 20
1501.077273212467
 30
0.0
 11
1529.093915474805
 21
1567.077273212467
 31
0.0
  0
ARC
  5
899
330
1F
100
AcDbEntity
  8
0
100
AcDbCircle
 10
1518.621593181595
 20
1696.077273212467
 30
0.0
 40
4.0
100
AcDbArc
 50
10.00000000000502
 51
90.0
  0
ARC
  5
89A
330
1F
100
AcDbEntity
  8
0
100
AcDbCircle
 10
1549.566237768015
 20
1696.077273212467
 30
0.0
 40
4.0
100
AcDbArc
 50
90.0
 51
170.0000000000014
  0
LINE
  5
89F
330
1F
100
AcDbEntity
  8
0
  6
ACAD_ISO04W100
 48
0.05
100
AcDbLine
 10
1476.460016093165
 20
1617.124891365124
 30
0.0
 11
1476.460016093165
 21
1527.077273212467
 31
0.0
  0
LINE
  5
8A0
330
1F
100
AcDbEntity
  8
0
  6
ACAD_ISO04W100
 48
0.05
100
AcDbLine
 10
1470.460016093165
 20
1565.142573348737
 30
0.0
 11
1470.460016093165
 21
1501.077273212467
 31
0.0
  0
ARC
  5
8A1
330
1F
100
AcDbEntity
  8
0
  6
ACAD_ISO04W100
 48
0.05
100
AcDbCircle
 10
1464.460016093165
 20
1565.142573348737
 30
0.0
 40
6.0
100
AcDbArc
 50
0.0
 51
147.502256971209
  0
LINE
  5
8A2
102
{ACAD_REACTORS
330
17BB
102
}
330
1F
100
AcDbEntity
  8
0
  6
ACAD_ISO04W100
 48
0.05
100
AcDbLine
 10
1470.460016093165
 20
1501.077273212467
 30
0.0
 11
1589.093915474805
 21
1501.077273212467
 31
0.0
  0
LINE
  5
8A3
330
1F
100
AcDbEntity
  8
0
  6
ACAD_ISO04W100
 48
0.05
100
AcDbLine
 10
1479.460016093165
 20
1521.077273212467
 30
0.0
 11
1580.093915474805
 21
1521.077273212467
 31
0.0
  0
LINE
  5
8A4
330
1F
100
AcDbEntity
  8
0
  6
ACAD_ISO04W100
 48
0.05
100
AcDbLine
 10
1476.460016093165
 20
1527.077273212467
 30
0.0
 11
1583.093915474805
 21
1527.077273212467
 31
0.0
  0
LINE
  5
8A5
330
1F
100
AcDbEntity
  8
0
  6
ACAD_ISO04W100
 48
0.05
100
AcDbLine
 10
1580.093915474805
 20
1501.077273212467
 30
0.0
 11
1580.093915474805
 21
1521.077273212467
 31
0.0
  0
LINE
  5
8A6
330
1F
100
AcDbEntity
  8
0
  6
ACAD_ISO04W100
 48
0.05
100
AcDbLine
 10
1479.460016093165
 20
1521.077273212467
 30
0.0
 11
1479.460016093165
 21
1501.077273212467
 31
0.0
  0
LINE
  5
8A7
330
1F
100
AcDbEntity
  8
0
  6
ACAD_ISO04W100
 48
0.05
100
AcDbLine
 10
1476.460016093165
 20
1527.077273212467
 30
0.0
 11
1479.460016093165
 21
1521.077273212467
 31
0.0
  0
LINE
  5
8A8
330
1F
100
AcDbEntity
  8
0
  6
ACAD_ISO04W100
 48
0.05
100
AcDbLine
 10
1583.093915474805
 20
1527.077273212467
 30
0.0
 11
1580.093915474805
 21
1521.077273212467
 31
0.0
  0
LINE
  5
8CE
330
1F
100
AcDbEntity
  8
0
100
AcDbLine
 10
1481.093915474805
 20
1715.077273212467
 30
0.0
 11
1500.953115906217
 21
1715.077273212467
 31
0.0
  0
LINE
  5
8F8
330
1F
100
AcDbEntity
  8
0
100
AcDbLine
 10
1589.093915474805
 20
1127.301628244042
 30
0.0
 11
1578.886839008147
 21
1134.077273212467
 31
0.0
  0
ARC
  5
91C
102
{ACAD_REACTORS
330
172B
330
1755
102
}
330
1F
100
AcDbEntity
  8
0
100
AcDbCircle
 10
1364.093915474805
 20
1629.077273212467
 30
0.0
 40
113.0
100
AcDbArc
 50
194.7088809447578
 51
327.5022569712048
  0
ARC
  5
91D
330
1F
100
AcDbEntity
  8
0
100
AcDbCircle
 10
1364.093915474805
 20
1629.077273212467
 30
0.0
 40
107.0
100
AcDbArc
 50
194.9502092076982
 51
6.071720962949157
  0
ARC
  5
C8C
102
{ACAD_REACTORS
330
17E5
102
}
330
1F
100
AcDbEntity
  8
0
100
AcDbCircle
 10
1364.093915474805
 20
1067.077273212468
 30
0.0
 40
225.0
100
AcDbArc
 50
180.0
 51
0.0
  0
LINE
  5
CC8
330
1F
100
AcDbEntity
  8
0
100
AcDbLine
 10
1589.093915474805
 20
1006.852918180893
 30
0.0
 11
1578.886839008147
 21
1000.077273212467
 31
0.0
  0
CIRCLE
  5
CE1
330
1F
100
AcDbEntity
  8
0
100
AcDbCircle
 10
1364.093915474805
 20
1067.077273212467
 30
0.0
 40
135.0
  0
CIRCLE
  5
D34
330
1F
100
AcDbEntity
  8
0
100
AcDbCircle
 10
1364.093915474805
 20
1067.077273212467
 30
0.0
 40
130.0
  0
LINE
  5
D4F
330
1F
100
AcDbEntity
  8
AM_7
100
AcDbLine
 10
1364.093915474805
 20
1789.077273212467
 30
0.0
 11
1364.093915474805
 21
1728.077273212467
 31
0.0
1001
GENIUS_GENOBJ-N-CEN_13
1002
{
1000
OWNER
1000
GEN
1002
}
1001
GENIUS_GENODEF_13
1002
{
1000
HIER
1070
     0
1002
}
1002
{
1000
MANEDIT
1070
     0
1002
}
1002
{
1000
NOSEL
1070
     0
1002
}
1002
{
1000
BEHIND
1070
     0
1002
}
1002
{
1000
OTHER
1070
     0
1002
}
1002
{
1000
REACTOR
1002
}
1001
GENIUS_GENCEN_19
1002
{
1040
3.0
1002
}
  0
LINE
  5
10F3
102
{ACAD_REACTORS
330
172B
330
1755
102
}
330
1F
100
AcDbEntity
  8
7A
  6
CENTER
100
AcDbLine
 10
1364.093915474805
 20
1787.077273212467
 30
0.0
 11
1364.093915474805
 21
1509.575222104314
 31
0.0
  0
LINE
  5
10F4
330
1F
100
AcDbEntity
  8
0
100
AcDbLine
 10
1240.843915474805
 20
1786.077273212467
 30
0.0
 11
1487.343915474806
 21
1786.077273212467
 31
0.0
  0
LINE
  5
10F5
330
1F
100
AcDbEntity
  8
0
100
AcDbLine
 10
1253.093915474805
 20
1732.077273212467
 30
0.0
 11
1239.093915474805
 21
1732.077273212467
 31
0.0
  0
LINE
  5
10F6
330
1F
100
AcDbEntity
  8
0
100
AcDbLine
 10
1239.093915474805
 20
1732.077273212467
 30
0.0
 11
1239.093915474805
 21
1737.077273212467
 31
0.0
  0
LINE
  5
10F7
330
1F
100
AcDbEntity
  8
0
100
AcDbLine
 10
1239.093915474805
 20
1737.077273212467
 30
0.0
 11
1243.874416290606
 21
1739.837296645331
 31
0.0
  0
LINE
  5
10F8
330
1F
100
AcDbEntity
  8
0
100
AcDbLine
 10
1236.146685037635
 20
1785.070369971154
 30
0.0
 11
1236.408362150503
 21
1780.077273212467
 31
0.0
  0
LINE
  5
10F9
330
1F
100
AcDbEntity
  8
0
100
AcDbLine
 10
1236.408362150503
 20
1780.077273212467
 30
0.0
 11
1242.593915474805
 21
1776.506042335595
 31
0.0
  0
LINE
  5
10FB
330
1F
100
AcDbEntity
  8
0
100
AcDbLine
 10
1257.093915474805
 20
1755.077273212467
 30
0.0
 11
1296.593915474805
 21
1581.077273212467
 31
0.0
  0
LINE
  5
10FC
330
1F
100
AcDbEntity
  8
0
100
AcDbLine
 10
1261.215470888443
 20
1712.077273212467
 30
0.0
 11
1290.953976635569
 21
1581.077273212467
 31
0.0
  0
LINE
  5
10FD
330
1F
100
AcDbEntity
  8
0
100
AcDbLine
 10
1253.093915474805
 20
1732.077273212467
 30
0.0
 11
1261.215470888443
 21
1712.077273212467
 31
0.0
  0
LINE
  5
10FE
330
1F
100
AcDbEntity
  8
0
100
AcDbLine
 10
1242.593915474805
 20
1776.506042335595
 30
0.0
 11
1243.874416290606
 21
1739.837296645331
 31
0.0
  0
LINE
  5
10FF
330
1F
100
AcDbEntity
  8
0
100
AcDbLine
 10
1260.093915474805
 20
1782.577273212467
 30
0.0
 11
1257.093915474805
 21
1755.077273212467
 31
0.0
  0
LINE
  5
1100
330
1F
100
AcDbEntity
  8
0
100
AcDbLine
 10
1491.779468799107
 20
1780.077273212467
 30
0.0
 11
1485.593915474805
 21
1776.506042335595
 31
0.0
  0
LINE
  5
1101
330
1F
100
AcDbEntity
  8
0
100
AcDbLine
 10
1492.041507695522
 20
1785.077273212468
 30
0.0
 11
1491.779468799107
 21
1780.077273212467
 31
0.0
  0
LINE
  5
1102
330
1F
100
AcDbEntity
  8
0
100
AcDbLine
 10
1485.593915474805
 20
1776.506042335595
 30
0.0
 11
1484.313414659004
 21
1739.837296645331
 31
0.0
  0
LINE
  5
1103
330
1F
100
AcDbEntity
  8
0
100
AcDbLine
 10
1468.093915474805
 20
1782.577273212467
 30
0.0
 11
1471.093915474805
 21
1755.077273212467
 31
0.0
  0
LINE
  5
1104
330
1F
100
AcDbEntity
  8
0
100
AcDbLine
 10
1471.093915474805
 20
1755.077273212467
 30
0.0
 11
1431.593915474805
 21
1581.077273212467
 31
0.0
  0
LINE
  5
1105
330
1F
100
AcDbEntity
  8
0
100
AcDbLine
 10
1489.093915474805
 20
1737.077273212467
 30
0.0
 11
1484.313414659004
 21
1739.837296645331
 31
0.0
  0
LINE
  5
1106
330
1F
100
AcDbEntity
  8
0
100
AcDbLine
 10
1489.093915474805
 20
1732.077273212467
 30
0.0
 11
1489.093915474805
 21
1737.077273212467
 31
0.0
  0
LINE
  5
1107
330
1F
100
AcDbEntity
  8
0
100
AcDbLine
 10
1475.093915474805
 20
1732.077273212467
 30
0.0
 11
1489.093915474805
 21
1732.077273212467
 31
0.0
  0
LINE
  5
1108
330
1F
100
AcDbEntity
  8
0
100
AcDbLine
 10
1475.093915474805
 20
1732.077273212467
 30
0.0
 11
1466.972360061167
 21
1712.077273212467
 31
0.0
  0
LINE
  5
1109
330
1F
100
AcDbEntity
  8
0
100
AcDbLine
 10
1466.972360061167
 20
1712.077273212467
 30
0.0
 11
1441.093915474805
 21
1598.081086933303
 31
0.0
  0
LINE
  5
110A
330
1F
100
AcDbEntity
  8
0
100
AcDbLine
 10
1260.093915474805
 20
1782.577273212467
 30
0.0
 11
1272.506547854842
 21
1782.577273212467
 31
0.0
  0
ARC
  5
110B
330
1F
100
AcDbEntity
  8
0
100
AcDbCircle
 10
1364.093915474805
 20
2580.077273212467
 30
0.0
 40
805.0
100
AcDbArc
 50
270.6272709975822
 51
271.652792787894
  0
LINE
  5
110C
330
1F
100
AcDbEntity
  8
0
100
AcDbLine
 10
1417.242079373352
 20
1755.077273212467
 30
0.0
 11
1438.945751576258
 21
1755.077273212467
 31
0.0
  0
HATCH
  5
110E
330
1F
100
AcDbEntity
  8
8
100
AcDbHatch
 10
0.0
 20
0.0
 30
0.0
210
0.0
220
0.0
230
1.0
  2
ANSI31
 70
     0
 71
     0
 91
        1
 92
        7
 72
     0
 73
     1
 93
        5
 10
1290.953976635569
 20
1581.077273212467
 10
1296.593915474805
 20
1581.077273212467
 10
1257.324431561823
 20
1754.061835259529
 10
1253.093915474805
 20
1732.077273212468
 10
1261.215470888443
 20
1712.077273212467
 97
        0
 75
     0
 76
     1
 52
-90.00000000000001
 41
50.0
 77
     0
 78
     1
 53
315.0
 43
1099.593915474805
 44
1879.077273212467
 45
4.419417382415923
 46
4.41941738241592
 79
     0
 47
0.2747765572403896
 98
        1
 10
1270.593915474805
 20
1679.577273212467
  0
HATCH
  5
110F
330
1F
100
AcDbEntity
  8
8
100
AcDbHatch
 10
0.0
 20
0.0
 30
0.0
210
0.0
220
0.0
230
1.0
  2
ANSI31
 70
     0
 71
     0
 91
        2
 92
        7
 72
     1
 73
     1
 93
        7
 10
1243.342224581846
 20
1755.077273212467
 42
0.0
 10
1257.093915474805
 20
1755.077273212467
 42
0.0
 10
1260.093915474805
 20
1781.823554148159
 42
-0.0017640699058748
 10
1254.463855728404
 20
1782.577273212467
 42
0.0
 10
1236.277342702296
 20
1782.577273212467
 42
0.0
 10
1236.408362150503
 20
1780.077273212467
 42
0.0
 10
1242.593915474805
 20
1776.506042335595
 42
0.0
 97
        0
 92
        7
 72
     0
 73
     1
 93
        7
 10
1243.874416290606
 20
1739.837296645331
 10
1239.093915474805
 20
1737.077273212467
 10
1239.093915474805
 20
1732.077273212467
 10
1253.093915474805
 20
1732.077273212467
 10
1257.324431561823
 20
1754.061835259529
 10
1257.093915474805
 20
1755.077273212467
 10
1243.342224581846
 20
1755.077273212467
 97
        0
 75
     0
 76
     1
 52
-90.00000000000001
 41
50.0
 77
     0
 78
     1
 53
315.0
 43
1099.593915474805
 44
1879.077273212467
 45
4.419417382415923
 46
4.41941738241592
 79
     0
 47
0.2747765572403896
 98
        2
 10
1250.593915474805
 20
1768.577273212467
 10
1247.593915474805
 20
1745.577273212467
  0
HATCH
  5
1110
330
1F
100
AcDbEntity
  8
8
100
AcDbHatch
 10
0.0
 20
0.0
 30
0.0
210
0.0
220
0.0
230
1.0
  2
ANSI31
 70
     0
 71
     0
 91
        1
 92
        7
 72
     0
 73
     1
 93
        9
 10
1431.593915474805
 20
1581.077273212467
 10
1437.233854314041
 20
1581.077273212467
 10
1466.972360061167
 20
1712.077273212467
 10
1475.093915474805
 20
1732.077273212467
 10
1489.093915474805
 20
1732.077273212467
 10
1489.093915474805
 20
1737.077273212468
 10
1484.313414659004
 20
1739.837296645331
 10
1484.845606367765
 20
1755.077273212467
 10
1471.093915474805
 20
1755.077273212467
 97
        0
 75
     0
 76
     1
 52
-90.00000000000001
 41
50.0
 77
     0
 78
     1
 53
315.0
 43
1099.593915474805
 44
1879.077273212467
 45
4.419417382415923
 46
4.41941738241592
 79
     0
 47
0.3188583578671901
 98
        1
 10
1444.593915474805
 20
1631.077273212467
  0
HATCH
  5
1111
330
1F
100
AcDbEntity
  8
8
100
AcDbHatch
 10
0.0
 20
0.0
 30
0.0
210
0.0
220
0.0
230
1.0
  2
ANSI31
 70
     0
 71
     0
 91
        1
 92
        7
 72
     1
 73
     1
 93
        7
 10
1471.093915474805
 20
1755.077273212467
 42
0.0
 10
1484.845606367765
 20
1755.077273212467
 42
0.0
 10
1485.593915474805
 20
1776.506042335595
 42
0.0
 10
1490.593915474805
 20
1779.392793681543
 42
0.0
 10
1490.593915474805
 20
1782.577273212467
 42
0.0
 10
1473.723975221208
 20
1782.577273212467
 42
-0.0017640699058754
 10
1468.093915474805
 20
1781.823554148159
 42
0.0
 97
        0
 75
     0
 76
     1
 52
-90.00000000000001
 41
50.0
 77
     0
 78
     1
 53
315.0
 43
1099.593915474805
 44
1879.077273212467
 45
4.419417382415923
 46
4.41941738241592
 79
     0
 47
0.3188583578671901
 98
        1
 10
1477.093915474805
 20
1769.577273212467
  0
HATCH
  5
1112
330
1F
100
AcDbEntity
  8
8
100
AcDbHatch
 10
0.0
 20
0.0
 30
0.0
210
0.0
220
0.0
230
1.0
  2
ANSI31
 70
     0
 71
     0
 91
        1
 92
        7
 72
     1
 73
     1
 93
        4
 10
1473.723975221209
 20
1782.577273212467
 42
0.0
 10
1490.593915474805
 20
1782.577273212467
 42
0.0
 10
1490.593915474805
 20
1785.077273212468
 42
0.0
 10
1490.585021881539
 20
1785.077273212467
 42
-0.0052937438464722
 97
        0
 75
     0
 76
     1
 52
-90.00000000000001
 41
50.0
 77
     0
 78
     1
 53
315.0
 43
1099.593915474805
 44
1879.077273212467
 45
4.419417382415923
 46
4.41941738241592
 79
     0
 47
0.1571234200533715
 98
        1
 10
1488.093915474805
 20
1784.077273212467
  0
HATCH
  5
1113
330
1F
100
AcDbEntity
  8
8
100
AcDbHatch
 10
0.0
 20
0.0
 30
0.0
210
0.0
220
0.0
230
1.0
  2
ANSI31
 70
     0
 71
     0
 91
        1
 92
        7
 72
     0
 73
     1
 93
        4
 10
1490.593915474805
 20
1779.392793681543
 10
1491.779468799107
 20
1780.077273212467
 10
1491.910488247315
 20
1782.577273212467
 10
1490.593915474805
 20
1782.577273212467
 97
        0
 75
     0
 76
     1
 52
-90.00000000000001
 41
50.0
 77
     0
 78
     1
 53
315.0
 43
1099.593915474805
 44
1879.077273212467
 45
4.419417382415923
 46
4.41941738241592
 79
     0
 47
0.039426523297491
 98
        1
 10
1491.093915474805
 20
1781.577273212467
  0
LINE
  5
1114
330
1F
100
AcDbEntity
  8
0
100
AcDbLine
 10
1456.157555856406
 20
1782.577273212467
 30
0.0
 11
1468.093915474805
 21
1782.577273212467
 31
0.0
  0
LINE
  5
1115
330
1F
100
AcDbEntity
  8
0
100
AcDbLine
 10
1360.157555856406
 20
1782.577273212467
 30
0.0
 11
1368.030275093204
 21
1782.577273212467
 31
0.0
  0
LINE
  5
1116
330
1F
100
AcDbEntity
  8
0
100
AcDbLine
 10
1290.953976635569
 20
1581.077273212467
 30
0.0
 11
1437.233854314041
 21
1581.077273212467
 31
0.0
  0
LINE
  5
111A
330
1F
100
AcDbEntity
  8
0
100
AcDbLine
 10
1487.921265743995
 20
1785.077273212468
 30
0.0
 11
1487.343915474805
 21
1786.077273212467
 31
0.0
  0
LINE
  5
114E
330
1F
100
AcDbEntity
  8
0
100
AcDbLine
 10
1240.028448254112
 20
1784.66484255432
 30
0.0
 11
1240.843915474805
 21
1786.077273212467
 31
0.0
  0
LINE
  5
1160
330
1F
100
AcDbEntity
  8
0
100
AcDbLine
 10
1384.41744651527
 20
1748.876307750065
 30
0.0
 11
1387.704874388336
 21
1779.011063253169
 31
0.0
  0
ARC
  5
1161
330
1F
100
AcDbEntity
  8
0
100
AcDbCircle
 10
1391.681283094768
 20
1778.577273212468
 30
0.0
 40
4.0
100
AcDbArc
 50
90.0
 51
173.7741709355867
  0
LINE
  5
1162
330
1F
100
AcDbEntity
  8
0
100
AcDbLine
 10
1375.772490090448
 20
1748.857005902402
 30
0.0
 11
1372.482956561274
 21
1779.011063253169
 31
0.0
  0
ARC
  5
1163
330
1F
100
AcDbEntity
  8
0
100
AcDbCircle
 10
1368.506547854842
 20
1778.577273212468
 30
0.0
 40
4.0
100
AcDbArc
 50
6.225829064413119
 51
90.0
  0
ARC
  5
1164
330
1F
100
AcDbEntity
  8
0
100
AcDbCircle
 10
1379.748898796881
 20
1749.290795943104
 30
0.0
 40
4.0
100
AcDbArc
 50
186.2258290644131
 51
271.5628496691746
  0
ARC
  5
1165
330
1F
100
AcDbEntity
  8
0
100
AcDbCircle
 10
1380.441037808839
 20
1749.310097790767
 30
0.0
 40
4.0
100
AcDbArc
 50
271.6319647633881
 51
353.7741709355869
  0
ARC
  5
1166
330
1F
100
AcDbEntity
  8
0
100
AcDbCircle
 10
1364.093915474805
 20
2323.077273212467
 30
0.0
 40
578.0
100
AcDbArc
 50
274.7431810039891
 51
274.8515888868431
  0
ARC
  5
1167
330
1F
100
AcDbEntity
  8
0
100
AcDbCircle
 10
1400.506547854842
 20
1778.577273212468
 30
0.0
 40
4.0
100
AcDbArc
 50
6.225829064413119
 51
90.0
  0
LINE
  5
1168
330
1F
100
AcDbEntity
  8
0
100
AcDbLine
 10
1407.581338171116
 20
1750.609231829617
 30
0.0
 11
1404.482956561274
 21
1779.011063253169
 31
0.0
  0
ARC
  5
1169
330
1F
100
AcDbEntity
  8
0
100
AcDbCircle
 10
1423.681283094768
 20
1778.577273212468
 30
0.0
 40
4.0
100
AcDbArc
 50
90.0
 51
173.7741709355867
  0
LINE
  5
116A
330
1F
100
AcDbEntity
  8
0
100
AcDbLine
 10
1416.616401394121
 20
1750.700060806195
 30
0.0
 11
1419.704874388336
 21
1779.011063253169
 31
0.0
  0
ARC
  5
116B
330
1F
100
AcDbEntity
  8
0
100
AcDbCircle
 10
1411.557746877548
 20
1751.043021870319
 30
0.0
 40
4.0
100
AcDbArc
 50
186.2258290644131
 51
274.7431810039891
  0
ARC
  5
116C
330
1F
100
AcDbEntity
  8
0
100
AcDbCircle
 10
1412.639992687689
 20
1751.133850846897
 30
0.0
 40
4.0
100
AcDbArc
 50
274.8515888868431
 51
353.7741709355869
  0
LINE
  5
116D
330
1F
100
AcDbEntity
  8
0
100
AcDbLine
 10
1449.017838398733
 20
1754.379900015139
 30
0.0
 11
1451.704874388336
 21
1779.011063253169
 31
0.0
  0
ARC
  5
116E
330
1F
100
AcDbEntity
  8
0
100
AcDbCircle
 10
1455.681283094768
 20
1778.577273212468
 30
0.0
 40
4.0
100
AcDbArc
 50
90.0
 51
173.7741709355867
  0
LINE
  5
116F
330
1F
100
AcDbEntity
  8
0
100
AcDbLine
 10
1439.198654326768
 20
1754.11716706947
 30
0.0
 11
1436.482956561274
 21
1779.011063253169
 31
0.0
  0
ARC
  5
1170
330
1F
100
AcDbEntity
  8
0
100
AcDbCircle
 10
1432.506547854842
 20
1778.577273212468
 30
0.0
 40
4.0
100
AcDbArc
 50
6.225829064413119
 51
90.0
  0
ARC
  5
1171
330
1F
100
AcDbEntity
  8
0
100
AcDbCircle
 10
1445.041429692301
 20
1754.813690055841
 30
0.0
 40
4.0
100
AcDbArc
 50
278.1070786417024
 51
353.7741709355869
  0
ARC
  5
1172
330
1F
100
AcDbEntity
  8
0
100
AcDbCircle
 10
1443.175063033201
 20
1754.550957110172
 30
0.0
 40
4.0
100
AcDbArc
 50
186.2258290644131
 51
277.9189439009125
  0
ARC
  5
1173
330
1F
100
AcDbEntity
  8
0
100
AcDbCircle
 10
1364.093915474805
 20
2323.077273212467
 30
0.0
 40
578.0
100
AcDbArc
 50
277.9189439009125
 51
278.1070786417024
  0
ARC
  5
1174
330
1F
100
AcDbEntity
  8
0
100
AcDbCircle
 10
1364.093915474805
 20
2580.077273212467
 30
0.0
 40
805.0
100
AcDbArc
 50
272.898469204635
 51
273.9454906382388
  0
ARC
  5
1175
330
1F
100
AcDbEntity
  8
0
100
AcDbCircle
 10
1364.093915474805
 20
2580.077273212467
 30
0.0
 40
805.0
100
AcDbArc
 50
275.1644417928349
 51
276.2620090591503
  0
ARC
  5
1176
330
1F
100
AcDbEntity
  8
0
100
AcDbCircle
 10
1364.093915474805
 20
2580.077273212467
 30
0.0
 40
805.0
100
AcDbArc
 50
263.745221134171
 51
264.8355582071651
  0
ARC
  5
1177
330
1F
100
AcDbEntity
  8
0
100
AcDbCircle
 10
1364.093915474805
 20
2323.077273212467
 30
0.0
 40
578.0
100
AcDbArc
 50
261.8929213582975
 51
262.0810560990875
  0
ARC
  5
1178
330
1F
100
AcDbEntity
  8
0
100
AcDbCircle
 10
1285.01276791641
 20
1754.550957110172
 30
0.0
 40
4.0
100
AcDbArc
 50
262.0810560990875
 51
353.7741709355869
  0
ARC
  5
1179
330
1F
100
AcDbEntity
  8
0
100
AcDbCircle
 10
1283.146401257309
 20
1754.813690055841
 30
0.0
 40
4.0
100
AcDbArc
 50
186.2258290644131
 51
261.8929213582975
  0
ARC
  5
117A
330
1F
100
AcDbEntity
  8
0
100
AcDbCircle
 10
1295.681283094768
 20
1778.577273212468
 30
0.0
 40
4.0
100
AcDbArc
 50
90.0
 51
173.7741709355867
  0
LINE
  5
117B
330
1F
100
AcDbEntity
  8
0
100
AcDbLine
 10
1288.989176622842
 20
1754.11716706947
 30
0.0
 11
1291.704874388336
 21
1779.011063253169
 31
0.0
  0
ARC
  5
117C
330
1F
100
AcDbEntity
  8
0
100
AcDbCircle
 10
1272.506547854842
 20
1778.577273212468
 30
0.0
 40
4.0
100
AcDbArc
 50
6.225829064413119
 51
90.0
  0
LINE
  5
117D
330
1F
100
AcDbEntity
  8
0
100
AcDbLine
 10
1279.169992550877
 20
1754.379900015139
 30
0.0
 11
1276.482956561274
 21
1779.011063253169
 31
0.0
  0
ARC
  5
117E
330
1F
100
AcDbEntity
  8
0
100
AcDbCircle
 10
1364.093915474805
 20
2580.077273212467
 30
0.0
 40
805.0
100
AcDbArc
 50
266.0545093617612
 51
267.101530795365
  0
ARC
  5
117F
330
1F
100
AcDbEntity
  8
0
100
AcDbCircle
 10
1315.547838261921
 20
1751.133850846897
 30
0.0
 40
4.0
100
AcDbArc
 50
186.2258290644131
 51
265.1484111131569
  0
ARC
  5
1180
330
1F
100
AcDbEntity
  8
0
100
AcDbCircle
 10
1316.630084072062
 20
1751.043021870319
 30
0.0
 40
4.0
100
AcDbArc
 50
265.2568189960109
 51
353.7741709355869
  0
LINE
  5
1181
330
1F
100
AcDbEntity
  8
0
100
AcDbLine
 10
1311.571429555489
 20
1750.700060806195
 30
0.0
 11
1308.482956561274
 21
1779.011063253169
 31
0.0
  0
ARC
  5
1182
330
1F
100
AcDbEntity
  8
0
100
AcDbCircle
 10
1304.506547854842
 20
1778.577273212468
 30
0.0
 40
4.0
100
AcDbArc
 50
6.225829064413119
 51
90.0
  0
LINE
  5
1183
330
1F
100
AcDbEntity
  8
0
100
AcDbLine
 10
1320.606492778495
 20
1750.609231829617
 30
0.0
 11
1323.704874388336
 21
1779.011063253169
 31
0.0
  0
ARC
  5
1184
330
1F
100
AcDbEntity
  8
0
100
AcDbCircle
 10
1327.681283094768
 20
1778.577273212468
 30
0.0
 40
4.0
100
AcDbArc
 50
90.0
 51
173.7741709355867
  0
ARC
  5
1185
330
1F
100
AcDbEntity
  8
0
100
AcDbCircle
 10
1364.093915474805
 20
2323.077273212467
 30
0.0
 40
578.0
100
AcDbArc
 50
265.1484111131569
 51
265.2568189960109
  0
ARC
  5
1186
330
1F
100
AcDbEntity
  8
0
100
AcDbCircle
 10
1347.746793140772
 20
1749.310097790767
 30
0.0
 40
4.0
100
AcDbArc
 50
186.2258290644131
 51
268.3680352366119
  0
ARC
  5
1187
330
1F
100
AcDbEntity
  8
0
100
AcDbCircle
 10
1348.43893215273
 20
1749.290795943104
 30
0.0
 40
4.0
100
AcDbArc
 50
268.4371503308254
 51
353.7741709355869
  0
ARC
  5
1188
330
1F
100
AcDbEntity
  8
0
100
AcDbCircle
 10
1359.681283094768
 20
1778.577273212468
 30
0.0
 40
4.0
100
AcDbArc
 50
90.0
 51
173.7741709355867
  0
LINE
  5
1189
330
1F
100
AcDbEntity
  8
0
100
AcDbLine
 10
1352.415340859162
 20
1748.857005902402
 30
0.0
 11
1355.704874388336
 21
1779.011063253169
 31
0.0
  0
ARC
  5
118A
330
1F
100
AcDbEntity
  8
0
100
AcDbCircle
 10
1336.506547854842
 20
1778.577273212468
 30
0.0
 40
4.0
100
AcDbArc
 50
6.225829064413119
 51
90.0
  0
LINE
  5
118B
330
1F
100
AcDbEntity
  8
0
100
AcDbLine
 10
1343.77038443434
 20
1748.876307750065
 30
0.0
 11
1340.482956561274
 21
1779.011063253169
 31
0.0
  0
ARC
  5
118C
330
1F
100
AcDbEntity
  8
0
100
AcDbCircle
 10
1364.093915474805
 20
2580.077273212467
 30
0.0
 40
805.0
100
AcDbArc
 50
268.3472072121059
 51
269.3727290024177
  0
LINE
  5
1190
330
1F
100
AcDbEntity
  8
0
100
AcDbLine
 10
1385.093915474805
 20
1755.077273212467
 30
0.0
 11
1407.093915474805
 21
1755.077273212467
 31
0.0
  0
LINE
  5
1191
330
1F
100
AcDbEntity
  8
0
100
AcDbLine
 10
1374.945751576258
 20
1755.077273212467
 30
0.0
 11
1353.093915474805
 21
1755.077273212467
 31
0.0
  0
LINE
  5
1193
330
1F
100
AcDbEntity
  8
0
100
AcDbLine
 10
1343.093915474805
 20
1755.077273212467
 30
0.0
 11
1321.093915474805
 21
1755.077273212467
 31
0.0
  0
LINE
  5
1195
330
1F
100
AcDbEntity
  8
0
100
AcDbLine
 10
1311.093915474805
 20
1755.077273212467
 30
0.0
 11
1289.093915474805
 21
1755.077273212467
 31
0.0
  0
LINE
  5
1197
330
1F
100
AcDbEntity
  8
0
100
AcDbLine
 10
1279.093915474805
 20
1755.077273212467
 30
0.0
 11
1257.093915474805
 21
1755.077273212467
 31
0.0
  0
HATCH
  5
1198
330
1F
100
AcDbEntity
  8
8
100
AcDbHatch
 10
0.0
 20
0.0
 30
0.0
210
0.0
220
0.0
230
1.0
  2
ANSI31
 70
     0
 71
     0
 91
        2
 92
        7
 72
     1
 73
     1
 93
        5
 10
1439.093915474805
 20
1755.077273212467
 42
0.0
 10
1449.093915474805
 20
1755.077273212467
 42
0.0
 10
1451.704874388336
 20
1779.011063253169
 42
-0.0558461139287495
 10
1451.899471039483
 20
1779.880307202236
 42
-0.0047890772522013
 10
1436.555595354211
 20
1778.345207651251
 42
0.0
 97
        0
 92
        7
 72
     1
 73
     1
 93
        6
 10
1439.093915474805
 20
1755.077273212467
 42
0.0
 10
1439.198654326768
 20
1754.11716706947
 42
0.4228954072939403
 10
1443.726151169496
 20
1750.589101248831
 42
0.0008208928504018
 10
1445.605523868033
 20
1750.853665086108
 42
0.342703619984325
 10
1449.017838398733
 20
1754.379900015139
 42
0.0
 10
1449.093915474804
 20
1755.077273212467
 42
0.0
 97
        0
 75
     0
 76
     1
 52
-90.00000000000001
 41
50.0
 77
     0
 78
     1
 53
315.0
 43
1099.593915474805
 44
1879.077273212467
 45
4.419417382415923
 46
4.41941738241592
 79
     0
 47
0.0942704649851579
 98
        2
 10
1438.593915474805
 20
1774.077273212467
 10
1442.093915474805
 20
1753.077273212467
  0
HATCH
  5
1199
330
1F
100
AcDbEntity
  8
8
100
AcDbHatch
 10
0.0
 20
0.0
 30
0.0
210
0.0
220
0.0
230
1.0
  2
ANSI31
 70
     0
 71
     0
 91
        2
 92
        7
 72
     1
 73
     1
 93
        4
 10
1419.483866008456
 20
1776.985153104269
 42
-0.0045685246222706
 10
1404.799752243
 20
1776.107102837346
 42
0.0
 10
1407.093915474805
 20
1755.077273212467
 42
0.0
 10
1417.093915474805
 20
1755.077273212467
 42
0.0
 97
        0
 92
        7
 72
     1
 73
     1
 93
        6
 10
1412.978292877325
 20
1747.148182398357
 42
0.3586553884291714
 10
1416.616401394121
 20
1750.700060806195
 42
0.0
 10
1417.093915474804
 20
1755.077273212467
 42
0.0
 10
1407.093915474805
 20
1755.077273212467
 42
0.0
 10
1407.581338171116
 20
1750.609231829617
 42
0.406654488399092
 10
1411.888505284536
 20
1747.056720467238
 42
0.0004730186579972
 97
        0
 75
     0
 76
     1
 52
-90.00000000000001
 41
50.0
 77
     0
 78
     1
 53
315.0
 43
1099.593915474805
 44
1879.077273212467
 45
4.419417382415923
 46
4.41941738241592
 79
     0
 47
0.2412240834222073
 98
        2
 10
1414.593915474805
 20
1766.577273212467
 10
1412.593915474805
 20
1751.077273212467
  0
HATCH
  5
119A
330
1F
100
AcDbEntity
  8
8
100
AcDbHatch
 10
0.0
 20
0.0
 30
0.0
210
0.0
220
0.0
230
1.0
  2
ANSI31
 70
     0
 71
     0
 91
        2
 92
        7
 72
     1
 73
     1
 93
        4
 10
1387.31226922626
 20
1775.412182600806
 42
-0.0044747128134258
 10
1372.90683451246
 20
1775.125515367293
 42
0.0
 10
1375.093915474805
 20
1755.077273212467
 42
0.0
 10
1385.093915474805
 20
1755.077273212467
 42
0.0
 97
        0
 92
        7
 72
     1
 73
     1
 93
        6
 10
1375.093915474805
 20
1755.077273212467
 42
0.0
 10
1375.772490090448
 20
1748.857005902402
 42
0.3905726148560476
 10
1379.857992757313
 20
1745.292283906383
 42
0.0003015714983731
 10
1380.554955037647
 20
1745.311720261696
 42
0.3745920735169596
 10
1384.41744651527
 20
1748.876307750065
 42
0.0
 10
1385.093915474805
 20
1755.077273212467
 42
0.0
 97
        0
 75
     0
 76
     1
 52
-90.00000000000001
 41
50.0
 77
     0
 78
     1
 53
315.0
 43
1099.593915474805
 44
1879.077273212467
 45
4.419417382415923
 46
4.41941738241592
 79
     0
 47
0.2412240834222073
 98
        2
 10
1381.093915474805
 20
1763.077273212467
 10
1380.593915474805
 20
1754.077273212467
  0
HATCH
  5
119B
330
1F
100
AcDbEntity
  8
8
100
AcDbHatch
 10
0.0
 20
0.0
 30
0.0
210
0.0
220
0.0
230
1.0
  2
ANSI31
 70
     0
 71
     0
 91
        2
 92
        7
 72
     1
 73
     1
 93
        4
 10
1355.28099643715
 20
1775.125515367293
 42
-0.0044747128134258
 10
1340.87556172335
 20
1775.412182600806
 42
0.0
 10
1343.093915474805
 20
1755.077273212467
 42
0.0
 10
1353.093915474805
 20
1755.077273212467
 42
0.0
 97
        0
 92
        7
 72
     1
 73
     1
 93
        6
 10
1343.093915474805
 20
1755.077273212467
 42
0.0
 10
1343.77038443434
 20
1748.876307750065
 42
0.3745920735169674
 10
1347.632875911963
 20
1745.311720261696
 42
0.000301571498373
 10
1348.329838192297
 20
1745.292283906383
 42
0.3905726148560626
 10
1352.415340859162
 20
1748.857005902402
 42
0.0
 10
1353.093915474805
 20
1755.077273212467
 42
0.0
 97
        0
 75
     0
 76
     1
 52
-90.00000000000001
 41
50.0
 77
     0
 78
     1
 53
315.0
 43
1099.593915474805
 44
1879.077273212467
 45
4.419417382415923
 46
4.41941738241592
 79
     0
 47
0.2412240834222077
 98
        2
 10
1349.093915474805
 20
1766.077273212467
 10
1347.593915474805
 20
1752.577273212467
  0
HATCH
  5
119C
330
1F
100
AcDbEntity
  8
8
100
AcDbHatch
 10
0.0
 20
0.0
 30
0.0
210
0.0
220
0.0
230
1.0
  2
ANSI31
 70
     0
 71
     0
 91
        2
 92
        7
 72
     1
 73
     1
 93
        4
 10
1323.38807870661
 20
1776.107102837346
 42
-0.0045685246222706
 10
1308.703964941154
 20
1776.985153104269
 42
0.0
 10
1311.093915474805
 20
1755.077273212467
 42
0.0
 10
1321.093915474805
 20
1755.077273212467
 42
0.0
 97
        0
 92
        7
 72
     1
 73
     1
 93
        6
 10
1311.093915474805
 20
1755.077273212467
 42
0.0
 10
1311.571429555489
 20
1750.700060806195
 42
0.3586553884291703
 10
1315.209538072285
 20
1747.148182398357
 42
0.000473018657997
 10
1316.299325665074
 20
1747.056720467238
 42
0.4066544883991228
 10
1320.606492778495
 20
1750.609231829617
 42
0.0
 10
1321.093915474805
 20
1755.077273212467
 42
0.0
 97
        0
 75
     0
 76
     1
 52
-90.00000000000001
 41
50.0
 77
     0
 78
     1
 53
315.0
 43
1099.593915474805
 44
1879.077273212467
 45
4.419417382415923
 46
4.41941738241592
 79
     0
 47
0.2412240834222077
 98
        2
 10
1316.593915474805
 20
1763.077273212467
 10
1318.593915474805
 20
1753.077273212467
  0
HATCH
  5
119D
330
1F
100
AcDbEntity
  8
8
100
AcDbHatch
 10
0.0
 20
0.0
 30
0.0
210
0.0
220
0.0
230
1.0
  2
ANSI31
 70
     0
 71
     0
 91
        2
 92
        7
 72
     1
 73
     1
 93
        5
 10
1291.6322355954
 20
1778.345207651251
 42
-0.0047890772522013
 10
1276.288359910128
 20
1779.880307202236
 42
-0.0558461139287635
 10
1276.482956561274
 20
1779.011063253169
 42
0.0
 10
1279.093915474805
 20
1755.077273212467
 42
0.0
 10
1289.093915474805
 20
1755.077273212467
 42
0.0
 97
        0
 92
        7
 72
     1
 73
     1
 93
        6
 10
1279.093915474805
 20
1755.077273212467
 42
0.0
 10
1279.169992550877
 20
1754.379900015139
 42
0.3427036199843217
 10
1282.582307081578
 20
1750.853665086108
 42
0.0008208928504018
 10
1284.461679780114
 20
1750.589101248831
 42
0.4228954072939393
 10
1288.989176622842
 20
1754.11716706947
 42
0.0
 10
1289.093915474805
 20
1755.077273212467
 42
0.0
 97
        0
 75
     0
 76
     1
 52
-90.00000000000001
 41
50.0
 77
     0
 78
     1
 53
315.0
 43
1099.593915474805
 44
1879.077273212467
 45
4.419417382415923
 46
4.41941738241592
 79
     0
 47
0.2412240834222076
 98
        2
 10
1287.093915474805
 20
1761.077273212467
 10
1285.093915474805
 20
1753.077273212467
  0
ARC
  5
11A0
330
1F
100
AcDbEntity
  8
0
100
AcDbCircle
 10
1364.093915474805
 20
1067.077273212467
 30
0.0
 40
128.0
100
AcDbArc
 50
180.0
 51
0.0
  0
ARC
  5
11A1
330
1F
100
AcDbEntity
  8
0
100
AcDbCircle
 10
1364.093915474805
 20
1067.077273212467
 30
0.0
 40
67.5
100
AcDbArc
 50
326.0607107913401
 51
0.0
  0
ARC
  5
120C
330
1F
100
AcDbEntity
  8
0
100
AcDbCircle
 10
1364.093915474805
 20
1067.077273212467
 30
0.0
 40
103.0
100
AcDbArc
 50
309.7303480027743
 51
312.8758755880862
  0
LINE
  5
120D
330
1F
100
AcDbEntity
  8
0
100
AcDbLine
 10
1372.093915474805
 20
1067.077273212467
 30
0.0
 11
1372.093915474805
 21
970.0978939609999
 31
0.0
  0
LINE
  5
120F
330
1F
100
AcDbEntity
  8
0
100
AcDbLine
 10
1388.093915474805
 20
1067.077273212467
 30
0.0
 11
1388.093915474805
 21
974.8330321998169
 31
0.0
  0
LINE
  5
1211
330
1F
100
AcDbEntity
  8
0
100
AcDbLine
 10
1404.093915474805
 20
1067.077273212467
 30
0.0
 11
1404.093915474805
 21
976.2312496341074
 31
0.0
  0
LINE
  5
1213
330
1F
100
AcDbEntity
  8
0
100
AcDbLine
 10
1420.093915474805
 20
1067.077273212467
 30
0.0
 11
1420.093915474805
 21
992.4783456062346
 31
0.0
  0
LINE
  5
1215
330
1F
100
AcDbEntity
  8
0
100
AcDbLine
 10
1436.093915474805
 20
1067.077273212467
 30
0.0
 11
1436.093915474805
 21
995.9928164022763
 31
0.0
  0
ARC
  5
1216
102
{ACAD_REACTORS
330
1818
102
}
330
1F
100
AcDbEntity
  8
0
100
AcDbCircle
 10
1430.093915474805
 20
995.9928164022763
 30
0.0
 40
6.0
100
AcDbArc
 50
312.8758755880862
 51
0.0
  0
ARC
  5
1217
102
{ACAD_REACTORS
330
1818
102
}
330
1F
100
AcDbEntity
  8
0
100
AcDbCircle
 10
1426.093915474805
 20
992.4783456062346
 30
0.0
 40
6.0
100
AcDbArc
 50
180.0
 51
309.7303480027743
  0
ARC
  5
1219
330
1F
100
AcDbEntity
  8
0
100
AcDbCircle
 10
1398.093915474805
 20
976.2312496341074
 30
0.0
 40
6.0
100
AcDbArc
 50
290.5188464246808
 51
0.0
  0
ARC
  5
121A
330
1F
100
AcDbEntity
  8
0
100
AcDbCircle
 10
1394.093915474805
 20
974.8330321998169
 30
0.0
 40
6.0
100
AcDbArc
 50
180.0
 51
288.0157459334292
  0
ARC
  5
121B
330
1F
100
AcDbEntity
  8
0
100
AcDbCircle
 10
1364.093915474805
 20
1067.077273212467
 30
0.0
 40
103.0
100
AcDbArc
 50
288.0157459334292
 51
290.5188464246772
  0
ARC
  5
121C
330
1F
100
AcDbEntity
  8
0
100
AcDbCircle
 10
1366.093915474805
 20
970.0978939609999
 30
0.0
 40
6.0
100
AcDbArc
 50
271.1814399986289
 51
0.0
  0
ARC
  5
121D
330
1F
100
AcDbEntity
  8
0
100
AcDbCircle
 10
1362.093915474805
 20
970.0978939609999
 30
0.0
 40
6.0
100
AcDbArc
 50
180.0
 51
268.818560001371
  0
ARC
  5
121E
330
1F
100
AcDbEntity
  8
0
100
AcDbCircle
 10
1364.093915474805
 20
1067.077273212467
 30
0.0
 40
103.0
100
AcDbArc
 50
268.818560001371
 51
271.1814399986289
  0
LINE
  5
1220
330
1F
100
AcDbEntity
  8
0
100
AcDbLine
 10
1308.093915474805
 20
1067.077273212467
 30
0.0
 11
1308.093915474805
 21
992.4783456062346
 31
0.0
  0
LINE
  5
1222
330
1F
100
AcDbEntity
  8
0
100
AcDbLine
 10
1324.093915474805
 20
1067.077273212467
 30
0.0
 11
1324.093915474805
 21
976.2312496341074
 31
0.0
  0
LINE
  5
1224
330
1F
100
AcDbEntity
  8
0
100
AcDbLine
 10
1340.093915474805
 20
1067.077273212467
 30
0.0
 11
1340.093915474805
 21
974.8330321998169
 31
0.0
  0
LINE
  5
1226
330
1F
100
AcDbEntity
  8
0
100
AcDbLine
 10
1356.093915474805
 20
1067.077273212467
 30
0.0
 11
1356.093915474805
 21
970.0978939609999
 31
0.0
  0
ARC
  5
1227
330
1F
100
AcDbEntity
  8
0
100
AcDbCircle
 10
1298.093915474805
 20
995.9928164022763
 30
0.0
 40
6.0
100
AcDbArc
 50
180.0
 51
227.1241244119138
  0
ARC
  5
1228
330
1F
100
AcDbEntity
  8
0
100
AcDbCircle
 10
1364.093915474805
 20
1067.077273212467
 30
0.0
 40
103.0
100
AcDbArc
 50
227.1241244119138
 51
230.2696519972258
  0
ARC
  5
1229
330
1F
100
AcDbEntity
  8
0
100
AcDbCircle
 10
1302.093915474805
 20
992.4783456062346
 30
0.0
 40
6.0
100
AcDbArc
 50
230.2696519972258
 51
0.0
  0
LINE
  5
122A
330
1F
100
AcDbEntity
  8
0
100
AcDbLine
 10
1292.093915474805
 20
1067.077273212467
 30
0.0
 11
1292.093915474805
 21
995.9928164022763
 31
0.0
  0
ARC
  5
122B
330
1F
100
AcDbEntity
  8
0
100
AcDbCircle
 10
1364.093915474805
 20
1067.077273212467
 30
0.0
 40
103.0
100
AcDbArc
 50
249.4811535753228
 51
251.9842540665708
  0
ARC
  5
122C
330
1F
100
AcDbEntity
  8
0
100
AcDbCircle
 10
1334.093915474805
 20
974.8330321998169
 30
0.0
 40
6.0
100
AcDbArc
 50
251.9842540665708
 51
0.0
  0
ARC
  5
122D
330
1F
100
AcDbEntity
  8
0
100
AcDbCircle
 10
1330.093915474805
 20
976.2312496341074
 30
0.0
 40
6.0
100
AcDbArc
 50
180.0
 51
249.4811535753192
  0
LINE
  5
122E
330
1F
100
AcDbEntity
  8
0
100
AcDbLine
 10
1276.093915474805
 20
1067.077273212467
 30
0.0
 11
1276.093915474805
 21
1039.364460291366
 31
0.0
  0
ARC
  5
122F
330
1F
100
AcDbEntity
  8
0
100
AcDbCircle
 10
1270.093915474805
 20
1039.364460291366
 30
0.0
 40
6.0
100
AcDbArc
 50
196.4264214034658
 51
0.0
  0
ARC
  5
1230
330
1F
100
AcDbEntity
  8
0
100
AcDbCircle
 10
1364.093915474805
 20
1067.077273212467
 30
0.0
 40
104.0000000000001
100
AcDbArc
 50
180.0
 51
196.4264214034658
  0
ARC
  5
1231
330
1F
100
AcDbEntity
  8
0
100
AcDbCircle
 10
1364.093915474805
 20
1067.077273212467
 30
0.0
 40
104.0000000000001
100
AcDbArc
 50
343.5735785965342
 51
0.0
  0
ARC
  5
1232
330
1F
100
AcDbEntity
  8
0
100
AcDbCircle
 10
1458.093915474805
 20
1039.364460291366
 30
0.0
 40
6.0
100
AcDbArc
 50
180.0
 51
343.5735785965342
  0
LINE
  5
1233
330
1F
100
AcDbEntity
  8
0
100
AcDbLine
 10
1452.093915474805
 20
1067.077273212467
 30
0.0
 11
1452.093915474805
 21
1039.364460291366
 31
0.0
  0
ARC
  5
127D
330
1F
100
AcDbEntity
  8
0
100
AcDbCircle
 10
1364.093915474805
 20
2323.077273212467
 30
0.0
 40
578.0
100
AcDbArc
 50
271.5628496691746
 51
271.6319647633881
  0
ARC
  5
127F
330
1F
100
AcDbEntity
  8
0
100
AcDbCircle
 10
1364.093915474805
 20
2323.077273212467
 30
0.0
 40
578.0
100
AcDbArc
 50
268.3680352366119
 51
268.4371503308254
  0
LINE
  5
1283
330
1F
100
AcDbEntity
  8
0
100
AcDbLine
 10
1295.681283094768
 20
1782.577273212467
 30
0.0
 11
1304.506547854842
 21
1782.577273212467
 31
0.0
  0
LINE
  5
1284
330
1F
100
AcDbEntity
  8
0
100
AcDbLine
 10
1327.681283094768
 20
1782.577273212467
 30
0.0
 11
1336.506547854842
 21
1782.577273212467
 31
0.0
  0
LINE
  5
1285
330
1F
100
AcDbEntity
  8
0
100
AcDbLine
 10
1359.681283094768
 20
1782.577273212467
 30
0.0
 11
1368.506547854842
 21
1782.577273212467
 31
0.0
  0
LINE
  5
1286
330
1F
100
AcDbEntity
  8
0
100
AcDbLine
 10
1391.681283094768
 20
1782.577273212467
 30
0.0
 11
1400.506547854842
 21
1782.577273212467
 31
0.0
  0
LINE
  5
1287
330
1F
100
AcDbEntity
  8
0
100
AcDbLine
 10
1423.681283094768
 20
1782.577273212467
 30
0.0
 11
1432.506547854842
 21
1782.577273212467
 31
0.0
  0
LINE
  5
1288
330
1F
100
AcDbEntity
  8
0
100
AcDbLine
 10
1455.681283094768
 20
1782.577273212467
 30
0.0
 11
1468.093915474805
 21
1782.577273212467
 31
0.0
  0
LINE
  5
1289
330
1F
100
AcDbEntity
  8
0
100
AcDbLine
 10
1488.082380770403
 20
1784.798213800867
 30
0.0
 11
1487.343915474806
 21
1786.077273212467
 31
0.0
  0
LINE
  5
128A
330
1F
100
AcDbEntity
  8
0
100
AcDbLine
 10
1468.093915474805
 20
1782.577273212467
 30
0.0
 11
1490.593915474804
 21
1785.077273212467
 31
0.0
  0
LWPOLYLINE
  5
128B
330
1F
100
AcDbEntity
  8
0
100
AcDbPolyline
 90
        2
 70
     0
 43
0.0
 10
1260.093915474805
 20
1782.577273212467
 10
1236.146773400527
 20
1785.068683906742
  0
LINE
  5
128C
330
1F
100
AcDbEntity
  8
0
100
AcDbLine
 10
1255.018405063967
 20
1786.077273212467
 30
0.0
 11
1256.843915474805
 21
1782.91539643115
 31
0.0
  0
LINE
  5
128D
330
1F
100
AcDbEntity
  8
0
100
AcDbLine
 10
1473.156153819761
 20
1786.077273212467
 30
0.0
 11
1471.343915474805
 21
1782.938384323578
 31
0.0
  0
ARC
  5
1290
330
1F
100
AcDbEntity
  8
0
100
AcDbCircle
 10
1364.093915474805
 20
1067.077273212467
 30
0.0
 40
67.5
100
AcDbArc
 50
233.6587969062138
 51
249.1725030679841
  0
ARC
  5
1292
330
1F
100
AcDbEntity
  8
0
100
AcDbCircle
 10
1364.093915474805
 20
1067.077273212467
 30
0.0
 40
67.5
100
AcDbArc
 50
263.1933902146649
 51
276.8066097853351
  0
ARC
  5
1294
330
1F
100
AcDbEntity
  8
0
100
AcDbCircle
 10
1364.093915474805
 20
1067.077273212467
 30
0.0
 40
67.5
100
AcDbArc
 50
290.8274969320158
 51
306.3412030937862
  0
LINE
  5
1296
330
1F
100
AcDbEntity
  8
0
  6
CENTER
100
AcDbLine
 10
1441.093915474805
 20
1598.081086933303
 30
0.0
 11
1437.233854314041
 21
1581.077273212467
 31
0.0
  0
ARC
  5
157A
330
1F
100
AcDbEntity
  8
0
100
AcDbCircle
 10
1364.093915474805
 20
1067.077273212467
 30
0.0
 40
67.5
100
AcDbArc
 50
180.0
 51
213.9392892086599
  0
ARC
  5
157E
330
1F
100
AcDbEntity
  8
0
100
AcDbCircle
 10
1364.093915474805
 20
1067.077273212467
 30
0.0
 40
128.0
100
AcDbArc
 50
0.0
 51
180.0
  0
ARC
  5
157F
330
1F
100
AcDbEntity
  8
0
100
AcDbCircle
 10
1364.093915474805
 20
1067.077273212467
 30
0.0
 40
67.5
100
AcDbArc
 50
0.0
 51
33.93928920865988
  0
ARC
  5
1580
330
1F
100
AcDbEntity
  8
0
100
AcDbCircle
 10
1364.093915474805
 20
1067.077273212467
 30
0.0
 40
67.5
100
AcDbArc
 50
146.0607107913401
 51
180.0
  0
ARC
  5
1582
330
1F
100
AcDbEntity
  8
0
100
AcDbCircle
 10
1364.093915474805
 20
1067.077273212467
 30
0.0
 40
103.0
100
AcDbArc
 50
47.1241244119046
 51
50.26965199723491
  0
LINE
  5
1583
330
1F
100
AcDbEntity
  8
0
100
AcDbLine
 10
1372.093915474805
 20
1067.077273212467
 30
0.0
 11
1372.093915474805
 21
1164.056652463935
 31
0.0
  0
LINE
  5
1584
330
1F
100
AcDbEntity
  8
0
100
AcDbLine
 10
1388.093915474805
 20
1067.077273212467
 30
0.0
 11
1388.093915474805
 21
1159.321514225118
 31
0.0
  0
LINE
  5
1585
330
1F
100
AcDbEntity
  8
0
100
AcDbLine
 10
1404.093915474805
 20
1067.077273212467
 30
0.0
 11
1404.093915474805
 21
1157.923296790827
 31
0.0
  0
LINE
  5
1586
330
1F
100
AcDbEntity
  8
0
100
AcDbLine
 10
1420.093915474805
 20
1067.077273212467
 30
0.0
 11
1420.093915474805
 21
1141.6762008187
 31
0.0
  0
LINE
  5
1587
330
1F
100
AcDbEntity
  8
0
100
AcDbLine
 10
1436.093915474805
 20
1067.077273212467
 30
0.0
 11
1436.093915474805
 21
1138.161730022658
 31
0.0
  0
ARC
  5
1588
330
1F
100
AcDbEntity
  8
0
100
AcDbCircle
 10
1430.093915474805
 20
1138.161730022658
 30
0.0
 40
6.0
100
AcDbArc
 50
0.0
 51
47.1241244119046
  0
ARC
  5
1589
330
1F
100
AcDbEntity
  8
0
100
AcDbCircle
 10
1426.093915474805
 20
1141.6762008187
 30
0.0
 40
6.0
100
AcDbArc
 50
50.26965199723491
 51
180.0
  0
ARC
  5
158A
330
1F
100
AcDbEntity
  8
0
100
AcDbCircle
 10
1398.093915474805
 20
1157.923296790827
 30
0.0
 40
6.0
100
AcDbArc
 50
0.0
 51
69.48115357531918
  0
ARC
  5
158B
330
1F
100
AcDbEntity
  8
0
100
AcDbCircle
 10
1394.093915474805
 20
1159.321514225118
 30
0.0
 40
6.0
100
AcDbArc
 50
71.98425406656046
 51
180.0
  0
ARC
  5
158C
330
1F
100
AcDbEntity
  8
0
100
AcDbCircle
 10
1364.093915474805
 20
1067.077273212467
 30
0.0
 40
103.0
100
AcDbArc
 50
69.4811535753331
 51
71.98425406656046
  0
ARC
  5
158D
330
1F
100
AcDbEntity
  8
0
100
AcDbCircle
 10
1366.093915474805
 20
1164.056652463935
 30
0.0
 40
6.0
100
AcDbArc
 50
0.0
 51
88.81856000137108
  0
ARC
  5
158E
330
1F
100
AcDbEntity
  8
0
100
AcDbCircle
 10
1362.093915474805
 20
1164.056652463935
 30
0.0
 40
6.0
100
AcDbArc
 50
91.18143999862892
 51
180.0
  0
LINE
  5
1590
330
1F
100
AcDbEntity
  8
0
100
AcDbLine
 10
1308.093915474805
 20
1067.077273212467
 30
0.0
 11
1308.093915474805
 21
1141.6762008187
 31
0.0
  0
LINE
  5
1591
330
1F
100
AcDbEntity
  8
0
100
AcDbLine
 10
1324.093915474805
 20
1067.077273212467
 30
0.0
 11
1324.093915474805
 21
1157.923296790827
 31
0.0
  0
LINE
  5
1592
330
1F
100
AcDbEntity
  8
0
100
AcDbLine
 10
1340.093915474805
 20
1067.077273212467
 30
0.0
 11
1340.093915474805
 21
1159.321514225118
 31
0.0
  0
LINE
  5
1593
330
1F
100
AcDbEntity
  8
0
100
AcDbLine
 10
1356.093915474805
 20
1067.077273212467
 30
0.0
 11
1356.093915474805
 21
1164.056652463935
 31
0.0
  0
ARC
  5
1594
330
1F
100
AcDbEntity
  8
0
100
AcDbCircle
 10
1298.093915474805
 20
1138.161730022658
 30
0.0
 40
6.0
100
AcDbArc
 50
132.8758755880954
 51
180.0
  0
ARC
  5
1595
330
1F
100
AcDbEntity
  8
0
100
AcDbCircle
 10
1364.093915474805
 20
1067.077273212467
 30
0.0
 40
103.0
100
AcDbArc
 50
129.7303480027651
 51
132.8758755880954
  0
ARC
  5
1596
330
1F
100
AcDbEntity
  8
0
100
AcDbCircle
 10
1302.093915474805
 20
1141.6762008187
 30
0.0
 40
6.0
100
AcDbArc
 50
0.0
 51
129.7303480027651
  0
LINE
  5
1597
330
1F
100
AcDbEntity
  8
0
100
AcDbLine
 10
1292.093915474805
 20
1067.077273212467
 30
0.0
 11
1292.093915474805
 21
1138.161730022658
 31
0.0
  0
ARC
  5
1598
330
1F
100
AcDbEntity
  8
0
100
AcDbCircle
 10
1364.093915474805
 20
1067.077273212467
 30
0.0
 40
103.0
100
AcDbArc
 50
108.0157459334395
 51
110.5188464246669
  0
ARC
  5
1599
330
1F
100
AcDbEntity
  8
0
100
AcDbCircle
 10
1334.093915474805
 20
1159.321514225118
 30
0.0
 40
6.0
100
AcDbArc
 50
0.0
 51
108.0157459334395
  0
ARC
  5
159A
330
1F
100
AcDbEntity
  8
0
100
AcDbCircle
 10
1330.093915474805
 20
1157.923296790827
 30
0.0
 40
6.0
100
AcDbArc
 50
110.5188464246808
 51
180.0
  0
LINE
  5
159B
330
1F
100
AcDbEntity
  8
0
100
AcDbLine
 10
1276.093915474805
 20
1067.077273212467
 30
0.0
 11
1276.093915474805
 21
1094.790086133569
 31
0.0
  0
ARC
  5
159C
330
1F
100
AcDbEntity
  8
0
100
AcDbCircle
 10
1270.093915474805
 20
1094.790086133569
 30
0.0
 40
6.0
100
AcDbArc
 50
0.0
 51
163.5735785965342
  0
ARC
  5
159D
330
1F
100
AcDbEntity
  8
0
100
AcDbCircle
 10
1364.093915474805
 20
1067.077273212467
 30
0.0
 40
104.0000000000001
100
AcDbArc
 50
163.5735785965342
 51
180.0
  0
ARC
  5
159E
330
1F
100
AcDbEntity
  8
0
100
AcDbCircle
 10
1364.093915474805
 20
1067.077273212467
 30
0.0
 40
104.0000000000001
100
AcDbArc
 50
0.0
 51
16.42642140346579
  0
ARC
  5
159F
330
1F
100
AcDbEntity
  8
0
100
AcDbCircle
 10
1458.093915474805
 20
1094.790086133569
 30
0.0
 40
6.0
100
AcDbArc
 50
16.42642140346579
 51
180.0
  0
LINE
  5
15A0
330
1F
100
AcDbEntity
  8
0
100
AcDbLine
 10
1452.093915474805
 20
1067.077273212467
 30
0.0
 11
1452.093915474805
 21
1094.790086133569
 31
0.0
  0
ARC
  5
15A4
330
1F
100
AcDbEntity
  8
0
100
AcDbCircle
 10
1364.093915474805
 20
1067.077273212467
 30
0.0
 40
67.5
100
AcDbArc
 50
110.8274969320122
 51
126.3412030937979
  0
ARC
  5
15A5
330
1F
100
AcDbEntity
  8
0
100
AcDbCircle
 10
1364.093915474805
 20
1067.077273212467
 30
0.0
 40
67.5
100
AcDbArc
 50
83.1933902146649
 51
96.80660978533509
  0
ARC
  5
15A6
330
1F
100
AcDbEntity
  8
0
100
AcDbCircle
 10
1364.093915474805
 20
1067.077273212467
 30
0.0
 40
67.5
100
AcDbArc
 50
53.65879690620207
 51
69.17250306798774
  0
LINE
  5
15C6
102
{ACAD_REACTORS
330
1701
102
}
330
1F
100
AcDbEntity
  8
0
100
AcDbLine
 10
1476.460016093165
 20
1617.124891365124
 30
0.0
 11
1476.460016093165
 21
1641.029655059812
 31
0.0
  0
LINE
  5
1617
330
1F
100
AcDbEntity
  8
0
100
AcDbLine
 10
1589.093915474805
 20
1683.262154074061
 30
0.0
 11
1590.065354022035
 21
1694.56797144069
 31
0.0
  0
LINE
  5
16A0
330
1F
100
AcDbEntity
  8
0
100
AcDbLine
 10
1470.49367446741
 20
1640.39501531571
 30
0.0
 11
1470.49367446741
 21
1641.029655059811
 31
0.0
  0
LINE
  5
16B8
330
1F
100
AcDbEntity
  8
0
100
AcDbLine
 10
1366.217626815011
 20
1170.055376953716
 30
0.0
 11
1361.970204134599
 21
1170.055376953716
 31
0.0
  0
DIMENSION
  5
16C9
102
{ACAD_XDICTIONARY
360
16D6
102
}
102
{ACAD_REACTORS
330
16D7
102
}
330
1F
100
AcDbEntity
  8
AM_5
100
AcDbDimension
  2
*D3
 10
1110.107835710671
 20
1706.077273212467
 30
0.0
 11
1104.60783571067
 21
1746.077273212468
 31
0.0
 70
    32
 71
     5
 42
80.0
  3
AM_ISO$0
100
AcDbAlignedDimension
 13
1229.093915474805
 23
1786.077273212467
 33
0.0
 14
1182.262880669648
 24
1706.077273212467
 34
0.0
 50
90.00000000000003
100
AcDbRotatedDimension
1001
ACAD
1000
DSTYLE
1002
{
1070
   140
1040
8.0
1002
}
  0
DIMENSION
  5
16F3
102
{ACAD_XDICTIONARY
360
1700
102
}
102
{ACAD_REACTORS
330
1701
102
}
330
1F
100
AcDbEntity
  8
AM_5
100
AcDbDimension
  2
*D4
 10
1162.822864414267
 20
1581.077273212467
 30
0.0
 11
1157.322864414267
 21
1611.05346413614
 31
0.0
 70
    32
 71
     5
 42
59.95238184734489
  3
AM_ISO$0
100
AcDbAlignedDimension
 13
1476.460016093165
 23
1641.029655059812
 33
0.0
 14
1364.093915474805
 24
1581.077273212467
 34
0.0
 50
90.0
100
AcDbRotatedDimension
1001
ACAD
1000
DSTYLE
1002
{
1070
   140
1040
8.0
1070
   271
1070
     0
1002
}
  0
DIMENSION
  5
171D
102
{ACAD_XDICTIONARY
360
172A
102
}
102
{ACAD_REACTORS
330
172B
102
}
330
1F
100
AcDbEntity
  8
AM_5
100
AcDbDimension
  2
*D5
 10
1061.785035639346
 20
1516.077273212467
 30
0.0
 11
1056.284248237771
 21
1651.077273212467
 31
0.0
 70
    32
 71
     5
 42
270.0
  3
AM_ISO$0
100
AcDbAlignedDimension
 13
1229.093915474805
 23
1786.077273212467
 33
0.0
 14
1364.093915474805
 24
1516.077273212467
 34
0.0
 50
90.00000000000003
100
AcDbRotatedDimension
1001
ACAD
1000
DSTYLE
1002
{
1070
   140
1040
8.0
1002
}
  0
DIMENSION
  5
1747
102
{ACAD_XDICTIONARY
360
1754
102
}
102
{ACAD_REACTORS
330
1755
102
}
330
1F
100
AcDbEntity
  8
AM_5
100
AcDbDimension
  2
*D6
 10
1529.776965783985
 20
1468.382451660628
 30
0.0
 11
1446.935440629395
 21
1473.882451660628
 31
0.0
 70
    32
  1
165
 71
     5
 42
165.6830503091796
  3
AM_ISO$0
100
AcDbAlignedDimension
 13
1364.093915474805
 23
1516.077273212467
 33
0.0
 14
1529.776965783985
 24
1501.077273212467
 34
0.0
 50
0.0000000000001132
100
AcDbRotatedDimension
1001
ACAD
1000
DSTYLE
1002
{
1070
   140
1040
8.0
1070
   271
1070
     0
1002
}
  0
DIMENSION
  5
177A
102
{ACAD_XDICTIONARY
360
1787
102
}
102
{ACAD_REACTORS
330
1788
102
}
330
1F
100
AcDbEntity
  8
AM_5
100
AcDbDimension
  2
*D7
 10
1499.093915474805
 20
1822.802625904603
 30
0.0
 11
1364.093915474805
 21
1828.303413306177
 31
0.0
 70
    32
  1
%%c<>
 71
     5
 42
270.0
  3
AM_ISO$0
100
AcDbAlignedDimension
 13
1229.093915474805
 23
1786.077273212467
 33
0.0
 14
1499.093915474805
 24
1786.077273212467
 34
0.0
 50
0.0000000000000114
100
AcDbRotatedDimension
1001
ACAD
1000
DSTYLE
1002
{
1070
   140
1040
8.0
1002
}
  0
DIMENSION
  5
17AD
102
{ACAD_XDICTIONARY
360
17BA
102
}
102
{ACAD_REACTORS
330
17BB
102
}
330
1F
100
AcDbEntity
  8
AM_5
100
AcDbDimension
  2
*D8
 10
1653.931079163909
 20
1501.077273212467
 30
0.0
 11
1648.430291762334
 21
1643.577273212468
 31
0.0
 70
    32
 71
     5
 42
284.9999999999998
  3
AM_ISO$0
100
AcDbAlignedDimension
 13
1499.093915474805
 23
1786.077273212467
 33
0.0
 14
1589.093915474805
 24
1501.077273212467
 34
0.0
 50
90.00000000000003
100
AcDbRotatedDimension
1001
ACAD
1000
DSTYLE
1002
{
1070
   140
1040
8.0
1002
}
  0
DIMENSION
  5
17D7
102
{ACAD_XDICTIONARY
360
17E4
102
}
102
{ACAD_REACTORS
330
17E5
102
}
330
1F
100
AcDbEntity
  8
AM_5
100
AcDbDimension
  2
*D9
 10
1058.278712252086
 20
842.0772732124676
 30
0.0
 11
1052.778712252085
 21
1067.077273212468
 31
0.0
 70
    32
  1
%%c<>
 71
     5
 42
449.9999999999996
  3
AM_ISO$0
100
AcDbAlignedDimension
 13
1364.093915474805
 23
1292.077273212467
 33
0.0
 14
1364.093915474805
 24
842.0772732124676
 34
0.0
 50
90.00000000000003
100
AcDbRotatedDimension
1001
ACAD
1000
DSTYLE
1002
{
1070
   140
1040
8.0
1002
}
  0
DIMENSION
  5
180A
102
{ACAD_XDICTIONARY
360
1817
102
}
102
{ACAD_REACTORS
330
1818
102
}
330
1F
100
AcDbEntity
  8
AM_5
100
AcDbDimension
  2
*D10
 10
1436.093915474805
 20
818.386968284245
 30
0.0
 11
1428.093915474805
 21
823.886968284245
 31
0.0
 70
    32
 71
     5
 42
16.0
  3
AM_ISO$0
100
AcDbAlignedDimension
 13
1420.093915474805
 23
992.4783456062346
 33
0.0
 14
1436.093915474805
 24
995.9928164022763
 34
0.0
 50
0.0000000000001132
100
AcDbRotatedDimension
1001
ACAD
1000
DSTYLE
1002
{
1070
   140
1040
8.0
1002
}
  0
LINE
  5
1833
330
1F
100
AcDbEntity
  8
0
100
AcDbLine
 10
1589.093915474805
 20
1127.301628244042
 30
0.0
 11
1589.093915474805
 21
1006.852918180893
 31
0.0
  0
LINE
  5
18EE
330
1F
100
AcDbEntity
  8
0
100
AcDbLine
 10
1449.093915474805
 20
1755.077273212467
 30
0.0
 11
1471.093915474806
 21
1755.077273212466
 31
0.0
  0
CIRCLE
  5
18F6
330
1F
100
AcDbEntity
  8
0
100
AcDbCircle
 10
1238.675278524458
 20
1762.542067907652
 30
0.0
 40
4.306339145813759
  0
HATCH
  5
1903
330
1F
100
AcDbEntity
  8
AM_8
100
AcDbHatch
 10
0.0
 20
0.0
 30
0.0
210
0.0
220
0.0
230
1.0
  2
_U
 70
     0
 71
     0
 91
        1
 92
        1
 93
        2
 72
     2
 10
1238.675278524458
 20
1762.542067907652
 40
4.306339145813834
 50
222.0698655650443
 51
503.9301344349541
 73
     1
 72
     1
 10
1235.194466069655
 20
1765.077516880371
 11
1235.478560909298
 21
1759.656664412871
 97
        0
 75
     0
 76
     0
 52
45.0
 41
2.299999999999999
 77
     1
 78
     2
 53
45.0
 43
0.0
 44
0.0
 45
-1.626345596729059
 46
1.626345596729059
 79
     0
 53
135.0
 43
0.0
 44
0.0
 45
-1.626345596729059
 46
-1.626345596729058
 79
     0
 98
        1
 10
0.0
 20
0.0
1001
GENIUS_GENODEF_13
1002
{
1000
HIER
1070
     0
1002
}
1002
{
1000
MANEDIT
1070
     0
1002
}
1002
{
1000
NOSEL
1070
     0
1002
}
1002
{
1000
BEHIND
1070
     0
1002
}
1002
{
1000
OTHER
1070
     0
1002
}
1002
{
1000
REACTOR
1002
}
1001
GENIUS_GENOBJ-N-HTC_13
1002
{
1000
OWNER
1000
GEN
1002
}
1001
GENIUS_GENHATCH_13
1002
{
1000
DATA
1040
45.0
1042
2.299999999999999
1000
_U
1070
     1
1011
1238.675278524458
1021
1761.409265249504
1031
0.0
1002
}
1002
{
1000
UCS
1010
0.0
1020
0.0
1030
0.0
1010
1.0
1020
0.0
1030
0.0
1010
0.0
1020
1.0
1030
0.0
1002
}
  0
CIRCLE
  5
1907
330
1F
100
AcDbEntity
  8
0
100
AcDbCircle
 10
1489.512552425153
 20
1762.542067907651
 30
0.0
 40
4.306339145813761
  0
HATCH
  5
1908
330
1F
100
AcDbEntity
  8
AM_8
100
AcDbHatch
 10
0.0
 20
0.0
 30
0.0
210
0.0
220
0.0
230
1.0
  2
_U
 70
     0
 71
     0
 91
        1
 92
        1
 93
        2
 72
     2
 10
1489.512552425153
 20
1762.542067907651
 40
4.306339145813836
 50
42.06986556504475
 51
323.9301344349546
 73
     0
 72
     1
 10
1492.993364879955
 20
1765.07751688037
 11
1492.709270040313
 21
1759.65666441287
 97
        0
 75
     0
 76
     0
 52
45.0
 41
2.299999999999999
 77
     1
 78
     2
 53
134.9999999999995
 43
2728.187830949597
 44
-0.0000000000113687
 45
1.626345596729073
 46
1.626345596729045
 79
     0
 53
44.99999999999952
 43
2728.187830949597
 44
-0.0000000000113687
 45
1.626345596729046
 46
-1.626345596729072
 79
     0
 98
        1
 10
2728.187830949597
 20
-0.0000000000113687
1001
GENIUS_GENODEF_13
1002
{
1000
HIER
1070
     0
1002
}
1002
{
1000
MANEDIT
1070
     0
1002
}
1002
{
1000
NOSEL
1070
     0
1002
}
1002
{
1000
BEHIND
1070
     0
1002
}
1002
{
1000
OTHER
1070
     0
1002
}
1002
{
1000
REACTOR
1002
}
1001
GENIUS_GENOBJ-N-HTC_13
1002
{
1000
OWNER
1000
GEN
1002
}
1001
GENIUS_GENHATCH_13
1002
{
1000
DATA
1040
45.0
1042
-2.3
1000
_U
1070
     1
1011
1489.512552425153
1021
1761.409265249502
1031
0.0
1002
}
1002
{
1000
UCS
1010
0.0
1020
0.0
1030
0.0
1010
1.0
1020
0.0
1030
0.0
1010
0.0
1020
1.0
1030
0.0
1002
}
  0
LINE
  5
1909
330
1F
100
AcDbEntity
  8
0
100
AcDbLine
 10
1474.687837704123
 20
1731.077273212467
 30
0.0
 11
1491.211487614238
 21
1731.077273212467
 31
0.0
  0
HATCH
  5
1912
330
1F
100
AcDbEntity
  8
AM_8
100
AcDbHatch
 10
0.0
 20
0.0
 30
0.0
210
0.0
220
0.0
230
1.0
  2
_U
 70
     0
 71
     0
 91
        1
 92
        1
 93
        8
 72
     1
 10
1494.093915474805
 20
1786.077273212467
 11
1492.993364879955
 21
1765.07751688037
 72
     2
 10
1489.512552425153
 20
1762.542067907651
 40
4.306339145813723
 50
323.9301344349475
 51
402.0698655650593
 73
     0
 72
     1
 10
1492.709270040312
 20
1759.656664412869
 11
1491.211487614238
 21
1731.077273212467
 72
     1
 10
1491.211487614238
 20
1731.077273212467
 11
1481.093915474805
 21
1731.077273212467
 72
     1
 10
1481.093915474805
 20
1731.077273212467
 11
1481.093915474805
 21
1715.077273212467
 72
     1
 10
1481.093915474805
 20
1715.077273212467
 11
1500.953115906217
 21
1715.077273212467
 72
     1
 10
1500.953115906217
 20
1715.077273212467
 11
1499.093915474805
 21
1786.077273212467
 72
     1
 10
1499.093915474805
 20
1786.077273212467
 11
1494.093915474805
 21
1786.077273212467
 97
        0
 75
     0
 76
     0
 52
45.0
 41
5.0
 77
     0
 78
     1
 53
45.0
 43
0.0
 44
0.0
 45
-3.535533905932737
 46
3.535533905932737
 79
     0
 98
        1
 10
0.0
 20
0.0
1001
GENIUS_GENODEF_13
1002
{
1000
HIER
1070
     0
1002
}
1002
{
1000
MANEDIT
1070
     0
1002
}
1002
{
1000
NOSEL
1070
     0
1002
}
1002
{
1000
BEHIND
1070
     0
1002
}
1002
{
1000
OTHER
1070
     0
1002
}
1002
{
1000
REACTOR
1002
}
1001
GENIUS_GENOBJ-N-HTC_13
1002
{
1000
OWNER
1000
GEN
1002
}
1001
GENIUS_GENHATCH_13
1002
{
1000
DATA
1040
45.0
1042
5.0
1000
_U
1070
     0
1011
1498.873473386961
1021
1742.23340053991
1031
0.0
1002
}
1002
{
1000
UCS
1010
0.0
1020
0.0
1030
0.0
1010
1.0
1020
0.0
1030
0.0
1010
0.0
1020
1.0
1030
0.0
1002
}
  0
HATCH
  5
191B
330
1F
100
AcDbEntity
  8
AM_8
100
AcDbHatch
 10
0.0
 20
0.0
 30
0.0
210
0.0
220
0.0
230
1.0
  2
_U
 70
     0
 71
     0
 91
        1
 92
        1
 93
       12
 72
     1
 10
1583.093915474805
 20
1698.103276016533
 11
1583.093915474805
 21
1527.077273212467
 72
     1
 10
1583.093915474805
 20
1527.077273212467
 11
1580.093915474805
 21
1521.077273212467
 72
     1
 10
1580.093915474805
 20
1521.077273212467
 11
1580.093915474805
 21
1501.077273212467
 72
     1
 10
1580.093915474805
 20
1501.077273212467
 11
1589.093915474805
 21
1501.077273212467
 72
     1
 10
1589.093915474805
 20
1501.077273212467
 11
1589.093915474805
 21
1683.262154074061
 72
     1
 10
1589.093915474805
 20
1683.262154074061
 11
1590.065354022035
 21
1694.56797144069
 72
     1
 10
1590.065354022035
 20
1694.56797144069
 11
1589.493034808904
 21
1697.813754989137
 72
     2
 10
1579.644957278782
 20
1696.077273212467
 40
9.999999999999969
 50
9.999999999999891
 51
89.9999999999987
 73
     1
 72
     1
 10
1579.644957278782
 20
1706.077273212467
 11
1515.093915474805
 21
1706.077273212467
 72
     1
 10
1515.093915474805
 20
1706.077273212467
 11
1515.093915474805
 21
1700.077273212467
 72
     1
 10
1515.093915474805
 20
1700.077273212467
 11
1579.644957278782
 21
1700.077273212467
 72
     2
 10
1579.644957278782
 20
1696.077273212467
 40
4.0
 50
270.0
 51
329.5689769962831
 73
     0
 97
        0
 75
     0
 76
     0
 52
45.0
 41
5.0
 77
     0
 78
     1
 53
45.0
 43
0.0
 44
0.0
 45
-3.535533905932737
 46
3.535533905932737
 79
     0
 98
        1
 10
0.0
 20
0.0
1001
GENIUS_GENOBJ-N-HTC_13
1002
{
1000
OWNER
1000
GEN
1002
}
1001
GENIUS_GENODEF_13
1002
{
1000
HIER
1070
     0
1002
}
1002
{
1000
MANEDIT
1070
     0
1002
}
1002
{
1000
NOSEL
1070
     0
1002
}
1002
{
1000
BEHIND
1070
     0
1002
}
1002
{
1000
OTHER
1070
     0
1002
}
1002
{
1000
REACTOR
1002
}
1001
GENIUS_GENHATCH_13
1002
{
1000
DATA
1040
45.0
1042
5.0
1000
_U
1070
     0
1011
1530.756324908415
1021
1702.431783091659
1031
0.0
1002
}
1002
{
1000
UCS
1010
0.0
1020
0.0
1030
0.0
1010
1.0
1020
0.0
1030
0.0
1010
0.0
1020
1.0
1030
0.0
1002
}
  0
HATCH
  5
1924
330
1F
100
AcDbEntity
  8
AM_8
100
AcDbHatch
 10
0.0
 20
0.0
 30
0.0
210
0.0
220
0.0
230
1.0
  2
_U
 70
     0
 71
     0
 91
        1
 92
        1
 93
       11
 72
     1
 10
1470.49367446741
 20
1641.029655059811
 11
1470.49367446741
 21
1640.39501531571
 72
     2
 10
1364.093915474805
 20
1629.077273212467
 40
107.0
 50
353.9282790370508
 51
450.0
 73
     0
 72
     1
 10
1364.093915474805
 20
1522.077273212467
 11
1364.093915474805
 21
1516.077273212467
 72
     2
 10
1364.093915474805
 20
1629.077273212467
 40
113.0
 50
269.9999999999999
 51
327.5022569712048
 73
     1
 72
     2
 10
1464.460016093165
 20
1565.142573348737
 40
5.999999999999878
 50
212.4977430287951
 51
360.0
 73
     0
 72
     1
 10
1470.460016093165
 20
1565.142573348737
 11
1470.460016093165
 21
1501.077273212467
 72
     1
 10
1470.460016093165
 20
1501.077273212467
 11
1479.460016093165
 21
1501.077273212467
 72
     1
 10
1479.460016093165
 20
1501.077273212467
 11
1479.460016093165
 21
1521.077273212467
 72
     1
 10
1479.460016093165
 20
1521.077273212467
 11
1476.460016093165
 21
1527.077273212467
 72
     1
 10
1476.460016093165
 20
1527.077273212467
 11
1476.460016093165
 21
1641.029655059812
 72
     1
 10
1476.460016093165
 20
1641.029655059812
 11
1470.49367446741
 21
1641.029655059811
 97
        0
 75
     0
 76
     0
 52
45.0
 41
5.0
 77
     0
 78
     1
 53
45.0
 43
0.0
 44
0.0
 45
-3.535533905932737
 46
3.535533905932737
 79
     0
 98
        1
 10
0.0
 20
0.0
1001
GENIUS_GENODEF_13
1002
{
1000
HIER
1070
     0
1002
}
1002
{
1000
MANEDIT
1070
     0
1002
}
1002
{
1000
NOSEL
1070
     0
1002
}
1002
{
1000
BEHIND
1070
     0
1002
}
1002
{
1000
OTHER
1070
     0
1002
}
1002
{
1000
REACTOR
1002
}
1001
GENIUS_GENOBJ-N-HTC_13
1002
{
1000
OWNER
1000
GEN
1002
}
1001
GENIUS_GENHATCH_13
1002
{
1000
DATA
1040
45.0
1042
5.0
1000
_U
1070
     0
1011
1470.038668040755
1021
1577.214336909518
1031
0.0
1002
}
1002
{
1000
UCS
1010
0.0
1020
0.0
1030
0.0
1010
1.0
1020
0.0
1030
0.0
1010
0.0
1020
1.0
1030
0.0
1002
}
  0
HATCH
  5
1939
330
1F
100
AcDbEntity
  8
AM_8
100
AcDbHatch
 10
0.0
 20
0.0
 30
0.0
210
0.0
220
0.0
230
1.0
  2
_U
 70
     0
 71
     0
 91
        1
 92
        1
 93
       23
 72
     2
 10
1364.093915474805
 20
1629.077273212467
 40
112.9999999999997
 50
89.99999999999991
 51
165.2911190552407
 73
     0
 72
     1
 10
1254.797105344037
 20
1600.385683935489
 11
1245.900360944914
 21
1685.032552604807
 72
     2
 10
1235.955141991232
 20
1683.987267972131
 40
9.999999999999619
 50
6.000000000000675
 51
87.0000000000021
 73
     1
 72
     1
 10
1236.478501553661
 20
1693.973563319676
 11
1208.954644815213
 21
1695.416027528643
 72
     2
 10
1208.745300990242
 20
1691.421509389624
 40
3.999999999999983
 50
87.00000000000091
 51
169.9999999999981
 73
     1
 72
     1
 10
1204.806069978193
 20
1692.116102100292
 11
1204.093915474805
 21
1688.077273212467
 72
     2
 10
1194.093915474805
 20
1688.077273212467
 40
10.0
 50
360.0
 51
540.0000000000182
 73
     0
 72
     1
 10
1184.093915474805
 20
1688.07727321247
 11
1183.108451204097
 21
1693.666118814821
 72
     2
 10
1179.169220192048
 20
1692.971526104154
 40
3.999999999999748
 50
9.999999999999173
 51
87.00000000000398
 73
     1
 72
     1
 10
1179.37856401702
 20
1696.966044243171
 11
1139.093915474805
 21
1699.077273212467
 72
     1
 10
1139.093915474805
 20
1699.077273212467
 11
1139.386882023189
 21
1702.425896183458
 72
     2
 10
1143.371660815556
 20
1702.077273212468
 40
3.999999999999321
 50
184.9999999999941
 51
270.0000000000098
 73
     0
 72
     1
 10
1143.371660815556
 20
1706.077273212467
 11
1221.15410052374
 21
1706.077273212467
 72
     2
 10
1221.15410052374
 20
1712.077273212468
 40
6.000000000000227
 50
270.0000000000021
 51
358.4999999999952
 73
     1
 72
     1
 10
1227.152044473594
 20
1711.92021152262
 11
1229.093915474805
 21
1786.077273212467
 72
     1
 10
1229.093915474805
 20
1786.077273212467
 11
1234.093915474805
 21
1786.077273212467
 72
     1
 10
1234.093915474805
 20
1786.077273212467
 11
1235.194466069655
 21
1765.077516880371
 72
     2
 10
1238.675278524458
 20
1762.542067907652
 40
4.306339145813455
 50
143.9301344349523
 51
222.0698655650463
 73
     1
 72
     1
 10
1235.478560909298
 20
1759.656664412871
 11
1236.976343335372
 21
1731.077273212467
 72
     1
 10
1236.976343335372
 20
1731.077273212467
 11
1247.093915474805
 21
1731.077273212467
 72
     1
 10
1247.093915474805
 20
1731.077273212467
 11
1260.715824952004
 21
1601.473461883964
 72
     2
 10
1364.093915474805
 20
1629.077273212467
 40
107.0000000000002
 50
194.9502092076982
 51
269.9999999999999
 73
     1
 72
     1
 10
1364.093915474805
 20
1522.077273212467
 11
1364.093915474805
 21
1516.077273212467
 97
        0
 75
     0
 76
     0
 52
45.0
 41
5.0
 77
     0
 78
     1
 53
45.0
 43
0.0
 44
0.0
 45
-3.535533905932737
 46
3.535533905932737
 79
     0
 98
        1
 10
0.0
 20
0.0
1001
GENIUS_GENODEF_13
1002
{
1000
HIER
1070
     0
1002
}
1002
{
1000
MANEDIT
1070
     0
1002
}
1002
{
1000
NOSEL
1070
     0
1002
}
1002
{
1000
BEHIND
1070
     0
1002
}
1002
{
1000
OTHER
1070
     0
1002
}
1002
{
1000
REACTOR
1002
}
1001
GENIUS_GENOBJ-N-HTC_13
1002
{
1000
OWNER
1000
GEN
1002
}
1001
GENIUS_GENHATCH_13
1002
{
1000
DATA
1040
45.0
1042
5.0
1000
_U
1070
     0
1011
1232.970835949593
1021
1704.424463007548
1031
0.0
1002
}
1002
{
1000
UCS
1010
0.0
1020
0.0
1030
0.0
1010
1.0
1020
0.0
1030
0.0
1010
0.0
1020
1.0
1030
0.0
1002
}
  0
ENDSEC
  0
SECTION
  2
OBJECTS
  0
DICTIONARY
  5
C
330
0
100
AcDbDictionary
281
     1
  3
ACAD_COLOR
350
BE
  3
ACAD_GROUP
350
D
  3
ACAD_LAYOUT
350
1A
  3
ACAD_MATERIAL
350
BD
  3
ACAD_MLINESTYLE
350
17
  3
ACAD_PLOTSETTINGS
350
19
  3
ACAD_PLOTSTYLENAME
350
E
  3
ACAD_TABLESTYLE
350
11A
  3
ACDBHEADERROUNDTRIPXREC
350
1985
  3
AcDbVariableDictionary
350
94
  3
AcmDictionary
350
5B
  3
AMG
350
41
  3
AMGSNAPSETTINGS
350
26B
  3
DWGPROPS
350
1984
  0
DICTIONARY
  5
18FF
330
2
100
AcDbDictionary
280
     1
281
     1
  3
AMLAYER_GROUPCOLORS
360
1900
  0
DICTIONARY
  5
8F
330
1F
100
AcDbDictionary
280
     1
281
     1
  3
ACAD_SORTENTS
360
157B
  0
DICTIONARY
  5
16D6
330
16C9
100
AcDbDictionary
280
     1
281
     1
  3
ACAD_DIMASSOC
360
16D7
  0
DICTIONARY
  5
1700
330
16F3
100
AcDbDictionary
280
     1
281
     1
  3
ACAD_DIMASSOC
360
1701
  0
DICTIONARY
  5
172A
330
171D
100
AcDbDictionary
280
     1
281
     1
  3
ACAD_DIMASSOC
360
172B
  0
DICTIONARY
  5
1754
330
1747
100
AcDbDictionary
280
     1
281
     1
  3
ACAD_DIMASSOC
360
1755
  0
DICTIONARY
  5
1787
330
177A
100
AcDbDictionary
280
     1
281
     1
  3
ACAD_DIMASSOC
360
1788
  0
DICTIONARY
  5
17BA
330
17AD
100
AcDbDictionary
280
     1
281
     1
  3
ACAD_DIMASSOC
360
17BB
  0
DICTIONARY
  5
17E4
330
17D7
100
AcDbDictionary
280
     1
281
     1
  3
ACAD_DIMASSOC
360
17E5
  0
DICTIONARY
  5
1817
330
180A
100
AcDbDictionary
280
     1
281
     1
  3
ACAD_DIMASSOC
360
1818
  0
DICTIONARY
  5
BE
102
{ACAD_REACTORS
330
C
102
}
330
C
100
AcDbDictionary
281
     1
  0
DICTIONARY
  5
D
102
{ACAD_REACTORS
330
C
102
}
330
C
100
AcDbDictionary
281
     1
  0
DICTIONARY
  5
1A
102
{ACAD_REACTORS
330
C
102
}
330
C
100
AcDbDictionary
281
     1
  3
Layout1
350
1E
  3
Layout2
350
26
  3
Model
350
22
  0
DICTIONARY
  5
BD
102
{ACAD_REACTORS
330
C
102
}
330
C
100
AcDbDictionary
281
     1
  0
DICTIONARY
  5
17
102
{ACAD_REACTORS
330
C
102
}
330
C
100
AcDbDictionary
281
     1
  3
Standard
350
18
  0
DICTIONARY
  5
19
102
{ACAD_REACTORS
330
C
102
}
330
C
100
AcDbDictionary
281
     1
  0
ACDBDICTIONARYWDFLT
  5
E
102
{ACAD_REACTORS
330
C
102
}
330
C
100
AcDbDictionary
281
     1
  3
Normal
350
F
100
AcDbDictionaryWithDefault
340
F
  0
DICTIONARY
  5
11A
102
{ACAD_REACTORS
330
C
102
}
330
C
100
AcDbDictionary
281
     1
  3
Standard
350
11B
  0
DICTIONARY
  5
1985
102
{ACAD_REACTORS
330
C
102
}
330
C
100
AcDbDictionary
281
     1
  0
DICTIONARY
  5
94
102
{ACAD_REACTORS
330
C
102
}
330
C
100
AcDbDictionary
281
     1
  3
CTABLESTYLE
350
138
  3
DIMASSOC
350
96
  3
INDEXCTL
350
95
  3
PROJECTNAME
350
1982
  0
DICTIONARY
  5
5B
102
{ACAD_REACTORS
330
C
102
}
330
C
100
AcDbDictionary
281
     1
  3
AcmBOM
350
272
  3
AcmStdDictionary
350
61
  3
AMDTSECTSYM_ARROWCOLOR
350
123
  0
DICTIONARY
  5
41
102
{ACAD_REACTORS
330
C
102
}
330
C
100
AcDbDictionary
281
     1
  0
DICTIONARY
  5
26B
102
{ACAD_REACTORS
330
C
102
}
330
C
100
AcDbDictionary
281
     1
  0
XRECORD
  5
1984
102
{ACAD_REACTORS
330
C
102
}
330
C
100
AcDbXrecord
280
     1
  1
DWGPROPS COOKIE
  2

  3

  4

  6

  7

  8

  9

300
AmdtFileType=84
301
=
302
=
303
=
304
=
305
=
306
=
307
=
308
=
309
=
 40
0.0699013310185185
 41
2454068.346004213
 42
2454087.930983681
  1

 90
        1
  0
DICTIONARY
  5
1900
102
{ACAD_REACTORS
330
18FF
102
}
330
18FF
100
AcDbDictionary
280
     1
281
     1
  0
SORTENTSTABLE
  5
157B
102
{ACAD_REACTORS
330
8F
102
}
330
8F
100
AcDbSortentsTable
330
1F
331
8A7
  5
924
331
1292
  5
1582
331
1213
  5
121C
331
1105
  5
110B
331
117C
  5
1182
331
121B
  5
1225
331
1184
  5
118A
331
157A
  5
1216
331
1582
  5
1588
331
118C
  5
1195
331
1115
  5
1162
331
158A
  5
1590
331
122B
  5
1232
331
799
  5
79D
331
7A1
  5
7A7
331
878
  5
8A2
331
7A9
  5
7B9
331
10F6
  5
10FD
331
1592
  5
1598
331
1233
  5
1287
331
119C
  5
120E
331
10FE
  5
1104
331
159A
  5
15A0
331
1165
  5
116B
331
16C9
  5
1747
331
1283
  5
128A
331
116D
  5
1173
331
120C
  5
1217
331
17D7
  5
1834
331
128B
  5
1297
331
1175
  5
117B
331
1924
  5
1923
331
8A0
  5
8A6
331
7C1
  5
80A
331
8A8
  5
925
331
782
  5
78E
331
7C9
  5
86A
331
117D
  5
1183
331
1106
  5
110C
331
8F8
  5
CB9
331
121C
  5
1227
331
1185
  5
118B
331
110E
  5
1114
331
D4F
  5
10F8
331
1583
  5
1589
331
1116
  5
1163
331
1224
  5
122C
331
158B
  5
1591
331
122C
  5
1233
331
1195
  5
119C
331
79A
  5
79E
331
7A2
  5
7A8
331
10F7
  5
10FE
331
CC8
  5
10F5
331
899
  5
8A3
331
1593
  5
1599
331
119D
  5
1210
331
114E
  5
1165
331
7B2
  5
7C1
331
10FF
  5
1105
331
159B
  5
15A4
331
1166
  5
116C
331
1284
  5
128B
331
116E
  5
1174
331
120D
  5
1218
331
128C
  5
157E
331
1176
  5
117C
331
18EE
  5
18F6
331
18F6
  5
1901
331
8A1
  5
8A7
331
1294
  5
1583
331
1215
  5
121D
331
1107
  5
110D
331
117E
  5
1184
331
852
  5
86F
331
121D
  5
1228
331
1186
  5
118C
331
110F
  5
1115
331
1584
  5
158A
331
158C
  5
1593
331
122D
  5
1234
331
79B
  5
79F
331
86A
  5
89A
331
10F8
  5
10FF
331
89A
  5
8A4
331
1594
  5
159A
331
7B3
  5
7C9
331
159C
  5
15A5
331
127D
  5
1288
331
1167
  5
116D
331
1285
  5
128C
331
116F
  5
1175
331
15A4
  5
168D
331
128D
  5
157F
331
1177
  5
117D
331
16F3
  5
177A
331
1907
  5
1908
331
CE1
  5
10F6
331
8A2
  5
8A8
331
1100
  5
1106
331
78C
  5
78F
331
1216
  5
121E
331
117F
  5
1185
331
1108
  5
110E
331
177A
  5
180A
331
853
  5
878
331
121E
  5
1229
331
1187
  5
118D
331
1110
  5
1116
331
1585
  5
158B
331
1226
  5
122D
331
158D
  5
1594
331
122E
  5
127F
331
1197
  5
119D
331
79C
  5
7A0
331
7A4
  5
7A9
331
10F9
  5
1100
331
1595
  5
159B
331
1160
  5
1166
331
159D
  5
15A6
331
1168
  5
116E
331
1286
  5
128D
331
1170
  5
1176
331
120F
  5
121A
331
15A5
  5
16A0
331
8A3
  5
8CE
331
78D
  5
791
331
1101
  5
1107
331
1178
  5
117E
331
1296
  5
1584
331
1217
  5
121F
331
795
  5
799
331
854
  5
899
331
1109
  5
110F
331
1180
  5
1186
331
180A
  5
1835
331
157E
  5
1585
331
1188
  5
118E
331
1111
  5
111A
331
1586
  5
158C
331
1227
  5
122E
331
1190
  5
1196
331
158E
  5
1595
331
122F
  5
1283
331
1908
  5
1909
331
79D
  5
7A1
331
7A5
  5
7B2
331
1198
  5
11A0
331
1596
  5
159C
331
11A0
  5
1212
331
1161
  5
1167
331
159E
  5
15C6
331
127F
  5
1289
331
1169
  5
116F
331
1287
  5
128E
331
1171
  5
1177
331
15A6
  5
16A1
331
8A4
  5
8F5
331
1179
  5
117F
331
78E
  5
797
331
1102
  5
1108
331
15C6
  5
16B8
331
1181
  5
1187
331
796
  5
79A
331
110A
  5
1110
331
157F
  5
1586
331
1220
  5
122A
331
1189
  5
118F
331
1112
  5
114E
331
171D
  5
17AD
331
1587
  5
158D
331
1228
  5
122F
331
1191
  5
1198
331
111A
  5
1164
331
1833
  5
18EE
331
1909
  5
790
331
79E
  5
7A2
331
91C
  5
CBA
331
10F3
  5
10F9
331
7A6
  5
7B3
331
C8C
  5
10F4
331
1230
  5
1284
331
10FB
  5
1101
331
1199
  5
11A1
331
1597
  5
159D
331
11A1
  5
1214
331
7B6
  5
805
331
1162
  5
1168
331
159F
  5
1617
331
116A
  5
1170
331
1288
  5
1291
331
1172
  5
1178
331
1939
  5
1938
331
8A5
  5
8F6
331
D34
  5
10F7
331
1290
  5
1580
331
117A
  5
1180
331
1103
  5
1109
331
1211
  5
121B
331
78F
  5
798
331
826
  5
86E
331
1219
  5
1221
331
1182
  5
1188
331
110B
  5
1111
331
797
  5
79B
331
1617
  5
16C9
331
1580
  5
1587
331
118A
  5
1190
331
1113
  5
1160
331
1588
  5
158E
331
1229
  5
1230
331
17AD
  5
1833
331
1912
  5
1911
331
79F
  5
7A3
331
91D
  5
CBB
331
7A7
  5
7B6
331
10F4
  5
10FB
331
1590
  5
1596
331
1231
  5
1285
331
119A
  5
11A2
331
10FC
  5
1102
331
1598
  5
159E
331
1163
  5
1169
331
7B7
  5
806
331
116B
  5
1171
331
15A0
  5
165F
331
1289
  5
1293
331
1173
  5
1179
331
1903
  5
1907
331
780
  5
785
331
8A6
  5
8F7
331
117B
  5
1181
331
1104
  5
110A
331
8CE
  5
C8C
331
121A
  5
1223
331
1183
  5
1189
331
110C
  5
1113
331
16A0
  5
16F3
331
1222
  5
122B
331
1114
  5
1161
331
118B
  5
1191
331
1589
  5
158F
331
122A
  5
1231
331
1193
  5
119A
331
16B8
  5
171D
331
191B
  5
191A
331
798
  5
79C
331
7A0
  5
7A4
331
86F
  5
8A1
331
7A8
  5
7B7
331
10F5
  5
10FC
331
1591
  5
1597
331
1232
  5
1286
331
119B
  5
120D
331
10FD
  5
1103
331
89F
  5
8A5
331
1599
  5
159F
331
1164
  5
116A
331
1747
  5
17D7
331
116C
  5
1172
331
128A
  5
1295
331
1174
  5
117A
  0
DIMASSOC
  5
16D7
102
{ACAD_REACTORS
330
16D6
102
}
330
16D6
100
AcDbDimAssoc
330
16C9
 90
        1
 70
     0
 71
     0
  1
AcDbOsnapPointRef
 72
    13
331
796
 73
     0
 91
        0
 40
0.0
 10
0.0
 20
0.0
 30
2.000000000000000E+50
 75
     0
  0
DIMASSOC
  5
1701
102
{ACAD_REACTORS
330
1700
102
}
330
1700
100
AcDbDimAssoc
330
16F3
 90
        1
 70
     0
 71
     0
  1
AcDbOsnapPointRef
 72
     1
331
15C6
 73
     0
 91
        0
 40
0.0
 10
0.0
 20
0.0
 30
2.000000000000000E+50
 75
     0
  0
DIMASSOC
  5
172B
102
{ACAD_REACTORS
330
172A
102
}
330
172A
100
AcDbDimAssoc
330
171D
 90
        3
 70
     0
 71
     0
  1
AcDbOsnapPointRef
 72
    13
331
796
 73
     0
 91
        0
 40
0.0
 10
0.0
 20
0.0
 30
2.000000000000000E+50
 75
     0
  1
AcDbOsnapPointRef
 72
     6
331
91C
 73
     0
 91
        0
 40
4.712388980384689
 10
0.0
 20
0.0
 30
0.0
332
10F3
 74
     0
 92
        0
 75
     0
  0
DIMASSOC
  5
1755
102
{ACAD_REACTORS
330
1754
102
}
330
1754
100
AcDbDimAssoc
330
1747
 90
        1
 70
     0
 71
     0
  1
AcDbOsnapPointRef
 72
     6
331
91C
 73
     0
 91
        0
 40
4.712388980384689
 10
0.0
 20
0.0
 30
0.0
332
10F3
 74
     0
 92
        0
 75
     0
  0
DIMASSOC
  5
1788
102
{ACAD_REACTORS
330
1787
102
}
330
1787
100
AcDbDimAssoc
330
177A
 90
        3
 70
     0
 71
     0
  1
AcDbOsnapPointRef
 72
    13
331
796
 73
     0
 91
        0
 40
0.0
 10
0.0
 20
0.0
 30
2.000000000000000E+50
 75
     0
  1
AcDbOsnapPointRef
 72
    13
331
7A5
 73
     0
 91
        0
 40
0.0
 10
0.0
 20
0.0
 30
2.000000000000000E+50
 75
     0
  0
DIMASSOC
  5
17BB
102
{ACAD_REACTORS
330
17BA
102
}
330
17BA
100
AcDbDimAssoc
330
17AD
 90
        3
 70
     0
 71
     0
  1
AcDbOsnapPointRef
 72
    13
331
7A5
 73
     0
 91
        0
 40
0.0
 10
0.0
 20
0.0
 30
2.000000000000000E+50
 75
     0
  1
AcDbOsnapPointRef
 72
     1
331
8A2
 73
     0
 91
        0
 40
0.0
 10
0.0
 20
0.0
 30
2.000000000000000E+50
 75
     0
  0
DIMASSOC
  5
17E5
102
{ACAD_REACTORS
330
17E4
102
}
330
17E4
100
AcDbDimAssoc
330
17D7
 90
        3
 70
     0
 71
     0
  1
AcDbOsnapPointRef
 72
    28
331
7C1
 73
     0
 91
        0
 40
0.0
 10
0.0
 20
0.0
 30
0.0
 75
     0
  1
AcDbOsnapPointRef
 72
     4
331
C8C
 73
     0
 91
        0
 40
0.0
 10
0.0
 20
0.0
 30
0.0
 75
     0
  0
DIMASSOC
  5
1818
102
{ACAD_REACTORS
330
1817
102
}
330
1817
100
AcDbDimAssoc
330
180A
 90
        3
 70
     0
 71
     0
  1
AcDbOsnapPointRef
 72
    13
331
1217
 73
     0
 91
        0
 40
0.0
 10
0.0
 20
0.0
 30
2.000000000000000E+50
 75
     0
  1
AcDbOsnapPointRef
 72
     1
331
1216
 73
     0
 91
        0
 40
0.0
 10
0.0
 20
0.0
 30
2.000000000000000E+50
 75
     0
  0
LAYOUT
  5
1E
102
{ACAD_XDICTIONARY
360
1986
102
}
102
{ACAD_REACTORS
330
1A
102
}
330
1A
100
AcDbPlotSettings
  1

  2

  4

  6

 40
0.0
 41
0.0
 42
0.0
 43
0.0
 44
0.0
 45
0.0
 46
0.0
 47
0.0
 48
0.0
 49
0.0
140
0.0
141
0.0
142
1.0
143
1.0
 70
   688
 72
     0
 73
     0
 74
     5
  7
monochrome.ctb
 75
    16
147
1.0
148
0.0
149
0.0
100
AcDbLayout
  1
Layout1
 70
     1
 71
     1
 10
0.0
 20
0.0
 11
420.0
 21
297.0
 12
0.0
 22
0.0
 32
0.0
 14
1.000000000000000E+20
 24
1.000000000000000E+20
 34
1.000000000000000E+20
 15
-1.000000000000000E+20
 25
-1.000000000000000E+20
 35
-1.000000000000000E+20
146
0.0
 13
0.0
 23
0.0
 33
0.0
 16
1.0
 26
0.0
 36
0.0
 17
0.0
 27
1.0
 37
0.0
 76
     0
330
1B
  0
LAYOUT
  5
26
102
{ACAD_XDICTIONARY
360
198A
102
}
102
{ACAD_REACTORS
330
1A
102
}
330
1A
100
AcDbPlotSettings
  1

  2

  4

  6

 40
0.0
 41
0.0
 42
0.0
 43
0.0
 44
0.0
 45
0.0
 46
0.0
 47
0.0
 48
0.0
 49
0.0
140
0.0
141
0.0
142
1.0
143
1.0
 70
   688
 72
     0
 73
     0
 74
     5
  7
monochrome.ctb
 75
    16
147
1.0
148
0.0
149
0.0
100
AcDbLayout
  1
Layout2
 70
     1
 71
     2
 10
0.0
 20
0.0
 11
12.0
 21
9.0
 12
0.0
 22
0.0
 32
0.0
 14
0.0
 24
0.0
 34
0.0
 15
0.0
 25
0.0
 35
0.0
146
0.0
 13
0.0
 23
0.0
 33
0.0
 16
1.0
 26
0.0
 36
0.0
 17
0.0
 27
1.0
 37
0.0
 76
     0
330
23
  0
LAYOUT
  5
22
102
{ACAD_XDICTIONARY
360
1988
102
}
102
{ACAD_REACTORS
330
1A
102
}
330
1A
100
AcDbPlotSettings
  1

  2
\\RD-SR-210\PH-PR-011
  4
A4
  6

 40
6.011333465576171
 41
4.233341693878173
 42
6.011322021484375
 43
4.23333740234375
 44
209.9733276367187
 45
296.9259948730469
 46
0.0
 47
0.0
 48
0.0
 49
0.0
140
0.0
141
0.0
142
1.0
143
9.212471017631347
 70
 11952
 72
     1
 73
     1
 74
     0
  7
monochrome.ctb
 75
     0
147
0.1085485097414302
148
-9.580780366809449
149
-280.054960950245
100
AcDbLayout
  1
Model
 70
     1
 71
     0
 10
0.0
 20
0.0
 11
12.0
 21
9.0
 12
0.0
 22
0.0
 32
0.0
 14
0.0
 24
0.0
 34
0.0
 15
0.0
 25
0.0
 35
0.0
146
0.0
 13
0.0
 23
0.0
 33
0.0
 16
1.0
 26
0.0
 36
0.0
 17
0.0
 27
1.0
 37
0.0
 76
     0
330
1F
1001
ACAD_PSEXT
1000
\\RD-SR-210\PH-PR-011
1000
HP LaserJet 4000 Series PCL 5e
1000
Betriebsrat, R.Deiss
1000
HP LaserJet 4000 series; Treiber HP LaserJet 4000 PCL 5e englisch;  Printserver: JetDirect-Eingebaut; WebManagment :OK
1070
     0
  0
MLINESTYLE
  5
18
102
{ACAD_REACTORS
330
17
102
}
330
17
100
AcDbMlineStyle
  2
STANDARD
 70
     0
  3

 62
   256
 51
90.0
 52
90.0
 71
     2
 49
0.5
 62
   256
  6
BYLAYER
 49
-0.5
 62
   256
  6
BYLAYER
  0
ACDBPLACEHOLDER
  5
F
102
{ACAD_REACTORS
330
E
102
}
330
E
  0
TABLESTYLE
  5
11B
102
{ACAD_REACTORS
330
11A
102
}
330
11A
100
AcDbTableStyle
  3
Standard
 70
     0
 71
     0
 40
1.5
 41
1.5
280
     0
281
     0
  7
STANDARD
140
4.5
170
     2
 62
     0
 63
     7
283
     0
274
    -2
284
     1
 64
     0
275
    -2
285
     1
 65
     0
276
    -2
286
     1
 66
     0
277
    -2
287
     1
 67
     0
278
    -2
288
     1
 68
     0
279
    -2
289
     1
 69
     0
  7
STANDARD
140
6.0
170
     5
 62
     0
 63
     7
283
     0
274
    -2
284
     1
 64
     0
275
    -2
285
     1
 65
     0
276
    -2
286
     1
 66
     0
277
    -2
287
     1
 67
     0
278
    -2
288
     1
 68
     0
279
    -2
289
     1
 69
     0
  7
STANDARD
140
4.5
170
     5
 62
     0
 63
     7
283
     0
274
    -2
284
     1
 64
     0
275
    -2
285
     1
 65
     0
276
    -2
286
     1
 66
     0
277
    -2
287
     1
 67
     0
278
    -2
288
     1
 68
     0
279
    -2
289
     1
 69
     0
  0
DICTIONARYVAR
  5
138
102
{ACAD_REACTORS
330
94
102
}
330
94
100
DictionaryVariables
280
     0
  1
STANDARD
  0
DICTIONARYVAR
  5
96
102
{ACAD_REACTORS
330
94
102
}
330
94
100
DictionaryVariables
280
     0
  1
2
  0
DICTIONARYVAR
  5
95
102
{ACAD_REACTORS
330
94
102
}
330
94
100
DictionaryVariables
280
     0
  1
0
  0
DICTIONARYVAR
  5
1982
102
{ACAD_REACTORS
330
94
102
}
330
94
100
DictionaryVariables
280
     0
  1

  0
DICTIONARY
  5
272
102
{ACAD_REACTORS
330
5B
102
}
330
5B
100
AcDbDictionary
281
     1
  0
DICTIONARY
  5
61
102
{ACAD_REACTORS
330
5B
102
}
330
5B
100
AcDbDictionary
281
     1
  0
XRECORD
  5
123
102
{ACAD_REACTORS
330
5B
102
}
330
5B
100
AcDbXrecord
280
     1
 90
-1023410169
  0
DICTIONARY
  5
1986
330
1E
100
AcDbDictionary
280
     1
281
     1
  3
ACAD_XREC_ROUNDTRIP
360
1987
  0
DICTIONARY
  5
198A
330
26
100
AcDbDictionary
280
     1
281
     1
  3
ACAD_XREC_ROUNDTRIP
360
198B
  0
DICTIONARY
  5
1988
330
22
100
AcDbDictionary
280
     1
281
     1
  3
ACAD_XREC_ROUNDTRIP
360
1989
  0
XRECORD
  5
1987
102
{ACAD_REACTORS
330
1986
102
}
330
1986
100
AcDbXrecord
280
     1
102
SHADEPLOT
 70
     0
102
SHADEPLOTRESLEVEL
 70
     2
102
SHADEPLOTCUSTOMDPI
 70
   300
  0
XRECORD
  5
198B
102
{ACAD_REACTORS
330
198A
102
}
330
198A
100
AcDbXrecord
280
     1
102
SHADEPLOT
 70
     0
102
SHADEPLOTRESLEVEL
 70
     2
102
SHADEPLOTCUSTOMDPI
 70
   300
  0
XRECORD
  5
1989
102
{ACAD_REACTORS
330
1988
102
}
330
1988
100
AcDbXrecord
280
     1
102
SHADEPLOT
 70
     0
102
SHADEPLOTRESLEVEL
 70
     2
102
SHADEPLOTCUSTOMDPI
 70
   300
  0
ENDSEC
  0
EOF
