  0
SECTION
  2
HEADER
  9
$ACADVER
  1
AC1015
  9
$ACADMAINTVER
 70
    20
  9
$DWGCODEPAGE
  3
ANSI_1252
  9
$INSBASE
 10
0.0
 20
0.0
 30
0.0
  9
$EXTMIN
 10
1318.780836550255
 20
864.4298782087025
 30
0.0
  9
$EXTMAX
 10
2033.085024534752
 20
1921.272043898276
 30
0.0
  9
$LIMMIN
 10
0.0
 20
0.0
  9
$LIMMAX
 10
420.0
 20
297.0
  9
$ORTHOMODE
 70
     0
  9
$REGENMODE
 70
     1
  9
$FILLMODE
 70
     1
  9
$QTEXTMODE
 70
     0
  9
$MIRRTEXT
 70
     1
  9
$LTSCALE
 40
1.0
  9
$ATTMODE
 70
     1
  9
$TEXTSIZE
 40
2.5
  9
$TRACEWID
 40
1.0
  9
$TEXTSTYLE
  7
STANDARD
  9
$CLAYER
  8
0
  9
$CELTYPE
  6
ByLayer
  9
$CECOLOR
 62
   256
  9
$CELTSCALE
 40
1.0
  9
$DISPSILH
 70
     0
  9
$DIMSCALE
 40
20.0
  9
$DIMASZ
 40
2.5
  9
$DIMEXO
 40
1.0
  9
$DIMDLI
 40
10.0
  9
$DIMRND
 40
0.0
  9
$DIMDLE
 40
0.0
  9
$DIMEXE
 40
1.0
  9
$DIMTP
 40
0.1
  9
$DIMTM
 40
0.1
  9
$DIMTXT
 40
3.5
  9
$DIMCEN
 40
0.0
  9
$DIMTSZ
 40
0.0
  9
$DIMTOL
 70
     0
  9
$DIMLIM
 70
     0
  9
$DIMTIH
 70
     0
  9
$DIMTOH
 70
     0
  9
$DIMSE1
 70
     0
  9
$DIMSE2
 70
     0
  9
$DIMTAD
 70
     1
  9
$DIMZIN
 70
     8
  9
$DIMBLK
  1

  9
$DIMASO
 70
     1
  9
$DIMSHO
 70
     1
  9
$DIMPOST
  1

  9
$DIMAPOST
  1
"
  9
$DIMALT
 70
     0
  9
$DIMALTD
 70
     2
  9
$DIMALTF
 40
0.0393701
  9
$DIMLFAC
 40
1.0
  9
$DIMTOFL
 70
     1
  9
$DIMTVP
 40
0.0
  9
$DIMTIX
 70
     0
  9
$DIMSOXD
 70
     0
  9
$DIMSAH
 70
     0
  9
$DIMBLK1
  1

  9
$DIMBLK2
  1

  9
$DIMSTYLE
  2
AM_ISO
  9
$DIMCLRD
 70
   256
  9
$DIMCLRE
 70
   256
  9
$DIMCLRT
 70
     2
  9
$DIMTFAC
 40
0.71
  9
$DIMGAP
 40
1.5
  9
$DIMJUST
 70
     0
  9
$DIMSD1
 70
     0
  9
$DIMSD2
 70
     0
  9
$DIMTOLJ
 70
     0
  9
$DIMTZIN
 70
     8
  9
$DIMALTZ
 70
     0
  9
$DIMALTTZ
 70
     0
  9
$DIMUPT
 70
     0
  9
$DIMDEC
 70
     0
  9
$DIMTDEC
 70
     0
  9
$DIMALTU
 70
     2
  9
$DIMALTTD
 70
     2
  9
$DIMTXSTY
  7
STANDARD
  9
$DIMAUNIT
 70
     0
  9
$DIMADEC
 70
     0
  9
$DIMALTRND
 40
0.0
  9
$DIMAZIN
 70
     2
  9
$DIMDSEP
 70
    46
  9
$DIMATFIT
 70
     3
  9
$DIMFRAC
 70
     0
  9
$DIMLDRBLK
  1

  9
$DIMLUNIT
 70
     2
  9
$DIMLWD
 70
    -1
  9
$DIMLWE
 70
    -1
  9
$DIMTMOVE
 70
     0
  9
$LUNITS
 70
     2
  9
$LUPREC
 70
     2
  9
$SKETCHINC
 40
1.0
  9
$FILLETRAD
 40
2.5
  9
$AUNITS
 70
     0
  9
$AUPREC
 70
     0
  9
$MENU
  1
.
  9
$ELEVATION
 40
0.0
  9
$PELEVATION
 40
0.0
  9
$THICKNESS
 40
0.0
  9
$LIMCHECK
 70
     0
  9
$CHAMFERA
 40
2.5
  9
$CHAMFERB
 40
2.5
  9
$CHAMFERC
 40
20.0
  9
$CHAMFERD
 40
0.0
  9
$SKPOLY
 70
     0
  9
$TDCREATE
 40
2454068.354968299
  9
$TDUCREATE
 40
2454068.313301632
  9
$TDUPDATE
 40
2454087.929927303
  9
$TDUUPDATE
 40
2454087.888260637
  9
$TDINDWG
 40
0.0739187500
  9
$TDUSRTIMER
 40
0.0739187500
  9
$USRTIMER
 70
     1
  9
$ANGBASE
 50
0.0
  9
$ANGDIR
 70
     0
  9
$PDMODE
 70
     0
  9
$PDSIZE
 40
0.0
  9
$PLINEWID
 40
0.0
  9
$SPLFRAME
 70
     0
  9
$SPLINETYPE
 70
     6
  9
$SPLINESEGS
 70
     8
  9
$HANDSEED
  5
1505
  9
$SURFTAB1
 70
     6
  9
$SURFTAB2
 70
     6
  9
$SURFTYPE
 70
     6
  9
$SURFU
 70
     6
  9
$SURFV
 70
     6
  9
$UCSBASE
  2

  9
$UCSNAME
  2

  9
$UCSORG
 10
0.0
 20
0.0
 30
0.0
  9
$UCSXDIR
 10
1.0
 20
0.0
 30
0.0
  9
$UCSYDIR
 10
0.0
 20
1.0
 30
0.0
  9
$UCSORTHOREF
  2

  9
$UCSORTHOVIEW
 70
     0
  9
$UCSORGTOP
 10
0.0
 20
0.0
 30
0.0
  9
$UCSORGBOTTOM
 10
0.0
 20
0.0
 30
0.0
  9
$UCSORGLEFT
 10
0.0
 20
0.0
 30
0.0
  9
$UCSORGRIGHT
 10
0.0
 20
0.0
 30
0.0
  9
$UCSORGFRONT
 10
0.0
 20
0.0
 30
0.0
  9
$UCSORGBACK
 10
0.0
 20
0.0
 30
0.0
  9
$PUCSBASE
  2

  9
$PUCSNAME
  2

  9
$PUCSORG
 10
0.0
 20
0.0
 30
0.0
  9
$PUCSXDIR
 10
1.0
 20
0.0
 30
0.0
  9
$PUCSYDIR
 10
0.0
 20
1.0
 30
0.0
  9
$PUCSORTHOREF
  2

  9
$PUCSORTHOVIEW
 70
     0
  9
$PUCSORGTOP
 10
0.0
 20
0.0
 30
0.0
  9
$PUCSORGBOTTOM
 10
0.0
 20
0.0
 30
0.0
  9
$PUCSORGLEFT
 10
0.0
 20
0.0
 30
0.0
  9
$PUCSORGRIGHT
 10
0.0
 20
0.0
 30
0.0
  9
$PUCSORGFRONT
 10
0.0
 20
0.0
 30
0.0
  9
$PUCSORGBACK
 10
0.0
 20
0.0
 30
0.0
  9
$USERI1
 70
     0
  9
$USERI2
 70
     0
  9
$USERI3
 70
     0
  9
$USERI4
 70
     0
  9
$USERI5
 70
     0
  9
$USERR1
 40
0.0
  9
$USERR2
 40
0.0
  9
$USERR3
 40
0.0
  9
$USERR4
 40
0.0
  9
$USERR5
 40
0.0
  9
$WORLDVIEW
 70
     1
  9
$SHADEDGE
 70
     3
  9
$SHADEDIF
 70
    70
  9
$TILEMODE
 70
     1
  9
$MAXACTVP
 70
    64
  9
$PINSBASE
 10
0.0
 20
0.0
 30
0.0
  9
$PLIMCHECK
 70
     0
  9
$PEXTMIN
 10
1.000000000000000E+20
 20
1.000000000000000E+20
 30
1.000000000000000E+20
  9
$PEXTMAX
 10
-1.000000000000000E+20
 20
-1.000000000000000E+20
 30
-1.000000000000000E+20
  9
$PLIMMIN
 10
0.0
 20
0.0
  9
$PLIMMAX
 10
420.0
 20
297.0
  9
$UNITMODE
 70
     0
  9
$VISRETAIN
 70
     1
  9
$PLINEGEN
 70
     0
  9
$PSLTSCALE
 70
     1
  9
$TREEDEPTH
 70
  3020
  9
$CMLSTYLE
  2
Standard
  9
$CMLJUST
 70
     0
  9
$CMLSCALE
 40
20.0
  9
$PROXYGRAPHICS
 70
     1
  9
$MEASUREMENT
 70
     1
  9
$CELWEIGHT
370
    -1
  9
$ENDCAPS
280
     0
  9
$JOINSTYLE
280
     0
  9
$LWDISPLAY
290
     0
  9
$INSUNITS
 70
     4
  9
$HYPERLINKBASE
  1

  9
$STYLESHEET
  1
monochrome.ctb
  9
$XEDIT
290
     1
  9
$CEPSNTYPE
380
     0
  9
$PSTYLEMODE
290
     1
  9
$FINGERPRINTGUID
  2
{615B3B60-2813-4500-8AA2-C3537592B826}
  9
$VERSIONGUID
  2
{1B81799C-DC6B-4028-B279-838069AE6EB1}
  9
$EXTNAMES
290
     1
  9
$PSVPSCALE
 40
0.0
  9
$OLESTARTUP
290
     0
  0
ENDSEC
  0
SECTION
  2
CLASSES
  0
CLASS
  1
ACDBDICTIONARYWDFLT
  2
AcDbDictionaryWithDefault
  3
ObjectDBX Classes
 90
        0
280
     0
281
     0
  0
CLASS
  1
ACDBPLACEHOLDER
  2
AcDbPlaceHolder
  3
ObjectDBX Classes
 90
        0
280
     0
281
     0
  0
CLASS
  1
LAYOUT
  2
AcDbLayout
  3
ObjectDBX Classes
 90
        0
280
     0
281
     0
  0
CLASS
  1
ACME_DOCUMENT
  2
AcMeDbDoc
  3
AcMeServices
 90
        0
280
     0
281
     0
  0
CLASS
  1
AMGSETTINGSOBJ
  2
AmgSettingsObj
  3
"AcadM|Product Description: AutoCAD Mechanical 2000|Company: Autodesk"
 90
        0
280
     0
281
     0
  0
CLASS
  1
ACMESCOPE
  2
AcMeScope
  3
AcMeServices
 90
        0
280
     0
281
     0
  0
CLASS
  1
ACMECOMMANDHISTORY
  2
AcMeCommandHistory
  3
AcMeServices
 90
        0
280
     0
281
     0
  0
CLASS
  1
ACIMSYSVARMAN
  2
AcImSysVarManager
  3
AcMeServices
 90
        0
280
     0
281
     0
  0
CLASS
  1
ACIMREALSYSVAR
  2
AcImRealSysVar
  3
AcMeServices
 90
        0
280
     0
281
     0
  0
CLASS
  1
ACIMINTSYSVAR
  2
AcImIntSysVar
  3
AcMeServices
 90
        0
280
     0
281
     0
  0
CLASS
  1
ACMEDRAWINGMAN
  2
AcMeDrawingMan
  3
AcMeServices
 90
        0
280
     0
281
     0
  0
CLASS
  1
ACMEVIEW
  2
AcMeView
  3
AcMeServices
 90
        0
280
     0
281
     0
  0
CLASS
  1
ACDBENTITYCACHE
  2
AcMeEntityCache
  3
AcMeServices
 90
        0
280
     0
281
     0
  0
CLASS
  1
GSMANAGER
  2
AcMeGSManager
  3
AcMeServices
 90
        0
280
     0
281
     0
  0
CLASS
  1
AMDTINTERNALREACTOR
  2
AmdtInternalReactor
  3
AcMeServices
 90
        0
280
     0
281
     0
  0
CLASS
  1
ACMESTATEMGR
  2
AcMeStateMgr
  3
AcMeServices
 90
        0
280
     0
281
     0
  0
CLASS
  1
ACGREFMASTER
  2
AcGrefMaster
  3
AcAttribServices
 90
        0
280
     0
281
     0
  0
CLASS
  1
ACME_DATABASE
  2
AcMeDbDatabase
  3
AcMeServices
 90
        0
280
     0
281
     0
  0
CLASS
  1
ACRFINSADJUSTERMGR
  2
AcRfInsAdjusterMgr
  3
AcMeServices
 90
        0
280
     0
281
     0
  0
CLASS
  1
ACGREFACADMASTER
  2
AcGrefacadMaster
  3
AcGrefServices
 90
        0
280
     0
281
     0
  0
CLASS
  1
AMIMASTER
  2
AmiMaster
  3
AmiServices
 90
        0
280
     0
281
     0
  0
CLASS
  1
ACMDATADICTIONARY
  2
AcmDataDictionary
  3
"AcmSymBB|Product Description: AutoCAD Mechanical 2004 DX|Company: Autodesk"
 90
        0
280
     0
281
     0
  0
CLASS
  1
ACMDATAENTRYBLOCK
  2
AcmDataEntryBlock
  3
"AcmSymBB|Product Description: AutoCAD Mechanical 2004 DX|Company: Autodesk"
 90
        0
280
     0
281
     0
  0
CLASS
  1
ACIMSTRSYSVAR
  2
AcImStrSysVar
  3
AcMeServices
 90
        0
280
     0
281
     0
  0
CLASS
  1
ACMSTANDARDISO
  2
AcmStandardISO
  3
"Amdt_StdImp|Product Description: AutoCAD Mechanical 2004 DX|Company: Autodesk"
 90
        0
280
     0
281
     0
  0
CLASS
  1
AMGOBJPROPCFG
  2
AmgObjPropCfg
  3
"AmgLay|Product Description: AutoCAD Mechanical 2000|Company: Autodesk"
 90
        1
280
     0
281
     0
  0
CLASS
  1
AMDTEDGESTANDARDISO
  2
AmdtEdgeStdISO
  3
"Amdt_StdImp|Product Description: AutoCAD Mechanical 2004 DX|Company: Autodesk"
 90
        0
280
     0
281
     0
  0
CLASS
  1
ACMSURFSTANDARDISO
  2
AcmSurfTextStdISO
  3
"Amdt_StdImp|Product Description: AutoCAD Mechanical 2004 DX|Company: Autodesk"
 90
        0
280
     0
281
     0
  0
CLASS
  1
ACMFCFSTANDARDISO
  2
AcmFCFStdISO
  3
"Amdt_StdImp|Product Description: AutoCAD Mechanical 2004 DX|Company: Autodesk"
 90
        0
280
     0
281
     0
  0
CLASS
  1
ACMWELDSTANDARDISO
  2
AcmWeldingStdISO
  3
"Amdt_StdImp|Product Description: AutoCAD Mechanical 2004 DX|Company: Autodesk"
 90
        0
280
     0
281
     0
  0
CLASS
  1
ACMIDSTANDARDISO
  2
AcmIdStdISO
  3
"Amdt_StdImp|Product Description: AutoCAD Mechanical 2004 DX|Company: Autodesk"
 90
        0
280
     0
281
     0
  0
CLASS
  1
ACMDATUMSTANDARDISO
  2
AcmDatumStdISO
  3
"Amdt_StdImp|Product Description: AutoCAD Mechanical 2004 DX|Company: Autodesk"
 90
        0
280
     0
281
     0
  0
CLASS
  1
ACMBOMSTANDARDISO
  2
AcmBOMStdISO
  3
"Amdt_StdImp|Product Description: AutoCAD Mechanical 2004 DX|Company: Autodesk"
 90
        0
280
     0
281
     0
  0
CLASS
  1
ACMDETAILSTANDARDISO
  2
AmdtDetailSymStdISO
  3
"Amdt_StdImp|Product Description: AutoCAD Mechanical 2004 DX|Company: Autodesk"
 90
        0
280
     0
281
     0
  0
CLASS
  1
ACMSECTIONSTANDARDISO
  2
AmdtSectionSymStdISO
  3
"Amdt_StdImp|Product Description: AutoCAD Mechanical 2004 DX|Company: Autodesk"
 90
        0
280
     0
281
     0
  0
CLASS
  1
ACMCENTERLINESTANDARDISO
  2
AmdtCenterLineStdISO
  3
"Amdt_StdImp|Product Description: AutoCAD Mechanical 2004 DX|Company: Autodesk"
 90
        0
280
     0
281
     0
  0
CLASS
  1
ACMNOTESTANDARDISO
  2
AmdtNoteStdISO
  3
"Amdt_StdImp|Product Description: AutoCAD Mechanical 2004 DX|Company: Autodesk"
 90
        0
280
     0
281
     0
  0
CLASS
  1
ACAMGLAYSTD
  2
AcAmgLayStd
  3
"AcAmgLayStd|Product Description: AutoCAD Mechanical 2000|Company: Autodesk"
 90
        0
280
     0
281
     0
  0
CLASS
  1
ACAMGDIMSTD
  2
AcAmgDimStd
  3
"AcAmgDimStd|Product Description: AutoCAD Mechanical 2000|Company: Autodesk"
 90
        0
280
     0
281
     0
  0
CLASS
  1
ACAMGHOLECHARTSTDISO
  2
AcAmgHoleChartStdISO
  3
ACMSYMBB_MODULE_NAME
 90
        0
280
     0
281
     0
  0
CLASS
  1
ACAMGTITLESTD
  2
AcAmgTitleStd
  3
"TITLEAPP"
 90
        0
280
     0
281
     0
  0
CLASS
  1
LAYER_INDEX
  2
AcDbLayerIndex
  3
ObjectDBX Classes
 90
    32768
280
     0
281
     0
  0
CLASS
  1
IDBUFFER
  2
AcDbIdBuffer
  3
ObjectDBX Classes
 90
    32768
280
     0
281
     0
  0
CLASS
  1
DICTIONARYVAR
  2
AcDbDictionaryVar
  3
ObjectDBX Classes
 90
        0
280
     0
281
     0
  0
CLASS
  1
AM_DRAWING_MGR
  2
AcDmDwgMgr
  3
AcMechDwgViewMgmt
 90
        0
280
     0
281
     0
  0
CLASS
  1
AM_DWG_DOCUMENT
  2
AcDmDwgDocument
  3
AcMechDwgViewMgmt
 90
        0
280
     0
281
     0
  0
CLASS
  1
AM_DWG_SHEET
  2
AcDmSheet
  3
AcMechDwgViewMgmt
 90
        0
280
     0
281
     0
  0
CLASS
  1
AM_VIEWDIMPARMAP
  2
AcDmViewDimParMap
  3
AcMechDwgViewMgmt
 90
        0
280
     0
281
     0
  0
CLASS
  1
AM_DWGMGR_NAME
  2
AcDmDwgMgrName
  3
AcMechDwgViewMgmt
 90
        0
280
     0
281
     0
  0
CLASS
  1
AMDTMENUSTATEMGR
  2
AmdtMenuStateMgr
  3
McadcomServices
 90
        0
280
     0
281
     0
  0
CLASS
  1
AMDTMCOMMENUSTATE
  2
AmdtMcomMenuState
  3
McadcomServices
 90
        0
280
     0
281
     0
  0
CLASS
  1
MAPIAMMOUDLE
  2
MApiAmModule
  3
MApiAmServices
 90
        0
280
     0
281
     0
  0
CLASS
  1
AMDTADMENUSTATE
  2
AmdtAdMenuState
  3
DesignerServices
 90
        0
280
     0
281
     0
  0
CLASS
  1
ADAPPL
  2
AcAdAppl
  3
DesignerServices
 90
        0
280
     0
281
     0
  0
CLASS
  1
DEPMGR
  2
AcAdDepMgr
  3
DesignerServices
 90
        0
280
     0
281
     0
  0
CLASS
  1
PARAMMGR
  2
AcAdParamMgr
  3
DesignerServices
 90
        0
280
     0
281
     0
  0
CLASS
  1
PARAMSCOPE
  2
AcAdParamScope
  3
DesignerServices
 90
        0
280
     0
281
     0
  0
CLASS
  1
NAMEDAPPL
  2
AcAdNamedAppl
  3
DesignerServices
 90
        0
280
     0
281
     0
  0
CLASS
  1
AMDTDMMENUSTATE
  2
AmdtDmMenuState
  3
AcMechDwgViewMgmt
 90
        0
280
     0
281
     0
  0
CLASS
  1
AMDTAMMENUSTATE
  2
AmdtAmMenuState
  3
DesignerAssemblies
 90
        0
280
     0
281
     0
  0
CLASS
  1
ACAMPROJECT
  2
AcAmProject
  3
DesignerAssemblies
 90
        0
280
     0
281
     0
  0
CLASS
  1
ACAMGRCOMPDEF
  2
AcAmGrCompDef
  3
DesignerAssemblies
 90
        0
280
     0
281
     0
  0
CLASS
  1
ACCMCONTEXT
  2
AcCmContext
  3
DesignerAssemblies
 90
        0
280
     0
281
     0
  0
CLASS
  1
ACAMCOMPDEF
  2
AcAmCompDef
  3
DesignerAssemblies
 90
        0
280
     0
281
     0
  0
CLASS
  1
ACAMCOMPDEFMGR
  2
AcAmCompDefMgr
  3
DesignerAssemblies
 90
        0
280
     0
281
     0
  0
CLASS
  1
AMCONTEXTMGR
  2
AcAmContextMgr
  3
DesignerAssemblies
 90
        0
280
     0
281
     0
  0
CLASS
  1
ACAMCONTEXTMODELER
  2
AcAmContextModeler
  3
DesignerAssemblies
 90
        0
280
     0
281
     0
  0
CLASS
  1
ACMTHREADLINESTANDARDISO
  2
AmdtThreadLineStdISO
  3
"Amdt_StdImp|Product Description: AutoCAD Mechanical 2004 DX|Company: Autodesk"
 90
        0
280
     0
281
     0
  0
CLASS
  1
CATALOGSTATE
  2
AcAmCatalogState
  3
DesignerAssemblies
 90
        0
280
     0
281
     0
  0
CLASS
  1
ACAMGRCOMPDEFSET
  2
AcAmGrCompDefSet
  3
DesignerAssemblies
 90
        0
280
     0
281
     0
  0
CLASS
  1
AMDTBROWSERDBTAB
  2
AmdtBrowserDbTab
  3
McadcomServices
 90
        0
280
     0
281
     0
  0
CLASS
  1
CBROWSERAPPOBJECT
  2
CBrowserAppObject
  3
McadcomServices
 90
        0
280
     0
281
     0
  0
CLASS
  1
DM_PLACEHOLDER
  2
AcDmSelsetPlaceholder
  3
AcMechDwgViewMgmt
 90
        0
280
     0
281
     0
  0
CLASS
  1
TABLESTYLE
  2
AcDbTableStyle
  3
ObjectDBX Classes
 90
     2047
280
     0
281
     0
  0
CLASS
  1
VAACXREFPANELOBJECT
  2
VaAcXREFPanelObject
  3
VAAC_ADDIN
 90
    32768
280
     0
281
     0
  0
CLASS
  1
VAACIMAGEINVENTORY
  2
VaAcImageInventory
  3
VAAC_ADDIN
 90
    32768
280
     0
281
     0
  0
CLASS
  1
AMDTNOTETEMPLATEDB
  2
AmdtNoteTemplateDB
  3
AMDT_STDIMP_MODULE_NAME
 90
        0
280
     0
281
     0
  0
CLASS
  1
ACAMGFILTERDAT
  2
AcAmgFilterDat
  3
"AcadM|Product Description: AutoCAD Mechanical 2000|Company: Autodesk"
 90
        0
280
     0
281
     0
  0
CLASS
  1
ACMBOM
  2
AcmBom
  3
"AcmSymBB|Product Description: AutoCAD Mechanical 2004 DX|Company: Autodesk"
 90
    32768
280
     0
281
     0
  0
CLASS
  1
AMDTFORMULAUPDATEDISPATCHER
  2
AmdtFormulaUpdateDispatcher
  3
AcMeServices
 90
    32768
280
     0
281
     0
  0
CLASS
  1
DIMASSOC
  2
AcDbDimAssoc
  3
"AcDbDimAssoc|Product Desc:     AcDim ARX App For Dimension|Company:          Autodesk, Inc.|WEB Address:      www.autodesk.com"
 90
        0
280
     0
281
     0
  0
CLASS
  1
ACMSTANDARDANSI
  2
AcmStandardANSI
  3
"Amdt_StdImp|Product Description: AutoCAD Mechanical 2004 DX|Company: Autodesk"
 90
        0
280
     0
281
     0
  0
CLASS
  1
ACMSURFSTANDARDANSI
  2
AcmSurfTextStdANSI
  3
"Amdt_StdImp|Product Description: AutoCAD Mechanical 2004 DX|Company: Autodesk"
 90
        0
280
     0
281
     0
  0
CLASS
  1
ACMFCFSTANDARDANSI
  2
AcmFCFStdANSI
  3
"Amdt_StdImp|Product Description: AutoCAD Mechanical 2004 DX|Company: Autodesk"
 90
        0
280
     0
281
     0
  0
CLASS
  1
ACMWELDSTANDARDANSI
  2
AcmWeldingStdANSI
  3
"Amdt_StdImp|Product Description: AutoCAD Mechanical 2004 DX|Company: Autodesk"
 90
        0
280
     0
281
     0
  0
CLASS
  1
ACMIDSTANDARDANSI
  2
AcmIdStdANSI
  3
"Amdt_StdImp|Product Description: AutoCAD Mechanical 2004 DX|Company: Autodesk"
 90
        0
280
     0
281
     0
  0
CLASS
  1
ACMDATUMSTANDARDANSI
  2
AcmDatumStdANSI
  3
"Amdt_StdImp|Product Description: AutoCAD Mechanical 2004 DX|Company: Autodesk"
 90
        0
280
     0
281
     0
  0
CLASS
  1
ACMBOMSTANDARDANSI
  2
AcmBOMStdANSI
  3
"Amdt_StdImp|Product Description: AutoCAD Mechanical 2004 DX|Company: Autodesk"
 90
        0
280
     0
281
     0
  0
CLASS
  1
ACMDETAILSTANDARDANSI
  2
AmdtDetailSymStdANSI
  3
"Amdt_StdImp|Product Description: AutoCAD Mechanical 2004 DX|Company: Autodesk"
 90
        0
280
     0
281
     0
  0
CLASS
  1
ACMSECTIONSTANDARDANSI
  2
AmdtSectionSymStdANSI
  3
"Amdt_StdImp|Product Description: AutoCAD Mechanical 2004 DX|Company: Autodesk"
 90
        0
280
     0
281
     0
  0
CLASS
  1
ACMCENTERLINESTANDARDANSI
  2
AmdtCenterLineStdANSI
  3
"Amdt_StdImp|Product Description: AutoCAD Mechanical 2004 DX|Company: Autodesk"
 90
        0
280
     0
281
     0
  0
CLASS
  1
ACMTHREADLINESTANDARDANSI
  2
AmdtThreadLineStdANSI
  3
"Amdt_StdImp|Product Description: AutoCAD Mechanical 2004 DX|Company: Autodesk"
 90
        0
280
     0
281
     0
  0
CLASS
  1
ACMNOTESTANDARDANSI
  2
AmdtNoteStdANSI
  3
"Amdt_StdImp|Product Description: AutoCAD Mechanical 2004 DX|Company: Autodesk"
 90
        0
280
     0
281
     0
  0
CLASS
  1
ACAMGHOLECHARTSTDANSI
  2
AcAmgHoleChartStdANSI
  3
ACMSYMBB_MODULE_NAME
 90
        0
280
     0
281
     0
  0
CLASS
  1
SORTENTSTABLE
  2
AcDbSortentsTable
  3
ObjectDBX Classes
 90
        0
280
     0
281
     0
  0
ENDSEC
  0
SECTION
  2
TABLES
  0
TABLE
  2
VPORT
  5
8
330
0
100
AcDbSymbolTable
 70
     4
  0
VPORT
  5
14FC
330
8
100
AcDbSymbolTableRecord
100
AcDbViewportTableRecord
  2
*Active
 70
     0
 10
0.0
 20
0.0
 11
1.0
 21
1.0
 12
1675.94245372846
 22
1507.730068615539
 13
0.0
 23
0.0
 14
2.5
 24
2.5
 15
10.0
 25
10.0
 16
0.0
 26
0.0
 36
1.0
 17
0.0
 27
0.0
 37
0.0
 40
1299.874133911735
 41
1.494545454545454
 42
50.0
 43
0.0
 44
0.0
 50
0.0
 51
0.0
 71
     0
 72
   100
 73
     1
 74
     3
 75
     0
 76
     0
 77
     0
 78
     0
281
     0
 65
     1
110
0.0
120
0.0
130
0.0
111
1.0
121
0.0
131
0.0
112
0.0
122
1.0
132
0.0
 79
     0
146
0.0
  0
ENDTAB
  0
TABLE
  2
LTYPE
  5
5
330
0
100
AcDbSymbolTable
 70
    16
  0
LTYPE
  5
14
330
5
100
AcDbSymbolTableRecord
100
AcDbLinetypeTableRecord
  2
ByBlock
 70
     0
  3

 72
    65
 73
     0
 40
0.0
  0
LTYPE
  5
15
330
5
100
AcDbSymbolTableRecord
100
AcDbLinetypeTableRecord
  2
ByLayer
 70
     0
  3

 72
    65
 73
     0
 40
0.0
  0
LTYPE
  5
16
330
5
100
AcDbSymbolTableRecord
100
AcDbLinetypeTableRecord
  2
Continuous
 70
     0
  3
Solid line
 72
    65
 73
     0
 40
0.0
  0
LTYPE
  5
64
330
5
100
AcDbSymbolTableRecord
100
AcDbLinetypeTableRecord
  2
AM_ISO02W050
 70
     0
  3
__ __ __ __ __ __ __ __ __ __ __ __ __ __ __
 72
    65
 73
     2
 40
7.5
 49
6.0
 74
     0
 49
-1.5
 74
     0
  0
LTYPE
  5
65
330
5
100
AcDbSymbolTableRecord
100
AcDbLinetypeTableRecord
  2
AM_ISO08W050
 70
     0
  3
____ . ____ . ____ . ____ . ____ . ____ . ____
 72
    65
 73
     4
 40
18.0
 49
12.0
 74
     0
 49
-1.5
 74
     0
 49
3.0
 74
     0
 49
-1.5
 74
     0
  0
LTYPE
  5
66
330
5
100
AcDbSymbolTableRecord
100
AcDbLinetypeTableRecord
  2
AM_ISO09W050
 70
     0
  3
_____ . . _____ . . _____ . . ____ .. ____
 72
    65
 73
     6
 40
22.5
 49
12.0
 74
     0
 49
-1.5
 74
     0
 49
3.0
 74
     0
 49
-1.5
 74
     0
 49
3.0
 74
     0
 49
-1.5
 74
     0
  0
LTYPE
  5
67
330
5
100
AcDbSymbolTableRecord
100
AcDbLinetypeTableRecord
  2
Amconstr
 70
     0
  3
_______________________
 72
    65
 73
     2
 40
9999.0
 49
9999.0
 74
     0
 49
0.0
 74
     0
  0
LTYPE
  5
68
330
5
100
AcDbSymbolTableRecord
100
AcDbLinetypeTableRecord
  2
AM_ISO08W050x2
 70
     0
  3
__ . __ . __ . __ . __ . __
 72
    65
 73
     4
 40
9.0
 49
6.0
 74
     0
 49
-0.75
 74
     0
 49
1.5
 74
     0
 49
-0.75
 74
     0
  0
LTYPE
  5
69
330
5
100
AcDbSymbolTableRecord
100
AcDbLinetypeTableRecord
  2
AM_ISO02W050x2
 70
     0
  3
 _ _ _ _ _ _ _ _ _ _ _ _
 72
    65
 73
     2
 40
3.75
 49
3.0
 74
     0
 49
-0.75
 74
     0
  0
LTYPE
  5
6C
330
5
100
AcDbSymbolTableRecord
100
AcDbLinetypeTableRecord
  2
Amzigzag
 70
     0
  3
/\/-/\/-/\/-/\/-/\/-/\/
 72
    65
 73
     2
 40
11.0001
 49
0.0001
 74
     4
 75
   136
340
22C
 46
0.04
 50
0.0
 44
0.0
 45
0.0
 49
-11.0
 74
     0
  0
LTYPE
  5
7A
330
5
100
AcDbSymbolTableRecord
100
AcDbLinetypeTableRecord
  2
ACISOWELD
 70
     0
  3
_ _ _ _ _
 72
    65
 73
     2
 40
2.0
 49
2.0
 74
     0
 49
-1.0
 74
     0
  0
LTYPE
  5
7B
330
5
100
AcDbSymbolTableRecord
100
AcDbLinetypeTableRecord
  2
ACISOTGB
 70
     0
  3
__ . . __ . .
 72
    65
 73
     6
 40
9.0
 49
4.0
 74
     0
 49
-1.0
 74
     0
 49
1.0
 74
     0
 49
-1.0
 74
     0
 49
1.0
 74
     0
 49
-1.0
 74
     0
  0
LTYPE
  5
7C
330
5
100
AcDbSymbolTableRecord
100
AcDbLinetypeTableRecord
  2
ACISOTGL
 70
     0
  3
_ _ _ _ _
 72
    65
 73
     2
 40
3.0
 49
2.0
 74
     0
 49
-1.0
 74
     0
  0
LTYPE
  5
7E
330
5
100
AcDbSymbolTableRecord
100
AcDbLinetypeTableRecord
  2
CENTER
 70
     0
  3
__ . __
 72
    65
 73
     4
 40
7.0
 49
4.0
 74
     0
 49
-1.0
 74
     0
 49
1.0
 74
     0
 49
-1.0
 74
     0
  0
LTYPE
  5
D8
330
5
100
AcDbSymbolTableRecord
100
AcDbLinetypeTableRecord
  2
HIDDEN
 70
     0
  3
Hidden __ __ __ __ __ __ __ __ __ __ __ __ __ _
 72
    65
 73
     2
 40
9.524999999999998
 49
6.349999999999999
 74
     0
 49
-3.174999999999999
 74
     0
  0
LTYPE
  5
D9
330
5
100
AcDbSymbolTableRecord
100
AcDbLinetypeTableRecord
  2
PHANTOM2
 70
     0
  3
Phantom (.5x) ___ _ _ ___ _ _ ___ _ _ ___ _ _
 72
    65
 73
     6
 40
31.75
 49
15.875
 74
     0
 49
-3.174999999999999
 74
     0
 49
3.174999999999999
 74
     0
 49
-3.174999999999999
 74
     0
 49
3.174999999999999
 74
     0
 49
-3.174999999999999
 74
     0
  0
LTYPE
  5
4CF
330
5
100
AcDbSymbolTableRecord
100
AcDbLinetypeTableRecord
  2
ACANSTGB
 70
     0
  3
__ . . __ . .
 72
    65
 73
     6
 40
0.35433070866
 49
0.15748031496
 74
     0
 49
-0.03937007874
 74
     0
 49
0.03937007874
 74
     0
 49
-0.03937007874
 74
     0
 49
0.03937007874
 74
     0
 49
-0.03937007874
 74
     0
  0
LTYPE
  5
4D0
330
5
100
AcDbSymbolTableRecord
100
AcDbLinetypeTableRecord
  2
ACANSTGL
 70
     0
  3
_ _ _ _ _
 72
    65
 73
     2
 40
0.11811023622
 49
0.07874015748
 74
     0
 49
-0.03937007874
 74
     0
  0
ENDTAB
  0
TABLE
  2
LAYER
  5
2
102
{ACAD_XDICTIONARY
360
100C
102
}
330
0
100
AcDbSymbolTable
 70
     7
  0
LAYER
  5
10
330
2
100
AcDbSymbolTableRecord
100
AcDbLayerTableRecord
  2
0
 70
     0
 62
     7
  6
Continuous
370
    -3
390
F
  0
LAYER
  5
4D1
330
2
100
AcDbSymbolTableRecord
100
AcDbLayerTableRecord
  2
Defpoints
 70
     0
 62
     7
  6
Continuous
290
     0
370
    -3
390
F
  0
LAYER
  5
4D4
330
2
100
AcDbSymbolTableRecord
100
AcDbLayerTableRecord
  2
6
 70
     0
 62
     2
  6
Continuous
370
    -3
390
F
  0
LAYER
  5
4D6
330
2
100
AcDbSymbolTableRecord
100
AcDbLayerTableRecord
  2
8
 70
     0
 62
     1
  6
Continuous
370
    -3
390
F
  0
LAYER
  5
AE4
330
2
100
AcDbSymbolTableRecord
100
AcDbLayerTableRecord
  2
AM_7
 70
     0
 62
     4
  6
AM_ISO08W050
370
    25
390
F
1001
AcAecLayerStandard
1000

1000

  0
LAYER
  5
D71
330
2
100
AcDbSymbolTableRecord
100
AcDbLayerTableRecord
  2
AM_5
 70
     0
 62
     3
  6
Continuous
370
    25
390
F
1001
AcAecLayerStandard
1000

1000

  0
LAYER
  5
1011
330
2
100
AcDbSymbolTableRecord
100
AcDbLayerTableRecord
  2
AM_8
 70
     0
 62
     1
  6
Continuous
370
    25
390
F
1001
AcAecLayerStandard
1000

1000

  0
ENDTAB
  0
TABLE
  2
STYLE
  5
3
330
0
100
AcDbSymbolTable
 70
     6
  0
STYLE
  5
11
330
3
100
AcDbSymbolTableRecord
100
AcDbTextStyleTableRecord
  2
STANDARD
 70
     0
 40
0.0
 41
1.0
 50
0.0
 71
     0
 42
2.5
  3
ISOCP.SHX
  4

  0
STYLE
  5
6D
330
3
100
AcDbSymbolTableRecord
100
AcDbTextStyleTableRecord
  2
ACISOTS
 70
     0
 40
1.0
 41
1.0
 50
0.0
 71
     0
 42
2.5
  3
isocp.shx
  4
bigfont.shx
  0
STYLE
  5
79
330
3
100
AcDbSymbolTableRecord
100
AcDbTextStyleTableRecord
  2
ACISOGDT
 70
     0
 40
0.0
 41
1.0
 50
0.0
 71
     0
 42
2.5
  3
AMGDT
  4
bigfont.shx
  0
STYLE
  5
22C
330
3
100
AcDbSymbolTableRecord
100
AcDbTextStyleTableRecord
  2

 70
     1
 40
0.0
 41
1.0
 50
0.0
 71
     0
 42
2.5
  3
genltshp.shx
  4

  0
STYLE
  5
4DA
330
3
100
AcDbSymbolTableRecord
100
AcDbTextStyleTableRecord
  2
ACANSTS
 70
     0
 40
1.0
 41
1.0
 50
0.0
 71
     0
 42
3.5
  3
romans.shx
  4

  0
STYLE
  5
4DB
330
3
100
AcDbSymbolTableRecord
100
AcDbTextStyleTableRecord
  2
ACANSGDT
 70
     0
 40
0.0
 41
1.0
 50
0.0
 71
     0
 42
3.5
  3
amgdt.shx
  4

  0
ENDTAB
  0
TABLE
  2
VIEW
  5
6
330
0
100
AcDbSymbolTable
 70
     0
  0
ENDTAB
  0
TABLE
  2
UCS
  5
7
330
0
100
AcDbSymbolTable
 70
     0
  0
ENDTAB
  0
TABLE
  2
APPID
  5
9
330
0
100
AcDbSymbolTable
 70
    28
  0
APPID
  5
12
330
9
100
AcDbSymbolTableRecord
100
AcDbRegAppTableRecord
  2
ACAD
 70
     0
  0
APPID
  5
46
330
9
100
AcDbSymbolTableRecord
100
AcDbRegAppTableRecord
  2
MCAD_NO_VIS
 70
     0
  0
APPID
  5
47
330
9
100
AcDbSymbolTableRecord
100
AcDbRegAppTableRecord
  2
ACAD_TEMP_GRAPHIC
 70
     0
  0
APPID
  5
58
330
9
100
AcDbSymbolTableRecord
100
AcDbRegAppTableRecord
  2
ACATTRIBSERVICES
 70
     0
  0
APPID
  5
EE
330
9
100
AcDbSymbolTableRecord
100
AcDbRegAppTableRecord
  2
AD_DRAW
 70
     0
  0
APPID
  5
10C
330
9
100
AcDbSymbolTableRecord
100
AcDbRegAppTableRecord
  2
DESIGNERASSEMBLIES
 70
     0
  0
APPID
  5
111
330
9
100
AcDbSymbolTableRecord
100
AcDbRegAppTableRecord
  2
ACADM_DIM_EDIT
 70
     0
  0
APPID
  5
112
330
9
100
AcDbSymbolTableRecord
100
AcDbRegAppTableRecord
  2
AMDT_DM_ADJ
 70
     0
  0
APPID
  5
1A3
330
9
100
AcDbSymbolTableRecord
100
AcDbRegAppTableRecord
  2
ACAD_DSTYLE_DIMARC_LENGTH_SYMBOL
 70
     0
  0
APPID
  5
1A4
330
9
100
AcDbSymbolTableRecord
100
AcDbRegAppTableRecord
  2
ACAD_DSTYLE_DIMJOGGED_JOGANGLE_SYMBOL
 70
     0
  0
APPID
  5
AE5
330
9
100
AcDbSymbolTableRecord
100
AcDbRegAppTableRecord
  2
AcAecLayerStandard
 70
     0
  0
APPID
  5
AE6
330
9
100
AcDbSymbolTableRecord
100
AcDbRegAppTableRecord
  2
GENIUS_GENODEF_13
 70
     0
  0
APPID
  5
AE7
330
9
100
AcDbSymbolTableRecord
100
AcDbRegAppTableRecord
  2
GENIUS_GENOBJ-N-CEN_13
 70
     0
  0
APPID
  5
AE8
330
9
100
AcDbSymbolTableRecord
100
AcDbRegAppTableRecord
  2
GENIUS_GENCEN_19
 70
     0
  0
APPID
  5
EB0
330
9
100
AcDbSymbolTableRecord
100
AcDbRegAppTableRecord
  2
ACAD_EXEMPT_FROM_CAD_STANDARDS
 70
     0
  0
APPID
  5
ECA
330
9
100
AcDbSymbolTableRecord
100
AcDbRegAppTableRecord
  2
GENIUS_GENOENT_13
 70
     0
  0
APPID
  5
ECB
330
9
100
AcDbSymbolTableRecord
100
AcDbRegAppTableRecord
  2
GENIUS_GENOLIS_13
 70
     0
  0
APPID
  5
ECC
330
9
100
AcDbSymbolTableRecord
100
AcDbRegAppTableRecord
  2
GENIUS_GENOBJ-N-CRS_13
 70
     0
  0
APPID
  5
ECD
330
9
100
AcDbSymbolTableRecord
100
AcDbRegAppTableRecord
  2
GENIUS_GENOREF_13
 70
     0
  0
APPID
  5
1012
330
9
100
AcDbSymbolTableRecord
100
AcDbRegAppTableRecord
  2
GENIUS_GENOBJ-N-HTC_13
 70
     0
  0
APPID
  5
1013
330
9
100
AcDbSymbolTableRecord
100
AcDbRegAppTableRecord
  2
GENIUS_GENHATCH_13
 70
     0
  0
APPID
  5
1018
330
9
100
AcDbSymbolTableRecord
100
AcDbRegAppTableRecord
  2
ACAD_PSEXT
 70
     0
  0
APPID
  5
1042
330
9
100
AcDbSymbolTableRecord
100
AcDbRegAppTableRecord
  2
ACAD_DSTYLE_DIMTEXT_FILL
 70
     0
  0
APPID
  5
1043
330
9
100
AcDbSymbolTableRecord
100
AcDbRegAppTableRecord
  2
ACAD_DSTYLE_DIMEXT_LENGTH
 70
     0
  0
APPID
  5
1044
330
9
100
AcDbSymbolTableRecord
100
AcDbRegAppTableRecord
  2
ACAD_DSTYLE_DIMEXT_ENABLED
 70
     0
  0
APPID
  5
1045
330
9
100
AcDbSymbolTableRecord
100
AcDbRegAppTableRecord
  2
ACAD_DSTYLE_DIM_LINETYPE
 70
     0
  0
APPID
  5
1046
330
9
100
AcDbSymbolTableRecord
100
AcDbRegAppTableRecord
  2
ACAD_DSTYLE_DIM_EXT1_LINETYPE
 70
     0
  0
APPID
  5
1047
330
9
100
AcDbSymbolTableRecord
100
AcDbRegAppTableRecord
  2
ACAD_DSTYLE_DIM_EXT2_LINETYPE
 70
     0
  0
ENDTAB
  0
TABLE
  2
DIMSTYLE
  5
A
330
0
100
AcDbSymbolTable
 70
    14
100
AcDbDimStyleTable
 71
     1
340
81
  0
DIMSTYLE
105
81
330
A
100
AcDbSymbolTableRecord
100
AcDbDimStyleTableRecord
  2
AM_ISO
 70
     0
  4
"
 41
2.5
 42
1.0
 43
10.0
 44
1.0
 47
0.1
 48
0.1
 73
     0
 74
     0
 77
     1
 78
     8
 79
     2
140
3.5
141
0.0
143
0.0393701
146
0.71
147
1.5
172
     1
176
   256
177
   256
178
     2
271
     2
272
     2
283
     0
284
     8
340
11
371
    -1
372
    -1
1001
ACAD_DSTYLE_DIMEXT_LENGTH
1070
   378
1040
1.0
1001
ACAD_DSTYLE_DIMEXT_ENABLED
1070
   383
1070
     0
1001
ACAD_DSTYLE_DIMARC_LENGTH_SYMBOL
1070
   379
1070
     1
1001
ACAD_DSTYLE_DIMJOGGED_JOGANGLE_SYMBOL
1070
   384
1040
0.7853981633974483
  0
DIMSTYLE
105
82
330
A
100
AcDbSymbolTableRecord
100
AcDbDimStyleTableRecord
  2
AM_ISO$3
 70
     0
  4
"
 41
2.5
 42
1.0
 43
10.0
 44
1.0
 47
0.1
 48
0.1
 73
     0
 77
     1
 78
     8
 79
     2
140
3.5
141
0.0
143
0.0393701
146
0.71
147
1.5
176
   256
177
   256
178
     2
271
     2
272
     2
283
     0
284
     8
288
     1
289
     0
340
11
371
    -1
372
    -1
1001
ACAD_DSTYLE_DIMARC_LENGTH_SYMBOL
1070
   379
1070
     1
1001
ACAD_DSTYLE_DIMJOGGED_JOGANGLE_SYMBOL
1070
   384
1040
0.7853981633974483
  0
DIMSTYLE
105
83
330
A
100
AcDbSymbolTableRecord
100
AcDbDimStyleTableRecord
  2
AM_ISO$4
 70
     0
  4
"
 41
2.5
 42
1.0
 43
10.0
 44
1.0
 47
0.1
 48
0.1
 73
     0
 77
     1
 78
     8
 79
     2
140
3.5
141
0.0
143
0.0393701
146
0.71
147
1.5
176
   256
177
   256
178
     2
271
     2
272
     2
283
     0
284
     8
288
     1
289
     0
340
11
371
    -1
372
    -1
1001
ACAD_DSTYLE_DIMARC_LENGTH_SYMBOL
1070
   379
1070
     1
1001
ACAD_DSTYLE_DIMJOGGED_JOGANGLE_SYMBOL
1070
   384
1040
0.7853981633974483
  0
DIMSTYLE
105
84
330
A
100
AcDbSymbolTableRecord
100
AcDbDimStyleTableRecord
  2
AM_ISO$6
 70
     0
  4
"
 41
2.5
 42
1.0
 43
10.0
 44
1.0
 47
0.1
 48
0.1
 73
     0
 74
     0
 78
     8
 79
     2
140
3.5
141
0.0
143
0.0393701
146
0.71
147
1.5
172
     1
176
   256
177
   256
178
     2
271
     2
272
     2
283
     0
284
     8
340
11
371
    -1
372
    -1
1001
ACAD_DSTYLE_DIMARC_LENGTH_SYMBOL
1070
   379
1070
     1
1001
ACAD_DSTYLE_DIMJOGGED_JOGANGLE_SYMBOL
1070
   384
1040
0.7853981633974483
  0
DIMSTYLE
105
85
330
A
100
AcDbSymbolTableRecord
100
AcDbDimStyleTableRecord
  2
AM_ISO$7
 70
     0
  4
"
 41
2.5
 42
1.0
 43
10.0
 44
1.0
 47
0.1
 48
0.1
 73
     0
 74
     0
 77
     1
 78
     8
 79
     2
140
5.0
141
0.0
143
0.0393701
146
0.71
147
1.5
172
     1
176
   256
177
   256
178
     2
271
     2
272
     2
283
     0
284
     8
340
11
371
    -1
372
    -1
1001
ACAD_DSTYLE_DIMARC_LENGTH_SYMBOL
1070
   379
1070
     1
1001
ACAD_DSTYLE_DIMJOGGED_JOGANGLE_SYMBOL
1070
   384
1040
0.7853981633974483
  0
DIMSTYLE
105
86
330
A
100
AcDbSymbolTableRecord
100
AcDbDimStyleTableRecord
  2
AM_ISO$SF
 70
     0
  4
"
 41
2.5
 42
1.0
 43
10.0
 44
1.0
 47
0.1
 48
0.1
 73
     0
 74
     0
 75
     1
 76
     1
 77
     1
 78
     8
 79
     2
140
3.5
141
0.0
143
0.0393701
146
0.71
147
1.5
172
     1
176
   256
177
   256
178
     2
271
     2
272
     3
274
     4
283
     0
284
     8
340
11
371
    -1
372
    -1
1001
ACAD_DSTYLE_DIMARC_LENGTH_SYMBOL
1070
   379
1070
     1
1001
ACAD_DSTYLE_DIMJOGGED_JOGANGLE_SYMBOL
1070
   384
1040
0.7853981633974483
  0
DIMSTYLE
105
8B
330
A
100
AcDbSymbolTableRecord
100
AcDbDimStyleTableRecord
  2
AM_ISO$SH
 70
     0
  4
"
 41
2.5
 42
1.0
 43
10.0
 44
1.0
 47
0.1
 48
0.1
 73
     0
 74
     0
 75
     1
 76
     1
 77
     1
 78
     8
 79
     2
140
3.5
141
0.0
143
0.0393701
144
2.0
146
0.71
147
1.5
172
     1
173
     1
176
   256
177
   256
178
     2
271
     2
272
     3
274
     4
283
     0
284
     8
340
11
343
87
371
    -1
372
    -1
1001
ACAD_DSTYLE_DIMARC_LENGTH_SYMBOL
1070
   379
1070
     1
1001
ACAD_DSTYLE_DIMJOGGED_JOGANGLE_SYMBOL
1070
   384
1040
0.7853981633974483
  0
DIMSTYLE
105
4E1
330
A
100
AcDbSymbolTableRecord
100
AcDbDimStyleTableRecord
  2
AM_ANSI
 70
     0
  4
mm
 41
0.1
 42
0.05
 43
0.5
 44
0.1
 47
0.1
 48
0.1
 78
     7
 79
     2
140
0.12
141
0.0
146
0.71
147
0.06
176
   256
177
   256
178
     2
274
     4
284
     7
340
11
371
    -1
372
    -1
1001
ACAD_DSTYLE_DIMARC_LENGTH_SYMBOL
1070
   379
1070
     1
1001
ACAD_DSTYLE_DIMJOGGED_JOGANGLE_SYMBOL
1070
   384
1040
0.7853981633974483
  0
DIMSTYLE
105
4E2
330
A
100
AcDbSymbolTableRecord
100
AcDbDimStyleTableRecord
  2
AM_ANSI$3
 70
     0
  4
mm
 41
0.1
 42
0.05
 43
0.5
 44
0.1
 47
0.1
 48
0.1
 78
     7
 79
     2
140
0.12
141
0.0
146
0.71
147
0.06
176
   256
177
   256
178
     2
274
     4
284
     7
288
     1
289
     0
340
11
371
    -1
372
    -1
1001
ACAD_DSTYLE_DIMARC_LENGTH_SYMBOL
1070
   379
1070
     1
1001
ACAD_DSTYLE_DIMJOGGED_JOGANGLE_SYMBOL
1070
   384
1040
0.7853981633974483
  0
DIMSTYLE
105
4E3
330
A
100
AcDbSymbolTableRecord
100
AcDbDimStyleTableRecord
  2
AM_ANSI$4
 70
     0
  4
mm
 41
0.1
 42
0.05
 43
0.5
 44
0.1
 47
0.1
 48
0.1
 78
     7
 79
     2
140
0.12
141
0.0
146
0.71
147
0.06
176
   256
177
   256
178
     2
274
     4
284
     7
288
     1
289
     0
340
11
371
    -1
372
    -1
1001
ACAD_DSTYLE_DIMARC_LENGTH_SYMBOL
1070
   379
1070
     1
1001
ACAD_DSTYLE_DIMJOGGED_JOGANGLE_SYMBOL
1070
   384
1040
0.7853981633974483
  0
DIMSTYLE
105
4E4
330
A
100
AcDbSymbolTableRecord
100
AcDbDimStyleTableRecord
  2
AM_ANSI$7
 70
     0
  4
mm
 41
0.1
 42
0.05
 43
0.5
 44
0.1
 47
0.1
 48
0.1
 78
     7
 79
     2
140
0.24
141
0.0
146
0.71
147
0.06
176
   256
177
   256
178
     2
274
     4
284
     7
340
11
371
    -1
372
    -1
1001
ACAD_DSTYLE_DIMARC_LENGTH_SYMBOL
1070
   379
1070
     1
1001
ACAD_DSTYLE_DIMJOGGED_JOGANGLE_SYMBOL
1070
   384
1040
0.7853981633974483
  0
DIMSTYLE
105
4E5
330
A
100
AcDbSymbolTableRecord
100
AcDbDimStyleTableRecord
  2
AM_ANSI$SF
 70
     0
  4
mm
 41
0.1
 42
0.05
 43
0.5
 44
0.1
 47
0.1
 48
0.1
 75
     1
 76
     1
 78
     7
 79
     2
140
0.12
141
0.0
146
0.71
147
0.06
176
   256
177
   256
178
     2
274
     4
284
     7
340
11
371
    -1
372
    -1
1001
ACAD_DSTYLE_DIMARC_LENGTH_SYMBOL
1070
   379
1070
     1
1001
ACAD_DSTYLE_DIMJOGGED_JOGANGLE_SYMBOL
1070
   384
1040
0.7853981633974483
  0
DIMSTYLE
105
4E6
330
A
100
AcDbSymbolTableRecord
100
AcDbDimStyleTableRecord
  2
AM_ANSI$SH
 70
     0
  4
mm
 41
0.1
 42
0.05
 43
0.5
 44
0.1
 47
0.1
 48
0.1
 75
     1
 76
     1
 78
     7
 79
     2
140
0.12
141
0.0
146
0.71
147
0.06
173
     1
176
   256
177
   256
178
     2
274
     4
284
     7
340
11
343
87
371
    -1
372
    -1
1001
ACAD_DSTYLE_DIMARC_LENGTH_SYMBOL
1070
   379
1070
     1
1001
ACAD_DSTYLE_DIMJOGGED_JOGANGLE_SYMBOL
1070
   384
1040
0.7853981633974483
  0
DIMSTYLE
105
D7D
102
{ACAD_REACTORS
330
E15
330
DB4
330
D81
330
E93
330
E42
330
DDE
330
EF6
330
F29
102
}
330
A
100
AcDbSymbolTableRecord
100
AcDbDimStyleTableRecord
  2
AM_ISO$0
 70
     0
  4
"
 41
2.5
 42
1.0
 43
10.0
 44
1.0
 47
0.1
 48
0.1
 73
     0
 74
     0
 77
     1
 78
     8
 79
     2
140
3.5
141
0.0
143
0.0393701
146
0.71
147
1.5
172
     1
176
   256
177
   256
178
     2
271
     2
272
     2
283
     0
284
     8
340
11
371
    -1
372
    -1
1001
ACAD_DSTYLE_DIMARC_LENGTH_SYMBOL
1070
   379
1070
     1
1001
ACAD_DSTYLE_DIMJOGGED_JOGANGLE_SYMBOL
1070
   384
1040
0.7853981633974483
  0
ENDTAB
  0
TABLE
  2
BLOCK_RECORD
  5
1
330
0
100
AcDbSymbolTable
 70
    11
  0
BLOCK_RECORD
  5
1F
102
{ACAD_XDICTIONARY
360
8F
102
}
330
1
100
AcDbSymbolTableRecord
100
AcDbBlockTableRecord
  2
*Model_Space
340
22
  0
BLOCK_RECORD
  5
1B
330
1
100
AcDbSymbolTableRecord
100
AcDbBlockTableRecord
  2
*Paper_Space
340
1E
  0
BLOCK_RECORD
  5
23
330
1
100
AcDbSymbolTableRecord
100
AcDbBlockTableRecord
  2
*Paper_Space0
340
26
  0
BLOCK_RECORD
  5
87
330
1
100
AcDbSymbolTableRecord
100
AcDbBlockTableRecord
  2
GENAXEH
340
0
  0
BLOCK_RECORD
  5
D82
330
1
100
AcDbSymbolTableRecord
100
AcDbBlockTableRecord
  2
*D3
340
0
  0
BLOCK_RECORD
  5
DB5
330
1
100
AcDbSymbolTableRecord
100
AcDbBlockTableRecord
  2
*D4
340
0
  0
BLOCK_RECORD
  5
DDF
330
1
100
AcDbSymbolTableRecord
100
AcDbBlockTableRecord
  2
*D5
340
0
  0
BLOCK_RECORD
  5
E16
330
1
100
AcDbSymbolTableRecord
100
AcDbBlockTableRecord
  2
*D6
340
0
  0
BLOCK_RECORD
  5
E43
330
1
100
AcDbSymbolTableRecord
100
AcDbBlockTableRecord
  2
*D7
340
0
  0
BLOCK_RECORD
  5
E94
330
1
100
AcDbSymbolTableRecord
100
AcDbBlockTableRecord
  2
*D8
340
0
  0
BLOCK_RECORD
  5
EF7
330
1
100
AcDbSymbolTableRecord
100
AcDbBlockTableRecord
  2
*D9
340
0
  0
BLOCK_RECORD
  5
F2A
330
1
100
AcDbSymbolTableRecord
100
AcDbBlockTableRecord
  2
*D10
340
0
  0
ENDTAB
  0
ENDSEC
  0
SECTION
  2
BLOCKS
  0
BLOCK
  5
20
330
1F
100
AcDbEntity
  8
0
100
AcDbBlockBegin
  2
*Model_Space
 70
     0
 10
0.0
 20
0.0
 30
0.0
  3
*Model_Space
  1

  0
ENDBLK
  5
21
330
1F
100
AcDbEntity
  8
0
100
AcDbBlockEnd
  0
BLOCK
  5
1C
330
1B
100
AcDbEntity
 67
     1
  8
0
100
AcDbBlockBegin
  2
*Paper_Space
 70
     0
 10
0.0
 20
0.0
 30
0.0
  3
*Paper_Space
  1

  0
ENDBLK
  5
1D
330
1B
100
AcDbEntity
 67
     1
  8
0
100
AcDbBlockEnd
  0
BLOCK
  5
24
330
23
100
AcDbEntity
 67
     1
  8
0
100
AcDbBlockBegin
  2
*Paper_Space0
 70
     0
 10
0.0
 20
0.0
 30
0.0
  3
*Paper_Space0
  1

  0
ENDBLK
  5
25
330
23
100
AcDbEntity
 67
     1
  8
0
100
AcDbBlockEnd
  0
BLOCK
  5
89
330
87
100
AcDbEntity
  8
0
100
AcDbBlockBegin
  2
GENAXEH
 70
     0
 10
0.0
 20
0.0
 30
0.0
  3
GENAXEH
  1

  0
LINE
  5
88
330
87
100
AcDbEntity
  8
0
100
AcDbLine
 10
-1.0
 20
0.0
 30
0.0
 11
1.0
 21
0.0
 31
0.0
  0
ENDBLK
  5
8A
330
87
100
AcDbEntity
  8
0
100
AcDbBlockEnd
  0
BLOCK
  5
D8C
330
D82
100
AcDbEntity
  8
0
100
AcDbBlockBegin
  2
*D3
 70
     1
 10
0.0
 20
0.0
 30
0.0
  3
*D3
  1

  0
LINE
  5
147B
330
D82
100
AcDbEntity
  8
AM_5
100
AcDbLine
 10
1524.496882097434
 20
1881.249213917239
 30
0.0
 11
1524.496882097434
 21
1912.772043898276
 31
0.0
  0
LINE
  5
147C
330
D82
100
AcDbEntity
  8
AM_5
100
AcDbLine
 10
1794.496882097434
 20
1881.249213917239
 30
0.0
 11
1794.496882097434
 21
1912.772043898276
 31
0.0
  0
LINE
  5
147D
330
D82
100
AcDbEntity
  8
AM_5
100
AcDbLine
 10
1526.996882097434
 20
1911.772043898276
 30
0.0
 11
1791.996882097434
 21
1911.772043898276
 31
0.0
  0
SOLID
  5
147E
330
D82
100
AcDbEntity
  8
AM_5
100
AcDbTrace
 10
1526.996882097434
 20
1912.188710564943
 30
0.0
 11
1526.996882097434
 21
1911.355377231609
 31
0.0
 12
1524.496882097434
 22
1911.772043898276
 32
0.0
 13
1524.496882097434
 23
1911.772043898276
 33
0.0
  0
SOLID
  5
147F
330
D82
100
AcDbEntity
  8
AM_5
100
AcDbTrace
 10
1791.996882097434
 20
1912.188710564943
 30
0.0
 11
1791.996882097434
 21
1911.355377231609
 31
0.0
 12
1794.496882097434
 22
1911.772043898276
 32
0.0
 13
1794.496882097434
 23
1911.772043898276
 33
0.0
  0
MTEXT
  5
1480
330
D82
100
AcDbEntity
  8
AM_5
 62
     2
100
AcDbMText
 10
1659.496882097434
 20
1917.27283129985
 30
0.0
 40
8.0
 41
0.0
 71
     5
 72
     1
  1
%%c270
 73
     1
 44
1.0
1001
ACAD
1000
MTEXTBEGIN
1070
    73
1070
     1
1070
    44
1040
1.0
1070
    74
1070
     0
1000
MTEXTEND
  0
POINT
  5
1481
330
D82
100
AcDbEntity
  8
Defpoints
 62
     0
100
AcDbPoint
 10
1524.496882097434
 20
1880.249213917238
 30
0.0
  0
POINT
  5
1482
330
D82
100
AcDbEntity
  8
Defpoints
 62
     0
100
AcDbPoint
 10
1794.496882097434
 20
1880.249213917238
 30
0.0
  0
POINT
  5
1483
330
D82
100
AcDbEntity
  8
Defpoints
 62
     0
100
AcDbPoint
 10
1794.496882097434
 20
1911.772043898276
 30
0.0
  0
ENDBLK
  5
D8D
330
D82
100
AcDbEntity
  8
0
100
AcDbBlockEnd
  0
BLOCK
  5
DBF
330
DB5
100
AcDbEntity
  8
0
100
AcDbBlockBegin
  2
*D4
 70
     1
 10
0.0
 20
0.0
 30
0.0
  3
*D4
  1

  0
LINE
  5
1472
330
DB5
100
AcDbEntity
  8
AM_5
100
AcDbLine
 10
1523.496882097434
 20
1880.249213917238
 30
0.0
 11
1399.020334425806
 21
1880.249213917238
 31
0.0
  0
LINE
  5
1473
330
DB5
100
AcDbEntity
  8
AM_5
100
AcDbLine
 10
1476.665847292277
 20
1800.249213917238
 30
0.0
 11
1399.020334425806
 21
1800.249213917238
 31
0.0
  0
LINE
  5
1474
330
DB5
100
AcDbEntity
  8
AM_5
100
AcDbLine
 10
1400.020334425806
 20
1877.749213917239
 30
0.0
 11
1400.020334425806
 21
1802.749213917239
 31
0.0
  0
SOLID
  5
1475
330
DB5
100
AcDbEntity
  8
AM_5
100
AcDbTrace
 10
1399.603667759139
 20
1877.749213917239
 30
0.0
 11
1400.437001092473
 21
1877.749213917239
 31
0.0
 12
1400.020334425806
 22
1880.249213917238
 32
0.0
 13
1400.020334425806
 23
1880.249213917238
 33
0.0
  0
SOLID
  5
1476
330
DB5
100
AcDbEntity
  8
AM_5
100
AcDbTrace
 10
1399.603667759139
 20
1802.749213917239
 30
0.0
 11
1400.437001092473
 21
1802.749213917239
 31
0.0
 12
1400.020334425806
 22
1800.249213917238
 32
0.0
 13
1400.020334425806
 23
1800.249213917238
 33
0.0
  0
MTEXT
  5
1477
330
DB5
100
AcDbEntity
  8
AM_5
 62
     2
100
AcDbMText
 10
1394.520334425806
 20
1840.249213917239
 30
0.0
 40
8.0
 41
0.0
 71
     5
 72
     1
  1
80
 11
0.0000000000000001
 21
1.0
 31
0.0
 73
     1
 44
1.0
1001
ACAD
1000
MTEXTBEGIN
1070
    73
1070
     1
1070
    44
1040
1.0
1070
    74
1070
     0
1000
MTEXTEND
  0
POINT
  5
1478
330
DB5
100
AcDbEntity
  8
Defpoints
 62
     0
100
AcDbPoint
 10
1524.496882097434
 20
1880.249213917238
 30
0.0
  0
POINT
  5
1479
330
DB5
100
AcDbEntity
  8
Defpoints
 62
     0
100
AcDbPoint
 10
1477.665847292277
 20
1800.249213917238
 30
0.0
  0
POINT
  5
147A
330
DB5
100
AcDbEntity
  8
Defpoints
 62
     0
100
AcDbPoint
 10
1400.020334425806
 20
1800.249213917238
 30
0.0
  0
ENDBLK
  5
DC0
330
DB5
100
AcDbEntity
  8
0
100
AcDbBlockEnd
  0
BLOCK
  5
DE9
330
DDF
100
AcDbEntity
  8
0
100
AcDbBlockBegin
  2
*D5
 70
     1
 10
0.0
 20
0.0
 30
0.0
  3
*D5
  1

  0
LINE
  5
1496
330
DDF
100
AcDbEntity
  8
AM_5
100
AcDbLine
 10
1725.996882097434
 20
1675.249213917238
 30
0.0
 11
1502.388883946469
 21
1675.249213917238
 31
0.0
  0
LINE
  5
1497
330
DDF
100
AcDbEntity
  8
AM_5
100
AcDbLine
 10
1779.815557609733
 20
1735.201595764583
 30
0.0
 11
1502.388883946469
 21
1735.201595764583
 31
0.0
  0
LINE
  5
1498
330
DDF
100
AcDbEntity
  8
AM_5
100
AcDbLine
 10
1503.388883946469
 20
1677.749213917238
 30
0.0
 11
1503.388883946469
 21
1732.701595764583
 31
0.0
  0
SOLID
  5
1499
330
DDF
100
AcDbEntity
  8
AM_5
100
AcDbTrace
 10
1502.972217279802
 20
1677.749213917238
 30
0.0
 11
1503.805550613136
 21
1677.749213917238
 31
0.0
 12
1503.388883946469
 22
1675.249213917238
 32
0.0
 13
1503.388883946469
 23
1675.249213917238
 33
0.0
  0
SOLID
  5
149A
330
DDF
100
AcDbEntity
  8
AM_5
100
AcDbTrace
 10
1502.972217279802
 20
1732.701595764583
 30
0.0
 11
1503.805550613136
 21
1732.701595764583
 31
0.0
 12
1503.388883946469
 22
1735.201595764583
 32
0.0
 13
1503.388883946469
 23
1735.201595764583
 33
0.0
  0
MTEXT
  5
149B
330
DDF
100
AcDbEntity
  8
AM_5
 62
     2
100
AcDbMText
 10
1497.888883946468
 20
1705.225404840911
 30
0.0
 40
8.0
 41
0.0
 71
     5
 72
     1
  1
60
 11
0.0000000000000001
 21
1.0
 31
0.0
 73
     1
 44
1.0
1001
ACAD
1000
MTEXTBEGIN
1070
    73
1070
     1
1070
    44
1040
1.0
1070
    74
1070
     0
1000
MTEXTEND
  0
POINT
  5
149C
330
DDF
100
AcDbEntity
  8
Defpoints
 62
     0
100
AcDbPoint
 10
1726.996882097434
 20
1675.249213917238
 30
0.0
  0
POINT
  5
149D
330
DDF
100
AcDbEntity
  8
Defpoints
 62
     0
100
AcDbPoint
 10
1780.815557609733
 20
1735.201595764583
 30
0.0
  0
POINT
  5
149E
330
DDF
100
AcDbEntity
  8
Defpoints
 62
     0
100
AcDbPoint
 10
1503.388883946469
 20
1735.201595764583
 30
0.0
  0
ENDBLK
  5
DEA
330
DDF
100
AcDbEntity
  8
0
100
AcDbBlockEnd
  0
BLOCK
  5
E20
330
E16
100
AcDbEntity
  8
0
100
AcDbBlockBegin
  2
*D6
 70
     1
 10
0.0
 20
0.0
 30
0.0
  3
*D6
  1

  0
LINE
  5
1469
330
E16
100
AcDbEntity
  8
AM_5
100
AcDbLine
 10
1523.496882097434
 20
1880.249213917238
 30
0.0
 11
1327.280836550255
 21
1880.249213917238
 31
0.0
  0
LINE
  5
146A
330
E16
100
AcDbEntity
  8
AM_5
100
AcDbLine
 10
1658.496882097434
 20
1610.249213917239
 30
0.0
 11
1327.280836550255
 21
1610.249213917239
 31
0.0
  0
LINE
  5
146B
330
E16
100
AcDbEntity
  8
AM_5
100
AcDbLine
 10
1328.280836550255
 20
1877.749213917239
 30
0.0
 11
1328.280836550255
 21
1612.749213917239
 31
0.0
  0
SOLID
  5
146C
330
E16
100
AcDbEntity
  8
AM_5
100
AcDbTrace
 10
1327.864169883589
 20
1877.749213917239
 30
0.0
 11
1328.697503216922
 21
1877.749213917239
 31
0.0
 12
1328.280836550255
 22
1880.249213917238
 32
0.0
 13
1328.280836550255
 23
1880.249213917238
 33
0.0
  0
SOLID
  5
146D
330
E16
100
AcDbEntity
  8
AM_5
100
AcDbTrace
 10
1327.864169883589
 20
1612.749213917239
 30
0.0
 11
1328.697503216922
 21
1612.749213917239
 31
0.0
 12
1328.280836550255
 22
1610.249213917239
 32
0.0
 13
1328.280836550255
 23
1610.249213917239
 33
0.0
  0
MTEXT
  5
146E
330
E16
100
AcDbEntity
  8
AM_5
 62
     2
100
AcDbMText
 10
1322.78004914868
 20
1745.249213917239
 30
0.0
 40
8.0
 41
0.0
 71
     5
 72
     1
  1
270
 11
0.0000000000000001
 21
1.0
 31
0.0
 73
     1
 44
1.0
1001
ACAD
1000
MTEXTBEGIN
1070
    73
1070
     1
1070
    44
1040
1.0
1070
    74
1070
     0
1000
MTEXTEND
  0
POINT
  5
146F
330
E16
100
AcDbEntity
  8
Defpoints
 62
     0
100
AcDbPoint
 10
1524.496882097434
 20
1880.249213917238
 30
0.0
  0
POINT
  5
1470
330
E16
100
AcDbEntity
  8
Defpoints
 62
     0
100
AcDbPoint
 10
1659.496882097434
 20
1610.249213917239
 30
0.0
  0
POINT
  5
1471
330
E16
100
AcDbEntity
  8
Defpoints
 62
     0
100
AcDbPoint
 10
1328.280836550255
 20
1610.249213917239
 30
0.0
  0
ENDBLK
  5
E21
330
E16
100
AcDbEntity
  8
0
100
AcDbBlockEnd
  0
BLOCK
  5
E4D
330
E43
100
AcDbEntity
  8
0
100
AcDbBlockBegin
  2
*D7
 70
     1
 10
0.0
 20
0.0
 30
0.0
  3
*D7
  1

  0
LINE
  5
148D
330
E43
100
AcDbEntity
  8
AM_5
100
AcDbLine
 10
1659.496882097434
 20
1609.249213917238
 30
0.0
 11
1659.496882097434
 21
1577.661485367733
 31
0.0
  0
LINE
  5
148E
330
E43
100
AcDbEntity
  8
AM_5
100
AcDbLine
 10
1969.496882097434
 20
1720.249213917239
 30
0.0
 11
1969.496882097434
 21
1577.661485367733
 31
0.0
  0
LINE
  5
148F
330
E43
100
AcDbEntity
  8
AM_5
100
AcDbLine
 10
1661.996882097434
 20
1578.661485367733
 30
0.0
 11
1966.996882097434
 21
1578.661485367733
 31
0.0
  0
SOLID
  5
1490
330
E43
100
AcDbEntity
  8
AM_5
100
AcDbTrace
 10
1661.996882097434
 20
1579.078152034399
 30
0.0
 11
1661.996882097434
 21
1578.244818701066
 31
0.0
 12
1659.496882097434
 22
1578.661485367733
 32
0.0
 13
1659.496882097434
 23
1578.661485367733
 33
0.0
  0
SOLID
  5
1491
330
E43
100
AcDbEntity
  8
AM_5
100
AcDbTrace
 10
1966.996882097434
 20
1579.078152034399
 30
0.0
 11
1966.996882097434
 21
1578.244818701066
 31
0.0
 12
1969.496882097434
 22
1578.661485367733
 32
0.0
 13
1969.496882097434
 23
1578.661485367733
 33
0.0
  0
MTEXT
  5
1492
330
E43
100
AcDbEntity
  8
AM_5
 62
     2
100
AcDbMText
 10
1814.496882097434
 20
1584.161485367733
 30
0.0
 40
8.0
 41
0.0
 71
     5
 72
     1
  1
310
 73
     1
 44
1.0
1001
ACAD
1000
MTEXTBEGIN
1070
    73
1070
     1
1070
    44
1040
1.0
1070
    74
1070
     0
1000
MTEXTEND
  0
POINT
  5
1493
330
E43
100
AcDbEntity
  8
Defpoints
 62
     0
100
AcDbPoint
 10
1659.496882097434
 20
1610.249213917239
 30
0.0
  0
POINT
  5
1494
330
E43
100
AcDbEntity
  8
Defpoints
 62
     0
100
AcDbPoint
 10
1969.496882097434
 20
1721.249213917239
 30
0.0
  0
POINT
  5
1495
330
E43
100
AcDbEntity
  8
Defpoints
 62
     0
100
AcDbPoint
 10
1969.496882097434
 20
1578.661485367733
 30
0.0
  0
ENDBLK
  5
E4E
330
E43
100
AcDbEntity
  8
0
100
AcDbBlockEnd
  0
BLOCK
  5
E9E
330
E94
100
AcDbEntity
  8
0
100
AcDbBlockBegin
  2
*D8
 70
     1
 10
0.0
 20
0.0
 30
0.0
  3
*D8
  1

  0
LINE
  5
1484
330
E94
100
AcDbEntity
  8
AM_5
100
AcDbLine
 10
1795.496882097434
 20
1880.249213917238
 30
0.0
 11
2033.085024534752
 21
1880.249213917238
 31
0.0
  0
LINE
  5
1485
330
E94
100
AcDbEntity
  8
AM_5
100
AcDbLine
 10
1970.496882097434
 20
1721.249213917238
 30
0.0
 11
2033.085024534752
 21
1721.249213917238
 31
0.0
  0
LINE
  5
1486
330
E94
100
AcDbEntity
  8
AM_5
100
AcDbLine
 10
2032.085024534753
 20
1877.749213917239
 30
0.0
 11
2032.085024534753
 21
1723.749213917238
 31
0.0
  0
SOLID
  5
1487
330
E94
100
AcDbEntity
  8
AM_5
100
AcDbTrace
 10
2031.668357868086
 20
1877.749213917239
 30
0.0
 11
2032.501691201419
 21
1877.749213917239
 31
0.0
 12
2032.085024534753
 22
1880.249213917238
 32
0.0
 13
2032.085024534753
 23
1880.249213917238
 33
0.0
  0
SOLID
  5
1488
330
E94
100
AcDbEntity
  8
AM_5
100
AcDbTrace
 10
2031.668357868086
 20
1723.749213917238
 30
0.0
 11
2032.501691201419
 21
1723.749213917238
 31
0.0
 12
2032.085024534753
 22
1721.249213917238
 32
0.0
 13
2032.085024534753
 23
1721.249213917238
 33
0.0
  0
MTEXT
  5
1489
330
E94
100
AcDbEntity
  8
AM_5
 62
     2
100
AcDbMText
 10
2026.585024534752
 20
1800.749213917239
 30
0.0
 40
8.0
 41
0.0
 71
     5
 72
     1
  1
159
 11
0.0000000000000001
 21
1.0
 31
0.0
 73
     1
 44
1.0
1001
ACAD
1000
MTEXTBEGIN
1070
    73
1070
     1
1070
    44
1040
1.0
1070
    74
1070
     0
1000
MTEXTEND
  0
POINT
  5
148A
330
E94
100
AcDbEntity
  8
Defpoints
 62
     0
100
AcDbPoint
 10
1794.496882097434
 20
1880.249213917238
 30
0.0
  0
POINT
  5
148B
330
E94
100
AcDbEntity
  8
Defpoints
 62
     0
100
AcDbPoint
 10
1969.496882097434
 20
1721.249213917238
 30
0.0
  0
POINT
  5
148C
330
E94
100
AcDbEntity
  8
Defpoints
 62
     0
100
AcDbPoint
 10
2032.085024534753
 20
1721.249213917238
 30
0.0
  0
ENDBLK
  5
E9F
330
E94
100
AcDbEntity
  8
0
100
AcDbBlockEnd
  0
BLOCK
  5
F01
330
EF7
100
AcDbEntity
  8
0
100
AcDbBlockBegin
  2
*D9
 70
     1
 10
0.0
 20
0.0
 30
0.0
  3
*D9
  1

  0
LINE
  5
149F
330
EF7
100
AcDbEntity
  8
AM_5
100
AcDbLine
 10
1658.496882097434
 20
1386.249213917239
 30
0.0
 11
1341.988070505023
 21
1386.249213917239
 31
0.0
  0
LINE
  5
14A0
330
EF7
100
AcDbEntity
  8
AM_5
100
AcDbLine
 10
1658.496882097434
 20
936.2492139172388
 30
0.0
 11
1341.988070505023
 21
936.2492139172388
 31
0.0
  0
LINE
  5
14A1
330
EF7
100
AcDbEntity
  8
AM_5
100
AcDbLine
 10
1342.988070505024
 20
1383.749213917239
 30
0.0
 11
1342.988070505024
 21
938.7492139172389
 31
0.0
  0
SOLID
  5
14A2
330
EF7
100
AcDbEntity
  8
AM_5
100
AcDbTrace
 10
1342.571403838357
 20
1383.749213917239
 30
0.0
 11
1343.40473717169
 21
1383.749213917239
 31
0.0
 12
1342.988070505024
 22
1386.249213917239
 32
0.0
 13
1342.988070505024
 23
1386.249213917239
 33
0.0
  0
SOLID
  5
14A3
330
EF7
100
AcDbEntity
  8
AM_5
100
AcDbTrace
 10
1342.571403838357
 20
938.7492139172389
 30
0.0
 11
1343.40473717169
 21
938.7492139172389
 31
0.0
 12
1342.988070505024
 22
936.2492139172388
 32
0.0
 13
1342.988070505024
 23
936.2492139172388
 33
0.0
  0
MTEXT
  5
14A4
330
EF7
100
AcDbEntity
  8
AM_5
 62
     2
100
AcDbMText
 10
1337.488070505023
 20
1161.249213917239
 30
0.0
 40
8.0
 41
0.0
 71
     5
 72
     1
  1
%%c450
 11
0.0000000000000001
 21
1.0
 31
0.0
 73
     1
 44
1.0
1001
ACAD
1000
MTEXTBEGIN
1070
    73
1070
     1
1070
    44
1040
1.0
1070
    74
1070
     0
1000
MTEXTEND
  0
POINT
  5
14A5
330
EF7
100
AcDbEntity
  8
Defpoints
 62
     0
100
AcDbPoint
 10
1659.496882097434
 20
1386.249213917239
 30
0.0
  0
POINT
  5
14A6
330
EF7
100
AcDbEntity
  8
Defpoints
 62
     0
100
AcDbPoint
 10
1659.496882097434
 20
936.2492139172388
 30
0.0
  0
POINT
  5
14A7
330
EF7
100
AcDbEntity
  8
Defpoints
 62
     0
100
AcDbPoint
 10
1342.988070505024
 20
936.2492139172388
 30
0.0
  0
ENDBLK
  5
F02
330
EF7
100
AcDbEntity
  8
0
100
AcDbBlockEnd
  0
BLOCK
  5
F34
330
F2A
100
AcDbEntity
  8
0
100
AcDbBlockBegin
  2
*D10
 70
     1
 10
0.0
 20
0.0
 30
0.0
  3
*D10
  1

  0
LINE
  5
14A8
330
F2A
100
AcDbEntity
  8
AM_5
100
AcDbLine
 10
1683.496882097434
 20
1068.004972904588
 30
0.0
 11
1683.496882097434
 21
864.4298782087025
 31
0.0
  0
LINE
  5
14A9
330
F2A
100
AcDbEntity
  8
AM_5
100
AcDbLine
 10
1699.496882097434
 20
1069.403190338878
 30
0.0
 11
1699.496882097434
 21
864.4298782087025
 31
0.0
  0
LINE
  5
14AA
330
F2A
100
AcDbEntity
  8
AM_5
100
AcDbLine
 10
1685.996882097434
 20
865.4298782087025
 30
0.0
 11
1696.996882097434
 21
865.4298782087025
 31
0.0
  0
SOLID
  5
14AB
330
F2A
100
AcDbEntity
  8
AM_5
100
AcDbTrace
 10
1685.996882097434
 20
865.8465448753691
 30
0.0
 11
1685.996882097434
 21
865.013211542036
 31
0.0
 12
1683.496882097434
 22
865.4298782087025
 32
0.0
 13
1683.496882097434
 23
865.4298782087025
 33
0.0
  0
SOLID
  5
14AC
330
F2A
100
AcDbEntity
  8
AM_5
100
AcDbTrace
 10
1696.996882097434
 20
865.8465448753691
 30
0.0
 11
1696.996882097434
 21
865.013211542036
 31
0.0
 12
1699.496882097434
 22
865.4298782087025
 32
0.0
 13
1699.496882097434
 23
865.4298782087025
 33
0.0
  0
MTEXT
  5
14AD
330
F2A
100
AcDbEntity
  8
AM_5
 62
     2
100
AcDbMText
 10
1691.496882097434
 20
870.9298782087026
 30
0.0
 40
8.0
 41
0.0
 71
     5
 72
     1
  1
16
 73
     1
 44
1.0
1001
ACAD
1000
MTEXTBEGIN
1070
    73
1070
     1
1070
    44
1040
1.0
1070
    74
1070
     0
1000
MTEXTEND
  0
POINT
  5
14AE
330
F2A
100
AcDbEntity
  8
Defpoints
 62
     0
100
AcDbPoint
 10
1683.496882097434
 20
1069.004972904588
 30
0.0
  0
POINT
  5
14AF
330
F2A
100
AcDbEntity
  8
Defpoints
 62
     0
100
AcDbPoint
 10
1699.496882097434
 20
1070.403190338878
 30
0.0
  0
POINT
  5
14B0
330
F2A
100
AcDbEntity
  8
Defpoints
 62
     0
100
AcDbPoint
 10
1699.496882097434
 20
865.4298782087025
 30
0.0
  0
ENDBLK
  5
F35
330
F2A
100
AcDbEntity
  8
0
100
AcDbBlockEnd
  0
ENDSEC
  0
SECTION
  2
ENTITIES
  0
LINE
  5
C29
102
{ACAD_REACTORS
330
F94
102
}
330
1F
100
AcDbEntity
  8
0
100
AcDbLine
 10
1524.496882097434
 20
1880.249213917238
 30
0.0
 11
1529.496882097434
 21
1880.249213917238
 31
0.0
  0
LINE
  5
C2A
330
1F
100
AcDbEntity
  8
0
100
AcDbLine
 10
1776.496882097434
 20
1804.249213917239
 30
0.0
 11
1776.496882097434
 21
1825.249213917238
 31
0.0
  0
LINE
  5
C2D
102
{ACAD_REACTORS
330
F94
102
}
330
1F
100
AcDbEntity
  8
0
100
AcDbLine
 10
1532.379309958001
 20
1825.249213917238
 30
0.0
 11
1548.902959868115
 21
1825.249213917238
 31
0.0
  0
LINE
  5
C2E
102
{ACAD_REACTORS
330
F94
102
}
330
1F
100
AcDbEntity
  8
0
100
AcDbLine
 10
1438.774627438185
 20
1800.249213917238
 30
0.0
 11
1516.557067146369
 21
1800.249213917238
 31
0.0
  0
LINE
  5
C2F
102
{ACAD_REACTORS
330
F94
102
}
330
1F
100
AcDbEntity
  8
0
100
AcDbLine
 10
1434.496882097434
 20
1793.249213917238
 30
0.0
 11
1434.789848645818
 21
1796.597836888229
 31
0.0
  0
ARC
  5
C30
102
{ACAD_REACTORS
330
F94
102
}
330
1F
100
AcDbEntity
  8
0
100
AcDbCircle
 10
1438.774627438185
 20
1796.249213917239
 30
0.0
 40
4.0
100
AcDbArc
 50
90.0
 51
175.0000000000005
  0
LINE
  5
C36
102
{ACAD_REACTORS
330
F94
102
}
330
1F
100
AcDbEntity
  8
0
100
AcDbLine
 10
1529.496882097434
 20
1880.249213917238
 30
0.0
 11
1532.379309958001
 21
1825.249213917238
 31
0.0
  0
LINE
  5
C37
102
{ACAD_REACTORS
330
D8F
330
DC2
330
E23
330
F94
102
}
330
1F
100
AcDbEntity
  8
0
100
AcDbLine
 10
1524.496882097434
 20
1880.249213917238
 30
0.0
 11
1522.555011096222
 21
1806.092152227391
 31
0.0
  0
ARC
  5
C38
102
{ACAD_REACTORS
330
F94
102
}
330
1F
100
AcDbEntity
  8
0
100
AcDbCircle
 10
1489.496882097434
 20
1782.249213917238
 30
0.0
 40
10.0
100
AcDbArc
 50
180.0
 51
0.0
  0
LINE
  5
C39
102
{ACAD_REACTORS
330
F94
102
}
330
1F
100
AcDbEntity
  8
0
100
AcDbLine
 10
1434.496882097434
 20
1793.249213917238
 30
0.0
 11
1474.781530639648
 21
1791.137984947943
 31
0.0
  0
LINE
  5
C3A
102
{ACAD_REACTORS
330
F94
102
}
330
1F
100
AcDbEntity
  8
0
100
AcDbLine
 10
1478.511417826726
 20
1787.838059519593
 30
0.0
 11
1479.496882097434
 21
1782.249213917242
 31
0.0
  0
ARC
  5
C3B
102
{ACAD_REACTORS
330
F94
102
}
330
1F
100
AcDbEntity
  8
0
100
AcDbCircle
 10
1474.572186814677
 20
1787.143466808925
 30
0.0
 40
4.0
100
AcDbArc
 50
9.999999999997477
 51
87.00000000000759
  0
LINE
  5
C3C
102
{ACAD_REACTORS
330
F94
102
}
330
1F
100
AcDbEntity
  8
0
100
AcDbLine
 10
1504.357611437842
 20
1789.587968233414
 30
0.0
 11
1531.88146817629
 21
1788.145504024447
 31
0.0
  0
LINE
  5
C3D
102
{ACAD_REACTORS
330
F94
102
}
330
1F
100
AcDbEntity
  8
0
100
AcDbLine
 10
1500.209036600822
 20
1786.288042805064
 30
0.0
 11
1499.496882097434
 21
1782.249213917242
 31
0.0
  0
ARC
  5
C3E
102
{ACAD_REACTORS
330
F94
102
}
330
1F
100
AcDbEntity
  8
0
100
AcDbCircle
 10
1504.148267612871
 20
1785.593450094396
 30
0.0
 40
4.0
100
AcDbArc
 50
87.00000000000759
 51
170.0000000000025
  0
LINE
  5
C3F
330
1F
100
AcDbEntity
  8
0
100
AcDbLine
 10
1817.963790816272
 20
1790.943806627906
 30
0.0
 11
1819.496882097434
 21
1782.249213917242
 31
0.0
  0
LINE
  5
C40
330
1F
100
AcDbEntity
  8
0
100
AcDbLine
 10
1841.029973378595
 20
1790.943806627906
 30
0.0
 11
1839.496882097434
 21
1782.249213917242
 31
0.0
  0
ARC
  5
C41
330
1F
100
AcDbEntity
  8
0
100
AcDbCircle
 10
1829.496882097434
 20
1782.249213917238
 30
0.0
 40
10.0
100
AcDbArc
 50
180.0
 51
0.0
  0
LINE
  5
C42
330
1F
100
AcDbEntity
  8
0
100
AcDbLine
 10
1794.496882097434
 20
1880.249213917238
 30
0.0
 11
1796.438753098645
 21
1806.092152227391
 31
0.0
  0
LINE
  5
C43
330
1F
100
AcDbEntity
  8
0
100
AcDbLine
 10
1789.496882097434
 20
1880.249213917238
 30
0.0
 11
1786.614454236867
 21
1825.249213917238
 31
0.0
  0
LINE
  5
C45
330
1F
100
AcDbEntity
  8
0
100
AcDbLine
 10
1875.047923901411
 20
1800.249213917238
 30
0.0
 11
1802.436697048498
 21
1800.249213917238
 31
0.0
  0
LINE
  5
C46
102
{ACAD_REACTORS
330
D8F
330
EA1
102
}
330
1F
100
AcDbEntity
  8
0
100
AcDbLine
 10
1794.496882097434
 20
1880.249213917238
 30
0.0
 11
1789.496882097434
 21
1880.249213917238
 31
0.0
  0
ARC
  5
C47
102
{ACAD_REACTORS
330
F94
102
}
330
1F
100
AcDbEntity
  8
0
100
AcDbCircle
 10
1516.557067146369
 20
1806.249213917238
 30
0.0
 40
6.0
100
AcDbArc
 50
270.0
 51
358.4999999999972
  0
ARC
  5
C48
330
1F
100
AcDbEntity
  8
0
100
AcDbCircle
 10
1802.436697048498
 20
1806.249213917238
 30
0.0
 40
6.0
100
AcDbArc
 50
181.5000000000028
 51
270.0
  0
LINE
  5
C49
330
1F
100
AcDbEntity
  8
0
100
AcDbLine
 10
1875.047923901411
 20
1794.249213917239
 30
0.0
 11
1786.496882097434
 21
1794.249213917239
 31
0.0
  0
ARC
  5
C4A
330
1F
100
AcDbEntity
  8
0
100
AcDbCircle
 10
1786.496882097434
 20
1804.249213917239
 30
0.0
 40
10.0
100
AcDbArc
 50
180.0
 51
270.0
  0
LINE
  5
C4B
330
1F
100
AcDbEntity
  8
0
100
AcDbLine
 10
1952.088753258246
 20
1771.228780245072
 30
0.0
 11
1972.061343953338
 21
1770.182061120213
 31
0.0
  0
LINE
  5
C4C
330
1F
100
AcDbEntity
  8
0
100
AcDbLine
 10
1894.793038612356
 20
1780.490098574584
 30
0.0
 11
1972.388443679857
 21
1776.423495712428
 31
0.0
  0
LINE
  5
C4D
330
1F
100
AcDbEntity
  8
0
100
AcDbLine
 10
1972.388443679857
 20
1776.423495712428
 30
0.0
 11
1972.061343953338
 21
1770.182061120213
 31
0.0
  0
LINE
  5
C50
330
1F
100
AcDbEntity
  8
0
100
AcDbLine
 10
1889.534732240514
 20
1775.758813004333
 30
0.0
 11
1947.161025529777
 21
1772.738746944729
 31
0.0
  0
LINE
  5
C51
330
1F
100
AcDbEntity
  8
0
100
AcDbLine
 10
1947.161025529777
 20
1772.738746944729
 30
0.0
 11
1952.088753258246
 21
1771.228780245072
 31
0.0
  0
LINE
  5
C53
330
1F
100
AcDbEntity
  8
0
100
AcDbLine
 10
1885.468320644663
 20
1788.739912145461
 30
0.0
 11
1884.896001431533
 21
1791.985695693908
 31
0.0
  0
LINE
  5
C54
330
1F
100
AcDbEntity
  8
0
100
AcDbLine
 10
1880.210014272821
 20
1784.008626575209
 30
0.0
 11
1878.987154913459
 21
1790.943806627906
 31
0.0
  0
ARC
  5
C55
330
1F
100
AcDbEntity
  8
0
100
AcDbCircle
 10
1895.316398174785
 20
1790.47639392213
 30
0.0
 40
10.0
100
AcDbArc
 50
189.9999999999975
 51
267.0000000000076
  0
ARC
  5
C56
330
1F
100
AcDbEntity
  8
0
100
AcDbCircle
 10
1875.047923901411
 20
1790.249213917238
 30
0.0
 40
10.0
100
AcDbArc
 50
9.999999999997477
 51
90.0
  0
ARC
  5
C57
330
1F
100
AcDbEntity
  8
0
100
AcDbCircle
 10
1875.047923901411
 20
1790.249213917238
 30
0.0
 40
4.0
100
AcDbArc
 50
9.999999999997477
 51
90.0
  0
ARC
  5
C58
330
1F
100
AcDbEntity
  8
0
100
AcDbCircle
 10
1890.058091802943
 20
1785.745108351878
 30
0.0
 40
10.0
100
AcDbArc
 50
189.9999999999975
 51
267.0000000000076
  0
LINE
  5
C5A
102
{ACAD_REACTORS
330
EA1
102
}
330
1F
100
AcDbEntity
  8
0
100
AcDbLine
 10
1972.061343953338
 20
1770.182061120213
 30
0.0
 11
1966.93242024153
 21
1672.316366714264
 31
0.0
  0
LINE
  5
C5B
102
{ACAD_REACTORS
330
F94
102
}
330
1F
100
AcDbEntity
  8
0
100
AcDbLine
 10
1966.605320515012
 20
1666.074932122048
 30
0.0
 11
1966.93242024153
 21
1672.316366714264
 31
0.0
  0
LINE
  5
C5C
102
{ACAD_REACTORS
330
F94
102
}
330
1F
100
AcDbEntity
  8
0
100
AcDbLine
 10
1836.148266924098
 20
1672.911896592556
 30
0.0
 11
1966.605320515012
 21
1666.074932122048
 31
0.0
  0
LINE
  5
C5D
102
{ACAD_REACTORS
330
F94
102
}
330
1F
100
AcDbEntity
  8
0
100
AcDbLine
 10
1946.959829546438
 20
1673.363085839123
 30
0.0
 11
1966.93242024153
 21
1672.316366714264
 31
0.0
  0
LINE
  5
C5E
102
{ACAD_REACTORS
330
F94
102
}
330
1F
100
AcDbEntity
  8
0
100
AcDbLine
 10
1941.901261927361
 20
1672.376478701895
 30
0.0
 11
1946.959829546438
 21
1673.363085839123
 31
0.0
  0
LINE
  5
C5F
102
{ACAD_REACTORS
330
F94
102
}
330
1F
100
AcDbEntity
  8
0
100
AcDbLine
 10
1839.121004693923
 20
1677.762963737639
 30
0.0
 11
1941.901261927361
 21
1672.376478701895
 31
0.0
  0
ARC
  5
C60
330
1F
100
AcDbEntity
  8
0
100
AcDbCircle
 10
1659.496882097434
 20
1161.249213917239
 30
0.0
 40
225.0
100
AcDbArc
 50
0.0
 51
180.0
  0
ARC
  5
C61
102
{ACAD_REACTORS
330
F94
102
}
330
1F
100
AcDbEntity
  8
0
100
AcDbCircle
 10
1781.496882097434
 20
1720.249213917239
 30
0.0
 40
10.0
100
AcDbArc
 50
29.99999999999729
 51
154.263078787523
  0
LINE
  5
C62
102
{ACAD_REACTORS
330
F94
102
}
330
1F
100
AcDbEntity
  8
0
100
AcDbLine
 10
1794.4872631542
 20
1727.749213917238
 30
0.0
 11
1814.710321267678
 21
1692.721849780276
 31
0.0
  0
LINE
  5
C63
102
{ACAD_REACTORS
330
F94
102
}
330
1F
100
AcDbEntity
  8
0
100
AcDbLine
 10
1790.157136135279
 20
1725.249213917238
 30
0.0
 11
1811.737583497853
 21
1687.870782635193
 31
0.0
  0
ARC
  5
C64
102
{ACAD_REACTORS
330
F94
102
}
330
1F
100
AcDbEntity
  8
0
100
AcDbCircle
 10
1840.691083381211
 20
1707.721849780277
 30
0.0
 40
30.0
100
AcDbArc
 50
209.9999999999973
 51
267.0000000000076
  0
ARC
  5
C65
102
{ACAD_REACTORS
330
F94
102
}
330
1F
100
AcDbEntity
  8
0
100
AcDbCircle
 10
1837.718345611386
 20
1702.870782635194
 30
0.0
 40
30.0
100
AcDbArc
 50
209.9999999999973
 51
267.0000000000076
  0
ARC
  5
C66
102
{ACAD_REACTORS
330
F94
102
}
330
1F
100
AcDbEntity
  8
0
100
AcDbCircle
 10
1781.496882097434
 20
1720.249213917239
 30
0.0
 40
15.0
100
AcDbArc
 50
29.99999999999729
 51
90.0
  0
LINE
  5
C67
330
1F
100
AcDbEntity
  8
0
100
AcDbLine
 10
1529.496882097434
 20
1880.249213917238
 30
0.0
 11
1789.496882097434
 21
1880.249213917238
 31
0.0
  0
LINE
  5
C71
102
{ACAD_REACTORS
330
F94
102
}
330
1F
100
AcDbEntity
  8
0
100
AcDbLine
 10
1542.496882097434
 20
1825.249213917238
 30
0.0
 11
1556.118791574634
 21
1695.645402588733
 31
0.0
  0
LINE
  5
C72
102
{ACAD_REACTORS
330
F94
102
}
330
1F
100
AcDbEntity
  8
0
100
AcDbLine
 10
1541.303327567543
 20
1779.204493309578
 30
0.0
 11
1550.200071966665
 21
1694.55762464026
 31
0.0
  0
ARC
  5
C73
102
{ACAD_REACTORS
330
F94
102
}
330
1F
100
AcDbEntity
  8
0
100
AcDbCircle
 10
1531.35810861386
 20
1778.159208676902
 30
0.0
 40
10.0
100
AcDbArc
 50
6.000000000001699
 51
87.00000000000759
  0
LINE
  5
C74
330
1F
100
AcDbEntity
  8
0
100
AcDbLine
 10
1810.496882097434
 20
1794.249213917239
 30
0.0
 11
1810.496882097434
 21
1800.249213917238
 31
0.0
  0
LINE
  5
C76
102
{ACAD_REACTORS
330
DEC
330
F94
102
}
330
1F
100
AcDbEntity
  8
0
100
AcDbLine
 10
1785.191150530911
 20
1735.201595764583
 30
0.0
 11
1754.496882097434
 21
1735.201595764583
 31
0.0
  0
ARC
  5
C7A
330
1F
100
AcDbEntity
  8
0
100
AcDbCircle
 10
1814.024559804224
 20
1790.249213917238
 30
0.0
 40
4.0
100
AcDbArc
 50
10.00000000000615
 51
90.0
  0
ARC
  5
C7B
330
1F
100
AcDbEntity
  8
0
100
AcDbCircle
 10
1844.969204390644
 20
1790.249213917238
 30
0.0
 40
4.0
100
AcDbArc
 50
90.0
 51
170.0000000000025
  0
LINE
  5
C86
330
1F
100
AcDbEntity
  8
0
100
AcDbLine
 10
1776.496882097434
 20
1809.249213917238
 30
0.0
 11
1796.356082528845
 21
1809.249213917238
 31
0.0
  0
ARC
  5
C87
330
1F
100
AcDbEntity
  8
0
100
AcDbCircle
 10
1659.496882097434
 20
1161.249213917239
 30
0.0
 40
313.0
100
AcDbArc
 50
0.0
 51
10.12049343080161
  0
LINE
  5
C88
330
1F
100
AcDbEntity
  8
0
100
AcDbLine
 10
1967.626724858566
 20
1216.249213917238
 30
0.0
 11
1892.367039336302
 21
1216.249213917238
 31
0.0
  0
ARC
  5
C89
330
1F
100
AcDbEntity
  8
0
100
AcDbCircle
 10
2200.496882097434
 20
1161.249213917239
 30
0.0
 40
313.0
100
AcDbArc
 50
169.8795065691984
 51
180.0
  0
LINE
  5
C8A
330
1F
100
AcDbEntity
  8
0
100
AcDbLine
 10
1892.367039336302
 20
1216.249213917238
 30
0.0
 11
1874.289805630776
 21
1228.249213917238
 31
0.0
  0
HATCH
  5
C8C
330
1F
100
AcDbEntity
  8
8
100
AcDbHatch
 10
0.0
 20
0.0
 30
0.0
210
0.0
220
0.0
230
1.0
  2
ANSI31
 70
     0
 71
     0
 91
        1
 92
        7
 72
     0
 73
     1
 93
        6
 10
1966.605320515012
 20
1666.074932122048
 10
1966.93242024153
 20
1672.316366714264
 10
1946.959829546438
 20
1673.363085839123
 10
1941.901261927362
 20
1672.376478701895
 10
1884.496882097434
 20
1675.384914769901
 10
1884.496882097434
 20
1670.378053039912
 97
        0
 75
     0
 76
     1
 52
0.0
 41
40.0
 77
     0
 78
     1
 53
45.0
 43
2805.496882097434
 44
1009.249213917239
 45
-3.535533905932737
 46
3.535533905932737
 79
     0
 47
0.6113138705898674
 98
        1
 10
1909.496882097434
 20
1671.249213917239
  0
HATCH
  5
C8D
330
1F
100
AcDbEntity
  8
8
100
AcDbHatch
 10
0.0
 20
0.0
 30
0.0
210
0.0
220
0.0
230
1.0
  2
ANSI31
 70
     0
 71
     0
 91
        2
 92
        7
 72
     1
 73
     1
 93
       14
 10
1894.793038612356
 20
1780.490098574584
 42
-0.3492156334215374
 10
1885.468320644663
 20
1788.739912145461
 42
0.0
 10
1884.896001431533
 20
1791.985695693908
 42
0.3639702342662019
 10
1875.047923901411
 20
1800.249213917238
 42
0.0
 10
1829.496882097434
 20
1800.249213917238
 42
0.0
 10
1829.496882097434
 20
1794.249213917238
 42
0.0
 10
1875.047923901411
 20
1794.249213917239
 42
-0.3639702342662099
 10
1878.987154913459
 20
1790.943806627906
 42
0.0
 10
1880.210014272821
 20
1784.008626575209
 42
0.3492156334215404
 10
1889.534732240514
 20
1775.758813004333
 42
0.0
 10
1947.161025529778
 20
1772.738746944729
 42
0.0
 10
1952.088753258247
 20
1771.228780245072
 42
0.0
 10
1972.061343953338
 20
1770.182061120213
 42
0.0
 10
1972.388443679857
 20
1776.423495712428
 42
0.0
 97
        0
 92
        7
 72
     0
 73
     1
 93
        4
 10
1810.496882097434
 20
1800.249213917238
 10
1810.496882097434
 20
1794.249213917238
 10
1829.496882097434
 20
1794.249213917239
 10
1829.496882097434
 20
1800.249213917238
 97
        0
 75
     0
 76
     1
 52
0.0
 41
40.0
 77
     0
 78
     1
 53
45.0
 43
2805.496882097434
 44
1009.249213917239
 45
-3.535533905932737
 46
3.535533905932737
 79
     0
 47
0.6113138705898674
 98
        2
 10
1895.496882097434
 20
1778.249213917239
 10
1821.496882097434
 20
1799.249213917239
  0
HATCH
  5
C8E
330
1F
100
AcDbEntity
  8
8
100
AcDbHatch
 10
0.0
 20
0.0
 30
0.0
210
0.0
220
0.0
230
1.0
  2
ANSI31
 70
     0
 71
     0
 91
        1
 92
        7
 72
     0
 73
     1
 93
        6
 10
1786.614454236867
 20
1825.249213917238
 10
1776.496882097434
 20
1825.249213917238
 10
1776.496882097434
 20
1809.249213917238
 10
1796.356082528846
 20
1809.249213917238
 10
1794.496882097434
 20
1880.249213917238
 10
1789.496882097434
 20
1880.249213917238
 97
        0
 75
     0
 76
     1
 52
0.0
 41
40.0
 77
     0
 78
     1
 53
45.0
 43
2805.496882097434
 44
1009.249213917239
 45
-3.535533905932737
 46
3.535533905932737
 79
     0
 47
0.6113138705898674
 98
        1
 10
1789.496882097434
 20
1828.249213917239
  0
ARC
  5
C8F
102
{ACAD_REACTORS
330
E23
330
E50
330
F94
102
}
330
1F
100
AcDbEntity
  8
0
100
AcDbCircle
 10
1659.496882097434
 20
1723.249213917238
 30
0.0
 40
113.0
100
AcDbArc
 50
194.7088809447578
 51
0.6806677924473563
  0
ARC
  5
C90
102
{ACAD_REACTORS
330
F94
102
}
330
1F
100
AcDbEntity
  8
0
100
AcDbCircle
 10
1659.496882097434
 20
1723.249213917238
 30
0.0
 40
107.0
100
AcDbArc
 50
194.9502092076999
 51
0.0000000000002435
  0
ARC
  5
C91
102
{ACAD_REACTORS
330
DEC
330
F94
102
}
330
1F
100
AcDbEntity
  8
0
100
AcDbCircle
 10
1782.29921786838
 20
1718.871294203556
 30
0.0
 40
16.39756069777342
100
AcDbArc
 50
92.80461329159255
 51
164.5150032165969
  0
HATCH
  5
C93
330
1F
100
AcDbEntity
  8
8
100
AcDbHatch
 10
0.0
 20
0.0
 30
0.0
210
0.0
220
0.0
230
1.0
  2
ANSI31
 70
     0
 71
     0
 91
        1
 92
        7
 72
     1
 73
     1
 93
       11
 10
1839.121004693923
 20
1677.762963737639
 42
-0.2539676464749425
 10
1814.710321267678
 20
1692.721849780276
 42
0.0
 10
1794.4872631542
 20
1727.749213917238
 42
0.2467036571115422
 10
1782.691150530912
 20
1735.201595764583
 42
0.0
 10
1781.496882097434
 20
1735.201595764583
 42
0.0
 10
1781.496882097434
 20
1730.249213917239
 42
-0.2679491924311196
 10
1790.157136135279
 20
1725.249213917238
 42
0.0
 10
1811.737583497853
 20
1687.870782635193
 42
0.253967646474945
 10
1836.148266924098
 20
1672.911896592556
 42
0.0
 10
1878.496882097434
 20
1670.69249971561
 42
0.0
 10
1878.496882097434
 20
1675.6993614456
 42
0.0
 97
        0
 75
     0
 76
     1
 52
0.0
 41
40.0
 77
     0
 78
     1
 53
45.0
 43
2805.496882097434
 44
1009.249213917239
 45
-3.535533905932737
 46
3.535533905932737
 79
     0
 47
0.3505535055350553
 98
        1
 10
1834.496882097434
 20
1677.249213917238
  0
ARC
  5
C96
330
1F
100
AcDbEntity
  8
0
100
AcDbCircle
 10
1659.496882097434
 20
1161.249213917239
 30
0.0
 40
225.0
100
AcDbArc
 50
180.0
 51
0.0
  0
ARC
  5
C9F
330
1F
100
AcDbEntity
  8
0
100
AcDbCircle
 10
1659.496882097434
 20
1161.249213917239
 30
0.0
 40
313.0
100
AcDbArc
 50
349.8795065691833
 51
0.0
  0
LINE
  5
CA0
330
1F
100
AcDbEntity
  8
0
100
AcDbLine
 10
1967.626724858566
 20
1106.249213917239
 30
0.0
 11
1892.367039336302
 21
1106.249213917239
 31
0.0
  0
ARC
  5
CA1
330
1F
100
AcDbEntity
  8
0
100
AcDbCircle
 10
2200.496882097434
 20
1161.249213917239
 30
0.0
 40
313.0
100
AcDbArc
 50
180.0
 51
190.1204934308167
  0
LINE
  5
CA2
330
1F
100
AcDbEntity
  8
0
100
AcDbLine
 10
1892.367039336302
 20
1106.249213917239
 30
0.0
 11
1874.289805630776
 21
1094.249213917239
 31
0.0
  0
CIRCLE
  5
CA3
330
1F
100
AcDbEntity
  8
0
100
AcDbCircle
 10
1659.496882097434
 20
1161.249213917239
 30
0.0
 40
135.0
  0
CIRCLE
  5
CA4
330
1F
100
AcDbEntity
  8
0
100
AcDbCircle
 10
1659.496882097434
 20
1161.249213917239
 30
0.0
 40
130.0
  0
LINE
  5
CA5
330
1F
100
AcDbEntity
  8
AM_7
100
AcDbLine
 10
1659.496882097434
 20
1883.249213917238
 30
0.0
 11
1659.496882097434
 21
1822.249213917238
 31
0.0
1001
GENIUS_GENOBJ-N-CEN_13
1002
{
1000
OWNER
1000
GEN
1002
}
1001
GENIUS_GENODEF_13
1002
{
1000
HIER
1070
     0
1002
}
1002
{
1000
MANEDIT
1070
     0
1002
}
1002
{
1000
NOSEL
1070
     0
1002
}
1002
{
1000
BEHIND
1070
     0
1002
}
1002
{
1000
OTHER
1070
     0
1002
}
1002
{
1000
REACTOR
1002
}
1001
GENIUS_GENCEN_19
1002
{
1040
3.0
1002
}
  0
LINE
  5
CA7
330
1F
100
AcDbEntity
  8
0
100
AcDbLine
 10
1536.246882097434
 20
1880.249213917239
 30
0.0
 11
1782.746882097434
 21
1880.249213917238
 31
0.0
  0
LINE
  5
CA8
330
1F
100
AcDbEntity
  8
0
100
AcDbLine
 10
1548.496882097434
 20
1826.249213917238
 30
0.0
 11
1534.496882097434
 21
1826.249213917238
 31
0.0
  0
LINE
  5
CA9
330
1F
100
AcDbEntity
  8
0
100
AcDbLine
 10
1534.496882097434
 20
1826.249213917238
 30
0.0
 11
1534.496882097434
 21
1831.249213917238
 31
0.0
  0
LINE
  5
CAA
330
1F
100
AcDbEntity
  8
0
100
AcDbLine
 10
1534.496882097434
 20
1831.249213917238
 30
0.0
 11
1539.277382913235
 21
1834.009237350102
 31
0.0
  0
LINE
  5
CAB
330
1F
100
AcDbEntity
  8
0
100
AcDbLine
 10
1531.549651660264
 20
1879.242310675925
 30
0.0
 11
1531.811328773132
 21
1874.249213917238
 31
0.0
  0
LINE
  5
CAC
330
1F
100
AcDbEntity
  8
0
100
AcDbLine
 10
1531.811328773132
 20
1874.249213917238
 30
0.0
 11
1537.996882097434
 21
1870.677983040366
 31
0.0
  0
LINE
  5
CAD
330
1F
100
AcDbEntity
  8
0
100
AcDbLine
 10
1552.496882097434
 20
1849.249213917239
 30
0.0
 11
1591.996882097434
 21
1675.249213917238
 31
0.0
  0
LINE
  5
CAE
330
1F
100
AcDbEntity
  8
0
100
AcDbLine
 10
1556.618437511072
 20
1806.249213917238
 30
0.0
 11
1586.356943258198
 21
1675.249213917238
 31
0.0
  0
LINE
  5
CAF
330
1F
100
AcDbEntity
  8
0
100
AcDbLine
 10
1548.496882097434
 20
1826.249213917238
 30
0.0
 11
1556.618437511072
 21
1806.249213917238
 31
0.0
  0
LINE
  5
CB0
330
1F
100
AcDbEntity
  8
0
100
AcDbLine
 10
1537.996882097434
 20
1870.677983040366
 30
0.0
 11
1539.277382913235
 21
1834.009237350102
 31
0.0
  0
LINE
  5
CB1
330
1F
100
AcDbEntity
  8
0
100
AcDbLine
 10
1555.496882097434
 20
1876.749213917239
 30
0.0
 11
1552.496882097434
 21
1849.249213917239
 31
0.0
  0
LINE
  5
CB2
330
1F
100
AcDbEntity
  8
0
100
AcDbLine
 10
1787.182435421736
 20
1874.249213917238
 30
0.0
 11
1780.996882097434
 21
1870.677983040366
 31
0.0
  0
LINE
  5
CB3
330
1F
100
AcDbEntity
  8
0
100
AcDbLine
 10
1787.444474318151
 20
1879.249213917239
 30
0.0
 11
1787.182435421736
 21
1874.249213917238
 31
0.0
  0
LINE
  5
CB4
330
1F
100
AcDbEntity
  8
0
100
AcDbLine
 10
1780.996882097434
 20
1870.677983040366
 30
0.0
 11
1779.716381281632
 21
1834.009237350102
 31
0.0
  0
LINE
  5
CB5
330
1F
100
AcDbEntity
  8
0
100
AcDbLine
 10
1763.496882097434
 20
1876.749213917238
 30
0.0
 11
1766.496882097434
 21
1849.249213917239
 31
0.0
  0
LINE
  5
CB6
102
{ACAD_REACTORS
330
DEC
102
}
330
1F
100
AcDbEntity
  8
0
100
AcDbLine
 10
1766.496882097434
 20
1849.249213917239
 30
0.0
 11
1726.996882097434
 21
1675.249213917238
 31
0.0
  0
LINE
  5
CB7
330
1F
100
AcDbEntity
  8
0
100
AcDbLine
 10
1784.496882097434
 20
1831.249213917238
 30
0.0
 11
1779.716381281632
 21
1834.009237350102
 31
0.0
  0
LINE
  5
CB8
330
1F
100
AcDbEntity
  8
0
100
AcDbLine
 10
1784.496882097434
 20
1826.249213917238
 30
0.0
 11
1784.496882097434
 21
1831.249213917238
 31
0.0
  0
LINE
  5
CB9
330
1F
100
AcDbEntity
  8
0
100
AcDbLine
 10
1770.496882097434
 20
1826.249213917238
 30
0.0
 11
1784.496882097434
 21
1826.249213917238
 31
0.0
  0
LINE
  5
CBA
330
1F
100
AcDbEntity
  8
0
100
AcDbLine
 10
1770.496882097434
 20
1826.249213917238
 30
0.0
 11
1762.375326683796
 21
1806.249213917238
 31
0.0
  0
LINE
  5
CBB
330
1F
100
AcDbEntity
  8
0
100
AcDbLine
 10
1762.375326683796
 20
1806.249213917238
 30
0.0
 11
1736.496882097434
 21
1692.253027638074
 31
0.0
  0
LINE
  5
CBC
330
1F
100
AcDbEntity
  8
0
100
AcDbLine
 10
1555.496882097434
 20
1876.749213917239
 30
0.0
 11
1567.909514477471
 21
1876.749213917239
 31
0.0
  0
ARC
  5
CBD
330
1F
100
AcDbEntity
  8
0
100
AcDbCircle
 10
1659.496882097434
 20
2674.249213917239
 30
0.0
 40
805.0
100
AcDbArc
 50
270.6272709975822
 51
271.652792787894
  0
LINE
  5
CBE
330
1F
100
AcDbEntity
  8
0
100
AcDbLine
 10
1712.645045995981
 20
1849.249213917239
 30
0.0
 11
1734.348718198886
 21
1849.249213917239
 31
0.0
  0
HATCH
  5
CC0
330
1F
100
AcDbEntity
  8
8
100
AcDbHatch
 10
0.0
 20
0.0
 30
0.0
210
0.0
220
0.0
230
1.0
  2
ANSI31
 70
     0
 71
     0
 91
        1
 92
        7
 72
     0
 73
     1
 93
        5
 10
1586.356943258198
 20
1675.249213917238
 10
1591.996882097434
 20
1675.249213917238
 10
1552.727398184452
 20
1848.2337759643
 10
1548.496882097434
 20
1826.249213917239
 10
1556.618437511072
 20
1806.249213917238
 97
        0
 75
     0
 76
     1
 52
-90.00000000000001
 41
50.0
 77
     0
 78
     1
 53
315.0
 43
1394.996882097434
 44
1973.249213917238
 45
4.419417382415923
 46
4.41941738241592
 79
     0
 47
0.2747765572403896
 98
        1
 10
1565.996882097434
 20
1773.749213917238
  0
HATCH
  5
CC1
330
1F
100
AcDbEntity
  8
8
100
AcDbHatch
 10
0.0
 20
0.0
 30
0.0
210
0.0
220
0.0
230
1.0
  2
ANSI31
 70
     0
 71
     0
 91
        2
 92
        7
 72
     1
 73
     1
 93
        7
 10
1538.745191204474
 20
1849.249213917238
 42
0.0
 10
1552.496882097434
 20
1849.249213917238
 42
0.0
 10
1555.496882097434
 20
1875.99549485293
 42
-0.0017640699058748
 10
1549.866822351033
 20
1876.749213917238
 42
0.0
 10
1531.680309324925
 20
1876.749213917239
 42
0.0
 10
1531.811328773132
 20
1874.249213917238
 42
0.0
 10
1537.996882097434
 20
1870.677983040366
 42
0.0
 97
        0
 92
        7
 72
     0
 73
     1
 93
        7
 10
1539.277382913235
 20
1834.009237350102
 10
1534.496882097434
 20
1831.249213917238
 10
1534.496882097434
 20
1826.249213917238
 10
1548.496882097434
 20
1826.249213917238
 10
1552.727398184452
 20
1848.2337759643
 10
1552.496882097434
 20
1849.249213917238
 10
1538.745191204474
 20
1849.249213917239
 97
        0
 75
     0
 76
     1
 52
-90.00000000000001
 41
50.0
 77
     0
 78
     1
 53
315.0
 43
1394.996882097434
 44
1973.249213917238
 45
4.419417382415923
 46
4.41941738241592
 79
     0
 47
0.2747765572403896
 98
        2
 10
1545.996882097434
 20
1862.749213917238
 10
1542.996882097434
 20
1839.749213917238
  0
HATCH
  5
CC2
330
1F
100
AcDbEntity
  8
8
100
AcDbHatch
 10
0.0
 20
0.0
 30
0.0
210
0.0
220
0.0
230
1.0
  2
ANSI31
 70
     0
 71
     0
 91
        1
 92
        7
 72
     0
 73
     1
 93
        9
 10
1726.996882097434
 20
1675.249213917238
 10
1732.63682093667
 20
1675.249213917238
 10
1762.375326683796
 20
1806.249213917238
 10
1770.496882097434
 20
1826.249213917238
 10
1784.496882097434
 20
1826.249213917238
 10
1784.496882097434
 20
1831.249213917239
 10
1779.716381281633
 20
1834.009237350102
 10
1780.248572990394
 20
1849.249213917238
 10
1766.496882097434
 20
1849.249213917239
 97
        0
 75
     0
 76
     1
 52
-90.00000000000001
 41
50.0
 77
     0
 78
     1
 53
315.0
 43
1394.996882097434
 44
1973.249213917238
 45
4.419417382415923
 46
4.41941738241592
 79
     0
 47
0.3188583578671901
 98
        1
 10
1739.996882097434
 20
1725.249213917238
  0
HATCH
  5
CC3
330
1F
100
AcDbEntity
  8
8
100
AcDbHatch
 10
0.0
 20
0.0
 30
0.0
210
0.0
220
0.0
230
1.0
  2
ANSI31
 70
     0
 71
     0
 91
        1
 92
        7
 72
     1
 73
     1
 93
        7
 10
1766.496882097434
 20
1849.249213917238
 42
0.0
 10
1780.248572990394
 20
1849.249213917238
 42
0.0
 10
1780.996882097434
 20
1870.677983040366
 42
0.0
 10
1785.996882097434
 20
1873.564734386314
 42
0.0
 10
1785.996882097434
 20
1876.749213917239
 42
0.0
 10
1769.126941843837
 20
1876.749213917238
 42
-0.0017640699058754
 10
1763.496882097434
 20
1875.99549485293
 42
0.0
 97
        0
 75
     0
 76
     1
 52
-90.00000000000001
 41
50.0
 77
     0
 78
     1
 53
315.0
 43
1394.996882097434
 44
1973.249213917238
 45
4.419417382415923
 46
4.41941738241592
 79
     0
 47
0.3188583578671901
 98
        1
 10
1772.496882097434
 20
1863.749213917238
  0
HATCH
  5
CC4
330
1F
100
AcDbEntity
  8
8
100
AcDbHatch
 10
0.0
 20
0.0
 30
0.0
210
0.0
220
0.0
230
1.0
  2
ANSI31
 70
     0
 71
     0
 91
        1
 92
        7
 72
     1
 73
     1
 93
        4
 10
1769.126941843838
 20
1876.749213917238
 42
0.0
 10
1785.996882097434
 20
1876.749213917238
 42
0.0
 10
1785.996882097434
 20
1879.249213917239
 42
0.0
 10
1785.987988504168
 20
1879.249213917238
 42
-0.0052937438464722
 97
        0
 75
     0
 76
     1
 52
-90.00000000000001
 41
50.0
 77
     0
 78
     1
 53
315.0
 43
1394.996882097434
 44
1973.249213917238
 45
4.419417382415923
 46
4.41941738241592
 79
     0
 47
0.1571234200533715
 98
        1
 10
1783.496882097434
 20
1878.249213917238
  0
HATCH
  5
CC5
330
1F
100
AcDbEntity
  8
8
100
AcDbHatch
 10
0.0
 20
0.0
 30
0.0
210
0.0
220
0.0
230
1.0
  2
ANSI31
 70
     0
 71
     0
 91
        1
 92
        7
 72
     0
 73
     1
 93
        4
 10
1785.996882097434
 20
1873.564734386314
 10
1787.182435421736
 20
1874.249213917238
 10
1787.313454869943
 20
1876.749213917238
 10
1785.996882097434
 20
1876.749213917239
 97
        0
 75
     0
 76
     1
 52
-90.00000000000001
 41
50.0
 77
     0
 78
     1
 53
315.0
 43
1394.996882097434
 44
1973.249213917238
 45
4.419417382415923
 46
4.41941738241592
 79
     0
 47
0.039426523297491
 98
        1
 10
1786.496882097434
 20
1875.749213917238
  0
LINE
  5
CC6
330
1F
100
AcDbEntity
  8
0
100
AcDbLine
 10
1751.560522479035
 20
1876.749213917239
 30
0.0
 11
1763.496882097434
 21
1876.749213917239
 31
0.0
  0
LINE
  5
CC7
330
1F
100
AcDbEntity
  8
0
100
AcDbLine
 10
1655.560522479035
 20
1876.749213917239
 30
0.0
 11
1663.433241715833
 21
1876.749213917239
 31
0.0
  0
LINE
  5
CC8
330
1F
100
AcDbEntity
  8
0
100
AcDbLine
 10
1586.356943258198
 20
1675.249213917238
 30
0.0
 11
1736.496882097434
 21
1675.249213917238
 31
0.0
  0
LINE
  5
CC9
330
1F
100
AcDbEntity
  8
0
100
AcDbLine
 10
1783.324232366624
 20
1879.249213917239
 30
0.0
 11
1782.746882097434
 21
1880.249213917238
 31
0.0
  0
LINE
  5
CCA
330
1F
100
AcDbEntity
  8
0
100
AcDbLine
 10
1535.431414876741
 20
1878.836783259091
 30
0.0
 11
1536.246882097434
 21
1880.249213917238
 31
0.0
  0
LINE
  5
CCB
330
1F
100
AcDbEntity
  8
0
100
AcDbLine
 10
1736.496882097434
 20
1692.253027638074
 30
0.0
 11
1736.496882097434
 21
1675.249213917238
 31
0.0
  0
LINE
  5
CCC
330
1F
100
AcDbEntity
  8
0
100
AcDbLine
 10
1679.820413137899
 20
1843.048248454836
 30
0.0
 11
1683.107841010965
 21
1873.18300395794
 31
0.0
  0
ARC
  5
CCD
330
1F
100
AcDbEntity
  8
0
100
AcDbCircle
 10
1687.084249717397
 20
1872.749213917239
 30
0.0
 40
4.0
100
AcDbArc
 50
90.0
 51
173.7741709355865
  0
LINE
  5
CCE
330
1F
100
AcDbEntity
  8
0
100
AcDbLine
 10
1671.175456713077
 20
1843.028946607174
 30
0.0
 11
1667.885923183903
 21
1873.18300395794
 31
0.0
  0
ARC
  5
CCF
330
1F
100
AcDbEntity
  8
0
100
AcDbCircle
 10
1663.909514477471
 20
1872.749213917239
 30
0.0
 40
4.0
100
AcDbArc
 50
6.225829064413524
 51
90.0
  0
ARC
  5
CD0
330
1F
100
AcDbEntity
  8
0
100
AcDbCircle
 10
1675.15186541951
 20
1843.462736647875
 30
0.0
 40
4.0
100
AcDbArc
 50
186.2258290644135
 51
271.5628496691745
  0
ARC
  5
CD1
330
1F
100
AcDbEntity
  8
0
100
AcDbCircle
 10
1675.844004431467
 20
1843.482038495539
 30
0.0
 40
4.0
100
AcDbArc
 50
271.6319647633881
 51
353.7741709355865
  0
ARC
  5
CD2
330
1F
100
AcDbEntity
  8
0
100
AcDbCircle
 10
1659.496882097434
 20
2417.249213917239
 30
0.0
 40
578.0
100
AcDbArc
 50
274.7431810039891
 51
274.8515888868433
  0
ARC
  5
CD3
330
1F
100
AcDbEntity
  8
0
100
AcDbCircle
 10
1695.909514477471
 20
1872.749213917239
 30
0.0
 40
4.0
100
AcDbArc
 50
6.225829064413524
 51
90.0
  0
LINE
  5
CD4
330
1F
100
AcDbEntity
  8
0
100
AcDbLine
 10
1702.984304793744
 20
1844.781172534389
 30
0.0
 11
1699.885923183903
 21
1873.18300395794
 31
0.0
  0
ARC
  5
CD5
330
1F
100
AcDbEntity
  8
0
100
AcDbCircle
 10
1719.084249717397
 20
1872.749213917239
 30
0.0
 40
4.0
100
AcDbArc
 50
90.0
 51
173.7741709355865
  0
LINE
  5
CD6
330
1F
100
AcDbEntity
  8
0
100
AcDbLine
 10
1712.01936801675
 20
1844.872001510967
 30
0.0
 11
1715.107841010965
 21
1873.18300395794
 31
0.0
  0
ARC
  5
CD7
330
1F
100
AcDbEntity
  8
0
100
AcDbCircle
 10
1706.960713500177
 20
1845.21496257509
 30
0.0
 40
4.0
100
AcDbArc
 50
186.2258290644135
 51
274.7431810039891
  0
ARC
  5
CD8
330
1F
100
AcDbEntity
  8
0
100
AcDbCircle
 10
1708.042959310318
 20
1845.305791551669
 30
0.0
 40
4.0
100
AcDbArc
 50
274.8515888868433
 51
353.7741709355865
  0
LINE
  5
CD9
330
1F
100
AcDbEntity
  8
0
100
AcDbLine
 10
1744.420805021362
 20
1848.55184071991
 30
0.0
 11
1747.107841010965
 21
1873.18300395794
 31
0.0
  0
ARC
  5
CDA
330
1F
100
AcDbEntity
  8
0
100
AcDbCircle
 10
1751.084249717397
 20
1872.749213917239
 30
0.0
 40
4.0
100
AcDbArc
 50
90.0
 51
173.7741709355865
  0
LINE
  5
CDB
330
1F
100
AcDbEntity
  8
0
100
AcDbLine
 10
1734.601620949397
 20
1848.289107774241
 30
0.0
 11
1731.885923183903
 21
1873.18300395794
 31
0.0
  0
ARC
  5
CDC
330
1F
100
AcDbEntity
  8
0
100
AcDbCircle
 10
1727.909514477471
 20
1872.749213917239
 30
0.0
 40
4.0
100
AcDbArc
 50
6.225829064413524
 51
90.0
  0
ARC
  5
CDD
330
1F
100
AcDbEntity
  8
0
100
AcDbCircle
 10
1740.44439631493
 20
1848.985630760612
 30
0.0
 40
4.0
100
AcDbArc
 50
278.1070786417028
 51
353.7741709355865
  0
ARC
  5
CDE
330
1F
100
AcDbEntity
  8
0
100
AcDbCircle
 10
1738.578029655829
 20
1848.722897814943
 30
0.0
 40
4.0
100
AcDbArc
 50
186.2258290644135
 51
277.9189439009123
  0
ARC
  5
CDF
330
1F
100
AcDbEntity
  8
0
100
AcDbCircle
 10
1659.496882097434
 20
2417.249213917239
 30
0.0
 40
578.0
100
AcDbArc
 50
277.9189439009123
 51
278.1070786417028
  0
ARC
  5
CE0
330
1F
100
AcDbEntity
  8
0
100
AcDbCircle
 10
1659.496882097434
 20
2674.249213917239
 30
0.0
 40
805.0
100
AcDbArc
 50
272.8984692046349
 51
273.9454906382387
  0
ARC
  5
CE1
330
1F
100
AcDbEntity
  8
0
100
AcDbCircle
 10
1659.496882097434
 20
2674.249213917239
 30
0.0
 40
805.0
100
AcDbArc
 50
275.1644417928347
 51
276.26200905915
  0
ARC
  5
CE2
330
1F
100
AcDbEntity
  8
0
100
AcDbCircle
 10
1659.496882097434
 20
2674.249213917239
 30
0.0
 40
805.0
100
AcDbArc
 50
263.7452211341712
 51
264.8355582071652
  0
ARC
  5
CE3
330
1F
100
AcDbEntity
  8
0
100
AcDbCircle
 10
1659.496882097434
 20
2417.249213917239
 30
0.0
 40
578.0
100
AcDbArc
 50
261.8929213582971
 51
262.0810560990877
  0
ARC
  5
CE4
330
1F
100
AcDbEntity
  8
0
100
AcDbCircle
 10
1580.415734539039
 20
1848.722897814943
 30
0.0
 40
4.0
100
AcDbArc
 50
262.0810560990877
 51
353.7741709355865
  0
ARC
  5
CE5
330
1F
100
AcDbEntity
  8
0
100
AcDbCircle
 10
1578.549367879938
 20
1848.985630760612
 30
0.0
 40
4.0
100
AcDbArc
 50
186.2258290644135
 51
261.8929213582971
  0
ARC
  5
CE6
330
1F
100
AcDbEntity
  8
0
100
AcDbCircle
 10
1591.084249717397
 20
1872.749213917239
 30
0.0
 40
4.0
100
AcDbArc
 50
90.0
 51
173.7741709355865
  0
LINE
  5
CE7
330
1F
100
AcDbEntity
  8
0
100
AcDbLine
 10
1584.392143245471
 20
1848.289107774241
 30
0.0
 11
1587.107841010965
 21
1873.18300395794
 31
0.0
  0
ARC
  5
CE8
330
1F
100
AcDbEntity
  8
0
100
AcDbCircle
 10
1567.909514477471
 20
1872.749213917239
 30
0.0
 40
4.0
100
AcDbArc
 50
6.225829064413524
 51
90.0
  0
LINE
  5
CE9
330
1F
100
AcDbEntity
  8
0
100
AcDbLine
 10
1574.572959173506
 20
1848.55184071991
 30
0.0
 11
1571.885923183903
 21
1873.18300395794
 31
0.0
  0
ARC
  5
CEA
330
1F
100
AcDbEntity
  8
0
100
AcDbCircle
 10
1659.496882097434
 20
2674.249213917239
 30
0.0
 40
805.0
100
AcDbArc
 50
266.0545093617613
 51
267.1015307953651
  0
ARC
  5
CEB
330
1F
100
AcDbEntity
  8
0
100
AcDbCircle
 10
1610.95080488455
 20
1845.305791551669
 30
0.0
 40
4.0
100
AcDbArc
 50
186.2258290644135
 51
265.1484111131567
  0
ARC
  5
CEC
330
1F
100
AcDbEntity
  8
0
100
AcDbCircle
 10
1612.033050694691
 20
1845.21496257509
 30
0.0
 40
4.0
100
AcDbArc
 50
265.2568189960109
 51
353.7741709355865
  0
LINE
  5
CED
330
1F
100
AcDbEntity
  8
0
100
AcDbLine
 10
1606.974396178118
 20
1844.872001510967
 30
0.0
 11
1603.885923183903
 21
1873.18300395794
 31
0.0
  0
ARC
  5
CEE
330
1F
100
AcDbEntity
  8
0
100
AcDbCircle
 10
1599.909514477471
 20
1872.749213917239
 30
0.0
 40
4.0
100
AcDbArc
 50
6.225829064413524
 51
90.0
  0
LINE
  5
CEF
330
1F
100
AcDbEntity
  8
0
100
AcDbLine
 10
1616.009459401123
 20
1844.781172534389
 30
0.0
 11
1619.107841010965
 21
1873.18300395794
 31
0.0
  0
ARC
  5
CF0
330
1F
100
AcDbEntity
  8
0
100
AcDbCircle
 10
1623.084249717397
 20
1872.749213917239
 30
0.0
 40
4.0
100
AcDbArc
 50
90.0
 51
173.7741709355865
  0
ARC
  5
CF1
330
1F
100
AcDbEntity
  8
0
100
AcDbCircle
 10
1659.496882097434
 20
2417.249213917239
 30
0.0
 40
578.0
100
AcDbArc
 50
265.1484111131567
 51
265.2568189960109
  0
ARC
  5
CF2
330
1F
100
AcDbEntity
  8
0
100
AcDbCircle
 10
1643.149759763401
 20
1843.482038495539
 30
0.0
 40
4.0
100
AcDbArc
 50
186.2258290644135
 51
268.368035236612
  0
ARC
  5
CF3
330
1F
100
AcDbEntity
  8
0
100
AcDbCircle
 10
1643.841898775358
 20
1843.462736647875
 30
0.0
 40
4.0
100
AcDbArc
 50
268.4371503308255
 51
353.7741709355865
  0
ARC
  5
CF4
330
1F
100
AcDbEntity
  8
0
100
AcDbCircle
 10
1655.084249717397
 20
1872.749213917239
 30
0.0
 40
4.0
100
AcDbArc
 50
90.0
 51
173.7741709355865
  0
LINE
  5
CF5
330
1F
100
AcDbEntity
  8
0
100
AcDbLine
 10
1647.81830748179
 20
1843.028946607174
 30
0.0
 11
1651.107841010965
 21
1873.18300395794
 31
0.0
  0
ARC
  5
CF6
330
1F
100
AcDbEntity
  8
0
100
AcDbCircle
 10
1631.909514477471
 20
1872.749213917239
 30
0.0
 40
4.0
100
AcDbArc
 50
6.225829064413524
 51
90.0
  0
LINE
  5
CF7
330
1F
100
AcDbEntity
  8
0
100
AcDbLine
 10
1639.173351056969
 20
1843.048248454836
 30
0.0
 11
1635.885923183902
 21
1873.18300395794
 31
0.0
  0
ARC
  5
CF8
330
1F
100
AcDbEntity
  8
0
100
AcDbCircle
 10
1659.496882097434
 20
2674.249213917239
 30
0.0
 40
805.0
100
AcDbArc
 50
268.347207212106
 51
269.3727290024177
  0
LINE
  5
CFC
330
1F
100
AcDbEntity
  8
0
100
AcDbLine
 10
1680.496882097434
 20
1849.249213917239
 30
0.0
 11
1702.496882097434
 21
1849.249213917239
 31
0.0
  0
LINE
  5
CFD
330
1F
100
AcDbEntity
  8
0
100
AcDbLine
 10
1670.348718198886
 20
1849.249213917239
 30
0.0
 11
1648.496882097434
 21
1849.249213917239
 31
0.0
  0
LINE
  5
CFF
330
1F
100
AcDbEntity
  8
0
100
AcDbLine
 10
1638.496882097434
 20
1849.249213917239
 30
0.0
 11
1616.496882097434
 21
1849.249213917239
 31
0.0
  0
LINE
  5
D01
330
1F
100
AcDbEntity
  8
0
100
AcDbLine
 10
1606.496882097434
 20
1849.249213917239
 30
0.0
 11
1584.496882097434
 21
1849.249213917238
 31
0.0
  0
LINE
  5
D03
330
1F
100
AcDbEntity
  8
0
100
AcDbLine
 10
1574.496882097434
 20
1849.249213917238
 30
0.0
 11
1552.496882097434
 21
1849.249213917238
 31
0.0
  0
HATCH
  5
D04
330
1F
100
AcDbEntity
  8
8
100
AcDbHatch
 10
0.0
 20
0.0
 30
0.0
210
0.0
220
0.0
230
1.0
  2
ANSI31
 70
     0
 71
     0
 91
        2
 92
        7
 72
     1
 73
     1
 93
        5
 10
1734.496882097434
 20
1849.249213917239
 42
0.0
 10
1744.496882097434
 20
1849.249213917239
 42
0.0
 10
1747.107841010965
 20
1873.18300395794
 42
-0.0558461139287495
 10
1747.302437662111
 20
1874.052247907007
 42
-0.0047890772522013
 10
1731.95856197684
 20
1872.517148356022
 42
0.0
 97
        0
 92
        7
 72
     1
 73
     1
 93
        6
 10
1734.496882097434
 20
1849.249213917239
 42
0.0
 10
1734.601620949397
 20
1848.289107774241
 42
0.4228954072939403
 10
1739.129117792125
 20
1844.761041953603
 42
0.0008208928504018
 10
1741.008490490662
 20
1845.025605790879
 42
0.342703619984325
 10
1744.420805021362
 20
1848.55184071991
 42
0.0
 10
1744.496882097433
 20
1849.249213917239
 42
0.0
 97
        0
 75
     0
 76
     1
 52
-90.00000000000001
 41
50.0
 77
     0
 78
     1
 53
315.0
 43
1394.996882097434
 44
1973.249213917238
 45
4.419417382415923
 46
4.41941738241592
 79
     0
 47
0.0942704649851579
 98
        2
 10
1733.996882097434
 20
1868.249213917238
 10
1737.496882097434
 20
1847.249213917238
  0
HATCH
  5
D05
330
1F
100
AcDbEntity
  8
8
100
AcDbHatch
 10
0.0
 20
0.0
 30
0.0
210
0.0
220
0.0
230
1.0
  2
ANSI31
 70
     0
 71
     0
 91
        2
 92
        7
 72
     1
 73
     1
 93
        4
 10
1714.886832631085
 20
1871.157093809041
 42
-0.0045685246222706
 10
1700.202718865629
 20
1870.279043542118
 42
0.0
 10
1702.496882097434
 20
1849.249213917239
 42
0.0
 10
1712.496882097434
 20
1849.249213917239
 42
0.0
 97
        0
 92
        7
 72
     1
 73
     1
 93
        6
 10
1708.381259499955
 20
1841.320123103128
 42
0.3586553884291714
 10
1712.01936801675
 20
1844.872001510967
 42
0.0
 10
1712.496882097434
 20
1849.249213917239
 42
0.0
 10
1702.496882097434
 20
1849.249213917239
 42
0.0
 10
1702.984304793744
 20
1844.781172534389
 42
0.406654488399092
 10
1707.291471907165
 20
1841.228661172009
 42
0.0004730186579972
 97
        0
 75
     0
 76
     1
 52
-90.00000000000001
 41
50.0
 77
     0
 78
     1
 53
315.0
 43
1394.996882097434
 44
1973.249213917238
 45
4.419417382415923
 46
4.41941738241592
 79
     0
 47
0.2412240834222073
 98
        2
 10
1709.996882097434
 20
1860.749213917238
 10
1707.996882097434
 20
1845.249213917238
  0
HATCH
  5
D06
330
1F
100
AcDbEntity
  8
8
100
AcDbHatch
 10
0.0
 20
0.0
 30
0.0
210
0.0
220
0.0
230
1.0
  2
ANSI31
 70
     0
 71
     0
 91
        2
 92
        7
 72
     1
 73
     1
 93
        4
 10
1682.715235848889
 20
1869.584123305578
 42
-0.0044747128134258
 10
1668.309801135089
 20
1869.297456072064
 42
0.0
 10
1670.496882097434
 20
1849.249213917239
 42
0.0
 10
1680.496882097434
 20
1849.249213917239
 42
0.0
 97
        0
 92
        7
 72
     1
 73
     1
 93
        6
 10
1670.496882097434
 20
1849.249213917239
 42
0.0
 10
1671.175456713077
 20
1843.028946607174
 42
0.3905726148560476
 10
1675.260959379942
 20
1839.464224611155
 42
0.0003015714983731
 10
1675.957921660276
 20
1839.483660966467
 42
0.3745920735169596
 10
1679.820413137899
 20
1843.048248454836
 42
0.0
 10
1680.496882097434
 20
1849.249213917239
 42
0.0
 97
        0
 75
     0
 76
     1
 52
-90.00000000000001
 41
50.0
 77
     0
 78
     1
 53
315.0
 43
1394.996882097434
 44
1973.249213917238
 45
4.419417382415923
 46
4.41941738241592
 79
     0
 47
0.2412240834222073
 98
        2
 10
1676.496882097434
 20
1857.249213917238
 10
1675.996882097434
 20
1848.249213917238
  0
HATCH
  5
D07
330
1F
100
AcDbEntity
  8
8
100
AcDbHatch
 10
0.0
 20
0.0
 30
0.0
210
0.0
220
0.0
230
1.0
  2
ANSI31
 70
     0
 71
     0
 91
        2
 92
        7
 72
     1
 73
     1
 93
        4
 10
1650.683963059779
 20
1869.297456072064
 42
-0.0044747128134258
 10
1636.278528345979
 20
1869.584123305578
 42
0.0
 10
1638.496882097434
 20
1849.249213917239
 42
0.0
 10
1648.496882097434
 20
1849.249213917239
 42
0.0
 97
        0
 92
        7
 72
     1
 73
     1
 93
        6
 10
1638.496882097434
 20
1849.249213917239
 42
0.0
 10
1639.173351056969
 20
1843.048248454836
 42
0.3745920735169674
 10
1643.035842534592
 20
1839.483660966467
 42
0.000301571498373
 10
1643.732804814926
 20
1839.464224611155
 42
0.3905726148560626
 10
1647.81830748179
 20
1843.028946607174
 42
0.0
 10
1648.496882097434
 20
1849.249213917239
 42
0.0
 97
        0
 75
     0
 76
     1
 52
-90.00000000000001
 41
50.0
 77
     0
 78
     1
 53
315.0
 43
1394.996882097434
 44
1973.249213917238
 45
4.419417382415923
 46
4.41941738241592
 79
     0
 47
0.2412240834222077
 98
        2
 10
1644.496882097434
 20
1860.249213917238
 10
1642.996882097434
 20
1846.749213917238
  0
HATCH
  5
D08
330
1F
100
AcDbEntity
  8
8
100
AcDbHatch
 10
0.0
 20
0.0
 30
0.0
210
0.0
220
0.0
230
1.0
  2
ANSI31
 70
     0
 71
     0
 91
        2
 92
        7
 72
     1
 73
     1
 93
        4
 10
1618.791045329239
 20
1870.279043542118
 42
-0.0045685246222706
 10
1604.106931563783
 20
1871.157093809041
 42
0.0
 10
1606.496882097434
 20
1849.249213917239
 42
0.0
 10
1616.496882097434
 20
1849.249213917239
 42
0.0
 97
        0
 92
        7
 72
     1
 73
     1
 93
        6
 10
1606.496882097434
 20
1849.249213917239
 42
0.0
 10
1606.974396178118
 20
1844.872001510967
 42
0.3586553884291703
 10
1610.612504694914
 20
1841.320123103128
 42
0.000473018657997
 10
1611.702292287703
 20
1841.228661172009
 42
0.4066544883991228
 10
1616.009459401123
 20
1844.781172534389
 42
0.0
 10
1616.496882097434
 20
1849.249213917239
 42
0.0
 97
        0
 75
     0
 76
     1
 52
-90.00000000000001
 41
50.0
 77
     0
 78
     1
 53
315.0
 43
1394.996882097434
 44
1973.249213917238
 45
4.419417382415923
 46
4.41941738241592
 79
     0
 47
0.2412240834222077
 98
        2
 10
1611.996882097434
 20
1857.249213917238
 10
1613.996882097434
 20
1847.249213917238
  0
HATCH
  5
D09
330
1F
100
AcDbEntity
  8
8
100
AcDbHatch
 10
0.0
 20
0.0
 30
0.0
210
0.0
220
0.0
230
1.0
  2
ANSI31
 70
     0
 71
     0
 91
        2
 92
        7
 72
     1
 73
     1
 93
        5
 10
1587.035202218029
 20
1872.517148356022
 42
-0.0047890772522013
 10
1571.691326532756
 20
1874.052247907008
 42
-0.0558461139287635
 10
1571.885923183903
 20
1873.18300395794
 42
0.0
 10
1574.496882097434
 20
1849.249213917238
 42
0.0
 10
1584.496882097434
 20
1849.249213917238
 42
0.0
 97
        0
 92
        7
 72
     1
 73
     1
 93
        6
 10
1574.496882097434
 20
1849.249213917238
 42
0.0
 10
1574.572959173506
 20
1848.55184071991
 42
0.3427036199843217
 10
1577.985273704206
 20
1845.025605790879
 42
0.0008208928504018
 10
1579.864646402743
 20
1844.761041953603
 42
0.4228954072939393
 10
1584.392143245471
 20
1848.289107774241
 42
0.0
 10
1584.496882097434
 20
1849.249213917238
 42
0.0
 97
        0
 75
     0
 76
     1
 52
-90.00000000000001
 41
50.0
 77
     0
 78
     1
 53
315.0
 43
1394.996882097434
 44
1973.249213917238
 45
4.419417382415923
 46
4.41941738241592
 79
     0
 47
0.2412240834222076
 98
        2
 10
1582.496882097434
 20
1855.249213917238
 10
1580.496882097434
 20
1847.249213917238
  0
ARC
  5
D0A
330
1F
100
AcDbEntity
  8
0
100
AcDbCircle
 10
1659.496882097434
 20
1161.249213917239
 30
0.0
 40
128.0
100
AcDbArc
 50
180.0
 51
0.0
  0
ARC
  5
D0B
330
1F
100
AcDbEntity
  8
0
100
AcDbCircle
 10
1659.496882097434
 20
1161.249213917239
 30
0.0
 40
67.5
100
AcDbArc
 50
326.0607107913388
 51
0.0
  0
ARC
  5
D0C
330
1F
100
AcDbEntity
  8
0
100
AcDbCircle
 10
1659.496882097434
 20
1161.249213917239
 30
0.0
 40
67.5
100
AcDbArc
 50
180.0
 51
213.9392892086612
  0
ARC
  5
D0D
330
1F
100
AcDbEntity
  8
0
100
AcDbCircle
 10
1659.496882097434
 20
1161.249213917239
 30
0.0
 40
103.0
100
AcDbArc
 50
309.7303480027749
 51
312.8758755880862
  0
LINE
  5
D0E
330
1F
100
AcDbEntity
  8
0
100
AcDbLine
 10
1667.496882097434
 20
1161.249213917239
 30
0.0
 11
1667.496882097434
 21
1064.269834665771
 31
0.0
  0
LINE
  5
D0F
102
{ACAD_REACTORS
330
F37
102
}
330
1F
100
AcDbEntity
  8
0
100
AcDbLine
 10
1683.496882097434
 20
1161.249213917239
 30
0.0
 11
1683.496882097434
 21
1069.004972904588
 31
0.0
  0
LINE
  5
D10
330
1F
100
AcDbEntity
  8
0
100
AcDbLine
 10
1699.496882097434
 20
1161.249213917239
 30
0.0
 11
1699.496882097434
 21
1070.403190338878
 31
0.0
  0
LINE
  5
D11
330
1F
100
AcDbEntity
  8
0
100
AcDbLine
 10
1715.496882097434
 20
1161.249213917239
 30
0.0
 11
1715.496882097434
 21
1086.650286311006
 31
0.0
  0
LINE
  5
D12
330
1F
100
AcDbEntity
  8
0
100
AcDbLine
 10
1731.496882097434
 20
1161.249213917239
 30
0.0
 11
1731.496882097434
 21
1090.164757107047
 31
0.0
  0
ARC
  5
D13
330
1F
100
AcDbEntity
  8
0
100
AcDbCircle
 10
1725.496882097434
 20
1090.164757107047
 30
0.0
 40
6.0
100
AcDbArc
 50
312.8758755880862
 51
0.0
  0
ARC
  5
D14
330
1F
100
AcDbEntity
  8
0
100
AcDbCircle
 10
1721.496882097434
 20
1086.650286311006
 30
0.0
 40
6.0
100
AcDbArc
 50
180.0
 51
309.7303480027749
  0
ARC
  5
D15
102
{ACAD_REACTORS
330
F37
102
}
330
1F
100
AcDbEntity
  8
0
100
AcDbCircle
 10
1693.496882097434
 20
1070.403190338878
 30
0.0
 40
6.0
100
AcDbArc
 50
290.5188464246808
 51
0.0
  0
ARC
  5
D16
330
1F
100
AcDbEntity
  8
0
100
AcDbCircle
 10
1689.496882097434
 20
1069.004972904588
 30
0.0
 40
6.0
100
AcDbArc
 50
180.0
 51
288.0157459334308
  0
ARC
  5
D18
330
1F
100
AcDbEntity
  8
0
100
AcDbCircle
 10
1661.496882097434
 20
1064.269834665771
 30
0.0
 40
6.0
100
AcDbArc
 50
271.1814399986289
 51
0.0
  0
ARC
  5
D19
330
1F
100
AcDbEntity
  8
0
100
AcDbCircle
 10
1657.496882097434
 20
1064.269834665771
 30
0.0
 40
6.0
100
AcDbArc
 50
180.0
 51
268.818560001371
  0
LINE
  5
D1B
330
1F
100
AcDbEntity
  8
0
100
AcDbLine
 10
1603.496882097434
 20
1161.249213917239
 30
0.0
 11
1603.496882097434
 21
1086.650286311006
 31
0.0
  0
LINE
  5
D1C
330
1F
100
AcDbEntity
  8
0
100
AcDbLine
 10
1619.496882097434
 20
1161.249213917239
 30
0.0
 11
1619.496882097434
 21
1070.403190338878
 31
0.0
  0
LINE
  5
D1D
330
1F
100
AcDbEntity
  8
0
100
AcDbLine
 10
1635.496882097434
 20
1161.249213917239
 30
0.0
 11
1635.496882097434
 21
1069.004972904588
 31
0.0
  0
LINE
  5
D1E
330
1F
100
AcDbEntity
  8
0
100
AcDbLine
 10
1651.496882097434
 20
1161.249213917239
 30
0.0
 11
1651.496882097434
 21
1064.269834665771
 31
0.0
  0
LINE
  5
D22
330
1F
100
AcDbEntity
  8
0
100
AcDbLine
 10
1587.496882097434
 20
1161.249213917239
 30
0.0
 11
1587.496882097434
 21
1090.164757107047
 31
0.0
  0
ARC
  5
D23
330
1F
100
AcDbEntity
  8
0
100
AcDbCircle
 10
1659.496882097434
 20
1161.249213917239
 30
0.0
 40
103.0
100
AcDbArc
 50
249.4811535753258
 51
251.9842540665692
  0
ARC
  5
D24
330
1F
100
AcDbEntity
  8
0
100
AcDbCircle
 10
1629.496882097434
 20
1069.004972904588
 30
0.0
 40
6.0
100
AcDbArc
 50
251.9842540665692
 51
0.0
  0
ARC
  5
D25
330
1F
100
AcDbEntity
  8
0
100
AcDbCircle
 10
1625.496882097434
 20
1070.403190338878
 30
0.0
 40
6.0
100
AcDbArc
 50
180.0
 51
249.4811535753192
  0
LINE
  5
D26
330
1F
100
AcDbEntity
  8
0
100
AcDbLine
 10
1571.496882097434
 20
1161.249213917239
 30
0.0
 11
1571.496882097434
 21
1133.536400996137
 31
0.0
  0
ARC
  5
D27
330
1F
100
AcDbEntity
  8
0
100
AcDbCircle
 10
1565.496882097434
 20
1133.536400996137
 30
0.0
 40
6.0
100
AcDbArc
 50
196.4264214034662
 51
0.0
  0
ARC
  5
D28
330
1F
100
AcDbEntity
  8
0
100
AcDbCircle
 10
1659.496882097434
 20
1161.249213917239
 30
0.0
 40
104.0000000000001
100
AcDbArc
 50
180.0
 51
196.4264214034662
  0
ARC
  5
D29
330
1F
100
AcDbEntity
  8
0
100
AcDbCircle
 10
1659.496882097434
 20
1161.249213917239
 30
0.0
 40
104.0000000000001
100
AcDbArc
 50
343.573578596534
 51
0.0
  0
ARC
  5
D2A
330
1F
100
AcDbEntity
  8
0
100
AcDbCircle
 10
1753.496882097434
 20
1133.536400996137
 30
0.0
 40
6.0
100
AcDbArc
 50
180.0
 51
343.573578596534
  0
LINE
  5
D2B
330
1F
100
AcDbEntity
  8
0
100
AcDbLine
 10
1747.496882097434
 20
1161.249213917239
 30
0.0
 11
1747.496882097434
 21
1133.536400996137
 31
0.0
  0
ARC
  5
D2C
330
1F
100
AcDbEntity
  8
0
100
AcDbCircle
 10
1659.496882097434
 20
2417.249213917239
 30
0.0
 40
578.0
100
AcDbArc
 50
271.5628496691745
 51
271.6319647633881
  0
ARC
  5
D2D
330
1F
100
AcDbEntity
  8
0
100
AcDbCircle
 10
1659.496882097434
 20
2417.249213917239
 30
0.0
 40
578.0
100
AcDbArc
 50
268.368035236612
 51
268.4371503308255
  0
LINE
  5
D2E
330
1F
100
AcDbEntity
  8
0
100
AcDbLine
 10
1591.084249717397
 20
1876.749213917239
 30
0.0
 11
1599.909514477471
 21
1876.749213917239
 31
0.0
  0
LINE
  5
D2F
330
1F
100
AcDbEntity
  8
0
100
AcDbLine
 10
1623.084249717397
 20
1876.749213917239
 30
0.0
 11
1631.909514477471
 21
1876.749213917239
 31
0.0
  0
LINE
  5
D30
330
1F
100
AcDbEntity
  8
0
100
AcDbLine
 10
1655.084249717397
 20
1876.749213917239
 30
0.0
 11
1663.909514477471
 21
1876.749213917239
 31
0.0
  0
LINE
  5
D31
330
1F
100
AcDbEntity
  8
0
100
AcDbLine
 10
1687.084249717397
 20
1876.749213917239
 30
0.0
 11
1695.909514477471
 21
1876.749213917239
 31
0.0
  0
LINE
  5
D32
330
1F
100
AcDbEntity
  8
0
100
AcDbLine
 10
1719.084249717397
 20
1876.749213917239
 30
0.0
 11
1727.909514477471
 21
1876.749213917239
 31
0.0
  0
LINE
  5
D33
330
1F
100
AcDbEntity
  8
0
100
AcDbLine
 10
1751.084249717397
 20
1876.749213917238
 30
0.0
 11
1763.496882097434
 21
1876.749213917238
 31
0.0
  0
LINE
  5
D34
330
1F
100
AcDbEntity
  8
0
100
AcDbLine
 10
1783.485347393031
 20
1878.970154505638
 30
0.0
 11
1782.746882097434
 21
1880.249213917238
 31
0.0
  0
LINE
  5
D35
330
1F
100
AcDbEntity
  8
0
100
AcDbLine
 10
1763.496882097434
 20
1876.749213917238
 30
0.0
 11
1785.996882097433
 21
1879.249213917238
 31
0.0
  0
LWPOLYLINE
  5
D36
330
1F
100
AcDbEntity
  8
0
100
AcDbPolyline
 90
        2
 70
     0
 43
0.0
 10
1555.496882097434
 20
1876.749213917239
 10
1531.549740023156
 20
1879.240624611513
  0
LINE
  5
D37
330
1F
100
AcDbEntity
  8
0
100
AcDbLine
 10
1550.421371686596
 20
1880.249213917239
 30
0.0
 11
1552.246882097434
 21
1877.087337135921
 31
0.0
  0
LINE
  5
D38
330
1F
100
AcDbEntity
  8
0
100
AcDbLine
 10
1768.55912044239
 20
1880.249213917238
 30
0.0
 11
1766.746882097434
 21
1877.11032502835
 31
0.0
  0
ARC
  5
D39
330
1F
100
AcDbEntity
  8
0
100
AcDbCircle
 10
1659.496882097434
 20
1161.249213917239
 30
0.0
 40
67.5
100
AcDbArc
 50
233.6587969062138
 51
249.1725030679826
  0
ARC
  5
D3A
330
1F
100
AcDbEntity
  8
0
100
AcDbCircle
 10
1659.496882097434
 20
1161.249213917239
 30
0.0
 40
67.5
100
AcDbArc
 50
263.1933902146665
 51
276.8066097853335
  0
LINE
  5
D3C
330
1F
100
AcDbEntity
  8
0
  6
CENTER
100
AcDbLine
 10
1736.496882097434
 20
1692.253027638074
 30
0.0
 11
1732.63682093667
 21
1675.249213917238
 31
0.0
  0
ARC
  5
D3D
330
1F
100
AcDbEntity
  8
0
100
AcDbCircle
 10
1659.496882097434
 20
1161.249213917239
 30
0.0
 40
128.0
100
AcDbArc
 50
0.0
 51
180.0
  0
ARC
  5
D3E
330
1F
100
AcDbEntity
  8
0
100
AcDbCircle
 10
1659.496882097434
 20
1161.249213917239
 30
0.0
 40
67.5
100
AcDbArc
 50
0.0
 51
33.9392892086583
  0
ARC
  5
D3F
330
1F
100
AcDbEntity
  8
0
100
AcDbCircle
 10
1659.496882097434
 20
1161.249213917239
 30
0.0
 40
67.5
100
AcDbArc
 50
146.0607107913417
 51
180.0
  0
ARC
  5
D40
330
1F
100
AcDbEntity
  8
0
100
AcDbCircle
 10
1659.496882097434
 20
1161.249213917239
 30
0.0
 40
103.0
100
AcDbArc
 50
47.1241244119046
 51
50.26965199723554
  0
LINE
  5
D41
330
1F
100
AcDbEntity
  8
0
100
AcDbLine
 10
1667.496882097434
 20
1161.249213917239
 30
0.0
 11
1667.496882097434
 21
1258.228593168706
 31
0.0
  0
LINE
  5
D42
330
1F
100
AcDbEntity
  8
0
100
AcDbLine
 10
1683.496882097434
 20
1161.249213917239
 30
0.0
 11
1683.496882097434
 21
1253.493454929889
 31
0.0
  0
LINE
  5
D43
330
1F
100
AcDbEntity
  8
0
100
AcDbLine
 10
1699.496882097434
 20
1161.249213917239
 30
0.0
 11
1699.496882097434
 21
1252.095237495599
 31
0.0
  0
LINE
  5
D44
330
1F
100
AcDbEntity
  8
0
100
AcDbLine
 10
1715.496882097434
 20
1161.249213917239
 30
0.0
 11
1715.496882097434
 21
1235.848141523471
 31
0.0
  0
LINE
  5
D45
330
1F
100
AcDbEntity
  8
0
100
AcDbLine
 10
1731.496882097434
 20
1161.249213917239
 30
0.0
 11
1731.496882097434
 21
1232.333670727429
 31
0.0
  0
ARC
  5
D46
330
1F
100
AcDbEntity
  8
0
100
AcDbCircle
 10
1725.496882097434
 20
1232.333670727429
 30
0.0
 40
6.0
100
AcDbArc
 50
0.0
 51
47.1241244119046
  0
ARC
  5
D47
330
1F
100
AcDbEntity
  8
0
100
AcDbCircle
 10
1721.496882097434
 20
1235.848141523471
 30
0.0
 40
6.0
100
AcDbArc
 50
50.26965199723554
 51
180.0
  0
ARC
  5
D48
330
1F
100
AcDbEntity
  8
0
100
AcDbCircle
 10
1693.496882097434
 20
1252.095237495599
 30
0.0
 40
6.0
100
AcDbArc
 50
0.0
 51
69.48115357531918
  0
ARC
  5
D49
330
1F
100
AcDbEntity
  8
0
100
AcDbCircle
 10
1689.496882097434
 20
1253.493454929889
 30
0.0
 40
6.0
100
AcDbArc
 50
71.98425406656304
 51
180.0
  0
ARC
  5
D4A
330
1F
100
AcDbEntity
  8
0
100
AcDbCircle
 10
1659.496882097434
 20
1161.249213917239
 30
0.0
 40
103.0
100
AcDbArc
 50
69.48115357533128
 51
71.98425406656304
  0
ARC
  5
D4B
330
1F
100
AcDbEntity
  8
0
100
AcDbCircle
 10
1661.496882097434
 20
1258.228593168706
 30
0.0
 40
6.0
100
AcDbArc
 50
0.0
 51
88.81856000137108
  0
ARC
  5
D4C
330
1F
100
AcDbEntity
  8
0
100
AcDbCircle
 10
1657.496882097434
 20
1258.228593168706
 30
0.0
 40
6.0
100
AcDbArc
 50
91.18143999862892
 51
180.0
  0
ARC
  5
D4D
330
1F
100
AcDbEntity
  8
0
100
AcDbCircle
 10
1659.496882097434
 20
1161.249213917239
 30
0.0
 40
103.0
100
AcDbArc
 50
88.81856000137108
 51
91.18143999862892
  0
LINE
  5
D4E
330
1F
100
AcDbEntity
  8
0
100
AcDbLine
 10
1603.496882097434
 20
1161.249213917239
 30
0.0
 11
1603.496882097434
 21
1235.848141523471
 31
0.0
  0
LINE
  5
D4F
330
1F
100
AcDbEntity
  8
0
100
AcDbLine
 10
1619.496882097434
 20
1161.249213917239
 30
0.0
 11
1619.496882097434
 21
1252.095237495599
 31
0.0
  0
LINE
  5
D50
330
1F
100
AcDbEntity
  8
0
100
AcDbLine
 10
1635.496882097434
 20
1161.249213917239
 30
0.0
 11
1635.496882097434
 21
1253.493454929889
 31
0.0
  0
LINE
  5
D51
330
1F
100
AcDbEntity
  8
0
100
AcDbLine
 10
1651.496882097434
 20
1161.249213917239
 30
0.0
 11
1651.496882097434
 21
1258.228593168706
 31
0.0
  0
ARC
  5
D53
330
1F
100
AcDbEntity
  8
0
100
AcDbCircle
 10
1659.496882097434
 20
1161.249213917239
 30
0.0
 40
103.0
100
AcDbArc
 50
129.7303480027645
 51
132.8758755880954
  0
ARC
  5
D54
330
1F
100
AcDbEntity
  8
0
100
AcDbCircle
 10
1597.496882097434
 20
1235.848141523471
 30
0.0
 40
6.0
100
AcDbArc
 50
0.0
 51
129.7303480027645
  0
LINE
  5
D55
330
1F
100
AcDbEntity
  8
0
100
AcDbLine
 10
1587.496882097434
 20
1161.249213917239
 30
0.0
 11
1587.496882097434
 21
1232.333670727429
 31
0.0
  0
ARC
  5
D56
330
1F
100
AcDbEntity
  8
0
100
AcDbCircle
 10
1659.496882097434
 20
1161.249213917239
 30
0.0
 40
103.0
100
AcDbArc
 50
108.0157459334377
 51
110.5188464246687
  0
ARC
  5
D57
330
1F
100
AcDbEntity
  8
0
100
AcDbCircle
 10
1629.496882097434
 20
1253.493454929889
 30
0.0
 40
6.0
100
AcDbArc
 50
0.0
 51
108.0157459334377
  0
LINE
  5
D59
330
1F
100
AcDbEntity
  8
0
100
AcDbLine
 10
1571.496882097434
 20
1161.249213917239
 30
0.0
 11
1571.496882097434
 21
1188.96202683834
 31
0.0
  0
ARC
  5
D5A
330
1F
100
AcDbEntity
  8
0
100
AcDbCircle
 10
1565.496882097434
 20
1188.96202683834
 30
0.0
 40
6.0
100
AcDbArc
 50
0.0
 51
163.573578596533
  0
ARC
  5
D5B
330
1F
100
AcDbEntity
  8
0
100
AcDbCircle
 10
1659.496882097434
 20
1161.249213917239
 30
0.0
 40
104.0000000000001
100
AcDbArc
 50
163.573578596533
 51
180.0
  0
ARC
  5
D5C
330
1F
100
AcDbEntity
  8
0
100
AcDbCircle
 10
1659.496882097434
 20
1161.249213917239
 30
0.0
 40
104.0000000000001
100
AcDbArc
 50
0.0
 51
16.42642140346679
  0
ARC
  5
D5D
330
1F
100
AcDbEntity
  8
0
100
AcDbCircle
 10
1753.496882097434
 20
1188.96202683834
 30
0.0
 40
6.0
100
AcDbArc
 50
16.42642140346679
 51
180.0
  0
LINE
  5
D5E
330
1F
100
AcDbEntity
  8
0
100
AcDbLine
 10
1747.496882097434
 20
1161.249213917239
 30
0.0
 11
1747.496882097434
 21
1188.96202683834
 31
0.0
  0
ARC
  5
D5F
330
1F
100
AcDbEntity
  8
0
100
AcDbCircle
 10
1659.496882097434
 20
1161.249213917239
 30
0.0
 40
67.5
100
AcDbArc
 50
110.8274969320104
 51
126.3412030937961
  0
ARC
  5
D60
330
1F
100
AcDbEntity
  8
0
100
AcDbCircle
 10
1659.496882097434
 20
1161.249213917239
 30
0.0
 40
67.5
100
AcDbArc
 50
83.1933902146666
 51
96.80660978533339
  0
ARC
  5
D61
330
1F
100
AcDbEntity
  8
0
100
AcDbCircle
 10
1659.496882097434
 20
1161.249213917239
 30
0.0
 40
67.5
100
AcDbArc
 50
53.65879690620388
 51
69.17250306798955
  0
LINE
  5
D64
102
{ACAD_REACTORS
330
E23
330
E50
330
F94
102
}
330
1F
100
AcDbEntity
  8
AM_7
100
AcDbLine
 10
1659.496882097434
 20
1883.249213917238
 30
0.0
 11
1659.496882097434
 21
1602.297992010636
 31
0.0
1001
GENIUS_GENOBJ-N-CEN_13
1002
{
1000
OWNER
1000
GEN
1002
}
1001
GENIUS_GENODEF_13
1002
{
1000
HIER
1070
     0
1002
}
1002
{
1000
MANEDIT
1070
     0
1002
}
1002
{
1000
NOSEL
1070
     0
1002
}
1002
{
1000
BEHIND
1070
     0
1002
}
1002
{
1000
OTHER
1070
     0
1002
}
1002
{
1000
REACTOR
1002
}
1001
GENIUS_GENCEN_19
1002
{
1040
3.0
1002
}
  0
DIMENSION
  5
D81
102
{ACAD_XDICTIONARY
360
D8E
102
}
102
{ACAD_REACTORS
330
D8F
102
}
330
1F
100
AcDbEntity
  8
AM_5
100
AcDbDimension
  2
*D3
 10
1794.496882097434
 20
1911.772043898276
 30
0.0
 11
1659.496882097434
 21
1917.27283129985
 31
0.0
 70
    32
  1
%%c<>
 71
     5
 42
270.0
  3
AM_ISO$0
100
AcDbAlignedDimension
 13
1524.496882097434
 23
1880.249213917238
 33
0.0
 14
1794.496882097434
 24
1880.249213917238
 34
0.0
 50
0.0000000000000114
100
AcDbRotatedDimension
1001
ACAD
1000
DSTYLE
1002
{
1070
   140
1040
8.0
1070
   271
1070
     0
1002
}
  0
DIMENSION
  5
DB4
102
{ACAD_XDICTIONARY
360
DC1
102
}
102
{ACAD_REACTORS
330
DC2
102
}
330
1F
100
AcDbEntity
  8
AM_5
100
AcDbDimension
  2
*D4
 10
1400.020334425806
 20
1800.249213917238
 30
0.0
 11
1394.520334425806
 21
1840.249213917239
 31
0.0
 70
    32
 71
     5
 42
80.0
  3
AM_ISO$0
100
AcDbAlignedDimension
 13
1524.496882097434
 23
1880.249213917238
 33
0.0
 14
1477.665847292277
 24
1800.249213917238
 34
0.0
 50
90.00000000000003
100
AcDbRotatedDimension
1001
ACAD
1000
DSTYLE
1002
{
1070
   140
1040
8.0
1070
   271
1070
     0
1002
}
  0
DIMENSION
  5
DDE
102
{ACAD_XDICTIONARY
360
DEB
102
}
102
{ACAD_REACTORS
330
DEC
102
}
330
1F
100
AcDbEntity
  8
AM_5
100
AcDbDimension
  2
*D5
 10
1503.388883946469
 20
1735.201595764583
 30
0.0
 11
1497.888883946468
 21
1705.225404840911
 31
0.0
 70
    32
 71
     5
 42
59.95238184734489
  3
AM_ISO$0
100
AcDbAlignedDimension
 13
1726.996882097434
 23
1675.249213917238
 33
0.0
 14
1780.815557609733
 24
1735.201595764583
 34
0.0
 50
90.00000000000019
100
AcDbRotatedDimension
1001
ACAD
1000
DSTYLE
1002
{
1070
   140
1040
8.0
1070
   271
1070
     0
1002
}
  0
DIMENSION
  5
E15
102
{ACAD_XDICTIONARY
360
E22
102
}
102
{ACAD_REACTORS
330
E23
102
}
330
1F
100
AcDbEntity
  8
AM_5
100
AcDbDimension
  2
*D6
 10
1328.280836550255
 20
1610.249213917239
 30
0.0
 11
1322.78004914868
 21
1745.249213917239
 31
0.0
 70
    32
 71
     5
 42
269.9999999999998
  3
AM_ISO$0
100
AcDbAlignedDimension
 13
1524.496882097434
 23
1880.249213917238
 33
0.0
 14
1659.496882097434
 24
1610.249213917239
 34
0.0
 50
90.00000000000003
100
AcDbRotatedDimension
1001
ACAD
1000
DSTYLE
1002
{
1070
   140
1040
8.0
1070
   271
1070
     0
1002
}
  0
LINE
  5
E32
102
{ACAD_REACTORS
330
EA1
102
}
330
1F
100
AcDbEntity
  8
AM_7
100
AcDbLine
 10
1946.528402798078
 20
1722.452940910826
 30
0.0
 11
1972.492770701697
 21
1721.092206048509
 31
0.0
1001
GENIUS_GENOBJ-N-CEN_13
1002
{
1000
OWNER
1000
GEN
1002
}
1001
GENIUS_GENODEF_13
1002
{
1000
HIER
1070
     0
1002
}
1002
{
1000
MANEDIT
1070
     0
1002
}
1002
{
1000
NOSEL
1070
     0
1002
}
1002
{
1000
BEHIND
1070
     0
1002
}
1002
{
1000
OTHER
1070
     0
1002
}
1002
{
1000
REACTOR
1002
}
1001
GENIUS_GENCEN_19
1002
{
1040
3.0
1002
}
  0
DIMENSION
  5
E42
102
{ACAD_XDICTIONARY
360
E4F
102
}
102
{ACAD_REACTORS
330
E50
102
}
330
1F
100
AcDbEntity
  8
AM_5
100
AcDbDimension
  2
*D7
 10
1969.496882097434
 20
1578.661485367733
 30
0.0
 11
1814.496882097434
 21
1584.161485367733
 31
0.0
 70
    32
 71
     5
 42
310.0
  3
AM_ISO$0
100
AcDbAlignedDimension
 13
1659.496882097434
 23
1610.249213917239
 33
0.0
 14
1969.496882097434
 24
1721.249213917239
 34
0.0
 50
0.0000000000001132
100
AcDbRotatedDimension
1001
ACAD
1000
DSTYLE
1002
{
1070
   140
1040
8.0
1070
   271
1070
     0
1002
}
  0
DIMENSION
  5
E93
102
{ACAD_XDICTIONARY
360
EA0
102
}
102
{ACAD_REACTORS
330
EA1
102
}
330
1F
100
AcDbEntity
  8
AM_5
100
AcDbDimension
  2
*D8
 10
2032.085024534753
 20
1721.249213917238
 30
0.0
 11
2026.585024534752
 21
1800.749213917239
 31
0.0
 70
    32
 71
     5
 42
159.0000000000002
  3
AM_ISO$0
100
AcDbAlignedDimension
 13
1794.496882097434
 23
1880.249213917238
 33
0.0
 14
1969.496882097434
 24
1721.249213917238
 34
0.0
 50
90.00000000000003
100
AcDbRotatedDimension
1001
ACAD
1000
DSTYLE
1002
{
1070
   140
1040
8.0
1070
   271
1070
     0
1002
}
  0
MTEXT
  5
EAE
330
1F
100
AcDbEntity
  8
6
100
AcDbMText
 10
1975.470042547195
 20
1717.62923108014
 30
0.0
 40
8.0
 41
34.37247079862391
 71
     1
 72
     5
  1
1.5
 73
     1
 44
1.0
1001
ACAD
1000
ACAD_MTEXT_DEFINED_HEIGHT_BEGIN
1070
    46
1040
0.0
1000
ACAD_MTEXT_DEFINED_HEIGHT_END
1000
MTEXTBEGIN
1070
    73
1070
     1
1070
    44
1040
1.0
1070
    74
1070
     0
1000
MTEXTEND
  0
CIRCLE
  5
EB6
330
1F
100
AcDbEntity
  8
AM_5
100
AcDbCircle
 10
1995.600801342178
 20
1718.66904376139
 30
0.0
 40
0.9288354407633887
  0
ARC
  5
EE0
330
1F
100
AcDbEntity
  8
0
100
AcDbCircle
 10
1627.496882097434
 20
1181.010780685407
 30
0.0
 40
103.0
100
AcDbArc
 50
249.4811535753258
 51
251.9842540665691
  0
ARC
  5
EE1
330
1F
100
AcDbEntity
  8
0
100
AcDbCircle
 10
1597.496882097433
 20
1088.766539672757
 30
0.0
 40
6.0
100
AcDbArc
 50
251.9842540665691
 51
0.0
  0
ARC
  5
EE2
330
1F
100
AcDbEntity
  8
0
100
AcDbCircle
 10
1593.496882097434
 20
1090.164757107047
 30
0.0
 40
6.0
100
AcDbArc
 50
180.0
 51
249.4811535753192
  0
LINE
  5
EE3
330
1F
100
AcDbEntity
  8
0
100
AcDbLine
 10
1657.373170757228
 20
1058.271110175989
 30
0.0
 11
1661.62059343764
 21
1058.271110175989
 31
0.0
  0
LINE
  5
EE4
330
1F
100
AcDbEntity
  8
0
100
AcDbLine
 10
1691.352552200527
 20
1063.299143563599
 30
0.0
 11
1695.599974880939
 21
1064.783848674237
 31
0.0
  0
LINE
  5
EE5
330
1F
100
AcDbEntity
  8
0
100
AcDbLine
 10
1589.414407870618
 20
1236.730647437328
 30
0.0
 11
1587.496882097434
 21
1232.333670727429
 31
0.0
  0
LINE
  5
EE6
330
1F
100
AcDbEntity
  8
0
100
AcDbLine
 10
1623.393789313954
 20
1257.714579160249
 30
0.0
 11
1619.496882097434
 21
1252.095237495599
 31
0.0
  0
DIMENSION
  5
EF6
330
1F
100
AcDbEntity
  8
AM_5
100
AcDbDimension
  2
*D9
 10
1342.988070505024
 20
936.2492139172388
 30
0.0
 11
1337.488070505023
 21
1161.249213917239
 31
0.0
 70
    32
  1
%%c<>
 71
     5
 42
449.9999999999999
  3
AM_ISO$0
100
AcDbAlignedDimension
 13
1659.496882097434
 23
1386.249213917239
 33
0.0
 14
1659.496882097434
 24
936.2492139172388
 34
0.0
 50
90.00000000000003
100
AcDbRotatedDimension
1001
ACAD
1000
DSTYLE
1002
{
1070
   140
1040
8.0
1070
   271
1070
     0
1002
}
  0
DIMENSION
  5
F29
102
{ACAD_XDICTIONARY
360
F36
102
}
102
{ACAD_REACTORS
330
F37
102
}
330
1F
100
AcDbEntity
  8
AM_5
100
AcDbDimension
  2
*D10
 10
1699.496882097434
 20
865.4298782087025
 30
0.0
 11
1691.496882097434
 21
870.9298782087026
 31
0.0
 70
    32
 71
     5
 42
16.0
  3
AM_ISO$0
100
AcDbAlignedDimension
 13
1683.496882097434
 23
1069.004972904588
 33
0.0
 14
1699.496882097434
 24
1070.403190338878
 34
0.0
 50
0.0000000000001132
100
AcDbRotatedDimension
1001
ACAD
1000
DSTYLE
1002
{
1070
   140
1040
8.0
1070
   271
1070
     0
1002
}
  0
ARC
  5
F49
330
1F
100
AcDbEntity
  8
0
100
AcDbCircle
 10
1659.496882097434
 20
1161.249213917239
 30
0.0
 40
67.5
100
AcDbArc
 50
290.8274969320121
 51
306.3412030937849
  0
HATCH
  5
F94
330
1F
100
AcDbEntity
  8
8
100
AcDbHatch
 10
0.0
 20
0.0
 30
0.0
210
0.0
220
0.0
230
1.0
  2
ANSI31
 70
     0
 71
     1
 91
        2
 92
        7
 72
     1
 73
     1
 93
       21
 10
1516.557067146369
 20
1800.249213917238
 42
0.0
 10
1438.774627438185
 20
1800.249213917238
 42
0.3888787318529923
 10
1434.789848645818
 20
1796.597836888229
 42
0.0
 10
1434.496882097434
 20
1793.249213917239
 42
0.0
 10
1474.781530639648
 20
1791.137984947943
 42
-0.3492156334215319
 10
1478.511417826726
 20
1787.838059519593
 42
0.0
 10
1479.496882097434
 20
1782.249213917242
 42
1.0
 10
1499.496882097434
 20
1782.249213917242
 42
0.0
 10
1500.209036600822
 20
1786.288042805064
 42
-0.3788661086953092
 10
1504.357611437842
 20
1789.587968233414
 42
0.0
 10
1531.88146817629
 20
1788.145504024447
 42
-0.3689194771098252
 10
1541.303327567543
 20
1779.204493309578
 42
0.0
 10
1550.200071966665
 20
1694.55762464026
 42
0.340871486709281
 10
1659.496882097434
 20
1610.249213917238
 42
0.0
 10
1659.496882097434
 20
1616.249213917238
 42
-0.3396965639767384
 10
1556.118791574634
 20
1695.645402588733
 42
0.0
 10
1542.496882097434
 20
1825.249213917238
 42
0.0
 10
1532.379309958001
 20
1825.249213917238
 42
0.0
 10
1529.496882097434
 20
1880.249213917238
 42
0.0
 10
1524.496882097434
 20
1880.249213917239
 42
0.0
 10
1522.555011096222
 20
1806.092152227391
 42
-0.406566258644061
 97
       21
330
C2D
330
C36
330
C29
330
C37
330
C47
330
C2E
330
C30
330
C2F
330
C39
330
C3B
330
C3A
330
C38
330
C3D
330
C3E
330
C3C
330
C73
330
C72
330
C8F
330
D64
330
C90
330
C71
 92
        7
 72
     1
 73
     1
 93
       16
 10
1659.496882097434
 20
1616.249213917238
 42
0.0
 10
1659.496882097434
 20
1610.249213917239
 42
0.417697398862955
 10
1772.488908239792
 20
1724.591610373118
 42
-0.6024240253221843
 10
1790.157136135279
 20
1725.249213917239
 42
0.0
 10
1811.737583497853
 20
1687.870782635193
 42
0.2539676464749453
 10
1836.148266924098
 20
1672.911896592556
 42
0.0
 10
1966.605320515011
 20
1666.074932122048
 42
0.0
 10
1966.93242024153
 20
1672.316366714264
 42
0.0
 10
1946.959829546437
 20
1673.363085839122
 42
0.0
 10
1941.901261927362
 20
1672.376478701895
 42
0.0
 10
1839.121004693923
 20
1677.762963737639
 42
-0.2539676464749434
 10
1814.710321267678
 20
1692.721849780276
 42
0.0
 10
1794.4872631542
 20
1727.749213917238
 42
0.2467036571115305
 10
1782.691150530913
 20
1735.201595764583
 42
0.0
 10
1780.815557609732
 20
1735.201595764583
 42
0.3120577589906925
 10
1766.496882097434
 20
1723.249213917239
 42
-0.4142135623731003
 97
       16
330
C61
330
C63
330
C65
330
C5C
330
C5B
330
C5D
330
C5E
330
C5F
330
C64
330
C62
330
C66
330
C76
330
C91
330
C90
330
D64
330
C8F
 75
     0
 76
     1
 52
0.0
 41
1.0
 77
     0
 78
     1
 53
45.0
 43
0.0
 44
0.0
 45
-2.245064030267287
 46
2.245064030267288
 79
     0
 47
0.637309335068427
 98
        2
 10
1524.721487813258
 20
1796.393131232121
 10
1759.992478512739
 20
1679.765522784119
1001
ACAD
1010
0.0
1020
0.0
1030
0.0
  0
CIRCLE
  5
1003
330
1F
100
AcDbEntity
  8
0
100
AcDbCircle
 10
1535.150092416611
 20
1856.628077227477
 30
0.0
 40
4.422765457341029
  0
HATCH
  5
1010
330
1F
100
AcDbEntity
  8
AM_8
100
AcDbHatch
 10
0.0
 20
0.0
 30
0.0
210
0.0
220
0.0
230
1.0
  2
_U
 70
     0
 71
     0
 91
        1
 92
        1
 93
        4
 72
     1
 10
1530.728810459781
 20
1856.742620445803
 11
1530.765003731536
 21
1856.052011680265
 72
     2
 10
1535.150092416611
 20
1856.628077227477
 40
4.422765457341085
 50
187.4840436196467
 51
320.9503957839453
 73
     1
 72
     1
 10
1538.58481574968
 20
1853.841766061092
 11
1538.382085694548
 21
1859.647195267901
 72
     2
 10
1535.150092416611
 20
1856.628077227477
 40
4.422765457341029
 50
43.04960421605623
 51
178.5159563803543
 73
     1
 97
        0
 75
     0
 76
     0
 52
45.0
 41
2.299999999999999
 77
     1
 78
     2
 53
45.0
 43
0.0
 44
0.0
 45
-1.626345596729059
 46
1.626345596729059
 79
     0
 53
135.0
 43
0.0
 44
0.0
 45
-1.626345596729059
 46
-1.626345596729058
 79
     0
 98
        1
 10
0.0
 20
0.0
1001
GENIUS_GENOBJ-N-HTC_13
1002
{
1000
OWNER
1000
GEN
1002
}
1001
GENIUS_GENODEF_13
1002
{
1000
HIER
1070
     0
1002
}
1002
{
1000
MANEDIT
1070
     0
1002
}
1002
{
1000
NOSEL
1070
     0
1002
}
1002
{
1000
BEHIND
1070
     0
1002
}
1002
{
1000
OTHER
1070
     0
1002
}
1002
{
1000
REACTOR
1002
}
1001
GENIUS_GENHATCH_13
1002
{
1000
DATA
1040
45.0
1042
2.299999999999999
1000
_U
1070
     1
1011
1535.150092416611
1021
1857.610915187681
1031
0.0
1002
}
1002
{
1000
UCS
1010
0.0
1020
0.0
1030
0.0
1010
1.0
1020
0.0
1030
0.0
1010
0.0
1020
1.0
1030
0.0
1002
}
  0
CIRCLE
  5
1014
330
1F
100
AcDbEntity
  8
0
100
AcDbCircle
 10
1783.843671778258
 20
1856.628077227476
 30
0.0
 40
4.42276545734103
  0
HATCH
  5
1015
330
1F
100
AcDbEntity
  8
AM_8
100
AcDbHatch
 10
0.0
 20
0.0
 30
0.0
210
0.0
220
0.0
230
1.0
  2
_U
 70
     0
 71
     0
 91
        1
 92
        1
 93
        4
 72
     1
 10
1788.264953735087
 20
1856.742620445802
 11
1788.228760463332
 21
1856.052011680264
 72
     2
 10
1783.843671778258
 20
1856.628077227476
 40
4.422765457341087
 50
7.484043619647265
 51
140.9503957839458
 73
     0
 72
     1
 10
1780.408948445188
 20
1853.841766061092
 11
1780.61167850032
 21
1859.6471952679
 72
     2
 10
1783.843671778258
 20
1856.628077227476
 40
4.42276545734103
 50
-136.9503957839433
 51
-1.484043619645195
 73
     0
 97
        0
 75
     0
 76
     0
 52
45.0
 41
2.299999999999999
 77
     1
 78
     2
 53
134.9999999999995
 43
3318.993764194854
 44
-0.0000000000136424
 45
1.626345596729073
 46
1.626345596729045
 79
     0
 53
44.99999999999952
 43
3318.993764194854
 44
-0.0000000000136424
 45
1.626345596729046
 46
-1.626345596729072
 79
     0
 98
        1
 10
3318.993764194854
 20
-0.0000000000136424
1001
GENIUS_GENOBJ-N-HTC_13
1002
{
1000
OWNER
1000
GEN
1002
}
1001
GENIUS_GENODEF_13
1002
{
1000
HIER
1070
     0
1002
}
1002
{
1000
MANEDIT
1070
     0
1002
}
1002
{
1000
NOSEL
1070
     0
1002
}
1002
{
1000
BEHIND
1070
     0
1002
}
1002
{
1000
OTHER
1070
     0
1002
}
1002
{
1000
REACTOR
1002
}
1001
GENIUS_GENHATCH_13
1002
{
1000
DATA
1040
45.0
1042
-2.3
1000
_U
1070
     1
1011
1783.843671778258
1021
1857.61091518768
1031
0.0
1002
}
1002
{
1000
UCS
1010
0.0
1020
0.0
1030
0.0
1010
1.0
1020
0.0
1030
0.0
1010
0.0
1020
1.0
1030
0.0
1002
}
  0
LINE
  5
1016
330
1F
100
AcDbEntity
  8
0
100
AcDbLine
 10
1770.090804326752
 20
1825.249213917238
 30
0.0
 11
1786.614454236867
 21
1825.249213917238
 31
0.0
  0
LINE
  5
1017
330
1F
100
AcDbEntity
  8
0
100
AcDbLine
 10
1744.496882097434
 20
1849.249213917237
 30
0.0
 11
1766.496882097434
 21
1849.249213917237
 31
0.0
  0
ENDSEC
  0
SECTION
  2
OBJECTS
  0
DICTIONARY
  5
C
330
0
100
AcDbDictionary
281
     1
  3
ACAD_COLOR
350
BE
  3
ACAD_GROUP
350
D
  3
ACAD_LAYOUT
350
1A
  3
ACAD_MATERIAL
350
BD
  3
ACAD_MLINESTYLE
350
17
  3
ACAD_PLOTSETTINGS
350
19
  3
ACAD_PLOTSTYLENAME
350
E
  3
ACAD_TABLESTYLE
350
11A
  3
ACDBHEADERROUNDTRIPXREC
350
14FE
  3
AcDbVariableDictionary
350
94
  3
AcmDictionary
350
5B
  3
AMG
350
41
  3
AMGSNAPSETTINGS
350
26B
  3
DWGPROPS
350
14FD
  0
DICTIONARY
  5
100C
330
2
100
AcDbDictionary
280
     1
281
     1
  3
AMLAYER_GROUPCOLORS
360
100D
  0
DICTIONARY
  5
8F
330
1F
100
AcDbDictionary
280
     1
281
     1
  3
ACAD_SORTENTS
360
F93
  0
DICTIONARY
  5
D8E
330
D81
100
AcDbDictionary
280
     1
281
     1
  3
ACAD_DIMASSOC
360
D8F
  0
DICTIONARY
  5
DC1
330
DB4
100
AcDbDictionary
280
     1
281
     1
  3
ACAD_DIMASSOC
360
DC2
  0
DICTIONARY
  5
DEB
330
DDE
100
AcDbDictionary
280
     1
281
     1
  3
ACAD_DIMASSOC
360
DEC
  0
DICTIONARY
  5
E22
330
E15
100
AcDbDictionary
280
     1
281
     1
  3
ACAD_DIMASSOC
360
E23
  0
DICTIONARY
  5
E4F
330
E42
100
AcDbDictionary
280
     1
281
     1
  3
ACAD_DIMASSOC
360
E50
  0
DICTIONARY
  5
EA0
330
E93
100
AcDbDictionary
280
     1
281
     1
  3
ACAD_DIMASSOC
360
EA1
  0
DICTIONARY
  5
F36
330
F29
100
AcDbDictionary
280
     1
281
     1
  3
ACAD_DIMASSOC
360
F37
  0
DICTIONARY
  5
BE
102
{ACAD_REACTORS
330
C
102
}
330
C
100
AcDbDictionary
281
     1
  0
DICTIONARY
  5
D
102
{ACAD_REACTORS
330
C
102
}
330
C
100
AcDbDictionary
281
     1
  0
DICTIONARY
  5
1A
102
{ACAD_REACTORS
330
C
102
}
330
C
100
AcDbDictionary
281
     1
  3
Layout1
350
1E
  3
Layout2
350
26
  3
Model
350
22
  0
DICTIONARY
  5
BD
102
{ACAD_REACTORS
330
C
102
}
330
C
100
AcDbDictionary
281
     1
  0
DICTIONARY
  5
17
102
{ACAD_REACTORS
330
C
102
}
330
C
100
AcDbDictionary
281
     1
  3
Standard
350
18
  0
DICTIONARY
  5
19
102
{ACAD_REACTORS
330
C
102
}
330
C
100
AcDbDictionary
281
     1
  0
ACDBDICTIONARYWDFLT
  5
E
102
{ACAD_REACTORS
330
C
102
}
330
C
100
AcDbDictionary
281
     1
  3
Normal
350
F
100
AcDbDictionaryWithDefault
340
F
  0
DICTIONARY
  5
11A
102
{ACAD_REACTORS
330
C
102
}
330
C
100
AcDbDictionary
281
     1
  3
Standard
350
11B
  0
DICTIONARY
  5
14FE
102
{ACAD_REACTORS
330
C
102
}
330
C
100
AcDbDictionary
281
     1
  0
DICTIONARY
  5
94
102
{ACAD_REACTORS
330
C
102
}
330
C
100
AcDbDictionary
281
     1
  3
CTABLESTYLE
350
138
  3
DIMASSOC
350
96
  3
INDEXCTL
350
95
  3
PROJECTNAME
350
14FB
  0
DICTIONARY
  5
5B
102
{ACAD_REACTORS
330
C
102
}
330
C
100
AcDbDictionary
281
     1
  3
AcmBOM
350
272
  3
AcmStdDictionary
350
61
  3
AMDTSECTSYM_ARROWCOLOR
350
123
  0
DICTIONARY
  5
41
102
{ACAD_REACTORS
330
C
102
}
330
C
100
AcDbDictionary
281
     1
  0
DICTIONARY
  5
26B
102
{ACAD_REACTORS
330
C
102
}
330
C
100
AcDbDictionary
281
     1
  0
XRECORD
  5
14FD
102
{ACAD_REACTORS
330
C
102
}
330
C
100
AcDbXrecord
280
     1
  1
DWGPROPS COOKIE
  2

  3

  4

  6

  7

  8

  9

300
AmdtFileType=84
301
=
302
=
303
=
304
=
305
=
306
=
307
=
308
=
309
=
 40
0.0739180555555556
 41
2454068.354968299
 42
2454087.929927303
  1

 90
        1
  0
DICTIONARY
  5
100D
102
{ACAD_REACTORS
330
100C
102
}
330
100C
100
AcDbDictionary
280
     1
281
     1
  0
SORTENTSTABLE
  5
F93
102
{ACAD_REACTORS
330
8F
102
}
330
8F
100
AcDbSortentsTable
330
1F
331
D48
  5
D4B
331
CD2
  5
CD5
331
C93
  5
C98
331
C54
  5
C56
331
D09
  5
D0C
331
D50
  5
D54
331
CDA
  5
CDD
331
C5C
  5
C5F
331
D11
  5
D14
331
CE2
  5
CE5
331
CA3
  5
CA7
331
C64
  5
C67
331
D19
  5
D1D
331
F94
  5
C29
331
CEA
  5
CED
331
CAB
  5
CAE
331
C74
  5
C7B
331
C2D
  5
C2E
331
D60
  5
D81
331
EE5
  5
F29
331
CF2
  5
CF5
331
CB3
  5
CB6
331
D29
  5
D2C
331
CBB
  5
CBE
331
C3D
  5
C3F
331
D31
  5
D34
331
1014
  5
1015
331
C8C
  5
C8F
331
C45
  5
C47
331
CC3
  5
CC6
331
D39
  5
D3D
331
CCB
  5
CCE
331
C4D
  5
C51
331
D41
  5
D44
331
D49
  5
D4C
331
CD3
  5
CD6
331
C55
  5
C57
331
D0A
  5
D0D
331
EAE
  5
EE1
331
D51
  5
D55
331
CDB
  5
CDE
331
C5D
  5
C60
331
D12
  5
D15
331
EB6
  5
EE2
331
CE3
  5
CE6
331
CA4
  5
CA8
331
C65
  5
C68
331
D59
  5
D5C
331
D61
  5
DB4
331
CEB
  5
CEE
331
CAC
  5
CAF
331
C2E
  5
C30
331
D22
  5
D25
331
EE6
  5
F49
331
D2A
  5
D2D
331
CF3
  5
CF6
331
CB4
  5
CB7
331
C36
  5
C38
331
EF6
  5
F67
331
D32
  5
D35
331
1015
  5
1016
331
CBC
  5
CBF
331
C3E
  5
C40
331
D81
  5
E15
331
D3A
  5
D3E
331
D03
  5
D06
331
C8D
  5
C90
331
C46
  5
C48
331
CC4
  5
CC7
331
D42
  5
D45
331
CCC
  5
CCF
331
D4A
  5
D4D
331
D0B
  5
D0E
331
CD4
  5
CD7
331
C56
  5
C58
331
D13
  5
D16
331
CDC
  5
CDF
331
C5E
  5
C61
331
D5A
  5
D5D
331
D1B
  5
D1E
331
CE4
  5
CE7
331
CA5
  5
CA9
331
C66
  5
C69
331
D23
  5
D26
331
CEC
  5
CEF
331
CAD
  5
CB0
331
C76
  5
C86
331
C2F
  5
C36
331
D2B
  5
D2E
331
CF4
  5
CF7
331
CB5
  5
CB8
331
C37
  5
C39
331
D33
  5
D36
331
1016
  5
C2F
331
CFC
  5
CFF
331
CBD
  5
CC0
331
C86
  5
C89
331
C3F
  5
C41
331
D04
  5
D07
331
C8E
  5
C91
331
C47
  5
C49
331
CC5
  5
CC8
331
D43
  5
D46
331
CCD
  5
CD0
331
D4B
  5
D4E
331
D0C
  5
D0F
331
CD5
  5
CD8
331
C96
  5
C99
331
C57
  5
C59
331
D53
  5
D56
331
D14
  5
D18
331
CDD
  5
CE0
331
C5F
  5
C62
331
D5B
  5
D5E
331
D1C
  5
D22
331
CE5
  5
CE8
331
C67
  5
C6A
331
D24
  5
D27
331
EE0
  5
EE3
331
CED
  5
CF0
331
CAE
  5
CB1
331
C30
  5
C37
331
D2C
  5
D2F
331
CF5
  5
CF8
331
CB6
  5
CB9
331
C38
  5
C3A
331
D34
  5
D37
331
CFD
  5
D00
331
CBE
  5
CC1
331
C87
  5
C8A
331
C40
  5
C42
331
D3C
  5
D3F
331
CC6
  5
CC9
331
C48
  5
C4A
331
C8F
  5
C93
331
D05
  5
D08
331
D44
  5
D47
331
CCE
  5
CD1
331
C50
  5
C53
331
D4C
  5
D4F
331
D0D
  5
D10
331
E32
  5
EAE
331
CD6
  5
CD9
331
C58
  5
C5C
331
D54
  5
D57
331
D15
  5
D19
331
E42
  5
EB6
331
CDE
  5
CE1
331
C9F
  5
CA2
331
C60
  5
C63
331
D5C
  5
D5F
331
D1D
  5
D23
331
CE6
  5
CE9
331
CA7
  5
CAA
331
C29
  5
C2A
331
D64
  5
DDE
331
D25
  5
D28
331
EE1
  5
EE4
331
CEE
  5
CF1
331
CAF
  5
CB2
331
D2D
  5
D30
331
1010
  5
1014
331
CF6
  5
CF9
331
CB7
  5
CBA
331
C39
  5
C3B
331
D35
  5
D38
331
C88
  5
C8C
331
C41
  5
C43
331
D3D
  5
D40
331
F29
  5
F68
331
D06
  5
D09
331
CC7
  5
CCA
331
C49
  5
C4B
331
D45
  5
D48
331
CCF
  5
CD2
331
C90
  5
C96
331
C51
  5
C54
331
D4D
  5
D50
331
D0E
  5
D11
331
F49
  5
1003
331
CD7
  5
CDA
331
D55
  5
D59
331
D16
  5
D1B
331
DB4
  5
E32
331
CDF
  5
CE2
331
CA0
  5
CA3
331
C61
  5
C64
331
D5D
  5
D60
331
D1E
  5
D24
331
CA8
  5
CAB
331
C71
  5
C74
331
C2A
  5
C2D
331
CE7
  5
CEA
331
D26
  5
D29
331
EE2
  5
EE5
331
CEF
  5
CF2
331
CB0
  5
CB3
331
D2E
  5
D31
331
E93
  5
EE0
331
CF7
  5
CFA
331
CB8
  5
CBB
331
C3A
  5
C3C
331
D36
  5
D39
331
CFF
  5
D02
331
C89
  5
C8D
331
C42
  5
C45
331
CC0
  5
CC3
331
D3E
  5
D41
331
CC8
  5
CCB
331
C4A
  5
C4C
331
D07
  5
D0A
331
D46
  5
D49
331
CD0
  5
CD3
331
C91
  5
C97
331
D4E
  5
D51
331
D0F
  5
D12
331
CD8
  5
CDB
331
C5A
  5
C5D
331
D56
  5
D5A
331
CE0
  5
CE3
331
CA1
  5
CA4
331
C62
  5
C65
331
D5E
  5
D61
331
CE8
  5
CEB
331
CA9
  5
CAC
331
C72
  5
C75
331
D27
  5
D2A
331
EE3
  5
EE6
331
CF0
  5
CF3
331
CB1
  5
CB4
331
C7A
  5
C87
331
D2F
  5
D32
331
CF8
  5
CFB
331
CB9
  5
CBC
331
C3B
  5
C3D
331
D37
  5
D3A
331
C8A
  5
C8E
331
C43
  5
C46
331
CC1
  5
CC4
331
D3F
  5
D42
331
E15
  5
E93
331
CC9
  5
CCC
331
C4B
  5
C4D
331
D47
  5
D4A
331
D08
  5
D0B
331
CD1
  5
CD4
331
C53
  5
C55
331
D4F
  5
D53
331
D10
  5
D13
331
CD9
  5
CDC
331
C5B
  5
C5E
331
D57
  5
D5B
331
D18
  5
D1C
331
CE1
  5
CE4
331
CA2
  5
CA5
331
C63
  5
C66
331
1003
  5
100E
331
D5F
  5
D64
331
CE9
  5
CEC
331
CAA
  5
CAD
331
C73
  5
C76
331
EE4
  5
EF6
331
D28
  5
D2B
331
CF1
  5
CF4
331
CB2
  5
CB5
331
C7B
  5
C88
331
D30
  5
D33
331
DDE
  5
E42
331
CBA
  5
CBD
331
C3C
  5
C3E
331
D38
  5
D3C
331
D01
  5
D04
331
CC2
  5
CC5
331
D40
  5
D43
331
CCA
  5
CCD
331
C4C
  5
C4E
  0
DIMASSOC
  5
D8F
102
{ACAD_REACTORS
330
D8E
102
}
330
D8E
100
AcDbDimAssoc
330
D81
 90
        3
 70
     0
 71
     0
  1
AcDbOsnapPointRef
 72
    13
331
C37
 73
     0
 91
        0
 40
0.0
 10
0.0
 20
0.0
 30
2.000000000000000E+50
 75
     0
  1
AcDbOsnapPointRef
 72
    13
331
C46
 73
     0
 91
        0
 40
0.0
 10
0.0
 20
0.0
 30
2.000000000000000E+50
 75
     0
  0
DIMASSOC
  5
DC2
102
{ACAD_REACTORS
330
DC1
102
}
330
DC1
100
AcDbDimAssoc
330
DB4
 90
        1
 70
     0
 71
     0
  1
AcDbOsnapPointRef
 72
    13
331
C37
 73
     0
 91
        0
 40
0.0
 10
0.0
 20
0.0
 30
2.000000000000000E+50
 75
     0
  0
DIMASSOC
  5
DEC
102
{ACAD_REACTORS
330
DEB
102
}
330
DEB
100
AcDbDimAssoc
330
DDE
 90
        3
 70
     0
 71
     0
  1
AcDbOsnapPointRef
 72
     1
331
CB6
 73
     0
 91
        0
 40
0.0
 10
0.0
 20
0.0
 30
2.000000000000000E+50
 75
     0
  1
AcDbOsnapPointRef
 72
     6
331
C91
 73
     0
 91
        0
 40
1.661400787298226
 10
0.0
 20
0.0
 30
0.0
332
C76
 74
     0
 92
        0
 75
     0
  0
DIMASSOC
  5
E23
102
{ACAD_REACTORS
330
E22
102
}
330
E22
100
AcDbDimAssoc
330
E15
 90
        3
 70
     0
 71
     0
  1
AcDbOsnapPointRef
 72
    13
331
C37
 73
     0
 91
        0
 40
0.0
 10
0.0
 20
0.0
 30
2.000000000000000E+50
 75
     0
  1
AcDbOsnapPointRef
 72
     6
331
C8F
 73
     0
 91
        0
 40
4.712388980384689
 10
0.0
 20
0.0
 30
0.0
332
D64
 74
     0
 92
        0
 75
     0
  0
DIMASSOC
  5
E50
102
{ACAD_REACTORS
330
E4F
102
}
330
E4F
100
AcDbDimAssoc
330
E42
 90
        1
 70
     0
 71
     0
  1
AcDbOsnapPointRef
 72
     6
331
C8F
 73
     0
 91
        0
 40
4.712388980384689
 10
0.0
 20
0.0
 30
0.0
332
D64
 74
     0
 92
        0
 75
     0
  0
DIMASSOC
  5
EA1
102
{ACAD_REACTORS
330
EA0
102
}
330
EA0
100
AcDbDimAssoc
330
E93
 90
        3
 70
     0
 71
     0
  1
AcDbOsnapPointRef
 72
    13
331
C46
 73
     0
 91
        0
 40
0.0
 10
0.0
 20
0.0
 30
2.000000000000000E+50
 75
     0
  1
AcDbOsnapPointRef
 72
     6
331
C5A
 73
     0
 91
        0
 40
0.5000000000000025
 10
0.0
 20
0.0
 30
0.0
332
E32
 74
     0
 92
        0
 75
     0
  0
DIMASSOC
  5
F37
102
{ACAD_REACTORS
330
F36
102
}
330
F36
100
AcDbDimAssoc
330
F29
 90
        3
 70
     0
 71
     0
  1
AcDbOsnapPointRef
 72
     1
331
D0F
 73
     0
 91
        0
 40
0.0
 10
0.0
 20
0.0
 30
2.000000000000000E+50
 75
     0
  1
AcDbOsnapPointRef
 72
     1
331
D15
 73
     0
 91
        0
 40
0.0
 10
0.0
 20
0.0
 30
2.000000000000000E+50
 75
     0
  0
LAYOUT
  5
1E
102
{ACAD_XDICTIONARY
360
14FF
102
}
102
{ACAD_REACTORS
330
1A
102
}
330
1A
100
AcDbPlotSettings
  1

  2

  4

  6

 40
0.0
 41
0.0
 42
0.0
 43
0.0
 44
0.0
 45
0.0
 46
0.0
 47
0.0
 48
0.0
 49
0.0
140
0.0
141
0.0
142
1.0
143
1.0
 70
   688
 72
     0
 73
     0
 74
     5
  7
monochrome.ctb
 75
    16
147
1.0
148
0.0
149
0.0
100
AcDbLayout
  1
Layout1
 70
     1
 71
     1
 10
0.0
 20
0.0
 11
420.0
 21
297.0
 12
0.0
 22
0.0
 32
0.0
 14
1.000000000000000E+20
 24
1.000000000000000E+20
 34
1.000000000000000E+20
 15
-1.000000000000000E+20
 25
-1.000000000000000E+20
 35
-1.000000000000000E+20
146
0.0
 13
0.0
 23
0.0
 33
0.0
 16
1.0
 26
0.0
 36
0.0
 17
0.0
 27
1.0
 37
0.0
 76
     0
330
1B
  0
LAYOUT
  5
26
102
{ACAD_XDICTIONARY
360
1503
102
}
102
{ACAD_REACTORS
330
1A
102
}
330
1A
100
AcDbPlotSettings
  1

  2

  4

  6

 40
0.0
 41
0.0
 42
0.0
 43
0.0
 44
0.0
 45
0.0
 46
0.0
 47
0.0
 48
0.0
 49
0.0
140
0.0
141
0.0
142
1.0
143
1.0
 70
   688
 72
     0
 73
     0
 74
     5
  7
monochrome.ctb
 75
    16
147
1.0
148
0.0
149
0.0
100
AcDbLayout
  1
Layout2
 70
     1
 71
     2
 10
0.0
 20
0.0
 11
12.0
 21
9.0
 12
0.0
 22
0.0
 32
0.0
 14
0.0
 24
0.0
 34
0.0
 15
0.0
 25
0.0
 35
0.0
146
0.0
 13
0.0
 23
0.0
 33
0.0
 16
1.0
 26
0.0
 36
0.0
 17
0.0
 27
1.0
 37
0.0
 76
     0
330
23
  0
LAYOUT
  5
22
102
{ACAD_XDICTIONARY
360
1501
102
}
102
{ACAD_REACTORS
330
1A
102
}
330
1A
100
AcDbPlotSettings
  1

  2
\\RD-SR-210\PH-PR-011
  4
A4
  6

 40
6.011333465576171
 41
4.233341693878173
 42
6.011322021484375
 43
4.23333740234375
 44
209.9733276367187
 45
296.9259948730469
 46
0.0
 47
0.0
 48
0.0
 49
0.0
140
0.0
141
0.0
142
1.0
143
9.592430833918404
 70
 11952
 72
     1
 73
     1
 74
     0
  7
monochrome.ctb
 75
     0
147
0.1042488621824663
148
-282.5078296465372
149
-267.8146126752819
100
AcDbLayout
  1
Model
 70
     1
 71
     0
 10
0.0
 20
0.0
 11
12.0
 21
9.0
 12
0.0
 22
0.0
 32
0.0
 14
0.0
 24
0.0
 34
0.0
 15
0.0
 25
0.0
 35
0.0
146
0.0
 13
0.0
 23
0.0
 33
0.0
 16
1.0
 26
0.0
 36
0.0
 17
0.0
 27
1.0
 37
0.0
 76
     0
330
1F
1001
ACAD_PSEXT
1000
\\RD-SR-210\PH-PR-011
1000
HP LaserJet 4000 Series PCL 5e
1000
Betriebsrat, R.Deiss
1000
HP LaserJet 4000 series; Treiber HP LaserJet 4000 PCL 5e englisch;  Printserver: JetDirect-Eingebaut; WebManagment :OK
1070
     0
  0
MLINESTYLE
  5
18
102
{ACAD_REACTORS
330
17
102
}
330
17
100
AcDbMlineStyle
  2
STANDARD
 70
     0
  3

 62
   256
 51
90.0
 52
90.0
 71
     2
 49
0.5
 62
   256
  6
BYLAYER
 49
-0.5
 62
   256
  6
BYLAYER
  0
ACDBPLACEHOLDER
  5
F
102
{ACAD_REACTORS
330
E
102
}
330
E
  0
TABLESTYLE
  5
11B
102
{ACAD_REACTORS
330
11A
102
}
330
11A
100
AcDbTableStyle
  3
Standard
 70
     0
 71
     0
 40
1.5
 41
1.5
280
     0
281
     0
  7
STANDARD
140
4.5
170
     2
 62
     0
 63
     7
283
     0
274
    -2
284
     1
 64
     0
275
    -2
285
     1
 65
     0
276
    -2
286
     1
 66
     0
277
    -2
287
     1
 67
     0
278
    -2
288
     1
 68
     0
279
    -2
289
     1
 69
     0
  7
STANDARD
140
6.0
170
     5
 62
     0
 63
     7
283
     0
274
    -2
284
     1
 64
     0
275
    -2
285
     1
 65
     0
276
    -2
286
     1
 66
     0
277
    -2
287
     1
 67
     0
278
    -2
288
     1
 68
     0
279
    -2
289
     1
 69
     0
  7
STANDARD
140
4.5
170
     5
 62
     0
 63
     7
283
     0
274
    -2
284
     1
 64
     0
275
    -2
285
     1
 65
     0
276
    -2
286
     1
 66
     0
277
    -2
287
     1
 67
     0
278
    -2
288
     1
 68
     0
279
    -2
289
     1
 69
     0
  0
DICTIONARYVAR
  5
138
102
{ACAD_REACTORS
330
94
102
}
330
94
100
DictionaryVariables
280
     0
  1
STANDARD
  0
DICTIONARYVAR
  5
96
102
{ACAD_REACTORS
330
94
102
}
330
94
100
DictionaryVariables
280
     0
  1
2
  0
DICTIONARYVAR
  5
95
102
{ACAD_REACTORS
330
94
102
}
330
94
100
DictionaryVariables
280
     0
  1
0
  0
DICTIONARYVAR
  5
14FB
102
{ACAD_REACTORS
330
94
102
}
330
94
100
DictionaryVariables
280
     0
  1

  0
DICTIONARY
  5
272
102
{ACAD_REACTORS
330
5B
102
}
330
5B
100
AcDbDictionary
281
     1
  0
DICTIONARY
  5
61
102
{ACAD_REACTORS
330
5B
102
}
330
5B
100
AcDbDictionary
281
     1
  0
XRECORD
  5
123
102
{ACAD_REACTORS
330
5B
102
}
330
5B
100
AcDbXrecord
280
     1
 90
-1023410169
  0
DICTIONARY
  5
14FF
330
1E
100
AcDbDictionary
280
     1
281
     1
  3
ACAD_XREC_ROUNDTRIP
360
1500
  0
DICTIONARY
  5
1503
330
26
100
AcDbDictionary
280
     1
281
     1
  3
ACAD_XREC_ROUNDTRIP
360
1504
  0
DICTIONARY
  5
1501
330
22
100
AcDbDictionary
280
     1
281
     1
  3
ACAD_XREC_ROUNDTRIP
360
1502
  0
XRECORD
  5
1500
102
{ACAD_REACTORS
330
14FF
102
}
330
14FF
100
AcDbXrecord
280
     1
102
SHADEPLOT
 70
     0
102
SHADEPLOTRESLEVEL
 70
     2
102
SHADEPLOTCUSTOMDPI
 70
   300
  0
XRECORD
  5
1504
102
{ACAD_REACTORS
330
1503
102
}
330
1503
100
AcDbXrecord
280
     1
102
SHADEPLOT
 70
     0
102
SHADEPLOTRESLEVEL
 70
     2
102
SHADEPLOTCUSTOMDPI
 70
   300
  0
XRECORD
  5
1502
102
{ACAD_REACTORS
330
1501
102
}
330
1501
100
AcDbXrecord
280
     1
102
SHADEPLOT
 70
     0
102
SHADEPLOTRESLEVEL
 70
     2
102
SHADEPLOTCUSTOMDPI
 70
   300
  0
ENDSEC
  0
EOF
