  0
SECTION
  2
HEADER
  9
$ACADVER
  1
AC1018
  9
$ACADMAINTVER
 70
   104
  9
$DWGCODEPAGE
  3
ANSI_1252
  9
$LASTSAVEDBY
  1
kbaersch
  9
$INSBASE
 10
0.0
 20
0.0
 30
0.0
  9
$EXTMIN
 10
-23.62159109397044
 20
236.4754490990449
 30
-0.0015258207003583
  9
$EXTMAX
 10
728.0063028502199
 20
519.8446289126509
 30
0.0000000349246037
  9
$LIMMIN
 10
0.0
 20
0.0
  9
$LIMMAX
 10
420.0
 20
297.0
  9
$ORTHOMODE
 70
     0
  9
$REGENMODE
 70
     1
  9
$FILLMODE
 70
     1
  9
$QTEXTMODE
 70
     0
  9
$MIRRTEXT
 70
     1
  9
$LTSCALE
 40
5.0
  9
$ATTMODE
 70
     1
  9
$TEXTSIZE
 40
22.103781
  9
$TRACEWID
 40
1.0
  9
$TEXTSTYLE
  7
STANDARD
  9
$CLAYER
  8
0
  9
$CELTYPE
  6
BYLAYER
  9
$CECOLOR
 62
   256
  9
$CELTSCALE
 40
1.0
  9
$DISPSILH
 70
     0
  9
$DIMSCALE
 40
4.5
  9
$DIMASZ
 40
2.5
  9
$DIMEXO
 40
1.0
  9
$DIMDLI
 40
7.0
  9
$DIMRND
 40
0.0
  9
$DIMDLE
 40
0.0
  9
$DIMEXE
 40
1.0
  9
$DIMTP
 40
0.1
  9
$DIMTM
 40
0.1
  9
$DIMTXT
 40
3.5
  9
$DIMCEN
 40
0.0
  9
$DIMTSZ
 40
0.0
  9
$DIMTOL
 70
     0
  9
$DIMLIM
 70
     0
  9
$DIMTIH
 70
     0
  9
$DIMTOH
 70
     0
  9
$DIMSE1
 70
     0
  9
$DIMSE2
 70
     0
  9
$DIMTAD
 70
     1
  9
$DIMZIN
 70
     8
  9
$DIMBLK
  1

  9
$DIMASO
 70
     1
  9
$DIMSHO
 70
     1
  9
$DIMPOST
  1
<>
  9
$DIMAPOST
  1

  9
$DIMALT
 70
     0
  9
$DIMALTD
 70
     2
  9
$DIMALTF
 40
0.03937
  9
$DIMLFAC
 40
1.0
  9
$DIMTOFL
 70
     1
  9
$DIMTVP
 40
0.0
  9
$DIMTIX
 70
     0
  9
$DIMSOXD
 70
     0
  9
$DIMSAH
 70
     0
  9
$DIMBLK1
  1

  9
$DIMBLK2
  1

  9
$DIMSTYLE
  2
GEN-ISO
  9
$DIMCLRD
 70
   256
  9
$DIMCLRE
 70
   256
  9
$DIMCLRT
 70
     2
  9
$DIMTFAC
 40
0.71
  9
$DIMGAP
 40
0.6
  9
$DIMJUST
 70
     0
  9
$DIMSD1
 70
     0
  9
$DIMSD2
 70
     0
  9
$DIMTOLJ
 70
     1
  9
$DIMTZIN
 70
     8
  9
$DIMALTZ
 70
     8
  9
$DIMALTTZ
 70
     8
  9
$DIMUPT
 70
     0
  9
$DIMDEC
 70
     2
  9
$DIMTDEC
 70
     2
  9
$DIMALTU
 70
     2
  9
$DIMALTTD
 70
     2
  9
$DIMTXSTY
  7
STANDARD
  9
$DIMAUNIT
 70
     0
  9
$DIMADEC
 70
     0
  9
$DIMALTRND
 40
0.0
  9
$DIMAZIN
 70
     0
  9
$DIMDSEP
 70
    46
  9
$DIMATFIT
 70
     3
  9
$DIMFRAC
 70
     0
  9
$DIMLDRBLK
  1

  9
$DIMLUNIT
 70
     2
  9
$DIMLWD
 70
    -2
  9
$DIMLWE
 70
    -2
  9
$DIMTMOVE
 70
     0
  9
$LUNITS
 70
     2
  9
$LUPREC
 70
     2
  9
$SKETCHINC
 40
1.0
  9
$FILLETRAD
 40
6.0
  9
$AUNITS
 70
     0
  9
$AUPREC
 70
     0
  9
$MENU
  1
D:\GENIUS\genius
  9
$ELEVATION
 40
0.0
  9
$PELEVATION
 40
0.0
  9
$THICKNESS
 40
0.0
  9
$LIMCHECK
 70
     0
  9
$CHAMFERA
 40
2.5
  9
$CHAMFERB
 40
2.5
  9
$CHAMFERC
 40
0.0
  9
$CHAMFERD
 40
0.0
  9
$SKPOLY
 70
     0
  9
$TDCREATE
 40
2450400.619070833
  9
$TDUCREATE
 40
2450400.535737500
  9
$TDUPDATE
 40
2456177.654705197
  9
$TDUUPDATE
 40
2456177.571371864
  9
$TDINDWG
 40
0.1458638194
  9
$TDUSRTIMER
 40
0.1458638194
  9
$USRTIMER
 70
     1
  9
$ANGBASE
 50
0.0
  9
$ANGDIR
 70
     0
  9
$PDMODE
 70
     0
  9
$PDSIZE
 40
0.0
  9
$PLINEWID
 40
0.0
  9
$SPLFRAME
 70
     0
  9
$SPLINETYPE
 70
     6
  9
$SPLINESEGS
 70
     8
  9
$HANDSEED
  5
155C
  9
$SURFTAB1
 70
     6
  9
$SURFTAB2
 70
     6
  9
$SURFTYPE
 70
     6
  9
$SURFU
 70
     6
  9
$SURFV
 70
     6
  9
$UCSBASE
  2

  9
$UCSNAME
  2

  9
$UCSORG
 10
0.0
 20
0.0
 30
0.0
  9
$UCSXDIR
 10
1.0
 20
0.0
 30
0.0
  9
$UCSYDIR
 10
0.0
 20
1.0
 30
0.0
  9
$UCSORTHOREF
  2

  9
$UCSORTHOVIEW
 70
     0
  9
$UCSORGTOP
 10
0.0
 20
0.0
 30
0.0
  9
$UCSORGBOTTOM
 10
0.0
 20
0.0
 30
0.0
  9
$UCSORGLEFT
 10
0.0
 20
0.0
 30
0.0
  9
$UCSORGRIGHT
 10
0.0
 20
0.0
 30
0.0
  9
$UCSORGFRONT
 10
0.0
 20
0.0
 30
0.0
  9
$UCSORGBACK
 10
0.0
 20
0.0
 30
0.0
  9
$PUCSBASE
  2

  9
$PUCSNAME
  2

  9
$PUCSORG
 10
0.0
 20
0.0
 30
0.0
  9
$PUCSXDIR
 10
1.0
 20
0.0
 30
0.0
  9
$PUCSYDIR
 10
0.0
 20
1.0
 30
0.0
  9
$PUCSORTHOREF
  2

  9
$PUCSORTHOVIEW
 70
     0
  9
$PUCSORGTOP
 10
0.0
 20
0.0
 30
0.0
  9
$PUCSORGBOTTOM
 10
0.0
 20
0.0
 30
0.0
  9
$PUCSORGLEFT
 10
0.0
 20
0.0
 30
0.0
  9
$PUCSORGRIGHT
 10
0.0
 20
0.0
 30
0.0
  9
$PUCSORGFRONT
 10
0.0
 20
0.0
 30
0.0
  9
$PUCSORGBACK
 10
0.0
 20
0.0
 30
0.0
  9
$USERI1
 70
     0
  9
$USERI2
 70
     0
  9
$USERI3
 70
     0
  9
$USERI4
 70
     0
  9
$USERI5
 70
     0
  9
$USERR1
 40
0.0
  9
$USERR2
 40
0.0
  9
$USERR3
 40
0.0
  9
$USERR4
 40
0.0
  9
$USERR5
 40
0.0
  9
$WORLDVIEW
 70
     1
  9
$SHADEDGE
 70
     3
  9
$SHADEDIF
 70
    70
  9
$TILEMODE
 70
     1
  9
$MAXACTVP
 70
    16
  9
$PINSBASE
 10
0.0
 20
0.0
 30
0.0
  9
$PLIMCHECK
 70
     0
  9
$PEXTMIN
 10
1.000000000000000E+20
 20
1.000000000000000E+20
 30
1.000000000000000E+20
  9
$PEXTMAX
 10
-1.000000000000000E+20
 20
-1.000000000000000E+20
 30
-1.000000000000000E+20
  9
$PLIMMIN
 10
0.0
 20
0.0
  9
$PLIMMAX
 10
420.0
 20
297.0
  9
$UNITMODE
 70
     0
  9
$VISRETAIN
 70
     0
  9
$PLINEGEN
 70
     0
  9
$PSLTSCALE
 70
     1
  9
$TREEDEPTH
 70
  3020
  9
$CMLSTYLE
  2
STANDARD
  9
$CMLJUST
 70
     0
  9
$CMLSCALE
 40
1.0
  9
$PROXYGRAPHICS
 70
     1
  9
$MEASUREMENT
 70
     1
  9
$CELWEIGHT
370
    -1
  9
$ENDCAPS
280
     0
  9
$JOINSTYLE
280
     0
  9
$LWDISPLAY
290
     0
  9
$INSUNITS
 70
     0
  9
$HYPERLINKBASE
  1

  9
$STYLESHEET
  1

  9
$XEDIT
290
     1
  9
$CEPSNTYPE
380
     0
  9
$PSTYLEMODE
290
     1
  9
$FINGERPRINTGUID
  2
{3025AC48-03B9-4D5F-889F-7D156FC177B3}
  9
$VERSIONGUID
  2
{51BDE4FE-74CB-458B-AE59-7A18D39DC8EC}
  9
$EXTNAMES
290
     1
  9
$PSVPSCALE
 40
0.0
  9
$OLESTARTUP
290
     0
  9
$SORTENTS
280
   127
  9
$INDEXCTL
280
     0
  9
$HIDETEXT
280
     0
  9
$XCLIPFRAME
290
     0
  9
$HALOGAP
280
     0
  9
$OBSCOLOR
 70
   257
  9
$OBSLTYPE
280
     0
  9
$INTERSECTIONDISPLAY
280
     0
  9
$INTERSECTIONCOLOR
 70
   257
  9
$DIMASSOC
280
     1
  9
$PROJECTNAME
  1

  0
ENDSEC
  0
SECTION
  2
CLASSES
  0
CLASS
  1
DICTIONARYVAR
  2
AcDbDictionaryVar
  3
ObjectDBX Classes
 90
        0
 91
       10
280
     0
281
     0
  0
CLASS
  1
ACDBDICTIONARYWDFLT
  2
AcDbDictionaryWithDefault
  3
ObjectDBX Classes
 90
        0
 91
        1
280
     0
281
     0
  0
CLASS
  1
TABLESTYLE
  2
AcDbTableStyle
  3
ObjectDBX Classes
 90
     4095
 91
        1
280
     0
281
     0
  0
CLASS
  1
AMGSETTINGSOBJ
  2
AmgSettingsObj
  3
"AcadM|Product Description: AutoCAD Mechanical|Company: Autodesk, Inc."
 90
     1024
 91
        2
280
     0
281
     0
  0
CLASS
  1
ACME_DOCUMENT
  2
AcMeDbDoc
  3
AcMeServices
 90
     1024
 91
        2
280
     0
281
     0
  0
CLASS
  1
ACMESCOPE
  2
AcMeScope
  3
AcMeServices
 90
     1024
 91
        1
280
     0
281
     0
  0
CLASS
  1
ACMECOMMANDHISTORY
  2
AcMeCommandHistory
  3
AcMeServices
 90
     1024
 91
        1
280
     0
281
     0
  0
CLASS
  1
ACIMSYSVARMAN
  2
AcImSysVarManager
  3
AcMeServices
 90
     1024
 91
        5
280
     0
281
     0
  0
CLASS
  1
ACIMINTSYSVAR
  2
AcImIntSysVar
  3
AcMeServices
 90
     1024
 91
       28
280
     0
281
     0
  0
CLASS
  1
ACMEDRAWINGMAN
  2
AcMeDrawingMan
  3
AcMeServices
 90
     1024
 91
        1
280
     0
281
     0
  0
CLASS
  1
ACMEVIEW
  2
AcMeView
  3
AcMeServices
 90
     1024
 91
        1
280
     0
281
     0
  0
CLASS
  1
ACDBENTITYCACHE
  2
AcMeEntityCache
  3
AcMeServices
 90
     1024
 91
        1
280
     0
281
     0
  0
CLASS
  1
GSMANAGER
  2
AcMeGSManager
  3
AcMeServices
 90
     1024
 91
        1
280
     0
281
     0
  0
CLASS
  1
AMDTINTERNALREACTOR
  2
AmdtInternalReactor
  3
AcMeServices
 90
     1024
 91
        2
280
     0
281
     0
  0
CLASS
  1
ACMESTATEMGR
  2
AcMeStateMgr
  3
AcMeServices
 90
     1024
 91
        1
280
     0
281
     0
  0
CLASS
  1
ACGREFMASTER
  2
AcGrefMaster
  3
AcAttribServices
 90
     1024
 91
        1
280
     0
281
     0
  0
CLASS
  1
AM_DRAWING_MGR
  2
AcDmDwgMgr
  3
AcMechDwgViewMgmt
 90
     1024
 91
        1
280
     0
281
     0
  0
CLASS
  1
AM_DWG_DOCUMENT
  2
AcDmDwgDocument
  3
AcMechDwgViewMgmt
 90
     1024
 91
        1
280
     0
281
     0
  0
CLASS
  1
AM_DWG_SHEET
  2
AcDmSheet
  3
AcMechDwgViewMgmt
 90
     1024
 91
        1
280
     0
281
     0
  0
CLASS
  1
AM_VIEWDIMPARMAP
  2
AcDmViewDimParMap
  3
AcMechDwgViewMgmt
 90
     1024
 91
        1
280
     0
281
     0
  0
CLASS
  1
ACIMREALSYSVAR
  2
AcImRealSysVar
  3
AcMeServices
 90
     1024
 91
        1
280
     0
281
     0
  0
CLASS
  1
AM_DWGMGR_NAME
  2
AcDmDwgMgrName
  3
AcMechDwgViewMgmt
 90
     1024
 91
        1
280
     0
281
     0
  0
CLASS
  1
ACME_DATABASE
  2
AcMeDbDatabase
  3
AcMeServices
 90
     1024
 91
        1
280
     0
281
     0
  0
CLASS
  1
ACRFINSADJUSTERMGR
  2
AcRfInsAdjusterMgr
  3
AcMeServices
 90
     1024
 91
        1
280
     0
281
     0
  0
CLASS
  1
ACGREFACADMASTER
  2
AcGrefacadMaster
  3
AcGrefServices
 90
     1024
 91
        1
280
     0
281
     0
  0
CLASS
  1
AMDTMENUSTATEMGR
  2
AmdtMenuStateMgr
  3
McadcomServices
 90
     1024
 91
        1
280
     0
281
     0
  0
CLASS
  1
AMDTMCOMMENUSTATE
  2
AmdtMcomMenuState
  3
McadcomServices
 90
     1024
 91
        1
280
     0
281
     0
  0
CLASS
  1
AMIMASTER
  2
AmiMaster
  3
AmiServices
 90
     1024
 91
        1
280
     0
281
     0
  0
CLASS
  1
MAPIAMMOUDLE
  2
MApiAmModule
  3
MApiAmServices
 90
     1024
 91
        1
280
     0
281
     0
  0
CLASS
  1
ACIMSTRSYSVAR
  2
AcImStrSysVar
  3
AcMeServices
 90
     1024
 91
        5
280
     0
281
     0
  0
CLASS
  1
AMDTADMENUSTATE
  2
AmdtAdMenuState
  3
DesignerServices
 90
     1024
 91
        1
280
     0
281
     0
  0
CLASS
  1
ADAPPL
  2
AcAdAppl
  3
DesignerServices
 90
     1024
 91
        1
280
     0
281
     0
  0
CLASS
  1
DEPMGR
  2
AcAdDepMgr
  3
DesignerServices
 90
     1024
 91
        1
280
     0
281
     0
  0
CLASS
  1
PARAMMGR
  2
AcAdParamMgr
  3
DesignerServices
 90
     1024
 91
        1
280
     0
281
     0
  0
CLASS
  1
PARAMSCOPE
  2
AcAdParamScope
  3
DesignerServices
 90
     1024
 91
        1
280
     0
281
     0
  0
CLASS
  1
NAMEDAPPL
  2
AcAdNamedAppl
  3
DesignerServices
 90
     1024
 91
        1
280
     0
281
     0
  0
CLASS
  1
AMDTDMMENUSTATE
  2
AmdtDmMenuState
  3
AcMechDwgViewMgmt
 90
     1024
 91
        1
280
     0
281
     0
  0
CLASS
  1
AMDTAMMENUSTATE
  2
AmdtAmMenuState
  3
DesignerAssemblies
 90
     1024
 91
        1
280
     0
281
     0
  0
CLASS
  1
ACAMPROJECT
  2
AcAmProject
  3
DesignerAssemblies
 90
     1024
 91
        1
280
     0
281
     0
  0
CLASS
  1
ACAMGRCOMPDEF
  2
AcAmGrCompDef
  3
DesignerAssemblies
 90
     1024
 91
        1
280
     0
281
     0
  0
CLASS
  1
ACCMCONTEXT
  2
AcCmContext
  3
DesignerAssemblies
 90
     1024
 91
        1
280
     0
281
     0
  0
CLASS
  1
ACAMCOMPDEF
  2
AcAmCompDef
  3
DesignerAssemblies
 90
     1024
 91
        1
280
     0
281
     0
  0
CLASS
  1
ACAMCOMPDEFMGR
  2
AcAmCompDefMgr
  3
DesignerAssemblies
 90
     1024
 91
        1
280
     0
281
     0
  0
CLASS
  1
AMCONTEXTMGR
  2
AcAmContextMgr
  3
DesignerAssemblies
 90
     1024
 91
        1
280
     0
281
     0
  0
CLASS
  1
ACAMCONTEXTMODELER
  2
AcAmContextModeler
  3
DesignerAssemblies
 90
     1024
 91
        1
280
     0
281
     0
  0
CLASS
  1
ACMDATADICTIONARY
  2
AcmDataDictionary
  3
"AcmSymBB|Product Description: AutoCAD Mechanical|Company: Autodesk, Inc."
 90
     1024
 91
        1
280
     0
281
     0
  0
CLASS
  1
CATALOGSTATE
  2
AcAmCatalogState
  3
DesignerAssemblies
 90
     1024
 91
        1
280
     0
281
     0
  0
CLASS
  1
ACAMGRCOMPDEFSET
  2
AcAmGrCompDefSet
  3
DesignerAssemblies
 90
     1024
 91
        1
280
     0
281
     0
  0
CLASS
  1
AMDTBROWSERDBTAB
  2
AmdtBrowserDbTab
  3
McadcomServices
 90
     1024
 91
        1
280
     0
281
     0
  0
CLASS
  1
CBROWSERAPPOBJECT
  2
CBrowserAppObject
  3
McadcomServices
 90
     1024
 91
        3
280
     0
281
     0
  0
CLASS
  1
DM_PLACEHOLDER
  2
AcDmSelsetPlaceholder
  3
AcMechDwgViewMgmt
 90
     1024
 91
        1
280
     0
281
     0
  0
CLASS
  1
ACMSTANDARDDIN
  2
AcmStandardDIN
  3
"Amdt_StdImp|Product Description: AutoCAD Mechanical|Company: Autodesk, Inc."
 90
     1024
 91
        1
280
     0
281
     0
  0
CLASS
  1
AMGOBJPROPCFG
  2
AmgObjPropCfg
  3
"AmgLay|Product Description: AutoCAD Mechanical|Company: Autodesk, Inc."
 90
     1025
 91
        1
280
     0
281
     0
  0
CLASS
  1
AMDTEDGESTANDARDDIN13715
  2
AmdtEdgeStdDIN13715
  3
"Amdt_StdImp|Product Description: AutoCAD Mechanical|Company: Autodesk, Inc."
 90
     1024
 91
        1
280
     0
281
     0
  0
CLASS
  1
ACMSURFSTANDARDDIN
  2
AcmSurfTextStdDIN
  3
"Amdt_StdImp|Product Description: AutoCAD Mechanical|Company: Autodesk, Inc."
 90
     1024
 91
        0
280
     0
281
     0
  0
CLASS
  1
ACMFCFSTANDARDDIN
  2
AcmFCFStdDIN
  3
"Amdt_StdImp|Product Description: AutoCAD Mechanical|Company: Autodesk, Inc."
 90
     1024
 91
        1
280
     0
281
     0
  0
CLASS
  1
ACMWELDSTANDARDDIN
  2
AcmWeldingStdDIN
  3
"Amdt_StdImp|Product Description: AutoCAD Mechanical|Company: Autodesk, Inc."
 90
     1024
 91
        1
280
     0
281
     0
  0
CLASS
  1
ACMIDSTANDARDDIN
  2
AcmIdStdDIN
  3
"Amdt_StdImp|Product Description: AutoCAD Mechanical|Company: Autodesk, Inc."
 90
     1024
 91
        1
280
     0
281
     0
  0
CLASS
  1
ACMDATUMSTANDARDDIN
  2
AcmDatumStdDIN
  3
"Amdt_StdImp|Product Description: AutoCAD Mechanical|Company: Autodesk, Inc."
 90
     1024
 91
        1
280
     0
281
     0
  0
CLASS
  1
ACMBOMSTANDARDDIN
  2
AcmBOMStdDIN
  3
"Amdt_StdImp|Product Description: AutoCAD Mechanical|Company: Autodesk, Inc."
 90
     1024
 91
        1
280
     0
281
     0
  0
CLASS
  1
ACMDETAILSTANDARDDIN
  2
AmdtDetailSymStdDIN
  3
"Amdt_StdImp|Product Description: AutoCAD Mechanical|Company: Autodesk, Inc."
 90
     1024
 91
        1
280
     0
281
     0
  0
CLASS
  1
ACMSECTIONSTANDARDDIN
  2
AmdtSectionSymStdDIN
  3
"Amdt_StdImp|Product Description: AutoCAD Mechanical|Company: Autodesk, Inc."
 90
     1024
 91
        1
280
     0
281
     0
  0
CLASS
  1
ACMCENTERLINESTANDARDDIN
  2
AmdtCenterLineStdDIN
  3
"Amdt_StdImp|Product Description: AutoCAD Mechanical|Company: Autodesk, Inc."
 90
     1024
 91
        1
280
     0
281
     0
  0
CLASS
  1
ACMTHREADLINESTANDARDDIN
  2
AmdtThreadLineStdDIN
  3
"Amdt_StdImp|Product Description: AutoCAD Mechanical|Company: Autodesk, Inc."
 90
     1024
 91
        1
280
     0
281
     0
  0
CLASS
  1
ACMNOTESTANDARDDIN
  2
AmdtNoteStdDIN
  3
"Amdt_StdImp|Product Description: AutoCAD Mechanical|Company: Autodesk, Inc."
 90
     1024
 91
        1
280
     0
281
     0
  0
CLASS
  1
AMDTNOTETEMPLATEDB
  2
AmdtNoteTemplateDB
  3
AcmSymBB|Product Description: AutoCAD Mechanical|Company: Autodesk, Inc.
 90
     1024
 91
        6
280
     0
281
     0
  0
CLASS
  1
ACAMGLAYSTD
  2
AcAmgLayStd
  3
"AmgLay|Product Description: AutoCAD Mechanical|Company: Autodesk, Inc."
 90
     1024
 91
        1
280
     0
281
     0
  0
CLASS
  1
ACAMGDIMSTD
  2
AcAmgDimStd
  3
"AmgDim|Product Description: AutoCAD Mechanical|Company: Autodesk, Inc."
 90
     1024
 91
        1
280
     0
281
     0
  0
CLASS
  1
ACAMGHOLECHARTSTDDIN
  2
AcAmgHoleChartStdDIN
  3
AmgDim|Product Description: AutoCAD Mechanical|Company: Autodesk, Inc.
 90
     1024
 91
        1
280
     0
281
     0
  0
CLASS
  1
ACAMGTITLESTD
  2
AcAmgTitleStd
  3
"AmgTitle|Product Description: AutoCAD Mechanical|Company: Autodesk, Inc."
 90
     4095
 91
        1
280
     0
281
     0
  0
CLASS
  1
ACAMGFILTERDAT
  2
AcAmgFilterDat
  3
"AcadM|Product Description: AutoCAD Mechanical|Company: Autodesk, Inc."
 90
     1024
 91
        0
280
     0
281
     0
  0
CLASS
  1
MATERIAL
  2
AcDbMaterial
  3
ObjectDBX Classes
 90
     1153
 91
        3
280
     0
281
     0
  0
CLASS
  1
VISUALSTYLE
  2
AcDbVisualStyle
  3
ObjectDBX Classes
 90
     4095
 91
       16
280
     0
281
     0
  0
CLASS
  1
SCALE
  2
AcDbScale
  3
ObjectDBX Classes
 90
     1153
 91
       17
280
     0
281
     0
  0
CLASS
  1
MLEADERSTYLE
  2
AcDbMLeaderStyle
  3
ACDB_MLEADERSTYLE_CLASS
 90
     4095
 91
        1
280
     0
281
     0
  0
CLASS
  1
ACMSURFSTANDARDDIN2002
  2
AcmSurfTextStdDIN2002
  3
"Amdt_StdImp|Product Description: AutoCAD Mechanical|Company: Autodesk, Inc."
 90
     1024
 91
        1
280
     0
281
     0
  0
CLASS
  1
ACMTAPERSTANDARDDIN
  2
AcmTaperStdDIN
  3
"Amdt_StdImp|Product Description: AutoCAD Mechanical|Company: Autodesk, Inc."
 90
     1024
 91
        1
280
     0
281
     0
  0
CLASS
  1
ACMANOOTATIONVIEWSTANDARDDIN
  2
AmdtAnViewStdDIN
  3
"Amdt_StdImp|Product Description: AutoCAD Mechanical|Company: Autodesk, Inc."
 90
     1024
 91
        1
280
     0
281
     0
  0
CLASS
  1
EXACXREFPANELOBJECT
  2
ExAcXREFPanelObject
  3
EXAC_ESW
 90
     1025
 91
        1
280
     0
281
     0
  0
CLASS
  1
NPOCOLLECTION
  2
AcDbImpNonPersistentObjectsCollection
  3
ObjectDBX Classes
 90
     1153
 91
        1
280
     0
281
     0
  0
CLASS
  1
CAMSSTRUCTBTNSTATE
  2
StructBtnState
  3
DesignerAssemblies
 90
     1024
 91
        1
280
     0
281
     0
  0
CLASS
  1
CELLSTYLEMAP
  2
AcDbCellStyleMap
  3
ObjectDBX Classes
 90
     1152
 91
        8
280
     0
281
     0
  0
CLASS
  1
SORTENTSTABLE
  2
AcDbSortentsTable
  3
ObjectDBX Classes
 90
        0
 91
        1
280
     0
281
     0
  0
ENDSEC
  0
SECTION
  2
TABLES
  0
TABLE
  2
VPORT
  5
A7F
330
0
100
AcDbSymbolTable
 70
     1
  0
VPORT
  5
C03
330
A7F
100
AcDbSymbolTableRecord
100
AcDbViewportTableRecord
  2
*Active
 70
     0
 10
0.0
 20
0.0
 11
1.0
 21
1.0
 12
331.8440220365378
 22
328.5928603427454
 13
0.0
 23
0.0
 14
1.0
 24
1.0
 15
10.0
 25
10.0
 16
0.0
 26
0.0
 36
1.0
 17
0.0
 27
0.0
 37
0.0
 40
592.3224446784125
 41
2.018369690011481
 42
50.0
 43
0.0
 44
0.0
 50
0.0
 51
0.0
 71
     0
 72
   100
 73
     1
 74
     1
 75
     0
 76
     0
 77
     0
 78
     0
281
     0
 65
     0
110
0.0
120
0.0
130
0.0
111
1.0
121
0.0
131
0.0
112
0.0
122
1.0
132
0.0
 79
     0
146
0.0
  0
ENDTAB
  0
TABLE
  2
LTYPE
  5
A7C
330
0
100
AcDbSymbolTable
 70
    21
  0
LTYPE
  5
A88
330
A7C
100
AcDbSymbolTableRecord
100
AcDbLinetypeTableRecord
  2
BYBLOCK
 70
     0
  3

 72
    65
 73
     0
 40
0.0
  0
LTYPE
  5
A89
330
A7C
100
AcDbSymbolTableRecord
100
AcDbLinetypeTableRecord
  2
BYLAYER
 70
     0
  3

 72
    65
 73
     0
 40
0.0
  0
LTYPE
  5
A8A
330
A7C
100
AcDbSymbolTableRecord
100
AcDbLinetypeTableRecord
  2
CONTINUOUS
 70
     0
  3
Solid line
 72
    65
 73
     0
 40
0.0
  0
LTYPE
  5
AA9
330
A7C
100
AcDbSymbolTableRecord
100
AcDbLinetypeTableRecord
  2
GEN7
 70
     0
  3
____ . ____ . ____ . ____ . ____ . ____ . ____
 72
    65
 73
     4
 40
13.75
 49
10.0
 74
     0
 49
-1.25
 74
     0
 49
1.25
 74
     0
 49
-1.25
 74
     0
  0
LTYPE
  5
AAA
330
A7C
100
AcDbSymbolTableRecord
100
AcDbLinetypeTableRecord
  2
GEN7A
 70
     0
  3
__ . __ . __
 72
    65
 73
     4
 40
6.875
 49
5.0
 74
     0
 49
-0.625
 74
     0
 49
0.625
 74
     0
 49
-0.625
 74
     0
  0
LTYPE
  5
B62
330
A7C
100
AcDbSymbolTableRecord
100
AcDbLinetypeTableRecord
  2
HIDDEN
 70
     0
  3
Verdeckt
 72
    65
 73
     2
 40
9.525
 49
6.349999999999998
 74
     0
 49
-3.174999999999998
 74
     0
  0
LTYPE
  5
B63
330
A7C
100
AcDbSymbolTableRecord
100
AcDbLinetypeTableRecord
  2
PHANTOM2
 70
     0
  3
Phantom (.5x) ___ _ _ ___ _ _ ___ _ _ ___ _ _
 72
    65
 73
     6
 40
31.75
 49
15.875
 74
     0
 49
-3.174999999999998
 74
     0
 49
3.174999999999998
 74
     0
 49
-3.174999999999998
 74
     0
 49
3.174999999999998
 74
     0
 49
-3.174999999999998
 74
     0
  0
LTYPE
  5
B64
330
A7C
100
AcDbSymbolTableRecord
100
AcDbLinetypeTableRecord
  2
CENTER
 70
     0
  3
Mitte ____ _ ____ _ ____ _ ____ _ ____ _ ____
 72
    65
 73
     4
 40
50.8
 49
31.75
 74
     0
 49
-6.349999999999998
 74
     0
 49
6.349999999999998
 74
     0
 49
-6.349999999999998
 74
     0
  0
LTYPE
  5
B9B
330
A7C
100
AcDbSymbolTableRecord
100
AcDbLinetypeTableRecord
  2
Amconstr
 70
     0
  3
_______________________
 72
    65
 73
     2
 40
9999.0
 49
9999.0
 74
     0
 49
0.0
 74
     0
  0
LTYPE
  5
BA0
330
A7C
100
AcDbSymbolTableRecord
100
AcDbLinetypeTableRecord
  2
Amzigzag
 70
     0
  3
/\/-/\/-/\/-/\/-/\/-/\/
 72
    65
 73
     2
 40
11.0001
 49
0.0001
 74
     4
 75
   136
340
B9F
 46
0.04
 50
0.0
 44
0.0
 45
0.0
 49
-11.0
 74
     0
  0
LTYPE
  5
BA1
330
A7C
100
AcDbSymbolTableRecord
100
AcDbLinetypeTableRecord
  2
AM_DIN_F_W050
 70
     0
  3
__ __ __ __ __ __ __ __ __ __ __ __ __ __ __
 72
    65
 73
     2
 40
6.25
 49
4.75
 74
     0
 49
-1.5
 74
     0
  0
LTYPE
  5
BA2
330
A7C
100
AcDbSymbolTableRecord
100
AcDbLinetypeTableRecord
  2
AM_DIN_G_W050
 70
     0
  3
____ . ____ . ____ . ____ . ____ . ____ . ____
 72
    65
 73
     4
 40
13.75
 49
9.75
 74
     0
 49
-1.5
 74
     0
 49
1.0
 74
     0
 49
-1.5
 74
     0
  0
LTYPE
  5
BA3
330
A7C
100
AcDbSymbolTableRecord
100
AcDbLinetypeTableRecord
  2
AM_DIN_K_W050
 70
     0
  3
_____ . . _____ . . _____ . . ____ .. ____
 72
    65
 73
     6
 40
16.25
 49
9.75
 74
     0
 49
-1.5
 74
     0
 49
1.0
 74
     0
 49
-1.5
 74
     0
 49
1.0
 74
     0
 49
-1.5
 74
     0
  0
LTYPE
  5
BA4
330
A7C
100
AcDbSymbolTableRecord
100
AcDbLinetypeTableRecord
  2
AM_DIN_G_W050x2
 70
     0
  3
__ . __ . __ . __ . __ . __
 72
    65
 73
     4
 40
6.875
 49
4.75
 74
     0
 49
-0.875
 74
     0
 49
0.375
 74
     0
 49
-0.875
 74
     0
  0
LTYPE
  5
BA5
330
A7C
100
AcDbSymbolTableRecord
100
AcDbLinetypeTableRecord
  2
AM_DIN_F_W050x2
 70
     0
  3
 _ _ _ _ _ _ _ _ _ _ _ _
 72
    65
 73
     2
 40
3.125
 49
2.25
 74
     0
 49
-0.875
 74
     0
  0
LTYPE
  5
BB4
330
A7C
100
AcDbSymbolTableRecord
100
AcDbLinetypeTableRecord
  2
ACDINWELD
 70
     0
  3
_ _ _ _ _
 72
    65
 73
     2
 40
2.0
 49
2.0
 74
     0
 49
-1.0
 74
     0
  0
LTYPE
  5
BB5
330
A7C
100
AcDbSymbolTableRecord
100
AcDbLinetypeTableRecord
  2
ACDINTGB
 70
     0
  3
__ . . __ . .
 72
    65
 73
     6
 40
9.0
 49
4.0
 74
     0
 49
-1.0
 74
     0
 49
1.0
 74
     0
 49
-1.0
 74
     0
 49
1.0
 74
     0
 49
-1.0
 74
     0
  0
LTYPE
  5
BB6
330
A7C
100
AcDbSymbolTableRecord
100
AcDbLinetypeTableRecord
  2
ACDINTGL
 70
     0
  3
_ _ _ _ _
 72
    65
 73
     2
 40
3.0
 49
2.0
 74
     0
 49
-1.0
 74
     0
  0
ENDTAB
  0
TABLE
  2
LAYER
  5
A79
102
{ACAD_XDICTIONARY
360
F61
102
}
330
0
100
AcDbSymbolTable
 70
    27
  0
LAYER
  5
A85
102
{ACAD_XDICTIONARY
360
D80
102
}
330
A79
100
AcDbSymbolTableRecord
100
AcDbLayerTableRecord
  2
0
 70
     0
 62
     7
  6
CONTINUOUS
370
    -3
390
B26
  0
LAYER
  5
AE8
102
{ACAD_XDICTIONARY
360
D82
102
}
330
A79
100
AcDbSymbolTableRecord
100
AcDbLayerTableRecord
  2
7
 70
     0
 62
     4
  6
GEN7
370
    -3
390
B26
  0
LAYER
  5
AEB
102
{ACAD_XDICTIONARY
360
D84
102
}
330
A79
100
AcDbSymbolTableRecord
100
AcDbLayerTableRecord
  2
GEV_FROZEN
 70
     1
 62
     7
  6
CONTINUOUS
370
    -3
390
B26
  0
LAYER
  5
AEC
102
{ACAD_XDICTIONARY
360
D86
102
}
330
A79
100
AcDbSymbolTableRecord
100
AcDbLayerTableRecord
  2
CENN
 70
     0
 62
     7
  6
CONTINUOUS
370
    -3
390
B26
  0
LAYER
  5
AED
102
{ACAD_XDICTIONARY
360
D88
102
}
330
A79
100
AcDbSymbolTableRecord
100
AcDbLayerTableRecord
  2
THLI
 70
     0
 62
     7
  6
CONTINUOUS
370
    -3
390
B26
  0
LAYER
  5
AEE
102
{ACAD_XDICTIONARY
360
D8A
102
}
330
A79
100
AcDbSymbolTableRecord
100
AcDbLayerTableRecord
  2
0N
 70
     0
 62
     7
  6
CONTINUOUS
370
    -3
390
B26
  0
LAYER
  5
AEF
102
{ACAD_XDICTIONARY
360
D8C
102
}
330
A79
100
AcDbSymbolTableRecord
100
AcDbLayerTableRecord
  2
7AN
 70
     0
 62
     4
  6
GEN7A
370
    -3
390
B26
  0
LAYER
  5
AF0
102
{ACAD_XDICTIONARY
360
D8E
102
}
330
A79
100
AcDbSymbolTableRecord
100
AcDbLayerTableRecord
  2
4N
 70
     0
 62
     3
  6
CONTINUOUS
370
    -3
390
B26
  0
LAYER
  5
AF1
102
{ACAD_XDICTIONARY
360
D90
102
}
330
A79
100
AcDbSymbolTableRecord
100
AcDbLayerTableRecord
  2
9
 70
     0
 62
  -253
  6
CONTINUOUS
370
    -3
390
B26
  0
LAYER
  5
AF2
102
{ACAD_XDICTIONARY
360
D92
102
}
330
A79
100
AcDbSymbolTableRecord
100
AcDbLayerTableRecord
  2
7A
 70
     0
 62
     4
  6
GEN7A
370
    -3
390
B26
  0
LAYER
  5
AF3
102
{ACAD_XDICTIONARY
360
D94
102
}
330
A79
100
AcDbSymbolTableRecord
100
AcDbLayerTableRecord
  2
5
 70
     0
 62
     3
  6
CONTINUOUS
370
    -3
390
B26
  0
LAYER
  5
AF4
330
A79
100
AcDbSymbolTableRecord
100
AcDbLayerTableRecord
  2
DEFPOINTS
 70
     0
 62
     7
  6
CONTINUOUS
290
     0
370
    -3
390
B26
  0
LAYER
  5
AF5
102
{ACAD_XDICTIONARY
360
D96
102
}
330
A79
100
AcDbSymbolTableRecord
100
AcDbLayerTableRecord
  2
6
 70
     0
 62
     2
  6
CONTINUOUS
370
    -3
390
B26
  0
LAYER
  5
AF6
102
{ACAD_XDICTIONARY
360
D98
102
}
330
A79
100
AcDbSymbolTableRecord
100
AcDbLayerTableRecord
  2
8
 70
     0
 62
     1
  6
CONTINUOUS
370
    -3
390
B26
  0
LAYER
  5
AF7
102
{ACAD_XDICTIONARY
360
D9A
102
}
330
A79
100
AcDbSymbolTableRecord
100
AcDbLayerTableRecord
  2
-BHMU
 70
     0
 62
     7
  6
CONTINUOUS
370
    -3
390
B26
  0
LAYER
  5
AF8
102
{ACAD_XDICTIONARY
360
D9C
102
}
330
A79
100
AcDbSymbolTableRecord
100
AcDbLayerTableRecord
  2
BHMM
 70
     0
 62
     7
  6
CONTINUOUS
370
    -3
390
B26
  0
LAYER
  5
AF9
102
{ACAD_XDICTIONARY
360
D9E
102
}
330
A79
100
AcDbSymbolTableRecord
100
AcDbLayerTableRecord
  2
4
 70
     0
 62
     3
  6
CONTINUOUS
370
    -3
390
B26
  0
LAYER
  5
CD0
102
{ACAD_XDICTIONARY
360
DA6
102
}
330
A79
100
AcDbSymbolTableRecord
100
AcDbLayerTableRecord
  2
AM_5
 70
     0
 62
    92
  6
CONTINUOUS
370
    25
390
B26
1001
AcAecLayerStandard
1000

1000

  0
LAYER
  5
F53
330
A79
100
AcDbSymbolTableRecord
100
AcDbLayerTableRecord
  2
AM_CL
 70
     0
 62
     1
  6
Amconstr
370
    25
390
B26
1001
AcAecLayerStandard
1000

1000

  0
LAYER
  5
F68
330
A79
100
AcDbSymbolTableRecord
100
AcDbLayerTableRecord
  2
AM_8
 70
     0
 62
     1
  6
CONTINUOUS
370
    25
390
B26
1001
AcAecLayerStandard
1000

1000

  0
LAYER
  5
1549
330
A79
100
AcDbSymbolTableRecord
100
AcDbLayerTableRecord
  2
AM_0
 70
     0
 62
     7
  6
CONTINUOUS
370
    50
390
B26
1001
AcAecLayerStandard
1000

1000

  0
LAYER
  5
154B
330
A79
100
AcDbSymbolTableRecord
100
AcDbLayerTableRecord
  2
AM_4
 70
     0
 62
    92
  6
CONTINUOUS
370
    25
390
B26
1001
AcAecLayerStandard
1000

1000

  0
ENDTAB
  0
TABLE
  2
STYLE
  5
A7A
330
0
100
AcDbSymbolTable
 70
     4
  0
STYLE
  5
A86
330
A7A
100
AcDbSymbolTableRecord
100
AcDbTextStyleTableRecord
  2
STANDARD
 70
     0
 40
0.0
 41
1.0
 50
0.0
 71
     0
 42
22.103781
  3
ISOCP.SHX
  4

  0
STYLE
  5
B9F
330
A7A
100
AcDbSymbolTableRecord
100
AcDbTextStyleTableRecord
  2

 70
     1
 40
0.0
 41
1.0
 50
0.0
 71
     0
 42
22.103781
  3
genltshp.shx
  4

  0
STYLE
  5
BB3
330
A7A
100
AcDbSymbolTableRecord
100
AcDbTextStyleTableRecord
  2
ACDINGDT
 70
     0
 40
0.0
 41
1.0
 50
0.0
 71
     0
 42
22.103781
  3
amgdt.shx
  4

  0
ENDTAB
  0
TABLE
  2
VIEW
  5
A7D
330
0
100
AcDbSymbolTable
 70
     6
  0
VIEW
  5
AAB
330
A7D
100
AcDbSymbolTableRecord
100
AcDbViewTableRecord
  2
GEN1
 70
     0
 40
148.5
 10
120.890794
 20
222.75
 41
241.781588
 11
0.0
 21
0.0
 31
1.0
 12
0.0
 22
0.0
 32
0.0
 42
50.0
 43
0.0
 44
0.0
 50
0.0
 71
     0
281
     0
 72
     0
  0
VIEW
  5
AAC
330
A7D
100
AcDbSymbolTableRecord
100
AcDbViewTableRecord
  2
GEN2
 70
     0
 40
148.5
 10
299.109206
 20
222.75
 41
241.781588
 11
0.0
 21
0.0
 31
1.0
 12
0.0
 22
0.0
 32
0.0
 42
50.0
 43
0.0
 44
0.0
 50
0.0
 71
     0
281
     0
 72
     0
  0
VIEW
  5
AAD
330
A7D
100
AcDbSymbolTableRecord
100
AcDbViewTableRecord
  2
GEN3
 70
     0
 40
148.5
 10
120.890794
 20
74.25
 41
241.781588
 11
0.0
 21
0.0
 31
1.0
 12
0.0
 22
0.0
 32
0.0
 42
50.0
 43
0.0
 44
0.0
 50
0.0
 71
     0
281
     0
 72
     0
  0
VIEW
  5
AAE
330
A7D
100
AcDbSymbolTableRecord
100
AcDbViewTableRecord
  2
GEN4
 70
     0
 40
148.5
 10
299.109206
 20
74.25
 41
241.781588
 11
0.0
 21
0.0
 31
1.0
 12
0.0
 22
0.0
 32
0.0
 42
50.0
 43
0.0
 44
0.0
 50
0.0
 71
     0
281
     0
 72
     0
  0
VIEW
  5
AAF
330
A7D
100
AcDbSymbolTableRecord
100
AcDbViewTableRecord
  2
GEN5
 70
     0
 40
148.5
 10
210.0
 20
148.5
 41
241.781588
 11
0.0
 21
0.0
 31
1.0
 12
0.0
 22
0.0
 32
0.0
 42
50.0
 43
0.0
 44
0.0
 50
0.0
 71
     0
281
     0
 72
     0
  0
VIEW
  5
AB0
330
A7D
100
AcDbSymbolTableRecord
100
AcDbViewTableRecord
  2
GEN6
 70
     0
 40
296.99703
 10
210.0
 20
148.5
 41
483.558341
 11
0.0
 21
0.0
 31
1.0
 12
0.0
 22
0.0
 32
0.0
 42
50.0
 43
0.0
 44
0.0
 50
0.0
 71
     0
281
     0
 72
     0
  0
ENDTAB
  0
TABLE
  2
UCS
  5
A7E
330
0
100
AcDbSymbolTable
 70
     0
  0
ENDTAB
  0
TABLE
  2
APPID
  5
A80
330
0
100
AcDbSymbolTable
 70
    67
  0
APPID
  5
A87
330
A80
100
AcDbSymbolTableRecord
100
AcDbRegAppTableRecord
  2
ACAD
 70
     0
  0
APPID
  5
AB2
330
A80
100
AcDbSymbolTableRecord
100
AcDbRegAppTableRecord
  2
GENIUS_GENCFG_13
 70
     0
1001
GENIUS_GENCFG0_13
1000
GEN@INFO_POS@XLATE
1001
GENIUS_GENCFG1_13
1000
GEN@INFO_POS
1001
GENIUS_GENCFG2_13
1000
GEN@LAYER@DEFS
1001
GENIUS_GENCFG3_13
1000
GEN@LAYER@ENTSORT
1001
GENIUS_GENCFG4_13
1000
GEN
1001
GENIUS_GEVCFG0_13
1000
GEV
  0
APPID
  5
AB3
330
A80
100
AcDbSymbolTableRecord
100
AcDbRegAppTableRecord
  2
GENIUS_GEVCFG0_13
 70
     0
1001
GENIUS_GENCFG_13
1071
1043419583
1000
AB3
1000
GEV
1070
     2
1000
GenCfgObject
1000
GenCfgShort
1000
VED
1070
     0
1002
{
1002
}
1000
PartProto
1070
     1
1070
     1
1002
{
1002
}
  0
APPID
  5
AB4
330
A80
100
AcDbSymbolTableRecord
100
AcDbRegAppTableRecord
  2
GENIUS_GENCFG0_13
 70
     0
1001
GENIUS_GENCFG_13
1071
1043419583
1000
AB4
1000
GEN@INFO_POS@XLATE
1070
     7
1000
GenCfgObject
1000
GenCfgShort
1000
GenCfgReal
1000
GenCfgBool
1000
GenCfgString
1000
GenCfgDim
1000
GenCfgAttrInf
1000
INFOPOINTS
1070
     0
1002
{
1000
GENINF14
1070
     0
1002
{
1000
2GENINF
1070
     4
1000
2
1002
{
1002
}
1000
5GENINF
1070
     4
1000
5
1002
{
1002
}
1000
7GENINF
1070
     4
1000
7
1002
{
1002
}
1000
9GENINF
1070
     4
1000
9
1002
{
1002
}
1000
11GENINF
1070
     4
1000
11
1002
{
1002
}
1000
14GENINF
1070
     4
1000
14
1002
{
1002
}
1002
}
1000
GENINF13
1070
     0
1002
{
1000
2GENINF
1070
     4
1000
2
1002
{
1002
}
1000
3GENINF
1070
     4
1000
3
1002
{
1002
}
1000
4GENINF
1070
     4
1000
4
1002
{
1002
}
1000
5GENINF
1070
     4
1000
5
1002
{
1002
}
1000
6GENINF
1070
     4
1000
6
1002
{
1002
}
1000
7GENINF
1070
     4
1000
7
1002
{
1002
}
1000
8GENINF
1070
     4
1000
8
1002
{
1002
}
1000
9GENINF
1070
     4
1000
9
1002
{
1002
}
1000
10GENINF
1070
     4
1000
10
1002
{
1002
}
1000
11GENINF
1070
     4
1000
11
1002
{
1002
}
1000
12GENINF
1070
     4
1000
12
1002
{
1002
}
1000
13GENINF
1070
     4
1000
13
1002
{
1002
}
1000
14GENINF
1070
     4
1000
14
1002
{
1002
}
1000
15GENINF
1070
     4
1000
15
1002
{
1002
}
1000
16GENINF
1070
     4
1000
16
1002
{
1002
}
1000
17GENINF
1070
     4
1000
17
1002
{
1002
}
1000
18GENINF
1070
     4
1000
18
1002
{
1002
}
1000
19GENINF
1070
     4
1000
19
1002
{
1002
}
1000
20GENINF
1070
     4
1000
20
1002
{
1002
}
1000
21GENINF
1070
     4
1000
21
1002
{
1002
}
1000
22GENINF
1070
     4
1000
22
1002
{
1002
}
1000
23GENINF
1070
     4
1000
23
1002
{
1002
}
1000
24GENINF
1070
     4
1000
24
1002
{
1002
}
1000
0GENINF
1070
     4
1000
0
1002
{
1002
}
1002
}
1000
GENINFO
1070
     0
1002
{
1000
3GENINF
1070
     4
1000
3
1002
{
1002
}
1000
4GENINF
1070
     4
1000
4
1002
{
1002
}
1000
5GENINF
1070
     4
1000
5
1002
{
1002
}
1000
6GENINF
1070
     4
1000
6
1002
{
1002
}
1000
7GENINF
1070
     4
1000
7
1002
{
1002
}
1000
8GENINF
1070
     4
1000
8
1002
{
1002
}
1000
9GENINF
1070
     4
1000
9
1002
{
1002
}
1000
10GENINF
1070
     4
1000
10
1002
{
1002
}
1000
11GENINF
1070
     4
1000
11
1002
{
1002
}
1000
12GENINF
1070
     4
1000
12
1002
{
1002
}
1000
13GENINF
1070
     4
1000
13
1002
{
1002
}
1000
14GENINF
1070
     4
1000
14
1002
{
1002
}
1000
15GENINF
1070
     4
1000
15
1002
{
1002
}
1000
16GENINF
1070
     4
1000
16
1002
{
1002
}
1000
17GENINF
1070
     4
1000
17
1002
{
1002
}
1000
18GENINF
1070
     4
1000
18
1002
{
1002
}
1000
19GENINF
1070
     4
1000
19
1002
{
1002
}
1000
20GENINF
1070
     4
1000
20
1002
{
1002
}
1000
21GENINF
1070
     4
1000
21
1002
{
1002
}
1000
22GENINF
1070
     4
1000
22
1002
{
1002
}
1002
}
1000
DININFO
1070
     0
1002
{
1000
ST-NAME1
1070
     4
1000
5
1002
{
1002
}
1000
ST-NAME2
1070
     4
1000
6
1002
{
1002
}
1000
ST-NORM1
1070
     4
1000
7
1002
{
1002
}
1000
ST-NORM2
1070
     4
1000
8
1002
{
1002
}
1000
ST-MAT1
1070
     4
1000
9
1002
{
1002
}
1000
ST-MAT2
1070
     4
1000
10
1002
{
1002
}
1002
}
1002
}
1000
POS_NUMBERS
1070
     0
1002
{
1000
GENPOS14
1070
     0
1002
{
1000
1GENPOS
1070
     4
1000
1
1002
{
1002
}
1000
2GENPOS
1070
     4
1000
2
1002
{
1002
}
1000
5GENPOS
1070
     4
1000
5
1002
{
1002
}
1000
7GENPOS
1070
     4
1000
7
1002
{
1002
}
1000
9GENPOS
1070
     4
1000
9
1002
{
1002
}
1000
11GENPOS
1070
     4
1000
11
1002
{
1002
}
1000
14GENPOS
1070
     4
1000
14
1002
{
1002
}
1002
}
1000
GENPOS13
1070
     0
1002
{
1000
1GENPOS
1070
     4
1000
1
1002
{
1002
}
1000
2GENPOS
1070
     4
1000
2
1002
{
1002
}
1000
3GENPOS
1070
     4
1000
3
1002
{
1002
}
1000
4GENPOS
1070
     4
1000
4
1002
{
1002
}
1000
5GENPOS
1070
     4
1000
5
1002
{
1002
}
1000
6GENPOS
1070
     4
1000
6
1002
{
1002
}
1000
7GENPOS
1070
     4
1000
7
1002
{
1002
}
1000
8GENPOS
1070
     4
1000
8
1002
{
1002
}
1000
9GENPOS
1070
     4
1000
9
1002
{
1002
}
1000
10GENPOS
1070
     4
1000
10
1002
{
1002
}
1000
11GENPOS
1070
     4
1000
11
1002
{
1002
}
1000
12GENPOS
1070
     4
1000
12
1002
{
1002
}
1000
13GENPOS
1070
     4
1000
13
1002
{
1002
}
1000
14GENPOS
1070
     4
1000
14
1002
{
1002
}
1000
15GENPOS
1070
     4
1000
15
1002
{
1002
}
1000
16GENPOS
1070
     4
1000
16
1002
{
1002
}
1000
17GENPOS
1070
     4
1000
17
1002
{
1002
}
1000
18GENPOS
1070
     4
1000
18
1002
{
1002
}
1000
19GENPOS
1070
     4
1000
19
1002
{
1002
}
1000
20GENPOS
1070
     4
1000
20
1002
{
1002
}
1000
21GENPOS
1070
     4
1000
21
1002
{
1002
}
1000
22GENPOS
1070
     4
1000
22
1002
{
1002
}
1000
23GENPOS
1070
     4
1000
23
1002
{
1002
}
1000
24GENPOS
1070
     4
1000
24
1002
{
1002
}
1000
0GENPOS
1070
     4
1000
0
1002
{
1002
}
1002
}
1000
GENPOS
1070
     0
1002
{
1000
1GENPOS
1070
     4
1000
1
1002
{
1002
}
1000
2GENPOS
1070
     4
1000
2
1002
{
1002
}
1000
3GENPOS
1070
     4
1000
3
1002
{
1002
}
1000
4GENPOS
1070
     4
1000
4
1002
{
1002
}
1000
5GENPOS
1070
     4
1000
5
1002
{
1002
}
1000
6GENPOS
1070
     4
1000
6
1002
{
1002
}
1000
7GENPOS
1070
     4
1000
7
1002
{
1002
}
1000
8GENPOS
1070
     4
1000
8
1002
{
1002
}
1000
9GENPOS
1070
     4
1000
9
1002
{
1002
}
1000
10GENPOS
1070
     4
1000
10
1002
{
1002
}
1000
11GENPOS
1070
     4
1000
11
1002
{
1002
}
1000
12GENPOS
1070
     4
1000
12
1002
{
1002
}
1000
13GENPOS
1070
     4
1000
13
1002
{
1002
}
1000
14GENPOS
1070
     4
1000
14
1002
{
1002
}
1000
15GENPOS
1070
     4
1000
15
1002
{
1002
}
1000
16GENPOS
1070
     4
1000
16
1002
{
1002
}
1000
17GENPOS
1070
     4
1000
17
1002
{
1002
}
1000
18GENPOS
1070
     4
1000
18
1002
{
1002
}
1000
19GENPOS
1070
     4
1000
19
1002
{
1002
}
1000
20GENPOS
1070
     4
1000
20
1002
{
1002
}
1000
21GENPOS
1070
     4
1000
21
1002
{
1002
}
1000
22GENPOS
1070
     4
1000
22
1002
{
1002
}
1000
23GENPOS
1070
     4
1000
23
1002
{
1002
}
1002
}
1000
DIN985
1070
     0
1002
{
1000
POSITION
1070
     4
1000
1
1002
{
1002
}
1000
MENGE
1070
     4
1000
2
1002
{
1002
}
1000
BLATT
1070
     4
1000
3
1002
{
1002
}
1000
BENENN
1070
     4
1000
5
1002
{
1002
}
1000
BENENN2
1070
     4
1000
6
1002
{
1002
}
1000
NORM
1070
     4
1000
7
1002
{
1002
}
1000
NORM2
1070
     4
1000
8
1002
{
1002
}
1000
WERKSTOFF
1070
     4
1000
9
1002
{
1002
}
1000
WERKSTOFF2
1070
     4
1000
10
1002
{
1002
}
1002
}
1000
DIN986
1070
     0
1002
{
1000
POSITION
1070
     4
1000
1
1002
{
1002
}
1000
MENGE
1070
     4
1000
2
1002
{
1002
}
1000
BLATT
1070
     4
1000
3
1002
{
1002
}
1000
BENENN
1070
     4
1000
5
1002
{
1002
}
1000
BENENN2
1070
     4
1000
6
1002
{
1002
}
1000
NORM
1070
     4
1000
7
1002
{
1002
}
1000
NORM2
1070
     4
1000
8
1002
{
1002
}
1000
WERKSTOFF
1070
     4
1000
9
1002
{
1002
}
1000
WERKSTOFF2
1070
     4
1000
10
1002
{
1002
}
1002
}
1000
DIN987
1070
     0
1002
{
1000
POSITION
1070
     4
1000
1
1002
{
1002
}
1000
MENGE
1070
     4
1000
2
1002
{
1002
}
1000
BLATT
1070
     4
1000
3
1002
{
1002
}
1000
BENENN
1070
     4
1000
5
1002
{
1002
}
1000
BENENN2
1070
     4
1000
6
1002
{
1002
}
1000
NORM
1070
     4
1000
7
1002
{
1002
}
1000
NORM2
1070
     4
1000
8
1002
{
1002
}
1000
WERKSTOFF
1070
     4
1000
9
1002
{
1002
}
1000
WERKSTOFF2
1070
     4
1000
10
1002
{
1002
}
1002
}
1002
}
  0
APPID
  5
AB5
330
A80
100
AcDbSymbolTableRecord
100
AcDbRegAppTableRecord
  2
GENIUS_GENCFG1_13
 70
     0
1001
GENIUS_GENCFG_13
1071
1043419583
1000
AB5
1000
GEN@INFO_POS
1070
     7
1000
GenCfgObject
1000
GenCfgShort
1000
GenCfgReal
1000
GenCfgBool
1000
GenCfgString
1000
GenCfgDim
1000
GenCfgAttrInf
1000
DescrText
1070
     4
1000
5, ,6, ,7, ,8
1002
{
1002
}
1000
DescrText2
1070
     4
1000
26
1002
{
1002
}
1000
VisibleAttr1
1070
     4
1000
1
1002
{
1002
}
1000
VisibleAttr2
1070
     4
1000
26
1002
{
1002
}
1000
UpdateBlock
1070
     3
1070
     1
1002
{
1002
}
1000
Attrib
1070
     0
1002
{
1000
0
1070
     6
1002
{
1000
Prompt
1070
     4
1000
(genmsg gendwg 103)
1002
{
1002
}
1000
Value
1070
     4
1000

1002
{
1002
}
1000
EditFlag
1070
     1
1070
     0
1002
{
1002
}
1000
PosInDDATTE
1070
     1
1070
    27
1002
{
1002
}
1000
FieldLen
1070
     1
1070
    -1
1002
{
1002
}
1002
}
1000
1
1070
     6
1002
{
1000
Prompt
1070
     4
1000
(genmsg gendwg 31)
1002
{
1002
}
1000
Value
1070
     4
1000
1
1002
{
1002
}
1000
EditFlag
1070
     1
1070
     1
1002
{
1002
}
1000
PosInDDATTE
1070
     1
1070
     1
1002
{
1002
}
1000
FieldLen
1070
     1
1070
    -1
1002
{
1002
}
1002
}
1000
2
1070
     6
1002
{
1000
Prompt
1070
     4
1000
(genmsg gendwg 32)
1002
{
1002
}
1000
Value
1070
     4
1000
1
1002
{
1002
}
1000
EditFlag
1070
     1
1070
     1
1002
{
1002
}
1000
PosInDDATTE
1070
     1
1070
     2
1002
{
1002
}
1000
FieldLen
1070
     1
1070
    -1
1002
{
1002
}
1002
}
1000
3
1070
     6
1002
{
1000
Prompt
1070
     4
1000
(genmsg gendwg 33)
1002
{
1002
}
1000
Value
1070
     4
1000

1002
{
1002
}
1000
EditFlag
1070
     1
1070
     1
1002
{
1002
}
1000
PosInDDATTE
1070
     1
1070
     3
1002
{
1002
}
1000
FieldLen
1070
     1
1070
    -1
1002
{
1002
}
1002
}
1000
4
1070
     6
1002
{
1000
Prompt
1070
     4
1000
(genmsg gendwg 34)
1002
{
1002
}
1000
Value
1070
     4
1000

1002
{
1002
}
1000
EditFlag
1070
     1
1070
     1
1002
{
1002
}
1000
PosInDDATTE
1070
     1
1070
     4
1002
{
1002
}
1000
FieldLen
1070
     1
1070
    -1
1002
{
1002
}
1002
}
1000
5
1070
     6
1002
{
1000
Prompt
1070
     4
1000
(genmsg gendwg 35)
1002
{
1002
}
1000
Value
1070
     4
1000

1002
{
1002
}
1000
EditFlag
1070
     1
1070
     1
1002
{
1002
}
1000
PosInDDATTE
1070
     1
1070
     5
1002
{
1002
}
1000
FieldLen
1070
     1
1070
    -1
1002
{
1002
}
1002
}
1000
6
1070
     6
1002
{
1000
Prompt
1070
     4
1000
(genmsg gendwg 36)
1002
{
1002
}
1000
Value
1070
     4
1000

1002
{
1002
}
1000
EditFlag
1070
     1
1070
     1
1002
{
1002
}
1000
PosInDDATTE
1070
     1
1070
     6
1002
{
1002
}
1000
FieldLen
1070
     1
1070
    -1
1002
{
1002
}
1002
}
1000
7
1070
     6
1002
{
1000
Prompt
1070
     4
1000
(genmsg gendwg 37)
1002
{
1002
}
1000
Value
1070
     4
1000

1002
{
1002
}
1000
EditFlag
1070
     1
1070
     1
1002
{
1002
}
1000
PosInDDATTE
1070
     1
1070
     7
1002
{
1002
}
1000
FieldLen
1070
     1
1070
    -1
1002
{
1002
}
1002
}
1000
8
1070
     6
1002
{
1000
Prompt
1070
     4
1000
(genmsg gendwg 38)
1002
{
1002
}
1000
Value
1070
     4
1000

1002
{
1002
}
1000
EditFlag
1070
     1
1070
     1
1002
{
1002
}
1000
PosInDDATTE
1070
     1
1070
     8
1002
{
1002
}
1000
FieldLen
1070
     1
1070
    -1
1002
{
1002
}
1002
}
1000
9
1070
     6
1002
{
1000
Prompt
1070
     4
1000
(genmsg gendwg 39)
1002
{
1002
}
1000
Value
1070
     4
1000

1002
{
1002
}
1000
EditFlag
1070
     1
1070
     1
1002
{
1002
}
1000
PosInDDATTE
1070
     1
1070
     9
1002
{
1002
}
1000
FieldLen
1070
     1
1070
    -1
1002
{
1002
}
1002
}
1000
10
1070
     6
1002
{
1000
Prompt
1070
     4
1000
(genmsg gendwg 40)
1002
{
1002
}
1000
Value
1070
     4
1000

1002
{
1002
}
1000
EditFlag
1070
     1
1070
     1
1002
{
1002
}
1000
PosInDDATTE
1070
     1
1070
    10
1002
{
1002
}
1000
FieldLen
1070
     1
1070
    -1
1002
{
1002
}
1002
}
1000
11
1070
     6
1002
{
1000
Prompt
1070
     4
1000
(genmsg gendwg 41)
1002
{
1002
}
1000
Value
1070
     4
1000

1002
{
1002
}
1000
EditFlag
1070
     1
1070
     1
1002
{
1002
}
1000
PosInDDATTE
1070
     1
1070
    11
1002
{
1002
}
1000
FieldLen
1070
     1
1070
    -1
1002
{
1002
}
1002
}
1000
12
1070
     6
1002
{
1000
Prompt
1070
     4
1000
(genmsg gendwg 42)
1002
{
1002
}
1000
Value
1070
     4
1000

1002
{
1002
}
1000
EditFlag
1070
     1
1070
     1
1002
{
1002
}
1000
PosInDDATTE
1070
     1
1070
    12
1002
{
1002
}
1000
FieldLen
1070
     1
1070
    -1
1002
{
1002
}
1002
}
1000
13
1070
     6
1002
{
1000
Prompt
1070
     4
1000
(genmsg gendwg 43)
1002
{
1002
}
1000
Value
1070
     4
1000

1002
{
1002
}
1000
EditFlag
1070
     1
1070
     1
1002
{
1002
}
1000
PosInDDATTE
1070
     1
1070
    13
1002
{
1002
}
1000
FieldLen
1070
     1
1070
    -1
1002
{
1002
}
1002
}
1000
14
1070
     6
1002
{
1000
Prompt
1070
     4
1000
(genmsg gendwg 44)
1002
{
1002
}
1000
Value
1070
     4
1000

1002
{
1002
}
1000
EditFlag
1070
     1
1070
     1
1002
{
1002
}
1000
PosInDDATTE
1070
     1
1070
    14
1002
{
1002
}
1000
FieldLen
1070
     1
1070
    -1
1002
{
1002
}
1002
}
1000
15
1070
     6
1002
{
1000
Prompt
1070
     4
1000
(genmsg gendwg 45)
1002
{
1002
}
1000
Value
1070
     4
1000

1002
{
1002
}
1000
EditFlag
1070
     1
1070
     1
1002
{
1002
}
1000
PosInDDATTE
1070
     1
1070
    15
1002
{
1002
}
1000
FieldLen
1070
     1
1070
    -1
1002
{
1002
}
1002
}
1000
16
1070
     6
1002
{
1000
Prompt
1070
     4
1000
(genmsg gendwg 46)
1002
{
1002
}
1000
Value
1070
     4
1000

1002
{
1002
}
1000
EditFlag
1070
     1
1070
     1
1002
{
1002
}
1000
PosInDDATTE
1070
     1
1070
    16
1002
{
1002
}
1000
FieldLen
1070
     1
1070
    -1
1002
{
1002
}
1002
}
1000
17
1070
     6
1002
{
1000
Prompt
1070
     4
1000
(genmsg gendwg 47)
1002
{
1002
}
1000
Value
1070
     4
1000

1002
{
1002
}
1000
EditFlag
1070
     1
1070
     1
1002
{
1002
}
1000
PosInDDATTE
1070
     1
1070
    17
1002
{
1002
}
1000
FieldLen
1070
     1
1070
    -1
1002
{
1002
}
1002
}
1000
18
1070
     6
1002
{
1000
Prompt
1070
     4
1000
(genmsg gendwg 48)
1002
{
1002
}
1000
Value
1070
     4
1000

1002
{
1002
}
1000
EditFlag
1070
     1
1070
     1
1002
{
1002
}
1000
PosInDDATTE
1070
     1
1070
    18
1002
{
1002
}
1000
FieldLen
1070
     1
1070
    -1
1002
{
1002
}
1002
}
1000
19
1070
     6
1002
{
1000
Prompt
1070
     4
1000
(genmsg gendwg 99)
1002
{
1002
}
1000
Value
1070
     4
1000

1002
{
1002
}
1000
EditFlag
1070
     1
1070
     1
1002
{
1002
}
1000
PosInDDATTE
1070
     1
1070
    19
1002
{
1002
}
1000
FieldLen
1070
     1
1070
    -1
1002
{
1002
}
1002
}
1000
20
1070
     6
1002
{
1000
Prompt
1070
     4
1000
(genmsg gendwg 100)
1002
{
1002
}
1000
Value
1070
     4
1000

1002
{
1002
}
1000
EditFlag
1070
     1
1070
     1
1002
{
1002
}
1000
PosInDDATTE
1070
     1
1070
    20
1002
{
1002
}
1000
FieldLen
1070
     1
1070
    -1
1002
{
1002
}
1002
}
1000
21
1070
     6
1002
{
1000
Prompt
1070
     4
1000
(genmsg gendwg 101)
1002
{
1002
}
1000
Value
1070
     4
1000

1002
{
1002
}
1000
EditFlag
1070
     1
1070
     1
1002
{
1002
}
1000
PosInDDATTE
1070
     1
1070
    21
1002
{
1002
}
1000
FieldLen
1070
     1
1070
    -1
1002
{
1002
}
1002
}
1000
22
1070
     6
1002
{
1000
Prompt
1070
     4
1000
(genmsg gendwg 102)
1002
{
1002
}
1000
Value
1070
     4
1000

1002
{
1002
}
1000
EditFlag
1070
     1
1070
     1
1002
{
1002
}
1000
PosInDDATTE
1070
     1
1070
    22
1002
{
1002
}
1000
FieldLen
1070
     1
1070
    -1
1002
{
1002
}
1002
}
1000
23
1070
     6
1002
{
1000
Prompt
1070
     4
1000
(genmsg gendwg 30)
1002
{
1002
}
1000
Value
1070
     4
1000

1002
{
1002
}
1000
EditFlag
1070
     1
1070
     1
1002
{
1002
}
1000
PosInDDATTE
1070
     1
1070
    23
1002
{
1002
}
1000
FieldLen
1070
     1
1070
    -1
1002
{
1002
}
1002
}
1000
24
1070
     6
1002
{
1000
Prompt
1070
     4
1000
(genmsg gendwg 104)
1002
{
1002
}
1000
Value
1070
     4
1000

1002
{
1002
}
1000
EditFlag
1070
     1
1070
     1
1002
{
1002
}
1000
PosInDDATTE
1070
     1
1070
    24
1002
{
1002
}
1000
FieldLen
1070
     1
1070
    -1
1002
{
1002
}
1002
}
1000
25
1070
     6
1002
{
1000
Prompt
1070
     4
1000
(genmsg gendwg 105)
1002
{
1002
}
1000
Value
1070
     4
1000

1002
{
1002
}
1000
EditFlag
1070
     1
1070
     1
1002
{
1002
}
1000
PosInDDATTE
1070
     1
1070
    25
1002
{
1002
}
1000
FieldLen
1070
     1
1070
    -1
1002
{
1002
}
1002
}
1000
26
1070
     6
1002
{
1000
Prompt
1070
     4
1000
(genmsg gendwg 106)
1002
{
1002
}
1000
Value
1070
     4
1000

1002
{
1002
}
1000
EditFlag
1070
     1
1070
     1
1002
{
1002
}
1000
PosInDDATTE
1070
     1
1070
    26
1002
{
1002
}
1000
FieldLen
1070
     1
1070
    -1
1002
{
1002
}
1002
}
1000
27
1070
     6
1002
{
1000
Prompt
1070
     4
1000
(genmsg gendwg 109)
1002
{
1002
}
1000
Value
1070
     4
1000

1002
{
1002
}
1000
EditFlag
1070
     1
1070
     2
1002
{
1002
}
1000
PosInDDATTE
1070
     1
1070
    27
1002
{
1002
}
1000
FieldLen
1070
     1
1070
    -1
1002
{
1002
}
1002
}
1002
}
1000
Xlate
1070
     0
1002
{
1000
>
1002
}
  0
APPID
  5
AB6
330
A80
100
AcDbSymbolTableRecord
100
AcDbRegAppTableRecord
  2
GENIUS_GENCFG2_13
 70
     0
1001
GENIUS_GENCFG_13
1071
1043419583
1000
AB6
1000
GEN@LAYER@DEFS
1070
     9
1000
GenCfgObject
1000
GenCfgShort
1000
GenCfgReal
1000
GenCfgBool
1000
GenCfgString
1000
GenCfgDim
1000
GenCfgAttrInf
1000
GenCfgLaySection
1000
GenCfgLayer
1000
Basic
1070
     0
1002
{
1000
0
1070
     8
1000
0
1002
{
1000
Color
1070
     1
1070
     7
1002
{
1002
}
1000
LType
1070
     4
1000
CONTINUOUS
1002
{
1002
}
1000
Base
1070
     3
1070
     0
1002
{
1002
}
1002
}
1000
1
1070
     8
1000
1
1002
{
1000
Color
1070
     1
1070
    14
1002
{
1002
}
1000
LType
1070
     4
1000
CONTINUOUS
1002
{
1002
}
1000
Base
1070
     3
1070
     0
1002
{
1002
}
1002
}
1000
2
1070
     8
1000
2
1002
{
1000
Color
1070
     1
1070
     5
1002
{
1002
}
1000
LType
1070
     4
1000
CONTINUOUS
1002
{
1002
}
1000
Base
1070
     3
1070
     0
1002
{
1002
}
1002
}
1000
3
1070
     8
1000
3
1002
{
1000
Color
1070
     1
1070
     6
1002
{
1002
}
1000
LType
1070
     4
1000
GEN3
1002
{
1002
}
1000
Base
1070
     3
1070
     0
1002
{
1002
}
1002
}
1000
4
1070
     8
1000
4
1002
{
1000
Color
1070
     1
1070
     3
1002
{
1002
}
1000
LType
1070
     4
1000
CONTINUOUS
1002
{
1002
}
1000
Base
1070
     3
1070
     0
1002
{
1002
}
1002
}
1000
5
1070
     8
1000
5
1002
{
1000
Color
1070
     1
1070
     3
1002
{
1002
}
1000
LType
1070
     4
1000
CONTINUOUS
1002
{
1002
}
1000
Base
1070
     3
1070
     0
1002
{
1002
}
1002
}
1000
6
1070
     8
1000
6
1002
{
1000
Color
1070
     1
1070
     2
1002
{
1002
}
1000
LType
1070
     4
1000
CONTINUOUS
1002
{
1002
}
1000
Base
1070
     3
1070
     0
1002
{
1002
}
1002
}
1000
7
1070
     8
1000
7
1002
{
1000
Color
1070
     1
1070
     4
1002
{
1002
}
1000
LType
1070
     4
1000
GEN7
1002
{
1002
}
1000
Base
1070
     3
1070
     0
1002
{
1002
}
1002
}
1000
8
1070
     8
1000
8
1002
{
1000
Color
1070
     1
1070
     1
1002
{
1002
}
1000
LType
1070
     4
1000
CONTINUOUS
1002
{
1002
}
1000
Base
1070
     3
1070
     0
1002
{
1002
}
1002
}
1000
3A
1070
     8
1000
3A
1002
{
1000
Color
1070
     1
1070
     6
1002
{
1002
}
1000
LType
1070
     4
1000
GEN3A
1002
{
1002
}
1000
Base
1070
     3
1070
     0
1002
{
1002
}
1002
}
1000
7A
1070
     8
1000
7A
1002
{
1000
Color
1070
     1
1070
     4
1002
{
1002
}
1000
LType
1070
     4
1000
GEN7A
1002
{
1002
}
1000
Base
1070
     3
1070
     0
1002
{
1002
}
1002
}
1000
2A
1070
     8
1000
2A
1002
{
1000
Color
1070
     1
1070
     7
1002
{
1002
}
1000
LType
1070
     4
1000
GEN7
1002
{
1002
}
1000
Base
1070
     3
1070
     0
1002
{
1002
}
1002
}
1000
4A
1070
     8
1000
4A
1002
{
1000
Color
1070
     1
1070
     3
1002
{
1002
}
1000
LType
1070
     4
1000
GEN4A
1002
{
1002
}
1000
Base
1070
     3
1070
     0
1002
{
1002
}
1002
}
1000
9
1070
     8
1000
9
1002
{
1000
Color
1070
     1
1070
   253
1002
{
1002
}
1000
LType
1070
     4
1000
CONTINUOUS
1002
{
1002
}
1000
Base
1070
     3
1070
     0
1002
{
1002
}
1002
}
1000
IP
1070
     8
1000
IP
1002
{
1000
Color
1070
     1
1070
     7
1002
{
1002
}
1000
LType
1070
     4
1000
CONTINUOUS
1002
{
1002
}
1000
Base
1070
     3
1070
     0
1002
{
1002
}
1002
}
1002
}
1000
Standard
1070
     0
1002
{
1000
0N
1070
     8
1000
0N
1002
{
1000
Color
1070
     1
1070
     7
1002
{
1002
}
1000
LType
1070
     4
1000
CONTINUOUS
1002
{
1002
}
1000
Base
1070
     3
1070
     0
1002
{
1002
}
1002
}
1000
1N
1070
     8
1000
1N
1002
{
1000
Color
1070
     1
1070
    14
1002
{
1002
}
1000
LType
1070
     4
1000
CONTINUOUS
1002
{
1002
}
1000
Base
1070
     3
1070
     0
1002
{
1002
}
1002
}
1000
2N
1070
     8
1000
2N
1002
{
1000
Color
1070
     1
1070
     5
1002
{
1002
}
1000
LType
1070
     4
1000
CONTINUOUS
1002
{
1002
}
1000
Base
1070
     3
1070
     0
1002
{
1002
}
1002
}
1000
3N
1070
     8
1000
3N
1002
{
1000
Color
1070
     1
1070
     6
1002
{
1002
}
1000
LType
1070
     4
1000
GEN3
1002
{
1002
}
1000
Base
1070
     3
1070
     0
1002
{
1002
}
1002
}
1000
4N
1070
     8
1000
4N
1002
{
1000
Color
1070
     1
1070
     3
1002
{
1002
}
1000
LType
1070
     4
1000
CONTINUOUS
1002
{
1002
}
1000
Base
1070
     3
1070
     0
1002
{
1002
}
1002
}
1000
5N
1070
     8
1000
5N
1002
{
1000
Color
1070
     1
1070
     3
1002
{
1002
}
1000
LType
1070
     4
1000
CONTINUOUS
1002
{
1002
}
1000
Base
1070
     3
1070
     0
1002
{
1002
}
1002
}
1000
6N
1070
     8
1000
6N
1002
{
1000
Color
1070
     1
1070
     2
1002
{
1002
}
1000
LType
1070
     4
1000
CONTINUOUS
1002
{
1002
}
1000
Base
1070
     3
1070
     0
1002
{
1002
}
1002
}
1000
7N
1070
     8
1000
7N
1002
{
1000
Color
1070
     1
1070
     4
1002
{
1002
}
1000
LType
1070
     4
1000
GEN7
1002
{
1002
}
1000
Base
1070
     3
1070
     0
1002
{
1002
}
1002
}
1000
8N
1070
     8
1000
8N
1002
{
1000
Color
1070
     1
1070
     1
1002
{
1002
}
1000
LType
1070
     4
1000
CONTINUOUS
1002
{
1002
}
1000
Base
1070
     3
1070
     0
1002
{
1002
}
1002
}
1000
3AN
1070
     8
1000
3AN
1002
{
1000
Color
1070
     1
1070
     6
1002
{
1002
}
1000
LType
1070
     4
1000
GEN3A
1002
{
1002
}
1000
Base
1070
     3
1070
     0
1002
{
1002
}
1002
}
1000
7AN
1070
     8
1000
7AN
1002
{
1000
Color
1070
     1
1070
     4
1002
{
1002
}
1000
LType
1070
     4
1000
GEN7A
1002
{
1002
}
1000
Base
1070
     3
1070
     0
1002
{
1002
}
1002
}
1000
2AN
1070
     8
1000
2AN
1002
{
1000
Color
1070
     1
1070
     7
1002
{
1002
}
1000
LType
1070
     4
1000
GEN7
1002
{
1002
}
1000
Base
1070
     3
1070
     0
1002
{
1002
}
1002
}
1000
4AN
1070
     8
1000
4AN
1002
{
1000
Color
1070
     1
1070
     3
1002
{
1002
}
1000
LType
1070
     4
1000
GEN4A
1002
{
1002
}
1000
Base
1070
     3
1070
     0
1002
{
1002
}
1002
}
1000
9N
1070
     8
1000
9N
1002
{
1000
Color
1070
     1
1070
   253
1002
{
1002
}
1000
LType
1070
     4
1000
CONTINUOUS
1002
{
1002
}
1000
Base
1070
     3
1070
     0
1002
{
1002
}
1002
}
1000
IPN
1070
     8
1000
IPN
1002
{
1000
Color
1070
     1
1070
     7
1002
{
1002
}
1000
LType
1070
     4
1000
CONTINUOUS
1002
{
1002
}
1000
Base
1070
     3
1070
     0
1002
{
1002
}
1002
}
1002
}
1000
Extra
1070
     0
1002
{
1000
Klin
1070
     8
1000
KLIN
1002
{
1000
Color
1070
     1
1070
     1
1002
{
1002
}
1000
LType
1070
     4
1000
CONTINUOUS
1002
{
1002
}
1000
Base
1070
     3
1070
     1
1002
{
1002
}
1002
}
1000
Info
1070
     8
1000
INFO
1002
{
1000
Color
1070
     1
1070
     4
1002
{
1002
}
1000
LType
1070
     4
1000
CONTINUOUS
1002
{
1002
}
1000
Base
1070
     3
1070
     1
1002
{
1002
}
1002
}
1000
Rahm2
1070
     8
1000
RAHM2
1002
{
1000
Color
1070
     1
1070
     1
1002
{
1002
}
1000
LType
1070
     4
1000
CONTINUOUS
1002
{
1002
}
1000
Base
1070
     3
1070
     1
1002
{
1002
}
1002
}
1000
Rahm3
1070
     8
1000
RAHM3
1002
{
1000
Color
1070
     1
1070
     2
1002
{
1002
}
1000
LType
1070
     4
1000
CONTINUOUS
1002
{
1002
}
1000
Base
1070
     3
1070
     1
1002
{
1002
}
1002
}
1000
Rahm5
1070
     8
1000
RAHM5
1002
{
1000
Color
1070
     1
1070
     7
1002
{
1002
}
1000
LType
1070
     4
1000
CONTINUOUS
1002
{
1002
}
1000
Base
1070
     3
1070
     1
1002
{
1002
}
1002
}
1000
View
1070
     8
1000
VIEW
1002
{
1000
Color
1070
     1
1070
     1
1002
{
1002
}
1000
LType
1070
     4
1000
CONTINUOUS
1002
{
1002
}
1000
Base
1070
     3
1070
     1
1002
{
1002
}
1002
}
1000
Behind
1070
     8
1000
BEHIND
1002
{
1000
Color
1070
     1
1070
   253
1002
{
1002
}
1000
LType
1070
     4
1000
CONTINUOUS
1002
{
1002
}
1000
Base
1070
     3
1070
     1
1002
{
1002
}
1002
}
1002
}
  0
APPID
  5
AB7
330
A80
100
AcDbSymbolTableRecord
100
AcDbRegAppTableRecord
  2
GENIUS_GENCFG3_13
 70
     0
1001
GENIUS_GENCFG_13
1071
1043419583
1000
AB7
1000
GEN@LAYER@ENTSORT
1070
    10
1000
GenCfgObject
1000
GenCfgShort
1000
GenCfgReal
1000
GenCfgBool
1000
GenCfgString
1000
GenCfgDim
1000
GenCfgAttrInf
1000
GenCfgLaySection
1000
GenCfgLayer
1000
GenCfgEntSort
1000
ADDL
1070
     9
1000
5
1002
{
1000
Class
1070
     4
1000
SYM
1002
{
1002
}
1000
Color
1070
     1
1070
     1
1002
{
1002
}
1000
LType
1070
     4
1000
BYLAYER
1002
{
1002
}
1002
}
1000
ALTR
1070
     9
1000
4
1002
{
1000
Class
1070
     4
1000

1002
{
1002
}
1000
Color
1070
     1
1070
     7
1002
{
1002
}
1000
LType
1070
     4
1000
GEN3A
1002
{
1002
}
1002
}
1000
BELI
1070
     9
1000
4
1002
{
1000
Class
1070
     4
1000

1002
{
1002
}
1000
Color
1070
     1
1070
   256
1002
{
1002
}
1000
LType
1070
     4
1000
BYLAYER
1002
{
1002
}
1002
}
1000
BHNV
1070
     9
1000
9
1002
{
1000
Class
1070
     4
1000
INV
1002
{
1002
}
1000
Color
1070
     1
1070
   256
1002
{
1002
}
1000
LType
1070
     4
1000
BYLAYER
1002
{
1002
}
1002
}
1000
BHNVS
1070
     9
1000
BEHIND
1002
{
1000
Class
1070
     4
1000
INV
1002
{
1002
}
1000
Color
1070
     1
1070
   256
1002
{
1002
}
1000
LType
1070
     4
1000
BYLAYER
1002
{
1002
}
1002
}
1000
BLID
1070
     9
1000
4A
1002
{
1000
Class
1070
     4
1000

1002
{
1002
}
1000
Color
1070
     1
1070
   256
1002
{
1002
}
1000
LType
1070
     4
1000
BYLAYER
1002
{
1002
}
1002
}
1000
BOAP
1070
     9
1000
4A
1002
{
1000
Class
1070
     4
1000

1002
{
1002
}
1000
Color
1070
     1
1070
   256
1002
{
1002
}
1000
LType
1070
     4
1000
BYLAYER
1002
{
1002
}
1002
}
1000
BOR2
1070
     9
1000
RAHM2
1002
{
1000
Class
1070
     4
1000
SPZ,SYM
1002
{
1002
}
1000
Color
1070
     1
1070
   256
1002
{
1002
}
1000
LType
1070
     4
1000
BYLAYER
1002
{
1002
}
1002
}
1000
BOR3
1070
     9
1000
RAHM3
1002
{
1000
Class
1070
     4
1000
SPZ,SYM
1002
{
1002
}
1000
Color
1070
     1
1070
   256
1002
{
1002
}
1000
LType
1070
     4
1000
BYLAYER
1002
{
1002
}
1002
}
1000
BOR5
1070
     9
1000
RAHM5
1002
{
1000
Class
1070
     4
1000
SPZ,SYM
1002
{
1002
}
1000
Color
1070
     1
1070
   256
1002
{
1002
}
1000
LType
1070
     4
1000
BYLAYER
1002
{
1002
}
1002
}
1000
BOR7
1070
     9
1000
RAHM5
1002
{
1000
Class
1070
     4
1000
SPZ,SYM
1002
{
1002
}
1000
Color
1070
     1
1070
     7
1002
{
1002
}
1000
LType
1070
     4
1000
CONTINUOUS
1002
{
1002
}
1002
}
1000
BPAP
1070
     9
1000
4A
1002
{
1000
Class
1070
     4
1000

1002
{
1002
}
1000
Color
1070
     1
1070
   256
1002
{
1002
}
1000
LType
1070
     4
1000
BYLAYER
1002
{
1002
}
1002
}
1000
BPEX
1070
     9
1000
4A
1002
{
1000
Class
1070
     4
1000

1002
{
1002
}
1000
Color
1070
     1
1070
   256
1002
{
1002
}
1000
LType
1070
     4
1000
BYLAYER
1002
{
1002
}
1002
}
1000
BTDI
1070
     9
1000
5
1002
{
1000
Class
1070
     4
1000
DIM,SYM
1002
{
1002
}
1000
Color
1070
     1
1070
   256
1002
{
1002
}
1000
LType
1070
     4
1000
BYLAYER
1002
{
1002
}
1002
}
1000
CAL2
1070
     9
1000
4
1002
{
1000
Class
1070
     4
1000
SYM
1002
{
1002
}
1000
Color
1070
     1
1070
   256
1002
{
1002
}
1000
LType
1070
     4
1000
BYLAYER
1002
{
1002
}
1002
}
1000
CAL3
1070
     9
1000
4
1002
{
1000
Class
1070
     4
1000
SYM
1002
{
1002
}
1000
Color
1070
     1
1070
     2
1002
{
1002
}
1000
LType
1070
     4
1000
BYLAYER
1002
{
1002
}
1002
}
1000
CAL5
1070
     9
1000
4
1002
{
1000
Class
1070
     4
1000
SYM
1002
{
1002
}
1000
Color
1070
     1
1070
     7
1002
{
1002
}
1000
LType
1070
     4
1000
BYLAYER
1002
{
1002
}
1002
}
1000
CAL7
1070
     9
1000
4
1002
{
1000
Class
1070
     4
1000
SYM
1002
{
1002
}
1000
Color
1070
     1
1070
     5
1002
{
1002
}
1000
LType
1070
     4
1000
BYLAYER
1002
{
1002
}
1002
}
1000
CENN
1070
     9
1000
7A
1002
{
1000
Class
1070
     4
1000
CEN
1002
{
1002
}
1000
Color
1070
     1
1070
   256
1002
{
1002
}
1000
LType
1070
     4
1000
BYLAYER
1002
{
1002
}
1002
}
1000
CENW
1070
     9
1000
7
1002
{
1000
Class
1070
     4
1000
CEN
1002
{
1002
}
1000
Color
1070
     1
1070
   256
1002
{
1002
}
1000
LType
1070
     4
1000
BYLAYER
1002
{
1002
}
1002
}
1000
CLIN
1070
     9
1000
KLIN
1002
{
1000
Class
1070
     4
1000
SPZ
1002
{
1002
}
1000
Color
1070
     1
1070
   256
1002
{
1002
}
1000
LType
1070
     4
1000
BYLAYER
1002
{
1002
}
1002
}
1000
CON1
1070
     9
1000
0
1002
{
1000
Class
1070
     4
1000
CON,BGD
1002
{
1002
}
1000
Color
1070
     1
1070
   256
1002
{
1002
}
1000
LType
1070
     4
1000
BYLAYER
1002
{
1002
}
1002
}
1000
CON2
1070
     9
1000
1
1002
{
1000
Class
1070
     4
1000
CON,BGD
1002
{
1002
}
1000
Color
1070
     1
1070
   256
1002
{
1002
}
1000
LType
1070
     4
1000
BYLAYER
1002
{
1002
}
1002
}
1000
CON3
1070
     9
1000
2
1002
{
1000
Class
1070
     4
1000
CON,BGD
1002
{
1002
}
1000
Color
1070
     1
1070
   256
1002
{
1002
}
1000
LType
1070
     4
1000
BYLAYER
1002
{
1002
}
1002
}
1000
CON4
1070
     9
1000
2
1002
{
1000
Class
1070
     4
1000
CON,BGD
1002
{
1002
}
1000
Color
1070
     1
1070
   256
1002
{
1002
}
1000
LType
1070
     4
1000
BYLAYER
1002
{
1002
}
1002
}
1000
DERP
1070
     9
1000
4
1002
{
1000
Class
1070
     4
1000

1002
{
1002
}
1000
Color
1070
     1
1070
   256
1002
{
1002
}
1000
LType
1070
     4
1000
BYLAYER
1002
{
1002
}
1002
}
1000
DETA
1070
     9
1000
4
1002
{
1000
Class
1070
     4
1000

1002
{
1002
}
1000
Color
1070
     1
1070
   256
1002
{
1002
}
1000
LType
1070
     4
1000
BYLAYER
1002
{
1002
}
1002
}
1000
DIAG
1070
     9
1000
5
1002
{
1000
Class
1070
     4
1000
SYM
1002
{
1002
}
1000
Color
1070
     1
1070
   256
1002
{
1002
}
1000
LType
1070
     4
1000
BYLAYER
1002
{
1002
}
1002
}
1000
DILI
1070
     9
1000
5
1002
{
1000
Class
1070
     4
1000
DIM,SYM
1002
{
1002
}
1000
Color
1070
     1
1070
   256
1002
{
1002
}
1000
LType
1070
     4
1000
BYLAYER
1002
{
1002
}
1002
}
1000
DITO2
1070
     9
1000
5
1002
{
1000
Class
1070
     4
1000
DIM,SYM
1002
{
1002
}
1000
Color
1070
     1
1070
     3
1002
{
1002
}
1000
LType
1070
     4
1000
BYLAYER
1002
{
1002
}
1002
}
1000
DITO3
1070
     9
1000
5
1002
{
1000
Class
1070
     4
1000
DIM,SYM
1002
{
1002
}
1000
Color
1070
     1
1070
     2
1002
{
1002
}
1000
LType
1070
     4
1000
BYLAYER
1002
{
1002
}
1002
}
1000
DITX
1070
     9
1000
5
1002
{
1000
Class
1070
     4
1000
DIM,SYM
1002
{
1002
}
1000
Color
1070
     1
1070
     2
1002
{
1002
}
1000
LType
1070
     4
1000
CONTINUOUS
1002
{
1002
}
1002
}
1000
DIXL
1070
     9
1000
5
1002
{
1000
Class
1070
     4
1000
DIM,SYM
1002
{
1002
}
1000
Color
1070
     1
1070
   256
1002
{
1002
}
1000
LType
1070
     4
1000
BYLAYER
1002
{
1002
}
1002
}
1000
EXMP
1070
     9
1000
4A
1002
{
1000
Class
1070
     4
1000

1002
{
1002
}
1000
Color
1070
     1
1070
   256
1002
{
1002
}
1000
LType
1070
     4
1000
BYLAYER
1002
{
1002
}
1002
}
1000
FEMN
1070
     9
1000
8
1002
{
1000
Class
1070
     4
1000

1002
{
1002
}
1000
Color
1070
     1
1070
   256
1002
{
1002
}
1000
LType
1070
     4
1000
BYLAYER
1002
{
1002
}
1002
}
1000
FEMPN
1070
     9
1000
8
1002
{
1000
Class
1070
     4
1000
SYM
1002
{
1002
}
1000
Color
1070
     1
1070
     3
1002
{
1002
}
1000
LType
1070
     4
1000
BYLAYER
1002
{
1002
}
1002
}
1000
FEMSP
1070
     9
1000
4A
1002
{
1000
Class
1070
     4
1000

1002
{
1002
}
1000
Color
1070
     1
1070
   256
1002
{
1002
}
1000
LType
1070
     4
1000
CONTINUOUS
1002
{
1002
}
1002
}
1000
FEMST
1070
     9
1000
4A
1002
{
1000
Class
1070
     4
1000
SYM
1002
{
1002
}
1000
Color
1070
     1
1070
     3
1002
{
1002
}
1000
LType
1070
     4
1000
BYLAYER
1002
{
1002
}
1002
}
1000
FEMVN
1070
     9
1000
2
1002
{
1000
Class
1070
     4
1000
CON
1002
{
1002
}
1000
Color
1070
     1
1070
   256
1002
{
1002
}
1000
LType
1070
     4
1000
BYLAYER
1002
{
1002
}
1002
}
1000
FEMVT
1070
     9
1000
2
1002
{
1000
Class
1070
     4
1000
SYM
1002
{
1002
}
1000
Color
1070
     1
1070
     3
1002
{
1002
}
1000
LType
1070
     4
1000
BYLAYER
1002
{
1002
}
1002
}
1000
FLAT
1070
     9
1000
0
1002
{
1000
Class
1070
     4
1000

1002
{
1002
}
1000
Color
1070
     1
1070
   256
1002
{
1002
}
1000
LType
1070
     4
1000
BYLAYER
1002
{
1002
}
1002
}
1000
FRAR
1070
     9
1000
4A
1002
{
1000
Class
1070
     4
1000

1002
{
1002
}
1000
Color
1070
     1
1070
   256
1002
{
1002
}
1000
LType
1070
     4
1000
BYLAYER
1002
{
1002
}
1002
}
1000
GRLI
1070
     9
1000
5
1002
{
1000
Class
1070
     4
1000
SYM
1002
{
1002
}
1000
Color
1070
     1
1070
   256
1002
{
1002
}
1000
LType
1070
     4
1000
BYLAYER
1002
{
1002
}
1002
}
1000
GVLI
1070
     9
1000
4A
1002
{
1000
Class
1070
     4
1000

1002
{
1002
}
1000
Color
1070
     1
1070
   256
1002
{
1002
}
1000
LType
1070
     4
1000
BYLAYER
1002
{
1002
}
1002
}
1000
HATC
1070
     9
1000
8
1002
{
1000
Class
1070
     4
1000
HTC,BGD
1002
{
1002
}
1000
Color
1070
     1
1070
   256
1002
{
1002
}
1000
LType
1070
     4
1000
BYLAYER
1002
{
1002
}
1002
}
1000
HIDN
1070
     9
1000
3A
1002
{
1000
Class
1070
     4
1000
HID,BGD
1002
{
1002
}
1000
Color
1070
     1
1070
   256
1002
{
1002
}
1000
LType
1070
     4
1000
BYLAYER
1002
{
1002
}
1002
}
1000
HIDW
1070
     9
1000
3
1002
{
1000
Class
1070
     4
1000
HID,BGD
1002
{
1002
}
1000
Color
1070
     1
1070
   256
1002
{
1002
}
1000
LType
1070
     4
1000
BYLAYER
1002
{
1002
}
1002
}
1000
HLIN
1070
     9
1000
4
1002
{
1000
Class
1070
     4
1000
BGD
1002
{
1002
}
1000
Color
1070
     1
1070
   256
1002
{
1002
}
1000
LType
1070
     4
1000
BYLAYER
1002
{
1002
}
1002
}
1000
HOCN
1070
     9
1000
7A
1002
{
1000
Class
1070
     4
1000
CEN
1002
{
1002
}
1000
Color
1070
     1
1070
   256
1002
{
1002
}
1000
LType
1070
     4
1000
BYLAYER
1002
{
1002
}
1002
}
1000
HOCW
1070
     9
1000
7
1002
{
1000
Class
1070
     4
1000
CEN
1002
{
1002
}
1000
Color
1070
     1
1070
   256
1002
{
1002
}
1000
LType
1070
     4
1000
BYLAYER
1002
{
1002
}
1002
}
1000
INFO
1070
     9
1000
INFO
1002
{
1000
Class
1070
     4
1000
SPZ,SYM
1002
{
1002
}
1000
Color
1070
     1
1070
   256
1002
{
1002
}
1000
LType
1070
     4
1000
BYLAYER
1002
{
1002
}
1002
}
1000
LADI
1070
     9
1000
4
1002
{
1000
Class
1070
     4
1000
BGD
1002
{
1002
}
1000
Color
1070
     1
1070
   256
1002
{
1002
}
1000
LType
1070
     4
1000
BYLAYER
1002
{
1002
}
1002
}
1000
LEAD
1070
     9
1000
5
1002
{
1000
Class
1070
     4
1000
SYM
1002
{
1002
}
1000
Color
1070
     1
1070
   256
1002
{
1002
}
1000
LType
1070
     4
1000
BYLAYER
1002
{
1002
}
1002
}
1000
N_ADDL
1070
     9
1000
5N
1002
{
1000
Class
1070
     4
1000
SYM
1002
{
1002
}
1000
Color
1070
     1
1070
     1
1002
{
1002
}
1000
LType
1070
     4
1000
BYLAYER
1002
{
1002
}
1002
}
1000
N_BHNV
1070
     9
1000
9N
1002
{
1000
Class
1070
     4
1000
INV
1002
{
1002
}
1000
Color
1070
     1
1070
   256
1002
{
1002
}
1000
LType
1070
     4
1000
BYLAYER
1002
{
1002
}
1002
}
1000
N_CON1
1070
     9
1000
0N
1002
{
1000
Class
1070
     4
1000
CON,BGD
1002
{
1002
}
1000
Color
1070
     1
1070
   256
1002
{
1002
}
1000
LType
1070
     4
1000
BYLAYER
1002
{
1002
}
1002
}
1000
N_CON2
1070
     9
1000
1N
1002
{
1000
Class
1070
     4
1000
CON,BGD
1002
{
1002
}
1000
Color
1070
     1
1070
   256
1002
{
1002
}
1000
LType
1070
     4
1000
BYLAYER
1002
{
1002
}
1002
}
1000
N_CON3
1070
     9
1000
2N
1002
{
1000
Class
1070
     4
1000
CON,BGD
1002
{
1002
}
1000
Color
1070
     1
1070
   256
1002
{
1002
}
1000
LType
1070
     4
1000
BYLAYER
1002
{
1002
}
1002
}
1000
N_CON4
1070
     9
1000
2N
1002
{
1000
Class
1070
     4
1000
CON,BGD
1002
{
1002
}
1000
Color
1070
     1
1070
   256
1002
{
1002
}
1000
LType
1070
     4
1000
BYLAYER
1002
{
1002
}
1002
}
1000
N_CENN
1070
     9
1000
7AN
1002
{
1000
Class
1070
     4
1000
CEN
1002
{
1002
}
1000
Color
1070
     1
1070
   256
1002
{
1002
}
1000
LType
1070
     4
1000
BYLAYER
1002
{
1002
}
1002
}
1000
N_CENW
1070
     9
1000
7N
1002
{
1000
Class
1070
     4
1000
CEN
1002
{
1002
}
1000
Color
1070
     1
1070
   256
1002
{
1002
}
1000
LType
1070
     4
1000
BYLAYER
1002
{
1002
}
1002
}
1000
N_DILI
1070
     9
1000
5N
1002
{
1000
Class
1070
     4
1000
DIM,SYM
1002
{
1002
}
1000
Color
1070
     1
1070
   256
1002
{
1002
}
1000
LType
1070
     4
1000
BYLAYER
1002
{
1002
}
1002
}
1000
N_DITX
1070
     9
1000
5N
1002
{
1000
Class
1070
     4
1000
DIM,SYM
1002
{
1002
}
1000
Color
1070
     1
1070
     2
1002
{
1002
}
1000
LType
1070
     4
1000
CONTINUOUS
1002
{
1002
}
1002
}
1000
N_DIXL
1070
     9
1000
5N
1002
{
1000
Class
1070
     4
1000
DIM,SYM
1002
{
1002
}
1000
Color
1070
     1
1070
   256
1002
{
1002
}
1000
LType
1070
     4
1000
BYLAYER
1002
{
1002
}
1002
}
1000
N_HATC
1070
     9
1000
8N
1002
{
1000
Class
1070
     4
1000
HTC,BGD
1002
{
1002
}
1000
Color
1070
     1
1070
   256
1002
{
1002
}
1000
LType
1070
     4
1000
BYLAYER
1002
{
1002
}
1002
}
1000
N_HIDN
1070
     9
1000
3AN
1002
{
1000
Class
1070
     4
1000
HID,BGD
1002
{
1002
}
1000
Color
1070
     1
1070
   256
1002
{
1002
}
1000
LType
1070
     4
1000
BYLAYER
1002
{
1002
}
1002
}
1000
N_HIDW
1070
     9
1000
3N
1002
{
1000
Class
1070
     4
1000
HID,BGD
1002
{
1002
}
1000
Color
1070
     1
1070
   256
1002
{
1002
}
1000
LType
1070
     4
1000
BYLAYER
1002
{
1002
}
1002
}
1000
N_NGIP
1070
     9
1000
IPN
1002
{
1000
Class
1070
     4
1000

1002
{
1002
}
1000
Color
1070
     1
1070
   256
1002
{
1002
}
1000
LType
1070
     4
1000
BYLAYER
1002
{
1002
}
1002
}
1000
N_PHAN
1070
     9
1000
4AN
1002
{
1000
Class
1070
     4
1000

1002
{
1002
}
1000
Color
1070
     1
1070
   256
1002
{
1002
}
1000
LType
1070
     4
1000
BYLAYER
1002
{
1002
}
1002
}
1000
N_POSL
1070
     9
1000
5N
1002
{
1000
Class
1070
     4
1000
SYM
1002
{
1002
}
1000
Color
1070
     1
1070
   256
1002
{
1002
}
1000
LType
1070
     4
1000
BYLAYER
1002
{
1002
}
1002
}
1000
N_TCON
1070
     9
1000
0N
1002
{
1000
Class
1070
     4
1000
CON,BGD
1002
{
1002
}
1000
Color
1070
     1
1070
   256
1002
{
1002
}
1000
LType
1070
     4
1000
BYLAYER
1002
{
1002
}
1002
}
1000
N_THLI
1070
     9
1000
4N
1002
{
1000
Class
1070
     4
1000
BGD
1002
{
1002
}
1000
Color
1070
     1
1070
   256
1002
{
1002
}
1000
LType
1070
     4
1000
BYLAYER
1002
{
1002
}
1002
}
1000
N_TLEN
1070
     9
1000
0N
1002
{
1000
Class
1070
     4
1000
CON,BGD
1002
{
1002
}
1000
Color
1070
     1
1070
   256
1002
{
1002
}
1000
LType
1070
     4
1000
BYLAYER
1002
{
1002
}
1002
}
1000
N_TXT3
1070
     9
1000
6N
1002
{
1000
Class
1070
     4
1000
SYM
1002
{
1002
}
1000
Color
1070
     1
1070
   256
1002
{
1002
}
1000
LType
1070
     4
1000
BYLAYER
1002
{
1002
}
1002
}
1000
N_VPLI
1070
     9
1000
2AN
1002
{
1000
Class
1070
     4
1000

1002
{
1002
}
1000
Color
1070
     1
1070
   256
1002
{
1002
}
1000
LType
1070
     4
1000
BYLAYER
1002
{
1002
}
1002
}
1000
NGIP
1070
     9
1000
IP
1002
{
1000
Class
1070
     4
1000

1002
{
1002
}
1000
Color
1070
     1
1070
   256
1002
{
1002
}
1000
LType
1070
     4
1000
BYLAYER
1002
{
1002
}
1002
}
1000
PAL2
1070
     9
1000
RAHM2
1002
{
1000
Class
1070
     4
1000
SPZ,SYM
1002
{
1002
}
1000
Color
1070
     1
1070
   256
1002
{
1002
}
1000
LType
1070
     4
1000
BYLAYER
1002
{
1002
}
1002
}
1000
PAL3
1070
     9
1000
RAHM3
1002
{
1000
Class
1070
     4
1000
SPZ,SYM
1002
{
1002
}
1000
Color
1070
     1
1070
   256
1002
{
1002
}
1000
LType
1070
     4
1000
BYLAYER
1002
{
1002
}
1002
}
1000
PAL5
1070
     9
1000
RAHM5
1002
{
1000
Class
1070
     4
1000
SPZ,SYM
1002
{
1002
}
1000
Color
1070
     1
1070
   256
1002
{
1002
}
1000
LType
1070
     4
1000
BYLAYER
1002
{
1002
}
1002
}
1000
PAL7
1070
     9
1000
RAHM5
1002
{
1000
Class
1070
     4
1000
SPZ,SYM
1002
{
1002
}
1000
Color
1070
     1
1070
     7
1002
{
1002
}
1000
LType
1070
     4
1000
CONTINUOUS
1002
{
1002
}
1002
}
1000
PHAN
1070
     9
1000
4A
1002
{
1000
Class
1070
     4
1000

1002
{
1002
}
1000
Color
1070
     1
1070
   256
1002
{
1002
}
1000
LType
1070
     4
1000
BYLAYER
1002
{
1002
}
1002
}
1000
POSL
1070
     9
1000
5
1002
{
1000
Class
1070
     4
1000
SYM
1002
{
1002
}
1000
Color
1070
     1
1070
   256
1002
{
1002
}
1000
LType
1070
     4
1000
BYLAYER
1002
{
1002
}
1002
}
1000
POSN
1070
     9
1000
6
1002
{
1000
Class
1070
     4
1000
SYM
1002
{
1002
}
1000
Color
1070
     1
1070
     7
1002
{
1002
}
1000
LType
1070
     4
1000
BYLAYER
1002
{
1002
}
1002
}
1000
POSREF
1070
     9
1000
6
1002
{
1000
Class
1070
     4
1000
SYM
1002
{
1002
}
1000
Color
1070
     1
1070
     5
1002
{
1002
}
1000
LType
1070
     4
1000
BYLAYER
1002
{
1002
}
1002
}
1000
POSX
1070
     9
1000
5
1002
{
1000
Class
1070
     4
1000
SYM
1002
{
1002
}
1000
Color
1070
     1
1070
     2
1002
{
1002
}
1000
LType
1070
     4
1000
CONTINUOUS
1002
{
1002
}
1002
}
1000
PSEC
1070
     9
1000
4A
1002
{
1000
Class
1070
     4
1000

1002
{
1002
}
1000
Color
1070
     1
1070
   256
1002
{
1002
}
1000
LType
1070
     4
1000
BYLAYER
1002
{
1002
}
1002
}
1000
RCGN
1070
     9
1000
7A
1002
{
1000
Class
1070
     4
1000
CEN
1002
{
1002
}
1000
Color
1070
     1
1070
   256
1002
{
1002
}
1000
LType
1070
     4
1000
BYLAYER
1002
{
1002
}
1002
}
1000
RCGW
1070
     9
1000
7
1002
{
1000
Class
1070
     4
1000
CEN
1002
{
1002
}
1000
Color
1070
     1
1070
   256
1002
{
1002
}
1000
LType
1070
     4
1000
BYLAYER
1002
{
1002
}
1002
}
1000
RFDI
1070
     9
1000
4
1002
{
1000
Class
1070
     4
1000
BGD
1002
{
1002
}
1000
Color
1070
     1
1070
   256
1002
{
1002
}
1000
LType
1070
     4
1000
BYLAYER
1002
{
1002
}
1002
}
1000
RQTR
1070
     9
1000
4
1002
{
1000
Class
1070
     4
1000

1002
{
1002
}
1000
Color
1070
     1
1070
     7
1002
{
1002
}
1000
LType
1070
     4
1000
GEN7A
1002
{
1002
}
1002
}
1000
RSBO
1070
     9
1000
4
1002
{
1000
Class
1070
     4
1000
BGD
1002
{
1002
}
1000
Color
1070
     1
1070
   256
1002
{
1002
}
1000
LType
1070
     4
1000
BYLAYER
1002
{
1002
}
1002
}
1000
SBRK
1070
     9
1000
4
1002
{
1000
Class
1070
     4
1000
BGD
1002
{
1002
}
1000
Color
1070
     1
1070
   256
1002
{
1002
}
1000
LType
1070
     4
1000
BYLAYER
1002
{
1002
}
1002
}
1000
SCEN
1070
     9
1000
7
1002
{
1000
Class
1070
     4
1000

1002
{
1002
}
1000
Color
1070
     1
1070
   256
1002
{
1002
}
1000
LType
1070
     4
1000
CONTINUOUS
1002
{
1002
}
1002
}
1000
SECT
1070
     9
1000
4
1002
{
1000
Class
1070
     4
1000
BGD
1002
{
1002
}
1000
Color
1070
     1
1070
   256
1002
{
1002
}
1000
LType
1070
     4
1000
BYLAYER
1002
{
1002
}
1002
}
1000
SELN
1070
     9
1000
7A
1002
{
1000
Class
1070
     4
1000

1002
{
1002
}
1000
Color
1070
     1
1070
   256
1002
{
1002
}
1000
LType
1070
     4
1000
BYLAYER
1002
{
1002
}
1002
}
1000
SELW
1070
     9
1000
7
1002
{
1000
Class
1070
     4
1000

1002
{
1002
}
1000
Color
1070
     1
1070
   256
1002
{
1002
}
1000
LType
1070
     4
1000
BYLAYER
1002
{
1002
}
1002
}
1000
SSYS
1070
     9
1000
0
1002
{
1000
Class
1070
     4
1000

1002
{
1002
}
1000
Color
1070
     1
1070
   256
1002
{
1002
}
1000
LType
1070
     4
1000
BYLAYER
1002
{
1002
}
1002
}
1000
STLI
1070
     9
1000
4
1002
{
1000
Class
1070
     4
1000

1002
{
1002
}
1000
Color
1070
     1
1070
     7
1002
{
1002
}
1000
LType
1070
     4
1000
GEN3A
1002
{
1002
}
1002
}
1000
SYB1
1070
     9
1000
5
1002
{
1000
Class
1070
     4
1000
SYM
1002
{
1002
}
1000
Color
1070
     1
1070
   256
1002
{
1002
}
1000
LType
1070
     4
1000
BYLAYER
1002
{
1002
}
1002
}
1000
SYB2
1070
     9
1000
5
1002
{
1000
Class
1070
     4
1000
SYM
1002
{
1002
}
1000
Color
1070
     1
1070
   256
1002
{
1002
}
1000
LType
1070
     4
1000
BYLAYER
1002
{
1002
}
1002
}
1000
SYB3
1070
     9
1000
6
1002
{
1000
Class
1070
     4
1000
SYM
1002
{
1002
}
1000
Color
1070
     1
1070
   256
1002
{
1002
}
1000
LType
1070
     4
1000
CONTINUOUS
1002
{
1002
}
1002
}
1000
SYB5
1070
     9
1000
5
1002
{
1000
Class
1070
     4
1000
SYM
1002
{
1002
}
1000
Color
1070
     1
1070
     7
1002
{
1002
}
1000
LType
1070
     4
1000
BYLAYER
1002
{
1002
}
1002
}
1000
SYMN
1070
     9
1000
7A
1002
{
1000
Class
1070
     4
1000
CEN
1002
{
1002
}
1000
Color
1070
     1
1070
   256
1002
{
1002
}
1000
LType
1070
     4
1000
BYLAYER
1002
{
1002
}
1002
}
1000
SYMW
1070
     9
1000
7
1002
{
1000
Class
1070
     4
1000
CEN
1002
{
1002
}
1000
Color
1070
     1
1070
   256
1002
{
1002
}
1000
LType
1070
     4
1000
BYLAYER
1002
{
1002
}
1002
}
1000
TCON
1070
     9
1000
0
1002
{
1000
Class
1070
     4
1000
CON,BGD
1002
{
1002
}
1000
Color
1070
     1
1070
   256
1002
{
1002
}
1000
LType
1070
     4
1000
BYLAYER
1002
{
1002
}
1002
}
1000
THLI
1070
     9
1000
4
1002
{
1000
Class
1070
     4
1000
BGD
1002
{
1002
}
1000
Color
1070
     1
1070
   256
1002
{
1002
}
1000
LType
1070
     4
1000
BYLAYER
1002
{
1002
}
1002
}
1000
TIT2
1070
     9
1000
RAHM2
1002
{
1000
Class
1070
     4
1000
SPZ,SYM
1002
{
1002
}
1000
Color
1070
     1
1070
   256
1002
{
1002
}
1000
LType
1070
     4
1000
BYLAYER
1002
{
1002
}
1002
}
1000
TIT3
1070
     9
1000
RAHM3
1002
{
1000
Class
1070
     4
1000
SPZ,SYM
1002
{
1002
}
1000
Color
1070
     1
1070
   256
1002
{
1002
}
1000
LType
1070
     4
1000
BYLAYER
1002
{
1002
}
1002
}
1000
TIT5
1070
     9
1000
RAHM5
1002
{
1000
Class
1070
     4
1000
SPZ,SYM
1002
{
1002
}
1000
Color
1070
     1
1070
   256
1002
{
1002
}
1000
LType
1070
     4
1000
BYLAYER
1002
{
1002
}
1002
}
1000
TIT7
1070
     9
1000
RAHM5
1002
{
1000
Class
1070
     4
1000
SPZ,SYM
1002
{
1002
}
1000
Color
1070
     1
1070
     7
1002
{
1002
}
1000
LType
1070
     4
1000
CONTINUOUS
1002
{
1002
}
1002
}
1000
TLEN
1070
     9
1000
0
1002
{
1000
Class
1070
     4
1000
CON,BGD
1002
{
1002
}
1000
Color
1070
     1
1070
   256
1002
{
1002
}
1000
LType
1070
     4
1000
BYLAYER
1002
{
1002
}
1002
}
1000
TRKN
1070
     9
1000
7A
1002
{
1000
Class
1070
     4
1000

1002
{
1002
}
1000
Color
1070
     1
1070
   256
1002
{
1002
}
1000
LType
1070
     4
1000
BYLAYER
1002
{
1002
}
1002
}
1000
TRKW
1070
     9
1000
7
1002
{
1000
Class
1070
     4
1000

1002
{
1002
}
1000
Color
1070
     1
1070
   256
1002
{
1002
}
1000
LType
1070
     4
1000
BYLAYER
1002
{
1002
}
1002
}
1000
TRLI
1070
     9
1000
4
1002
{
1000
Class
1070
     4
1000
BGD
1002
{
1002
}
1000
Color
1070
     1
1070
   256
1002
{
1002
}
1000
LType
1070
     4
1000
BYLAYER
1002
{
1002
}
1002
}
1000
TXT1
1070
     9
1000
6
1002
{
1000
Class
1070
     4
1000
SYM
1002
{
1002
}
1000
Color
1070
     1
1070
     2
1002
{
1002
}
1000
LType
1070
     4
1000
BYLAYER
1002
{
1002
}
1002
}
1000
TXT2
1070
     9
1000
6
1002
{
1000
Class
1070
     4
1000
SYM
1002
{
1002
}
1000
Color
1070
     1
1070
     2
1002
{
1002
}
1000
LType
1070
     4
1000
BYLAYER
1002
{
1002
}
1002
}
1000
TXT3
1070
     9
1000
6
1002
{
1000
Class
1070
     4
1000
SYM
1002
{
1002
}
1000
Color
1070
     1
1070
   256
1002
{
1002
}
1000
LType
1070
     4
1000
BYLAYER
1002
{
1002
}
1002
}
1000
TXT5
1070
     9
1000
6
1002
{
1000
Class
1070
     4
1000
SYM
1002
{
1002
}
1000
Color
1070
     1
1070
     7
1002
{
1002
}
1000
LType
1070
     4
1000
BYLAYER
1002
{
1002
}
1002
}
1000
TXT7
1070
     9
1000
6
1002
{
1000
Class
1070
     4
1000
SYM
1002
{
1002
}
1000
Color
1070
     1
1070
     7
1002
{
1002
}
1000
LType
1070
     4
1000
BYLAYER
1002
{
1002
}
1002
}
1000
VIEW
1070
     9
1000
VIEW
1002
{
1000
Class
1070
     4
1000
SPZ
1002
{
1002
}
1000
Color
1070
     1
1070
   256
1002
{
1002
}
1000
LType
1070
     4
1000
BYLAYER
1002
{
1002
}
1002
}
1000
VPLI
1070
     9
1000
2A
1002
{
1000
Class
1070
     4
1000

1002
{
1002
}
1000
Color
1070
     1
1070
   256
1002
{
1002
}
1000
LType
1070
     4
1000
BYLAYER
1002
{
1002
}
1002
}
1000
ZIZA
1070
     9
1000
4
1002
{
1000
Class
1070
     4
1000
BGD
1002
{
1002
}
1000
Color
1070
     1
1070
   256
1002
{
1002
}
1000
LType
1070
     4
1000
GENZIGZAG
1002
{
1002
}
1002
}
  0
APPID
  5
AB8
330
A80
100
AcDbSymbolTableRecord
100
AcDbRegAppTableRecord
  2
GENIUS_GENCFG4_13
 70
     0
1001
GENIUS_GENCFG_13
1071
1043419744
1000
AB8
1000
GEN
1070
     9
1000
GenCfgObject
1000
GenCfgShort
1000
GenCfgReal
1000
GenCfgBool
1000
GenCfgString
1000
GenCfgDim
1000
GenCfgLaySection
1000
GenCfgLType
1000
GenCfgFilter
1000
Balloon
1070
     0
1002
{
1000
GenIF
1070
     1
1070
     0
1002
{
1002
}
1000
GenPosInc
1070
     1
1070
     1
1002
{
1002
}
1000
GenPosBlk
1070
     1
1070
     8
1002
{
1002
}
1000
GenPosVar
1070
     1
1070
     0
1002
{
1002
}
1000
GenZiCir
1070
     2
1040
1.5
1002
{
1002
}
1000
MaxCharForCenteredText
1070
     1
1070
    30
1002
{
1002
}
1000
Snap
1070
     0
1002
{
1000
ActivationRadius
1070
     2
1040
1.0
1002
{
1002
}
1000
M
1070
     0
1002
{
1000
SnapStepX
1070
     2
1040
20.0
1002
{
1002
}
1000
SnapStepY
1070
     2
1040
10.0
1002
{
1002
}
1002
}
1000
I
1070
     0
1002
{
1000
SnapStepX
1070
     2
1040
1.0
1002
{
1002
}
1000
SnapStepY
1070
     2
1040
0.5
1002
{
1002
}
1002
}
1002
}
1002
}
1000
Centerline
1070
     0
1002
{
1000
ScaleNot
1070
     3
1070
     0
1002
{
1002
}
1000
M
1070
     0
1002
{
1000
GenCenAng
1070
     4
1000
45|90|135
1002
{
1002
}
1000
GenCenDia
1070
     2
1040
10.0
1002
{
1002
}
1000
GenCenDias
1070
     4
1000
10|20|30
1002
{
1002
}
1000
GenCenDist
1070
     2
1040
3.0
1002
{
1002
}
1000
GenCenLen
1070
     2
1040
10.0
1002
{
1002
}
1000
GenCenOff
1070
     2
1040
10.0
1002
{
1002
}
1002
}
1000
I
1070
     0
1002
{
1000
GenCenAng
1070
     4
1000
45|90|135
1002
{
1002
}
1000
GenCenDia
1070
     2
1040
0.5
1002
{
1002
}
1000
GenCenDias
1070
     4
1000
0.5|1.0|1.5
1002
{
1002
}
1000
GenCenDist
1070
     2
1040
0.125
1002
{
1002
}
1000
GenCenLen
1070
     2
1040
0.5
1002
{
1002
}
1000
GenCenOff
1070
     2
1040
0.5
1002
{
1002
}
1002
}
1002
}
1000
CLine
1070
     0
1002
{
1000
CAngArray
1070
     4
1000
30|45|60
1002
{
1002
}
1000
Typ
1070
     4
1000
XLINE
1002
{
1002
}
1000
M
1070
     0
1002
{
1000
CLinArray
1070
     4
1000
10|20|30
1002
{
1002
}
1002
}
1000
I
1070
     0
1002
{
1000
CLinArray
1070
     4
1000
0.125|0.25|0.5
1002
{
1002
}
1002
}
1002
}
1000
Detail
1070
     0
1002
{
1002
}
1000
Dimension
1070
     5
1002
{
1000
DIMALT
1070
     1
1070
     0
1002
{
1002
}
1000
DIMALTD
1070
     1
1070
     2
1002
{
1002
}
1000
DIMALTTD
1070
     1
1070
     4
1002
{
1002
}
1000
DIMALTTZ
1070
     1
1070
     0
1002
{
1002
}
1000
DIMALTU
1070
     1
1070
     2
1002
{
1002
}
1000
DIMALTZ
1070
     1
1070
     0
1002
{
1002
}
1000
DIMAUNIT
1070
     1
1070
     0
1002
{
1002
}
1000
DIMBLK
1070
     4
1000

1002
{
1002
}
1000
DIMBLK1
1070
     4
1000

1002
{
1002
}
1000
DIMBLK2
1070
     4
1000

1002
{
1002
}
1000
DIMCLRD
1070
     1
1070
   256
1002
{
1002
}
1000
DIMCLRE
1070
     1
1070
   256
1002
{
1002
}
1000
DIMCLRT
1070
     1
1070
     2
1002
{
1002
}
1000
DIMDLE
1070
     2
1040
0.0
1002
{
1002
}
1000
DIMFIT
1070
     1
1070
     3
1002
{
1002
}
1000
DIMJUST
1070
     1
1070
     0
1002
{
1002
}
1000
DIMLFAC
1070
     2
1040
1.0
1002
{
1002
}
1000
DIMLIM
1070
     1
1070
     0
1002
{
1002
}
1000
DIMPOST
1070
     4
1000

1002
{
1002
}
1000
DIMRND
1070
     2
1040
0.0
1002
{
1002
}
1000
DIMSAH
1070
     1
1070
     0
1002
{
1002
}
1000
DIMSCALE
1070
     2
1040
1.0
1002
{
1002
}
1000
DIMSD1
1070
     1
1070
     0
1002
{
1002
}
1000
DIMSD2
1070
     1
1070
     0
1002
{
1002
}
1000
DIMSE1
1070
     1
1070
     0
1002
{
1002
}
1000
DIMSE2
1070
     1
1070
     0
1002
{
1002
}
1000
DIMSOXD
1070
     1
1070
     0
1002
{
1002
}
1000
DIMTAD
1070
     1
1070
     0
1002
{
1002
}
1000
DIMTFAC
1070
     2
1040
0.71
1002
{
1002
}
1000
DIMTIH
1070
     1
1070
     0
1002
{
1002
}
1000
DIMTIX
1070
     1
1070
     0
1002
{
1002
}
1000
DIMTM
1070
     2
1040
0.1
1002
{
1002
}
1000
DIMTOFL
1070
     1
1070
     0
1002
{
1002
}
1000
DIMTOH
1070
     1
1070
     0
1002
{
1002
}
1000
DIMTOL
1070
     1
1070
     0
1002
{
1002
}
1000
DIMTOLJ
1070
     1
1070
     1
1002
{
1002
}
1000
DIMTP
1070
     2
1040
0.1
1002
{
1002
}
1000
DIMTSZ
1070
     2
1040
0.0
1002
{
1002
}
1000
DIMTVP
1070
     2
1040
0.0
1002
{
1002
}
1000
DIMTXSTY
1070
     4
1000
STANDARD
1002
{
1002
}
1000
DIMTZIN
1070
     1
1070
     0
1002
{
1002
}
1000
DIMUNIT
1070
     1
1070
     2
1002
{
1002
}
1000
DIMUPT
1070
     1
1070
     0
1002
{
1002
}
1000
M
1070
     0
1002
{
1000
DIMALTF
1070
     2
1040
0.03937
1002
{
1002
}
1000
DIMAPOST
1070
     4
1000
"
1002
{
1002
}
1000
DIMASZ
1070
     2
1040
2.5
1002
{
1002
}
1000
DIMCEN
1070
     2
1040
0.0
1002
{
1002
}
1000
DIMDEC
1070
     1
1070
     2
1002
{
1002
}
1000
DIMDLI
1070
     2
1040
7.0
1002
{
1002
}
1000
DIMEXE
1070
     2
1040
1.0
1002
{
1002
}
1000
DIMEXO
1070
     2
1040
1.0
1002
{
1002
}
1000
DIMGAP
1070
     2
1040
0.6
1002
{
1002
}
1000
DIMTDEC
1070
     1
1070
     3
1002
{
1002
}
1000
DIMTXT
1070
     2
1040
3.5
1002
{
1002
}
1000
DIMZIN
1070
     1
1070
     8
1002
{
1002
}
1002
}
1000
I
1070
     0
1002
{
1000
DIMALTF
1070
     2
1040
25.4
1002
{
1002
}
1000
DIMAPOST
1070
     4
1000
mm
1002
{
1002
}
1000
DIMASZ
1070
     2
1040
0.1
1002
{
1002
}
1000
DIMCEN
1070
     2
1040
0.0
1002
{
1002
}
1000
DIMDEC
1070
     1
1070
     4
1002
{
1002
}
1000
DIMDLI
1070
     2
1040
0.5
1002
{
1002
}
1000
DIMEXE
1070
     2
1040
0.1
1002
{
1002
}
1000
DIMEXO
1070
     2
1040
0.05
1002
{
1002
}
1000
DIMGAP
1070
     2
1040
0.06
1002
{
1002
}
1000
DIMTDEC
1070
     1
1070
     4
1002
{
1002
}
1000
DIMTXT
1070
     2
1040
0.12
1002
{
1002
}
1000
DIMZIN
1070
     1
1070
     7
1002
{
1002
}
1002
}
1000
GEN-ISO
1070
     5
1002
{
1000
NAME
1070
     4
1000
GEN-ISO
1002
{
1002
}
1000
DIMTAD
1070
     1
1070
     1
1002
{
1002
}
1000
DIMTOLJ
1070
     1
1070
     0
1002
{
1002
}
1000
DIMTOFL
1070
     1
1070
     1
1002
{
1002
}
1000
M
1070
     0
1002
{
1002
}
1000
I
1070
     0
1002
{
1002
}
1002
}
1000
GEN-ISO-POS
1070
     5
1002
{
1000
NAME
1070
     4
1000
GEN-ISO-POS
1002
{
1002
}
1000
DIMTOLJ
1070
     1
1070
     0
1002
{
1002
}
1000
DIMTXSTY
1070
     4
1000
STANDARD
1002
{
1002
}
1000
M
1070
     0
1002
{
1000
DIMASZ
1070
     2
1040
2.5
1002
{
1002
}
1000
DIMGAP
1070
     2
1040
1.5
1002
{
1002
}
1000
DIMTXT
1070
     2
1040
5.0
1002
{
1002
}
1002
}
1000
I
1070
     0
1002
{
1000
DIMASZ
1070
     2
1040
0.1
1002
{
1002
}
1000
DIMGAP
1070
     2
1040
0.06
1002
{
1002
}
1000
DIMTXT
1070
     2
1040
0.2
1002
{
1002
}
1002
}
1002
}
1000
GEN-ISO-CIR
1070
     5
1002
{
1000
NAME
1070
     4
1000
GEN-ISO$3
1002
{
1002
}
1000
DIMFIT
1070
     1
1070
     0
1002
{
1002
}
1000
DIMTAD
1070
     1
1070
     1
1002
{
1002
}
1000
DIMTOH
1070
     1
1070
     1
1002
{
1002
}
1000
DIMTOLJ
1070
     1
1070
     0
1002
{
1002
}
1000
DIMUPT
1070
     1
1070
     1
1002
{
1002
}
1000
M
1070
     0
1002
{
1002
}
1000
I
1070
     0
1002
{
1002
}
1002
}
1000
GEN-ISO-RAD
1070
     5
1002
{
1000
NAME
1070
     4
1000
GEN-ISO$4
1002
{
1002
}
1000
DIMFIT
1070
     1
1070
     0
1002
{
1002
}
1000
DIMTAD
1070
     1
1070
     1
1002
{
1002
}
1000
DIMTIH
1070
     1
1070
     0
1002
{
1002
}
1000
DIMTIX
1070
     1
1070
     0
1002
{
1002
}
1000
DIMTOH
1070
     1
1070
     1
1002
{
1002
}
1000
DIMTOLJ
1070
     1
1070
     0
1002
{
1002
}
1000
DIMTOFL
1070
     1
1070
     0
1002
{
1002
}
1000
DIMUPT
1070
     1
1070
     1
1002
{
1002
}
1000
M
1070
     0
1002
{
1002
}
1000
I
1070
     0
1002
{
1002
}
1002
}
1000
GEN-ISO-ORD
1070
     5
1002
{
1000
NAME
1070
     4
1000
GEN-ISO$6
1002
{
1002
}
1000
DIMTOLJ
1070
     1
1070
     0
1002
{
1002
}
1000
M
1070
     0
1002
{
1002
}
1000
I
1070
     0
1002
{
1002
}
1002
}
1000
GEN-ISO-AXE-F
1070
     5
1002
{
1000
NAME
1070
     4
1000
GEN-ISO-AXE-F
1002
{
1002
}
1000
DIMSE1
1070
     1
1070
     1
1002
{
1002
}
1000
DIMSE2
1070
     1
1070
     1
1002
{
1002
}
1000
DIMTAD
1070
     1
1070
     1
1002
{
1002
}
1000
DIMTOLJ
1070
     1
1070
     0
1002
{
1002
}
1000
DIMTOFL
1070
     1
1070
     1
1002
{
1002
}
1000
M
1070
     0
1002
{
1002
}
1000
I
1070
     0
1002
{
1002
}
1002
}
1000
GEN-ISO-AXE-H
1070
     5
1002
{
1000
NAME
1070
     4
1000
GEN-ISO-AXE-H
1002
{
1002
}
1000
DIMBLK1
1070
     4
1000
GENAXEH
1002
{
1002
}
1000
DIMLFAC
1070
     2
1040
2.0
1002
{
1002
}
1000
DIMSAH
1070
     1
1070
     1
1002
{
1002
}
1000
DIMSE1
1070
     1
1070
     1
1002
{
1002
}
1000
DIMSE2
1070
     1
1070
     1
1002
{
1002
}
1000
DIMTAD
1070
     1
1070
     1
1002
{
1002
}
1000
DIMTOLJ
1070
     1
1070
     0
1002
{
1002
}
1000
DIMTOFL
1070
     1
1070
     1
1002
{
1002
}
1000
M
1070
     0
1002
{
1002
}
1000
I
1070
     0
1002
{
1002
}
1002
}
1000
GEN-ANSI
1070
     5
1002
{
1000
NAME
1070
     4
1000
GEN-ANSI
1002
{
1002
}
1000
DIMTIH
1070
     1
1070
     1
1002
{
1002
}
1000
DIMTOH
1070
     1
1070
     1
1002
{
1002
}
1000
DIMTAD
1070
     1
1070
     0
1002
{
1002
}
1000
DIMTOLJ
1070
     1
1070
     1
1002
{
1002
}
1000
M
1070
     0
1002
{
1002
}
1000
I
1070
     0
1002
{
1002
}
1002
}
1000
GEN-ANSI-POS
1070
     5
1002
{
1000
NAME
1070
     4
1000
GEN-ANSI-POS
1002
{
1002
}
1000
DIMTOLJ
1070
     1
1070
     1
1002
{
1002
}
1000
DIMTXSTY
1070
     4
1000
STANDARD
1002
{
1002
}
1000
M
1070
     0
1002
{
1000
DIMASZ
1070
     2
1040
2.5
1002
{
1002
}
1000
DIMGAP
1070
     2
1040
1.5
1002
{
1002
}
1000
DIMTXT
1070
     2
1040
5.0
1002
{
1002
}
1002
}
1000
I
1070
     0
1002
{
1000
DIMASZ
1070
     2
1040
0.1
1002
{
1002
}
1000
DIMGAP
1070
     2
1040
0.06
1002
{
1002
}
1000
DIMTXT
1070
     2
1040
0.2
1002
{
1002
}
1002
}
1002
}
1000
GEN-ANSI-CIR
1070
     5
1002
{
1000
NAME
1070
     4
1000
GEN-ANSI$3
1002
{
1002
}
1000
DIMFIT
1070
     1
1070
     0
1002
{
1002
}
1000
DIMTAD
1070
     1
1070
     0
1002
{
1002
}
1000
DIMTIH
1070
     1
1070
     1
1002
{
1002
}
1000
DIMTIX
1070
     1
1070
     0
1002
{
1002
}
1000
DIMTOFL
1070
     1
1070
     0
1002
{
1002
}
1000
DIMTOH
1070
     1
1070
     1
1002
{
1002
}
1000
DIMTOLJ
1070
     1
1070
     1
1002
{
1002
}
1000
DIMUPT
1070
     1
1070
     1
1002
{
1002
}
1000
M
1070
     0
1002
{
1002
}
1000
I
1070
     0
1002
{
1002
}
1002
}
1000
GEN-ANSI-RAD
1070
     5
1002
{
1000
NAME
1070
     4
1000
GEN-ANSI$4
1002
{
1002
}
1000
DIMFIT
1070
     1
1070
     0
1002
{
1002
}
1000
DIMTAD
1070
     1
1070
     0
1002
{
1002
}
1000
DIMTIH
1070
     1
1070
     1
1002
{
1002
}
1000
DIMTIX
1070
     1
1070
     0
1002
{
1002
}
1000
DIMTOFL
1070
     1
1070
     0
1002
{
1002
}
1000
DIMTOH
1070
     1
1070
     1
1002
{
1002
}
1000
DIMTOLJ
1070
     1
1070
     1
1002
{
1002
}
1000
DIMUPT
1070
     1
1070
     1
1002
{
1002
}
1000
M
1070
     0
1002
{
1002
}
1000
I
1070
     0
1002
{
1002
}
1002
}
1000
GEN-ANSI-ORD
1070
     5
1002
{
1000
NAME
1070
     4
1000
GEN-ANSI$6
1002
{
1002
}
1000
DIMTAD
1070
     1
1070
     0
1002
{
1002
}
1000
DIMTIH
1070
     1
1070
     1
1002
{
1002
}
1000
DIMTOH
1070
     1
1070
     1
1002
{
1002
}
1000
DIMTOLJ
1070
     1
1070
     1
1002
{
1002
}
1000
M
1070
     0
1002
{
1002
}
1000
I
1070
     0
1002
{
1002
}
1002
}
1000
GEN-ANSI-AXE-F
1070
     5
1002
{
1000
NAME
1070
     4
1000
GEN-ANSI-AXE-F
1002
{
1002
}
1000
DIMBLK1
1070
     4
1000
GENAXEH
1002
{
1002
}
1000
DIMSAH
1070
     1
1070
     1
1002
{
1002
}
1000
DIMSE1
1070
     1
1070
     1
1002
{
1002
}
1000
DIMSE2
1070
     1
1070
     1
1002
{
1002
}
1000
DIMTAD
1070
     1
1070
     0
1002
{
1002
}
1000
DIMTIH
1070
     1
1070
     1
1002
{
1002
}
1000
DIMTOH
1070
     1
1070
     1
1002
{
1002
}
1000
DIMTOLJ
1070
     1
1070
     1
1002
{
1002
}
1000
M
1070
     0
1002
{
1002
}
1000
I
1070
     0
1002
{
1002
}
1002
}
1000
GEN-ANSI-AXE-H
1070
     5
1002
{
1000
NAME
1070
     4
1000
GEN-ANSI-AXE-H
1002
{
1002
}
1000
DIMBLK1
1070
     4
1000
GENAXEH
1002
{
1002
}
1000
DIMLFAC
1070
     2
1040
2.0
1002
{
1002
}
1000
DIMSAH
1070
     1
1070
     1
1002
{
1002
}
1000
DIMSE1
1070
     1
1070
     1
1002
{
1002
}
1000
DIMSE2
1070
     1
1070
     1
1002
{
1002
}
1000
DIMTAD
1070
     1
1070
     0
1002
{
1002
}
1000
DIMTOFL
1070
     1
1070
     1
1002
{
1002
}
1000
DIMTOLJ
1070
     1
1070
     1
1002
{
1002
}
1000
M
1070
     0
1002
{
1002
}
1000
I
1070
     0
1002
{
1002
}
1002
}
1002
}
1000
DimSet
1070
     0
1002
{
1000
ChainSum
1070
     3
1070
     0
1002
{
1002
}
1000
DimDclTyp0
1070
     4
1000
dim23
1002
{
1002
}
1000
HorBra
1070
     3
1070
     0
1002
{
1002
}
1000
StrDia
1070
     4
1000
%%c<>
1002
{
1002
}
1000
StrRad
1070
     4
1000
R<>
1002
{
1002
}
1000
TextMinus
1070
     4
1000
<>
1002
{
1002
}
1000
TextPlus
1070
     4
1000
<>
1002
{
1002
}
1000
M
1070
     0
1002
{
1000
DimdliFirst
1070
     2
1040
10.0
1002
{
1002
}
1000
PointMakeDist
1070
     2
1040
10.0
1002
{
1002
}
1002
}
1000
I
1070
     0
1002
{
1000
DimdliFirst
1070
     2
1040
0.5
1002
{
1002
}
1000
PointMakeDist
1070
     2
1040
0.5
1002
{
1002
}
1002
}
1000
FitGrade
1070
     4
1000
h7
1002
{
1002
}
1002
}
1000
Drawing
1070
     0
1002
{
1000
ChamferDimMode
1070
     1
1070
     2
1002
{
1002
}
1000
Gen_Fiso
1070
    -3
1040
1.0
1002
{
1002
}
1000
GenDimStil
1070
     4
1000
ISO
1002
{
1002
}
1000
GenDwgUScale
1070
     2
1040
1.0
1002
{
1002
}
1000
GenInch
1070
     4
1000
M
1002
{
1002
}
1000
GenPlotScale
1070
     4
1000
1:4.5
1002
{
1002
}
1000
Revisi
1070
     4
1000
0
1002
{
1002
}
1002
}
1000
DwgVar
1070
     0
1002
{
1000
M
1070
     0
1002
{
1002
}
1000
I
1070
     0
1002
{
1002
}
1002
}
1000
Hatch
1070
     0
1002
{
1000
GenHtcFlag
1070
     3
1070
     0
1002
{
1002
}
1002
}
1000
Info_Pos
1070
     0
1002
{
1000
>
1002
}
1000
Layer
1070
     6
1002
{
1000
Defs
1070
     0
1002
{
1000
>
1002
}
1000
EntSort
1070
     0
1002
{
1000
>
1002
}
1000
Match
1070
     0
1002
{
1002
}
1000
Settings
1070
     0
1002
{
1000
FocGrNC
1070
     3
1070
     0
1002
{
1002
}
1000
FocGrLo
1070
     3
1070
     0
1002
{
1002
}
1000
FocLoNC
1070
     3
1070
     0
1002
{
1002
}
1000
FocusCol
1070
     1
1070
   253
1002
{
1002
}
1000
GenStdLG
1070
     4
1000

1002
{
1002
}
1000
LayMatch
1070
     3
1070
     0
1002
{
1002
}
1000
LgOff
1070
     3
1070
     0
1002
{
1002
}
1000
CurLG
1070
    -5
1000

1002
{
1002
}
1002
}
1002
}
1000
LType
1070
     0
1002
{
1000
GEN3
1070
     7
1000
genius.lin
1002
{
1002
}
1000
GEN7
1070
     7
1000
genius.lin
1002
{
1002
}
1000
GEN4A
1070
     7
1000
genius.lin
1002
{
1002
}
1000
GEN3A
1070
     7
1000
genius.lin
1002
{
1002
}
1000
GEN7A
1070
     7
1000
genius.lin
1002
{
1002
}
1000
GENZIGZAG
1070
     7
1000
genius.lin
1002
{
1002
}
1002
}
1000
Objecter
1070
     0
1002
{
1000
CreateGroups
1070
     3
1070
     0
1002
{
1002
}
1000
LaySwitch
1070
     3
1070
     1
1002
{
1002
}
1000
LastObj
1070
    -5
1000
5B6
1002
{
1002
}
1000
TimeStamp
1070
    -5
1000
20030124.15460166
1002
{
1002
}
1002
}
1000
OSWiz
1070
     0
1002
{
1000
Filter
1070
     0
1002
{
1000
HATCH
1070
     8
1002
{
1000
EntityType
1070
     4
1000
LINE
1002
{
1002
}
1000
Layer
1070
     4
1000
8,8N,*-8,*-8N
1002
{
1002
}
1000
Linetype
1070
     4
1000
*
1002
{
1002
}
1000
Color
1070
     4
1000
*
1002
{
1002
}
1000
ApplyInDims
1070
     3
1070
     1
1002
{
1002
}
1002
}
1000
SYMBOLS
1070
     8
1002
{
1000
EntityType
1070
     4
1000
*
1002
{
1002
}
1000
Layer
1070
     4
1000
[5-6],[5-6]N,*-[5-6],*-[5-6]N
1002
{
1002
}
1000
Linetype
1070
     4
1000
*
1002
{
1002
}
1000
Color
1070
     4
1000
*
1002
{
1002
}
1000
ApplyInDims
1070
     3
1070
     1
1002
{
1002
}
1002
}
1000
FEM
1070
     8
1002
{
1000
EntityType
1070
     4
1000
*
1002
{
1002
}
1000
Layer
1070
     4
1000
4A,4AN,*-4A,*-4AN
1002
{
1002
}
1000
Linetype
1070
     4
1000
*
1002
{
1002
}
1000
Color
1070
     4
1000
*
1002
{
1002
}
1000
ApplyInDims
1070
     3
1070
     1
1002
{
1002
}
1002
}
1002
}
1002
}
1000
PaList
1070
     0
1002
{
1000
AutoUpdatePartList
1070
     1
1070
     0
1002
{
1002
}
1000
ReadInfoPoint
1070
     3
1070
     0
1002
{
1002
}
1000
ReadPosNr
1070
     3
1070
     1
1002
{
1002
}
1000
RevStr
1070
     4
1000
0
1002
{
1002
}
1002
}
1000
Paper
1070
     0
1002
{
1002
}
1000
PartDB
1070
     0
1002
{
1000
GenDbOwner
1070
     4
1000

1002
{
1002
}
1002
}
1000
System
1070
     0
1002
{
1002
}
1000
Title
1070
     0
1002
{
1000
MakeView
1070
     1
1070
     2
1002
{
1002
}
1002
}
1000
Tools
1070
     0
1002
{
1000
Trans
1070
     0
1002
{
1000
Drawingtranslation
1070
    -4
1070
     1
1002
{
1002
}
1000
upreserve
1070
     3
1070
     0
1002
{
1002
}
1000
originally_on
1070
    -4
1070
     0
1002
{
1002
}
1000
sourcelang
1070
    -5
1000
D
1002
{
1002
}
1002
}
1002
}
  0
APPID
  5
AB9
330
A80
100
AcDbSymbolTableRecord
100
AcDbRegAppTableRecord
  2
GENIUS_GENOENT_13
 70
     0
  0
APPID
  5
ABA
330
A80
100
AcDbSymbolTableRecord
100
AcDbRegAppTableRecord
  2
GENIUS_GEFCFG0_13
 70
     0
  0
APPID
  5
ABB
330
A80
100
AcDbSymbolTableRecord
100
AcDbRegAppTableRecord
  2
GENIUS_GENOBJ_13
 70
     0
  0
APPID
  5
ABC
330
A80
100
AcDbSymbolTableRecord
100
AcDbRegAppTableRecord
  2
GENIUS_GENODEF_13
 70
     0
  0
APPID
  5
ABD
330
A80
100
AcDbSymbolTableRecord
100
AcDbRegAppTableRecord
  2
GENIUS_GENOLIS_13
 70
     0
  0
APPID
  5
ABE
330
A80
100
AcDbSymbolTableRecord
100
AcDbRegAppTableRecord
  2
GENIUS_GENOREF_13
 70
     0
  0
APPID
  5
ABF
330
A80
100
AcDbSymbolTableRecord
100
AcDbRegAppTableRecord
  2
GENIUS_GENOBJ-N-TIT_13
 70
     0
  0
APPID
  5
AC0
330
A80
100
AcDbSymbolTableRecord
100
AcDbRegAppTableRecord
  2
GENIUS_GENTITLE_13
 70
     0
  0
APPID
  5
AC1
330
A80
100
AcDbSymbolTableRecord
100
AcDbRegAppTableRecord
  2
GENIUS_GENZVEED_13
 70
     0
  0
APPID
  5
AC2
330
A80
100
AcDbSymbolTableRecord
100
AcDbRegAppTableRecord
  2
GENIUS_GENOBJ-N-SDF_13
 70
     0
  0
APPID
  5
AC3
330
A80
100
AcDbSymbolTableRecord
100
AcDbRegAppTableRecord
  2
GENIUS_GENSCREG_13
 70
     0
  0
APPID
  5
AC4
330
A80
100
AcDbSymbolTableRecord
100
AcDbRegAppTableRecord
  2
GENIUS_GENREC_13
 70
     0
  0
APPID
  5
AC5
330
A80
100
AcDbSymbolTableRecord
100
AcDbRegAppTableRecord
  2
GENIUS_GENOBJ-N-REC_13
 70
     0
  0
APPID
  5
AC6
330
A80
100
AcDbSymbolTableRecord
100
AcDbRegAppTableRecord
  2
GEV_VCCNULL_SWITCH_OFF
 70
     0
  0
APPID
  5
AC7
330
A80
100
AcDbSymbolTableRecord
100
AcDbRegAppTableRecord
  2
GENIUS_GENOBJ-N-CEN_13
 70
     0
  0
APPID
  5
AC8
330
A80
100
AcDbSymbolTableRecord
100
AcDbRegAppTableRecord
  2
GENIUS_GENOBJ-N-FIL_13
 70
     0
  0
APPID
  5
AC9
330
A80
100
AcDbSymbolTableRecord
100
AcDbRegAppTableRecord
  2
GENIUS_GENFIL_13
 70
     0
  0
APPID
  5
ACA
330
A80
100
AcDbSymbolTableRecord
100
AcDbRegAppTableRecord
  2
GENIUS_GENOBJ-N-CHA_13
 70
     0
  0
APPID
  5
ACB
330
A80
100
AcDbSymbolTableRecord
100
AcDbRegAppTableRecord
  2
GEVID847791353
 70
     0
  0
APPID
  5
ACC
330
A80
100
AcDbSymbolTableRecord
100
AcDbRegAppTableRecord
  2
GEVDC
 70
     0
  0
APPID
  5
ACD
330
A80
100
AcDbSymbolTableRecord
100
AcDbRegAppTableRecord
  2
GEVCON
 70
     0
  0
APPID
  5
ACE
330
A80
100
AcDbSymbolTableRecord
100
AcDbRegAppTableRecord
  2
GEVRADREF
 70
     0
  0
APPID
  5
ACF
330
A80
100
AcDbSymbolTableRecord
100
AcDbRegAppTableRecord
  2
VCC
 70
     0
  0
APPID
  5
AD0
330
A80
100
AcDbSymbolTableRecord
100
AcDbRegAppTableRecord
  2
GEVPT
 70
     0
  0
APPID
  5
AD1
330
A80
100
AcDbSymbolTableRecord
100
AcDbRegAppTableRecord
  2
GEVIT
 70
     0
  0
APPID
  5
AD2
330
A80
100
AcDbSymbolTableRecord
100
AcDbRegAppTableRecord
  2
GENBH
 70
     0
  0
APPID
  5
AD3
330
A80
100
AcDbSymbolTableRecord
100
AcDbRegAppTableRecord
  2
GEVMK
 70
     0
  0
APPID
  5
AD4
330
A80
100
AcDbSymbolTableRecord
100
AcDbRegAppTableRecord
  2
GENIUS_GENBH_13
 70
     0
  0
APPID
  5
AD5
330
A80
100
AcDbSymbolTableRecord
100
AcDbRegAppTableRecord
  2
GENIUS_GENOBJ-NBEHI-BHF_13
 70
     0
  0
APPID
  5
AD6
330
A80
100
AcDbSymbolTableRecord
100
AcDbRegAppTableRecord
  2
GENIUS_GENOBJ-NBEHI-BHB_13
 70
     0
  0
APPID
  5
AD7
330
A80
100
AcDbSymbolTableRecord
100
AcDbRegAppTableRecord
  2
GENIUS_GENOBJ-F-PART_13
 70
     0
  0
APPID
  5
AD8
330
A80
100
AcDbSymbolTableRecord
100
AcDbRegAppTableRecord
  2
GENIUS_GEFSTDP_13
 70
     0
  0
APPID
  5
AD9
330
A80
100
AcDbSymbolTableRecord
100
AcDbRegAppTableRecord
  2
GENIUS_GEFPARTINS_13
 70
     0
  0
APPID
  5
ADA
330
A80
100
AcDbSymbolTableRecord
100
AcDbRegAppTableRecord
  2
GENIUS_GENINF13_13
 70
     0
  0
APPID
  5
ADB
330
A80
100
AcDbSymbolTableRecord
100
AcDbRegAppTableRecord
  2
GENIUS_GENOBJ-N-INFOPT_13
 70
     0
  0
APPID
  5
ADC
330
A80
100
AcDbSymbolTableRecord
100
AcDbRegAppTableRecord
  2
GENIUS_GENOBJ-N-RSSYM_13
 70
     0
  0
APPID
  5
ADD
330
A80
100
AcDbSymbolTableRecord
100
AcDbRegAppTableRecord
  2
GENIUS_GENSYMENT_13
 70
     0
  0
APPID
  5
ADE
330
A80
100
AcDbSymbolTableRecord
100
AcDbRegAppTableRecord
  2
GENIUS_GENSCSYM_13
 70
     0
  0
APPID
  5
ADF
330
A80
100
AcDbSymbolTableRecord
100
AcDbRegAppTableRecord
  2
GENIUS_GEFINFNAM_13
 70
     0
  0
APPID
  5
AE0
330
A80
100
AcDbSymbolTableRecord
100
AcDbRegAppTableRecord
  2
GENIUS_GENDTOL_13
 70
     0
  0
APPID
  5
AE1
330
A80
100
AcDbSymbolTableRecord
100
AcDbRegAppTableRecord
  2
GENIUS_GENOBJ-N-HTC_13
 70
     0
  0
APPID
  5
AE2
330
A80
100
AcDbSymbolTableRecord
100
AcDbRegAppTableRecord
  2
GENIUS_GENHATCH_13
 70
     0
  0
APPID
  5
AE3
330
A80
100
AcDbSymbolTableRecord
100
AcDbRegAppTableRecord
  2
GEVID847791361
 70
     0
  0
APPID
  5
B35
330
A80
100
AcDbSymbolTableRecord
100
AcDbRegAppTableRecord
  2
MCAD_NO_VIS
 70
     0
  0
APPID
  5
B36
330
A80
100
AcDbSymbolTableRecord
100
AcDbRegAppTableRecord
  2
ACAD_TEMP_GRAPHIC
 70
     0
  0
APPID
  5
B66
330
A80
100
AcDbSymbolTableRecord
100
AcDbRegAppTableRecord
  2
AD_DRAW
 70
     0
  0
APPID
  5
B69
330
A80
100
AcDbSymbolTableRecord
100
AcDbRegAppTableRecord
  2
ACATTRIBSERVICES
 70
     0
  0
APPID
  5
B89
330
A80
100
AcDbSymbolTableRecord
100
AcDbRegAppTableRecord
  2
DESIGNERASSEMBLIES
 70
     0
  0
APPID
  5
B8F
330
A80
100
AcDbSymbolTableRecord
100
AcDbRegAppTableRecord
  2
ACADM_DIM_EDIT
 70
     0
  0
APPID
  5
B90
330
A80
100
AcDbSymbolTableRecord
100
AcDbRegAppTableRecord
  2
AMDT_DM_ADJ
 70
     0
  0
APPID
  5
BC2
330
A80
100
AcDbSymbolTableRecord
100
AcDbRegAppTableRecord
  2
ACAD_DSTYLE_DIMARC_LENGTH_SYMBOL
 70
     0
  0
APPID
  5
BC3
330
A80
100
AcDbSymbolTableRecord
100
AcDbRegAppTableRecord
  2
ACAD_DSTYLE_DIMJOGGED_JOGANGLE_SYMBOL
 70
     0
  0
APPID
  5
BF6
330
A80
100
AcDbSymbolTableRecord
100
AcDbRegAppTableRecord
  2
GENIUS_GENSCREG_15
 70
     0
  0
APPID
  5
C4D
330
A80
100
AcDbSymbolTableRecord
100
AcDbRegAppTableRecord
  2
ACAD_MLEADERVER
 70
     0
  0
APPID
  5
CC9
330
A80
100
AcDbSymbolTableRecord
100
AcDbRegAppTableRecord
  2
ACAD_EXEMPT_FROM_CAD_STANDARDS
 70
     0
  0
APPID
  5
CD1
330
A80
100
AcDbSymbolTableRecord
100
AcDbRegAppTableRecord
  2
AcAecLayerStandard
 70
     0
  0
APPID
  5
D15
330
A80
100
AcDbSymbolTableRecord
100
AcDbRegAppTableRecord
  2
ACAD_DSTYLE_DIMINSPECT
 70
     0
  0
APPID
  5
11BE
330
A80
100
AcDbSymbolTableRecord
100
AcDbRegAppTableRecord
  2
ACAD_DSTYLE_DIMANGULAR_EXTENSION
 70
     0
  0
APPID
  5
132C
330
A80
100
AcDbSymbolTableRecord
100
AcDbRegAppTableRecord
  2
ACAD_DSTYLE_DIMRADIAL_EXTENSION
 70
     0
  0
ENDTAB
  0
TABLE
  2
DIMSTYLE
  5
A81
330
0
100
AcDbSymbolTable
 70
    11
100
AcDbDimStyleTable
 71
     1
340
AE5
  0
DIMSTYLE
105
AE4
330
A81
100
AcDbSymbolTableRecord
100
AcDbDimStyleTableRecord
  2
STANDARD
 70
     0
271
     2
272
     2
284
     8
285
     8
286
     8
340
A86
  0
DIMSTYLE
105
AE5
102
{ACAD_REACTORS
330
70F
330
7B7
330
7D5
330
805
330
82D
330
87B
330
146E
102
}
330
A81
100
AcDbSymbolTableRecord
100
AcDbDimStyleTableRecord
  2
GEN-ISO
 70
     0
  3
<>
 40
4.5
 41
2.5
 42
1.0
 43
7.0
 44
1.0
 47
0.1
 48
0.1
 73
     0
 74
     0
 77
     1
 78
     8
140
3.5
141
0.0
143
0.03937
146
0.71
147
0.6
172
     1
176
   256
177
   256
178
     2
271
     2
272
     2
284
     8
285
     8
286
     8
340
A86
  0
DIMSTYLE
105
BC1
102
{ACAD_REACTORS
330
CAC
102
}
330
A81
100
AcDbSymbolTableRecord
100
AcDbDimStyleTableRecord
  2
AM_DIN
 70
     0
  4
"
 41
2.5
 42
1.0
 43
10.0
 44
1.0
 47
0.1
 48
0.1
 73
     0
 74
     0
 77
     1
 78
     8
 79
     2
140
3.5
141
0.0
143
0.0393701
146
0.71
147
1.5
172
     1
176
   256
177
   256
178
     2
271
     2
272
     3
274
     4
283
     0
284
     8
340
A86
371
    -1
372
    -1
1001
ACAD_DSTYLE_DIMJOGGED_JOGANGLE_SYMBOL
1070
   384
1040
1.570796326794896
  0
DIMSTYLE
105
BD2
330
A81
100
AcDbSymbolTableRecord
100
AcDbDimStyleTableRecord
  2
AM_DIN$3
 70
     0
  4
"
 41
2.5
 42
1.0
 43
10.0
 44
1.0
 47
0.1
 48
0.1
 73
     0
 77
     1
 78
     8
 79
     2
140
3.5
141
0.0
143
0.0393701
146
0.71
147
1.5
176
   256
177
   256
178
     2
271
     2
272
     3
274
     4
283
     0
284
     8
288
     1
289
     0
340
A86
371
    -1
372
    -1
1001
ACAD_DSTYLE_DIMJOGGED_JOGANGLE_SYMBOL
1070
   384
1040
1.570796326794896
  0
DIMSTYLE
105
BD7
330
A81
100
AcDbSymbolTableRecord
100
AcDbDimStyleTableRecord
  2
AM_DIN$4
 70
     0
  4
"
 41
2.5
 42
1.0
 43
10.0
 44
1.0
 47
0.1
 48
0.1
 73
     0
 77
     1
 78
     8
 79
     2
140
3.5
141
0.0
143
0.0393701
146
0.71
147
1.5
176
   256
177
   256
178
     2
271
     2
272
     3
274
     4
283
     0
284
     8
288
     1
289
     0
340
A86
371
    -1
372
    -1
1001
ACAD_DSTYLE_DIMJOGGED_JOGANGLE_SYMBOL
1070
   384
1040
1.570796326794896
  0
DIMSTYLE
105
BDC
330
A81
100
AcDbSymbolTableRecord
100
AcDbDimStyleTableRecord
  2
AM_DIN$6
 70
     0
  4
"
 41
2.5
 42
1.0
 43
10.0
 44
1.0
 47
0.1
 48
0.1
 73
     0
 74
     0
 78
     8
 79
     2
140
3.5
141
0.0
143
0.0393701
146
0.71
147
1.5
172
     1
176
   256
177
   256
178
     2
271
     2
272
     3
274
     4
283
     0
284
     8
340
A86
371
    -1
372
    -1
1001
ACAD_DSTYLE_DIMJOGGED_JOGANGLE_SYMBOL
1070
   384
1040
1.570796326794896
  0
DIMSTYLE
105
BE1
330
A81
100
AcDbSymbolTableRecord
100
AcDbDimStyleTableRecord
  2
AM_DIN$7
 70
     0
  4
"
 41
2.5
 42
1.0
 43
10.0
 44
1.0
 47
0.1
 48
0.1
 73
     0
 74
     0
 77
     1
 78
     8
 79
     2
140
5.0
141
0.0
143
0.0393701
146
0.71
147
1.5
172
     1
176
   256
177
   256
178
     2
271
     2
272
     3
274
     4
283
     0
284
     8
340
A86
371
    -1
372
    -1
1001
ACAD_DSTYLE_DIMJOGGED_JOGANGLE_SYMBOL
1070
   384
1040
1.570796326794896
  0
DIMSTYLE
105
BE6
330
A81
100
AcDbSymbolTableRecord
100
AcDbDimStyleTableRecord
  2
AM_DIN$SF
 70
     0
  4
"
 41
2.5
 42
1.0
 43
10.0
 44
1.0
 47
0.1
 48
0.1
 73
     0
 74
     0
 75
     1
 76
     1
 77
     1
 78
     8
 79
     2
140
3.5
141
0.0
143
0.0393701
146
0.71
147
1.5
172
     1
176
   256
177
   256
178
     2
271
     2
272
     3
274
     4
283
     0
284
     8
340
A86
371
    -1
372
    -1
1001
ACAD_DSTYLE_DIMJOGGED_JOGANGLE_SYMBOL
1070
   384
1040
1.570796326794896
  0
DIMSTYLE
105
BEF
330
A81
100
AcDbSymbolTableRecord
100
AcDbDimStyleTableRecord
  2
AM_DIN$SH
 70
     0
  4
"
 41
2.5
 42
1.0
 43
10.0
 44
1.0
 47
0.1
 48
0.1
 73
     0
 74
     0
 75
     1
 76
     1
 77
     1
 78
     8
 79
     2
140
3.5
141
0.0
143
0.0393701
144
2.0
146
0.71
147
1.5
172
     1
173
     1
176
   256
177
   256
178
     2
271
     2
272
     3
274
     4
283
     0
284
     8
340
A86
343
BE7
371
    -1
372
    -1
1001
ACAD_DSTYLE_DIMJOGGED_JOGANGLE_SYMBOL
1070
   384
1040
1.570796326794896
  0
DIMSTYLE
105
CFD
102
{ACAD_REACTORS
330
70F
330
7B7
330
7D5
330
805
330
82D
330
87B
330
DB2
330
1404
102
}
330
A81
100
AcDbSymbolTableRecord
100
AcDbDimStyleTableRecord
  2
GEN-ISO$0
 70
     0
  3
<>
 40
4.5
 41
2.5
 42
1.0
 43
7.0
 44
1.0
 47
0.1
 48
0.1
 73
     0
 74
     0
 77
     1
 78
     8
140
3.5
141
0.0
143
0.03937
146
0.71
147
0.6
172
     1
176
   256
177
   256
178
     2
271
     2
272
     2
284
     8
285
     8
286
     8
340
A86
  0
ENDTAB
  0
TABLE
  2
BLOCK_RECORD
  5
A78
330
0
100
AcDbSymbolTable
 70
    33
  0
BLOCK_RECORD
  5
A8E
102
{ACAD_XDICTIONARY
360
F66
102
}
330
A78
100
AcDbSymbolTableRecord
100
AcDbBlockTableRecord
  2
*MODEL_SPACE
340
B2D
  0
BLOCK_RECORD
  5
A8B
330
A78
100
AcDbSymbolTableRecord
100
AcDbBlockTableRecord
  2
*PAPER_SPACE
340
B2E
  0
BLOCK_RECORD
  5
A95
330
A78
100
AcDbSymbolTableRecord
100
AcDbBlockTableRecord
  2
*D1
340
0
  0
BLOCK_RECORD
  5
A98
330
A78
100
AcDbSymbolTableRecord
100
AcDbBlockTableRecord
  2
*D3
340
0
  0
BLOCK_RECORD
  5
A99
330
A78
100
AcDbSymbolTableRecord
100
AcDbBlockTableRecord
  2
*D4
340
0
  0
BLOCK_RECORD
  5
A9A
330
A78
100
AcDbSymbolTableRecord
100
AcDbBlockTableRecord
  2
*D5
340
0
  0
BLOCK_RECORD
  5
A9B
330
A78
100
AcDbSymbolTableRecord
100
AcDbBlockTableRecord
  2
*D6
340
0
  0
BLOCK_RECORD
  5
A9C
330
A78
100
AcDbSymbolTableRecord
100
AcDbBlockTableRecord
  2
*D7
340
0
  0
BLOCK_RECORD
  5
A9E
330
A78
100
AcDbSymbolTableRecord
100
AcDbBlockTableRecord
  2
*X9
340
0
102
{BLKREFS
331
A37
102
}
  0
BLOCK_RECORD
  5
AA0
330
A78
100
AcDbSymbolTableRecord
100
AcDbBlockTableRecord
  2
*X10
340
0
  0
BLOCK_RECORD
  5
AA1
330
A78
100
AcDbSymbolTableRecord
100
AcDbBlockTableRecord
  2
*X11
340
0
102
{BLKREFS
331
995
102
}
  0
BLOCK_RECORD
  5
AA5
330
A78
100
AcDbSymbolTableRecord
100
AcDbBlockTableRecord
  2
*U12
340
0
102
{BLKREFS
331
A21
102
}
  0
BLOCK_RECORD
  5
AA6
330
A78
100
AcDbSymbolTableRecord
100
AcDbBlockTableRecord
  2
*U13
340
0
102
{BLKREFS
331
A28
102
}
  0
BLOCK_RECORD
  5
AA7
330
A78
100
AcDbSymbolTableRecord
100
AcDbBlockTableRecord
  2
*U14
340
0
102
{BLKREFS
331
8D8
102
}
  0
BLOCK_RECORD
  5
BE7
330
A78
100
AcDbSymbolTableRecord
100
AcDbBlockTableRecord
  2
GENAXEH
340
0
  0
BLOCK_RECORD
  5
DB3
330
A78
100
AcDbSymbolTableRecord
100
AcDbBlockTableRecord
  2
*D24
340
0
  0
BLOCK_RECORD
  5
1405
330
A78
100
AcDbSymbolTableRecord
100
AcDbBlockTableRecord
  2
*D28
340
0
  0
BLOCK_RECORD
  5
146F
330
A78
100
AcDbSymbolTableRecord
100
AcDbBlockTableRecord
  2
*D31
340
0
  0
BLOCK_RECORD
  5
151E
330
A78
100
AcDbSymbolTableRecord
100
AcDbBlockTableRecord
  2
*D32
340
0
  0
ENDTAB
  0
ENDSEC
  0
SECTION
  2
BLOCKS
  0
BLOCK
  5
AFC
330
A8E
100
AcDbEntity
  8
0
100
AcDbBlockBegin
  2
*MODEL_SPACE
 70
     0
 10
0.0
 20
0.0
 30
0.0
  3
*MODEL_SPACE
  1

  0
ENDBLK
  5
AFD
330
A8E
100
AcDbEntity
  8
0
100
AcDbBlockEnd
  0
BLOCK
  5
AFA
330
A8B
100
AcDbEntity
 67
     1
  8
0
100
AcDbBlockBegin
  2
*PAPER_SPACE
 70
     0
 10
0.0
 20
0.0
 30
0.0
  3
*PAPER_SPACE
  1

  0
ENDBLK
  5
AFB
330
A8B
100
AcDbEntity
 67
     1
  8
0
100
AcDbBlockEnd
  0
BLOCK
  5
73F
330
A95
100
AcDbEntity
  8
0
100
AcDbBlockBegin
  2
*D1
 70
     1
 10
0.0
 20
0.0
 30
0.0
  3
*D1
  1
GEVFRAME
  0
LINE
  5
740
330
A95
100
AcDbEntity
  8
0
  6
ByBlock
100
AcDbLine
 10
413.9466409999998
 20
422.8095599999998
 30
0.0
 11
686.9790429999998
 21
422.8095599999998
 31
0.0
  0
LINE
  5
741
330
A95
100
AcDbEntity
  8
0
  6
ByBlock
100
AcDbLine
 10
607.734353
 20
297.81104
 30
0.0
 11
686.9790429999998
 21
297.81104
 31
0.0
  0
LINE
  5
742
330
A95
100
AcDbEntity
  8
0
  6
ByBlock
100
AcDbLine
 10
682.4790429999998
 20
411.55956
 30
0.0
 11
682.4790429999998
 21
309.06104
 31
0.0
  0
SOLID
  5
743
330
A95
100
AcDbEntity
  8
0
  6
ByBlock
100
AcDbTrace
 10
680.6040429999998
 20
411.55956
 30
0.0
 11
684.3540429999998
 21
411.55956
 31
0.0
 12
682.4790429999998
 22
422.8095599999998
 32
0.0
 13
682.4790429999998
 23
422.8095599999998
 33
0.0
  0
SOLID
  5
744
330
A95
100
AcDbEntity
  8
0
  6
ByBlock
100
AcDbTrace
 10
680.6040429999998
 20
309.06104
 30
0.0
 11
684.3540429999998
 21
309.06104
 31
0.0
 12
682.4790429999998
 22
297.81104
 32
0.0
 13
682.4790429999998
 23
297.81104
 33
0.0
  0
TEXT
  5
745
330
A95
100
AcDbEntity
  8
0
  6
ByBlock
 62
     2
100
AcDbText
 10
679.7805929999998
 20
345.021607
 30
0.0
 40
15.75
  1
125
 50
90.0
100
AcDbText
  0
POINT
  5
746
330
A95
100
AcDbEntity
  8
DEFPOINTS
  6
ByBlock
 62
     0
100
AcDbPoint
 10
409.4466409999998
 20
422.8095599999998
 30
0.0
  0
POINT
  5
747
330
A95
100
AcDbEntity
  8
DEFPOINTS
  6
ByBlock
 62
     0
100
AcDbPoint
 10
603.234353
 20
297.81104
 30
0.0
  0
POINT
  5
748
330
A95
100
AcDbEntity
  8
DEFPOINTS
  6
ByBlock
 62
     0
100
AcDbPoint
 10
682.4790429999998
 20
297.81104
 30
0.0
  0
ENDBLK
  5
749
330
A95
100
AcDbEntity
  8
0
100
AcDbBlockEnd
  0
BLOCK
  5
7B8
330
A98
100
AcDbEntity
  8
0
100
AcDbBlockBegin
  2
*D3
 70
     1
 10
0.0
 20
0.0
 30
0.0
  3
*D3
  1
GEVFRAME
  0
LINE
  5
7B9
330
A98
100
AcDbEntity
  8
0
  6
ByBlock
100
AcDbLine
 10
212.529843
 20
422.8095599999998
 30
0.0
 11
71.238242
 21
422.8095599999998
 31
0.0
  0
LINE
  5
7BA
330
A98
100
AcDbEntity
  8
0
  6
ByBlock
100
AcDbLine
 10
116.238242
 20
377.80956
 30
0.0
 11
71.238242
 21
377.80956
 31
0.0
  0
LINE
  5
7BB
330
A98
100
AcDbEntity
  8
0
  6
ByBlock
100
AcDbLine
 10
75.738242
 20
434.0595599999998
 30
0.0
 11
75.738242
 21
445.30956
 31
0.0
  0
LINE
  5
7BC
330
A98
100
AcDbEntity
  8
0
  6
ByBlock
100
AcDbLine
 10
75.738242
 20
366.55956
 30
0.0
 11
75.738242
 21
355.30956
 31
0.0
  0
LINE
  5
7BD
330
A98
100
AcDbEntity
  8
0
  6
ByBlock
100
AcDbLine
 10
75.738242
 20
422.8095599999998
 30
0.0
 11
75.738242
 21
377.80956
 31
0.0
  0
SOLID
  5
7BE
330
A98
100
AcDbEntity
  8
0
  6
ByBlock
100
AcDbTrace
 10
73.863242
 20
434.0595599999998
 30
0.0
 11
77.613242
 21
434.0595599999998
 31
0.0
 12
75.738242
 22
422.8095599999998
 32
0.0
 13
75.738242
 23
422.8095599999998
 33
0.0
  0
SOLID
  5
7BF
330
A98
100
AcDbEntity
  8
0
  6
ByBlock
100
AcDbTrace
 10
73.863242
 20
366.55956
 30
0.0
 11
77.613242
 21
366.55956
 31
0.0
 12
75.738242
 22
377.80956
 32
0.0
 13
75.738242
 23
377.80956
 33
0.0
  0
TEXT
  5
7C0
330
A98
100
AcDbEntity
  8
0
  6
ByBlock
 62
     2
100
AcDbText
 10
73.03824200000002
 20
388.170867
 30
0.0
 40
15.75
  1
45
 50
90.0
100
AcDbText
  0
POINT
  5
7C1
330
A98
100
AcDbEntity
  8
DEFPOINTS
  6
ByBlock
 62
     0
100
AcDbPoint
 10
217.029843
 20
422.8095599999998
 30
0.0
  0
POINT
  5
7C2
330
A98
100
AcDbEntity
  8
DEFPOINTS
  6
ByBlock
 62
     0
100
AcDbPoint
 10
120.738242
 20
377.80956
 30
0.0
  0
POINT
  5
7C3
330
A98
100
AcDbEntity
  8
DEFPOINTS
  6
ByBlock
 62
     0
100
AcDbPoint
 10
75.738242
 20
377.80956
 30
0.0
  0
ENDBLK
  5
7C4
330
A98
100
AcDbEntity
  8
0
100
AcDbBlockEnd
  0
BLOCK
  5
7EA
330
A99
100
AcDbEntity
  8
0
100
AcDbBlockBegin
  2
*D4
 70
     1
 10
0.0
 20
0.0
 30
0.0
  3
*D4
  1
GEVFRAME
  0
LINE
  5
7EB
330
A99
100
AcDbEntity
  8
0
  6
ByBlock
100
AcDbLine
 10
212.529843
 20
422.8095599999998
 30
0.0
 11
35.764291
 21
422.8095599999998
 31
0.0
  0
LINE
  5
7EC
330
A99
100
AcDbEntity
  8
0
  6
ByBlock
100
AcDbLine
 10
236.62549
 20
242.80956
 30
0.0
 11
35.764291
 21
242.80956
 31
0.0
  0
LINE
  5
7ED
330
A99
100
AcDbEntity
  8
0
  6
ByBlock
100
AcDbLine
 10
40.264291
 20
411.55956
 30
0.0
 11
40.264291
 21
254.05956
 31
0.0
  0
SOLID
  5
7EE
330
A99
100
AcDbEntity
  8
0
  6
ByBlock
100
AcDbTrace
 10
38.389291
 20
411.55956
 30
0.0
 11
42.139291
 21
411.55956
 31
0.0
 12
40.264291
 22
422.8095599999998
 32
0.0
 13
40.264291
 23
422.8095599999998
 33
0.0
  0
SOLID
  5
7EF
330
A99
100
AcDbEntity
  8
0
  6
ByBlock
100
AcDbTrace
 10
38.389291
 20
254.05956
 30
0.0
 11
42.139291
 21
254.05956
 31
0.0
 12
40.264291
 22
242.80956
 32
0.0
 13
40.264291
 23
242.80956
 33
0.0
  0
TEXT
  5
7F0
330
A99
100
AcDbEntity
  8
0
  6
ByBlock
 62
     2
100
AcDbText
 10
37.564291
 20
317.840859
 30
0.0
 40
15.75
  1
180
 50
90.0
100
AcDbText
  0
POINT
  5
7F1
330
A99
100
AcDbEntity
  8
DEFPOINTS
  6
ByBlock
 62
     0
100
AcDbPoint
 10
217.029843
 20
422.8095599999998
 30
0.0
  0
POINT
  5
7F2
330
A99
100
AcDbEntity
  8
DEFPOINTS
  6
ByBlock
 62
     0
100
AcDbPoint
 10
241.12549
 20
242.80956
 30
0.0
  0
POINT
  5
7F3
330
A99
100
AcDbEntity
  8
DEFPOINTS
  6
ByBlock
 62
     0
100
AcDbPoint
 10
40.264291
 20
242.80956
 30
0.0
  0
ENDBLK
  5
7F4
330
A99
100
AcDbEntity
  8
0
100
AcDbBlockEnd
  0
BLOCK
  5
850
330
A9A
100
AcDbEntity
  8
0
100
AcDbBlockBegin
  2
*D5
 70
     1
 10
0.0
 20
0.0
 30
0.0
  3
*D5
  1
GEVFRAME
  0
LINE
  5
851
330
A9A
100
AcDbEntity
  8
0
  6
ByBlock
100
AcDbLine
 10
110.738242
 20
372.3095600000001
 30
0.0
 11
110.738242
 21
506.6600629999999
 31
0.0
  0
LINE
  5
852
330
A9A
100
AcDbEntity
  8
0
  6
ByBlock
100
AcDbLine
 10
515.7355899999998
 20
372.3095600000001
 30
0.0
 11
515.7355899999998
 21
506.6600629999999
 31
0.0
  0
LINE
  5
853
330
A9A
100
AcDbEntity
  8
0
  6
ByBlock
100
AcDbLine
 10
121.988242
 20
502.160063
 30
0.0
 11
504.48559
 21
502.160063
 31
0.0
  0
SOLID
  5
854
330
A9A
100
AcDbEntity
  8
0
  6
ByBlock
100
AcDbTrace
 10
121.988242
 20
504.0350629999998
 30
0.0
 11
121.988242
 21
500.285063
 31
0.0
 12
110.738242
 22
502.160063
 32
0.0
 13
110.738242
 23
502.160063
 33
0.0
  0
SOLID
  5
855
330
A9A
100
AcDbEntity
  8
0
  6
ByBlock
100
AcDbTrace
 10
504.48559
 20
504.0350629999998
 30
0.0
 11
504.48559
 21
500.285063
 31
0.0
 12
515.7355899999998
 22
502.160063
 32
0.0
 13
515.7355899999998
 23
502.160063
 33
0.0
  0
TEXT
  5
856
330
A9A
100
AcDbEntity
  8
0
  6
ByBlock
 62
     2
100
AcDbText
 10
295.580723
 20
504.860063
 30
0.0
 40
15.75
  1
405
100
AcDbText
  0
POINT
  5
857
330
A9A
100
AcDbEntity
  8
DEFPOINTS
  6
ByBlock
 62
     0
100
AcDbPoint
 10
110.738242
 20
367.80956
 30
0.0
  0
POINT
  5
858
330
A9A
100
AcDbEntity
  8
DEFPOINTS
  6
ByBlock
 62
     0
100
AcDbPoint
 10
515.7355899999998
 20
367.80956
 30
0.0
  0
POINT
  5
859
330
A9A
100
AcDbEntity
  8
DEFPOINTS
  6
ByBlock
 62
     0
100
AcDbPoint
 10
515.7355899999998
 20
502.160063
 30
0.0
  0
ENDBLK
  5
85A
330
A9A
100
AcDbEntity
  8
0
100
AcDbBlockEnd
  0
BLOCK
  5
845
330
A9B
100
AcDbEntity
  8
0
100
AcDbBlockBegin
  2
*D6
 70
     1
 10
0.0
 20
0.0
 30
0.0
  3
*D6
  1
GEVFRAME
  0
LINE
  5
846
330
A9B
100
AcDbEntity
  8
0
  6
ByBlock
100
AcDbLine
 10
214.739283
 20
425.026612
 30
0.0
 11
214.739283
 21
472.309561
 31
0.0
  0
LINE
  5
847
330
A9B
100
AcDbEntity
  8
0
  6
ByBlock
100
AcDbLine
 10
411.7372009999998
 20
425.026612
 30
0.0
 11
411.7372009999998
 21
472.309561
 31
0.0
  0
LINE
  5
848
330
A9B
100
AcDbEntity
  8
0
  6
ByBlock
100
AcDbLine
 10
225.989283
 20
467.809561
 30
0.0
 11
400.4872009999998
 21
467.809561
 31
0.0
  0
SOLID
  5
849
330
A9B
100
AcDbEntity
  8
0
  6
ByBlock
100
AcDbTrace
 10
225.989283
 20
469.684561
 30
0.0
 11
225.989283
 21
465.934561
 31
0.0
 12
214.739283
 22
467.809561
 32
0.0
 13
214.739283
 23
467.809561
 33
0.0
  0
SOLID
  5
84A
330
A9B
100
AcDbEntity
  8
0
  6
ByBlock
100
AcDbTrace
 10
400.4872009999998
 20
469.684561
 30
0.0
 11
400.4872009999998
 21
465.934561
 31
0.0
 12
411.7372009999998
 22
467.809561
 32
0.0
 13
411.7372009999998
 23
467.809561
 33
0.0
  0
TEXT
  5
84B
330
A9B
100
AcDbEntity
  8
0
  6
ByBlock
 62
     2
100
AcDbText
 10
298.248224
 20
470.5095609999998
 30
0.0
 40
15.75
  1
197
100
AcDbText
  0
POINT
  5
84C
330
A9B
100
AcDbEntity
  8
DEFPOINTS
  6
ByBlock
 62
     0
100
AcDbPoint
 10
214.739283
 20
420.526612
 30
0.0
  0
POINT
  5
84D
330
A9B
100
AcDbEntity
  8
DEFPOINTS
  6
ByBlock
 62
     0
100
AcDbPoint
 10
411.7372009999998
 20
420.526612
 30
0.0
  0
POINT
  5
84E
330
A9B
100
AcDbEntity
  8
DEFPOINTS
  6
ByBlock
 62
     0
100
AcDbPoint
 10
411.7372009999998
 20
467.809561
 30
0.0
  0
ENDBLK
  5
84F
330
A9B
100
AcDbEntity
  8
0
100
AcDbBlockEnd
  0
BLOCK
  5
887
330
A9C
100
AcDbEntity
  8
0
100
AcDbBlockBegin
  2
*D7
 70
     1
 10
0.0
 20
0.0
 30
0.0
  3
*D7
  1
GEVFRAME
  0
LINE
  5
888
330
A9C
100
AcDbEntity
  8
0
  6
ByBlock
100
AcDbLine
 10
380.848124
 20
264.523318
 30
0.0
 11
510.775335
 21
264.523318
 31
0.0
  0
LINE
  5
889
330
A9C
100
AcDbEntity
  8
0
  6
ByBlock
100
AcDbLine
 10
428.720204
 20
324.523318
 30
0.0
 11
510.775335
 21
324.523318
 31
0.0
  0
LINE
  5
88A
330
A9C
100
AcDbEntity
  8
0
  6
ByBlock
100
AcDbLine
 10
506.275335
 20
275.773318
 30
0.0
 11
506.275335
 21
313.273318
 31
0.0
  0
SOLID
  5
88B
330
A9C
100
AcDbEntity
  8
0
  6
ByBlock
100
AcDbTrace
 10
504.4003349999998
 20
275.773318
 30
0.0
 11
508.150335
 21
275.773318
 31
0.0
 12
506.275335
 22
264.523318
 32
0.0
 13
506.275335
 23
264.523318
 33
0.0
  0
SOLID
  5
88C
330
A9C
100
AcDbEntity
  8
0
  6
ByBlock
100
AcDbTrace
 10
504.4003349999998
 20
313.273318
 30
0.0
 11
508.150335
 21
313.273318
 31
0.0
 12
506.275335
 22
324.523318
 32
0.0
 13
506.275335
 23
324.523318
 33
0.0
  0
TEXT
  5
88D
330
A9C
100
AcDbEntity
  8
0
  6
ByBlock
 62
     2
100
AcDbText
 10
503.5753349999998
 20
281.851468
 30
0.0
 40
15.75
  1
60
 50
90.0
100
AcDbText
  0
POINT
  5
88E
330
A9C
100
AcDbEntity
  8
DEFPOINTS
  6
ByBlock
 62
     0
100
AcDbPoint
 10
376.348124
 20
264.523318
 30
0.0
  0
POINT
  5
88F
330
A9C
100
AcDbEntity
  8
DEFPOINTS
  6
ByBlock
 62
     0
100
AcDbPoint
 10
424.220204
 20
324.523318
 30
0.0
  0
POINT
  5
890
330
A9C
100
AcDbEntity
  8
DEFPOINTS
  6
ByBlock
 62
     0
100
AcDbPoint
 10
506.275335
 20
324.523318
 30
0.0
  0
ENDBLK
  5
891
330
A9C
100
AcDbEntity
  8
0
100
AcDbBlockEnd
  0
BLOCK
  5
8D7
330
A9E
100
AcDbEntity
  8
0
100
AcDbBlockBegin
  2
*X9
 70
     1
 10
0.0
 20
0.0
 30
0.0
  3
*X9
  1
GEVFRAME
  0
LINE
  5
8D9
330
A9E
100
AcDbEntity
  8
0
 62
     0
100
AcDbLine
 10
366.916297
 20
296.205619
 30
0.0
 11
376.348124
 21
305.637446
 31
0.0
  0
LINE
  5
8DA
330
A9E
100
AcDbEntity
  8
0
 62
     0
100
AcDbLine
 10
366.916297
 20
303.2766870000001
 30
0.0
 11
376.348124
 21
312.7085140000001
 31
0.0
  0
LINE
  5
8DB
330
A9E
100
AcDbEntity
  8
0
 62
     0
100
AcDbLine
 10
366.916297
 20
310.347755
 30
0.0
 11
376.348124
 21
319.779582
 31
0.0
  0
LINE
  5
8DC
330
A9E
100
AcDbEntity
  8
0
 62
     0
100
AcDbLine
 10
366.916297
 20
317.418823
 30
0.0
 11
385.922952
 21
336.425477
 31
0.0
  0
LINE
  5
8DD
330
A9E
100
AcDbEntity
  8
0
 62
     0
100
AcDbLine
 10
369.588706
 20
327.162299
 30
0.0
 11
381.500568
 21
339.074161
 31
0.0
  0
LINE
  5
8DE
330
A9E
100
AcDbEntity
  8
0
 62
     0
100
AcDbLine
 10
366.916297
 20
289.134551
 30
0.0
 11
376.348124
 21
298.566378
 31
0.0
  0
LINE
  5
8DF
330
A9E
100
AcDbEntity
  8
0
 62
     0
100
AcDbLine
 10
366.916297
 20
282.063484
 30
0.0
 11
376.348124
 21
291.495311
 31
0.0
  0
LINE
  5
8E0
330
A9E
100
AcDbEntity
  8
0
 62
     0
100
AcDbLine
 10
366.916297
 20
274.992416
 30
0.0
 11
376.348124
 21
284.424243
 31
0.0
  0
LINE
  5
8E1
330
A9E
100
AcDbEntity
  8
0
 62
     0
100
AcDbLine
 10
366.916297
 20
267.921348
 30
0.0
 11
376.348124
 21
277.353175
 31
0.0
  0
LINE
  5
8E2
330
A9E
100
AcDbEntity
  8
0
 62
     0
100
AcDbLine
 10
370.589335
 20
264.523318
 30
0.0
 11
376.348124
 21
270.282107
 31
0.0
  0
ENDBLK
  5
8E3
330
A9E
100
AcDbEntity
  8
0
100
AcDbBlockEnd
  0
BLOCK
  5
982
330
AA0
100
AcDbEntity
  8
0
100
AcDbBlockBegin
  2
*X10
 70
     1
 10
0.0
 20
0.0
 30
0.0
  3
*X10
  1
GEVFRAME
  0
LINE
  5
984
330
AA0
100
AcDbEntity
  8
0
 62
     0
100
AcDbLine
 10
200.462366
 20
377.80956
 30
0.0
 11
186.2019
 21
392.070026
 31
0.0
  0
LINE
  5
985
330
AA0
100
AcDbEntity
  8
0
 62
     0
100
AcDbLine
 10
193.815562
 20
377.80956
 30
0.0
 11
179.555096
 21
392.070026
 31
0.0
  0
LINE
  5
986
330
AA0
100
AcDbEntity
  8
0
 62
     0
100
AcDbLine
 10
187.168758
 20
377.80956
 30
0.0
 11
178.534637
 21
386.443681
 31
0.0
  0
LINE
  5
987
330
AA0
100
AcDbEntity
  8
0
 62
     0
100
AcDbLine
 10
180.521954
 20
377.80956
 30
0.0
 11
178.534637
 21
379.796877
 31
0.0
  0
LINE
  5
988
330
AA0
100
AcDbEntity
  8
0
 62
     0
100
AcDbLine
 10
207.109169
 20
377.80956
 30
0.0
 11
192.848703
 21
392.070026
 31
0.0
  0
LINE
  5
989
330
AA0
100
AcDbEntity
  8
0
 62
     0
100
AcDbLine
 10
211.052131
 20
380.513402
 30
0.0
 11
199.495507
 21
392.070026
 31
0.0
  0
LINE
  5
98A
330
AA0
100
AcDbEntity
  8
0
 62
     0
100
AcDbLine
 10
211.584964
 20
386.627373
 30
0.0
 11
206.142311
 21
392.070026
 31
0.0
  0
ENDBLK
  5
98B
330
AA0
100
AcDbEntity
  8
0
100
AcDbBlockEnd
  0
BLOCK
  5
994
330
AA1
100
AcDbEntity
  8
0
100
AcDbBlockBegin
  2
*X11
 70
     1
 10
0.0
 20
0.0
 30
0.0
  3
*X11
  1
GEVFRAME
  0
LINE
  5
996
330
AA1
100
AcDbEntity
  8
0
 62
     0
100
AcDbLine
 10
160.5815429999999
 20
377.80956
 30
0.0
 11
146.321077
 21
392.070026
 31
0.0
  0
LINE
  5
997
330
AA1
100
AcDbEntity
  8
0
 62
     0
100
AcDbLine
 10
153.934739
 20
377.80956
 30
0.0
 11
143.094276
 21
388.650023
 31
0.0
  0
LINE
  5
998
330
AA1
100
AcDbEntity
  8
0
 62
     0
100
AcDbLine
 10
147.287936
 20
377.80956
 30
0.0
 11
143.094276
 21
382.003219
 31
0.0
  0
LINE
  5
999
330
AA1
100
AcDbEntity
  8
0
 62
     0
100
AcDbLine
 10
167.228347
 20
377.80956
 30
0.0
 11
152.967881
 21
392.070026
 31
0.0
  0
LINE
  5
99A
330
AA1
100
AcDbEntity
  8
0
 62
     0
100
AcDbLine
 10
168.534637
 20
383.150074
 30
0.0
 11
159.614685
 21
392.070026
 31
0.0
  0
LINE
  5
99B
330
AA1
100
AcDbEntity
  8
0
 62
     0
100
AcDbLine
 10
168.534637
 20
389.796877
 30
0.0
 11
166.261488
 21
392.070026
 31
0.0
  0
ENDBLK
  5
99C
330
AA1
100
AcDbEntity
  8
0
100
AcDbBlockEnd
  0
BLOCK
  5
A15
330
AA5
100
AcDbEntity
  8
0
100
AcDbBlockBegin
  2
*U12
 70
     1
 10
0.0
 20
0.0
 30
0.0
  3
*U12
  1
*U
  0
LINE
  5
A16
330
AA5
100
AcDbEntity
  8
-BHMU
100
AcDbLine
 10
9.431827
 20
19.476485
 30
0.0
 11
9.431827
 21
-19.476485
 31
0.0
  0
LINE
  5
A17
330
AA5
100
AcDbEntity
  8
-BHMU
100
AcDbLine
 10
0.0
 20
19.476485
 30
0.0
 11
0.0
 21
-19.476485
 31
0.0
  0
LINE
  5
A18
330
AA5
100
AcDbEntity
  8
BHMM
100
AcDbLine
 10
0.0
 20
-19.476485
 30
0.0
 11
9.431827
 21
-19.476485
 31
0.0
  0
LINE
  5
A19
330
AA5
100
AcDbEntity
  8
THLI
100
AcDbLine
 10
0.0
 20
-20.955
 30
0.0
 11
9.431827
 21
-20.955
 31
0.0
  0
LINE
  5
A1A
330
AA5
100
AcDbEntity
  8
CENN
100
AcDbLine
 10
-3.0
 20
0.0
 30
0.0
 11
12.431827
 21
0.0
 31
0.0
  0
LINE
  5
A1B
330
AA5
100
AcDbEntity
  8
BHMM
100
AcDbLine
 10
0.0
 20
19.476485
 30
0.0
 11
9.431827
 21
19.476485
 31
0.0
  0
LINE
  5
A1C
330
AA5
100
AcDbEntity
  8
THLI
100
AcDbLine
 10
0.0
 20
20.955
 30
0.0
 11
9.431827
 21
20.955
 31
0.0
  0
ENDBLK
  5
A1D
330
AA5
100
AcDbEntity
  8
0
100
AcDbBlockEnd
  0
BLOCK
  5
A20
330
AA6
100
AcDbEntity
  8
0
100
AcDbBlockBegin
  2
*U13
 70
     1
 10
0.0
 20
0.0
 30
0.0
  3
*U13
  1
*U
  0
INSERT
  5
A21
330
AA6
100
AcDbEntity
  8
GEV_FROZEN
100
AcDbBlockReference
  2
*U12
 10
0.0
 20
0.0
 30
0.0
 41
0.1
 42
0.1
 43
0.1
1001
GENBH
1002
{
1000
-NOBRK
1002
}
  0
LINE
  5
A22
330
AA6
100
AcDbEntity
  8
0
100
AcDbLine
 10
0.0
 20
-19.476485
 30
0.0
 11
9.431827
 21
-19.476485
 31
0.0
  0
LINE
  5
A23
330
AA6
100
AcDbEntity
  8
4
100
AcDbLine
 10
0.0
 20
-20.955
 30
0.0
 11
9.431827
 21
-20.955
 31
0.0
  0
LINE
  5
A24
330
AA6
100
AcDbEntity
  8
7A
100
AcDbLine
 10
-3.0
 20
0.0
 30
0.0
 11
12.431827
 21
0.0
 31
0.0
  0
LINE
  5
A25
330
AA6
100
AcDbEntity
  8
0
100
AcDbLine
 10
0.0
 20
19.476485
 30
0.0
 11
9.431827
 21
19.476485
 31
0.0
  0
LINE
  5
A26
330
AA6
100
AcDbEntity
  8
4
100
AcDbLine
 10
0.0
 20
20.955
 30
0.0
 11
9.431827
 21
20.955
 31
0.0
  0
ENDBLK
  5
A27
330
AA6
100
AcDbEntity
  8
0
100
AcDbBlockEnd
  0
BLOCK
  5
A2A
330
AA7
100
AcDbEntity
  8
0
100
AcDbBlockBegin
  2
*U14
 70
     1
 10
0.0
 20
0.0
 30
0.0
  3
*U14
  1
*U
1001
GENIUS_GENBH_13
1002
{
1000
BMBH
1070
     1
1002
}
  0
LINE
  5
A2B
330
AA7
100
AcDbEntity
  8
0
 62
     0
100
AcDbLine
 10
366.916297
 20
296.205619
 30
0.0
 11
376.348124
 21
305.637446
 31
0.0
  0
LINE
  5
A2C
330
AA7
100
AcDbEntity
  8
0
 62
     0
100
AcDbLine
 10
366.916297
 20
303.2766870000001
 30
0.0
 11
376.348124
 21
312.7085140000001
 31
0.0
  0
LINE
  5
A2D
330
AA7
100
AcDbEntity
  8
0
 62
     0
100
AcDbLine
 10
366.916297
 20
310.347755
 30
0.0
 11
376.348124
 21
319.779582
 31
0.0
  0
LINE
  5
A2E
330
AA7
100
AcDbEntity
  8
0
 62
     0
100
AcDbLine
 10
366.916297
 20
317.418823
 30
0.0
 11
381.576338
 21
332.078863
 31
0.0
  0
LINE
  5
A2F
330
AA7
100
AcDbEntity
  8
9
100
AcDbLine
 10
381.576338
 20
332.078863
 30
0.0
 11
385.922952
 21
336.425477
 31
0.0
1001
GENIUS_GENBH_13
1002
{
1000
ML
1040
1.0
1002
}
1002
{
1000
OA
1000
0
1070
     0
1000
BYLAYER
1005
F
1005
15
1002
}
  0
LINE
  5
A30
330
AA7
100
AcDbEntity
  8
0
 62
     0
100
AcDbLine
 10
369.588706
 20
327.162299
 30
0.0
 11
377.153954
 21
334.727547
 31
0.0
  0
LINE
  5
A31
330
AA7
100
AcDbEntity
  8
9
100
AcDbLine
 10
377.153954
 20
334.727547
 30
0.0
 11
381.500568
 21
339.074161
 31
0.0
1001
GENIUS_GENBH_13
1002
{
1000
ML
1040
1.0
1002
}
1002
{
1000
OA
1000
0
1070
     0
1000
BYLAYER
1005
F
1005
15
1002
}
  0
LINE
  5
A32
330
AA7
100
AcDbEntity
  8
0
 62
     0
100
AcDbLine
 10
366.916297
 20
289.134551
 30
0.0
 11
376.348124
 21
298.566378
 31
0.0
  0
LINE
  5
A33
330
AA7
100
AcDbEntity
  8
0
 62
     0
100
AcDbLine
 10
366.916297
 20
282.063484
 30
0.0
 11
376.348124
 21
291.495311
 31
0.0
  0
LINE
  5
A34
330
AA7
100
AcDbEntity
  8
0
 62
     0
100
AcDbLine
 10
366.916297
 20
274.992416
 30
0.0
 11
376.348124
 21
284.424243
 31
0.0
  0
LINE
  5
A35
330
AA7
100
AcDbEntity
  8
0
 62
     0
100
AcDbLine
 10
366.916297
 20
267.921348
 30
0.0
 11
376.348124
 21
277.353175
 31
0.0
  0
LINE
  5
A36
330
AA7
100
AcDbEntity
  8
0
 62
     0
100
AcDbLine
 10
370.589335
 20
264.523318
 30
0.0
 11
376.348124
 21
270.282107
 31
0.0
  0
INSERT
  5
A37
330
AA7
100
AcDbEntity
  8
0
100
AcDbBlockReference
  2
*X9
 10
0.0
 20
0.0
 30
0.0
1001
GENIUS_GENOLIS_13
1002
{
1000
ENT
1002
}
1001
GENIUS_GENOENT_13
1002
{
1000
MYREF
1005
0
1002
}
  0
ENDBLK
  5
A38
330
AA7
100
AcDbEntity
  8
0
100
AcDbBlockEnd
  0
BLOCK
  5
BE9
330
BE7
100
AcDbEntity
  8
0
100
AcDbBlockBegin
  2
GENAXEH
 70
     0
 10
0.0
 20
0.0
 30
0.0
  3
GENAXEH
  1

  0
LINE
  5
BE8
330
BE7
100
AcDbEntity
  8
0
100
AcDbLine
 10
-1.0
 20
0.0
 30
0.0
 11
1.0
 21
0.0
 31
0.0
  0
ENDBLK
  5
BEA
330
BE7
100
AcDbEntity
  8
0
100
AcDbBlockEnd
  0
BLOCK
  5
DB4
330
DB3
100
AcDbEntity
  8
0
100
AcDbBlockBegin
  2
*D24
 70
     1
 10
0.0
 20
0.0
 30
0.0
  3
*D24
  1

  0
LINE
  5
152A
330
DB3
100
AcDbEntity
  8
AM_5
370
    -2
100
AcDbLine
 10
116.238242
 20
377.80956
 30
0.0
 11
24.70064314635427
 21
377.80956
 31
0.0
  0
LINE
  5
152B
330
DB3
100
AcDbEntity
  8
AM_5
370
    -2
100
AcDbLine
 10
232.12549
 20
242.80956
 30
0.0
 11
24.70064314635422
 21
242.8095600000001
 31
0.0
  0
LINE
  5
152C
330
DB3
100
AcDbEntity
  8
AM_5
370
    -2
100
AcDbLine
 10
29.20064314635426
 20
366.55956
 30
0.0
 11
29.20064314635423
 21
254.05956
 31
0.0
  0
SOLID
  5
152D
330
DB3
100
AcDbEntity
  8
AM_5
100
AcDbTrace
 10
27.32564314635426
 20
366.55956
 30
0.0
 11
31.07564314635426
 21
366.55956
 31
0.0
 12
29.20064314635427
 22
377.80956
 32
0.0
 13
29.20064314635427
 23
377.80956
 33
0.0
  0
SOLID
  5
152E
330
DB3
100
AcDbEntity
  8
AM_5
100
AcDbTrace
 10
27.32564314635423
 20
254.05956
 30
0.0
 11
31.07564314635423
 21
254.05956
 31
0.0
 12
29.20064314635423
 22
242.8095600000001
 32
0.0
 13
29.20064314635423
 23
242.8095600000001
 33
0.0
  0
MTEXT
  5
152F
330
DB3
100
AcDbEntity
  8
AM_5
 62
     2
100
AcDbMText
 10
18.6256431463542
 20
308.6060847790104
 30
0.0
 40
15.75
 41
0.0
 71
     5
 72
     1
  1
\A1;135
 11
0.0000000000000001
 21
1.0
 31
0.0
 73
     1
 44
1.0
  0
POINT
  5
1530
330
DB3
100
AcDbEntity
  8
DEFPOINTS
 62
     0
100
AcDbPoint
 10
120.738242
 20
377.80956
 30
0.0
  0
POINT
  5
1531
330
DB3
100
AcDbEntity
  8
DEFPOINTS
 62
     0
100
AcDbPoint
 10
236.62549
 20
242.80956
 30
0.0
  0
POINT
  5
1532
330
DB3
100
AcDbEntity
  8
DEFPOINTS
 62
     0
100
AcDbPoint
 10
29.20064314635423
 20
242.8095600000001
 30
0.0
  0
ENDBLK
  5
DB5
330
DB3
100
AcDbEntity
  8
0
100
AcDbBlockEnd
  0
BLOCK
  5
1406
330
1405
100
AcDbEntity
  8
0
100
AcDbBlockBegin
  2
*D28
 70
     1
 10
0.0
 20
0.0
 30
0.0
  3
*D28
  1

  0
LINE
  5
1437
330
1405
100
AcDbEntity
  8
AM_5
370
    -2
100
AcDbLine
 10
610.6066634997564
 20
352.5001526084083
 30
0.0
 11
727.9347008193188
 21
346.351250724854
 31
0.0
  0
LINE
  5
1438
330
1405
100
AcDbEntity
  8
AM_5
370
    -2
100
AcDbLine
 10
604.8497083130342
 20
242.6509037854048
 30
0.0
 11
722.1777456325967
 21
236.5020019018505
 31
0.0
  0
LINE
  5
1439
330
1405
100
AcDbEntity
  8
AM_5
370
    -2
100
AcDbLine
 10
722.8520884051903
 20
335.3521802619582
 30
0.0
 11
718.2726922339341
 21
247.9720959709327
 31
0.0
  0
SOLID
  5
143A
330
1405
100
AcDbEntity
  8
AM_5
100
AcDbTrace
 10
720.9796580275256
 20
335.4503101799137
 30
0.0
 11
724.7245187828552
 21
335.2540503440027
 31
0.0
 12
723.4408679129233
 22
346.5867625279472
 32
0.0
 13
723.4408679129233
 23
346.5867625279472
 33
0.0
  0
SOLID
  5
143B
330
1405
100
AcDbEntity
  8
AM_5
100
AcDbTrace
 10
716.4002618562693
 20
248.0702258888882
 30
0.0
 11
720.1451226115989
 21
247.8739660529772
 31
0.0
 12
717.6839127262011
 22
236.7375137049437
 32
0.0
 13
717.6839127262011
 23
236.7375137049437
 33
0.0
  0
MTEXT
  5
143C
330
1405
100
AcDbEntity
  8
AM_5
 62
     2
100
AcDbMText
 10
709.8744502196675
 20
289.7840287534192
 30
0.0
 40
15.75
 41
0.0
 71
     5
 72
     1
  1
\A1;%%c110
 11
0.0523359562429282
 21
0.9986295347545746
 31
0.0
 73
     1
 44
1.0
  0
POINT
  5
143D
330
1405
100
AcDbEntity
  8
DEFPOINTS
 62
     0
100
AcDbPoint
 10
606.1128305933608
 20
352.7356644115014
 30
0.0
  0
POINT
  5
143E
330
1405
100
AcDbEntity
  8
DEFPOINTS
 62
     0
100
AcDbPoint
 10
600.3558754066387
 20
242.8864155884979
 30
0.0
  0
POINT
  5
143F
330
1405
100
AcDbEntity
  8
DEFPOINTS
 62
     0
100
AcDbPoint
 10
717.6839127262011
 20
236.7375137049437
 30
0.0
  0
ENDBLK
  5
1407
330
1405
100
AcDbEntity
  8
0
100
AcDbBlockEnd
  0
BLOCK
  5
1470
330
146F
100
AcDbEntity
  8
0
100
AcDbBlockBegin
  2
*D31
 70
     1
 10
0.0
 20
0.0
 30
0.0
  3
*D31
  1

  0
ARC
  5
14E9
330
146F
100
AcDbEntity
  8
0
370
    -2
100
AcDbCircle
 10
603.2343530000002
 20
297.8110399999999
 30
0.0
 40
48.33718867589639
100
AcDbArc
 50
330.2693901122388
 51
343.6346950561199
  0
ARC
  5
14EA
330
146F
100
AcDbEntity
  8
0
370
    -2
100
AcDbCircle
 10
603.2343530000002
 20
297.8110399999999
 30
0.0
 40
48.33718867589639
100
AcDbArc
 50
13.36530494388113
 51
26.73060988776227
  0
ARC
  5
14EB
330
146F
100
AcDbEntity
  8
0
370
    -2
100
AcDbCircle
 10
603.2343530000002
 20
297.8110399999999
 30
0.0
 40
48.33718867589639
100
AcDbArc
 50
357.000000000001
 51
0.0
  0
SOLID
  5
14EC
330
146F
100
AcDbEntity
  8
0
100
AcDbTrace
 10
647.7648597174383
 20
284.5068875763469
 30
0.0
 11
651.4614388587652
 21
283.8761715927959
 31
0.0
 12
651.5052972387545
 22
295.2812670085521
 32
0.0
 13
651.5052972387545
 23
295.2812670085521
 33
0.0
  0
SOLID
  5
14ED
330
146F
100
AcDbEntity
  8
0
100
AcDbTrace
 10
652.124639976918
 20
309.2028004991242
 30
0.0
 11
648.4001177447145
 21
308.7664128940975
 31
0.0
 12
651.5715416758966
 22
297.8110399999999
 32
0.0
 13
651.5715416758966
 23
297.8110399999999
 33
0.0
  0
MTEXT
  5
14EE
330
146F
100
AcDbEntity
  8
0
 62
     2
100
AcDbMText
 10
624.2610790563365
 20
267.8770815955145
 30
0.0
 40
15.75
 41
0.0
 71
     5
 72
     1
  1
\A1;1,5°
 11
0.8182938844106084
 21
0.5748000684900775
 31
0.0
 73
     1
 44
1.0
  0
POINT
  5
14EF
330
146F
100
AcDbEntity
  8
DEFPOINTS
 62
     0
100
AcDbPoint
 10
651.5641796879346
 20
296.9674397371928
 30
0.0
  0
POINT
  5
14F0
330
146F
100
AcDbEntity
  8
DEFPOINTS
 62
     0
100
AcDbPoint
 10
518.2408199999998
 20
297.8110399999999
 30
0.0
  0
POINT
  5
14F1
330
146F
100
AcDbEntity
  8
DEFPOINTS
 62
     0
100
AcDbPoint
 10
518.24082
 20
302.2653623179483
 30
0.0
  0
POINT
  5
14F2
330
146F
100
AcDbEntity
  8
DEFPOINTS
 62
     0
100
AcDbPoint
 10
672.1579098602254
 20
294.1989094446684
 30
0.0
  0
POINT
  5
14F3
330
146F
100
AcDbEntity
  8
DEFPOINTS
 62
     0
100
AcDbPoint
 10
672.1579098602254
 20
297.81104
 30
0.0
  0
ENDBLK
  5
1471
330
146F
100
AcDbEntity
  8
0
100
AcDbBlockEnd
  0
BLOCK
  5
151F
330
151E
100
AcDbEntity
  8
0
100
AcDbBlockBegin
  2
*D32
 70
     1
 10
0.0
 20
0.0
 30
0.0
  3
*D32
  1

  0
LINE
  5
153C
330
151E
100
AcDbEntity
  8
5
370
    -2
100
AcDbLine
 10
212.529843
 20
422.8095599999998
 30
0.0
 11
-10.36759926059988
 21
422.8095599999999
 31
0.0
  0
LINE
  5
153D
330
151E
100
AcDbEntity
  8
5
370
    -2
100
AcDbLine
 10
236.62549
 20
242.80956
 30
0.0
 11
-10.36759926059992
 21
242.8095600000001
 31
0.0
  0
LINE
  5
153E
330
151E
100
AcDbEntity
  8
5
370
    -2
100
AcDbLine
 10
-5.867599260599874
 20
411.5595599999998
 30
0.0
 11
-5.867599260599908
 21
254.0595600000001
 31
0.0
  0
SOLID
  5
153F
330
151E
100
AcDbEntity
  8
5
100
AcDbTrace
 10
-7.742599260599874
 20
411.5595599999998
 30
0.0
 11
-3.992599260599874
 21
411.5595599999998
 31
0.0
 12
-5.867599260599871
 22
422.8095599999999
 32
0.0
 13
-5.867599260599871
 23
422.8095599999999
 33
0.0
  0
SOLID
  5
1540
330
151E
100
AcDbEntity
  8
5
100
AcDbTrace
 10
-7.742599260599908
 20
254.0595600000001
 30
0.0
 11
-3.992599260599909
 21
254.0595600000001
 31
0.0
 12
-5.867599260599911
 22
242.8095600000001
 32
0.0
 13
-5.867599260599911
 23
242.8095600000001
 33
0.0
  0
MTEXT
  5
1541
330
151E
100
AcDbEntity
  8
5
 62
     2
100
AcDbMText
 10
-16.44259926059994
 20
331.1925415455762
 30
0.0
 40
15.75
 41
0.0
 71
     5
 72
     1
  1
\A1;180
 11
0.0000000000000001
 21
1.0
 31
0.0
 73
     1
 44
1.0
  0
POINT
  5
1542
330
151E
100
AcDbEntity
  8
DEFPOINTS
 62
     0
100
AcDbPoint
 10
217.029843
 20
422.8095599999998
 30
0.0
  0
POINT
  5
1543
330
151E
100
AcDbEntity
  8
DEFPOINTS
 62
     0
100
AcDbPoint
 10
241.12549
 20
242.80956
 30
0.0
  0
POINT
  5
1544
330
151E
100
AcDbEntity
  8
DEFPOINTS
 62
     0
100
AcDbPoint
 10
-5.867599260599911
 20
242.8095600000001
 30
0.0
  0
ENDBLK
  5
1520
330
151E
100
AcDbEntity
  8
0
100
AcDbBlockEnd
  0
ENDSEC
  0
SECTION
  2
ENTITIES
  0
LINE
  5
29B
102
{ACAD_REACTORS
330
1108
102
}
330
A8E
100
AcDbEntity
  8
0
100
AcDbLine
 10
221.12549
 20
262.80956
 30
0.0
 11
221.12549
 21
368.734719
 31
0.0
  0
LINE
  5
29C
102
{ACAD_REACTORS
330
1108
102
}
330
A8E
100
AcDbEntity
  8
0
100
AcDbLine
 10
221.12549
 20
368.734719
 30
0.0
 11
188.888973
 21
368.734719
 31
0.0
  0
LINE
  5
2A0
330
A8E
100
AcDbEntity
  8
0
100
AcDbLine
 10
120.738242
 20
377.80956
 30
0.0
 11
168.534637
 21
377.80956
 31
0.0
1001
GENIUS_GENOREF_13
1005
582
  0
LINE
  5
2A2
330
A8E
100
AcDbEntity
  8
0
100
AcDbLine
 10
145.594276
 20
392.070026
 30
0.0
 11
168.534637
 21
392.070026
 31
0.0
1001
GENIUS_GENOREF_13
1005
582
  0
LINE
  5
2A3
330
A8E
100
AcDbEntity
  8
0
100
AcDbLine
 10
210.816491
 20
377.80956
 30
0.0
 11
214.539283
 21
420.526612
 31
0.0
  0
LINE
  5
2A6
330
A8E
100
AcDbEntity
  8
7
100
AcDbLine
 10
313.238242
 20
411.794566
 30
0.0
 11
313.238242
 21
237.149514
 31
0.0
1001
GENIUS_GENODEF_13
1002
{
1000
HIER
1070
     0
1002
}
1002
{
1000
MANEDIT
1070
     0
1002
}
1002
{
1000
NOSEL
1070
     0
1002
}
1002
{
1000
BEHIND
1070
     0
1002
}
1002
{
1000
REACTOR
1002
}
1001
GENIUS_GENOBJ-N-CEN_13
1002
{
1000
OWNER
1000
GEN
1002
}
  0
LINE
  5
2AC
330
A8E
100
AcDbEntity
  8
0
100
AcDbLine
 10
404.55452
 20
257.311389
 30
0.0
 11
418.6863118230001
 21
306.7361842147497
 31
0.0
  0
LINE
  5
2AD
330
A8E
100
AcDbEntity
  8
0
100
AcDbLine
 10
432.3437495383679
 20
309.8670869750745
 30
0.0
 11
482.4358164596455
 21
253.802663565251
 31
0.0
  0
LINE
  5
2B0
330
A8E
100
AcDbEntity
  8
0
100
AcDbLine
 10
515.72559
 20
363.6576564419236
 30
0.0
 11
515.72559
 21
373.605096
 31
0.0
  0
LINE
  5
2B1
330
A8E
100
AcDbEntity
  8
0
100
AcDbLine
 10
510.72559
 20
378.605096
 30
0.0
 11
485.101952
 21
378.605096
 31
0.0
  0
LINE
  5
2B7
330
A8E
100
AcDbEntity
  8
0
100
AcDbLine
 10
217.029843
 20
422.8095599999998
 30
0.0
 11
231.12549
 21
422.8095599999998
 31
0.0
  0
LINE
  5
2BA
330
A8E
100
AcDbEntity
  8
0
100
AcDbLine
 10
231.12549
 20
266.80956
 30
0.0
 11
231.1254900000001
 21
377.80956
 31
0.0
  0
LINE
  5
2BE
330
A8E
100
AcDbEntity
  8
0
100
AcDbLine
 10
410.1876576037469
 20
313.3885637441764
 30
0.0
 11
410.5774659999998
 21
314.751887
 31
0.0
  0
LINE
  5
2C0
330
A8E
100
AcDbEntity
  8
0
100
AcDbLine
 10
436.529994
 20
317.604105
 30
0.0
 11
493.5068200458682
 21
256.1912810665743
 31
0.0
  0
LINE
  5
2C6
330
A8E
100
AcDbEntity
  8
0
100
AcDbLine
 10
505.72559
 20
357.6822900836519
 30
0.0
 11
505.72559
 21
363.605096
 31
0.0
  0
LINE
  5
2C8
330
A8E
100
AcDbEntity
  8
0
100
AcDbLine
 10
500.72559
 20
368.605096
 30
0.0
 11
405.4039969999998
 21
368.605096
 31
0.0
  0
ARC
  5
2CE
330
A8E
100
AcDbEntity
  8
0
100
AcDbCircle
 10
424.220204
 20
310.1137
 30
0.0
 40
14.409618
100
AcDbArc
 50
31.32016954732787
 51
166.8636430701599
1001
GENIUS_GENOBJ-N-FIL_13
1002
{
1000
OWNER
1000
GEN
1002
}
1001
GENIUS_GENODEF_13
1002
{
1000
HIER
1070
     0
1002
}
1002
{
1000
MANEDIT
1070
     0
1002
}
1002
{
1000
NOSEL
1070
     0
1002
}
1002
{
1000
BEHIND
1070
     0
1002
}
1002
{
1000
OTHER
1070
     0
1002
}
1002
{
1000
REACTOR
1002
}
  0
ARC
  5
2D4
330
A8E
100
AcDbEntity
  8
0
100
AcDbCircle
 10
120.738242
 20
367.80956
 30
0.0
 40
10.0
100
AcDbArc
 50
90.0
 51
180.0
1001
GENIUS_GENODEF_13
1002
{
1000
HIER
1070
     0
1002
}
1002
{
1000
MANEDIT
1070
     0
1002
}
1002
{
1000
NOSEL
1070
     0
1002
}
1002
{
1000
BEHIND
1070
     0
1002
}
1002
{
1000
REACTOR
1002
}
1001
GENIUS_GENOBJ-N-FIL_13
1002
{
1000
OWNER
1000
GEN
1002
}
  0
ARC
  5
2D5
330
A8E
100
AcDbEntity
  8
0
100
AcDbCircle
 10
120.738242
 20
367.80956
 30
0.0
 40
10.0
100
AcDbArc
 50
90.0
 51
180.0
1001
GENIUS_GENODEF_13
1002
{
1000
HIER
1070
     0
1002
}
1002
{
1000
MANEDIT
1070
     0
1002
}
1002
{
1000
NOSEL
1070
     0
1002
}
1002
{
1000
BEHIND
1070
     0
1002
}
1002
{
1000
REACTOR
1002
}
1001
GENIUS_GENOBJ-N-FIL_13
1002
{
1000
OWNER
1000
GEN
1002
}
1001
GENIUS_GENOBJ-N-CEN_13
1002
{
1000
OWNER
1000
GEN
1002
}
  0
ARC
  5
2D7
102
{ACAD_REACTORS
330
1108
102
}
330
A8E
100
AcDbEntity
  8
0
100
AcDbCircle
 10
173.806052
 20
362.7716888710083
 30
0.0
 40
12.96497014924641
100
AcDbArc
 50
211.258405952422
 51
328.741594047578
1001
GENIUS_GENOREF_13
1005
582
  0
LINE
  5
2D8
330
A8E
100
AcDbEntity
  8
0
100
AcDbLine
 10
162.723132
 20
356.044183
 30
0.0
 11
162.723132
 21
364.734719
 31
0.0
  0
LINE
  5
2D9
102
{ACAD_REACTORS
330
1108
102
}
330
A8E
100
AcDbEntity
  8
0
100
AcDbLine
 10
184.888973
 20
356.044183
 30
0.0
 11
184.888973
 21
364.734719
 31
0.0
  0
LINE
  5
2DD
330
A8E
100
AcDbEntity
  8
0
100
AcDbLine
 10
158.723132
 20
368.734719
 30
0.0
 11
154.216586
 21
368.734719
 31
0.0
  0
ARC
  5
2DF
330
A8E
100
AcDbEntity
  8
0
100
AcDbCircle
 10
158.723132
 20
364.734719
 30
0.0
 40
4.0
100
AcDbArc
 50
0.0
 51
90.0
1001
GENIUS_GENODEF_13
1002
{
1000
HIER
1070
     0
1002
}
1002
{
1000
MANEDIT
1070
     0
1002
}
1002
{
1000
NOSEL
1070
     0
1002
}
1002
{
1000
BEHIND
1070
     0
1002
}
1002
{
1000
REACTOR
1002
}
1001
GENIUS_GENOBJ-N-FIL_13
1002
{
1000
OWNER
1000
GEN
1002
}
  0
ARC
  5
2E0
102
{ACAD_REACTORS
330
1108
102
}
330
A8E
100
AcDbEntity
  8
0
100
AcDbCircle
 10
188.888973
 20
364.734719
 30
0.0
 40
4.0
100
AcDbArc
 50
90.0
 51
180.0
1001
GENIUS_GENODEF_13
1002
{
1000
HIER
1070
     0
1002
}
1002
{
1000
MANEDIT
1070
     0
1002
}
1002
{
1000
NOSEL
1070
     0
1002
}
1002
{
1000
BEHIND
1070
     0
1002
}
1002
{
1000
REACTOR
1002
}
1001
GENIUS_GENOBJ-N-FIL_13
1002
{
1000
OWNER
1000
GEN
1002
}
  0
LINE
  5
2E1
330
A8E
100
AcDbEntity
  8
0
100
AcDbLine
 10
243.969022
 20
371.288602
 30
0.0
 11
256.992799
 21
262.169772
 31
0.0
  0
LINE
  5
2E2
330
A8E
100
AcDbEntity
  8
0
100
AcDbLine
 10
256.992799
 20
262.169772
 30
0.0
 11
325.44613
 21
262.169772
 31
0.0
  0
LINE
  5
2E3
330
A8E
100
AcDbEntity
  8
0
100
AcDbLine
 10
232.587086
 20
378.780343
 30
0.0
 11
317.622892
 21
378.780343
 31
0.0
  0
LINE
  5
2E4
330
A8E
100
AcDbEntity
  8
0
100
AcDbLine
 10
243.969022
 20
371.288602
 30
0.0
 11
363.569461
 21
371.288602
 31
0.0
  0
LINE
  5
2E5
330
A8E
100
AcDbEntity
  8
0
100
AcDbLine
 10
283.722195
 20
378.780343
 30
0.0
 11
283.722195
 21
383.991988
 31
0.0
  0
LINE
  5
2E6
330
A8E
100
AcDbEntity
  8
0
100
AcDbLine
 10
283.722195
 20
383.991988
 30
0.0
 11
296.760925
 21
383.991988
 31
0.0
  0
LINE
  5
2E7
330
A8E
100
AcDbEntity
  8
0
100
AcDbLine
 10
296.760925
 20
383.991988
 30
0.0
 11
296.760925
 21
378.780343
 31
0.0
  0
LINE
  5
2E8
330
A8E
100
AcDbEntity
  8
0
100
AcDbLine
 10
303.606257
 20
378.780343
 30
0.0
 11
303.606257
 21
387.249266
 31
0.0
  0
LINE
  5
2E9
330
A8E
100
AcDbEntity
  8
0
100
AcDbLine
 10
303.606257
 20
387.249266
 30
0.0
 11
313.238242
 21
387.249266
 31
0.0
  0
LINE
  5
2EA
330
A8E
100
AcDbEntity
  8
0
100
AcDbLine
 10
268.07572
 20
353.699298
 30
0.0
 11
268.07572
 21
291.159551
 31
0.0
  0
LINE
  5
2EB
330
A8E
100
AcDbEntity
  8
0
100
AcDbLine
 10
275.898957
 20
353.699298
 30
0.0
 11
275.898957
 21
291.485279
 31
0.0
  0
LINE
  5
2EC
330
A8E
100
AcDbEntity
  8
0
100
AcDbLine
 10
300.020607
 20
342.950279
 30
0.0
 11
300.020607
 21
291.159551
 31
0.0
  0
LINE
  5
2ED
330
A8E
100
AcDbEntity
  8
0
100
AcDbLine
 10
307.517876
 20
343.276007
 30
0.0
 11
307.517876
 21
292.78819
 31
0.0
  0
ARC
  5
2EE
330
A8E
100
AcDbEntity
  8
0
100
AcDbCircle
 10
303.769241
 20
343.1131430000001
 30
0.0
 40
3.752170999999998
100
AcDbArc
 50
357.512284
 51
182.4877159999999
  0
ARC
  5
2EF
330
A8E
100
AcDbEntity
  8
0
100
AcDbCircle
 10
271.987338
 20
353.699298
 30
0.0
 40
3.911617999999998
100
AcDbArc
 50
0.0
 51
180.0
  0
ARC
  5
2F0
330
A8E
100
AcDbEntity
  8
0
100
AcDbCircle
 10
271.987338
 20
291.322415
 30
0.0
 40
3.915007
100
AcDbArc
 50
177.615811
 51
2.384189
  0
ARC
  5
2F1
330
A8E
100
AcDbEntity
  8
0
100
AcDbCircle
 10
303.769241
 20
291.97387
 30
0.0
 40
3.836062999999998
100
AcDbArc
 50
167.743997
 51
12.256003
  0
ARC
  5
2F2
330
A8E
100
AcDbEntity
  8
0
100
AcDbCircle
 10
287.982829
 20
291.322415
 30
0.0
 40
3.915007
100
AcDbArc
 50
177.615811
 51
2.384189
  0
LINE
  5
2F3
330
A8E
100
AcDbEntity
  8
0
100
AcDbLine
 10
291.894448
 20
353.699298
 30
0.0
 11
291.894448
 21
291.485279
 31
0.0
  0
LINE
  5
2F4
330
A8E
100
AcDbEntity
  8
0
100
AcDbLine
 10
284.071211
 20
353.699298
 30
0.0
 11
284.071211
 21
291.159551
 31
0.0
  0
ARC
  5
2F5
330
A8E
100
AcDbEntity
  8
0
100
AcDbCircle
 10
287.982829
 20
353.699298
 30
0.0
 40
3.911617999999998
100
AcDbArc
 50
0.0
 51
180.0
  0
LINE
  5
2F7
330
A8E
100
AcDbEntity
  8
0
100
AcDbLine
 10
232.587086
 20
378.780343
 30
0.0
 11
243.969022
 21
371.288602
 31
0.0
  0
LINE
  5
2F8
330
A8E
100
AcDbEntity
  8
0
100
AcDbLine
 10
261.461074
 20
262.169772
 30
0.0
 11
262.072606
 21
253.170223
 31
0.0
  0
LINE
  5
2F9
330
A8E
100
AcDbEntity
  8
0
100
AcDbLine
 10
268.293548
 20
262.169772
 30
0.0
 11
266.965484
 21
253.341776
 31
0.0
  0
ARC
  5
2FA
330
A8E
100
AcDbEntity
  8
0
100
AcDbCircle
 10
264.519045
 20
253.255999
 30
0.0
 40
2.447942999999999
100
AcDbArc
 50
182.008068
 51
2.008068
  0
LINE
  5
2FB
330
A8E
100
AcDbEntity
  8
0
100
AcDbLine
 10
231.12549
 20
385.621087
 30
0.0
 11
253.089279
 21
385.621087
 31
0.0
  0
LINE
  5
2FC
330
A8E
100
AcDbEntity
  8
0
100
AcDbLine
 10
253.089279
 20
385.621087
 30
0.0
 11
253.089279
 21
378.780343
 31
0.0
  0
LINE
  5
2FD
330
A8E
100
AcDbEntity
  8
0
100
AcDbLine
 10
244.436329
 20
371.344073
 30
0.0
 11
231.12549
 21
371.344073
 31
0.0
  0
LINE
  5
2FF
330
A8E
100
AcDbEntity
  8
0
100
AcDbLine
 10
350.545684
 20
262.169772
 30
0.0
 11
282.092353
 21
262.169772
 31
0.0
  0
LINE
  5
300
330
A8E
100
AcDbEntity
  8
0
100
AcDbLine
 10
363.569461
 20
371.288602
 30
0.0
 11
350.545684
 21
262.169772
 31
0.0
  0
ARC
  5
301
330
A8E
100
AcDbEntity
  8
0
100
AcDbCircle
 10
319.555653
 20
291.322415
 30
0.0
 40
3.915007
100
AcDbArc
 50
177.615811
 51
2.384189
  0
ARC
  5
302
330
A8E
100
AcDbEntity
  8
0
100
AcDbCircle
 10
335.551145
 20
291.322415
 30
0.0
 40
3.915007
100
AcDbArc
 50
177.615811
 51
2.384189
  0
LINE
  5
303
330
A8E
100
AcDbEntity
  8
0
100
AcDbLine
 10
346.077409
 20
262.169772
 30
0.0
 11
345.465877
 21
253.170223
 31
0.0
  0
LINE
  5
304
330
A8E
100
AcDbEntity
  8
0
100
AcDbLine
 10
339.244935
 20
262.169772
 30
0.0
 11
340.5729990000001
 21
253.341776
 31
0.0
  0
LINE
  5
305
330
A8E
100
AcDbEntity
  8
0
100
AcDbLine
 10
323.467272
 20
353.699298
 30
0.0
 11
323.467272
 21
291.159551
 31
0.0
  0
LINE
  5
306
330
A8E
100
AcDbEntity
  8
0
100
AcDbLine
 10
315.644035
 20
353.699298
 30
0.0
 11
315.644035
 21
291.485279
 31
0.0
  0
LINE
  5
307
330
A8E
100
AcDbEntity
  8
0
100
AcDbLine
 10
331.639526
 20
353.699298
 30
0.0
 11
331.639526
 21
291.485279
 31
0.0
  0
LINE
  5
308
330
A8E
100
AcDbEntity
  8
0
100
AcDbLine
 10
339.462763
 20
353.699298
 30
0.0
 11
339.462763
 21
291.159551
 31
0.0
  0
ARC
  5
309
330
A8E
100
AcDbEntity
  8
0
100
AcDbCircle
 10
319.555653
 20
353.699298
 30
0.0
 40
3.911617999999998
100
AcDbArc
 50
0.0
 51
180.0
  0
ARC
  5
30A
330
A8E
100
AcDbEntity
  8
0
100
AcDbCircle
 10
335.551145
 20
353.699298
 30
0.0
 40
3.911617999999998
100
AcDbArc
 50
0.0
 51
180.0
  0
LINE
  5
30B
330
A8E
100
AcDbEntity
  8
0
100
AcDbLine
 10
375.626637
 20
378.780343
 30
0.0
 11
289.915591
 21
378.780343
 31
0.0
  0
LINE
  5
30C
330
A8E
100
AcDbEntity
  8
0
100
AcDbLine
 10
375.626637
 20
378.780343
 30
0.0
 11
363.569461
 21
371.288602
 31
0.0
  0
ARC
  5
30D
330
A8E
100
AcDbEntity
  8
0
100
AcDbCircle
 10
343.019438
 20
253.255999
 30
0.0
 40
2.447942999999999
100
AcDbArc
 50
177.991932
 51
357.991932
  0
LINE
  5
30E
330
A8E
100
AcDbEntity
  8
0
100
AcDbLine
 10
322.870227
 20
387.249266
 30
0.0
 11
313.238242
 21
387.249266
 31
0.0
  0
LINE
  5
30F
330
A8E
100
AcDbEntity
  8
0
100
AcDbLine
 10
342.754289
 20
383.991988
 30
0.0
 11
329.715559
 21
383.991988
 31
0.0
  0
LINE
  5
310
330
A8E
100
AcDbEntity
  8
0
100
AcDbLine
 10
342.754289
 20
378.780343
 30
0.0
 11
342.754289
 21
383.991988
 31
0.0
  0
LINE
  5
311
330
A8E
100
AcDbEntity
  8
0
100
AcDbLine
 10
329.715559
 20
383.991988
 30
0.0
 11
329.715559
 21
378.780343
 31
0.0
  0
LINE
  5
312
330
A8E
100
AcDbEntity
  8
0
100
AcDbLine
 10
322.870227
 20
378.780343
 30
0.0
 11
322.870227
 21
387.249266
 31
0.0
  0
LINE
  5
313
330
A8E
100
AcDbEntity
  8
0
100
AcDbLine
 10
363.102154
 20
371.344073
 30
0.0
 11
363.63151
 21
371.344073
 31
0.0
  0
LINE
  5
314
330
A8E
100
AcDbEntity
  8
0
100
AcDbLine
 10
395.350994
 20
385.621087
 30
0.0
 11
362.545746
 21
385.621087
 31
0.0
  0
LINE
  5
315
330
A8E
100
AcDbEntity
  8
0
100
AcDbLine
 10
362.545746
 20
385.621087
 30
0.0
 11
362.545746
 21
378.780343
 31
0.0
  0
LINE
  5
316
330
A8E
100
AcDbEntity
  8
0
100
AcDbLine
 10
395.350994
 20
370.019016
 30
0.0
 11
395.350994
 21
378.605096
 31
0.0
  0
LINE
  5
317
330
A8E
100
AcDbEntity
  8
0
100
AcDbLine
 10
415.590662
 20
378.605096
 30
0.0
 11
411.9372009999998
 21
420.526612
 31
0.0
  0
LINE
  5
318
330
A8E
100
AcDbEntity
  8
0
100
AcDbLine
 10
409.4466409999998
 20
422.8095599999998
 30
0.0
 11
395.350994
 21
422.8095599999998
 31
0.0
  0
LINE
  5
319
330
A8E
100
AcDbEntity
  8
0
100
AcDbLine
 10
366.916297
 20
322.700302
 30
0.0
 11
366.916297
 21
264.523318
 31
0.0
  0
LINE
  5
31B
330
A8E
100
AcDbEntity
  8
0
100
AcDbLine
 10
376.348124
 20
264.523318
 30
0.0
 11
376.348124
 21
320.091846
 31
0.0
  0
LINE
  5
31C
330
A8E
100
AcDbEntity
  8
0
100
AcDbLine
 10
376.348124
 20
320.091846
 30
0.0
 11
405.4039969999998
 21
368.605096
 31
0.0
1001
GENIUS_GENOREF_13
1005
A62
  0
LINE
  5
31D
330
A8E
100
AcDbEntity
  8
0
100
AcDbLine
 10
366.916297
 20
322.700302
 30
0.0
 11
395.350994
 21
370.176402
 31
0.0
1001
GENIUS_GENOREF_13
1005
A62
  0
LINE
  5
322
330
A8E
100
AcDbEntity
  8
0
100
AcDbLine
 10
478.084299
 20
389.453412
 30
0.0
 11
478.084299
 21
378.605096
 31
0.0
  0
LINE
  5
324
330
A8E
100
AcDbEntity
  8
0
100
AcDbLine
 10
485.101952
 20
378.605096
 30
0.0
 11
395.350994
 21
378.605096
 31
0.0
  0
LINE
  5
325
330
A8E
100
AcDbEntity
  8
0
100
AcDbLine
 10
403.3856618046952
 20
391.953412
 30
0.0
 11
475.584299
 21
391.953412
 31
0.0
  0
LINE
  5
326
330
A8E
100
AcDbEntity
  8
9
100
AcDbLine
 10
391.871998
 20
364.367683
 30
0.0
 11
399.963552
 21
359.521436
 31
0.0
1001
GENIUS_GENBH_13
1002
{
1000
ML
1040
1.0
1002
}
1002
{
1000
OE
1000
CON1
1002
}
1001
GENIUS_GENOREF_13
1005
A62
  0
LINE
  5
329
330
A8E
100
AcDbEntity
  8
0
100
AcDbLine
 10
370.603721
 20
342.480511
 30
0.0
 11
387.2420410000001
 21
370.260747
 31
0.0
1001
GENIUS_GENOREF_13
1005
A62
  0
LINE
  5
32B
330
A8E
100
AcDbEntity
  8
0
100
AcDbLine
 10
365.100394
 20
349.237285
 30
0.0
 11
378.687744
 21
371.923456
 31
0.0
1001
GENIUS_GENOREF_13
1005
A62
  0
LINE
  5
32D
330
A8E
100
AcDbEntity
  8
0
100
AcDbLine
 10
365.100394
 20
349.237285
 30
0.0
 11
372.129206
 21
345.027544
 31
0.0
  0
LINE
  5
32E
330
A8E
100
AcDbEntity
  8
0
100
AcDbLine
 10
378.687744
 20
371.923456
 30
0.0
 11
385.716556
 21
367.713715
 31
0.0
1001
GENIUS_GENOREF_13
1005
A62
  0
LINE
  5
32F
330
A8E
100
AcDbEntity
  8
0
100
AcDbLine
 10
390.671335
 20
371.120948
 30
0.0
 11
394.53188
 21
368.808765
 31
0.0
1001
GENIUS_GENOREF_13
1005
A62
  0
LINE
  5
331
330
A8E
100
AcDbEntity
  8
7A
100
AcDbLine
 10
367.770195
 20
363.050269
 30
0.0
 11
395.593425
 21
346.386198
 31
0.0
1001
GENIUS_GENODEF_13
1002
{
1000
HIER
1070
     0
1002
}
1002
{
1000
MANEDIT
1070
     0
1002
}
1002
{
1000
NOSEL
1070
     0
1002
}
1002
{
1000
BEHIND
1070
     0
1002
}
1002
{
1000
REACTOR
1002
}
1001
GENIUS_GENOBJ-N-CEN_13
1002
{
1000
OWNER
1000
GEN
1002
}
1001
GENIUS_GENOREF_13
1005
A62
  0
LINE
  5
332
330
A8E
100
AcDbEntity
  8
0
100
AcDbLine
 10
371.463922
 20
339.051218
 30
0.0
 11
375.324467
 21
336.739035
 31
0.0
1001
GENIUS_GENOREF_13
1005
A62
  0
LINE
  5
333
330
A8E
100
AcDbEntity
  8
9
100
AcDbLine
 10
377.984349
 20
341.180117
 30
0.0
 11
386.075904
 21
336.333871
 31
0.0
1001
GENIUS_GENBH_13
1002
{
1000
ML
1040
1.0
1002
}
1002
{
1000
OE
1000
CON1
1002
}
1001
GENIUS_GENOREF_13
1005
A62
  0
LINE
  5
334
330
A8E
100
AcDbEntity
  8
0
100
AcDbLine
 10
370.603721
 20
342.480511
 30
0.0
 11
371.463922
 21
339.051218
 31
0.0
1001
GENIUS_GENODEF_13
1002
{
1000
HIER
1070
     0
1002
}
1002
{
1000
MANEDIT
1070
     0
1002
}
1002
{
1000
NOSEL
1070
     0
1002
}
1002
{
1000
BEHIND
1070
     0
1002
}
1002
{
1000
REACTOR
1002
}
1001
GENIUS_GENOBJ-N-CHA_13
1002
{
1000
OWNER
1000
GEN
1002
}
1001
GENIUS_GENFIL_13
1070
     0
1040
2.5
1040
2.5
1040
0.0
1040
0.0
1002
{
1002
}
  0
LINE
  5
337
330
A8E
100
AcDbEntity
  8
0
100
AcDbLine
 10
370.603721
 20
342.480511
 30
0.0
 11
371.463922
 21
339.051218
 31
0.0
1001
GENIUS_GENODEF_13
1002
{
1000
HIER
1070
     0
1002
}
1002
{
1000
MANEDIT
1070
     0
1002
}
1002
{
1000
NOSEL
1070
     0
1002
}
1002
{
1000
BEHIND
1070
     0
1002
}
1002
{
1000
REACTOR
1002
}
1001
GENIUS_GENOBJ-N-CHA_13
1002
{
1000
OWNER
1000
GEN
1002
}
1001
GENIUS_GENFIL_13
1070
     0
1040
2.5
1040
2.5
1040
0.0
1040
0.0
1002
{
1002
}
  0
LINE
  5
338
330
A8E
100
AcDbEntity
  8
0
100
AcDbLine
 10
387.2420410000001
 20
370.260747
 30
0.0
 11
390.671335
 21
371.120948
 31
0.0
1001
GENIUS_GENODEF_13
1002
{
1000
HIER
1070
     0
1002
}
1002
{
1000
MANEDIT
1070
     0
1002
}
1002
{
1000
NOSEL
1070
     0
1002
}
1002
{
1000
BEHIND
1070
     0
1002
}
1002
{
1000
REACTOR
1002
}
1001
GENIUS_GENOBJ-N-CHA_13
1002
{
1000
OWNER
1000
GEN
1002
}
1001
GENIUS_GENFIL_13
1070
     0
1040
2.5
1040
2.5
1040
0.0
1040
0.0
1002
{
1002
}
  0
LINE
  5
339
330
A8E
100
AcDbEntity
  8
0
100
AcDbLine
 10
378.687744
 20
371.923456
 30
0.0
 11
372.129206
 21
345.027544
 31
0.0
1001
GENIUS_GENOREF_13
1005
A62
  0
LINE
  5
33A
330
A8E
100
AcDbEntity
  8
0
100
AcDbLine
 10
365.100394
 20
349.237285
 30
0.0
 11
385.716556
 21
367.713715
 31
0.0
1001
GENIUS_GENOREF_13
1005
A62
  0
LINE
  5
33B
330
A8E
100
AcDbEntity
  8
0
100
AcDbLine
 10
376.348124
 20
264.523318
 30
0.0
 11
366.916297
 21
264.523318
 31
0.0
  0
LINE
  5
57B
330
A8E
100
AcDbEntity
  8
0
100
AcDbLine
 10
168.534637
 20
392.070026
 30
0.0
 11
178.534637
 21
392.070026
 31
0.0
1001
GENIUS_GENBH_13
1002
{
1000
OE
1000
CON1
1002
}
1001
GENIUS_GENOREF_13
1005
582
  0
LINE
  5
57C
330
A8E
100
AcDbEntity
  8
0
100
AcDbLine
 10
178.534637
 20
392.070026
 30
0.0
 11
223.1009850944063
 21
392.0700260000001
 31
0.0
1001
GENIUS_GENOREF_13
1005
582
  0
LINE
  5
57D
330
A8E
100
AcDbEntity
  8
9
100
AcDbLine
 10
168.534637
 20
377.80956
 30
0.0
 11
178.534637
 21
377.80956
 31
0.0
1001
GENIUS_GENBH_13
1002
{
1000
OE
1000
CON1
1002
}
1001
GENIUS_GENOREF_13
1005
582
  0
LINE
  5
57E
330
A8E
100
AcDbEntity
  8
0
100
AcDbLine
 10
178.534637
 20
377.80956
 30
0.0
 11
231.12549
 21
377.80956
 31
0.0
1001
GENIUS_GENOREF_13
1005
582
  0
POINT
  5
582
330
A8E
100
AcDbEntity
  8
0
 60
     1
100
AcDbPoint
 10
0.0
 20
0.0
 30
0.0
1001
GENIUS_GENBH_13
1002
{
1000
FGO
1005
580
1002
}
1001
GENIUS_GENODEF_13
1002
{
1000
HIER
1070
     1
1002
}
1002
{
1000
MANEDIT
1070
     1
1002
}
1002
{
1000
NOSEL
1070
     1
1002
}
1002
{
1000
BEHIND
1070
     0
1002
}
1002
{
1000
REACTOR
1002
}
1001
GENIUS_GENOBJ-NBEHI-BHB_13
1002
{
1000
OWNER
1000
GENBEHI
1002
}
1001
GENIUS_GENOENT_13
1002
{
1000
MYREF
1005
582
1002
}
1002
{
1000
GRP
1005
0
1002
}
1001
GENIUS_GENOLIS_13
1002
{
1000
ENT
1005
57E
1005
57D
1005
57C
1005
57B
1005
2A0
1005
2A2
1005
2D7
1002
}
  0
LINE
  5
5B7
330
A8E
100
AcDbEntity
  8
7AN
100
AcDbLine
 10
173.534637
 20
347.565875
 30
0.0
 11
173.534637
 21
414.9658749999998
 31
0.0
1001
GENIUS_GEFPARTINS_13
1002
{
1011
173.534637
1021
356.965875
1031
0.0
1013
0.0
1023
1.0
1033
0.0
1002
}
  0
LINE
  5
653
330
A8E
100
AcDbEntity
  8
7AN
100
AcDbLine
 10
173.534637
 20
347.565875
 30
0.0
 11
173.534637
 21
414.9658749999998
 31
0.0
  0
LINE
  5
65E
330
A8E
100
AcDbEntity
  8
0N
100
AcDbLine
 10
178.534637
 20
357.037034
 30
0.0
 11
178.534637
 21
392.070026
 31
0.0
  0
LINE
  5
660
330
A8E
100
AcDbEntity
  8
0N
100
AcDbLine
 10
178.534637
 20
400.4700259999998
 30
0.0
 11
178.534637
 21
403.131612
 31
0.0
  0
LINE
  5
661
330
A8E
100
AcDbEntity
  8
0N
100
AcDbLine
 10
168.534637
 20
357.037034
 30
0.0
 11
168.534637
 21
392.070026
 31
0.0
  0
LINE
  5
663
330
A8E
100
AcDbEntity
  8
0N
100
AcDbLine
 10
168.534637
 20
400.4700259999998
 30
0.0
 11
168.534637
 21
403.131612
 31
0.0
  0
LINE
  5
664
330
A8E
100
AcDbEntity
  8
4N
100
AcDbLine
 10
177.614637
 20
357.037034
 30
0.0
 11
177.614637
 21
392.070026
 31
0.0
  0
LINE
  5
666
330
A8E
100
AcDbEntity
  8
4N
100
AcDbLine
 10
177.614637
 20
400.4700259999998
 30
0.0
 11
177.614637
 21
404.051612
 31
0.0
  0
LINE
  5
667
330
A8E
100
AcDbEntity
  8
4N
100
AcDbLine
 10
169.454637
 20
357.037034
 30
0.0
 11
169.454637
 21
392.070026
 31
0.0
  0
LINE
  5
669
330
A8E
100
AcDbEntity
  8
4N
100
AcDbLine
 10
169.454637
 20
400.4700259999998
 30
0.0
 11
169.454637
 21
404.051612
 31
0.0
  0
LINE
  5
67B
330
A8E
100
AcDbEntity
  8
0N
100
AcDbLine
 10
177.614637
 20
404.051612
 30
0.0
 11
169.454637
 21
404.051612
 31
0.0
  0
LINE
  5
67C
330
A8E
100
AcDbEntity
  8
0N
100
AcDbLine
 10
178.534637
 20
403.131612
 30
0.0
 11
168.534637
 21
403.131612
 31
0.0
  0
LINE
  5
67D
330
A8E
100
AcDbEntity
  8
0N
100
AcDbLine
 10
177.614637
 20
404.051612
 30
0.0
 11
178.534637
 21
403.131612
 31
0.0
  0
LINE
  5
67E
330
A8E
100
AcDbEntity
  8
0N
100
AcDbLine
 10
168.534637
 20
403.131612
 30
0.0
 11
169.454637
 21
404.051612
 31
0.0
  0
LINE
  5
681
330
A8E
100
AcDbEntity
  8
7AN
100
AcDbLine
 10
173.534637
 20
396.984289
 30
0.0
 11
173.534637
 21
411.3842889999999
 31
0.0
  0
LINE
  5
682
330
A8E
100
AcDbEntity
  8
0N
100
AcDbLine
 10
166.604637
 20
400.4700259999998
 30
0.0
 11
180.464637
 21
400.4700259999998
 31
0.0
  0
LINE
  5
683
330
A8E
100
AcDbEntity
  8
0N
100
AcDbLine
 10
166.604637
 20
392.070026
 30
0.0
 11
180.464637
 21
392.070026
 31
0.0
  0
ARC
  5
684
330
A8E
100
AcDbEntity
  8
0N
100
AcDbCircle
 10
180.464637
 20
396.707776
 30
0.0
 40
3.762249999999998
100
AcDbArc
 50
90.0
 51
127.878879
  0
ARC
  5
685
330
A8E
100
AcDbEntity
  8
0N
100
AcDbCircle
 10
180.464637
 20
395.832276
 30
0.0
 40
3.762249999999998
100
AcDbArc
 50
232.121121
 51
270.0
  0
LINE
  5
686
330
A8E
100
AcDbEntity
  8
0N
100
AcDbLine
 10
182.774637
 20
399.677359
 30
0.0
 11
182.774637
 21
392.862693
 31
0.0
  0
ARC
  5
687
330
A8E
100
AcDbEntity
  8
0N
100
AcDbCircle
 10
180.464637
 20
395.832276
 30
0.0
 40
3.762249999999998
100
AcDbArc
 50
270.0
 51
307.878879
  0
ARC
  5
688
330
A8E
100
AcDbEntity
  8
0N
100
AcDbCircle
 10
180.464637
 20
396.707776
 30
0.0
 40
3.762249999999998
100
AcDbArc
 50
52.121121
 51
90.0
  0
ARC
  5
689
330
A8E
100
AcDbEntity
  8
0N
100
AcDbCircle
 10
166.604637
 20
395.832276
 30
0.0
 40
3.762249999999998
100
AcDbArc
 50
232.121121
 51
270.0
  0
ARC
  5
68A
330
A8E
100
AcDbEntity
  8
0N
100
AcDbCircle
 10
166.604637
 20
396.707776
 30
0.0
 40
3.762249999999998
100
AcDbArc
 50
90.0
 51
127.878879
  0
LINE
  5
68B
330
A8E
100
AcDbEntity
  8
0N
100
AcDbLine
 10
168.914637
 20
399.677359
 30
0.0
 11
168.914637
 21
392.862693
 31
0.0
  0
LINE
  5
68C
330
A8E
100
AcDbEntity
  8
0N
100
AcDbLine
 10
178.154637
 20
399.677359
 30
0.0
 11
178.154637
 21
392.862693
 31
0.0
  0
ARC
  5
68D
330
A8E
100
AcDbEntity
  8
0N
100
AcDbCircle
 10
166.604637
 20
395.832276
 30
0.0
 40
3.762249999999998
100
AcDbArc
 50
270.0
 51
307.878879
  0
ARC
  5
68E
330
A8E
100
AcDbEntity
  8
0N
100
AcDbCircle
 10
173.534637
 20
405.9300259999998
 30
0.0
 40
13.86
100
AcDbArc
 50
250.528779
 51
289.471221
  0
ARC
  5
68F
330
A8E
100
AcDbEntity
  8
0N
100
AcDbCircle
 10
166.604637
 20
396.707776
 30
0.0
 40
3.762249999999998
100
AcDbArc
 50
52.121121
 51
90.0
  0
ARC
  5
690
330
A8E
100
AcDbEntity
  8
0N
100
AcDbCircle
 10
173.534637
 20
386.610026
 30
0.0
 40
13.86
100
AcDbArc
 50
70.528779
 51
109.471221
  0
LINE
  5
691
330
A8E
100
AcDbEntity
  8
0N
100
AcDbLine
 10
164.294637
 20
399.677359
 30
0.0
 11
164.294637
 21
392.862693
 31
0.0
  0
LINE
  5
693
330
A8E
100
AcDbEntity
  8
0
100
AcDbLine
 10
168.534637
 20
357.037034
 30
0.0
 11
178.534637
 21
357.037034
 31
0.0
  0
ARC
  5
69F
330
A8E
100
AcDbEntity
  8
0
100
AcDbCircle
 10
510.72559
 20
373.605096
 30
0.0
 40
5.0
100
AcDbArc
 50
0.0
 51
90.0
1001
GENIUS_GENODEF_13
1002
{
1000
HIER
1070
     0
1002
}
1002
{
1000
MANEDIT
1070
     0
1002
}
1002
{
1000
NOSEL
1070
     0
1002
}
1002
{
1000
BEHIND
1070
     0
1002
}
1002
{
1000
REACTOR
1002
}
1001
GENIUS_GENOBJ-N-FIL_13
1002
{
1000
OWNER
1000
GEN
1002
}
  0
ARC
  5
6A2
330
A8E
100
AcDbEntity
  8
0
100
AcDbCircle
 10
500.72559
 20
363.605096
 30
0.0
 40
5.0
100
AcDbArc
 50
0.0
 51
90.0
1001
GENIUS_GENODEF_13
1002
{
1000
HIER
1070
     0
1002
}
1002
{
1000
MANEDIT
1070
     0
1002
}
1002
{
1000
NOSEL
1070
     0
1002
}
1002
{
1000
BEHIND
1070
     0
1002
}
1002
{
1000
REACTOR
1002
}
1001
GENIUS_GENOBJ-N-FIL_13
1002
{
1000
OWNER
1000
GEN
1002
}
  0
LINE
  5
6B7
330
A8E
100
AcDbEntity
  8
0
100
AcDbLine
 10
143.094276
 20
389.570026
 30
0.0
 11
143.094276
 21
377.80956
 31
0.0
  0
ARC
  5
6B9
330
A8E
100
AcDbEntity
  8
0
100
AcDbCircle
 10
145.594276
 20
389.570026
 30
0.0
 40
2.5
100
AcDbArc
 50
90.0
 51
180.0
1001
GENIUS_GENODEF_13
1002
{
1000
HIER
1070
     0
1002
}
1002
{
1000
MANEDIT
1070
     0
1002
}
1002
{
1000
NOSEL
1070
     0
1002
}
1002
{
1000
BEHIND
1070
     0
1002
}
1002
{
1000
REACTOR
1002
}
1001
GENIUS_GENOBJ-N-FIL_13
1002
{
1000
OWNER
1000
GEN
1002
}
1001
GENIUS_GENOREF_13
1005
582
  0
LINE
  5
6BA
330
A8E
100
AcDbEntity
  8
0
100
AcDbLine
 10
375.626637
 20
378.780343
 30
0.0
 11
375.626637
 21
372.261512
 31
0.0
  0
LINE
  5
6BB
330
A8E
100
AcDbEntity
  8
0
100
AcDbLine
 10
365.135258
 20
372.261512
 30
0.0
 11
395.350994
 21
372.261512
 31
0.0
  0
ARC
  5
6FB
330
A8E
100
AcDbEntity
  8
0
100
AcDbCircle
 10
217.029843
 20
420.30956
 30
0.0
 40
2.5
100
AcDbArc
 50
90.0
 51
175.019256
1001
GENIUS_GENODEF_13
1002
{
1000
HIER
1070
     0
1002
}
1002
{
1000
MANEDIT
1070
     0
1002
}
1002
{
1000
NOSEL
1070
     0
1002
}
1002
{
1000
BEHIND
1070
     0
1002
}
1002
{
1000
REACTOR
1002
}
1001
GENIUS_GENOBJ-N-FIL_13
1002
{
1000
OWNER
1000
GEN
1002
}
  0
ARC
  5
6FC
330
A8E
100
AcDbEntity
  8
0
100
AcDbCircle
 10
409.4466409999998
 20
420.30956
 30
0.0
 40
2.5
100
AcDbArc
 50
4.980744
 51
90.0
1001
GENIUS_GENODEF_13
1002
{
1000
HIER
1070
     0
1002
}
1002
{
1000
MANEDIT
1070
     0
1002
}
1002
{
1000
NOSEL
1070
     0
1002
}
1002
{
1000
BEHIND
1070
     0
1002
}
1002
{
1000
REACTOR
1002
}
1001
GENIUS_GENOBJ-N-FIL_13
1002
{
1000
OWNER
1000
GEN
1002
}
  0
DIMENSION
  5
70F
330
A8E
100
AcDbEntity
  8
5
100
AcDbDimension
  2
*D1
 10
682.4790429999998
 20
297.81104
 30
0.0
 11
671.9040429999998
 21
360.3103
 31
0.0
  1
<>
 71
     5
 42
-1.0
  3
GEN-ISO
100
AcDbAlignedDimension
 13
409.4466409999998
 23
422.8095599999998
 33
0.0
 14
603.234353
 24
297.81104
 34
0.0
 50
90.0
100
AcDbRotatedDimension
1001
GENIUS_GENDTOL_13
1000

1000
h7
1000

1040
0.0
  0
LINE
  5
74A
330
A8E
100
AcDbEntity
  8
7
100
AcDbLine
 10
610.734353
 20
297.81104
 30
0.0
 11
518.24082
 21
297.81104
 31
0.0
1001
GENIUS_GENODEF_13
1002
{
1000
HIER
1070
     0
1002
}
1002
{
1000
MANEDIT
1070
     0
1002
}
1002
{
1000
NOSEL
1070
     0
1002
}
1002
{
1000
BEHIND
1070
     0
1002
}
1002
{
1000
REACTOR
1002
}
1001
GENIUS_GENOBJ-N-CEN_13
1002
{
1000
OWNER
1000
GEN
1002
}
  0
DIMENSION
  5
7B7
330
A8E
100
AcDbEntity
  8
5
100
AcDbDimension
  2
*D3
 10
75.738242
 20
377.80956
 30
0.0
 11
65.16324200000001
 21
400.3095599999999
 31
0.0
  1
<>
 71
     5
 42
-1.0
  3
GEN-ISO
100
AcDbAlignedDimension
 13
217.029843
 23
422.8095599999998
 33
0.0
 14
120.738242
 24
377.80956
 34
0.0
 50
90.0
100
AcDbRotatedDimension
1001
GENIUS_GENDTOL_13
1000

1000
h7
1000

1040
0.0
  0
DIMENSION
  5
7D5
330
A8E
100
AcDbEntity
  8
5
100
AcDbDimension
  2
*D32
 10
-5.867599260599911
 20
242.8095600000001
 30
0.0
 11
-5.867599260599945
 21
331.1925415455762
 31
0.0
 70
   160
  1
<>
 71
     5
 42
179.9999999999998
  3
GEN-ISO
100
AcDbAlignedDimension
 13
217.029843
 23
422.8095599999998
 33
0.0
 14
241.12549
 24
242.80956
 34
0.0
 50
90.0
100
AcDbRotatedDimension
1001
GENIUS_GENDTOL_13
1000

1000
h7
1000

1040
0.0
  0
LINE
  5
7E2
330
A8E
100
AcDbEntity
  8
0
100
AcDbLine
 10
241.12549
 20
242.80956
 30
0.0
 11
385.325112
 21
242.80956
 31
0.0
  0
ARC
  5
7E4
330
A8E
100
AcDbEntity
  8
0
100
AcDbCircle
 10
241.12549
 20
262.80956
 30
0.0
 40
20.0
100
AcDbArc
 50
180.0
 51
270.0
1001
GENIUS_GENODEF_13
1002
{
1000
HIER
1070
     0
1002
}
1002
{
1000
MANEDIT
1070
     0
1002
}
1002
{
1000
NOSEL
1070
     0
1002
}
1002
{
1000
BEHIND
1070
     0
1002
}
1002
{
1000
REACTOR
1002
}
1001
GENIUS_GENOBJ-N-FIL_13
1002
{
1000
OWNER
1000
GEN
1002
}
  0
ARC
  5
7E5
330
A8E
100
AcDbEntity
  8
0
100
AcDbCircle
 10
385.325112
 20
262.80956
 30
0.0
 40
20.0
100
AcDbArc
 50
270.0
 51
344.043435
1001
GENIUS_GENODEF_13
1002
{
1000
HIER
1070
     0
1002
}
1002
{
1000
MANEDIT
1070
     0
1002
}
1002
{
1000
NOSEL
1070
     0
1002
}
1002
{
1000
BEHIND
1070
     0
1002
}
1002
{
1000
REACTOR
1002
}
1001
GENIUS_GENOBJ-N-FIL_13
1002
{
1000
OWNER
1000
GEN
1002
}
  0
LINE
  5
7E6
330
A8E
100
AcDbEntity
  8
0
100
AcDbLine
 10
247.12549
 20
250.80956
 30
0.0
 11
380.228371
 21
250.80956
 31
0.0
  0
ARC
  5
7E8
330
A8E
100
AcDbEntity
  8
0
100
AcDbCircle
 10
247.12549
 20
266.80956
 30
0.0
 40
16.0
100
AcDbArc
 50
180.0
 51
270.0
1001
GENIUS_GENODEF_13
1002
{
1000
HIER
1070
     0
1002
}
1002
{
1000
MANEDIT
1070
     0
1002
}
1002
{
1000
NOSEL
1070
     0
1002
}
1002
{
1000
BEHIND
1070
     0
1002
}
1002
{
1000
REACTOR
1002
}
1001
GENIUS_GENOBJ-N-FIL_13
1002
{
1000
OWNER
1000
GEN
1002
}
  0
ARC
  5
7E9
330
A8E
100
AcDbEntity
  8
0
100
AcDbCircle
 10
380.228371
 20
266.80956
 30
0.0
 40
16.0
100
AcDbArc
 50
270.0
 51
344.043435
1001
GENIUS_GENODEF_13
1002
{
1000
HIER
1070
     0
1002
}
1002
{
1000
MANEDIT
1070
     0
1002
}
1002
{
1000
NOSEL
1070
     0
1002
}
1002
{
1000
BEHIND
1070
     0
1002
}
1002
{
1000
REACTOR
1002
}
1001
GENIUS_GENOBJ-N-FIL_13
1002
{
1000
OWNER
1000
GEN
1002
}
  0
DIMENSION
  5
805
330
A8E
100
AcDbEntity
  8
5
100
AcDbDimension
  2
*D5
 10
515.7355899999998
 20
502.160063
 30
0.0
 11
313.231916
 21
502.160063
 31
0.0
 70
   128
  1
<>
 71
     5
 42
-1.0
  3
GEN-ISO
100
AcDbAlignedDimension
 13
110.738242
 23
367.80956
 33
0.0
 14
515.7355899999998
 24
367.80956
 34
0.0
100
AcDbRotatedDimension
1001
GENIUS_GENDTOL_13
1000

1000
h7
1000

1040
0.0
  0
DIMENSION
  5
82D
330
A8E
100
AcDbEntity
  8
5
100
AcDbDimension
  2
*D6
 10
411.7372009999998
 20
467.809561
 30
0.0
 11
313.238242
 21
478.384561
 31
0.0
  1
<>
 71
     5
 42
-1.0
  3
GEN-ISO
100
AcDbAlignedDimension
 13
214.739283
 23
420.526612
 33
0.0
 14
411.7372009999998
 24
420.526612
 34
0.0
100
AcDbRotatedDimension
1001
GENIUS_GENDTOL_13
1000

1000
h7
1000

1040
0.0
  0
POLYLINE
  5
85B
330
A8E
100
AcDbEntity
  8
6
100
AcDb2dPolyline
 66
     1
 10
0.0
 20
0.0
 30
0.0
 70
     1
1001
GENIUS_GENODEF_13
1002
{
1000
HIER
1070
     0
1002
}
1002
{
1000
MANEDIT
1070
     0
1002
}
1002
{
1000
NOSEL
1070
     0
1002
}
1002
{
1000
BEHIND
1070
     0
1002
}
1002
{
1000
REACTOR
1002
}
1001
GENIUS_GENOBJ-N-REC_13
1002
{
1000
OWNER
1000
GEN
1002
}
1001
GENIUS_GENREC_13
1070
     4
1070
     2
1070
     1
  0
VERTEX
  5
A6E
330
85B
100
AcDbEntity
  8
6
100
AcDbVertex
100
AcDb2dVertex
 10
283.23345
 20
472.8938199999998
 30
0.0
  0
VERTEX
  5
A6F
330
85B
100
AcDbEntity
  8
6
100
AcDbVertex
100
AcDb2dVertex
 10
294.803697
 20
472.8938199999998
 30
0.0
  0
VERTEX
  5
A70
330
85B
100
AcDbEntity
  8
6
100
AcDbVertex
100
AcDb2dVertex
 10
294.803697
 20
484.464067
 30
0.0
  0
VERTEX
  5
A71
330
85B
100
AcDbEntity
  8
6
100
AcDbVertex
100
AcDb2dVertex
 10
283.23345
 20
484.464067
 30
0.0
  0
SEQEND
  5
A72
330
85B
100
AcDbEntity
  8
6
  0
POLYLINE
  5
863
330
A8E
100
AcDbEntity
  8
6
100
AcDb2dPolyline
 66
     1
 10
0.0
 20
0.0
 30
0.0
 70
     1
1001
GENIUS_GENODEF_13
1002
{
1000
HIER
1070
     0
1002
}
1002
{
1000
MANEDIT
1070
     0
1002
}
1002
{
1000
NOSEL
1070
     0
1002
}
1002
{
1000
BEHIND
1070
     0
1002
}
1002
{
1000
REACTOR
1002
}
1001
GENIUS_GENOBJ-N-REC_13
1002
{
1000
OWNER
1000
GEN
1002
}
1001
GENIUS_GENREC_13
1070
     4
1070
     2
1070
     1
  0
VERTEX
  5
A73
330
863
100
AcDbEntity
  8
6
100
AcDbVertex
100
AcDb2dVertex
 10
280.975177
 20
508.1789699999998
 30
0.0
  0
VERTEX
  5
A74
330
863
100
AcDbEntity
  8
6
100
AcDbVertex
100
AcDb2dVertex
 10
292.545423
 20
508.1789699999998
 30
0.0
  0
VERTEX
  5
A75
330
863
100
AcDbEntity
  8
6
100
AcDbVertex
100
AcDb2dVertex
 10
292.545423
 20
519.749216
 30
0.0
  0
VERTEX
  5
A76
330
863
100
AcDbEntity
  8
6
100
AcDbVertex
100
AcDb2dVertex
 10
280.975177
 20
519.749216
 30
0.0
  0
SEQEND
  5
A77
330
863
100
AcDbEntity
  8
6
  0
TEXT
  5
869
330
A8E
100
AcDbEntity
  8
6
100
AcDbText
 10
410.801234
 20
329.625908
 30
0.0
 40
17.683025
  1
G 1¼
100
AcDbText
  0
DIMENSION
  5
87B
330
A8E
100
AcDbEntity
  8
5
100
AcDbDimension
  2
*D7
 10
506.275335
 20
324.523318
 30
0.0
 11
506.275335
 21
292.411409
 31
0.0
 70
   128
  1
<>
 71
     5
 42
-1.0
  3
GEN-ISO
100
AcDbAlignedDimension
 13
376.348124
 23
264.523318
 33
0.0
 14
424.220204
 24
324.523318
 34
0.0
 50
90.0
100
AcDbRotatedDimension
1001
GENIUS_GENDTOL_13
1000

1000
h7
1000

1040
0.0
  0
LINE
  5
892
330
A8E
100
AcDbEntity
  8
0
100
AcDbLine
 10
174.0774669999998
 20
349.80956
 30
0.0
 11
221.3969049999999
 21
349.80956
 31
0.0
  0
INSERT
  5
8D8
330
A8E
100
AcDbEntity
  8
8
100
AcDbBlockReference
  2
*U14
 10
0.0
 20
0.0
 30
0.0
1001
GENIUS_GENBH_13
1002
{
1000
MYFD
1070
     1
1002
}
1002
{
1000
REFI
1005
A37
1002
}
1001
GENIUS_GENODEF_13
1002
{
1000
HIER
1070
     0
1002
}
1002
{
1000
MANEDIT
1070
     0
1002
}
1002
{
1000
NOSEL
1070
     0
1002
}
1002
{
1000
BEHIND
1070
     0
1002
}
1002
{
1000
REACTOR
1002
}
1001
GENIUS_GENOBJ-N-HTC_13
1002
{
1000
OWNER
1000
GEN
1002
}
1001
GENIUS_GENHATCH_13
1002
{
1000
DATA
1040
45.0
1042
5.0
1000
_U
1070
     0
1011
372.042482
1021
293.644805
1031
0.0
1002
}
1002
{
1000
UCS
1010
0.0
1020
0.0
1030
0.0
1010
1.0
1020
0.0
1030
0.0
1010
0.0
1020
1.0
1030
0.0
1002
}
1001
GENIUS_GENOREF_13
1005
A62
  0
INSERT
  5
995
330
A8E
100
AcDbEntity
  8
8
100
AcDbBlockReference
  2
*X11
 10
0.0
 20
0.0
 30
0.0
1001
GENIUS_GENODEF_13
1002
{
1000
HIER
1070
     0
1002
}
1002
{
1000
MANEDIT
1070
     0
1002
}
1002
{
1000
NOSEL
1070
     0
1002
}
1002
{
1000
BEHIND
1070
     0
1002
}
1002
{
1000
REACTOR
1002
}
1001
GENIUS_GENOBJ-N-HTC_13
1002
{
1000
OWNER
1000
GEN
1002
}
1001
GENIUS_GENHATCH_13
1002
{
1000
DATA
1040
135.0
1042
4.7
1000
_U
1070
     0
1011
155.814626
1021
384.280237
1031
0.0
1002
}
1002
{
1000
UCS
1010
0.0
1020
0.0
1030
0.0
1010
1.0
1020
0.0
1030
0.0
1010
0.0
1020
1.0
1030
0.0
1002
}
1001
ACAD
1000
HATCH
1002
{
1070
    19
1000
_U
1040
4.7
1040
2.356193999999999
1070
     0
1002
}
  0
LINE
  5
9DC
330
A8E
100
AcDbEntity
  8
5
100
AcDbLine
 10
377.748329
 20
333.974301
 30
0.0
 11
405.343572
 21
337.949884
 31
0.0
1001
GENIUS_GENOREF_13
1005
A62
  0
ARC
  5
9E0
330
A8E
100
AcDbEntity
  8
0
100
AcDbCircle
 10
475.584299
 20
389.453412
 30
0.0
 40
2.5
100
AcDbArc
 50
360.0
 51
90.0
1001
GENIUS_GENODEF_13
1002
{
1000
HIER
1070
     0
1002
}
1002
{
1000
MANEDIT
1070
     0
1002
}
1002
{
1000
NOSEL
1070
     0
1002
}
1002
{
1000
BEHIND
1070
     0
1002
}
1002
{
1000
REACTOR
1002
}
1001
GENIUS_GENOBJ-N-FIL_13
1002
{
1000
OWNER
1000
GEN
1002
}
  0
ARC
  5
9E1
330
A8E
100
AcDbEntity
  8
0
100
AcDbCircle
 10
441.536499
 20
362.7775966943222
 30
0.0
 40
12.96803669432213
100
AcDbArc
 50
211.2807189844175
 51
328.7192810155825
1001
GENIUS_GENOREF_13
1005
582
  0
LINE
  5
9E2
330
A8E
100
AcDbEntity
  8
0
100
AcDbLine
 10
430.453579
 20
356.044183
 30
0.0
 11
430.453579
 21
364.734719
 31
0.0
  0
ARC
  5
9E3
330
A8E
100
AcDbEntity
  8
0
100
AcDbCircle
 10
426.453579
 20
364.734719
 30
0.0
 40
4.0
100
AcDbArc
 50
0.0
 51
90.0
1001
GENIUS_GENODEF_13
1002
{
1000
HIER
1070
     0
1002
}
1002
{
1000
MANEDIT
1070
     0
1002
}
1002
{
1000
NOSEL
1070
     0
1002
}
1002
{
1000
BEHIND
1070
     0
1002
}
1002
{
1000
REACTOR
1002
}
1001
GENIUS_GENOBJ-N-FIL_13
1002
{
1000
OWNER
1000
GEN
1002
}
  0
LINE
  5
9E4
330
A8E
100
AcDbEntity
  8
0
100
AcDbLine
 10
452.619419
 20
356.044183
 30
0.0
 11
452.619419
 21
364.734719
 31
0.0
  0
ARC
  5
9E6
330
A8E
100
AcDbEntity
  8
0
100
AcDbCircle
 10
456.619419
 20
364.734719
 30
0.0
 40
4.0
100
AcDbArc
 50
90.0
 51
180.0
1001
GENIUS_GENODEF_13
1002
{
1000
HIER
1070
     0
1002
}
1002
{
1000
MANEDIT
1070
     0
1002
}
1002
{
1000
NOSEL
1070
     0
1002
}
1002
{
1000
BEHIND
1070
     0
1002
}
1002
{
1000
REACTOR
1002
}
1001
GENIUS_GENOBJ-N-FIL_13
1002
{
1000
OWNER
1000
GEN
1002
}
  0
ARC
  5
9E9
330
A8E
100
AcDbEntity
  8
0
100
AcDbCircle
 10
154.216586
 20
366.234719
 30
0.0
 40
2.5
100
AcDbArc
 50
90.0
 51
140.9545696005681
1001
GENIUS_GENODEF_13
1002
{
1000
HIER
1070
     0
1002
}
1002
{
1000
MANEDIT
1070
     0
1002
}
1002
{
1000
NOSEL
1070
     0
1002
}
1002
{
1000
BEHIND
1070
     0
1002
}
1002
{
1000
REACTOR
1002
}
1001
GENIUS_GENOBJ-N-FIL_13
1002
{
1000
OWNER
1000
GEN
1002
}
  0
INSERT
  5
A28
330
A8E
100
AcDbEntity
  8
0
100
AcDbBlockReference
  2
*U13
 10
384.928173
 20
352.7739
 30
0.0
 50
329.081489
1001
GENIUS_GEFPARTINS_13
1002
{
1011
384.928173
1021
352.7739
1031
0.0
1013
0.8578989999999999
1023
-0.5138180000000001
1033
0.0
1002
}
1001
VCC
1002
{
1000
-ID2
1000
-IE2
1000
-IK2
1000
-V$PV_GENSYSTEM"GEF\VAL\IS\0405\IS1627_V.DXF"
1002
}
1001
GEVIT
1002
{
1000
-BEHI1.00000001
1000
-BVCCT0
1000
-GRP00
1000
-BAML2
1000
-BASK1
1000
-NT0
1000
-DOC
1005
A15
1000
-MYREF
1005
A28
1002
}
1001
GEVPT
1002
{
1000
-V$PV_GENSYSTEM"GEF\VAL\IS\0405\IS1627_V.DXF"
1000
-FIXPLOTI=9.431826948469749E+00
1000
-GPGEF_PROCALC=1
1000
-GPGEF_FLIPY=1
1000
-GPGEF_FLIPX=1
1000
-GPGEF_SNK_ADD=0
1000
-GPGEVPROMPTX=Länge:
1000
-GPGEF_OANG=70
1000
-GPGEF_STANG=210
1000
-GPGEF_DRAG=1
1000
-GPGEF_CDIST=3
1000
-GPVCC_TABLE=D:\GENIUS\gef\val\is\0405\is1627.val
1000
-GPNM1=1 1/4
1000
-GPPRE=G
1002
}
1001
GEVID847791361
1002
{
1002
}
1001
GENIUS_GENOREF_13
1005
A61
1005
A63
  0
POINT
  5
A61
330
A8E
100
AcDbEntity
  8
0
 60
     1
100
AcDbPoint
 10
0.0
 20
0.0
 30
0.0
1001
GENIUS_GENBH_13
1002
{
1000
BGO
1005
A62
1002
}
1002
{
1000
FGLEVEL
1040
1.0
1002
}
1002
{
1000
FLAGS
1070
    36
1002
}
1002
{
1000
OIUMAP
1000
OIU
1002
}
1002
{
1000
MODIFY
1070
     0
1002
}
1001
GENIUS_GENODEF_13
1002
{
1000
HIER
1070
     1
1002
}
1002
{
1000
MANEDIT
1070
     0
1002
}
1002
{
1000
NOSEL
1070
     1
1002
}
1002
{
1000
BEHIND
1070
     0
1002
}
1002
{
1000
REACTOR
1002
}
1001
GENIUS_GENOBJ-NBEHI-BHF_13
1002
{
1000
OWNER
1000
GENBEHI
1002
}
1001
GENIUS_GENOENT_13
1002
{
1000
MYREF
1005
A61
1002
}
1002
{
1000
GRP
1005
0
1002
}
1001
GENIUS_GENOLIS_13
1002
{
1000
ENT
1005
A28
1002
}
  0
POINT
  5
A62
330
A8E
100
AcDbEntity
  8
0
 60
     1
100
AcDbPoint
 10
0.0
 20
0.0
 30
0.0
1001
GENIUS_GENBH_13
1002
{
1000
FGO
1005
A61
1002
}
1001
GENIUS_GENOBJ-NBEHI-BHB_13
1002
{
1000
OWNER
1000
GENBEHI
1002
}
1001
GENIUS_GENOENT_13
1002
{
1000
MYREF
1005
A62
1002
}
1002
{
1000
GRP
1005
0
1002
}
1001
GENIUS_GENOLIS_13
1002
{
1000
ENT
1005
32F
1005
32E
1005
329
1005
339
1005
326
1005
332
1005
31C
1005
333
1005
9DC
1005
8A7
1005
31D
1005
32B
1005
331
1005
33A
1005
8D8
1002
}
1001
GENIUS_GENODEF_13
1002
{
1000
HIER
1070
     1
1002
}
1002
{
1000
MANEDIT
1070
     1
1002
}
1002
{
1000
NOSEL
1070
     1
1002
}
1002
{
1000
BEHIND
1070
     0
1002
}
1002
{
1000
REACTOR
1002
}
  0
POINT
  5
A63
330
A8E
100
AcDbEntity
  8
0
 60
     1
100
AcDbPoint
 10
0.0
 20
0.0
 30
0.0
1001
GENIUS_GENODEF_13
1002
{
1000
HIER
1070
   200
1002
}
1002
{
1000
MANEDIT
1070
     0
1002
}
1002
{
1000
NOSEL
1070
     0
1002
}
1002
{
1000
BEHIND
1070
     0
1002
}
1002
{
1000
REACTOR
1002
}
1001
GENIUS_GENOBJ-F-PART_13
1002
{
1000
OWNER
1000
GEF
1002
}
1001
GENIUS_GEFSTDP_13
1002
{
1000
DSC
1000
DSC
1002
{
1000
~DESCR
1000
 
1000
~STDRT
1000
(gefmsg "gefcall" 409)
1000
~LOTI
1002
}
1002
}
1002
{
1000
SUG
1000
G
1000
1 1/4
1002
}
1002
{
1000
KEY
1000
THPF
1002
}
1002
{
1000
INS
1002
{
1040
384.928173
1040
352.7739
1040
0.0
1002
}
1002
}
1002
{
1000
ANG
1040
5.743555
1002
}
1002
{
1000
VCC
1002
{
1000
-LPLOTI=9.431826948469749E+00
1000
$PRE=G
1000
$NM1=1 1/4
1000
-GRPNAME00
1000
-RBDESCR
1000
-RBSTDRT
1000
-RBLOTI
1000
-RBGD1
1000
-V$PV_GENSYSTEM"gef\val\is\0405\is1627_v.dxf"
1000
$VCC_TABLE=$PV_GENSYSTEM"gef\val\is\0405\is1627.val"
1000
$GEF_CDIST=3.000000000000000E+00
1000
$GEF_DRAG=1
1000
$GEF_STANG=2.100000000000000E+02
1000
$GEF_OANG=7.000000000000000E+01
1000
$GEVPROMPTX= Länge: 
1000
$GEF_SNK_ADD=0.000000000000000E+00
1000
$GEF_FLIPX=1
1000
$GEF_FLIPY=1
1000
-GRPNAME1?
1000
-BAML2
1000
$GEF_PROCALC=1
1002
}
1002
}
1002
{
1000
LST
1002
{
1002
{
1000
GROUP
1000
0405
1002
}
1002
{
1000
VIEW
1000
V
1002
}
1002
{
1000
SFILE
1000
$PV_GENSYSTEM"gef\val\is\0405\is1627_v.dxf"
1002
}
1002
{
1000
ST1
1000
$PV_GENSYSTEM"gef\val\is\0405\is1627.val"
1002
}
1002
{
1000
GENASSO
1000
 
1002
}
1002
}
1002
}
1002
{
1000
RET
1002
{
1002
{
1000
GD1
1000
38.95297
1002
}
1002
{
1000
LOTI
1000
9.431826948469749E+00
1002
}
1002
{
1000
STDRT
1000
ISO 228 - G 1 1/4
1002
}
1002
{
1000
DESCR
1000
Rohrgewinde
1002
}
1002
}
1002
}
1002
{
1000
SYSTEM
1040
1.0
1002
}
1002
{
1000
INFEL
1002
{
1002
}
1002
}
1001
GENIUS_GENOENT_13
1002
{
1000
MYREF
1005
A63
1002
}
1002
{
1000
GRP
1005
0
1002
}
1001
GENIUS_GENOLIS_13
1002
{
1000
ENT
1005
A28
1002
}
  0
LINE
  5
CCF
330
A8E
100
AcDbEntity
  8
0
100
AcDbLine
 10
231.12549
 20
422.8095599999998
 30
0.0
 11
395.350994
 21
422.8095599999998
 31
0.0
  0
DIMENSION
  5
DB2
330
A8E
100
AcDbEntity
  8
AM_5
100
AcDbDimension
  2
*D24
 10
29.20064314635423
 20
242.8095600000001
 30
0.0
 11
29.2006431463542
 21
308.6060847790104
 31
0.0
 70
   160
 71
     5
 42
134.9999999999999
  3
GEN-ISO$0
100
AcDbAlignedDimension
 13
120.738242
 23
377.80956
 33
0.0
 14
236.62549
 24
242.80956
 34
0.0
 50
90.00000000000003
100
AcDbRotatedDimension
1001
ACAD
1000
DSTYLE
1002
{
1070
    50
1040
1.570796326794896
1002
}
1001
ACAD_DSTYLE_DIMINSPECT
1070
   396
1000
100%
1070
   395
1000

1070
   394
1070
    33
1070
   393
1070
     0
  0
LINE
  5
F5B
330
A8E
100
AcDbEntity
  8
0
100
AcDbLine
 10
225.7799361432499
 20
422.8095599999998
 30
0.0
 11
223.1009850944063
 21
392.070026
 31
0.0
  0
LINE
  5
F5D
330
A8E
100
AcDbEntity
  8
0
100
AcDbLine
 10
222.5389599219369
 20
385.621087
 30
0.0
 11
231.12549
 21
385.621087
 31
0.0
  0
LINE
  5
F5E
330
A8E
100
AcDbEntity
  8
0
100
AcDbLine
 10
222.5389599219369
 20
385.621087
 30
0.0
 11
223.1009850944063
 21
392.070026
 31
0.0
  0
LINE
  5
F5F
330
A8E
100
AcDbEntity
  8
0
100
AcDbLine
 10
222.5389599219369
 20
385.621087
 30
0.0
 11
231.12549
 21
377.80956
 31
0.0
  0
HATCH
  5
F65
330
A8E
100
AcDbEntity
  8
AM_8
100
AcDbHatch
 10
0.0
 20
0.0
 30
0.0
210
0.0
220
0.0
230
1.0
  2
_U
 70
     0
 71
     0
 91
        1
 92
        1
 93
        5
 72
     1
 10
223.1009850944063
 20
392.0700260000001
 11
225.7799361432499
 21
422.8095599999998
 72
     1
 10
225.7799361432499
 20
422.8095599999998
 11
217.029843
 21
422.8095599999998
 72
     2
 10
217.0298429253465
 20
420.3095599315695
 40
2.500000068430382
 50
89.99999828906689
 51
175.0192623910396
 73
     1
 72
     1
 10
214.539283
 20
420.526612
 11
212.0592909184277
 21
392.0700260000001
 72
     1
 10
212.0592909184277
 20
392.0700260000001
 11
223.1009850944063
 21
392.0700260000001
 97
        0
 75
     0
 76
     0
 52
45.0
 41
4.5
 77
     0
 78
     1
 53
45.0
 43
0.0
 44
0.0
 45
-3.181980515339463
 46
3.181980515339464
 79
     0
 98
        1
 10
0.0
 20
0.0
1001
GENIUS_GENODEF_13
1002
{
1000
HIER
1070
     0
1002
}
1002
{
1000
MANEDIT
1070
     0
1002
}
1002
{
1000
NOSEL
1070
     0
1002
}
1002
{
1000
BEHIND
1070
     0
1002
}
1002
{
1000
OTHER
1070
     0
1002
}
1002
{
1000
REACTOR
1002
}
1001
GENIUS_GENOBJ-N-HTC_13
1002
{
1000
OWNER
1000
GEN
1002
}
1001
GENIUS_GENHATCH_13
1002
{
1000
DATA
1040
45.0
1042
2.5
1000
_U
1070
     0
1011
216.8121890240475
1021
407.6907457842328
1031
0.0
1002
}
1002
{
1000
UCS
1010
0.0
1020
0.0
1030
0.0
1010
1.0
1020
0.0
1030
0.0
1010
0.0
1020
1.0
1030
0.0
1002
}
  0
LINE
  5
FCA
330
A8E
100
AcDbEntity
  8
0
100
AcDbLine
 10
400.6965478583326
 20
422.8095599999998
 30
0.0
 11
403.9375240614616
 21
385.621087
 31
0.0
  0
LINE
  5
FCB
330
A8E
100
AcDbEntity
  8
0
100
AcDbLine
 10
403.9375240614616
 20
385.621087
 30
0.0
 11
395.350994
 21
385.621087
 31
0.0
  0
LINE
  5
FCC
330
A8E
100
AcDbEntity
  8
0
100
AcDbLine
 10
403.9375240614616
 20
385.621087
 30
0.0
 11
395.350994
 21
378.605096
 31
0.0
  0
HATCH
  5
FCE
330
A8E
100
AcDbEntity
  8
AM_8
100
AcDbHatch
 10
0.0
 20
0.0
 30
0.0
210
0.0
220
0.0
230
1.0
  2
_U
 70
     0
 71
     0
 91
        1
 92
        1
 93
        5
 72
     1
 10
409.4466409999998
 20
422.8095599999999
 11
400.6965478583326
 21
422.8095599999998
 72
     1
 10
400.6965478583326
 20
422.8095599999998
 11
403.3856618046952
 21
391.953412
 72
     1
 10
403.3856618046952
 20
391.953412
 11
414.4273559802063
 21
391.953412
 72
     1
 10
414.4273559802063
 20
391.953412
 11
411.9372009999998
 21
420.526612
 72
     2
 10
409.4466410746533
 20
420.3095599315695
 40
2.500000068430406
 50
4.980737608957642
 51
90.0000017109318
 73
     1
 97
        0
 75
     0
 76
     0
 52
45.0
 41
6.75
 77
     0
 78
     1
 53
45.0
 43
0.0
 44
0.0
 45
-4.772970773009195
 46
4.772970773009196
 79
     0
 98
        1
 10
0.0
 20
0.0
1001
GENIUS_GENODEF_13
1002
{
1000
HIER
1070
     0
1002
}
1002
{
1000
MANEDIT
1070
     0
1002
}
1002
{
1000
NOSEL
1070
     0
1002
}
1002
{
1000
BEHIND
1070
     0
1002
}
1002
{
1000
OTHER
1070
     0
1002
}
1002
{
1000
REACTOR
1002
}
1001
GENIUS_GENOBJ-N-HTC_13
1002
{
1000
OWNER
1000
GEN
1002
}
1001
GENIUS_GENHATCH_13
1002
{
1000
DATA
1040
45.0
1042
2.5
1000
_U
1070
     0
1011
408.7956158081358
1021
406.7382285734727
1031
0.0
1002
}
1002
{
1000
UCS
1010
0.0
1020
0.0
1030
0.0
1010
1.0
1020
0.0
1030
0.0
1010
0.0
1020
1.0
1030
0.0
1002
}
  0
LINE
  5
101A
330
A8E
100
AcDbEntity
  8
0
100
AcDbLine
 10
403.3856618046952
 20
391.953412
 30
0.0
 11
414.4273559802063
 21
391.953412
 31
0.0
  0
LINE
  5
1048
330
A8E
100
AcDbEntity
  8
0
100
AcDbLine
 10
152.2749691931303
 20
367.80956
 30
0.0
 11
110.738242
 21
367.80956
 31
0.0
  0
LINE
  5
10CE
330
A8E
100
AcDbEntity
  8
0
100
AcDbLine
 10
178.534637
 20
357.037034
 30
0.0
 11
178.534637
 21
357.3995141351872
 31
0.0
  0
HATCH
  5
10F5
330
A8E
100
AcDbEntity
  8
AM_8
100
AcDbHatch
 10
0.0
 20
0.0
 30
0.0
210
0.0
220
0.0
230
1.0
  2
_U
 70
     0
 71
     0
 91
        1
 92
        1
 93
       11
 72
     1
 10
154.216586
 20
368.734719
 11
158.723132
 21
368.734719
 72
     2
 10
158.723132
 20
364.734719
 40
4.0
 50
270.0
 51
360.0
 73
     0
 72
     1
 10
162.723132
 20
364.734719
 11
162.723132
 21
356.044183
 72
     2
 10
173.806052
 20
362.7716888710083
 40
12.96497014924641
 50
211.258405952422
 51
268.8004546161815
 73
     1
 72
     1
 10
173.534637
 20
349.80956
 11
173.534637
 21
357.037034
 72
     1
 10
173.534637
 20
357.037034
 11
168.534637
 21
357.037034
 72
     1
 10
168.534637
 20
357.037034
 11
168.534637
 21
377.80956
 72
     1
 10
168.534637
 20
377.80956
 11
120.738242
 21
377.80956
 72
     2
 10
120.738242
 20
367.80956
 40
10.0
 50
90.0
 51
180.0
 73
     1
 72
     1
 10
110.738242
 20
367.80956
 11
152.2749691931303
 21
367.80956
 72
     2
 10
154.216586
 20
366.234719
 40
2.5
 50
219.0454303994314
 51
270.0
 73
     0
 97
        0
 75
     0
 76
     0
 52
45.0
 41
11.25
 77
     0
 78
     1
 53
45.0
 43
0.0
 44
0.0
 45
-7.954951288348659
 46
7.954951288348659
 79
     0
 98
        1
 10
0.0
 20
0.0
1001
GENIUS_GENOBJ-N-HTC_13
1002
{
1000
OWNER
1000
GEN
1002
}
1001
GENIUS_GENODEF_13
1002
{
1000
HIER
1070
     0
1002
}
1002
{
1000
MANEDIT
1070
     0
1002
}
1002
{
1000
NOSEL
1070
     0
1002
}
1002
{
1000
BEHIND
1070
     0
1002
}
1002
{
1000
OTHER
1070
     0
1002
}
1002
{
1000
REACTOR
1002
}
1001
GENIUS_GENHATCH_13
1002
{
1000
DATA
1040
45.0
1042
2.5
1000
_U
1070
     0
1011
135.1612130138703
1021
370.8710927609695
1031
0.0
1002
}
1002
{
1000
UCS
1010
0.0
1020
0.0
1030
0.0
1010
1.0
1020
0.0
1030
0.0
1010
0.0
1020
1.0
1030
0.0
1002
}
  0
HATCH
  5
1108
330
A8E
100
AcDbEntity
  8
AM_8
100
AcDbHatch
 10
0.0
 20
0.0
 30
0.0
210
0.0
220
0.0
230
1.0
  2
_U
 70
     0
 71
     0
 91
        1
 92
        1
 93
       17
 72
     2
 10
173.8060519999999
 20
362.7716888710086
 40
12.96497014924673
 50
268.8004546161817
 51
328.7416025642228
 73
     1
 72
     1
 10
184.888973
 20
356.0441846474043
 11
184.888973
 21
364.734719
 72
     2
 10
188.888973
 20
364.734719
 40
3.999999999999999
 50
180.0
 51
270.0
 73
     0
 72
     1
 10
188.888973
 20
368.734719
 11
221.12549
 21
368.734719
 72
     1
 10
221.12549
 20
368.734719
 11
221.12549
 21
262.80956
 72
     2
 10
241.12549
 20
262.80956
 40
20.0
 50
180.0
 51
270.0
 73
     1
 72
     1
 10
241.12549
 20
242.80956
 11
313.238242
 21
242.80956
 72
     1
 10
313.238242
 20
242.80956
 11
313.238242
 21
250.80956
 72
     1
 10
313.238242
 20
250.80956
 11
264.6048421475509
 21
250.80956
 72
     2
 10
264.519045
 20
253.255999
 40
2.447943000000007
 50
87.99144774025554
 51
92.00855225974445
 73
     0
 72
     1
 10
264.4332478524491
 20
250.80956
 11
247.12549
 21
250.80956
 72
     2
 10
247.12549
 20
266.80956
 40
16.00000000000003
 50
90.0000000000001
 51
180.0
 73
     0
 72
     1
 10
231.12549
 20
266.80956
 11
231.1254900000001
 21
377.80956
 72
     1
 10
231.1254900000001
 20
377.80956
 11
178.534637
 21
377.80956
 72
     1
 10
178.534637
 20
377.80956
 11
178.534637
 21
357.037034
 72
     1
 10
178.534637
 20
357.037034
 11
173.534637
 21
357.037034
 72
     1
 10
173.534637
 20
357.037034
 11
173.534637
 21
349.80956
 97
        0
 75
     0
 76
     0
 52
45.0
 41
11.25
 77
     0
 78
     1
 53
45.0
 43
0.0
 44
0.0
 45
-7.954951288348659
 46
7.954951288348659
 79
     0
 98
        1
 10
0.0
 20
0.0
1001
GENIUS_GENOBJ-N-HTC_13
1002
{
1000
OWNER
1000
GEN
1002
}
1001
GENIUS_GENODEF_13
1002
{
1000
HIER
1070
     0
1002
}
1002
{
1000
MANEDIT
1070
     0
1002
}
1002
{
1000
NOSEL
1070
     0
1002
}
1002
{
1000
BEHIND
1070
     0
1002
}
1002
{
1000
OTHER
1070
     0
1002
}
1002
{
1000
REACTOR
1002
}
1001
GENIUS_GENHATCH_13
1002
{
1000
DATA
1040
45.0
1042
2.5
1000
_U
1070
     0
1011
227.4206452402666
1021
343.2203093917137
1031
0.0
1002
}
1002
{
1000
UCS
1010
0.0
1020
0.0
1030
0.0
1010
1.0
1020
0.0
1030
0.0
1010
0.0
1020
1.0
1030
0.0
1002
}
  0
HATCH
  5
111E
330
A8E
100
AcDbEntity
  8
AM_8
100
AcDbHatch
 10
0.0
 20
0.0
 30
0.0
210
0.0
220
0.0
230
1.0
  2
_U
 70
     0
 71
     0
 91
        1
 92
        1
 93
        8
 72
     1
 10
342.9336408524491
 20
250.80956
 11
313.238242
 21
250.80956
 72
     1
 10
313.238242
 20
250.80956
 11
313.238242
 21
242.80956
 72
     1
 10
313.238242
 20
242.80956
 11
385.325112
 21
242.80956
 72
     2
 10
385.3251119999999
 20
262.8095600000001
 40
20.00000000000014
 50
270.0000000000003
 51
276.3522427958355
 73
     1
 72
     1
 10
387.5379233538599
 20
242.9323502885685
 11
383.4341929478187
 21
251.1340151725026
 72
     2
 10
380.2283709999998
 20
266.80956
 40
15.99999999999998
 50
78.44176193781604
 51
89.99999999999939
 73
     0
 72
     1
 10
380.228371
 20
250.80956
 11
343.1052351475508
 21
250.80956
 72
     2
 10
343.019438
 20
253.255999
 40
2.447942999999998
 50
87.99144774025554
 51
92.00855225974445
 73
     0
 97
        0
 75
     0
 76
     0
 52
45.0
 41
11.25
 77
     0
 78
     1
 53
45.0
 43
0.0
 44
0.0
 45
-7.954951288348659
 46
7.954951288348659
 79
     0
 98
        1
 10
0.0
 20
0.0
1001
GENIUS_GENOBJ-N-HTC_13
1002
{
1000
OWNER
1000
GEN
1002
}
1001
GENIUS_GENODEF_13
1002
{
1000
HIER
1070
     0
1002
}
1002
{
1000
MANEDIT
1070
     0
1002
}
1002
{
1000
NOSEL
1070
     0
1002
}
1002
{
1000
BEHIND
1070
     0
1002
}
1002
{
1000
OTHER
1070
     0
1002
}
1002
{
1000
REACTOR
1002
}
1001
GENIUS_GENHATCH_13
1002
{
1000
DATA
1040
45.0
1042
2.5
1000
_U
1070
     0
1011
348.5621495474882
1021
247.6532671993109
1031
0.0
1002
}
1002
{
1000
UCS
1010
0.0
1020
0.0
1030
0.0
1010
1.0
1020
0.0
1030
0.0
1010
0.0
1020
1.0
1030
0.0
1002
}
  0
ARC
  5
1127
330
A8E
100
AcDbEntity
  8
0
100
AcDbCircle
 10
426.3780748334551
 20
304.5369157475095
 30
0.0
 40
8.0
100
AcDbArc
 50
41.77993807275646
 51
164.0434350832644
1001
GENIUS_GENODEF_13
1002
{
1000
HIER
1070
     0
1002
}
1002
{
1000
MANEDIT
1070
     0
1002
}
1002
{
1000
NOSEL
1070
     0
1002
}
1002
{
1000
BEHIND
1070
     0
1002
}
1002
{
1000
OTHER
1070
     0
1002
}
1002
{
1000
REACTOR
1002
}
1001
GENIUS_GENOBJ-N-FIL_13
1002
{
1000
OWNER
1000
GEN
1002
}
  0
LINE
  5
1128
330
A8E
100
AcDbEntity
  8
0
100
AcDbLine
 10
395.6118970145178
 20
262.4110230431638
 30
0.0
 11
410.1876576037477
 21
313.3885637441798
 31
0.0
  0
LINE
  5
129F
330
A8E
100
AcDbEntity
  8
AM_CL
 62
     4
100
AcDbLine
 10
518.24082
 20
302.2653623179483
 30
0.0
 11
672.1579098602255
 21
294.1989094446685
 31
0.0
  0
LINE
  5
12D7
330
A8E
100
AcDbEntity
  8
0
100
AcDbLine
 10
521.376944583339
 20
357.667794475781
 30
0.0
 11
606.112830593361
 21
352.7356644115016
 31
0.0
  0
LINE
  5
12D8
330
A8E
100
AcDbEntity
  8
0
100
AcDbLine
 10
493.5297905695843
 20
248.484933464308
 30
0.0
 11
600.355875406639
 21
242.886415588498
 31
0.0
  0
LINE
  5
12DD
330
A8E
100
AcDbEntity
  8
0
100
AcDbLine
 10
606.112830593361
 20
352.7356644115016
 30
0.0
 11
600.355875406639
 21
242.886415588498
 31
0.0
  0
LINE
  5
130B
330
A8E
100
AcDbEntity
  8
0
100
AcDbLine
 10
511.4115742625424
 20
351.6905128751245
 30
0.0
 11
605.7988148559035
 21
346.7438872029741
 31
0.0
  0
LINE
  5
130C
330
A8E
100
AcDbEntity
  8
0
100
AcDbLine
 10
497.5913279137394
 20
254.2803113876133
 30
0.0
 11
600.6698911440966
 21
248.8781927970256
 31
0.0
  0
ARC
  5
1310
330
A8E
100
AcDbEntity
  8
0
100
AcDbCircle
 10
521.72559
 20
363.6576564419236
 30
0.0
 40
6.0
100
AcDbArc
 50
180.0
 51
266.6688050924303
1001
GENIUS_GENODEF_13
1002
{
1000
HIER
1070
     0
1002
}
1002
{
1000
MANEDIT
1070
     0
1002
}
1002
{
1000
NOSEL
1070
     0
1002
}
1002
{
1000
BEHIND
1070
     0
1002
}
1002
{
1000
OTHER
1070
     0
1002
}
1002
{
1000
REACTOR
1002
}
1001
GENIUS_GENOBJ-N-FIL_13
1002
{
1000
OWNER
1000
GEN
1002
}
  0
ARC
  5
1313
330
A8E
100
AcDbEntity
  8
0
100
AcDbCircle
 10
494.3671658694712
 20
264.4630060203813
 30
0.0
 40
16.0
100
AcDbArc
 50
221.7799380727564
 51
267.0000000000009
1001
GENIUS_GENODEF_13
1002
{
1000
HIER
1070
     0
1002
}
1002
{
1000
MANEDIT
1070
     0
1002
}
1002
{
1000
NOSEL
1070
     0
1002
}
1002
{
1000
BEHIND
1070
     0
1002
}
1002
{
1000
OTHER
1070
     0
1002
}
1002
{
1000
REACTOR
1002
}
1001
GENIUS_GENOBJ-N-FIL_13
1002
{
1000
OWNER
1000
GEN
1002
}
  0
ARC
  5
1314
330
A8E
100
AcDbEntity
  8
0
100
AcDbCircle
 10
511.7255899999999
 20
357.6822900836519
 30
0.0
 40
6.0
100
AcDbArc
 50
180.0
 51
267.0000000000011
1001
GENIUS_GENODEF_13
1002
{
1000
HIER
1070
     0
1002
}
1002
{
1000
MANEDIT
1070
     0
1002
}
1002
{
1000
NOSEL
1070
     0
1002
}
1002
{
1000
BEHIND
1070
     0
1002
}
1002
{
1000
OTHER
1070
     0
1002
}
1002
{
1000
REACTOR
1002
}
1001
GENIUS_GENOBJ-N-FIL_13
1002
{
1000
OWNER
1000
GEN
1002
}
  0
ARC
  5
1344
330
A8E
100
AcDbEntity
  8
0
100
AcDbCircle
 10
497.905343651197
 20
260.2720885961407
 30
0.0
 40
6.0
100
AcDbArc
 50
222.8541611402707
 51
267.0000000000011
1001
GENIUS_GENODEF_13
1002
{
1000
HIER
1070
     0
1002
}
1002
{
1000
MANEDIT
1070
     0
1002
}
1002
{
1000
NOSEL
1070
     0
1002
}
1002
{
1000
BEHIND
1070
     0
1002
}
1002
{
1000
OTHER
1070
     0
1002
}
1002
{
1000
REACTOR
1002
}
1001
GENIUS_GENOBJ-N-FIL_13
1002
{
1000
OWNER
1000
GEN
1002
}
  0
HATCH
  5
1391
330
A8E
100
AcDbEntity
  8
AM_8
100
AcDbHatch
 10
0.0
 20
0.0
 30
0.0
210
0.0
220
0.0
230
1.0
  2
_U
 70
     0
 71
     0
 91
        1
 92
        1
 93
       15
 72
     1
 10
605.7988148559035
 20
346.7438872029741
 11
511.4115742625424
 21
351.6905128751245
 72
     2
 10
511.7255899999999
 20
357.6822900836519
 40
5.999999999999915
 50
92.9999999999986
 51
180.0000000000005
 73
     0
 72
     1
 10
505.72559
 20
357.6822900836519
 11
505.72559
 21
363.605096
 72
     2
 10
500.72559
 20
363.605096
 40
5.0
 50
0.0
 51
90.0
 73
     1
 72
     1
 10
500.72559
 20
368.605096
 11
405.4039969999998
 21
368.605096
 72
     1
 10
405.4039969999998
 20
368.605096
 11
393.0197278996889
 21
347.9276535108116
 72
     1
 10
393.0197278996889
 20
347.9276535108116
 11
384.9281735523709
 21
352.7739001954728
 72
     1
 10
384.9281735523709
 20
352.7739001954728
 11
395.350994
 21
370.176402
 72
     1
 10
395.350994
 20
370.176402
 11
395.350994
 21
378.605096
 72
     1
 10
395.350994
 20
378.605096
 11
510.72559
 21
378.605096
 72
     2
 10
510.72559
 20
373.605096
 40
5.0
 50
270.0
 51
360.0
 73
     0
 72
     1
 10
515.72559
 20
373.605096
 11
515.72559
 21
363.6576564419236
 72
     2
 10
521.72559
 20
363.6576564419236
 40
6.0
 50
180.0
 51
266.6688050924301
 73
     1
 72
     1
 10
521.376944583339
 20
357.667794475781
 11
606.112830593361
 21
352.7356644115016
 72
     1
 10
606.112830593361
 20
352.7356644115016
 11
605.7988148559035
 21
346.7438872029741
 97
        0
 75
     0
 76
     0
 52
45.0
 41
11.25
 77
     0
 78
     1
 53
45.0
 43
0.0
 44
0.0
 45
-7.954951288348659
 46
7.954951288348659
 79
     0
 98
        1
 10
0.0
 20
0.0
1001
GENIUS_GENOBJ-N-HTC_13
1002
{
1000
OWNER
1000
GEN
1002
}
1001
GENIUS_GENODEF_13
1002
{
1000
HIER
1070
     0
1002
}
1002
{
1000
MANEDIT
1070
     0
1002
}
1002
{
1000
NOSEL
1070
     0
1002
}
1002
{
1000
BEHIND
1070
     0
1002
}
1002
{
1000
OTHER
1070
     0
1002
}
1002
{
1000
REACTOR
1002
}
1001
GENIUS_GENHATCH_13
1002
{
1000
DATA
1040
45.0
1042
2.5
1000
_U
1070
     0
1011
424.690815241498
1021
371.8273676023802
1031
0.0
1002
}
1002
{
1000
UCS
1010
0.0
1020
0.0
1030
0.0
1010
1.0
1020
0.0
1030
0.0
1010
0.0
1020
1.0
1030
0.0
1002
}
  0
HATCH
  5
13B1
330
A8E
100
AcDbEntity
  8
AM_8
100
AcDbHatch
 10
0.0
 20
0.0
 30
0.0
210
0.0
220
0.0
230
1.0
  2
_U
 70
     0
 71
     0
 91
        1
 92
        1
 93
       20
 72
     1
 10
600.355875406639
 20
242.886415588498
 11
493.5297905695843
 21
248.4849334643081
 72
     2
 10
494.3671658694714
 20
264.4630060203815
 40
16.00000000000028
 50
92.9999999999994
 51
138.220061927243
 73
     0
 72
     1
 10
482.4358164596455
 20
253.802663565251
 11
432.343749538368
 21
309.8670869750745
 72
     2
 10
426.3780748334551
 20
304.5369157475094
 40
8.000000000000039
 50
41.77993807275653
 51
164.043435083264
 73
     1
 72
     1
 10
418.6863118230001
 20
306.7361842147497
 11
404.5545195181472
 21
257.3113888039547
 72
     2
 10
385.325112
 20
262.8095599999999
 40
19.99999999999992
 50
15.95656499999975
 51
90.00000000000015
 73
     0
 72
     1
 10
385.325112
 20
242.80956
 11
313.238242
 21
242.80956
 72
     1
 10
313.238242
 20
242.80956
 11
313.238242
 21
250.80956
 72
     1
 10
313.238242
 20
250.80956
 11
342.9336408524491
 21
250.80956
 72
     2
 10
343.019438
 20
253.2559989999813
 40
2.44794299998128
 50
267.9914477402402
 51
272.0085522597598
 73
     1
 72
     1
 10
343.1052351475508
 20
250.80956
 11
380.228371
 21
250.80956
 72
     2
 10
380.228371
 20
266.80956
 40
15.99999999999994
 50
270.0
 51
344.0434350000002
 73
     1
 72
     1
 10
395.6118970145178
 20
262.4110230431638
 11
410.1876576037474
 21
313.3885637441799
 72
     2
 10
424.220204111082
 20
310.1137000177765
 40
14.4096181041352
 50
193.1363567606247
 51
252.8003829033026
 73
     0
 72
     1
 10
419.9592560314762
 20
323.878924875
 11
428.481152190688
 21
323.878924875
 72
     2
 10
424.2202041110819
 20
310.113700017776
 40
14.4096181041358
 50
287.1996170966983
 51
328.6798343415221
 73
     0
 72
     1
 10
436.529994
 20
317.604105
 11
493.5068200458682
 21
256.1912810665743
 72
     2
 10
497.905343651197
 20
260.2720885961407
 40
6.000000000000019
 50
222.8541611402713
 51
267.0000000000009
 73
     1
 72
     1
 10
497.5913279137394
 20
254.2803113876133
 11
600.6698911440966
 21
248.8781927970256
 72
     1
 10
600.6698911440966
 20
248.8781927970256
 11
600.355875406639
 21
242.886415588498
 97
        0
 75
     0
 76
     0
 52
45.0
 41
11.25
 77
     0
 78
     1
 53
45.0
 43
0.0
 44
0.0
 45
-7.954951288348659
 46
7.954951288348659
 79
     0
 98
        1
 10
0.0
 20
0.0
1001
GENIUS_GENODEF_13
1002
{
1000
HIER
1070
     0
1002
}
1002
{
1000
MANEDIT
1070
     0
1002
}
1002
{
1000
NOSEL
1070
     0
1002
}
1002
{
1000
BEHIND
1070
     0
1002
}
1002
{
1000
OTHER
1070
     0
1002
}
1002
{
1000
REACTOR
1002
}
1001
GENIUS_GENOBJ-N-HTC_13
1002
{
1000
OWNER
1000
GEN
1002
}
1001
GENIUS_GENHATCH_13
1002
{
1000
DATA
1040
45.0
1042
2.5
1000
_U
1070
     0
1011
427.2010469573906
1021
315.3820948132633
1031
0.0
1002
}
1002
{
1000
UCS
1010
0.0
1020
0.0
1030
0.0
1010
1.0
1020
0.0
1030
0.0
1010
0.0
1020
1.0
1030
0.0
1002
}
  0
DIMENSION
  5
1404
330
A8E
100
AcDbEntity
  8
AM_5
100
AcDbDimension
  2
*D28
 10
717.6839127262011
 20
236.7375137049437
 30
0.0
 11
720.4349575496971
 21
289.2305760161503
 31
0.0
 70
   161
  1
%%c<>
 71
     5
 42
110.0000000000003
  3
GEN-ISO$0
100
AcDbAlignedDimension
 13
606.112830593361
 23
352.7356644115015
 33
0.0
 14
600.3558754066389
 24
242.886415588498
 34
0.0
1001
ACAD
1000
DSTYLE
1002
{
1070
    50
1040
1.570796326794896
1002
}
1001
ACAD_DSTYLE_DIMINSPECT
1070
   396
1000
100%
1070
   395
1000

1070
   394
1070
    33
1070
   393
1070
     0
  0
LINE
  5
1441
330
A8E
100
AcDbEntity
  8
0
100
AcDbLine
 10
518.24082
 20
297.81104
 30
0.0
 11
672.1579098602255
 21
297.81104
 31
0.0
  0
DIMENSION
  5
146E
330
A8E
100
AcDbEntity
  8
0
100
AcDbDimension
  2
*D31
 10
672.1579098602255
 20
297.81104
 30
0.0
 11
631.018572361523
 21
258.2570141169122
 31
0.0
 70
   162
  1
1,5°
 71
     5
 42
0.0523598775598115
  3
GEN-ISO
100
AcDb2LineAngularDimension
 13
518.24082
 23
302.2653623179483
 33
0.0
 14
672.1579098602255
 24
294.1989094446685
 34
0.0
 15
518.24082
 25
297.81104
 35
0.0
 16
651.5641796879346
 26
296.9674397371928
 36
0.0
1001
ACAD
1000
DSTYLE
1002
{
1070
    50
1040
1.570796326794896
1002
}
1001
ACAD_DSTYLE_DIMINSPECT
1070
   396
1000
100%
1070
   395
1000

1070
   394
1070
    33
1070
   393
1070
     0
  0
LINE
  5
1548
330
A8E
100
AcDbEntity
  8
0
100
AcDbLine
 10
203.094276
 20
392.0700260000001
 30
0.0
 11
203.094276
 21
377.80956
 31
0.0
  0
HATCH
  5
154C
330
A8E
100
AcDbEntity
  8
8
100
AcDbHatch
 10
0.0
 20
0.0
 30
0.0
210
0.0
220
0.0
230
1.0
  2
_U
 70
     0
 71
     0
 91
        1
 92
        1
 93
        4
 72
     1
 10
203.094276
 20
392.0700260000001
 11
178.534637
 21
392.070026
 72
     1
 10
178.534637
 20
392.070026
 11
178.534637
 21
377.80956
 72
     1
 10
178.534637
 20
377.80956
 11
203.094276
 21
377.80956
 72
     1
 10
203.094276
 20
377.80956
 11
203.094276
 21
392.0700260000001
 97
        0
 75
     0
 76
     0
 52
134.9999719140474
 41
4.7
 77
     0
 78
     1
 53
134.9999719140474
 43
0.0
 44
0.0
 45
-3.323403500682533
 46
-3.323400242470214
 79
     0
 98
        1
 10
0.0
 20
0.0
1001
GENIUS_GENODEF_13
1002
{
1000
HIER
1070
     0
1002
}
1002
{
1000
MANEDIT
1070
     0
1002
}
1002
{
1000
NOSEL
1070
     0
1002
}
1002
{
1000
BEHIND
1070
     0
1002
}
1002
{
1000
OTHER
1070
     0
1002
}
1002
{
1000
REACTOR
1002
}
1001
GENIUS_GENOBJ-N-HTC_13
1002
{
1000
OWNER
1000
GEN
1002
}
1001
GENIUS_GENHATCH_13
1002
{
1000
DATA
1040
45.0
1042
2.5
1000
_U
1070
     0
1011
190.0346601025626
1021
384.1029818798684
1031
0.0
1002
}
1002
{
1000
UCS
1010
0.0
1020
0.0
1030
0.0
1010
1.0
1020
0.0
1030
0.0
1010
0.0
1020
1.0
1030
0.0
1002
}
  0
LINE
  5
1550
330
A8E
100
AcDbEntity
  8
0
100
AcDbLine
 10
423.382208
 20
392.0700260000001
 30
0.0
 11
423.382208
 21
377.80956
 31
0.0
  0
HATCH
  5
1552
330
A8E
100
AcDbEntity
  8
8
100
AcDbHatch
 10
0.0
 20
0.0
 30
0.0
210
0.0
220
0.0
230
1.0
  2
_U
 70
     0
 71
     0
 91
        1
 92
        1
 93
        5
 72
     1
 10
423.382208
 20
378.605096
 11
478.084299
 21
378.605096
 72
     1
 10
478.084299
 20
378.605096
 11
478.084299
 21
389.453412
 72
     2
 10
475.584299
 20
389.453412
 40
2.5
 50
0.0
 51
90.0
 73
     1
 72
     1
 10
475.584299
 20
391.953412
 11
423.382208
 21
391.953412
 72
     1
 10
423.382208
 20
391.953412
 11
423.382208
 21
378.605096
 97
        0
 75
     0
 76
     0
 52
134.9999719140474
 41
4.7
 77
     0
 78
     1
 53
134.9999719140474
 43
0.0
 44
0.0
 45
-3.323403500682533
 46
-3.323400242470214
 79
     0
 98
        1
 10
0.0
 20
0.0
1001
GENIUS_GENODEF_13
1002
{
1000
HIER
1070
     0
1002
}
1002
{
1000
MANEDIT
1070
     0
1002
}
1002
{
1000
NOSEL
1070
     0
1002
}
1002
{
1000
BEHIND
1070
     0
1002
}
1002
{
1000
OTHER
1070
     0
1002
}
1002
{
1000
REACTOR
1002
}
1001
GENIUS_GENOBJ-N-HTC_13
1002
{
1000
OWNER
1000
GEN
1002
}
1001
GENIUS_GENHATCH_13
1002
{
1000
DATA
1040
135.0
1042
4.7
1000
_U
1070
     0
1011
440.7704548959386
1021
385.4459843273087
1031
0.0
1002
}
1002
{
1000
UCS
1010
0.0
1020
0.0
1030
0.0
1010
1.0
1020
0.0
1030
0.0
1010
0.0
1020
1.0
1030
0.0
1002
}
  0
VIEWPORT
  5
22
330
A8B
100
AcDbEntity
 67
     1
  8
0
100
AcDbViewport
 10
261.5176990000001
 20
148.5
 30
0.0
 40
523.0353980000001
 41
297.0
 68
     1
 69
     1
 12
261.5176990000001
 22
148.5
 13
0.0
 23
0.0
 14
1.0
 24
1.0
 15
10.0
 25
10.0
 16
0.0
 26
0.0
 36
1.0
 17
0.0
 27
0.0
 37
0.0
 42
50.0
 43
0.0
 44
0.0
 45
297.0
 50
0.0
 51
0.0
 72
   100
 90
    32800
  1

281
     0
 71
     1
 74
     0
110
0.0
120
0.0
130
0.0
111
1.0
121
0.0
131
0.0
112
0.0
122
1.0
132
0.0
 79
     0
146
0.0
170
     0
1001
GENIUS_GENOBJ-N-SDF_13
1002
{
1000
OWNER
1000
GEN
1002
}
1001
GENIUS_GENODEF_13
1002
{
1000
HIER
1070
     0
1002
}
1002
{
1000
MANEDIT
1070
     0
1002
}
1002
{
1000
NOSEL
1070
     0
1002
}
1002
{
1000
BEHIND
1070
     0
1002
}
1002
{
1000
OTHER
1070
     0
1002
}
1002
{
1000
REACTOR
1002
}
1001
GENIUS_GENSCREG_15
1000
PF
1040
1.0
1000
DF
1040
1.0
1000
MIN
1011
0.0
1021
0.0
1031
0.0
1000
MAX
1011
523.0353980000001
1021
297.0
1031
0.0
1000
FLAGS
1070
     4
  0
ENDSEC
  0
SECTION
  2
OBJECTS
  0
DICTIONARY
  5
A83
330
0
100
AcDbDictionary
281
     1
  3
ACAD_2007HEADERVARS_RT
350
1556
  3
ACAD_COLOR
350
B28
  3
ACAD_GROUP
350
A84
  3
ACAD_LAYOUT
350
B2B
  3
ACAD_MATERIAL
350
B27
  3
ACAD_MLEADERSTYLE
350
C4B
  3
ACAD_MLINESTYLE
350
A91
  3
ACAD_PLOTSETTINGS
350
B2C
  3
ACAD_PLOTSTYLENAME
350
B25
  3
ACAD_SCALELIST
350
C39
  3
ACAD_TABLESTYLE
350
B29
  3
ACAD_VISUALSTYLE
350
C28
  3
ACDB_RECOMPOSE_DATA
350
E68
  3
ACDBVARIABLEDICTIONARY
350
AFE
  3
AcmDictionary
350
B8A
  3
AMG
350
B30
  3
AMGSNAPSETTINGS
350
BFA
  0
DICTIONARY
  5
F61
330
A79
100
AcDbDictionary
280
     1
281
     1
  3
AMLAYER_GROUPCOLORS
360
F62
  0
DICTIONARY
  5
D80
330
A85
100
AcDbDictionary
280
     1
281
     1
  3
ADSK_XREC_LAYER_RECONCILED
360
D81
  0
DICTIONARY
  5
D82
330
AE8
100
AcDbDictionary
280
     1
281
     1
  3
ADSK_XREC_LAYER_RECONCILED
360
D83
  0
DICTIONARY
  5
D84
330
AEB
100
AcDbDictionary
280
     1
281
     1
  3
ADSK_XREC_LAYER_RECONCILED
360
D85
  0
DICTIONARY
  5
D86
330
AEC
100
AcDbDictionary
280
     1
281
     1
  3
ADSK_XREC_LAYER_RECONCILED
360
D87
  0
DICTIONARY
  5
D88
330
AED
100
AcDbDictionary
280
     1
281
     1
  3
ADSK_XREC_LAYER_RECONCILED
360
D89
  0
DICTIONARY
  5
D8A
330
AEE
100
AcDbDictionary
280
     1
281
     1
  3
ADSK_XREC_LAYER_RECONCILED
360
D8B
  0
DICTIONARY
  5
D8C
330
AEF
100
AcDbDictionary
280
     1
281
     1
  3
ADSK_XREC_LAYER_RECONCILED
360
D8D
  0
DICTIONARY
  5
D8E
330
AF0
100
AcDbDictionary
280
     1
281
     1
  3
ADSK_XREC_LAYER_RECONCILED
360
D8F
  0
DICTIONARY
  5
D90
330
AF1
100
AcDbDictionary
280
     1
281
     1
  3
ADSK_XREC_LAYER_RECONCILED
360
D91
  0
DICTIONARY
  5
D92
330
AF2
100
AcDbDictionary
280
     1
281
     1
  3
ADSK_XREC_LAYER_RECONCILED
360
D93
  0
DICTIONARY
  5
D94
330
AF3
100
AcDbDictionary
280
     1
281
     1
  3
ADSK_XREC_LAYER_RECONCILED
360
D95
  0
DICTIONARY
  5
D96
330
AF5
100
AcDbDictionary
280
     1
281
     1
  3
ADSK_XREC_LAYER_RECONCILED
360
D97
  0
DICTIONARY
  5
D98
330
AF6
100
AcDbDictionary
280
     1
281
     1
  3
ADSK_XREC_LAYER_RECONCILED
360
D99
  0
DICTIONARY
  5
D9A
330
AF7
100
AcDbDictionary
280
     1
281
     1
  3
ADSK_XREC_LAYER_RECONCILED
360
D9B
  0
DICTIONARY
  5
D9C
330
AF8
100
AcDbDictionary
280
     1
281
     1
  3
ADSK_XREC_LAYER_RECONCILED
360
D9D
  0
DICTIONARY
  5
D9E
330
AF9
100
AcDbDictionary
280
     1
281
     1
  3
ADSK_XREC_LAYER_RECONCILED
360
D9F
  0
DICTIONARY
  5
DA6
330
CD0
100
AcDbDictionary
280
     1
281
     1
  3
ADSK_XREC_LAYER_RECONCILED
360
DA7
  0
DICTIONARY
  5
F66
330
A8E
100
AcDbDictionary
280
     1
281
     1
  3
ACAD_SORTENTS
360
F67
  0
DICTIONARY
  5
1556
102
{ACAD_REACTORS
330
A83
102
}
330
A83
100
AcDbDictionary
281
     1
  3
DIMJOGANG
350
1557
  0
DICTIONARY
  5
B28
102
{ACAD_REACTORS
330
A83
102
}
330
A83
100
AcDbDictionary
281
     1
  0
DICTIONARY
  5
A84
102
{ACAD_REACTORS
330
A83
102
}
330
A83
100
AcDbDictionary
281
     1
  0
DICTIONARY
  5
B2B
102
{ACAD_REACTORS
330
A83
102
}
330
A83
100
AcDbDictionary
281
     1
  3
Layout1
350
B2E
  3
Model
350
B2D
  0
DICTIONARY
  5
B27
102
{ACAD_REACTORS
330
A83
102
}
330
A83
100
AcDbDictionary
281
     1
  3
ByBlock
350
C18
  3
ByLayer
350
C10
  3
Global
350
C20
  0
DICTIONARY
  5
C4B
102
{ACAD_REACTORS
330
A83
102
}
330
A83
100
AcDbDictionary
281
     1
  3
Standard
350
C4C
  0
DICTIONARY
  5
A91
102
{ACAD_REACTORS
330
A83
102
}
330
A83
100
AcDbDictionary
281
     1
  3
STANDARD
350
A92
  0
DICTIONARY
  5
B2C
102
{ACAD_REACTORS
330
A83
102
}
330
A83
100
AcDbDictionary
281
     1
  0
ACDBDICTIONARYWDFLT
  5
B25
102
{ACAD_REACTORS
330
A83
102
}
330
A83
100
AcDbDictionary
281
     1
  3
Normal
350
B26
100
AcDbDictionaryWithDefault
340
B26
  0
DICTIONARY
  5
C39
102
{ACAD_REACTORS
330
A83
102
}
330
A83
100
AcDbDictionary
281
     1
  3
A0
350
C3A
  3
A1
350
C3B
  3
A2
350
C3C
  3
A3
350
C3D
  3
A4
350
C3E
  3
A5
350
C3F
  3
A6
350
C40
  3
A7
350
C41
  3
A8
350
C42
  3
A9
350
C43
  3
B0
350
C44
  3
B1
350
C45
  3
B2
350
C46
  3
B3
350
C47
  3
B4
350
C48
  3
B5
350
C49
  3
B6
350
C4A
  0
DICTIONARY
  5
B29
102
{ACAD_REACTORS
330
A83
102
}
330
A83
100
AcDbDictionary
281
     1
  3
Standard
350
B2A
  0
DICTIONARY
  5
C28
102
{ACAD_REACTORS
330
A83
102
}
330
A83
100
AcDbDictionary
281
     1
  3
2dWireframe
350
C2E
  3
3D Hidden
350
C30
  3
3dWireframe
350
C2F
  3
Basic
350
C2D
  3
Brighten
350
C34
  3
ColorChange
350
C38
  3
Conceptual
350
C31
  3
Dim
350
C33
  3
Facepattern
350
C37
  3
Flat
350
C29
  3
FlatWithEdges
350
C2A
  3
Gouraud
350
C2B
  3
GouraudWithEdges
350
C2C
  3
Linepattern
350
C36
  3
Realistic
350
C32
  3
Thicken
350
C35
  0
XRECORD
  5
E68
102
{ACAD_REACTORS
330
A83
102
}
330
A83
100
AcDbXrecord
280
     1
 90
        1
330
B2A
  0
DICTIONARY
  5
AFE
102
{ACAD_REACTORS
330
A83
102
}
330
A83
100
AcDbDictionary
281
     1
  3
CANNOSCALE
350
E6B
  3
CMLEADERSTYLE
350
E69
  3
CTABLESTYLE
350
BF9
  3
DIMADEC
350
AFF
  3
DIMASSOC
350
C01
  3
LAYEREVAL
350
E6D
  3
LAYERNOTIFY
350
E6E
  3
LIGHTINGUNITS
350
E6C
  3
MSLTSCALE
350
E6A
  3
PROJECTNAME
350
C02
  0
DICTIONARY
  5
B8A
102
{ACAD_REACTORS
330
A83
102
}
330
A83
100
AcDbDictionary
281
     1
  3
AcmStdDictionary
350
B95
  3
AMDTSECTSYM_ARROWCOLOR
350
BB8
  0
DICTIONARY
  5
B30
102
{ACAD_REACTORS
330
A83
102
}
330
A83
100
AcDbDictionary
281
     1
  0
DICTIONARY
  5
BFA
102
{ACAD_REACTORS
330
A83
102
}
330
A83
100
AcDbDictionary
281
     1
  0
DICTIONARY
  5
F62
102
{ACAD_REACTORS
330
F61
102
}
330
F61
100
AcDbDictionary
280
     1
281
     1
  0
XRECORD
  5
D81
102
{ACAD_REACTORS
330
D80
102
}
330
D80
100
AcDbXrecord
280
     1
290
     1
  0
XRECORD
  5
D83
102
{ACAD_REACTORS
330
D82
102
}
330
D82
100
AcDbXrecord
280
     1
290
     1
  0
XRECORD
  5
D85
102
{ACAD_REACTORS
330
D84
102
}
330
D84
100
AcDbXrecord
280
     1
290
     1
  0
XRECORD
  5
D87
102
{ACAD_REACTORS
330
D86
102
}
330
D86
100
AcDbXrecord
280
     1
290
     1
  0
XRECORD
  5
D89
102
{ACAD_REACTORS
330
D88
102
}
330
D88
100
AcDbXrecord
280
     1
290
     1
  0
XRECORD
  5
D8B
102
{ACAD_REACTORS
330
D8A
102
}
330
D8A
100
AcDbXrecord
280
     1
290
     1
  0
XRECORD
  5
D8D
102
{ACAD_REACTORS
330
D8C
102
}
330
D8C
100
AcDbXrecord
280
     1
290
     1
  0
XRECORD
  5
D8F
102
{ACAD_REACTORS
330
D8E
102
}
330
D8E
100
AcDbXrecord
280
     1
290
     1
  0
XRECORD
  5
D91
102
{ACAD_REACTORS
330
D90
102
}
330
D90
100
AcDbXrecord
280
     1
290
     1
  0
XRECORD
  5
D93
102
{ACAD_REACTORS
330
D92
102
}
330
D92
100
AcDbXrecord
280
     1
290
     1
  0
XRECORD
  5
D95
102
{ACAD_REACTORS
330
D94
102
}
330
D94
100
AcDbXrecord
280
     1
290
     1
  0
XRECORD
  5
D97
102
{ACAD_REACTORS
330
D96
102
}
330
D96
100
AcDbXrecord
280
     1
290
     1
  0
XRECORD
  5
D99
102
{ACAD_REACTORS
330
D98
102
}
330
D98
100
AcDbXrecord
280
     1
290
     1
  0
XRECORD
  5
D9B
102
{ACAD_REACTORS
330
D9A
102
}
330
D9A
100
AcDbXrecord
280
     1
290
     1
  0
XRECORD
  5
D9D
102
{ACAD_REACTORS
330
D9C
102
}
330
D9C
100
AcDbXrecord
280
     1
290
     1
  0
XRECORD
  5
D9F
102
{ACAD_REACTORS
330
D9E
102
}
330
D9E
100
AcDbXrecord
280
     1
290
     1
  0
XRECORD
  5
DA7
102
{ACAD_REACTORS
330
DA6
102
}
330
DA6
100
AcDbXrecord
280
     1
290
     1
  0
SORTENTSTABLE
  5
F67
102
{ACAD_REACTORS
330
F66
102
}
330
F66
100
AcDbSortentsTable
330
A8E
331
2CE
  5
2D5
331
2C6
  5
2CE
331
57C
  5
57E
331
305
  5
307
331
301
  5
303
331
67B
  5
67D
331
338
  5
33A
331
6BA
  5
6D1
331
7E8
  5
805
331
7E4
  5
7E6
331
85B
  5
869
331
1313
  5
130C
331
2BE
  5
2C0
331
2FD
  5
300
331
2BA
  5
2BE
331
2F9
  5
2FB
331
2F5
  5
2F8
331
334
  5
338
331
2F1
  5
2F3
331
667
  5
67B
331
9E4
  5
9E9
331
663
  5
666
331
9E0
  5
9E2
331
6A2
  5
6B9
331
892
  5
983
331
9DC
  5
9E1
331
130B
  5
1312
331
1128
  5
1138
331
2ED
  5
2EF
331
2E9
  5
2EB
331
2A6
  5
2A6
331
324
  5
326
331
2E5
  5
2E7
331
2A2
  5
2A2
331
2E1
  5
2E3
331
31C
  5
322
331
653
  5
660
331
318
  5
31B
331
F65
  5
FCB
331
12D7
  5
12D8
331
1108
  5
111E
331
2DD
  5
2E0
331
2D9
  5
2DF
331
5B7
  5
65E
331
2D5
  5
2D8
331
314
  5
316
331
68E
  5
690
331
310
  5
312
331
68A
  5
68C
331
30C
  5
30E
331
686
  5
688
331
308
  5
30A
331
682
  5
684
331
F5D
  5
F5F
331
304
  5
306
331
57B
  5
57D
331
300
  5
302
331
67E
  5
682
331
33B
  5
57C
331
6B9
  5
6BB
331
129F
  5
12A5
331
1048
  5
10F4
331
2FC
  5
2FF
331
2F8
  5
2FA
331
337
  5
339
331
2F4
  5
2F7
331
333
  5
337
331
2B1
  5
2B7
331
9E3
  5
9E6
331
32F
  5
332
331
666
  5
669
331
2F0
  5
2F2
331
32B
  5
32E
331
8D8
  5
995
331
DB2
  5
F5D
331
1404
  5
1404
331
FCC
  5
101A
331
1127
  5
2AE
331
2AD
  5
2AD
331
2EC
  5
2EE
331
2E8
  5
2EA
331
65E
  5
661
331
2E4
  5
2E6
331
2E0
  5
2E2
331
31B
  5
31D
331
691
  5
69F
331
7B7
  5
7E2
331
1550
  5
1550
331
13B1
  5
13B0
331
1391
  5
1390
331
146E
  5
146E
331
2D8
  5
2DD
331
317
  5
319
331
2D4
  5
2D7
331
313
  5
315
331
68D
  5
68F
331
6FC
  5
74A
331
30F
  5
311
331
689
  5
68B
331
30B
  5
30D
331
685
  5
687
331
681
  5
683
331
869
  5
892
331
154C
  5
154A
331
1548
  5
1548
331
2C8
  5
2D4
331
57E
  5
653
331
307
  5
309
331
303
  5
305
331
2C0
  5
2C2
331
67D
  5
681
331
33A
  5
57B
331
7E6
  5
7E9
331
7E2
  5
7E5
331
2FF
  5
301
331
2FB
  5
2FD
331
2F7
  5
2F9
331
2F3
  5
2F5
331
9E6
  5
A28
331
332
  5
334
331
669
  5
67C
331
2B0
  5
2B1
331
9E2
  5
9E4
331
32E
  5
331
331
661
  5
664
331
FCB
  5
FCD
331
2EF
  5
2F1
331
2AC
  5
2AC
331
2EB
  5
2ED
331
2E7
  5
2E9
331
326
  5
32B
331
2E3
  5
2E5
331
322
  5
325
331
2A0
  5
2A0
331
70F
  5
75B
331
690
  5
693
331
82D
  5
863
331
111E
  5
1120
331
12DD
  5
1310
331
2DF
  5
2E1
331
29C
  5
29C
331
2D7
  5
2D9
331
316
  5
318
331
312
  5
314
331
68C
  5
68E
331
6FB
  5
70F
331
30E
  5
310
331
688
  5
68A
331
805
  5
85B
331
30A
  5
30C
331
684
  5
686
331
F5F
  5
FCA
331
CCF
  5
E3E
331
F5B
  5
F5E
331
1344
  5
2C8
331
10CE
  5
10F5
331
306
  5
308
331
57D
  5
5B7
331
302
  5
304
331
67C
  5
67E
331
339
  5
33B
331
6BB
  5
6FC
331
7E9
  5
82D
331
9E9
  5
CCF
331
7E5
  5
7E8
331
1314
  5
1313
331
1310
  5
12DD
331
1441
  5
1441
331
2FA
  5
2FC
331
2B7
  5
2BA
331
6B7
  5
6BA
331
2F2
  5
2F4
331
331
  5
333
331
74A
  5
7D5
331
32D
  5
32F
331
664
  5
667
331
7D5
  5
7E4
331
9E1
  5
9E3
331
329
  5
32D
331
660
  5
663
331
101A
  5
1048
331
FCE
  5
101D
331
130C
  5
1344
331
FCA
  5
FCC
331
2EE
  5
2F0
331
2EA
  5
2EC
331
2E6
  5
2E8
331
325
  5
329
331
69F
  5
6A3
331
2A3
  5
2A3
331
2E2
  5
2E4
331
31D
  5
324
331
319
  5
31C
331
693
  5
6A0
331
995
  5
9E0
331
A28
  5
CFF
331
87B
  5
8A7
331
1552
  5
1551
331
12D8
  5
130B
331
29B
  5
29B
331
315
  5
317
331
68F
  5
691
331
311
  5
313
331
68B
  5
68D
331
30D
  5
30F
331
687
  5
689
331
309
  5
30B
331
683
  5
685
331
F5E
  5
F63
331
863
  5
87B
331
10F5
  5
1108
  0
XRECORD
  5
1557
102
{ACAD_REACTORS
330
1556
102
}
330
1556
100
AcDbXrecord
280
     1
 40
1.570796326794896
  0
LAYOUT
  5
B2E
102
{ACAD_REACTORS
330
B2B
102
}
330
B2B
100
AcDbPlotSettings
  1

  2
Xerox Document Centre CS50 PS
  4

  6

 40
0.0
 41
0.0
 42
0.0
 43
0.0
 44
0.0
 45
0.0
 46
0.0
 47
0.0
 48
0.0
 49
0.0
140
0.0
141
0.0
142
1.0
143
1.0
 70
   688
 72
     0
 73
     0
 74
     5
  7

 75
    16
147
1.0
 76
     0
 77
     2
 78
   300
148
0.0
149
0.0
100
AcDbLayout
  1
Layout1
 70
     1
 71
     1
 10
0.0
 20
0.0
 11
420.0
 21
297.0
 12
0.0
 22
0.0
 32
0.0
 14
1.000000000000000E+20
 24
1.000000000000000E+20
 34
1.000000000000000E+20
 15
-1.000000000000000E+20
 25
-1.000000000000000E+20
 35
-1.000000000000000E+20
146
0.0
 13
0.0
 23
0.0
 33
0.0
 16
1.0
 26
0.0
 36
0.0
 17
0.0
 27
1.0
 37
0.0
 76
     0
330
A8B
331
22
  0
LAYOUT
  5
B2D
102
{ACAD_REACTORS
330
B2B
102
}
330
B2B
100
AcDbPlotSettings
  1

  2
Xerox Document Centre CS50 PS
  4

  6

 40
0.0
 41
0.0
 42
0.0
 43
0.0
 44
0.0
 45
0.0
 46
0.0
 47
0.0
 48
0.0
 49
0.0
140
0.0
141
0.0
142
1.0
143
1.0
 70
  1712
 72
     0
 73
     0
 74
     0
  7

 75
     0
147
1.0
 76
     0
 77
     2
 78
   300
148
0.0
149
0.0
100
AcDbLayout
  1
Model
 70
     1
 71
     0
 10
0.0
 20
0.0
 11
12.0
 21
9.0
 12
0.0
 22
0.0
 32
0.0
 14
0.0
 24
0.0
 34
0.0
 15
0.0
 25
0.0
 35
0.0
146
0.0
 13
0.0
 23
0.0
 33
0.0
 16
1.0
 26
0.0
 36
0.0
 17
0.0
 27
1.0
 37
0.0
 76
     0
330
A8E
331
C03
  0
MATERIAL
  5
C18
102
{ACAD_XDICTIONARY
360
C19
102
}
102
{ACAD_REACTORS
330
B27
102
}
330
B27
100
AcDbMaterial
  1
ByBlock
 72
     0
 43
0.0208333333333333
 43
0.0
 43
0.0
 43
0.0
 43
0.0
 43
0.0208333333333333
 43
0.0
 43
0.0
 43
0.0
 43
0.0
 43
1.0
 43
0.0
 43
0.0
 43
0.0
 43
0.0
 43
1.0
 77
     0
 47
0.0208333333333333
 47
0.0
 47
0.0
 47
0.0
 47
0.0
 47
0.0208333333333333
 47
0.0
 47
0.0
 47
0.0
 47
0.0
 47
1.0
 47
0.0
 47
0.0
 47
0.0
 47
0.0
 47
1.0
171
     0
 49
0.0208333333333333
 49
0.0
 49
0.0
 49
0.0
 49
0.0
 49
0.0208333333333333
 49
0.0
 49
0.0
 49
0.0
 49
0.0
 49
1.0
 49
0.0
 49
0.0
 49
0.0
 49
0.0
 49
1.0
175
     0
142
0.0208333333333333
142
0.0
142
0.0
142
0.0
142
0.0
142
0.0208333333333333
142
0.0
142
0.0
142
0.0
142
0.0
142
1.0
142
0.0
142
0.0
142
0.0
142
0.0
142
1.0
179
     0
144
0.0208333333333333
144
0.0
144
0.0
144
0.0
144
0.0
144
0.0208333333333333
144
0.0
144
0.0
144
0.0
144
0.0
144
1.0
144
0.0
144
0.0
144
0.0
144
0.0
144
1.0
147
0.0208333333333333
147
0.0
147
0.0
147
0.0
147
0.0
147
0.0208333333333333
147
0.0
147
0.0
147
0.0
147
0.0
147
1.0
147
0.0
147
0.0
147
0.0
147
0.0
147
1.0
  0
MATERIAL
  5
C10
102
{ACAD_XDICTIONARY
360
C11
102
}
102
{ACAD_REACTORS
330
B27
102
}
330
B27
100
AcDbMaterial
  1
ByLayer
 72
     0
 43
0.0208333333333333
 43
0.0
 43
0.0
 43
0.0
 43
0.0
 43
0.0208333333333333
 43
0.0
 43
0.0
 43
0.0
 43
0.0
 43
1.0
 43
0.0
 43
0.0
 43
0.0
 43
0.0
 43
1.0
 77
     0
 47
0.0208333333333333
 47
0.0
 47
0.0
 47
0.0
 47
0.0
 47
0.0208333333333333
 47
0.0
 47
0.0
 47
0.0
 47
0.0
 47
1.0
 47
0.0
 47
0.0
 47
0.0
 47
0.0
 47
1.0
171
     0
 49
0.0208333333333333
 49
0.0
 49
0.0
 49
0.0
 49
0.0
 49
0.0208333333333333
 49
0.0
 49
0.0
 49
0.0
 49
0.0
 49
1.0
 49
0.0
 49
0.0
 49
0.0
 49
0.0
 49
1.0
175
     0
142
0.0208333333333333
142
0.0
142
0.0
142
0.0
142
0.0
142
0.0208333333333333
142
0.0
142
0.0
142
0.0
142
0.0
142
1.0
142
0.0
142
0.0
142
0.0
142
0.0
142
1.0
179
     0
144
0.0208333333333333
144
0.0
144
0.0
144
0.0
144
0.0
144
0.0208333333333333
144
0.0
144
0.0
144
0.0
144
0.0
144
1.0
144
0.0
144
0.0
144
0.0
144
0.0
144
1.0
147
0.0208333333333333
147
0.0
147
0.0
147
0.0
147
0.0
147
0.0208333333333333
147
0.0
147
0.0
147
0.0
147
0.0
147
1.0
147
0.0
147
0.0
147
0.0
147
0.0
147
1.0
  0
MATERIAL
  5
C20
102
{ACAD_XDICTIONARY
360
C21
102
}
102
{ACAD_REACTORS
330
B27
102
}
330
B27
100
AcDbMaterial
  1
Global
 72
     0
 43
0.0208333333333333
 43
0.0
 43
0.0
 43
0.0
 43
0.0
 43
0.0208333333333333
 43
0.0
 43
0.0
 43
0.0
 43
0.0
 43
1.0
 43
0.0
 43
0.0
 43
0.0
 43
0.0
 43
1.0
 77
     0
 47
0.0208333333333333
 47
0.0
 47
0.0
 47
0.0
 47
0.0
 47
0.0208333333333333
 47
0.0
 47
0.0
 47
0.0
 47
0.0
 47
1.0
 47
0.0
 47
0.0
 47
0.0
 47
0.0
 47
1.0
171
     0
 49
0.0208333333333333
 49
0.0
 49
0.0
 49
0.0
 49
0.0
 49
0.0208333333333333
 49
0.0
 49
0.0
 49
0.0
 49
0.0
 49
1.0
 49
0.0
 49
0.0
 49
0.0
 49
0.0
 49
1.0
175
     0
142
0.0208333333333333
142
0.0
142
0.0
142
0.0
142
0.0
142
0.0208333333333333
142
0.0
142
0.0
142
0.0
142
0.0
142
1.0
142
0.0
142
0.0
142
0.0
142
0.0
142
1.0
179
     0
144
0.0208333333333333
144
0.0
144
0.0
144
0.0
144
0.0
144
0.0208333333333333
144
0.0
144
0.0
144
0.0
144
0.0
144
1.0
144
0.0
144
0.0
144
0.0
144
0.0
144
1.0
147
0.0208333333333333
147
0.0
147
0.0
147
0.0
147
0.0
147
0.0208333333333333
147
0.0
147
0.0
147
0.0
147
0.0
147
1.0
147
0.0
147
0.0
147
0.0
147
0.0
147
1.0
  0
MLEADERSTYLE
  5
C4C
102
{ACAD_REACTORS
330
C4B
102
}
330
C4B
100
AcDbMLeaderStyle
170
     2
171
     1
172
     0
 90
        2
 40
0.0
 41
0.0
173
     1
 91
-1056964608
340
A88
 92
       -2
290
     1
 42
2.0
291
     1
 43
0.36
  3
Standard
 44
4.0
300

342
A86
174
     1
178
     6
175
     1
176
     0
 93
-1056964608
 45
4.0
292
     0
297
     0
 46
4.0
 94
-1056964608
 47
1.0
 49
1.0
140
1.0
293
     1
141
0.0
294
     1
177
     0
142
1.0
295
     0
296
     0
143
0.125
1001
ACAD_MLEADERVER
1070
     2
  0
MLINESTYLE
  5
A92
102
{ACAD_REACTORS
330
A91
102
}
330
A91
100
AcDbMlineStyle
  2
STANDARD
 70
     0
  3

 62
   256
 51
90.0
 52
90.0
 71
     2
 49
0.5
 62
   256
  6
BYLAYER
 49
-0.5
 62
   256
  6
BYLAYER
  0
ACDBPLACEHOLDER
  5
B26
102
{ACAD_REACTORS
330
B25
102
}
330
B25
  0
SCALE
  5
C3A
102
{ACAD_REACTORS
330
C39
102
}
330
C39
100
AcDbScale
 70
     0
300
1:1
140
1.0
141
1.0
290
     1
  0
SCALE
  5
C3B
102
{ACAD_REACTORS
330
C39
102
}
330
C39
100
AcDbScale
 70
     0
300
1:2
140
1.0
141
2.0
290
     0
  0
SCALE
  5
C3C
102
{ACAD_REACTORS
330
C39
102
}
330
C39
100
AcDbScale
 70
     0
300
1:4
140
1.0
141
4.0
290
     0
  0
SCALE
  5
C3D
102
{ACAD_REACTORS
330
C39
102
}
330
C39
100
AcDbScale
 70
     0
300
1:5
140
1.0
141
5.0
290
     0
  0
SCALE
  5
C3E
102
{ACAD_REACTORS
330
C39
102
}
330
C39
100
AcDbScale
 70
     0
300
1:8
140
1.0
141
8.0
290
     0
  0
SCALE
  5
C3F
102
{ACAD_REACTORS
330
C39
102
}
330
C39
100
AcDbScale
 70
     0
300
1:10
140
1.0
141
10.0
290
     0
  0
SCALE
  5
C40
102
{ACAD_REACTORS
330
C39
102
}
330
C39
100
AcDbScale
 70
     0
300
1:16
140
1.0
141
16.0
290
     0
  0
SCALE
  5
C41
102
{ACAD_REACTORS
330
C39
102
}
330
C39
100
AcDbScale
 70
     0
300
1:20
140
1.0
141
20.0
290
     0
  0
SCALE
  5
C42
102
{ACAD_REACTORS
330
C39
102
}
330
C39
100
AcDbScale
 70
     0
300
1:30
140
1.0
141
30.0
290
     0
  0
SCALE
  5
C43
102
{ACAD_REACTORS
330
C39
102
}
330
C39
100
AcDbScale
 70
     0
300
1:40
140
1.0
141
40.0
290
     0
  0
SCALE
  5
C44
102
{ACAD_REACTORS
330
C39
102
}
330
C39
100
AcDbScale
 70
     0
300
1:50
140
1.0
141
50.0
290
     0
  0
SCALE
  5
C45
102
{ACAD_REACTORS
330
C39
102
}
330
C39
100
AcDbScale
 70
     0
300
1:100
140
1.0
141
100.0
290
     0
  0
SCALE
  5
C46
102
{ACAD_REACTORS
330
C39
102
}
330
C39
100
AcDbScale
 70
     0
300
2:1
140
2.0
141
1.0
290
     0
  0
SCALE
  5
C47
102
{ACAD_REACTORS
330
C39
102
}
330
C39
100
AcDbScale
 70
     0
300
4:1
140
4.0
141
1.0
290
     0
  0
SCALE
  5
C48
102
{ACAD_REACTORS
330
C39
102
}
330
C39
100
AcDbScale
 70
     0
300
8:1
140
8.0
141
1.0
290
     0
  0
SCALE
  5
C49
102
{ACAD_REACTORS
330
C39
102
}
330
C39
100
AcDbScale
 70
     0
300
10:1
140
10.0
141
1.0
290
     0
  0
SCALE
  5
C4A
102
{ACAD_REACTORS
330
C39
102
}
330
C39
100
AcDbScale
 70
     0
300
100:1
140
100.0
141
1.0
290
     0
  0
TABLESTYLE
  5
B2A
102
{ACAD_XDICTIONARY
360
E66
102
}
102
{ACAD_REACTORS
330
B29
102
}
330
B29
100
AcDbTableStyle
  3
Standard
 70
     0
 71
     0
 40
1.5
 41
1.5
280
     0
281
     0
  7
STANDARD
140
4.5
170
     2
 62
     0
 63
     7
283
     0
274
    -2
284
     1
 64
     0
275
    -2
285
     1
 65
     0
276
    -2
286
     1
 66
     0
277
    -2
287
     1
 67
     0
278
    -2
288
     1
 68
     0
279
    -2
289
     1
 69
     0
  7
STANDARD
140
6.0
170
     5
 62
     0
 63
     7
283
     0
274
    -2
284
     1
 64
     0
275
    -2
285
     1
 65
     0
276
    -2
286
     1
 66
     0
277
    -2
287
     1
 67
     0
278
    -2
288
     1
 68
     0
279
    -2
289
     1
 69
     0
  7
STANDARD
140
4.5
170
     5
 62
     0
 63
     7
283
     0
274
    -2
284
     1
 64
     0
275
    -2
285
     1
 65
     0
276
    -2
286
     1
 66
     0
277
    -2
287
     1
 67
     0
278
    -2
288
     1
 68
     0
279
    -2
289
     1
 69
     0
  0
VISUALSTYLE
  5
C2E
102
{ACAD_REACTORS
330
C28
102
}
330
C28
100
AcDbVisualStyle
  2
2dWireframe
 70
     4
 71
     0
 72
     2
 73
     0
 90
        0
 40
-0.6
 41
-30.0
 62
     5
 63
     7
421
 16777215
 74
     1
 91
        4
 64
     7
 65
   257
 75
     1
175
     1
 42
1.0
 92
        0
 66
   257
 43
1.0
 76
     1
 77
     6
 78
     2
 67
     7
 79
     5
170
     0
171
     0
290
     0
174
     0
 93
        1
 44
0.0
173
     0
291
     0
 45
0.0
1001
ACAD
1000
AcDbSavedByObjectVersion
1070
     0
  0
VISUALSTYLE
  5
C30
102
{ACAD_REACTORS
330
C28
102
}
330
C28
100
AcDbVisualStyle
  2
3D Hidden
 70
     6
 71
     1
 72
     2
 73
     2
 90
        0
 40
-0.6
 41
-30.0
 62
     5
 63
     7
421
 16777215
 74
     2
 91
        2
 64
     7
 65
   257
 75
     2
175
     1
 42
40.0
 92
        0
 66
   257
 43
1.0
 76
     1
 77
     6
 78
     2
 67
     7
 79
     3
170
     0
171
     0
290
     0
174
     0
 93
        1
 44
0.0
173
     0
291
     0
 45
0.0
1001
ACAD
1000
AcDbSavedByObjectVersion
1070
     0
  0
VISUALSTYLE
  5
C2F
102
{ACAD_REACTORS
330
C28
102
}
330
C28
100
AcDbVisualStyle
  2
3dWireframe
 70
     5
 71
     0
 72
     2
 73
     0
 90
        0
 40
-0.6
 41
-30.0
 62
     5
 63
     7
421
 16777215
 74
     1
 91
        4
 64
     7
 65
   257
 75
     1
175
     1
 42
1.0
 92
        0
 66
   257
 43
1.0
 76
     1
 77
     6
 78
     2
 67
     7
 79
     5
170
     0
171
     0
290
     0
174
     0
 93
        1
 44
0.0
173
     0
291
     0
 45
0.0
1001
ACAD
1000
AcDbSavedByObjectVersion
1070
     0
  0
VISUALSTYLE
  5
C2D
102
{ACAD_REACTORS
330
C28
102
}
330
C28
100
AcDbVisualStyle
  2
Basic
 70
     7
 71
     1
 72
     0
 73
     1
 90
        0
 40
-0.6
 41
-30.0
 62
     5
 63
     7
421
 16777215
 74
     0
 91
        4
 64
     7
 65
   257
 75
     1
175
     1
 42
1.0
 92
        8
 66
     7
 43
1.0
 76
     1
 77
     6
 78
     2
 67
     7
 79
     5
170
     0
171
     0
290
     0
174
     0
 93
        1
 44
0.0
173
     0
291
     1
 45
0.0
1001
ACAD
1000
AcDbSavedByObjectVersion
1070
     0
  0
VISUALSTYLE
  5
C34
102
{ACAD_REACTORS
330
C28
102
}
330
C28
100
AcDbVisualStyle
  2
Brighten
 70
    12
 71
     2
 72
     2
 73
     0
 90
        0
 40
-0.6
 41
-30.0
 62
     5
 63
     7
421
 16777215
 74
     1
 91
        4
 64
     7
 65
   257
 75
     1
175
     1
 42
1.0
 92
        8
 66
     7
 43
1.0
 76
     1
 77
     6
 78
     2
 67
     7
 79
     5
170
     0
171
     0
290
     0
174
     0
 93
        1
 44
50.0
173
     0
291
     1
 45
0.0
1001
ACAD
1000
AcDbSavedByObjectVersion
1070
     0
  0
VISUALSTYLE
  5
C38
102
{ACAD_REACTORS
330
C28
102
}
330
C28
100
AcDbVisualStyle
  2
ColorChange
 70
    16
 71
     2
 72
     2
 73
     3
 90
        0
 40
-0.6
 41
-30.0
 62
     5
 63
     8
421
  8421504
 74
     1
 91
        4
 64
     7
 65
   257
 75
     1
175
     1
 42
1.0
 92
        8
 66
     8
424
  8421504
 43
1.0
 76
     1
 77
     6
 78
     2
 67
     7
 79
     5
170
     0
171
     0
290
     0
174
     0
 93
        1
 44
0.0
173
     0
291
     1
 45
0.0
1001
ACAD
1000
AcDbSavedByObjectVersion
1070
     0
  0
VISUALSTYLE
  5
C31
102
{ACAD_REACTORS
330
C28
102
}
330
C28
100
AcDbVisualStyle
  2
Conceptual
 70
     9
 71
     3
 72
     2
 73
     0
 90
        0
 40
-0.6
 41
-30.0
 62
     5
 63
     7
421
 16777215
 74
     2
 91
        2
 64
     7
 65
   257
 75
     1
175
     1
 42
40.0
 92
        8
 66
     7
 43
1.0
 76
     1
 77
     6
 78
     2
 67
     7
 79
     3
170
     0
171
     0
290
     0
174
     0
 93
        1
 44
0.0
173
     0
291
     0
 45
0.0
1001
ACAD
1000
AcDbSavedByObjectVersion
1070
     0
  0
VISUALSTYLE
  5
C33
102
{ACAD_REACTORS
330
C28
102
}
330
C28
100
AcDbVisualStyle
  2
Dim
 70
    11
 71
     2
 72
     2
 73
     0
 90
        0
 40
-0.6
 41
-30.0
 62
     5
 63
     7
421
 16777215
 74
     1
 91
        4
 64
     7
 65
   257
 75
     1
175
     1
 42
1.0
 92
        8
 66
     7
 43
1.0
 76
     1
 77
     6
 78
     2
 67
     7
 79
     5
170
     0
171
     0
290
     0
174
     0
 93
        1
 44
-50.0
173
     0
291
     1
 45
0.0
1001
ACAD
1000
AcDbSavedByObjectVersion
1070
     0
  0
VISUALSTYLE
  5
C37
102
{ACAD_REACTORS
330
C28
102
}
330
C28
100
AcDbVisualStyle
  2
Facepattern
 70
    15
 71
     2
 72
     2
 73
     0
 90
        0
 40
-0.6
 41
-30.0
 62
     5
 63
     7
421
 16777215
 74
     1
 91
        4
 64
     7
 65
   257
 75
     1
175
     1
 42
1.0
 92
        8
 66
     7
 43
1.0
 76
     1
 77
     6
 78
     2
 67
     7
 79
     5
170
     0
171
     0
290
     0
174
     0
 93
        1
 44
0.0
173
     0
291
     1
 45
0.0
1001
ACAD
1000
AcDbSavedByObjectVersion
1070
     0
  0
VISUALSTYLE
  5
C29
102
{ACAD_REACTORS
330
C28
102
}
330
C28
100
AcDbVisualStyle
  2
Flat
 70
     0
 71
     2
 72
     1
 73
     1
 90
        2
 40
-0.6
 41
30.0
 62
     5
 63
     7
421
 16777215
 74
     0
 91
        4
 64
     7
 65
   257
 75
     1
175
     1
 42
1.0
 92
        8
 66
     7
 43
1.0
 76
     1
 77
     6
 78
     2
 67
     7
 79
     5
170
     0
171
     0
290
     0
174
     0
 93
       13
 44
0.0
173
     0
291
     1
 45
0.0
1001
ACAD
1000
AcDbSavedByObjectVersion
1070
     0
  0
VISUALSTYLE
  5
C2A
102
{ACAD_REACTORS
330
C28
102
}
330
C28
100
AcDbVisualStyle
  2
FlatWithEdges
 70
     1
 71
     2
 72
     1
 73
     1
 90
        2
 40
-0.6
 41
30.0
 62
     5
 63
     7
421
 16777215
 74
     1
 91
        4
 64
     7
 65
   257
 75
     1
175
     1
 42
1.0
 92
        0
 66
   257
 43
1.0
 76
     1
 77
     6
 78
     2
 67
     7
 79
     5
170
     0
171
     0
290
     0
174
     0
 93
       13
 44
0.0
173
     0
291
     1
 45
0.0
1001
ACAD
1000
AcDbSavedByObjectVersion
1070
     0
  0
VISUALSTYLE
  5
C2B
102
{ACAD_REACTORS
330
C28
102
}
330
C28
100
AcDbVisualStyle
  2
Gouraud
 70
     2
 71
     2
 72
     2
 73
     1
 90
        2
 40
-0.6
 41
30.0
 62
     5
 63
     7
421
 16777215
 74
     0
 91
        4
 64
     7
 65
   257
 75
     1
175
     1
 42
1.0
 92
        0
 66
     7
 43
1.0
 76
     1
 77
     6
 78
     2
 67
     7
 79
     5
170
     0
171
     0
290
     0
174
     0
 93
       13
 44
0.0
173
     0
291
     1
 45
0.0
1001
ACAD
1000
AcDbSavedByObjectVersion
1070
     0
  0
VISUALSTYLE
  5
C2C
102
{ACAD_REACTORS
330
C28
102
}
330
C28
100
AcDbVisualStyle
  2
GouraudWithEdges
 70
     3
 71
     2
 72
     2
 73
     1
 90
        2
 40
-0.6
 41
30.0
 62
     5
 63
     7
421
 16777215
 74
     1
 91
        4
 64
     7
 65
   257
 75
     1
175
     1
 42
1.0
 92
        0
 66
   257
 43
1.0
 76
     1
 77
     6
 78
     2
 67
     7
 79
     5
170
     0
171
     0
290
     0
174
     0
 93
       13
 44
0.0
173
     0
291
     1
 45
0.0
1001
ACAD
1000
AcDbSavedByObjectVersion
1070
     0
  0
VISUALSTYLE
  5
C36
102
{ACAD_REACTORS
330
C28
102
}
330
C28
100
AcDbVisualStyle
  2
Linepattern
 70
    14
 71
     2
 72
     2
 73
     0
 90
        0
 40
-0.6
 41
-30.0
 62
     5
 63
     7
421
 16777215
 74
     1
 91
        4
 64
     7
 65
   257
 75
     7
175
     7
 42
1.0
 92
        8
 66
     7
 43
1.0
 76
     1
 77
     6
 78
     2
 67
     7
 79
     5
170
     0
171
     0
290
     0
174
     0
 93
        1
 44
0.0
173
     0
291
     1
 45
0.0
1001
ACAD
1000
AcDbSavedByObjectVersion
1070
     0
  0
VISUALSTYLE
  5
C32
102
{ACAD_REACTORS
330
C28
102
}
330
C28
100
AcDbVisualStyle
  2
Realistic
 70
     8
 71
     2
 72
     2
 73
     0
 90
        0
 40
-0.6
 41
-30.0
 62
     5
 63
     7
421
 16777215
 74
     1
 91
        0
 64
     7
 65
   257
 75
     1
175
     1
 42
1.0
 92
        8
 66
     8
424
  7895160
 43
1.0
 76
     1
 77
     6
 78
     2
 67
     7
 79
     5
170
     0
171
     0
290
     0
174
     0
 93
       13
 44
0.0
173
     0
291
     0
 45
0.0
1001
ACAD
1000
AcDbSavedByObjectVersion
1070
     0
  0
VISUALSTYLE
  5
C35
102
{ACAD_REACTORS
330
C28
102
}
330
C28
100
AcDbVisualStyle
  2
Thicken
 70
    13
 71
     2
 72
     2
 73
     0
 90
        0
 40
-0.6
 41
-30.0
 62
     5
 63
     7
421
 16777215
 74
     1
 91
        4
 64
     7
 65
   257
 75
     1
175
     1
 42
1.0
 92
       12
 66
     7
 43
1.0
 76
     1
 77
     6
 78
     2
 67
     7
 79
     5
170
     0
171
     0
290
     0
174
     0
 93
        1
 44
0.0
173
     0
291
     1
 45
0.0
1001
ACAD
1000
AcDbSavedByObjectVersion
1070
     0
  0
DICTIONARYVAR
  5
E6B
102
{ACAD_REACTORS
330
AFE
102
}
330
AFE
100
DictionaryVariables
280
     0
  1
1:1
  0
DICTIONARYVAR
  5
E69
102
{ACAD_REACTORS
330
AFE
102
}
330
AFE
100
DictionaryVariables
280
     0
  1
STANDARD
  0
DICTIONARYVAR
  5
BF9
102
{ACAD_REACTORS
330
AFE
102
}
330
AFE
100
DictionaryVariables
280
     0
  1
STANDARD
  0
DICTIONARYVAR
  5
AFF
102
{ACAD_REACTORS
330
AFE
102
}
330
AFE
100
DictionaryVariables
280
     0
  1
0
  0
DICTIONARYVAR
  5
C01
102
{ACAD_REACTORS
330
AFE
102
}
330
AFE
100
DictionaryVariables
280
     0
  1
1
  0
DICTIONARYVAR
  5
E6D
102
{ACAD_REACTORS
330
AFE
102
}
330
AFE
100
DictionaryVariables
280
     0
  1
1
  0
DICTIONARYVAR
  5
E6E
102
{ACAD_REACTORS
330
AFE
102
}
330
AFE
100
DictionaryVariables
280
     0
  1
15
  0
DICTIONARYVAR
  5
E6C
102
{ACAD_REACTORS
330
AFE
102
}
330
AFE
100
DictionaryVariables
280
     0
  1
0
  0
DICTIONARYVAR
  5
E6A
102
{ACAD_REACTORS
330
AFE
102
}
330
AFE
100
DictionaryVariables
280
     0
  1
0
  0
DICTIONARYVAR
  5
C02
102
{ACAD_REACTORS
330
AFE
102
}
330
AFE
100
DictionaryVariables
280
     0
  1

  0
DICTIONARY
  5
B95
102
{ACAD_REACTORS
330
B8A
102
}
330
B8A
100
AcDbDictionary
281
     1
  0
XRECORD
  5
BB8
102
{ACAD_REACTORS
330
B8A
102
}
330
B8A
100
AcDbXrecord
280
     1
 90
-1023410169
  0
DICTIONARY
  5
C19
330
C18
100
AcDbDictionary
280
     1
281
     1
  3
ACAD_XREC_ROUNDTRIP
360
155A
  3
BUMPTILE
360
C1B
  3
DIFFUSETILE
360
C1A
  3
OPACITYTILE
360
C1E
  3
REFLECTIONTILE
360
C1D
  3
REFRACTIONTILE
360
C1F
  3
SPECULARTILE
360
C1C
  0
DICTIONARY
  5
C11
330
C10
100
AcDbDictionary
280
     1
281
     1
  3
ACAD_XREC_ROUNDTRIP
360
1559
  3
BUMPTILE
360
C13
  3
DIFFUSETILE
360
C12
  3
OPACITYTILE
360
C16
  3
REFLECTIONTILE
360
C15
  3
REFRACTIONTILE
360
C17
  3
SPECULARTILE
360
C14
  0
DICTIONARY
  5
C21
330
C20
100
AcDbDictionary
280
     1
281
     1
  3
ACAD_XREC_ROUNDTRIP
360
155B
  3
BUMPTILE
360
C23
  3
DIFFUSETILE
360
C22
  3
OPACITYTILE
360
C26
  3
REFLECTIONTILE
360
C25
  3
REFRACTIONTILE
360
C27
  3
SPECULARTILE
360
C24
  0
DICTIONARY
  5
E66
330
B2A
100
AcDbDictionary
280
     1
281
     1
  3
ACAD_ROUNDTRIP_2008_TABLESTYLE_CELLSTYLEMAP
360
1555
  3
ACAD_XREC_ROUNDTRIP
360
1558
  0
XRECORD
  5
155A
102
{ACAD_REACTORS
330
C19
102
}
330
C19
100
AcDbXrecord
280
     1
102
MATERIAL
148
0.0
149
0.0
149
0.0
 93
        0
 94
      127
282
     0
 72
     0
 77
     0
171
     0
175
     0
179
     0
273
     0
  0
XRECORD
  5
C1B
102
{ACAD_REACTORS
330
C19
102
}
330
C19
100
AcDbXrecord
280
     1
270
     1
271
     1
  0
XRECORD
  5
C1A
102
{ACAD_REACTORS
330
C19
102
}
330
C19
100
AcDbXrecord
280
     1
270
     1
271
     1
  0
XRECORD
  5
C1E
102
{ACAD_REACTORS
330
C19
102
}
330
C19
100
AcDbXrecord
280
     1
270
     1
271
     1
  0
XRECORD
  5
C1D
102
{ACAD_REACTORS
330
C19
102
}
330
C19
100
AcDbXrecord
280
     1
270
     1
271
     1
  0
XRECORD
  5
C1F
102
{ACAD_REACTORS
330
C19
102
}
330
C19
100
AcDbXrecord
280
     1
270
     1
271
     1
  0
XRECORD
  5
C1C
102
{ACAD_REACTORS
330
C19
102
}
330
C19
100
AcDbXrecord
280
     1
270
     1
271
     1
  0
XRECORD
  5
1559
102
{ACAD_REACTORS
330
C11
102
}
330
C11
100
AcDbXrecord
280
     1
102
MATERIAL
148
0.0
149
0.0
149
0.0
 93
        0
 94
      127
282
     0
 72
     0
 77
     0
171
     0
175
     0
179
     0
273
     0
  0
XRECORD
  5
C13
102
{ACAD_REACTORS
330
C11
102
}
330
C11
100
AcDbXrecord
280
     1
270
     1
271
     1
  0
XRECORD
  5
C12
102
{ACAD_REACTORS
330
C11
102
}
330
C11
100
AcDbXrecord
280
     1
270
     1
271
     1
  0
XRECORD
  5
C16
102
{ACAD_REACTORS
330
C11
102
}
330
C11
100
AcDbXrecord
280
     1
270
     1
271
     1
  0
XRECORD
  5
C15
102
{ACAD_REACTORS
330
C11
102
}
330
C11
100
AcDbXrecord
280
     1
270
     1
271
     1
  0
XRECORD
  5
C17
102
{ACAD_REACTORS
330
C11
102
}
330
C11
100
AcDbXrecord
280
     1
270
     1
271
     1
  0
XRECORD
  5
C14
102
{ACAD_REACTORS
330
C11
102
}
330
C11
100
AcDbXrecord
280
     1
270
     1
271
     1
  0
XRECORD
  5
155B
102
{ACAD_REACTORS
330
C21
102
}
330
C21
100
AcDbXrecord
280
     1
102
MATERIAL
148
0.0
149
0.0
149
0.0
 93
        0
 94
      127
282
     0
 72
     0
 77
     0
171
     0
175
     0
179
     0
273
     0
  0
XRECORD
  5
C23
102
{ACAD_REACTORS
330
C21
102
}
330
C21
100
AcDbXrecord
280
     1
270
     1
271
     1
  0
XRECORD
  5
C22
102
{ACAD_REACTORS
330
C21
102
}
330
C21
100
AcDbXrecord
280
     1
270
     1
271
     1
  0
XRECORD
  5
C26
102
{ACAD_REACTORS
330
C21
102
}
330
C21
100
AcDbXrecord
280
     1
270
     1
271
     1
  0
XRECORD
  5
C25
102
{ACAD_REACTORS
330
C21
102
}
330
C21
100
AcDbXrecord
280
     1
270
     1
271
     1
  0
XRECORD
  5
C27
102
{ACAD_REACTORS
330
C21
102
}
330
C21
100
AcDbXrecord
280
     1
270
     1
271
     1
  0
XRECORD
  5
C24
102
{ACAD_REACTORS
330
C21
102
}
330
C21
100
AcDbXrecord
280
     1
270
     1
271
     1
  0
CELLSTYLEMAP
  5
1555
102
{ACAD_REACTORS
330
E66
102
}
330
E66
100
AcDbCellStyleMap
 90
        3
300
CELLSTYLE
  1
TABLEFORMAT_BEGIN
 90
        5
170
     1
 91
        0
 92
    32768
 62
   257
 93
        1
300
CONTENTFORMAT
  1
CONTENTFORMAT_BEGIN
 90
        0
 91
        0
 92
        4
 93
        0
300

 40
0.0
140
1.0
 94
        5
 62
     0
340
A86
144
6.0
309
CONTENTFORMAT_END
171
     1
301
MARGIN
  1
CELLMARGIN_BEGIN
 40
1.5
 40
1.5
 40
1.5
 40
1.5
 40
0.18
 40
0.18
309
CELLMARGIN_END
 94
        6
 95
        1
302
GRIDFORMAT
  1
GRIDFORMAT_BEGIN
 90
        0
 91
        1
 62
     0
 92
       -2
340
0
 93
        0
 40
0.045
309
GRIDFORMAT_END
 95
        2
302
GRIDFORMAT
  1
GRIDFORMAT_BEGIN
 90
        0
 91
        1
 62
     0
 92
       -2
340
0
 93
        0
 40
0.045
309
GRIDFORMAT_END
 95
        4
302
GRIDFORMAT
  1
GRIDFORMAT_BEGIN
 90
        0
 91
        1
 62
     0
 92
       -2
340
0
 93
        0
 40
0.045
309
GRIDFORMAT_END
 95
        8
302
GRIDFORMAT
  1
GRIDFORMAT_BEGIN
 90
        0
 91
        1
 62
     0
 92
       -2
340
0
 93
        0
 40
0.045
309
GRIDFORMAT_END
 95
       16
302
GRIDFORMAT
  1
GRIDFORMAT_BEGIN
 90
        0
 91
        1
 62
     0
 92
       -2
340
0
 93
        0
 40
0.045
309
GRIDFORMAT_END
 95
       32
302
GRIDFORMAT
  1
GRIDFORMAT_BEGIN
 90
        0
 91
        1
 62
     0
 92
       -2
340
0
 93
        0
 40
0.045
309
GRIDFORMAT_END
309
TABLEFORMAT_END
  1
CELLSTYLE_BEGIN
 90
        1
 91
        1
300
_TITLE
309
CELLSTYLE_END
300
CELLSTYLE
  1
TABLEFORMAT_BEGIN
 90
        5
170
     1
 91
        0
 92
        0
 62
   257
 93
        1
300
CONTENTFORMAT
  1
CONTENTFORMAT_BEGIN
 90
        0
 91
        0
 92
        4
 93
        0
300

 40
0.0
140
1.0
 94
        5
 62
     0
340
A86
144
4.5
309
CONTENTFORMAT_END
171
     1
301
MARGIN
  1
CELLMARGIN_BEGIN
 40
1.5
 40
1.5
 40
1.5
 40
1.5
 40
0.18
 40
0.18
309
CELLMARGIN_END
 94
        6
 95
        1
302
GRIDFORMAT
  1
GRIDFORMAT_BEGIN
 90
        0
 91
        1
 62
     0
 92
       -2
340
0
 93
        0
 40
0.045
309
GRIDFORMAT_END
 95
        2
302
GRIDFORMAT
  1
GRIDFORMAT_BEGIN
 90
        0
 91
        1
 62
     0
 92
       -2
340
0
 93
        0
 40
0.045
309
GRIDFORMAT_END
 95
        4
302
GRIDFORMAT
  1
GRIDFORMAT_BEGIN
 90
        0
 91
        1
 62
     0
 92
       -2
340
0
 93
        0
 40
0.045
309
GRIDFORMAT_END
 95
        8
302
GRIDFORMAT
  1
GRIDFORMAT_BEGIN
 90
        0
 91
        1
 62
     0
 92
       -2
340
0
 93
        0
 40
0.045
309
GRIDFORMAT_END
 95
       16
302
GRIDFORMAT
  1
GRIDFORMAT_BEGIN
 90
        0
 91
        1
 62
     0
 92
       -2
340
0
 93
        0
 40
0.045
309
GRIDFORMAT_END
 95
       32
302
GRIDFORMAT
  1
GRIDFORMAT_BEGIN
 90
        0
 91
        1
 62
     0
 92
       -2
340
0
 93
        0
 40
0.045
309
GRIDFORMAT_END
309
TABLEFORMAT_END
  1
CELLSTYLE_BEGIN
 90
        2
 91
        1
300
_HEADER
309
CELLSTYLE_END
300
CELLSTYLE
  1
TABLEFORMAT_BEGIN
 90
        5
170
     1
 91
        0
 92
        0
 62
   257
 93
        1
300
CONTENTFORMAT
  1
CONTENTFORMAT_BEGIN
 90
        0
 91
        0
 92
        4
 93
        0
300

 40
0.0
140
1.0
 94
        2
 62
     0
340
A86
144
4.5
309
CONTENTFORMAT_END
171
     1
301
MARGIN
  1
CELLMARGIN_BEGIN
 40
1.5
 40
1.5
 40
1.5
 40
1.5
 40
0.18
 40
0.18
309
CELLMARGIN_END
 94
        6
 95
        1
302
GRIDFORMAT
  1
GRIDFORMAT_BEGIN
 90
        0
 91
        1
 62
     0
 92
       -2
340
0
 93
        0
 40
0.045
309
GRIDFORMAT_END
 95
        2
302
GRIDFORMAT
  1
GRIDFORMAT_BEGIN
 90
        0
 91
        1
 62
     0
 92
       -2
340
0
 93
        0
 40
0.045
309
GRIDFORMAT_END
 95
        4
302
GRIDFORMAT
  1
GRIDFORMAT_BEGIN
 90
        0
 91
        1
 62
     0
 92
       -2
340
0
 93
        0
 40
0.045
309
GRIDFORMAT_END
 95
        8
302
GRIDFORMAT
  1
GRIDFORMAT_BEGIN
 90
        0
 91
        1
 62
     0
 92
       -2
340
0
 93
        0
 40
0.045
309
GRIDFORMAT_END
 95
       16
302
GRIDFORMAT
  1
GRIDFORMAT_BEGIN
 90
        0
 91
        1
 62
     0
 92
       -2
340
0
 93
        0
 40
0.045
309
GRIDFORMAT_END
 95
       32
302
GRIDFORMAT
  1
GRIDFORMAT_BEGIN
 90
        0
 91
        1
 62
     0
 92
       -2
340
0
 93
        0
 40
0.045
309
GRIDFORMAT_END
309
TABLEFORMAT_END
  1
CELLSTYLE_BEGIN
 90
        3
 91
        2
300
_DATA
309
CELLSTYLE_END
  0
XRECORD
  5
1558
102
{ACAD_REACTORS
330
E66
102
}
330
E66
100
AcDbXrecord
280
     1
102
ACAD_ROUNDTRIP_PRE2007_TABLESTYLE
 90
        4
 91
        0
  1

 92
        4
 93
        0
  2

 94
        4
 95
        0
  3

  0
ENDSEC
  0
EOF
