  0
SECTION
  2
HEADER
  9
$ACADVER
  1
AC1015
  9
$ACADMAINTVER
 70
    20
  9
$DWGCODEPAGE
  3
ANSI_1252
  9
$INSBASE
 10
0.0
 20
0.0
 30
0.0
  9
$EXTMIN
 10
142.90100212081
 20
93.70980915020892
 30
-0.0000000000000058
  9
$EXTMAX
 10
349.6453866381729
 20
418.5762184844074
 30
0.0000000000000104
  9
$LIMMIN
 10
0.0
 20
0.0
  9
$LIMMAX
 10
420.0000000000001
 20
297.0
  9
$ORTHOMODE
 70
     1
  9
$REGENMODE
 70
     1
  9
$FILLMODE
 70
     1
  9
$QTEXTMODE
 70
     0
  9
$MIRRTEXT
 70
     1
  9
$LTSCALE
 40
0.000001
  9
$ATTMODE
 70
     1
  9
$TEXTSIZE
 40
3.0
  9
$TRACEWID
 40
1.0
  9
$TEXTSTYLE
  7
STANDARD
  9
$CLAYER
  8
0
  9
$CELTYPE
  6
BYLAYER
  9
$CECOLOR
 62
   256
  9
$CELTSCALE
 40
1.0
  9
$DISPSILH
 70
     0
  9
$DIMSCALE
 40
1.0
  9
$DIMASZ
 40
2.5
  9
$DIMEXO
 40
1.0
  9
$DIMDLI
 40
7.0
  9
$DIMRND
 40
0.0
  9
$DIMDLE
 40
0.0
  9
$DIMEXE
 40
1.0
  9
$DIMTP
 40
0.1
  9
$DIMTM
 40
0.1
  9
$DIMTXT
 40
3.5
  9
$DIMCEN
 40
0.0
  9
$DIMTSZ
 40
0.0
  9
$DIMTOL
 70
     0
  9
$DIMLIM
 70
     0
  9
$DIMTIH
 70
     0
  9
$DIMTOH
 70
     1
  9
$DIMSE1
 70
     0
  9
$DIMSE2
 70
     0
  9
$DIMTAD
 70
     1
  9
$DIMZIN
 70
     8
  9
$DIMBLK
  1

  9
$DIMASO
 70
     1
  9
$DIMSHO
 70
     1
  9
$DIMPOST
  1
<>
  9
$DIMAPOST
  1
"
  9
$DIMALT
 70
     0
  9
$DIMALTD
 70
     2
  9
$DIMALTF
 40
0.0393701
  9
$DIMLFAC
 40
1.0
  9
$DIMTOFL
 70
     0
  9
$DIMTVP
 40
0.0
  9
$DIMTIX
 70
     0
  9
$DIMSOXD
 70
     0
  9
$DIMSAH
 70
     0
  9
$DIMBLK1
  1

  9
$DIMBLK2
  1

  9
$DIMSTYLE
  2
GEN-ISO
  9
$DIMCLRD
 70
   256
  9
$DIMCLRE
 70
   256
  9
$DIMCLRT
 70
     2
  9
$DIMTFAC
 40
0.71
  9
$DIMGAP
 40
0.6
  9
$DIMJUST
 70
     0
  9
$DIMSD1
 70
     0
  9
$DIMSD2
 70
     0
  9
$DIMTOLJ
 70
     0
  9
$DIMTZIN
 70
     0
  9
$DIMALTZ
 70
     0
  9
$DIMALTTZ
 70
     0
  9
$DIMUPT
 70
     1
  9
$DIMDEC
 70
     2
  9
$DIMTDEC
 70
     3
  9
$DIMALTU
 70
     2
  9
$DIMALTTD
 70
     4
  9
$DIMTXSTY
  7
STANDARD
  9
$DIMAUNIT
 70
     0
  9
$DIMADEC
 70
     0
  9
$DIMALTRND
 40
0.0
  9
$DIMAZIN
 70
     0
  9
$DIMDSEP
 70
    46
  9
$DIMATFIT
 70
     0
  9
$DIMFRAC
 70
     0
  9
$DIMLDRBLK
  1

  9
$DIMLUNIT
 70
     2
  9
$DIMLWD
 70
    -2
  9
$DIMLWE
 70
    -2
  9
$DIMTMOVE
 70
     0
  9
$LUNITS
 70
     2
  9
$LUPREC
 70
     2
  9
$SKETCHINC
 40
1.0
  9
$FILLETRAD
 40
0.000001
  9
$AUNITS
 70
     0
  9
$AUPREC
 70
     0
  9
$MENU
  1
.
  9
$ELEVATION
 40
0.0
  9
$PELEVATION
 40
0.0
  9
$THICKNESS
 40
0.0
  9
$LIMCHECK
 70
     0
  9
$CHAMFERA
 40
0.00001
  9
$CHAMFERB
 40
0.000001
  9
$CHAMFERC
 40
20.0
  9
$CHAMFERD
 40
0.0
  9
$SKPOLY
 70
     1
  9
$TDCREATE
 40
2452380.557930857
  9
$TDUCREATE
 40
2452380.516264190
  9
$TDUPDATE
 40
2454088.801027118
  9
$TDUUPDATE
 40
2454088.759360451
  9
$TDINDWG
 40
0.0994975463
  9
$TDUSRTIMER
 40
0.0994975463
  9
$USRTIMER
 70
     1
  9
$ANGBASE
 50
0.0
  9
$ANGDIR
 70
     0
  9
$PDMODE
 70
     0
  9
$PDSIZE
 40
0.0
  9
$PLINEWID
 40
0.0
  9
$SPLFRAME
 70
     0
  9
$SPLINETYPE
 70
     6
  9
$SPLINESEGS
 70
     8
  9
$HANDSEED
  5
DDE
  9
$SURFTAB1
 70
     6
  9
$SURFTAB2
 70
     6
  9
$SURFTYPE
 70
     6
  9
$SURFU
 70
     6
  9
$SURFV
 70
     6
  9
$UCSBASE
  2

  9
$UCSNAME
  2

  9
$UCSORG
 10
0.0
 20
0.0
 30
0.0
  9
$UCSXDIR
 10
1.0
 20
0.0
 30
0.0
  9
$UCSYDIR
 10
0.0
 20
1.0
 30
0.0
  9
$UCSORTHOREF
  2

  9
$UCSORTHOVIEW
 70
     0
  9
$UCSORGTOP
 10
0.0
 20
0.0
 30
0.0
  9
$UCSORGBOTTOM
 10
0.0
 20
0.0
 30
0.0
  9
$UCSORGLEFT
 10
0.0
 20
0.0
 30
0.0
  9
$UCSORGRIGHT
 10
0.0
 20
0.0
 30
0.0
  9
$UCSORGFRONT
 10
0.0
 20
0.0
 30
0.0
  9
$UCSORGBACK
 10
0.0
 20
0.0
 30
0.0
  9
$PUCSBASE
  2

  9
$PUCSNAME
  2

  9
$PUCSORG
 10
0.0
 20
0.0
 30
0.0
  9
$PUCSXDIR
 10
1.0
 20
0.0
 30
0.0
  9
$PUCSYDIR
 10
0.0
 20
1.0
 30
0.0
  9
$PUCSORTHOREF
  2

  9
$PUCSORTHOVIEW
 70
     0
  9
$PUCSORGTOP
 10
0.0
 20
0.0
 30
0.0
  9
$PUCSORGBOTTOM
 10
0.0
 20
0.0
 30
0.0
  9
$PUCSORGLEFT
 10
0.0
 20
0.0
 30
0.0
  9
$PUCSORGRIGHT
 10
0.0
 20
0.0
 30
0.0
  9
$PUCSORGFRONT
 10
0.0
 20
0.0
 30
0.0
  9
$PUCSORGBACK
 10
0.0
 20
0.0
 30
0.0
  9
$USERI1
 70
     0
  9
$USERI2
 70
     0
  9
$USERI3
 70
     0
  9
$USERI4
 70
     0
  9
$USERI5
 70
     0
  9
$USERR1
 40
0.0
  9
$USERR2
 40
0.0
  9
$USERR3
 40
0.0
  9
$USERR4
 40
0.0
  9
$USERR5
 40
0.0
  9
$WORLDVIEW
 70
     1
  9
$SHADEDGE
 70
     3
  9
$SHADEDIF
 70
    70
  9
$TILEMODE
 70
     1
  9
$MAXACTVP
 70
    48
  9
$PINSBASE
 10
0.0
 20
0.0
 30
0.0
  9
$PLIMCHECK
 70
     0
  9
$PEXTMIN
 10
1.000000000000000E+20
 20
1.000000000000000E+20
 30
1.000000000000000E+20
  9
$PEXTMAX
 10
-1.000000000000000E+20
 20
-1.000000000000000E+20
 30
-1.000000000000000E+20
  9
$PLIMMIN
 10
0.0
 20
0.0
  9
$PLIMMAX
 10
420.0
 20
297.0
  9
$UNITMODE
 70
     0
  9
$VISRETAIN
 70
     1
  9
$PLINEGEN
 70
     0
  9
$PSLTSCALE
 70
     1
  9
$TREEDEPTH
 70
  3020
  9
$CMLSTYLE
  2
STANDARD
  9
$CMLJUST
 70
     0
  9
$CMLSCALE
 40
1.0
  9
$PROXYGRAPHICS
 70
     1
  9
$MEASUREMENT
 70
     1
  9
$CELWEIGHT
370
    -1
  9
$ENDCAPS
280
     0
  9
$JOINSTYLE
280
     0
  9
$LWDISPLAY
290
     0
  9
$INSUNITS
 70
     0
  9
$HYPERLINKBASE
  1

  9
$STYLESHEET
  1

  9
$XEDIT
290
     1
  9
$CEPSNTYPE
380
     0
  9
$PSTYLEMODE
290
     1
  9
$FINGERPRINTGUID
  2
{281F0C16-C2ED-44FE-9938-9C12D97AF935}
  9
$VERSIONGUID
  2
{6127883E-8717-4C84-B8CD-1E70ED0A618D}
  9
$EXTNAMES
290
     1
  9
$PSVPSCALE
 40
0.0
  9
$OLESTARTUP
290
     0
  0
ENDSEC
  0
SECTION
  2
CLASSES
  0
CLASS
  1
DICTIONARYVAR
  2
AcDbDictionaryVar
  3
ObjectDBX Classes
 90
        0
280
     0
281
     0
  0
CLASS
  1
ACDBDICTIONARYWDFLT
  2
AcDbDictionaryWithDefault
  3
ObjectDBX Classes
 90
        0
280
     0
281
     0
  0
CLASS
  1
TABLESTYLE
  2
AcDbTableStyle
  3
ObjectDBX Classes
 90
     2047
280
     0
281
     0
  0
CLASS
  1
ACME_DOCUMENT
  2
AcMeDbDoc
  3
AcMeServices
 90
        0
280
     0
281
     0
  0
CLASS
  1
AMGSETTINGSOBJ
  2
AmgSettingsObj
  3
"AcadM|Product Description: AutoCAD Mechanical 2000|Company: Autodesk"
 90
        0
280
     0
281
     0
  0
CLASS
  1
AMGOBJPROPCFG
  2
AmgObjPropCfg
  3
"AmgLay|Product Description: AutoCAD Mechanical 2000|Company: Autodesk"
 90
        1
280
     0
281
     0
  0
CLASS
  1
ACMESCOPE
  2
AcMeScope
  3
AcMeServices
 90
        0
280
     0
281
     0
  0
CLASS
  1
ACGREFMASTER
  2
AcGrefMaster
  3
AcAttribServices
 90
        0
280
     0
281
     0
  0
CLASS
  1
ACMECOMMANDHISTORY
  2
AcMeCommandHistory
  3
AcMeServices
 90
        0
280
     0
281
     0
  0
CLASS
  1
ACIMSYSVARMAN
  2
AcImSysVarManager
  3
AcMeServices
 90
        0
280
     0
281
     0
  0
CLASS
  1
ACIMINTSYSVAR
  2
AcImIntSysVar
  3
AcMeServices
 90
        0
280
     0
281
     0
  0
CLASS
  1
ACMEDRAWINGMAN
  2
AcMeDrawingMan
  3
AcMeServices
 90
        0
280
     0
281
     0
  0
CLASS
  1
ACMEVIEW
  2
AcMeView
  3
AcMeServices
 90
        0
280
     0
281
     0
  0
CLASS
  1
ACDBENTITYCACHE
  2
AcMeEntityCache
  3
AcMeServices
 90
        0
280
     0
281
     0
  0
CLASS
  1
GSMANAGER
  2
AcMeGSManager
  3
AcMeServices
 90
        0
280
     0
281
     0
  0
CLASS
  1
AMDTINTERNALREACTOR
  2
AmdtInternalReactor
  3
AcMeServices
 90
        0
280
     0
281
     0
  0
CLASS
  1
ACMESTATEMGR
  2
AcMeStateMgr
  3
AcMeServices
 90
        0
280
     0
281
     0
  0
CLASS
  1
AM_DRAWING_MGR
  2
AcDmDwgMgr
  3
AcMechDwgViewMgmt
 90
        0
280
     0
281
     0
  0
CLASS
  1
AM_DWG_DOCUMENT
  2
AcDmDwgDocument
  3
AcMechDwgViewMgmt
 90
        0
280
     0
281
     0
  0
CLASS
  1
AM_DWG_SHEET
  2
AcDmSheet
  3
AcMechDwgViewMgmt
 90
        0
280
     0
281
     0
  0
CLASS
  1
AM_VIEWDIMPARMAP
  2
AcDmViewDimParMap
  3
AcMechDwgViewMgmt
 90
        0
280
     0
281
     0
  0
CLASS
  1
ACIMREALSYSVAR
  2
AcImRealSysVar
  3
AcMeServices
 90
        0
280
     0
281
     0
  0
CLASS
  1
AM_DWGMGR_NAME
  2
AcDmDwgMgrName
  3
AcMechDwgViewMgmt
 90
        0
280
     0
281
     0
  0
CLASS
  1
ACME_DATABASE
  2
AcMeDbDatabase
  3
AcMeServices
 90
        0
280
     0
281
     0
  0
CLASS
  1
ACRFINSADJUSTERMGR
  2
AcRfInsAdjusterMgr
  3
AcMeServices
 90
        0
280
     0
281
     0
  0
CLASS
  1
ACGREFACADMASTER
  2
AcGrefacadMaster
  3
AcGrefServices
 90
        0
280
     0
281
     0
  0
CLASS
  1
AMDTMENUSTATEMGR
  2
AmdtMenuStateMgr
  3
McadcomServices
 90
        0
280
     0
281
     0
  0
CLASS
  1
AMDTMCOMMENUSTATE
  2
AmdtMcomMenuState
  3
McadcomServices
 90
        0
280
     0
281
     0
  0
CLASS
  1
AMIMASTER
  2
AmiMaster
  3
AmiServices
 90
        0
280
     0
281
     0
  0
CLASS
  1
MAPIAMMOUDLE
  2
MApiAmModule
  3
MApiAmServices
 90
        0
280
     0
281
     0
  0
CLASS
  1
ACMSTANDARDDIN
  2
AcmStandardDIN
  3
"Amdt_StdImp|Product Description: AutoCAD Mechanical 2004 DX|Company: Autodesk"
 90
        0
280
     0
281
     0
  0
CLASS
  1
AMDTEDGESTANDARDDIN13715
  2
AmdtEdgeStdDIN13715
  3
"Amdt_StdImp|Product Description: AutoCAD Mechanical 2004 DX|Company: Autodesk"
 90
        0
280
     0
281
     0
  0
CLASS
  1
ACMSURFSTANDARDDIN
  2
AcmSurfTextStdDIN
  3
"Amdt_StdImp|Product Description: AutoCAD Mechanical 2004 DX|Company: Autodesk"
 90
        0
280
     0
281
     0
  0
CLASS
  1
ACMFCFSTANDARDDIN
  2
AcmFCFStdDIN
  3
"Amdt_StdImp|Product Description: AutoCAD Mechanical 2004 DX|Company: Autodesk"
 90
        0
280
     0
281
     0
  0
CLASS
  1
ACMWELDSTANDARDDIN
  2
AcmWeldingStdDIN
  3
"Amdt_StdImp|Product Description: AutoCAD Mechanical 2004 DX|Company: Autodesk"
 90
        0
280
     0
281
     0
  0
CLASS
  1
ACMIDSTANDARDDIN
  2
AcmIdStdDIN
  3
"Amdt_StdImp|Product Description: AutoCAD Mechanical 2004 DX|Company: Autodesk"
 90
        0
280
     0
281
     0
  0
CLASS
  1
ACMDATUMSTANDARDDIN
  2
AcmDatumStdDIN
  3
"Amdt_StdImp|Product Description: AutoCAD Mechanical 2004 DX|Company: Autodesk"
 90
        0
280
     0
281
     0
  0
CLASS
  1
ACMBOMSTANDARDDIN
  2
AcmBOMStdDIN
  3
"Amdt_StdImp|Product Description: AutoCAD Mechanical 2004 DX|Company: Autodesk"
 90
        0
280
     0
281
     0
  0
CLASS
  1
ACMDETAILSTANDARDDIN
  2
AmdtDetailSymStdDIN
  3
"Amdt_StdImp|Product Description: AutoCAD Mechanical 2004 DX|Company: Autodesk"
 90
        0
280
     0
281
     0
  0
CLASS
  1
ACMSECTIONSTANDARDDIN
  2
AmdtSectionSymStdDIN
  3
"Amdt_StdImp|Product Description: AutoCAD Mechanical 2004 DX|Company: Autodesk"
 90
        0
280
     0
281
     0
  0
CLASS
  1
ACMCENTERLINESTANDARDDIN
  2
AmdtCenterLineStdDIN
  3
"Amdt_StdImp|Product Description: AutoCAD Mechanical 2004 DX|Company: Autodesk"
 90
        0
280
     0
281
     0
  0
CLASS
  1
ACMTHREADLINESTANDARDDIN
  2
AmdtThreadLineStdDIN
  3
"Amdt_StdImp|Product Description: AutoCAD Mechanical 2004 DX|Company: Autodesk"
 90
        0
280
     0
281
     0
  0
CLASS
  1
ACMNOTESTANDARDDIN
  2
AmdtNoteStdDIN
  3
"Amdt_StdImp|Product Description: AutoCAD Mechanical 2004 DX|Company: Autodesk"
 90
        0
280
     0
281
     0
  0
CLASS
  1
AMDTNOTETEMPLATEDB
  2
AmdtNoteTemplateDB
  3
AMDT_STDIMP_MODULE_NAME
 90
        0
280
     0
281
     0
  0
CLASS
  1
ACAMGLAYSTD
  2
AcAmgLayStd
  3
"AcAmgLayStd|Product Description: AutoCAD Mechanical 2000|Company: Autodesk"
 90
        0
280
     0
281
     0
  0
CLASS
  1
ACAMGDIMSTD
  2
AcAmgDimStd
  3
"AcAmgDimStd|Product Description: AutoCAD Mechanical 2000|Company: Autodesk"
 90
        0
280
     0
281
     0
  0
CLASS
  1
ACAMGHOLECHARTSTDDIN
  2
AcAmgHoleChartStdDIN
  3
ACMSYMBB_MODULE_NAME
 90
        0
280
     0
281
     0
  0
CLASS
  1
ACAMGTITLESTD
  2
AcAmgTitleStd
  3
"TITLEAPP"
 90
        0
280
     0
281
     0
  0
CLASS
  1
ACMSTANDARDISO
  2
AcmStandardISO
  3
"Amdt_StdImp|Product Description: AutoCAD Mechanical 2004 DX|Company: Autodesk"
 90
        0
280
     0
281
     0
  0
CLASS
  1
AMDTEDGESTANDARDISO
  2
AmdtEdgeStdISO
  3
"Amdt_StdImp|Product Description: AutoCAD Mechanical 2004 DX|Company: Autodesk"
 90
        0
280
     0
281
     0
  0
CLASS
  1
ACMSURFSTANDARDISO
  2
AcmSurfTextStdISO
  3
"Amdt_StdImp|Product Description: AutoCAD Mechanical 2004 DX|Company: Autodesk"
 90
        0
280
     0
281
     0
  0
CLASS
  1
ACMFCFSTANDARDISO
  2
AcmFCFStdISO
  3
"Amdt_StdImp|Product Description: AutoCAD Mechanical 2004 DX|Company: Autodesk"
 90
        0
280
     0
281
     0
  0
CLASS
  1
ACMWELDSTANDARDISO
  2
AcmWeldingStdISO
  3
"Amdt_StdImp|Product Description: AutoCAD Mechanical 2004 DX|Company: Autodesk"
 90
        0
280
     0
281
     0
  0
CLASS
  1
ACMIDSTANDARDISO
  2
AcmIdStdISO
  3
"Amdt_StdImp|Product Description: AutoCAD Mechanical 2004 DX|Company: Autodesk"
 90
        0
280
     0
281
     0
  0
CLASS
  1
ACMDATUMSTANDARDISO
  2
AcmDatumStdISO
  3
"Amdt_StdImp|Product Description: AutoCAD Mechanical 2004 DX|Company: Autodesk"
 90
        0
280
     0
281
     0
  0
CLASS
  1
ACMBOMSTANDARDISO
  2
AcmBOMStdISO
  3
"Amdt_StdImp|Product Description: AutoCAD Mechanical 2004 DX|Company: Autodesk"
 90
        0
280
     0
281
     0
  0
CLASS
  1
ACMDETAILSTANDARDISO
  2
AmdtDetailSymStdISO
  3
"Amdt_StdImp|Product Description: AutoCAD Mechanical 2004 DX|Company: Autodesk"
 90
        0
280
     0
281
     0
  0
CLASS
  1
ACMSECTIONSTANDARDISO
  2
AmdtSectionSymStdISO
  3
"Amdt_StdImp|Product Description: AutoCAD Mechanical 2004 DX|Company: Autodesk"
 90
        0
280
     0
281
     0
  0
CLASS
  1
ACMCENTERLINESTANDARDISO
  2
AmdtCenterLineStdISO
  3
"Amdt_StdImp|Product Description: AutoCAD Mechanical 2004 DX|Company: Autodesk"
 90
        0
280
     0
281
     0
  0
CLASS
  1
ACMNOTESTANDARDISO
  2
AmdtNoteStdISO
  3
"Amdt_StdImp|Product Description: AutoCAD Mechanical 2004 DX|Company: Autodesk"
 90
        0
280
     0
281
     0
  0
CLASS
  1
ACAMGHOLECHARTSTDISO
  2
AcAmgHoleChartStdISO
  3
ACMSYMBB_MODULE_NAME
 90
        0
280
     0
281
     0
  0
CLASS
  1
ACMTHREADLINESTANDARDISO
  2
AmdtThreadLineStdISO
  3
"Amdt_StdImp|Product Description: AutoCAD Mechanical 2004 DX|Company: Autodesk"
 90
        0
280
     0
281
     0
  0
CLASS
  1
ACIMSTRSYSVAR
  2
AcImStrSysVar
  3
AcMeServices
 90
        0
280
     0
281
     0
  0
CLASS
  1
AMDTADMENUSTATE
  2
AmdtAdMenuState
  3
DesignerServices
 90
        0
280
     0
281
     0
  0
CLASS
  1
ADAPPL
  2
AcAdAppl
  3
DesignerServices
 90
        0
280
     0
281
     0
  0
CLASS
  1
DEPMGR
  2
AcAdDepMgr
  3
DesignerServices
 90
        0
280
     0
281
     0
  0
CLASS
  1
PARAMMGR
  2
AcAdParamMgr
  3
DesignerServices
 90
        0
280
     0
281
     0
  0
CLASS
  1
PARAMSCOPE
  2
AcAdParamScope
  3
DesignerServices
 90
        0
280
     0
281
     0
  0
CLASS
  1
NAMEDAPPL
  2
AcAdNamedAppl
  3
DesignerServices
 90
        0
280
     0
281
     0
  0
CLASS
  1
AMDTDMMENUSTATE
  2
AmdtDmMenuState
  3
AcMechDwgViewMgmt
 90
        0
280
     0
281
     0
  0
CLASS
  1
AMDTAMMENUSTATE
  2
AmdtAmMenuState
  3
DesignerAssemblies
 90
        0
280
     0
281
     0
  0
CLASS
  1
ACAMPROJECT
  2
AcAmProject
  3
DesignerAssemblies
 90
        0
280
     0
281
     0
  0
CLASS
  1
ACAMGRCOMPDEF
  2
AcAmGrCompDef
  3
DesignerAssemblies
 90
        0
280
     0
281
     0
  0
CLASS
  1
ACCMCONTEXT
  2
AcCmContext
  3
DesignerAssemblies
 90
        0
280
     0
281
     0
  0
CLASS
  1
ACAMCOMPDEF
  2
AcAmCompDef
  3
DesignerAssemblies
 90
        0
280
     0
281
     0
  0
CLASS
  1
ACAMCOMPDEFMGR
  2
AcAmCompDefMgr
  3
DesignerAssemblies
 90
        0
280
     0
281
     0
  0
CLASS
  1
AMCONTEXTMGR
  2
AcAmContextMgr
  3
DesignerAssemblies
 90
        0
280
     0
281
     0
  0
CLASS
  1
ACAMCONTEXTMODELER
  2
AcAmContextModeler
  3
DesignerAssemblies
 90
        0
280
     0
281
     0
  0
CLASS
  1
ACMDATADICTIONARY
  2
AcmDataDictionary
  3
"AcmSymBB|Product Description: AutoCAD Mechanical 2004 DX|Company: Autodesk"
 90
        0
280
     0
281
     0
  0
CLASS
  1
CATALOGSTATE
  2
AcAmCatalogState
  3
DesignerAssemblies
 90
        0
280
     0
281
     0
  0
CLASS
  1
ACAMGRCOMPDEFSET
  2
AcAmGrCompDefSet
  3
DesignerAssemblies
 90
        0
280
     0
281
     0
  0
CLASS
  1
AMDTBROWSERDBTAB
  2
AmdtBrowserDbTab
  3
McadcomServices
 90
        0
280
     0
281
     0
  0
CLASS
  1
CBROWSERAPPOBJECT
  2
CBrowserAppObject
  3
McadcomServices
 90
        0
280
     0
281
     0
  0
CLASS
  1
DM_PLACEHOLDER
  2
AcDmSelsetPlaceholder
  3
AcMechDwgViewMgmt
 90
        0
280
     0
281
     0
  0
CLASS
  1
ACAMGFILTERDAT
  2
AcAmgFilterDat
  3
"AcadM|Product Description: AutoCAD Mechanical 2000|Company: Autodesk"
 90
        0
280
     0
281
     0
  0
CLASS
  1
ACDBPLACEHOLDER
  2
AcDbPlaceHolder
  3
ObjectDBX Classes
 90
        0
280
     0
281
     0
  0
CLASS
  1
LAYOUT
  2
AcDbLayout
  3
ObjectDBX Classes
 90
        0
280
     0
281
     0
  0
ENDSEC
  0
SECTION
  2
TABLES
  0
TABLE
  2
VPORT
  5
8
330
0
100
AcDbSymbolTable
 70
     4
  0
VPORT
  5
DD2
330
8
100
AcDbSymbolTableRecord
100
AcDbViewportTableRecord
  2
*Active
 70
     0
 10
0.0
 20
0.0
 11
1.0
 21
1.0
 12
246.2731943794915
 22
256.1430138173082
 13
0.0
 23
0.0
 14
1.0
 24
1.0
 15
10.0
 25
10.0
 16
0.0
 26
0.0
 36
1.0
 17
0.0
 27
0.0
 37
0.0
 40
327.226213760355
 41
1.494545454545454
 42
50.0
 43
0.0
 44
0.0
 50
0.0
 51
0.0
 71
     0
 72
   100
 73
     1
 74
     0
 75
     0
 76
     0
 77
     0
 78
     0
281
     0
 65
     1
110
0.0
120
0.0
130
0.0
111
1.0
121
0.0
131
0.0
112
0.0
122
1.0
132
0.0
 79
     0
146
0.0
  0
ENDTAB
  0
TABLE
  2
LTYPE
  5
5
330
0
100
AcDbSymbolTable
 70
    23
  0
LTYPE
  5
14
330
5
100
AcDbSymbolTableRecord
100
AcDbLinetypeTableRecord
  2
BYBLOCK
 70
     0
  3

 72
    65
 73
     0
 40
0.0
  0
LTYPE
  5
15
330
5
100
AcDbSymbolTableRecord
100
AcDbLinetypeTableRecord
  2
BYLAYER
 70
     0
  3

 72
    65
 73
     0
 40
0.0
  0
LTYPE
  5
16
330
5
100
AcDbSymbolTableRecord
100
AcDbLinetypeTableRecord
  2
CONTINUOUS
 70
     0
  3
Solid line
 72
    65
 73
     0
 40
0.0
  0
LTYPE
  5
EC
330
5
100
AcDbSymbolTableRecord
100
AcDbLinetypeTableRecord
  2
GEN7
 70
     0
  3
____ . ____ . ____ . ____ . ____ . ____ . ____
 72
    65
 73
     4
 40
13.75
 49
9.75
 74
     0
 49
-1.5
 74
     0
 49
1.0
 74
     0
 49
-1.5
 74
     0
  0
LTYPE
  5
F1
330
5
100
AcDbSymbolTableRecord
100
AcDbLinetypeTableRecord
  2
GEN3A
 70
     0
  3
 - - - - -
 72
    65
 73
     2
 40
3.125
 49
2.25
 74
     0
 49
-0.875
 74
     0
  0
LTYPE
  5
F4
330
5
100
AcDbSymbolTableRecord
100
AcDbLinetypeTableRecord
  2
GEN3
 70
     0
  3
-- -- -- -- -- -- -- -- -- -- -- -- -- -- --
 72
    65
 73
     2
 40
6.25
 49
4.75
 74
     0
 49
-1.5
 74
     0
  0
LTYPE
  5
F7
330
5
100
AcDbSymbolTableRecord
100
AcDbLinetypeTableRecord
  2
GEN4A
 70
     0
  3
_____ . . _____ . . _____ . . ____ .. ____
 72
    65
 73
     6
 40
16.25
 49
9.75
 74
     0
 49
-1.5
 74
     0
 49
1.0
 74
     0
 49
-1.5
 74
     0
 49
1.0
 74
     0
 49
-1.5
 74
     0
  0
LTYPE
  5
100
330
5
100
AcDbSymbolTableRecord
100
AcDbLinetypeTableRecord
  2
GEN7A
 70
     0
  3
__ . __ . __
 72
    65
 73
     4
 40
6.875
 49
4.75
 74
     0
 49
-0.875
 74
     0
 49
0.375
 74
     0
 49
-0.875
 74
     0
  0
LTYPE
  5
C3E
330
5
100
AcDbSymbolTableRecord
100
AcDbLinetypeTableRecord
  2
Amconstr
 70
     0
  3
_______________________
 72
    65
 73
     2
 40
9999.0
 49
9999.0
 74
     0
 49
0.0
 74
     0
  0
LTYPE
  5
C41
330
5
100
AcDbSymbolTableRecord
100
AcDbLinetypeTableRecord
  2
Amzigzag
 70
     0
  3
/\/-/\/-/\/-/\/-/\/-/\/
 72
    65
 73
     2
 40
11.0001
 49
0.0001
 74
     4
 75
   136
340
C42
 46
0.04
 50
0.0
 44
0.0
 45
0.0
 49
-11.0
 74
     0
  0
LTYPE
  5
C70
330
5
100
AcDbSymbolTableRecord
100
AcDbLinetypeTableRecord
  2
HIDDEN
 70
     0
  3
Verdeckt
 72
    65
 73
     2
 40
9.525
 49
6.349999999999999
 74
     0
 49
-3.174999999999999
 74
     0
  0
LTYPE
  5
C71
330
5
100
AcDbSymbolTableRecord
100
AcDbLinetypeTableRecord
  2
PHANTOM2
 70
     0
  3
Phantom (.5x) ___ _ _ ___ _ _ ___ _ _ ___ _ _
 72
    65
 73
     6
 40
31.75
 49
15.875
 74
     0
 49
-3.174999999999999
 74
     0
 49
3.174999999999999
 74
     0
 49
-3.174999999999999
 74
     0
 49
3.174999999999999
 74
     0
 49
-3.174999999999999
 74
     0
  0
LTYPE
  5
C72
330
5
100
AcDbSymbolTableRecord
100
AcDbLinetypeTableRecord
  2
CENTER
 70
     0
  3
__ . __
 72
    65
 73
     4
 40
7.0
 49
4.0
 74
     0
 49
-1.0
 74
     0
 49
1.0
 74
     0
 49
-1.0
 74
     0
  0
LTYPE
  5
C85
330
5
100
AcDbSymbolTableRecord
100
AcDbLinetypeTableRecord
  2
ACDINWELD
 70
     0
  3
_ _ _ _ _
 72
    65
 73
     2
 40
2.0
 49
2.0
 74
     0
 49
-1.0
 74
     0
  0
LTYPE
  5
C88
330
5
100
AcDbSymbolTableRecord
100
AcDbLinetypeTableRecord
  2
ACDINTGB
 70
     0
  3
__ . . __ . .
 72
    65
 73
     6
 40
9.0
 49
4.0
 74
     0
 49
-1.0
 74
     0
 49
1.0
 74
     0
 49
-1.0
 74
     0
 49
1.0
 74
     0
 49
-1.0
 74
     0
  0
LTYPE
  5
C89
330
5
100
AcDbSymbolTableRecord
100
AcDbLinetypeTableRecord
  2
ACDINTGL
 70
     0
  3
_ _ _ _ _
 72
    65
 73
     2
 40
3.0
 49
2.0
 74
     0
 49
-1.0
 74
     0
  0
LTYPE
  5
C8D
330
5
100
AcDbSymbolTableRecord
100
AcDbLinetypeTableRecord
  2
AM_ISO08W050
 70
     0
  3
____ . ____ . ____ . ____ . ____ . ____ . ____
 72
    65
 73
     4
 40
18.0
 49
12.0
 74
     0
 49
-1.5
 74
     0
 49
3.0
 74
     0
 49
-1.5
 74
     0
  0
LTYPE
  5
CB5
330
5
100
AcDbSymbolTableRecord
100
AcDbLinetypeTableRecord
  2
ACISOWELD
 70
     0
  3
_ _ _ _ _
 72
    65
 73
     2
 40
2.0
 49
2.0
 74
     0
 49
-1.0
 74
     0
  0
LTYPE
  5
CB8
330
5
100
AcDbSymbolTableRecord
100
AcDbLinetypeTableRecord
  2
ACISOTGB
 70
     0
  3
__ . . __ . .
 72
    65
 73
     6
 40
9.0
 49
4.0
 74
     0
 49
-1.0
 74
     0
 49
1.0
 74
     0
 49
-1.0
 74
     0
 49
1.0
 74
     0
 49
-1.0
 74
     0
  0
LTYPE
  5
CB9
330
5
100
AcDbSymbolTableRecord
100
AcDbLinetypeTableRecord
  2
ACISOTGL
 70
     0
  3
_ _ _ _ _
 72
    65
 73
     2
 40
3.0
 49
2.0
 74
     0
 49
-1.0
 74
     0
  0
LTYPE
  5
CC7
330
5
100
AcDbSymbolTableRecord
100
AcDbLinetypeTableRecord
  2
AM_ISO02W050
 70
     0
  3
__ __ __ __ __ __ __ __ __ __ __ __ __ __ __
 72
    65
 73
     2
 40
7.5
 49
6.0
 74
     0
 49
-1.5
 74
     0
  0
LTYPE
  5
CC8
330
5
100
AcDbSymbolTableRecord
100
AcDbLinetypeTableRecord
  2
AM_ISO09W050
 70
     0
  3
_____ . . _____ . . _____ . . ____ .. ____
 72
    65
 73
     6
 40
22.5
 49
12.0
 74
     0
 49
-1.5
 74
     0
 49
3.0
 74
     0
 49
-1.5
 74
     0
 49
3.0
 74
     0
 49
-1.5
 74
     0
  0
LTYPE
  5
CC9
330
5
100
AcDbSymbolTableRecord
100
AcDbLinetypeTableRecord
  2
AM_ISO08W050x2
 70
     0
  3
__ . __ . __ . __ . __ . __
 72
    65
 73
     4
 40
9.0
 49
6.0
 74
     0
 49
-0.75
 74
     0
 49
1.5
 74
     0
 49
-0.75
 74
     0
  0
LTYPE
  5
CCA
330
5
100
AcDbSymbolTableRecord
100
AcDbLinetypeTableRecord
  2
AM_ISO02W050x2
 70
     0
  3
 _ _ _ _ _ _ _ _ _ _ _ _
 72
    65
 73
     2
 40
3.75
 49
3.0
 74
     0
 49
-0.75
 74
     0
  0
LTYPE
  5
CF8
330
5
100
AcDbSymbolTableRecord
100
AcDbLinetypeTableRecord
  2
genzigzag
 70
     0
  3
/\/-/\/-/\/-/\/-/\/-/\/
 72
    65
 73
     2
 40
12.0001
 49
0.0001
 74
     4
 75
   135
340
C42
 46
2.0
 50
0.0
 44
0.0
 45
0.0
 49
-12.0
 74
     0
  0
ENDTAB
  0
TABLE
  2
LAYER
  5
2
330
0
100
AcDbSymbolTable
 70
     6
  0
LAYER
  5
F
330
2
100
AcDbSymbolTableRecord
100
AcDbLayerTableRecord
  2
0
 70
     0
 62
     7
  6
CONTINUOUS
370
    -3
390
C1C
  0
LAYER
  5
9C
330
2
100
AcDbSymbolTableRecord
100
AcDbLayerTableRecord
  2
Defpoints
 70
     0
 62
     7
  6
CONTINUOUS
290
     0
370
    -3
390
C1C
  0
LAYER
  5
FC
330
2
100
AcDbSymbolTableRecord
100
AcDbLayerTableRecord
  2
5
 70
     0
 62
     3
  6
CONTINUOUS
370
    -3
390
C1C
  0
LAYER
  5
FE
330
2
100
AcDbSymbolTableRecord
100
AcDbLayerTableRecord
  2
6
 70
     0
 62
     2
  6
CONTINUOUS
370
    -3
390
C1C
  0
LAYER
  5
101
330
2
100
AcDbSymbolTableRecord
100
AcDbLayerTableRecord
  2
7A
 70
     0
 62
     4
  6
GEN7A
370
    -3
390
C1C
  0
LAYER
  5
105
330
2
100
AcDbSymbolTableRecord
100
AcDbLayerTableRecord
  2
8
 70
     0
 62
     1
  6
CONTINUOUS
370
    -3
390
C1C
  0
ENDTAB
  0
TABLE
  2
STYLE
  5
3
330
0
100
AcDbSymbolTable
 70
     6
  0
STYLE
  5
10
330
3
100
AcDbSymbolTableRecord
100
AcDbTextStyleTableRecord
  2
STANDARD
 70
     0
 40
0.0
 41
1.0
 50
0.0
 71
     0
 42
3.0
  3
ISOCP.SHX
  4

  0
STYLE
  5
C42
330
3
100
AcDbSymbolTableRecord
100
AcDbTextStyleTableRecord
  2

 70
     1
 40
0.0
 41
1.0
 50
0.0
 71
     0
 42
2.5
  3
genltshp.shx
  4

  0
STYLE
  5
C7F
330
3
100
AcDbSymbolTableRecord
100
AcDbTextStyleTableRecord
  2
ACDINTS
 70
     0
 40
1.0
 41
1.0
 50
0.0
 71
     0
 42
2.5
  3
isocp.shx
  4

  0
STYLE
  5
C83
330
3
100
AcDbSymbolTableRecord
100
AcDbTextStyleTableRecord
  2
ACDINGDT
 70
     0
 40
0.0
 41
1.0
 50
0.0
 71
     0
 42
2.5
  3
AMGDT
  4

  0
STYLE
  5
CAF
330
3
100
AcDbSymbolTableRecord
100
AcDbTextStyleTableRecord
  2
ACISOTS
 70
     0
 40
1.0
 41
1.0
 50
0.0
 71
     0
 42
2.5
  3
isocp.shx
  4
bigfont.shx
  0
STYLE
  5
CB3
330
3
100
AcDbSymbolTableRecord
100
AcDbTextStyleTableRecord
  2
ACISOGDT
 70
     0
 40
0.0
 41
1.0
 50
0.0
 71
     0
 42
2.5
  3
AMGDT
  4
bigfont.shx
  0
ENDTAB
  0
TABLE
  2
VIEW
  5
6
330
0
100
AcDbSymbolTable
 70
     6
  0
VIEW
  5
62B
330
6
100
AcDbSymbolTableRecord
100
AcDbViewTableRecord
  2
GEN1
 70
     0
 40
148.5
 10
123.2806034482758
 20
222.75
 41
246.5612068965517
 11
0.0
 21
0.0
 31
1.0
 12
0.0
 22
0.0
 32
0.0
 42
50.0
 43
0.0
 44
0.0
 50
0.0
 71
     0
281
     0
 72
     0
  0
VIEW
  5
62C
330
6
100
AcDbSymbolTableRecord
100
AcDbViewTableRecord
  2
GEN2
 70
     0
 40
148.5
 10
296.7193965517242
 20
222.75
 41
246.5612068965517
 11
0.0
 21
0.0
 31
1.0
 12
0.0
 22
0.0
 32
0.0
 42
50.0
 43
0.0
 44
0.0
 50
0.0
 71
     0
281
     0
 72
     0
  0
VIEW
  5
62D
330
6
100
AcDbSymbolTableRecord
100
AcDbViewTableRecord
  2
GEN3
 70
     0
 40
148.5
 10
123.2806034482758
 20
74.25
 41
246.5612068965517
 11
0.0
 21
0.0
 31
1.0
 12
0.0
 22
0.0
 32
0.0
 42
50.0
 43
0.0
 44
0.0
 50
0.0
 71
     0
281
     0
 72
     0
  0
VIEW
  5
62E
330
6
100
AcDbSymbolTableRecord
100
AcDbViewTableRecord
  2
GEN4
 70
     0
 40
148.5
 10
296.7193965517242
 20
74.25
 41
246.5612068965517
 11
0.0
 21
0.0
 31
1.0
 12
0.0
 22
0.0
 32
0.0
 42
50.0
 43
0.0
 44
0.0
 50
0.0
 71
     0
281
     0
 72
     0
  0
VIEW
  5
62F
330
6
100
AcDbSymbolTableRecord
100
AcDbViewTableRecord
  2
GEN5
 70
     0
 40
148.5
 10
210.0
 20
148.5
 41
246.5612068965517
 11
0.0
 21
0.0
 31
1.0
 12
0.0
 22
0.0
 32
0.0
 42
50.0
 43
0.0
 44
0.0
 50
0.0
 71
     0
281
     0
 72
     0
  0
VIEW
  5
630
330
6
100
AcDbSymbolTableRecord
100
AcDbViewTableRecord
  2
GEN6
 70
     0
 40
296.99703
 10
210.0
 20
148.5
 41
493.1174825689655
 11
0.0
 21
0.0
 31
1.0
 12
0.0
 22
0.0
 32
0.0
 42
50.0
 43
0.0
 44
0.0
 50
0.0
 71
     0
281
     0
 72
     0
  0
ENDTAB
  0
TABLE
  2
UCS
  5
7
330
0
100
AcDbSymbolTable
 70
     0
  0
ENDTAB
  0
TABLE
  2
APPID
  5
9
330
0
100
AcDbSymbolTable
 70
    61
  0
APPID
  5
11
330
9
100
AcDbSymbolTableRecord
100
AcDbRegAppTableRecord
  2
ACAD
 70
     0
  0
APPID
  5
7D
330
9
100
AcDbSymbolTableRecord
100
AcDbRegAppTableRecord
  2
GENIUS_GENCFG_13
 70
     0
1001
GENIUS_GENCFG0_13
1000
GEN@DIMENSION@GEN-ANSI-POS@I
1001
GENIUS_GENCFG1_13
1000
GEN@DIMENSION@GEN-ANSI-POS
1001
GENIUS_GENCFG2_13
1000
GEN@INFO_POS@XLATE
1001
GENIUS_GENCFG3_13
1000
GEN@INFO_POS
1001
GENIUS_GENCFG4_13
1000
GEN@LAYER@DEFS
1001
GENIUS_GENCFG5_13
1000
GEN@LAYER@ENTSORT
1001
GENIUS_GENCFG6_13
1000
GEN
1001
GENIUS_GEVCFG0_13
1000
GEV
1001
GENIUS_GEFCFG0_13
1000
GEF
  0
APPID
  5
B7
330
9
100
AcDbSymbolTableRecord
100
AcDbRegAppTableRecord
  2
AUTO_NORM
 70
     0
  0
APPID
  5
BA
330
9
100
AcDbSymbolTableRecord
100
AcDbRegAppTableRecord
  2
AUTO_NORM_DATEN
 70
     0
  0
APPID
  5
BD
330
9
100
AcDbSymbolTableRecord
100
AcDbRegAppTableRecord
  2
AUTO_NORM_HATCH
 70
     0
  0
APPID
  5
C0
330
9
100
AcDbSymbolTableRecord
100
AcDbRegAppTableRecord
  2
AUTO_NORM_HIDE
 70
     0
  0
APPID
  5
C3
330
9
100
AcDbSymbolTableRecord
100
AcDbRegAppTableRecord
  2
AUTO_NORM_CONTOUR
 70
     0
  0
APPID
  5
C6
330
9
100
AcDbSymbolTableRecord
100
AcDbRegAppTableRecord
  2
AUTO_NORM_MITTE
 70
     0
  0
APPID
  5
C9
330
9
100
AcDbSymbolTableRecord
100
AcDbRegAppTableRecord
  2
AUTO_NORM_SCONF
 70
     0
  0
APPID
  5
CC
330
9
100
AcDbSymbolTableRecord
100
AcDbRegAppTableRecord
  2
AUTO_NORM_WELLE
 70
     0
  0
APPID
  5
CF
330
9
100
AcDbSymbolTableRecord
100
AcDbRegAppTableRecord
  2
AUTO_NORM_SINGLE
 70
     0
  0
APPID
  5
D2
330
9
100
AcDbSymbolTableRecord
100
AcDbRegAppTableRecord
  2
AUTO_NORM_TIME
 70
     0
  0
APPID
  5
D5
330
9
100
AcDbSymbolTableRecord
100
AcDbRegAppTableRecord
  2
AUTO_BEM_DATEN
 70
     0
  0
APPID
  5
E0
330
9
100
AcDbSymbolTableRecord
100
AcDbRegAppTableRecord
  2
GENIUS_GEFCFG0_13
 70
     0
1001
GENIUS_GENCFG_13
1071
1018941170
1000
E0
1000
GEF
1070
     5
1000
GenCfgObject
1000
GenCfgString
1000
GenCfgReal
1000
GenCfgShort
1000
GenCfgBool
1000
System
1070
     0
1002
{
1002
}
1000
Prese
1070
     0
1002
{
1000
Funk
1070
     1
1000

1002
{
1002
}
1000
FunkDef
1070
     1
1000

1002
{
1002
}
1000
GefIso
1070
     1
1000
DIN
1002
{
1002
}
1002
}
1000
FEM
1070
     0
1002
{
1000
LayGroup
1070
     1
1000
FEM
1002
{
1002
}
1000
IncrCoef
1070
     2
1040
0.0
1002
{
1002
}
1002
}
1000
Shaft
1070
     0
1002
{
1000
Interrupt
1070
     3
1070
     0
1002
{
1002
}
1002
}
1000
PartDb
1070
     0
1002
{
1000
PartCreate
1070
     0
1002
{
1002
}
1000
SCP
1070
     0
1002
{
1002
}
1000
Symbol
1070
     0
1002
{
1002
}
1002
}
1000
Symbol
1070
     0
1002
{
1000
WeldStyle
1070
     1
1000
ISO
1002
{
1002
}
1000
WeldSize
1070
     2
1040
1.0
1002
{
1002
}
1000
WeldFlag
1070
     4
1070
     1
1002
{
1002
}
1000
WeldOffset
1070
     4
1070
     1
1002
{
1002
}
1000
TolCType
1070
     1
1000
ISO
1002
{
1002
}
1000
TolCSize
1070
     2
1040
1.0
1002
{
1002
}
1000
STextureSize
1070
     2
1040
1.0
1002
{
1002
}
1000
SurfaceType
1070
     1
1000

1002
{
1002
}
1000
M
1070
     0
1002
{
1000
WeldWidth
1070
     2
1040
3.0
1002
{
1002
}
1002
}
1000
I
1070
     0
1002
{
1000
WeldWidth
1070
     2
1040
0.0
1002
{
1002
}
1002
}
1002
}
  0
APPID
  5
E1
330
9
100
AcDbSymbolTableRecord
100
AcDbRegAppTableRecord
  2
GENIUS_GENCFG0_13
 70
     0
1001
GENIUS_GENCFG_13
1071
1019551343
1000
E1
1000
GEN@DIMENSION@GEN-ANSI-POS@I
1070
     7
1000
GenCfgObject
1000
GenCfgShort
1000
GenCfgReal
1000
GenCfgBool
1000
GenCfgString
1000
GenCfgDim
1000
GenCfgLayer
1000
DIMASZ
1070
     2
1040
0.1
1002
{
1002
}
1000
DIMGAP
1070
     2
1040
0.06
1002
{
1002
}
1000
DIMTXT
1070
     2
1040
0.2
1002
{
1000
dimclrt
1070
     6
1000
6
1002
{
1000
Color
1070
     1
1070
     0
1002
{
1002
}
1000
LType
1070
     4
1000
CONTINUOUS
1002
{
1002
}
1000
Base
1070
     3
1070
     0
1002
{
1002
}
1002
}
1002
}
  0
APPID
  5
E2
330
9
100
AcDbSymbolTableRecord
100
AcDbRegAppTableRecord
  2
GENIUS_GENCFG1_13
 70
     0
1001
GENIUS_GENCFG_13
1071
1019551343
1000
E2
1000
GEN@DIMENSION@GEN-ANSI-POS
1070
     7
1000
GenCfgObject
1000
GenCfgShort
1000
GenCfgReal
1000
GenCfgBool
1000
GenCfgString
1000
GenCfgDim
1000
GenCfgLayer
1000
NAME
1070
     4
1000
GEN-ANSI-POS
1002
{
1002
}
1000
DIMTOLJ
1070
     1
1070
     1
1002
{
1002
}
1000
DIMTXSTY
1070
     4
1000
STANDARD
1002
{
1002
}
1000
M
1070
     0
1002
{
1000
DIMASZ
1070
     2
1040
2.5
1002
{
1002
}
1000
DIMGAP
1070
     2
1040
1.5
1002
{
1002
}
1000
DIMTXT
1070
     2
1040
5.0
1002
{
1000
DIMCLRT
1070
     4
1000
6
1002
{
1002
}
1002
}
1002
}
1000
I
1070
     0
1002
{
1000
>
1002
}
  0
APPID
  5
E3
330
9
100
AcDbSymbolTableRecord
100
AcDbRegAppTableRecord
  2
GENIUS_GENCFG2_13
 70
     0
1001
GENIUS_GENCFG_13
1071
1019551343
1000
E3
1000
GEN@INFO_POS@XLATE
1070
     9
1000
GenCfgObject
1000
GenCfgShort
1000
GenCfgReal
1000
GenCfgBool
1000
GenCfgString
1000
GenCfgDim
1000
GenCfgLayer
1000
GenCfgPoint
1000
GenCfgAttrInf
1000
INFOPOINTS
1070
     0
1002
{
1000
GENINF14
1070
     0
1002
{
1000
2GENINF
1070
     4
1000
2
1002
{
1002
}
1000
5GENINF
1070
     4
1000
5
1002
{
1002
}
1000
7GENINF
1070
     4
1000
7
1002
{
1002
}
1000
9GENINF
1070
     4
1000
9
1002
{
1002
}
1000
11GENINF
1070
     4
1000
11
1002
{
1002
}
1000
14GENINF
1070
     4
1000
14
1002
{
1002
}
1000
3GENINF
1070
     4
1000
3
1002
{
1002
}
1000
4GENINF
1070
     4
1000
4
1002
{
1002
}
1000
6GENINF
1070
     4
1000
6
1002
{
1002
}
1000
8GENINF
1070
     4
1000
8
1002
{
1002
}
1000
10GENINF
1070
     4
1000
10
1002
{
1002
}
1000
12GENINF
1070
     4
1000
12
1002
{
1002
}
1000
13GENINF
1070
     4
1000
13
1002
{
1002
}
1000
15GENINF
1070
     4
1000
15
1002
{
1002
}
1000
16GENINF
1070
     4
1000
16
1002
{
1002
}
1000
17GENINF
1070
     4
1000
17
1002
{
1002
}
1000
18GENINF
1070
     4
1000
18
1002
{
1002
}
1000
19GENINF
1070
     4
1000
19
1002
{
1002
}
1000
20GENINF
1070
     4
1000
20
1002
{
1002
}
1000
21GENINF
1070
     4
1000
21
1002
{
1002
}
1000
22GENINF
1070
     4
1000
22
1002
{
1002
}
1000
23GENINF
1070
     4
1000
23
1002
{
1002
}
1000
24GENINF
1070
     4
1000
24
1002
{
1002
}
1000
25GENINF
1070
     4
1000
25
1002
{
1002
}
1000
26GENINF
1070
     4
1000
26
1002
{
1002
}
1000
27GENINF
1070
     4
1000
27
1002
{
1002
}
1000
0GENINF
1070
     4
1000
0
1002
{
1002
}
1002
}
1000
GENINF13
1070
     0
1002
{
1000
2GENINF
1070
     4
1000
2
1002
{
1002
}
1000
3GENINF
1070
     4
1000
3
1002
{
1002
}
1000
4GENINF
1070
     4
1000
4
1002
{
1002
}
1000
5GENINF
1070
     4
1000
5
1002
{
1002
}
1000
6GENINF
1070
     4
1000
6
1002
{
1002
}
1000
7GENINF
1070
     4
1000
7
1002
{
1002
}
1000
8GENINF
1070
     4
1000
8
1002
{
1002
}
1000
9GENINF
1070
     4
1000
9
1002
{
1002
}
1000
10GENINF
1070
     4
1000
10
1002
{
1002
}
1000
11GENINF
1070
     4
1000
11
1002
{
1002
}
1000
12GENINF
1070
     4
1000
12
1002
{
1002
}
1000
13GENINF
1070
     4
1000
13
1002
{
1002
}
1000
14GENINF
1070
     4
1000
14
1002
{
1002
}
1000
15GENINF
1070
     4
1000
15
1002
{
1002
}
1000
16GENINF
1070
     4
1000
16
1002
{
1002
}
1000
17GENINF
1070
     4
1000
17
1002
{
1002
}
1000
18GENINF
1070
     4
1000
18
1002
{
1002
}
1000
19GENINF
1070
     4
1000
19
1002
{
1002
}
1000
20GENINF
1070
     4
1000
20
1002
{
1002
}
1000
21GENINF
1070
     4
1000
21
1002
{
1002
}
1000
22GENINF
1070
     4
1000
22
1002
{
1002
}
1000
23GENINF
1070
     4
1000
23
1002
{
1002
}
1000
24GENINF
1070
     4
1000
24
1002
{
1002
}
1000
0GENINF
1070
     4
1000
0
1002
{
1002
}
1002
}
1000
GENINFO
1070
     0
1002
{
1000
3GENINF
1070
     4
1000
3
1002
{
1002
}
1000
4GENINF
1070
     4
1000
4
1002
{
1002
}
1000
5GENINF
1070
     4
1000
5
1002
{
1002
}
1000
6GENINF
1070
     4
1000
6
1002
{
1002
}
1000
7GENINF
1070
     4
1000
7
1002
{
1002
}
1000
8GENINF
1070
     4
1000
8
1002
{
1002
}
1000
9GENINF
1070
     4
1000
9
1002
{
1002
}
1000
10GENINF
1070
     4
1000
10
1002
{
1002
}
1000
11GENINF
1070
     4
1000
11
1002
{
1002
}
1000
12GENINF
1070
     4
1000
12
1002
{
1002
}
1000
13GENINF
1070
     4
1000
13
1002
{
1002
}
1000
14GENINF
1070
     4
1000
14
1002
{
1002
}
1000
15GENINF
1070
     4
1000
15
1002
{
1002
}
1000
16GENINF
1070
     4
1000
16
1002
{
1002
}
1000
17GENINF
1070
     4
1000
17
1002
{
1002
}
1000
18GENINF
1070
     4
1000
18
1002
{
1002
}
1000
19GENINF
1070
     4
1000
19
1002
{
1002
}
1000
20GENINF
1070
     4
1000
20
1002
{
1002
}
1000
21GENINF
1070
     4
1000
21
1002
{
1002
}
1000
22GENINF
1070
     4
1000
22
1002
{
1002
}
1002
}
1000
DININFO
1070
     0
1002
{
1000
ST-NAME1
1070
     4
1000
5
1002
{
1002
}
1000
ST-NAME2
1070
     4
1000
6
1002
{
1002
}
1000
ST-NORM1
1070
     4
1000
7
1002
{
1002
}
1000
ST-NORM2
1070
     4
1000
8
1002
{
1002
}
1000
ST-MAT1
1070
     4
1000
9
1002
{
1002
}
1000
ST-MAT2
1070
     4
1000
10
1002
{
1002
}
1002
}
1002
}
1000
POS_NUMBERS
1070
     0
1002
{
1000
GENPOS14
1070
     0
1002
{
1000
1GENPOS
1070
     4
1000
1
1002
{
1002
}
1000
2GENPOS
1070
     4
1000
2
1002
{
1002
}
1000
5GENPOS
1070
     4
1000
5
1002
{
1002
}
1000
7GENPOS
1070
     4
1000
7
1002
{
1002
}
1000
9GENPOS
1070
     4
1000
9
1002
{
1002
}
1000
11GENPOS
1070
     4
1000
11
1002
{
1002
}
1000
14GENPOS
1070
     4
1000
14
1002
{
1002
}
1000
3GENPOS
1070
     4
1000
3
1002
{
1002
}
1000
4GENPOS
1070
     4
1000
4
1002
{
1002
}
1000
6GENPOS
1070
     4
1000
6
1002
{
1002
}
1000
8GENPOS
1070
     4
1000
8
1002
{
1002
}
1000
10GENPOS
1070
     4
1000
10
1002
{
1002
}
1000
12GENPOS
1070
     4
1000
12
1002
{
1002
}
1000
13GENPOS
1070
     4
1000
13
1002
{
1002
}
1000
15GENPOS
1070
     4
1000
15
1002
{
1002
}
1000
16GENPOS
1070
     4
1000
16
1002
{
1002
}
1000
17GENPOS
1070
     4
1000
17
1002
{
1002
}
1000
18GENPOS
1070
     4
1000
18
1002
{
1002
}
1000
19GENPOS
1070
     4
1000
19
1002
{
1002
}
1000
20GENPOS
1070
     4
1000
20
1002
{
1002
}
1000
21GENPOS
1070
     4
1000
21
1002
{
1002
}
1000
22GENPOS
1070
     4
1000
22
1002
{
1002
}
1000
23GENPOS
1070
     4
1000
23
1002
{
1002
}
1000
24GENPOS
1070
     4
1000
24
1002
{
1002
}
1000
25GENPOS
1070
     4
1000
25
1002
{
1002
}
1000
26GENPOS
1070
     4
1000
26
1002
{
1002
}
1000
27GENPOS
1070
     4
1000
27
1002
{
1002
}
1000
0GENPOS
1070
     4
1000
0
1002
{
1002
}
1002
}
1000
GENPOS13
1070
     0
1002
{
1000
1GENPOS
1070
     4
1000
1
1002
{
1002
}
1000
2GENPOS
1070
     4
1000
2
1002
{
1002
}
1000
3GENPOS
1070
     4
1000
3
1002
{
1002
}
1000
4GENPOS
1070
     4
1000
4
1002
{
1002
}
1000
5GENPOS
1070
     4
1000
5
1002
{
1002
}
1000
6GENPOS
1070
     4
1000
6
1002
{
1002
}
1000
7GENPOS
1070
     4
1000
7
1002
{
1002
}
1000
8GENPOS
1070
     4
1000
8
1002
{
1002
}
1000
9GENPOS
1070
     4
1000
9
1002
{
1002
}
1000
10GENPOS
1070
     4
1000
10
1002
{
1002
}
1000
11GENPOS
1070
     4
1000
11
1002
{
1002
}
1000
12GENPOS
1070
     4
1000
12
1002
{
1002
}
1000
13GENPOS
1070
     4
1000
13
1002
{
1002
}
1000
14GENPOS
1070
     4
1000
14
1002
{
1002
}
1000
15GENPOS
1070
     4
1000
15
1002
{
1002
}
1000
16GENPOS
1070
     4
1000
16
1002
{
1002
}
1000
17GENPOS
1070
     4
1000
17
1002
{
1002
}
1000
18GENPOS
1070
     4
1000
18
1002
{
1002
}
1000
19GENPOS
1070
     4
1000
19
1002
{
1002
}
1000
20GENPOS
1070
     4
1000
20
1002
{
1002
}
1000
21GENPOS
1070
     4
1000
21
1002
{
1002
}
1000
22GENPOS
1070
     4
1000
22
1002
{
1002
}
1000
23GENPOS
1070
     4
1000
23
1002
{
1002
}
1000
24GENPOS
1070
     4
1000
24
1002
{
1002
}
1000
0GENPOS
1070
     4
1000
0
1002
{
1002
}
1002
}
1000
GENPOS
1070
     0
1002
{
1000
1GENPOS
1070
     4
1000
1
1002
{
1002
}
1000
2GENPOS
1070
     4
1000
2
1002
{
1002
}
1000
3GENPOS
1070
     4
1000
3
1002
{
1002
}
1000
4GENPOS
1070
     4
1000
4
1002
{
1002
}
1000
5GENPOS
1070
     4
1000
5
1002
{
1002
}
1000
6GENPOS
1070
     4
1000
6
1002
{
1002
}
1000
7GENPOS
1070
     4
1000
7
1002
{
1002
}
1000
8GENPOS
1070
     4
1000
8
1002
{
1002
}
1000
9GENPOS
1070
     4
1000
9
1002
{
1002
}
1000
10GENPOS
1070
     4
1000
10
1002
{
1002
}
1000
11GENPOS
1070
     4
1000
11
1002
{
1002
}
1000
12GENPOS
1070
     4
1000
12
1002
{
1002
}
1000
13GENPOS
1070
     4
1000
13
1002
{
1002
}
1000
14GENPOS
1070
     4
1000
14
1002
{
1002
}
1000
15GENPOS
1070
     4
1000
15
1002
{
1002
}
1000
16GENPOS
1070
     4
1000
16
1002
{
1002
}
1000
17GENPOS
1070
     4
1000
17
1002
{
1002
}
1000
18GENPOS
1070
     4
1000
18
1002
{
1002
}
1000
19GENPOS
1070
     4
1000
19
1002
{
1002
}
1000
20GENPOS
1070
     4
1000
20
1002
{
1002
}
1000
21GENPOS
1070
     4
1000
21
1002
{
1002
}
1000
22GENPOS
1070
     4
1000
22
1002
{
1002
}
1000
23GENPOS
1070
     4
1000
23
1002
{
1002
}
1002
}
1000
DIN985
1070
     0
1002
{
1000
POSITION
1070
     4
1000
1
1002
{
1002
}
1000
MENGE
1070
     4
1000
2
1002
{
1002
}
1000
BLATT
1070
     4
1000
3
1002
{
1002
}
1000
BENENN
1070
     4
1000
5
1002
{
1002
}
1000
BENENN2
1070
     4
1000
6
1002
{
1002
}
1000
NORM
1070
     4
1000
7
1002
{
1002
}
1000
NORM2
1070
     4
1000
8
1002
{
1002
}
1000
WERKSTOFF
1070
     4
1000
9
1002
{
1002
}
1000
WERKSTOFF2
1070
     4
1000
10
1002
{
1002
}
1002
}
1000
DIN986
1070
     0
1002
{
1000
POSITION
1070
     4
1000
1
1002
{
1002
}
1000
MENGE
1070
     4
1000
2
1002
{
1002
}
1000
BLATT
1070
     4
1000
3
1002
{
1002
}
1000
BENENN
1070
     4
1000
5
1002
{
1002
}
1000
BENENN2
1070
     4
1000
6
1002
{
1002
}
1000
NORM
1070
     4
1000
7
1002
{
1002
}
1000
NORM2
1070
     4
1000
8
1002
{
1002
}
1000
WERKSTOFF
1070
     4
1000
9
1002
{
1002
}
1000
WERKSTOFF2
1070
     4
1000
10
1002
{
1002
}
1002
}
1000
DIN987
1070
     0
1002
{
1000
POSITION
1070
     4
1000
1
1002
{
1002
}
1000
MENGE
1070
     4
1000
2
1002
{
1002
}
1000
BLATT
1070
     4
1000
3
1002
{
1002
}
1000
BENENN
1070
     4
1000
5
1002
{
1002
}
1000
BENENN2
1070
     4
1000
6
1002
{
1002
}
1000
NORM
1070
     4
1000
7
1002
{
1002
}
1000
NORM2
1070
     4
1000
8
1002
{
1002
}
1000
WERKSTOFF
1070
     4
1000
9
1002
{
1002
}
1000
WERKSTOFF2
1070
     4
1000
10
1002
{
1002
}
1002
}
1002
}
  0
APPID
  5
E4
330
9
100
AcDbSymbolTableRecord
100
AcDbRegAppTableRecord
  2
GENIUS_GENCFG3_13
 70
     0
1001
GENIUS_GENCFG_13
1071
1019551343
1000
E4
1000
GEN@INFO_POS
1070
     9
1000
GenCfgObject
1000
GenCfgShort
1000
GenCfgReal
1000
GenCfgBool
1000
GenCfgString
1000
GenCfgDim
1000
GenCfgLayer
1000
GenCfgPoint
1000
GenCfgAttrInf
1000
DescrText
1070
     4
1000
5, ,6, ,7, ,8
1002
{
1002
}
1000
DescrText2
1070
     4
1000
26
1002
{
1002
}
1000
VisibleAttr1
1070
     4
1000
1
1002
{
1002
}
1000
VisibleAttr2
1070
     4
1000
26
1002
{
1002
}
1000
UpdateBlock
1070
     3
1070
     1
1002
{
1002
}
1000
Attrib
1070
     0
1002
{
1000
0
1070
     8
1002
{
1000
Prompt
1070
     4
1000
(genmsg gendwg 103)
1002
{
1002
}
1000
Value
1070
     4
1000

1002
{
1002
}
1000
EditFlag
1070
     1
1070
     0
1002
{
1002
}
1000
PosInDDATTE
1070
     1
1070
    27
1002
{
1002
}
1000
FieldLen
1070
     1
1070
    -1
1002
{
1002
}
1002
}
1000
1
1070
     8
1002
{
1000
Prompt
1070
     4
1000
(genmsg gendwg 31)
1002
{
1002
}
1000
Value
1070
     4
1000
1
1002
{
1002
}
1000
EditFlag
1070
     1
1070
     1
1002
{
1002
}
1000
PosInDDATTE
1070
     1
1070
     1
1002
{
1002
}
1000
FieldLen
1070
     1
1070
    -1
1002
{
1002
}
1002
}
1000
2
1070
     8
1002
{
1000
Prompt
1070
     4
1000
(genmsg gendwg 32)
1002
{
1002
}
1000
Value
1070
     4
1000
1
1002
{
1002
}
1000
EditFlag
1070
     1
1070
     1
1002
{
1002
}
1000
PosInDDATTE
1070
     1
1070
     2
1002
{
1002
}
1000
FieldLen
1070
     1
1070
    -1
1002
{
1002
}
1002
}
1000
3
1070
     8
1002
{
1000
Prompt
1070
     4
1000
(genmsg gendwg 33)
1002
{
1002
}
1000
Value
1070
     4
1000

1002
{
1002
}
1000
EditFlag
1070
     1
1070
     1
1002
{
1002
}
1000
PosInDDATTE
1070
     1
1070
     3
1002
{
1002
}
1000
FieldLen
1070
     1
1070
    -1
1002
{
1002
}
1002
}
1000
4
1070
     8
1002
{
1000
Prompt
1070
     4
1000
(genmsg gendwg 34)
1002
{
1002
}
1000
Value
1070
     4
1000

1002
{
1002
}
1000
EditFlag
1070
     1
1070
     1
1002
{
1002
}
1000
PosInDDATTE
1070
     1
1070
     4
1002
{
1002
}
1000
FieldLen
1070
     1
1070
    -1
1002
{
1002
}
1002
}
1000
5
1070
     8
1002
{
1000
Prompt
1070
     4
1000
(genmsg gendwg 35)
1002
{
1002
}
1000
Value
1070
     4
1000

1002
{
1002
}
1000
EditFlag
1070
     1
1070
     1
1002
{
1002
}
1000
PosInDDATTE
1070
     1
1070
     5
1002
{
1002
}
1000
FieldLen
1070
     1
1070
    -1
1002
{
1002
}
1002
}
1000
6
1070
     8
1002
{
1000
Prompt
1070
     4
1000
(genmsg gendwg 36)
1002
{
1002
}
1000
Value
1070
     4
1000

1002
{
1002
}
1000
EditFlag
1070
     1
1070
     1
1002
{
1002
}
1000
PosInDDATTE
1070
     1
1070
     6
1002
{
1002
}
1000
FieldLen
1070
     1
1070
    -1
1002
{
1002
}
1002
}
1000
7
1070
     8
1002
{
1000
Prompt
1070
     4
1000
(genmsg gendwg 37)
1002
{
1002
}
1000
Value
1070
     4
1000

1002
{
1002
}
1000
EditFlag
1070
     1
1070
     1
1002
{
1002
}
1000
PosInDDATTE
1070
     1
1070
     7
1002
{
1002
}
1000
FieldLen
1070
     1
1070
    -1
1002
{
1002
}
1002
}
1000
8
1070
     8
1002
{
1000
Prompt
1070
     4
1000
(genmsg gendwg 38)
1002
{
1002
}
1000
Value
1070
     4
1000

1002
{
1002
}
1000
EditFlag
1070
     1
1070
     1
1002
{
1002
}
1000
PosInDDATTE
1070
     1
1070
     8
1002
{
1002
}
1000
FieldLen
1070
     1
1070
    -1
1002
{
1002
}
1002
}
1000
9
1070
     8
1002
{
1000
Prompt
1070
     4
1000
(genmsg gendwg 39)
1002
{
1002
}
1000
Value
1070
     4
1000

1002
{
1002
}
1000
EditFlag
1070
     1
1070
     1
1002
{
1002
}
1000
PosInDDATTE
1070
     1
1070
     9
1002
{
1002
}
1000
FieldLen
1070
     1
1070
    -1
1002
{
1002
}
1002
}
1000
10
1070
     8
1002
{
1000
Prompt
1070
     4
1000
(genmsg gendwg 40)
1002
{
1002
}
1000
Value
1070
     4
1000

1002
{
1002
}
1000
EditFlag
1070
     1
1070
     1
1002
{
1002
}
1000
PosInDDATTE
1070
     1
1070
    10
1002
{
1002
}
1000
FieldLen
1070
     1
1070
    -1
1002
{
1002
}
1002
}
1000
11
1070
     8
1002
{
1000
Prompt
1070
     4
1000
(genmsg gendwg 41)
1002
{
1002
}
1000
Value
1070
     4
1000

1002
{
1002
}
1000
EditFlag
1070
     1
1070
     1
1002
{
1002
}
1000
PosInDDATTE
1070
     1
1070
    11
1002
{
1002
}
1000
FieldLen
1070
     1
1070
    -1
1002
{
1002
}
1002
}
1000
12
1070
     8
1002
{
1000
Prompt
1070
     4
1000
(genmsg gendwg 42)
1002
{
1002
}
1000
Value
1070
     4
1000

1002
{
1002
}
1000
EditFlag
1070
     1
1070
     1
1002
{
1002
}
1000
PosInDDATTE
1070
     1
1070
    12
1002
{
1002
}
1000
FieldLen
1070
     1
1070
    -1
1002
{
1002
}
1002
}
1000
13
1070
     8
1002
{
1000
Prompt
1070
     4
1000
(genmsg gendwg 43)
1002
{
1002
}
1000
Value
1070
     4
1000

1002
{
1002
}
1000
EditFlag
1070
     1
1070
     1
1002
{
1002
}
1000
PosInDDATTE
1070
     1
1070
    13
1002
{
1002
}
1000
FieldLen
1070
     1
1070
    -1
1002
{
1002
}
1002
}
1000
14
1070
     8
1002
{
1000
Prompt
1070
     4
1000
(genmsg gendwg 44)
1002
{
1002
}
1000
Value
1070
     4
1000

1002
{
1002
}
1000
EditFlag
1070
     1
1070
     1
1002
{
1002
}
1000
PosInDDATTE
1070
     1
1070
    14
1002
{
1002
}
1000
FieldLen
1070
     1
1070
    -1
1002
{
1002
}
1002
}
1000
15
1070
     8
1002
{
1000
Prompt
1070
     4
1000
(genmsg gendwg 45)
1002
{
1002
}
1000
Value
1070
     4
1000

1002
{
1002
}
1000
EditFlag
1070
     1
1070
     1
1002
{
1002
}
1000
PosInDDATTE
1070
     1
1070
    15
1002
{
1002
}
1000
FieldLen
1070
     1
1070
    -1
1002
{
1002
}
1002
}
1000
16
1070
     8
1002
{
1000
Prompt
1070
     4
1000
(genmsg gendwg 46)
1002
{
1002
}
1000
Value
1070
     4
1000

1002
{
1002
}
1000
EditFlag
1070
     1
1070
     1
1002
{
1002
}
1000
PosInDDATTE
1070
     1
1070
    16
1002
{
1002
}
1000
FieldLen
1070
     1
1070
    -1
1002
{
1002
}
1002
}
1000
17
1070
     8
1002
{
1000
Prompt
1070
     4
1000
(genmsg gendwg 47)
1002
{
1002
}
1000
Value
1070
     4
1000

1002
{
1002
}
1000
EditFlag
1070
     1
1070
     1
1002
{
1002
}
1000
PosInDDATTE
1070
     1
1070
    17
1002
{
1002
}
1000
FieldLen
1070
     1
1070
    -1
1002
{
1002
}
1002
}
1000
18
1070
     8
1002
{
1000
Prompt
1070
     4
1000
(genmsg gendwg 48)
1002
{
1002
}
1000
Value
1070
     4
1000

1002
{
1002
}
1000
EditFlag
1070
     1
1070
     1
1002
{
1002
}
1000
PosInDDATTE
1070
     1
1070
    18
1002
{
1002
}
1000
FieldLen
1070
     1
1070
    -1
1002
{
1002
}
1002
}
1000
19
1070
     8
1002
{
1000
Prompt
1070
     4
1000
(genmsg gendwg 99)
1002
{
1002
}
1000
Value
1070
     4
1000

1002
{
1002
}
1000
EditFlag
1070
     1
1070
     1
1002
{
1002
}
1000
PosInDDATTE
1070
     1
1070
    19
1002
{
1002
}
1000
FieldLen
1070
     1
1070
    -1
1002
{
1002
}
1002
}
1000
20
1070
     8
1002
{
1000
Prompt
1070
     4
1000
(genmsg gendwg 100)
1002
{
1002
}
1000
Value
1070
     4
1000

1002
{
1002
}
1000
EditFlag
1070
     1
1070
     1
1002
{
1002
}
1000
PosInDDATTE
1070
     1
1070
    20
1002
{
1002
}
1000
FieldLen
1070
     1
1070
    -1
1002
{
1002
}
1002
}
1000
21
1070
     8
1002
{
1000
Prompt
1070
     4
1000
(genmsg gendwg 101)
1002
{
1002
}
1000
Value
1070
     4
1000

1002
{
1002
}
1000
EditFlag
1070
     1
1070
     1
1002
{
1002
}
1000
PosInDDATTE
1070
     1
1070
    21
1002
{
1002
}
1000
FieldLen
1070
     1
1070
    -1
1002
{
1002
}
1002
}
1000
22
1070
     8
1002
{
1000
Prompt
1070
     4
1000
(genmsg gendwg 102)
1002
{
1002
}
1000
Value
1070
     4
1000

1002
{
1002
}
1000
EditFlag
1070
     1
1070
     1
1002
{
1002
}
1000
PosInDDATTE
1070
     1
1070
    22
1002
{
1002
}
1000
FieldLen
1070
     1
1070
    -1
1002
{
1002
}
1002
}
1000
23
1070
     8
1002
{
1000
Prompt
1070
     4
1000
(genmsg gendwg 30)
1002
{
1002
}
1000
Value
1070
     4
1000

1002
{
1002
}
1000
EditFlag
1070
     1
1070
     1
1002
{
1002
}
1000
PosInDDATTE
1070
     1
1070
    23
1002
{
1002
}
1000
FieldLen
1070
     1
1070
    -1
1002
{
1002
}
1002
}
1000
24
1070
     8
1002
{
1000
Prompt
1070
     4
1000
(genmsg gendwg 104)
1002
{
1002
}
1000
Value
1070
     4
1000

1002
{
1002
}
1000
EditFlag
1070
     1
1070
     1
1002
{
1002
}
1000
PosInDDATTE
1070
     1
1070
    24
1002
{
1002
}
1000
FieldLen
1070
     1
1070
    -1
1002
{
1002
}
1002
}
1000
25
1070
     8
1002
{
1000
Prompt
1070
     4
1000
(genmsg gendwg 105)
1002
{
1002
}
1000
Value
1070
     4
1000

1002
{
1002
}
1000
EditFlag
1070
     1
1070
     1
1002
{
1002
}
1000
PosInDDATTE
1070
     1
1070
    25
1002
{
1002
}
1000
FieldLen
1070
     1
1070
    -1
1002
{
1002
}
1002
}
1000
26
1070
     8
1002
{
1000
Prompt
1070
     4
1000
(genmsg gendwg 106)
1002
{
1002
}
1000
Value
1070
     4
1000

1002
{
1002
}
1000
EditFlag
1070
     1
1070
     1
1002
{
1002
}
1000
PosInDDATTE
1070
     1
1070
    26
1002
{
1002
}
1000
FieldLen
1070
     1
1070
    -1
1002
{
1002
}
1002
}
1000
27
1070
     8
1002
{
1000
Prompt
1070
     4
1000
(genmsg gendwg 109)
1002
{
1002
}
1000
Value
1070
     4
1000

1002
{
1002
}
1000
EditFlag
1070
     1
1070
     2
1002
{
1002
}
1000
PosInDDATTE
1070
     1
1070
    27
1002
{
1002
}
1000
FieldLen
1070
     1
1070
    -1
1002
{
1002
}
1002
}
1002
}
1000
Xlate
1070
     0
1002
{
1000
>
1002
}
  0
APPID
  5
E5
330
9
100
AcDbSymbolTableRecord
100
AcDbRegAppTableRecord
  2
GENIUS_GENCFG4_13
 70
     0
1001
GENIUS_GENCFG_13
1071
1019551343
1000
E5
1000
GEN@LAYER@DEFS
1070
    10
1000
GenCfgObject
1000
GenCfgShort
1000
GenCfgReal
1000
GenCfgBool
1000
GenCfgString
1000
GenCfgDim
1000
GenCfgLayer
1000
GenCfgPoint
1000
GenCfgAttrInf
1000
GenCfgLaySection
1000
Basic
1070
     0
1002
{
1000
0
1070
     6
1000
0
1002
{
1000
Color
1070
     1
1070
     7
1002
{
1002
}
1000
LType
1070
     4
1000
CONTINUOUS
1002
{
1002
}
1000
Base
1070
     3
1070
     0
1002
{
1002
}
1002
}
1000
1
1070
     6
1000
1
1002
{
1000
Color
1070
     1
1070
    14
1002
{
1002
}
1000
LType
1070
     4
1000
CONTINUOUS
1002
{
1002
}
1000
Base
1070
     3
1070
     0
1002
{
1002
}
1002
}
1000
2
1070
     6
1000
2
1002
{
1000
Color
1070
     1
1070
     5
1002
{
1002
}
1000
LType
1070
     4
1000
CONTINUOUS
1002
{
1002
}
1000
Base
1070
     3
1070
     0
1002
{
1002
}
1002
}
1000
3
1070
     6
1000
3
1002
{
1000
Color
1070
     1
1070
     6
1002
{
1002
}
1000
LType
1070
     4
1000
GEN3
1002
{
1002
}
1000
Base
1070
     3
1070
     0
1002
{
1002
}
1002
}
1000
4
1070
     6
1000
4
1002
{
1000
Color
1070
     1
1070
     3
1002
{
1002
}
1000
LType
1070
     4
1000
CONTINUOUS
1002
{
1002
}
1000
Base
1070
     3
1070
     0
1002
{
1002
}
1002
}
1000
5
1070
     6
1000
5
1002
{
1000
Color
1070
     1
1070
     3
1002
{
1002
}
1000
LType
1070
     4
1000
CONTINUOUS
1002
{
1002
}
1000
Base
1070
     3
1070
     0
1002
{
1002
}
1002
}
1000
6
1070
     6
1000
6
1002
{
1000
Color
1070
     1
1070
     2
1002
{
1002
}
1000
LType
1070
     4
1000
CONTINUOUS
1002
{
1002
}
1000
Base
1070
     3
1070
     0
1002
{
1002
}
1002
}
1000
7
1070
     6
1000
7
1002
{
1000
Color
1070
     1
1070
     4
1002
{
1002
}
1000
LType
1070
     4
1000
GEN7
1002
{
1002
}
1000
Base
1070
     3
1070
     0
1002
{
1002
}
1002
}
1000
8
1070
     6
1000
8
1002
{
1000
Color
1070
     1
1070
     1
1002
{
1002
}
1000
LType
1070
     4
1000
CONTINUOUS
1002
{
1002
}
1000
Base
1070
     3
1070
     0
1002
{
1002
}
1002
}
1000
3A
1070
     6
1000
3A
1002
{
1000
Color
1070
     1
1070
     6
1002
{
1002
}
1000
LType
1070
     4
1000
GEN3A
1002
{
1002
}
1000
Base
1070
     3
1070
     0
1002
{
1002
}
1002
}
1000
7A
1070
     6
1000
7A
1002
{
1000
Color
1070
     1
1070
     4
1002
{
1002
}
1000
LType
1070
     4
1000
GEN7A
1002
{
1002
}
1000
Base
1070
     3
1070
     0
1002
{
1002
}
1002
}
1000
2A
1070
     6
1000
2A
1002
{
1000
Color
1070
     1
1070
     7
1002
{
1002
}
1000
LType
1070
     4
1000
GEN7
1002
{
1002
}
1000
Base
1070
     3
1070
     0
1002
{
1002
}
1002
}
1000
4A
1070
     6
1000
4A
1002
{
1000
Color
1070
     1
1070
     3
1002
{
1002
}
1000
LType
1070
     4
1000
GEN4A
1002
{
1002
}
1000
Base
1070
     3
1070
     0
1002
{
1002
}
1002
}
1000
9
1070
     6
1000
9
1002
{
1000
Color
1070
     1
1070
   253
1002
{
1002
}
1000
LType
1070
     4
1000
CONTINUOUS
1002
{
1002
}
1000
Base
1070
     3
1070
     0
1002
{
1002
}
1002
}
1000
IP
1070
     6
1000
IP
1002
{
1000
Color
1070
     1
1070
     7
1002
{
1002
}
1000
LType
1070
     4
1000
CONTINUOUS
1002
{
1002
}
1000
Base
1070
     3
1070
     0
1002
{
1002
}
1002
}
1002
}
1000
Standard
1070
     0
1002
{
1000
0N
1070
     6
1000
0N
1002
{
1000
Color
1070
     1
1070
     7
1002
{
1002
}
1000
LType
1070
     4
1000
CONTINUOUS
1002
{
1002
}
1000
Base
1070
     3
1070
     0
1002
{
1002
}
1002
}
1000
1N
1070
     6
1000
1N
1002
{
1000
Color
1070
     1
1070
    14
1002
{
1002
}
1000
LType
1070
     4
1000
CONTINUOUS
1002
{
1002
}
1000
Base
1070
     3
1070
     0
1002
{
1002
}
1002
}
1000
2N
1070
     6
1000
2N
1002
{
1000
Color
1070
     1
1070
     5
1002
{
1002
}
1000
LType
1070
     4
1000
CONTINUOUS
1002
{
1002
}
1000
Base
1070
     3
1070
     0
1002
{
1002
}
1002
}
1000
3N
1070
     6
1000
3N
1002
{
1000
Color
1070
     1
1070
     6
1002
{
1002
}
1000
LType
1070
     4
1000
GEN3
1002
{
1002
}
1000
Base
1070
     3
1070
     0
1002
{
1002
}
1002
}
1000
4N
1070
     6
1000
4N
1002
{
1000
Color
1070
     1
1070
     3
1002
{
1002
}
1000
LType
1070
     4
1000
CONTINUOUS
1002
{
1002
}
1000
Base
1070
     3
1070
     0
1002
{
1002
}
1002
}
1000
5N
1070
     6
1000
5N
1002
{
1000
Color
1070
     1
1070
     3
1002
{
1002
}
1000
LType
1070
     4
1000
CONTINUOUS
1002
{
1002
}
1000
Base
1070
     3
1070
     0
1002
{
1002
}
1002
}
1000
6N
1070
     6
1000
6N
1002
{
1000
Color
1070
     1
1070
     2
1002
{
1002
}
1000
LType
1070
     4
1000
CONTINUOUS
1002
{
1002
}
1000
Base
1070
     3
1070
     0
1002
{
1002
}
1002
}
1000
7N
1070
     6
1000
7N
1002
{
1000
Color
1070
     1
1070
     4
1002
{
1002
}
1000
LType
1070
     4
1000
GEN7
1002
{
1002
}
1000
Base
1070
     3
1070
     0
1002
{
1002
}
1002
}
1000
8N
1070
     6
1000
8N
1002
{
1000
Color
1070
     1
1070
     1
1002
{
1002
}
1000
LType
1070
     4
1000
CONTINUOUS
1002
{
1002
}
1000
Base
1070
     3
1070
     0
1002
{
1002
}
1002
}
1000
3AN
1070
     6
1000
3AN
1002
{
1000
Color
1070
     1
1070
     6
1002
{
1002
}
1000
LType
1070
     4
1000
GEN3A
1002
{
1002
}
1000
Base
1070
     3
1070
     0
1002
{
1002
}
1002
}
1000
7AN
1070
     6
1000
7AN
1002
{
1000
Color
1070
     1
1070
     4
1002
{
1002
}
1000
LType
1070
     4
1000
GEN7A
1002
{
1002
}
1000
Base
1070
     3
1070
     0
1002
{
1002
}
1002
}
1000
2AN
1070
     6
1000
2AN
1002
{
1000
Color
1070
     1
1070
     7
1002
{
1002
}
1000
LType
1070
     4
1000
GEN7
1002
{
1002
}
1000
Base
1070
     3
1070
     0
1002
{
1002
}
1002
}
1000
4AN
1070
     6
1000
4AN
1002
{
1000
Color
1070
     1
1070
     3
1002
{
1002
}
1000
LType
1070
     4
1000
GEN4A
1002
{
1002
}
1000
Base
1070
     3
1070
     0
1002
{
1002
}
1002
}
1000
9N
1070
     6
1000
9N
1002
{
1000
Color
1070
     1
1070
   253
1002
{
1002
}
1000
LType
1070
     4
1000
CONTINUOUS
1002
{
1002
}
1000
Base
1070
     3
1070
     0
1002
{
1002
}
1002
}
1000
IPN
1070
     6
1000
IPN
1002
{
1000
Color
1070
     1
1070
     7
1002
{
1002
}
1000
LType
1070
     4
1000
CONTINUOUS
1002
{
1002
}
1000
Base
1070
     3
1070
     0
1002
{
1002
}
1002
}
1002
}
1000
Extra
1070
     0
1002
{
1000
Klin
1070
     6
1000
KLIN
1002
{
1000
Color
1070
     1
1070
     1
1002
{
1002
}
1000
LType
1070
     4
1000
CONTINUOUS
1002
{
1002
}
1000
Base
1070
     3
1070
     1
1002
{
1002
}
1002
}
1000
Info
1070
     6
1000
INFO
1002
{
1000
Color
1070
     1
1070
     4
1002
{
1002
}
1000
LType
1070
     4
1000
CONTINUOUS
1002
{
1002
}
1000
Base
1070
     3
1070
     1
1002
{
1002
}
1002
}
1000
Rahm2
1070
     6
1000
RAHM2
1002
{
1000
Color
1070
     1
1070
     1
1002
{
1002
}
1000
LType
1070
     4
1000
CONTINUOUS
1002
{
1002
}
1000
Base
1070
     3
1070
     1
1002
{
1002
}
1002
}
1000
Rahm3
1070
     6
1000
RAHM3
1002
{
1000
Color
1070
     1
1070
     2
1002
{
1002
}
1000
LType
1070
     4
1000
CONTINUOUS
1002
{
1002
}
1000
Base
1070
     3
1070
     1
1002
{
1002
}
1002
}
1000
Rahm5
1070
     6
1000
RAHM5
1002
{
1000
Color
1070
     1
1070
     7
1002
{
1002
}
1000
LType
1070
     4
1000
CONTINUOUS
1002
{
1002
}
1000
Base
1070
     3
1070
     1
1002
{
1002
}
1002
}
1000
View
1070
     6
1000
VIEW
1002
{
1000
Color
1070
     1
1070
     1
1002
{
1002
}
1000
LType
1070
     4
1000
CONTINUOUS
1002
{
1002
}
1000
Base
1070
     3
1070
     1
1002
{
1002
}
1002
}
1000
Behind
1070
     6
1000
BEHIND
1002
{
1000
Color
1070
     1
1070
   253
1002
{
1002
}
1000
LType
1070
     4
1000
CONTINUOUS
1002
{
1002
}
1000
Base
1070
     3
1070
     1
1002
{
1002
}
1002
}
1002
}
  0
APPID
  5
E6
330
9
100
AcDbSymbolTableRecord
100
AcDbRegAppTableRecord
  2
GENIUS_GENCFG5_13
 70
     0
1001
GENIUS_GENCFG_13
1071
1019551343
1000
E6
1000
GEN@LAYER@ENTSORT
1070
    11
1000
GenCfgObject
1000
GenCfgShort
1000
GenCfgReal
1000
GenCfgBool
1000
GenCfgString
1000
GenCfgDim
1000
GenCfgLayer
1000
GenCfgPoint
1000
GenCfgAttrInf
1000
GenCfgLaySection
1000
GenCfgEntSort
1000
ADDL
1070
    10
1000
5
1002
{
1000
Class
1070
     4
1000
SYM
1002
{
1002
}
1000
Color
1070
     1
1070
     1
1002
{
1002
}
1000
LType
1070
     4
1000
BYLAYER
1002
{
1002
}
1002
}
1000
ALTR
1070
    10
1000
4
1002
{
1000
Class
1070
     4
1000

1002
{
1002
}
1000
Color
1070
     1
1070
     7
1002
{
1002
}
1000
LType
1070
     4
1000
GEN3A
1002
{
1002
}
1002
}
1000
BELI
1070
    10
1000
4
1002
{
1000
Class
1070
     4
1000

1002
{
1002
}
1000
Color
1070
     1
1070
   256
1002
{
1002
}
1000
LType
1070
     4
1000
BYLAYER
1002
{
1002
}
1002
}
1000
BHNV
1070
    10
1000
9
1002
{
1000
Class
1070
     4
1000
INV
1002
{
1002
}
1000
Color
1070
     1
1070
   256
1002
{
1002
}
1000
LType
1070
     4
1000
BYLAYER
1002
{
1002
}
1002
}
1000
BHNVS
1070
    10
1000
BEHIND
1002
{
1000
Class
1070
     4
1000
INV
1002
{
1002
}
1000
Color
1070
     1
1070
   256
1002
{
1002
}
1000
LType
1070
     4
1000
BYLAYER
1002
{
1002
}
1002
}
1000
BLID
1070
    10
1000
4A
1002
{
1000
Class
1070
     4
1000

1002
{
1002
}
1000
Color
1070
     1
1070
   256
1002
{
1002
}
1000
LType
1070
     4
1000
BYLAYER
1002
{
1002
}
1002
}
1000
BOAP
1070
    10
1000
4A
1002
{
1000
Class
1070
     4
1000

1002
{
1002
}
1000
Color
1070
     1
1070
   256
1002
{
1002
}
1000
LType
1070
     4
1000
BYLAYER
1002
{
1002
}
1002
}
1000
BOR2
1070
    10
1000
RAHM2
1002
{
1000
Class
1070
     4
1000
SPZ,SYM
1002
{
1002
}
1000
Color
1070
     1
1070
   256
1002
{
1002
}
1000
LType
1070
     4
1000
BYLAYER
1002
{
1002
}
1002
}
1000
BOR3
1070
    10
1000
RAHM3
1002
{
1000
Class
1070
     4
1000
SPZ,SYM
1002
{
1002
}
1000
Color
1070
     1
1070
   256
1002
{
1002
}
1000
LType
1070
     4
1000
BYLAYER
1002
{
1002
}
1002
}
1000
BOR5
1070
    10
1000
RAHM5
1002
{
1000
Class
1070
     4
1000
SPZ,SYM
1002
{
1002
}
1000
Color
1070
     1
1070
   256
1002
{
1002
}
1000
LType
1070
     4
1000
BYLAYER
1002
{
1002
}
1002
}
1000
BOR7
1070
    10
1000
RAHM5
1002
{
1000
Class
1070
     4
1000
SPZ,SYM
1002
{
1002
}
1000
Color
1070
     1
1070
     7
1002
{
1002
}
1000
LType
1070
     4
1000
CONTINUOUS
1002
{
1002
}
1002
}
1000
BPAP
1070
    10
1000
4A
1002
{
1000
Class
1070
     4
1000

1002
{
1002
}
1000
Color
1070
     1
1070
   256
1002
{
1002
}
1000
LType
1070
     4
1000
BYLAYER
1002
{
1002
}
1002
}
1000
BPEX
1070
    10
1000
4A
1002
{
1000
Class
1070
     4
1000

1002
{
1002
}
1000
Color
1070
     1
1070
   256
1002
{
1002
}
1000
LType
1070
     4
1000
BYLAYER
1002
{
1002
}
1002
}
1000
BTDI
1070
    10
1000
5
1002
{
1000
Class
1070
     4
1000
DIM,SYM
1002
{
1002
}
1000
Color
1070
     1
1070
   256
1002
{
1002
}
1000
LType
1070
     4
1000
BYLAYER
1002
{
1002
}
1002
}
1000
CAL2
1070
    10
1000
4
1002
{
1000
Class
1070
     4
1000
SYM
1002
{
1002
}
1000
Color
1070
     1
1070
   256
1002
{
1002
}
1000
LType
1070
     4
1000
BYLAYER
1002
{
1002
}
1002
}
1000
CAL3
1070
    10
1000
4
1002
{
1000
Class
1070
     4
1000
SYM
1002
{
1002
}
1000
Color
1070
     1
1070
     2
1002
{
1002
}
1000
LType
1070
     4
1000
BYLAYER
1002
{
1002
}
1002
}
1000
CAL5
1070
    10
1000
4
1002
{
1000
Class
1070
     4
1000
SYM
1002
{
1002
}
1000
Color
1070
     1
1070
     7
1002
{
1002
}
1000
LType
1070
     4
1000
BYLAYER
1002
{
1002
}
1002
}
1000
CAL7
1070
    10
1000
4
1002
{
1000
Class
1070
     4
1000
SYM
1002
{
1002
}
1000
Color
1070
     1
1070
     5
1002
{
1002
}
1000
LType
1070
     4
1000
BYLAYER
1002
{
1002
}
1002
}
1000
CENN
1070
    10
1000
7A
1002
{
1000
Class
1070
     4
1000
CEN
1002
{
1002
}
1000
Color
1070
     1
1070
   256
1002
{
1002
}
1000
LType
1070
     4
1000
BYLAYER
1002
{
1002
}
1002
}
1000
CENW
1070
    10
1000
7
1002
{
1000
Class
1070
     4
1000
CEN
1002
{
1002
}
1000
Color
1070
     1
1070
   256
1002
{
1002
}
1000
LType
1070
     4
1000
BYLAYER
1002
{
1002
}
1002
}
1000
CLIN
1070
    10
1000
KLIN
1002
{
1000
Class
1070
     4
1000
SPZ
1002
{
1002
}
1000
Color
1070
     1
1070
   256
1002
{
1002
}
1000
LType
1070
     4
1000
BYLAYER
1002
{
1002
}
1002
}
1000
CON1
1070
    10
1000
0
1002
{
1000
Class
1070
     4
1000
CON,BGD
1002
{
1002
}
1000
Color
1070
     1
1070
   256
1002
{
1002
}
1000
LType
1070
     4
1000
BYLAYER
1002
{
1002
}
1002
}
1000
CON2
1070
    10
1000
1
1002
{
1000
Class
1070
     4
1000
CON,BGD
1002
{
1002
}
1000
Color
1070
     1
1070
   256
1002
{
1002
}
1000
LType
1070
     4
1000
BYLAYER
1002
{
1002
}
1002
}
1000
CON3
1070
    10
1000
2
1002
{
1000
Class
1070
     4
1000
CON,BGD
1002
{
1002
}
1000
Color
1070
     1
1070
   256
1002
{
1002
}
1000
LType
1070
     4
1000
BYLAYER
1002
{
1002
}
1002
}
1000
CON4
1070
    10
1000
2
1002
{
1000
Class
1070
     4
1000
CON,BGD
1002
{
1002
}
1000
Color
1070
     1
1070
   256
1002
{
1002
}
1000
LType
1070
     4
1000
BYLAYER
1002
{
1002
}
1002
}
1000
DERP
1070
    10
1000
4
1002
{
1000
Class
1070
     4
1000

1002
{
1002
}
1000
Color
1070
     1
1070
   256
1002
{
1002
}
1000
LType
1070
     4
1000
BYLAYER
1002
{
1002
}
1002
}
1000
DETA
1070
    10
1000
4
1002
{
1000
Class
1070
     4
1000

1002
{
1002
}
1000
Color
1070
     1
1070
   256
1002
{
1002
}
1000
LType
1070
     4
1000
BYLAYER
1002
{
1002
}
1002
}
1000
DIAG
1070
    10
1000
5
1002
{
1000
Class
1070
     4
1000
SYM
1002
{
1002
}
1000
Color
1070
     1
1070
   256
1002
{
1002
}
1000
LType
1070
     4
1000
BYLAYER
1002
{
1002
}
1002
}
1000
DILI
1070
    10
1000
5
1002
{
1000
Class
1070
     4
1000
DIM,SYM
1002
{
1002
}
1000
Color
1070
     1
1070
   256
1002
{
1002
}
1000
LType
1070
     4
1000
BYLAYER
1002
{
1002
}
1002
}
1000
DITO2
1070
    10
1000
5
1002
{
1000
Class
1070
     4
1000
DIM,SYM
1002
{
1002
}
1000
Color
1070
     1
1070
     3
1002
{
1002
}
1000
LType
1070
     4
1000
BYLAYER
1002
{
1002
}
1002
}
1000
DITO3
1070
    10
1000
5
1002
{
1000
Class
1070
     4
1000
DIM,SYM
1002
{
1002
}
1000
Color
1070
     1
1070
     2
1002
{
1002
}
1000
LType
1070
     4
1000
BYLAYER
1002
{
1002
}
1002
}
1000
DITX
1070
    10
1000
5
1002
{
1000
Class
1070
     4
1000
DIM,SYM
1002
{
1002
}
1000
Color
1070
     1
1070
     2
1002
{
1002
}
1000
LType
1070
     4
1000
CONTINUOUS
1002
{
1002
}
1002
}
1000
DIXL
1070
    10
1000
5
1002
{
1000
Class
1070
     4
1000
DIM,SYM
1002
{
1002
}
1000
Color
1070
     1
1070
   256
1002
{
1002
}
1000
LType
1070
     4
1000
BYLAYER
1002
{
1002
}
1002
}
1000
EXMP
1070
    10
1000
4A
1002
{
1000
Class
1070
     4
1000

1002
{
1002
}
1000
Color
1070
     1
1070
   256
1002
{
1002
}
1000
LType
1070
     4
1000
BYLAYER
1002
{
1002
}
1002
}
1000
FEMN
1070
    10
1000
8
1002
{
1000
Class
1070
     4
1000

1002
{
1002
}
1000
Color
1070
     1
1070
   256
1002
{
1002
}
1000
LType
1070
     4
1000
BYLAYER
1002
{
1002
}
1002
}
1000
FEMPN
1070
    10
1000
8
1002
{
1000
Class
1070
     4
1000
SYM
1002
{
1002
}
1000
Color
1070
     1
1070
     3
1002
{
1002
}
1000
LType
1070
     4
1000
BYLAYER
1002
{
1002
}
1002
}
1000
FEMSP
1070
    10
1000
4A
1002
{
1000
Class
1070
     4
1000

1002
{
1002
}
1000
Color
1070
     1
1070
   256
1002
{
1002
}
1000
LType
1070
     4
1000
CONTINUOUS
1002
{
1002
}
1002
}
1000
FEMST
1070
    10
1000
4A
1002
{
1000
Class
1070
     4
1000
SYM
1002
{
1002
}
1000
Color
1070
     1
1070
     3
1002
{
1002
}
1000
LType
1070
     4
1000
BYLAYER
1002
{
1002
}
1002
}
1000
FEMVN
1070
    10
1000
2
1002
{
1000
Class
1070
     4
1000
CON
1002
{
1002
}
1000
Color
1070
     1
1070
   256
1002
{
1002
}
1000
LType
1070
     4
1000
BYLAYER
1002
{
1002
}
1002
}
1000
FEMVT
1070
    10
1000
2
1002
{
1000
Class
1070
     4
1000
SYM
1002
{
1002
}
1000
Color
1070
     1
1070
     3
1002
{
1002
}
1000
LType
1070
     4
1000
BYLAYER
1002
{
1002
}
1002
}
1000
FLAT
1070
    10
1000
0
1002
{
1000
Class
1070
     4
1000

1002
{
1002
}
1000
Color
1070
     1
1070
   256
1002
{
1002
}
1000
LType
1070
     4
1000
BYLAYER
1002
{
1002
}
1002
}
1000
FRAR
1070
    10
1000
4A
1002
{
1000
Class
1070
     4
1000

1002
{
1002
}
1000
Color
1070
     1
1070
   256
1002
{
1002
}
1000
LType
1070
     4
1000
BYLAYER
1002
{
1002
}
1002
}
1000
GRLI
1070
    10
1000
5
1002
{
1000
Class
1070
     4
1000
SYM
1002
{
1002
}
1000
Color
1070
     1
1070
   256
1002
{
1002
}
1000
LType
1070
     4
1000
BYLAYER
1002
{
1002
}
1002
}
1000
GVLI
1070
    10
1000
4A
1002
{
1000
Class
1070
     4
1000

1002
{
1002
}
1000
Color
1070
     1
1070
   256
1002
{
1002
}
1000
LType
1070
     4
1000
BYLAYER
1002
{
1002
}
1002
}
1000
HATC
1070
    10
1000
8
1002
{
1000
Class
1070
     4
1000
HTC,BGD
1002
{
1002
}
1000
Color
1070
     1
1070
   256
1002
{
1002
}
1000
LType
1070
     4
1000
BYLAYER
1002
{
1002
}
1002
}
1000
HIDN
1070
    10
1000
3A
1002
{
1000
Class
1070
     4
1000
HID,BGD
1002
{
1002
}
1000
Color
1070
     1
1070
   256
1002
{
1002
}
1000
LType
1070
     4
1000
BYLAYER
1002
{
1002
}
1002
}
1000
HIDW
1070
    10
1000
3
1002
{
1000
Class
1070
     4
1000
HID,BGD
1002
{
1002
}
1000
Color
1070
     1
1070
   256
1002
{
1002
}
1000
LType
1070
     4
1000
BYLAYER
1002
{
1002
}
1002
}
1000
HLIN
1070
    10
1000
4
1002
{
1000
Class
1070
     4
1000
BGD
1002
{
1002
}
1000
Color
1070
     1
1070
   256
1002
{
1002
}
1000
LType
1070
     4
1000
BYLAYER
1002
{
1002
}
1002
}
1000
HOCN
1070
    10
1000
7A
1002
{
1000
Class
1070
     4
1000
CEN
1002
{
1002
}
1000
Color
1070
     1
1070
   256
1002
{
1002
}
1000
LType
1070
     4
1000
BYLAYER
1002
{
1002
}
1002
}
1000
HOCW
1070
    10
1000
7
1002
{
1000
Class
1070
     4
1000
CEN
1002
{
1002
}
1000
Color
1070
     1
1070
   256
1002
{
1002
}
1000
LType
1070
     4
1000
BYLAYER
1002
{
1002
}
1002
}
1000
INFO
1070
    10
1000
INFO
1002
{
1000
Class
1070
     4
1000
SPZ,SYM
1002
{
1002
}
1000
Color
1070
     1
1070
   256
1002
{
1002
}
1000
LType
1070
     4
1000
BYLAYER
1002
{
1002
}
1002
}
1000
LADI
1070
    10
1000
4
1002
{
1000
Class
1070
     4
1000
BGD
1002
{
1002
}
1000
Color
1070
     1
1070
   256
1002
{
1002
}
1000
LType
1070
     4
1000
BYLAYER
1002
{
1002
}
1002
}
1000
LEAD
1070
    10
1000
5
1002
{
1000
Class
1070
     4
1000
SYM
1002
{
1002
}
1000
Color
1070
     1
1070
   256
1002
{
1002
}
1000
LType
1070
     4
1000
BYLAYER
1002
{
1002
}
1002
}
1000
N_ADDL
1070
    10
1000
5N
1002
{
1000
Class
1070
     4
1000
SYM
1002
{
1002
}
1000
Color
1070
     1
1070
     1
1002
{
1002
}
1000
LType
1070
     4
1000
BYLAYER
1002
{
1002
}
1002
}
1000
N_BHNV
1070
    10
1000
9N
1002
{
1000
Class
1070
     4
1000
INV
1002
{
1002
}
1000
Color
1070
     1
1070
   256
1002
{
1002
}
1000
LType
1070
     4
1000
BYLAYER
1002
{
1002
}
1002
}
1000
N_CON1
1070
    10
1000
0N
1002
{
1000
Class
1070
     4
1000
CON,BGD
1002
{
1002
}
1000
Color
1070
     1
1070
   256
1002
{
1002
}
1000
LType
1070
     4
1000
BYLAYER
1002
{
1002
}
1002
}
1000
N_CON2
1070
    10
1000
1N
1002
{
1000
Class
1070
     4
1000
CON,BGD
1002
{
1002
}
1000
Color
1070
     1
1070
   256
1002
{
1002
}
1000
LType
1070
     4
1000
BYLAYER
1002
{
1002
}
1002
}
1000
N_CON3
1070
    10
1000
2N
1002
{
1000
Class
1070
     4
1000
CON,BGD
1002
{
1002
}
1000
Color
1070
     1
1070
   256
1002
{
1002
}
1000
LType
1070
     4
1000
BYLAYER
1002
{
1002
}
1002
}
1000
N_CON4
1070
    10
1000
2N
1002
{
1000
Class
1070
     4
1000
CON,BGD
1002
{
1002
}
1000
Color
1070
     1
1070
   256
1002
{
1002
}
1000
LType
1070
     4
1000
BYLAYER
1002
{
1002
}
1002
}
1000
N_CENN
1070
    10
1000
7AN
1002
{
1000
Class
1070
     4
1000
CEN
1002
{
1002
}
1000
Color
1070
     1
1070
   256
1002
{
1002
}
1000
LType
1070
     4
1000
BYLAYER
1002
{
1002
}
1002
}
1000
N_CENW
1070
    10
1000
7N
1002
{
1000
Class
1070
     4
1000
CEN
1002
{
1002
}
1000
Color
1070
     1
1070
   256
1002
{
1002
}
1000
LType
1070
     4
1000
BYLAYER
1002
{
1002
}
1002
}
1000
N_DILI
1070
    10
1000
5N
1002
{
1000
Class
1070
     4
1000
DIM,SYM
1002
{
1002
}
1000
Color
1070
     1
1070
   256
1002
{
1002
}
1000
LType
1070
     4
1000
BYLAYER
1002
{
1002
}
1002
}
1000
N_DITX
1070
    10
1000
5N
1002
{
1000
Class
1070
     4
1000
DIM,SYM
1002
{
1002
}
1000
Color
1070
     1
1070
     2
1002
{
1002
}
1000
LType
1070
     4
1000
CONTINUOUS
1002
{
1002
}
1002
}
1000
N_DIXL
1070
    10
1000
5N
1002
{
1000
Class
1070
     4
1000
DIM,SYM
1002
{
1002
}
1000
Color
1070
     1
1070
   256
1002
{
1002
}
1000
LType
1070
     4
1000
BYLAYER
1002
{
1002
}
1002
}
1000
N_HATC
1070
    10
1000
8N
1002
{
1000
Class
1070
     4
1000
HTC,BGD
1002
{
1002
}
1000
Color
1070
     1
1070
   256
1002
{
1002
}
1000
LType
1070
     4
1000
BYLAYER
1002
{
1002
}
1002
}
1000
N_HIDN
1070
    10
1000
3AN
1002
{
1000
Class
1070
     4
1000
HID,BGD
1002
{
1002
}
1000
Color
1070
     1
1070
   256
1002
{
1002
}
1000
LType
1070
     4
1000
BYLAYER
1002
{
1002
}
1002
}
1000
N_HIDW
1070
    10
1000
3N
1002
{
1000
Class
1070
     4
1000
HID,BGD
1002
{
1002
}
1000
Color
1070
     1
1070
   256
1002
{
1002
}
1000
LType
1070
     4
1000
BYLAYER
1002
{
1002
}
1002
}
1000
N_NGIP
1070
    10
1000
IPN
1002
{
1000
Class
1070
     4
1000

1002
{
1002
}
1000
Color
1070
     1
1070
   256
1002
{
1002
}
1000
LType
1070
     4
1000
BYLAYER
1002
{
1002
}
1002
}
1000
N_PHAN
1070
    10
1000
4AN
1002
{
1000
Class
1070
     4
1000

1002
{
1002
}
1000
Color
1070
     1
1070
   256
1002
{
1002
}
1000
LType
1070
     4
1000
BYLAYER
1002
{
1002
}
1002
}
1000
N_POSL
1070
    10
1000
5N
1002
{
1000
Class
1070
     4
1000
SYM
1002
{
1002
}
1000
Color
1070
     1
1070
   256
1002
{
1002
}
1000
LType
1070
     4
1000
BYLAYER
1002
{
1002
}
1002
}
1000
N_TCON
1070
    10
1000
0N
1002
{
1000
Class
1070
     4
1000
CON,BGD
1002
{
1002
}
1000
Color
1070
     1
1070
   256
1002
{
1002
}
1000
LType
1070
     4
1000
BYLAYER
1002
{
1002
}
1002
}
1000
N_THLI
1070
    10
1000
4N
1002
{
1000
Class
1070
     4
1000
BGD
1002
{
1002
}
1000
Color
1070
     1
1070
   256
1002
{
1002
}
1000
LType
1070
     4
1000
BYLAYER
1002
{
1002
}
1002
}
1000
N_TLEN
1070
    10
1000
0N
1002
{
1000
Class
1070
     4
1000
CON,BGD
1002
{
1002
}
1000
Color
1070
     1
1070
   256
1002
{
1002
}
1000
LType
1070
     4
1000
BYLAYER
1002
{
1002
}
1002
}
1000
N_TXT3
1070
    10
1000
6N
1002
{
1000
Class
1070
     4
1000
SYM
1002
{
1002
}
1000
Color
1070
     1
1070
   256
1002
{
1002
}
1000
LType
1070
     4
1000
BYLAYER
1002
{
1002
}
1002
}
1000
N_VPLI
1070
    10
1000
2AN
1002
{
1000
Class
1070
     4
1000

1002
{
1002
}
1000
Color
1070
     1
1070
   256
1002
{
1002
}
1000
LType
1070
     4
1000
BYLAYER
1002
{
1002
}
1002
}
1000
NGIP
1070
    10
1000
IP
1002
{
1000
Class
1070
     4
1000

1002
{
1002
}
1000
Color
1070
     1
1070
   256
1002
{
1002
}
1000
LType
1070
     4
1000
BYLAYER
1002
{
1002
}
1002
}
1000
PAL2
1070
    10
1000
RAHM2
1002
{
1000
Class
1070
     4
1000
SPZ,SYM
1002
{
1002
}
1000
Color
1070
     1
1070
   256
1002
{
1002
}
1000
LType
1070
     4
1000
BYLAYER
1002
{
1002
}
1002
}
1000
PAL3
1070
    10
1000
RAHM3
1002
{
1000
Class
1070
     4
1000
SPZ,SYM
1002
{
1002
}
1000
Color
1070
     1
1070
   256
1002
{
1002
}
1000
LType
1070
     4
1000
BYLAYER
1002
{
1002
}
1002
}
1000
PAL5
1070
    10
1000
RAHM5
1002
{
1000
Class
1070
     4
1000
SPZ,SYM
1002
{
1002
}
1000
Color
1070
     1
1070
   256
1002
{
1002
}
1000
LType
1070
     4
1000
BYLAYER
1002
{
1002
}
1002
}
1000
PAL7
1070
    10
1000
RAHM5
1002
{
1000
Class
1070
     4
1000
SPZ,SYM
1002
{
1002
}
1000
Color
1070
     1
1070
     7
1002
{
1002
}
1000
LType
1070
     4
1000
CONTINUOUS
1002
{
1002
}
1002
}
1000
PHAN
1070
    10
1000
4A
1002
{
1000
Class
1070
     4
1000

1002
{
1002
}
1000
Color
1070
     1
1070
   256
1002
{
1002
}
1000
LType
1070
     4
1000
BYLAYER
1002
{
1002
}
1002
}
1000
POSL
1070
    10
1000
5
1002
{
1000
Class
1070
     4
1000
SYM
1002
{
1002
}
1000
Color
1070
     1
1070
   256
1002
{
1002
}
1000
LType
1070
     4
1000
BYLAYER
1002
{
1002
}
1002
}
1000
POSN
1070
    10
1000
6
1002
{
1000
Class
1070
     4
1000
SYM
1002
{
1002
}
1000
Color
1070
     1
1070
     7
1002
{
1002
}
1000
LType
1070
     4
1000
BYLAYER
1002
{
1002
}
1002
}
1000
POSREF
1070
    10
1000
6
1002
{
1000
Class
1070
     4
1000
SYM
1002
{
1002
}
1000
Color
1070
     1
1070
     5
1002
{
1002
}
1000
LType
1070
     4
1000
BYLAYER
1002
{
1002
}
1002
}
1000
POSX
1070
    10
1000
5
1002
{
1000
Class
1070
     4
1000
SYM
1002
{
1002
}
1000
Color
1070
     1
1070
     2
1002
{
1002
}
1000
LType
1070
     4
1000
CONTINUOUS
1002
{
1002
}
1002
}
1000
PSEC
1070
    10
1000
4A
1002
{
1000
Class
1070
     4
1000

1002
{
1002
}
1000
Color
1070
     1
1070
   256
1002
{
1002
}
1000
LType
1070
     4
1000
BYLAYER
1002
{
1002
}
1002
}
1000
RCGN
1070
    10
1000
7A
1002
{
1000
Class
1070
     4
1000
CEN
1002
{
1002
}
1000
Color
1070
     1
1070
   256
1002
{
1002
}
1000
LType
1070
     4
1000
BYLAYER
1002
{
1002
}
1002
}
1000
RCGW
1070
    10
1000
7
1002
{
1000
Class
1070
     4
1000
CEN
1002
{
1002
}
1000
Color
1070
     1
1070
   256
1002
{
1002
}
1000
LType
1070
     4
1000
BYLAYER
1002
{
1002
}
1002
}
1000
RFDI
1070
    10
1000
4
1002
{
1000
Class
1070
     4
1000
BGD
1002
{
1002
}
1000
Color
1070
     1
1070
   256
1002
{
1002
}
1000
LType
1070
     4
1000
BYLAYER
1002
{
1002
}
1002
}
1000
RQTR
1070
    10
1000
4
1002
{
1000
Class
1070
     4
1000

1002
{
1002
}
1000
Color
1070
     1
1070
     7
1002
{
1002
}
1000
LType
1070
     4
1000
GEN7A
1002
{
1002
}
1002
}
1000
RSBO
1070
    10
1000
4
1002
{
1000
Class
1070
     4
1000
BGD
1002
{
1002
}
1000
Color
1070
     1
1070
   256
1002
{
1002
}
1000
LType
1070
     4
1000
BYLAYER
1002
{
1002
}
1002
}
1000
SBRK
1070
    10
1000
4
1002
{
1000
Class
1070
     4
1000
BGD
1002
{
1002
}
1000
Color
1070
     1
1070
   256
1002
{
1002
}
1000
LType
1070
     4
1000
BYLAYER
1002
{
1002
}
1002
}
1000
SCEN
1070
    10
1000
7
1002
{
1000
Class
1070
     4
1000

1002
{
1002
}
1000
Color
1070
     1
1070
   256
1002
{
1002
}
1000
LType
1070
     4
1000
CONTINUOUS
1002
{
1002
}
1002
}
1000
SECT
1070
    10
1000
4
1002
{
1000
Class
1070
     4
1000
BGD
1002
{
1002
}
1000
Color
1070
     1
1070
   256
1002
{
1002
}
1000
LType
1070
     4
1000
BYLAYER
1002
{
1002
}
1002
}
1000
SELN
1070
    10
1000
7A
1002
{
1000
Class
1070
     4
1000

1002
{
1002
}
1000
Color
1070
     1
1070
   256
1002
{
1002
}
1000
LType
1070
     4
1000
BYLAYER
1002
{
1002
}
1002
}
1000
SELW
1070
    10
1000
7
1002
{
1000
Class
1070
     4
1000

1002
{
1002
}
1000
Color
1070
     1
1070
   256
1002
{
1002
}
1000
LType
1070
     4
1000
BYLAYER
1002
{
1002
}
1002
}
1000
SSYS
1070
    10
1000
0
1002
{
1000
Class
1070
     4
1000

1002
{
1002
}
1000
Color
1070
     1
1070
   256
1002
{
1002
}
1000
LType
1070
     4
1000
BYLAYER
1002
{
1002
}
1002
}
1000
STLI
1070
    10
1000
4
1002
{
1000
Class
1070
     4
1000

1002
{
1002
}
1000
Color
1070
     1
1070
     7
1002
{
1002
}
1000
LType
1070
     4
1000
GEN3A
1002
{
1002
}
1002
}
1000
SYB1
1070
    10
1000
5
1002
{
1000
Class
1070
     4
1000
SYM
1002
{
1002
}
1000
Color
1070
     1
1070
   256
1002
{
1002
}
1000
LType
1070
     4
1000
BYLAYER
1002
{
1002
}
1002
}
1000
SYB2
1070
    10
1000
5
1002
{
1000
Class
1070
     4
1000
SYM
1002
{
1002
}
1000
Color
1070
     1
1070
   256
1002
{
1002
}
1000
LType
1070
     4
1000
BYLAYER
1002
{
1002
}
1002
}
1000
SYB3
1070
    10
1000
6
1002
{
1000
Class
1070
     4
1000
SYM
1002
{
1002
}
1000
Color
1070
     1
1070
   256
1002
{
1002
}
1000
LType
1070
     4
1000
CONTINUOUS
1002
{
1002
}
1002
}
1000
SYB5
1070
    10
1000
5
1002
{
1000
Class
1070
     4
1000
SYM
1002
{
1002
}
1000
Color
1070
     1
1070
     7
1002
{
1002
}
1000
LType
1070
     4
1000
BYLAYER
1002
{
1002
}
1002
}
1000
SYMN
1070
    10
1000
7A
1002
{
1000
Class
1070
     4
1000
CEN
1002
{
1002
}
1000
Color
1070
     1
1070
   256
1002
{
1002
}
1000
LType
1070
     4
1000
BYLAYER
1002
{
1002
}
1002
}
1000
SYMW
1070
    10
1000
7
1002
{
1000
Class
1070
     4
1000
CEN
1002
{
1002
}
1000
Color
1070
     1
1070
   256
1002
{
1002
}
1000
LType
1070
     4
1000
BYLAYER
1002
{
1002
}
1002
}
1000
TCON
1070
    10
1000
0
1002
{
1000
Class
1070
     4
1000
CON,BGD
1002
{
1002
}
1000
Color
1070
     1
1070
   256
1002
{
1002
}
1000
LType
1070
     4
1000
BYLAYER
1002
{
1002
}
1002
}
1000
THLI
1070
    10
1000
4
1002
{
1000
Class
1070
     4
1000
BGD
1002
{
1002
}
1000
Color
1070
     1
1070
   256
1002
{
1002
}
1000
LType
1070
     4
1000
BYLAYER
1002
{
1002
}
1002
}
1000
TIT2
1070
    10
1000
RAHM2
1002
{
1000
Class
1070
     4
1000
SPZ,SYM
1002
{
1002
}
1000
Color
1070
     1
1070
   256
1002
{
1002
}
1000
LType
1070
     4
1000
BYLAYER
1002
{
1002
}
1002
}
1000
TIT3
1070
    10
1000
RAHM3
1002
{
1000
Class
1070
     4
1000
SPZ,SYM
1002
{
1002
}
1000
Color
1070
     1
1070
   256
1002
{
1002
}
1000
LType
1070
     4
1000
BYLAYER
1002
{
1002
}
1002
}
1000
TIT5
1070
    10
1000
RAHM5
1002
{
1000
Class
1070
     4
1000
SPZ,SYM
1002
{
1002
}
1000
Color
1070
     1
1070
   256
1002
{
1002
}
1000
LType
1070
     4
1000
BYLAYER
1002
{
1002
}
1002
}
1000
TIT7
1070
    10
1000
RAHM5
1002
{
1000
Class
1070
     4
1000
SPZ,SYM
1002
{
1002
}
1000
Color
1070
     1
1070
     7
1002
{
1002
}
1000
LType
1070
     4
1000
CONTINUOUS
1002
{
1002
}
1002
}
1000
TLEN
1070
    10
1000
0
1002
{
1000
Class
1070
     4
1000
CON,BGD
1002
{
1002
}
1000
Color
1070
     1
1070
   256
1002
{
1002
}
1000
LType
1070
     4
1000
BYLAYER
1002
{
1002
}
1002
}
1000
TRKN
1070
    10
1000
7A
1002
{
1000
Class
1070
     4
1000

1002
{
1002
}
1000
Color
1070
     1
1070
   256
1002
{
1002
}
1000
LType
1070
     4
1000
BYLAYER
1002
{
1002
}
1002
}
1000
TRKW
1070
    10
1000
7
1002
{
1000
Class
1070
     4
1000

1002
{
1002
}
1000
Color
1070
     1
1070
   256
1002
{
1002
}
1000
LType
1070
     4
1000
BYLAYER
1002
{
1002
}
1002
}
1000
TRLI
1070
    10
1000
4
1002
{
1000
Class
1070
     4
1000
BGD
1002
{
1002
}
1000
Color
1070
     1
1070
   256
1002
{
1002
}
1000
LType
1070
     4
1000
BYLAYER
1002
{
1002
}
1002
}
1000
TXT1
1070
    10
1000
6
1002
{
1000
Class
1070
     4
1000
SYM
1002
{
1002
}
1000
Color
1070
     1
1070
     2
1002
{
1002
}
1000
LType
1070
     4
1000
BYLAYER
1002
{
1002
}
1002
}
1000
TXT2
1070
    10
1000
6
1002
{
1000
Class
1070
     4
1000
SYM
1002
{
1002
}
1000
Color
1070
     1
1070
     2
1002
{
1002
}
1000
LType
1070
     4
1000
BYLAYER
1002
{
1002
}
1002
}
1000
TXT3
1070
    10
1000
6
1002
{
1000
Class
1070
     4
1000
SYM
1002
{
1002
}
1000
Color
1070
     1
1070
   256
1002
{
1002
}
1000
LType
1070
     4
1000
BYLAYER
1002
{
1002
}
1002
}
1000
TXT5
1070
    10
1000
6
1002
{
1000
Class
1070
     4
1000
SYM
1002
{
1002
}
1000
Color
1070
     1
1070
     7
1002
{
1002
}
1000
LType
1070
     4
1000
BYLAYER
1002
{
1002
}
1002
}
1000
TXT7
1070
    10
1000
6
1002
{
1000
Class
1070
     4
1000
SYM
1002
{
1002
}
1000
Color
1070
     1
1070
     7
1002
{
1002
}
1000
LType
1070
     4
1000
BYLAYER
1002
{
1002
}
1002
}
1000
VIEW
1070
    10
1000
VIEW
1002
{
1000
Class
1070
     4
1000
SPZ
1002
{
1002
}
1000
Color
1070
     1
1070
   256
1002
{
1002
}
1000
LType
1070
     4
1000
BYLAYER
1002
{
1002
}
1002
}
1000
VPLI
1070
    10
1000
2A
1002
{
1000
Class
1070
     4
1000

1002
{
1002
}
1000
Color
1070
     1
1070
   256
1002
{
1002
}
1000
LType
1070
     4
1000
BYLAYER
1002
{
1002
}
1002
}
1000
ZIZA
1070
    10
1000
4
1002
{
1000
Class
1070
     4
1000
BGD
1002
{
1002
}
1000
Color
1070
     1
1070
   256
1002
{
1002
}
1000
LType
1070
     4
1000
GENZIGZAG
1002
{
1002
}
1002
}
  0
APPID
  5
E7
330
9
100
AcDbSymbolTableRecord
100
AcDbRegAppTableRecord
  2
GENIUS_GENCFG6_13
 70
     0
1001
GENIUS_GENCFG_13
1071
1019551343
1000
E7
1000
GEN
1070
    13
1000
GenCfgObject
1000
GenCfgShort
1000
GenCfgReal
1000
GenCfgBool
1000
GenCfgString
1000
GenCfgDim
1000
GenCfgLayer
1000
GenCfgPoint
1000
GenCfgAttrInf
1000
GenCfgLaySection
1000
GenCfgEntSort
1000
GenCfgLType
1000
GenCfgFilter
1000
Balloon
1070
     0
1002
{
1000
GenIF
1070
     1
1070
     0
1002
{
1002
}
1000
GenPosInc
1070
     1
1070
     1
1002
{
1002
}
1000
GenPosBlk
1070
     1
1070
     8
1002
{
1002
}
1000
GenPosVar
1070
     1
1070
     0
1002
{
1002
}
1000
GenZiCir
1070
     2
1040
1.5
1002
{
1002
}
1000
MaxCharForCenteredText
1070
     1
1070
    30
1002
{
1002
}
1000
Snap
1070
     0
1002
{
1000
ActivationRadius
1070
     2
1040
1.0
1002
{
1002
}
1000
M
1070
     0
1002
{
1000
SnapStepX
1070
     2
1040
20.0
1002
{
1002
}
1000
SnapStepY
1070
     2
1040
10.0
1002
{
1002
}
1002
}
1000
I
1070
     0
1002
{
1000
SnapStepX
1070
     2
1040
1.0
1002
{
1002
}
1000
SnapStepY
1070
     2
1040
0.5
1002
{
1002
}
1002
}
1002
}
1002
}
1000
Centerline
1070
     0
1002
{
1000
ScaleNot
1070
     3
1070
     0
1002
{
1002
}
1000
M
1070
     0
1002
{
1000
GenCenAng
1070
     4
1000
45|90|135
1002
{
1002
}
1000
GenCenDia
1070
     2
1040
10.0
1002
{
1002
}
1000
GenCenDias
1070
     4
1000
10|20|30
1002
{
1002
}
1000
GenCenDist
1070
     2
1040
3.0
1002
{
1002
}
1000
GenCenLen
1070
     2
1040
10.0
1002
{
1002
}
1000
GenCenOff
1070
     2
1040
10.0
1002
{
1002
}
1002
}
1000
I
1070
     0
1002
{
1000
GenCenAng
1070
     4
1000
45|90|135
1002
{
1002
}
1000
GenCenDia
1070
     2
1040
0.5
1002
{
1002
}
1000
GenCenDias
1070
     4
1000
0.5|1.0|1.5
1002
{
1002
}
1000
GenCenDist
1070
     2
1040
0.125
1002
{
1002
}
1000
GenCenLen
1070
     2
1040
0.5
1002
{
1002
}
1000
GenCenOff
1070
     2
1040
0.5
1002
{
1002
}
1002
}
1002
}
1000
CLine
1070
     0
1002
{
1000
CAngArray
1070
     4
1000
30|45|60
1002
{
1002
}
1000
Typ
1070
     4
1000
XLINE
1002
{
1002
}
1000
M
1070
     0
1002
{
1000
CLinArray
1070
     4
1000
10|20|30
1002
{
1002
}
1002
}
1000
I
1070
     0
1002
{
1000
CLinArray
1070
     4
1000
0.125|0.25|0.5
1002
{
1002
}
1002
}
1002
}
1000
Detail
1070
     0
1002
{
1002
}
1000
Dimension
1070
     5
1002
{
1000
DIMALT
1070
     1
1070
     0
1002
{
1002
}
1000
DIMALTD
1070
     1
1070
     2
1002
{
1000
DIMDEC
1070
     4
1000
4
1002
{
1002
}
1002
}
1000
DIMALTTD
1070
     1
1070
     4
1002
{
1002
}
1000
DIMALTTZ
1070
     1
1070
     0
1002
{
1002
}
1000
DIMALTU
1070
     1
1070
     2
1002
{
1002
}
1000
DIMALTZ
1070
     1
1070
     0
1002
{
1002
}
1000
DIMAUNIT
1070
     1
1070
     0
1002
{
1000
DIMASO
1070
     4
1000
1
1002
{
1002
}
1002
}
1000
DIMBLK
1070
     4
1000

1002
{
1002
}
1000
DIMBLK1
1070
     4
1000

1002
{
1002
}
1000
DIMBLK2
1070
     4
1000

1002
{
1002
}
1000
DIMCLRD
1070
     1
1070
   256
1002
{
1002
}
1000
DIMCLRE
1070
     1
1070
   256
1002
{
1002
}
1000
DIMCLRT
1070
     1
1070
     2
1002
{
1002
}
1000
DIMDLE
1070
     2
1040
0.0
1002
{
1002
}
1000
DIMFIT
1070
     1
1070
     3
1002
{
1002
}
1000
DIMJUST
1070
     1
1070
     0
1002
{
1002
}
1000
DIMLFAC
1070
     2
1040
1.0
1002
{
1000
gen-iso-05
1070
     4
1000

1002
{
1002
}
1002
}
1000
DIMLIM
1070
     1
1070
     0
1002
{
1002
}
1000
DIMPOST
1070
     4
1000
<>
1002
{
1002
}
1000
DIMRND
1070
     2
1040
0.0
1002
{
1002
}
1000
DIMSAH
1070
     1
1070
     0
1002
{
1002
}
1000
DIMSCALE
1070
     2
1040
1.0
1002
{
1000
GEN-IS0-1
1070
     4
1000

1002
{
1002
}
1002
}
1000
DIMSD1
1070
     1
1070
     0
1002
{
1002
}
1000
DIMSD2
1070
     1
1070
     0
1002
{
1002
}
1000
DIMSE1
1070
     1
1070
     0
1002
{
1002
}
1000
DIMSE2
1070
     1
1070
     0
1002
{
1002
}
1000
DIMSOXD
1070
     1
1070
     0
1002
{
1002
}
1000
DIMTAD
1070
     1
1070
     1
1002
{
1002
}
1000
DIMTFAC
1070
     2
1040
0.71
1002
{
1002
}
1000
DIMTIH
1070
     1
1070
     0
1002
{
1002
}
1000
DIMTIX
1070
     1
1070
     0
1002
{
1002
}
1000
DIMTM
1070
     2
1040
0.1
1002
{
1002
}
1000
DIMTOFL
1070
     1
1070
     1
1002
{
1002
}
1000
DIMTOH
1070
     1
1070
     0
1002
{
1002
}
1000
DIMTOL
1070
     1
1070
     0
1002
{
1002
}
1000
DIMTOLJ
1070
     1
1070
     1
1002
{
1002
}
1000
DIMTP
1070
     2
1040
0.1
1002
{
1002
}
1000
DIMTSZ
1070
     2
1040
0.0
1002
{
1002
}
1000
DIMTVP
1070
     2
1040
0.0
1002
{
1000
DIMDEC
1070
     4
1000
4
1002
{
1002
}
1002
}
1000
DIMTXSTY
1070
     4
1000
STANDARD
1002
{
1000
Koordinate
1070
     4
1000
Koordinate
1002
{
1002
}
1002
}
1000
DIMTZIN
1070
     1
1070
     0
1002
{
1002
}
1000
DIMUNIT
1070
     1
1070
     2
1002
{
1002
}
1000
DIMUPT
1070
     1
1070
     0
1002
{
1000
DIMUPT
1070
     4
1000

1002
{
1002
}
1002
}
1000
M
1070
     0
1002
{
1000
DIMALTF
1070
     2
1040
0.0393701
1002
{
1002
}
1000
DIMAPOST
1070
     4
1000
"
1002
{
1002
}
1000
DIMASZ
1070
     2
1040
2.5
1002
{
1002
}
1000
DIMCEN
1070
     2
1040
0.0
1002
{
1002
}
1000
DIMDEC
1070
     1
1070
     2
1002
{
1002
}
1000
DIMDLI
1070
     2
1040
7.0
1002
{
1002
}
1000
DIMEXE
1070
     2
1040
1.0
1002
{
1002
}
1000
DIMEXO
1070
     2
1040
1.0
1002
{
1002
}
1000
DIMGAP
1070
     2
1040
0.6
1002
{
1000
DIMLFAC
1070
     4
1000
.5
1002
{
1002
}
1002
}
1000
DIMTDEC
1070
     1
1070
     3
1002
{
1002
}
1000
DIMTXT
1070
     2
1040
3.5
1002
{
1002
}
1000
DIMZIN
1070
     1
1070
     8
1002
{
1000
LUPREC
1070
     4
1000
3
1002
{
1002
}
1002
}
1002
}
1000
I
1070
     0
1002
{
1000
DIMALTF
1070
     2
1040
25.4
1002
{
1002
}
1000
DIMAPOST
1070
     4
1000
mm
1002
{
1002
}
1000
DIMASZ
1070
     2
1040
0.1
1002
{
1002
}
1000
DIMCEN
1070
     2
1040
0.0
1002
{
1002
}
1000
DIMDEC
1070
     1
1070
     4
1002
{
1002
}
1000
DIMDLI
1070
     2
1040
0.5
1002
{
1002
}
1000
DIMEXE
1070
     2
1040
0.1
1002
{
1002
}
1000
DIMEXO
1070
     2
1040
0.05
1002
{
1002
}
1000
DIMGAP
1070
     2
1040
0.06
1002
{
1002
}
1000
DIMTDEC
1070
     1
1070
     4
1002
{
1002
}
1000
DIMTXT
1070
     2
1040
0.12
1002
{
1000
DIMCLRT
1070
     4
1000
6
1002
{
1002
}
1002
}
1000
DIMZIN
1070
     1
1070
     7
1002
{
1002
}
1002
}
1000
GEN-ISO
1070
     5
1002
{
1000
NAME
1070
     4
1000
GEN-ISO
1002
{
1000
DIMTXSTY
1070
     4
1000
ROMANS
1002
{
1002
}
1000
DIMTOH
1070
     4
1000
0
1002
{
1002
}
1002
}
1000
DIMTAD
1070
     1
1070
     1
1002
{
1002
}
1000
DIMTOLJ
1070
     1
1070
     0
1002
{
1002
}
1000
DIMTOFL
1070
     1
1070
     1
1002
{
1002
}
1000
M
1070
     0
1002
{
1002
}
1000
I
1070
     0
1002
{
1002
}
1002
}
1000
GEN-ISO-POS
1070
     5
1002
{
1000
NAME
1070
     4
1000
GEN-ISO-POS
1002
{
1002
}
1000
DIMTOLJ
1070
     1
1070
     0
1002
{
1002
}
1000
DIMTXSTY
1070
     4
1000
STANDARD
1002
{
1002
}
1000
M
1070
     0
1002
{
1000
DIMASZ
1070
     2
1040
2.5
1002
{
1002
}
1000
DIMGAP
1070
     2
1040
1.5
1002
{
1002
}
1000
DIMTXT
1070
     2
1040
5.0
1002
{
1002
}
1002
}
1000
I
1070
     0
1002
{
1000
DIMASZ
1070
     2
1040
0.1
1002
{
1002
}
1000
DIMGAP
1070
     2
1040
0.06
1002
{
1002
}
1000
DIMTXT
1070
     2
1040
0.2
1002
{
1002
}
1002
}
1002
}
1000
GEN-ISO-CIR
1070
     5
1002
{
1000
NAME
1070
     4
1000
GEN-ISO$3
1002
{
1000
DIMDEC
1070
     4
1000
4
1002
{
1002
}
1002
}
1000
DIMFIT
1070
     1
1070
     0
1002
{
1002
}
1000
DIMTAD
1070
     1
1070
     1
1002
{
1002
}
1000
DIMTOH
1070
     1
1070
     1
1002
{
1002
}
1000
DIMTOLJ
1070
     1
1070
     0
1002
{
1002
}
1000
DIMUPT
1070
     1
1070
     1
1002
{
1002
}
1000
M
1070
     0
1002
{
1002
}
1000
I
1070
     0
1002
{
1002
}
1000
DIMTIH
1070
     1
1070
     0
1002
{
1002
}
1000
DIMTIX
1070
     1
1070
     0
1002
{
1002
}
1000
DIMTOFL
1070
     1
1070
     0
1002
{
1002
}
1002
}
1000
GEN-ISO-RAD
1070
     5
1002
{
1000
NAME
1070
     4
1000
GEN-ISO$4
1002
{
1000
DIMDEC
1070
     4
1000
4
1002
{
1002
}
1002
}
1000
DIMFIT
1070
     1
1070
     0
1002
{
1002
}
1000
DIMTOH
1070
     1
1070
     1
1002
{
1002
}
1000
DIMTOLJ
1070
     1
1070
     0
1002
{
1002
}
1000
DIMTOFL
1070
     1
1070
     0
1002
{
1002
}
1000
DIMUPT
1070
     1
1070
     1
1002
{
1002
}
1000
M
1070
     0
1002
{
1002
}
1000
I
1070
     0
1002
{
1002
}
1000
DIMPOST
1070
     4
1000
R<>
1002
{
1002
}
1002
}
1000
GEN-ISO-ORD
1070
     5
1002
{
1000
NAME
1070
     4
1000
GEN-ISO$6
1002
{
1000
dimtxt
1070
     4
1000
2.5
1002
{
1002
}
1002
}
1000
DIMTOLJ
1070
     1
1070
     0
1002
{
1002
}
1000
M
1070
     0
1002
{
1002
}
1000
I
1070
     0
1002
{
1002
}
1002
}
1000
GEN-ISO-AXE-F
1070
     5
1002
{
1000
NAME
1070
     4
1000
GEN-ISO-AXE-F
1002
{
1002
}
1000
DIMSE1
1070
     1
1070
     1
1002
{
1002
}
1000
DIMSE2
1070
     1
1070
     1
1002
{
1002
}
1000
DIMTAD
1070
     1
1070
     1
1002
{
1002
}
1000
DIMTOLJ
1070
     1
1070
     0
1002
{
1002
}
1000
DIMTOFL
1070
     1
1070
     1
1002
{
1002
}
1000
M
1070
     0
1002
{
1002
}
1000
I
1070
     0
1002
{
1002
}
1002
}
1000
GEN-ISO-AXE-H
1070
     5
1002
{
1000
NAME
1070
     4
1000
GEN-ISO-AXE-H
1002
{
1002
}
1000
DIMBLK1
1070
     4
1000
GENAXEH
1002
{
1002
}
1000
DIMLFAC
1070
     2
1040
2.0
1002
{
1002
}
1000
DIMSAH
1070
     1
1070
     1
1002
{
1002
}
1000
DIMSE1
1070
     1
1070
     1
1002
{
1002
}
1000
DIMSE2
1070
     1
1070
     1
1002
{
1002
}
1000
DIMTAD
1070
     1
1070
     1
1002
{
1002
}
1000
DIMTOLJ
1070
     1
1070
     0
1002
{
1002
}
1000
DIMTOFL
1070
     1
1070
     1
1002
{
1002
}
1000
M
1070
     0
1002
{
1002
}
1000
I
1070
     0
1002
{
1002
}
1002
}
1000
GEN-ANSI
1070
     5
1002
{
1000
NAME
1070
     4
1000
GEN-ANSI
1002
{
1002
}
1000
DIMTIH
1070
     1
1070
     1
1002
{
1002
}
1000
DIMTOH
1070
     1
1070
     1
1002
{
1002
}
1000
DIMTAD
1070
     1
1070
     0
1002
{
1002
}
1000
DIMTOLJ
1070
     1
1070
     1
1002
{
1002
}
1000
M
1070
     0
1002
{
1002
}
1000
I
1070
     0
1002
{
1002
}
1002
}
1000
GEN-ANSI-POS
1070
     5
1002
{
1000
>
1002
}
1000
GEN-ANSI-CIR
1070
     5
1002
{
1000
NAME
1070
     4
1000
GEN-ANSI$3
1002
{
1002
}
1000
DIMFIT
1070
     1
1070
     0
1002
{
1002
}
1000
DIMTAD
1070
     1
1070
     0
1002
{
1002
}
1000
DIMTIH
1070
     1
1070
     1
1002
{
1002
}
1000
DIMTIX
1070
     1
1070
     0
1002
{
1002
}
1000
DIMTOFL
1070
     1
1070
     0
1002
{
1002
}
1000
DIMTOH
1070
     1
1070
     1
1002
{
1002
}
1000
DIMTOLJ
1070
     1
1070
     1
1002
{
1002
}
1000
DIMUPT
1070
     1
1070
     1
1002
{
1002
}
1000
M
1070
     0
1002
{
1002
}
1000
I
1070
     0
1002
{
1002
}
1002
}
1000
GEN-ANSI-RAD
1070
     5
1002
{
1000
NAME
1070
     4
1000
GEN-ANSI$4
1002
{
1002
}
1000
DIMFIT
1070
     1
1070
     0
1002
{
1002
}
1000
DIMTAD
1070
     1
1070
     0
1002
{
1002
}
1000
DIMTIH
1070
     1
1070
     1
1002
{
1002
}
1000
DIMTIX
1070
     1
1070
     0
1002
{
1002
}
1000
DIMTOFL
1070
     1
1070
     0
1002
{
1002
}
1000
DIMTOH
1070
     1
1070
     1
1002
{
1002
}
1000
DIMTOLJ
1070
     1
1070
     1
1002
{
1002
}
1000
DIMUPT
1070
     1
1070
     1
1002
{
1002
}
1000
M
1070
     0
1002
{
1002
}
1000
I
1070
     0
1002
{
1002
}
1002
}
1000
GEN-ANSI-ORD
1070
     5
1002
{
1000
NAME
1070
     4
1000
GEN-ANSI$6
1002
{
1002
}
1000
DIMTAD
1070
     1
1070
     0
1002
{
1002
}
1000
DIMTIH
1070
     1
1070
     1
1002
{
1002
}
1000
DIMTOH
1070
     1
1070
     1
1002
{
1002
}
1000
DIMTOLJ
1070
     1
1070
     1
1002
{
1002
}
1000
M
1070
     0
1002
{
1002
}
1000
I
1070
     0
1002
{
1002
}
1002
}
1000
GEN-ANSI-AXE-F
1070
     5
1002
{
1000
NAME
1070
     4
1000
GEN-ANSI-AXE-F
1002
{
1002
}
1000
DIMBLK1
1070
     4
1000
GENAXEH
1002
{
1002
}
1000
DIMSAH
1070
     1
1070
     1
1002
{
1002
}
1000
DIMSE1
1070
     1
1070
     1
1002
{
1002
}
1000
DIMSE2
1070
     1
1070
     1
1002
{
1002
}
1000
DIMTAD
1070
     1
1070
     0
1002
{
1002
}
1000
DIMTIH
1070
     1
1070
     1
1002
{
1002
}
1000
DIMTOH
1070
     1
1070
     1
1002
{
1002
}
1000
DIMTOLJ
1070
     1
1070
     1
1002
{
1002
}
1000
M
1070
     0
1002
{
1002
}
1000
I
1070
     0
1002
{
1002
}
1002
}
1000
GEN-ANSI-AXE-H
1070
     5
1002
{
1000
NAME
1070
     4
1000
GEN-ANSI-AXE-H
1002
{
1002
}
1000
DIMBLK1
1070
     4
1000
GENAXEH
1002
{
1002
}
1000
DIMLFAC
1070
     2
1040
2.0
1002
{
1002
}
1000
DIMSAH
1070
     1
1070
     1
1002
{
1002
}
1000
DIMSE1
1070
     1
1070
     1
1002
{
1002
}
1000
DIMSE2
1070
     1
1070
     1
1002
{
1002
}
1000
DIMTAD
1070
     1
1070
     0
1002
{
1002
}
1000
DIMTOFL
1070
     1
1070
     1
1002
{
1002
}
1000
DIMTOLJ
1070
     1
1070
     1
1002
{
1002
}
1000
M
1070
     0
1002
{
1002
}
1000
I
1070
     0
1002
{
1002
}
1002
}
1002
}
1000
DimSet
1070
     0
1002
{
1000
ChainSum
1070
     3
1070
     0
1002
{
1002
}
1000
DimDclTyp0
1070
     4
1000
dim23
1002
{
1002
}
1000
HorBra
1070
     3
1070
     0
1002
{
1002
}
1000
StrDia
1070
     4
1000
%%c<>
1002
{
1002
}
1000
StrRad
1070
     4
1000
R<>
1002
{
1002
}
1000
TextMinus
1070
     4
1000
<>
1002
{
1002
}
1000
TextPlus
1070
     4
1000
<>
1002
{
1002
}
1000
M
1070
     0
1002
{
1000
DimdliFirst
1070
     2
1040
10.0
1002
{
1002
}
1000
PointMakeDist
1070
     2
1040
10.0
1002
{
1002
}
1002
}
1000
I
1070
     0
1002
{
1000
DimdliFirst
1070
     2
1040
0.5
1002
{
1002
}
1000
PointMakeDist
1070
     2
1040
0.5
1002
{
1002
}
1002
}
1000
FitGrade
1070
     4
1000
h7
1002
{
1002
}
1002
}
1000
Drawing
1070
     0
1002
{
1000
ChamferDimMode
1070
     1
1070
     2
1002
{
1002
}
1000
Gen_Fiso
1070
    -3
1040
1.0
1002
{
1002
}
1000
GenDimStil
1070
     4
1000
ISO
1002
{
1002
}
1000
GenDwgUScale
1070
     2
1040
1.0
1002
{
1002
}
1000
GenInch
1070
     4
1000
M
1002
{
1002
}
1000
GenPlotScale
1070
     4
1000
1:1
1002
{
1002
}
1000
Revisi
1070
     4
1000
0
1002
{
1002
}
1000
Version
1070
    -5
1000
14.01/Apr  1 1998
1002
{
1002
}
1000
Platform
1070
    -5
1000
WINNT
1002
{
1002
}
1000
RevDwg
1070
     4
1000
GENREVI
1002
{
1002
}
1002
}
1000
DwgVar
1070
     0
1002
{
1000
M
1070
     0
1002
{
1000
FILLETRAD
1070
     2
1040
0.000001
1002
{
1002
}
1000
CHAMFERA
1070
     2
1040
0.00001
1002
{
1002
}
1000
CHAMFERB
1070
     2
1040
0.000001
1002
{
1002
}
1000
LIMMAX
1070
     7
1010
-1.000000000000000E+20
1020
0.0
1030
0.0
1002
{
1002
}
1000
LTSCALE
1070
     2
1040
0.000001
1002
{
1002
}
1002
}
1000
I
1070
     0
1002
{
1000
CHAMFERA
1070
     2
1040
0.00000000001
1002
{
1002
}
1000
CHAMFERB
1070
     2
1040
0.0000000001
1002
{
1002
}
1000
FILLETRAD
1070
     2
1040
0.00000000001
1002
{
1002
}
1000
LIMMAX
1070
     7
1010
-1.000000000000000E+20
1020
0.0
1030
0.0
1002
{
1002
}
1002
}
1002
}
1000
Hatch
1070
     0
1002
{
1000
GenHtcFlag
1070
     3
1070
     0
1002
{
1002
}
1002
}
1000
Info_Pos
1070
     0
1002
{
1000
>
1002
}
1000
Layer
1070
     9
1002
{
1000
Defs
1070
     0
1002
{
1000
>
1002
}
1000
EntSort
1070
     0
1002
{
1000
>
1002
}
1000
Match
1070
     0
1002
{
1002
}
1000
Settings
1070
     0
1002
{
1000
FocGrNC
1070
     3
1070
     0
1002
{
1002
}
1000
FocGrLo
1070
     3
1070
     0
1002
{
1002
}
1000
FocLoNC
1070
     3
1070
     0
1002
{
1002
}
1000
FocusCol
1070
     1
1070
   253
1002
{
1002
}
1000
GenStdLG
1070
     4
1000

1002
{
1002
}
1000
LayMatch
1070
     3
1070
     0
1002
{
1002
}
1000
LgOff
1070
     3
1070
     0
1002
{
1002
}
1000
CurLG
1070
    -5
1000

1002
{
1002
}
1002
}
1002
}
1000
LType
1070
     0
1002
{
1000
GEN3
1070
    11
1000
genius.lin
1002
{
1002
}
1000
GEN7
1070
    11
1000
genius.lin
1002
{
1002
}
1000
GEN4A
1070
    11
1000
genius.lin
1002
{
1002
}
1000
GEN3A
1070
    11
1000
genius.lin
1002
{
1002
}
1000
GEN7A
1070
    11
1000
genius.lin
1002
{
1002
}
1000
GENZIGZAG
1070
    11
1000
genius.lin
1002
{
1002
}
1002
}
1000
Objecter
1070
     0
1002
{
1000
CreateGroups
1070
     3
1070
     0
1002
{
1002
}
1000
LaySwitch
1070
     3
1070
     1
1002
{
1002
}
1000
LastObj
1070
    -5
1000
B8C
1002
{
1002
}
1000
TimeStamp
1070
    -5
1000
20020423.10382696
1002
{
1002
}
1002
}
1000
OSWiz
1070
     0
1002
{
1000
Filter
1070
     0
1002
{
1000
HATCH
1070
    12
1002
{
1000
EntityType
1070
     4
1000
LINE
1002
{
1002
}
1000
Layer
1070
     4
1000
8,8N,*-8,*-8N
1002
{
1002
}
1000
Linetype
1070
     4
1000
*
1002
{
1002
}
1000
Color
1070
     4
1000
*
1002
{
1002
}
1000
ApplyInDims
1070
     3
1070
     1
1002
{
1002
}
1002
}
1000
SYMBOLS
1070
    12
1002
{
1000
EntityType
1070
     4
1000
*
1002
{
1002
}
1000
Layer
1070
     4
1000
[5-6],[5-6]N,*-[5-6],*-[5-6]N
1002
{
1002
}
1000
Linetype
1070
     4
1000
*
1002
{
1002
}
1000
Color
1070
     4
1000
*
1002
{
1002
}
1000
ApplyInDims
1070
     3
1070
     1
1002
{
1002
}
1002
}
1000
FEM
1070
    12
1002
{
1000
EntityType
1070
     4
1000
*
1002
{
1002
}
1000
Layer
1070
     4
1000
4A,4AN,*-4A,*-4AN
1002
{
1002
}
1000
Linetype
1070
     4
1000
*
1002
{
1002
}
1000
Color
1070
     4
1000
*
1002
{
1002
}
1000
ApplyInDims
1070
     3
1070
     1
1002
{
1002
}
1002
}
1002
}
1002
}
1000
PaList
1070
     0
1002
{
1000
AutoUpdatePartList
1070
     1
1070
     0
1002
{
1002
}
1000
ReadInfoPoint
1070
     3
1070
     0
1002
{
1002
}
1000
ReadPosNr
1070
     3
1070
     1
1002
{
1002
}
1000
RevStr
1070
     4
1000
0
1002
{
1002
}
1002
}
1000
Paper
1070
     0
1002
{
1000
Layer
1070
    -5
1000
KLIN,8,7,7A,6,5,4,4A,3,3A,2,2A,1
1002
{
1002
}
1002
}
1000
PartDB
1070
     0
1002
{
1000
GenDbOwner
1070
     4
1000

1002
{
1002
}
1002
}
1000
System
1070
     0
1002
{
1002
}
1000
Title
1070
     0
1002
{
1000
MakeView
1070
     1
1070
     2
1002
{
1002
}
1002
}
1000
Tools
1070
     0
1002
{
1000
Trans
1070
     0
1002
{
1000
Drawingtranslation
1070
    -4
1070
     1
1002
{
1002
}
1000
upreserve
1070
     3
1070
     0
1002
{
1002
}
1000
originally_on
1070
    -4
1070
     1
1002
{
1002
}
1000
sourcelang
1070
    -5
1000
d
1002
{
1002
}
1002
}
1002
}
  0
APPID
  5
E8
330
9
100
AcDbSymbolTableRecord
100
AcDbRegAppTableRecord
  2
GENIUS_GEVCFG0_13
 70
     0
1001
GENIUS_GENCFG_13
1071
1018941060
1000
E8
1000
GEV
1070
     1
1000
GenCfgObject
1000
VED
1070
     0
1002
{
1002
}
  0
APPID
  5
12E
330
9
100
AcDbSymbolTableRecord
100
AcDbRegAppTableRecord
  2
GENIUS_GENOENT_13
 70
     0
  0
APPID
  5
5E0
330
9
100
AcDbSymbolTableRecord
100
AcDbRegAppTableRecord
  2
GENIUS_GENBLLY_14
 70
     0
  0
APPID
  5
5E1
330
9
100
AcDbSymbolTableRecord
100
AcDbRegAppTableRecord
  2
GENIUS_VERSION2
 70
     0
  0
APPID
  5
5E2
330
9
100
AcDbSymbolTableRecord
100
AcDbRegAppTableRecord
  2
GENIUS_GENREC_14
 70
     0
  0
APPID
  5
5E3
330
9
100
AcDbSymbolTableRecord
100
AcDbRegAppTableRecord
  2
GENIUS_GENODEF_13
 70
     0
  0
APPID
  5
5E4
330
9
100
AcDbSymbolTableRecord
100
AcDbRegAppTableRecord
  2
GENIUS_GENOBJ-N-REC_13
 70
     0
  0
APPID
  5
634
330
9
100
AcDbSymbolTableRecord
100
AcDbRegAppTableRecord
  2
GEV_VCCNULL_SWITCH_OFF
 70
     0
  0
APPID
  5
635
330
9
100
AcDbSymbolTableRecord
100
AcDbRegAppTableRecord
  2
GENIUS_GENDTOL_13
 70
     0
  0
APPID
  5
636
330
9
100
AcDbSymbolTableRecord
100
AcDbRegAppTableRecord
  2
GENIUS_GENTRA_14
 70
     0
  0
APPID
  5
637
330
9
100
AcDbSymbolTableRecord
100
AcDbRegAppTableRecord
  2
GENIUS_GENOBJ-N-TIT_13
 70
     0
  0
APPID
  5
638
330
9
100
AcDbSymbolTableRecord
100
AcDbRegAppTableRecord
  2
GENIUS_GENTITLE_13
 70
     0
  0
APPID
  5
639
330
9
100
AcDbSymbolTableRecord
100
AcDbRegAppTableRecord
  2
GENIUS_GENOREF_13
 70
     0
  0
APPID
  5
63A
330
9
100
AcDbSymbolTableRecord
100
AcDbRegAppTableRecord
  2
GENIUS_GENOLIS_13
 70
     0
  0
APPID
  5
63B
330
9
100
AcDbSymbolTableRecord
100
AcDbRegAppTableRecord
  2
GENIUS_GENZVEED_13
 70
     0
  0
APPID
  5
63C
330
9
100
AcDbSymbolTableRecord
100
AcDbRegAppTableRecord
  2
GENIUS_GENOBJ-N-SDF_13
 70
     0
  0
APPID
  5
63D
330
9
100
AcDbSymbolTableRecord
100
AcDbRegAppTableRecord
  2
GENIUS_GENSCREG_13
 70
     0
  0
APPID
  5
63E
330
9
100
AcDbSymbolTableRecord
100
AcDbRegAppTableRecord
  2
GENIUS_GENBLKED_14
 70
     0
  0
APPID
  5
63F
330
9
100
AcDbSymbolTableRecord
100
AcDbRegAppTableRecord
  2
GENIUS_DUMCFG0_13
 70
     0
  0
APPID
  5
700
330
9
100
AcDbSymbolTableRecord
100
AcDbRegAppTableRecord
  2
GENIUS_GENOBJ-N-REV_13
 70
     0
  0
APPID
  5
701
330
9
100
AcDbSymbolTableRecord
100
AcDbRegAppTableRecord
  2
GENIUS_GENOBJ-N-RSSYM_13
 70
     0
  0
APPID
  5
702
330
9
100
AcDbSymbolTableRecord
100
AcDbRegAppTableRecord
  2
GENIUS_GENSYMENT_13
 70
     0
  0
APPID
  5
703
330
9
100
AcDbSymbolTableRecord
100
AcDbRegAppTableRecord
  2
GENIUS_GENSCSYM_13
 70
     0
  0
APPID
  5
7C0
330
9
100
AcDbSymbolTableRecord
100
AcDbRegAppTableRecord
  2
GENIUS_GENOBJ-N-HTC_13
 70
     0
  0
APPID
  5
7C1
330
9
100
AcDbSymbolTableRecord
100
AcDbRegAppTableRecord
  2
GENIUS_GENHATCH_13
 70
     0
  0
APPID
  5
7C2
330
9
100
AcDbSymbolTableRecord
100
AcDbRegAppTableRecord
  2
GENIUS_GENOBJ-N-FIL_13
 70
     0
  0
APPID
  5
874
330
9
100
AcDbSymbolTableRecord
100
AcDbRegAppTableRecord
  2
GENIUS_GENHINW_13
 70
     0
  0
APPID
  5
875
330
9
100
AcDbSymbolTableRecord
100
AcDbRegAppTableRecord
  2
GENIUS_FIRSTVISTXT_14
 70
     0
  0
APPID
  5
877
330
9
100
AcDbSymbolTableRecord
100
AcDbRegAppTableRecord
  2
GENIUS_GENOBJ-N-LEADER_13
 70
     0
  0
APPID
  5
BFD
330
9
100
AcDbSymbolTableRecord
100
AcDbRegAppTableRecord
  2
GENIUS_GENOBJ-F-SUF_13
 70
     0
  0
APPID
  5
C2F
330
9
100
AcDbSymbolTableRecord
100
AcDbRegAppTableRecord
  2
MCAD_NO_VIS
 70
     0
  0
APPID
  5
C30
330
9
100
AcDbSymbolTableRecord
100
AcDbRegAppTableRecord
  2
ACAD_TEMP_GRAPHIC
 70
     0
  0
APPID
  5
C31
330
9
100
AcDbSymbolTableRecord
100
AcDbRegAppTableRecord
  2
ACATTRIBSERVICES
 70
     0
  0
APPID
  5
C32
330
9
100
AcDbSymbolTableRecord
100
AcDbRegAppTableRecord
  2
AD_DRAW
 70
     0
  0
APPID
  5
C33
330
9
100
AcDbSymbolTableRecord
100
AcDbRegAppTableRecord
  2
DESIGNERASSEMBLIES
 70
     0
  0
APPID
  5
C34
330
9
100
AcDbSymbolTableRecord
100
AcDbRegAppTableRecord
  2
ACADM_DIM_EDIT
 70
     0
  0
APPID
  5
C35
330
9
100
AcDbSymbolTableRecord
100
AcDbRegAppTableRecord
  2
AMDT_DM_ADJ
 70
     0
  0
APPID
  5
C36
330
9
100
AcDbSymbolTableRecord
100
AcDbRegAppTableRecord
  2
ACAD_DSTYLE_DIMARC_LENGTH_SYMBOL
 70
     0
  0
APPID
  5
C37
330
9
100
AcDbSymbolTableRecord
100
AcDbRegAppTableRecord
  2
ACAD_DSTYLE_DIMJOGGED_JOGANGLE_SYMBOL
 70
     0
  0
APPID
  5
CF9
330
9
100
AcDbSymbolTableRecord
100
AcDbRegAppTableRecord
  2
GENIUS_GENSCREG_15
 70
     0
  0
ENDTAB
  0
TABLE
  2
DIMSTYLE
  5
A
330
0
100
AcDbSymbolTable
 70
    10
100
AcDbDimStyleTable
 71
     1
340
5DF
  0
DIMSTYLE
105
1D
330
A
100
AcDbSymbolTableRecord
100
AcDbDimStyleTableRecord
  2
STANDARD
 70
     0
 41
2.5
 42
0.625
 43
3.75
 44
1.25
 73
     0
 74
     0
 77
     1
 78
     8
140
2.5
141
2.5
143
0.0394
147
0.625
171
     4
172
     1
273
     8
274
     4
277
     6
340
10
  0
DIMSTYLE
105
5DF
102
{ACAD_REACTORS
330
7B3
330
8E2
330
9DD
330
A01
102
}
330
A
100
AcDbSymbolTableRecord
100
AcDbDimStyleTableRecord
  2
GEN-ISO
 70
     0
  3
<>
  4
"
 41
2.5
 42
1.0
 43
7.0
 44
1.0
 47
0.1
 48
0.1
 73
     0
 74
     0
 77
     1
 78
     8
140
3.5
141
0.0
143
0.0393701
146
0.71
147
0.6
172
     1
176
   256
177
   256
178
     2
271
     2
272
     3
274
     4
283
     0
340
10
  0
DIMSTYLE
105
CCC
330
A
100
AcDbSymbolTableRecord
100
AcDbDimStyleTableRecord
  2
AM_ISO
 70
     0
  4
"
 41
2.5
 42
1.0
 43
10.0
 44
1.0
 47
0.1
 48
0.1
 73
     0
 74
     0
 77
     1
 78
     8
 79
     2
140
3.5
141
0.0
143
0.0393701
146
0.71
147
1.5
172
     1
176
   256
177
   256
178
     2
271
     2
272
     3
274
     4
283
     0
284
     8
340
10
371
    -1
372
    -1
1001
ACAD_DSTYLE_DIMARC_LENGTH_SYMBOL
1070
   379
1070
     1
1001
ACAD_DSTYLE_DIMJOGGED_JOGANGLE_SYMBOL
1070
   384
1040
0.7853981633974483
  0
DIMSTYLE
105
CCD
330
A
100
AcDbSymbolTableRecord
100
AcDbDimStyleTableRecord
  2
AM_ISO$3
 70
     0
  4
"
 41
2.5
 42
1.0
 43
10.0
 44
1.0
 47
0.1
 48
0.1
 73
     0
 77
     1
 78
     8
 79
     2
140
3.5
141
0.0
143
0.0393701
146
0.71
147
1.5
176
   256
177
   256
178
     2
271
     2
272
     3
274
     4
283
     0
284
     8
288
     1
289
     0
340
10
371
    -1
372
    -1
1001
ACAD_DSTYLE_DIMARC_LENGTH_SYMBOL
1070
   379
1070
     1
1001
ACAD_DSTYLE_DIMJOGGED_JOGANGLE_SYMBOL
1070
   384
1040
0.7853981633974483
  0
DIMSTYLE
105
CCE
330
A
100
AcDbSymbolTableRecord
100
AcDbDimStyleTableRecord
  2
AM_ISO$4
 70
     0
  4
"
 41
2.5
 42
1.0
 43
10.0
 44
1.0
 47
0.1
 48
0.1
 73
     0
 77
     1
 78
     8
 79
     2
140
3.5
141
0.0
143
0.0393701
146
0.71
147
1.5
176
   256
177
   256
178
     2
271
     2
272
     3
274
     4
283
     0
284
     8
288
     1
289
     0
340
10
371
    -1
372
    -1
1001
ACAD_DSTYLE_DIMARC_LENGTH_SYMBOL
1070
   379
1070
     1
1001
ACAD_DSTYLE_DIMJOGGED_JOGANGLE_SYMBOL
1070
   384
1040
0.7853981633974483
  0
DIMSTYLE
105
CCF
330
A
100
AcDbSymbolTableRecord
100
AcDbDimStyleTableRecord
  2
AM_ISO$6
 70
     0
  4
"
 41
2.5
 42
1.0
 43
10.0
 44
1.0
 47
0.1
 48
0.1
 73
     0
 74
     0
 78
     8
 79
     2
140
3.5
141
0.0
143
0.0393701
146
0.71
147
1.5
172
     1
176
   256
177
   256
178
     2
271
     2
272
     3
274
     4
283
     0
284
     8
340
10
371
    -1
372
    -1
1001
ACAD_DSTYLE_DIMARC_LENGTH_SYMBOL
1070
   379
1070
     1
1001
ACAD_DSTYLE_DIMJOGGED_JOGANGLE_SYMBOL
1070
   384
1040
0.7853981633974483
  0
DIMSTYLE
105
CD0
330
A
100
AcDbSymbolTableRecord
100
AcDbDimStyleTableRecord
  2
AM_ISO$7
 70
     0
  4
"
 41
2.5
 42
1.0
 43
10.0
 44
1.0
 47
0.1
 48
0.1
 73
     0
 74
     0
 77
     1
 78
     8
 79
     2
140
5.0
141
0.0
143
0.0393701
146
0.71
147
1.5
172
     1
176
   256
177
   256
178
     2
271
     2
272
     3
274
     4
283
     0
284
     8
340
10
371
    -1
372
    -1
1001
ACAD_DSTYLE_DIMARC_LENGTH_SYMBOL
1070
   379
1070
     1
1001
ACAD_DSTYLE_DIMJOGGED_JOGANGLE_SYMBOL
1070
   384
1040
0.7853981633974483
  0
DIMSTYLE
105
CD1
330
A
100
AcDbSymbolTableRecord
100
AcDbDimStyleTableRecord
  2
AM_ISO$SF
 70
     0
  4
"
 41
2.5
 42
1.0
 43
10.0
 44
1.0
 47
0.1
 48
0.1
 73
     0
 74
     0
 75
     1
 76
     1
 77
     1
 78
     8
 79
     2
140
3.5
141
0.0
143
0.0393701
146
0.71
147
1.5
172
     1
176
   256
177
   256
178
     2
271
     2
272
     3
274
     4
283
     0
284
     8
340
10
371
    -1
372
    -1
1001
ACAD_DSTYLE_DIMARC_LENGTH_SYMBOL
1070
   379
1070
     1
1001
ACAD_DSTYLE_DIMJOGGED_JOGANGLE_SYMBOL
1070
   384
1040
0.7853981633974483
  0
DIMSTYLE
105
CD2
330
A
100
AcDbSymbolTableRecord
100
AcDbDimStyleTableRecord
  2
AM_ISO$SH
 70
     0
  4
"
 41
2.5
 42
1.0
 43
10.0
 44
1.0
 47
0.1
 48
0.1
 73
     0
 74
     0
 75
     1
 76
     1
 77
     1
 78
     8
 79
     2
140
3.5
141
0.0
143
0.0393701
144
2.0
146
0.71
147
1.5
172
     1
173
     1
176
   256
177
   256
178
     2
271
     2
272
     3
274
     4
283
     0
284
     8
340
10
343
CA8
371
    -1
372
    -1
1001
ACAD_DSTYLE_DIMARC_LENGTH_SYMBOL
1070
   379
1070
     1
1001
ACAD_DSTYLE_DIMJOGGED_JOGANGLE_SYMBOL
1070
   384
1040
0.7853981633974483
  0
DIMSTYLE
105
D1B
102
{ACAD_REACTORS
330
7B3
330
8E2
330
9DD
330
A01
330
D1F
330
D61
102
}
330
A
100
AcDbSymbolTableRecord
100
AcDbDimStyleTableRecord
  2
GEN-ISO$0
 70
     0
  3
<>
  4
"
 41
2.5
 42
1.0
 43
7.0
 44
1.0
 47
0.1
 48
0.1
 73
     0
 74
     0
 77
     1
 78
     8
140
3.5
141
0.0
143
0.0393701
146
0.71
147
0.6
172
     1
176
   256
177
   256
178
     2
271
     2
272
     3
274
     4
283
     0
340
10
  0
ENDTAB
  0
TABLE
  2
BLOCK_RECORD
  5
1
330
0
100
AcDbSymbolTable
 70
    12
  0
BLOCK_RECORD
  5
1A
330
1
100
AcDbSymbolTableRecord
100
AcDbBlockTableRecord
  2
*MODEL_SPACE
340
C23
  0
BLOCK_RECORD
  5
17
330
1
100
AcDbSymbolTableRecord
100
AcDbBlockTableRecord
  2
*PAPER_SPACE
340
C24
  0
BLOCK_RECORD
  5
80
102
{ACAD_XDICTIONARY
360
87
102
}
330
1
100
AcDbSymbolTableRecord
100
AcDbBlockTableRecord
  2
*Paper_Space0
340
0
  0
BLOCK_RECORD
  5
8C
330
1
100
AcDbSymbolTableRecord
100
AcDbBlockTableRecord
  2
dummy_rf
340
0
102
{BLKREFS
331
D9
102
}
  0
BLOCK_RECORD
  5
D8
330
1
100
AcDbSymbolTableRecord
100
AcDbBlockTableRecord
  2
DUMMY_R14
340
0
102
{BLKREFS
331
DF
102
}
  0
BLOCK_RECORD
  5
1DA
330
1
100
AcDbSymbolTableRecord
100
AcDbBlockTableRecord
  2
SB_ACO_P_10
340
0
102
{BLKREFS
331
5CF
102
}
  0
BLOCK_RECORD
  5
7A7
330
1
100
AcDbSymbolTableRecord
100
AcDbBlockTableRecord
  2
*D4
340
0
  0
BLOCK_RECORD
  5
8D6
330
1
100
AcDbSymbolTableRecord
100
AcDbBlockTableRecord
  2
*D5
340
0
  0
BLOCK_RECORD
  5
9D1
330
1
100
AcDbSymbolTableRecord
100
AcDbBlockTableRecord
  2
*D6
340
0
  0
BLOCK_RECORD
  5
9F6
330
1
100
AcDbSymbolTableRecord
100
AcDbBlockTableRecord
  2
*D7
340
0
  0
BLOCK_RECORD
  5
CA8
330
1
100
AcDbSymbolTableRecord
100
AcDbBlockTableRecord
  2
GENAXEH
340
0
  0
BLOCK_RECORD
  5
D20
330
1
100
AcDbSymbolTableRecord
100
AcDbBlockTableRecord
  2
*D10
340
0
  0
BLOCK_RECORD
  5
D62
330
1
100
AcDbSymbolTableRecord
100
AcDbBlockTableRecord
  2
*D11
340
0
  0
ENDTAB
  0
ENDSEC
  0
SECTION
  2
BLOCKS
  0
BLOCK
  5
1B
330
1A
100
AcDbEntity
  8
0
100
AcDbBlockBegin
  2
*MODEL_SPACE
 70
     0
 10
0.0
 20
0.0
 30
0.0
  3
*MODEL_SPACE
  1

  0
ENDBLK
  5
1C
330
1A
100
AcDbEntity
  8
0
100
AcDbBlockEnd
  0
BLOCK
  5
18
330
17
100
AcDbEntity
 67
     1
  8
0
100
AcDbBlockBegin
  2
*PAPER_SPACE
 70
     0
 10
0.0
 20
0.0
 30
0.0
  3
*PAPER_SPACE
  1

  0
ENDBLK
  5
19
330
17
100
AcDbEntity
 67
     1
  8
0
100
AcDbBlockEnd
  0
BLOCK
  5
8A
330
80
100
AcDbEntity
  8
0
100
AcDbBlockBegin
  2
*Paper_Space0
 70
     0
 10
0.0
 20
0.0
 30
0.0
  3
*Paper_Space0
  1

  0
VIEWPORT
  5
81
102
{ACAD_XDICTIONARY
360
DD6
102
}
330
80
100
AcDbEntity
  8
0
100
AcDbViewport
 10
144.2229557116296
 20
98.97744870616797
 30
0.0
 40
375.3359030646024
 41
222.167064855371
 69
     0
 12
144.2229557116296
 22
98.97744870616797
 13
0.0
 23
0.0
 14
10.0
 24
10.0
 15
10.0
 25
10.0
 16
0.0
 26
0.0
 36
1.0
 17
0.0
 27
0.0
 37
0.0
 42
50.0
 43
0.0
 44
0.0
 45
222.167064855371
 50
0.0
 51
0.0
 72
   100
 90
    32800
  1

281
     0
 71
     1
 74
     0
110
0.0
120
0.0
130
0.0
111
1.0
121
0.0
131
0.0
112
0.0
122
1.0
132
0.0
 79
     0
146
0.0
  0
VIEWPORT
  5
84
102
{ACAD_XDICTIONARY
360
DD8
102
}
330
80
100
AcDbEntity
  8
0
100
AcDbViewport
 10
144.2296578884125
 20
98.97533607482911
 30
0.0
 40
288.459315776825
 41
197.9506721496582
 69
     0
 12
0.0008224543594225
 22
-0.0061257251946927
 13
0.0
 23
0.0
 14
10.0
 24
10.0
 15
10.0
 25
10.0
 16
0.0
 26
0.0
 36
1.0
 17
0.0
 27
0.0
 37
0.0
 42
50.0
 43
0.0
 44
0.0
 45
19.79506721496582
 50
0.0
 51
0.0
 72
   100
 90
    32800
  1

281
     0
 71
     1
 74
     0
110
0.0
120
0.0
130
0.0
111
1.0
121
0.0
131
0.0
112
0.0
122
1.0
132
0.0
 79
     0
146
0.0
  0
ENDBLK
  5
8B
330
80
100
AcDbEntity
  8
0
100
AcDbBlockEnd
  0
BLOCK
  5
8F
330
8C
100
AcDbEntity
  8
0
100
AcDbBlockBegin
  2
dummy_rf
 70
     0
 10
0.0
 20
0.0
 30
0.0
  3
dummy_rf
  1

  0
ENDBLK
  5
90
330
8C
100
AcDbEntity
  8
0
100
AcDbBlockEnd
  0
BLOCK
  5
DA
330
D8
100
AcDbEntity
  8
0
100
AcDbBlockBegin
  2
DUMMY_R14
 70
     0
 10
0.0
 20
0.0
 30
0.0
  3
DUMMY_R14
  1

  0
INSERT
  5
D9
330
D8
100
AcDbEntity
  8
0
100
AcDbBlockReference
  2
dummy_rf
 10
0.0
 20
0.0
 30
0.0
  0
ENDBLK
  5
DB
330
D8
100
AcDbEntity
  8
0
100
AcDbBlockEnd
  0
BLOCK
  5
5CC
330
1DA
100
AcDbEntity
  8
0
100
AcDbBlockBegin
  2
SB_ACO_P_10
 70
     0
 10
0.0
 20
0.0
 30
0.0
  3
SB_ACO_P_10
  1

  0
POLYLINE
  5
1DB
102
{ACAD_REACTORS
330
23D
102
}
330
1DA
100
AcDbEntity
  8
0
 62
     7
370
     0
100
AcDb2dPolyline
 66
     1
 10
0.0
 20
0.0
 30
0.0
  0
VERTEX
  5
1DC
330
1DB
100
AcDbEntity
  8
0
 62
     7
370
     0
100
AcDbVertex
100
AcDb2dVertex
 10
24.26907057842871
 20
10.17525365311292
 30
0.0
  0
VERTEX
  5
1DD
330
1DB
100
AcDbEntity
  8
0
 62
     7
370
     0
100
AcDbVertex
100
AcDb2dVertex
 10
23.85578460831355
 20
10.15612004338533
 30
0.0
  0
VERTEX
  5
1DE
330
1DB
100
AcDbEntity
  8
0
 62
     7
370
     0
100
AcDbVertex
100
AcDb2dVertex
 10
23.45780552598045
 20
10.10637265809373
 30
0.0
  0
VERTEX
  5
1DF
330
1DB
100
AcDbEntity
  8
0
 62
     7
370
     0
100
AcDbVertex
100
AcDb2dVertex
 10
23.07513333142937
 20
10.03366494112902
 30
0.0
  0
VERTEX
  5
1E0
330
1DB
100
AcDbEntity
  8
0
 62
     7
370
     0
100
AcDbVertex
100
AcDb2dVertex
 10
22.70776802466035
 20
9.92651672665471
 30
0.0
  0
VERTEX
  5
1E1
330
1DB
100
AcDbEntity
  8
0
 62
     7
370
     0
100
AcDbVertex
100
AcDb2dVertex
 10
22.35570960567337
 20
9.796408180507341
 30
0.0
  0
VERTEX
  5
1E2
330
1DB
100
AcDbEntity
  8
0
 62
     7
370
     0
100
AcDbVertex
100
AcDb2dVertex
 10
22.01895807446843
 20
9.635685858795909
 30
0.0
  0
VERTEX
  5
1E3
330
1DB
100
AcDbEntity
  8
0
 62
     7
370
     0
100
AcDbVertex
100
AcDb2dVertex
 10
21.70134015299104
 20
9.448176483465886
 30
0.0
  0
VERTEX
  5
1E4
330
1DB
100
AcDbEntity
  8
0
 62
     7
370
     0
100
AcDbVertex
100
AcDb2dVertex
 10
21.39520239735019
 20
9.233880054517271
 30
0.0
  0
VERTEX
  5
1E5
330
1DB
100
AcDbEntity
  8
0
 62
     7
370
     0
100
AcDbVertex
100
AcDb2dVertex
 10
21.10819825143689
 20
8.988969850004593
 30
0.0
  0
VERTEX
  5
1E6
330
1DB
100
AcDbEntity
  8
0
 62
     7
370
     0
100
AcDbVertex
100
AcDb2dVertex
 10
20.83650099330563
 20
8.717272591873324
 30
0.0
  0
VERTEX
  5
1E7
330
1DB
100
AcDbEntity
  8
0
 62
     7
370
     0
100
AcDbVertex
100
AcDb2dVertex
 10
20.8250208274691
 20
8.701965704091264
 30
0.0
  0
VERTEX
  5
1E8
330
1DB
100
AcDbEntity
  8
0
 62
     7
370
     0
100
AcDbVertex
100
AcDb2dVertex
 10
20.57245717906539
 20
8.414961558177992
 30
0.0
  0
VERTEX
  5
1E9
330
1DB
100
AcDbEntity
  8
0
 62
     7
370
     0
100
AcDbVertex
100
AcDb2dVertex
 10
20.34285386233475
 20
8.11265052448266
 30
0.0
  0
VERTEX
  5
1EA
330
1DB
100
AcDbEntity
  8
0
 62
     7
370
     0
100
AcDbVertex
100
AcDb2dVertex
 10
24.26907057842871
 20
8.0973436367006
 30
0.0
  0
VERTEX
  5
1EB
330
1DB
100
AcDbEntity
  8
0
 62
     7
370
     0
100
AcDbVertex
100
AcDb2dVertex
 10
24.6632229388163
 20
8.047596251408947
 30
0.0
  0
VERTEX
  5
1EC
330
1DB
100
AcDbEntity
  8
0
 62
     7
370
     0
100
AcDbVertex
100
AcDb2dVertex
 10
25.00380119196676
 20
7.921314427207107
 30
0.0
  0
VERTEX
  5
1ED
330
1DB
100
AcDbEntity
  8
0
 62
     7
370
     0
100
AcDbVertex
100
AcDb2dVertex
 10
25.29463205982556
 20
7.714671442149551
 30
0.0
  0
VERTEX
  5
1EE
330
1DB
100
AcDbEntity
  8
0
 62
     7
370
     0
100
AcDbVertex
100
AcDb2dVertex
 10
25.53188882044722
 20
7.427667296236222
 30
0.0
  0
VERTEX
  5
1EF
330
1DB
100
AcDbEntity
  8
0
 62
     7
370
     0
100
AcDbVertex
100
AcDb2dVertex
 10
25.61990342519397
 20
7.278425140361321
 30
0.0
  0
VERTEX
  5
1F0
330
1DB
100
AcDbEntity
  8
0
 62
     7
370
     0
100
AcDbVertex
100
AcDb2dVertex
 10
25.75383869328685
 20
6.976114106665988
 30
0.0
  0
VERTEX
  5
1F1
330
1DB
100
AcDbEntity
  8
0
 62
     7
370
     0
100
AcDbVertex
100
AcDb2dVertex
 10
25.86481362970666
 20
6.643189297406536
 30
0.0
  0
VERTEX
  5
1F2
330
1DB
100
AcDbEntity
  8
0
 62
     7
370
     0
100
AcDbVertex
100
AcDb2dVertex
 10
25.94517479056238
 20
6.271997268692018
 30
0.0
  0
VERTEX
  5
1F3
330
1DB
100
AcDbEntity
  8
0
 62
     7
370
     0
100
AcDbVertex
100
AcDb2dVertex
 10
26.00257561974505
 20
5.87019146441338
 30
0.0
  0
VERTEX
  5
1F4
330
1DB
100
AcDbEntity
  8
0
 62
     7
370
     0
100
AcDbVertex
100
AcDb2dVertex
 10
26.03318939530912
 20
5.430118440679677
 30
0.0
  0
VERTEX
  5
1F5
330
1DB
100
AcDbEntity
  8
0
 62
     7
370
     0
100
AcDbVertex
100
AcDb2dVertex
 10
26.04084283920015
 20
5.116327241147814
 30
0.0
  0
VERTEX
  5
1F6
330
1DB
100
AcDbEntity
  8
0
 62
     7
370
     0
100
AcDbVertex
100
AcDb2dVertex
 10
26.02936267336361
 20
4.653293885740993
 30
0.0
  0
VERTEX
  5
1F7
330
1DB
100
AcDbEntity
  8
0
 62
     7
370
     0
100
AcDbVertex
100
AcDb2dVertex
 10
25.99492217585402
 20
4.220874305898291
 30
0.0
  0
VERTEX
  5
1F8
330
1DB
100
AcDbEntity
  8
0
 62
     7
370
     0
100
AcDbVertex
100
AcDb2dVertex
 10
25.94134806861688
 20
3.819068501619653
 30
0.0
  0
VERTEX
  5
1F9
330
1DB
100
AcDbEntity
  8
0
 62
     7
370
     0
100
AcDbVertex
100
AcDb2dVertex
 10
25.86481362970666
 20
3.451703194850665
 30
0.0
  0
VERTEX
  5
1FA
330
1DB
100
AcDbEntity
  8
0
 62
     7
370
     0
100
AcDbVertex
100
AcDb2dVertex
 10
25.76914558106889
 20
3.114951663645683
 30
0.0
  0
VERTEX
  5
1FB
330
1DB
100
AcDbEntity
  8
0
 62
     7
370
     0
100
AcDbVertex
100
AcDb2dVertex
 10
25.65051720075806
 20
2.808813908004879
 30
0.0
  0
VERTEX
  5
1FC
330
1DB
100
AcDbEntity
  8
0
 62
     7
370
     0
100
AcDbVertex
100
AcDb2dVertex
 10
25.65051720075806
 20
2.804987186059349
 30
0.0
  0
VERTEX
  5
1FD
330
1DB
100
AcDbEntity
  8
0
 62
     7
370
     0
100
AcDbVertex
100
AcDb2dVertex
 10
25.44770093764599
 20
2.468235654854424
 30
0.0
  0
VERTEX
  5
1FE
330
1DB
100
AcDbEntity
  8
0
 62
     7
370
     0
100
AcDbVertex
100
AcDb2dVertex
 10
25.19513728924228
 20
2.208018562559686
 30
0.0
  0
VERTEX
  5
1FF
330
1DB
100
AcDbEntity
  8
0
 62
     7
370
     0
100
AcDbVertex
100
AcDb2dVertex
 10
24.89282625554695
 20
2.028162631120665
 30
0.0
  0
VERTEX
  5
200
330
1DB
100
AcDbEntity
  8
0
 62
     7
370
     0
100
AcDbVertex
100
AcDb2dVertex
 10
24.53694111461445
 20
1.928667860537416
 30
0.0
  0
VERTEX
  5
201
330
1DB
100
AcDbEntity
  8
0
 62
     7
370
     0
100
AcDbVertex
100
AcDb2dVertex
 10
24.26907057842871
 20
1.905707528864354
 30
0.0
  0
VERTEX
  5
202
330
1DB
100
AcDbEntity
  8
0
 62
     7
370
     0
100
AcDbVertex
100
AcDb2dVertex
 10
20.41556157929945
 20
1.802386036335519
 30
0.0
  0
VERTEX
  5
203
330
1DB
100
AcDbEntity
  8
0
 62
     7
370
     0
100
AcDbVertex
100
AcDb2dVertex
 10
20.63751145213908
 20
1.507728446531245
 30
0.0
  0
VERTEX
  5
204
330
1DB
100
AcDbEntity
  8
0
 62
     7
370
     0
100
AcDbVertex
100
AcDb2dVertex
 10
20.74848638855889
 20
1.377619900383876
 30
0.0
  0
VERTEX
  5
205
330
1DB
100
AcDbEntity
  8
0
 62
     7
370
     0
100
AcDbVertex
100
AcDb2dVertex
 10
21.00105003696258
 20
1.098269198361606
 30
0.0
  0
VERTEX
  5
206
330
1DB
100
AcDbEntity
  8
0
 62
     7
370
     0
100
AcDbVertex
100
AcDb2dVertex
 10
21.27657401703935
 20
0.84570554995787
 30
0.0
  0
VERTEX
  5
207
330
1DB
100
AcDbEntity
  8
0
 62
     7
370
     0
100
AcDbVertex
100
AcDb2dVertex
 10
21.56740488489817
 20
0.623755677118254
 30
0.0
  0
VERTEX
  5
208
330
1DB
100
AcDbEntity
  8
0
 62
     7
370
     0
100
AcDbVertex
100
AcDb2dVertex
 10
21.87354264053903
 20
0.4285928578972289
 30
0.0
  0
VERTEX
  5
209
330
1DB
100
AcDbEntity
  8
0
 62
     7
370
     0
100
AcDbVertex
100
AcDb2dVertex
 10
22.20264072785294
 20
0.260217092294738
 30
0.0
  0
VERTEX
  5
20A
330
1DB
100
AcDbEntity
  8
0
 62
     7
370
     0
100
AcDbVertex
100
AcDb2dVertex
 10
22.54704570294891
 20
0.1186283803108381
 30
0.0
  0
VERTEX
  5
20B
330
1DB
100
AcDbEntity
  8
0
 62
     7
370
     0
100
AcDbVertex
100
AcDb2dVertex
 10
22.91058428777241
 20
0.0076534438910585
 30
0.0
  0
VERTEX
  5
20C
330
1DB
100
AcDbEntity
  8
0
 62
     7
370
     0
100
AcDbVertex
100
AcDb2dVertex
 10
23.28942976037797
 20
-0.0803611608557162
 30
0.0
  0
VERTEX
  5
20D
330
1DB
100
AcDbEntity
  8
0
 62
     7
370
     0
100
AcDbVertex
100
AcDb2dVertex
 10
23.69123556465659
 20
-0.1377619900383706
 30
0.0
  0
VERTEX
  5
20E
330
1DB
100
AcDbEntity
  8
0
 62
     7
370
     0
100
AcDbVertex
100
AcDb2dVertex
 10
24.10834825671725
 20
-0.1683757656024341
 30
0.0
  0
VERTEX
  5
20F
330
1DB
100
AcDbEntity
  8
0
 62
     7
370
     0
100
AcDbVertex
100
AcDb2dVertex
 10
24.26907057842871
 20
-0.1722024875479633
 30
0.0
  0
VERTEX
  5
210
330
1DB
100
AcDbEntity
  8
0
 62
     7
370
     0
100
AcDbVertex
100
AcDb2dVertex
 10
24.6938367143804
 20
-0.1530688778204308
 30
0.0
  0
VERTEX
  5
211
330
1DB
100
AcDbEntity
  8
0
 62
     7
370
     0
100
AcDbVertex
100
AcDb2dVertex
 10
25.10329596255004
 20
-0.103321492528778
 30
0.0
  0
VERTEX
  5
212
330
1DB
100
AcDbEntity
  8
0
 62
     7
370
     0
100
AcDbVertex
100
AcDb2dVertex
 10
25.49362160099212
 20
-0.0306137755640634
 30
0.0
  0
VERTEX
  5
213
330
1DB
100
AcDbEntity
  8
0
 62
     7
370
     0
100
AcDbVertex
100
AcDb2dVertex
 10
25.86098690776115
 20
0.0727077169647146
 30
0.0
  0
VERTEX
  5
214
330
1DB
100
AcDbEntity
  8
0
 62
     7
370
     0
100
AcDbVertex
100
AcDb2dVertex
 10
26.21687204869363
 20
0.2028162631120836
 30
0.0
  0
VERTEX
  5
215
330
1DB
100
AcDbEntity
  8
0
 62
     7
370
     0
100
AcDbVertex
100
AcDb2dVertex
 10
26.54979685795307
 20
0.3597118628780436
 30
0.0
  0
VERTEX
  5
216
330
1DB
100
AcDbEntity
  8
0
 62
     7
370
     0
100
AcDbVertex
100
AcDb2dVertex
 10
26.86358805748495
 20
0.5433945162625378
 30
0.0
  0
VERTEX
  5
217
330
1DB
100
AcDbEntity
  8
0
 62
     7
370
     0
100
AcDbVertex
100
AcDb2dVertex
 10
27.16207236923478
 20
0.753864223265623
 30
0.0
  0
VERTEX
  5
218
330
1DB
100
AcDbEntity
  8
0
 62
     7
370
     0
100
AcDbVertex
100
AcDb2dVertex
 10
27.43759634931155
 20
0.9949477058327715
 30
0.0
  0
VERTEX
  5
219
330
1DB
100
AcDbEntity
  8
0
 62
     7
370
     0
100
AcDbVertex
100
AcDb2dVertex
 10
27.69781344160627
 20
1.262818242018568
 30
0.0
  0
VERTEX
  5
21A
330
1DB
100
AcDbEntity
  8
0
 62
     7
370
     0
100
AcDbVertex
100
AcDb2dVertex
 10
27.79730821218955
 20
1.377619900383876
 30
0.0
  0
VERTEX
  5
21B
330
1DB
100
AcDbEntity
  8
0
 62
     7
370
     0
100
AcDbVertex
100
AcDb2dVertex
 10
28.02691152892018
 20
1.664624046297149
 30
0.0
  0
VERTEX
  5
21C
330
1DB
100
AcDbEntity
  8
0
 62
     7
370
     0
100
AcDbVertex
100
AcDb2dVertex
 10
28.23738123592328
 20
1.97076180193801
 30
0.0
  0
VERTEX
  5
21D
330
1DB
100
AcDbEntity
  8
0
 62
     7
370
     0
100
AcDbVertex
100
AcDb2dVertex
 10
28.42106388930779
 20
2.288379723415403
 30
0.0
  0
VERTEX
  5
21E
330
1DB
100
AcDbEntity
  8
0
 62
     7
370
     0
100
AcDbVertex
100
AcDb2dVertex
 10
28.58561293296475
 20
2.621304532674855
 30
0.0
  0
VERTEX
  5
21F
330
1DB
100
AcDbEntity
  8
0
 62
     7
370
     0
100
AcDbVertex
100
AcDb2dVertex
 10
28.72337492300314
 20
2.969536229716311
 30
0.0
  0
VERTEX
  5
220
330
1DB
100
AcDbEntity
  8
0
 62
     7
370
     0
100
AcDbVertex
100
AcDb2dVertex
 10
28.84200330331396
 20
3.333074814539827
 30
0.0
  0
VERTEX
  5
221
330
1DB
100
AcDbEntity
  8
0
 62
     7
370
     0
100
AcDbVertex
100
AcDb2dVertex
 10
28.93384463000622
 20
3.708093565199874
 30
0.0
  0
VERTEX
  5
222
330
1DB
100
AcDbEntity
  8
0
 62
     7
370
     0
100
AcDbVertex
100
AcDb2dVertex
 10
29.00272562502541
 20
4.098419203641924
 30
0.0
  0
VERTEX
  5
223
330
1DB
100
AcDbEntity
  8
0
 62
     7
370
     0
100
AcDbVertex
100
AcDb2dVertex
 10
29.05247301031705
 20
4.50787845181162
 30
0.0
  0
VERTEX
  5
224
330
1DB
100
AcDbEntity
  8
0
 62
     7
370
     0
100
AcDbVertex
100
AcDb2dVertex
 10
29.07543334199011
 20
4.928817865817791
 30
0.0
  0
VERTEX
  5
225
330
1DB
100
AcDbEntity
  8
0
 62
     7
370
     0
100
AcDbVertex
100
AcDb2dVertex
 10
29.07926006393562
 20
5.116327241147814
 30
0.0
  0
VERTEX
  5
226
330
1DB
100
AcDbEntity
  8
0
 62
     7
370
     0
100
AcDbVertex
100
AcDb2dVertex
 10
29.06395317615358
 20
5.533439933208455
 30
0.0
  0
VERTEX
  5
227
330
1DB
100
AcDbEntity
  8
0
 62
     7
370
     0
100
AcDbVertex
100
AcDb2dVertex
 10
29.02185923475297
 20
5.935245737487093
 30
0.0
  0
VERTEX
  5
228
330
1DB
100
AcDbEntity
  8
0
 62
     7
370
     0
100
AcDbVertex
100
AcDb2dVertex
 10
28.95680496167928
 20
6.325571375929143
 30
0.0
  0
VERTEX
  5
229
330
1DB
100
AcDbEntity
  8
0
 62
     7
370
     0
100
AcDbVertex
100
AcDb2dVertex
 10
28.86496363498702
 20
6.70059012658919
 30
0.0
  0
VERTEX
  5
22A
330
1DB
100
AcDbEntity
  8
0
 62
     7
370
     0
100
AcDbVertex
100
AcDb2dVertex
 10
28.7463352546762
 20
7.060301989467234
 30
0.0
  0
VERTEX
  5
22B
330
1DB
100
AcDbEntity
  8
0
 62
     7
370
     0
100
AcDbVertex
100
AcDb2dVertex
 10
28.60091982074678
 20
7.40853368650869
 30
0.0
  0
VERTEX
  5
22C
330
1DB
100
AcDbEntity
  8
0
 62
     7
370
     0
100
AcDbVertex
100
AcDb2dVertex
 10
28.43254405514432
 20
7.737631773822613
 30
0.0
  0
VERTEX
  5
22D
330
1DB
100
AcDbEntity
  8
0
 62
     7
370
     0
100
AcDbVertex
100
AcDb2dVertex
 10
28.23738123592328
 20
8.059076417245478
 30
0.0
  0
VERTEX
  5
22E
330
1DB
100
AcDbEntity
  8
0
 62
     7
370
     0
100
AcDbVertex
100
AcDb2dVertex
 10
28.01925808502917
 20
8.361387450940867
 30
0.0
  0
VERTEX
  5
22F
330
1DB
100
AcDbEntity
  8
0
 62
     7
370
     0
100
AcDbVertex
100
AcDb2dVertex
 10
27.77052115857097
 20
8.652218318799668
 30
0.0
  0
VERTEX
  5
230
330
1DB
100
AcDbEntity
  8
0
 62
     7
370
     0
100
AcDbVertex
100
AcDb2dVertex
 10
27.72842721717035
 20
8.701965704091264
 30
0.0
  0
VERTEX
  5
231
330
1DB
100
AcDbEntity
  8
0
 62
     7
370
     0
100
AcDbVertex
100
AcDb2dVertex
 10
27.45290323709358
 20
8.973662962222533
 30
0.0
  0
VERTEX
  5
232
330
1DB
100
AcDbEntity
  8
0
 62
     7
370
     0
100
AcDbVertex
100
AcDb2dVertex
 10
27.16589909118028
 20
9.218573166735211
 30
0.0
  0
VERTEX
  5
233
330
1DB
100
AcDbEntity
  8
0
 62
     7
370
     0
100
AcDbVertex
100
AcDb2dVertex
 10
26.86358805748495
 20
9.436696317629355
 30
0.0
  0
VERTEX
  5
234
330
1DB
100
AcDbEntity
  8
0
 62
     7
370
     0
100
AcDbVertex
100
AcDb2dVertex
 10
26.54597013600755
 20
9.628032414904851
 30
0.0
  0
VERTEX
  5
235
330
1DB
100
AcDbEntity
  8
0
 62
     7
370
     0
100
AcDbVertex
100
AcDb2dVertex
 10
26.20921860480262
 20
9.78875473661634
 30
0.0
  0
VERTEX
  5
236
330
1DB
100
AcDbEntity
  8
0
 62
     7
370
     0
100
AcDbVertex
100
AcDb2dVertex
 10
25.85716018581563
 20
9.918863282763709
 30
0.0
  0
VERTEX
  5
237
330
1DB
100
AcDbEntity
  8
0
 62
     7
370
     0
100
AcDbVertex
100
AcDb2dVertex
 10
25.49362160099212
 20
10.02601149723796
 30
0.0
  0
VERTEX
  5
238
330
1DB
100
AcDbEntity
  8
0
 62
     7
370
     0
100
AcDbVertex
100
AcDb2dVertex
 10
25.11094940644105
 20
10.1025459361482
 30
0.0
  0
VERTEX
  5
239
330
1DB
100
AcDbEntity
  8
0
 62
     7
370
     0
100
AcDbVertex
100
AcDb2dVertex
 10
24.71297032410794
 20
10.15229332143985
 30
0.0
  0
VERTEX
  5
23A
330
1DB
100
AcDbEntity
  8
0
 62
     7
370
     0
100
AcDbVertex
100
AcDb2dVertex
 10
24.29968435399279
 20
10.17525365311292
 30
0.0
  0
VERTEX
  5
23B
330
1DB
100
AcDbEntity
  8
0
 62
     7
370
     0
100
AcDbVertex
100
AcDb2dVertex
 10
24.26907057842871
 20
10.17525365311292
 30
0.0
  0
SEQEND
  5
23C
330
1DB
100
AcDbEntity
  8
0
 62
     7
370
     0
  0
HATCH
  5
23D
330
1DA
100
AcDbEntity
  8
0
100
AcDbHatch
 10
0.0
 20
0.0
 30
0.0
210
0.0
220
0.0
230
1.0
  2
SOLID
 70
     1
 71
     1
 91
        7
 92
        7
 72
     0
 73
     1
 93
       18
 10
2.070256572521287
 20
2.38787449399868
 10
5.074233299747191
 20
2.38787449399868
 10
2.571557147383188
 20
3.964483935549083
 10
2.682532083802925
 20
4.308888910644697
 10
2.793507020222975
 20
4.660947329632392
 10
2.904481956642669
 20
5.020659192510464
 10
3.015456893062406
 20
5.388024499279026
 10
3.130258551427615
 20
5.766869971884432
 10
3.241233487847551
 20
6.153368888380981
 10
3.356035146212576
 20
6.543694526822179
 10
3.470836804577444
 20
6.945500331099481
 10
3.58563846294345
 20
7.354959579271479
 10
3.651133221996545
 20
7.606862498706249
 10
3.665999623799251
 20
7.54629567654706
 10
5.246435787295155
 20
9.999224443619425
 10
2.808813908004836
 20
9.999224443619425
 10
-1.140363139762172
 20
-0.0000000000000284
 10
1.140363139762172
 20
0.0
 97
        2
330
251
330
23E
 92
        7
 72
     0
 73
     1
 93
       16
 10
5.246435787295155
 20
9.999224443619425
 10
3.665999623799251
 20
7.54629567654706
 10
3.769321116328541
 20
7.125356262540947
 10
3.872642608856764
 20
6.715897014370426
 10
3.975964101388143
 20
6.317917932027739
 10
4.079285593916992
 20
5.923765571640103
 10
4.178780364498237
 20
5.541093377095165
 10
4.278275135081372
 20
5.166074626435829
 10
4.373943183718665
 20
4.798709319672013
 10
4.469611232356143
 20
4.438997456794396
 10
4.565279280994317
 20
4.08693903780724
 10
4.599719778503839
 20
3.964483935549111
 10
2.571557147383103
 20
3.964483935549111
 10
5.074233299747163
 20
2.387874493998651
 10
5.828097523012758
 20
0.0
 10
8.927742298876424
 20
0.0
 97
        1
330
23E
 92
        7
 72
     0
 73
     1
 93
       29
 10
17.55317356405744
 20
2.135310845595
 10
17.18963497923407
 20
2.051122962793726
 10
16.81461622857381
 20
1.982241967774569
 10
16.43959747791391
 20
1.928667860537473
 10
15.97627116771711
 20
1.902192071383296
 10
15.91533657137837
 20
1.905707528864354
 10
11.00947903723423
 20
1.886573919136765
 10
11.25438924174689
 20
1.611049939059967
 10
11.52991322182359
 20
1.350832846765086
 10
11.65619504602551
 20
1.24368463229112
 10
11.9508526358299
 20
1.010254593614661
 10
12.25699039147047
 20
0.7997848866116329
 10
12.5746083129482
 20
0.6084487893364213
 10
12.90753312220711
 20
0.436246301788259
 10
13.24811137535802
 20
0.2870041459134143
 10
13.60399651629045
 20
0.1568955997658747
 10
13.97136182305984
 20
0.0497473852916528
 10
14.35020729566541
 20
-0.0344404975096495
 10
14.74435965605261
 20
-0.0994947705831919
 10
15.14616546033176
 20
-0.1454154339294007
 10
15.5632781523925
 20
-0.1683757656024625
 10
15.78140130328587
 20
-0.1722024875479349
 10
16.23678121480212
 20
-0.1530688778204023
 10
16.66154735075334
 20
-0.1109749364197796
 10
17.05952643308646
 20
-0.0497473852915391
 10
17.43071846180081
 20
0.0344404975093937
 10
17.77512343689714
 20
0.1339352680929267
 10
18.09274135837467
 20
0.2563903703492087
 10
18.12718185588405
 20
0.2716972581312689
 97
        2
330
2C6
330
295
 92
        7
 72
     0
 73
     1
 93
       46
 10
12.9840675611177
 20
4.63416027601346
 10
12.96493395139018
 20
4.990045416945946
 10
12.99554772695425
 20
5.449252050407181
 10
13.05677527808242
 20
5.87401818635891
 10
13.15627004866573
 20
6.256690380909986
 10
13.29020531675854
 20
6.601095356005885
 10
13.45858108236105
 20
6.911059833592275
 10
13.66522406741859
 20
7.178930369777958
 10
13.8603868866396
 20
7.370266467053539
 10
14.17417808617161
 20
7.611349949620802
 10
14.51092961737642
 20
7.80651276884177
 10
14.85916131441786
 20
7.951928202771142
 10
15.226526621187
 20
8.047596251408975
 10
15.6091988157379
 20
8.089690192809598
 10
15.77757458134047
 20
8.097343636700571
 10
11.0133057591797
 20
8.246585792575501
 10
10.78752916439462
 20
7.951928202771171
 10
10.58471290128247
 20
7.641963725184751
 10
10.41251041373453
 20
7.316692359816386
 10
10.26326825785968
 20
6.97611410666613
 10
10.14463987754882
 20
6.620228965733474
 10
10.04897182891106
 20
6.245210215073484
 10
9.98009083389185
 20
5.858711298576821
 10
9.941823614436742
 20
5.453078772352881
 10
9.926516726654682
 20
5.101020353365925
 10
9.945650336382286
 20
4.680080939359413
 10
9.987744277782837
 20
4.274448413135417
 10
10.05662527280208
 20
3.884122774693338
 10
10.1522933214399
 20
3.512930745978593
 10
10.27092170175068
 20
3.153218883100805
 10
10.41633713567998
 20
2.812640629950692
 10
10.58853962322806
 20
2.487369264581985
 10
10.78370244244901
 20
2.18123150894138
 10
11.00947903723424
 20
1.886573919136765
 10
15.91533657137873
 20
1.905707528864354
 10
15.51735748904597
 20
1.928667860537416
 10
15.13468529449478
 20
1.997548855556601
 10
14.77497343161674
 20
2.112350513921882
 10
14.43056845652093
 20
2.273072835633314
 10
14.10912381309779
 20
2.475889098745398
 10
13.88717394025809
 20
2.65191830823872
 10
13.64226373574568
 20
2.889175068860566
 10
13.43179402874243
 20
3.164699048937535
 10
13.26341826313995
 20
3.474663526523613
 10
13.12948299504718
 20
3.822895223565183
 10
13.03764166835492
 20
4.209394140061675
 97
        2
330
295
330
2E6
 92
        7
 72
     0
 73
     1
 93
       28
 10
18.09656808032
 20
9.673953078250974
 10
17.74833638327858
 20
9.81171506828943
 10
17.37331763261918
 20
9.926516726654568
 10
16.97916527223158
 20
10.02601149723782
 10
16.85671016997476
 20
10.04897182891108
 10
16.41663714624043
 20
10.11785282393026
 10
16.02248478585289
 20
10.15994676533086
 10
15.67042636686595
 20
10.17525365311292
 10
15.62450570352094
 20
10.17525365311289
 10
15.18825940173185
 20
10.16377348727636
 10
14.76731998772546
 20
10.12933298976676
 10
14.36168746150163
 20
10.07193216058408
 10
13.97136182305955
 20
9.995397721673896
 10
13.59634307239898
 20
9.899729673036063
 10
13.23663120952145
 20
9.781101292725281
 10
12.89222623442545
 20
9.643339302686939
 10
12.55930142516577
 20
9.482616980975308
 10
12.24168350368866
 20
9.302761049536343
 10
11.94319919193869
 20
9.09994478642443
 10
11.6561950460254
 20
8.877994913584615
 10
11.54904683155149
 20
8.786153586892851
 10
11.26969612952885
 20
8.522109772652299
 10
11.01330575917974
 20
8.24658579257553
 10
15.77757458134532
 20
8.097343636700628
 10
16.11815283449091
 20
8.08586347086404
 10
16.49317158515082
 20
8.051422973354476
 10
16.8988041113747
 20
7.994022144171851
 10
17.38226505776018
 20
7.9092044342797
 97
        1
330
2E6
 92
        7
 72
     0
 73
     1
 93
       40
 10
22.50495176154826
 20
5.57553387460905
 10
22.54321898100339
 20
6.000300010560778
 10
22.61209997602262
 20
6.390625649003055
 10
22.70394130271482
 20
6.750337511880843
 10
22.82256968302563
 20
7.075608877249209
 10
22.92206445360894
 20
7.278425140361292
 10
23.13636088255754
 20
7.599869783784242
 10
23.40040469679779
 20
7.844779988296977
 10
23.7218493402207
 20
8.005502310008324
 10
24.14824463316723
 20
8.097814693017397
 10
20.34285386233476
 20
8.112650524482688
 10
20.14003759922265
 20
7.79885932495074
 10
19.96400838972923
 20
7.46976123763693
 10
19.81476623385425
 20
7.125356262540861
 10
19.69231113159795
 20
6.769471121608432
 10
19.59281636101464
 20
6.39827909289383
 10
19.52010864404991
 20
6.015606898342497
 10
19.47418798070383
 20
5.613801094064371
 10
19.45122764903075
 20
5.200515123949088
 10
19.45122764903075
 20
5.116327241147473
 10
19.46653453681284
 20
4.687734383250301
 10
19.50097503432244
 20
4.278275135080718
 10
19.56220258545056
 20
3.880296052747894
 10
19.64639046825183
 20
3.497623858196675
 10
19.7535386827262
 20
3.13025855142763
 10
19.88364722887353
 20
2.77437341049503
 10
20.03671610669396
 20
2.437621879290276
 10
20.21274531618734
 20
2.112350513921796
 10
20.41556157929945
 20
1.802386036335519
 10
24.26907057842853
 20
1.905707528864354
 10
23.86343805220454
 20
1.95545491415595
 10
23.50167836869309
 20
2.109914104868749
 10
23.16697465812158
 20
2.395527937889767
 10
22.91229865920404
 20
2.762434038025219
 10
22.77282229773401
 20
3.111124941700353
 10
22.66950080520524
 20
3.444049750959635
 10
22.59296636629506
 20
3.811415057728709
 10
22.53556553711236
 20
4.209394140062073
 10
22.50112503960278
 20
4.64181371990449
 10
22.48948164865955
 20
5.111430487947359
 97
        2
330
266
330
1DB
 92
        7
 72
     0
 73
     1
 93
       94
 10
27.6978134416061
 20
1.262818242018283
 10
27.79730821218961
 20
1.377619900383962
 10
28.02691152892018
 20
1.66462404629712
 10
28.23738123592323
 20
1.970761801937925
 10
28.42106388930782
 20
2.288379723415488
 10
28.58561293296474
 20
2.621304532674827
 10
28.72337492300325
 20
2.969536229716595
 10
28.84200330331395
 20
3.333074814539799
 10
28.93384463000617
 20
3.70809356519976
 10
29.00272562502538
 20
4.098419203641753
 10
29.05247301031702
 20
4.507878451811279
 10
29.07543334199012
 20
4.928817865818331
 10
29.07926006393562
 20
5.116327241147729
 10
29.06395317615358
 20
5.533439933208512
 10
29.02185923475297
 20
5.935245737487264
 10
28.95680496167936
 20
6.3255713759292
 10
28.86496363498705
 20
6.700590126589219
 10
28.7463352546762
 20
7.060301989467092
 10
28.60091982074695
 20
7.408533686508405
 10
28.43254405514443
 20
7.737631773822414
 10
28.2373812359234
 20
8.059076417245677
 10
28.01925808502915
 20
8.361387450940981
 10
27.77052115856775
 20
8.652218318806262
 10
27.72842721717062
 20
8.701965704091151
 10
27.45290323709383
 20
8.97366296222205
 10
27.16589909118012
 20
9.218573166735154
 10
26.86358805748493
 20
9.436696317629412
 10
26.54597013600737
 20
9.628032414904879
 10
26.20921860480269
 20
9.788754736616198
 10
25.85716018581582
 20
9.918863282763624
 10
25.49362160099197
 20
10.02601149723793
 10
25.11094940644125
 20
10.1025459361482
 10
24.71297032410834
 20
10.15229332143983
 10
24.29968435399253
 20
10.17525365311292
 10
24.26907057842856
 20
10.17525365311292
 10
23.85578460831351
 20
10.15612004338535
 10
23.45780552598062
 20
10.1063726580937
 10
23.07513333142941
 20
10.03366494112905
 10
22.70776802466028
 20
9.92651672665471
 10
22.35570960567328
 20
9.796408180507313
 10
22.01895807446839
 20
9.635685858795852
 10
21.70134015299104
 20
9.448176483465942
 10
21.39520239735023
 20
9.233880054517271
 10
21.1081982514368
 20
8.988969850004366
 10
20.85308345506959
 20
8.733855053637256
 10
20.57245717906528
 20
8.414961558177878
 10
20.34285386233474
 20
8.112650524482603
 10
24.26907057842885
 20
8.0973436367006
 10
24.66322293881621
 20
8.047596251408947
 10
25.00380119196686
 20
7.92131442720705
 10
25.29463205982565
 20
7.714671442149523
 10
25.53188882044724
 20
7.427667296236307
 10
25.61990342519397
 20
7.278425140361321
 10
25.75383869328691
 20
6.976114106665988
 10
25.86481362970675
 20
6.64318929740628
 10
25.94517479056239
 20
6.271997268692075
 10
26.00257561974507
 20
5.870191464413238
 10
26.03318939530912
 20
5.430118440679564
 10
26.04084283920015
 20
5.116327241147928
 10
26.02936267336361
 20
4.653293885740879
 10
25.99492217585402
 20
4.22087430589832
 10
25.94134806861686
 20
3.819068501619568
 10
25.86481362970673
 20
3.451703194850864
 10
25.76914558106889
 20
3.114951663645626
 10
25.65051720075806
 20
2.808813908004879
 10
25.65051720075806
 20
2.804987186059349
 10
25.44770093764598
 20
2.468235654854396
 10
25.19513728924228
 20
2.208018562559658
 10
24.89282625554694
 20
2.028162631120693
 10
24.5369411146144
 20
1.928667860537416
 10
24.26907057842809
 20
1.905707528864326
 10
20.41556157929945
 20
1.802386036335519
 10
20.63751145213915
 20
1.507728446531274
 10
20.7484863885586
 20
1.37761990038382
 10
21.00105003696235
 20
1.098269198361549
 10
21.27657401703931
 20
0.8457055499579269
 10
21.56740488489834
 20
0.6237556771183109
 10
21.87354264053906
 20
0.4285928578973426
 10
22.20264072785315
 20
0.2602170922947096
 10
22.54704570294891
 20
0.1186283803109234
 10
22.91058428777214
 20
0.0076534438910585
 10
23.28942976037811
 20
-0.0803611608557446
 10
23.69123556465658
 20
-0.1377619900383422
 10
24.10834825671746
 20
-0.1683757656024056
 10
24.26907057842871
 20
-0.1722024875479917
 10
24.69383671438026
 20
-0.1530688778204592
 10
25.10329596254968
 20
-0.103321492528778
 10
25.49362160099192
 20
-0.0306137755640919
 10
25.86098690776096
 20
0.0727077169646577
 10
26.21687204869365
 20
0.2028162631120836
 10
26.54979685795317
 20
0.3597118628781004
 10
26.86358805748523
 20
0.5433945162626515
 10
27.16207236923481
 20
0.7538642232656514
 10
27.43759634931154
 20
0.9949477058328
 97
        1
330
1DB
 75
     0
 76
     1
 47
0.1320929461171143
 98
        7
 10
0.4057991991332415
 20
1.454966744646526
 10
5.165083853404155
 20
3.304268096671762
 10
15.21246148904123
 20
0.5303160686338515
 10
11.90740307223694
 20
4.228918081177425
 10
16.79889011173185
 20
9.248450618749075
 10
21.55817476600254
 20
5.417754862195693
 10
24.59882841235839
 20
1.190780639640934
  0
POLYLINE
  5
23E
102
{ACAD_REACTORS
330
23D
102
}
330
1DA
100
AcDbEntity
  8
0
 62
     7
370
     0
100
AcDb2dPolyline
 66
     1
 10
0.0
 20
0.0
 30
0.0
  0
VERTEX
  5
23F
330
23E
100
AcDbEntity
  8
0
 62
     7
370
     0
100
AcDbVertex
100
AcDb2dVertex
 10
5.246435787295155
 20
9.999224443619425
 30
0.0
  0
VERTEX
  5
240
330
23E
100
AcDbEntity
  8
0
 62
     7
370
     0
100
AcDbVertex
100
AcDb2dVertex
 10
3.665999623799251
 20
7.54629567654706
 30
0.0
  0
VERTEX
  5
241
330
23E
100
AcDbEntity
  8
0
 62
     7
370
     0
100
AcDbVertex
100
AcDb2dVertex
 10
3.769321116328029
 20
7.12535626254089
 30
0.0
  0
VERTEX
  5
242
330
23E
100
AcDbEntity
  8
0
 62
     7
370
     0
100
AcDbVertex
100
AcDb2dVertex
 10
3.872642608856807
 20
6.71589701437125
 30
0.0
  0
VERTEX
  5
243
330
23E
100
AcDbEntity
  8
0
 62
     7
370
     0
100
AcDbVertex
100
AcDb2dVertex
 10
3.975964101385585
 20
6.317917932038142
 30
0.0
  0
VERTEX
  5
244
330
23E
100
AcDbEntity
  8
0
 62
     7
370
     0
100
AcDbVertex
100
AcDb2dVertex
 10
4.079285593914391
 20
5.923765571650562
 30
0.0
  0
VERTEX
  5
245
330
23E
100
AcDbEntity
  8
0
 62
     7
370
     0
100
AcDbVertex
100
AcDb2dVertex
 10
4.178780364497669
 20
5.541093377099457
 30
0.0
  0
VERTEX
  5
246
330
23E
100
AcDbEntity
  8
0
 62
     7
370
     0
100
AcDbVertex
100
AcDb2dVertex
 10
4.278275135080946
 20
5.16607462643941
 30
0.0
  0
VERTEX
  5
247
330
23E
100
AcDbEntity
  8
0
 62
     7
370
     0
100
AcDbVertex
100
AcDb2dVertex
 10
4.373943183718694
 20
4.798709319670422
 30
0.0
  0
VERTEX
  5
248
330
23E
100
AcDbEntity
  8
0
 62
     7
370
     0
100
AcDbVertex
100
AcDb2dVertex
 10
4.46961123235647
 20
4.438997456792378
 30
0.0
  0
VERTEX
  5
249
330
23E
100
AcDbEntity
  8
0
 62
     7
370
     0
100
AcDbVertex
100
AcDb2dVertex
 10
4.565279280994246
 20
4.086939037805393
 30
0.0
  0
VERTEX
  5
24A
330
23E
100
AcDbEntity
  8
0
 62
     7
370
     0
100
AcDbVertex
100
AcDb2dVertex
 10
4.599719778503839
 20
3.964483935549083
 30
0.0
  0
VERTEX
  5
24B
330
23E
100
AcDbEntity
  8
0
 62
     7
370
     0
100
AcDbVertex
100
AcDb2dVertex
 10
2.571557147383174
 20
3.964483935549083
 30
0.0
  0
VERTEX
  5
24C
330
23E
100
AcDbEntity
  8
0
 62
     7
370
     0
100
AcDbVertex
100
AcDb2dVertex
 10
5.074233299747163
 20
2.387874493998651
 30
0.0
  0
VERTEX
  5
24D
330
23E
100
AcDbEntity
  8
0
 62
     7
370
     0
100
AcDbVertex
100
AcDb2dVertex
 10
5.828097523012758
 20
0.0
 30
0.0
  0
VERTEX
  5
24E
330
23E
100
AcDbEntity
  8
0
 62
     7
370
     0
100
AcDbVertex
100
AcDb2dVertex
 10
8.92774229887641
 20
0.0
 30
0.0
  0
VERTEX
  5
24F
330
23E
100
AcDbEntity
  8
0
 62
     7
370
     0
100
AcDbVertex
100
AcDb2dVertex
 10
5.246435787295155
 20
9.999224443619425
 30
0.0
  0
SEQEND
  5
250
330
23E
100
AcDbEntity
  8
0
 62
     7
370
     0
  0
POLYLINE
  5
251
102
{ACAD_REACTORS
330
23D
102
}
330
1DA
100
AcDbEntity
  8
0
 62
     7
370
     0
100
AcDb2dPolyline
 66
     1
 10
0.0
 20
0.0
 30
0.0
  0
VERTEX
  5
252
330
251
100
AcDbEntity
  8
0
 62
     7
370
     0
100
AcDbVertex
100
AcDb2dVertex
 10
5.246435787295155
 20
9.999224443619425
 30
0.0
  0
VERTEX
  5
253
330
251
100
AcDbEntity
  8
0
 62
     7
370
     0
100
AcDbVertex
100
AcDb2dVertex
 10
2.80881390800485
 20
9.999224443619425
 30
0.0
  0
VERTEX
  5
254
330
251
100
AcDbEntity
  8
0
 62
     7
370
     0
100
AcDbVertex
100
AcDb2dVertex
 10
-1.140363139762172
 20
0.0
 30
0.0
  0
VERTEX
  5
255
330
251
100
AcDbEntity
  8
0
 62
     7
370
     0
100
AcDbVertex
100
AcDb2dVertex
 10
1.140363139762172
 20
0.0
 30
0.0
  0
VERTEX
  5
256
330
251
100
AcDbEntity
  8
0
 62
     7
370
     0
100
AcDbVertex
100
AcDb2dVertex
 10
2.070256572521287
 20
2.387874493998651
 30
0.0
  0
VERTEX
  5
257
330
251
100
AcDbEntity
  8
0
 62
     7
370
     0
100
AcDbVertex
100
AcDb2dVertex
 10
5.074233299747163
 20
2.387874493998651
 30
0.0
  0
VERTEX
  5
258
330
251
100
AcDbEntity
  8
0
 62
     7
370
     0
100
AcDbVertex
100
AcDb2dVertex
 10
2.571557147383174
 20
3.964483935549083
 30
0.0
  0
VERTEX
  5
259
330
251
100
AcDbEntity
  8
0
 62
     7
370
     0
100
AcDbVertex
100
AcDb2dVertex
 10
2.68253208380301
 20
4.308888910645009
 30
0.0
  0
VERTEX
  5
25A
330
251
100
AcDbEntity
  8
0
 62
     7
370
     0
100
AcDbVertex
100
AcDb2dVertex
 10
2.79350702022279
 20
4.660947329631994
 30
0.0
  0
VERTEX
  5
25B
330
251
100
AcDbEntity
  8
0
 62
     7
370
     0
100
AcDbVertex
100
AcDb2dVertex
 10
2.904481956642626
 20
5.020659192510038
 30
0.0
  0
VERTEX
  5
25C
330
251
100
AcDbEntity
  8
0
 62
     7
370
     0
100
AcDbVertex
100
AcDb2dVertex
 10
3.015456893062406
 20
5.388024499279026
 30
0.0
  0
VERTEX
  5
25D
330
251
100
AcDbEntity
  8
0
 62
     7
370
     0
100
AcDbVertex
100
AcDb2dVertex
 10
3.130258551427743
 20
5.766869971884602
 30
0.0
  0
VERTEX
  5
25E
330
251
100
AcDbEntity
  8
0
 62
     7
370
     0
100
AcDbVertex
100
AcDb2dVertex
 10
3.241233487847551
 20
6.15336888838118
 30
0.0
  0
VERTEX
  5
25F
330
251
100
AcDbEntity
  8
0
 62
     7
370
     0
100
AcDbVertex
100
AcDb2dVertex
 10
3.35603514621286
 20
6.543694526823287
 30
0.0
  0
VERTEX
  5
260
330
251
100
AcDbEntity
  8
0
 62
     7
370
     0
100
AcDbVertex
100
AcDb2dVertex
 10
3.470836804578169
 20
6.945500331101868
 30
0.0
  0
VERTEX
  5
261
330
251
100
AcDbEntity
  8
0
 62
     7
370
     0
100
AcDbVertex
100
AcDb2dVertex
 10
3.585638462943506
 20
7.354959579271508
 30
0.0
  0
VERTEX
  5
262
330
251
100
AcDbEntity
  8
0
 62
     7
370
     0
100
AcDbVertex
100
AcDb2dVertex
 10
3.635385848235131
 20
7.54629567654706
 30
0.0
  0
VERTEX
  5
263
330
251
100
AcDbEntity
  8
0
 62
     7
370
     0
100
AcDbVertex
100
AcDb2dVertex
 10
3.665999623799251
 20
7.54629567654706
 30
0.0
  0
VERTEX
  5
264
330
251
100
AcDbEntity
  8
0
 62
     7
370
     0
100
AcDbVertex
100
AcDb2dVertex
 10
5.246435787295155
 20
9.999224443619425
 30
0.0
  0
SEQEND
  5
265
330
251
100
AcDbEntity
  8
0
 62
     7
370
     0
  0
POLYLINE
  5
266
102
{ACAD_REACTORS
330
23D
102
}
330
1DA
100
AcDbEntity
  8
0
 62
     7
370
     0
100
AcDb2dPolyline
 66
     1
 10
0.0
 20
0.0
 30
0.0
  0
VERTEX
  5
267
330
266
100
AcDbEntity
  8
0
 62
     7
370
     0
100
AcDbVertex
100
AcDb2dVertex
 10
20.34285386233475
 20
8.11265052448266
 30
0.0
  0
VERTEX
  5
268
330
266
100
AcDbEntity
  8
0
 62
     7
370
     0
100
AcDbVertex
100
AcDb2dVertex
 10
20.14003759922267
 20
7.798859324950797
 30
0.0
  0
VERTEX
  5
269
330
266
100
AcDbEntity
  8
0
 62
     7
370
     0
100
AcDbVertex
100
AcDb2dVertex
 10
19.9640083897292
 20
7.469761237636873
 30
0.0
  0
VERTEX
  5
26A
330
266
100
AcDbEntity
  8
0
 62
     7
370
     0
100
AcDbVertex
100
AcDb2dVertex
 10
19.81476623385427
 20
7.12535626254089
 30
0.0
  0
VERTEX
  5
26B
330
266
100
AcDbEntity
  8
0
 62
     7
370
     0
100
AcDbVertex
100
AcDb2dVertex
 10
19.69231113159793
 20
6.769471121608376
 30
0.0
  0
VERTEX
  5
26C
330
266
100
AcDbEntity
  8
0
 62
     7
370
     0
100
AcDbVertex
100
AcDb2dVertex
 10
19.59281636101465
 20
6.398279092893858
 30
0.0
  0
VERTEX
  5
26D
330
266
100
AcDbEntity
  8
0
 62
     7
370
     0
100
AcDbVertex
100
AcDb2dVertex
 10
19.52010864404994
 20
6.015606898342809
 30
0.0
  0
VERTEX
  5
26E
330
266
100
AcDbEntity
  8
0
 62
     7
370
     0
100
AcDbVertex
100
AcDb2dVertex
 10
19.47418798070382
 20
5.613801094064172
 30
0.0
  0
VERTEX
  5
26F
330
266
100
AcDbEntity
  8
0
 62
     7
370
     0
100
AcDbVertex
100
AcDb2dVertex
 10
19.45122764903075
 20
5.200515123949003
 30
0.0
  0
VERTEX
  5
270
330
266
100
AcDbEntity
  8
0
 62
     7
370
     0
100
AcDbVertex
100
AcDb2dVertex
 10
19.45122764903075
 20
5.116327241147814
 30
0.0
  0
VERTEX
  5
271
330
266
100
AcDbEntity
  8
0
 62
     7
370
     0
100
AcDbVertex
100
AcDb2dVertex
 10
19.46653453681281
 20
4.687734383250585
 30
0.0
  0
VERTEX
  5
272
330
266
100
AcDbEntity
  8
0
 62
     7
370
     0
100
AcDbVertex
100
AcDb2dVertex
 10
19.50097503432241
 20
4.278275135080946
 30
0.0
  0
VERTEX
  5
273
330
266
100
AcDbEntity
  8
0
 62
     7
370
     0
100
AcDbVertex
100
AcDb2dVertex
 10
19.56220258545059
 20
3.880296052747837
 30
0.0
  0
VERTEX
  5
274
330
266
100
AcDbEntity
  8
0
 62
     7
370
     0
100
AcDbVertex
100
AcDb2dVertex
 10
19.64639046825181
 20
3.497623858196789
 30
0.0
  0
VERTEX
  5
275
330
266
100
AcDbEntity
  8
0
 62
     7
370
     0
100
AcDbVertex
100
AcDb2dVertex
 10
19.75353868272609
 20
3.130258551427743
 30
0.0
  0
VERTEX
  5
276
330
266
100
AcDbEntity
  8
0
 62
     7
370
     0
100
AcDbVertex
100
AcDb2dVertex
 10
19.88364722887346
 20
2.774373410495229
 30
0.0
  0
VERTEX
  5
277
330
266
100
AcDbEntity
  8
0
 62
     7
370
     0
100
AcDbVertex
100
AcDb2dVertex
 10
20.03671610669389
 20
2.437621879290304
 30
0.0
  0
VERTEX
  5
278
330
266
100
AcDbEntity
  8
0
 62
     7
370
     0
100
AcDbVertex
100
AcDb2dVertex
 10
20.21274531618738
 20
2.11235051392191
 30
0.0
  0
VERTEX
  5
279
330
266
100
AcDbEntity
  8
0
 62
     7
370
     0
100
AcDbVertex
100
AcDb2dVertex
 10
20.41556157929945
 20
1.802386036335519
 30
0.0
  0
VERTEX
  5
27A
330
266
100
AcDbEntity
  8
0
 62
     7
370
     0
100
AcDbVertex
100
AcDb2dVertex
 10
24.26907057842871
 20
1.905707528864354
 30
0.0
  0
VERTEX
  5
27B
330
266
100
AcDbEntity
  8
0
 62
     7
370
     0
100
AcDbVertex
100
AcDb2dVertex
 10
23.86343805220457
 20
1.95545491415595
 30
0.0
  0
VERTEX
  5
27C
330
266
100
AcDbEntity
  8
0
 62
     7
370
     0
100
AcDbVertex
100
AcDb2dVertex
 10
23.52285979905412
 20
2.100870348085379
 30
0.0
  0
VERTEX
  5
27D
330
266
100
AcDbEntity
  8
0
 62
     7
370
     0
100
AcDbVertex
100
AcDb2dVertex
 10
23.45397880403493
 20
2.150617733377032
 30
0.0
  0
VERTEX
  5
27E
330
266
100
AcDbEntity
  8
0
 62
     7
370
     0
100
AcDbVertex
100
AcDb2dVertex
 10
23.16697465812163
 20
2.39552793788971
 30
0.0
  0
VERTEX
  5
27F
330
266
100
AcDbEntity
  8
0
 62
     7
370
     0
100
AcDbVertex
100
AcDb2dVertex
 10
22.9411980633365
 20
2.720799303258104
 30
0.0
  0
VERTEX
  5
280
330
266
100
AcDbEntity
  8
0
 62
     7
370
     0
100
AcDbVertex
100
AcDb2dVertex
 10
22.89527739999038
 20
2.804987186059349
 30
0.0
  0
VERTEX
  5
281
330
266
100
AcDbEntity
  8
0
 62
     7
370
     0
100
AcDbVertex
100
AcDb2dVertex
 10
22.77282229773402
 20
3.111124941700211
 30
0.0
  0
VERTEX
  5
282
330
266
100
AcDbEntity
  8
0
 62
     7
370
     0
100
AcDbVertex
100
AcDb2dVertex
 10
22.66950080520524
 20
3.444049750959607
 30
0.0
  0
VERTEX
  5
283
330
266
100
AcDbEntity
  8
0
 62
     7
370
     0
100
AcDbVertex
100
AcDb2dVertex
 10
22.59296636629503
 20
3.811415057728652
 30
0.0
  0
VERTEX
  5
284
330
266
100
AcDbEntity
  8
0
 62
     7
370
     0
100
AcDbVertex
100
AcDb2dVertex
 10
22.53556553711238
 20
4.20939414006176
 30
0.0
  0
VERTEX
  5
285
330
266
100
AcDbEntity
  8
0
 62
     7
370
     0
100
AcDbVertex
100
AcDb2dVertex
 10
22.50112503960277
 20
4.641813719904462
 30
0.0
  0
VERTEX
  5
286
330
266
100
AcDbEntity
  8
0
 62
     7
370
     0
100
AcDbVertex
100
AcDb2dVertex
 10
22.48964487376624
 20
5.104847075311283
 30
0.0
  0
VERTEX
  5
287
330
266
100
AcDbEntity
  8
0
 62
     7
370
     0
100
AcDbVertex
100
AcDb2dVertex
 10
22.48964487376624
 20
5.116327241147814
 30
0.0
  0
VERTEX
  5
288
330
266
100
AcDbEntity
  8
0
 62
     7
370
     0
100
AcDbVertex
100
AcDb2dVertex
 10
22.50495176154828
 20
5.57553387460905
 30
0.0
  0
VERTEX
  5
289
330
266
100
AcDbEntity
  8
0
 62
     7
370
     0
100
AcDbVertex
100
AcDb2dVertex
 10
22.54321898100339
 20
6.000300010560749
 30
0.0
  0
VERTEX
  5
28A
330
266
100
AcDbEntity
  8
0
 62
     7
370
     0
100
AcDbVertex
100
AcDb2dVertex
 10
22.61209997602258
 20
6.390625649002856
 30
0.0
  0
VERTEX
  5
28B
330
266
100
AcDbEntity
  8
0
 62
     7
370
     0
100
AcDbVertex
100
AcDb2dVertex
 10
22.70394130271484
 20
6.750337511880843
 30
0.0
  0
VERTEX
  5
28C
330
266
100
AcDbEntity
  8
0
 62
     7
370
     0
100
AcDbVertex
100
AcDb2dVertex
 10
22.82256968302566
 20
7.075608877249237
 30
0.0
  0
VERTEX
  5
28D
330
266
100
AcDbEntity
  8
0
 62
     7
370
     0
100
AcDbVertex
100
AcDb2dVertex
 10
22.92206445360895
 20
7.278425140361321
 30
0.0
  0
VERTEX
  5
28E
330
266
100
AcDbEntity
  8
0
 62
     7
370
     0
100
AcDbVertex
100
AcDb2dVertex
 10
23.13636088255754
 20
7.599869783784242
 30
0.0
  0
VERTEX
  5
28F
330
266
100
AcDbEntity
  8
0
 62
     7
370
     0
100
AcDbVertex
100
AcDb2dVertex
 10
23.40040469679778
 20
7.84477998829692
 30
0.0
  0
VERTEX
  5
290
330
266
100
AcDbEntity
  8
0
 62
     7
370
     0
100
AcDbVertex
100
AcDb2dVertex
 10
23.72184934022067
 20
8.005502310008353
 30
0.0
  0
VERTEX
  5
291
330
266
100
AcDbEntity
  8
0
 62
     7
370
     0
100
AcDbVertex
100
AcDb2dVertex
 10
24.09304136893522
 20
8.085863470864069
 30
0.0
  0
VERTEX
  5
292
330
266
100
AcDbEntity
  8
0
 62
     7
370
     0
100
AcDbVertex
100
AcDb2dVertex
 10
24.26907057842871
 20
8.0973436367006
 30
0.0
  0
VERTEX
  5
293
330
266
100
AcDbEntity
  8
0
 62
     7
370
     0
100
AcDbVertex
100
AcDb2dVertex
 10
20.34285386233475
 20
8.11265052448266
 30
0.0
  0
SEQEND
  5
294
330
266
100
AcDbEntity
  8
0
 62
     7
370
     0
  0
POLYLINE
  5
295
102
{ACAD_REACTORS
330
23D
102
}
330
1DA
100
AcDbEntity
  8
0
 62
     7
370
     0
100
AcDb2dPolyline
 66
     1
 10
0.0
 20
0.0
 30
0.0
  0
VERTEX
  5
296
330
295
100
AcDbEntity
  8
0
 62
     7
370
     0
100
AcDbVertex
100
AcDb2dVertex
 10
11.01330575917973
 20
8.246585792575501
 30
0.0
  0
VERTEX
  5
297
330
295
100
AcDbEntity
  8
0
 62
     7
370
     0
100
AcDbVertex
100
AcDb2dVertex
 10
10.78752916439461
 20
7.951928202771171
 30
0.0
  0
VERTEX
  5
298
330
295
100
AcDbEntity
  8
0
 62
     7
370
     0
100
AcDbVertex
100
AcDb2dVertex
 10
10.58471290128253
 20
7.641963725184837
 30
0.0
  0
VERTEX
  5
299
330
295
100
AcDbEntity
  8
0
 62
     7
370
     0
100
AcDbVertex
100
AcDb2dVertex
 10
10.41251041373456
 20
7.316692359816443
 30
0.0
  0
VERTEX
  5
29A
330
295
100
AcDbEntity
  8
0
 62
     7
370
     0
100
AcDbVertex
100
AcDb2dVertex
 10
10.26326825785963
 20
6.976114106665988
 30
0.0
  0
VERTEX
  5
29B
330
295
100
AcDbEntity
  8
0
 62
     7
370
     0
100
AcDbVertex
100
AcDb2dVertex
 10
10.14463987754882
 20
6.620228965733474
 30
0.0
  0
VERTEX
  5
29C
330
295
100
AcDbEntity
  8
0
 62
     7
370
     0
100
AcDbVertex
100
AcDb2dVertex
 10
10.04897182891105
 20
6.245210215073427
 30
0.0
  0
VERTEX
  5
29D
330
295
100
AcDbEntity
  8
0
 62
     7
370
     0
100
AcDbVertex
100
AcDb2dVertex
 10
9.980090833891864
 20
5.858711298576849
 30
0.0
  0
VERTEX
  5
29E
330
295
100
AcDbEntity
  8
0
 62
     7
370
     0
100
AcDbVertex
100
AcDb2dVertex
 10
9.941823614436742
 20
5.453078772352739
 30
0.0
  0
VERTEX
  5
29F
330
295
100
AcDbEntity
  8
0
 62
     7
370
     0
100
AcDbVertex
100
AcDb2dVertex
 10
9.926516726654682
 20
5.101020353365754
 30
0.0
  0
VERTEX
  5
2A0
330
295
100
AcDbEntity
  8
0
 62
     7
370
     0
100
AcDbVertex
100
AcDb2dVertex
 10
9.945650336382271
 20
4.680080939359584
 30
0.0
  0
VERTEX
  5
2A1
330
295
100
AcDbEntity
  8
0
 62
     7
370
     0
100
AcDbVertex
100
AcDb2dVertex
 10
9.987744277782866
 20
4.274448413135417
 30
0.0
  0
VERTEX
  5
2A2
330
295
100
AcDbEntity
  8
0
 62
     7
370
     0
100
AcDbVertex
100
AcDb2dVertex
 10
10.05662527280205
 20
3.884122774693366
 30
0.0
  0
VERTEX
  5
2A3
330
295
100
AcDbEntity
  8
0
 62
     7
370
     0
100
AcDbVertex
100
AcDb2dVertex
 10
10.15229332143983
 20
3.512930745978792
 30
0.0
  0
VERTEX
  5
2A4
330
295
100
AcDbEntity
  8
0
 62
     7
370
     0
100
AcDbVertex
100
AcDb2dVertex
 10
10.27092170175066
 20
3.153218883100805
 30
0.0
  0
VERTEX
  5
2A5
330
295
100
AcDbEntity
  8
0
 62
     7
370
     0
100
AcDbVertex
100
AcDb2dVertex
 10
10.41633713568006
 20
2.812640629950351
 30
0.0
  0
VERTEX
  5
2A6
330
295
100
AcDbEntity
  8
0
 62
     7
370
     0
100
AcDbVertex
100
AcDb2dVertex
 10
10.58853962322806
 20
2.487369264581957
 30
0.0
  0
VERTEX
  5
2A7
330
295
100
AcDbEntity
  8
0
 62
     7
370
     0
100
AcDbVertex
100
AcDb2dVertex
 10
10.78370244244908
 20
2.181231508941095
 30
0.0
  0
VERTEX
  5
2A8
330
295
100
AcDbEntity
  8
0
 62
     7
370
     0
100
AcDbVertex
100
AcDb2dVertex
 10
11.00947903723423
 20
1.886573919136765
 30
0.0
  0
VERTEX
  5
2A9
330
295
100
AcDbEntity
  8
0
 62
     7
370
     0
100
AcDbVertex
100
AcDb2dVertex
 10
15.9153365713789
 20
1.905707528864354
 30
0.0
  0
VERTEX
  5
2AA
330
295
100
AcDbEntity
  8
0
 62
     7
370
     0
100
AcDbVertex
100
AcDb2dVertex
 10
15.51735748904579
 20
1.928667860537416
 30
0.0
  0
VERTEX
  5
2AB
330
295
100
AcDbEntity
  8
0
 62
     7
370
     0
100
AcDbVertex
100
AcDb2dVertex
 10
15.13468529449474
 20
1.997548855556601
 30
0.0
  0
VERTEX
  5
2AC
330
295
100
AcDbEntity
  8
0
 62
     7
370
     0
100
AcDbVertex
100
AcDb2dVertex
 10
14.7749734316167
 20
2.11235051392191
 30
0.0
  0
VERTEX
  5
2AD
330
295
100
AcDbEntity
  8
0
 62
     7
370
     0
100
AcDbVertex
100
AcDb2dVertex
 10
14.43056845652077
 20
2.273072835633342
 30
0.0
  0
VERTEX
  5
2AE
330
295
100
AcDbEntity
  8
0
 62
     7
370
     0
100
AcDbVertex
100
AcDb2dVertex
 10
14.10912381309785
 20
2.475889098745426
 30
0.0
  0
VERTEX
  5
2AF
330
295
100
AcDbEntity
  8
0
 62
     7
370
     0
100
AcDbVertex
100
AcDb2dVertex
 10
13.88717394025823
 20
2.651918308238919
 30
0.0
  0
VERTEX
  5
2B0
330
295
100
AcDbEntity
  8
0
 62
     7
370
     0
100
AcDbVertex
100
AcDb2dVertex
 10
13.64226373574556
 20
2.889175068860595
 30
0.0
  0
VERTEX
  5
2B1
330
295
100
AcDbEntity
  8
0
 62
     7
370
     0
100
AcDbVertex
100
AcDb2dVertex
 10
13.43179402874247
 20
3.164699048937336
 30
0.0
  0
VERTEX
  5
2B2
330
295
100
AcDbEntity
  8
0
 62
     7
370
     0
100
AcDbVertex
100
AcDb2dVertex
 10
13.26341826314001
 20
3.474663526523727
 30
0.0
  0
VERTEX
  5
2B3
330
295
100
AcDbEntity
  8
0
 62
     7
370
     0
100
AcDbVertex
100
AcDb2dVertex
 10
13.12948299504714
 20
3.822895223565183
 30
0.0
  0
VERTEX
  5
2B4
330
295
100
AcDbEntity
  8
0
 62
     7
370
     0
100
AcDbVertex
100
AcDb2dVertex
 10
13.03764166835489
 20
4.20939414006176
 30
0.0
  0
VERTEX
  5
2B5
330
295
100
AcDbEntity
  8
0
 62
     7
370
     0
100
AcDbVertex
100
AcDb2dVertex
 10
12.98406756111771
 20
4.63416027601346
 30
0.0
  0
VERTEX
  5
2B6
330
295
100
AcDbEntity
  8
0
 62
     7
370
     0
100
AcDbVertex
100
AcDb2dVertex
 10
12.96493395139018
 20
4.990045416945918
 30
0.0
  0
VERTEX
  5
2B7
330
295
100
AcDbEntity
  8
0
 62
     7
370
     0
100
AcDbVertex
100
AcDb2dVertex
 10
12.99554772695424
 20
5.44925205040721
 30
0.0
  0
VERTEX
  5
2B8
330
295
100
AcDbEntity
  8
0
 62
     7
370
     0
100
AcDbVertex
100
AcDb2dVertex
 10
13.05677527808242
 20
5.87401818635891
 30
0.0
  0
VERTEX
  5
2B9
330
295
100
AcDbEntity
  8
0
 62
     7
370
     0
100
AcDbVertex
100
AcDb2dVertex
 10
13.1562700486657
 20
6.256690380909958
 30
0.0
  0
VERTEX
  5
2BA
330
295
100
AcDbEntity
  8
0
 62
     7
370
     0
100
AcDbVertex
100
AcDb2dVertex
 10
13.29020531675857
 20
6.601095356005941
 30
0.0
  0
VERTEX
  5
2BB
330
295
100
AcDbEntity
  8
0
 62
     7
370
     0
100
AcDbVertex
100
AcDb2dVertex
 10
13.45858108236106
 20
6.911059833592275
 30
0.0
  0
VERTEX
  5
2BC
330
295
100
AcDbEntity
  8
0
 62
     7
370
     0
100
AcDbVertex
100
AcDb2dVertex
 10
13.66522406741862
 20
7.178930369778015
 30
0.0
  0
VERTEX
  5
2BD
330
295
100
AcDbEntity
  8
0
 62
     7
370
     0
100
AcDbVertex
100
AcDb2dVertex
 10
13.86038688663967
 20
7.370266467053568
 30
0.0
  0
VERTEX
  5
2BE
330
295
100
AcDbEntity
  8
0
 62
     7
370
     0
100
AcDbVertex
100
AcDb2dVertex
 10
14.17417808617156
 20
7.611349949620773
 30
0.0
  0
VERTEX
  5
2BF
330
295
100
AcDbEntity
  8
0
 62
     7
370
     0
100
AcDbVertex
100
AcDb2dVertex
 10
14.51092961737649
 20
7.806512768841798
 30
0.0
  0
VERTEX
  5
2C0
330
295
100
AcDbEntity
  8
0
 62
     7
370
     0
100
AcDbVertex
100
AcDb2dVertex
 10
14.85916131441794
 20
7.951928202771171
 30
0.0
  0
VERTEX
  5
2C1
330
295
100
AcDbEntity
  8
0
 62
     7
370
     0
100
AcDbVertex
100
AcDb2dVertex
 10
15.22652662118699
 20
8.047596251408947
 30
0.0
  0
VERTEX
  5
2C2
330
295
100
AcDbEntity
  8
0
 62
     7
370
     0
100
AcDbVertex
100
AcDb2dVertex
 10
15.60919881573804
 20
8.089690192809598
 30
0.0
  0
VERTEX
  5
2C3
330
295
100
AcDbEntity
  8
0
 62
     7
370
     0
100
AcDbVertex
100
AcDb2dVertex
 10
15.77757458134053
 20
8.0973436367006
 30
0.0
  0
VERTEX
  5
2C4
330
295
100
AcDbEntity
  8
0
 62
     7
370
     0
100
AcDbVertex
100
AcDb2dVertex
 10
11.01330575917973
 20
8.246585792575501
 30
0.0
  0
SEQEND
  5
2C5
330
295
100
AcDbEntity
  8
0
 62
     7
370
     0
  0
POLYLINE
  5
2C6
102
{ACAD_REACTORS
330
23D
102
}
330
1DA
100
AcDbEntity
  8
0
 62
     7
370
     0
100
AcDb2dPolyline
 66
     1
 10
0.0
 20
0.0
 30
0.0
  0
VERTEX
  5
2C7
330
2C6
100
AcDbEntity
  8
0
 62
     7
370
     0
100
AcDbVertex
100
AcDb2dVertex
 10
17.55317356405746
 20
2.135310845594972
 30
0.0
  0
VERTEX
  5
2C8
330
2C6
100
AcDbEntity
  8
0
 62
     7
370
     0
100
AcDbVertex
100
AcDb2dVertex
 10
17.18963497923394
 20
2.051122962793726
 30
0.0
  0
VERTEX
  5
2C9
330
2C6
100
AcDbEntity
  8
0
 62
     7
370
     0
100
AcDbVertex
100
AcDb2dVertex
 10
16.8146162285739
 20
1.982241967774541
 30
0.0
  0
VERTEX
  5
2CA
330
2C6
100
AcDbEntity
  8
0
 62
     7
370
     0
100
AcDbVertex
100
AcDb2dVertex
 10
16.43959747791385
 20
1.928667860537416
 30
0.0
  0
VERTEX
  5
2CB
330
2C6
100
AcDbEntity
  8
0
 62
     7
370
     0
100
AcDbVertex
100
AcDb2dVertex
 10
16.03779167363524
 20
1.905707528864354
 30
0.0
  0
VERTEX
  5
2CC
330
2C6
100
AcDbEntity
  8
0
 62
     7
370
     0
100
AcDbVertex
100
AcDb2dVertex
 10
15.9153365713789
 20
1.905707528864354
 30
0.0
  0
VERTEX
  5
2CD
330
2C6
100
AcDbEntity
  8
0
 62
     7
370
     0
100
AcDbVertex
100
AcDb2dVertex
 10
11.00947903723423
 20
1.886573919136765
 30
0.0
  0
VERTEX
  5
2CE
330
2C6
100
AcDbEntity
  8
0
 62
     7
370
     0
100
AcDbVertex
100
AcDb2dVertex
 10
11.2543892417469
 20
1.611049939060023
 30
0.0
  0
VERTEX
  5
2CF
330
2C6
100
AcDbEntity
  8
0
 62
     7
370
     0
100
AcDbVertex
100
AcDb2dVertex
 10
11.52991322182367
 20
1.350832846765285
 30
0.0
  0
VERTEX
  5
2D0
330
2C6
100
AcDbEntity
  8
0
 62
     7
370
     0
100
AcDbVertex
100
AcDb2dVertex
 10
11.65619504602551
 20
1.243684632290978
 30
0.0
  0
VERTEX
  5
2D1
330
2C6
100
AcDbEntity
  8
0
 62
     7
370
     0
100
AcDbVertex
100
AcDb2dVertex
 10
11.95085263582984
 20
1.010254593614831
 30
0.0
  0
VERTEX
  5
2D2
330
2C6
100
AcDbEntity
  8
0
 62
     7
370
     0
100
AcDbVertex
100
AcDb2dVertex
 10
12.25699039147068
 20
0.7997848866117466
 30
0.0
  0
VERTEX
  5
2D3
330
2C6
100
AcDbEntity
  8
0
 62
     7
370
     0
100
AcDbVertex
100
AcDb2dVertex
 10
12.57460831294807
 20
0.6084487893361939
 30
0.0
  0
VERTEX
  5
2D4
330
2C6
100
AcDbEntity
  8
0
 62
     7
370
     0
100
AcDbVertex
100
AcDb2dVertex
 10
12.90753312220752
 20
0.4362463017882306
 30
0.0
  0
VERTEX
  5
2D5
330
2C6
100
AcDbEntity
  8
0
 62
     7
370
     0
100
AcDbVertex
100
AcDb2dVertex
 10
13.24811137535798
 20
0.287004145913329
 30
0.0
  0
VERTEX
  5
2D6
330
2C6
100
AcDbEntity
  8
0
 62
     7
370
     0
100
AcDbVertex
100
AcDb2dVertex
 10
13.60399651629043
 20
0.15689559976596
 30
0.0
  0
VERTEX
  5
2D7
330
2C6
100
AcDbEntity
  8
0
 62
     7
370
     0
100
AcDbVertex
100
AcDb2dVertex
 10
13.97136182305948
 20
0.0497473852916528
 30
0.0
  0
VERTEX
  5
2D8
330
2C6
100
AcDbEntity
  8
0
 62
     7
370
     0
100
AcDbVertex
100
AcDb2dVertex
 10
14.35020729566506
 20
-0.0344404975095927
 30
0.0
  0
VERTEX
  5
2D9
330
2C6
100
AcDbEntity
  8
0
 62
     7
370
     0
100
AcDbVertex
100
AcDb2dVertex
 10
14.74435965605264
 20
-0.0994947705832488
 30
0.0
  0
VERTEX
  5
2DA
330
2C6
100
AcDbEntity
  8
0
 62
     7
370
     0
100
AcDbVertex
100
AcDb2dVertex
 10
15.14616546033127
 20
-0.1454154339293723
 30
0.0
  0
VERTEX
  5
2DB
330
2C6
100
AcDbEntity
  8
0
 62
     7
370
     0
100
AcDbVertex
100
AcDb2dVertex
 10
15.56327815239191
 20
-0.1683757656024341
 30
0.0
  0
VERTEX
  5
2DC
330
2C6
100
AcDbEntity
  8
0
 62
     7
370
     0
100
AcDbVertex
100
AcDb2dVertex
 10
15.78140130328603
 20
-0.1722024875479633
 30
0.0
  0
VERTEX
  5
2DD
330
2C6
100
AcDbEntity
  8
0
 62
     7
370
     0
100
AcDbVertex
100
AcDb2dVertex
 10
16.23678121480179
 20
-0.1530688778204308
 30
0.0
  0
VERTEX
  5
2DE
330
2C6
100
AcDbEntity
  8
0
 62
     7
370
     0
100
AcDbVertex
100
AcDb2dVertex
 10
16.66154735075346
 20
-0.1109749364197796
 30
0.0
  0
VERTEX
  5
2DF
330
2C6
100
AcDbEntity
  8
0
 62
     7
370
     0
100
AcDbVertex
100
AcDb2dVertex
 10
17.05952643308657
 20
-0.049747385291596
 30
0.0
  0
VERTEX
  5
2E0
330
2C6
100
AcDbEntity
  8
0
 62
     7
370
     0
100
AcDbVertex
100
AcDb2dVertex
 10
17.43071846180115
 20
0.0344404975095927
 30
0.0
  0
VERTEX
  5
2E1
330
2C6
100
AcDbEntity
  8
0
 62
     7
370
     0
100
AcDbVertex
100
AcDb2dVertex
 10
17.77512343689707
 20
0.1339352680928982
 30
0.0
  0
VERTEX
  5
2E2
330
2C6
100
AcDbEntity
  8
0
 62
     7
370
     0
100
AcDbVertex
100
AcDb2dVertex
 10
18.09274135837447
 20
0.2563903703492087
 30
0.0
  0
VERTEX
  5
2E3
330
2C6
100
AcDbEntity
  8
0
 62
     7
370
     0
100
AcDbVertex
100
AcDb2dVertex
 10
18.12718185588406
 20
0.2716972581312689
 30
0.0
  0
VERTEX
  5
2E4
330
2C6
100
AcDbEntity
  8
0
 62
     7
370
     0
100
AcDbVertex
100
AcDb2dVertex
 10
17.55317356405746
 20
2.135310845594972
 30
0.0
  0
SEQEND
  5
2E5
330
2C6
100
AcDbEntity
  8
0
 62
     7
370
     0
  0
POLYLINE
  5
2E6
102
{ACAD_REACTORS
330
23D
102
}
330
1DA
100
AcDbEntity
  8
0
 62
     7
370
     0
100
AcDb2dPolyline
 66
     1
 10
0.0
 20
0.0
 30
0.0
  0
VERTEX
  5
2E7
330
2E6
100
AcDbEntity
  8
0
 62
     7
370
     0
100
AcDbVertex
100
AcDb2dVertex
 10
15.6245057035201
 20
10.17525365311292
 30
0.0
  0
VERTEX
  5
2E8
330
2E6
100
AcDbEntity
  8
0
 62
     7
370
     0
100
AcDbVertex
100
AcDb2dVertex
 10
15.18825940173187
 20
10.16377348727639
 30
0.0
  0
VERTEX
  5
2E9
330
2E6
100
AcDbEntity
  8
0
 62
     7
370
     0
100
AcDbVertex
100
AcDb2dVertex
 10
14.7673199877257
 20
10.12933298976679
 30
0.0
  0
VERTEX
  5
2EA
330
2E6
100
AcDbEntity
  8
0
 62
     7
370
     0
100
AcDbVertex
100
AcDb2dVertex
 10
14.36168746150159
 20
10.07193216058414
 30
0.0
  0
VERTEX
  5
2EB
330
2E6
100
AcDbEntity
  8
0
 62
     7
370
     0
100
AcDbVertex
100
AcDb2dVertex
 10
13.97136182305948
 20
9.995397721673896
 30
0.0
  0
VERTEX
  5
2EC
330
2E6
100
AcDbEntity
  8
0
 62
     7
370
     0
100
AcDbVertex
100
AcDb2dVertex
 10
13.59634307239943
 20
9.899729673036119
 30
0.0
  0
VERTEX
  5
2ED
330
2E6
100
AcDbEntity
  8
0
 62
     7
370
     0
100
AcDbVertex
100
AcDb2dVertex
 10
13.23663120952145
 20
9.781101292725281
 30
0.0
  0
VERTEX
  5
2EE
330
2E6
100
AcDbEntity
  8
0
 62
     7
370
     0
100
AcDbVertex
100
AcDb2dVertex
 10
12.89222623442546
 20
9.643339302686911
 30
0.0
  0
VERTEX
  5
2EF
330
2E6
100
AcDbEntity
  8
0
 62
     7
370
     0
100
AcDbVertex
100
AcDb2dVertex
 10
12.55930142516604
 20
9.482616980975478
 30
0.0
  0
VERTEX
  5
2F0
330
2E6
100
AcDbEntity
  8
0
 62
     7
370
     0
100
AcDbVertex
100
AcDb2dVertex
 10
12.24168350368868
 20
9.302761049536456
 30
0.0
  0
VERTEX
  5
2F1
330
2E6
100
AcDbEntity
  8
0
 62
     7
370
     0
100
AcDbVertex
100
AcDb2dVertex
 10
11.94319919193882
 20
9.099944786424373
 30
0.0
  0
VERTEX
  5
2F2
330
2E6
100
AcDbEntity
  8
0
 62
     7
370
     0
100
AcDbVertex
100
AcDb2dVertex
 10
11.65619504602551
 20
8.877994913584757
 30
0.0
  0
VERTEX
  5
2F3
330
2E6
100
AcDbEntity
  8
0
 62
     7
370
     0
100
AcDbVertex
100
AcDb2dVertex
 10
11.54904683155123
 20
8.78615358689251
 30
0.0
  0
VERTEX
  5
2F4
330
2E6
100
AcDbEntity
  8
0
 62
     7
370
     0
100
AcDbVertex
100
AcDb2dVertex
 10
11.26969612952894
 20
8.522109772652299
 30
0.0
  0
VERTEX
  5
2F5
330
2E6
100
AcDbEntity
  8
0
 62
     7
370
     0
100
AcDbVertex
100
AcDb2dVertex
 10
11.01330575917973
 20
8.246585792575501
 30
0.0
  0
VERTEX
  5
2F6
330
2E6
100
AcDbEntity
  8
0
 62
     7
370
     0
100
AcDbVertex
100
AcDb2dVertex
 10
15.77757458134053
 20
8.0973436367006
 30
0.0
  0
VERTEX
  5
2F7
330
2E6
100
AcDbEntity
  8
0
 62
     7
370
     0
100
AcDbVertex
100
AcDb2dVertex
 10
16.11815283449098
 20
8.085863470864069
 30
0.0
  0
VERTEX
  5
2F8
330
2E6
100
AcDbEntity
  8
0
 62
     7
370
     0
100
AcDbVertex
100
AcDb2dVertex
 10
16.49317158515103
 20
8.051422973354476
 30
0.0
  0
VERTEX
  5
2F9
330
2E6
100
AcDbEntity
  8
0
 62
     7
370
     0
100
AcDbVertex
100
AcDb2dVertex
 10
16.89880411137514
 20
7.994022144171823
 30
0.0
  0
VERTEX
  5
2FA
330
2E6
100
AcDbEntity
  8
0
 62
     7
370
     0
100
AcDbVertex
100
AcDb2dVertex
 10
17.33505041316337
 20
7.917487705261578
 30
0.0
  0
VERTEX
  5
2FB
330
2E6
100
AcDbEntity
  8
0
 62
     7
370
     0
100
AcDbVertex
100
AcDb2dVertex
 10
17.38097107650949
 20
7.906007539425047
 30
0.0
  0
VERTEX
  5
2FC
330
2E6
100
AcDbEntity
  8
0
 62
     7
370
     0
100
AcDbVertex
100
AcDb2dVertex
 10
18.09656808032
 20
9.673953078250974
 30
0.0
  0
VERTEX
  5
2FD
330
2E6
100
AcDbEntity
  8
0
 62
     7
370
     0
100
AcDbVertex
100
AcDb2dVertex
 10
17.74833638327851
 20
9.811715068289402
 30
0.0
  0
VERTEX
  5
2FE
330
2E6
100
AcDbEntity
  8
0
 62
     7
370
     0
100
AcDbVertex
100
AcDb2dVertex
 10
17.37331763261846
 20
9.92651672665471
 30
0.0
  0
VERTEX
  5
2FF
330
2E6
100
AcDbEntity
  8
0
 62
     7
370
     0
100
AcDbVertex
100
AcDb2dVertex
 10
16.97916527223086
 20
10.02601149723796
 30
0.0
  0
VERTEX
  5
300
330
2E6
100
AcDbEntity
  8
0
 62
     7
370
     0
100
AcDbVertex
100
AcDb2dVertex
 10
16.85671016997455
 20
10.04897182891102
 30
0.0
  0
VERTEX
  5
301
330
2E6
100
AcDbEntity
  8
0
 62
     7
370
     0
100
AcDbVertex
100
AcDb2dVertex
 10
16.41663714624079
 20
10.11785282393026
 30
0.0
  0
VERTEX
  5
302
330
2E6
100
AcDbEntity
  8
0
 62
     7
370
     0
100
AcDbVertex
100
AcDb2dVertex
 10
16.02248478585321
 20
10.15994676533086
 30
0.0
  0
VERTEX
  5
303
330
2E6
100
AcDbEntity
  8
0
 62
     7
370
     0
100
AcDbVertex
100
AcDb2dVertex
 10
15.67042636686622
 20
10.17525365311292
 30
0.0
  0
VERTEX
  5
304
330
2E6
100
AcDbEntity
  8
0
 62
     7
370
     0
100
AcDbVertex
100
AcDb2dVertex
 10
15.6245057035201
 20
10.17525365311292
 30
0.0
  0
SEQEND
  5
305
330
2E6
100
AcDbEntity
  8
0
 62
     7
370
     0
  0
POLYLINE
  5
306
330
1DA
100
AcDbEntity
  8
0
 62
     7
370
     0
100
AcDb2dPolyline
 66
     1
 10
0.0
 20
0.0
 30
0.0
  0
VERTEX
  5
307
330
306
100
AcDbEntity
  8
0
 62
     7
370
     0
100
AcDbVertex
100
AcDb2dVertex
 10
93.80818408106307
 20
7.198177878657787
 30
0.0
  0
VERTEX
  5
308
330
306
100
AcDbEntity
  8
0
 62
     7
370
     0
100
AcDbVertex
100
AcDb2dVertex
 10
93.30555424262497
 20
7.11236302819276
 30
0.0
  0
VERTEX
  5
309
330
306
100
AcDbEntity
  8
0
 62
     7
370
     0
100
AcDbVertex
100
AcDb2dVertex
 10
92.77840587548253
 20
6.891696269854037
 30
0.0
  0
VERTEX
  5
30A
330
306
100
AcDbEntity
  8
0
 62
     7
370
     0
100
AcDbVertex
100
AcDb2dVertex
 10
92.77840587548253
 20
6.891696269854037
 30
0.0
  0
VERTEX
  5
30B
330
306
100
AcDbEntity
  8
0
 62
     7
370
     0
100
AcDbVertex
100
AcDb2dVertex
 10
92.32481309445303
 20
6.621992454106759
 30
0.0
  0
VERTEX
  5
30C
330
306
100
AcDbEntity
  8
0
 62
     7
370
     0
100
AcDbVertex
100
AcDb2dVertex
 10
91.88347957777564
 20
6.297121948774815
 30
0.0
  0
VERTEX
  5
30D
330
306
100
AcDbEntity
  8
0
 62
     7
370
     0
100
AcDbVertex
100
AcDb2dVertex
 10
91.65668318726085
 20
6.107103351316482
 30
0.0
  0
VERTEX
  5
30E
330
306
100
AcDbEntity
  8
0
 62
     7
370
     0
100
AcDbVertex
100
AcDb2dVertex
 10
91.22760893493563
 20
5.702547627695537
 30
0.0
  0
VERTEX
  5
30F
330
306
100
AcDbEntity
  8
0
 62
     7
370
     0
100
AcDbVertex
100
AcDb2dVertex
 10
90.83531247566686
 20
5.291862271898537
 30
0.0
  0
VERTEX
  5
310
330
306
100
AcDbEntity
  8
0
 62
     7
370
     0
100
AcDbVertex
100
AcDb2dVertex
 10
90.4859234416306
 20
4.875047283925482
 30
0.0
  0
VERTEX
  5
311
330
306
100
AcDbEntity
  8
0
 62
     7
370
     0
100
AcDbVertex
100
AcDb2dVertex
 10
90.17331220065079
 20
4.45823229595237
 30
0.0
  0
VERTEX
  5
312
330
306
100
AcDbEntity
  8
0
 62
     7
370
     0
100
AcDbVertex
100
AcDb2dVertex
 10
89.90360838490351
 20
4.029158043627148
 30
0.0
  0
VERTEX
  5
313
330
306
100
AcDbEntity
  8
0
 62
     7
370
     0
100
AcDbVertex
100
AcDb2dVertex
 10
89.89134912055135
 20
4.010769147098926
 30
0.0
  0
VERTEX
  5
314
330
306
100
AcDbEntity
  8
0
 62
     7
370
     0
100
AcDbVertex
100
AcDb2dVertex
 10
90.13040477541826
 20
3.630731952182316
 30
0.0
  0
VERTEX
  5
315
330
306
100
AcDbEntity
  8
0
 62
     7
370
     0
100
AcDbVertex
100
AcDb2dVertex
 10
90.37559006246125
 20
4.07819510103576
 30
0.0
  0
VERTEX
  5
316
330
306
100
AcDbEntity
  8
0
 62
     7
370
     0
100
AcDbVertex
100
AcDb2dVertex
 10
90.63303461385642
 20
4.495010089008843
 30
0.0
  0
VERTEX
  5
317
330
306
100
AcDbEntity
  8
0
 62
     7
370
     0
100
AcDbVertex
100
AcDb2dVertex
 10
90.85370137219507
 20
4.795362065636481
 30
0.0
  0
VERTEX
  5
318
330
306
100
AcDbEntity
  8
0
 62
     7
370
     0
100
AcDbVertex
100
AcDb2dVertex
 10
91.29503488887246
 20
5.334769697131093
 30
0.0
  0
VERTEX
  5
319
330
306
100
AcDbEntity
  8
0
 62
     7
370
     0
100
AcDbVertex
100
AcDb2dVertex
 10
91.71797950902163
 20
5.757714317280232
 30
0.0
  0
VERTEX
  5
31A
330
306
100
AcDbEntity
  8
0
 62
     7
370
     0
100
AcDbVertex
100
AcDb2dVertex
 10
92.13479449699468
 20
6.064195926083982
 30
0.0
  0
VERTEX
  5
31B
330
306
100
AcDbEntity
  8
0
 62
     7
370
     0
100
AcDbVertex
100
AcDb2dVertex
 10
92.53322058843954
 20
6.260344155718371
 30
0.0
  0
VERTEX
  5
31C
330
306
100
AcDbEntity
  8
0
 62
     7
370
     0
100
AcDbVertex
100
AcDb2dVertex
 10
92.91938741553224
 20
6.33389974183126
 30
0.0
  0
VERTEX
  5
31D
330
306
100
AcDbEntity
  8
0
 62
     7
370
     0
100
AcDbVertex
100
AcDb2dVertex
 10
92.9316466798844
 20
6.33389974183126
 30
0.0
  0
VERTEX
  5
31E
330
306
100
AcDbEntity
  8
0
 62
     7
370
     0
100
AcDbVertex
100
AcDb2dVertex
 10
94.66633258571354
 20
6.364547902711649
 30
0.0
  0
VERTEX
  5
31F
330
306
100
AcDbEntity
  8
0
 62
     7
370
     0
100
AcDbVertex
100
AcDb2dVertex
 10
94.5621288387203
 20
6.861048108973676
 30
0.0
  0
VERTEX
  5
320
330
306
100
AcDbEntity
  8
0
 62
     7
370
     0
100
AcDbVertex
100
AcDb2dVertex
 10
94.1943509081558
 20
7.143011189073092
 30
0.0
  0
VERTEX
  5
321
330
306
100
AcDbEntity
  8
0
 62
     7
370
     0
100
AcDbVertex
100
AcDb2dVertex
 10
93.80818408106307
 20
7.198177878657787
 30
0.0
  0
SEQEND
  5
322
330
306
100
AcDbEntity
  8
0
 62
     7
370
     0
  0
HATCH
  5
323
330
1DA
100
AcDbEntity
  8
0
100
AcDbHatch
 10
0.0
 20
0.0
 30
0.0
210
0.0
220
0.0
230
1.0
  2
SOLID
 70
     1
 71
     0
 91
       29
 92
        7
 72
     0
 73
     1
 93
       20
 10
40.14938401170519
 20
1.344379150506313
 10
41.66953279137167
 20
9.460012151629342
 10
39.84903203507747
 20
9.460012151629371
 10
40.19229143693772
 20
9.331289875931787
 10
40.28423591957881
 20
8.981900841895566
 10
40.19229143693772
 20
8.417974681696932
 10
38.82538346167306
 20
1.344379150506767
 10
38.69053155379936
 20
0.7927122546596479
 10
38.6721426572712
 20
0.7314159328989831
 10
38.44534626675642
 20
0.4433232206234834
 10
38.06530907183972
 20
0.3452491058062321
 10
37.55654960122536
 20
0.2655638875173167
 10
37.37879026811942
 20
0.241045358813011
 10
37.32362357853475
 20
-0.1206029395754058
 10
41.07495847029247
 20
-0.1206029395754058
 10
41.16077332075748
 20
0.2410453588129826
 10
40.59684716055841
 20
0.3268602092780952
 10
40.51103231009373
 20
0.3452491058062606
 10
40.16164327605729
 20
0.4555824849756221
 10
40.06356916124016
 20
0.7988418868357599
 97
        0
 92
        7
 72
     0
 73
     1
 93
       45
 10
45.73347892410922
 20
7.559826177046232
 10
45.68444186670065
 20
8.099233808540702
 10
45.61701591276377
 20
8.375067256464205
 10
45.36570099354477
 20
8.840919301845758
 10
45.11438607432576
 20
9.122882381945117
 10
44.71595998288066
 20
9.423234358572869
 10
44.18881161573827
 20
9.66841964561604
 10
44.15203382268217
 20
9.680678909968037
 10
43.68005214512409
 20
9.79101228913737
 10
43.14064451362949
 20
9.858438243074203
 10
42.5521998247268
 20
9.876827139602426
 10
39.24219844964614
 20
9.876827139602426
 10
39.150253967005
 20
9.515178841214037
 10
39.72643939155592
 20
9.466141783805369
 10
39.84903203507774
 20
9.460012151629314
 10
42.44799607773326
 20
9.460012151629342
 10
43.01805187010808
 20
9.398715829868649
 10
43.37970016849664
 20
9.26999355417098
 10
43.81490405299781
 20
8.951252681015148
 10
43.94362632869548
 20
8.785752612261148
 10
44.20720051226669
 20
8.313770934703484
 10
44.2562375696752
 20
8.172789394653705
 10
44.3359227879642
 20
7.627252130983208
 10
44.34205242014026
 20
7.535307648341671
 10
44.28688573055559
 20
6.916214798558371
 10
44.16429308703413
 20
6.376807167063816
 10
43.95588559304759
 20
5.917084753858148
 10
43.67392251294816
 20
5.530917926765482
 10
43.44099649025724
 20
5.316380800602814
 10
42.99353334140379
 20
5.009899191799092
 10
42.51542203167002
 20
4.789232433460426
 10
42.00666256105582
 20
4.654380525586816
 10
41.46112529738515
 20
4.599213836002093
 10
41.3998289756244
 20
4.231435905437649
 10
41.93310697494299
 20
4.225306273261566
 10
42.4541257099093
 20
4.286602595022287
 10
42.96288518052352
 20
4.409195238543816
 10
43.45938538678557
 20
4.593084203826009
 10
43.94362632869546
 20
4.84439912304515
 10
44.3114042592599
 20
5.083454777911981
 10
44.73434887940904
 20
5.432843811948259
 10
45.10212680997351
 20
5.831269903393149
 10
45.34731209701648
 20
6.186788569605425
 10
45.58023811970736
 20
6.671029511515314
 10
45.70896039540488
 20
7.19204824648159
 97
        0
 92
        7
 72
     0
 73
     1
 93
       42
 10
48.74925795473815
 20
0.651730714610153
 10
48.8105542764987
 20
0.7068974041947059
 10
48.09951694407406
 20
0.8049715190118718
 10
47.67044269174886
 20
1.00111974864626
 10
47.52333151952304
 20
1.319860621802149
 10
47.44977593341009
 20
1.877657149825353
 10
47.437516669058
 20
2.178009126452593
 10
47.45590556558622
 20
2.662250068362368
 10
47.529461151699
 20
3.256824389441788
 10
47.5417204160512
 20
3.336509607730533
 10
47.6643130595728
 20
3.857528342697207
 10
47.83594276050284
 20
4.372417445487201
 10
47.97692430055258
 20
4.721806479523593
 10
48.23436885194772
 20
5.212177053609622
 10
48.55310972510361
 20
5.641251305934815
 10
48.82281354085086
 20
5.904825489506038
 10
49.25188779317604
 20
6.199047833957564
 10
49.74838799943798
 20
6.370677534887647
 10
50.15294372305918
 20
6.425844224472371
 10
51.3666108939215
 20
6.425844224472371
 10
49.12316551747851
 20
6.59134429322637
 10
48.67570236862505
 20
6.364547902711649
 10
48.25888738065209
 20
6.082584822612261
 10
47.87885018573532
 20
5.757714317280203
 10
47.53559078387512
 20
5.377677122363536
 10
47.49268335864238
 20
5.322510432778642
 10
47.16781285331054
 20
4.893436180453505
 10
46.89197940538734
 20
4.445973031600203
 10
46.66518301487259
 20
3.980120986218651
 10
46.47516441741432
 20
3.489750412132735
 10
46.33418287736461
 20
2.980990941518598
 10
46.22997913037124
 20
2.447712942199814
 10
46.18094207296272
 20
1.896046046353603
 10
46.16868280861051
 20
1.473101426203925
 10
46.1993309694909
 20
0.9582123234137327
 10
46.32805324518838
 20
0.4065454275675507
 10
46.34031250954062
 20
0.3636380023345396
 10
46.61614595746397
 20
-0.0960844108711285
 10
47.09425726719783
 20
-0.2983622726815724
 10
47.5723685769316
 20
-0.1818992613361843
 10
47.89723908226356
 20
-0.0102695604061296
 10
48.3140540702367
 20
0.2778231518694554
 97
        0
 92
        7
 72
     0
 73
     1
 93
       19
 10
52.67222254742579
 20
7.020418545551621
 10
51.2807960434569
 20
7.020418545551621
 10
50.69235135455333
 20
6.98977038467126
 10
50.13455482653077
 20
6.903955534206147
 10
49.61353609156446
 20
6.77523325850862
 10
49.12316551747851
 20
6.59134429322637
 10
51.36661089392186
 20
6.425844224472371
 10
51.22562935387228
 20
5.788362478160934
 10
51.07238854947039
 20
5.187658524905486
 10
50.90075884854016
 20
4.623732364706313
 10
50.71074025108186
 20
4.096583997563953
 10
50.5084623892715
 20
3.612343055654235
 10
50.2939252631088
 20
3.158750274624537
 10
50.63860361344257
 20
2.955998303839976
 10
50.20811041264382
 20
1.240175403513319
 10
50.11003629782658
 20
0.8172307833640388
 10
51.55049985920412
 20
0.8233604155400939
 10
51.41564795133046
 20
1.105323495639538
 10
51.47081464091513
 20
1.503749587084541
 97
        0
 92
        7
 72
     0
 73
     1
 93
        9
 10
52.72738923701044
 20
0.9398234268855105
 10
52.59866696131289
 20
1.252434667865315
 10
51.95505558282502
 20
0.9153048981812048
 10
51.55049985920408
 20
0.8233604155400939
 10
50.11003629782658
 20
0.8172307833640388
 10
50.04261034388976
 20
0.5046195423842335
 10
50.04261034388973
 20
0.1061934509393723
 10
50.31231415963706
 20
-0.3044919048576844
 10
50.39812901010209
 20
-0.353528962266239
 97
        0
 92
        7
 72
     0
 73
     1
 93
       14
 10
54.54774598764581
 20
0.4857422788388704
 10
54.27205654538126
 20
0.9153048981811764
 10
54.20463059144447
 20
1.442453265323649
 10
54.22301948797269
 20
1.669249655838399
 10
53.89814898264072
 20
1.66924965583837
 10
53.59166737383699
 20
0.0939341865872052
 10
54.01461199398603
 20
-0.0899547786950166
 10
54.51724183242418
 20
-0.2186770543926002
 10
55.10568652132751
 20
-0.2861030083294054
 10
55.43055702665942
 20
-0.2983622726815724
 10
55.98835355468223
 20
-0.2370659509208224
 10
56.49711302529645
 20
-0.0899547786950166
 10
55.53476077365292
 20
0.0939341865875463
 10
55.01987167086241
 20
0.1858786692283161
 97
        0
 92
        7
 72
     0
 73
     1
 93
       43
 10
57.99274327625859
 20
1.221786506984926
 10
58.11533591978014
 20
1.706027448894758
 10
58.12146555195617
 20
1.859268253296846
 10
58.05403959801939
 20
2.410935149143483
 10
57.86402100056107
 20
2.901305723229427
 10
57.75368762139189
 20
3.085194688511705
 10
57.41042821953128
 20
3.532657837365235
 10
57.04265028896691
 20
3.918824664457758
 10
56.98135396720641
 20
3.973991354042652
 10
56.55840934705754
 20
4.390806342015537
 10
56.21514994519666
 20
4.776973169108572
 10
56.12933509473188
 20
4.881176916101594
 10
55.84124238245639
 20
5.359288225835371
 10
55.77994606069566
 20
5.702547627695537
 10
55.90253870421713
 20
6.241955259190092
 10
56.19676104866876
 20
6.57908502887426
 10
56.71165015145902
 20
6.805881419388981
 10
56.85876132368473
 20
6.818140683741148
 10
55.81672385375212
 20
6.940733327262648
 10
55.51024224494843
 20
6.7507147298044
 10
55.11794578567959
 20
6.382936799239871
 10
54.84824196993233
 20
5.935473650386455
 10
54.72564932641081
 20
5.52478829458937
 10
54.72564932641081
 20
4.960862134390566
 10
54.86663086646055
 20
4.464361928128397
 10
54.95857534910157
 20
4.286602595022429
 10
55.2589273257294
 20
3.863657974873149
 10
55.6267052562939
 20
3.452972619076263
 10
55.84124238245678
 20
3.23843549291368
 10
56.30096479566219
 20
2.815490872764314
 10
56.61357603664196
 20
2.429324045671535
 10
56.67487235840259
 20
2.34350919520665
 10
56.84650205933262
 20
1.859268253296676
 10
56.89553911674124
 20
1.362768047034649
 10
56.77294647321973
 20
0.8969160016529826
 10
56.57066861140934
 20
0.5781751284971506
 10
56.1477239912601
 20
0.2471749909890377
 10
55.6328348884698
 20
0.1061934509393154
 10
55.53476077365266
 20
0.0939341865872052
 10
56.4971130252964
 20
-0.089954778695045
 10
56.96909470285413
 20
0.1368416118197331
 10
57.31235410471429
 20
0.3820268988626765
 10
57.72303946051137
 20
0.7804529903075946
 97
        0
 92
        7
 72
     0
 73
     1
 93
       13
 10
58.56279906863358
 20
6.946862959438703
 10
58.0295210693151
 20
7.100103763840593
 10
57.66787277092666
 20
7.161400085601314
 10
57.1039466107273
 20
7.192048246481732
 10
56.82811316280447
 20
7.198177878657816
 10
56.31935369219016
 20
7.130751924720925
 10
55.81672385375212
 20
6.940733327262648
 10
56.85876132368473
 20
6.818140683741205
 10
57.39203932300329
 20
6.695548040219648
 10
57.68013203527882
 20
6.438103488824538
 10
57.89466916144144
 20
5.959992179090647
 10
57.95596548320219
 20
5.543177191117621
 10
58.29309525288632
 20
5.543177191117592
 97
        0
 92
        7
 72
     0
 73
     1
 93
       14
 10
61.34565207657153
 20
0.0939341865872336
 10
60.82463334160511
 20
0.1858786692283161
 10
60.34771769889506
 20
0.49293394604166
 10
60.08294784830008
 20
0.9153048981812617
 10
60.00939226218719
 20
1.442453265323649
 10
60.03391079089152
 20
1.669249655838399
 10
59.70904028555953
 20
1.66924965583837
 10
59.39642904457975
 20
0.0939341865872052
 10
59.82550329690491
 20
-0.0899547786949882
 10
60.32813313534302
 20
-0.2186770543925718
 10
60.91044819207005
 20
-0.2861030083294054
 10
61.24144832957828
 20
-0.2983622726816009
 10
61.79311522542494
 20
-0.2370659509208508
 10
62.30800432821524
 20
-0.0899547786950166
 97
        0
 92
        7
 72
     0
 73
     1
 93
       43
 10
63.79750494700139
 20
1.221786506984983
 10
63.92009759052285
 20
1.706027448894758
 10
63.93235685487502
 20
1.859268253296761
 10
63.85880126876211
 20
2.410935149143426
 10
63.67491230347986
 20
2.90130572322954
 10
63.56457892431049
 20
3.085194688511649
 10
63.22131952245019
 20
3.532657837365121
 10
62.84741195970991
 20
3.918824664457929
 10
62.78611563794931
 20
3.973991354042425
 10
62.36930064997608
 20
4.390806342015537
 10
62.01991161593966
 20
4.776973169108401
 10
61.94022639765075
 20
4.881176916101622
 10
61.64600405319919
 20
5.359288225835399
 10
61.59083736361447
 20
5.70254762769548
 10
61.70730037495991
 20
6.241955259190149
 10
62.00765235158758
 20
6.57908502887426
 10
62.5164118222018
 20
6.805881419389038
 10
62.66965262660367
 20
6.818140683741177
 10
61.62761515667097
 20
6.940733327262648
 10
61.31500391569113
 20
6.750714729804315
 10
60.9227074564223
 20
6.382936799239843
 10
60.65913327285111
 20
5.935473650386427
 10
60.53654062932963
 20
5.52478829458937
 10
60.53041099715352
 20
4.960862134390623
 10
60.67139253720331
 20
4.464361928128397
 10
60.76333701984424
 20
4.286602595022543
 10
61.06368899647205
 20
3.863657974873007
 10
61.4314669270363
 20
3.452972619076547
 10
61.65213368537471
 20
3.238435492913879
 10
62.11185609858083
 20
2.815490872764257
 10
62.42446733956064
 20
2.429324045671592
 10
62.47963402914535
 20
2.343509195206536
 10
62.65739336225147
 20
1.859268253296647
 10
62.70643041966008
 20
1.362768047034649
 10
62.57770814396247
 20
0.8969160016530395
 10
62.37543028215208
 20
0.5781751284971506
 10
61.95861529417896
 20
0.2471749909890946
 10
61.44372619138858
 20
0.1061934509393723
 10
61.34565207657153
 20
0.0939341865872052
 10
62.30800432821522
 20
-0.0899547786950166
 10
62.77998600577297
 20
0.1368416118197331
 10
63.12324540763317
 20
0.3820268988627617
 10
63.53393076343014
 20
0.7804529903075661
 97
        0
 92
        7
 72
     0
 73
     1
 93
       13
 10
64.37369037155235
 20
6.946862959438732
 10
63.83428274005797
 20
7.100103763840593
 10
63.4787640738455
 20
7.161400085601314
 10
62.91483791364592
 20
7.192048246481732
 10
62.63287483354696
 20
7.198177878657759
 10
62.12411536293294
 20
7.130751924720925
 10
61.62761515667094
 20
6.940733327262648
 10
62.66965262660358
 20
6.818140683741205
 10
63.20293062592213
 20
6.695548040219648
 10
63.48489370602152
 20
6.438103488824566
 10
63.70556046436025
 20
5.959992179090761
 10
63.766856786121
 20
5.543177191117621
 10
64.09785692362902
 20
5.543177191117592
 97
        0
 92
        7
 72
     0
 73
     1
 93
       42
 10
68.04534004502136
 20
0.6517307146102099
 10
68.10663636678182
 20
0.706897404194649
 10
67.39559903435727
 20
0.8049715190118718
 10
66.97265441420805
 20
1.00111974864626
 10
66.82554324198225
 20
1.319860621802149
 10
66.74585802369327
 20
1.877657149825097
 10
66.73359875934116
 20
2.178009126452479
 10
66.75811728804538
 20
2.662250068362538
 10
66.82554324198219
 20
3.256824389441476
 10
66.83780250633441
 20
3.336509607730874
 10
66.96039514985589
 20
3.857528342697122
 10
67.13815448296216
 20
4.372417445487371
 10
67.27913602301185
 20
4.72180647952365
 10
67.53045094223086
 20
5.212177053609565
 10
67.85532144756283
 20
5.641251305934815
 10
68.11889563113405
 20
5.904825489506038
 10
68.54796988345928
 20
6.199047833957649
 10
69.05059972189744
 20
6.370677534887704
 10
69.4551554455183
 20
6.425844224472371
 10
70.66882261638091
 20
6.425844224472371
 10
68.42537723993775
 20
6.59134429322637
 10
67.9717844589083
 20
6.364547902711649
 10
67.56109910311121
 20
6.082584822612147
 10
67.18106190819463
 20
5.757714317280317
 10
66.83780250633526
 20
5.377677122364246
 10
66.78876544892571
 20
5.322510432778869
 10
66.47002457576999
 20
4.893436180453818
 10
66.19419112784649
 20
4.445973031600203
 10
65.9612651051558
 20
3.980120986218707
 10
65.77737613987349
 20
3.489750412132565
 10
65.63026496764769
 20
2.980990941518314
 10
65.53219085283052
 20
2.447712942200126
 10
65.47702416324586
 20
1.896046046353006
 10
65.46476489889366
 20
1.473101426204095
 10
65.50154269195013
 20
0.9582123234139885
 10
65.62413533547164
 20
0.4065454275669254
 10
65.64252423199992
 20
0.363638002334369
 10
65.91835767992319
 20
-0.0960844108710717
 10
66.39033935748097
 20
-0.2983622726815724
 10
66.87458029939086
 20
-0.1818992613361274
 10
67.1933211725468
 20
-0.0102695604060159
 10
67.61626579269591
 20
0.2778231518694838
 97
        0
 92
        7
 72
     0
 73
     1
 93
       19
 10
71.96830463770893
 20
7.020418545551621
 10
70.58300776591633
 20
7.020418545551649
 10
69.98843344483674
 20
6.98977038467126
 10
69.43063691681408
 20
6.903955534206204
 10
68.90961818184772
 20
6.775233258508677
 10
68.42537723993775
 20
6.59134429322637
 10
70.6688226163811
 20
6.425844224472371
 10
70.52784107633136
 20
5.788362478160678
 10
70.36847063975327
 20
5.18765852490543
 10
70.1968409388233
 20
4.623732364705915
 10
70.01295197354102
 20
4.096583997563755
 10
69.81067411173069
 20
3.612343055654093
 10
69.59000735339197
 20
3.158750274624537
 10
69.93551184673319
 20
2.959420759235371
 10
69.51032213510313
 20
1.240175403512665
 10
69.4122480202858
 20
0.8172307833640104
 10
70.85271158166333
 20
0.8233604155400939
 10
70.71785967378969
 20
1.105323495639481
 10
70.77302636337435
 20
1.503749587084342
 97
        0
 92
       23
 72
     0
 73
     1
 93
       16
 10
69.498062870751
 20
2.337379563030737
 10
69.810674111731
 20
2.815490872764826
 10
69.90874822654785
 20
2.974861309342315
 10
69.59000735339199
 20
3.158750274624537
 10
69.35708133070105
 20
2.748064918827424
 10
69.11189604365777
 20
2.374157356086385
 10
69.04447008972105
 20
2.276083241269532
 10
68.56635877998758
 20
1.669249655838541
 10
68.14954379201444
 20
1.221786506984983
 10
67.78176586144988
 20
0.933693794709427
 10
67.46915462047005
 20
0.8111011511879269
 10
67.39559903435713
 20
0.8049715190118718
 10
68.10663636678185
 20
0.706897404194649
 10
68.4744142973465
 20
1.074675334759319
 10
68.82993296355869
 20
1.47310142620401
 10
69.16706273324265
 20
1.889916414177065
 97
        0
 92
        7
 72
     0
 73
     1
 93
        9
 10
72.02347132729361
 20
0.9398234268855105
 10
71.90087868377213
 20
1.252434667865315
 10
71.25113767310828
 20
0.9153048981812617
 10
70.85271158166333
 20
0.8233604155400939
 10
69.4122480202858
 20
0.8172307833640388
 10
69.34482206634896
 20
0.5046195423842335
 10
69.34482206634896
 20
0.1061934509394007
 10
69.61452588209628
 20
-0.3044919048576276
 10
69.70034073256133
 20
-0.353528962266239
 97
        0
 92
        7
 72
     0
 73
     1
 93
       19
 10
75.46219497807152
 20
6.548436867993842
 10
75.46219497807152
 20
6.750714729804485
 10
75.41928755283899
 20
6.965251855966869
 10
75.21700969102852
 20
7.198177878657759
 10
73.02873100416985
 20
6.395196063591981
 10
73.6355645896013
 20
6.18065893742937
 10
74.15045369239152
 20
6.070325558260037
 10
74.32208339332166
 20
5.837399535569261
 10
74.40789824378668
 20
5.396066018891644
 10
74.46306493337136
 20
4.789232433460995
 10
74.46919456554744
 20
4.666639789938869
 10
74.50597235860385
 20
4.121102526268288
 10
74.54275015166047
 20
3.575565262594835
 10
74.58565757689282
 20
3.036157631103066
 10
74.62856500212535
 20
2.490620367432427
 10
74.67147242735802
 20
1.945083103761874
 10
74.72050948476629
 20
1.39954584009456
 10
74.76341690999899
 20
0.8540085764204832
 10
75.91578775910107
 20
1.332119886154316
 97
        0
 92
       22
 72
     0
 73
     1
 93
        3
 10
73.02873100416985
 20
6.395196063591981
 10
73.15745327986738
 20
6.082584822612204
 10
73.63556458960125
 20
6.18065893742937
 97
        0
 92
        7
 72
     0
 73
     1
 93
       23
 10
78.7292889279187
 20
4.550176778592401
 10
79.01738164019497
 20
4.966991766565627
 10
79.30547435247032
 20
5.389936386715703
 10
79.54453000733725
 20
5.837399535569147
 10
79.56904853604157
 20
6.137751512196842
 10
79.23804839853352
 20
6.965251855966755
 10
79.15223354806847
 20
7.118492660368815
 10
78.96221495061016
 20
7.198177878657759
 10
78.69864076703894
 20
7.118492660368815
 10
78.50249253740457
 20
7.038807442079843
 10
78.40441842258735
 20
6.781362890684704
 10
78.40441842258735
 20
5.923214386033976
 10
78.38602952605916
 20
5.402195651068041
 10
78.37377026170702
 20
5.291862271898594
 10
78.22052945730516
 20
4.838269490869009
 10
77.9446960093818
 20
4.317250755902819
 10
77.89565895197327
 20
4.237565537613875
 10
75.91578775910105
 20
1.332119886154288
 10
74.76341690999899
 20
0.8540085764204832
 10
74.81245396740766
 20
0.30234168057342
 10
74.86762065699242
 20
-0.2431955830992649
 10
74.87375028916836
 20
-0.2983622726815724
 10
75.28443564496535
 20
-0.2983622726816009
 97
        0
 92
        7
 72
     0
 73
     1
 93
       42
 10
82.59708683102179
 20
0.6517307146094425
 10
82.65838315278321
 20
0.706897404194649
 10
81.94734582035847
 20
0.8049715190118718
 10
81.52440120020944
 20
1.00111974864626
 10
81.3772900279836
 20
1.319860621802092
 10
81.29760480969464
 20
1.877657149825097
 10
81.28534554534246
 20
2.178009126452707
 10
81.3098640740468
 20
2.662250068362624
 10
81.37729002798369
 20
3.256824389441817
 10
81.38954929233575
 20
3.336509607730704
 10
81.51214193585719
 20
3.85752834269698
 10
81.6899012689633
 20
4.372417445487087
 10
81.83088280901316
 20
4.72180647952365
 10
82.08219772823218
 20
5.212177053609593
 10
82.40706823356413
 20
5.641251305934787
 10
82.67064241713535
 20
5.904825489506038
 10
83.09971666946058
 20
6.199047833957592
 10
83.60234650789871
 20
6.370677534887704
 10
84.0069022315196
 20
6.425844224472371
 10
85.22056940238234
 20
6.425844224472371
 10
82.97712402593907
 20
6.59134429322637
 10
82.52353124490957
 20
6.364547902711592
 10
82.11284588911253
 20
6.082584822612147
 10
81.73280869419588
 20
5.757714317280175
 10
81.38954929233722
 20
5.377677122365014
 10
81.3405122349271
 20
5.322510432778926
 10
81.02177136177123
 20
4.893436180453676
 10
80.7459379138478
 20
4.445973031599976
 10
80.51301189115713
 20
3.980120986218707
 10
80.32912292587473
 20
3.48975041213248
 10
80.18201175364902
 20
2.980990941518257
 10
80.08393763883185
 20
2.447712942200013
 10
80.02877094924716
 20
1.896046046352921
 10
80.01651168489502
 20
1.473101426204095
 10
80.05328947795144
 20
0.9582123234137611
 10
80.17588212147302
 20
0.4065454275669254
 10
80.18814138582513
 20
0.3636380023343122
 10
80.47010446592457
 20
-0.0960844108710717
 10
80.94208614348231
 20
-0.2983622726816009
 10
81.42632708539215
 20
-0.1818992613361843
 10
81.7450679585481
 20
-0.0102695604060159
 10
82.16801257869738
 20
0.2778231518695406
 97
        0
 92
       23
 72
     0
 73
     1
 93
       16
 10
83.38167974955993
 20
1.473101426203982
 10
83.71880951924437
 20
1.889916414177321
 10
84.04980965675202
 20
2.337379563030339
 10
84.36242089773205
 20
2.815490872764115
 10
84.46049501254917
 20
2.974861309342315
 10
84.1417541393933
 20
3.158750274624537
 10
83.90882811670229
 20
2.748064918827424
 10
83.66364282965912
 20
2.374157356086698
 10
83.59621687572262
 20
2.276083241269873
 10
83.11810556598869
 20
1.669249655838314
 10
82.70129057801574
 20
1.221786506984983
 10
82.33351264745122
 20
0.933693794709427
 10
82.02090140647138
 20
0.8111011511879269
 10
81.94734582035847
 20
0.8049715190118718
 10
82.65838315278319
 20
0.706897404194649
 10
83.02616108334778
 20
1.074675334759206
 97
        0
 92
        7
 72
     0
 73
     1
 93
       20
 10
86.52005142371029
 20
7.020418545551649
 10
85.13475455191755
 20
7.020418545551649
 10
84.54018023083799
 20
6.98977038467126
 10
83.98238370281541
 20
6.903955534206204
 10
83.46136496784907
 20
6.775233258508649
 10
82.97712402593905
 20
6.59134429322637
 10
85.22056940238242
 20
6.425844224472371
 10
85.07958786233272
 20
5.788362478160195
 10
84.92021742575486
 20
5.187658524905259
 10
84.74858772482463
 20
4.623732364706171
 10
84.5646987595424
 20
4.09658399756384
 10
84.36242089773193
 20
3.612343055654065
 10
84.1417541393933
 20
3.158750274624566
 10
84.46049501254922
 20
2.974861309342287
 10
84.48501354125349
 20
2.950342780638038
 10
84.06206892110436
 20
1.24017540351258
 10
83.96399480628714
 20
0.8172307833640104
 10
85.40445836766469
 20
0.8233604155400939
 10
85.26347682761496
 20
1.10532349563951
 10
85.3247731493758
 20
1.503749587084712
 97
        0
 92
        7
 72
     0
 73
     1
 93
        9
 10
86.57521811329493
 20
0.9398234268855105
 10
86.45262546977347
 20
1.252434667865315
 10
85.8028844591096
 20
0.9153048981812617
 10
85.40445836766471
 20
0.8233604155400939
 10
83.96399480628714
 20
0.8172307833640104
 10
83.89043922017425
 20
0.5046195423841482
 10
83.89043922017425
 20
0.1061934509393154
 10
84.16627266809754
 20
-0.3044919048576844
 10
84.24595788638658
 20
-0.353528962266239
 97
        0
 92
        7
 72
     0
 73
     1
 93
        7
 10
90.47979380945452
 20
7.008159281199425
 10
90.27138631546803
 20
7.198177878657787
 10
87.76436675545344
 20
6.199047833957592
 10
87.83792234156635
 20
5.929344018210343
 10
88.45088555917371
 20
6.131621880020759
 10
88.80640422538332
 20
6.211307098308594
 10
90.42462711986983
 20
6.57908502887426
 97
        0
 92
        7
 72
     0
 73
     1
 93
       14
 10
90.42462711986988
 20
6.57908502887426
 10
88.80640422538613
 20
6.21130709830976
 10
89.04545988025304
 20
6.021288500851454
 10
88.99029319066839
 20
5.628992041582705
 10
87.72145933022091
 20
-0.1206029395754058
 10
88.99029319066835
 20
-0.1206029395754058
 10
89.21095994900705
 20
0.9398234268856526
 10
89.35807112123294
 20
1.540527380141156
 10
89.52357118998676
 20
2.110583172515674
 10
89.70746015526907
 20
2.643861171834259
 10
89.9097380170796
 20
3.152620642448709
 10
90.13040477541826
 20
3.630731952182316
 10
89.89134912055138
 20
4.010769147098983
 10
89.86070095967097
 20
4.035287675803232
 97
        0
 92
        7
 72
     0
 73
     1
 93
       25
 10
90.85370137219513
 20
4.795362065636567
 10
91.2950348888725
 20
5.334769697131093
 10
91.71797950902158
 20
5.757714317280175
 10
92.13479449699471
 20
6.064195926083982
 10
92.53322058843949
 20
6.260344155718343
 10
92.92894054350981
 20
6.335719385255544
 10
92.93164667988444
 20
6.33389974183126
 10
94.66633258571354
 20
6.364547902711649
 10
94.56212883872026
 20
6.861048108973676
 10
94.1943509081558
 20
7.143011189073121
 10
93.80818408106311
 20
7.198177878657787
 10
93.30555424262497
 20
7.11236302819276
 10
92.77840587548249
 20
6.891696269854008
 10
92.32481309445288
 20
6.621992454106703
 10
91.88347957777551
 20
6.297121948774702
 10
91.65668318726105
 20
6.107103351316624
 10
91.22760893493561
 20
5.70254762769548
 10
90.83531247566677
 20
5.291862271898509
 10
90.48592344163063
 20
4.875047283925397
 10
90.17331220065097
 20
4.458232295952598
 10
89.90360838490341
 20
4.029158043627205
 10
89.8913491205513
 20
4.010769147098926
 10
90.1304047754183
 20
3.630731952182316
 10
90.37559006246116
 20
4.078195101035561
 10
90.63303461385638
 20
4.495010089008701
 97
        0
 92
        7
 72
     0
 73
     1
 93
       13
 10
94.51922141348765
 20
5.537047558940287
 10
94.6295547926571
 20
6.009029236499259
 10
94.66633258571357
 20
6.36454790271162
 10
92.93164667988444
 20
6.33389974183126
 10
93.28716534609672
 20
6.094844086964371
 10
93.30555424262499
 20
5.855788432097398
 10
93.23199865651208
 20
5.334769697131207
 10
93.11553564516652
 20
4.899565812629532
 10
92.23286861181202
 20
1.295342093098355
 10
92.11027596829044
 20
0.713027036370761
 10
93.6610729088373
 20
0.8601382085965383
 10
93.4955728400833
 20
1.062416070406982
 10
93.53848026531579
 20
1.565045908845064
 97
        0
 92
        7
 72
     0
 73
     1
 93
        9
 10
94.8073141257633
 20
0.9949901164702055
 10
94.69085111441785
 20
1.307601357449982
 10
94.02272120722557
 20
0.9827308521179816
 10
93.66107290883727
 20
0.8601382085965383
 10
92.11027596829039
 20
0.7130270363707325
 10
92.0857574395861
 20
0.5597862319685305
 10
92.07349817523397
 20
0.1613601405239819
 10
92.34320199098119
 20
-0.2370659509208224
 10
92.44740573797448
 20
-0.2983622726815724
 97
        0
 92
        7
 72
     0
 73
     1
 93
       27
 10
98.67511202886641
 20
6.425844224472371
 10
100.2994645555261
 20
6.425844224472371
 10
100.7714462330839
 20
6.738455465452176
 10
100.8388721870208
 20
7.020418545551649
 10
98.80996393674005
 20
7.020418545551649
 10
99.32485303953038
 20
9.251604657642786
 10
98.9141676837333
 20
9.251604657642815
 10
98.51574159228849
 20
8.853178566197982
 10
98.0805377077872
 20
8.54669695739426
 10
97.90890800685708
 20
8.454752474753121
 10
97.62694492675761
 20
7.020418545551592
 10
96.39488885936657
 20
7.020418545551621
 10
96.27229621584513
 20
6.425844224472371
 10
97.49209301888399
 20
6.425844224472371
 10
96.3948888593666
 20
1.307601357450124
 10
96.36424069848624
 20
0.7191566685467592
 10
96.48070370983171
 20
0.2410453588127268
 10
96.51748150288808
 20
0.1613601405240104
 10
96.88525943345254
 20
-0.2309363187447673
 10
97.14270398484774
 20
-0.2983622726815724
 10
99.88877919972921
 20
0.5597862319688716
 10
98.34411189135833
 20
0.6394714502578723
 10
97.87825984597674
 20
0.8111011511879837
 10
97.81696352421597
 20
0.8907863694768991
 10
97.71275977722268
 20
1.338249518330343
 10
97.73114867375088
 20
1.847008988944679
 10
97.7617968346313
 20
2.061546115107432
 97
        0
 92
       23
 72
     0
 73
     1
 93
        6
 10
99.79070508491199
 20
0.9827308521180384
 10
99.29420487864991
 20
0.8111011511879269
 10
99.10418628119202
 20
0.7620640937794008
 10
98.55864901752088
 20
0.6517307146099825
 10
98.34411189135849
 20
0.6394714502578723
 10
99.88877919972916
 20
0.5597862319688716
 97
        0
 75
     0
 76
     1
 47
0.2425753765339021
 98
       29
 10
39.38573972115359
 20
1.105462105094716
 10
45.16208914111479
 20
7.32793540070736
 10
46.60617649610498
 20
0.4741964176819238
 10
50.93843856107577
 20
3.72070428421955
 10
50.66767225787765
 20
0.1134731677316267
 10
54.00712494905604
 20
0.2938347927067752
 10
57.25632180123437
 20
1.015281292607141
 10
57.97836487182888
 20
6.516308088319533
 10
60.32500697541326
 20
0.0232923552441662
 10
63.03267122119558
 20
0.9251004801195676
 10
63.8449701307897
 20
6.606488900806994
 10
66.37212269857236
 20
0.5643772301693844
 10
70.79464060254299
 20
4.532331596607491
 10
68.95592701564414
 20
1.986980031215352
 10
69.87901928267428
 20
0.3829306306920443
 10
74.84165328689363
 20
6.207912557003737
 10
73.21659786460526
 20
6.231108468224192
 10
75.49167545580911
 20
0.3161594050917529
 10
81.51959612479862
 20
0.6159629617797009
 10
82.98214661175888
 20
1.265447092938416
 10
85.41973035209224
 20
5.023179178596478
 10
84.6768475265314
 20
0.3144161159137866
 10
89.96988796210274
 20
6.623694978286948
 10
89.9002424696186
 20
5.672664001262205
 10
90.45740519568989
 20
4.559261645694277
 10
93.77716274655217
 20
5.092766912257843
 10
92.59319301572686
 20
0.2680242934728767
 10
97.45625525576924
 20
3.238839378320335
 10
99.66168856829035
 20
0.7800762464868285
  0
POLYLINE
  5
324
330
1DA
100
AcDbEntity
  8
0
 62
     7
370
     0
100
AcDb2dPolyline
 66
     1
 10
0.0
 20
0.0
 30
0.0
  0
VERTEX
  5
325
330
324
100
AcDbEntity
  8
0
 62
     7
370
     0
100
AcDbVertex
100
AcDb2dVertex
 10
55.81672385375211
 20
6.940733327262648
 30
0.0
  0
VERTEX
  5
326
330
324
100
AcDbEntity
  8
0
 62
     7
370
     0
100
AcDbVertex
100
AcDb2dVertex
 10
55.51024224494836
 20
6.750714729804315
 30
0.0
  0
VERTEX
  5
327
330
324
100
AcDbEntity
  8
0
 62
     7
370
     0
100
AcDbVertex
100
AcDb2dVertex
 10
55.11794578567958
 20
6.382936799239871
 30
0.0
  0
VERTEX
  5
328
330
324
100
AcDbEntity
  8
0
 62
     7
370
     0
100
AcDbVertex
100
AcDb2dVertex
 10
54.8482419699323
 20
5.935473650386398
 30
0.0
  0
VERTEX
  5
329
330
324
100
AcDbEntity
  8
0
 62
     7
370
     0
100
AcDbVertex
100
AcDb2dVertex
 10
54.72564932641081
 20
5.52478829458937
 30
0.0
  0
VERTEX
  5
32A
330
324
100
AcDbEntity
  8
0
 62
     7
370
     0
100
AcDbVertex
100
AcDb2dVertex
 10
54.72564932641081
 20
4.960862134390538
 30
0.0
  0
VERTEX
  5
32B
330
324
100
AcDbEntity
  8
0
 62
     7
370
     0
100
AcDbVertex
100
AcDb2dVertex
 10
54.86663086646053
 20
4.464361928128482
 30
0.0
  0
VERTEX
  5
32C
330
324
100
AcDbEntity
  8
0
 62
     7
370
     0
100
AcDbVertex
100
AcDb2dVertex
 10
54.95857534910164
 20
4.286602595022316
 30
0.0
  0
VERTEX
  5
32D
330
324
100
AcDbEntity
  8
0
 62
     7
370
     0
100
AcDbVertex
100
AcDb2dVertex
 10
55.25892732572931
 20
3.863657974873149
 30
0.0
  0
VERTEX
  5
32E
330
324
100
AcDbEntity
  8
0
 62
     7
370
     0
100
AcDbVertex
100
AcDb2dVertex
 10
55.6267052562938
 20
3.452972619076149
 30
0.0
  0
VERTEX
  5
32F
330
324
100
AcDbEntity
  8
0
 62
     7
370
     0
100
AcDbVertex
100
AcDb2dVertex
 10
55.84124238245641
 20
3.238435492913538
 30
0.0
  0
VERTEX
  5
330
330
324
100
AcDbEntity
  8
0
 62
     7
370
     0
100
AcDbVertex
100
AcDb2dVertex
 10
56.30096479566202
 20
2.815490872764371
 30
0.0
  0
VERTEX
  5
331
330
324
100
AcDbEntity
  8
0
 62
     7
370
     0
100
AcDbVertex
100
AcDb2dVertex
 10
56.6135760366418
 20
2.429324045671648
 30
0.0
  0
VERTEX
  5
332
330
324
100
AcDbEntity
  8
0
 62
     7
370
     0
100
AcDbVertex
100
AcDb2dVertex
 10
56.67487235840258
 20
2.343509195206621
 30
0.0
  0
VERTEX
  5
333
330
324
100
AcDbEntity
  8
0
 62
     7
370
     0
100
AcDbVertex
100
AcDb2dVertex
 10
56.84650205933263
 20
1.859268253296704
 30
0.0
  0
VERTEX
  5
334
330
324
100
AcDbEntity
  8
0
 62
     7
370
     0
100
AcDbVertex
100
AcDb2dVertex
 10
56.89553911674124
 20
1.362768047034677
 30
0.0
  0
VERTEX
  5
335
330
324
100
AcDbEntity
  8
0
 62
     7
370
     0
100
AcDbVertex
100
AcDb2dVertex
 10
56.77294647321975
 20
0.8969160016529826
 30
0.0
  0
VERTEX
  5
336
330
324
100
AcDbEntity
  8
0
 62
     7
370
     0
100
AcDbVertex
100
AcDb2dVertex
 10
56.5706686114093
 20
0.5781751284970938
 30
0.0
  0
VERTEX
  5
337
330
324
100
AcDbEntity
  8
0
 62
     7
370
     0
100
AcDbVertex
100
AcDb2dVertex
 10
56.14772399126014
 20
0.2471749909890946
 30
0.0
  0
VERTEX
  5
338
330
324
100
AcDbEntity
  8
0
 62
     7
370
     0
100
AcDbVertex
100
AcDb2dVertex
 10
55.63283488846986
 20
0.1061934509393723
 30
0.0
  0
VERTEX
  5
339
330
324
100
AcDbEntity
  8
0
 62
     7
370
     0
100
AcDbVertex
100
AcDb2dVertex
 10
55.53476077365266
 20
0.0939341865872052
 30
0.0
  0
VERTEX
  5
33A
330
324
100
AcDbEntity
  8
0
 62
     7
370
     0
100
AcDbVertex
100
AcDb2dVertex
 10
56.49711302529642
 20
-0.0899547786950166
 30
0.0
  0
VERTEX
  5
33B
330
324
100
AcDbEntity
  8
0
 62
     7
370
     0
100
AcDbVertex
100
AcDb2dVertex
 10
56.96909470285413
 20
0.1368416118197331
 30
0.0
  0
VERTEX
  5
33C
330
324
100
AcDbEntity
  8
0
 62
     7
370
     0
100
AcDbVertex
100
AcDb2dVertex
 10
57.31235410471433
 20
0.3820268988627049
 30
0.0
  0
VERTEX
  5
33D
330
324
100
AcDbEntity
  8
0
 62
     7
370
     0
100
AcDbVertex
100
AcDb2dVertex
 10
57.72303946051136
 20
0.7804529903075946
 30
0.0
  0
VERTEX
  5
33E
330
324
100
AcDbEntity
  8
0
 62
     7
370
     0
100
AcDbVertex
100
AcDb2dVertex
 10
57.99274327625863
 20
1.221786506984955
 30
0.0
  0
VERTEX
  5
33F
330
324
100
AcDbEntity
  8
0
 62
     7
370
     0
100
AcDbVertex
100
AcDb2dVertex
 10
58.11533591978014
 20
1.706027448894872
 30
0.0
  0
VERTEX
  5
340
330
324
100
AcDbEntity
  8
0
 62
     7
370
     0
100
AcDbVertex
100
AcDb2dVertex
 10
58.12146555195619
 20
1.859268253296704
 30
0.0
  0
VERTEX
  5
341
330
324
100
AcDbEntity
  8
0
 62
     7
370
     0
100
AcDbVertex
100
AcDb2dVertex
 10
58.05403959801935
 20
2.410935149143426
 30
0.0
  0
VERTEX
  5
342
330
324
100
AcDbEntity
  8
0
 62
     7
370
     0
100
AcDbVertex
100
AcDb2dVertex
 10
57.86402100056105
 20
2.901305723229427
 30
0.0
  0
VERTEX
  5
343
330
324
100
AcDbEntity
  8
0
 62
     7
370
     0
100
AcDbVertex
100
AcDb2dVertex
 10
57.75368762139169
 20
3.085194688511649
 30
0.0
  0
VERTEX
  5
344
330
324
100
AcDbEntity
  8
0
 62
     7
370
     0
100
AcDbVertex
100
AcDb2dVertex
 10
57.41042821953152
 20
3.532657837365121
 30
0.0
  0
VERTEX
  5
345
330
324
100
AcDbEntity
  8
0
 62
     7
370
     0
100
AcDbVertex
100
AcDb2dVertex
 10
57.04265028896705
 20
3.918824664457815
 30
0.0
  0
VERTEX
  5
346
330
324
100
AcDbEntity
  8
0
 62
     7
370
     0
100
AcDbVertex
100
AcDb2dVertex
 10
56.9813539672063
 20
3.973991354042482
 30
0.0
  0
VERTEX
  5
347
330
324
100
AcDbEntity
  8
0
 62
     7
370
     0
100
AcDbVertex
100
AcDb2dVertex
 10
56.55840934705714
 20
4.390806342015594
 30
0.0
  0
VERTEX
  5
348
330
324
100
AcDbEntity
  8
0
 62
     7
370
     0
100
AcDbVertex
100
AcDb2dVertex
 10
56.21514994519697
 20
4.776973169108259
 30
0.0
  0
VERTEX
  5
349
330
324
100
AcDbEntity
  8
0
 62
     7
370
     0
100
AcDbVertex
100
AcDb2dVertex
 10
56.12933509473191
 20
4.881176916101537
 30
0.0
  0
VERTEX
  5
34A
330
324
100
AcDbEntity
  8
0
 62
     7
370
     0
100
AcDbVertex
100
AcDb2dVertex
 10
55.84124238245641
 20
5.359288225835371
 30
0.0
  0
VERTEX
  5
34B
330
324
100
AcDbEntity
  8
0
 62
     7
370
     0
100
AcDbVertex
100
AcDb2dVertex
 10
55.77994606069566
 20
5.702547627695537
 30
0.0
  0
VERTEX
  5
34C
330
324
100
AcDbEntity
  8
0
 62
     7
370
     0
100
AcDbVertex
100
AcDb2dVertex
 10
55.90253870421713
 20
6.241955259190149
 30
0.0
  0
VERTEX
  5
34D
330
324
100
AcDbEntity
  8
0
 62
     7
370
     0
100
AcDbVertex
100
AcDb2dVertex
 10
56.19676104866875
 20
6.57908502887426
 30
0.0
  0
VERTEX
  5
34E
330
324
100
AcDbEntity
  8
0
 62
     7
370
     0
100
AcDbVertex
100
AcDb2dVertex
 10
56.71165015145902
 20
6.805881419388981
 30
0.0
  0
VERTEX
  5
34F
330
324
100
AcDbEntity
  8
0
 62
     7
370
     0
100
AcDbVertex
100
AcDb2dVertex
 10
56.8587613236848
 20
6.818140683741148
 30
0.0
  0
VERTEX
  5
350
330
324
100
AcDbEntity
  8
0
 62
     7
370
     0
100
AcDbVertex
100
AcDb2dVertex
 10
55.81672385375211
 20
6.940733327262648
 30
0.0
  0
SEQEND
  5
351
330
324
100
AcDbEntity
  8
0
 62
     7
370
     0
  0
POLYLINE
  5
352
330
1DA
100
AcDbEntity
  8
0
 62
     7
370
     0
100
AcDb2dPolyline
 66
     1
 10
0.0
 20
0.0
 30
0.0
  0
VERTEX
  5
353
330
352
100
AcDbEntity
  8
0
 62
     7
370
     0
100
AcDbVertex
100
AcDb2dVertex
 10
56.82811316280441
 20
7.198177878657787
 30
0.0
  0
VERTEX
  5
354
330
352
100
AcDbEntity
  8
0
 62
     7
370
     0
100
AcDbVertex
100
AcDb2dVertex
 10
56.31935369219025
 20
7.130751924720982
 30
0.0
  0
VERTEX
  5
355
330
352
100
AcDbEntity
  8
0
 62
     7
370
     0
100
AcDbVertex
100
AcDb2dVertex
 10
55.81672385375211
 20
6.940733327262648
 30
0.0
  0
VERTEX
  5
356
330
352
100
AcDbEntity
  8
0
 62
     7
370
     0
100
AcDbVertex
100
AcDb2dVertex
 10
56.8587613236848
 20
6.818140683741148
 30
0.0
  0
VERTEX
  5
357
330
352
100
AcDbEntity
  8
0
 62
     7
370
     0
100
AcDbVertex
100
AcDb2dVertex
 10
57.3920393230033
 20
6.695548040219648
 30
0.0
  0
VERTEX
  5
358
330
352
100
AcDbEntity
  8
0
 62
     7
370
     0
100
AcDbVertex
100
AcDb2dVertex
 10
57.6801320352788
 20
6.438103488824538
 30
0.0
  0
VERTEX
  5
359
330
352
100
AcDbEntity
  8
0
 62
     7
370
     0
100
AcDbVertex
100
AcDb2dVertex
 10
57.89466916144141
 20
5.959992179090704
 30
0.0
  0
VERTEX
  5
35A
330
352
100
AcDbEntity
  8
0
 62
     7
370
     0
100
AcDbVertex
100
AcDb2dVertex
 10
57.95596548320219
 20
5.543177191117592
 30
0.0
  0
VERTEX
  5
35B
330
352
100
AcDbEntity
  8
0
 62
     7
370
     0
100
AcDbVertex
100
AcDb2dVertex
 10
58.2930952528863
 20
5.543177191117592
 30
0.0
  0
VERTEX
  5
35C
330
352
100
AcDbEntity
  8
0
 62
     7
370
     0
100
AcDbVertex
100
AcDb2dVertex
 10
58.56279906863358
 20
6.946862959438703
 30
0.0
  0
VERTEX
  5
35D
330
352
100
AcDbEntity
  8
0
 62
     7
370
     0
100
AcDbVertex
100
AcDb2dVertex
 10
58.02952106931508
 20
7.100103763840593
 30
0.0
  0
VERTEX
  5
35E
330
352
100
AcDbEntity
  8
0
 62
     7
370
     0
100
AcDbVertex
100
AcDb2dVertex
 10
57.66787277092666
 20
7.161400085601314
 30
0.0
  0
VERTEX
  5
35F
330
352
100
AcDbEntity
  8
0
 62
     7
370
     0
100
AcDbVertex
100
AcDb2dVertex
 10
57.1039466107278
 20
7.192048246481704
 30
0.0
  0
VERTEX
  5
360
330
352
100
AcDbEntity
  8
0
 62
     7
370
     0
100
AcDbVertex
100
AcDb2dVertex
 10
56.82811316280441
 20
7.198177878657787
 30
0.0
  0
SEQEND
  5
361
330
352
100
AcDbEntity
  8
0
 62
     7
370
     0
  0
POLYLINE
  5
362
330
1DA
100
AcDbEntity
  8
0
 62
     7
370
     0
100
AcDb2dPolyline
 66
     1
 10
0.0
 20
0.0
 30
0.0
  0
VERTEX
  5
363
330
362
100
AcDbEntity
  8
0
 62
     7
370
     0
100
AcDbVertex
100
AcDb2dVertex
 10
39.84903203507753
 20
9.460012151629371
 30
0.0
  0
VERTEX
  5
364
330
362
100
AcDbEntity
  8
0
 62
     7
370
     0
100
AcDbVertex
100
AcDb2dVertex
 10
40.19229143693769
 20
9.331289875931759
 30
0.0
  0
VERTEX
  5
365
330
362
100
AcDbEntity
  8
0
 62
     7
370
     0
100
AcDbVertex
100
AcDb2dVertex
 10
40.28423591957881
 20
8.981900841895537
 30
0.0
  0
VERTEX
  5
366
330
362
100
AcDbEntity
  8
0
 62
     7
370
     0
100
AcDbVertex
100
AcDb2dVertex
 10
40.19229143693769
 20
8.417974681696648
 30
0.0
  0
VERTEX
  5
367
330
362
100
AcDbEntity
  8
0
 62
     7
370
     0
100
AcDbVertex
100
AcDb2dVertex
 10
38.82538346167303
 20
1.344379150506426
 30
0.0
  0
VERTEX
  5
368
330
362
100
AcDbEntity
  8
0
 62
     7
370
     0
100
AcDbVertex
100
AcDb2dVertex
 10
38.69053155379942
 20
0.7927122546597048
 30
0.0
  0
VERTEX
  5
369
330
362
100
AcDbEntity
  8
0
 62
     7
370
     0
100
AcDbVertex
100
AcDb2dVertex
 10
38.6721426572712
 20
0.7314159328989831
 30
0.0
  0
VERTEX
  5
36A
330
362
100
AcDbEntity
  8
0
 62
     7
370
     0
100
AcDbVertex
100
AcDb2dVertex
 10
38.44534626675642
 20
0.4433232206234834
 30
0.0
  0
VERTEX
  5
36B
330
362
100
AcDbEntity
  8
0
 62
     7
370
     0
100
AcDbVertex
100
AcDb2dVertex
 10
38.06530907183978
 20
0.3452491058062606
 30
0.0
  0
VERTEX
  5
36C
330
362
100
AcDbEntity
  8
0
 62
     7
370
     0
100
AcDbVertex
100
AcDb2dVertex
 10
37.55654960122559
 20
0.2655638875173167
 30
0.0
  0
VERTEX
  5
36D
330
362
100
AcDbEntity
  8
0
 62
     7
370
     0
100
AcDbVertex
100
AcDb2dVertex
 10
37.37879026811942
 20
0.2410453588129826
 30
0.0
  0
VERTEX
  5
36E
330
362
100
AcDbEntity
  8
0
 62
     7
370
     0
100
AcDbVertex
100
AcDb2dVertex
 10
37.32362357853475
 20
-0.1206029395754058
 30
0.0
  0
VERTEX
  5
36F
330
362
100
AcDbEntity
  8
0
 62
     7
370
     0
100
AcDbVertex
100
AcDb2dVertex
 10
41.07495847029247
 20
-0.1206029395754058
 30
0.0
  0
VERTEX
  5
370
330
362
100
AcDbEntity
  8
0
 62
     7
370
     0
100
AcDbVertex
100
AcDb2dVertex
 10
41.16077332075749
 20
0.2410453588129826
 30
0.0
  0
VERTEX
  5
371
330
362
100
AcDbEntity
  8
0
 62
     7
370
     0
100
AcDbVertex
100
AcDb2dVertex
 10
40.59684716055864
 20
0.3268602092780384
 30
0.0
  0
VERTEX
  5
372
330
362
100
AcDbEntity
  8
0
 62
     7
370
     0
100
AcDbVertex
100
AcDb2dVertex
 10
40.51103231009358
 20
0.3452491058062606
 30
0.0
  0
VERTEX
  5
373
330
362
100
AcDbEntity
  8
0
 62
     7
370
     0
100
AcDbVertex
100
AcDb2dVertex
 10
40.1616432760573
 20
0.4555824849756221
 30
0.0
  0
VERTEX
  5
374
330
362
100
AcDbEntity
  8
0
 62
     7
370
     0
100
AcDbVertex
100
AcDb2dVertex
 10
40.06356916124014
 20
0.7988418868358167
 30
0.0
  0
VERTEX
  5
375
330
362
100
AcDbEntity
  8
0
 62
     7
370
     0
100
AcDbVertex
100
AcDb2dVertex
 10
40.14938401170519
 20
1.344379150506426
 30
0.0
  0
VERTEX
  5
376
330
362
100
AcDbEntity
  8
0
 62
     7
370
     0
100
AcDbVertex
100
AcDb2dVertex
 10
41.66953279137169
 20
9.460012151629371
 30
0.0
  0
VERTEX
  5
377
330
362
100
AcDbEntity
  8
0
 62
     7
370
     0
100
AcDbVertex
100
AcDb2dVertex
 10
42.44799607773319
 20
9.460012151629371
 30
0.0
  0
VERTEX
  5
378
330
362
100
AcDbEntity
  8
0
 62
     7
370
     0
100
AcDbVertex
100
AcDb2dVertex
 10
39.84903203507753
 20
9.460012151629371
 30
0.0
  0
SEQEND
  5
379
330
362
100
AcDbEntity
  8
0
 62
     7
370
     0
  0
POLYLINE
  5
37A
330
1DA
100
AcDbEntity
  8
0
 62
     7
370
     0
100
AcDb2dPolyline
 66
     1
 10
0.0
 20
0.0
 30
0.0
  0
VERTEX
  5
37B
330
37A
100
AcDbEntity
  8
0
 62
     7
370
     0
100
AcDbVertex
100
AcDb2dVertex
 10
42.55219982472647
 20
9.876827139602426
 30
0.0
  0
VERTEX
  5
37C
330
37A
100
AcDbEntity
  8
0
 62
     7
370
     0
100
AcDbVertex
100
AcDb2dVertex
 10
39.24219844964614
 20
9.876827139602426
 30
0.0
  0
VERTEX
  5
37D
330
37A
100
AcDbEntity
  8
0
 62
     7
370
     0
100
AcDbVertex
100
AcDb2dVertex
 10
39.150253967005
 20
9.515178841214037
 30
0.0
  0
VERTEX
  5
37E
330
37A
100
AcDbEntity
  8
0
 62
     7
370
     0
100
AcDbVertex
100
AcDb2dVertex
 10
39.72643939155603
 20
9.466141783805426
 30
0.0
  0
VERTEX
  5
37F
330
37A
100
AcDbEntity
  8
0
 62
     7
370
     0
100
AcDbVertex
100
AcDb2dVertex
 10
39.84903203507753
 20
9.460012151629371
 30
0.0
  0
VERTEX
  5
380
330
37A
100
AcDbEntity
  8
0
 62
     7
370
     0
100
AcDbVertex
100
AcDb2dVertex
 10
42.44799607773319
 20
9.460012151629371
 30
0.0
  0
VERTEX
  5
381
330
37A
100
AcDbEntity
  8
0
 62
     7
370
     0
100
AcDbVertex
100
AcDb2dVertex
 10
43.01805187010813
 20
9.398715829868592
 30
0.0
  0
VERTEX
  5
382
330
37A
100
AcDbEntity
  8
0
 62
     7
370
     0
100
AcDbVertex
100
AcDb2dVertex
 10
43.37970016849652
 20
9.269993554171037
 30
0.0
  0
VERTEX
  5
383
330
37A
100
AcDbEntity
  8
0
 62
     7
370
     0
100
AcDbVertex
100
AcDb2dVertex
 10
43.81490405299786
 20
8.951252681015148
 30
0.0
  0
VERTEX
  5
384
330
37A
100
AcDbEntity
  8
0
 62
     7
370
     0
100
AcDbVertex
100
AcDb2dVertex
 10
43.94362632869541
 20
8.785752612261148
 30
0.0
  0
VERTEX
  5
385
330
37A
100
AcDbEntity
  8
0
 62
     7
370
     0
100
AcDbVertex
100
AcDb2dVertex
 10
44.20720051226664
 20
8.31377093470337
 30
0.0
  0
VERTEX
  5
386
330
37A
100
AcDbEntity
  8
0
 62
     7
370
     0
100
AcDbVertex
100
AcDb2dVertex
 10
44.25623756967522
 20
8.172789394653648
 30
0.0
  0
VERTEX
  5
387
330
37A
100
AcDbEntity
  8
0
 62
     7
370
     0
100
AcDbVertex
100
AcDb2dVertex
 10
44.33592278796419
 20
7.627252130983038
 30
0.0
  0
VERTEX
  5
388
330
37A
100
AcDbEntity
  8
0
 62
     7
370
     0
100
AcDbVertex
100
AcDb2dVertex
 10
44.34205242014027
 20
7.53530764834187
 30
0.0
  0
VERTEX
  5
389
330
37A
100
AcDbEntity
  8
0
 62
     7
370
     0
100
AcDbVertex
100
AcDb2dVertex
 10
44.28688573055558
 20
6.916214798558371
 30
0.0
  0
VERTEX
  5
38A
330
37A
100
AcDbEntity
  8
0
 62
     7
370
     0
100
AcDbVertex
100
AcDb2dVertex
 10
44.16429308703411
 20
6.376807167063759
 30
0.0
  0
VERTEX
  5
38B
330
37A
100
AcDbEntity
  8
0
 62
     7
370
     0
100
AcDbVertex
100
AcDb2dVertex
 10
43.95588559304758
 20
5.917084753858148
 30
0.0
  0
VERTEX
  5
38C
330
37A
100
AcDbEntity
  8
0
 62
     7
370
     0
100
AcDbVertex
100
AcDb2dVertex
 10
43.67392251294814
 20
5.530917926765482
 30
0.0
  0
VERTEX
  5
38D
330
37A
100
AcDbEntity
  8
0
 62
     7
370
     0
100
AcDbVertex
100
AcDb2dVertex
 10
43.4409964902573
 20
5.316380800602871
 30
0.0
  0
VERTEX
  5
38E
330
37A
100
AcDbEntity
  8
0
 62
     7
370
     0
100
AcDbVertex
100
AcDb2dVertex
 10
42.99353334140383
 20
5.009899191799092
 30
0.0
  0
VERTEX
  5
38F
330
37A
100
AcDbEntity
  8
0
 62
     7
370
     0
100
AcDbVertex
100
AcDb2dVertex
 10
42.51542203167002
 20
4.789232433460426
 30
0.0
  0
VERTEX
  5
390
330
37A
100
AcDbEntity
  8
0
 62
     7
370
     0
100
AcDbVertex
100
AcDb2dVertex
 10
42.0066625610558
 20
4.654380525586788
 30
0.0
  0
VERTEX
  5
391
330
37A
100
AcDbEntity
  8
0
 62
     7
370
     0
100
AcDbVertex
100
AcDb2dVertex
 10
41.46112529738516
 20
4.599213836002093
 30
0.0
  0
VERTEX
  5
392
330
37A
100
AcDbEntity
  8
0
 62
     7
370
     0
100
AcDbVertex
100
AcDb2dVertex
 10
41.39982897562441
 20
4.231435905437649
 30
0.0
  0
VERTEX
  5
393
330
37A
100
AcDbEntity
  8
0
 62
     7
370
     0
100
AcDbVertex
100
AcDb2dVertex
 10
41.93310697494291
 20
4.225306273261537
 30
0.0
  0
VERTEX
  5
394
330
37A
100
AcDbEntity
  8
0
 62
     7
370
     0
100
AcDbVertex
100
AcDb2dVertex
 10
42.45412570990924
 20
4.286602595022316
 30
0.0
  0
VERTEX
  5
395
330
37A
100
AcDbEntity
  8
0
 62
     7
370
     0
100
AcDbVertex
100
AcDb2dVertex
 10
42.96288518052347
 20
4.409195238543816
 30
0.0
  0
VERTEX
  5
396
330
37A
100
AcDbEntity
  8
0
 62
     7
370
     0
100
AcDbVertex
100
AcDb2dVertex
 10
43.45938538678552
 20
4.593084203826037
 30
0.0
  0
VERTEX
  5
397
330
37A
100
AcDbEntity
  8
0
 62
     7
370
     0
100
AcDbVertex
100
AcDb2dVertex
 10
43.94362632869541
 20
4.844399123045093
 30
0.0
  0
VERTEX
  5
398
330
37A
100
AcDbEntity
  8
0
 62
     7
370
     0
100
AcDbVertex
100
AcDb2dVertex
 10
44.31140425925991
 20
5.08345477791201
 30
0.0
  0
VERTEX
  5
399
330
37A
100
AcDbEntity
  8
0
 62
     7
370
     0
100
AcDbVertex
100
AcDb2dVertex
 10
44.73434887940905
 20
5.432843811948259
 30
0.0
  0
VERTEX
  5
39A
330
37A
100
AcDbEntity
  8
0
 62
     7
370
     0
100
AcDbVertex
100
AcDb2dVertex
 10
45.10212680997352
 20
5.831269903393149
 30
0.0
  0
VERTEX
  5
39B
330
37A
100
AcDbEntity
  8
0
 62
     7
370
     0
100
AcDbVertex
100
AcDb2dVertex
 10
45.34731209701653
 20
6.186788569605482
 30
0.0
  0
VERTEX
  5
39C
330
37A
100
AcDbEntity
  8
0
 62
     7
370
     0
100
AcDbVertex
100
AcDb2dVertex
 10
45.58023811970736
 20
6.671029511515371
 30
0.0
  0
VERTEX
  5
39D
330
37A
100
AcDbEntity
  8
0
 62
     7
370
     0
100
AcDbVertex
100
AcDb2dVertex
 10
45.70896039540492
 20
7.192048246481704
 30
0.0
  0
VERTEX
  5
39E
330
37A
100
AcDbEntity
  8
0
 62
     7
370
     0
100
AcDbVertex
100
AcDb2dVertex
 10
45.73347892410922
 20
7.559826177046204
 30
0.0
  0
VERTEX
  5
39F
330
37A
100
AcDbEntity
  8
0
 62
     7
370
     0
100
AcDbVertex
100
AcDb2dVertex
 10
45.68444186670063
 20
8.099233808540759
 30
0.0
  0
VERTEX
  5
3A0
330
37A
100
AcDbEntity
  8
0
 62
     7
370
     0
100
AcDbVertex
100
AcDb2dVertex
 10
45.6170159127638
 20
8.375067256464149
 30
0.0
  0
VERTEX
  5
3A1
330
37A
100
AcDbEntity
  8
0
 62
     7
370
     0
100
AcDbVertex
100
AcDb2dVertex
 10
45.36570099354475
 20
8.840919301845815
 30
0.0
  0
VERTEX
  5
3A2
330
37A
100
AcDbEntity
  8
0
 62
     7
370
     0
100
AcDbVertex
100
AcDb2dVertex
 10
45.11438607432569
 20
9.12288238194526
 30
0.0
  0
VERTEX
  5
3A3
330
37A
100
AcDbEntity
  8
0
 62
     7
370
     0
100
AcDbVertex
100
AcDb2dVertex
 10
44.71595998288083
 20
9.423234358572898
 30
0.0
  0
VERTEX
  5
3A4
330
37A
100
AcDbEntity
  8
0
 62
     7
370
     0
100
AcDbVertex
100
AcDb2dVertex
 10
44.18881161573842
 20
9.66841964561587
 30
0.0
  0
VERTEX
  5
3A5
330
37A
100
AcDbEntity
  8
0
 62
     7
370
     0
100
AcDbVertex
100
AcDb2dVertex
 10
44.15203382268197
 20
9.680678909968037
 30
0.0
  0
VERTEX
  5
3A6
330
37A
100
AcDbEntity
  8
0
 62
     7
370
     0
100
AcDbVertex
100
AcDb2dVertex
 10
43.68005214512419
 20
9.79101228913737
 30
0.0
  0
VERTEX
  5
3A7
330
37A
100
AcDbEntity
  8
0
 62
     7
370
     0
100
AcDbVertex
100
AcDb2dVertex
 10
43.14064451362964
 20
9.858438243074203
 30
0.0
  0
VERTEX
  5
3A8
330
37A
100
AcDbEntity
  8
0
 62
     7
370
     0
100
AcDbVertex
100
AcDb2dVertex
 10
42.55219982472647
 20
9.876827139602426
 30
0.0
  0
SEQEND
  5
3A9
330
37A
100
AcDbEntity
  8
0
 62
     7
370
     0
  0
POLYLINE
  5
3AA
330
1DA
100
AcDbEntity
  8
0
 62
     7
370
     0
100
AcDb2dPolyline
 66
     1
 10
0.0
 20
0.0
 30
0.0
  0
VERTEX
  5
3AB
330
3AA
100
AcDbEntity
  8
0
 62
     7
370
     0
100
AcDbVertex
100
AcDb2dVertex
 10
52.67222254742581
 20
7.020418545551621
 30
0.0
  0
VERTEX
  5
3AC
330
3AA
100
AcDbEntity
  8
0
 62
     7
370
     0
100
AcDbVertex
100
AcDb2dVertex
 10
51.28079604345683
 20
7.020418545551621
 30
0.0
  0
VERTEX
  5
3AD
330
3AA
100
AcDbEntity
  8
0
 62
     7
370
     0
100
AcDbVertex
100
AcDb2dVertex
 10
50.69235135455366
 20
6.98977038467126
 30
0.0
  0
VERTEX
  5
3AE
330
3AA
100
AcDbEntity
  8
0
 62
     7
370
     0
100
AcDbVertex
100
AcDb2dVertex
 10
50.13455482653085
 20
6.903955534206204
 30
0.0
  0
VERTEX
  5
3AF
330
3AA
100
AcDbEntity
  8
0
 62
     7
370
     0
100
AcDbVertex
100
AcDb2dVertex
 10
49.61353609156453
 20
6.775233258508649
 30
0.0
  0
VERTEX
  5
3B0
330
3AA
100
AcDbEntity
  8
0
 62
     7
370
     0
100
AcDbVertex
100
AcDb2dVertex
 10
49.12316551747853
 20
6.59134429322637
 30
0.0
  0
VERTEX
  5
3B1
330
3AA
100
AcDbEntity
  8
0
 62
     7
370
     0
100
AcDbVertex
100
AcDb2dVertex
 10
51.36661089392186
 20
6.425844224472371
 30
0.0
  0
VERTEX
  5
3B2
330
3AA
100
AcDbEntity
  8
0
 62
     7
370
     0
100
AcDbVertex
100
AcDb2dVertex
 10
51.22562935387214
 20
5.788362478160593
 30
0.0
  0
VERTEX
  5
3B3
330
3AA
100
AcDbEntity
  8
0
 62
     7
370
     0
100
AcDbVertex
100
AcDb2dVertex
 10
51.07238854947031
 20
5.187658524905259
 30
0.0
  0
VERTEX
  5
3B4
330
3AA
100
AcDbEntity
  8
0
 62
     7
370
     0
100
AcDbVertex
100
AcDb2dVertex
 10
50.90075884854019
 20
4.623732364706427
 30
0.0
  0
VERTEX
  5
3B5
330
3AA
100
AcDbEntity
  8
0
 62
     7
370
     0
100
AcDbVertex
100
AcDb2dVertex
 10
50.71074025108188
 20
4.096583997563982
 30
0.0
  0
VERTEX
  5
3B6
330
3AA
100
AcDbEntity
  8
0
 62
     7
370
     0
100
AcDbVertex
100
AcDb2dVertex
 10
50.50846238927142
 20
3.612343055654093
 30
0.0
  0
VERTEX
  5
3B7
330
3AA
100
AcDbEntity
  8
0
 62
     7
370
     0
100
AcDbVertex
100
AcDb2dVertex
 10
50.2939252631088
 20
3.158750274624537
 30
0.0
  0
VERTEX
  5
3B8
330
3AA
100
AcDbEntity
  8
0
 62
     7
370
     0
100
AcDbVertex
100
AcDb2dVertex
 10
50.60653650408861
 20
2.974861309342315
 30
0.0
  0
VERTEX
  5
3B9
330
3AA
100
AcDbEntity
  8
0
 62
     7
370
     0
100
AcDbVertex
100
AcDb2dVertex
 10
50.63718466496897
 20
2.950342780638038
 30
0.0
  0
VERTEX
  5
3BA
330
3AA
100
AcDbEntity
  8
0
 62
     7
370
     0
100
AcDbVertex
100
AcDb2dVertex
 10
50.20811041264375
 20
1.240175403513177
 30
0.0
  0
VERTEX
  5
3BB
330
3AA
100
AcDbEntity
  8
0
 62
     7
370
     0
100
AcDbVertex
100
AcDb2dVertex
 10
50.11003629782658
 20
0.8172307833640388
 30
0.0
  0
VERTEX
  5
3BC
330
3AA
100
AcDbEntity
  8
0
 62
     7
370
     0
100
AcDbVertex
100
AcDb2dVertex
 10
51.55049985920411
 20
0.8233604155400939
 30
0.0
  0
VERTEX
  5
3BD
330
3AA
100
AcDbEntity
  8
0
 62
     7
370
     0
100
AcDbVertex
100
AcDb2dVertex
 10
51.41564795133047
 20
1.105323495639538
 30
0.0
  0
VERTEX
  5
3BE
330
3AA
100
AcDbEntity
  8
0
 62
     7
370
     0
100
AcDbVertex
100
AcDb2dVertex
 10
51.47081464091513
 20
1.503749587084371
 30
0.0
  0
VERTEX
  5
3BF
330
3AA
100
AcDbEntity
  8
0
 62
     7
370
     0
100
AcDbVertex
100
AcDb2dVertex
 10
52.67222254742581
 20
7.020418545551621
 30
0.0
  0
SEQEND
  5
3C0
330
3AA
100
AcDbEntity
  8
0
 62
     7
370
     0
  0
POLYLINE
  5
3C1
330
1DA
100
AcDbEntity
  8
0
 62
     7
370
     0
100
AcDb2dPolyline
 66
     1
 10
0.0
 20
0.0
 30
0.0
  0
VERTEX
  5
3C2
330
3C1
100
AcDbEntity
  8
0
 62
     7
370
     0
100
AcDbVertex
100
AcDb2dVertex
 10
50.2939252631088
 20
3.158750274624537
 30
0.0
  0
VERTEX
  5
3C3
330
3C1
100
AcDbEntity
  8
0
 62
     7
370
     0
100
AcDbVertex
100
AcDb2dVertex
 10
50.06099924041797
 20
2.748064918827537
 30
0.0
  0
VERTEX
  5
3C4
330
3C1
100
AcDbEntity
  8
0
 62
     7
370
     0
100
AcDbVertex
100
AcDb2dVertex
 10
49.80968432119891
 20
2.374157356086982
 30
0.0
  0
VERTEX
  5
3C5
330
3C1
100
AcDbEntity
  8
0
 62
     7
370
     0
100
AcDbVertex
100
AcDb2dVertex
 10
49.74225836726208
 20
2.276083241269816
 30
0.0
  0
VERTEX
  5
3C6
330
3C1
100
AcDbEntity
  8
0
 62
     7
370
     0
100
AcDbVertex
100
AcDb2dVertex
 10
49.27027668970433
 20
1.669249655838399
 30
0.0
  0
VERTEX
  5
3C7
330
3C1
100
AcDbEntity
  8
0
 62
     7
370
     0
100
AcDbVertex
100
AcDb2dVertex
 10
48.8473320695552
 20
1.221786506984955
 30
0.0
  0
VERTEX
  5
3C8
330
3C1
100
AcDbEntity
  8
0
 62
     7
370
     0
100
AcDbVertex
100
AcDb2dVertex
 10
48.48568377116674
 20
0.933693794709427
 30
0.0
  0
VERTEX
  5
3C9
330
3C1
100
AcDbEntity
  8
0
 62
     7
370
     0
100
AcDbVertex
100
AcDb2dVertex
 10
48.17307253018697
 20
0.8111011511879553
 30
0.0
  0
VERTEX
  5
3CA
330
3C1
100
AcDbEntity
  8
0
 62
     7
370
     0
100
AcDbVertex
100
AcDb2dVertex
 10
48.09951694407406
 20
0.8049715190118718
 30
0.0
  0
VERTEX
  5
3CB
330
3C1
100
AcDbEntity
  8
0
 62
     7
370
     0
100
AcDbVertex
100
AcDb2dVertex
 10
48.81055427649872
 20
0.7068974041946774
 30
0.0
  0
VERTEX
  5
3CC
330
3C1
100
AcDbEntity
  8
0
 62
     7
370
     0
100
AcDbVertex
100
AcDb2dVertex
 10
49.17833220706319
 20
1.074675334759149
 30
0.0
  0
VERTEX
  5
3CD
330
3C1
100
AcDbEntity
  8
0
 62
     7
370
     0
100
AcDbVertex
100
AcDb2dVertex
 10
49.52772124109947
 20
1.47310142620401
 30
0.0
  0
VERTEX
  5
3CE
330
3C1
100
AcDbEntity
  8
0
 62
     7
370
     0
100
AcDbVertex
100
AcDb2dVertex
 10
49.87098064295963
 20
1.889916414177093
 30
0.0
  0
VERTEX
  5
3CF
330
3C1
100
AcDbEntity
  8
0
 62
     7
370
     0
100
AcDbVertex
100
AcDb2dVertex
 10
50.19585114829161
 20
2.337379563030538
 30
0.0
  0
VERTEX
  5
3D0
330
3C1
100
AcDbEntity
  8
0
 62
     7
370
     0
100
AcDbVertex
100
AcDb2dVertex
 10
50.50846238927142
 20
2.815490872764371
 30
0.0
  0
VERTEX
  5
3D1
330
3C1
100
AcDbEntity
  8
0
 62
     7
370
     0
100
AcDbVertex
100
AcDb2dVertex
 10
50.60653650408861
 20
2.974861309342315
 30
0.0
  0
VERTEX
  5
3D2
330
3C1
100
AcDbEntity
  8
0
 62
     7
370
     0
100
AcDbVertex
100
AcDb2dVertex
 10
50.2939252631088
 20
3.158750274624537
 30
0.0
  0
SEQEND
  5
3D3
330
3C1
100
AcDbEntity
  8
0
 62
     7
370
     0
  0
POLYLINE
  5
3D4
330
1DA
100
AcDbEntity
  8
0
 62
     7
370
     0
100
AcDb2dPolyline
 66
     1
 10
0.0
 20
0.0
 30
0.0
  0
VERTEX
  5
3D5
330
3D4
100
AcDbEntity
  8
0
 62
     7
370
     0
100
AcDbVertex
100
AcDb2dVertex
 10
49.12316551747853
 20
6.59134429322637
 30
0.0
  0
VERTEX
  5
3D6
330
3D4
100
AcDbEntity
  8
0
 62
     7
370
     0
100
AcDbVertex
100
AcDb2dVertex
 10
48.67570236862508
 20
6.364547902711649
 30
0.0
  0
VERTEX
  5
3D7
330
3D4
100
AcDbEntity
  8
0
 62
     7
370
     0
100
AcDbVertex
100
AcDb2dVertex
 10
48.258887380652
 20
6.082584822612204
 30
0.0
  0
VERTEX
  5
3D8
330
3D4
100
AcDbEntity
  8
0
 62
     7
370
     0
100
AcDbVertex
100
AcDb2dVertex
 10
47.87885018573535
 20
5.757714317280232
 30
0.0
  0
VERTEX
  5
3D9
330
3D4
100
AcDbEntity
  8
0
 62
     7
370
     0
100
AcDbVertex
100
AcDb2dVertex
 10
47.53559078387519
 20
5.377677122363593
 30
0.0
  0
VERTEX
  5
3DA
330
3D4
100
AcDbEntity
  8
0
 62
     7
370
     0
100
AcDbVertex
100
AcDb2dVertex
 10
47.49268335864266
 20
5.322510432778926
 30
0.0
  0
VERTEX
  5
3DB
330
3D4
100
AcDbEntity
  8
0
 62
     7
370
     0
100
AcDbVertex
100
AcDb2dVertex
 10
47.16781285331069
 20
4.893436180453704
 30
0.0
  0
VERTEX
  5
3DC
330
3D4
100
AcDbEntity
  8
0
 62
     7
370
     0
100
AcDbVertex
100
AcDb2dVertex
 10
46.89197940538735
 20
4.44597303160026
 30
0.0
  0
VERTEX
  5
3DD
330
3D4
100
AcDbEntity
  8
0
 62
     7
370
     0
100
AcDbVertex
100
AcDb2dVertex
 10
46.66518301487258
 20
3.980120986218565
 30
0.0
  0
VERTEX
  5
3DE
330
3D4
100
AcDbEntity
  8
0
 62
     7
370
     0
100
AcDbVertex
100
AcDb2dVertex
 10
46.47516441741425
 20
3.489750412132593
 30
0.0
  0
VERTEX
  5
3DF
330
3D4
100
AcDbEntity
  8
0
 62
     7
370
     0
100
AcDbVertex
100
AcDb2dVertex
 10
46.33418287736453
 20
2.980990941518371
 30
0.0
  0
VERTEX
  5
3E0
330
3D4
100
AcDbEntity
  8
0
 62
     7
370
     0
100
AcDbVertex
100
AcDb2dVertex
 10
46.22997913037127
 20
2.447712942199899
 30
0.0
  0
VERTEX
  5
3E1
330
3D4
100
AcDbEntity
  8
0
 62
     7
370
     0
100
AcDbVertex
100
AcDb2dVertex
 10
46.18094207296269
 20
1.896046046353148
 30
0.0
  0
VERTEX
  5
3E2
330
3D4
100
AcDbEntity
  8
0
 62
     7
370
     0
100
AcDbVertex
100
AcDb2dVertex
 10
46.16868280861052
 20
1.47310142620401
 30
0.0
  0
VERTEX
  5
3E3
330
3D4
100
AcDbEntity
  8
0
 62
     7
370
     0
100
AcDbVertex
100
AcDb2dVertex
 10
46.19933096949091
 20
0.9582123234137611
 30
0.0
  0
VERTEX
  5
3E4
330
3D4
100
AcDbEntity
  8
0
 62
     7
370
     0
100
AcDbVertex
100
AcDb2dVertex
 10
46.32805324518847
 20
0.4065454275670391
 30
0.0
  0
VERTEX
  5
3E5
330
3D4
100
AcDbEntity
  8
0
 62
     7
370
     0
100
AcDbVertex
100
AcDb2dVertex
 10
46.34031250954063
 20
0.3636380023344827
 30
0.0
  0
VERTEX
  5
3E6
330
3D4
100
AcDbEntity
  8
0
 62
     7
370
     0
100
AcDbVertex
100
AcDb2dVertex
 10
46.61614595746397
 20
-0.0960844108711001
 30
0.0
  0
VERTEX
  5
3E7
330
3D4
100
AcDbEntity
  8
0
 62
     7
370
     0
100
AcDbVertex
100
AcDb2dVertex
 10
47.0942572671978
 20
-0.2983622726815724
 30
0.0
  0
VERTEX
  5
3E8
330
3D4
100
AcDbEntity
  8
0
 62
     7
370
     0
100
AcDbVertex
100
AcDb2dVertex
 10
47.0942572671978
 20
-0.2983622726815724
 30
0.0
  0
VERTEX
  5
3E9
330
3D4
100
AcDbEntity
  8
0
 62
     7
370
     0
100
AcDbVertex
100
AcDb2dVertex
 10
47.57236857693164
 20
-0.1818992613361558
 30
0.0
  0
VERTEX
  5
3EA
330
3D4
100
AcDbEntity
  8
0
 62
     7
370
     0
100
AcDbVertex
100
AcDb2dVertex
 10
47.89723908226358
 20
-0.0102695604060728
 30
0.0
  0
VERTEX
  5
3EB
330
3D4
100
AcDbEntity
  8
0
 62
     7
370
     0
100
AcDbVertex
100
AcDb2dVertex
 10
48.3140540702367
 20
0.2778231518694554
 30
0.0
  0
VERTEX
  5
3EC
330
3D4
100
AcDbEntity
  8
0
 62
     7
370
     0
100
AcDbVertex
100
AcDb2dVertex
 10
48.74925795473797
 20
0.6517307146100109
 30
0.0
  0
VERTEX
  5
3ED
330
3D4
100
AcDbEntity
  8
0
 62
     7
370
     0
100
AcDbVertex
100
AcDb2dVertex
 10
48.81055427649872
 20
0.7068974041946774
 30
0.0
  0
VERTEX
  5
3EE
330
3D4
100
AcDbEntity
  8
0
 62
     7
370
     0
100
AcDbVertex
100
AcDb2dVertex
 10
48.09951694407406
 20
0.8049715190118718
 30
0.0
  0
VERTEX
  5
3EF
330
3D4
100
AcDbEntity
  8
0
 62
     7
370
     0
100
AcDbVertex
100
AcDb2dVertex
 10
47.67044269174883
 20
1.00111974864626
 30
0.0
  0
VERTEX
  5
3F0
330
3D4
100
AcDbEntity
  8
0
 62
     7
370
     0
100
AcDbVertex
100
AcDb2dVertex
 10
47.52333151952302
 20
1.319860621802149
 30
0.0
  0
VERTEX
  5
3F1
330
3D4
100
AcDbEntity
  8
0
 62
     7
370
     0
100
AcDbVertex
100
AcDb2dVertex
 10
47.44977593341014
 20
1.877657149824926
 30
0.0
  0
VERTEX
  5
3F2
330
3D4
100
AcDbEntity
  8
0
 62
     7
370
     0
100
AcDbVertex
100
AcDb2dVertex
 10
47.437516669058
 20
2.178009126452593
 30
0.0
  0
VERTEX
  5
3F3
330
3D4
100
AcDbEntity
  8
0
 62
     7
370
     0
100
AcDbVertex
100
AcDb2dVertex
 10
47.45590556558622
 20
2.66225006836251
 30
0.0
  0
VERTEX
  5
3F4
330
3D4
100
AcDbEntity
  8
0
 62
     7
370
     0
100
AcDbVertex
100
AcDb2dVertex
 10
47.52946115169911
 20
3.25682438944176
 30
0.0
  0
VERTEX
  5
3F5
330
3D4
100
AcDbEntity
  8
0
 62
     7
370
     0
100
AcDbVertex
100
AcDb2dVertex
 10
47.54172041605125
 20
3.336509607730704
 30
0.0
  0
VERTEX
  5
3F6
330
3D4
100
AcDbEntity
  8
0
 62
     7
370
     0
100
AcDbVertex
100
AcDb2dVertex
 10
47.66431305957275
 20
3.857528342697094
 30
0.0
  0
VERTEX
  5
3F7
330
3D4
100
AcDbEntity
  8
0
 62
     7
370
     0
100
AcDbVertex
100
AcDb2dVertex
 10
47.83594276050286
 20
4.372417445487371
 30
0.0
  0
VERTEX
  5
3F8
330
3D4
100
AcDbEntity
  8
0
 62
     7
370
     0
100
AcDbVertex
100
AcDb2dVertex
 10
47.97692430055258
 20
4.721806479523593
 30
0.0
  0
VERTEX
  5
3F9
330
3D4
100
AcDbEntity
  8
0
 62
     7
370
     0
100
AcDbVertex
100
AcDb2dVertex
 10
48.23436885194769
 20
5.212177053609593
 30
0.0
  0
VERTEX
  5
3FA
330
3D4
100
AcDbEntity
  8
0
 62
     7
370
     0
100
AcDbVertex
100
AcDb2dVertex
 10
48.55310972510358
 20
5.641251305934815
 30
0.0
  0
VERTEX
  5
3FB
330
3D4
100
AcDbEntity
  8
0
 62
     7
370
     0
100
AcDbVertex
100
AcDb2dVertex
 10
48.82281354085086
 20
5.904825489506038
 30
0.0
  0
VERTEX
  5
3FC
330
3D4
100
AcDbEntity
  8
0
 62
     7
370
     0
100
AcDbVertex
100
AcDb2dVertex
 10
49.25188779317611
 20
6.199047833957592
 30
0.0
  0
VERTEX
  5
3FD
330
3D4
100
AcDbEntity
  8
0
 62
     7
370
     0
100
AcDbVertex
100
AcDb2dVertex
 10
49.74838799943814
 20
6.370677534887704
 30
0.0
  0
VERTEX
  5
3FE
330
3D4
100
AcDbEntity
  8
0
 62
     7
370
     0
100
AcDbVertex
100
AcDb2dVertex
 10
50.15294372305908
 20
6.425844224472371
 30
0.0
  0
VERTEX
  5
3FF
330
3D4
100
AcDbEntity
  8
0
 62
     7
370
     0
100
AcDbVertex
100
AcDb2dVertex
 10
51.36661089392186
 20
6.425844224472371
 30
0.0
  0
VERTEX
  5
400
330
3D4
100
AcDbEntity
  8
0
 62
     7
370
     0
100
AcDbVertex
100
AcDb2dVertex
 10
49.12316551747853
 20
6.59134429322637
 30
0.0
  0
SEQEND
  5
401
330
3D4
100
AcDbEntity
  8
0
 62
     7
370
     0
  0
POLYLINE
  5
402
330
1DA
100
AcDbEntity
  8
0
 62
     7
370
     0
100
AcDb2dPolyline
 66
     1
 10
0.0
 20
0.0
 30
0.0
  0
VERTEX
  5
403
330
402
100
AcDbEntity
  8
0
 62
     7
370
     0
100
AcDbVertex
100
AcDb2dVertex
 10
54.22301948797269
 20
1.669249655838399
 30
0.0
  0
VERTEX
  5
404
330
402
100
AcDbEntity
  8
0
 62
     7
370
     0
100
AcDbVertex
100
AcDb2dVertex
 10
53.89814898264072
 20
1.669249655838399
 30
0.0
  0
VERTEX
  5
405
330
402
100
AcDbEntity
  8
0
 62
     7
370
     0
100
AcDbVertex
100
AcDb2dVertex
 10
53.59166737383697
 20
0.0939341865872052
 30
0.0
  0
VERTEX
  5
406
330
402
100
AcDbEntity
  8
0
 62
     7
370
     0
100
AcDbVertex
100
AcDb2dVertex
 10
54.01461199398614
 20
-0.0899547786950166
 30
0.0
  0
VERTEX
  5
407
330
402
100
AcDbEntity
  8
0
 62
     7
370
     0
100
AcDbVertex
100
AcDb2dVertex
 10
54.51724183242427
 20
-0.2186770543926002
 30
0.0
  0
VERTEX
  5
408
330
402
100
AcDbEntity
  8
0
 62
     7
370
     0
100
AcDbVertex
100
AcDb2dVertex
 10
55.10568652132744
 20
-0.2861030083294054
 30
0.0
  0
VERTEX
  5
409
330
402
100
AcDbEntity
  8
0
 62
     7
370
     0
100
AcDbVertex
100
AcDb2dVertex
 10
55.43055702665942
 20
-0.2983622726815724
 30
0.0
  0
VERTEX
  5
40A
330
402
100
AcDbEntity
  8
0
 62
     7
370
     0
100
AcDbVertex
100
AcDb2dVertex
 10
55.98835355468219
 20
-0.2370659509208224
 30
0.0
  0
VERTEX
  5
40B
330
402
100
AcDbEntity
  8
0
 62
     7
370
     0
100
AcDbVertex
100
AcDb2dVertex
 10
56.49711302529642
 20
-0.0899547786950166
 30
0.0
  0
VERTEX
  5
40C
330
402
100
AcDbEntity
  8
0
 62
     7
370
     0
100
AcDbVertex
100
AcDb2dVertex
 10
55.53476077365266
 20
0.0939341865872052
 30
0.0
  0
VERTEX
  5
40D
330
402
100
AcDbEntity
  8
0
 62
     7
370
     0
100
AcDbVertex
100
AcDb2dVertex
 10
55.01987167086241
 20
0.1858786692283161
 30
0.0
  0
VERTEX
  5
40E
330
402
100
AcDbEntity
  8
0
 62
     7
370
     0
100
AcDbVertex
100
AcDb2dVertex
 10
54.56627888983286
 20
0.4739713815038443
 30
0.0
  0
VERTEX
  5
40F
330
402
100
AcDbEntity
  8
0
 62
     7
370
     0
100
AcDbVertex
100
AcDb2dVertex
 10
54.53563072895249
 20
0.5046195423842051
 30
0.0
  0
VERTEX
  5
410
330
402
100
AcDbEntity
  8
0
 62
     7
370
     0
100
AcDbVertex
100
AcDb2dVertex
 10
54.27205654538127
 20
0.9153048981812048
 30
0.0
  0
VERTEX
  5
411
330
402
100
AcDbEntity
  8
0
 62
     7
370
     0
100
AcDbVertex
100
AcDb2dVertex
 10
54.20463059144447
 20
1.442453265323649
 30
0.0
  0
VERTEX
  5
412
330
402
100
AcDbEntity
  8
0
 62
     7
370
     0
100
AcDbVertex
100
AcDb2dVertex
 10
54.22301948797269
 20
1.669249655838399
 30
0.0
  0
SEQEND
  5
413
330
402
100
AcDbEntity
  8
0
 62
     7
370
     0
  0
POLYLINE
  5
414
330
1DA
100
AcDbEntity
  8
0
 62
     7
370
     0
100
AcDb2dPolyline
 66
     1
 10
0.0
 20
0.0
 30
0.0
  0
VERTEX
  5
415
330
414
100
AcDbEntity
  8
0
 62
     7
370
     0
100
AcDbVertex
100
AcDb2dVertex
 10
52.59866696131289
 20
1.252434667865315
 30
0.0
  0
VERTEX
  5
416
330
414
100
AcDbEntity
  8
0
 62
     7
370
     0
100
AcDbVertex
100
AcDb2dVertex
 10
51.95505558282502
 20
0.9153048981812048
 30
0.0
  0
VERTEX
  5
417
330
414
100
AcDbEntity
  8
0
 62
     7
370
     0
100
AcDbVertex
100
AcDb2dVertex
 10
51.55049985920411
 20
0.8233604155400939
 30
0.0
  0
VERTEX
  5
418
330
414
100
AcDbEntity
  8
0
 62
     7
370
     0
100
AcDbVertex
100
AcDb2dVertex
 10
50.11003629782658
 20
0.8172307833640388
 30
0.0
  0
VERTEX
  5
419
330
414
100
AcDbEntity
  8
0
 62
     7
370
     0
100
AcDbVertex
100
AcDb2dVertex
 10
50.04261034388974
 20
0.5046195423842051
 30
0.0
  0
VERTEX
  5
41A
330
414
100
AcDbEntity
  8
0
 62
     7
370
     0
100
AcDbVertex
100
AcDb2dVertex
 10
50.04261034388974
 20
0.1061934509393723
 30
0.0
  0
VERTEX
  5
41B
330
414
100
AcDbEntity
  8
0
 62
     7
370
     0
100
AcDbVertex
100
AcDb2dVertex
 10
50.31231415963702
 20
-0.3044919048576276
 30
0.0
  0
VERTEX
  5
41C
330
414
100
AcDbEntity
  8
0
 62
     7
370
     0
100
AcDbVertex
100
AcDb2dVertex
 10
50.39812901010208
 20
-0.353528962266239
 30
0.0
  0
VERTEX
  5
41D
330
414
100
AcDbEntity
  8
0
 62
     7
370
     0
100
AcDbVertex
100
AcDb2dVertex
 10
52.72738923701047
 20
0.9398234268855105
 30
0.0
  0
VERTEX
  5
41E
330
414
100
AcDbEntity
  8
0
 62
     7
370
     0
100
AcDbVertex
100
AcDb2dVertex
 10
52.59866696131289
 20
1.252434667865315
 30
0.0
  0
SEQEND
  5
41F
330
414
100
AcDbEntity
  8
0
 62
     7
370
     0
  0
POLYLINE
  5
420
330
1DA
100
AcDbEntity
  8
0
 62
     7
370
     0
100
AcDb2dPolyline
 66
     1
 10
0.0
 20
0.0
 30
0.0
  0
VERTEX
  5
421
330
420
100
AcDbEntity
  8
0
 62
     7
370
     0
100
AcDbVertex
100
AcDb2dVertex
 10
75.21700969102852
 20
7.198177878657787
 30
0.0
  0
VERTEX
  5
422
330
420
100
AcDbEntity
  8
0
 62
     7
370
     0
100
AcDbVertex
100
AcDb2dVertex
 10
73.02873100416985
 20
6.395196063591981
 30
0.0
  0
VERTEX
  5
423
330
420
100
AcDbEntity
  8
0
 62
     7
370
     0
100
AcDbVertex
100
AcDb2dVertex
 10
73.63556458960125
 20
6.18065893742937
 30
0.0
  0
VERTEX
  5
424
330
420
100
AcDbEntity
  8
0
 62
     7
370
     0
100
AcDbVertex
100
AcDb2dVertex
 10
74.15045369239152
 20
6.070325558260037
 30
0.0
  0
VERTEX
  5
425
330
420
100
AcDbEntity
  8
0
 62
     7
370
     0
100
AcDbVertex
100
AcDb2dVertex
 10
74.32208339332163
 20
5.837399535569204
 30
0.0
  0
VERTEX
  5
426
330
420
100
AcDbEntity
  8
0
 62
     7
370
     0
100
AcDbVertex
100
AcDb2dVertex
 10
74.40789824378666
 20
5.396066018891815
 30
0.0
  0
VERTEX
  5
427
330
420
100
AcDbEntity
  8
0
 62
     7
370
     0
100
AcDbVertex
100
AcDb2dVertex
 10
74.46306493337136
 20
4.789232433460426
 30
0.0
  0
VERTEX
  5
428
330
420
100
AcDbEntity
  8
0
 62
     7
370
     0
100
AcDbVertex
100
AcDb2dVertex
 10
74.46919456554741
 20
4.666639789938926
 30
0.0
  0
VERTEX
  5
429
330
420
100
AcDbEntity
  8
0
 62
     7
370
     0
100
AcDbVertex
100
AcDb2dVertex
 10
74.50597235860385
 20
4.121102526268288
 30
0.0
  0
VERTEX
  5
42A
330
420
100
AcDbEntity
  8
0
 62
     7
370
     0
100
AcDbVertex
100
AcDb2dVertex
 10
74.5427501516603
 20
3.575565262597649
 30
0.0
  0
VERTEX
  5
42B
330
420
100
AcDbEntity
  8
0
 62
     7
370
     0
100
AcDbVertex
100
AcDb2dVertex
 10
74.58565757689282
 20
3.036157631103066
 30
0.0
  0
VERTEX
  5
42C
330
420
100
AcDbEntity
  8
0
 62
     7
370
     0
100
AcDbVertex
100
AcDb2dVertex
 10
74.62856500212535
 20
2.490620367432427
 30
0.0
  0
VERTEX
  5
42D
330
420
100
AcDbEntity
  8
0
 62
     7
370
     0
100
AcDbVertex
100
AcDb2dVertex
 10
74.67147242735788
 20
1.94508310376176
 30
0.0
  0
VERTEX
  5
42E
330
420
100
AcDbEntity
  8
0
 62
     7
370
     0
100
AcDbVertex
100
AcDb2dVertex
 10
74.72050948476646
 20
1.399545840091121
 30
0.0
  0
VERTEX
  5
42F
330
420
100
AcDbEntity
  8
0
 62
     7
370
     0
100
AcDbVertex
100
AcDb2dVertex
 10
74.76341690999899
 20
0.8540085764204832
 30
0.0
  0
VERTEX
  5
430
330
420
100
AcDbEntity
  8
0
 62
     7
370
     0
100
AcDbVertex
100
AcDb2dVertex
 10
75.91578775910105
 20
1.332119886154316
 30
0.0
  0
VERTEX
  5
431
330
420
100
AcDbEntity
  8
0
 62
     7
370
     0
100
AcDbVertex
100
AcDb2dVertex
 10
75.46219497807152
 20
6.548436867993871
 30
0.0
  0
VERTEX
  5
432
330
420
100
AcDbEntity
  8
0
 62
     7
370
     0
100
AcDbVertex
100
AcDb2dVertex
 10
75.46219497807152
 20
6.750714729804315
 30
0.0
  0
VERTEX
  5
433
330
420
100
AcDbEntity
  8
0
 62
     7
370
     0
100
AcDbVertex
100
AcDb2dVertex
 10
75.41928755283899
 20
6.965251855966926
 30
0.0
  0
VERTEX
  5
434
330
420
100
AcDbEntity
  8
0
 62
     7
370
     0
100
AcDbVertex
100
AcDb2dVertex
 10
75.21700969102852
 20
7.198177878657787
 30
0.0
  0
SEQEND
  5
435
330
420
100
AcDbEntity
  8
0
 62
     7
370
     0
  0
POLYLINE
  5
436
330
1DA
100
AcDbEntity
  8
0
 62
     7
370
     0
100
AcDb2dPolyline
 66
     1
 10
0.0
 20
0.0
 30
0.0
  0
VERTEX
  5
437
330
436
100
AcDbEntity
  8
0
 62
     7
370
     0
100
AcDbVertex
100
AcDb2dVertex
 10
71.96830463770893
 20
7.020418545551621
 30
0.0
  0
VERTEX
  5
438
330
436
100
AcDbEntity
  8
0
 62
     7
370
     0
100
AcDbVertex
100
AcDb2dVertex
 10
70.58300776591605
 20
7.020418545551621
 30
0.0
  0
VERTEX
  5
439
330
436
100
AcDbEntity
  8
0
 62
     7
370
     0
100
AcDbVertex
100
AcDb2dVertex
 10
69.9884334448368
 20
6.98977038467126
 30
0.0
  0
VERTEX
  5
43A
330
436
100
AcDbEntity
  8
0
 62
     7
370
     0
100
AcDbVertex
100
AcDb2dVertex
 10
69.43063691681402
 20
6.903955534206204
 30
0.0
  0
VERTEX
  5
43B
330
436
100
AcDbEntity
  8
0
 62
     7
370
     0
100
AcDbVertex
100
AcDb2dVertex
 10
68.90961818184766
 20
6.775233258508649
 30
0.0
  0
VERTEX
  5
43C
330
436
100
AcDbEntity
  8
0
 62
     7
370
     0
100
AcDbVertex
100
AcDb2dVertex
 10
68.42537723993775
 20
6.59134429322637
 30
0.0
  0
VERTEX
  5
43D
330
436
100
AcDbEntity
  8
0
 62
     7
370
     0
100
AcDbVertex
100
AcDb2dVertex
 10
70.6688226163811
 20
6.425844224472371
 30
0.0
  0
VERTEX
  5
43E
330
436
100
AcDbEntity
  8
0
 62
     7
370
     0
100
AcDbVertex
100
AcDb2dVertex
 10
70.52784107633138
 20
5.788362478160593
 30
0.0
  0
VERTEX
  5
43F
330
436
100
AcDbEntity
  8
0
 62
     7
370
     0
100
AcDbVertex
100
AcDb2dVertex
 10
70.36847063975343
 20
5.187658524905259
 30
0.0
  0
VERTEX
  5
440
330
436
100
AcDbEntity
  8
0
 62
     7
370
     0
100
AcDbVertex
100
AcDb2dVertex
 10
70.19684093882336
 20
4.623732364706427
 30
0.0
  0
VERTEX
  5
441
330
436
100
AcDbEntity
  8
0
 62
     7
370
     0
100
AcDbVertex
100
AcDb2dVertex
 10
70.0129519735411
 20
4.096583997563982
 30
0.0
  0
VERTEX
  5
442
330
436
100
AcDbEntity
  8
0
 62
     7
370
     0
100
AcDbVertex
100
AcDb2dVertex
 10
69.81067411173063
 20
3.612343055654093
 30
0.0
  0
VERTEX
  5
443
330
436
100
AcDbEntity
  8
0
 62
     7
370
     0
100
AcDbVertex
100
AcDb2dVertex
 10
69.59000735339197
 20
3.158750274624537
 30
0.0
  0
VERTEX
  5
444
330
436
100
AcDbEntity
  8
0
 62
     7
370
     0
100
AcDbVertex
100
AcDb2dVertex
 10
69.90874822654785
 20
2.974861309342315
 30
0.0
  0
VERTEX
  5
445
330
436
100
AcDbEntity
  8
0
 62
     7
370
     0
100
AcDbVertex
100
AcDb2dVertex
 10
69.93326675525214
 20
2.950342780638038
 30
0.0
  0
VERTEX
  5
446
330
436
100
AcDbEntity
  8
0
 62
     7
370
     0
100
AcDbVertex
100
AcDb2dVertex
 10
69.51032213510297
 20
1.240175403513177
 30
0.0
  0
VERTEX
  5
447
330
436
100
AcDbEntity
  8
0
 62
     7
370
     0
100
AcDbVertex
100
AcDb2dVertex
 10
69.4122480202858
 20
0.8172307833640388
 30
0.0
  0
VERTEX
  5
448
330
436
100
AcDbEntity
  8
0
 62
     7
370
     0
100
AcDbVertex
100
AcDb2dVertex
 10
70.85271158166335
 20
0.8233604155400939
 30
0.0
  0
VERTEX
  5
449
330
436
100
AcDbEntity
  8
0
 62
     7
370
     0
100
AcDbVertex
100
AcDb2dVertex
 10
70.71785967378969
 20
1.105323495639538
 30
0.0
  0
VERTEX
  5
44A
330
436
100
AcDbEntity
  8
0
 62
     7
370
     0
100
AcDbVertex
100
AcDb2dVertex
 10
70.77302636337435
 20
1.503749587084371
 30
0.0
  0
VERTEX
  5
44B
330
436
100
AcDbEntity
  8
0
 62
     7
370
     0
100
AcDbVertex
100
AcDb2dVertex
 10
71.96830463770893
 20
7.020418545551621
 30
0.0
  0
SEQEND
  5
44C
330
436
100
AcDbEntity
  8
0
 62
     7
370
     0
  0
POLYLINE
  5
44D
330
1DA
100
AcDbEntity
  8
0
 62
     7
370
     0
100
AcDb2dPolyline
 66
     1
 10
0.0
 20
0.0
 30
0.0
  0
VERTEX
  5
44E
330
44D
100
AcDbEntity
  8
0
 62
     7
370
     0
100
AcDbVertex
100
AcDb2dVertex
 10
62.63287483354719
 20
7.198177878657787
 30
0.0
  0
VERTEX
  5
44F
330
44D
100
AcDbEntity
  8
0
 62
     7
370
     0
100
AcDbVertex
100
AcDb2dVertex
 10
62.12411536293297
 20
7.130751924720982
 30
0.0
  0
VERTEX
  5
450
330
44D
100
AcDbEntity
  8
0
 62
     7
370
     0
100
AcDbVertex
100
AcDb2dVertex
 10
61.62761515667091
 20
6.940733327262648
 30
0.0
  0
VERTEX
  5
451
330
44D
100
AcDbEntity
  8
0
 62
     7
370
     0
100
AcDbVertex
100
AcDb2dVertex
 10
62.66965262660363
 20
6.818140683741148
 30
0.0
  0
VERTEX
  5
452
330
44D
100
AcDbEntity
  8
0
 62
     7
370
     0
100
AcDbVertex
100
AcDb2dVertex
 10
63.20293062592213
 20
6.695548040219648
 30
0.0
  0
VERTEX
  5
453
330
44D
100
AcDbEntity
  8
0
 62
     7
370
     0
100
AcDbVertex
100
AcDb2dVertex
 10
63.48489370602155
 20
6.438103488824538
 30
0.0
  0
VERTEX
  5
454
330
44D
100
AcDbEntity
  8
0
 62
     7
370
     0
100
AcDbVertex
100
AcDb2dVertex
 10
63.70556046436025
 20
5.959992179090704
 30
0.0
  0
VERTEX
  5
455
330
44D
100
AcDbEntity
  8
0
 62
     7
370
     0
100
AcDbVertex
100
AcDb2dVertex
 10
63.766856786121
 20
5.543177191117592
 30
0.0
  0
VERTEX
  5
456
330
44D
100
AcDbEntity
  8
0
 62
     7
370
     0
100
AcDbVertex
100
AcDb2dVertex
 10
64.09785692362902
 20
5.543177191117592
 30
0.0
  0
VERTEX
  5
457
330
44D
100
AcDbEntity
  8
0
 62
     7
370
     0
100
AcDbVertex
100
AcDb2dVertex
 10
64.37369037155239
 20
6.946862959438703
 30
0.0
  0
VERTEX
  5
458
330
44D
100
AcDbEntity
  8
0
 62
     7
370
     0
100
AcDbVertex
100
AcDb2dVertex
 10
63.8342827400578
 20
7.100103763840593
 30
0.0
  0
VERTEX
  5
459
330
44D
100
AcDbEntity
  8
0
 62
     7
370
     0
100
AcDbVertex
100
AcDb2dVertex
 10
63.47876407384546
 20
7.161400085601314
 30
0.0
  0
VERTEX
  5
45A
330
44D
100
AcDbEntity
  8
0
 62
     7
370
     0
100
AcDbVertex
100
AcDb2dVertex
 10
62.91483791364661
 20
7.192048246481704
 30
0.0
  0
VERTEX
  5
45B
330
44D
100
AcDbEntity
  8
0
 62
     7
370
     0
100
AcDbVertex
100
AcDb2dVertex
 10
62.63287483354719
 20
7.198177878657787
 30
0.0
  0
SEQEND
  5
45C
330
44D
100
AcDbEntity
  8
0
 62
     7
370
     0
  0
POLYLINE
  5
45D
330
1DA
100
AcDbEntity
  8
0
 62
     7
370
     0
100
AcDb2dPolyline
 66
     1
 10
0.0
 20
0.0
 30
0.0
  0
VERTEX
  5
45E
330
45D
100
AcDbEntity
  8
0
 62
     7
370
     0
100
AcDbVertex
100
AcDb2dVertex
 10
61.62761515667091
 20
6.940733327262648
 30
0.0
  0
VERTEX
  5
45F
330
45D
100
AcDbEntity
  8
0
 62
     7
370
     0
100
AcDbVertex
100
AcDb2dVertex
 10
61.31500391569111
 20
6.750714729804315
 30
0.0
  0
VERTEX
  5
460
330
45D
100
AcDbEntity
  8
0
 62
     7
370
     0
100
AcDbVertex
100
AcDb2dVertex
 10
60.92270745642233
 20
6.382936799239871
 30
0.0
  0
VERTEX
  5
461
330
45D
100
AcDbEntity
  8
0
 62
     7
370
     0
100
AcDbVertex
100
AcDb2dVertex
 10
60.65913327285113
 20
5.935473650386398
 30
0.0
  0
VERTEX
  5
462
330
45D
100
AcDbEntity
  8
0
 62
     7
370
     0
100
AcDbVertex
100
AcDb2dVertex
 10
60.53654062932963
 20
5.52478829458937
 30
0.0
  0
VERTEX
  5
463
330
45D
100
AcDbEntity
  8
0
 62
     7
370
     0
100
AcDbVertex
100
AcDb2dVertex
 10
60.53041099715355
 20
4.960862134390538
 30
0.0
  0
VERTEX
  5
464
330
45D
100
AcDbEntity
  8
0
 62
     7
370
     0
100
AcDbVertex
100
AcDb2dVertex
 10
60.67139253720327
 20
4.464361928128482
 30
0.0
  0
VERTEX
  5
465
330
45D
100
AcDbEntity
  8
0
 62
     7
370
     0
100
AcDbVertex
100
AcDb2dVertex
 10
60.76333701984438
 20
4.286602595022316
 30
0.0
  0
VERTEX
  5
466
330
45D
100
AcDbEntity
  8
0
 62
     7
370
     0
100
AcDbVertex
100
AcDb2dVertex
 10
61.06368899647205
 20
3.863657974873149
 30
0.0
  0
VERTEX
  5
467
330
45D
100
AcDbEntity
  8
0
 62
     7
370
     0
100
AcDbVertex
100
AcDb2dVertex
 10
61.43146692703652
 20
3.452972619076149
 30
0.0
  0
VERTEX
  5
468
330
45D
100
AcDbEntity
  8
0
 62
     7
370
     0
100
AcDbVertex
100
AcDb2dVertex
 10
61.65213368537521
 20
3.238435492913538
 30
0.0
  0
VERTEX
  5
469
330
45D
100
AcDbEntity
  8
0
 62
     7
370
     0
100
AcDbVertex
100
AcDb2dVertex
 10
62.1118560985808
 20
2.815490872764371
 30
0.0
  0
VERTEX
  5
46A
330
45D
100
AcDbEntity
  8
0
 62
     7
370
     0
100
AcDbVertex
100
AcDb2dVertex
 10
62.42446733956064
 20
2.429324045671648
 30
0.0
  0
VERTEX
  5
46B
330
45D
100
AcDbEntity
  8
0
 62
     7
370
     0
100
AcDbVertex
100
AcDb2dVertex
 10
62.4796340291453
 20
2.343509195206621
 30
0.0
  0
VERTEX
  5
46C
330
45D
100
AcDbEntity
  8
0
 62
     7
370
     0
100
AcDbVertex
100
AcDb2dVertex
 10
62.65739336225147
 20
1.859268253296704
 30
0.0
  0
VERTEX
  5
46D
330
45D
100
AcDbEntity
  8
0
 62
     7
370
     0
100
AcDbVertex
100
AcDb2dVertex
 10
62.70643041966008
 20
1.362768047034677
 30
0.0
  0
VERTEX
  5
46E
330
45D
100
AcDbEntity
  8
0
 62
     7
370
     0
100
AcDbVertex
100
AcDb2dVertex
 10
62.57770814396249
 20
0.8969160016529826
 30
0.0
  0
VERTEX
  5
46F
330
45D
100
AcDbEntity
  8
0
 62
     7
370
     0
100
AcDbVertex
100
AcDb2dVertex
 10
62.37543028215203
 20
0.5781751284970938
 30
0.0
  0
VERTEX
  5
470
330
45D
100
AcDbEntity
  8
0
 62
     7
370
     0
100
AcDbVertex
100
AcDb2dVertex
 10
61.95861529417896
 20
0.2471749909890946
 30
0.0
  0
VERTEX
  5
471
330
45D
100
AcDbEntity
  8
0
 62
     7
370
     0
100
AcDbVertex
100
AcDb2dVertex
 10
61.44372619138869
 20
0.1061934509393723
 30
0.0
  0
VERTEX
  5
472
330
45D
100
AcDbEntity
  8
0
 62
     7
370
     0
100
AcDbVertex
100
AcDb2dVertex
 10
61.34565207657146
 20
0.0939341865872052
 30
0.0
  0
VERTEX
  5
473
330
45D
100
AcDbEntity
  8
0
 62
     7
370
     0
100
AcDbVertex
100
AcDb2dVertex
 10
62.30800432821522
 20
-0.0899547786950166
 30
0.0
  0
VERTEX
  5
474
330
45D
100
AcDbEntity
  8
0
 62
     7
370
     0
100
AcDbVertex
100
AcDb2dVertex
 10
62.77998600577297
 20
0.1368416118197331
 30
0.0
  0
VERTEX
  5
475
330
45D
100
AcDbEntity
  8
0
 62
     7
370
     0
100
AcDbVertex
100
AcDb2dVertex
 10
63.12324540763313
 20
0.3820268988627049
 30
0.0
  0
VERTEX
  5
476
330
45D
100
AcDbEntity
  8
0
 62
     7
370
     0
100
AcDbVertex
100
AcDb2dVertex
 10
63.53393076343014
 20
0.7804529903075946
 30
0.0
  0
VERTEX
  5
477
330
45D
100
AcDbEntity
  8
0
 62
     7
370
     0
100
AcDbVertex
100
AcDb2dVertex
 10
63.79750494700136
 20
1.221786506984955
 30
0.0
  0
VERTEX
  5
478
330
45D
100
AcDbEntity
  8
0
 62
     7
370
     0
100
AcDbVertex
100
AcDb2dVertex
 10
63.92009759052285
 20
1.706027448894872
 30
0.0
  0
VERTEX
  5
479
330
45D
100
AcDbEntity
  8
0
 62
     7
370
     0
100
AcDbVertex
100
AcDb2dVertex
 10
63.93235685487502
 20
1.859268253296704
 30
0.0
  0
VERTEX
  5
47A
330
45D
100
AcDbEntity
  8
0
 62
     7
370
     0
100
AcDbVertex
100
AcDb2dVertex
 10
63.85880126876211
 20
2.410935149143426
 30
0.0
  0
VERTEX
  5
47B
330
45D
100
AcDbEntity
  8
0
 62
     7
370
     0
100
AcDbVertex
100
AcDb2dVertex
 10
63.67491230347986
 20
2.901305723229427
 30
0.0
  0
VERTEX
  5
47C
330
45D
100
AcDbEntity
  8
0
 62
     7
370
     0
100
AcDbVertex
100
AcDb2dVertex
 10
63.56457892431052
 20
3.085194688511649
 30
0.0
  0
VERTEX
  5
47D
330
45D
100
AcDbEntity
  8
0
 62
     7
370
     0
100
AcDbVertex
100
AcDb2dVertex
 10
63.22131952245036
 20
3.532657837365121
 30
0.0
  0
VERTEX
  5
47E
330
45D
100
AcDbEntity
  8
0
 62
     7
370
     0
100
AcDbVertex
100
AcDb2dVertex
 10
62.8474119597098
 20
3.918824664457815
 30
0.0
  0
VERTEX
  5
47F
330
45D
100
AcDbEntity
  8
0
 62
     7
370
     0
100
AcDbVertex
100
AcDb2dVertex
 10
62.78611563794902
 20
3.973991354042482
 30
0.0
  0
VERTEX
  5
480
330
45D
100
AcDbEntity
  8
0
 62
     7
370
     0
100
AcDbVertex
100
AcDb2dVertex
 10
62.36930064997597
 20
4.390806342015594
 30
0.0
  0
VERTEX
  5
481
330
45D
100
AcDbEntity
  8
0
 62
     7
370
     0
100
AcDbVertex
100
AcDb2dVertex
 10
62.01991161593969
 20
4.776973169108259
 30
0.0
  0
VERTEX
  5
482
330
45D
100
AcDbEntity
  8
0
 62
     7
370
     0
100
AcDbVertex
100
AcDb2dVertex
 10
61.94022639765075
 20
4.881176916101537
 30
0.0
  0
VERTEX
  5
483
330
45D
100
AcDbEntity
  8
0
 62
     7
370
     0
100
AcDbVertex
100
AcDb2dVertex
 10
61.64600405319913
 20
5.359288225835371
 30
0.0
  0
VERTEX
  5
484
330
45D
100
AcDbEntity
  8
0
 62
     7
370
     0
100
AcDbVertex
100
AcDb2dVertex
 10
61.59083736361447
 20
5.702547627695537
 30
0.0
  0
VERTEX
  5
485
330
45D
100
AcDbEntity
  8
0
 62
     7
370
     0
100
AcDbVertex
100
AcDb2dVertex
 10
61.70730037495989
 20
6.241955259190149
 30
0.0
  0
VERTEX
  5
486
330
45D
100
AcDbEntity
  8
0
 62
     7
370
     0
100
AcDbVertex
100
AcDb2dVertex
 10
62.00765235158755
 20
6.57908502887426
 30
0.0
  0
VERTEX
  5
487
330
45D
100
AcDbEntity
  8
0
 62
     7
370
     0
100
AcDbVertex
100
AcDb2dVertex
 10
62.51641182220175
 20
6.805881419388981
 30
0.0
  0
VERTEX
  5
488
330
45D
100
AcDbEntity
  8
0
 62
     7
370
     0
100
AcDbVertex
100
AcDb2dVertex
 10
62.66965262660363
 20
6.818140683741148
 30
0.0
  0
VERTEX
  5
489
330
45D
100
AcDbEntity
  8
0
 62
     7
370
     0
100
AcDbVertex
100
AcDb2dVertex
 10
61.62761515667091
 20
6.940733327262648
 30
0.0
  0
SEQEND
  5
48A
330
45D
100
AcDbEntity
  8
0
 62
     7
370
     0
  0
POLYLINE
  5
48B
330
1DA
100
AcDbEntity
  8
0
 62
     7
370
     0
100
AcDb2dPolyline
 66
     1
 10
0.0
 20
0.0
 30
0.0
  0
VERTEX
  5
48C
330
48B
100
AcDbEntity
  8
0
 62
     7
370
     0
100
AcDbVertex
100
AcDb2dVertex
 10
68.42537723993775
 20
6.59134429322637
 30
0.0
  0
VERTEX
  5
48D
330
48B
100
AcDbEntity
  8
0
 62
     7
370
     0
100
AcDbVertex
100
AcDb2dVertex
 10
67.97178445890825
 20
6.364547902711649
 30
0.0
  0
VERTEX
  5
48E
330
48B
100
AcDbEntity
  8
0
 62
     7
370
     0
100
AcDbVertex
100
AcDb2dVertex
 10
67.56109910311124
 20
6.082584822612204
 30
0.0
  0
VERTEX
  5
48F
330
48B
100
AcDbEntity
  8
0
 62
     7
370
     0
100
AcDbVertex
100
AcDb2dVertex
 10
67.18106190819458
 20
5.757714317280232
 30
0.0
  0
VERTEX
  5
490
330
48B
100
AcDbEntity
  8
0
 62
     7
370
     0
100
AcDbVertex
100
AcDb2dVertex
 10
66.83780250633441
 20
5.377677122363593
 30
0.0
  0
VERTEX
  5
491
330
48B
100
AcDbEntity
  8
0
 62
     7
370
     0
100
AcDbVertex
100
AcDb2dVertex
 10
66.7887654489258
 20
5.322510432778926
 30
0.0
  0
VERTEX
  5
492
330
48B
100
AcDbEntity
  8
0
 62
     7
370
     0
100
AcDbVertex
100
AcDb2dVertex
 10
66.47002457576991
 20
4.893436180453704
 30
0.0
  0
VERTEX
  5
493
330
48B
100
AcDbEntity
  8
0
 62
     7
370
     0
100
AcDbVertex
100
AcDb2dVertex
 10
66.19419112784658
 20
4.44597303160026
 30
0.0
  0
VERTEX
  5
494
330
48B
100
AcDbEntity
  8
0
 62
     7
370
     0
100
AcDbVertex
100
AcDb2dVertex
 10
65.96126510515574
 20
3.980120986218565
 30
0.0
  0
VERTEX
  5
495
330
48B
100
AcDbEntity
  8
0
 62
     7
370
     0
100
AcDbVertex
100
AcDb2dVertex
 10
65.77737613987349
 20
3.489750412132593
 30
0.0
  0
VERTEX
  5
496
330
48B
100
AcDbEntity
  8
0
 62
     7
370
     0
100
AcDbVertex
100
AcDb2dVertex
 10
65.63026496764769
 20
2.980990941518371
 30
0.0
  0
VERTEX
  5
497
330
48B
100
AcDbEntity
  8
0
 62
     7
370
     0
100
AcDbVertex
100
AcDb2dVertex
 10
65.53219085283052
 20
2.447712942199899
 30
0.0
  0
VERTEX
  5
498
330
48B
100
AcDbEntity
  8
0
 62
     7
370
     0
100
AcDbVertex
100
AcDb2dVertex
 10
65.47702416324582
 20
1.896046046353148
 30
0.0
  0
VERTEX
  5
499
330
48B
100
AcDbEntity
  8
0
 62
     7
370
     0
100
AcDbVertex
100
AcDb2dVertex
 10
65.46476489889369
 20
1.47310142620401
 30
0.0
  0
VERTEX
  5
49A
330
48B
100
AcDbEntity
  8
0
 62
     7
370
     0
100
AcDbVertex
100
AcDb2dVertex
 10
65.50154269195013
 20
0.9582123234137611
 30
0.0
  0
VERTEX
  5
49B
330
48B
100
AcDbEntity
  8
0
 62
     7
370
     0
100
AcDbVertex
100
AcDb2dVertex
 10
65.62413533547164
 20
0.4065454275670391
 30
0.0
  0
VERTEX
  5
49C
330
48B
100
AcDbEntity
  8
0
 62
     7
370
     0
100
AcDbVertex
100
AcDb2dVertex
 10
65.64252423199985
 20
0.3636380023344827
 30
0.0
  0
VERTEX
  5
49D
330
48B
100
AcDbEntity
  8
0
 62
     7
370
     0
100
AcDbVertex
100
AcDb2dVertex
 10
65.91835767992319
 20
-0.0960844108711001
 30
0.0
  0
VERTEX
  5
49E
330
48B
100
AcDbEntity
  8
0
 62
     7
370
     0
100
AcDbVertex
100
AcDb2dVertex
 10
66.39033935748097
 20
-0.2983622726815724
 30
0.0
  0
VERTEX
  5
49F
330
48B
100
AcDbEntity
  8
0
 62
     7
370
     0
100
AcDbVertex
100
AcDb2dVertex
 10
66.39033935748097
 20
-0.2983622726815724
 30
0.0
  0
VERTEX
  5
4A0
330
48B
100
AcDbEntity
  8
0
 62
     7
370
     0
100
AcDbVertex
100
AcDb2dVertex
 10
66.87458029939086
 20
-0.1818992613361558
 30
0.0
  0
VERTEX
  5
4A1
330
48B
100
AcDbEntity
  8
0
 62
     7
370
     0
100
AcDbVertex
100
AcDb2dVertex
 10
67.19332117254674
 20
-0.0102695604060728
 30
0.0
  0
VERTEX
  5
4A2
330
48B
100
AcDbEntity
  8
0
 62
     7
370
     0
100
AcDbVertex
100
AcDb2dVertex
 10
67.61626579269591
 20
0.2778231518694554
 30
0.0
  0
VERTEX
  5
4A3
330
48B
100
AcDbEntity
  8
0
 62
     7
370
     0
100
AcDbVertex
100
AcDb2dVertex
 10
68.04534004502113
 20
0.6517307146100109
 30
0.0
  0
VERTEX
  5
4A4
330
48B
100
AcDbEntity
  8
0
 62
     7
370
     0
100
AcDbVertex
100
AcDb2dVertex
 10
68.10663636678185
 20
0.7068974041946774
 30
0.0
  0
VERTEX
  5
4A5
330
48B
100
AcDbEntity
  8
0
 62
     7
370
     0
100
AcDbVertex
100
AcDb2dVertex
 10
67.39559903435722
 20
0.8049715190118718
 30
0.0
  0
VERTEX
  5
4A6
330
48B
100
AcDbEntity
  8
0
 62
     7
370
     0
100
AcDbVertex
100
AcDb2dVertex
 10
66.97265441420805
 20
1.00111974864626
 30
0.0
  0
VERTEX
  5
4A7
330
48B
100
AcDbEntity
  8
0
 62
     7
370
     0
100
AcDbVertex
100
AcDb2dVertex
 10
66.82554324198225
 20
1.319860621802149
 30
0.0
  0
VERTEX
  5
4A8
330
48B
100
AcDbEntity
  8
0
 62
     7
370
     0
100
AcDbVertex
100
AcDb2dVertex
 10
66.7458580236933
 20
1.877657149824926
 30
0.0
  0
VERTEX
  5
4A9
330
48B
100
AcDbEntity
  8
0
 62
     7
370
     0
100
AcDbVertex
100
AcDb2dVertex
 10
66.73359875934114
 20
2.178009126452593
 30
0.0
  0
VERTEX
  5
4AA
330
48B
100
AcDbEntity
  8
0
 62
     7
370
     0
100
AcDbVertex
100
AcDb2dVertex
 10
66.75811728804544
 20
2.66225006836251
 30
0.0
  0
VERTEX
  5
4AB
330
48B
100
AcDbEntity
  8
0
 62
     7
370
     0
100
AcDbVertex
100
AcDb2dVertex
 10
66.82554324198225
 20
3.25682438944176
 30
0.0
  0
VERTEX
  5
4AC
330
48B
100
AcDbEntity
  8
0
 62
     7
370
     0
100
AcDbVertex
100
AcDb2dVertex
 10
66.83780250633441
 20
3.336509607730704
 30
0.0
  0
VERTEX
  5
4AD
330
48B
100
AcDbEntity
  8
0
 62
     7
370
     0
100
AcDbVertex
100
AcDb2dVertex
 10
66.96039514985591
 20
3.857528342697094
 30
0.0
  0
VERTEX
  5
4AE
330
48B
100
AcDbEntity
  8
0
 62
     7
370
     0
100
AcDbVertex
100
AcDb2dVertex
 10
67.13815448296208
 20
4.372417445487371
 30
0.0
  0
VERTEX
  5
4AF
330
48B
100
AcDbEntity
  8
0
 62
     7
370
     0
100
AcDbVertex
100
AcDb2dVertex
 10
67.2791360230118
 20
4.721806479523593
 30
0.0
  0
VERTEX
  5
4B0
330
48B
100
AcDbEntity
  8
0
 62
     7
370
     0
100
AcDbVertex
100
AcDb2dVertex
 10
67.53045094223086
 20
5.212177053609593
 30
0.0
  0
VERTEX
  5
4B1
330
48B
100
AcDbEntity
  8
0
 62
     7
370
     0
100
AcDbVertex
100
AcDb2dVertex
 10
67.8553214475628
 20
5.641251305934815
 30
0.0
  0
VERTEX
  5
4B2
330
48B
100
AcDbEntity
  8
0
 62
     7
370
     0
100
AcDbVertex
100
AcDb2dVertex
 10
68.11889563113402
 20
5.904825489506038
 30
0.0
  0
VERTEX
  5
4B3
330
48B
100
AcDbEntity
  8
0
 62
     7
370
     0
100
AcDbVertex
100
AcDb2dVertex
 10
68.54796988345924
 20
6.199047833957592
 30
0.0
  0
VERTEX
  5
4B4
330
48B
100
AcDbEntity
  8
0
 62
     7
370
     0
100
AcDbVertex
100
AcDb2dVertex
 10
69.05059972189738
 20
6.370677534887704
 30
0.0
  0
VERTEX
  5
4B5
330
48B
100
AcDbEntity
  8
0
 62
     7
370
     0
100
AcDbVertex
100
AcDb2dVertex
 10
69.4551554455183
 20
6.425844224472371
 30
0.0
  0
VERTEX
  5
4B6
330
48B
100
AcDbEntity
  8
0
 62
     7
370
     0
100
AcDbVertex
100
AcDb2dVertex
 10
70.6688226163811
 20
6.425844224472371
 30
0.0
  0
VERTEX
  5
4B7
330
48B
100
AcDbEntity
  8
0
 62
     7
370
     0
100
AcDbVertex
100
AcDb2dVertex
 10
68.42537723993775
 20
6.59134429322637
 30
0.0
  0
SEQEND
  5
4B8
330
48B
100
AcDbEntity
  8
0
 62
     7
370
     0
  0
POLYLINE
  5
4B9
330
1DA
100
AcDbEntity
  8
0
 62
     7
370
     0
100
AcDb2dPolyline
 66
     1
 10
0.0
 20
0.0
 30
0.0
  0
VERTEX
  5
4BA
330
4B9
100
AcDbEntity
  8
0
 62
     7
370
     0
100
AcDbVertex
100
AcDb2dVertex
 10
60.0339107908915
 20
1.669249655838399
 30
0.0
  0
VERTEX
  5
4BB
330
4B9
100
AcDbEntity
  8
0
 62
     7
370
     0
100
AcDbVertex
100
AcDb2dVertex
 10
59.70904028555953
 20
1.669249655838399
 30
0.0
  0
VERTEX
  5
4BC
330
4B9
100
AcDbEntity
  8
0
 62
     7
370
     0
100
AcDbVertex
100
AcDb2dVertex
 10
59.39642904457975
 20
0.0939341865872052
 30
0.0
  0
VERTEX
  5
4BD
330
4B9
100
AcDbEntity
  8
0
 62
     7
370
     0
100
AcDbVertex
100
AcDb2dVertex
 10
59.82550329690496
 20
-0.0899547786950166
 30
0.0
  0
VERTEX
  5
4BE
330
4B9
100
AcDbEntity
  8
0
 62
     7
370
     0
100
AcDbVertex
100
AcDb2dVertex
 10
60.32813313534308
 20
-0.2186770543926002
 30
0.0
  0
VERTEX
  5
4BF
330
4B9
100
AcDbEntity
  8
0
 62
     7
370
     0
100
AcDbVertex
100
AcDb2dVertex
 10
60.91044819207019
 20
-0.2861030083294054
 30
0.0
  0
VERTEX
  5
4C0
330
4B9
100
AcDbEntity
  8
0
 62
     7
370
     0
100
AcDbVertex
100
AcDb2dVertex
 10
61.24144832957822
 20
-0.2983622726815724
 30
0.0
  0
VERTEX
  5
4C1
330
4B9
100
AcDbEntity
  8
0
 62
     7
370
     0
100
AcDbVertex
100
AcDb2dVertex
 10
61.79311522542494
 20
-0.2370659509208224
 30
0.0
  0
VERTEX
  5
4C2
330
4B9
100
AcDbEntity
  8
0
 62
     7
370
     0
100
AcDbVertex
100
AcDb2dVertex
 10
62.30800432821522
 20
-0.0899547786950166
 30
0.0
  0
VERTEX
  5
4C3
330
4B9
100
AcDbEntity
  8
0
 62
     7
370
     0
100
AcDbVertex
100
AcDb2dVertex
 10
61.34565207657146
 20
0.0939341865872052
 30
0.0
  0
VERTEX
  5
4C4
330
4B9
100
AcDbEntity
  8
0
 62
     7
370
     0
100
AcDbVertex
100
AcDb2dVertex
 10
60.82463334160514
 20
0.1858786692283161
 30
0.0
  0
VERTEX
  5
4C5
330
4B9
100
AcDbEntity
  8
0
 62
     7
370
     0
100
AcDbVertex
100
AcDb2dVertex
 10
60.37717019275169
 20
0.4739713815038443
 30
0.0
  0
VERTEX
  5
4C6
330
4B9
100
AcDbEntity
  8
0
 62
     7
370
     0
100
AcDbVertex
100
AcDb2dVertex
 10
60.34039239969525
 20
0.5046195423842051
 30
0.0
  0
VERTEX
  5
4C7
330
4B9
100
AcDbEntity
  8
0
 62
     7
370
     0
100
AcDbVertex
100
AcDb2dVertex
 10
60.08294784830008
 20
0.9153048981812048
 30
0.0
  0
VERTEX
  5
4C8
330
4B9
100
AcDbEntity
  8
0
 62
     7
370
     0
100
AcDbVertex
100
AcDb2dVertex
 10
60.00939226218719
 20
1.442453265323649
 30
0.0
  0
VERTEX
  5
4C9
330
4B9
100
AcDbEntity
  8
0
 62
     7
370
     0
100
AcDbVertex
100
AcDb2dVertex
 10
60.0339107908915
 20
1.669249655838399
 30
0.0
  0
SEQEND
  5
4CA
330
4B9
100
AcDbEntity
  8
0
 62
     7
370
     0
  0
POLYLINE
  5
4CB
330
1DA
100
AcDbEntity
  8
0
 62
     7
370
     0
100
AcDb2dPolyline
 66
     1
 10
0.0
 20
0.0
 30
0.0
  0
VERTEX
  5
4CC
330
4CB
100
AcDbEntity
  8
0
 62
     7
370
     0
100
AcDbVertex
100
AcDb2dVertex
 10
73.02873100416985
 20
6.395196063591981
 30
0.0
  0
VERTEX
  5
4CD
330
4CB
100
AcDbEntity
  8
0
 62
     7
370
     0
100
AcDbVertex
100
AcDb2dVertex
 10
73.15745327986741
 20
6.082584822612204
 30
0.0
  0
VERTEX
  5
4CE
330
4CB
100
AcDbEntity
  8
0
 62
     7
370
     0
100
AcDbVertex
100
AcDb2dVertex
 10
73.63556458960125
 20
6.18065893742937
 30
0.0
  0
VERTEX
  5
4CF
330
4CB
100
AcDbEntity
  8
0
 62
     7
370
     0
100
AcDbVertex
100
AcDb2dVertex
 10
73.02873100416985
 20
6.395196063591981
 30
0.0
  0
SEQEND
  5
4D0
330
4CB
100
AcDbEntity
  8
0
 62
     7
370
     0
  0
POLYLINE
  5
4D1
330
1DA
100
AcDbEntity
  8
0
 62
     7
370
     0
100
AcDb2dPolyline
 66
     1
 10
0.0
 20
0.0
 30
0.0
  0
VERTEX
  5
4D2
330
4D1
100
AcDbEntity
  8
0
 62
     7
370
     0
100
AcDbVertex
100
AcDb2dVertex
 10
69.59000735339197
 20
3.158750274624537
 30
0.0
  0
VERTEX
  5
4D3
330
4D1
100
AcDbEntity
  8
0
 62
     7
370
     0
100
AcDbVertex
100
AcDb2dVertex
 10
69.35708133070114
 20
2.748064918827537
 30
0.0
  0
VERTEX
  5
4D4
330
4D1
100
AcDbEntity
  8
0
 62
     7
370
     0
100
AcDbVertex
100
AcDb2dVertex
 10
69.11189604365813
 20
2.374157356086982
 30
0.0
  0
VERTEX
  5
4D5
330
4D1
100
AcDbEntity
  8
0
 62
     7
370
     0
100
AcDbVertex
100
AcDb2dVertex
 10
69.0444700897213
 20
2.276083241269816
 30
0.0
  0
VERTEX
  5
4D6
330
4D1
100
AcDbEntity
  8
0
 62
     7
370
     0
100
AcDbVertex
100
AcDb2dVertex
 10
68.56635877998747
 20
1.669249655838399
 30
0.0
  0
VERTEX
  5
4D7
330
4D1
100
AcDbEntity
  8
0
 62
     7
370
     0
100
AcDbVertex
100
AcDb2dVertex
 10
68.14954379201441
 20
1.221786506984955
 30
0.0
  0
VERTEX
  5
4D8
330
4D1
100
AcDbEntity
  8
0
 62
     7
370
     0
100
AcDbVertex
100
AcDb2dVertex
 10
67.78176586144991
 20
0.933693794709427
 30
0.0
  0
VERTEX
  5
4D9
330
4D1
100
AcDbEntity
  8
0
 62
     7
370
     0
100
AcDbVertex
100
AcDb2dVertex
 10
67.4691546204701
 20
0.8111011511879553
 30
0.0
  0
VERTEX
  5
4DA
330
4D1
100
AcDbEntity
  8
0
 62
     7
370
     0
100
AcDbVertex
100
AcDb2dVertex
 10
67.39559903435722
 20
0.8049715190118718
 30
0.0
  0
VERTEX
  5
4DB
330
4D1
100
AcDbEntity
  8
0
 62
     7
370
     0
100
AcDbVertex
100
AcDb2dVertex
 10
68.10663636678185
 20
0.7068974041946774
 30
0.0
  0
VERTEX
  5
4DC
330
4D1
100
AcDbEntity
  8
0
 62
     7
370
     0
100
AcDbVertex
100
AcDb2dVertex
 10
68.47441429734636
 20
1.074675334759149
 30
0.0
  0
VERTEX
  5
4DD
330
4D1
100
AcDbEntity
  8
0
 62
     7
370
     0
100
AcDbVertex
100
AcDb2dVertex
 10
68.82993296355869
 20
1.47310142620401
 30
0.0
  0
VERTEX
  5
4DE
330
4D1
100
AcDbEntity
  8
0
 62
     7
370
     0
100
AcDbVertex
100
AcDb2dVertex
 10
69.1670627332428
 20
1.889916414177093
 30
0.0
  0
VERTEX
  5
4DF
330
4D1
100
AcDbEntity
  8
0
 62
     7
370
     0
100
AcDbVertex
100
AcDb2dVertex
 10
69.49806287075083
 20
2.337379563030538
 30
0.0
  0
VERTEX
  5
4E0
330
4D1
100
AcDbEntity
  8
0
 62
     7
370
     0
100
AcDbVertex
100
AcDb2dVertex
 10
69.81067411173063
 20
2.815490872764371
 30
0.0
  0
VERTEX
  5
4E1
330
4D1
100
AcDbEntity
  8
0
 62
     7
370
     0
100
AcDbVertex
100
AcDb2dVertex
 10
69.90874822654785
 20
2.974861309342315
 30
0.0
  0
VERTEX
  5
4E2
330
4D1
100
AcDbEntity
  8
0
 62
     7
370
     0
100
AcDbVertex
100
AcDb2dVertex
 10
69.59000735339197
 20
3.158750274624537
 30
0.0
  0
SEQEND
  5
4E3
330
4D1
100
AcDbEntity
  8
0
 62
     7
370
     0
  0
POLYLINE
  5
4E4
330
1DA
100
AcDbEntity
  8
0
 62
     7
370
     0
100
AcDb2dPolyline
 66
     1
 10
0.0
 20
0.0
 30
0.0
  0
VERTEX
  5
4E5
330
4E4
100
AcDbEntity
  8
0
 62
     7
370
     0
100
AcDbVertex
100
AcDb2dVertex
 10
71.90087868377213
 20
1.252434667865315
 30
0.0
  0
VERTEX
  5
4E6
330
4E4
100
AcDbEntity
  8
0
 62
     7
370
     0
100
AcDbVertex
100
AcDb2dVertex
 10
71.25113767310819
 20
0.9153048981812048
 30
0.0
  0
VERTEX
  5
4E7
330
4E4
100
AcDbEntity
  8
0
 62
     7
370
     0
100
AcDbVertex
100
AcDb2dVertex
 10
70.85271158166335
 20
0.8233604155400939
 30
0.0
  0
VERTEX
  5
4E8
330
4E4
100
AcDbEntity
  8
0
 62
     7
370
     0
100
AcDbVertex
100
AcDb2dVertex
 10
69.4122480202858
 20
0.8172307833640388
 30
0.0
  0
VERTEX
  5
4E9
330
4E4
100
AcDbEntity
  8
0
 62
     7
370
     0
100
AcDbVertex
100
AcDb2dVertex
 10
69.34482206634896
 20
0.5046195423842051
 30
0.0
  0
VERTEX
  5
4EA
330
4E4
100
AcDbEntity
  8
0
 62
     7
370
     0
100
AcDbVertex
100
AcDb2dVertex
 10
69.34482206634896
 20
0.1061934509393723
 30
0.0
  0
VERTEX
  5
4EB
330
4E4
100
AcDbEntity
  8
0
 62
     7
370
     0
100
AcDbVertex
100
AcDb2dVertex
 10
69.61452588209624
 20
-0.3044919048576276
 30
0.0
  0
VERTEX
  5
4EC
330
4E4
100
AcDbEntity
  8
0
 62
     7
370
     0
100
AcDbVertex
100
AcDb2dVertex
 10
69.7003407325613
 20
-0.353528962266239
 30
0.0
  0
VERTEX
  5
4ED
330
4E4
100
AcDbEntity
  8
0
 62
     7
370
     0
100
AcDbVertex
100
AcDb2dVertex
 10
72.02347132729361
 20
0.9398234268855105
 30
0.0
  0
VERTEX
  5
4EE
330
4E4
100
AcDbEntity
  8
0
 62
     7
370
     0
100
AcDbVertex
100
AcDb2dVertex
 10
71.90087868377213
 20
1.252434667865315
 30
0.0
  0
SEQEND
  5
4EF
330
4E4
100
AcDbEntity
  8
0
 62
     7
370
     0
  0
POLYLINE
  5
4F0
330
1DA
100
AcDbEntity
  8
0
 62
     7
370
     0
100
AcDb2dPolyline
 66
     1
 10
0.0
 20
0.0
 30
0.0
  0
VERTEX
  5
4F1
330
4F0
100
AcDbEntity
  8
0
 62
     7
370
     0
100
AcDbVertex
100
AcDb2dVertex
 10
86.52005142371027
 20
7.020418545551621
 30
0.0
  0
VERTEX
  5
4F2
330
4F0
100
AcDbEntity
  8
0
 62
     7
370
     0
100
AcDbVertex
100
AcDb2dVertex
 10
85.13475455191741
 20
7.020418545551621
 30
0.0
  0
VERTEX
  5
4F3
330
4F0
100
AcDbEntity
  8
0
 62
     7
370
     0
100
AcDbVertex
100
AcDb2dVertex
 10
84.54018023083813
 20
6.98977038467126
 30
0.0
  0
VERTEX
  5
4F4
330
4F0
100
AcDbEntity
  8
0
 62
     7
370
     0
100
AcDbVertex
100
AcDb2dVertex
 10
83.98238370281536
 20
6.903955534206204
 30
0.0
  0
VERTEX
  5
4F5
330
4F0
100
AcDbEntity
  8
0
 62
     7
370
     0
100
AcDbVertex
100
AcDb2dVertex
 10
83.46136496784898
 20
6.775233258508649
 30
0.0
  0
VERTEX
  5
4F6
330
4F0
100
AcDbEntity
  8
0
 62
     7
370
     0
100
AcDbVertex
100
AcDb2dVertex
 10
82.97712402593907
 20
6.59134429322637
 30
0.0
  0
VERTEX
  5
4F7
330
4F0
100
AcDbEntity
  8
0
 62
     7
370
     0
100
AcDbVertex
100
AcDb2dVertex
 10
85.22056940238243
 20
6.425844224472371
 30
0.0
  0
VERTEX
  5
4F8
330
4F0
100
AcDbEntity
  8
0
 62
     7
370
     0
100
AcDbVertex
100
AcDb2dVertex
 10
85.07958786233272
 20
5.788362478160593
 30
0.0
  0
VERTEX
  5
4F9
330
4F0
100
AcDbEntity
  8
0
 62
     7
370
     0
100
AcDbVertex
100
AcDb2dVertex
 10
84.92021742575477
 20
5.187658524905259
 30
0.0
  0
VERTEX
  5
4FA
330
4F0
100
AcDbEntity
  8
0
 62
     7
370
     0
100
AcDbVertex
100
AcDb2dVertex
 10
84.74858772482468
 20
4.623732364706427
 30
0.0
  0
VERTEX
  5
4FB
330
4F0
100
AcDbEntity
  8
0
 62
     7
370
     0
100
AcDbVertex
100
AcDb2dVertex
 10
84.56469875954244
 20
4.096583997563982
 30
0.0
  0
VERTEX
  5
4FC
330
4F0
100
AcDbEntity
  8
0
 62
     7
370
     0
100
AcDbVertex
100
AcDb2dVertex
 10
84.36242089773196
 20
3.612343055654093
 30
0.0
  0
VERTEX
  5
4FD
330
4F0
100
AcDbEntity
  8
0
 62
     7
370
     0
100
AcDbVertex
100
AcDb2dVertex
 10
84.1417541393933
 20
3.158750274624537
 30
0.0
  0
VERTEX
  5
4FE
330
4F0
100
AcDbEntity
  8
0
 62
     7
370
     0
100
AcDbVertex
100
AcDb2dVertex
 10
84.46049501254918
 20
2.974861309342315
 30
0.0
  0
VERTEX
  5
4FF
330
4F0
100
AcDbEntity
  8
0
 62
     7
370
     0
100
AcDbVertex
100
AcDb2dVertex
 10
84.48501354125346
 20
2.950342780638038
 30
0.0
  0
VERTEX
  5
500
330
4F0
100
AcDbEntity
  8
0
 62
     7
370
     0
100
AcDbVertex
100
AcDb2dVertex
 10
84.0620689211043
 20
1.240175403513177
 30
0.0
  0
VERTEX
  5
501
330
4F0
100
AcDbEntity
  8
0
 62
     7
370
     0
100
AcDbVertex
100
AcDb2dVertex
 10
83.96399480628714
 20
0.8172307833640388
 30
0.0
  0
VERTEX
  5
502
330
4F0
100
AcDbEntity
  8
0
 62
     7
370
     0
100
AcDbVertex
100
AcDb2dVertex
 10
85.40445836766469
 20
0.8233604155400939
 30
0.0
  0
VERTEX
  5
503
330
4F0
100
AcDbEntity
  8
0
 62
     7
370
     0
100
AcDbVertex
100
AcDb2dVertex
 10
85.26347682761496
 20
1.105323495639538
 30
0.0
  0
VERTEX
  5
504
330
4F0
100
AcDbEntity
  8
0
 62
     7
370
     0
100
AcDbVertex
100
AcDb2dVertex
 10
85.32477314937569
 20
1.503749587084371
 30
0.0
  0
VERTEX
  5
505
330
4F0
100
AcDbEntity
  8
0
 62
     7
370
     0
100
AcDbVertex
100
AcDb2dVertex
 10
86.52005142371027
 20
7.020418545551621
 30
0.0
  0
SEQEND
  5
506
330
4F0
100
AcDbEntity
  8
0
 62
     7
370
     0
  0
POLYLINE
  5
507
330
1DA
100
AcDbEntity
  8
0
 62
     7
370
     0
100
AcDb2dPolyline
 66
     1
 10
0.0
 20
0.0
 30
0.0
  0
VERTEX
  5
508
330
507
100
AcDbEntity
  8
0
 62
     7
370
     0
100
AcDbVertex
100
AcDb2dVertex
 10
90.27138631546799
 20
7.198177878657787
 30
0.0
  0
VERTEX
  5
509
330
507
100
AcDbEntity
  8
0
 62
     7
370
     0
100
AcDbVertex
100
AcDb2dVertex
 10
87.76436675545344
 20
6.199047833957592
 30
0.0
  0
VERTEX
  5
50A
330
507
100
AcDbEntity
  8
0
 62
     7
370
     0
100
AcDbVertex
100
AcDb2dVertex
 10
87.83792234156633
 20
5.929344018210315
 30
0.0
  0
VERTEX
  5
50B
330
507
100
AcDbEntity
  8
0
 62
     7
370
     0
100
AcDbVertex
100
AcDb2dVertex
 10
88.4508855591738
 20
6.131621880020787
 30
0.0
  0
VERTEX
  5
50C
330
507
100
AcDbEntity
  8
0
 62
     7
370
     0
100
AcDbVertex
100
AcDb2dVertex
 10
88.80640422538613
 20
6.21130709830976
 30
0.0
  0
VERTEX
  5
50D
330
507
100
AcDbEntity
  8
0
 62
     7
370
     0
100
AcDbVertex
100
AcDb2dVertex
 10
90.42462711986985
 20
6.57908502887426
 30
0.0
  0
VERTEX
  5
50E
330
507
100
AcDbEntity
  8
0
 62
     7
370
     0
100
AcDbVertex
100
AcDb2dVertex
 10
90.47979380945452
 20
7.008159281199482
 30
0.0
  0
VERTEX
  5
50F
330
507
100
AcDbEntity
  8
0
 62
     7
370
     0
100
AcDbVertex
100
AcDb2dVertex
 10
90.27138631546799
 20
7.198177878657787
 30
0.0
  0
SEQEND
  5
510
330
507
100
AcDbEntity
  8
0
 62
     7
370
     0
  0
POLYLINE
  5
511
330
1DA
100
AcDbEntity
  8
0
 62
     7
370
     0
100
AcDb2dPolyline
 66
     1
 10
0.0
 20
0.0
 30
0.0
  0
VERTEX
  5
512
330
511
100
AcDbEntity
  8
0
 62
     7
370
     0
100
AcDbVertex
100
AcDb2dVertex
 10
78.96221495061019
 20
7.198177878657787
 30
0.0
  0
VERTEX
  5
513
330
511
100
AcDbEntity
  8
0
 62
     7
370
     0
100
AcDbVertex
100
AcDb2dVertex
 10
78.69864076703897
 20
7.118492660368815
 30
0.0
  0
VERTEX
  5
514
330
511
100
AcDbEntity
  8
0
 62
     7
370
     0
100
AcDbVertex
100
AcDb2dVertex
 10
78.50249253740457
 20
7.038807442079843
 30
0.0
  0
VERTEX
  5
515
330
511
100
AcDbEntity
  8
0
 62
     7
370
     0
100
AcDbVertex
100
AcDb2dVertex
 10
78.40441842258735
 20
6.781362890684704
 30
0.0
  0
VERTEX
  5
516
330
511
100
AcDbEntity
  8
0
 62
     7
370
     0
100
AcDbVertex
100
AcDb2dVertex
 10
78.40441842258735
 20
5.92321438603426
 30
0.0
  0
VERTEX
  5
517
330
511
100
AcDbEntity
  8
0
 62
     7
370
     0
100
AcDbVertex
100
AcDb2dVertex
 10
78.38602952605913
 20
5.402195651067899
 30
0.0
  0
VERTEX
  5
518
330
511
100
AcDbEntity
  8
0
 62
     7
370
     0
100
AcDbVertex
100
AcDb2dVertex
 10
78.37377026170699
 20
5.291862271898537
 30
0.0
  0
VERTEX
  5
519
330
511
100
AcDbEntity
  8
0
 62
     7
370
     0
100
AcDbVertex
100
AcDb2dVertex
 10
78.22052945730513
 20
4.838269490869038
 30
0.0
  0
VERTEX
  5
51A
330
511
100
AcDbEntity
  8
0
 62
     7
370
     0
100
AcDbVertex
100
AcDb2dVertex
 10
77.94469600938177
 20
4.317250755902676
 30
0.0
  0
VERTEX
  5
51B
330
511
100
AcDbEntity
  8
0
 62
     7
370
     0
100
AcDbVertex
100
AcDb2dVertex
 10
77.89565895197319
 20
4.237565537613704
 30
0.0
  0
VERTEX
  5
51C
330
511
100
AcDbEntity
  8
0
 62
     7
370
     0
100
AcDbVertex
100
AcDb2dVertex
 10
75.91578775910105
 20
1.332119886154316
 30
0.0
  0
VERTEX
  5
51D
330
511
100
AcDbEntity
  8
0
 62
     7
370
     0
100
AcDbVertex
100
AcDb2dVertex
 10
74.76341690999899
 20
0.8540085764204832
 30
0.0
  0
VERTEX
  5
51E
330
511
100
AcDbEntity
  8
0
 62
     7
370
     0
100
AcDbVertex
100
AcDb2dVertex
 10
74.81245396740757
 20
0.3023416805737611
 30
0.0
  0
VERTEX
  5
51F
330
511
100
AcDbEntity
  8
0
 62
     7
370
     0
100
AcDbVertex
100
AcDb2dVertex
 10
74.86762065699227
 20
-0.2431955830969059
 30
0.0
  0
VERTEX
  5
520
330
511
100
AcDbEntity
  8
0
 62
     7
370
     0
100
AcDbVertex
100
AcDb2dVertex
 10
74.87375028916836
 20
-0.2983622726815724
 30
0.0
  0
VERTEX
  5
521
330
511
100
AcDbEntity
  8
0
 62
     7
370
     0
100
AcDbVertex
100
AcDb2dVertex
 10
75.28443564496535
 20
-0.2983622726815724
 30
0.0
  0
VERTEX
  5
522
330
511
100
AcDbEntity
  8
0
 62
     7
370
     0
100
AcDbVertex
100
AcDb2dVertex
 10
78.72928892791932
 20
4.550176778593538
 30
0.0
  0
VERTEX
  5
523
330
511
100
AcDbEntity
  8
0
 62
     7
370
     0
100
AcDbVertex
100
AcDb2dVertex
 10
79.01738164019485
 20
4.966991766566593
 30
0.0
  0
VERTEX
  5
524
330
511
100
AcDbEntity
  8
0
 62
     7
370
     0
100
AcDbVertex
100
AcDb2dVertex
 10
79.30547435247035
 20
5.38993638671576
 30
0.0
  0
VERTEX
  5
525
330
511
100
AcDbEntity
  8
0
 62
     7
370
     0
100
AcDbVertex
100
AcDb2dVertex
 10
79.54453000733727
 20
5.837399535569204
 30
0.0
  0
VERTEX
  5
526
330
511
100
AcDbEntity
  8
0
 62
     7
370
     0
100
AcDbVertex
100
AcDb2dVertex
 10
79.56904853604157
 20
6.137751512196871
 30
0.0
  0
VERTEX
  5
527
330
511
100
AcDbEntity
  8
0
 62
     7
370
     0
100
AcDbVertex
100
AcDb2dVertex
 10
79.23804839853352
 20
6.965251855966926
 30
0.0
  0
VERTEX
  5
528
330
511
100
AcDbEntity
  8
0
 62
     7
370
     0
100
AcDbVertex
100
AcDb2dVertex
 10
79.15223354806847
 20
7.118492660368815
 30
0.0
  0
VERTEX
  5
529
330
511
100
AcDbEntity
  8
0
 62
     7
370
     0
100
AcDbVertex
100
AcDb2dVertex
 10
78.96221495061019
 20
7.198177878657787
 30
0.0
  0
SEQEND
  5
52A
330
511
100
AcDbEntity
  8
0
 62
     7
370
     0
  0
POLYLINE
  5
52B
330
1DA
100
AcDbEntity
  8
0
 62
     7
370
     0
100
AcDb2dPolyline
 66
     1
 10
0.0
 20
0.0
 30
0.0
  0
VERTEX
  5
52C
330
52B
100
AcDbEntity
  8
0
 62
     7
370
     0
100
AcDbVertex
100
AcDb2dVertex
 10
84.1417541393933
 20
3.158750274624537
 30
0.0
  0
VERTEX
  5
52D
330
52B
100
AcDbEntity
  8
0
 62
     7
370
     0
100
AcDbVertex
100
AcDb2dVertex
 10
83.90882811670246
 20
2.748064918827537
 30
0.0
  0
VERTEX
  5
52E
330
52B
100
AcDbEntity
  8
0
 62
     7
370
     0
100
AcDbVertex
100
AcDb2dVertex
 10
83.66364282965946
 20
2.374157356086982
 30
0.0
  0
VERTEX
  5
52F
330
52B
100
AcDbEntity
  8
0
 62
     7
370
     0
100
AcDbVertex
100
AcDb2dVertex
 10
83.59621687572262
 20
2.276083241269816
 30
0.0
  0
VERTEX
  5
530
330
52B
100
AcDbEntity
  8
0
 62
     7
370
     0
100
AcDbVertex
100
AcDb2dVertex
 10
83.1181055659888
 20
1.669249655838399
 30
0.0
  0
VERTEX
  5
531
330
52B
100
AcDbEntity
  8
0
 62
     7
370
     0
100
AcDbVertex
100
AcDb2dVertex
 10
82.70129057801574
 20
1.221786506984955
 30
0.0
  0
VERTEX
  5
532
330
52B
100
AcDbEntity
  8
0
 62
     7
370
     0
100
AcDbVertex
100
AcDb2dVertex
 10
82.33351264745124
 20
0.933693794709427
 30
0.0
  0
VERTEX
  5
533
330
52B
100
AcDbEntity
  8
0
 62
     7
370
     0
100
AcDbVertex
100
AcDb2dVertex
 10
82.02090140647143
 20
0.8111011511879553
 30
0.0
  0
VERTEX
  5
534
330
52B
100
AcDbEntity
  8
0
 62
     7
370
     0
100
AcDbVertex
100
AcDb2dVertex
 10
81.94734582035854
 20
0.8049715190118718
 30
0.0
  0
VERTEX
  5
535
330
52B
100
AcDbEntity
  8
0
 62
     7
370
     0
100
AcDbVertex
100
AcDb2dVertex
 10
82.65838315278321
 20
0.7068974041946774
 30
0.0
  0
VERTEX
  5
536
330
52B
100
AcDbEntity
  8
0
 62
     7
370
     0
100
AcDbVertex
100
AcDb2dVertex
 10
83.02616108334769
 20
1.074675334759149
 30
0.0
  0
VERTEX
  5
537
330
52B
100
AcDbEntity
  8
0
 62
     7
370
     0
100
AcDbVertex
100
AcDb2dVertex
 10
83.38167974956002
 20
1.47310142620401
 30
0.0
  0
VERTEX
  5
538
330
52B
100
AcDbEntity
  8
0
 62
     7
370
     0
100
AcDbVertex
100
AcDb2dVertex
 10
83.71880951924413
 20
1.889916414177093
 30
0.0
  0
VERTEX
  5
539
330
52B
100
AcDbEntity
  8
0
 62
     7
370
     0
100
AcDbVertex
100
AcDb2dVertex
 10
84.04980965675219
 20
2.337379563030538
 30
0.0
  0
VERTEX
  5
53A
330
52B
100
AcDbEntity
  8
0
 62
     7
370
     0
100
AcDbVertex
100
AcDb2dVertex
 10
84.36242089773196
 20
2.815490872764371
 30
0.0
  0
VERTEX
  5
53B
330
52B
100
AcDbEntity
  8
0
 62
     7
370
     0
100
AcDbVertex
100
AcDb2dVertex
 10
84.46049501254918
 20
2.974861309342315
 30
0.0
  0
VERTEX
  5
53C
330
52B
100
AcDbEntity
  8
0
 62
     7
370
     0
100
AcDbVertex
100
AcDb2dVertex
 10
84.1417541393933
 20
3.158750274624537
 30
0.0
  0
SEQEND
  5
53D
330
52B
100
AcDbEntity
  8
0
 62
     7
370
     0
  0
POLYLINE
  5
53E
330
1DA
100
AcDbEntity
  8
0
 62
     7
370
     0
100
AcDb2dPolyline
 66
     1
 10
0.0
 20
0.0
 30
0.0
  0
VERTEX
  5
53F
330
53E
100
AcDbEntity
  8
0
 62
     7
370
     0
100
AcDbVertex
100
AcDb2dVertex
 10
82.97712402593907
 20
6.59134429322637
 30
0.0
  0
VERTEX
  5
540
330
53E
100
AcDbEntity
  8
0
 62
     7
370
     0
100
AcDbVertex
100
AcDb2dVertex
 10
82.52353124490957
 20
6.364547902711649
 30
0.0
  0
VERTEX
  5
541
330
53E
100
AcDbEntity
  8
0
 62
     7
370
     0
100
AcDbVertex
100
AcDb2dVertex
 10
82.11284588911258
 20
6.082584822612204
 30
0.0
  0
VERTEX
  5
542
330
53E
100
AcDbEntity
  8
0
 62
     7
370
     0
100
AcDbVertex
100
AcDb2dVertex
 10
81.73280869419594
 20
5.757714317280232
 30
0.0
  0
VERTEX
  5
543
330
53E
100
AcDbEntity
  8
0
 62
     7
370
     0
100
AcDbVertex
100
AcDb2dVertex
 10
81.38954929233575
 20
5.377677122363593
 30
0.0
  0
VERTEX
  5
544
330
53E
100
AcDbEntity
  8
0
 62
     7
370
     0
100
AcDbVertex
100
AcDb2dVertex
 10
81.34051223492713
 20
5.322510432778926
 30
0.0
  0
VERTEX
  5
545
330
53E
100
AcDbEntity
  8
0
 62
     7
370
     0
100
AcDbVertex
100
AcDb2dVertex
 10
81.02177136177127
 20
4.893436180453704
 30
0.0
  0
VERTEX
  5
546
330
53E
100
AcDbEntity
  8
0
 62
     7
370
     0
100
AcDbVertex
100
AcDb2dVertex
 10
80.7459379138479
 20
4.44597303160026
 30
0.0
  0
VERTEX
  5
547
330
53E
100
AcDbEntity
  8
0
 62
     7
370
     0
100
AcDbVertex
100
AcDb2dVertex
 10
80.51301189115708
 20
3.980120986218565
 30
0.0
  0
VERTEX
  5
548
330
53E
100
AcDbEntity
  8
0
 62
     7
370
     0
100
AcDbVertex
100
AcDb2dVertex
 10
80.32912292587482
 20
3.489750412132593
 30
0.0
  0
VERTEX
  5
549
330
53E
100
AcDbEntity
  8
0
 62
     7
370
     0
100
AcDbVertex
100
AcDb2dVertex
 10
80.18201175364902
 20
2.980990941518371
 30
0.0
  0
VERTEX
  5
54A
330
53E
100
AcDbEntity
  8
0
 62
     7
370
     0
100
AcDbVertex
100
AcDb2dVertex
 10
80.08393763883185
 20
2.447712942199899
 30
0.0
  0
VERTEX
  5
54B
330
53E
100
AcDbEntity
  8
0
 62
     7
370
     0
100
AcDbVertex
100
AcDb2dVertex
 10
80.02877094924716
 20
1.896046046353148
 30
0.0
  0
VERTEX
  5
54C
330
53E
100
AcDbEntity
  8
0
 62
     7
370
     0
100
AcDbVertex
100
AcDb2dVertex
 10
80.01651168489502
 20
1.47310142620401
 30
0.0
  0
VERTEX
  5
54D
330
53E
100
AcDbEntity
  8
0
 62
     7
370
     0
100
AcDbVertex
100
AcDb2dVertex
 10
80.05328947795147
 20
0.9582123234137611
 30
0.0
  0
VERTEX
  5
54E
330
53E
100
AcDbEntity
  8
0
 62
     7
370
     0
100
AcDbVertex
100
AcDb2dVertex
 10
80.17588212147296
 20
0.4065454275670391
 30
0.0
  0
VERTEX
  5
54F
330
53E
100
AcDbEntity
  8
0
 62
     7
370
     0
100
AcDbVertex
100
AcDb2dVertex
 10
80.18814138582511
 20
0.3636380023344827
 30
0.0
  0
VERTEX
  5
550
330
53E
100
AcDbEntity
  8
0
 62
     7
370
     0
100
AcDbVertex
100
AcDb2dVertex
 10
80.47010446592455
 20
-0.0960844108711001
 30
0.0
  0
VERTEX
  5
551
330
53E
100
AcDbEntity
  8
0
 62
     7
370
     0
100
AcDbVertex
100
AcDb2dVertex
 10
80.94208614348231
 20
-0.2983622726815724
 30
0.0
  0
VERTEX
  5
552
330
53E
100
AcDbEntity
  8
0
 62
     7
370
     0
100
AcDbVertex
100
AcDb2dVertex
 10
80.94208614348231
 20
-0.2983622726815724
 30
0.0
  0
VERTEX
  5
553
330
53E
100
AcDbEntity
  8
0
 62
     7
370
     0
100
AcDbVertex
100
AcDb2dVertex
 10
81.42632708539219
 20
-0.1818992613361558
 30
0.0
  0
VERTEX
  5
554
330
53E
100
AcDbEntity
  8
0
 62
     7
370
     0
100
AcDbVertex
100
AcDb2dVertex
 10
81.74506795854808
 20
-0.0102695604060728
 30
0.0
  0
VERTEX
  5
555
330
53E
100
AcDbEntity
  8
0
 62
     7
370
     0
100
AcDbVertex
100
AcDb2dVertex
 10
82.16801257869724
 20
0.2778231518694554
 30
0.0
  0
VERTEX
  5
556
330
53E
100
AcDbEntity
  8
0
 62
     7
370
     0
100
AcDbVertex
100
AcDb2dVertex
 10
82.59708683102246
 20
0.6517307146100109
 30
0.0
  0
VERTEX
  5
557
330
53E
100
AcDbEntity
  8
0
 62
     7
370
     0
100
AcDbVertex
100
AcDb2dVertex
 10
82.65838315278321
 20
0.7068974041946774
 30
0.0
  0
VERTEX
  5
558
330
53E
100
AcDbEntity
  8
0
 62
     7
370
     0
100
AcDbVertex
100
AcDb2dVertex
 10
81.94734582035854
 20
0.8049715190118718
 30
0.0
  0
VERTEX
  5
559
330
53E
100
AcDbEntity
  8
0
 62
     7
370
     0
100
AcDbVertex
100
AcDb2dVertex
 10
81.52440120020941
 20
1.00111974864626
 30
0.0
  0
VERTEX
  5
55A
330
53E
100
AcDbEntity
  8
0
 62
     7
370
     0
100
AcDbVertex
100
AcDb2dVertex
 10
81.3772900279836
 20
1.319860621802149
 30
0.0
  0
VERTEX
  5
55B
330
53E
100
AcDbEntity
  8
0
 62
     7
370
     0
100
AcDbVertex
100
AcDb2dVertex
 10
81.29760480969464
 20
1.877657149824926
 30
0.0
  0
VERTEX
  5
55C
330
53E
100
AcDbEntity
  8
0
 62
     7
370
     0
100
AcDbVertex
100
AcDb2dVertex
 10
81.28534554534246
 20
2.178009126452593
 30
0.0
  0
VERTEX
  5
55D
330
53E
100
AcDbEntity
  8
0
 62
     7
370
     0
100
AcDbVertex
100
AcDb2dVertex
 10
81.30986407404677
 20
2.66225006836251
 30
0.0
  0
VERTEX
  5
55E
330
53E
100
AcDbEntity
  8
0
 62
     7
370
     0
100
AcDbVertex
100
AcDb2dVertex
 10
81.3772900279836
 20
3.25682438944176
 30
0.0
  0
VERTEX
  5
55F
330
53E
100
AcDbEntity
  8
0
 62
     7
370
     0
100
AcDbVertex
100
AcDb2dVertex
 10
81.38954929233575
 20
3.336509607730704
 30
0.0
  0
VERTEX
  5
560
330
53E
100
AcDbEntity
  8
0
 62
     7
370
     0
100
AcDbVertex
100
AcDb2dVertex
 10
81.51214193585724
 20
3.857528342697094
 30
0.0
  0
VERTEX
  5
561
330
53E
100
AcDbEntity
  8
0
 62
     7
370
     0
100
AcDbVertex
100
AcDb2dVertex
 10
81.68990126896341
 20
4.372417445487371
 30
0.0
  0
VERTEX
  5
562
330
53E
100
AcDbEntity
  8
0
 62
     7
370
     0
100
AcDbVertex
100
AcDb2dVertex
 10
81.83088280901314
 20
4.721806479523593
 30
0.0
  0
VERTEX
  5
563
330
53E
100
AcDbEntity
  8
0
 62
     7
370
     0
100
AcDbVertex
100
AcDb2dVertex
 10
82.08219772823218
 20
5.212177053609593
 30
0.0
  0
VERTEX
  5
564
330
53E
100
AcDbEntity
  8
0
 62
     7
370
     0
100
AcDbVertex
100
AcDb2dVertex
 10
82.40706823356413
 20
5.641251305934815
 30
0.0
  0
VERTEX
  5
565
330
53E
100
AcDbEntity
  8
0
 62
     7
370
     0
100
AcDbVertex
100
AcDb2dVertex
 10
82.67064241713535
 20
5.904825489506038
 30
0.0
  0
VERTEX
  5
566
330
53E
100
AcDbEntity
  8
0
 62
     7
370
     0
100
AcDbVertex
100
AcDb2dVertex
 10
83.09971666946058
 20
6.199047833957592
 30
0.0
  0
VERTEX
  5
567
330
53E
100
AcDbEntity
  8
0
 62
     7
370
     0
100
AcDbVertex
100
AcDb2dVertex
 10
83.60234650789871
 20
6.370677534887704
 30
0.0
  0
VERTEX
  5
568
330
53E
100
AcDbEntity
  8
0
 62
     7
370
     0
100
AcDbVertex
100
AcDb2dVertex
 10
84.00690223151963
 20
6.425844224472371
 30
0.0
  0
VERTEX
  5
569
330
53E
100
AcDbEntity
  8
0
 62
     7
370
     0
100
AcDbVertex
100
AcDb2dVertex
 10
85.22056940238243
 20
6.425844224472371
 30
0.0
  0
VERTEX
  5
56A
330
53E
100
AcDbEntity
  8
0
 62
     7
370
     0
100
AcDbVertex
100
AcDb2dVertex
 10
82.97712402593907
 20
6.59134429322637
 30
0.0
  0
SEQEND
  5
56B
330
53E
100
AcDbEntity
  8
0
 62
     7
370
     0
  0
POLYLINE
  5
56C
330
1DA
100
AcDbEntity
  8
0
 62
     7
370
     0
100
AcDb2dPolyline
 66
     1
 10
0.0
 20
0.0
 30
0.0
  0
VERTEX
  5
56D
330
56C
100
AcDbEntity
  8
0
 62
     7
370
     0
100
AcDbVertex
100
AcDb2dVertex
 10
86.45262546977347
 20
1.252434667865315
 30
0.0
  0
VERTEX
  5
56E
330
56C
100
AcDbEntity
  8
0
 62
     7
370
     0
100
AcDbVertex
100
AcDb2dVertex
 10
85.80288445910952
 20
0.9153048981812048
 30
0.0
  0
VERTEX
  5
56F
330
56C
100
AcDbEntity
  8
0
 62
     7
370
     0
100
AcDbVertex
100
AcDb2dVertex
 10
85.40445836766469
 20
0.8233604155400939
 30
0.0
  0
VERTEX
  5
570
330
56C
100
AcDbEntity
  8
0
 62
     7
370
     0
100
AcDbVertex
100
AcDb2dVertex
 10
83.96399480628714
 20
0.8172307833640388
 30
0.0
  0
VERTEX
  5
571
330
56C
100
AcDbEntity
  8
0
 62
     7
370
     0
100
AcDbVertex
100
AcDb2dVertex
 10
83.89043922017425
 20
0.5046195423842051
 30
0.0
  0
VERTEX
  5
572
330
56C
100
AcDbEntity
  8
0
 62
     7
370
     0
100
AcDbVertex
100
AcDb2dVertex
 10
83.89043922017425
 20
0.1061934509393723
 30
0.0
  0
VERTEX
  5
573
330
56C
100
AcDbEntity
  8
0
 62
     7
370
     0
100
AcDbVertex
100
AcDb2dVertex
 10
84.16627266809758
 20
-0.3044919048576276
 30
0.0
  0
VERTEX
  5
574
330
56C
100
AcDbEntity
  8
0
 62
     7
370
     0
100
AcDbVertex
100
AcDb2dVertex
 10
84.24595788638658
 20
-0.353528962266239
 30
0.0
  0
VERTEX
  5
575
330
56C
100
AcDbEntity
  8
0
 62
     7
370
     0
100
AcDbVertex
100
AcDb2dVertex
 10
86.57521811329496
 20
0.9398234268855105
 30
0.0
  0
VERTEX
  5
576
330
56C
100
AcDbEntity
  8
0
 62
     7
370
     0
100
AcDbVertex
100
AcDb2dVertex
 10
86.45262546977347
 20
1.252434667865315
 30
0.0
  0
SEQEND
  5
577
330
56C
100
AcDbEntity
  8
0
 62
     7
370
     0
  0
POLYLINE
  5
578
330
1DA
100
AcDbEntity
  8
0
 62
     7
370
     0
100
AcDb2dPolyline
 66
     1
 10
0.0
 20
0.0
 30
0.0
  0
VERTEX
  5
579
330
578
100
AcDbEntity
  8
0
 62
     7
370
     0
100
AcDbVertex
100
AcDb2dVertex
 10
90.42462711986985
 20
6.57908502887426
 30
0.0
  0
VERTEX
  5
57A
330
578
100
AcDbEntity
  8
0
 62
     7
370
     0
100
AcDbVertex
100
AcDb2dVertex
 10
88.80640422538613
 20
6.21130709830976
 30
0.0
  0
VERTEX
  5
57B
330
578
100
AcDbEntity
  8
0
 62
     7
370
     0
100
AcDbVertex
100
AcDb2dVertex
 10
89.04545988025304
 20
6.021288500851426
 30
0.0
  0
VERTEX
  5
57C
330
578
100
AcDbEntity
  8
0
 62
     7
370
     0
100
AcDbVertex
100
AcDb2dVertex
 10
88.99029319066839
 20
5.628992041582648
 30
0.0
  0
VERTEX
  5
57D
330
578
100
AcDbEntity
  8
0
 62
     7
370
     0
100
AcDbVertex
100
AcDb2dVertex
 10
87.72145933022091
 20
-0.1206029395754058
 30
0.0
  0
VERTEX
  5
57E
330
578
100
AcDbEntity
  8
0
 62
     7
370
     0
100
AcDbVertex
100
AcDb2dVertex
 10
88.99029319066839
 20
-0.1206029395754058
 30
0.0
  0
VERTEX
  5
57F
330
578
100
AcDbEntity
  8
0
 62
     7
370
     0
100
AcDbVertex
100
AcDb2dVertex
 10
89.21095994900708
 20
0.9398234268855105
 30
0.0
  0
VERTEX
  5
580
330
578
100
AcDbEntity
  8
0
 62
     7
370
     0
100
AcDbVertex
100
AcDb2dVertex
 10
89.35807112123285
 20
1.540527380140844
 30
0.0
  0
VERTEX
  5
581
330
578
100
AcDbEntity
  8
0
 62
     7
370
     0
100
AcDbVertex
100
AcDb2dVertex
 10
89.52357118998689
 20
2.110583172515788
 30
0.0
  0
VERTEX
  5
582
330
578
100
AcDbEntity
  8
0
 62
     7
370
     0
100
AcDbVertex
100
AcDb2dVertex
 10
89.70746015526913
 20
2.643861171834288
 30
0.0
  0
VERTEX
  5
583
330
578
100
AcDbEntity
  8
0
 62
     7
370
     0
100
AcDbVertex
100
AcDb2dVertex
 10
89.90973801707957
 20
3.152620642448482
 30
0.0
  0
VERTEX
  5
584
330
578
100
AcDbEntity
  8
0
 62
     7
370
     0
100
AcDbVertex
100
AcDb2dVertex
 10
90.13040477541826
 20
3.630731952182316
 30
0.0
  0
VERTEX
  5
585
330
578
100
AcDbEntity
  8
0
 62
     7
370
     0
100
AcDbVertex
100
AcDb2dVertex
 10
89.89134912055135
 20
4.010769147098926
 30
0.0
  0
VERTEX
  5
586
330
578
100
AcDbEntity
  8
0
 62
     7
370
     0
100
AcDbVertex
100
AcDb2dVertex
 10
89.86070095967097
 20
4.03528767580326
 30
0.0
  0
VERTEX
  5
587
330
578
100
AcDbEntity
  8
0
 62
     7
370
     0
100
AcDbVertex
100
AcDb2dVertex
 10
90.42462711986985
 20
6.57908502887426
 30
0.0
  0
SEQEND
  5
588
330
578
100
AcDbEntity
  8
0
 62
     7
370
     0
  0
POLYLINE
  5
589
330
1DA
100
AcDbEntity
  8
0
 62
     7
370
     0
100
AcDb2dPolyline
 66
     1
 10
0.0
 20
0.0
 30
0.0
  0
VERTEX
  5
58A
330
589
100
AcDbEntity
  8
0
 62
     7
370
     0
100
AcDbVertex
100
AcDb2dVertex
 10
99.32485303953033
 20
9.251604657642815
 30
0.0
  0
VERTEX
  5
58B
330
589
100
AcDbEntity
  8
0
 62
     7
370
     0
100
AcDbVertex
100
AcDb2dVertex
 10
98.9141676837333
 20
9.251604657642815
 30
0.0
  0
VERTEX
  5
58C
330
589
100
AcDbEntity
  8
0
 62
     7
370
     0
100
AcDbVertex
100
AcDb2dVertex
 10
98.51574159228846
 20
8.853178566197954
 30
0.0
  0
VERTEX
  5
58D
330
589
100
AcDbEntity
  8
0
 62
     7
370
     0
100
AcDbVertex
100
AcDb2dVertex
 10
98.08053770778716
 20
8.546696957394203
 30
0.0
  0
VERTEX
  5
58E
330
589
100
AcDbEntity
  8
0
 62
     7
370
     0
100
AcDbVertex
100
AcDb2dVertex
 10
97.90890800685708
 20
8.454752474753092
 30
0.0
  0
VERTEX
  5
58F
330
589
100
AcDbEntity
  8
0
 62
     7
370
     0
100
AcDbVertex
100
AcDb2dVertex
 10
97.62694492675763
 20
7.020418545551621
 30
0.0
  0
VERTEX
  5
590
330
589
100
AcDbEntity
  8
0
 62
     7
370
     0
100
AcDbVertex
100
AcDb2dVertex
 10
96.3948888593666
 20
7.020418545551621
 30
0.0
  0
VERTEX
  5
591
330
589
100
AcDbEntity
  8
0
 62
     7
370
     0
100
AcDbVertex
100
AcDb2dVertex
 10
96.27229621584513
 20
6.425844224472371
 30
0.0
  0
VERTEX
  5
592
330
589
100
AcDbEntity
  8
0
 62
     7
370
     0
100
AcDbVertex
100
AcDb2dVertex
 10
97.49209301888399
 20
6.425844224472371
 30
0.0
  0
VERTEX
  5
593
330
589
100
AcDbEntity
  8
0
 62
     7
370
     0
100
AcDbVertex
100
AcDb2dVertex
 10
96.3948888593666
 20
1.307601357449982
 30
0.0
  0
VERTEX
  5
594
330
589
100
AcDbEntity
  8
0
 62
     7
370
     0
100
AcDbVertex
100
AcDb2dVertex
 10
96.36424069848624
 20
0.7191566685468161
 30
0.0
  0
VERTEX
  5
595
330
589
100
AcDbEntity
  8
0
 62
     7
370
     0
100
AcDbVertex
100
AcDb2dVertex
 10
96.48070370983166
 20
0.2410453588129826
 30
0.0
  0
VERTEX
  5
596
330
589
100
AcDbEntity
  8
0
 62
     7
370
     0
100
AcDbVertex
100
AcDb2dVertex
 10
96.5174815028881
 20
0.1613601405240388
 30
0.0
  0
VERTEX
  5
597
330
589
100
AcDbEntity
  8
0
 62
     7
370
     0
100
AcDbVertex
100
AcDb2dVertex
 10
96.88525943345258
 20
-0.2309363187447388
 30
0.0
  0
VERTEX
  5
598
330
589
100
AcDbEntity
  8
0
 62
     7
370
     0
100
AcDbVertex
100
AcDb2dVertex
 10
97.14270398484774
 20
-0.2983622726815724
 30
0.0
  0
VERTEX
  5
599
330
589
100
AcDbEntity
  8
0
 62
     7
370
     0
100
AcDbVertex
100
AcDb2dVertex
 10
99.88877919972919
 20
0.5597862319688716
 30
0.0
  0
VERTEX
  5
59A
330
589
100
AcDbEntity
  8
0
 62
     7
370
     0
100
AcDbVertex
100
AcDb2dVertex
 10
98.34411189135835
 20
0.6394714502578723
 30
0.0
  0
VERTEX
  5
59B
330
589
100
AcDbEntity
  8
0
 62
     7
370
     0
100
AcDbVertex
100
AcDb2dVertex
 10
97.87825984597668
 20
0.8111011511879553
 30
0.0
  0
VERTEX
  5
59C
330
589
100
AcDbEntity
  8
0
 62
     7
370
     0
100
AcDbVertex
100
AcDb2dVertex
 10
97.81696352421594
 20
0.8907863694769275
 30
0.0
  0
VERTEX
  5
59D
330
589
100
AcDbEntity
  8
0
 62
     7
370
     0
100
AcDbVertex
100
AcDb2dVertex
 10
97.71275977722268
 20
1.338249518330371
 30
0.0
  0
VERTEX
  5
59E
330
589
100
AcDbEntity
  8
0
 62
     7
370
     0
100
AcDbVertex
100
AcDb2dVertex
 10
97.73114867375092
 20
1.847008988944565
 30
0.0
  0
VERTEX
  5
59F
330
589
100
AcDbEntity
  8
0
 62
     7
370
     0
100
AcDbVertex
100
AcDb2dVertex
 10
97.76179683463126
 20
2.061546115107205
 30
0.0
  0
VERTEX
  5
5A0
330
589
100
AcDbEntity
  8
0
 62
     7
370
     0
100
AcDbVertex
100
AcDb2dVertex
 10
98.67511202886641
 20
6.425844224472371
 30
0.0
  0
VERTEX
  5
5A1
330
589
100
AcDbEntity
  8
0
 62
     7
370
     0
100
AcDbVertex
100
AcDb2dVertex
 10
100.2994645555262
 20
6.425844224472371
 30
0.0
  0
VERTEX
  5
5A2
330
589
100
AcDbEntity
  8
0
 62
     7
370
     0
100
AcDbVertex
100
AcDb2dVertex
 10
100.7714462330839
 20
6.738455465452204
 30
0.0
  0
VERTEX
  5
5A3
330
589
100
AcDbEntity
  8
0
 62
     7
370
     0
100
AcDbVertex
100
AcDb2dVertex
 10
100.8388721870207
 20
7.020418545551621
 30
0.0
  0
VERTEX
  5
5A4
330
589
100
AcDbEntity
  8
0
 62
     7
370
     0
100
AcDbVertex
100
AcDb2dVertex
 10
98.80996393674005
 20
7.020418545551621
 30
0.0
  0
VERTEX
  5
5A5
330
589
100
AcDbEntity
  8
0
 62
     7
370
     0
100
AcDbVertex
100
AcDb2dVertex
 10
99.32485303953033
 20
9.251604657642815
 30
0.0
  0
SEQEND
  5
5A6
330
589
100
AcDbEntity
  8
0
 62
     7
370
     0
  0
POLYLINE
  5
5A7
330
1DA
100
AcDbEntity
  8
0
 62
     7
370
     0
100
AcDb2dPolyline
 66
     1
 10
0.0
 20
0.0
 30
0.0
  0
VERTEX
  5
5A8
330
5A7
100
AcDbEntity
  8
0
 62
     7
370
     0
100
AcDbVertex
100
AcDb2dVertex
 10
99.79070508491199
 20
0.9827308521180384
 30
0.0
  0
VERTEX
  5
5A9
330
5A7
100
AcDbEntity
  8
0
 62
     7
370
     0
100
AcDbVertex
100
AcDb2dVertex
 10
99.29420487864994
 20
0.8111011511879553
 30
0.0
  0
VERTEX
  5
5AA
330
5A7
100
AcDbEntity
  8
0
 62
     7
370
     0
100
AcDbVertex
100
AcDb2dVertex
 10
99.10418628119163
 20
0.762064093779344
 30
0.0
  0
VERTEX
  5
5AB
330
5A7
100
AcDbEntity
  8
0
 62
     7
370
     0
100
AcDbVertex
100
AcDb2dVertex
 10
98.55864901752097
 20
0.6517307146100109
 30
0.0
  0
VERTEX
  5
5AC
330
5A7
100
AcDbEntity
  8
0
 62
     7
370
     0
100
AcDbVertex
100
AcDb2dVertex
 10
98.34411189135835
 20
0.6394714502578723
 30
0.0
  0
VERTEX
  5
5AD
330
5A7
100
AcDbEntity
  8
0
 62
     7
370
     0
100
AcDbVertex
100
AcDb2dVertex
 10
99.88877919972919
 20
0.5597862319688716
 30
0.0
  0
VERTEX
  5
5AE
330
5A7
100
AcDbEntity
  8
0
 62
     7
370
     0
100
AcDbVertex
100
AcDb2dVertex
 10
99.79070508491199
 20
0.9827308521180384
 30
0.0
  0
SEQEND
  5
5AF
330
5A7
100
AcDbEntity
  8
0
 62
     7
370
     0
  0
POLYLINE
  5
5B0
330
1DA
100
AcDbEntity
  8
0
 62
     7
370
     0
100
AcDb2dPolyline
 66
     1
 10
0.0
 20
0.0
 30
0.0
  0
VERTEX
  5
5B1
330
5B0
100
AcDbEntity
  8
0
 62
     7
370
     0
100
AcDbVertex
100
AcDb2dVertex
 10
94.69085111441785
 20
1.307601357449982
 30
0.0
  0
VERTEX
  5
5B2
330
5B0
100
AcDbEntity
  8
0
 62
     7
370
     0
100
AcDbVertex
100
AcDb2dVertex
 10
94.02272120722569
 20
0.9827308521180384
 30
0.0
  0
VERTEX
  5
5B3
330
5B0
100
AcDbEntity
  8
0
 62
     7
370
     0
100
AcDbVertex
100
AcDb2dVertex
 10
93.6610729088373
 20
0.8601382085965383
 30
0.0
  0
VERTEX
  5
5B4
330
5B0
100
AcDbEntity
  8
0
 62
     7
370
     0
100
AcDbVertex
100
AcDb2dVertex
 10
92.1102759682904
 20
0.713027036370761
 30
0.0
  0
VERTEX
  5
5B5
330
5B0
100
AcDbEntity
  8
0
 62
     7
370
     0
100
AcDbVertex
100
AcDb2dVertex
 10
92.0857574395861
 20
0.5597862319688716
 30
0.0
  0
VERTEX
  5
5B6
330
5B0
100
AcDbEntity
  8
0
 62
     7
370
     0
100
AcDbVertex
100
AcDb2dVertex
 10
92.07349817523397
 20
0.1613601405240388
 30
0.0
  0
VERTEX
  5
5B7
330
5B0
100
AcDbEntity
  8
0
 62
     7
370
     0
100
AcDbVertex
100
AcDb2dVertex
 10
92.34320199098124
 20
-0.2370659509208224
 30
0.0
  0
VERTEX
  5
5B8
330
5B0
100
AcDbEntity
  8
0
 62
     7
370
     0
100
AcDbVertex
100
AcDb2dVertex
 10
92.44740573797452
 20
-0.2983622726815724
 30
0.0
  0
VERTEX
  5
5B9
330
5B0
100
AcDbEntity
  8
0
 62
     7
370
     0
100
AcDbVertex
100
AcDb2dVertex
 10
94.80731412576327
 20
0.9949901164702055
 30
0.0
  0
VERTEX
  5
5BA
330
5B0
100
AcDbEntity
  8
0
 62
     7
370
     0
100
AcDbVertex
100
AcDb2dVertex
 10
94.69085111441785
 20
1.307601357449982
 30
0.0
  0
SEQEND
  5
5BB
330
5B0
100
AcDbEntity
  8
0
 62
     7
370
     0
  0
POLYLINE
  5
5BC
330
1DA
100
AcDbEntity
  8
0
 62
     7
370
     0
100
AcDb2dPolyline
 66
     1
 10
0.0
 20
0.0
 30
0.0
  0
VERTEX
  5
5BD
330
5BC
100
AcDbEntity
  8
0
 62
     7
370
     0
100
AcDbVertex
100
AcDb2dVertex
 10
94.66633258571354
 20
6.364547902711649
 30
0.0
  0
VERTEX
  5
5BE
330
5BC
100
AcDbEntity
  8
0
 62
     7
370
     0
100
AcDbVertex
100
AcDb2dVertex
 10
92.9316466798844
 20
6.33389974183126
 30
0.0
  0
VERTEX
  5
5BF
330
5BC
100
AcDbEntity
  8
0
 62
     7
370
     0
100
AcDbVertex
100
AcDb2dVertex
 10
93.28716534609673
 20
6.094844086964315
 30
0.0
  0
VERTEX
  5
5C0
330
5BC
100
AcDbEntity
  8
0
 62
     7
370
     0
100
AcDbVertex
100
AcDb2dVertex
 10
93.30555424262497
 20
5.855788432097426
 30
0.0
  0
VERTEX
  5
5C1
330
5BC
100
AcDbEntity
  8
0
 62
     7
370
     0
100
AcDbVertex
100
AcDb2dVertex
 10
93.23199865651208
 20
5.334769697131093
 30
0.0
  0
VERTEX
  5
5C2
330
5BC
100
AcDbEntity
  8
0
 62
     7
370
     0
100
AcDbVertex
100
AcDb2dVertex
 10
93.11553564516662
 20
4.899565812629759
 30
0.0
  0
VERTEX
  5
5C3
330
5BC
100
AcDbEntity
  8
0
 62
     7
370
     0
100
AcDbVertex
100
AcDb2dVertex
 10
92.23286861181192
 20
1.295342093097843
 30
0.0
  0
VERTEX
  5
5C4
330
5BC
100
AcDbEntity
  8
0
 62
     7
370
     0
100
AcDbVertex
100
AcDb2dVertex
 10
92.1102759682904
 20
0.713027036370761
 30
0.0
  0
VERTEX
  5
5C5
330
5BC
100
AcDbEntity
  8
0
 62
     7
370
     0
100
AcDbVertex
100
AcDb2dVertex
 10
93.6610729088373
 20
0.8601382085965383
 30
0.0
  0
VERTEX
  5
5C6
330
5BC
100
AcDbEntity
  8
0
 62
     7
370
     0
100
AcDbVertex
100
AcDb2dVertex
 10
93.4955728400833
 20
1.06241607040701
 30
0.0
  0
VERTEX
  5
5C7
330
5BC
100
AcDbEntity
  8
0
 62
     7
370
     0
100
AcDbVertex
100
AcDb2dVertex
 10
93.53848026531579
 20
1.565045908845149
 30
0.0
  0
VERTEX
  5
5C8
330
5BC
100
AcDbEntity
  8
0
 62
     7
370
     0
100
AcDbVertex
100
AcDb2dVertex
 10
94.51922141348774
 20
5.537047558941537
 30
0.0
  0
VERTEX
  5
5C9
330
5BC
100
AcDbEntity
  8
0
 62
     7
370
     0
100
AcDbVertex
100
AcDb2dVertex
 10
94.6295547926571
 20
6.009029236499316
 30
0.0
  0
VERTEX
  5
5CA
330
5BC
100
AcDbEntity
  8
0
 62
     7
370
     0
100
AcDbVertex
100
AcDb2dVertex
 10
94.66633258571354
 20
6.364547902711649
 30
0.0
  0
SEQEND
  5
5CB
330
5BC
100
AcDbEntity
  8
0
 62
     7
370
     0
  0
ENDBLK
  5
5CD
330
1DA
100
AcDbEntity
  8
0
100
AcDbBlockEnd
  0
BLOCK
  5
7B4
330
7A7
100
AcDbEntity
  8
0
100
AcDbBlockBegin
  2
*D4
 70
     1
 10
0.0
 20
0.0
 30
0.0
  3
*D4
  1

  0
LINE
  5
D9A
330
7A7
100
AcDbEntity
  8
5
370
    -2
100
AcDbLine
 10
196.4204917007625
 20
255.4304730408025
 30
0.0
 11
157.7318073434388
 21
255.4304730408025
 31
0.0
  0
LINE
  5
D9B
330
7A7
100
AcDbEntity
  8
5
370
    -2
100
AcDbLine
 10
196.4204917007625
 20
120.4304730408025
 30
0.0
 11
157.7318073434388
 21
120.4304730408025
 31
0.0
  0
LINE
  5
D9C
330
7A7
100
AcDbEntity
  8
5
370
    -2
100
AcDbLine
 10
158.7318073434388
 20
252.9304730408025
 30
0.0
 11
158.7318073434388
 21
122.9304730408025
 31
0.0
  0
SOLID
  5
D9D
330
7A7
100
AcDbEntity
  8
5
100
AcDbTrace
 10
158.3151406767721
 20
252.9304730408025
 30
0.0
 11
159.1484740101055
 21
252.9304730408025
 31
0.0
 12
158.7318073434388
 22
255.4304730408025
 32
0.0
 13
158.7318073434388
 23
255.4304730408025
 33
0.0
  0
SOLID
  5
D9E
330
7A7
100
AcDbEntity
  8
5
100
AcDbTrace
 10
158.3151406767721
 20
122.9304730408025
 30
0.0
 11
159.1484740101054
 21
122.9304730408025
 31
0.0
 12
158.7318073434388
 22
120.4304730408025
 32
0.0
 13
158.7318073434388
 23
120.4304730408025
 33
0.0
  0
MTEXT
  5
D9F
330
7A7
100
AcDbEntity
  8
5
 62
     2
100
AcDbMText
 10
156.3818073434387
 20
187.9304730408025
 30
0.0
 40
3.5
 41
0.0
 71
     5
 72
     1
  1
135
 11
0.0000000000000001
 21
1.0
 31
0.0
 73
     1
 44
1.0
1001
ACAD
1000
MTEXTBEGIN
1070
    73
1070
     1
1070
    44
1040
1.0
1070
    74
1070
     0
1000
MTEXTEND
  0
POINT
  5
DA0
330
7A7
100
AcDbEntity
  8
Defpoints
 62
     0
100
AcDbPoint
 10
197.4204917007625
 20
255.4304730408025
 30
0.0
  0
POINT
  5
DA1
330
7A7
100
AcDbEntity
  8
Defpoints
 62
     0
100
AcDbPoint
 10
197.4204917007625
 20
120.4304730408025
 30
0.0
  0
POINT
  5
DA2
330
7A7
100
AcDbEntity
  8
Defpoints
 62
     0
100
AcDbPoint
 10
158.7318073434388
 20
120.4304730408025
 30
0.0
  0
ENDBLK
  5
7BE
330
7A7
100
AcDbEntity
  8
0
100
AcDbBlockEnd
  0
BLOCK
  5
8D7
330
8D6
100
AcDbEntity
  8
0
100
AcDbBlockBegin
  2
*D5
 70
     1
 10
0.0
 20
0.0
 30
0.0
  3
*D5
  1

  0
LINE
  5
DA3
330
8D6
100
AcDbEntity
  8
5
370
    -2
100
AcDbLine
 10
172.4204917007625
 20
399.2199387138093
 30
0.0
 11
160.9007704829799
 21
399.2199387138093
 31
0.0
  0
LINE
  5
DA4
330
8D6
100
AcDbEntity
  8
5
370
    -2
100
AcDbLine
 10
178.0506222425285
 20
364.2199387138093
 30
0.0
 11
160.9007704829799
 21
364.2199387138093
 31
0.0
  0
LINE
  5
DA5
330
8D6
100
AcDbEntity
  8
5
370
    -2
100
AcDbLine
 10
161.9007704829799
 20
396.7199387138093
 30
0.0
 11
161.9007704829799
 21
366.7199387138093
 31
0.0
  0
SOLID
  5
DA6
330
8D6
100
AcDbEntity
  8
5
100
AcDbTrace
 10
161.4841038163133
 20
396.7199387138093
 30
0.0
 11
162.3174371496466
 21
396.7199387138093
 31
0.0
 12
161.9007704829799
 22
399.2199387138093
 32
0.0
 13
161.9007704829799
 23
399.2199387138093
 33
0.0
  0
SOLID
  5
DA7
330
8D6
100
AcDbEntity
  8
5
100
AcDbTrace
 10
161.4841038163133
 20
366.7199387138093
 30
0.0
 11
162.3174371496466
 21
366.7199387138093
 31
0.0
 12
161.9007704829799
 22
364.2199387138093
 32
0.0
 13
161.9007704829799
 23
364.2199387138093
 33
0.0
  0
MTEXT
  5
DA8
330
8D6
100
AcDbEntity
  8
5
 62
     2
100
AcDbMText
 10
159.5507704829799
 20
381.7199387138094
 30
0.0
 40
3.5
 41
0.0
 71
     5
 72
     1
  1
35
 11
0.0000000000000001
 21
1.0
 31
0.0
 73
     1
 44
1.0
1001
ACAD
1000
MTEXTBEGIN
1070
    73
1070
     1
1070
    44
1040
1.0
1070
    74
1070
     0
1000
MTEXTEND
  0
POINT
  5
DA9
330
8D6
100
AcDbEntity
  8
Defpoints
 62
     0
100
AcDbPoint
 10
173.4204917007625
 20
399.2199387138093
 30
0.0
  0
POINT
  5
DAA
330
8D6
100
AcDbEntity
  8
Defpoints
 62
     0
100
AcDbPoint
 10
179.0506222425285
 20
364.2199387138093
 30
0.0
  0
POINT
  5
DAB
330
8D6
100
AcDbEntity
  8
Defpoints
 62
     0
100
AcDbPoint
 10
161.9007704829799
 20
364.2199387138093
 30
0.0
  0
ENDBLK
  5
8E1
330
8D6
100
AcDbEntity
  8
0
100
AcDbBlockEnd
  0
BLOCK
  5
9D2
330
9D1
100
AcDbEntity
  8
0
100
AcDbBlockBegin
  2
*D6
 70
     1
 10
0.0
 20
0.0
 30
0.0
  3
*D6
  1
GEVFRAME
  0
LINE
  5
DAC
330
9D1
100
AcDbEntity
  8
5
370
    -2
100
AcDbLine
 10
251.9204917007626
 20
400.2199387138092
 30
0.0
 11
251.9204917007626
 21
415.6488037313695
 31
0.0
  0
LINE
  5
DAD
330
9D1
100
AcDbEntity
  8
5
370
    -2
100
AcDbLine
 10
264.9204917007626
 20
400.2199387138092
 30
0.0
 11
264.9204917007626
 21
415.6488037313695
 31
0.0
  0
LINE
  5
DAE
330
9D1
100
AcDbEntity
  8
5
370
    -2
100
AcDbLine
 10
254.4204917007625
 20
414.6488037313695
 30
0.0
 11
262.4204917007626
 21
414.6488037313695
 31
0.0
  0
SOLID
  5
DAF
330
9D1
100
AcDbEntity
  8
5
100
AcDbTrace
 10
254.4204917007625
 20
415.0654703980363
 30
0.0
 11
254.4204917007625
 21
414.2321370647029
 31
0.0
 12
251.9204917007626
 22
414.6488037313695
 32
0.0
 13
251.9204917007626
 23
414.6488037313695
 33
0.0
  0
SOLID
  5
DB0
330
9D1
100
AcDbEntity
  8
5
100
AcDbTrace
 10
262.4204917007626
 20
415.0654703980363
 30
0.0
 11
262.4204917007626
 21
414.2321370647029
 31
0.0
 12
264.9204917007626
 22
414.6488037313695
 32
0.0
 13
264.9204917007626
 23
414.6488037313695
 33
0.0
  0
MTEXT
  5
DB1
330
9D1
100
AcDbEntity
  8
5
 62
     2
100
AcDbMText
 10
258.4204917007626
 20
416.9988037313696
 30
0.0
 40
3.5
 41
0.0
 71
     5
 72
     1
  1
13
 73
     1
 44
1.0
1001
ACAD
1000
MTEXTBEGIN
1070
    73
1070
     1
1070
    44
1040
1.0
1070
    74
1070
     0
1000
MTEXTEND
  0
POINT
  5
DB2
330
9D1
100
AcDbEntity
  8
Defpoints
 62
     0
100
AcDbPoint
 10
251.9204917007626
 20
399.2199387138093
 30
0.0
  0
POINT
  5
DB3
330
9D1
100
AcDbEntity
  8
Defpoints
 62
     0
100
AcDbPoint
 10
264.9204917007626
 20
399.2199387138093
 30
0.0
  0
POINT
  5
DB4
330
9D1
100
AcDbEntity
  8
Defpoints
 62
     0
100
AcDbPoint
 10
264.9204917007626
 20
414.6488037313695
 30
0.0
  0
ENDBLK
  5
9DC
330
9D1
100
AcDbEntity
  8
0
100
AcDbBlockEnd
  0
BLOCK
  5
9F7
330
9F6
100
AcDbEntity
  8
0
100
AcDbBlockBegin
  2
*D7
 70
     1
 10
0.0
 20
0.0
 30
0.0
  3
*D7
  1
GEVFRAME
  0
LINE
  5
DB5
330
9F6
100
AcDbEntity
  8
5
370
    -2
100
AcDbLine
 10
282.4204917007626
 20
400.2199387138092
 30
0.0
 11
282.4204917007626
 21
415.6488037313695
 31
0.0
  0
LINE
  5
DB6
330
9F6
100
AcDbEntity
  8
5
370
    -2
100
AcDbLine
 10
267.4204917007626
 20
414.6488037313695
 30
0.0
 11
279.9204917007626
 21
414.6488037313695
 31
0.0
  0
SOLID
  5
DB7
330
9F6
100
AcDbEntity
  8
5
100
AcDbTrace
 10
267.4204917007626
 20
415.0654703980363
 30
0.0
 11
267.4204917007626
 21
414.2321370647029
 31
0.0
 12
264.9204917007626
 22
414.6488037313695
 32
0.0
 13
264.9204917007626
 23
414.6488037313695
 33
0.0
  0
SOLID
  5
DB8
330
9F6
100
AcDbEntity
  8
5
100
AcDbTrace
 10
279.9204917007626
 20
415.0654703980363
 30
0.0
 11
279.9204917007626
 21
414.2321370647029
 31
0.0
 12
282.4204917007626
 22
414.6488037313695
 32
0.0
 13
282.4204917007626
 23
414.6488037313695
 33
0.0
  0
MTEXT
  5
DB9
330
9F6
100
AcDbEntity
  8
5
 62
     2
100
AcDbMText
 10
273.6704917007626
 20
416.9988037313696
 30
0.0
 40
3.5
 41
0.0
 71
     5
 72
     1
  1
17.5
 73
     1
 44
1.0
1001
ACAD
1000
MTEXTBEGIN
1070
    73
1070
     1
1070
    44
1040
1.0
1070
    74
1070
     0
1000
MTEXTEND
  0
POINT
  5
DBA
330
9F6
100
AcDbEntity
  8
Defpoints
 62
     0
100
AcDbPoint
 10
264.9204917007626
 20
399.2199387138093
 30
0.0
  0
POINT
  5
DBB
330
9F6
100
AcDbEntity
  8
Defpoints
 62
     0
100
AcDbPoint
 10
282.4204917007626
 20
399.2199387138093
 30
0.0
  0
POINT
  5
DBC
330
9F6
100
AcDbEntity
  8
Defpoints
 62
     0
100
AcDbPoint
 10
282.4204917007626
 20
414.6488037313695
 30
0.0
  0
ENDBLK
  5
A00
330
9F6
100
AcDbEntity
  8
0
100
AcDbBlockEnd
  0
BLOCK
  5
CA9
330
CA8
100
AcDbEntity
  8
0
100
AcDbBlockBegin
  2
GENAXEH
 70
     0
 10
0.0
 20
0.0
 30
0.0
  3
GENAXEH
  1

  0
LINE
  5
CAA
330
CA8
100
AcDbEntity
  8
0
100
AcDbLine
 10
-1.0
 20
0.0
 30
0.0
 11
1.0
 21
0.0
 31
0.0
  0
ENDBLK
  5
CAB
330
CA8
100
AcDbEntity
  8
0
100
AcDbBlockEnd
  0
BLOCK
  5
D2A
330
D20
100
AcDbEntity
  8
0
100
AcDbBlockBegin
  2
*D10
 70
     1
 10
0.0
 20
0.0
 30
0.0
  3
*D10
  1

  0
LINE
  5
DBD
330
D20
100
AcDbEntity
  8
5
370
    -2
100
AcDbLine
 10
173.4204917007625
 20
271.4304730408025
 30
0.0
 11
173.4204917007625
 21
300.1604592066399
 31
0.0
  0
LINE
  5
DBE
330
D20
100
AcDbEntity
  8
5
370
    -2
100
AcDbLine
 10
343.4204917007625
 20
271.4304730408025
 30
0.0
 11
343.4204917007625
 21
300.1604592066399
 31
0.0
  0
LINE
  5
DBF
330
D20
100
AcDbEntity
  8
5
370
    -2
100
AcDbLine
 10
175.9204917007625
 20
299.1604592066399
 30
0.0
 11
340.9204917007625
 21
299.1604592066399
 31
0.0
  0
SOLID
  5
DC0
330
D20
100
AcDbEntity
  8
5
100
AcDbTrace
 10
175.9204917007625
 20
299.5771258733066
 30
0.0
 11
175.9204917007625
 21
298.7437925399732
 31
0.0
 12
173.4204917007625
 22
299.1604592066399
 32
0.0
 13
173.4204917007625
 23
299.1604592066399
 33
0.0
  0
SOLID
  5
DC1
330
D20
100
AcDbEntity
  8
5
100
AcDbTrace
 10
340.9204917007625
 20
299.5771258733066
 30
0.0
 11
340.9204917007625
 21
298.7437925399732
 31
0.0
 12
343.4204917007625
 22
299.1604592066399
 32
0.0
 13
343.4204917007625
 23
299.1604592066399
 33
0.0
  0
MTEXT
  5
DC2
330
D20
100
AcDbEntity
  8
5
 62
     2
100
AcDbMText
 10
258.4204917007625
 20
301.5104592066399
 30
0.0
 40
3.5
 41
0.0
 71
     5
 72
     1
  1
170
 73
     1
 44
1.0
1001
ACAD
1000
MTEXTBEGIN
1070
    73
1070
     1
1070
    44
1040
1.0
1070
    74
1070
     0
1000
MTEXTEND
  0
POINT
  5
DC3
330
D20
100
AcDbEntity
  8
Defpoints
 62
     0
100
AcDbPoint
 10
173.4204917007625
 20
270.4304730408024
 30
0.0
  0
POINT
  5
DC4
330
D20
100
AcDbEntity
  8
Defpoints
 62
     0
100
AcDbPoint
 10
343.4204917007625
 20
270.4304730408024
 30
0.0
  0
POINT
  5
DC5
330
D20
100
AcDbEntity
  8
Defpoints
 62
     0
100
AcDbPoint
 10
343.4204917007625
 20
299.1604592066399
 30
0.0
  0
ENDBLK
  5
D2B
330
D20
100
AcDbEntity
  8
0
100
AcDbBlockEnd
  0
BLOCK
  5
D6C
330
D62
100
AcDbEntity
  8
0
100
AcDbBlockBegin
  2
*D11
 70
     1
 10
0.0
 20
0.0
 30
0.0
  3
*D11
  1

  0
LINE
  5
DC6
330
D62
100
AcDbEntity
  8
5
370
    -2
100
AcDbLine
 10
174.9204917007625
 20
272.9304730408024
 30
0.0
 11
146.006004970747
 21
272.9304730408024
 31
0.0
  0
LINE
  5
DC7
330
D62
100
AcDbEntity
  8
5
370
    -2
100
AcDbLine
 10
174.9204917007625
 20
102.9304730408025
 30
0.0
 11
146.006004970747
 21
102.9304730408025
 31
0.0
  0
LINE
  5
DC8
330
D62
100
AcDbEntity
  8
5
370
    -2
100
AcDbLine
 10
147.006004970747
 20
270.4304730408024
 30
0.0
 11
147.006004970747
 21
105.4304730408025
 31
0.0
  0
SOLID
  5
DC9
330
D62
100
AcDbEntity
  8
5
100
AcDbTrace
 10
146.5893383040804
 20
270.4304730408024
 30
0.0
 11
147.4226716374137
 21
270.4304730408024
 31
0.0
 12
147.006004970747
 22
272.9304730408024
 32
0.0
 13
147.006004970747
 23
272.9304730408024
 33
0.0
  0
SOLID
  5
DCA
330
D62
100
AcDbEntity
  8
5
100
AcDbTrace
 10
146.5893383040803
 20
105.4304730408025
 30
0.0
 11
147.4226716374137
 21
105.4304730408025
 31
0.0
 12
147.006004970747
 22
102.9304730408025
 32
0.0
 13
147.006004970747
 23
102.9304730408025
 33
0.0
  0
MTEXT
  5
DCB
330
D62
100
AcDbEntity
  8
5
 62
     2
100
AcDbMText
 10
144.656004970747
 20
187.9304730408025
 30
0.0
 40
3.5
 41
0.0
 71
     5
 72
     1
  1
170
 11
0.0000000000000001
 21
1.0
 31
0.0
 73
     1
 44
1.0
1001
ACAD
1000
MTEXTBEGIN
1070
    73
1070
     1
1070
    44
1040
1.0
1070
    74
1070
     0
1000
MTEXTEND
  0
POINT
  5
DCC
330
D62
100
AcDbEntity
  8
Defpoints
 62
     0
100
AcDbPoint
 10
175.9204917007625
 20
272.9304730408024
 30
0.0
  0
POINT
  5
DCD
330
D62
100
AcDbEntity
  8
Defpoints
 62
     0
100
AcDbPoint
 10
175.9204917007625
 20
102.9304730408025
 30
0.0
  0
POINT
  5
DCE
330
D62
100
AcDbEntity
  8
Defpoints
 62
     0
100
AcDbPoint
 10
147.006004970747
 20
102.9304730408025
 30
0.0
  0
ENDBLK
  5
D6D
330
D62
100
AcDbEntity
  8
0
100
AcDbBlockEnd
  0
ENDSEC
  0
SECTION
  2
ENTITIES
  0
INSERT
  5
DF
330
1A
100
AcDbEntity
  8
0
100
AcDbBlockReference
  2
DUMMY_R14
 10
0.0
 20
0.0
 30
0.0
  0
LINE
  5
114
330
1A
100
AcDbEntity
  8
7A
100
AcDbLine
 10
170.0792819130769
 20
187.9304730408025
 30
0.0
 11
349.632883164385
 21
187.9304730408024
 31
0.0
  0
LINE
  5
115
330
1A
100
AcDbEntity
  8
7A
100
AcDbLine
 10
258.4204917007625
 20
93.7140507663126
 30
0.0
 11
258.4204917007626
 21
272.9304730408024
 31
0.0
  0
LINE
  5
116
330
1A
100
AcDbEntity
  8
7A
100
AcDbLine
 10
258.4204917007626
 20
272.9304730408024
 30
0.0
 11
258.4204917007626
 21
279.5830211219799
 31
0.0
  0
LINE
  5
118
330
1A
100
AcDbEntity
  8
0
100
AcDbLine
 10
173.4204917007625
 20
270.4304730408024
 30
0.0
 11
173.4204917007625
 21
105.4304730408025
 31
0.0
  0
LINE
  5
119
330
1A
100
AcDbEntity
  8
0
100
AcDbLine
 10
175.9204917007625
 20
102.9304730408025
 30
0.0
 11
340.9204917007625
 21
102.9304730408024
 31
0.0
  0
LINE
  5
11A
330
1A
100
AcDbEntity
  8
0
100
AcDbLine
 10
343.4204917007625
 20
105.4304730408024
 30
0.0
 11
343.4204917007625
 21
270.4304730408024
 31
0.0
  0
LINE
  5
11B
330
1A
100
AcDbEntity
  8
0
100
AcDbLine
 10
340.9204917007625
 20
272.9304730408024
 30
0.0
 11
175.9204917007625
 21
272.9304730408024
 31
0.0
  0
LINE
  5
11E
330
1A
100
AcDbEntity
  8
0
100
AcDbLine
 10
343.4204917007626
 20
399.2199387138093
 30
0.0
 11
173.4204917007625
 21
399.2199387138093
 31
0.0
  0
LINE
  5
11F
330
1A
100
AcDbEntity
  8
7A
100
AcDbLine
 10
258.4204917007626
 20
354.6568474966026
 30
0.0
 11
258.4204917007626
 21
407.9841573614813
 31
0.0
  0
LINE
  5
127
330
1A
100
AcDbEntity
  8
0
100
AcDbLine
 10
325.9204917007626
 20
248.9304730408024
 30
0.0
 11
325.9204917007625
 21
187.9304730408024
 31
0.0
  0
LINE
  5
128
330
1A
100
AcDbEntity
  8
0
100
AcDbLine
 10
312.9204917007626
 20
248.9304730408024
 30
0.0
 11
312.9204917007625
 21
187.9304730408024
 31
0.0
  0
LINE
  5
129
330
1A
100
AcDbEntity
  8
0
100
AcDbLine
 10
295.4204917007626
 20
248.9304730408025
 30
0.0
 11
295.4204917007625
 21
187.9304730408024
 31
0.0
  0
LINE
  5
12A
330
1A
100
AcDbEntity
  8
0
100
AcDbLine
 10
282.4204917007626
 20
248.9304730408025
 30
0.0
 11
282.4204917007625
 21
187.9304730408024
 31
0.0
  0
LINE
  5
12B
330
1A
100
AcDbEntity
  8
0
100
AcDbLine
 10
264.9204917007626
 20
248.9304730408025
 30
0.0
 11
264.9204917007625
 21
187.9304730408024
 31
0.0
  0
ARC
  5
133
330
1A
100
AcDbEntity
  8
0
100
AcDbCircle
 10
258.4204917007626
 20
248.9304730408025
 30
0.0
 40
6.5
100
AcDbArc
 50
0.0
 51
90.0
  0
ARC
  5
136
330
1A
100
AcDbEntity
  8
0
100
AcDbCircle
 10
288.9204917007626
 20
248.9304730408025
 30
0.0
 40
6.499999999999992
100
AcDbArc
 50
0.0
 51
180.0
  0
ARC
  5
137
330
1A
100
AcDbEntity
  8
0
100
AcDbCircle
 10
319.4204917007626
 20
248.9304730408024
 30
0.0
 40
6.5
100
AcDbArc
 50
0.0
 51
180.0
  0
ARC
  5
165
330
1A
100
AcDbEntity
  8
0
100
AcDbCircle
 10
258.4204917007625
 20
126.9304730408024
 30
0.0
 40
6.5
100
AcDbArc
 50
270.0
 51
0.0
  0
LINE
  5
166
330
1A
100
AcDbEntity
  8
0
100
AcDbLine
 10
295.4204917007625
 20
126.9304730408024
 30
0.0
 11
295.4204917007625
 21
187.9304730408024
 31
0.0
  0
LINE
  5
167
330
1A
100
AcDbEntity
  8
0
100
AcDbLine
 10
282.4204917007625
 20
126.9304730408024
 30
0.0
 11
282.4204917007625
 21
187.9304730408024
 31
0.0
  0
LINE
  5
168
330
1A
100
AcDbEntity
  8
0
100
AcDbLine
 10
264.9204917007625
 20
126.9304730408024
 30
0.0
 11
264.9204917007625
 21
187.9304730408024
 31
0.0
  0
ARC
  5
169
330
1A
100
AcDbEntity
  8
0
100
AcDbCircle
 10
288.9204917007625
 20
126.9304730408024
 30
0.0
 40
6.499999999999992
100
AcDbArc
 50
180.0
 51
0.0
  0
LINE
  5
16A
330
1A
100
AcDbEntity
  8
0
100
AcDbLine
 10
325.9204917007625
 20
126.9304730408024
 30
0.0
 11
325.9204917007625
 21
187.9304730408024
 31
0.0
  0
LINE
  5
16B
330
1A
100
AcDbEntity
  8
0
100
AcDbLine
 10
312.9204917007625
 20
126.9304730408024
 30
0.0
 11
312.9204917007625
 21
187.9304730408024
 31
0.0
  0
ARC
  5
16C
330
1A
100
AcDbEntity
  8
0
100
AcDbCircle
 10
319.4204917007625
 20
126.9304730408024
 30
0.0
 40
6.5
100
AcDbArc
 50
180.0
 51
0.0
  0
ARC
  5
16F
330
1A
100
AcDbEntity
  8
0
100
AcDbCircle
 10
258.4204917007625
 20
126.9304730408024
 30
0.0
 40
6.5
100
AcDbArc
 50
180.0
 51
270.0
  0
LINE
  5
170
330
1A
100
AcDbEntity
  8
0
100
AcDbLine
 10
203.9204917007625
 20
126.9304730408025
 30
0.0
 11
203.9204917007625
 21
187.9304730408025
 31
0.0
  0
LINE
  5
171
330
1A
100
AcDbEntity
  8
0
100
AcDbLine
 10
190.9204917007625
 20
126.9304730408025
 30
0.0
 11
190.9204917007625
 21
187.9304730408025
 31
0.0
  0
LINE
  5
172
330
1A
100
AcDbEntity
  8
0
100
AcDbLine
 10
251.9204917007625
 20
126.9304730408024
 30
0.0
 11
251.9204917007625
 21
187.9304730408024
 31
0.0
  0
LINE
  5
173
330
1A
100
AcDbEntity
  8
0
100
AcDbLine
 10
234.4204917007625
 20
126.9304730408024
 30
0.0
 11
234.4204917007625
 21
187.9304730408024
 31
0.0
  0
LINE
  5
174
330
1A
100
AcDbEntity
  8
0
100
AcDbLine
 10
221.4204917007625
 20
126.9304730408025
 30
0.0
 11
221.4204917007625
 21
187.9304730408025
 31
0.0
  0
ARC
  5
175
330
1A
100
AcDbEntity
  8
0
100
AcDbCircle
 10
227.9204917007625
 20
126.9304730408024
 30
0.0
 40
6.499999999999992
100
AcDbArc
 50
180.0
 51
0.0
  0
ARC
  5
176
330
1A
100
AcDbEntity
  8
0
100
AcDbCircle
 10
197.4204917007625
 20
126.9304730408025
 30
0.0
 40
6.5
100
AcDbArc
 50
180.0
 51
0.0
  0
ARC
  5
177
330
1A
100
AcDbEntity
  8
0
100
AcDbCircle
 10
258.4204917007626
 20
248.9304730408025
 30
0.0
 40
6.5
100
AcDbArc
 50
90.0
 51
180.0
  0
LINE
  5
178
330
1A
100
AcDbEntity
  8
0
100
AcDbLine
 10
221.4204917007625
 20
248.9304730408025
 30
0.0
 11
221.4204917007625
 21
187.9304730408025
 31
0.0
  0
LINE
  5
179
330
1A
100
AcDbEntity
  8
0
100
AcDbLine
 10
234.4204917007625
 20
248.9304730408025
 30
0.0
 11
234.4204917007625
 21
187.9304730408024
 31
0.0
  0
LINE
  5
17A
330
1A
100
AcDbEntity
  8
0
100
AcDbLine
 10
251.9204917007626
 20
248.9304730408025
 30
0.0
 11
251.9204917007625
 21
187.9304730408024
 31
0.0
  0
ARC
  5
17B
330
1A
100
AcDbEntity
  8
0
100
AcDbCircle
 10
227.9204917007625
 20
248.9304730408025
 30
0.0
 40
6.499999999999992
100
AcDbArc
 50
0.0
 51
180.0
  0
LINE
  5
17C
330
1A
100
AcDbEntity
  8
0
100
AcDbLine
 10
190.9204917007625
 20
248.9304730408025
 30
0.0
 11
190.9204917007625
 21
187.9304730408025
 31
0.0
  0
LINE
  5
17D
330
1A
100
AcDbEntity
  8
0
100
AcDbLine
 10
203.9204917007626
 20
248.9304730408025
 30
0.0
 11
203.9204917007625
 21
187.9304730408025
 31
0.0
  0
ARC
  5
17E
330
1A
100
AcDbEntity
  8
0
100
AcDbCircle
 10
197.4204917007625
 20
248.9304730408025
 30
0.0
 40
6.5
100
AcDbArc
 50
0.0
 51
180.0
  0
LINE
  5
17F
330
1A
100
AcDbEntity
  8
0
100
AcDbLine
 10
258.4204917007626
 20
364.2199387138092
 30
0.0
 11
179.0506222425285
 21
364.2199387138093
 31
0.0
  0
LINE
  5
180
330
1A
100
AcDbEntity
  8
0
100
AcDbLine
 10
214.7805524448114
 20
365.2199387138093
 30
0.0
 11
210.5604309567136
 21
365.2199387138093
 31
0.0
  0
LINE
  5
191
330
1A
100
AcDbEntity
  8
0
100
AcDbLine
 10
190.9204917007626
 20
399.2199387138093
 30
0.0
 11
188.1778425736525
 21
367.8713157428187
 31
0.0
  0
LINE
  5
193
330
1A
100
AcDbEntity
  8
0
100
AcDbLine
 10
203.9204917007626
 20
399.2199387138093
 30
0.0
 11
206.5756521643467
 21
368.8713157428186
 31
0.0
  0
LINE
  5
194
330
1A
100
AcDbEntity
  8
0
100
AcDbLine
 10
221.4204917007626
 20
399.2199387138093
 30
0.0
 11
218.7653312371784
 21
368.8713157428186
 31
0.0
  0
ARC
  5
195
330
1A
100
AcDbEntity
  8
0
100
AcDbCircle
 10
210.5604309567137
 20
369.2199387138093
 30
0.0
 40
4.0
100
AcDbArc
 50
184.9999999999998
 51
270.0
  0
ARC
  5
196
330
1A
100
AcDbEntity
  8
0
100
AcDbCircle
 10
214.7805524448115
 20
369.2199387138093
 30
0.0
 40
4.0
100
AcDbArc
 50
270.0
 51
355.0000000000002
  0
ARC
  5
199
330
1A
100
AcDbEntity
  8
0
100
AcDbCircle
 10
245.2805524448114
 20
369.2199387138093
 30
0.0
 40
4.0
100
AcDbArc
 50
270.0
 51
355.0000000000002
  0
LINE
  5
19A
330
1A
100
AcDbEntity
  8
0
100
AcDbLine
 10
245.2805524448114
 20
365.2199387138093
 30
0.0
 11
241.0604309567137
 21
365.2199387138093
 31
0.0
  0
ARC
  5
19B
330
1A
100
AcDbEntity
  8
0
100
AcDbCircle
 10
241.0604309567137
 20
369.2199387138093
 30
0.0
 40
4.0
100
AcDbArc
 50
184.9999999999998
 51
270.0
  0
LINE
  5
19C
330
1A
100
AcDbEntity
  8
0
100
AcDbLine
 10
234.4204917007626
 20
399.2199387138093
 30
0.0
 11
237.0756521643467
 21
368.8713157428186
 31
0.0
  0
LINE
  5
19D
330
1A
100
AcDbEntity
  8
0
100
AcDbLine
 10
251.9204917007626
 20
399.2199387138093
 30
0.0
 11
249.2653312371784
 21
368.8713157428186
 31
0.0
  0
ARC
  5
19E
330
1A
100
AcDbEntity
  8
0
100
AcDbCircle
 10
179.0506222425285
 20
368.2199387138093
 30
0.0
 40
4.0
100
AcDbArc
 50
182.9999999999991
 51
270.0
  0
ARC
  5
19F
330
1A
100
AcDbEntity
  8
0
100
AcDbCircle
 10
184.1930637812855
 20
368.2199387138093
 30
0.0
 40
4.0
100
AcDbArc
 50
270.0
 51
355.0000000000002
  0
LINE
  5
1A3
330
1A
100
AcDbEntity
  8
0
100
AcDbLine
 10
258.4204917007626
 20
364.2199387138092
 30
0.0
 11
337.7903611589966
 21
364.2199387138092
 31
0.0
  0
LINE
  5
1A4
330
1A
100
AcDbEntity
  8
0
100
AcDbLine
 10
312.9204917007626
 20
399.2199387138093
 30
0.0
 11
310.2653312371784
 21
368.8713157428186
 31
0.0
  0
ARC
  5
1A5
330
1A
100
AcDbEntity
  8
0
100
AcDbCircle
 10
337.7903611589966
 20
368.2199387138092
 30
0.0
 40
4.0
100
AcDbArc
 50
270.0
 51
357.0000000000009
  0
LINE
  5
1A6
330
1A
100
AcDbEntity
  8
0
100
AcDbLine
 10
343.4204917007626
 20
399.2199387138093
 30
0.0
 11
341.7848792980149
 21
368.0105948888375
 31
0.0
  0
LINE
  5
1A7
330
1A
100
AcDbEntity
  8
0
100
AcDbLine
 10
325.9204917007626
 20
399.2199387138093
 30
0.0
 11
328.6631408278727
 21
367.8713157428187
 31
0.0
  0
ARC
  5
1A8
330
1A
100
AcDbEntity
  8
0
100
AcDbCircle
 10
332.6479196202396
 20
368.2199387138092
 30
0.0
 40
4.0
100
AcDbArc
 50
184.9999999999998
 51
270.0
  0
LINE
  5
1A9
330
1A
100
AcDbEntity
  8
0
100
AcDbLine
 10
295.4204917007626
 20
399.2199387138093
 30
0.0
 11
298.0756521643467
 21
368.8713157428186
 31
0.0
  0
ARC
  5
1AA
330
1A
100
AcDbEntity
  8
0
100
AcDbCircle
 10
302.0604309567137
 20
369.2199387138093
 30
0.0
 40
4.0
100
AcDbArc
 50
184.9999999999998
 51
270.0
  0
ARC
  5
1AB
330
1A
100
AcDbEntity
  8
0
100
AcDbCircle
 10
306.2805524448115
 20
369.2199387138093
 30
0.0
 40
4.0
100
AcDbArc
 50
270.0
 51
355.0000000000002
  0
LINE
  5
1AC
330
1A
100
AcDbEntity
  8
0
100
AcDbLine
 10
302.0604309567136
 20
365.2199387138093
 30
0.0
 11
306.2805524448114
 21
365.2199387138093
 31
0.0
  0
LINE
  5
1AD
330
1A
100
AcDbEntity
  8
0
100
AcDbLine
 10
264.9204917007626
 20
399.2199387138093
 30
0.0
 11
267.5756521643467
 21
368.8713157428186
 31
0.0
  0
LINE
  5
1AE
330
1A
100
AcDbEntity
  8
0
100
AcDbLine
 10
282.4204917007626
 20
399.2199387138093
 30
0.0
 11
279.7653312371784
 21
368.8713157428186
 31
0.0
  0
LINE
  5
1AF
330
1A
100
AcDbEntity
  8
0
100
AcDbLine
 10
271.5604309567137
 20
365.2199387138093
 30
0.0
 11
275.7805524448114
 21
365.2199387138093
 31
0.0
  0
ARC
  5
1B0
330
1A
100
AcDbEntity
  8
0
100
AcDbCircle
 10
275.7805524448114
 20
369.2199387138093
 30
0.0
 40
4.0
100
AcDbArc
 50
270.0
 51
355.0000000000002
  0
ARC
  5
1B1
330
1A
100
AcDbEntity
  8
0
100
AcDbCircle
 10
271.5604309567137
 20
369.2199387138093
 30
0.0
 40
4.0
100
AcDbArc
 50
184.9999999999998
 51
270.0
  0
HATCH
  5
1D8
330
1A
100
AcDbEntity
  8
8
100
AcDbHatch
 10
0.0
 20
0.0
 30
0.0
210
0.0
220
0.0
230
1.0
  2
ANSI31
 70
     0
 71
     0
 91
        6
 92
        7
 72
     1
 73
     1
 93
        6
 10
328.6631408278727
 20
367.8713157428187
 42
0.3888787318529906
 10
332.6479196202396
 20
364.2199387138092
 42
0.0
 10
337.7903611589966
 20
364.2199387138092
 42
0.3989595459737225
 10
341.7848792980149
 20
368.0105948888374
 42
0.0
 10
343.4204917007626
 20
399.2199387138093
 42
0.0
 10
325.9204917007626
 20
399.2199387138093
 42
0.0
 97
        0
 92
        7
 72
     1
 73
     1
 93
        6
 10
312.9204917007626
 20
399.2199387138093
 42
0.0
 10
295.4204917007626
 20
399.2199387138093
 42
0.0
 10
298.0756521643467
 20
368.8713157428186
 42
0.3888787318529896
 10
302.0604309567137
 20
365.2199387138093
 42
0.0
 10
306.2805524448114
 20
365.2199387138093
 42
0.3888787318529878
 10
310.2653312371784
 20
368.8713157428186
 42
0.0
 97
        0
 92
        7
 72
     1
 73
     1
 93
        6
 10
282.4204917007626
 20
399.2199387138093
 42
0.0
 10
264.9204917007626
 20
399.2199387138093
 42
0.0
 10
267.5756521643467
 20
368.8713157428186
 42
0.3888787318529896
 10
271.5604309567137
 20
365.2199387138093
 42
0.0
 10
275.7805524448114
 20
365.2199387138093
 42
0.3888787318529898
 10
279.7653312371784
 20
368.8713157428186
 42
0.0
 97
        0
 92
        7
 72
     1
 73
     1
 93
        6
 10
237.0756521643467
 20
368.8713157428186
 42
0.3888787318529907
 10
241.0604309567137
 20
365.2199387138093
 42
0.0
 10
245.2805524448114
 20
365.2199387138093
 42
0.3888787318529896
 10
249.2653312371784
 20
368.8713157428186
 42
0.0
 10
251.9204917007626
 20
399.2199387138093
 42
0.0
 10
234.4204917007626
 20
399.2199387138093
 42
0.0
 97
        0
 92
        7
 72
     1
 73
     1
 93
        6
 10
221.4204917007626
 20
399.2199387138093
 42
0.0
 10
203.9204917007626
 20
399.2199387138093
 42
0.0
 10
206.5756521643467
 20
368.8713157428186
 42
0.3888787318529896
 10
210.5604309567137
 20
365.2199387138093
 42
0.0
 10
214.7805524448114
 20
365.2199387138093
 42
0.3888787318529876
 10
218.7653312371784
 20
368.8713157428186
 42
0.0
 97
        0
 92
        7
 72
     1
 73
     1
 93
        6
 10
190.9204917007626
 20
399.2199387138093
 42
0.0
 10
173.4204917007625
 20
399.2199387138093
 42
0.0
 10
175.0561041035102
 20
368.0105948888376
 42
0.3989595459737195
 10
179.0506222425285
 20
364.2199387138093
 42
0.0
 10
184.1930637812855
 20
364.2199387138093
 42
0.3888787318529896
 10
188.1778425736525
 20
367.8713157428187
 42
0.0
 97
        0
 75
     0
 76
     1
 52
-90.00000000000001
 41
1.0
 77
     0
 78
     1
 53
315.0
 43
173.4204917007625
 44
288.9818417904111
 45
2.245064030267288
 46
2.245064030267287
 79
     0
 47
0.3332794630270903
 98
        6
 10
330.6953505007016
 20
374.5439786243907
 10
304.699552075695
 20
382.5481789777522
 10
277.0373568181991
 20
378.2125702315351
 10
243.0428516776911
 20
377.545553092462
 10
214.3808176808509
 20
378.879587370608
 10
183.3858271587493
 20
378.5460788010716
  0
INSERT
  5
5CF
330
1A
100
AcDbEntity
  8
8
100
AcDbBlockReference
  2
SB_ACO_P_10
 10
218.3801710386016
 20
260.7746508268566
 30
0.0
 41
0.7999999999999972
 42
0.7999999999999972
 43
0.8
  0
ARC
  5
5D0
330
1A
100
AcDbEntity
  8
0
100
AcDbCircle
 10
340.9204917007625
 20
270.4304730408024
 30
0.0
 40
2.5
100
AcDbArc
 50
0.0
 51
90.0
  0
ARC
  5
5D1
330
1A
100
AcDbEntity
  8
0
100
AcDbCircle
 10
340.9204917007625
 20
105.4304730408024
 30
0.0
 40
2.5
100
AcDbArc
 50
270.0
 51
0.0
  0
ARC
  5
5D2
330
1A
100
AcDbEntity
  8
0
100
AcDbCircle
 10
175.9204917007625
 20
105.4304730408025
 30
0.0
 40
2.5
100
AcDbArc
 50
180.0
 51
270.0
  0
ARC
  5
5D3
330
1A
100
AcDbEntity
  8
0
100
AcDbCircle
 10
175.9204917007625
 20
270.4304730408024
 30
0.0
 40
2.5
100
AcDbArc
 50
90.0
 51
180.0
  0
DIMENSION
  5
7B3
330
1A
100
AcDbEntity
  8
5
100
AcDbDimension
  2
*D4
 10
158.7318073434388
 20
120.4304730408025
 30
0.0
 11
156.3818073434387
 21
187.9304730408025
 31
0.0
 70
    32
 71
     5
 42
135.0
  3
GEN-ISO
100
AcDbAlignedDimension
 13
197.4204917007625
 23
255.4304730408025
 33
0.0
 14
197.4204917007625
 24
120.4304730408025
 34
0.0
 50
270.0
100
AcDbRotatedDimension
  0
TEXT
  5
873
330
1A
100
AcDbEntity
  8
6
100
AcDbText
 10
97.93550490754242
 20
257.1974318904779
 30
0.0
 40
3.5
  1

 72
     2
 11
97.93550490754242
 21
258.9474318904779
 31
0.0
100
AcDbText
 73
     2
1001
GENIUS_GENHINW_13
1000
LEADERHANDLE
1005
86C
1001
GENIUS_FIRSTVISTXT_14
1070
     1
1001
GENIUS_GENOREF_13
1005
876
  0
POINT
  5
876
330
1A
100
AcDbEntity
  8
0
 60
     1
100
AcDbPoint
 10
0.0
 20
0.0
 30
0.0
1001
GENIUS_GENOBJ-N-LEADER_13
1002
{
1000
OWNER
1000
GEN
1002
}
1001
GENIUS_GENOENT_13
1002
{
1000
MYREF
1005
876
1002
}
1002
{
1000
GRP
1005
0
1002
}
1001
GENIUS_GENOLIS_13
1002
{
1000
ENT
1005
873
1005
86C
1002
}
1001
GENIUS_GENODEF_13
1002
{
1000
HIER
1070
   100
1002
}
1002
{
1000
MANEDIT
1070
     1
1002
}
1002
{
1000
NOSEL
1070
     0
1002
}
1002
{
1000
BEHIND
1070
     0
1002
}
1002
{
1000
REACTOR
1002
}
  0
DIMENSION
  5
8E2
330
1A
100
AcDbEntity
  8
5
100
AcDbDimension
  2
*D5
 10
161.9007704829799
 20
364.2199387138093
 30
0.0
 11
159.5507704829799
 21
381.7199387138094
 31
0.0
 70
    32
 71
     5
 42
35.0
  3
GEN-ISO
100
AcDbAlignedDimension
 13
173.4204917007625
 23
399.2199387138093
 33
0.0
 14
179.0506222425285
 24
364.2199387138093
 34
0.0
 50
270.0
100
AcDbRotatedDimension
  0
LINE
  5
923
330
1A
100
AcDbEntity
  8
0
100
AcDbLine
 10
173.4204917007625
 20
399.2199387138093
 30
0.0
 11
175.0561041035102
 21
368.0105948888376
 31
0.0
  0
DIMENSION
  5
9DD
330
1A
100
AcDbEntity
  8
5
100
AcDbDimension
  2
*D6
 10
264.9204917007626
 20
414.6488037313695
 30
0.0
 11
258.4204917007626
 21
416.9988037313696
 31
0.0
 70
    32
 71
     5
 42
13.0
  3
GEN-ISO
100
AcDbAlignedDimension
 13
251.9204917007626
 23
399.2199387138093
 33
0.0
 14
264.9204917007626
 24
399.2199387138093
 34
0.0
100
AcDbRotatedDimension
  0
DIMENSION
  5
A01
330
1A
100
AcDbEntity
  8
5
100
AcDbDimension
  2
*D7
 10
282.4204917007626
 20
414.6488037313695
 30
0.0
 11
273.6704917007626
 21
416.9988037313696
 31
0.0
 70
    32
 71
     5
 42
17.5
  3
GEN-ISO
100
AcDbAlignedDimension
 13
264.9204917007626
 23
399.2199387138093
 33
0.0
 14
282.4204917007626
 24
399.2199387138093
 34
0.0
100
AcDbRotatedDimension
1001
ACAD
1000
DSTYLE
1002
{
1070
    75
1070
     1
1070
   279
1070
     1
1002
}
  0
TEXT
  5
AC3
330
1A
100
AcDbEntity
  8
6
100
AcDbText
 10
173.1222678724331
 20
23.83778691339204
 30
0.0
 40
3.023212499999999
  1

100
AcDbText
  0
TEXT
  5
AC4
330
1A
100
AcDbEntity
  8
6
100
AcDbText
 10
171.7397119412218
 20
18.88140818229596
 30
0.0
 40
2.159437499999999
  1

100
AcDbText
  0
TEXT
  5
AC5
330
1A
100
AcDbEntity
  8
6
100
AcDbText
 10
174.2350983689567
 20
15.04022575902738
 30
0.0
 40
2.159437499999999
  1

100
AcDbText
  0
TEXT
  5
AC9
330
1A
100
AcDbEntity
  8
6
100
AcDbText
 10
173.1222678724331
 20
31.55611995209716
 30
0.0
 40
3.023212499999999
  1

100
AcDbText
  0
DIMENSION
  5
D1F
330
1A
100
AcDbEntity
  8
5
100
AcDbDimension
  2
*D10
 10
343.4204917007625
 20
299.1604592066399
 30
0.0
 11
258.4204917007625
 21
301.5104592066399
 31
0.0
 70
    32
 71
     5
 42
170.0
  3
GEN-ISO$0
100
AcDbAlignedDimension
 13
173.4204917007625
 23
270.4304730408024
 33
0.0
 14
343.4204917007625
 24
270.4304730408024
 34
0.0
100
AcDbRotatedDimension
1001
ACAD
1000
DSTYLE
1002
{
1070
    74
1070
     1
1070
   172
1070
     0
1070
   288
1070
     1
1070
   289
1070
     0
1002
}
  0
DIMENSION
  5
D61
330
1A
100
AcDbEntity
  8
5
100
AcDbDimension
  2
*D11
 10
147.006004970747
 20
102.9304730408025
 30
0.0
 11
144.656004970747
 21
187.9304730408025
 31
0.0
 70
    32
 71
     5
 42
169.9999999999999
  3
GEN-ISO$0
100
AcDbAlignedDimension
 13
175.9204917007625
 23
272.9304730408024
 33
0.0
 14
175.9204917007625
 24
102.9304730408025
 34
0.0
 50
270.0
100
AcDbRotatedDimension
1001
ACAD
1000
DSTYLE
1002
{
1070
    74
1070
     1
1070
   172
1070
     0
1070
   288
1070
     1
1070
   289
1070
     0
1002
}
  0
VIEWPORT
  5
22
102
{ACAD_XDICTIONARY
360
DD4
102
}
330
17
100
AcDbEntity
 67
     1
  8
0
100
AcDbViewport
 10
261.5176991150442
 20
148.5
 30
0.0
 40
523.0353982300885
 41
297.0
 68
     1
 69
     1
 12
261.5176991150442
 22
148.5
 13
0.0
 23
0.0
 14
1.0
 24
1.0
 15
10.0
 25
10.0
 16
0.0
 26
0.0
 36
1.0
 17
0.0
 27
0.0
 37
0.0
 42
50.0
 43
0.0
 44
0.0
 45
297.0
 50
0.0
 51
0.0
 72
   100
 90
    32800
  1

281
     0
 71
     1
 74
     0
110
0.0
120
0.0
130
0.0
111
1.0
121
0.0
131
0.0
112
0.0
122
1.0
132
0.0
 79
     0
146
0.0
1001
GENIUS_GENSCREG_15
1000
PF
1040
1.0
1000
DF
1040
1.0
1000
MIN
1011
0.0
1021
0.0
1031
0.0
1000
MAX
1011
523.0353982300885
1021
297.0
1031
0.0
1000
FLAGS
1070
     4
1001
GENIUS_GENOBJ-N-SDF_13
1002
{
1000
OWNER
1000
GEN
1002
}
1001
GENIUS_GENODEF_13
1002
{
1000
HIER
1070
     0
1002
}
1002
{
1000
MANEDIT
1070
     0
1002
}
1002
{
1000
NOSEL
1070
     0
1002
}
1002
{
1000
BEHIND
1070
     0
1002
}
1002
{
1000
OTHER
1070
     0
1002
}
1002
{
1000
REACTOR
1002
}
  0
ENDSEC
  0
SECTION
  2
OBJECTS
  0
DICTIONARY
  5
C
330
0
100
AcDbDictionary
281
     1
  3
ACAD_COLOR
350
C1E
  3
ACAD_GROUP
350
D
  3
ACAD_LAYOUT
350
C21
  3
ACAD_MATERIAL
350
C1D
  3
ACAD_MLINESTYLE
350
E
  3
ACAD_PLOTSETTINGS
350
C22
  3
ACAD_PLOTSTYLENAME
350
C1B
  3
ACAD_TABLESTYLE
350
C1F
  3
ACDBHEADERROUNDTRIPXREC
350
DD3
  3
ACDBVARIABLEDICTIONARY
350
5D
  3
AcmDictionary
350
C7C
  3
AMG
350
C2D
  3
AMGSNAPSETTINGS
350
CFD
  0
DICTIONARY
  5
87
330
80
100
AcDbDictionary
280
     1
281
     1
  3
ACAD_LAYOUTSELFREF
360
88
  0
DICTIONARY
  5
DD6
330
81
100
AcDbDictionary
280
     1
281
     1
  3
ACAD_XREC_ROUNDTRIP
360
DD7
  0
DICTIONARY
  5
DD8
330
84
100
AcDbDictionary
280
     1
281
     1
  3
ACAD_XREC_ROUNDTRIP
360
DD9
  0
DICTIONARY
  5
DD4
330
22
100
AcDbDictionary
280
     1
281
     1
  3
ACAD_XREC_ROUNDTRIP
360
DD5
  0
DICTIONARY
  5
C1E
102
{ACAD_REACTORS
330
C
102
}
330
C
100
AcDbDictionary
281
     1
  0
DICTIONARY
  5
D
102
{ACAD_REACTORS
330
C
102
}
330
C
100
AcDbDictionary
281
     1
  0
DICTIONARY
  5
C21
102
{ACAD_REACTORS
330
C
102
}
330
C
100
AcDbDictionary
281
     1
  3
Layout1
350
C24
  3
Model
350
C23
  0
DICTIONARY
  5
C1D
102
{ACAD_REACTORS
330
C
102
}
330
C
100
AcDbDictionary
281
     1
  0
DICTIONARY
  5
E
102
{ACAD_REACTORS
330
C
102
}
330
C
100
AcDbDictionary
281
     1
  3
STANDARD
350
13
  0
DICTIONARY
  5
C22
102
{ACAD_REACTORS
330
C
102
}
330
C
100
AcDbDictionary
281
     1
  0
ACDBDICTIONARYWDFLT
  5
C1B
102
{ACAD_REACTORS
330
C
102
}
330
C
100
AcDbDictionary
281
     1
  3
Normal
350
C1C
100
AcDbDictionaryWithDefault
340
C1C
  0
DICTIONARY
  5
C1F
102
{ACAD_REACTORS
330
C
102
}
330
C
100
AcDbDictionary
281
     1
  3
Standard
350
C20
  0
DICTIONARY
  5
DD3
102
{ACAD_REACTORS
330
C
102
}
330
C
100
AcDbDictionary
281
     1
  0
DICTIONARY
  5
5D
102
{ACAD_REACTORS
330
C
102
}
330
C
100
AcDbDictionary
281
     1
  3
CTABLESTYLE
350
CFC
  3
DIMADEC
350
5E
  3
DIMASSOC
350
DD0
  3
PROJECTNAME
350
DD1
  3
SORTENTS
350
1B3
  0
DICTIONARY
  5
C7C
102
{ACAD_REACTORS
330
C
102
}
330
C
100
AcDbDictionary
281
     1
  3
AcmStdDictionary
350
C7D
  3
AMDTSECTSYM_ARROWCOLOR
350
D92
  0
DICTIONARY
  5
C2D
102
{ACAD_REACTORS
330
C
102
}
330
C
100
AcDbDictionary
281
     1
  0
DICTIONARY
  5
CFD
102
{ACAD_REACTORS
330
C
102
}
330
C
100
AcDbDictionary
281
     1
  0
XRECORD
  5
88
102
{ACAD_REACTORS
330
87
102
}
330
87
100
AcDbXrecord
280
     1
340
80
  0
XRECORD
  5
DD7
102
{ACAD_REACTORS
330
DD6
102
}
330
DD6
100
AcDbXrecord
280
     1
102
SHADEPLOT
 70
     0
  0
XRECORD
  5
DD9
102
{ACAD_REACTORS
330
DD8
102
}
330
DD8
100
AcDbXrecord
280
     1
102
SHADEPLOT
 70
     0
  0
XRECORD
  5
DD5
102
{ACAD_REACTORS
330
DD4
102
}
330
DD4
100
AcDbXrecord
280
     1
102
SHADEPLOT
 70
     0
  0
LAYOUT
  5
C24
102
{ACAD_XDICTIONARY
360
DDC
102
}
102
{ACAD_REACTORS
330
C21
102
}
330
C21
100
AcDbPlotSettings
  1

  2
\\RD-SR-210\PH-PR-011
  4

  6

 40
0.0
 41
0.0
 42
0.0
 43
0.0
 44
0.0
 45
0.0
 46
0.0
 47
0.0
 48
0.0
 49
0.0
140
0.0
141
0.0
142
1.0
143
1.0
 70
   688
 72
     0
 73
     0
 74
     5
  7

 75
    16
147
1.0
148
0.0
149
0.0
100
AcDbLayout
  1
Layout1
 70
     1
 71
     1
 10
0.0
 20
0.0
 11
420.0
 21
297.0
 12
0.0
 22
0.0
 32
0.0
 14
1.000000000000000E+20
 24
1.000000000000000E+20
 34
1.000000000000000E+20
 15
-1.000000000000000E+20
 25
-1.000000000000000E+20
 35
-1.000000000000000E+20
146
0.0
 13
0.0
 23
0.0
 33
0.0
 16
1.0
 26
0.0
 36
0.0
 17
0.0
 27
1.0
 37
0.0
 76
     0
330
17
331
22
  0
LAYOUT
  5
C23
102
{ACAD_XDICTIONARY
360
DDA
102
}
102
{ACAD_REACTORS
330
C21
102
}
330
C21
100
AcDbPlotSettings
  1

  2
\\RD-SR-210\PH-PR-011
  4

  6

 40
0.0
 41
0.0
 42
0.0
 43
0.0
 44
0.0
 45
0.0
 46
0.0
 47
0.0
 48
0.0
 49
0.0
140
0.0
141
0.0
142
1.0
143
1.0
 70
  1712
 72
     0
 73
     0
 74
     0
  7

 75
     0
147
1.0
148
0.0
149
0.0
100
AcDbLayout
  1
Model
 70
     1
 71
     0
 10
0.0
 20
0.0
 11
12.0
 21
9.0
 12
0.0
 22
0.0
 32
0.0
 14
0.0
 24
0.0
 34
0.0
 15
0.0
 25
0.0
 35
0.0
146
0.0
 13
0.0
 23
0.0
 33
0.0
 16
1.0
 26
0.0
 36
0.0
 17
0.0
 27
1.0
 37
0.0
 76
     0
330
1A
  0
MLINESTYLE
  5
13
102
{ACAD_REACTORS
330
E
102
}
330
E
100
AcDbMlineStyle
  2
STANDARD
 70
     0
  3

 62
     0
 51
90.0
 52
90.0
 71
     2
 49
0.5
 62
   256
  6
BYLAYER
 49
-0.5
 62
   256
  6
BYLAYER
  0
ACDBPLACEHOLDER
  5
C1C
102
{ACAD_REACTORS
330
C1B
102
}
330
C1B
  0
TABLESTYLE
  5
C20
102
{ACAD_REACTORS
330
C1F
102
}
330
C1F
100
AcDbTableStyle
  3
Standard
 70
     0
 71
     0
 40
1.5
 41
1.5
280
     0
281
     0
  7
STANDARD
140
4.5
170
     2
 62
     0
 63
     7
283
     0
274
    -2
284
     1
 64
     0
275
    -2
285
     1
 65
     0
276
    -2
286
     1
 66
     0
277
    -2
287
     1
 67
     0
278
    -2
288
     1
 68
     0
279
    -2
289
     1
 69
     0
  7
STANDARD
140
6.0
170
     5
 62
     0
 63
     7
283
     0
274
    -2
284
     1
 64
     0
275
    -2
285
     1
 65
     0
276
    -2
286
     1
 66
     0
277
    -2
287
     1
 67
     0
278
    -2
288
     1
 68
     0
279
    -2
289
     1
 69
     0
  7
STANDARD
140
4.5
170
     5
 62
     0
 63
     7
283
     0
274
    -2
284
     1
 64
     0
275
    -2
285
     1
 65
     0
276
    -2
286
     1
 66
     0
277
    -2
287
     1
 67
     0
278
    -2
288
     1
 68
     0
279
    -2
289
     1
 69
     0
  0
DICTIONARYVAR
  5
CFC
102
{ACAD_REACTORS
330
5D
102
}
330
5D
100
DictionaryVariables
280
     0
  1
STANDARD
  0
DICTIONARYVAR
  5
5E
102
{ACAD_REACTORS
330
5D
102
}
330
5D
100
DictionaryVariables
280
     0
  1
0
  0
DICTIONARYVAR
  5
DD0
102
{ACAD_REACTORS
330
5D
102
}
330
5D
100
DictionaryVariables
280
     0
  1
1
  0
DICTIONARYVAR
  5
DD1
102
{ACAD_REACTORS
330
5D
102
}
330
5D
100
DictionaryVariables
280
     0
  1

  0
DICTIONARYVAR
  5
1B3
102
{ACAD_REACTORS
330
5D
102
}
330
5D
100
DictionaryVariables
280
     0
  1
96
  0
DICTIONARY
  5
C7D
102
{ACAD_REACTORS
330
C7C
102
}
330
C7C
100
AcDbDictionary
281
     1
  0
XRECORD
  5
D92
102
{ACAD_REACTORS
330
C7C
102
}
330
C7C
100
AcDbXrecord
280
     1
 90
-1023410169
  0
DICTIONARY
  5
DDC
330
C24
100
AcDbDictionary
280
     1
281
     1
  3
ACAD_XREC_ROUNDTRIP
360
DDD
  0
DICTIONARY
  5
DDA
330
C23
100
AcDbDictionary
280
     1
281
     1
  3
ACAD_XREC_ROUNDTRIP
360
DDB
  0
XRECORD
  5
DDD
102
{ACAD_REACTORS
330
DDC
102
}
330
DDC
100
AcDbXrecord
280
     1
102
SHADEPLOT
 70
     0
102
SHADEPLOTRESLEVEL
 70
     2
102
SHADEPLOTCUSTOMDPI
 70
   300
  0
XRECORD
  5
DDB
102
{ACAD_REACTORS
330
DDA
102
}
330
DDA
100
AcDbXrecord
280
     1
102
SHADEPLOT
 70
     0
102
SHADEPLOTRESLEVEL
 70
     2
102
SHADEPLOTCUSTOMDPI
 70
   300
  0
ENDSEC
  0
EOF
