  0
SECTION
  2
HEADER
  9
$ACADVER
  1
AC1015
  9
$ACADMAINTVER
 70
    20
  9
$DWGCODEPAGE
  3
ANSI_1252
  9
$INSBASE
 10
0.0
 20
0.0
 30
0.0
  9
$EXTMIN
 10
74.58435165065395
 20
79.97827226898903
 30
-0.0000000000000058
  9
$EXTMAX
 10
361.3092050111264
 20
391.5889900594356
 30
0.0000000000000104
  9
$LIMMIN
 10
0.0
 20
0.0
  9
$LIMMAX
 10
420.0000000000001
 20
297.0
  9
$ORTHOMODE
 70
     1
  9
$REGENMODE
 70
     1
  9
$FILLMODE
 70
     1
  9
$QTEXTMODE
 70
     0
  9
$MIRRTEXT
 70
     0
  9
$LTSCALE
 40
1.0
  9
$ATTMODE
 70
     1
  9
$TEXTSIZE
 40
3.5
  9
$TRACEWID
 40
0.05
  9
$TEXTSTYLE
  7
STANDARD
  9
$CLAYER
  8
5
  9
$CELTYPE
  6
BYLAYER
  9
$CECOLOR
 62
   256
  9
$CELTSCALE
 40
1.0
  9
$DISPSILH
 70
     0
  9
$DIMSCALE
 40
1.0
  9
$DIMASZ
 40
2.5
  9
$DIMEXO
 40
1.0
  9
$DIMDLI
 40
7.0
  9
$DIMRND
 40
0.0
  9
$DIMDLE
 40
0.0
  9
$DIMEXE
 40
1.0
  9
$DIMTP
 40
0.1
  9
$DIMTM
 40
0.1
  9
$DIMTXT
 40
3.5
  9
$DIMCEN
 40
0.0
  9
$DIMTSZ
 40
0.0
  9
$DIMTOL
 70
     0
  9
$DIMLIM
 70
     0
  9
$DIMTIH
 70
     0
  9
$DIMTOH
 70
     0
  9
$DIMSE1
 70
     0
  9
$DIMSE2
 70
     0
  9
$DIMTAD
 70
     1
  9
$DIMZIN
 70
    12
  9
$DIMBLK
  1

  9
$DIMASO
 70
     1
  9
$DIMSHO
 70
     1
  9
$DIMPOST
  1

  9
$DIMAPOST
  1
"
  9
$DIMALT
 70
     0
  9
$DIMALTD
 70
     2
  9
$DIMALTF
 40
0.0393701
  9
$DIMLFAC
 40
1.0
  9
$DIMTOFL
 70
     1
  9
$DIMTVP
 40
0.0
  9
$DIMTIX
 70
     0
  9
$DIMSOXD
 70
     0
  9
$DIMSAH
 70
     0
  9
$DIMBLK1
  1

  9
$DIMBLK2
  1

  9
$DIMSTYLE
  2
GEN-ISO
  9
$DIMCLRD
 70
   256
  9
$DIMCLRE
 70
   256
  9
$DIMCLRT
 70
     2
  9
$DIMTFAC
 40
0.71
  9
$DIMGAP
 40
0.6
  9
$DIMJUST
 70
     0
  9
$DIMSD1
 70
     0
  9
$DIMSD2
 70
     0
  9
$DIMTOLJ
 70
     0
  9
$DIMTZIN
 70
     0
  9
$DIMALTZ
 70
     0
  9
$DIMALTTZ
 70
     0
  9
$DIMUPT
 70
     0
  9
$DIMDEC
 70
     2
  9
$DIMTDEC
 70
     3
  9
$DIMALTU
 70
     2
  9
$DIMALTTD
 70
     4
  9
$DIMTXSTY
  7
STANDARD
  9
$DIMAUNIT
 70
     0
  9
$DIMADEC
 70
     0
  9
$DIMALTRND
 40
0.0
  9
$DIMAZIN
 70
     0
  9
$DIMDSEP
 70
    46
  9
$DIMATFIT
 70
     3
  9
$DIMFRAC
 70
     0
  9
$DIMLDRBLK
  1

  9
$DIMLUNIT
 70
     2
  9
$DIMLWD
 70
    -2
  9
$DIMLWE
 70
    -2
  9
$DIMTMOVE
 70
     0
  9
$LUNITS
 70
     2
  9
$LUPREC
 70
     2
  9
$SKETCHINC
 40
0.1
  9
$FILLETRAD
 40
0.000001
  9
$AUNITS
 70
     0
  9
$AUPREC
 70
     2
  9
$MENU
  1
.
  9
$ELEVATION
 40
0.0
  9
$PELEVATION
 40
0.0
  9
$THICKNESS
 40
0.0
  9
$LIMCHECK
 70
     0
  9
$CHAMFERA
 40
2.5
  9
$CHAMFERB
 40
2.5
  9
$CHAMFERC
 40
0.0
  9
$CHAMFERD
 40
0.0
  9
$SKPOLY
 70
     0
  9
$TDCREATE
 40
2451617.567966343
  9
$TDUCREATE
 40
2451617.526299676
  9
$TDUPDATE
 40
2454088.800090370
  9
$TDUUPDATE
 40
2454088.758423704
  9
$TDINDWG
 40
0.0740955556
  9
$TDUSRTIMER
 40
0.0740955556
  9
$USRTIMER
 70
     1
  9
$ANGBASE
 50
0.0
  9
$ANGDIR
 70
     0
  9
$PDMODE
 70
     0
  9
$PDSIZE
 40
0.0
  9
$PLINEWID
 40
0.0
  9
$SPLFRAME
 70
     0
  9
$SPLINETYPE
 70
     6
  9
$SPLINESEGS
 70
     8
  9
$HANDSEED
  5
1CB9
  9
$SURFTAB1
 70
     6
  9
$SURFTAB2
 70
     6
  9
$SURFTYPE
 70
     6
  9
$SURFU
 70
     6
  9
$SURFV
 70
     6
  9
$UCSBASE
  2

  9
$UCSNAME
  2

  9
$UCSORG
 10
0.0
 20
0.0
 30
0.0
  9
$UCSXDIR
 10
1.0
 20
0.0
 30
0.0
  9
$UCSYDIR
 10
0.0
 20
1.0
 30
0.0
  9
$UCSORTHOREF
  2

  9
$UCSORTHOVIEW
 70
     0
  9
$UCSORGTOP
 10
0.0
 20
0.0
 30
0.0
  9
$UCSORGBOTTOM
 10
0.0
 20
0.0
 30
0.0
  9
$UCSORGLEFT
 10
0.0
 20
0.0
 30
0.0
  9
$UCSORGRIGHT
 10
0.0
 20
0.0
 30
0.0
  9
$UCSORGFRONT
 10
0.0
 20
0.0
 30
0.0
  9
$UCSORGBACK
 10
0.0
 20
0.0
 30
0.0
  9
$PUCSBASE
  2

  9
$PUCSNAME
  2

  9
$PUCSORG
 10
0.0
 20
0.0
 30
0.0
  9
$PUCSXDIR
 10
1.0
 20
0.0
 30
0.0
  9
$PUCSYDIR
 10
0.0
 20
1.0
 30
0.0
  9
$PUCSORTHOREF
  2

  9
$PUCSORTHOVIEW
 70
     0
  9
$PUCSORGTOP
 10
0.0
 20
0.0
 30
0.0
  9
$PUCSORGBOTTOM
 10
0.0
 20
0.0
 30
0.0
  9
$PUCSORGLEFT
 10
0.0
 20
0.0
 30
0.0
  9
$PUCSORGRIGHT
 10
0.0
 20
0.0
 30
0.0
  9
$PUCSORGFRONT
 10
0.0
 20
0.0
 30
0.0
  9
$PUCSORGBACK
 10
0.0
 20
0.0
 30
0.0
  9
$USERI1
 70
     0
  9
$USERI2
 70
     0
  9
$USERI3
 70
     0
  9
$USERI4
 70
     0
  9
$USERI5
 70
     0
  9
$USERR1
 40
0.0
  9
$USERR2
 40
0.0
  9
$USERR3
 40
0.0
  9
$USERR4
 40
0.0
  9
$USERR5
 40
0.0
  9
$WORLDVIEW
 70
     1
  9
$SHADEDGE
 70
     3
  9
$SHADEDIF
 70
    70
  9
$TILEMODE
 70
     1
  9
$MAXACTVP
 70
    48
  9
$PINSBASE
 10
0.0
 20
0.0
 30
0.0
  9
$PLIMCHECK
 70
     0
  9
$PEXTMIN
 10
1.000000000000000E+20
 20
1.000000000000000E+20
 30
1.000000000000000E+20
  9
$PEXTMAX
 10
-1.000000000000000E+20
 20
-1.000000000000000E+20
 30
-1.000000000000000E+20
  9
$PLIMMIN
 10
0.0
 20
0.0
  9
$PLIMMAX
 10
420.0
 20
297.001
  9
$UNITMODE
 70
     0
  9
$VISRETAIN
 70
     1
  9
$PLINEGEN
 70
     1
  9
$PSLTSCALE
 70
     0
  9
$TREEDEPTH
 70
 -3020
  9
$CMLSTYLE
  2
STANDARD
  9
$CMLJUST
 70
     0
  9
$CMLSCALE
 40
1.0
  9
$PROXYGRAPHICS
 70
     1
  9
$MEASUREMENT
 70
     1
  9
$CELWEIGHT
370
    -1
  9
$ENDCAPS
280
     0
  9
$JOINSTYLE
280
     0
  9
$LWDISPLAY
290
     0
  9
$INSUNITS
 70
     0
  9
$HYPERLINKBASE
  1

  9
$STYLESHEET
  1

  9
$XEDIT
290
     1
  9
$CEPSNTYPE
380
     0
  9
$PSTYLEMODE
290
     1
  9
$FINGERPRINTGUID
  2
{F771913B-FA6F-429C-8A99-C65D1CC6BB0D}
  9
$VERSIONGUID
  2
{159BE29C-757A-4EC7-8233-583C28AB37E8}
  9
$EXTNAMES
290
     1
  9
$PSVPSCALE
 40
0.0
  9
$OLESTARTUP
290
     0
  0
ENDSEC
  0
SECTION
  2
CLASSES
  0
CLASS
  1
ACDBDICTIONARYWDFLT
  2
AcDbDictionaryWithDefault
  3
ObjectDBX Classes
 90
        0
280
     0
281
     0
  0
CLASS
  1
TABLESTYLE
  2
AcDbTableStyle
  3
ObjectDBX Classes
 90
     2047
280
     0
281
     0
  0
CLASS
  1
ACME_DOCUMENT
  2
AcMeDbDoc
  3
AcMeServices
 90
        0
280
     0
281
     0
  0
CLASS
  1
AMGSETTINGSOBJ
  2
AmgSettingsObj
  3
"AcadM|Product Description: AutoCAD Mechanical 2000|Company: Autodesk"
 90
        0
280
     0
281
     0
  0
CLASS
  1
AMGOBJPROPCFG
  2
AmgObjPropCfg
  3
"AmgLay|Product Description: AutoCAD Mechanical 2000|Company: Autodesk"
 90
        1
280
     0
281
     0
  0
CLASS
  1
ACMESCOPE
  2
AcMeScope
  3
AcMeServices
 90
        0
280
     0
281
     0
  0
CLASS
  1
ACGREFMASTER
  2
AcGrefMaster
  3
AcAttribServices
 90
        0
280
     0
281
     0
  0
CLASS
  1
ACMECOMMANDHISTORY
  2
AcMeCommandHistory
  3
AcMeServices
 90
        0
280
     0
281
     0
  0
CLASS
  1
ACIMSYSVARMAN
  2
AcImSysVarManager
  3
AcMeServices
 90
        0
280
     0
281
     0
  0
CLASS
  1
ACIMINTSYSVAR
  2
AcImIntSysVar
  3
AcMeServices
 90
        0
280
     0
281
     0
  0
CLASS
  1
ACMEDRAWINGMAN
  2
AcMeDrawingMan
  3
AcMeServices
 90
        0
280
     0
281
     0
  0
CLASS
  1
ACMEVIEW
  2
AcMeView
  3
AcMeServices
 90
        0
280
     0
281
     0
  0
CLASS
  1
ACDBENTITYCACHE
  2
AcMeEntityCache
  3
AcMeServices
 90
        0
280
     0
281
     0
  0
CLASS
  1
GSMANAGER
  2
AcMeGSManager
  3
AcMeServices
 90
        0
280
     0
281
     0
  0
CLASS
  1
AMDTINTERNALREACTOR
  2
AmdtInternalReactor
  3
AcMeServices
 90
        0
280
     0
281
     0
  0
CLASS
  1
ACMESTATEMGR
  2
AcMeStateMgr
  3
AcMeServices
 90
        0
280
     0
281
     0
  0
CLASS
  1
AM_DRAWING_MGR
  2
AcDmDwgMgr
  3
AcMechDwgViewMgmt
 90
        0
280
     0
281
     0
  0
CLASS
  1
AM_DWG_DOCUMENT
  2
AcDmDwgDocument
  3
AcMechDwgViewMgmt
 90
        0
280
     0
281
     0
  0
CLASS
  1
AM_DWG_SHEET
  2
AcDmSheet
  3
AcMechDwgViewMgmt
 90
        0
280
     0
281
     0
  0
CLASS
  1
AM_VIEWDIMPARMAP
  2
AcDmViewDimParMap
  3
AcMechDwgViewMgmt
 90
        0
280
     0
281
     0
  0
CLASS
  1
ACIMREALSYSVAR
  2
AcImRealSysVar
  3
AcMeServices
 90
        0
280
     0
281
     0
  0
CLASS
  1
AM_DWGMGR_NAME
  2
AcDmDwgMgrName
  3
AcMechDwgViewMgmt
 90
        0
280
     0
281
     0
  0
CLASS
  1
ACME_DATABASE
  2
AcMeDbDatabase
  3
AcMeServices
 90
        0
280
     0
281
     0
  0
CLASS
  1
ACRFINSADJUSTERMGR
  2
AcRfInsAdjusterMgr
  3
AcMeServices
 90
        0
280
     0
281
     0
  0
CLASS
  1
ACGREFACADMASTER
  2
AcGrefacadMaster
  3
AcGrefServices
 90
        0
280
     0
281
     0
  0
CLASS
  1
AMDTMENUSTATEMGR
  2
AmdtMenuStateMgr
  3
McadcomServices
 90
        0
280
     0
281
     0
  0
CLASS
  1
AMDTMCOMMENUSTATE
  2
AmdtMcomMenuState
  3
McadcomServices
 90
        0
280
     0
281
     0
  0
CLASS
  1
AMIMASTER
  2
AmiMaster
  3
AmiServices
 90
        0
280
     0
281
     0
  0
CLASS
  1
MAPIAMMOUDLE
  2
MApiAmModule
  3
MApiAmServices
 90
        0
280
     0
281
     0
  0
CLASS
  1
ACMSTANDARDDIN
  2
AcmStandardDIN
  3
"Amdt_StdImp|Product Description: AutoCAD Mechanical 2004 DX|Company: Autodesk"
 90
        0
280
     0
281
     0
  0
CLASS
  1
AMDTEDGESTANDARDDIN13715
  2
AmdtEdgeStdDIN13715
  3
"Amdt_StdImp|Product Description: AutoCAD Mechanical 2004 DX|Company: Autodesk"
 90
        0
280
     0
281
     0
  0
CLASS
  1
ACMSURFSTANDARDDIN
  2
AcmSurfTextStdDIN
  3
"Amdt_StdImp|Product Description: AutoCAD Mechanical 2004 DX|Company: Autodesk"
 90
        0
280
     0
281
     0
  0
CLASS
  1
ACMFCFSTANDARDDIN
  2
AcmFCFStdDIN
  3
"Amdt_StdImp|Product Description: AutoCAD Mechanical 2004 DX|Company: Autodesk"
 90
        0
280
     0
281
     0
  0
CLASS
  1
ACMWELDSTANDARDDIN
  2
AcmWeldingStdDIN
  3
"Amdt_StdImp|Product Description: AutoCAD Mechanical 2004 DX|Company: Autodesk"
 90
        0
280
     0
281
     0
  0
CLASS
  1
ACMIDSTANDARDDIN
  2
AcmIdStdDIN
  3
"Amdt_StdImp|Product Description: AutoCAD Mechanical 2004 DX|Company: Autodesk"
 90
        0
280
     0
281
     0
  0
CLASS
  1
ACMDATUMSTANDARDDIN
  2
AcmDatumStdDIN
  3
"Amdt_StdImp|Product Description: AutoCAD Mechanical 2004 DX|Company: Autodesk"
 90
        0
280
     0
281
     0
  0
CLASS
  1
ACMBOMSTANDARDDIN
  2
AcmBOMStdDIN
  3
"Amdt_StdImp|Product Description: AutoCAD Mechanical 2004 DX|Company: Autodesk"
 90
        0
280
     0
281
     0
  0
CLASS
  1
ACMDETAILSTANDARDDIN
  2
AmdtDetailSymStdDIN
  3
"Amdt_StdImp|Product Description: AutoCAD Mechanical 2004 DX|Company: Autodesk"
 90
        0
280
     0
281
     0
  0
CLASS
  1
ACMSECTIONSTANDARDDIN
  2
AmdtSectionSymStdDIN
  3
"Amdt_StdImp|Product Description: AutoCAD Mechanical 2004 DX|Company: Autodesk"
 90
        0
280
     0
281
     0
  0
CLASS
  1
ACMCENTERLINESTANDARDDIN
  2
AmdtCenterLineStdDIN
  3
"Amdt_StdImp|Product Description: AutoCAD Mechanical 2004 DX|Company: Autodesk"
 90
        0
280
     0
281
     0
  0
CLASS
  1
ACMTHREADLINESTANDARDDIN
  2
AmdtThreadLineStdDIN
  3
"Amdt_StdImp|Product Description: AutoCAD Mechanical 2004 DX|Company: Autodesk"
 90
        0
280
     0
281
     0
  0
CLASS
  1
ACMNOTESTANDARDDIN
  2
AmdtNoteStdDIN
  3
"Amdt_StdImp|Product Description: AutoCAD Mechanical 2004 DX|Company: Autodesk"
 90
        0
280
     0
281
     0
  0
CLASS
  1
AMDTNOTETEMPLATEDB
  2
AmdtNoteTemplateDB
  3
AMDT_STDIMP_MODULE_NAME
 90
        0
280
     0
281
     0
  0
CLASS
  1
ACAMGLAYSTD
  2
AcAmgLayStd
  3
"AcAmgLayStd|Product Description: AutoCAD Mechanical 2000|Company: Autodesk"
 90
        0
280
     0
281
     0
  0
CLASS
  1
ACAMGDIMSTD
  2
AcAmgDimStd
  3
"AcAmgDimStd|Product Description: AutoCAD Mechanical 2000|Company: Autodesk"
 90
        0
280
     0
281
     0
  0
CLASS
  1
ACAMGHOLECHARTSTDDIN
  2
AcAmgHoleChartStdDIN
  3
ACMSYMBB_MODULE_NAME
 90
        0
280
     0
281
     0
  0
CLASS
  1
ACAMGTITLESTD
  2
AcAmgTitleStd
  3
"TITLEAPP"
 90
        0
280
     0
281
     0
  0
CLASS
  1
ACMSTANDARDISO
  2
AcmStandardISO
  3
"Amdt_StdImp|Product Description: AutoCAD Mechanical 2004 DX|Company: Autodesk"
 90
        0
280
     0
281
     0
  0
CLASS
  1
AMDTEDGESTANDARDISO
  2
AmdtEdgeStdISO
  3
"Amdt_StdImp|Product Description: AutoCAD Mechanical 2004 DX|Company: Autodesk"
 90
        0
280
     0
281
     0
  0
CLASS
  1
ACMSURFSTANDARDISO
  2
AcmSurfTextStdISO
  3
"Amdt_StdImp|Product Description: AutoCAD Mechanical 2004 DX|Company: Autodesk"
 90
        0
280
     0
281
     0
  0
CLASS
  1
ACMFCFSTANDARDISO
  2
AcmFCFStdISO
  3
"Amdt_StdImp|Product Description: AutoCAD Mechanical 2004 DX|Company: Autodesk"
 90
        0
280
     0
281
     0
  0
CLASS
  1
ACMWELDSTANDARDISO
  2
AcmWeldingStdISO
  3
"Amdt_StdImp|Product Description: AutoCAD Mechanical 2004 DX|Company: Autodesk"
 90
        0
280
     0
281
     0
  0
CLASS
  1
ACMIDSTANDARDISO
  2
AcmIdStdISO
  3
"Amdt_StdImp|Product Description: AutoCAD Mechanical 2004 DX|Company: Autodesk"
 90
        0
280
     0
281
     0
  0
CLASS
  1
ACMDATUMSTANDARDISO
  2
AcmDatumStdISO
  3
"Amdt_StdImp|Product Description: AutoCAD Mechanical 2004 DX|Company: Autodesk"
 90
        0
280
     0
281
     0
  0
CLASS
  1
ACMBOMSTANDARDISO
  2
AcmBOMStdISO
  3
"Amdt_StdImp|Product Description: AutoCAD Mechanical 2004 DX|Company: Autodesk"
 90
        0
280
     0
281
     0
  0
CLASS
  1
ACMDETAILSTANDARDISO
  2
AmdtDetailSymStdISO
  3
"Amdt_StdImp|Product Description: AutoCAD Mechanical 2004 DX|Company: Autodesk"
 90
        0
280
     0
281
     0
  0
CLASS
  1
ACMSECTIONSTANDARDISO
  2
AmdtSectionSymStdISO
  3
"Amdt_StdImp|Product Description: AutoCAD Mechanical 2004 DX|Company: Autodesk"
 90
        0
280
     0
281
     0
  0
CLASS
  1
ACMCENTERLINESTANDARDISO
  2
AmdtCenterLineStdISO
  3
"Amdt_StdImp|Product Description: AutoCAD Mechanical 2004 DX|Company: Autodesk"
 90
        0
280
     0
281
     0
  0
CLASS
  1
ACMNOTESTANDARDISO
  2
AmdtNoteStdISO
  3
"Amdt_StdImp|Product Description: AutoCAD Mechanical 2004 DX|Company: Autodesk"
 90
        0
280
     0
281
     0
  0
CLASS
  1
ACAMGHOLECHARTSTDISO
  2
AcAmgHoleChartStdISO
  3
ACMSYMBB_MODULE_NAME
 90
        0
280
     0
281
     0
  0
CLASS
  1
ACMTHREADLINESTANDARDISO
  2
AmdtThreadLineStdISO
  3
"Amdt_StdImp|Product Description: AutoCAD Mechanical 2004 DX|Company: Autodesk"
 90
        0
280
     0
281
     0
  0
CLASS
  1
ACIMSTRSYSVAR
  2
AcImStrSysVar
  3
AcMeServices
 90
        0
280
     0
281
     0
  0
CLASS
  1
AMDTADMENUSTATE
  2
AmdtAdMenuState
  3
DesignerServices
 90
        0
280
     0
281
     0
  0
CLASS
  1
ADAPPL
  2
AcAdAppl
  3
DesignerServices
 90
        0
280
     0
281
     0
  0
CLASS
  1
DEPMGR
  2
AcAdDepMgr
  3
DesignerServices
 90
        0
280
     0
281
     0
  0
CLASS
  1
PARAMMGR
  2
AcAdParamMgr
  3
DesignerServices
 90
        0
280
     0
281
     0
  0
CLASS
  1
PARAMSCOPE
  2
AcAdParamScope
  3
DesignerServices
 90
        0
280
     0
281
     0
  0
CLASS
  1
NAMEDAPPL
  2
AcAdNamedAppl
  3
DesignerServices
 90
        0
280
     0
281
     0
  0
CLASS
  1
AMDTDMMENUSTATE
  2
AmdtDmMenuState
  3
AcMechDwgViewMgmt
 90
        0
280
     0
281
     0
  0
CLASS
  1
AMDTAMMENUSTATE
  2
AmdtAmMenuState
  3
DesignerAssemblies
 90
        0
280
     0
281
     0
  0
CLASS
  1
ACAMPROJECT
  2
AcAmProject
  3
DesignerAssemblies
 90
        0
280
     0
281
     0
  0
CLASS
  1
ACAMGRCOMPDEF
  2
AcAmGrCompDef
  3
DesignerAssemblies
 90
        0
280
     0
281
     0
  0
CLASS
  1
ACCMCONTEXT
  2
AcCmContext
  3
DesignerAssemblies
 90
        0
280
     0
281
     0
  0
CLASS
  1
ACAMCOMPDEF
  2
AcAmCompDef
  3
DesignerAssemblies
 90
        0
280
     0
281
     0
  0
CLASS
  1
ACAMCOMPDEFMGR
  2
AcAmCompDefMgr
  3
DesignerAssemblies
 90
        0
280
     0
281
     0
  0
CLASS
  1
AMCONTEXTMGR
  2
AcAmContextMgr
  3
DesignerAssemblies
 90
        0
280
     0
281
     0
  0
CLASS
  1
ACAMCONTEXTMODELER
  2
AcAmContextModeler
  3
DesignerAssemblies
 90
        0
280
     0
281
     0
  0
CLASS
  1
ACMDATADICTIONARY
  2
AcmDataDictionary
  3
"AcmSymBB|Product Description: AutoCAD Mechanical 2004 DX|Company: Autodesk"
 90
        0
280
     0
281
     0
  0
CLASS
  1
CATALOGSTATE
  2
AcAmCatalogState
  3
DesignerAssemblies
 90
        0
280
     0
281
     0
  0
CLASS
  1
ACAMGRCOMPDEFSET
  2
AcAmGrCompDefSet
  3
DesignerAssemblies
 90
        0
280
     0
281
     0
  0
CLASS
  1
AMDTBROWSERDBTAB
  2
AmdtBrowserDbTab
  3
McadcomServices
 90
        0
280
     0
281
     0
  0
CLASS
  1
CBROWSERAPPOBJECT
  2
CBrowserAppObject
  3
McadcomServices
 90
        0
280
     0
281
     0
  0
CLASS
  1
DM_PLACEHOLDER
  2
AcDmSelsetPlaceholder
  3
AcMechDwgViewMgmt
 90
        0
280
     0
281
     0
  0
CLASS
  1
ACAMGFILTERDAT
  2
AcAmgFilterDat
  3
"AcadM|Product Description: AutoCAD Mechanical 2000|Company: Autodesk"
 90
        0
280
     0
281
     0
  0
CLASS
  1
DICTIONARYVAR
  2
AcDbDictionaryVar
  3
ObjectDBX Classes
 90
        0
280
     0
281
     0
  0
CLASS
  1
ACDBPLACEHOLDER
  2
AcDbPlaceHolder
  3
ObjectDBX Classes
 90
        0
280
     0
281
     0
  0
CLASS
  1
LAYOUT
  2
AcDbLayout
  3
ObjectDBX Classes
 90
        0
280
     0
281
     0
  0
ENDSEC
  0
SECTION
  2
TABLES
  0
TABLE
  2
VPORT
  5
155B
330
0
100
AcDbSymbolTable
 70
     4
  0
VPORT
  5
1CB1
330
155B
100
AcDbSymbolTableRecord
100
AcDbViewportTableRecord
  2
*Active
 70
     0
 10
0.0
 20
0.0
 11
1.0
 21
1.0
 12
217.9467783308902
 22
235.7836311642123
 13
0.0
 23
0.0
 14
1.0
 24
1.0
 15
10.0
 25
10.0
 16
0.0
 26
0.0
 36
1.0
 17
0.0
 27
0.0
 37
0.0
 40
313.8742339003045
 41
1.494545454545454
 42
50.0
 43
0.0
 44
0.0
 50
0.0
 51
0.0
 71
     0
 72
  1000
 73
     1
 74
     1
 75
     0
 76
     0
 77
     0
 78
     0
281
     0
 65
     1
110
0.0
120
0.0
130
0.0
111
1.0
121
0.0
131
0.0
112
0.0
122
1.0
132
0.0
 79
     0
146
0.0
  0
ENDTAB
  0
TABLE
  2
LTYPE
  5
1558
330
0
100
AcDbSymbolTable
 70
    23
  0
LTYPE
  5
1565
330
1558
100
AcDbSymbolTableRecord
100
AcDbLinetypeTableRecord
  2
BYBLOCK
 70
     0
  3

 72
    65
 73
     0
 40
0.0
  0
LTYPE
  5
1566
330
1558
100
AcDbSymbolTableRecord
100
AcDbLinetypeTableRecord
  2
BYLAYER
 70
     0
  3

 72
    65
 73
     0
 40
0.0
  0
LTYPE
  5
1567
330
1558
100
AcDbSymbolTableRecord
100
AcDbLinetypeTableRecord
  2
CONTINUOUS
 70
     0
  3
Solid line
 72
    65
 73
     0
 40
0.0
  0
LTYPE
  5
1576
330
1558
100
AcDbSymbolTableRecord
100
AcDbLinetypeTableRecord
  2
GEN7
 70
     0
  3
____ _ ____ _ ____ _ ____ _ ____ _ ____ _ ____ _ ____ _ ____ _
 72
    65
 73
     4
 40
22.0
 49
10.75
 74
     0
 49
-3.75
 74
     0
 49
3.75
 74
     0
 49
-3.75
 74
     0
  0
LTYPE
  5
1B67
330
1558
100
AcDbSymbolTableRecord
100
AcDbLinetypeTableRecord
  2
Amconstr
 70
     0
  3
_______________________
 72
    65
 73
     2
 40
9999.0
 49
9999.0
 74
     0
 49
0.0
 74
     0
  0
LTYPE
  5
1B6A
330
1558
100
AcDbSymbolTableRecord
100
AcDbLinetypeTableRecord
  2
Amzigzag
 70
     0
  3
/\/-/\/-/\/-/\/-/\/-/\/
 72
    65
 73
     2
 40
11.0001
 49
0.0001
 74
     4
 75
   136
340
1B6B
 46
0.04
 50
0.0
 44
0.0
 45
0.0
 49
-11.0
 74
     0
  0
LTYPE
  5
1B99
330
1558
100
AcDbSymbolTableRecord
100
AcDbLinetypeTableRecord
  2
HIDDEN
 70
     0
  3
Verdeckt
 72
    65
 73
     2
 40
9.525
 49
6.349999999999999
 74
     0
 49
-3.174999999999999
 74
     0
  0
LTYPE
  5
1B9A
330
1558
100
AcDbSymbolTableRecord
100
AcDbLinetypeTableRecord
  2
PHANTOM2
 70
     0
  3
Phantom (.5x) ___ _ _ ___ _ _ ___ _ _ ___ _ _
 72
    65
 73
     6
 40
31.75
 49
15.875
 74
     0
 49
-3.174999999999999
 74
     0
 49
3.174999999999999
 74
     0
 49
-3.174999999999999
 74
     0
 49
3.174999999999999
 74
     0
 49
-3.174999999999999
 74
     0
  0
LTYPE
  5
1B9B
330
1558
100
AcDbSymbolTableRecord
100
AcDbLinetypeTableRecord
  2
CENTER
 70
     0
  3
__ . __
 72
    65
 73
     4
 40
7.0
 49
4.0
 74
     0
 49
-1.0
 74
     0
 49
1.0
 74
     0
 49
-1.0
 74
     0
  0
LTYPE
  5
1BAE
330
1558
100
AcDbSymbolTableRecord
100
AcDbLinetypeTableRecord
  2
ACDINWELD
 70
     0
  3
_ _ _ _ _
 72
    65
 73
     2
 40
2.0
 49
2.0
 74
     0
 49
-1.0
 74
     0
  0
LTYPE
  5
1BB1
330
1558
100
AcDbSymbolTableRecord
100
AcDbLinetypeTableRecord
  2
ACDINTGB
 70
     0
  3
__ . . __ . .
 72
    65
 73
     6
 40
9.0
 49
4.0
 74
     0
 49
-1.0
 74
     0
 49
1.0
 74
     0
 49
-1.0
 74
     0
 49
1.0
 74
     0
 49
-1.0
 74
     0
  0
LTYPE
  5
1BB2
330
1558
100
AcDbSymbolTableRecord
100
AcDbLinetypeTableRecord
  2
ACDINTGL
 70
     0
  3
_ _ _ _ _
 72
    65
 73
     2
 40
3.0
 49
2.0
 74
     0
 49
-1.0
 74
     0
  0
LTYPE
  5
1BB6
330
1558
100
AcDbSymbolTableRecord
100
AcDbLinetypeTableRecord
  2
AM_ISO08W050
 70
     0
  3
____ . ____ . ____ . ____ . ____ . ____ . ____
 72
    65
 73
     4
 40
18.0
 49
12.0
 74
     0
 49
-1.5
 74
     0
 49
3.0
 74
     0
 49
-1.5
 74
     0
  0
LTYPE
  5
1BDE
330
1558
100
AcDbSymbolTableRecord
100
AcDbLinetypeTableRecord
  2
ACISOWELD
 70
     0
  3
_ _ _ _ _
 72
    65
 73
     2
 40
2.0
 49
2.0
 74
     0
 49
-1.0
 74
     0
  0
LTYPE
  5
1BE1
330
1558
100
AcDbSymbolTableRecord
100
AcDbLinetypeTableRecord
  2
ACISOTGB
 70
     0
  3
__ . . __ . .
 72
    65
 73
     6
 40
9.0
 49
4.0
 74
     0
 49
-1.0
 74
     0
 49
1.0
 74
     0
 49
-1.0
 74
     0
 49
1.0
 74
     0
 49
-1.0
 74
     0
  0
LTYPE
  5
1BE2
330
1558
100
AcDbSymbolTableRecord
100
AcDbLinetypeTableRecord
  2
ACISOTGL
 70
     0
  3
_ _ _ _ _
 72
    65
 73
     2
 40
3.0
 49
2.0
 74
     0
 49
-1.0
 74
     0
  0
LTYPE
  5
1BF0
330
1558
100
AcDbSymbolTableRecord
100
AcDbLinetypeTableRecord
  2
AM_ISO02W050
 70
     0
  3
__ __ __ __ __ __ __ __ __ __ __ __ __ __ __
 72
    65
 73
     2
 40
7.5
 49
6.0
 74
     0
 49
-1.5
 74
     0
  0
LTYPE
  5
1BF1
330
1558
100
AcDbSymbolTableRecord
100
AcDbLinetypeTableRecord
  2
AM_ISO09W050
 70
     0
  3
_____ . . _____ . . _____ . . ____ .. ____
 72
    65
 73
     6
 40
22.5
 49
12.0
 74
     0
 49
-1.5
 74
     0
 49
3.0
 74
     0
 49
-1.5
 74
     0
 49
3.0
 74
     0
 49
-1.5
 74
     0
  0
LTYPE
  5
1BF2
330
1558
100
AcDbSymbolTableRecord
100
AcDbLinetypeTableRecord
  2
AM_ISO08W050x2
 70
     0
  3
__ . __ . __ . __ . __ . __
 72
    65
 73
     4
 40
9.0
 49
6.0
 74
     0
 49
-0.75
 74
     0
 49
1.5
 74
     0
 49
-0.75
 74
     0
  0
LTYPE
  5
1BF3
330
1558
100
AcDbSymbolTableRecord
100
AcDbLinetypeTableRecord
  2
AM_ISO02W050x2
 70
     0
  3
 _ _ _ _ _ _ _ _ _ _ _ _
 72
    65
 73
     2
 40
3.75
 49
3.0
 74
     0
 49
-0.75
 74
     0
  0
LTYPE
  5
1C20
330
1558
100
AcDbSymbolTableRecord
100
AcDbLinetypeTableRecord
  2
gen3
 70
     0
  3
-- -- -- -- -- -- -- -- -- -- -- -- -- -- --
 72
    65
 73
     2
 40
6.25
 49
4.75
 74
     0
 49
-1.5
 74
     0
  0
LTYPE
  5
1C21
330
1558
100
AcDbSymbolTableRecord
100
AcDbLinetypeTableRecord
  2
gen3a
 70
     0
  3
 - - - - -
 72
    65
 73
     2
 40
3.125
 49
2.25
 74
     0
 49
-0.875
 74
     0
  0
LTYPE
  5
1C22
330
1558
100
AcDbSymbolTableRecord
100
AcDbLinetypeTableRecord
  2
gen7a
 70
     0
  3
__ . __ . __
 72
    65
 73
     4
 40
6.875
 49
4.75
 74
     0
 49
-0.875
 74
     0
 49
0.375
 74
     0
 49
-0.875
 74
     0
  0
LTYPE
  5
1C23
330
1558
100
AcDbSymbolTableRecord
100
AcDbLinetypeTableRecord
  2
gen4a
 70
     0
  3
_____ . . _____ . . _____ . . ____ .. ____
 72
    65
 73
     6
 40
16.25
 49
9.75
 74
     0
 49
-1.5
 74
     0
 49
1.0
 74
     0
 49
-1.5
 74
     0
 49
1.0
 74
     0
 49
-1.5
 74
     0
  0
LTYPE
  5
1C25
330
1558
100
AcDbSymbolTableRecord
100
AcDbLinetypeTableRecord
  2
genzigzag
 70
     0
  3
/\/-/\/-/\/-/\/-/\/-/\/
 72
    65
 73
     2
 40
12.0001
 49
0.0001
 74
     4
 75
   135
340
1B6B
 46
2.0
 50
0.0
 44
0.0
 45
0.0
 49
-12.0
 74
     0
  0
ENDTAB
  0
TABLE
  2
LAYER
  5
1555
330
0
100
AcDbSymbolTable
 70
     7
  0
LAYER
  5
1561
330
1555
100
AcDbSymbolTableRecord
100
AcDbLayerTableRecord
  2
0
 70
     0
 62
     7
  6
CONTINUOUS
370
    -3
390
1B46
  0
LAYER
  5
157C
330
1555
100
AcDbSymbolTableRecord
100
AcDbLayerTableRecord
  2
4
 70
     0
 62
     3
  6
CONTINUOUS
370
    -3
390
1B46
  0
LAYER
  5
157E
330
1555
100
AcDbSymbolTableRecord
100
AcDbLayerTableRecord
  2
5
 70
     0
 62
     3
  6
CONTINUOUS
370
    -3
390
1B46
  0
LAYER
  5
1580
330
1555
100
AcDbSymbolTableRecord
100
AcDbLayerTableRecord
  2
7
 70
     0
 62
     4
  6
GEN7
370
    -3
390
1B46
  0
LAYER
  5
1581
330
1555
100
AcDbSymbolTableRecord
100
AcDbLayerTableRecord
  2
8
 70
     0
 62
     1
  6
CONTINUOUS
370
    -3
390
1B46
  0
LAYER
  5
1586
330
1555
100
AcDbSymbolTableRecord
100
AcDbLayerTableRecord
  2
SCHRAFFUR_RAND
 70
     0
 62
    -1
  6
CONTINUOUS
370
    -3
390
1B46
  0
LAYER
  5
16A6
330
1555
100
AcDbSymbolTableRecord
100
AcDbLayerTableRecord
  2
DEFPOINTS
 70
     0
 62
     7
  6
CONTINUOUS
290
     0
370
    -3
390
1B46
  0
ENDTAB
  0
TABLE
  2
STYLE
  5
1556
330
0
100
AcDbSymbolTable
 70
     6
  0
STYLE
  5
1562
330
1556
100
AcDbSymbolTableRecord
100
AcDbTextStyleTableRecord
  2
STANDARD
 70
     0
 40
0.0
 41
1.0
 50
0.0
 71
     0
 42
3.5
  3
isocp.shx
  4

  0
STYLE
  5
1B6B
330
1556
100
AcDbSymbolTableRecord
100
AcDbTextStyleTableRecord
  2

 70
     1
 40
0.0
 41
1.0
 50
0.0
 71
     0
 42
2.5
  3
genltshp.shx
  4

  0
STYLE
  5
1BA8
330
1556
100
AcDbSymbolTableRecord
100
AcDbTextStyleTableRecord
  2
ACDINTS
 70
     0
 40
1.0
 41
1.0
 50
0.0
 71
     0
 42
2.5
  3
isocp.shx
  4

  0
STYLE
  5
1BAC
330
1556
100
AcDbSymbolTableRecord
100
AcDbTextStyleTableRecord
  2
ACDINGDT
 70
     0
 40
0.0
 41
1.0
 50
0.0
 71
     0
 42
2.5
  3
AMGDT
  4

  0
STYLE
  5
1BD8
330
1556
100
AcDbSymbolTableRecord
100
AcDbTextStyleTableRecord
  2
ACISOTS
 70
     0
 40
1.0
 41
1.0
 50
0.0
 71
     0
 42
2.5
  3
isocp.shx
  4
bigfont.shx
  0
STYLE
  5
1BDC
330
1556
100
AcDbSymbolTableRecord
100
AcDbTextStyleTableRecord
  2
ACISOGDT
 70
     0
 40
0.0
 41
1.0
 50
0.0
 71
     0
 42
2.5
  3
AMGDT
  4
bigfont.shx
  0
ENDTAB
  0
TABLE
  2
VIEW
  5
1559
330
0
100
AcDbSymbolTable
 70
     6
  0
VIEW
  5
1612
330
1559
100
AcDbSymbolTableRecord
100
AcDbViewTableRecord
  2
GEN1
 70
     0
 40
148.5
 10
137.2034711964549
 20
222.75
 41
274.4069423929099
 11
0.0
 21
0.0
 31
1.0
 12
0.0
 22
0.0
 32
0.0
 42
50.0
 43
0.0
 44
0.0
 50
0.0
 71
     0
281
     0
 72
     0
  0
VIEW
  5
1613
330
1559
100
AcDbSymbolTableRecord
100
AcDbViewTableRecord
  2
GEN2
 70
     0
 40
148.5
 10
282.7965288035451
 20
222.75
 41
274.4069423929099
 11
0.0
 21
0.0
 31
1.0
 12
0.0
 22
0.0
 32
0.0
 42
50.0
 43
0.0
 44
0.0
 50
0.0
 71
     0
281
     0
 72
     0
  0
VIEW
  5
1614
330
1559
100
AcDbSymbolTableRecord
100
AcDbViewTableRecord
  2
GEN3
 70
     0
 40
148.5
 10
137.2034711964549
 20
74.25
 41
274.4069423929099
 11
0.0
 21
0.0
 31
1.0
 12
0.0
 22
0.0
 32
0.0
 42
50.0
 43
0.0
 44
0.0
 50
0.0
 71
     0
281
     0
 72
     0
  0
VIEW
  5
1615
330
1559
100
AcDbSymbolTableRecord
100
AcDbViewTableRecord
  2
GEN4
 70
     0
 40
148.5
 10
282.7965288035451
 20
74.25
 41
274.4069423929099
 11
0.0
 21
0.0
 31
1.0
 12
0.0
 22
0.0
 32
0.0
 42
50.0
 43
0.0
 44
0.0
 50
0.0
 71
     0
281
     0
 72
     0
  0
VIEW
  5
1616
330
1559
100
AcDbSymbolTableRecord
100
AcDbViewTableRecord
  2
GEN5
 70
     0
 40
148.5
 10
210.0
 20
148.5
 41
274.4069423929099
 11
0.0
 21
0.0
 31
1.0
 12
0.0
 22
0.0
 32
0.0
 42
50.0
 43
0.0
 44
0.0
 50
0.0
 71
     0
281
     0
 72
     0
  0
VIEW
  5
1617
330
1559
100
AcDbSymbolTableRecord
100
AcDbViewTableRecord
  2
GEN6
 70
     0
 40
296.99703
 10
210.0
 20
148.5
 41
548.808396646972
 11
0.0
 21
0.0
 31
1.0
 12
0.0
 22
0.0
 32
0.0
 42
50.0
 43
0.0
 44
0.0
 50
0.0
 71
     0
281
     0
 72
     0
  0
ENDTAB
  0
TABLE
  2
UCS
  5
155A
330
0
100
AcDbSymbolTable
 70
     0
  0
ENDTAB
  0
TABLE
  2
APPID
  5
155C
330
0
100
AcDbSymbolTable
 70
    48
  0
APPID
  5
1563
330
155C
100
AcDbSymbolTableRecord
100
AcDbRegAppTableRecord
  2
ACAD
 70
     0
  0
APPID
  5
15B4
330
155C
100
AcDbSymbolTableRecord
100
AcDbRegAppTableRecord
  2
GENIUS_GENOENT_13
 70
     0
  0
APPID
  5
15B5
330
155C
100
AcDbSymbolTableRecord
100
AcDbRegAppTableRecord
  2
GENIUS_GENCFG_13
 70
     0
1001
GENIUS_GENCFG0_13
1000
GEN@INFO_POS@XLATE
1001
GENIUS_GENCFG1_13
1000
GEN@INFO_POS
1001
GENIUS_GENCFG2_13
1000
GEN@LAYER@DEFS
1001
GENIUS_GENCFG3_13
1000
GEN@LAYER@ENTSORT
1001
GENIUS_GENCFG4_13
1000
GEN
1001
GENIUS_GEVCFG0_13
1000
GEV
1001
GENIUS_GEFCFG0_13
1000
GEF
  0
APPID
  5
15B6
330
155C
100
AcDbSymbolTableRecord
100
AcDbRegAppTableRecord
  2
GENIUS_GENCFG0_13
 70
     0
1001
GENIUS_GENCFG_13
1071
969366607
1000
15B6
1000
GEN@INFO_POS@XLATE
1070
     7
1000
GenCfgObject
1000
GenCfgShort
1000
GenCfgReal
1000
GenCfgBool
1000
GenCfgString
1000
GenCfgDim
1000
GenCfgAttrInf
1000
INFOPOINTS
1070
     0
1002
{
1000
GENINF14
1070
     0
1002
{
1000
2GENINF
1070
     4
1000
2
1002
{
1002
}
1000
5GENINF
1070
     4
1000
5
1002
{
1002
}
1000
7GENINF
1070
     4
1000
7
1002
{
1002
}
1000
9GENINF
1070
     4
1000
9
1002
{
1002
}
1000
11GENINF
1070
     4
1000
11
1002
{
1002
}
1000
14GENINF
1070
     4
1000
14
1002
{
1002
}
1002
}
1000
GENINF13
1070
     0
1002
{
1000
2GENINF
1070
     4
1000
2
1002
{
1002
}
1000
3GENINF
1070
     4
1000
3
1002
{
1002
}
1000
4GENINF
1070
     4
1000
4
1002
{
1002
}
1000
5GENINF
1070
     4
1000
5
1002
{
1002
}
1000
6GENINF
1070
     4
1000
6
1002
{
1002
}
1000
7GENINF
1070
     4
1000
7
1002
{
1002
}
1000
8GENINF
1070
     4
1000
8
1002
{
1002
}
1000
9GENINF
1070
     4
1000
9
1002
{
1002
}
1000
10GENINF
1070
     4
1000
10
1002
{
1002
}
1000
11GENINF
1070
     4
1000
11
1002
{
1002
}
1000
12GENINF
1070
     4
1000
12
1002
{
1002
}
1000
13GENINF
1070
     4
1000
13
1002
{
1002
}
1000
14GENINF
1070
     4
1000
14
1002
{
1002
}
1000
15GENINF
1070
     4
1000
15
1002
{
1002
}
1000
16GENINF
1070
     4
1000
16
1002
{
1002
}
1000
17GENINF
1070
     4
1000
17
1002
{
1002
}
1000
18GENINF
1070
     4
1000
18
1002
{
1002
}
1000
19GENINF
1070
     4
1000
19
1002
{
1002
}
1000
20GENINF
1070
     4
1000
20
1002
{
1002
}
1000
21GENINF
1070
     4
1000
21
1002
{
1002
}
1000
22GENINF
1070
     4
1000
22
1002
{
1002
}
1000
23GENINF
1070
     4
1000
23
1002
{
1002
}
1000
24GENINF
1070
     4
1000
24
1002
{
1002
}
1000
0GENINF
1070
     4
1000
0
1002
{
1002
}
1002
}
1000
GENINFO
1070
     0
1002
{
1000
3GENINF
1070
     4
1000
3
1002
{
1002
}
1000
4GENINF
1070
     4
1000
4
1002
{
1002
}
1000
5GENINF
1070
     4
1000
5
1002
{
1002
}
1000
6GENINF
1070
     4
1000
6
1002
{
1002
}
1000
7GENINF
1070
     4
1000
7
1002
{
1002
}
1000
8GENINF
1070
     4
1000
8
1002
{
1002
}
1000
9GENINF
1070
     4
1000
9
1002
{
1002
}
1000
10GENINF
1070
     4
1000
10
1002
{
1002
}
1000
11GENINF
1070
     4
1000
11
1002
{
1002
}
1000
12GENINF
1070
     4
1000
12
1002
{
1002
}
1000
13GENINF
1070
     4
1000
13
1002
{
1002
}
1000
14GENINF
1070
     4
1000
14
1002
{
1002
}
1000
15GENINF
1070
     4
1000
15
1002
{
1002
}
1000
16GENINF
1070
     4
1000
16
1002
{
1002
}
1000
17GENINF
1070
     4
1000
17
1002
{
1002
}
1000
18GENINF
1070
     4
1000
18
1002
{
1002
}
1000
19GENINF
1070
     4
1000
19
1002
{
1002
}
1000
20GENINF
1070
     4
1000
20
1002
{
1002
}
1000
21GENINF
1070
     4
1000
21
1002
{
1002
}
1000
22GENINF
1070
     4
1000
22
1002
{
1002
}
1002
}
1000
DININFO
1070
     0
1002
{
1000
ST-NAME1
1070
     4
1000
5
1002
{
1002
}
1000
ST-NAME2
1070
     4
1000
6
1002
{
1002
}
1000
ST-NORM1
1070
     4
1000
7
1002
{
1002
}
1000
ST-NORM2
1070
     4
1000
8
1002
{
1002
}
1000
ST-MAT1
1070
     4
1000
9
1002
{
1002
}
1000
ST-MAT2
1070
     4
1000
10
1002
{
1002
}
1002
}
1002
}
1000
POS_NUMBERS
1070
     0
1002
{
1000
GENPOS14
1070
     0
1002
{
1000
1GENPOS
1070
     4
1000
1
1002
{
1002
}
1000
2GENPOS
1070
     4
1000
2
1002
{
1002
}
1000
5GENPOS
1070
     4
1000
5
1002
{
1002
}
1000
7GENPOS
1070
     4
1000
7
1002
{
1002
}
1000
9GENPOS
1070
     4
1000
9
1002
{
1002
}
1000
11GENPOS
1070
     4
1000
11
1002
{
1002
}
1000
14GENPOS
1070
     4
1000
14
1002
{
1002
}
1002
}
1000
GENPOS13
1070
     0
1002
{
1000
1GENPOS
1070
     4
1000
1
1002
{
1002
}
1000
2GENPOS
1070
     4
1000
2
1002
{
1002
}
1000
3GENPOS
1070
     4
1000
3
1002
{
1002
}
1000
4GENPOS
1070
     4
1000
4
1002
{
1002
}
1000
5GENPOS
1070
     4
1000
5
1002
{
1002
}
1000
6GENPOS
1070
     4
1000
6
1002
{
1002
}
1000
7GENPOS
1070
     4
1000
7
1002
{
1002
}
1000
8GENPOS
1070
     4
1000
8
1002
{
1002
}
1000
9GENPOS
1070
     4
1000
9
1002
{
1002
}
1000
10GENPOS
1070
     4
1000
10
1002
{
1002
}
1000
11GENPOS
1070
     4
1000
11
1002
{
1002
}
1000
12GENPOS
1070
     4
1000
12
1002
{
1002
}
1000
13GENPOS
1070
     4
1000
13
1002
{
1002
}
1000
14GENPOS
1070
     4
1000
14
1002
{
1002
}
1000
15GENPOS
1070
     4
1000
15
1002
{
1002
}
1000
16GENPOS
1070
     4
1000
16
1002
{
1002
}
1000
17GENPOS
1070
     4
1000
17
1002
{
1002
}
1000
18GENPOS
1070
     4
1000
18
1002
{
1002
}
1000
19GENPOS
1070
     4
1000
19
1002
{
1002
}
1000
20GENPOS
1070
     4
1000
20
1002
{
1002
}
1000
21GENPOS
1070
     4
1000
21
1002
{
1002
}
1000
22GENPOS
1070
     4
1000
22
1002
{
1002
}
1000
23GENPOS
1070
     4
1000
23
1002
{
1002
}
1000
24GENPOS
1070
     4
1000
24
1002
{
1002
}
1000
0GENPOS
1070
     4
1000
0
1002
{
1002
}
1002
}
1000
GENPOS
1070
     0
1002
{
1000
1GENPOS
1070
     4
1000
1
1002
{
1002
}
1000
2GENPOS
1070
     4
1000
2
1002
{
1002
}
1000
3GENPOS
1070
     4
1000
3
1002
{
1002
}
1000
4GENPOS
1070
     4
1000
4
1002
{
1002
}
1000
5GENPOS
1070
     4
1000
5
1002
{
1002
}
1000
6GENPOS
1070
     4
1000
6
1002
{
1002
}
1000
7GENPOS
1070
     4
1000
7
1002
{
1002
}
1000
8GENPOS
1070
     4
1000
8
1002
{
1002
}
1000
9GENPOS
1070
     4
1000
9
1002
{
1002
}
1000
10GENPOS
1070
     4
1000
10
1002
{
1002
}
1000
11GENPOS
1070
     4
1000
11
1002
{
1002
}
1000
12GENPOS
1070
     4
1000
12
1002
{
1002
}
1000
13GENPOS
1070
     4
1000
13
1002
{
1002
}
1000
14GENPOS
1070
     4
1000
14
1002
{
1002
}
1000
15GENPOS
1070
     4
1000
15
1002
{
1002
}
1000
16GENPOS
1070
     4
1000
16
1002
{
1002
}
1000
17GENPOS
1070
     4
1000
17
1002
{
1002
}
1000
18GENPOS
1070
     4
1000
18
1002
{
1002
}
1000
19GENPOS
1070
     4
1000
19
1002
{
1002
}
1000
20GENPOS
1070
     4
1000
20
1002
{
1002
}
1000
21GENPOS
1070
     4
1000
21
1002
{
1002
}
1000
22GENPOS
1070
     4
1000
22
1002
{
1002
}
1000
23GENPOS
1070
     4
1000
23
1002
{
1002
}
1002
}
1000
DIN985
1070
     0
1002
{
1000
POSITION
1070
     4
1000
1
1002
{
1002
}
1000
MENGE
1070
     4
1000
2
1002
{
1002
}
1000
BLATT
1070
     4
1000
3
1002
{
1002
}
1000
BENENN
1070
     4
1000
5
1002
{
1002
}
1000
BENENN2
1070
     4
1000
6
1002
{
1002
}
1000
NORM
1070
     4
1000
7
1002
{
1002
}
1000
NORM2
1070
     4
1000
8
1002
{
1002
}
1000
WERKSTOFF
1070
     4
1000
9
1002
{
1002
}
1000
WERKSTOFF2
1070
     4
1000
10
1002
{
1002
}
1002
}
1000
DIN986
1070
     0
1002
{
1000
POSITION
1070
     4
1000
1
1002
{
1002
}
1000
MENGE
1070
     4
1000
2
1002
{
1002
}
1000
BLATT
1070
     4
1000
3
1002
{
1002
}
1000
BENENN
1070
     4
1000
5
1002
{
1002
}
1000
BENENN2
1070
     4
1000
6
1002
{
1002
}
1000
NORM
1070
     4
1000
7
1002
{
1002
}
1000
NORM2
1070
     4
1000
8
1002
{
1002
}
1000
WERKSTOFF
1070
     4
1000
9
1002
{
1002
}
1000
WERKSTOFF2
1070
     4
1000
10
1002
{
1002
}
1002
}
1000
DIN987
1070
     0
1002
{
1000
POSITION
1070
     4
1000
1
1002
{
1002
}
1000
MENGE
1070
     4
1000
2
1002
{
1002
}
1000
BLATT
1070
     4
1000
3
1002
{
1002
}
1000
BENENN
1070
     4
1000
5
1002
{
1002
}
1000
BENENN2
1070
     4
1000
6
1002
{
1002
}
1000
NORM
1070
     4
1000
7
1002
{
1002
}
1000
NORM2
1070
     4
1000
8
1002
{
1002
}
1000
WERKSTOFF
1070
     4
1000
9
1002
{
1002
}
1000
WERKSTOFF2
1070
     4
1000
10
1002
{
1002
}
1002
}
1002
}
  0
APPID
  5
15B7
330
155C
100
AcDbSymbolTableRecord
100
AcDbRegAppTableRecord
  2
GENIUS_GENCFG1_13
 70
     0
1001
GENIUS_GENCFG_13
1071
969366607
1000
15B7
1000
GEN@INFO_POS
1070
     7
1000
GenCfgObject
1000
GenCfgShort
1000
GenCfgReal
1000
GenCfgBool
1000
GenCfgString
1000
GenCfgDim
1000
GenCfgAttrInf
1000
DescrText
1070
     4
1000
5, ,6, ,7, ,8
1002
{
1002
}
1000
DescrText2
1070
     4
1000
26
1002
{
1002
}
1000
VisibleAttr1
1070
     4
1000
1
1002
{
1002
}
1000
VisibleAttr2
1070
     4
1000
26
1002
{
1002
}
1000
UpdateBlock
1070
     3
1070
     1
1002
{
1002
}
1000
Attrib
1070
     0
1002
{
1000
0
1070
     6
1002
{
1000
Prompt
1070
     4
1000
(genmsg gendwg 103)
1002
{
1002
}
1000
Value
1070
     4
1000

1002
{
1002
}
1000
EditFlag
1070
     1
1070
     0
1002
{
1002
}
1000
PosInDDATTE
1070
     1
1070
    27
1002
{
1002
}
1000
FieldLen
1070
     1
1070
    -1
1002
{
1002
}
1002
}
1000
1
1070
     6
1002
{
1000
Prompt
1070
     4
1000
(genmsg gendwg 31)
1002
{
1002
}
1000
Value
1070
     4
1000
1
1002
{
1002
}
1000
EditFlag
1070
     1
1070
     1
1002
{
1002
}
1000
PosInDDATTE
1070
     1
1070
     1
1002
{
1002
}
1000
FieldLen
1070
     1
1070
    -1
1002
{
1002
}
1002
}
1000
2
1070
     6
1002
{
1000
Prompt
1070
     4
1000
(genmsg gendwg 32)
1002
{
1002
}
1000
Value
1070
     4
1000
1
1002
{
1002
}
1000
EditFlag
1070
     1
1070
     1
1002
{
1002
}
1000
PosInDDATTE
1070
     1
1070
     2
1002
{
1002
}
1000
FieldLen
1070
     1
1070
    -1
1002
{
1002
}
1002
}
1000
3
1070
     6
1002
{
1000
Prompt
1070
     4
1000
(genmsg gendwg 33)
1002
{
1002
}
1000
Value
1070
     4
1000

1002
{
1002
}
1000
EditFlag
1070
     1
1070
     1
1002
{
1002
}
1000
PosInDDATTE
1070
     1
1070
     3
1002
{
1002
}
1000
FieldLen
1070
     1
1070
    -1
1002
{
1002
}
1002
}
1000
4
1070
     6
1002
{
1000
Prompt
1070
     4
1000
(genmsg gendwg 34)
1002
{
1002
}
1000
Value
1070
     4
1000

1002
{
1002
}
1000
EditFlag
1070
     1
1070
     1
1002
{
1002
}
1000
PosInDDATTE
1070
     1
1070
     4
1002
{
1002
}
1000
FieldLen
1070
     1
1070
    -1
1002
{
1002
}
1002
}
1000
5
1070
     6
1002
{
1000
Prompt
1070
     4
1000
(genmsg gendwg 35)
1002
{
1002
}
1000
Value
1070
     4
1000

1002
{
1002
}
1000
EditFlag
1070
     1
1070
     1
1002
{
1002
}
1000
PosInDDATTE
1070
     1
1070
     5
1002
{
1002
}
1000
FieldLen
1070
     1
1070
    -1
1002
{
1002
}
1002
}
1000
6
1070
     6
1002
{
1000
Prompt
1070
     4
1000
(genmsg gendwg 36)
1002
{
1002
}
1000
Value
1070
     4
1000

1002
{
1002
}
1000
EditFlag
1070
     1
1070
     1
1002
{
1002
}
1000
PosInDDATTE
1070
     1
1070
     6
1002
{
1002
}
1000
FieldLen
1070
     1
1070
    -1
1002
{
1002
}
1002
}
1000
7
1070
     6
1002
{
1000
Prompt
1070
     4
1000
(genmsg gendwg 37)
1002
{
1002
}
1000
Value
1070
     4
1000

1002
{
1002
}
1000
EditFlag
1070
     1
1070
     1
1002
{
1002
}
1000
PosInDDATTE
1070
     1
1070
     7
1002
{
1002
}
1000
FieldLen
1070
     1
1070
    -1
1002
{
1002
}
1002
}
1000
8
1070
     6
1002
{
1000
Prompt
1070
     4
1000
(genmsg gendwg 38)
1002
{
1002
}
1000
Value
1070
     4
1000

1002
{
1002
}
1000
EditFlag
1070
     1
1070
     1
1002
{
1002
}
1000
PosInDDATTE
1070
     1
1070
     8
1002
{
1002
}
1000
FieldLen
1070
     1
1070
    -1
1002
{
1002
}
1002
}
1000
9
1070
     6
1002
{
1000
Prompt
1070
     4
1000
(genmsg gendwg 39)
1002
{
1002
}
1000
Value
1070
     4
1000

1002
{
1002
}
1000
EditFlag
1070
     1
1070
     1
1002
{
1002
}
1000
PosInDDATTE
1070
     1
1070
     9
1002
{
1002
}
1000
FieldLen
1070
     1
1070
    -1
1002
{
1002
}
1002
}
1000
10
1070
     6
1002
{
1000
Prompt
1070
     4
1000
(genmsg gendwg 40)
1002
{
1002
}
1000
Value
1070
     4
1000

1002
{
1002
}
1000
EditFlag
1070
     1
1070
     1
1002
{
1002
}
1000
PosInDDATTE
1070
     1
1070
    10
1002
{
1002
}
1000
FieldLen
1070
     1
1070
    -1
1002
{
1002
}
1002
}
1000
11
1070
     6
1002
{
1000
Prompt
1070
     4
1000
(genmsg gendwg 41)
1002
{
1002
}
1000
Value
1070
     4
1000

1002
{
1002
}
1000
EditFlag
1070
     1
1070
     1
1002
{
1002
}
1000
PosInDDATTE
1070
     1
1070
    11
1002
{
1002
}
1000
FieldLen
1070
     1
1070
    -1
1002
{
1002
}
1002
}
1000
12
1070
     6
1002
{
1000
Prompt
1070
     4
1000
(genmsg gendwg 42)
1002
{
1002
}
1000
Value
1070
     4
1000

1002
{
1002
}
1000
EditFlag
1070
     1
1070
     1
1002
{
1002
}
1000
PosInDDATTE
1070
     1
1070
    12
1002
{
1002
}
1000
FieldLen
1070
     1
1070
    -1
1002
{
1002
}
1002
}
1000
13
1070
     6
1002
{
1000
Prompt
1070
     4
1000
(genmsg gendwg 43)
1002
{
1002
}
1000
Value
1070
     4
1000

1002
{
1002
}
1000
EditFlag
1070
     1
1070
     1
1002
{
1002
}
1000
PosInDDATTE
1070
     1
1070
    13
1002
{
1002
}
1000
FieldLen
1070
     1
1070
    -1
1002
{
1002
}
1002
}
1000
14
1070
     6
1002
{
1000
Prompt
1070
     4
1000
(genmsg gendwg 44)
1002
{
1002
}
1000
Value
1070
     4
1000

1002
{
1002
}
1000
EditFlag
1070
     1
1070
     1
1002
{
1002
}
1000
PosInDDATTE
1070
     1
1070
    14
1002
{
1002
}
1000
FieldLen
1070
     1
1070
    -1
1002
{
1002
}
1002
}
1000
15
1070
     6
1002
{
1000
Prompt
1070
     4
1000
(genmsg gendwg 45)
1002
{
1002
}
1000
Value
1070
     4
1000

1002
{
1002
}
1000
EditFlag
1070
     1
1070
     1
1002
{
1002
}
1000
PosInDDATTE
1070
     1
1070
    15
1002
{
1002
}
1000
FieldLen
1070
     1
1070
    -1
1002
{
1002
}
1002
}
1000
16
1070
     6
1002
{
1000
Prompt
1070
     4
1000
(genmsg gendwg 46)
1002
{
1002
}
1000
Value
1070
     4
1000

1002
{
1002
}
1000
EditFlag
1070
     1
1070
     1
1002
{
1002
}
1000
PosInDDATTE
1070
     1
1070
    16
1002
{
1002
}
1000
FieldLen
1070
     1
1070
    -1
1002
{
1002
}
1002
}
1000
17
1070
     6
1002
{
1000
Prompt
1070
     4
1000
(genmsg gendwg 47)
1002
{
1002
}
1000
Value
1070
     4
1000

1002
{
1002
}
1000
EditFlag
1070
     1
1070
     1
1002
{
1002
}
1000
PosInDDATTE
1070
     1
1070
    17
1002
{
1002
}
1000
FieldLen
1070
     1
1070
    -1
1002
{
1002
}
1002
}
1000
18
1070
     6
1002
{
1000
Prompt
1070
     4
1000
(genmsg gendwg 48)
1002
{
1002
}
1000
Value
1070
     4
1000

1002
{
1002
}
1000
EditFlag
1070
     1
1070
     1
1002
{
1002
}
1000
PosInDDATTE
1070
     1
1070
    18
1002
{
1002
}
1000
FieldLen
1070
     1
1070
    -1
1002
{
1002
}
1002
}
1000
19
1070
     6
1002
{
1000
Prompt
1070
     4
1000
(genmsg gendwg 99)
1002
{
1002
}
1000
Value
1070
     4
1000

1002
{
1002
}
1000
EditFlag
1070
     1
1070
     1
1002
{
1002
}
1000
PosInDDATTE
1070
     1
1070
    19
1002
{
1002
}
1000
FieldLen
1070
     1
1070
    -1
1002
{
1002
}
1002
}
1000
20
1070
     6
1002
{
1000
Prompt
1070
     4
1000
(genmsg gendwg 100)
1002
{
1002
}
1000
Value
1070
     4
1000

1002
{
1002
}
1000
EditFlag
1070
     1
1070
     1
1002
{
1002
}
1000
PosInDDATTE
1070
     1
1070
    20
1002
{
1002
}
1000
FieldLen
1070
     1
1070
    -1
1002
{
1002
}
1002
}
1000
21
1070
     6
1002
{
1000
Prompt
1070
     4
1000
(genmsg gendwg 101)
1002
{
1002
}
1000
Value
1070
     4
1000

1002
{
1002
}
1000
EditFlag
1070
     1
1070
     1
1002
{
1002
}
1000
PosInDDATTE
1070
     1
1070
    21
1002
{
1002
}
1000
FieldLen
1070
     1
1070
    -1
1002
{
1002
}
1002
}
1000
22
1070
     6
1002
{
1000
Prompt
1070
     4
1000
(genmsg gendwg 102)
1002
{
1002
}
1000
Value
1070
     4
1000

1002
{
1002
}
1000
EditFlag
1070
     1
1070
     1
1002
{
1002
}
1000
PosInDDATTE
1070
     1
1070
    22
1002
{
1002
}
1000
FieldLen
1070
     1
1070
    -1
1002
{
1002
}
1002
}
1000
23
1070
     6
1002
{
1000
Prompt
1070
     4
1000
(genmsg gendwg 30)
1002
{
1002
}
1000
Value
1070
     4
1000

1002
{
1002
}
1000
EditFlag
1070
     1
1070
     1
1002
{
1002
}
1000
PosInDDATTE
1070
     1
1070
    23
1002
{
1002
}
1000
FieldLen
1070
     1
1070
    -1
1002
{
1002
}
1002
}
1000
24
1070
     6
1002
{
1000
Prompt
1070
     4
1000
(genmsg gendwg 104)
1002
{
1002
}
1000
Value
1070
     4
1000

1002
{
1002
}
1000
EditFlag
1070
     1
1070
     1
1002
{
1002
}
1000
PosInDDATTE
1070
     1
1070
    24
1002
{
1002
}
1000
FieldLen
1070
     1
1070
    -1
1002
{
1002
}
1002
}
1000
25
1070
     6
1002
{
1000
Prompt
1070
     4
1000
(genmsg gendwg 105)
1002
{
1002
}
1000
Value
1070
     4
1000

1002
{
1002
}
1000
EditFlag
1070
     1
1070
     1
1002
{
1002
}
1000
PosInDDATTE
1070
     1
1070
    25
1002
{
1002
}
1000
FieldLen
1070
     1
1070
    -1
1002
{
1002
}
1002
}
1000
26
1070
     6
1002
{
1000
Prompt
1070
     4
1000
(genmsg gendwg 106)
1002
{
1002
}
1000
Value
1070
     4
1000

1002
{
1002
}
1000
EditFlag
1070
     1
1070
     1
1002
{
1002
}
1000
PosInDDATTE
1070
     1
1070
    26
1002
{
1002
}
1000
FieldLen
1070
     1
1070
    -1
1002
{
1002
}
1002
}
1000
27
1070
     6
1002
{
1000
Prompt
1070
     4
1000
(genmsg gendwg 109)
1002
{
1002
}
1000
Value
1070
     4
1000

1002
{
1002
}
1000
EditFlag
1070
     1
1070
     2
1002
{
1002
}
1000
PosInDDATTE
1070
     1
1070
    27
1002
{
1002
}
1000
FieldLen
1070
     1
1070
    -1
1002
{
1002
}
1002
}
1002
}
1000
Xlate
1070
     0
1002
{
1000
>
1002
}
  0
APPID
  5
15B8
330
155C
100
AcDbSymbolTableRecord
100
AcDbRegAppTableRecord
  2
GENIUS_GENCFG2_13
 70
     0
1001
GENIUS_GENCFG_13
1071
969366607
1000
15B8
1000
GEN@LAYER@DEFS
1070
     9
1000
GenCfgObject
1000
GenCfgShort
1000
GenCfgReal
1000
GenCfgBool
1000
GenCfgString
1000
GenCfgDim
1000
GenCfgAttrInf
1000
GenCfgLaySection
1000
GenCfgLayer
1000
Basic
1070
     0
1002
{
1000
0
1070
     8
1000
0
1002
{
1000
Color
1070
     1
1070
     7
1002
{
1002
}
1000
LType
1070
     4
1000
CONTINUOUS
1002
{
1002
}
1000
Base
1070
     3
1070
     0
1002
{
1002
}
1002
}
1000
1
1070
     8
1000
1
1002
{
1000
Color
1070
     1
1070
    14
1002
{
1002
}
1000
LType
1070
     4
1000
CONTINUOUS
1002
{
1002
}
1000
Base
1070
     3
1070
     0
1002
{
1002
}
1002
}
1000
2
1070
     8
1000
2
1002
{
1000
Color
1070
     1
1070
     5
1002
{
1002
}
1000
LType
1070
     4
1000
CONTINUOUS
1002
{
1002
}
1000
Base
1070
     3
1070
     0
1002
{
1002
}
1002
}
1000
3
1070
     8
1000
3
1002
{
1000
Color
1070
     1
1070
     6
1002
{
1002
}
1000
LType
1070
     4
1000
GEN3
1002
{
1002
}
1000
Base
1070
     3
1070
     0
1002
{
1002
}
1002
}
1000
4
1070
     8
1000
4
1002
{
1000
Color
1070
     1
1070
     3
1002
{
1002
}
1000
LType
1070
     4
1000
CONTINUOUS
1002
{
1002
}
1000
Base
1070
     3
1070
     0
1002
{
1002
}
1002
}
1000
5
1070
     8
1000
5
1002
{
1000
Color
1070
     1
1070
     3
1002
{
1002
}
1000
LType
1070
     4
1000
CONTINUOUS
1002
{
1002
}
1000
Base
1070
     3
1070
     0
1002
{
1002
}
1002
}
1000
6
1070
     8
1000
6
1002
{
1000
Color
1070
     1
1070
     2
1002
{
1002
}
1000
LType
1070
     4
1000
CONTINUOUS
1002
{
1002
}
1000
Base
1070
     3
1070
     0
1002
{
1002
}
1002
}
1000
7
1070
     8
1000
7
1002
{
1000
Color
1070
     1
1070
     4
1002
{
1002
}
1000
LType
1070
     4
1000
GEN7
1002
{
1002
}
1000
Base
1070
     3
1070
     0
1002
{
1002
}
1002
}
1000
8
1070
     8
1000
8
1002
{
1000
Color
1070
     1
1070
     1
1002
{
1002
}
1000
LType
1070
     4
1000
CONTINUOUS
1002
{
1002
}
1000
Base
1070
     3
1070
     0
1002
{
1002
}
1002
}
1000
3A
1070
     8
1000
3A
1002
{
1000
Color
1070
     1
1070
     6
1002
{
1002
}
1000
LType
1070
     4
1000
GEN3A
1002
{
1002
}
1000
Base
1070
     3
1070
     0
1002
{
1002
}
1002
}
1000
7A
1070
     8
1000
7A
1002
{
1000
Color
1070
     1
1070
     4
1002
{
1002
}
1000
LType
1070
     4
1000
GEN7A
1002
{
1002
}
1000
Base
1070
     3
1070
     0
1002
{
1002
}
1002
}
1000
2A
1070
     8
1000
2A
1002
{
1000
Color
1070
     1
1070
     7
1002
{
1002
}
1000
LType
1070
     4
1000
GEN7
1002
{
1002
}
1000
Base
1070
     3
1070
     0
1002
{
1002
}
1002
}
1000
4A
1070
     8
1000
4A
1002
{
1000
Color
1070
     1
1070
     3
1002
{
1002
}
1000
LType
1070
     4
1000
GEN4A
1002
{
1002
}
1000
Base
1070
     3
1070
     0
1002
{
1002
}
1002
}
1000
9
1070
     8
1000
9
1002
{
1000
Color
1070
     1
1070
   253
1002
{
1002
}
1000
LType
1070
     4
1000
CONTINUOUS
1002
{
1002
}
1000
Base
1070
     3
1070
     0
1002
{
1002
}
1002
}
1000
IP
1070
     8
1000
IP
1002
{
1000
Color
1070
     1
1070
     7
1002
{
1002
}
1000
LType
1070
     4
1000
CONTINUOUS
1002
{
1002
}
1000
Base
1070
     3
1070
     0
1002
{
1002
}
1002
}
1002
}
1000
Standard
1070
     0
1002
{
1000
0N
1070
     8
1000
0N
1002
{
1000
Color
1070
     1
1070
     7
1002
{
1002
}
1000
LType
1070
     4
1000
CONTINUOUS
1002
{
1002
}
1000
Base
1070
     3
1070
     0
1002
{
1002
}
1002
}
1000
1N
1070
     8
1000
1N
1002
{
1000
Color
1070
     1
1070
    14
1002
{
1002
}
1000
LType
1070
     4
1000
CONTINUOUS
1002
{
1002
}
1000
Base
1070
     3
1070
     0
1002
{
1002
}
1002
}
1000
2N
1070
     8
1000
2N
1002
{
1000
Color
1070
     1
1070
     5
1002
{
1002
}
1000
LType
1070
     4
1000
CONTINUOUS
1002
{
1002
}
1000
Base
1070
     3
1070
     0
1002
{
1002
}
1002
}
1000
3N
1070
     8
1000
3N
1002
{
1000
Color
1070
     1
1070
     6
1002
{
1002
}
1000
LType
1070
     4
1000
GEN3
1002
{
1002
}
1000
Base
1070
     3
1070
     0
1002
{
1002
}
1002
}
1000
4N
1070
     8
1000
4N
1002
{
1000
Color
1070
     1
1070
     3
1002
{
1002
}
1000
LType
1070
     4
1000
CONTINUOUS
1002
{
1002
}
1000
Base
1070
     3
1070
     0
1002
{
1002
}
1002
}
1000
5N
1070
     8
1000
5N
1002
{
1000
Color
1070
     1
1070
     3
1002
{
1002
}
1000
LType
1070
     4
1000
CONTINUOUS
1002
{
1002
}
1000
Base
1070
     3
1070
     0
1002
{
1002
}
1002
}
1000
6N
1070
     8
1000
6N
1002
{
1000
Color
1070
     1
1070
     2
1002
{
1002
}
1000
LType
1070
     4
1000
CONTINUOUS
1002
{
1002
}
1000
Base
1070
     3
1070
     0
1002
{
1002
}
1002
}
1000
7N
1070
     8
1000
7N
1002
{
1000
Color
1070
     1
1070
     4
1002
{
1002
}
1000
LType
1070
     4
1000
GEN7
1002
{
1002
}
1000
Base
1070
     3
1070
     0
1002
{
1002
}
1002
}
1000
8N
1070
     8
1000
8N
1002
{
1000
Color
1070
     1
1070
     1
1002
{
1002
}
1000
LType
1070
     4
1000
CONTINUOUS
1002
{
1002
}
1000
Base
1070
     3
1070
     0
1002
{
1002
}
1002
}
1000
3AN
1070
     8
1000
3AN
1002
{
1000
Color
1070
     1
1070
     6
1002
{
1002
}
1000
LType
1070
     4
1000
GEN3A
1002
{
1002
}
1000
Base
1070
     3
1070
     0
1002
{
1002
}
1002
}
1000
7AN
1070
     8
1000
7AN
1002
{
1000
Color
1070
     1
1070
     4
1002
{
1002
}
1000
LType
1070
     4
1000
GEN7A
1002
{
1002
}
1000
Base
1070
     3
1070
     0
1002
{
1002
}
1002
}
1000
2AN
1070
     8
1000
2AN
1002
{
1000
Color
1070
     1
1070
     7
1002
{
1002
}
1000
LType
1070
     4
1000
GEN7
1002
{
1002
}
1000
Base
1070
     3
1070
     0
1002
{
1002
}
1002
}
1000
4AN
1070
     8
1000
4AN
1002
{
1000
Color
1070
     1
1070
     3
1002
{
1002
}
1000
LType
1070
     4
1000
GEN4A
1002
{
1002
}
1000
Base
1070
     3
1070
     0
1002
{
1002
}
1002
}
1000
9N
1070
     8
1000
9N
1002
{
1000
Color
1070
     1
1070
   253
1002
{
1002
}
1000
LType
1070
     4
1000
CONTINUOUS
1002
{
1002
}
1000
Base
1070
     3
1070
     0
1002
{
1002
}
1002
}
1000
IPN
1070
     8
1000
IPN
1002
{
1000
Color
1070
     1
1070
     7
1002
{
1002
}
1000
LType
1070
     4
1000
CONTINUOUS
1002
{
1002
}
1000
Base
1070
     3
1070
     0
1002
{
1002
}
1002
}
1002
}
1000
Extra
1070
     0
1002
{
1000
Klin
1070
     8
1000
KLIN
1002
{
1000
Color
1070
     1
1070
     1
1002
{
1002
}
1000
LType
1070
     4
1000
CONTINUOUS
1002
{
1002
}
1000
Base
1070
     3
1070
     1
1002
{
1002
}
1002
}
1000
Info
1070
     8
1000
INFO
1002
{
1000
Color
1070
     1
1070
     4
1002
{
1002
}
1000
LType
1070
     4
1000
CONTINUOUS
1002
{
1002
}
1000
Base
1070
     3
1070
     1
1002
{
1002
}
1002
}
1000
Rahm2
1070
     8
1000
RAHM2
1002
{
1000
Color
1070
     1
1070
     1
1002
{
1002
}
1000
LType
1070
     4
1000
CONTINUOUS
1002
{
1002
}
1000
Base
1070
     3
1070
     1
1002
{
1002
}
1002
}
1000
Rahm3
1070
     8
1000
RAHM3
1002
{
1000
Color
1070
     1
1070
     2
1002
{
1002
}
1000
LType
1070
     4
1000
CONTINUOUS
1002
{
1002
}
1000
Base
1070
     3
1070
     1
1002
{
1002
}
1002
}
1000
Rahm5
1070
     8
1000
RAHM5
1002
{
1000
Color
1070
     1
1070
     7
1002
{
1002
}
1000
LType
1070
     4
1000
CONTINUOUS
1002
{
1002
}
1000
Base
1070
     3
1070
     1
1002
{
1002
}
1002
}
1000
View
1070
     8
1000
VIEW
1002
{
1000
Color
1070
     1
1070
     1
1002
{
1002
}
1000
LType
1070
     4
1000
CONTINUOUS
1002
{
1002
}
1000
Base
1070
     3
1070
     1
1002
{
1002
}
1002
}
1000
Behind
1070
     8
1000
BEHIND
1002
{
1000
Color
1070
     1
1070
   253
1002
{
1002
}
1000
LType
1070
     4
1000
CONTINUOUS
1002
{
1002
}
1000
Base
1070
     3
1070
     1
1002
{
1002
}
1002
}
1002
}
  0
APPID
  5
15B9
330
155C
100
AcDbSymbolTableRecord
100
AcDbRegAppTableRecord
  2
GENIUS_GENCFG3_13
 70
     0
1001
GENIUS_GENCFG_13
1071
969366607
1000
15B9
1000
GEN@LAYER@ENTSORT
1070
    10
1000
GenCfgObject
1000
GenCfgShort
1000
GenCfgReal
1000
GenCfgBool
1000
GenCfgString
1000
GenCfgDim
1000
GenCfgAttrInf
1000
GenCfgLaySection
1000
GenCfgLayer
1000
GenCfgEntSort
1000
ADDL
1070
     9
1000
5
1002
{
1000
Class
1070
     4
1000
SYM
1002
{
1002
}
1000
Color
1070
     1
1070
     1
1002
{
1002
}
1000
LType
1070
     4
1000
BYLAYER
1002
{
1002
}
1002
}
1000
ALTR
1070
     9
1000
4
1002
{
1000
Class
1070
     4
1000

1002
{
1002
}
1000
Color
1070
     1
1070
     7
1002
{
1002
}
1000
LType
1070
     4
1000
GEN3A
1002
{
1002
}
1002
}
1000
BELI
1070
     9
1000
4
1002
{
1000
Class
1070
     4
1000

1002
{
1002
}
1000
Color
1070
     1
1070
   256
1002
{
1002
}
1000
LType
1070
     4
1000
BYLAYER
1002
{
1002
}
1002
}
1000
BHNV
1070
     9
1000
9
1002
{
1000
Class
1070
     4
1000
INV
1002
{
1002
}
1000
Color
1070
     1
1070
   256
1002
{
1002
}
1000
LType
1070
     4
1000
BYLAYER
1002
{
1002
}
1002
}
1000
BHNVS
1070
     9
1000
BEHIND
1002
{
1000
Class
1070
     4
1000
INV
1002
{
1002
}
1000
Color
1070
     1
1070
   256
1002
{
1002
}
1000
LType
1070
     4
1000
BYLAYER
1002
{
1002
}
1002
}
1000
BLID
1070
     9
1000
4A
1002
{
1000
Class
1070
     4
1000

1002
{
1002
}
1000
Color
1070
     1
1070
   256
1002
{
1002
}
1000
LType
1070
     4
1000
BYLAYER
1002
{
1002
}
1002
}
1000
BOAP
1070
     9
1000
4A
1002
{
1000
Class
1070
     4
1000

1002
{
1002
}
1000
Color
1070
     1
1070
   256
1002
{
1002
}
1000
LType
1070
     4
1000
BYLAYER
1002
{
1002
}
1002
}
1000
BOR2
1070
     9
1000
RAHM2
1002
{
1000
Class
1070
     4
1000
SPZ,SYM
1002
{
1002
}
1000
Color
1070
     1
1070
   256
1002
{
1002
}
1000
LType
1070
     4
1000
BYLAYER
1002
{
1002
}
1002
}
1000
BOR3
1070
     9
1000
RAHM3
1002
{
1000
Class
1070
     4
1000
SPZ,SYM
1002
{
1002
}
1000
Color
1070
     1
1070
   256
1002
{
1002
}
1000
LType
1070
     4
1000
BYLAYER
1002
{
1002
}
1002
}
1000
BOR5
1070
     9
1000
RAHM5
1002
{
1000
Class
1070
     4
1000
SPZ,SYM
1002
{
1002
}
1000
Color
1070
     1
1070
   256
1002
{
1002
}
1000
LType
1070
     4
1000
BYLAYER
1002
{
1002
}
1002
}
1000
BOR7
1070
     9
1000
RAHM5
1002
{
1000
Class
1070
     4
1000
SPZ,SYM
1002
{
1002
}
1000
Color
1070
     1
1070
     7
1002
{
1002
}
1000
LType
1070
     4
1000
CONTINUOUS
1002
{
1002
}
1002
}
1000
BPAP
1070
     9
1000
4A
1002
{
1000
Class
1070
     4
1000

1002
{
1002
}
1000
Color
1070
     1
1070
   256
1002
{
1002
}
1000
LType
1070
     4
1000
BYLAYER
1002
{
1002
}
1002
}
1000
BPEX
1070
     9
1000
4A
1002
{
1000
Class
1070
     4
1000

1002
{
1002
}
1000
Color
1070
     1
1070
   256
1002
{
1002
}
1000
LType
1070
     4
1000
BYLAYER
1002
{
1002
}
1002
}
1000
BTDI
1070
     9
1000
5
1002
{
1000
Class
1070
     4
1000
DIM,SYM
1002
{
1002
}
1000
Color
1070
     1
1070
   256
1002
{
1002
}
1000
LType
1070
     4
1000
BYLAYER
1002
{
1002
}
1002
}
1000
CAL2
1070
     9
1000
4
1002
{
1000
Class
1070
     4
1000
SYM
1002
{
1002
}
1000
Color
1070
     1
1070
   256
1002
{
1002
}
1000
LType
1070
     4
1000
BYLAYER
1002
{
1002
}
1002
}
1000
CAL3
1070
     9
1000
4
1002
{
1000
Class
1070
     4
1000
SYM
1002
{
1002
}
1000
Color
1070
     1
1070
     2
1002
{
1002
}
1000
LType
1070
     4
1000
BYLAYER
1002
{
1002
}
1002
}
1000
CAL5
1070
     9
1000
4
1002
{
1000
Class
1070
     4
1000
SYM
1002
{
1002
}
1000
Color
1070
     1
1070
     7
1002
{
1002
}
1000
LType
1070
     4
1000
BYLAYER
1002
{
1002
}
1002
}
1000
CAL7
1070
     9
1000
4
1002
{
1000
Class
1070
     4
1000
SYM
1002
{
1002
}
1000
Color
1070
     1
1070
     5
1002
{
1002
}
1000
LType
1070
     4
1000
BYLAYER
1002
{
1002
}
1002
}
1000
CENN
1070
     9
1000
7A
1002
{
1000
Class
1070
     4
1000
CEN
1002
{
1002
}
1000
Color
1070
     1
1070
   256
1002
{
1002
}
1000
LType
1070
     4
1000
BYLAYER
1002
{
1002
}
1002
}
1000
CENW
1070
     9
1000
7
1002
{
1000
Class
1070
     4
1000
CEN
1002
{
1002
}
1000
Color
1070
     1
1070
   256
1002
{
1002
}
1000
LType
1070
     4
1000
BYLAYER
1002
{
1002
}
1002
}
1000
CLIN
1070
     9
1000
KLIN
1002
{
1000
Class
1070
     4
1000
SPZ
1002
{
1002
}
1000
Color
1070
     1
1070
   256
1002
{
1002
}
1000
LType
1070
     4
1000
BYLAYER
1002
{
1002
}
1002
}
1000
CON1
1070
     9
1000
0
1002
{
1000
Class
1070
     4
1000
CON,BGD
1002
{
1002
}
1000
Color
1070
     1
1070
   256
1002
{
1002
}
1000
LType
1070
     4
1000
BYLAYER
1002
{
1002
}
1002
}
1000
CON2
1070
     9
1000
1
1002
{
1000
Class
1070
     4
1000
CON,BGD
1002
{
1002
}
1000
Color
1070
     1
1070
   256
1002
{
1002
}
1000
LType
1070
     4
1000
BYLAYER
1002
{
1002
}
1002
}
1000
CON3
1070
     9
1000
2
1002
{
1000
Class
1070
     4
1000
CON,BGD
1002
{
1002
}
1000
Color
1070
     1
1070
   256
1002
{
1002
}
1000
LType
1070
     4
1000
BYLAYER
1002
{
1002
}
1002
}
1000
CON4
1070
     9
1000
2
1002
{
1000
Class
1070
     4
1000
CON,BGD
1002
{
1002
}
1000
Color
1070
     1
1070
   256
1002
{
1002
}
1000
LType
1070
     4
1000
BYLAYER
1002
{
1002
}
1002
}
1000
DERP
1070
     9
1000
4
1002
{
1000
Class
1070
     4
1000

1002
{
1002
}
1000
Color
1070
     1
1070
   256
1002
{
1002
}
1000
LType
1070
     4
1000
BYLAYER
1002
{
1002
}
1002
}
1000
DETA
1070
     9
1000
4
1002
{
1000
Class
1070
     4
1000

1002
{
1002
}
1000
Color
1070
     1
1070
   256
1002
{
1002
}
1000
LType
1070
     4
1000
BYLAYER
1002
{
1002
}
1002
}
1000
DIAG
1070
     9
1000
5
1002
{
1000
Class
1070
     4
1000
SYM
1002
{
1002
}
1000
Color
1070
     1
1070
   256
1002
{
1002
}
1000
LType
1070
     4
1000
BYLAYER
1002
{
1002
}
1002
}
1000
DILI
1070
     9
1000
5
1002
{
1000
Class
1070
     4
1000
DIM,SYM
1002
{
1002
}
1000
Color
1070
     1
1070
   256
1002
{
1002
}
1000
LType
1070
     4
1000
BYLAYER
1002
{
1002
}
1002
}
1000
DITO2
1070
     9
1000
5
1002
{
1000
Class
1070
     4
1000
DIM,SYM
1002
{
1002
}
1000
Color
1070
     1
1070
     3
1002
{
1002
}
1000
LType
1070
     4
1000
BYLAYER
1002
{
1002
}
1002
}
1000
DITO3
1070
     9
1000
5
1002
{
1000
Class
1070
     4
1000
DIM,SYM
1002
{
1002
}
1000
Color
1070
     1
1070
     2
1002
{
1002
}
1000
LType
1070
     4
1000
BYLAYER
1002
{
1002
}
1002
}
1000
DITX
1070
     9
1000
5
1002
{
1000
Class
1070
     4
1000
DIM,SYM
1002
{
1002
}
1000
Color
1070
     1
1070
     2
1002
{
1002
}
1000
LType
1070
     4
1000
CONTINUOUS
1002
{
1002
}
1002
}
1000
DIXL
1070
     9
1000
5
1002
{
1000
Class
1070
     4
1000
DIM,SYM
1002
{
1002
}
1000
Color
1070
     1
1070
   256
1002
{
1002
}
1000
LType
1070
     4
1000
BYLAYER
1002
{
1002
}
1002
}
1000
EXMP
1070
     9
1000
4A
1002
{
1000
Class
1070
     4
1000

1002
{
1002
}
1000
Color
1070
     1
1070
   256
1002
{
1002
}
1000
LType
1070
     4
1000
BYLAYER
1002
{
1002
}
1002
}
1000
FEMN
1070
     9
1000
8
1002
{
1000
Class
1070
     4
1000

1002
{
1002
}
1000
Color
1070
     1
1070
   256
1002
{
1002
}
1000
LType
1070
     4
1000
BYLAYER
1002
{
1002
}
1002
}
1000
FEMPN
1070
     9
1000
8
1002
{
1000
Class
1070
     4
1000
SYM
1002
{
1002
}
1000
Color
1070
     1
1070
     3
1002
{
1002
}
1000
LType
1070
     4
1000
BYLAYER
1002
{
1002
}
1002
}
1000
FEMSP
1070
     9
1000
4A
1002
{
1000
Class
1070
     4
1000

1002
{
1002
}
1000
Color
1070
     1
1070
   256
1002
{
1002
}
1000
LType
1070
     4
1000
CONTINUOUS
1002
{
1002
}
1002
}
1000
FEMST
1070
     9
1000
4A
1002
{
1000
Class
1070
     4
1000
SYM
1002
{
1002
}
1000
Color
1070
     1
1070
     3
1002
{
1002
}
1000
LType
1070
     4
1000
BYLAYER
1002
{
1002
}
1002
}
1000
FEMVN
1070
     9
1000
2
1002
{
1000
Class
1070
     4
1000
CON
1002
{
1002
}
1000
Color
1070
     1
1070
   256
1002
{
1002
}
1000
LType
1070
     4
1000
BYLAYER
1002
{
1002
}
1002
}
1000
FEMVT
1070
     9
1000
2
1002
{
1000
Class
1070
     4
1000
SYM
1002
{
1002
}
1000
Color
1070
     1
1070
     3
1002
{
1002
}
1000
LType
1070
     4
1000
BYLAYER
1002
{
1002
}
1002
}
1000
FLAT
1070
     9
1000
0
1002
{
1000
Class
1070
     4
1000

1002
{
1002
}
1000
Color
1070
     1
1070
   256
1002
{
1002
}
1000
LType
1070
     4
1000
BYLAYER
1002
{
1002
}
1002
}
1000
FRAR
1070
     9
1000
4A
1002
{
1000
Class
1070
     4
1000

1002
{
1002
}
1000
Color
1070
     1
1070
   256
1002
{
1002
}
1000
LType
1070
     4
1000
BYLAYER
1002
{
1002
}
1002
}
1000
GRLI
1070
     9
1000
5
1002
{
1000
Class
1070
     4
1000
SYM
1002
{
1002
}
1000
Color
1070
     1
1070
   256
1002
{
1002
}
1000
LType
1070
     4
1000
BYLAYER
1002
{
1002
}
1002
}
1000
GVLI
1070
     9
1000
4A
1002
{
1000
Class
1070
     4
1000

1002
{
1002
}
1000
Color
1070
     1
1070
   256
1002
{
1002
}
1000
LType
1070
     4
1000
BYLAYER
1002
{
1002
}
1002
}
1000
HATC
1070
     9
1000
8
1002
{
1000
Class
1070
     4
1000
HTC,BGD
1002
{
1002
}
1000
Color
1070
     1
1070
   256
1002
{
1002
}
1000
LType
1070
     4
1000
BYLAYER
1002
{
1002
}
1002
}
1000
HIDN
1070
     9
1000
3A
1002
{
1000
Class
1070
     4
1000
HID,BGD
1002
{
1002
}
1000
Color
1070
     1
1070
   256
1002
{
1002
}
1000
LType
1070
     4
1000
BYLAYER
1002
{
1002
}
1002
}
1000
HIDW
1070
     9
1000
3
1002
{
1000
Class
1070
     4
1000
HID,BGD
1002
{
1002
}
1000
Color
1070
     1
1070
   256
1002
{
1002
}
1000
LType
1070
     4
1000
BYLAYER
1002
{
1002
}
1002
}
1000
HLIN
1070
     9
1000
4
1002
{
1000
Class
1070
     4
1000
BGD
1002
{
1002
}
1000
Color
1070
     1
1070
   256
1002
{
1002
}
1000
LType
1070
     4
1000
BYLAYER
1002
{
1002
}
1002
}
1000
HOCN
1070
     9
1000
7A
1002
{
1000
Class
1070
     4
1000
CEN
1002
{
1002
}
1000
Color
1070
     1
1070
   256
1002
{
1002
}
1000
LType
1070
     4
1000
BYLAYER
1002
{
1002
}
1002
}
1000
HOCW
1070
     9
1000
7
1002
{
1000
Class
1070
     4
1000
CEN
1002
{
1002
}
1000
Color
1070
     1
1070
   256
1002
{
1002
}
1000
LType
1070
     4
1000
BYLAYER
1002
{
1002
}
1002
}
1000
INFO
1070
     9
1000
INFO
1002
{
1000
Class
1070
     4
1000
SPZ,SYM
1002
{
1002
}
1000
Color
1070
     1
1070
   256
1002
{
1002
}
1000
LType
1070
     4
1000
BYLAYER
1002
{
1002
}
1002
}
1000
LADI
1070
     9
1000
4
1002
{
1000
Class
1070
     4
1000
BGD
1002
{
1002
}
1000
Color
1070
     1
1070
   256
1002
{
1002
}
1000
LType
1070
     4
1000
BYLAYER
1002
{
1002
}
1002
}
1000
LEAD
1070
     9
1000
5
1002
{
1000
Class
1070
     4
1000
SYM
1002
{
1002
}
1000
Color
1070
     1
1070
   256
1002
{
1002
}
1000
LType
1070
     4
1000
BYLAYER
1002
{
1002
}
1002
}
1000
N_ADDL
1070
     9
1000
5N
1002
{
1000
Class
1070
     4
1000
SYM
1002
{
1002
}
1000
Color
1070
     1
1070
     1
1002
{
1002
}
1000
LType
1070
     4
1000
BYLAYER
1002
{
1002
}
1002
}
1000
N_BHNV
1070
     9
1000
9N
1002
{
1000
Class
1070
     4
1000
INV
1002
{
1002
}
1000
Color
1070
     1
1070
   256
1002
{
1002
}
1000
LType
1070
     4
1000
BYLAYER
1002
{
1002
}
1002
}
1000
N_CON1
1070
     9
1000
0N
1002
{
1000
Class
1070
     4
1000
CON,BGD
1002
{
1002
}
1000
Color
1070
     1
1070
   256
1002
{
1002
}
1000
LType
1070
     4
1000
BYLAYER
1002
{
1002
}
1002
}
1000
N_CON2
1070
     9
1000
1N
1002
{
1000
Class
1070
     4
1000
CON,BGD
1002
{
1002
}
1000
Color
1070
     1
1070
   256
1002
{
1002
}
1000
LType
1070
     4
1000
BYLAYER
1002
{
1002
}
1002
}
1000
N_CON3
1070
     9
1000
2N
1002
{
1000
Class
1070
     4
1000
CON,BGD
1002
{
1002
}
1000
Color
1070
     1
1070
   256
1002
{
1002
}
1000
LType
1070
     4
1000
BYLAYER
1002
{
1002
}
1002
}
1000
N_CON4
1070
     9
1000
2N
1002
{
1000
Class
1070
     4
1000
CON,BGD
1002
{
1002
}
1000
Color
1070
     1
1070
   256
1002
{
1002
}
1000
LType
1070
     4
1000
BYLAYER
1002
{
1002
}
1002
}
1000
N_CENN
1070
     9
1000
7AN
1002
{
1000
Class
1070
     4
1000
CEN
1002
{
1002
}
1000
Color
1070
     1
1070
   256
1002
{
1002
}
1000
LType
1070
     4
1000
BYLAYER
1002
{
1002
}
1002
}
1000
N_CENW
1070
     9
1000
7N
1002
{
1000
Class
1070
     4
1000
CEN
1002
{
1002
}
1000
Color
1070
     1
1070
   256
1002
{
1002
}
1000
LType
1070
     4
1000
BYLAYER
1002
{
1002
}
1002
}
1000
N_DILI
1070
     9
1000
5N
1002
{
1000
Class
1070
     4
1000
DIM,SYM
1002
{
1002
}
1000
Color
1070
     1
1070
   256
1002
{
1002
}
1000
LType
1070
     4
1000
BYLAYER
1002
{
1002
}
1002
}
1000
N_DITX
1070
     9
1000
5N
1002
{
1000
Class
1070
     4
1000
DIM,SYM
1002
{
1002
}
1000
Color
1070
     1
1070
     2
1002
{
1002
}
1000
LType
1070
     4
1000
CONTINUOUS
1002
{
1002
}
1002
}
1000
N_DIXL
1070
     9
1000
5N
1002
{
1000
Class
1070
     4
1000
DIM,SYM
1002
{
1002
}
1000
Color
1070
     1
1070
   256
1002
{
1002
}
1000
LType
1070
     4
1000
BYLAYER
1002
{
1002
}
1002
}
1000
N_HATC
1070
     9
1000
8N
1002
{
1000
Class
1070
     4
1000
HTC,BGD
1002
{
1002
}
1000
Color
1070
     1
1070
   256
1002
{
1002
}
1000
LType
1070
     4
1000
BYLAYER
1002
{
1002
}
1002
}
1000
N_HIDN
1070
     9
1000
3AN
1002
{
1000
Class
1070
     4
1000
HID,BGD
1002
{
1002
}
1000
Color
1070
     1
1070
   256
1002
{
1002
}
1000
LType
1070
     4
1000
BYLAYER
1002
{
1002
}
1002
}
1000
N_HIDW
1070
     9
1000
3N
1002
{
1000
Class
1070
     4
1000
HID,BGD
1002
{
1002
}
1000
Color
1070
     1
1070
   256
1002
{
1002
}
1000
LType
1070
     4
1000
BYLAYER
1002
{
1002
}
1002
}
1000
N_NGIP
1070
     9
1000
IPN
1002
{
1000
Class
1070
     4
1000

1002
{
1002
}
1000
Color
1070
     1
1070
   256
1002
{
1002
}
1000
LType
1070
     4
1000
BYLAYER
1002
{
1002
}
1002
}
1000
N_PHAN
1070
     9
1000
4AN
1002
{
1000
Class
1070
     4
1000

1002
{
1002
}
1000
Color
1070
     1
1070
   256
1002
{
1002
}
1000
LType
1070
     4
1000
BYLAYER
1002
{
1002
}
1002
}
1000
N_POSL
1070
     9
1000
5N
1002
{
1000
Class
1070
     4
1000
SYM
1002
{
1002
}
1000
Color
1070
     1
1070
   256
1002
{
1002
}
1000
LType
1070
     4
1000
BYLAYER
1002
{
1002
}
1002
}
1000
N_TCON
1070
     9
1000
0N
1002
{
1000
Class
1070
     4
1000
CON,BGD
1002
{
1002
}
1000
Color
1070
     1
1070
   256
1002
{
1002
}
1000
LType
1070
     4
1000
BYLAYER
1002
{
1002
}
1002
}
1000
N_THLI
1070
     9
1000
4N
1002
{
1000
Class
1070
     4
1000
BGD
1002
{
1002
}
1000
Color
1070
     1
1070
   256
1002
{
1002
}
1000
LType
1070
     4
1000
BYLAYER
1002
{
1002
}
1002
}
1000
N_TLEN
1070
     9
1000
0N
1002
{
1000
Class
1070
     4
1000
CON,BGD
1002
{
1002
}
1000
Color
1070
     1
1070
   256
1002
{
1002
}
1000
LType
1070
     4
1000
BYLAYER
1002
{
1002
}
1002
}
1000
N_TXT3
1070
     9
1000
6N
1002
{
1000
Class
1070
     4
1000
SYM
1002
{
1002
}
1000
Color
1070
     1
1070
   256
1002
{
1002
}
1000
LType
1070
     4
1000
BYLAYER
1002
{
1002
}
1002
}
1000
N_VPLI
1070
     9
1000
2AN
1002
{
1000
Class
1070
     4
1000

1002
{
1002
}
1000
Color
1070
     1
1070
   256
1002
{
1002
}
1000
LType
1070
     4
1000
BYLAYER
1002
{
1002
}
1002
}
1000
NGIP
1070
     9
1000
IP
1002
{
1000
Class
1070
     4
1000

1002
{
1002
}
1000
Color
1070
     1
1070
   256
1002
{
1002
}
1000
LType
1070
     4
1000
BYLAYER
1002
{
1002
}
1002
}
1000
PAL2
1070
     9
1000
RAHM2
1002
{
1000
Class
1070
     4
1000
SPZ,SYM
1002
{
1002
}
1000
Color
1070
     1
1070
   256
1002
{
1002
}
1000
LType
1070
     4
1000
BYLAYER
1002
{
1002
}
1002
}
1000
PAL3
1070
     9
1000
RAHM3
1002
{
1000
Class
1070
     4
1000
SPZ,SYM
1002
{
1002
}
1000
Color
1070
     1
1070
   256
1002
{
1002
}
1000
LType
1070
     4
1000
BYLAYER
1002
{
1002
}
1002
}
1000
PAL5
1070
     9
1000
RAHM5
1002
{
1000
Class
1070
     4
1000
SPZ,SYM
1002
{
1002
}
1000
Color
1070
     1
1070
   256
1002
{
1002
}
1000
LType
1070
     4
1000
BYLAYER
1002
{
1002
}
1002
}
1000
PAL7
1070
     9
1000
RAHM5
1002
{
1000
Class
1070
     4
1000
SPZ,SYM
1002
{
1002
}
1000
Color
1070
     1
1070
     7
1002
{
1002
}
1000
LType
1070
     4
1000
CONTINUOUS
1002
{
1002
}
1002
}
1000
PHAN
1070
     9
1000
4A
1002
{
1000
Class
1070
     4
1000

1002
{
1002
}
1000
Color
1070
     1
1070
   256
1002
{
1002
}
1000
LType
1070
     4
1000
BYLAYER
1002
{
1002
}
1002
}
1000
POSL
1070
     9
1000
5
1002
{
1000
Class
1070
     4
1000
SYM
1002
{
1002
}
1000
Color
1070
     1
1070
   256
1002
{
1002
}
1000
LType
1070
     4
1000
BYLAYER
1002
{
1002
}
1002
}
1000
POSN
1070
     9
1000
6
1002
{
1000
Class
1070
     4
1000
SYM
1002
{
1002
}
1000
Color
1070
     1
1070
     7
1002
{
1002
}
1000
LType
1070
     4
1000
BYLAYER
1002
{
1002
}
1002
}
1000
POSREF
1070
     9
1000
6
1002
{
1000
Class
1070
     4
1000
SYM
1002
{
1002
}
1000
Color
1070
     1
1070
     5
1002
{
1002
}
1000
LType
1070
     4
1000
BYLAYER
1002
{
1002
}
1002
}
1000
POSX
1070
     9
1000
5
1002
{
1000
Class
1070
     4
1000
SYM
1002
{
1002
}
1000
Color
1070
     1
1070
     2
1002
{
1002
}
1000
LType
1070
     4
1000
CONTINUOUS
1002
{
1002
}
1002
}
1000
PSEC
1070
     9
1000
4A
1002
{
1000
Class
1070
     4
1000

1002
{
1002
}
1000
Color
1070
     1
1070
   256
1002
{
1002
}
1000
LType
1070
     4
1000
BYLAYER
1002
{
1002
}
1002
}
1000
RCGN
1070
     9
1000
7A
1002
{
1000
Class
1070
     4
1000
CEN
1002
{
1002
}
1000
Color
1070
     1
1070
   256
1002
{
1002
}
1000
LType
1070
     4
1000
BYLAYER
1002
{
1002
}
1002
}
1000
RCGW
1070
     9
1000
7
1002
{
1000
Class
1070
     4
1000
CEN
1002
{
1002
}
1000
Color
1070
     1
1070
   256
1002
{
1002
}
1000
LType
1070
     4
1000
BYLAYER
1002
{
1002
}
1002
}
1000
RFDI
1070
     9
1000
4
1002
{
1000
Class
1070
     4
1000
BGD
1002
{
1002
}
1000
Color
1070
     1
1070
   256
1002
{
1002
}
1000
LType
1070
     4
1000
BYLAYER
1002
{
1002
}
1002
}
1000
RQTR
1070
     9
1000
4
1002
{
1000
Class
1070
     4
1000

1002
{
1002
}
1000
Color
1070
     1
1070
     7
1002
{
1002
}
1000
LType
1070
     4
1000
GEN7A
1002
{
1002
}
1002
}
1000
RSBO
1070
     9
1000
4
1002
{
1000
Class
1070
     4
1000
BGD
1002
{
1002
}
1000
Color
1070
     1
1070
   256
1002
{
1002
}
1000
LType
1070
     4
1000
BYLAYER
1002
{
1002
}
1002
}
1000
SBRK
1070
     9
1000
4
1002
{
1000
Class
1070
     4
1000
BGD
1002
{
1002
}
1000
Color
1070
     1
1070
   256
1002
{
1002
}
1000
LType
1070
     4
1000
BYLAYER
1002
{
1002
}
1002
}
1000
SCEN
1070
     9
1000
7
1002
{
1000
Class
1070
     4
1000

1002
{
1002
}
1000
Color
1070
     1
1070
   256
1002
{
1002
}
1000
LType
1070
     4
1000
CONTINUOUS
1002
{
1002
}
1002
}
1000
SECT
1070
     9
1000
4
1002
{
1000
Class
1070
     4
1000
BGD
1002
{
1002
}
1000
Color
1070
     1
1070
   256
1002
{
1002
}
1000
LType
1070
     4
1000
BYLAYER
1002
{
1002
}
1002
}
1000
SELN
1070
     9
1000
7A
1002
{
1000
Class
1070
     4
1000

1002
{
1002
}
1000
Color
1070
     1
1070
   256
1002
{
1002
}
1000
LType
1070
     4
1000
BYLAYER
1002
{
1002
}
1002
}
1000
SELW
1070
     9
1000
7
1002
{
1000
Class
1070
     4
1000

1002
{
1002
}
1000
Color
1070
     1
1070
   256
1002
{
1002
}
1000
LType
1070
     4
1000
BYLAYER
1002
{
1002
}
1002
}
1000
SSYS
1070
     9
1000
0
1002
{
1000
Class
1070
     4
1000

1002
{
1002
}
1000
Color
1070
     1
1070
   256
1002
{
1002
}
1000
LType
1070
     4
1000
BYLAYER
1002
{
1002
}
1002
}
1000
STLI
1070
     9
1000
4
1002
{
1000
Class
1070
     4
1000

1002
{
1002
}
1000
Color
1070
     1
1070
     7
1002
{
1002
}
1000
LType
1070
     4
1000
GEN3A
1002
{
1002
}
1002
}
1000
SYB1
1070
     9
1000
5
1002
{
1000
Class
1070
     4
1000
SYM
1002
{
1002
}
1000
Color
1070
     1
1070
   256
1002
{
1002
}
1000
LType
1070
     4
1000
BYLAYER
1002
{
1002
}
1002
}
1000
SYB2
1070
     9
1000
5
1002
{
1000
Class
1070
     4
1000
SYM
1002
{
1002
}
1000
Color
1070
     1
1070
   256
1002
{
1002
}
1000
LType
1070
     4
1000
BYLAYER
1002
{
1002
}
1002
}
1000
SYB3
1070
     9
1000
6
1002
{
1000
Class
1070
     4
1000
SYM
1002
{
1002
}
1000
Color
1070
     1
1070
   256
1002
{
1002
}
1000
LType
1070
     4
1000
CONTINUOUS
1002
{
1002
}
1002
}
1000
SYB5
1070
     9
1000
5
1002
{
1000
Class
1070
     4
1000
SYM
1002
{
1002
}
1000
Color
1070
     1
1070
     7
1002
{
1002
}
1000
LType
1070
     4
1000
BYLAYER
1002
{
1002
}
1002
}
1000
SYMN
1070
     9
1000
7A
1002
{
1000
Class
1070
     4
1000
CEN
1002
{
1002
}
1000
Color
1070
     1
1070
   256
1002
{
1002
}
1000
LType
1070
     4
1000
BYLAYER
1002
{
1002
}
1002
}
1000
SYMW
1070
     9
1000
7
1002
{
1000
Class
1070
     4
1000
CEN
1002
{
1002
}
1000
Color
1070
     1
1070
   256
1002
{
1002
}
1000
LType
1070
     4
1000
BYLAYER
1002
{
1002
}
1002
}
1000
TCON
1070
     9
1000
0
1002
{
1000
Class
1070
     4
1000
CON,BGD
1002
{
1002
}
1000
Color
1070
     1
1070
   256
1002
{
1002
}
1000
LType
1070
     4
1000
BYLAYER
1002
{
1002
}
1002
}
1000
THLI
1070
     9
1000
4
1002
{
1000
Class
1070
     4
1000
BGD
1002
{
1002
}
1000
Color
1070
     1
1070
   256
1002
{
1002
}
1000
LType
1070
     4
1000
BYLAYER
1002
{
1002
}
1002
}
1000
TIT2
1070
     9
1000
RAHM2
1002
{
1000
Class
1070
     4
1000
SPZ,SYM
1002
{
1002
}
1000
Color
1070
     1
1070
   256
1002
{
1002
}
1000
LType
1070
     4
1000
BYLAYER
1002
{
1002
}
1002
}
1000
TIT3
1070
     9
1000
RAHM3
1002
{
1000
Class
1070
     4
1000
SPZ,SYM
1002
{
1002
}
1000
Color
1070
     1
1070
   256
1002
{
1002
}
1000
LType
1070
     4
1000
BYLAYER
1002
{
1002
}
1002
}
1000
TIT5
1070
     9
1000
RAHM5
1002
{
1000
Class
1070
     4
1000
SPZ,SYM
1002
{
1002
}
1000
Color
1070
     1
1070
   256
1002
{
1002
}
1000
LType
1070
     4
1000
BYLAYER
1002
{
1002
}
1002
}
1000
TIT7
1070
     9
1000
RAHM5
1002
{
1000
Class
1070
     4
1000
SPZ,SYM
1002
{
1002
}
1000
Color
1070
     1
1070
     7
1002
{
1002
}
1000
LType
1070
     4
1000
CONTINUOUS
1002
{
1002
}
1002
}
1000
TLEN
1070
     9
1000
0
1002
{
1000
Class
1070
     4
1000
CON,BGD
1002
{
1002
}
1000
Color
1070
     1
1070
   256
1002
{
1002
}
1000
LType
1070
     4
1000
BYLAYER
1002
{
1002
}
1002
}
1000
TRKN
1070
     9
1000
7A
1002
{
1000
Class
1070
     4
1000

1002
{
1002
}
1000
Color
1070
     1
1070
   256
1002
{
1002
}
1000
LType
1070
     4
1000
BYLAYER
1002
{
1002
}
1002
}
1000
TRKW
1070
     9
1000
7
1002
{
1000
Class
1070
     4
1000

1002
{
1002
}
1000
Color
1070
     1
1070
   256
1002
{
1002
}
1000
LType
1070
     4
1000
BYLAYER
1002
{
1002
}
1002
}
1000
TRLI
1070
     9
1000
4
1002
{
1000
Class
1070
     4
1000
BGD
1002
{
1002
}
1000
Color
1070
     1
1070
   256
1002
{
1002
}
1000
LType
1070
     4
1000
BYLAYER
1002
{
1002
}
1002
}
1000
TXT1
1070
     9
1000
6
1002
{
1000
Class
1070
     4
1000
SYM
1002
{
1002
}
1000
Color
1070
     1
1070
     2
1002
{
1002
}
1000
LType
1070
     4
1000
BYLAYER
1002
{
1002
}
1002
}
1000
TXT2
1070
     9
1000
6
1002
{
1000
Class
1070
     4
1000
SYM
1002
{
1002
}
1000
Color
1070
     1
1070
     2
1002
{
1002
}
1000
LType
1070
     4
1000
BYLAYER
1002
{
1002
}
1002
}
1000
TXT3
1070
     9
1000
6
1002
{
1000
Class
1070
     4
1000
SYM
1002
{
1002
}
1000
Color
1070
     1
1070
   256
1002
{
1002
}
1000
LType
1070
     4
1000
BYLAYER
1002
{
1002
}
1002
}
1000
TXT5
1070
     9
1000
6
1002
{
1000
Class
1070
     4
1000
SYM
1002
{
1002
}
1000
Color
1070
     1
1070
     7
1002
{
1002
}
1000
LType
1070
     4
1000
BYLAYER
1002
{
1002
}
1002
}
1000
TXT7
1070
     9
1000
6
1002
{
1000
Class
1070
     4
1000
SYM
1002
{
1002
}
1000
Color
1070
     1
1070
     7
1002
{
1002
}
1000
LType
1070
     4
1000
BYLAYER
1002
{
1002
}
1002
}
1000
VIEW
1070
     9
1000
VIEW
1002
{
1000
Class
1070
     4
1000
SPZ
1002
{
1002
}
1000
Color
1070
     1
1070
   256
1002
{
1002
}
1000
LType
1070
     4
1000
BYLAYER
1002
{
1002
}
1002
}
1000
VPLI
1070
     9
1000
2A
1002
{
1000
Class
1070
     4
1000

1002
{
1002
}
1000
Color
1070
     1
1070
   256
1002
{
1002
}
1000
LType
1070
     4
1000
BYLAYER
1002
{
1002
}
1002
}
1000
ZIZA
1070
     9
1000
4
1002
{
1000
Class
1070
     4
1000
BGD
1002
{
1002
}
1000
Color
1070
     1
1070
   256
1002
{
1002
}
1000
LType
1070
     4
1000
GENZIGZAG
1002
{
1002
}
1002
}
  0
APPID
  5
15BA
330
155C
100
AcDbSymbolTableRecord
100
AcDbRegAppTableRecord
  2
GENIUS_GENCFG4_13
 70
     0
1001
GENIUS_GENCFG_13
1071
969366915
1000
15BA
1000
GEN
1070
     9
1000
GenCfgObject
1000
GenCfgShort
1000
GenCfgReal
1000
GenCfgBool
1000
GenCfgString
1000
GenCfgDim
1000
GenCfgLaySection
1000
GenCfgLType
1000
GenCfgFilter
1000
Balloon
1070
     0
1002
{
1000
GenIF
1070
     1
1070
     0
1002
{
1002
}
1000
GenPosInc
1070
     1
1070
     1
1002
{
1002
}
1000
GenPosBlk
1070
     1
1070
     8
1002
{
1002
}
1000
GenPosVar
1070
     1
1070
     0
1002
{
1002
}
1000
GenZiCir
1070
     2
1040
1.0
1002
{
1002
}
1000
MaxCharForCenteredText
1070
     1
1070
    30
1002
{
1002
}
1000
Snap
1070
     0
1002
{
1000
ActivationRadius
1070
     2
1040
1.0
1002
{
1002
}
1000
M
1070
     0
1002
{
1000
SnapStepX
1070
     2
1040
20.0
1002
{
1002
}
1000
SnapStepY
1070
     2
1040
10.0
1002
{
1002
}
1002
}
1000
I
1070
     0
1002
{
1000
SnapStepX
1070
     2
1040
1.0
1002
{
1002
}
1000
SnapStepY
1070
     2
1040
0.5
1002
{
1002
}
1002
}
1002
}
1002
}
1000
Centerline
1070
     0
1002
{
1000
ScaleNot
1070
     3
1070
     0
1002
{
1002
}
1000
M
1070
     0
1002
{
1000
GenCenAng
1070
     4
1000
45|90|135
1002
{
1002
}
1000
GenCenDia
1070
     2
1040
10.0
1002
{
1002
}
1000
GenCenDias
1070
     4
1000
10|20|30
1002
{
1002
}
1000
GenCenDist
1070
     2
1040
3.0
1002
{
1002
}
1000
GenCenLen
1070
     2
1040
10.0
1002
{
1002
}
1000
GenCenOff
1070
     2
1040
10.0
1002
{
1002
}
1002
}
1000
I
1070
     0
1002
{
1000
GenCenAng
1070
     4
1000
45|90|135
1002
{
1002
}
1000
GenCenDia
1070
     2
1040
0.5
1002
{
1002
}
1000
GenCenDias
1070
     4
1000
0.5|1.0|1.5
1002
{
1002
}
1000
GenCenDist
1070
     2
1040
0.125
1002
{
1002
}
1000
GenCenLen
1070
     2
1040
0.5
1002
{
1002
}
1000
GenCenOff
1070
     2
1040
0.5
1002
{
1002
}
1002
}
1002
}
1000
CLine
1070
     0
1002
{
1000
CAngArray
1070
     4
1000
30|45|60
1002
{
1002
}
1000
Typ
1070
     4
1000
XLINE
1002
{
1002
}
1000
M
1070
     0
1002
{
1000
CLinArray
1070
     4
1000
10|20|30
1002
{
1002
}
1002
}
1000
I
1070
     0
1002
{
1000
CLinArray
1070
     4
1000
0.125|0.25|0.5
1002
{
1002
}
1002
}
1002
}
1000
Detail
1070
     0
1002
{
1002
}
1000
Dimension
1070
     5
1002
{
1000
DIMALT
1070
     1
1070
     0
1002
{
1002
}
1000
DIMALTD
1070
     1
1070
     2
1002
{
1002
}
1000
DIMALTTD
1070
     1
1070
     4
1002
{
1002
}
1000
DIMALTTZ
1070
     1
1070
     0
1002
{
1002
}
1000
DIMALTU
1070
     1
1070
     2
1002
{
1002
}
1000
DIMALTZ
1070
     1
1070
     0
1002
{
1002
}
1000
DIMAUNIT
1070
     1
1070
     0
1002
{
1002
}
1000
DIMBLK
1070
     4
1000

1002
{
1002
}
1000
DIMBLK1
1070
     4
1000

1002
{
1002
}
1000
DIMBLK2
1070
     4
1000

1002
{
1002
}
1000
DIMCLRD
1070
     1
1070
   256
1002
{
1002
}
1000
DIMCLRE
1070
     1
1070
   256
1002
{
1002
}
1000
DIMCLRT
1070
     1
1070
     2
1002
{
1002
}
1000
DIMDLE
1070
     2
1040
0.0
1002
{
1002
}
1000
DIMFIT
1070
     1
1070
     3
1002
{
1002
}
1000
DIMJUST
1070
     1
1070
     0
1002
{
1002
}
1000
DIMLFAC
1070
     2
1040
1.0
1002
{
1002
}
1000
DIMLIM
1070
     1
1070
     0
1002
{
1002
}
1000
DIMPOST
1070
     4
1000

1002
{
1002
}
1000
DIMRND
1070
     2
1040
0.0
1002
{
1002
}
1000
DIMSAH
1070
     1
1070
     0
1002
{
1002
}
1000
DIMSCALE
1070
     2
1040
1.0
1002
{
1002
}
1000
DIMSD1
1070
     1
1070
     0
1002
{
1002
}
1000
DIMSD2
1070
     1
1070
     0
1002
{
1002
}
1000
DIMSE1
1070
     1
1070
     0
1002
{
1002
}
1000
DIMSE2
1070
     1
1070
     0
1002
{
1002
}
1000
DIMSOXD
1070
     1
1070
     0
1002
{
1002
}
1000
DIMTAD
1070
     1
1070
     0
1002
{
1002
}
1000
DIMTFAC
1070
     2
1040
0.71
1002
{
1002
}
1000
DIMTIH
1070
     1
1070
     0
1002
{
1002
}
1000
DIMTIX
1070
     1
1070
     0
1002
{
1002
}
1000
DIMTM
1070
     2
1040
0.1
1002
{
1002
}
1000
DIMTOFL
1070
     1
1070
     0
1002
{
1002
}
1000
DIMTOH
1070
     1
1070
     0
1002
{
1002
}
1000
DIMTOL
1070
     1
1070
     0
1002
{
1002
}
1000
DIMTOLJ
1070
     1
1070
     1
1002
{
1002
}
1000
DIMTP
1070
     2
1040
0.1
1002
{
1002
}
1000
DIMTSZ
1070
     2
1040
0.0
1002
{
1002
}
1000
DIMTVP
1070
     2
1040
0.0
1002
{
1002
}
1000
DIMTXSTY
1070
     4
1000
STANDARD
1002
{
1002
}
1000
DIMTZIN
1070
     1
1070
     0
1002
{
1002
}
1000
DIMUNIT
1070
     1
1070
     2
1002
{
1002
}
1000
DIMUPT
1070
     1
1070
     0
1002
{
1002
}
1000
M
1070
     0
1002
{
1000
DIMALTF
1070
     2
1040
0.0393701
1002
{
1002
}
1000
DIMAPOST
1070
     4
1000
"
1002
{
1002
}
1000
DIMASZ
1070
     2
1040
2.5
1002
{
1002
}
1000
DIMCEN
1070
     2
1040
0.0
1002
{
1002
}
1000
DIMDEC
1070
     1
1070
     2
1002
{
1002
}
1000
DIMDLI
1070
     2
1040
7.0
1002
{
1002
}
1000
DIMEXE
1070
     2
1040
1.0
1002
{
1002
}
1000
DIMEXO
1070
     2
1040
1.0
1002
{
1002
}
1000
DIMGAP
1070
     2
1040
0.6
1002
{
1002
}
1000
DIMTDEC
1070
     1
1070
     3
1002
{
1002
}
1000
DIMTXT
1070
     2
1040
3.5
1002
{
1002
}
1000
DIMZIN
1070
     1
1070
     8
1002
{
1002
}
1002
}
1000
I
1070
     0
1002
{
1000
DIMALTF
1070
     2
1040
25.4
1002
{
1002
}
1000
DIMAPOST
1070
     4
1000
mm
1002
{
1002
}
1000
DIMASZ
1070
     2
1040
0.1
1002
{
1002
}
1000
DIMCEN
1070
     2
1040
0.0
1002
{
1002
}
1000
DIMDEC
1070
     1
1070
     4
1002
{
1002
}
1000
DIMDLI
1070
     2
1040
0.5
1002
{
1002
}
1000
DIMEXE
1070
     2
1040
0.1
1002
{
1002
}
1000
DIMEXO
1070
     2
1040
0.05
1002
{
1002
}
1000
DIMGAP
1070
     2
1040
0.06
1002
{
1002
}
1000
DIMTDEC
1070
     1
1070
     4
1002
{
1002
}
1000
DIMTXT
1070
     2
1040
0.12
1002
{
1002
}
1000
DIMZIN
1070
     1
1070
     7
1002
{
1002
}
1002
}
1000
GEN-ISO
1070
     5
1002
{
1000
NAME
1070
     4
1000
GEN-ISO
1002
{
1002
}
1000
DIMTAD
1070
     1
1070
     1
1002
{
1002
}
1000
DIMTOLJ
1070
     1
1070
     0
1002
{
1002
}
1000
DIMTOFL
1070
     1
1070
     1
1002
{
1002
}
1000
M
1070
     0
1002
{
1002
}
1000
I
1070
     0
1002
{
1002
}
1002
}
1000
GEN-ISO-POS
1070
     5
1002
{
1000
NAME
1070
     4
1000
GEN-ISO-POS
1002
{
1002
}
1000
DIMTOLJ
1070
     1
1070
     0
1002
{
1002
}
1000
DIMTXSTY
1070
     4
1000
STANDARD
1002
{
1002
}
1000
M
1070
     0
1002
{
1000
DIMASZ
1070
     2
1040
2.5
1002
{
1002
}
1000
DIMGAP
1070
     2
1040
1.5
1002
{
1002
}
1000
DIMTXT
1070
     2
1040
5.0
1002
{
1002
}
1002
}
1000
I
1070
     0
1002
{
1000
DIMASZ
1070
     2
1040
0.1
1002
{
1002
}
1000
DIMGAP
1070
     2
1040
0.06
1002
{
1002
}
1000
DIMTXT
1070
     2
1040
0.2
1002
{
1002
}
1002
}
1002
}
1000
GEN-ISO-CIR
1070
     5
1002
{
1000
NAME
1070
     4
1000
GEN-ISO$3
1002
{
1002
}
1000
DIMFIT
1070
     1
1070
     0
1002
{
1002
}
1000
DIMTAD
1070
     1
1070
     1
1002
{
1002
}
1000
DIMTOH
1070
     1
1070
     1
1002
{
1002
}
1000
DIMTOLJ
1070
     1
1070
     0
1002
{
1002
}
1000
DIMUPT
1070
     1
1070
     1
1002
{
1002
}
1000
M
1070
     0
1002
{
1002
}
1000
I
1070
     0
1002
{
1002
}
1002
}
1000
GEN-ISO-RAD
1070
     5
1002
{
1000
NAME
1070
     4
1000
GEN-ISO$4
1002
{
1002
}
1000
DIMFIT
1070
     1
1070
     0
1002
{
1002
}
1000
DIMTAD
1070
     1
1070
     1
1002
{
1002
}
1000
DIMTIH
1070
     1
1070
     0
1002
{
1002
}
1000
DIMTIX
1070
     1
1070
     0
1002
{
1002
}
1000
DIMTOH
1070
     1
1070
     1
1002
{
1002
}
1000
DIMTOLJ
1070
     1
1070
     0
1002
{
1002
}
1000
DIMTOFL
1070
     1
1070
     0
1002
{
1002
}
1000
DIMUPT
1070
     1
1070
     1
1002
{
1002
}
1000
M
1070
     0
1002
{
1002
}
1000
I
1070
     0
1002
{
1002
}
1002
}
1000
GEN-ISO-ORD
1070
     5
1002
{
1000
NAME
1070
     4
1000
GEN-ISO$6
1002
{
1000
dimtxt
1070
     4
1000
2.5
1002
{
1002
}
1002
}
1000
DIMTOLJ
1070
     1
1070
     0
1002
{
1002
}
1000
M
1070
     0
1002
{
1002
}
1000
I
1070
     0
1002
{
1002
}
1002
}
1000
GEN-ISO-AXE-F
1070
     5
1002
{
1000
NAME
1070
     4
1000
GEN-ISO-AXE-F
1002
{
1002
}
1000
DIMSE1
1070
     1
1070
     1
1002
{
1002
}
1000
DIMSE2
1070
     1
1070
     1
1002
{
1002
}
1000
DIMTAD
1070
     1
1070
     1
1002
{
1002
}
1000
DIMTOLJ
1070
     1
1070
     0
1002
{
1002
}
1000
DIMTOFL
1070
     1
1070
     1
1002
{
1002
}
1000
M
1070
     0
1002
{
1002
}
1000
I
1070
     0
1002
{
1002
}
1002
}
1000
GEN-ISO-AXE-H
1070
     5
1002
{
1000
NAME
1070
     4
1000
GEN-ISO-AXE-H
1002
{
1002
}
1000
DIMBLK1
1070
     4
1000
GENAXEH
1002
{
1002
}
1000
DIMLFAC
1070
     2
1040
2.0
1002
{
1002
}
1000
DIMSAH
1070
     1
1070
     1
1002
{
1002
}
1000
DIMSE1
1070
     1
1070
     1
1002
{
1002
}
1000
DIMSE2
1070
     1
1070
     1
1002
{
1002
}
1000
DIMTAD
1070
     1
1070
     1
1002
{
1002
}
1000
DIMTOLJ
1070
     1
1070
     0
1002
{
1002
}
1000
DIMTOFL
1070
     1
1070
     1
1002
{
1002
}
1000
M
1070
     0
1002
{
1002
}
1000
I
1070
     0
1002
{
1002
}
1002
}
1000
GEN-ANSI
1070
     5
1002
{
1000
NAME
1070
     4
1000
GEN-ANSI
1002
{
1002
}
1000
DIMTIH
1070
     1
1070
     1
1002
{
1002
}
1000
DIMTOH
1070
     1
1070
     1
1002
{
1002
}
1000
DIMTAD
1070
     1
1070
     0
1002
{
1002
}
1000
DIMTOLJ
1070
     1
1070
     1
1002
{
1002
}
1000
M
1070
     0
1002
{
1002
}
1000
I
1070
     0
1002
{
1002
}
1002
}
1000
GEN-ANSI-POS
1070
     5
1002
{
1000
NAME
1070
     4
1000
GEN-ANSI-POS
1002
{
1002
}
1000
DIMTOLJ
1070
     1
1070
     1
1002
{
1002
}
1000
DIMTXSTY
1070
     4
1000
STANDARD
1002
{
1002
}
1000
M
1070
     0
1002
{
1000
DIMASZ
1070
     2
1040
2.5
1002
{
1002
}
1000
DIMGAP
1070
     2
1040
1.5
1002
{
1002
}
1000
DIMTXT
1070
     2
1040
5.0
1002
{
1002
}
1002
}
1000
I
1070
     0
1002
{
1000
DIMASZ
1070
     2
1040
0.1
1002
{
1002
}
1000
DIMGAP
1070
     2
1040
0.06
1002
{
1002
}
1000
DIMTXT
1070
     2
1040
0.2
1002
{
1002
}
1002
}
1002
}
1000
GEN-ANSI-CIR
1070
     5
1002
{
1000
NAME
1070
     4
1000
GEN-ANSI$3
1002
{
1002
}
1000
DIMFIT
1070
     1
1070
     0
1002
{
1002
}
1000
DIMTAD
1070
     1
1070
     0
1002
{
1002
}
1000
DIMTIH
1070
     1
1070
     1
1002
{
1002
}
1000
DIMTIX
1070
     1
1070
     0
1002
{
1002
}
1000
DIMTOFL
1070
     1
1070
     0
1002
{
1002
}
1000
DIMTOH
1070
     1
1070
     1
1002
{
1002
}
1000
DIMTOLJ
1070
     1
1070
     1
1002
{
1002
}
1000
DIMUPT
1070
     1
1070
     1
1002
{
1002
}
1000
M
1070
     0
1002
{
1002
}
1000
I
1070
     0
1002
{
1002
}
1002
}
1000
GEN-ANSI-RAD
1070
     5
1002
{
1000
NAME
1070
     4
1000
GEN-ANSI$4
1002
{
1002
}
1000
DIMFIT
1070
     1
1070
     0
1002
{
1002
}
1000
DIMTAD
1070
     1
1070
     0
1002
{
1002
}
1000
DIMTIH
1070
     1
1070
     1
1002
{
1002
}
1000
DIMTIX
1070
     1
1070
     0
1002
{
1002
}
1000
DIMTOFL
1070
     1
1070
     0
1002
{
1002
}
1000
DIMTOH
1070
     1
1070
     1
1002
{
1002
}
1000
DIMTOLJ
1070
     1
1070
     1
1002
{
1002
}
1000
DIMUPT
1070
     1
1070
     1
1002
{
1002
}
1000
M
1070
     0
1002
{
1002
}
1000
I
1070
     0
1002
{
1002
}
1002
}
1000
GEN-ANSI-ORD
1070
     5
1002
{
1000
NAME
1070
     4
1000
GEN-ANSI$6
1002
{
1002
}
1000
DIMTAD
1070
     1
1070
     0
1002
{
1002
}
1000
DIMTIH
1070
     1
1070
     1
1002
{
1002
}
1000
DIMTOH
1070
     1
1070
     1
1002
{
1002
}
1000
DIMTOLJ
1070
     1
1070
     1
1002
{
1002
}
1000
M
1070
     0
1002
{
1002
}
1000
I
1070
     0
1002
{
1002
}
1002
}
1000
GEN-ANSI-AXE-F
1070
     5
1002
{
1000
NAME
1070
     4
1000
GEN-ANSI-AXE-F
1002
{
1002
}
1000
DIMBLK1
1070
     4
1000
GENAXEH
1002
{
1002
}
1000
DIMSAH
1070
     1
1070
     1
1002
{
1002
}
1000
DIMSE1
1070
     1
1070
     1
1002
{
1002
}
1000
DIMSE2
1070
     1
1070
     1
1002
{
1002
}
1000
DIMTAD
1070
     1
1070
     0
1002
{
1002
}
1000
DIMTIH
1070
     1
1070
     1
1002
{
1002
}
1000
DIMTOH
1070
     1
1070
     1
1002
{
1002
}
1000
DIMTOLJ
1070
     1
1070
     1
1002
{
1002
}
1000
M
1070
     0
1002
{
1002
}
1000
I
1070
     0
1002
{
1002
}
1002
}
1000
GEN-ANSI-AXE-H
1070
     5
1002
{
1000
NAME
1070
     4
1000
GEN-ANSI-AXE-H
1002
{
1002
}
1000
DIMBLK1
1070
     4
1000
GENAXEH
1002
{
1002
}
1000
DIMLFAC
1070
     2
1040
2.0
1002
{
1002
}
1000
DIMSAH
1070
     1
1070
     1
1002
{
1002
}
1000
DIMSE1
1070
     1
1070
     1
1002
{
1002
}
1000
DIMSE2
1070
     1
1070
     1
1002
{
1002
}
1000
DIMTAD
1070
     1
1070
     0
1002
{
1002
}
1000
DIMTOFL
1070
     1
1070
     1
1002
{
1002
}
1000
DIMTOLJ
1070
     1
1070
     1
1002
{
1002
}
1000
M
1070
     0
1002
{
1002
}
1000
I
1070
     0
1002
{
1002
}
1002
}
1002
}
1000
DimSet
1070
     0
1002
{
1000
ChainSum
1070
     3
1070
     0
1002
{
1002
}
1000
DimDclTyp0
1070
     4
1000
dim23
1002
{
1002
}
1000
HorBra
1070
     3
1070
     0
1002
{
1002
}
1000
StrDia
1070
     4
1000
%%c<>
1002
{
1002
}
1000
StrRad
1070
     4
1000
R<>
1002
{
1002
}
1000
TextMinus
1070
     4
1000
<>
1002
{
1002
}
1000
TextPlus
1070
     4
1000
<>
1002
{
1002
}
1000
M
1070
     0
1002
{
1000
DimdliFirst
1070
     2
1040
10.0
1002
{
1002
}
1000
PointMakeDist
1070
     2
1040
10.0
1002
{
1002
}
1002
}
1000
I
1070
     0
1002
{
1000
DimdliFirst
1070
     2
1040
0.5
1002
{
1002
}
1000
PointMakeDist
1070
     2
1040
0.5
1002
{
1002
}
1002
}
1000
FitGrade
1070
     4
1000
h7
1002
{
1002
}
1002
}
1000
Drawing
1070
     0
1002
{
1000
ChamferDimMode
1070
     1
1070
     2
1002
{
1002
}
1000
Gen_Fiso
1070
    -3
1040
1.0
1002
{
1002
}
1000
GenDimStil
1070
     4
1000
ISO
1002
{
1002
}
1000
GenDwgUScale
1070
     2
1040
1.0
1002
{
1002
}
1000
GenInch
1070
     4
1000
M
1002
{
1002
}
1000
GenPlotScale
1070
     4
1000
1:1
1002
{
1002
}
1000
Revisi
1070
     4
1000
0
1002
{
1002
}
1000
Version
1070
    -5
1000
14.01/Apr  1 1998
1002
{
1002
}
1000
Platform
1070
    -5
1000
WINNT
1002
{
1002
}
1002
}
1000
DwgVar
1070
     0
1002
{
1000
M
1070
     0
1002
{
1000
FILLETRAD
1070
     2
1040
0.000001
1002
{
1002
}
1002
}
1000
I
1070
     0
1002
{
1002
}
1002
}
1000
Hatch
1070
     0
1002
{
1000
GenHtcFlag
1070
     3
1070
     0
1002
{
1002
}
1002
}
1000
Info_Pos
1070
     0
1002
{
1000
>
1002
}
1000
Layer
1070
     6
1002
{
1000
Defs
1070
     0
1002
{
1000
>
1002
}
1000
EntSort
1070
     0
1002
{
1000
>
1002
}
1000
Match
1070
     0
1002
{
1002
}
1000
Settings
1070
     0
1002
{
1000
FocGrNC
1070
     3
1070
     0
1002
{
1002
}
1000
FocGrLo
1070
     3
1070
     0
1002
{
1002
}
1000
FocLoNC
1070
     3
1070
     0
1002
{
1002
}
1000
FocusCol
1070
     1
1070
   253
1002
{
1002
}
1000
GenStdLG
1070
     4
1000

1002
{
1002
}
1000
LayMatch
1070
     3
1070
     0
1002
{
1002
}
1000
LgOff
1070
     3
1070
     0
1002
{
1002
}
1000
CurLG
1070
    -5
1000

1002
{
1002
}
1002
}
1002
}
1000
LType
1070
     0
1002
{
1000
GEN3
1070
     7
1000
genius.lin
1002
{
1002
}
1000
GEN7
1070
     7
1000
genius.lin
1002
{
1002
}
1000
GEN4A
1070
     7
1000
genius.lin
1002
{
1002
}
1000
GEN3A
1070
     7
1000
genius.lin
1002
{
1002
}
1000
GEN7A
1070
     7
1000
genius.lin
1002
{
1002
}
1000
GENZIGZAG
1070
     7
1000
genius.lin
1002
{
1002
}
1002
}
1000
Objecter
1070
     0
1002
{
1000
CreateGroups
1070
     3
1070
     0
1002
{
1002
}
1000
LaySwitch
1070
     3
1070
     1
1002
{
1002
}
1000
LastObj
1070
    -5
1000
1B30
1002
{
1002
}
1000
TimeStamp
1070
    -5
1000
20000919.14350870
1002
{
1002
}
1002
}
1000
OSWiz
1070
     0
1002
{
1000
Filter
1070
     0
1002
{
1000
HATCH
1070
     8
1002
{
1000
EntityType
1070
     4
1000
LINE
1002
{
1002
}
1000
Layer
1070
     4
1000
8,8N,*-8,*-8N
1002
{
1002
}
1000
Linetype
1070
     4
1000
*
1002
{
1002
}
1000
Color
1070
     4
1000
*
1002
{
1002
}
1000
ApplyInDims
1070
     3
1070
     1
1002
{
1002
}
1002
}
1000
SYMBOLS
1070
     8
1002
{
1000
EntityType
1070
     4
1000
*
1002
{
1002
}
1000
Layer
1070
     4
1000
[5-6],[5-6]N,*-[5-6],*-[5-6]N
1002
{
1002
}
1000
Linetype
1070
     4
1000
*
1002
{
1002
}
1000
Color
1070
     4
1000
*
1002
{
1002
}
1000
ApplyInDims
1070
     3
1070
     1
1002
{
1002
}
1002
}
1000
FEM
1070
     8
1002
{
1000
EntityType
1070
     4
1000
*
1002
{
1002
}
1000
Layer
1070
     4
1000
4A,4AN,*-4A,*-4AN
1002
{
1002
}
1000
Linetype
1070
     4
1000
*
1002
{
1002
}
1000
Color
1070
     4
1000
*
1002
{
1002
}
1000
ApplyInDims
1070
     3
1070
     1
1002
{
1002
}
1002
}
1002
}
1002
}
1000
PaList
1070
     0
1002
{
1000
AutoUpdatePartList
1070
     1
1070
     0
1002
{
1002
}
1000
ReadInfoPoint
1070
     3
1070
     0
1002
{
1002
}
1000
ReadPosNr
1070
     3
1070
     1
1002
{
1002
}
1000
RevStr
1070
     4
1000
0
1002
{
1002
}
1002
}
1000
Paper
1070
     0
1002
{
1002
}
1000
PartDB
1070
     0
1002
{
1000
GenDbOwner
1070
     4
1000

1002
{
1002
}
1002
}
1000
System
1070
     0
1002
{
1000
Menu
1070
     4
1000
GEV
1002
{
1002
}
1002
}
1000
Title
1070
     0
1002
{
1000
MakeView
1070
     1
1070
     2
1002
{
1002
}
1002
}
1000
Tools
1070
     0
1002
{
1000
Trans
1070
     0
1002
{
1000
Drawingtranslation
1070
    -4
1070
     1
1002
{
1002
}
1000
upreserve
1070
     3
1070
     0
1002
{
1002
}
1000
originally_on
1070
    -4
1070
     0
1002
{
1002
}
1000
sourcelang
1070
    -5
1000
D
1002
{
1002
}
1002
}
1002
}
  0
APPID
  5
15BB
330
155C
100
AcDbSymbolTableRecord
100
AcDbRegAppTableRecord
  2
GENIUS_GEVCFG0_13
 70
     0
1001
GENIUS_GENCFG_13
1071
969366607
1000
15BB
1000
GEV
1070
     1
1000
GenCfgObject
1000
VED
1070
     0
1002
{
1002
}
  0
APPID
  5
15C6
330
155C
100
AcDbSymbolTableRecord
100
AcDbRegAppTableRecord
  2
GENIUS_GENBLLY_14
 70
     0
  0
APPID
  5
15C7
330
155C
100
AcDbSymbolTableRecord
100
AcDbRegAppTableRecord
  2
GENIUS_VERSION2
 70
     0
  0
APPID
  5
15C8
330
155C
100
AcDbSymbolTableRecord
100
AcDbRegAppTableRecord
  2
GENIUS_GENCFG5_13
 70
     0
  0
APPID
  5
15C9
330
155C
100
AcDbSymbolTableRecord
100
AcDbRegAppTableRecord
  2
GENIUS_GENREC_14
 70
     0
  0
APPID
  5
15CA
330
155C
100
AcDbSymbolTableRecord
100
AcDbRegAppTableRecord
  2
GENIUS_GENODEF_13
 70
     0
  0
APPID
  5
15CB
330
155C
100
AcDbSymbolTableRecord
100
AcDbRegAppTableRecord
  2
GENIUS_GENOBJ-N-REC_13
 70
     0
  0
APPID
  5
161C
330
155C
100
AcDbSymbolTableRecord
100
AcDbRegAppTableRecord
  2
GEV_VCCNULL_SWITCH_OFF
 70
     0
  0
APPID
  5
161D
330
155C
100
AcDbSymbolTableRecord
100
AcDbRegAppTableRecord
  2
GENIUS_GENDTOL_13
 70
     0
  0
APPID
  5
161E
330
155C
100
AcDbSymbolTableRecord
100
AcDbRegAppTableRecord
  2
GENIUS_GEFCFG0_13
 70
     0
1001
GENIUS_GENCFG_13
1071
969366607
1000
161E
1000
GEF
1070
     5
1000
GenCfgObject
1000
GenCfgString
1000
GenCfgReal
1000
GenCfgShort
1000
GenCfgBool
1000
System
1070
     0
1002
{
1002
}
1000
Prese
1070
     0
1002
{
1000
Funk
1070
     1
1000

1002
{
1002
}
1000
FunkDef
1070
     1
1000

1002
{
1002
}
1000
GefIso
1070
     1
1000
DIN
1002
{
1002
}
1002
}
1000
FEM
1070
     0
1002
{
1000
LayGroup
1070
     1
1000
FEM
1002
{
1002
}
1000
IncrCoef
1070
     2
1040
0.0
1002
{
1002
}
1002
}
1000
Shaft
1070
     0
1002
{
1000
Interrupt
1070
     3
1070
     0
1002
{
1002
}
1002
}
1000
PartDb
1070
     0
1002
{
1000
PartCreate
1070
     0
1002
{
1002
}
1000
SCP
1070
     0
1002
{
1002
}
1000
Symbol
1070
     0
1002
{
1002
}
1002
}
1000
Symbol
1070
     0
1002
{
1000
WeldStyle
1070
     1
1000
ISO
1002
{
1002
}
1000
WeldSize
1070
     2
1040
1.0
1002
{
1002
}
1000
WeldFlag
1070
     4
1070
     1
1002
{
1002
}
1000
WeldOffset
1070
     4
1070
     1
1002
{
1002
}
1000
TolCType
1070
     1
1000
ISO
1002
{
1002
}
1000
TolCSize
1070
     2
1040
1.0
1002
{
1002
}
1000
STextureSize
1070
     2
1040
1.0
1002
{
1002
}
1000
SurfaceType
1070
     1
1000

1002
{
1002
}
1000
M
1070
     0
1002
{
1000
WeldWidth
1070
     2
1040
3.0
1002
{
1002
}
1002
}
1000
I
1070
     0
1002
{
1000
WeldWidth
1070
     2
1040
0.125
1002
{
1002
}
1002
}
1002
}
  0
APPID
  5
161F
330
155C
100
AcDbSymbolTableRecord
100
AcDbRegAppTableRecord
  2
GENIUS_GENTRA_14
 70
     0
  0
APPID
  5
1620
330
155C
100
AcDbSymbolTableRecord
100
AcDbRegAppTableRecord
  2
GENIUS_GENOBJ-N-TIT_13
 70
     0
  0
APPID
  5
1621
330
155C
100
AcDbSymbolTableRecord
100
AcDbRegAppTableRecord
  2
GENIUS_GENTITLE_13
 70
     0
  0
APPID
  5
1622
330
155C
100
AcDbSymbolTableRecord
100
AcDbRegAppTableRecord
  2
GENIUS_GENOREF_13
 70
     0
  0
APPID
  5
1623
330
155C
100
AcDbSymbolTableRecord
100
AcDbRegAppTableRecord
  2
GENIUS_GENOLIS_13
 70
     0
  0
APPID
  5
1624
330
155C
100
AcDbSymbolTableRecord
100
AcDbRegAppTableRecord
  2
GENIUS_GENZVEED_13
 70
     0
  0
APPID
  5
1625
330
155C
100
AcDbSymbolTableRecord
100
AcDbRegAppTableRecord
  2
GENIUS_GENOBJ-N-SDF_13
 70
     0
  0
APPID
  5
1626
330
155C
100
AcDbSymbolTableRecord
100
AcDbRegAppTableRecord
  2
GENIUS_GENSCREG_13
 70
     0
  0
APPID
  5
1627
330
155C
100
AcDbSymbolTableRecord
100
AcDbRegAppTableRecord
  2
GENIUS_GENBLKED_14
 70
     0
  0
APPID
  5
1628
330
155C
100
AcDbSymbolTableRecord
100
AcDbRegAppTableRecord
  2
GENIUS_DUMCFG0_13
 70
     0
  0
APPID
  5
17C1
330
155C
100
AcDbSymbolTableRecord
100
AcDbRegAppTableRecord
  2
GENIUS_GENHINW_13
 70
     0
  0
APPID
  5
17C3
330
155C
100
AcDbSymbolTableRecord
100
AcDbRegAppTableRecord
  2
GENIUS_GENOBJ-F-TOLL_13
 70
     0
  0
APPID
  5
17DC
330
155C
100
AcDbSymbolTableRecord
100
AcDbRegAppTableRecord
  2
GENIUS_GEFTOLC_13
 70
     0
  0
APPID
  5
17DE
330
155C
100
AcDbSymbolTableRecord
100
AcDbRegAppTableRecord
  2
GENIUS_GENOBJ-F-TOL_13
 70
     0
  0
APPID
  5
17DF
330
155C
100
AcDbSymbolTableRecord
100
AcDbRegAppTableRecord
  2
GENIUS_GENOBJ-N-RSSYM_13
 70
     0
  0
APPID
  5
17E0
330
155C
100
AcDbSymbolTableRecord
100
AcDbRegAppTableRecord
  2
GENIUS_GENSYMENT_13
 70
     0
  0
APPID
  5
17E1
330
155C
100
AcDbSymbolTableRecord
100
AcDbRegAppTableRecord
  2
GENIUS_GENSCSYM_13
 70
     0
  0
APPID
  5
1AD3
330
155C
100
AcDbSymbolTableRecord
100
AcDbRegAppTableRecord
  2
GENIUS_GENOBJ-N-RSBK_13
 70
     0
  0
APPID
  5
1AD4
330
155C
100
AcDbSymbolTableRecord
100
AcDbRegAppTableRecord
  2
GENIUS_GENSCALE_13
 70
     0
  0
APPID
  5
1AD5
330
155C
100
AcDbSymbolTableRecord
100
AcDbRegAppTableRecord
  2
GENIUS_GENOBJ-F-TOLS_13
 70
     0
  0
APPID
  5
1B58
330
155C
100
AcDbSymbolTableRecord
100
AcDbRegAppTableRecord
  2
MCAD_NO_VIS
 70
     0
  0
APPID
  5
1B59
330
155C
100
AcDbSymbolTableRecord
100
AcDbRegAppTableRecord
  2
ACAD_TEMP_GRAPHIC
 70
     0
  0
APPID
  5
1B5A
330
155C
100
AcDbSymbolTableRecord
100
AcDbRegAppTableRecord
  2
ACATTRIBSERVICES
 70
     0
  0
APPID
  5
1B5B
330
155C
100
AcDbSymbolTableRecord
100
AcDbRegAppTableRecord
  2
AD_DRAW
 70
     0
  0
APPID
  5
1B5C
330
155C
100
AcDbSymbolTableRecord
100
AcDbRegAppTableRecord
  2
DESIGNERASSEMBLIES
 70
     0
  0
APPID
  5
1B5D
330
155C
100
AcDbSymbolTableRecord
100
AcDbRegAppTableRecord
  2
ACADM_DIM_EDIT
 70
     0
  0
APPID
  5
1B5E
330
155C
100
AcDbSymbolTableRecord
100
AcDbRegAppTableRecord
  2
AMDT_DM_ADJ
 70
     0
  0
APPID
  5
1B5F
330
155C
100
AcDbSymbolTableRecord
100
AcDbRegAppTableRecord
  2
ACAD_DSTYLE_DIMARC_LENGTH_SYMBOL
 70
     0
  0
APPID
  5
1B60
330
155C
100
AcDbSymbolTableRecord
100
AcDbRegAppTableRecord
  2
ACAD_DSTYLE_DIMJOGGED_JOGANGLE_SYMBOL
 70
     0
  0
APPID
  5
1C26
330
155C
100
AcDbSymbolTableRecord
100
AcDbRegAppTableRecord
  2
GENIUS_GENSCREG_15
 70
     0
  0
ENDTAB
  0
TABLE
  2
DIMSTYLE
  5
155D
330
0
100
AcDbSymbolTable
 70
     8
100
AcDbDimStyleTable
 71
     0
  0
DIMSTYLE
105
1588
102
{ACAD_REACTORS
330
113E
330
1152
330
1175
330
1428
330
19B8
330
19F9
102
}
330
155D
100
AcDbSymbolTableRecord
100
AcDbDimStyleTableRecord
  2
GEN-ISO
 70
     0
  4
"
 41
2.5
 42
1.0
 43
7.0
 44
1.0
 47
0.1
 48
0.1
 73
     0
 74
     0
 77
     1
 78
     8
140
3.5
141
0.0
143
0.0393701
146
0.71
147
0.6
172
     1
176
   256
177
   256
178
     2
271
     2
272
     3
274
     4
283
     0
340
1562
  0
DIMSTYLE
105
1BF5
330
155D
100
AcDbSymbolTableRecord
100
AcDbDimStyleTableRecord
  2
AM_ISO
 70
     0
  4
"
 41
2.5
 42
1.0
 43
10.0
 44
1.0
 47
0.1
 48
0.1
 73
     0
 74
     0
 77
     1
 78
     8
 79
     2
140
3.5
141
0.0
143
0.0393701
146
0.71
147
1.5
172
     1
176
   256
177
   256
178
     2
271
     2
272
     3
274
     4
283
     0
284
     8
340
1562
371
    -1
372
    -1
1001
ACAD_DSTYLE_DIMARC_LENGTH_SYMBOL
1070
   379
1070
     1
1001
ACAD_DSTYLE_DIMJOGGED_JOGANGLE_SYMBOL
1070
   384
1040
0.7853981633974483
  0
DIMSTYLE
105
1BF6
330
155D
100
AcDbSymbolTableRecord
100
AcDbDimStyleTableRecord
  2
AM_ISO$3
 70
     0
  4
"
 41
2.5
 42
1.0
 43
10.0
 44
1.0
 47
0.1
 48
0.1
 73
     0
 77
     1
 78
     8
 79
     2
140
3.5
141
0.0
143
0.0393701
146
0.71
147
1.5
176
   256
177
   256
178
     2
271
     2
272
     3
274
     4
283
     0
284
     8
288
     1
289
     0
340
1562
371
    -1
372
    -1
1001
ACAD_DSTYLE_DIMARC_LENGTH_SYMBOL
1070
   379
1070
     1
1001
ACAD_DSTYLE_DIMJOGGED_JOGANGLE_SYMBOL
1070
   384
1040
0.7853981633974483
  0
DIMSTYLE
105
1BF7
330
155D
100
AcDbSymbolTableRecord
100
AcDbDimStyleTableRecord
  2
AM_ISO$4
 70
     0
  4
"
 41
2.5
 42
1.0
 43
10.0
 44
1.0
 47
0.1
 48
0.1
 73
     0
 77
     1
 78
     8
 79
     2
140
3.5
141
0.0
143
0.0393701
146
0.71
147
1.5
176
   256
177
   256
178
     2
271
     2
272
     3
274
     4
283
     0
284
     8
288
     1
289
     0
340
1562
371
    -1
372
    -1
1001
ACAD_DSTYLE_DIMARC_LENGTH_SYMBOL
1070
   379
1070
     1
1001
ACAD_DSTYLE_DIMJOGGED_JOGANGLE_SYMBOL
1070
   384
1040
0.7853981633974483
  0
DIMSTYLE
105
1BF8
330
155D
100
AcDbSymbolTableRecord
100
AcDbDimStyleTableRecord
  2
AM_ISO$6
 70
     0
  4
"
 41
2.5
 42
1.0
 43
10.0
 44
1.0
 47
0.1
 48
0.1
 73
     0
 74
     0
 78
     8
 79
     2
140
3.5
141
0.0
143
0.0393701
146
0.71
147
1.5
172
     1
176
   256
177
   256
178
     2
271
     2
272
     3
274
     4
283
     0
284
     8
340
1562
371
    -1
372
    -1
1001
ACAD_DSTYLE_DIMARC_LENGTH_SYMBOL
1070
   379
1070
     1
1001
ACAD_DSTYLE_DIMJOGGED_JOGANGLE_SYMBOL
1070
   384
1040
0.7853981633974483
  0
DIMSTYLE
105
1BF9
330
155D
100
AcDbSymbolTableRecord
100
AcDbDimStyleTableRecord
  2
AM_ISO$7
 70
     0
  4
"
 41
2.5
 42
1.0
 43
10.0
 44
1.0
 47
0.1
 48
0.1
 73
     0
 74
     0
 77
     1
 78
     8
 79
     2
140
5.0
141
0.0
143
0.0393701
146
0.71
147
1.5
172
     1
176
   256
177
   256
178
     2
271
     2
272
     3
274
     4
283
     0
284
     8
340
1562
371
    -1
372
    -1
1001
ACAD_DSTYLE_DIMARC_LENGTH_SYMBOL
1070
   379
1070
     1
1001
ACAD_DSTYLE_DIMJOGGED_JOGANGLE_SYMBOL
1070
   384
1040
0.7853981633974483
  0
DIMSTYLE
105
1BFA
330
155D
100
AcDbSymbolTableRecord
100
AcDbDimStyleTableRecord
  2
AM_ISO$SF
 70
     0
  4
"
 41
2.5
 42
1.0
 43
10.0
 44
1.0
 47
0.1
 48
0.1
 73
     0
 74
     0
 75
     1
 76
     1
 77
     1
 78
     8
 79
     2
140
3.5
141
0.0
143
0.0393701
146
0.71
147
1.5
172
     1
176
   256
177
   256
178
     2
271
     2
272
     3
274
     4
283
     0
284
     8
340
1562
371
    -1
372
    -1
1001
ACAD_DSTYLE_DIMARC_LENGTH_SYMBOL
1070
   379
1070
     1
1001
ACAD_DSTYLE_DIMJOGGED_JOGANGLE_SYMBOL
1070
   384
1040
0.7853981633974483
  0
DIMSTYLE
105
1BFB
330
155D
100
AcDbSymbolTableRecord
100
AcDbDimStyleTableRecord
  2
AM_ISO$SH
 70
     0
  4
"
 41
2.5
 42
1.0
 43
10.0
 44
1.0
 47
0.1
 48
0.1
 73
     0
 74
     0
 75
     1
 76
     1
 77
     1
 78
     8
 79
     2
140
3.5
141
0.0
143
0.0393701
144
2.0
146
0.71
147
1.5
172
     1
173
     1
176
   256
177
   256
178
     2
271
     2
272
     3
274
     4
283
     0
284
     8
340
1562
343
1BD1
371
    -1
372
    -1
1001
ACAD_DSTYLE_DIMARC_LENGTH_SYMBOL
1070
   379
1070
     1
1001
ACAD_DSTYLE_DIMJOGGED_JOGANGLE_SYMBOL
1070
   384
1040
0.7853981633974483
  0
ENDTAB
  0
TABLE
  2
BLOCK_RECORD
  5
1554
330
0
100
AcDbSymbolTable
 70
    18
  0
BLOCK_RECORD
  5
156B
330
1554
100
AcDbSymbolTableRecord
100
AcDbBlockTableRecord
  2
*MODEL_SPACE
340
1B4D
  0
BLOCK_RECORD
  5
1568
330
1554
100
AcDbSymbolTableRecord
100
AcDbBlockTableRecord
  2
*PAPER_SPACE
340
1B4E
  0
BLOCK_RECORD
  5
1592
330
1554
100
AcDbSymbolTableRecord
100
AcDbBlockTableRecord
  2
*X0
340
0
102
{BLKREFS
331
10E9
102
}
  0
BLOCK_RECORD
  5
1593
330
1554
100
AcDbSymbolTableRecord
100
AcDbBlockTableRecord
  2
*X1
340
0
102
{BLKREFS
331
10FB
102
}
  0
BLOCK_RECORD
  5
1594
330
1554
100
AcDbSymbolTableRecord
100
AcDbBlockTableRecord
  2
*X2
340
0
102
{BLKREFS
331
1108
102
}
  0
BLOCK_RECORD
  5
1595
330
1554
100
AcDbSymbolTableRecord
100
AcDbBlockTableRecord
  2
*X3
340
0
102
{BLKREFS
331
1114
102
}
  0
BLOCK_RECORD
  5
1596
330
1554
100
AcDbSymbolTableRecord
100
AcDbBlockTableRecord
  2
*X4
340
0
102
{BLKREFS
331
1121
102
}
  0
BLOCK_RECORD
  5
1597
330
1554
100
AcDbSymbolTableRecord
100
AcDbBlockTableRecord
  2
*X5
340
0
102
{BLKREFS
331
112E
102
}
  0
BLOCK_RECORD
  5
15A9
330
1554
100
AcDbSymbolTableRecord
100
AcDbBlockTableRecord
  2
*X6
340
0
102
{BLKREFS
331
1460
102
}
  0
BLOCK_RECORD
  5
15AA
330
1554
100
AcDbSymbolTableRecord
100
AcDbBlockTableRecord
  2
*X7
340
0
102
{BLKREFS
331
1484
102
}
  0
BLOCK_RECORD
  5
15AB
330
1554
100
AcDbSymbolTableRecord
100
AcDbBlockTableRecord
  2
*X8
340
0
102
{BLKREFS
331
14A2
102
}
  0
BLOCK_RECORD
  5
15AC
330
1554
100
AcDbSymbolTableRecord
100
AcDbBlockTableRecord
  2
*X9
340
0
102
{BLKREFS
331
14C7
102
}
  0
BLOCK_RECORD
  5
184F
330
1554
100
AcDbSymbolTableRecord
100
AcDbBlockTableRecord
  2
*D10
340
0
  0
BLOCK_RECORD
  5
18AA
330
1554
100
AcDbSymbolTableRecord
100
AcDbBlockTableRecord
  2
*D11
340
0
  0
BLOCK_RECORD
  5
192D
330
1554
100
AcDbSymbolTableRecord
100
AcDbBlockTableRecord
  2
*D12
340
0
  0
BLOCK_RECORD
  5
1946
330
1554
100
AcDbSymbolTableRecord
100
AcDbBlockTableRecord
  2
*D13
340
0
  0
BLOCK_RECORD
  5
19AA
330
1554
100
AcDbSymbolTableRecord
100
AcDbBlockTableRecord
  2
*D14
340
0
  0
BLOCK_RECORD
  5
19EB
330
1554
100
AcDbSymbolTableRecord
100
AcDbBlockTableRecord
  2
*D15
340
0
  0
BLOCK_RECORD
  5
1BD1
330
1554
100
AcDbSymbolTableRecord
100
AcDbBlockTableRecord
  2
GENAXEH
340
0
  0
ENDTAB
  0
ENDSEC
  0
SECTION
  2
BLOCKS
  0
BLOCK
  5
156C
330
156B
100
AcDbEntity
  8
0
100
AcDbBlockBegin
  2
*MODEL_SPACE
 70
     0
 10
0.0
 20
0.0
 30
0.0
  3
*MODEL_SPACE
  1

  0
ENDBLK
  5
156D
330
156B
100
AcDbEntity
  8
0
100
AcDbBlockEnd
  0
BLOCK
  5
1569
330
1568
100
AcDbEntity
 67
     1
  8
0
100
AcDbBlockBegin
  2
*PAPER_SPACE
 70
     0
 10
0.0
 20
0.0
 30
0.0
  3
*PAPER_SPACE
  1

  0
ENDBLK
  5
156A
330
1568
100
AcDbEntity
 67
     1
  8
0
100
AcDbBlockEnd
  0
BLOCK
  5
10DF
330
1592
100
AcDbEntity
  8
0
100
AcDbBlockBegin
  2
*X0
 70
     1
 10
0.0
 20
0.0
 30
0.0
  3
*X0
  1

  0
LINE
  5
10E0
330
1592
100
AcDbEntity
  8
8
100
AcDbLine
 10
103.426
 20
83.04700000000002
 30
0.0
 11
108.426
 21
88.04700000000002
 31
0.0
  0
LINE
  5
10E1
330
1592
100
AcDbEntity
  8
8
100
AcDbLine
 10
98.93600000000001
 20
83.04700000000002
 30
0.0
 11
103.936
 21
88.04700000000002
 31
0.0
  0
LINE
  5
10E2
330
1592
100
AcDbEntity
  8
8
100
AcDbLine
 10
94.44599999999999
 20
83.04700000000002
 30
0.0
 11
99.44600000000001
 21
88.04700000000002
 31
0.0
  0
LINE
  5
10E3
330
1592
100
AcDbEntity
  8
8
100
AcDbLine
 10
89.95499999999999
 20
83.04700000000002
 30
0.0
 11
94.95499999999999
 21
88.04700000000002
 31
0.0
  0
LINE
  5
10E4
330
1592
100
AcDbEntity
  8
8
100
AcDbLine
 10
85.46499999999999
 20
83.04700000000002
 30
0.0
 11
90.46499999999999
 21
88.04700000000002
 31
0.0
  0
LINE
  5
10E5
330
1592
100
AcDbEntity
  8
8
100
AcDbLine
 10
80.975
 20
83.04700000000002
 30
0.0
 11
85.975
 21
88.04700000000002
 31
0.0
  0
LINE
  5
10E6
330
1592
100
AcDbEntity
  8
8
100
AcDbLine
 10
76.485
 20
83.04700000000002
 30
0.0
 11
81.485
 21
88.04700000000002
 31
0.0
  0
LINE
  5
10E7
330
1592
100
AcDbEntity
  8
8
100
AcDbLine
 10
74.587
 20
85.63799999999998
 30
0.0
 11
76.995
 21
88.04700000000002
 31
0.0
  0
ENDBLK
  5
10E8
330
1592
100
AcDbEntity
  8
0
100
AcDbBlockEnd
  0
BLOCK
  5
10F1
330
1593
100
AcDbEntity
  8
0
100
AcDbBlockBegin
  2
*X1
 70
     1
 10
0.0
 20
0.0
 30
0.0
  3
*X1
  1

  0
LINE
  5
10F2
330
1593
100
AcDbEntity
  8
8
100
AcDbLine
 10
103.291
 20
249.047
 30
0.0
 11
108.291
 21
254.047
 31
0.0
  0
LINE
  5
10F3
330
1593
100
AcDbEntity
  8
8
100
AcDbLine
 10
98.801
 20
249.047
 30
0.0
 11
103.801
 21
254.047
 31
0.0
  0
LINE
  5
10F4
330
1593
100
AcDbEntity
  8
8
100
AcDbLine
 10
94.311
 20
249.047
 30
0.0
 11
99.311
 21
254.047
 31
0.0
  0
LINE
  5
10F5
330
1593
100
AcDbEntity
  8
8
100
AcDbLine
 10
89.821
 20
249.047
 30
0.0
 11
94.821
 21
254.047
 31
0.0
  0
LINE
  5
10F6
330
1593
100
AcDbEntity
  8
8
100
AcDbLine
 10
85.33100000000001
 20
249.047
 30
0.0
 11
90.33100000000001
 21
254.047
 31
0.0
  0
LINE
  5
10F7
330
1593
100
AcDbEntity
  8
8
100
AcDbLine
 10
80.84000000000001
 20
249.047
 30
0.0
 11
85.84000000000001
 21
254.047
 31
0.0
  0
LINE
  5
10F8
330
1593
100
AcDbEntity
  8
8
100
AcDbLine
 10
76.34999999999999
 20
249.047
 30
0.0
 11
81.34999999999999
 21
254.047
 31
0.0
  0
LINE
  5
10F9
330
1593
100
AcDbEntity
  8
8
100
AcDbLine
 10
74.587
 20
251.773
 30
0.0
 11
76.85999999999999
 21
254.047
 31
0.0
  0
ENDBLK
  5
10FA
330
1593
100
AcDbEntity
  8
0
100
AcDbBlockEnd
  0
BLOCK
  5
1103
330
1594
100
AcDbEntity
  8
0
100
AcDbBlockBegin
  2
*X2
 70
     1
 10
0.0
 20
0.0
 30
0.0
  3
*X2
  1

  0
LINE
  5
1104
330
1594
100
AcDbEntity
  8
8
100
AcDbLine
 10
74.947
 20
120.547
 30
0.0
 11
77.947
 21
117.547
 31
0.0
  0
LINE
  5
1105
330
1594
100
AcDbEntity
  8
8
100
AcDbLine
 10
79.438
 20
120.547
 30
0.0
 11
82.43799999999998
 21
117.547
 31
0.0
  0
LINE
  5
1106
330
1594
100
AcDbEntity
  8
8
100
AcDbLine
 10
83.92799999999999
 20
120.547
 30
0.0
 11
86.58700000000001
 21
117.888
 31
0.0
  0
ENDBLK
  5
1107
330
1594
100
AcDbEntity
  8
0
100
AcDbBlockEnd
  0
BLOCK
  5
1110
330
1595
100
AcDbEntity
  8
0
100
AcDbBlockBegin
  2
*X3
 70
     1
 10
0.0
 20
0.0
 30
0.0
  3
*X3
  1

  0
LINE
  5
1111
330
1595
100
AcDbEntity
  8
8
100
AcDbLine
 10
77.86799999999999
 20
153.547
 30
0.0
 11
80.868
 21
150.547
 31
0.0
  0
LINE
  5
1112
330
1595
100
AcDbEntity
  8
8
100
AcDbLine
 10
82.35899999999999
 20
153.547
 30
0.0
 11
85.35899999999999
 21
150.547
 31
0.0
  0
ENDBLK
  5
1113
330
1595
100
AcDbEntity
  8
0
100
AcDbBlockEnd
  0
BLOCK
  5
111C
330
1596
100
AcDbEntity
  8
0
100
AcDbBlockBegin
  2
*X4
 70
     1
 10
0.0
 20
0.0
 30
0.0
  3
*X4
  1

  0
LINE
  5
111D
330
1596
100
AcDbEntity
  8
8
100
AcDbLine
 10
76.29899999999999
 20
186.547
 30
0.0
 11
79.29899999999999
 21
183.547
 31
0.0
  0
LINE
  5
111E
330
1596
100
AcDbEntity
  8
8
100
AcDbLine
 10
80.789
 20
186.547
 30
0.0
 11
83.78899999999999
 21
183.547
 31
0.0
  0
LINE
  5
111F
330
1596
100
AcDbEntity
  8
8
100
AcDbLine
 10
85.28
 20
186.547
 30
0.0
 11
86.58700000000001
 21
185.24
 31
0.0
  0
ENDBLK
  5
1120
330
1596
100
AcDbEntity
  8
0
100
AcDbBlockEnd
  0
BLOCK
  5
1129
330
1597
100
AcDbEntity
  8
0
100
AcDbBlockBegin
  2
*X5
 70
     1
 10
0.0
 20
0.0
 30
0.0
  3
*X5
  1

  0
LINE
  5
112A
330
1597
100
AcDbEntity
  8
8
100
AcDbLine
 10
74.73
 20
219.547
 30
0.0
 11
77.73
 21
216.547
 31
0.0
  0
LINE
  5
112B
330
1597
100
AcDbEntity
  8
8
100
AcDbLine
 10
79.22
 20
219.547
 30
0.0
 11
82.21999999999999
 21
216.547
 31
0.0
  0
LINE
  5
112C
330
1597
100
AcDbEntity
  8
8
100
AcDbLine
 10
83.71
 20
219.547
 30
0.0
 11
86.58700000000001
 21
216.671
 31
0.0
  0
ENDBLK
  5
112D
330
1597
100
AcDbEntity
  8
0
100
AcDbBlockEnd
  0
BLOCK
  5
1443
330
15A9
100
AcDbEntity
  8
0
100
AcDbBlockBegin
  2
*X6
 70
     1
 10
0.0
 20
0.0
 30
0.0
  3
*X6
  1

  0
LINE
  5
1444
330
15A9
100
AcDbEntity
  8
8
100
AcDbLine
 10
183.377
 20
249.3
 30
0.0
 11
186.937
 21
249.3
 31
0.0
  0
LINE
  5
1445
330
15A9
100
AcDbEntity
  8
8
100
AcDbLine
 10
183.512
 20
249.48
 30
0.0
 11
186.937
 21
249.48
 31
0.0
  0
LINE
  5
1446
330
15A9
100
AcDbEntity
  8
8
100
AcDbLine
 10
183.647
 20
249.66
 30
0.0
 11
186.937
 21
249.66
 31
0.0
  0
LINE
  5
1447
330
15A9
100
AcDbEntity
  8
8
100
AcDbLine
 10
183.782
 20
249.84
 30
0.0
 11
186.937
 21
249.84
 31
0.0
  0
LINE
  5
1448
330
15A9
100
AcDbEntity
  8
8
100
AcDbLine
 10
183.917
 20
250.02
 30
0.0
 11
186.937
 21
250.02
 31
0.0
  0
LINE
  5
1449
330
15A9
100
AcDbEntity
  8
8
100
AcDbLine
 10
184.052
 20
250.2
 30
0.0
 11
186.937
 21
250.2
 31
0.0
  0
LINE
  5
144A
330
15A9
100
AcDbEntity
  8
8
100
AcDbLine
 10
184.187
 20
250.38
 30
0.0
 11
186.937
 21
250.38
 31
0.0
  0
LINE
  5
144B
330
15A9
100
AcDbEntity
  8
8
100
AcDbLine
 10
184.322
 20
250.56
 30
0.0
 11
186.937
 21
250.56
 31
0.0
  0
LINE
  5
144C
330
15A9
100
AcDbEntity
  8
8
100
AcDbLine
 10
184.457
 20
250.74
 30
0.0
 11
186.937
 21
250.74
 31
0.0
  0
LINE
  5
144D
330
15A9
100
AcDbEntity
  8
8
100
AcDbLine
 10
184.592
 20
250.92
 30
0.0
 11
186.937
 21
250.92
 31
0.0
  0
LINE
  5
144E
330
15A9
100
AcDbEntity
  8
8
100
AcDbLine
 10
184.727
 20
251.1
 30
0.0
 11
186.937
 21
251.1
 31
0.0
  0
LINE
  5
144F
330
15A9
100
AcDbEntity
  8
8
100
AcDbLine
 10
184.862
 20
251.28
 30
0.0
 11
186.937
 21
251.28
 31
0.0
  0
LINE
  5
1450
330
15A9
100
AcDbEntity
  8
8
100
AcDbLine
 10
184.997
 20
251.46
 30
0.0
 11
186.937
 21
251.46
 31
0.0
  0
LINE
  5
1451
330
15A9
100
AcDbEntity
  8
8
100
AcDbLine
 10
185.132
 20
251.64
 30
0.0
 11
186.937
 21
251.64
 31
0.0
  0
LINE
  5
1452
330
15A9
100
AcDbEntity
  8
8
100
AcDbLine
 10
185.267
 20
251.82
 30
0.0
 11
186.937
 21
251.82
 31
0.0
  0
LINE
  5
1453
330
15A9
100
AcDbEntity
  8
8
100
AcDbLine
 10
185.402
 20
252.0
 30
0.0
 11
186.937
 21
252.0
 31
0.0
  0
LINE
  5
1454
330
15A9
100
AcDbEntity
  8
8
100
AcDbLine
 10
185.537
 20
252.18
 30
0.0
 11
186.937
 21
252.18
 31
0.0
  0
LINE
  5
1455
330
15A9
100
AcDbEntity
  8
8
100
AcDbLine
 10
185.672
 20
252.36
 30
0.0
 11
186.937
 21
252.36
 31
0.0
  0
LINE
  5
1456
330
15A9
100
AcDbEntity
  8
8
100
AcDbLine
 10
185.807
 20
252.54
 30
0.0
 11
186.937
 21
252.54
 31
0.0
  0
LINE
  5
1457
330
15A9
100
AcDbEntity
  8
8
100
AcDbLine
 10
185.942
 20
252.72
 30
0.0
 11
186.937
 21
252.72
 31
0.0
  0
LINE
  5
1458
330
15A9
100
AcDbEntity
  8
8
100
AcDbLine
 10
186.077
 20
252.9
 30
0.0
 11
186.937
 21
252.9
 31
0.0
  0
LINE
  5
1459
330
15A9
100
AcDbEntity
  8
8
100
AcDbLine
 10
186.212
 20
253.08
 30
0.0
 11
186.937
 21
253.08
 31
0.0
  0
LINE
  5
145A
330
15A9
100
AcDbEntity
  8
8
100
AcDbLine
 10
186.347
 20
253.26
 30
0.0
 11
186.937
 21
253.26
 31
0.0
  0
LINE
  5
145B
330
15A9
100
AcDbEntity
  8
8
100
AcDbLine
 10
186.482
 20
253.44
 30
0.0
 11
186.937
 21
253.44
 31
0.0
  0
LINE
  5
145C
330
15A9
100
AcDbEntity
  8
8
100
AcDbLine
 10
186.617
 20
253.62
 30
0.0
 11
186.937
 21
253.62
 31
0.0
  0
LINE
  5
145D
330
15A9
100
AcDbEntity
  8
8
100
AcDbLine
 10
186.752
 20
253.8
 30
0.0
 11
186.937
 21
253.8
 31
0.0
  0
LINE
  5
145E
330
15A9
100
AcDbEntity
  8
8
100
AcDbLine
 10
186.887
 20
253.98
 30
0.0
 11
186.937
 21
253.98
 31
0.0
  0
ENDBLK
  5
145F
330
15A9
100
AcDbEntity
  8
0
100
AcDbBlockEnd
  0
BLOCK
  5
1467
330
15AA
100
AcDbEntity
  8
0
100
AcDbBlockBegin
  2
*X7
 70
     1
 10
0.0
 20
0.0
 30
0.0
  3
*X7
  1

  0
LINE
  5
1468
330
15AA
100
AcDbEntity
  8
8
100
AcDbLine
 10
350.437
 20
249.3
 30
0.0
 11
353.997
 21
249.3
 31
0.0
  0
LINE
  5
1469
330
15AA
100
AcDbEntity
  8
8
100
AcDbLine
 10
350.437
 20
249.48
 30
0.0
 11
353.862
 21
249.48
 31
0.0
  0
LINE
  5
146A
330
15AA
100
AcDbEntity
  8
8
100
AcDbLine
 10
350.437
 20
249.66
 30
0.0
 11
353.727
 21
249.66
 31
0.0
  0
LINE
  5
146B
330
15AA
100
AcDbEntity
  8
8
100
AcDbLine
 10
350.437
 20
249.84
 30
0.0
 11
353.592
 21
249.84
 31
0.0
  0
LINE
  5
146C
330
15AA
100
AcDbEntity
  8
8
100
AcDbLine
 10
350.437
 20
250.02
 30
0.0
 11
353.457
 21
250.02
 31
0.0
  0
LINE
  5
146D
330
15AA
100
AcDbEntity
  8
8
100
AcDbLine
 10
350.437
 20
250.2
 30
0.0
 11
353.322
 21
250.2
 31
0.0
  0
LINE
  5
146E
330
15AA
100
AcDbEntity
  8
8
100
AcDbLine
 10
350.437
 20
250.38
 30
0.0
 11
353.187
 21
250.38
 31
0.0
  0
LINE
  5
146F
330
15AA
100
AcDbEntity
  8
8
100
AcDbLine
 10
350.437
 20
250.56
 30
0.0
 11
353.052
 21
250.56
 31
0.0
  0
LINE
  5
1470
330
15AA
100
AcDbEntity
  8
8
100
AcDbLine
 10
350.437
 20
250.74
 30
0.0
 11
352.917
 21
250.74
 31
0.0
  0
LINE
  5
1471
330
15AA
100
AcDbEntity
  8
8
100
AcDbLine
 10
350.437
 20
250.92
 30
0.0
 11
352.782
 21
250.92
 31
0.0
  0
LINE
  5
1472
330
15AA
100
AcDbEntity
  8
8
100
AcDbLine
 10
350.437
 20
251.1
 30
0.0
 11
352.647
 21
251.1
 31
0.0
  0
LINE
  5
1473
330
15AA
100
AcDbEntity
  8
8
100
AcDbLine
 10
350.437
 20
251.28
 30
0.0
 11
352.5119999999999
 21
251.28
 31
0.0
  0
LINE
  5
1474
330
15AA
100
AcDbEntity
  8
8
100
AcDbLine
 10
350.437
 20
251.46
 30
0.0
 11
352.3769999999999
 21
251.46
 31
0.0
  0
LINE
  5
1475
330
15AA
100
AcDbEntity
  8
8
100
AcDbLine
 10
350.437
 20
251.64
 30
0.0
 11
352.242
 21
251.64
 31
0.0
  0
LINE
  5
1476
330
15AA
100
AcDbEntity
  8
8
100
AcDbLine
 10
350.437
 20
251.82
 30
0.0
 11
352.107
 21
251.82
 31
0.0
  0
LINE
  5
1477
330
15AA
100
AcDbEntity
  8
8
100
AcDbLine
 10
350.437
 20
252.0
 30
0.0
 11
351.972
 21
252.0
 31
0.0
  0
LINE
  5
1478
330
15AA
100
AcDbEntity
  8
8
100
AcDbLine
 10
350.437
 20
252.18
 30
0.0
 11
351.837
 21
252.18
 31
0.0
  0
LINE
  5
1479
330
15AA
100
AcDbEntity
  8
8
100
AcDbLine
 10
350.437
 20
252.36
 30
0.0
 11
351.702
 21
252.36
 31
0.0
  0
LINE
  5
147A
330
15AA
100
AcDbEntity
  8
8
100
AcDbLine
 10
350.437
 20
252.54
 30
0.0
 11
351.567
 21
252.54
 31
0.0
  0
LINE
  5
147B
330
15AA
100
AcDbEntity
  8
8
100
AcDbLine
 10
350.437
 20
252.72
 30
0.0
 11
351.432
 21
252.72
 31
0.0
  0
LINE
  5
147C
330
15AA
100
AcDbEntity
  8
8
100
AcDbLine
 10
350.437
 20
252.9
 30
0.0
 11
351.297
 21
252.9
 31
0.0
  0
LINE
  5
147D
330
15AA
100
AcDbEntity
  8
8
100
AcDbLine
 10
350.437
 20
253.08
 30
0.0
 11
351.162
 21
253.08
 31
0.0
  0
LINE
  5
147E
330
15AA
100
AcDbEntity
  8
8
100
AcDbLine
 10
350.437
 20
253.26
 30
0.0
 11
351.027
 21
253.26
 31
0.0
  0
LINE
  5
147F
330
15AA
100
AcDbEntity
  8
8
100
AcDbLine
 10
350.437
 20
253.44
 30
0.0
 11
350.892
 21
253.44
 31
0.0
  0
LINE
  5
1480
330
15AA
100
AcDbEntity
  8
8
100
AcDbLine
 10
350.437
 20
253.62
 30
0.0
 11
350.7569999999999
 21
253.62
 31
0.0
  0
LINE
  5
1481
330
15AA
100
AcDbEntity
  8
8
100
AcDbLine
 10
350.437
 20
253.8
 30
0.0
 11
350.6219999999999
 21
253.8
 31
0.0
  0
LINE
  5
1482
330
15AA
100
AcDbEntity
  8
8
100
AcDbLine
 10
350.437
 20
253.98
 30
0.0
 11
350.487
 21
253.98
 31
0.0
  0
ENDBLK
  5
1483
330
15AA
100
AcDbEntity
  8
0
100
AcDbBlockEnd
  0
BLOCK
  5
148B
330
15AB
100
AcDbEntity
  8
0
100
AcDbBlockBegin
  2
*X8
 70
     1
 10
0.0
 20
0.0
 30
0.0
  3
*X8
  1

  0
LINE
  5
148C
330
15AB
100
AcDbEntity
  8
8
100
AcDbLine
 10
349.187
 20
83.16
 30
0.0
 11
349.339
 21
83.16
 31
0.0
  0
LINE
  5
148D
330
15AB
100
AcDbEntity
  8
8
100
AcDbLine
 10
349.187
 20
83.34000000000001
 30
0.0
 11
349.579
 21
83.34000000000001
 31
0.0
  0
LINE
  5
148E
330
15AB
100
AcDbEntity
  8
8
100
AcDbLine
 10
349.187
 20
83.52
 30
0.0
 11
349.819
 21
83.52
 31
0.0
  0
LINE
  5
148F
330
15AB
100
AcDbEntity
  8
8
100
AcDbLine
 10
349.187
 20
83.7
 30
0.0
 11
350.059
 21
83.7
 31
0.0
  0
LINE
  5
1490
330
15AB
100
AcDbEntity
  8
8
100
AcDbLine
 10
349.187
 20
83.87999999999999
 30
0.0
 11
350.299
 21
83.87999999999999
 31
0.0
  0
LINE
  5
1491
330
15AB
100
AcDbEntity
  8
8
100
AcDbLine
 10
349.187
 20
84.06
 30
0.0
 11
350.539
 21
84.06
 31
0.0
  0
LINE
  5
1492
330
15AB
100
AcDbEntity
  8
8
100
AcDbLine
 10
349.187
 20
84.23999999999999
 30
0.0
 11
350.779
 21
84.23999999999999
 31
0.0
  0
LINE
  5
1493
330
15AB
100
AcDbEntity
  8
8
100
AcDbLine
 10
349.187
 20
84.42
 30
0.0
 11
351.019
 21
84.42
 31
0.0
  0
LINE
  5
1494
330
15AB
100
AcDbEntity
  8
8
100
AcDbLine
 10
349.187
 20
84.59999999999999
 30
0.0
 11
351.259
 21
84.59999999999999
 31
0.0
  0
LINE
  5
1495
330
15AB
100
AcDbEntity
  8
8
100
AcDbLine
 10
349.187
 20
84.77999999999999
 30
0.0
 11
351.499
 21
84.77999999999999
 31
0.0
  0
LINE
  5
1496
330
15AB
100
AcDbEntity
  8
8
100
AcDbLine
 10
349.187
 20
84.96
 30
0.0
 11
351.739
 21
84.96
 31
0.0
  0
LINE
  5
1497
330
15AB
100
AcDbEntity
  8
8
100
AcDbLine
 10
349.187
 20
85.14000000000001
 30
0.0
 11
351.979
 21
85.14000000000001
 31
0.0
  0
LINE
  5
1498
330
15AB
100
AcDbEntity
  8
8
100
AcDbLine
 10
349.187
 20
85.32
 30
0.0
 11
352.219
 21
85.32
 31
0.0
  0
LINE
  5
1499
330
15AB
100
AcDbEntity
  8
8
100
AcDbLine
 10
349.187
 20
85.5
 30
0.0
 11
352.459
 21
85.5
 31
0.0
  0
LINE
  5
149A
330
15AB
100
AcDbEntity
  8
8
100
AcDbLine
 10
349.187
 20
85.68000000000001
 30
0.0
 11
352.699
 21
85.68000000000001
 31
0.0
  0
LINE
  5
149B
330
15AB
100
AcDbEntity
  8
8
100
AcDbLine
 10
349.187
 20
85.86
 30
0.0
 11
352.939
 21
85.86
 31
0.0
  0
LINE
  5
149C
330
15AB
100
AcDbEntity
  8
8
100
AcDbLine
 10
349.187
 20
86.04
 30
0.0
 11
353.179
 21
86.04
 31
0.0
  0
LINE
  5
149D
330
15AB
100
AcDbEntity
  8
8
100
AcDbLine
 10
349.187
 20
86.21999999999999
 30
0.0
 11
353.4190000000001
 21
86.21999999999999
 31
0.0
  0
LINE
  5
149E
330
15AB
100
AcDbEntity
  8
8
100
AcDbLine
 10
349.187
 20
86.4
 30
0.0
 11
353.659
 21
86.4
 31
0.0
  0
LINE
  5
149F
330
15AB
100
AcDbEntity
  8
8
100
AcDbLine
 10
349.187
 20
86.57999999999999
 30
0.0
 11
353.899
 21
86.57999999999999
 31
0.0
  0
LINE
  5
14A0
330
15AB
100
AcDbEntity
  8
8
100
AcDbLine
 10
349.187
 20
86.76
 30
0.0
 11
354.139
 21
86.76
 31
0.0
  0
ENDBLK
  5
14A1
330
15AB
100
AcDbEntity
  8
0
100
AcDbBlockEnd
  0
BLOCK
  5
14A9
330
15AC
100
AcDbEntity
  8
0
100
AcDbBlockBegin
  2
*X9
 70
     1
 10
0.0
 20
0.0
 30
0.0
  3
*X9
  1

  0
LINE
  5
14AA
330
15AC
100
AcDbEntity
  8
8
100
AcDbLine
 10
186.852
 20
83.16
 30
0.0
 11
186.937
 21
83.16
 31
0.0
  0
LINE
  5
14AB
330
15AC
100
AcDbEntity
  8
8
100
AcDbLine
 10
186.717
 20
83.34000000000001
 30
0.0
 11
186.937
 21
83.34000000000001
 31
0.0
  0
LINE
  5
14AC
330
15AC
100
AcDbEntity
  8
8
100
AcDbLine
 10
186.582
 20
83.52
 30
0.0
 11
186.937
 21
83.52
 31
0.0
  0
LINE
  5
14AD
330
15AC
100
AcDbEntity
  8
8
100
AcDbLine
 10
186.447
 20
83.7
 30
0.0
 11
186.937
 21
83.7
 31
0.0
  0
LINE
  5
14AE
330
15AC
100
AcDbEntity
  8
8
100
AcDbLine
 10
186.312
 20
83.87999999999999
 30
0.0
 11
186.937
 21
83.87999999999999
 31
0.0
  0
LINE
  5
14AF
330
15AC
100
AcDbEntity
  8
8
100
AcDbLine
 10
186.177
 20
84.06
 30
0.0
 11
186.937
 21
84.06
 31
0.0
  0
LINE
  5
14B0
330
15AC
100
AcDbEntity
  8
8
100
AcDbLine
 10
186.042
 20
84.23999999999999
 30
0.0
 11
186.937
 21
84.23999999999999
 31
0.0
  0
LINE
  5
14B1
330
15AC
100
AcDbEntity
  8
8
100
AcDbLine
 10
185.907
 20
84.42
 30
0.0
 11
186.937
 21
84.42
 31
0.0
  0
LINE
  5
14B2
330
15AC
100
AcDbEntity
  8
8
100
AcDbLine
 10
185.772
 20
84.59999999999999
 30
0.0
 11
186.937
 21
84.59999999999999
 31
0.0
  0
LINE
  5
14B3
330
15AC
100
AcDbEntity
  8
8
100
AcDbLine
 10
185.637
 20
84.77999999999999
 30
0.0
 11
186.937
 21
84.77999999999999
 31
0.0
  0
LINE
  5
14B4
330
15AC
100
AcDbEntity
  8
8
100
AcDbLine
 10
185.502
 20
84.96
 30
0.0
 11
186.937
 21
84.96
 31
0.0
  0
LINE
  5
14B5
330
15AC
100
AcDbEntity
  8
8
100
AcDbLine
 10
185.367
 20
85.14000000000001
 30
0.0
 11
186.937
 21
85.14000000000001
 31
0.0
  0
LINE
  5
14B6
330
15AC
100
AcDbEntity
  8
8
100
AcDbLine
 10
185.232
 20
85.32
 30
0.0
 11
186.937
 21
85.32
 31
0.0
  0
LINE
  5
14B7
330
15AC
100
AcDbEntity
  8
8
100
AcDbLine
 10
185.097
 20
85.5
 30
0.0
 11
186.937
 21
85.5
 31
0.0
  0
LINE
  5
14B8
330
15AC
100
AcDbEntity
  8
8
100
AcDbLine
 10
184.962
 20
85.68000000000001
 30
0.0
 11
186.937
 21
85.68000000000001
 31
0.0
  0
LINE
  5
14B9
330
15AC
100
AcDbEntity
  8
8
100
AcDbLine
 10
184.827
 20
85.86
 30
0.0
 11
186.937
 21
85.86
 31
0.0
  0
LINE
  5
14BA
330
15AC
100
AcDbEntity
  8
8
100
AcDbLine
 10
184.692
 20
86.04
 30
0.0
 11
186.937
 21
86.04
 31
0.0
  0
LINE
  5
14BB
330
15AC
100
AcDbEntity
  8
8
100
AcDbLine
 10
184.557
 20
86.21999999999999
 30
0.0
 11
186.937
 21
86.21999999999999
 31
0.0
  0
LINE
  5
14BC
330
15AC
100
AcDbEntity
  8
8
100
AcDbLine
 10
184.422
 20
86.4
 30
0.0
 11
186.937
 21
86.4
 31
0.0
  0
LINE
  5
14BD
330
15AC
100
AcDbEntity
  8
8
100
AcDbLine
 10
184.287
 20
86.57999999999999
 30
0.0
 11
186.937
 21
86.57999999999999
 31
0.0
  0
LINE
  5
14BE
330
15AC
100
AcDbEntity
  8
8
100
AcDbLine
 10
184.152
 20
86.76
 30
0.0
 11
186.937
 21
86.76
 31
0.0
  0
LINE
  5
14BF
330
15AC
100
AcDbEntity
  8
8
100
AcDbLine
 10
184.017
 20
86.94
 30
0.0
 11
186.937
 21
86.94
 31
0.0
  0
LINE
  5
14C0
330
15AC
100
AcDbEntity
  8
8
100
AcDbLine
 10
183.882
 20
87.12000000000001
 30
0.0
 11
186.937
 21
87.12000000000001
 31
0.0
  0
LINE
  5
14C1
330
15AC
100
AcDbEntity
  8
8
100
AcDbLine
 10
183.747
 20
87.3
 30
0.0
 11
186.937
 21
87.3
 31
0.0
  0
LINE
  5
14C2
330
15AC
100
AcDbEntity
  8
8
100
AcDbLine
 10
183.612
 20
87.48000000000001
 30
0.0
 11
186.937
 21
87.48000000000001
 31
0.0
  0
LINE
  5
14C3
330
15AC
100
AcDbEntity
  8
8
100
AcDbLine
 10
183.477
 20
87.66
 30
0.0
 11
186.937
 21
87.66
 31
0.0
  0
LINE
  5
14C4
330
15AC
100
AcDbEntity
  8
8
100
AcDbLine
 10
183.342
 20
87.84
 30
0.0
 11
186.937
 21
87.84
 31
0.0
  0
LINE
  5
14C5
330
15AC
100
AcDbEntity
  8
8
100
AcDbLine
 10
183.207
 20
88.01999999999999
 30
0.0
 11
186.937
 21
88.01999999999999
 31
0.0
  0
ENDBLK
  5
14C6
330
15AC
100
AcDbEntity
  8
0
100
AcDbBlockEnd
  0
BLOCK
  5
185B
330
184F
100
AcDbEntity
  8
0
100
AcDbBlockBegin
  2
*D10
 70
     1
 10
0.0
 20
0.0
 30
0.0
  3
*D10
  1
GEVFRAME
  0
LINE
  5
1C74
330
184F
100
AcDbEntity
  8
5
370
    -2
100
AcDbLine
 10
253.6870000000001
 20
363.647
 30
0.0
 11
253.6870000000001
 21
373.647
 31
0.0
  0
LINE
  5
1C75
330
184F
100
AcDbEntity
  8
5
370
    -2
100
AcDbLine
 10
283.6870000000001
 20
363.647
 30
0.0
 11
283.6870000000001
 21
373.647
 31
0.0
  0
LINE
  5
1C76
330
184F
100
AcDbEntity
  8
5
370
    -2
100
AcDbLine
 10
256.1870000000001
 20
372.647
 30
0.0
 11
281.1870000000001
 21
372.647
 31
0.0
  0
SOLID
  5
1C77
330
184F
100
AcDbEntity
  8
5
100
AcDbTrace
 10
256.1870000000001
 20
373.0636666666667
 30
0.0
 11
256.1870000000001
 21
372.2303333333333
 31
0.0
 12
253.6870000000001
 22
372.647
 32
0.0
 13
253.6870000000001
 23
372.647
 33
0.0
  0
SOLID
  5
1C78
330
184F
100
AcDbEntity
  8
5
100
AcDbTrace
 10
281.1870000000001
 20
373.0636666666667
 30
0.0
 11
281.1870000000001
 21
372.2303333333333
 31
0.0
 12
283.6870000000001
 22
372.647
 32
0.0
 13
283.6870000000001
 23
372.647
 33
0.0
  0
MTEXT
  5
1C79
330
184F
100
AcDbEntity
  8
5
 62
     2
100
AcDbMText
 10
268.6870000000001
 20
374.997
 30
0.0
 40
3.5
 41
0.0
 71
     5
 72
     1
  1
 30 
 73
     1
 44
1.0
1001
ACAD
1000
MTEXTBEGIN
1070
    73
1070
     1
1070
    44
1040
1.0
1070
    74
1070
     0
1000
MTEXTEND
  0
POINT
  5
1C7A
330
184F
100
AcDbEntity
  8
DEFPOINTS
 62
     0
100
AcDbPoint
 10
253.6870000000001
 20
362.647
 30
0.0
  0
POINT
  5
1C7B
330
184F
100
AcDbEntity
  8
DEFPOINTS
 62
     0
100
AcDbPoint
 10
283.6870000000001
 20
362.647
 30
0.0
  0
POINT
  5
1C7C
330
184F
100
AcDbEntity
  8
DEFPOINTS
 62
     0
100
AcDbPoint
 10
283.6870000000001
 20
372.647
 30
0.0
  0
ENDBLK
  5
1865
330
184F
100
AcDbEntity
  8
0
100
AcDbBlockEnd
  0
BLOCK
  5
18B6
330
18AA
100
AcDbEntity
  8
0
100
AcDbBlockBegin
  2
*D11
 70
     1
 10
0.0
 20
0.0
 30
0.0
  3
*D11
  1
GEVFRAME
  0
LINE
  5
1C7D
330
18AA
100
AcDbEntity
  8
5
370
    -2
100
AcDbLine
 10
182.187
 20
362.6470000000001
 30
0.0
 11
162.1870000000001
 21
362.6470000000001
 31
0.0
  0
LINE
  5
1C7E
330
18AA
100
AcDbEntity
  8
5
370
    -2
100
AcDbLine
 10
182.187
 20
327.6470000000001
 30
0.0
 11
162.1870000000001
 21
327.6470000000001
 31
0.0
  0
LINE
  5
1C7F
330
18AA
100
AcDbEntity
  8
5
370
    -2
100
AcDbLine
 10
163.1870000000001
 20
360.147
 30
0.0
 11
163.1870000000001
 21
330.1470000000001
 31
0.0
  0
SOLID
  5
1C80
330
18AA
100
AcDbEntity
  8
5
100
AcDbTrace
 10
162.7703333333334
 20
360.147
 30
0.0
 11
163.6036666666668
 21
360.147
 31
0.0
 12
163.1870000000001
 22
362.6470000000001
 32
0.0
 13
163.1870000000001
 23
362.6470000000001
 33
0.0
  0
SOLID
  5
1C81
330
18AA
100
AcDbEntity
  8
5
100
AcDbTrace
 10
162.7703333333334
 20
330.1470000000001
 30
0.0
 11
163.6036666666668
 21
330.1470000000001
 31
0.0
 12
163.1870000000001
 22
327.6470000000001
 32
0.0
 13
163.1870000000001
 23
327.6470000000001
 33
0.0
  0
MTEXT
  5
1C82
330
18AA
100
AcDbEntity
  8
5
 62
     2
100
AcDbMText
 10
160.837
 20
345.147
 30
0.0
 40
3.5
 41
0.0
 71
     5
 72
     1
  1
 35 
 11
0.0000000000000001
 21
1.0
 31
0.0
 73
     1
 44
1.0
1001
ACAD
1000
MTEXTBEGIN
1070
    73
1070
     1
1070
    44
1040
1.0
1070
    74
1070
     0
1000
MTEXTEND
  0
POINT
  5
1C83
330
18AA
100
AcDbEntity
  8
DEFPOINTS
 62
     0
100
AcDbPoint
 10
183.1870000000001
 20
362.6470000000001
 30
0.0
  0
POINT
  5
1C84
330
18AA
100
AcDbEntity
  8
DEFPOINTS
 62
     0
100
AcDbPoint
 10
183.1870000000001
 20
327.6470000000001
 30
0.0
  0
POINT
  5
1C85
330
18AA
100
AcDbEntity
  8
DEFPOINTS
 62
     0
100
AcDbPoint
 10
163.1870000000001
 20
327.6470000000001
 30
0.0
  0
ENDBLK
  5
18C0
330
18AA
100
AcDbEntity
  8
0
100
AcDbBlockEnd
  0
BLOCK
  5
1939
330
192D
100
AcDbEntity
  8
0
100
AcDbBlockBegin
  2
*D12
 70
     1
 10
0.0
 20
0.0
 30
0.0
  3
*D12
  1
GEVFRAME
  0
LINE
  5
1C8F
330
192D
100
AcDbEntity
  8
5
370
    -2
100
AcDbLine
 10
187.187
 20
182.547
 30
0.0
 11
170.187
 21
182.547
 31
0.0
  0
LINE
  5
1C90
330
192D
100
AcDbEntity
  8
5
370
    -2
100
AcDbLine
 10
187.187
 20
154.547
 30
0.0
 11
170.187
 21
154.547
 31
0.0
  0
LINE
  5
1C91
330
192D
100
AcDbEntity
  8
5
370
    -2
100
AcDbLine
 10
171.187
 20
180.047
 30
0.0
 11
171.187
 21
157.047
 31
0.0
  0
SOLID
  5
1C92
330
192D
100
AcDbEntity
  8
5
100
AcDbTrace
 10
170.7703333333333
 20
180.047
 30
0.0
 11
171.6036666666667
 21
180.047
 31
0.0
 12
171.187
 22
182.547
 32
0.0
 13
171.187
 23
182.547
 33
0.0
  0
SOLID
  5
1C93
330
192D
100
AcDbEntity
  8
5
100
AcDbTrace
 10
170.7703333333333
 20
157.047
 30
0.0
 11
171.6036666666667
 21
157.047
 31
0.0
 12
171.187
 22
154.547
 32
0.0
 13
171.187
 23
154.547
 33
0.0
  0
MTEXT
  5
1C94
330
192D
100
AcDbEntity
  8
5
 62
     2
100
AcDbMText
 10
168.836655511811
 20
168.744
 30
0.0
 40
3.5
 41
0.0
 71
     5
 72
     1
  1
 28 
 11
0.0000000000000001
 21
1.0
 31
0.0
 73
     1
 44
1.0
1001
ACAD
1000
MTEXTBEGIN
1070
    73
1070
     1
1070
    44
1040
1.0
1070
    74
1070
     0
1000
MTEXTEND
  0
POINT
  5
1C95
330
192D
100
AcDbEntity
  8
DEFPOINTS
 62
     0
100
AcDbPoint
 10
188.187
 20
182.547
 30
0.0
  0
POINT
  5
1C96
330
192D
100
AcDbEntity
  8
DEFPOINTS
 62
     0
100
AcDbPoint
 10
188.187
 20
154.547
 30
0.0
  0
POINT
  5
1C97
330
192D
100
AcDbEntity
  8
DEFPOINTS
 62
     0
100
AcDbPoint
 10
171.187
 20
154.547
 30
0.0
  0
ENDBLK
  5
1943
330
192D
100
AcDbEntity
  8
0
100
AcDbBlockEnd
  0
BLOCK
  5
1A33
330
1946
100
AcDbEntity
  8
0
100
AcDbBlockBegin
  2
*D13
 70
     1
 10
0.0
 20
0.0
 30
0.0
  3
*D13
  1
GEVFRAME
  0
LINE
  5
1C86
330
1946
100
AcDbEntity
  8
5
370
    -2
100
AcDbLine
 10
183.1870000000001
 20
363.647
 30
0.0
 11
183.1870000000001
 21
388.647
 31
0.0
  0
LINE
  5
1C87
330
1946
100
AcDbEntity
  8
5
370
    -2
100
AcDbLine
 10
354.1870000000001
 20
363.647
 30
0.0
 11
354.1870000000001
 21
388.647
 31
0.0
  0
LINE
  5
1C88
330
1946
100
AcDbEntity
  8
5
370
    -2
100
AcDbLine
 10
185.687
 20
387.647
 30
0.0
 11
351.6870000000001
 21
387.647
 31
0.0
  0
SOLID
  5
1C89
330
1946
100
AcDbEntity
  8
5
100
AcDbTrace
 10
185.687
 20
388.0636666666667
 30
0.0
 11
185.687
 21
387.2303333333333
 31
0.0
 12
183.1870000000001
 22
387.647
 32
0.0
 13
183.1870000000001
 23
387.647
 33
0.0
  0
SOLID
  5
1C8A
330
1946
100
AcDbEntity
  8
5
100
AcDbTrace
 10
351.6870000000001
 20
388.0636666666667
 30
0.0
 11
351.6870000000001
 21
387.2303333333333
 31
0.0
 12
354.1870000000001
 22
387.647
 32
0.0
 13
354.1870000000001
 23
387.647
 33
0.0
  0
MTEXT
  5
1C8B
330
1946
100
AcDbEntity
  8
5
 62
     2
100
AcDbMText
 10
268.4550000000001
 20
389.997
 30
0.0
 40
3.5
 41
0.0
 71
     5
 72
     1
  1
{\Fgeniso.shx|c0;\U+25A1}171
 73
     1
 44
1.0
1001
ACAD
1000
MTEXTBEGIN
1070
    73
1070
     1
1070
    44
1040
1.0
1070
    74
1070
     0
1000
MTEXTEND
  0
POINT
  5
1C8C
330
1946
100
AcDbEntity
  8
DEFPOINTS
 62
     0
100
AcDbPoint
 10
183.1870000000001
 20
362.6470000000001
 30
0.0
  0
POINT
  5
1C8D
330
1946
100
AcDbEntity
  8
DEFPOINTS
 62
     0
100
AcDbPoint
 10
354.1870000000001
 20
362.647
 30
0.0
  0
POINT
  5
1C8E
330
1946
100
AcDbEntity
  8
DEFPOINTS
 62
     0
100
AcDbPoint
 10
354.1870000000001
 20
387.647
 30
0.0
  0
ENDBLK
  5
1A3D
330
1946
100
AcDbEntity
  8
0
100
AcDbBlockEnd
  0
BLOCK
  5
19C6
330
19AA
100
AcDbEntity
  8
0
100
AcDbBlockBegin
  2
*D14
 70
     1
 10
0.0
 20
0.0
 30
0.0
  3
*D14
  1
GEVFRAME
  0
LINE
  5
1C98
330
19AA
100
AcDbEntity
  8
5
370
    -2
100
AcDbLine
 10
187.187
 20
187.547
 30
0.0
 11
170.1890730675056
 21
187.547
 31
0.0
  0
LINE
  5
1C99
330
19AA
100
AcDbEntity
  8
5
370
    -2
100
AcDbLine
 10
187.187
 20
182.547
 30
0.0
 11
170.1890730675056
 21
182.547
 31
0.0
  0
LINE
  5
1C9A
330
19AA
100
AcDbEntity
  8
5
370
    -2
100
AcDbLine
 10
171.1890730675056
 20
190.047
 30
0.0
 11
171.1890730675056
 21
192.547
 31
0.0
  0
LINE
  5
1C9B
330
19AA
100
AcDbEntity
  8
5
370
    -2
100
AcDbLine
 10
171.1890730675056
 20
180.047
 30
0.0
 11
171.1890730675056
 21
177.547
 31
0.0
  0
LINE
  5
1C9C
330
19AA
100
AcDbEntity
  8
5
370
    -2
100
AcDbLine
 10
171.1890730675056
 20
187.547
 30
0.0
 11
171.1890730675056
 21
182.547
 31
0.0
  0
SOLID
  5
1C9D
330
19AA
100
AcDbEntity
  8
5
100
AcDbTrace
 10
170.7724064008389
 20
190.047
 30
0.0
 11
171.6057397341722
 21
190.047
 31
0.0
 12
171.1890730675056
 22
187.547
 32
0.0
 13
171.1890730675056
 23
187.547
 33
0.0
  0
SOLID
  5
1C9E
330
19AA
100
AcDbEntity
  8
5
100
AcDbTrace
 10
170.7724064008389
 20
180.047
 30
0.0
 11
171.6057397341722
 21
180.047
 31
0.0
 12
171.1890730675056
 22
182.547
 32
0.0
 13
171.1890730675056
 23
182.547
 33
0.0
  0
MTEXT
  5
1C9F
330
19AA
100
AcDbEntity
  8
5
 62
     2
100
AcDbMText
 10
168.8390730675056
 20
185.047
 30
0.0
 40
3.5
 41
0.0
 71
     5
 72
     1
  1
5
 11
0.0000000000000001
 21
1.0
 31
0.0
 73
     1
 44
1.0
1001
ACAD
1000
MTEXTBEGIN
1070
    73
1070
     1
1070
    44
1040
1.0
1070
    74
1070
     0
1000
MTEXTEND
  0
POINT
  5
1CA0
330
19AA
100
AcDbEntity
  8
DEFPOINTS
 62
     0
100
AcDbPoint
 10
188.187
 20
187.547
 30
0.0
  0
POINT
  5
1CA1
330
19AA
100
AcDbEntity
  8
DEFPOINTS
 62
     0
100
AcDbPoint
 10
188.187
 20
182.547
 30
0.0
  0
POINT
  5
1CA2
330
19AA
100
AcDbEntity
  8
DEFPOINTS
 62
     0
100
AcDbPoint
 10
171.1890730675056
 20
182.547
 30
0.0
  0
ENDBLK
  5
19D2
330
19AA
100
AcDbEntity
  8
0
100
AcDbBlockEnd
  0
BLOCK
  5
1A07
330
19EB
100
AcDbEntity
  8
0
100
AcDbBlockBegin
  2
*D15
 70
     1
 10
0.0
 20
0.0
 30
0.0
  3
*D15
  1
GEVFRAME
  0
LINE
  5
1CA3
330
19EB
100
AcDbEntity
  8
5
370
    -2
100
AcDbLine
 10
286.6870000000001
 20
363.647
 30
0.0
 11
286.6870000000001
 21
373.647001
 31
0.0
  0
LINE
  5
1CA4
330
19EB
100
AcDbEntity
  8
5
370
    -2
100
AcDbLine
 10
283.6870000000001
 20
363.647
 30
0.0
 11
283.6870000000001
 21
373.647001
 31
0.0
  0
LINE
  5
1CA5
330
19EB
100
AcDbEntity
  8
5
370
    -2
100
AcDbLine
 10
289.1870000000001
 20
372.647001
 30
0.0
 11
291.6870000000001
 21
372.647001
 31
0.0
  0
LINE
  5
1CA6
330
19EB
100
AcDbEntity
  8
5
370
    -2
100
AcDbLine
 10
281.1870000000001
 20
372.647001
 30
0.0
 11
278.6870000000001
 21
372.647001
 31
0.0
  0
LINE
  5
1CA7
330
19EB
100
AcDbEntity
  8
5
370
    -2
100
AcDbLine
 10
286.6870000000001
 20
372.647001
 30
0.0
 11
283.6870000000001
 21
372.647001
 31
0.0
  0
SOLID
  5
1CA8
330
19EB
100
AcDbEntity
  8
5
100
AcDbTrace
 10
289.1870000000001
 20
373.0636676666667
 30
0.0
 11
289.1870000000001
 21
372.2303343333333
 31
0.0
 12
286.6870000000001
 22
372.647001
 32
0.0
 13
286.6870000000001
 23
372.647001
 33
0.0
  0
SOLID
  5
1CA9
330
19EB
100
AcDbEntity
  8
5
100
AcDbTrace
 10
281.1870000000001
 20
373.0636676666667
 30
0.0
 11
281.1870000000001
 21
372.2303343333333
 31
0.0
 12
283.6870000000001
 22
372.647001
 32
0.0
 13
283.6870000000001
 23
372.647001
 33
0.0
  0
MTEXT
  5
1CAA
330
19EB
100
AcDbEntity
  8
5
 62
     2
100
AcDbMText
 10
285.1870000000001
 20
374.997001
 30
0.0
 40
3.5
 41
0.0
 71
     5
 72
     1
  1
3
 73
     1
 44
1.0
1001
ACAD
1000
MTEXTBEGIN
1070
    73
1070
     1
1070
    44
1040
1.0
1070
    74
1070
     0
1000
MTEXTEND
  0
POINT
  5
1CAB
330
19EB
100
AcDbEntity
  8
DEFPOINTS
 62
     0
100
AcDbPoint
 10
286.6870000000001
 20
362.647
 30
0.0
  0
POINT
  5
1CAC
330
19EB
100
AcDbEntity
  8
DEFPOINTS
 62
     0
100
AcDbPoint
 10
283.6870000000001
 20
362.647
 30
0.0
  0
POINT
  5
1CAD
330
19EB
100
AcDbEntity
  8
DEFPOINTS
 62
     0
100
AcDbPoint
 10
283.6870000000001
 20
372.647001
 30
0.0
  0
ENDBLK
  5
1A13
330
19EB
100
AcDbEntity
  8
0
100
AcDbBlockEnd
  0
BLOCK
  5
1BD2
330
1BD1
100
AcDbEntity
  8
0
100
AcDbBlockBegin
  2
GENAXEH
 70
     0
 10
0.0
 20
0.0
 30
0.0
  3
GENAXEH
  1

  0
LINE
  5
1BD3
330
1BD1
100
AcDbEntity
  8
0
100
AcDbLine
 10
-1.0
 20
0.0
 30
0.0
 11
1.0
 21
0.0
 31
0.0
  0
ENDBLK
  5
1BD4
330
1BD1
100
AcDbEntity
  8
0
100
AcDbBlockEnd
  0
ENDSEC
  0
SECTION
  2
ENTITIES
  0
LINE
  5
1085
330
156B
100
AcDbEntity
  8
0
100
AcDbLine
 10
183.1870000000001
 20
362.6470000000001
 30
0.0
 11
183.1870000000001
 21
327.6470000000001
 31
0.0
  0
LINE
  5
1086
330
156B
100
AcDbEntity
  8
0
100
AcDbLine
 10
183.1870000000001
 20
327.6470000000001
 30
0.0
 11
354.187
 21
327.647
 31
0.0
  0
LINE
  5
1087
330
156B
100
AcDbEntity
  8
0
100
AcDbLine
 10
354.187
 20
327.647
 30
0.0
 11
354.1870000000001
 21
362.647
 31
0.0
  0
LINE
  5
1088
330
156B
100
AcDbEntity
  8
0
100
AcDbLine
 10
188.1870000000001
 20
362.6470000000001
 30
0.0
 11
188.1870000000001
 21
327.6470000000001
 31
0.0
  0
LINE
  5
1089
330
156B
100
AcDbEntity
  8
0
100
AcDbLine
 10
349.1870000000001
 20
362.647
 30
0.0
 11
349.187
 21
327.647
 31
0.0
  0
LINE
  5
108A
330
156B
100
AcDbEntity
  8
7
100
AcDbLine
 10
268.6870000000001
 20
369.036
 30
0.0
 11
268.687
 21
319.467
 31
0.0
  0
LINE
  5
108B
330
156B
100
AcDbEntity
  8
0
100
AcDbLine
 10
217.687
 20
362.647
 30
0.0
 11
217.687
 21
350.647
 31
0.0
  0
LINE
  5
108C
330
156B
100
AcDbEntity
  8
0
100
AcDbLine
 10
220.6870000000001
 20
362.647
 30
0.0
 11
220.6870000000001
 21
350.647
 31
0.0
  0
LINE
  5
108D
330
156B
100
AcDbEntity
  8
0
100
AcDbLine
 10
250.6870000000001
 20
362.647
 30
0.0
 11
250.6870000000001
 21
350.647
 31
0.0
  0
LINE
  5
108E
330
156B
100
AcDbEntity
  8
0
100
AcDbLine
 10
253.6870000000001
 20
362.647
 30
0.0
 11
253.687
 21
350.647
 31
0.0
  0
LINE
  5
108F
330
156B
100
AcDbEntity
  8
0
100
AcDbLine
 10
283.6870000000001
 20
362.647
 30
0.0
 11
283.687
 21
350.647
 31
0.0
  0
LINE
  5
1090
330
156B
100
AcDbEntity
  8
0
100
AcDbLine
 10
286.6870000000001
 20
362.647
 30
0.0
 11
286.687
 21
350.647
 31
0.0
  0
LINE
  5
1091
330
156B
100
AcDbEntity
  8
0
100
AcDbLine
 10
316.6870000000001
 20
362.647
 30
0.0
 11
316.687
 21
350.647
 31
0.0
  0
LINE
  5
1092
330
156B
100
AcDbEntity
  8
0
100
AcDbLine
 10
319.687
 20
362.647
 30
0.0
 11
319.687
 21
350.647
 31
0.0
  0
LINE
  5
1093
330
156B
100
AcDbEntity
  8
0
100
AcDbLine
 10
319.687
 20
350.647
 30
0.0
 11
316.687
 21
350.647
 31
0.0
  0
LINE
  5
1094
330
156B
100
AcDbEntity
  8
0
100
AcDbLine
 10
253.687
 20
350.647
 30
0.0
 11
250.6870000000001
 21
350.647
 31
0.0
  0
LINE
  5
1095
330
156B
100
AcDbEntity
  8
0
100
AcDbLine
 10
220.6870000000001
 20
350.647
 30
0.0
 11
217.687
 21
350.647
 31
0.0
  0
LINE
  5
1096
330
156B
100
AcDbEntity
  8
0
100
AcDbLine
 10
286.687
 20
350.647
 30
0.0
 11
283.687
 21
350.647
 31
0.0
  0
LINE
  5
1097
330
156B
100
AcDbEntity
  8
0
100
AcDbLine
 10
183.1870000000001
 20
362.6470000000001
 30
0.0
 11
354.1870000000001
 21
362.647
 31
0.0
  0
ARC
  5
1098
330
156B
100
AcDbEntity
  8
0
100
AcDbCircle
 10
294.1870000000001
 20
364.147
 30
0.0
 40
4.0
100
AcDbArc
 50
202.0239999999986
 51
337.9760000000014
  0
ARC
  5
1099
330
156B
100
AcDbEntity
  8
0
100
AcDbCircle
 10
261.1870000000001
 20
364.147
 30
0.0
 40
4.0
100
AcDbArc
 50
202.0239999999986
 51
337.9760000000014
  0
ARC
  5
109A
330
156B
100
AcDbEntity
  8
0
100
AcDbCircle
 10
276.1870000000001
 20
364.147
 30
0.0
 40
4.0
100
AcDbArc
 50
202.0239999999986
 51
337.9760000000014
  0
ARC
  5
109B
330
156B
100
AcDbEntity
  8
0
100
AcDbCircle
 10
243.1870000000001
 20
364.147
 30
0.0
 40
4.0
100
AcDbArc
 50
202.0239999999986
 51
337.9760000000014
  0
ARC
  5
109C
330
156B
100
AcDbEntity
  8
0
100
AcDbCircle
 10
228.1870000000001
 20
364.147
 30
0.0
 40
4.0
100
AcDbArc
 50
202.0239999999986
 51
337.9760000000014
  0
ARC
  5
109D
330
156B
100
AcDbEntity
  8
0
100
AcDbCircle
 10
210.312
 20
364.147
 30
0.0
 40
4.0
100
AcDbArc
 50
202.0239999999986
 51
334.1930000000001
  0
ARC
  5
109E
330
156B
100
AcDbEntity
  8
0
100
AcDbCircle
 10
195.5620000000001
 20
364.147
 30
0.0
 40
4.0
100
AcDbArc
 50
202.0239999999986
 51
337.9760000000014
  0
POLYLINE
  5
10D8
330
156B
100
AcDbEntity
  8
SCHRAFFUR_RAND
100
AcDb2dPolyline
 66
     1
 10
0.0
 20
0.0
 30
0.0
 70
     1
  0
VERTEX
  5
10D9
330
10D8
100
AcDbEntity
  8
SCHRAFFUR_RAND
100
AcDbVertex
100
AcDb2dVertex
 10
109.587
 20
83.04700000000002
 30
0.0
  0
VERTEX
  5
10DA
330
10D8
100
AcDbEntity
  8
SCHRAFFUR_RAND
100
AcDbVertex
100
AcDb2dVertex
 10
109.587
 20
88.04700000000002
 30
0.0
  0
VERTEX
  5
10DB
330
10D8
100
AcDbEntity
  8
SCHRAFFUR_RAND
100
AcDbVertex
100
AcDb2dVertex
 10
74.587
 20
88.04700000000002
 30
0.0
  0
VERTEX
  5
10DC
330
10D8
100
AcDbEntity
  8
SCHRAFFUR_RAND
100
AcDbVertex
100
AcDb2dVertex
 10
74.587
 20
83.04700000000002
 30
0.0
  0
VERTEX
  5
10DD
330
10D8
100
AcDbEntity
  8
SCHRAFFUR_RAND
100
AcDbVertex
100
AcDb2dVertex
 10
109.587
 20
83.04700000000002
 30
0.0
  0
SEQEND
  5
10DE
330
10D8
100
AcDbEntity
  8
SCHRAFFUR_RAND
  0
INSERT
  5
10E9
330
156B
100
AcDbEntity
  8
8
100
AcDbBlockReference
  2
*X0
 10
100.14
 20
437.234
 30
0.0
 50
270.0
1001
ACAD
1000
HATCH
1002
{
1070
    19
1000
ANSI31,_I
1040
3.174999999999999
1040
0.7850000000000001
1002
}
  0
POLYLINE
  5
10EA
330
156B
100
AcDbEntity
  8
SCHRAFFUR_RAND
100
AcDb2dPolyline
 66
     1
 10
0.0
 20
0.0
 30
0.0
 70
     1
  0
VERTEX
  5
10EB
330
10EA
100
AcDbEntity
  8
SCHRAFFUR_RAND
100
AcDbVertex
100
AcDb2dVertex
 10
109.587
 20
249.047
 30
0.0
  0
VERTEX
  5
10EC
330
10EA
100
AcDbEntity
  8
SCHRAFFUR_RAND
100
AcDbVertex
100
AcDb2dVertex
 10
109.587
 20
254.047
 30
0.0
  0
VERTEX
  5
10ED
330
10EA
100
AcDbEntity
  8
SCHRAFFUR_RAND
100
AcDbVertex
100
AcDb2dVertex
 10
74.587
 20
254.047
 30
0.0
  0
VERTEX
  5
10EE
330
10EA
100
AcDbEntity
  8
SCHRAFFUR_RAND
100
AcDbVertex
100
AcDb2dVertex
 10
74.587
 20
249.047
 30
0.0
  0
VERTEX
  5
10EF
330
10EA
100
AcDbEntity
  8
SCHRAFFUR_RAND
100
AcDbVertex
100
AcDb2dVertex
 10
109.587
 20
249.047
 30
0.0
  0
SEQEND
  5
10F0
330
10EA
100
AcDbEntity
  8
SCHRAFFUR_RAND
  0
INSERT
  5
10FB
330
156B
100
AcDbEntity
  8
8
100
AcDbBlockReference
  2
*X1
 10
100.14
 20
437.234
 30
0.0
 50
270.0
1001
ACAD
1000
HATCH
1002
{
1070
    19
1000
ANSI31,_I
1040
3.174999999999999
1040
0.7850000000000001
1002
}
  0
POLYLINE
  5
10FC
330
156B
100
AcDbEntity
  8
SCHRAFFUR_RAND
100
AcDb2dPolyline
 66
     1
 10
0.0
 20
0.0
 30
0.0
 70
     1
  0
VERTEX
  5
10FD
330
10FC
100
AcDbEntity
  8
SCHRAFFUR_RAND
100
AcDbVertex
100
AcDb2dVertex
 10
74.587
 20
120.547
 30
0.0
  0
VERTEX
  5
10FE
330
10FC
100
AcDbEntity
  8
SCHRAFFUR_RAND
100
AcDbVertex
100
AcDb2dVertex
 10
74.587
 20
117.547
 30
0.0
  0
VERTEX
  5
10FF
330
10FC
100
AcDbEntity
  8
SCHRAFFUR_RAND
100
AcDbVertex
100
AcDb2dVertex
 10
86.58700000000001
 20
117.547
 30
0.0
  0
VERTEX
  5
1100
330
10FC
100
AcDbEntity
  8
SCHRAFFUR_RAND
100
AcDbVertex
100
AcDb2dVertex
 10
86.58700000000001
 20
120.547
 30
0.0
  0
VERTEX
  5
1101
330
10FC
100
AcDbEntity
  8
SCHRAFFUR_RAND
100
AcDbVertex
100
AcDb2dVertex
 10
74.587
 20
120.547
 30
0.0
  0
SEQEND
  5
1102
330
10FC
100
AcDbEntity
  8
SCHRAFFUR_RAND
  0
INSERT
  5
1108
330
156B
100
AcDbEntity
  8
8
100
AcDbBlockReference
  2
*X2
 10
100.14
 20
437.234
 30
0.0
 50
270.0
1001
ACAD
1000
HATCH
1002
{
1070
    19
1000
ANSI31,_I
1040
3.174999999999999
1040
-0.7850000000000001
1002
}
  0
POLYLINE
  5
1109
330
156B
100
AcDbEntity
  8
SCHRAFFUR_RAND
100
AcDb2dPolyline
 66
     1
 10
0.0
 20
0.0
 30
0.0
 70
     1
  0
VERTEX
  5
110A
330
1109
100
AcDbEntity
  8
SCHRAFFUR_RAND
100
AcDbVertex
100
AcDb2dVertex
 10
74.587
 20
153.547
 30
0.0
  0
VERTEX
  5
110B
330
1109
100
AcDbEntity
  8
SCHRAFFUR_RAND
100
AcDbVertex
100
AcDb2dVertex
 10
74.587
 20
150.547
 30
0.0
  0
VERTEX
  5
110C
330
1109
100
AcDbEntity
  8
SCHRAFFUR_RAND
100
AcDbVertex
100
AcDb2dVertex
 10
86.58700000000001
 20
150.547
 30
0.0
  0
VERTEX
  5
110D
330
1109
100
AcDbEntity
  8
SCHRAFFUR_RAND
100
AcDbVertex
100
AcDb2dVertex
 10
86.58700000000001
 20
153.547
 30
0.0
  0
VERTEX
  5
110E
330
1109
100
AcDbEntity
  8
SCHRAFFUR_RAND
100
AcDbVertex
100
AcDb2dVertex
 10
74.587
 20
153.547
 30
0.0
  0
SEQEND
  5
110F
330
1109
100
AcDbEntity
  8
SCHRAFFUR_RAND
  0
INSERT
  5
1114
330
156B
100
AcDbEntity
  8
8
100
AcDbBlockReference
  2
*X3
 10
100.14
 20
437.234
 30
0.0
 50
270.0
1001
ACAD
1000
HATCH
1002
{
1070
    19
1000
ANSI31,_I
1040
3.174999999999999
1040
-0.7850000000000001
1002
}
  0
POLYLINE
  5
1115
330
156B
100
AcDbEntity
  8
SCHRAFFUR_RAND
100
AcDb2dPolyline
 66
     1
 10
0.0
 20
0.0
 30
0.0
 70
     1
  0
VERTEX
  5
1116
330
1115
100
AcDbEntity
  8
SCHRAFFUR_RAND
100
AcDbVertex
100
AcDb2dVertex
 10
74.587
 20
186.547
 30
0.0
  0
VERTEX
  5
1117
330
1115
100
AcDbEntity
  8
SCHRAFFUR_RAND
100
AcDbVertex
100
AcDb2dVertex
 10
74.587
 20
183.547
 30
0.0
  0
VERTEX
  5
1118
330
1115
100
AcDbEntity
  8
SCHRAFFUR_RAND
100
AcDbVertex
100
AcDb2dVertex
 10
86.58700000000001
 20
183.547
 30
0.0
  0
VERTEX
  5
1119
330
1115
100
AcDbEntity
  8
SCHRAFFUR_RAND
100
AcDbVertex
100
AcDb2dVertex
 10
86.58700000000001
 20
186.547
 30
0.0
  0
VERTEX
  5
111A
330
1115
100
AcDbEntity
  8
SCHRAFFUR_RAND
100
AcDbVertex
100
AcDb2dVertex
 10
74.587
 20
186.547
 30
0.0
  0
SEQEND
  5
111B
330
1115
100
AcDbEntity
  8
SCHRAFFUR_RAND
  0
INSERT
  5
1121
330
156B
100
AcDbEntity
  8
8
100
AcDbBlockReference
  2
*X4
 10
100.14
 20
437.234
 30
0.0
 50
270.0
1001
ACAD
1000
HATCH
1002
{
1070
    19
1000
ANSI31,_I
1040
3.174999999999999
1040
-0.7850000000000001
1002
}
  0
POLYLINE
  5
1122
330
156B
100
AcDbEntity
  8
SCHRAFFUR_RAND
100
AcDb2dPolyline
 66
     1
 10
0.0
 20
0.0
 30
0.0
 70
     1
  0
VERTEX
  5
1123
330
1122
100
AcDbEntity
  8
SCHRAFFUR_RAND
100
AcDbVertex
100
AcDb2dVertex
 10
74.587
 20
219.547
 30
0.0
  0
VERTEX
  5
1124
330
1122
100
AcDbEntity
  8
SCHRAFFUR_RAND
100
AcDbVertex
100
AcDb2dVertex
 10
74.587
 20
216.547
 30
0.0
  0
VERTEX
  5
1125
330
1122
100
AcDbEntity
  8
SCHRAFFUR_RAND
100
AcDbVertex
100
AcDb2dVertex
 10
86.58700000000001
 20
216.547
 30
0.0
  0
VERTEX
  5
1126
330
1122
100
AcDbEntity
  8
SCHRAFFUR_RAND
100
AcDbVertex
100
AcDb2dVertex
 10
86.58700000000001
 20
219.547
 30
0.0
  0
VERTEX
  5
1127
330
1122
100
AcDbEntity
  8
SCHRAFFUR_RAND
100
AcDbVertex
100
AcDb2dVertex
 10
74.587
 20
219.547
 30
0.0
  0
SEQEND
  5
1128
330
1122
100
AcDbEntity
  8
SCHRAFFUR_RAND
  0
INSERT
  5
112E
330
156B
100
AcDbEntity
  8
8
100
AcDbBlockReference
  2
*X5
 10
100.14
 20
437.234
 30
0.0
 50
270.0
1001
ACAD
1000
HATCH
1002
{
1070
    19
1000
ANSI31,_I
1040
3.174999999999999
1040
-0.7850000000000001
1002
}
  0
DIMENSION
  5
113E
330
156B
100
AcDbEntity
  8
5
100
AcDbDimension
  2
*D10
 10
283.6870000000001
 20
372.647
 30
0.0
 11
268.6870000000001
 21
372.647
 31
0.0
 70
   160
  1
 30 
 71
     5
 42
30.0
  3
GEN-ISO
100
AcDbAlignedDimension
 13
253.6870000000001
 23
362.647
 33
0.0
 14
283.6870000000001
 24
362.647
 34
0.0
100
AcDbRotatedDimension
1001
GENIUS_GENDTOL_13
1000

1000
h7
1000

1040
0.0
1000
 30 
  0
DIMENSION
  5
1152
330
156B
100
AcDbEntity
  8
5
100
AcDbDimension
  2
*D11
 10
163.1870000000001
 20
327.6470000000001
 30
0.0
 11
163.1870000000001
 21
345.147
 31
0.0
 70
   160
  1
 35 
 71
     5
 42
35.0
  3
GEN-ISO
100
AcDbAlignedDimension
 13
183.1870000000001
 23
362.6470000000001
 33
0.0
 14
183.1870000000001
 24
327.6470000000001
 34
0.0
 50
270.0
100
AcDbRotatedDimension
  0
DIMENSION
  5
1175
330
156B
100
AcDbEntity
  8
5
100
AcDbDimension
  2
*D13
 10
354.1870000000001
 20
387.647
 30
0.0
 11
268.4550000000001
 21
387.647
 31
0.0
 70
   160
  1
{\Fgeniso.shx;\U+25A1}171
 71
     5
 42
171.0
  3
GEN-ISO
100
AcDbAlignedDimension
 13
183.1870000000001
 23
362.6470000000001
 33
0.0
 14
354.1870000000001
 24
362.647
 34
0.0
100
AcDbRotatedDimension
  0
POLYLINE
  5
1176
330
156B
100
AcDbEntity
  8
SCHRAFFUR_RAND
100
AcDb2dPolyline
 66
     1
 10
0.0
 20
0.0
 30
0.0
 70
     1
  0
VERTEX
  5
1177
330
1176
100
AcDbEntity
  8
SCHRAFFUR_RAND
100
AcDbVertex
100
AcDb2dVertex
 10
95.157
 20
92.04799999999998
 30
0.0
  0
VERTEX
  5
1178
330
1176
100
AcDbEntity
  8
SCHRAFFUR_RAND
100
AcDbVertex
100
AcDb2dVertex
 10
92.087
 20
88.04700000000002
 30
0.0
  0
VERTEX
  5
1179
330
1176
100
AcDbEntity
  8
SCHRAFFUR_RAND
100
AcDbVertex
100
AcDb2dVertex
 10
96.088
 20
91.117
 30
0.0
  0
VERTEX
  5
117A
330
1176
100
AcDbEntity
  8
SCHRAFFUR_RAND
100
AcDbVertex
100
AcDb2dVertex
 10
95.62200000000002
 20
91.582
 30
0.0
  0
VERTEX
  5
117B
330
1176
100
AcDbEntity
  8
SCHRAFFUR_RAND
100
AcDbVertex
100
AcDb2dVertex
 10
95.157
 20
92.04799999999998
 30
0.0
  0
SEQEND
  5
117C
330
1176
100
AcDbEntity
  8
SCHRAFFUR_RAND
  0
POLYLINE
  5
11AF
330
156B
100
AcDbEntity
  8
SCHRAFFUR_RAND
100
AcDb2dPolyline
 66
     1
 10
0.0
 20
0.0
 30
0.0
 70
     1
  0
VERTEX
  5
11B0
330
11AF
100
AcDbEntity
  8
SCHRAFFUR_RAND
100
AcDbVertex
100
AcDb2dVertex
 10
89.65700000000001
 20
222.048
 30
0.0
  0
VERTEX
  5
11B1
330
11AF
100
AcDbEntity
  8
SCHRAFFUR_RAND
100
AcDbVertex
100
AcDb2dVertex
 10
86.58700000000001
 20
218.047
 30
0.0
  0
VERTEX
  5
11B2
330
11AF
100
AcDbEntity
  8
SCHRAFFUR_RAND
100
AcDbVertex
100
AcDb2dVertex
 10
90.58799999999999
 20
221.117
 30
0.0
  0
VERTEX
  5
11B3
330
11AF
100
AcDbEntity
  8
SCHRAFFUR_RAND
100
AcDbVertex
100
AcDb2dVertex
 10
90.12200000000001
 20
221.582
 30
0.0
  0
VERTEX
  5
11B4
330
11AF
100
AcDbEntity
  8
SCHRAFFUR_RAND
100
AcDbVertex
100
AcDb2dVertex
 10
89.65700000000001
 20
222.048
 30
0.0
  0
SEQEND
  5
11B5
330
11AF
100
AcDbEntity
  8
SCHRAFFUR_RAND
  0
LINE
  5
12E7
330
156B
100
AcDbEntity
  8
0
100
AcDbLine
 10
183.187
 20
88.04700000000009
 30
0.0
 11
183.1870000000001
 21
250.297
 31
0.0
  0
LINE
  5
12E8
330
156B
100
AcDbEntity
  8
0
100
AcDbLine
 10
188.187
 20
88.04700000000009
 30
0.0
 11
188.1870000000001
 21
254.047
 31
0.0
  0
LINE
  5
12E9
330
156B
100
AcDbEntity
  8
0
100
AcDbLine
 10
349.187
 20
83.04700000000002
 30
0.0
 11
349.187
 21
254.047
 31
0.0
  0
LINE
  5
12EA
330
156B
100
AcDbEntity
  8
0
100
AcDbLine
 10
354.187
 20
86.79700000000002
 30
0.0
 11
354.187
 21
250.297
 31
0.0
  0
LINE
  5
12EB
330
156B
100
AcDbEntity
  8
0
100
AcDbLine
 10
349.187
 20
254.047
 30
0.0
 11
188.1870000000001
 21
254.047
 31
0.0
  0
LINE
  5
12EC
330
156B
100
AcDbEntity
  8
0
100
AcDbLine
 10
349.187
 20
83.04700000000002
 30
0.0
 11
186.937
 21
83.04700000000009
 31
0.0
  0
LINE
  5
12ED
330
156B
100
AcDbEntity
  8
0
100
AcDbLine
 10
349.187
 20
249.047
 30
0.0
 11
188.1870000000001
 21
249.047
 31
0.0
  0
LINE
  5
12EE
330
156B
100
AcDbEntity
  8
0
100
AcDbLine
 10
349.187
 20
88.04700000000002
 30
0.0
 11
183.187
 21
88.04700000000009
 31
0.0
  0
LINE
  5
12EF
330
156B
100
AcDbEntity
  8
7
100
AcDbLine
 10
361.279
 20
168.547
 30
0.0
 11
179.594
 21
168.547
 31
0.0
  0
LINE
  5
12F0
330
156B
100
AcDbEntity
  8
7
100
AcDbLine
 10
268.687
 20
79.988
 30
0.0
 11
268.687
 21
260.829
 31
0.0
  0
LINE
  5
12F1
330
156B
100
AcDbEntity
  8
0
100
AcDbLine
 10
319.687
 20
249.047
 30
0.0
 11
319.687
 21
88.04700000000002
 31
0.0
  0
LINE
  5
12F2
330
156B
100
AcDbEntity
  8
0
100
AcDbLine
 10
316.687
 20
249.047
 30
0.0
 11
316.687
 21
88.04700000000002
 31
0.0
  0
LINE
  5
12F3
330
156B
100
AcDbEntity
  8
0
100
AcDbLine
 10
286.687
 20
249.047
 30
0.0
 11
286.687
 21
88.04700000000002
 31
0.0
  0
LINE
  5
12F4
330
156B
100
AcDbEntity
  8
0
100
AcDbLine
 10
283.687
 20
249.047
 30
0.0
 11
283.687
 21
88.04700000000002
 31
0.0
  0
LINE
  5
12F5
330
156B
100
AcDbEntity
  8
0
100
AcDbLine
 10
253.687
 20
249.047
 30
0.0
 11
253.687
 21
88.04700000000009
 31
0.0
  0
LINE
  5
12F6
330
156B
100
AcDbEntity
  8
0
100
AcDbLine
 10
250.6870000000001
 20
249.047
 30
0.0
 11
250.687
 21
88.04700000000009
 31
0.0
  0
LINE
  5
12F7
330
156B
100
AcDbEntity
  8
0
100
AcDbLine
 10
220.6870000000001
 20
249.047
 30
0.0
 11
220.687
 21
88.04700000000009
 31
0.0
  0
LINE
  5
12F8
330
156B
100
AcDbEntity
  8
0
100
AcDbLine
 10
217.687
 20
249.047
 30
0.0
 11
217.687
 21
88.04700000000009
 31
0.0
  0
LINE
  5
12F9
330
156B
100
AcDbEntity
  8
0
100
AcDbLine
 10
188.187
 20
220.547
 30
0.0
 11
217.687
 21
220.547
 31
0.0
  0
LINE
  5
12FA
330
156B
100
AcDbEntity
  8
0
100
AcDbLine
 10
188.187
 20
215.547
 30
0.0
 11
217.687
 21
215.547
 31
0.0
  0
LINE
  5
12FB
330
156B
100
AcDbEntity
  8
0
100
AcDbLine
 10
188.187
 20
187.547
 30
0.0
 11
217.687
 21
187.547
 31
0.0
  0
LINE
  5
12FC
330
156B
100
AcDbEntity
  8
0
100
AcDbLine
 10
188.187
 20
182.547
 30
0.0
 11
217.687
 21
182.547
 31
0.0
  0
LINE
  5
12FD
330
156B
100
AcDbEntity
  8
0
100
AcDbLine
 10
188.187
 20
154.547
 30
0.0
 11
217.687
 21
154.547
 31
0.0
  0
LINE
  5
12FE
330
156B
100
AcDbEntity
  8
0
100
AcDbLine
 10
188.187
 20
149.547
 30
0.0
 11
217.687
 21
149.547
 31
0.0
  0
LINE
  5
12FF
330
156B
100
AcDbEntity
  8
0
100
AcDbLine
 10
188.187
 20
121.547
 30
0.0
 11
217.687
 21
121.547
 31
0.0
  0
LINE
  5
1300
330
156B
100
AcDbEntity
  8
0
100
AcDbLine
 10
188.187
 20
116.547
 30
0.0
 11
217.687
 21
116.547
 31
0.0
  0
LINE
  5
1301
330
156B
100
AcDbEntity
  8
0
100
AcDbLine
 10
286.687
 20
220.547
 30
0.0
 11
316.687
 21
220.547
 31
0.0
  0
LINE
  5
1302
330
156B
100
AcDbEntity
  8
0
100
AcDbLine
 10
220.687
 20
220.547
 30
0.0
 11
250.6870000000001
 21
220.547
 31
0.0
  0
LINE
  5
1303
330
156B
100
AcDbEntity
  8
0
100
AcDbLine
 10
286.687
 20
215.547
 30
0.0
 11
316.687
 21
215.547
 31
0.0
  0
LINE
  5
1304
330
156B
100
AcDbEntity
  8
0
100
AcDbLine
 10
220.687
 20
215.547
 30
0.0
 11
250.6870000000001
 21
215.547
 31
0.0
  0
LINE
  5
1305
330
156B
100
AcDbEntity
  8
0
100
AcDbLine
 10
286.687
 20
187.547
 30
0.0
 11
316.687
 21
187.547
 31
0.0
  0
LINE
  5
1306
330
156B
100
AcDbEntity
  8
0
100
AcDbLine
 10
220.687
 20
187.547
 30
0.0
 11
250.687
 21
187.547
 31
0.0
  0
LINE
  5
1307
330
156B
100
AcDbEntity
  8
0
100
AcDbLine
 10
286.687
 20
182.547
 30
0.0
 11
316.687
 21
182.547
 31
0.0
  0
LINE
  5
1308
330
156B
100
AcDbEntity
  8
0
100
AcDbLine
 10
220.687
 20
182.547
 30
0.0
 11
250.687
 21
182.547
 31
0.0
  0
LINE
  5
1309
330
156B
100
AcDbEntity
  8
0
100
AcDbLine
 10
286.687
 20
154.5469999999999
 30
0.0
 11
316.687
 21
154.5469999999999
 31
0.0
  0
LINE
  5
130A
330
156B
100
AcDbEntity
  8
0
100
AcDbLine
 10
220.687
 20
154.547
 30
0.0
 11
250.687
 21
154.547
 31
0.0
  0
LINE
  5
130B
330
156B
100
AcDbEntity
  8
0
100
AcDbLine
 10
286.687
 20
149.5469999999999
 30
0.0
 11
316.687
 21
149.5469999999999
 31
0.0
  0
LINE
  5
130C
330
156B
100
AcDbEntity
  8
0
100
AcDbLine
 10
220.687
 20
149.547
 30
0.0
 11
250.687
 21
149.547
 31
0.0
  0
LINE
  5
130D
330
156B
100
AcDbEntity
  8
0
100
AcDbLine
 10
286.687
 20
121.5469999999999
 30
0.0
 11
316.687
 21
121.5469999999999
 31
0.0
  0
LINE
  5
130E
330
156B
100
AcDbEntity
  8
0
100
AcDbLine
 10
286.687
 20
116.547
 30
0.0
 11
316.687
 21
116.547
 31
0.0
  0
LINE
  5
130F
330
156B
100
AcDbEntity
  8
0
100
AcDbLine
 10
220.687
 20
116.547
 30
0.0
 11
250.687
 21
116.547
 31
0.0
  0
LINE
  5
1310
330
156B
100
AcDbEntity
  8
0
100
AcDbLine
 10
220.687
 20
121.547
 30
0.0
 11
250.687
 21
121.547
 31
0.0
  0
LINE
  5
1311
330
156B
100
AcDbEntity
  8
0
100
AcDbLine
 10
319.687
 20
121.5469999999999
 30
0.0
 11
349.187
 21
121.5469999999999
 31
0.0
  0
LINE
  5
1312
330
156B
100
AcDbEntity
  8
0
100
AcDbLine
 10
319.687
 20
116.547
 30
0.0
 11
349.187
 21
116.547
 31
0.0
  0
LINE
  5
1313
330
156B
100
AcDbEntity
  8
0
100
AcDbLine
 10
319.687
 20
149.5469999999999
 30
0.0
 11
349.187
 21
149.5469999999999
 31
0.0
  0
LINE
  5
1314
330
156B
100
AcDbEntity
  8
0
100
AcDbLine
 10
319.687
 20
154.5469999999999
 30
0.0
 11
349.187
 21
154.5469999999999
 31
0.0
  0
LINE
  5
1315
330
156B
100
AcDbEntity
  8
0
100
AcDbLine
 10
319.687
 20
182.547
 30
0.0
 11
349.187
 21
182.5469999999999
 31
0.0
  0
LINE
  5
1316
330
156B
100
AcDbEntity
  8
0
100
AcDbLine
 10
319.687
 20
187.547
 30
0.0
 11
349.187
 21
187.5469999999999
 31
0.0
  0
LINE
  5
1317
330
156B
100
AcDbEntity
  8
0
100
AcDbLine
 10
319.687
 20
215.547
 30
0.0
 11
349.187
 21
215.547
 31
0.0
  0
LINE
  5
1318
330
156B
100
AcDbEntity
  8
0
100
AcDbLine
 10
319.687
 20
220.547
 30
0.0
 11
349.187
 21
220.547
 31
0.0
  0
LINE
  5
1319
330
156B
100
AcDbEntity
  8
0
100
AcDbLine
 10
253.687
 20
220.547
 30
0.0
 11
283.687
 21
220.547
 31
0.0
  0
LINE
  5
131A
330
156B
100
AcDbEntity
  8
0
100
AcDbLine
 10
253.687
 20
215.547
 30
0.0
 11
283.687
 21
215.547
 31
0.0
  0
LINE
  5
131B
330
156B
100
AcDbEntity
  8
0
100
AcDbLine
 10
253.687
 20
187.547
 30
0.0
 11
283.687
 21
187.547
 31
0.0
  0
LINE
  5
131C
330
156B
100
AcDbEntity
  8
0
100
AcDbLine
 10
253.687
 20
182.547
 30
0.0
 11
283.687
 21
182.547
 31
0.0
  0
LINE
  5
131D
330
156B
100
AcDbEntity
  8
0
100
AcDbLine
 10
253.687
 20
154.547
 30
0.0
 11
283.687
 21
154.5469999999999
 31
0.0
  0
LINE
  5
131E
330
156B
100
AcDbEntity
  8
0
100
AcDbLine
 10
253.687
 20
149.547
 30
0.0
 11
283.687
 21
149.5469999999999
 31
0.0
  0
LINE
  5
131F
330
156B
100
AcDbEntity
  8
0
100
AcDbLine
 10
253.687
 20
121.547
 30
0.0
 11
283.687
 21
121.5469999999999
 31
0.0
  0
LINE
  5
1320
330
156B
100
AcDbEntity
  8
0
100
AcDbLine
 10
253.687
 20
116.547
 30
0.0
 11
283.687
 21
116.547
 31
0.0
  0
LINE
  5
1321
330
156B
100
AcDbEntity
  8
0
100
AcDbLine
 10
191.854
 20
116.547
 30
0.0
 11
191.854
 21
121.547
 31
0.0
  0
LINE
  5
1322
330
156B
100
AcDbEntity
  8
0
100
AcDbLine
 10
199.27
 20
116.547
 30
0.0
 11
199.27
 21
121.547
 31
0.0
  0
LINE
  5
1323
330
156B
100
AcDbEntity
  8
0
100
AcDbLine
 10
206.604
 20
116.547
 30
0.0
 11
206.604
 21
121.547
 31
0.0
  0
LINE
  5
1324
330
156B
100
AcDbEntity
  8
0
100
AcDbLine
 10
214.02
 20
116.547
 30
0.0
 11
214.02
 21
121.547
 31
0.0
  0
LINE
  5
1325
330
156B
100
AcDbEntity
  8
0
100
AcDbLine
 10
224.479
 20
116.547
 30
0.0
 11
224.479
 21
121.547
 31
0.0
  0
LINE
  5
1326
330
156B
100
AcDbEntity
  8
0
100
AcDbLine
 10
231.895
 20
116.547
 30
0.0
 11
231.895
 21
121.547
 31
0.0
  0
LINE
  5
1327
330
156B
100
AcDbEntity
  8
0
100
AcDbLine
 10
239.479
 20
116.547
 30
0.0
 11
239.479
 21
121.547
 31
0.0
  0
LINE
  5
1328
330
156B
100
AcDbEntity
  8
0
100
AcDbLine
 10
246.895
 20
116.547
 30
0.0
 11
246.895
 21
121.547
 31
0.0
  0
LINE
  5
1329
330
156B
100
AcDbEntity
  8
0
100
AcDbLine
 10
257.4790000000001
 20
116.547
 30
0.0
 11
257.4790000000001
 21
121.5469999999999
 31
0.0
  0
LINE
  5
132A
330
156B
100
AcDbEntity
  8
0
100
AcDbLine
 10
264.895
 20
116.547
 30
0.0
 11
264.895
 21
121.5469999999999
 31
0.0
  0
LINE
  5
132B
330
156B
100
AcDbEntity
  8
0
100
AcDbLine
 10
272.479
 20
116.547
 30
0.0
 11
272.479
 21
121.5469999999999
 31
0.0
  0
LINE
  5
132C
330
156B
100
AcDbEntity
  8
0
100
AcDbLine
 10
279.895
 20
116.547
 30
0.0
 11
279.895
 21
121.5469999999999
 31
0.0
  0
LINE
  5
132D
330
156B
100
AcDbEntity
  8
0
100
AcDbLine
 10
290.4790000000001
 20
116.547
 30
0.0
 11
290.4790000000001
 21
121.5469999999999
 31
0.0
  0
LINE
  5
132E
330
156B
100
AcDbEntity
  8
0
100
AcDbLine
 10
297.895
 20
116.547
 30
0.0
 11
297.895
 21
121.5469999999999
 31
0.0
  0
LINE
  5
132F
330
156B
100
AcDbEntity
  8
0
100
AcDbLine
 10
305.4790000000001
 20
116.547
 30
0.0
 11
305.4790000000001
 21
121.5469999999999
 31
0.0
  0
LINE
  5
1330
330
156B
100
AcDbEntity
  8
0
100
AcDbLine
 10
312.895
 20
116.547
 30
0.0
 11
312.895
 21
121.5469999999999
 31
0.0
  0
LINE
  5
1331
330
156B
100
AcDbEntity
  8
0
100
AcDbLine
 10
323.354
 20
116.547
 30
0.0
 11
323.354
 21
121.5469999999999
 31
0.0
  0
LINE
  5
1332
330
156B
100
AcDbEntity
  8
0
100
AcDbLine
 10
330.77
 20
116.547
 30
0.0
 11
330.77
 21
121.5469999999999
 31
0.0
  0
LINE
  5
1333
330
156B
100
AcDbEntity
  8
0
100
AcDbLine
 10
338.104
 20
116.547
 30
0.0
 11
338.104
 21
121.5469999999999
 31
0.0
  0
LINE
  5
1334
330
156B
100
AcDbEntity
  8
0
100
AcDbLine
 10
345.52
 20
116.547
 30
0.0
 11
345.52
 21
121.5469999999999
 31
0.0
  0
LINE
  5
1335
330
156B
100
AcDbEntity
  8
0
100
AcDbLine
 10
199.27
 20
182.547
 30
0.0
 11
199.27
 21
187.547
 31
0.0
  0
LINE
  5
1336
330
156B
100
AcDbEntity
  8
0
100
AcDbLine
 10
206.604
 20
182.547
 30
0.0
 11
206.604
 21
187.547
 31
0.0
  0
LINE
  5
1337
330
156B
100
AcDbEntity
  8
0
100
AcDbLine
 10
206.604
 20
215.547
 30
0.0
 11
206.604
 21
220.547
 31
0.0
  0
LINE
  5
1338
330
156B
100
AcDbEntity
  8
0
100
AcDbLine
 10
199.27
 20
215.547
 30
0.0
 11
199.27
 21
220.547
 31
0.0
  0
LINE
  5
1339
330
156B
100
AcDbEntity
  8
0
100
AcDbLine
 10
214.02
 20
182.547
 30
0.0
 11
214.02
 21
187.547
 31
0.0
  0
LINE
  5
133A
330
156B
100
AcDbEntity
  8
0
100
AcDbLine
 10
214.02
 20
215.547
 30
0.0
 11
214.02
 21
220.547
 31
0.0
  0
LINE
  5
133B
330
156B
100
AcDbEntity
  8
0
100
AcDbLine
 10
191.854
 20
182.547
 30
0.0
 11
191.854
 21
187.547
 31
0.0
  0
LINE
  5
133C
330
156B
100
AcDbEntity
  8
0
100
AcDbLine
 10
191.854
 20
215.692
 30
0.0
 11
191.854
 21
220.547
 31
0.0
  0
LINE
  5
133D
330
156B
100
AcDbEntity
  8
0
100
AcDbLine
 10
224.479
 20
182.547
 30
0.0
 11
224.479
 21
187.547
 31
0.0
  0
LINE
  5
133E
330
156B
100
AcDbEntity
  8
0
100
AcDbLine
 10
224.479
 20
215.547
 30
0.0
 11
224.479
 21
220.547
 31
0.0
  0
LINE
  5
133F
330
156B
100
AcDbEntity
  8
0
100
AcDbLine
 10
231.895
 20
182.547
 30
0.0
 11
231.895
 21
187.547
 31
0.0
  0
LINE
  5
1340
330
156B
100
AcDbEntity
  8
0
100
AcDbLine
 10
231.895
 20
215.547
 30
0.0
 11
231.895
 21
220.547
 31
0.0
  0
LINE
  5
1341
330
156B
100
AcDbEntity
  8
0
100
AcDbLine
 10
239.479
 20
182.547
 30
0.0
 11
239.479
 21
187.547
 31
0.0
  0
LINE
  5
1342
330
156B
100
AcDbEntity
  8
0
100
AcDbLine
 10
239.479
 20
215.547
 30
0.0
 11
239.479
 21
220.547
 31
0.0
  0
LINE
  5
1343
330
156B
100
AcDbEntity
  8
0
100
AcDbLine
 10
246.895
 20
182.547
 30
0.0
 11
246.895
 21
187.547
 31
0.0
  0
LINE
  5
1344
330
156B
100
AcDbEntity
  8
0
100
AcDbLine
 10
246.895
 20
215.547
 30
0.0
 11
246.895
 21
220.547
 31
0.0
  0
LINE
  5
1345
330
156B
100
AcDbEntity
  8
0
100
AcDbLine
 10
290.4790000000001
 20
182.547
 30
0.0
 11
290.4790000000001
 21
187.547
 31
0.0
  0
LINE
  5
1346
330
156B
100
AcDbEntity
  8
0
100
AcDbLine
 10
290.4790000000001
 20
215.547
 30
0.0
 11
290.4790000000001
 21
220.547
 31
0.0
  0
LINE
  5
1347
330
156B
100
AcDbEntity
  8
0
100
AcDbLine
 10
297.895
 20
182.547
 30
0.0
 11
297.895
 21
187.547
 31
0.0
  0
LINE
  5
1348
330
156B
100
AcDbEntity
  8
0
100
AcDbLine
 10
297.8950000000001
 20
215.547
 30
0.0
 11
297.8950000000001
 21
220.547
 31
0.0
  0
LINE
  5
1349
330
156B
100
AcDbEntity
  8
0
100
AcDbLine
 10
305.4790000000001
 20
182.547
 30
0.0
 11
305.4790000000001
 21
187.547
 31
0.0
  0
LINE
  5
134A
330
156B
100
AcDbEntity
  8
0
100
AcDbLine
 10
305.4790000000001
 20
215.547
 30
0.0
 11
305.4790000000001
 21
220.547
 31
0.0
  0
LINE
  5
134B
330
156B
100
AcDbEntity
  8
0
100
AcDbLine
 10
312.895
 20
182.714
 30
0.0
 11
312.895
 21
187.547
 31
0.0
  0
LINE
  5
134C
330
156B
100
AcDbEntity
  8
0
100
AcDbLine
 10
312.8950000000001
 20
215.547
 30
0.0
 11
312.8950000000001
 21
220.547
 31
0.0
  0
LINE
  5
134D
330
156B
100
AcDbEntity
  8
0
100
AcDbLine
 10
323.354
 20
182.547
 30
0.0
 11
323.354
 21
187.547
 31
0.0
  0
LINE
  5
134E
330
156B
100
AcDbEntity
  8
0
100
AcDbLine
 10
323.354
 20
215.547
 30
0.0
 11
323.354
 21
220.547
 31
0.0
  0
LINE
  5
134F
330
156B
100
AcDbEntity
  8
0
100
AcDbLine
 10
330.77
 20
182.547
 30
0.0
 11
330.77
 21
187.547
 31
0.0
  0
LINE
  5
1350
330
156B
100
AcDbEntity
  8
0
100
AcDbLine
 10
330.77
 20
215.547
 30
0.0
 11
330.77
 21
220.547
 31
0.0
  0
LINE
  5
1351
330
156B
100
AcDbEntity
  8
0
100
AcDbLine
 10
338.104
 20
182.5469999999999
 30
0.0
 11
338.104
 21
187.5469999999999
 31
0.0
  0
LINE
  5
1352
330
156B
100
AcDbEntity
  8
0
100
AcDbLine
 10
338.104
 20
215.547
 30
0.0
 11
338.104
 21
220.547
 31
0.0
  0
LINE
  5
1353
330
156B
100
AcDbEntity
  8
0
100
AcDbLine
 10
345.52
 20
182.5469999999999
 30
0.0
 11
345.52
 21
187.5469999999999
 31
0.0
  0
LINE
  5
1354
330
156B
100
AcDbEntity
  8
0
100
AcDbLine
 10
345.52
 20
215.547
 30
0.0
 11
345.52
 21
220.547
 31
0.0
  0
LINE
  5
1355
330
156B
100
AcDbEntity
  8
0
100
AcDbLine
 10
345.52
 20
149.5469999999999
 30
0.0
 11
345.52
 21
154.5469999999999
 31
0.0
  0
LINE
  5
1356
330
156B
100
AcDbEntity
  8
0
100
AcDbLine
 10
338.104
 20
149.5469999999999
 30
0.0
 11
338.104
 21
154.5469999999999
 31
0.0
  0
LINE
  5
1357
330
156B
100
AcDbEntity
  8
0
100
AcDbLine
 10
330.77
 20
149.5469999999999
 30
0.0
 11
330.77
 21
154.5469999999999
 31
0.0
  0
LINE
  5
1358
330
156B
100
AcDbEntity
  8
0
100
AcDbLine
 10
323.354
 20
149.5469999999999
 30
0.0
 11
323.354
 21
154.5469999999999
 31
0.0
  0
LINE
  5
1359
330
156B
100
AcDbEntity
  8
0
100
AcDbLine
 10
312.895
 20
149.5469999999999
 30
0.0
 11
312.895
 21
154.5469999999999
 31
0.0
  0
LINE
  5
135A
330
156B
100
AcDbEntity
  8
0
100
AcDbLine
 10
305.4790000000001
 20
149.5469999999999
 30
0.0
 11
305.4790000000001
 21
154.5469999999999
 31
0.0
  0
LINE
  5
135B
330
156B
100
AcDbEntity
  8
0
100
AcDbLine
 10
297.895
 20
149.5469999999999
 30
0.0
 11
297.895
 21
154.5469999999999
 31
0.0
  0
LINE
  5
135C
330
156B
100
AcDbEntity
  8
0
100
AcDbLine
 10
290.4790000000001
 20
149.5469999999999
 30
0.0
 11
290.4790000000001
 21
154.5469999999999
 31
0.0
  0
LINE
  5
135D
330
156B
100
AcDbEntity
  8
0
100
AcDbLine
 10
279.895
 20
149.5469999999999
 30
0.0
 11
279.895
 21
154.5469999999999
 31
0.0
  0
LINE
  5
135E
330
156B
100
AcDbEntity
  8
0
100
AcDbLine
 10
272.479
 20
149.5469999999999
 30
0.0
 11
272.479
 21
154.5469999999999
 31
0.0
  0
LINE
  5
135F
330
156B
100
AcDbEntity
  8
0
100
AcDbLine
 10
264.895
 20
149.5469999999999
 30
0.0
 11
264.895
 21
154.5469999999999
 31
0.0
  0
LINE
  5
1360
330
156B
100
AcDbEntity
  8
0
100
AcDbLine
 10
257.4790000000001
 20
149.5469999999999
 30
0.0
 11
257.4790000000001
 21
154.5469999999999
 31
0.0
  0
LINE
  5
1361
330
156B
100
AcDbEntity
  8
0
100
AcDbLine
 10
246.895
 20
149.547
 30
0.0
 11
246.895
 21
154.547
 31
0.0
  0
LINE
  5
1362
330
156B
100
AcDbEntity
  8
0
100
AcDbLine
 10
239.479
 20
149.547
 30
0.0
 11
239.479
 21
154.547
 31
0.0
  0
LINE
  5
1363
330
156B
100
AcDbEntity
  8
0
100
AcDbLine
 10
231.895
 20
149.547
 30
0.0
 11
231.895
 21
154.547
 31
0.0
  0
LINE
  5
1364
330
156B
100
AcDbEntity
  8
0
100
AcDbLine
 10
224.479
 20
149.547
 30
0.0
 11
224.479
 21
154.547
 31
0.0
  0
LINE
  5
1365
330
156B
100
AcDbEntity
  8
0
100
AcDbLine
 10
214.02
 20
149.547
 30
0.0
 11
214.02
 21
154.547
 31
0.0
  0
LINE
  5
1366
330
156B
100
AcDbEntity
  8
0
100
AcDbLine
 10
206.604
 20
149.547
 30
0.0
 11
206.604
 21
154.547
 31
0.0
  0
LINE
  5
1367
330
156B
100
AcDbEntity
  8
0
100
AcDbLine
 10
199.27
 20
149.547
 30
0.0
 11
199.27
 21
154.547
 31
0.0
  0
LINE
  5
1368
330
156B
100
AcDbEntity
  8
0
100
AcDbLine
 10
191.854
 20
149.547
 30
0.0
 11
191.854
 21
154.547
 31
0.0
  0
LINE
  5
1369
330
156B
100
AcDbEntity
  8
0
100
AcDbLine
 10
257.4790000000001
 20
215.547
 30
0.0
 11
257.4790000000001
 21
220.547
 31
0.0
  0
LINE
  5
136A
330
156B
100
AcDbEntity
  8
0
100
AcDbLine
 10
264.8950000000001
 20
215.547
 30
0.0
 11
264.8950000000001
 21
220.547
 31
0.0
  0
LINE
  5
136B
330
156B
100
AcDbEntity
  8
0
100
AcDbLine
 10
272.479
 20
215.547
 30
0.0
 11
272.479
 21
220.547
 31
0.0
  0
LINE
  5
136C
330
156B
100
AcDbEntity
  8
0
100
AcDbLine
 10
279.895
 20
215.547
 30
0.0
 11
279.895
 21
220.547
 31
0.0
  0
LINE
  5
136D
330
156B
100
AcDbEntity
  8
0
100
AcDbLine
 10
279.895
 20
182.547
 30
0.0
 11
279.895
 21
187.547
 31
0.0
  0
LINE
  5
136E
330
156B
100
AcDbEntity
  8
0
100
AcDbLine
 10
272.479
 20
182.547
 30
0.0
 11
272.479
 21
187.547
 31
0.0
  0
LINE
  5
136F
330
156B
100
AcDbEntity
  8
0
100
AcDbLine
 10
264.895
 20
182.547
 30
0.0
 11
264.895
 21
187.547
 31
0.0
  0
LINE
  5
1370
330
156B
100
AcDbEntity
  8
0
100
AcDbLine
 10
257.4790000000001
 20
182.547
 30
0.0
 11
257.4790000000001
 21
187.547
 31
0.0
  0
LINE
  5
1371
330
156B
100
AcDbEntity
  8
0
100
AcDbLine
 10
220.687
 20
212.257
 30
0.0
 11
217.687
 21
212.257
 31
0.0
  0
LINE
  5
1372
330
156B
100
AcDbEntity
  8
0
100
AcDbLine
 10
220.687
 20
204.837
 30
0.0
 11
217.687
 21
204.837
 31
0.0
  0
LINE
  5
1373
330
156B
100
AcDbEntity
  8
0
100
AcDbLine
 10
220.687
 20
198.257
 30
0.0
 11
217.687
 21
198.257
 31
0.0
  0
LINE
  5
1374
330
156B
100
AcDbEntity
  8
0
100
AcDbLine
 10
220.687
 20
190.837
 30
0.0
 11
217.687
 21
190.837
 31
0.0
  0
LINE
  5
1375
330
156B
100
AcDbEntity
  8
0
100
AcDbLine
 10
250.6870000000001
 20
212.257
 30
0.0
 11
253.687
 21
212.257
 31
0.0
  0
LINE
  5
1376
330
156B
100
AcDbEntity
  8
0
100
AcDbLine
 10
250.687
 20
204.837
 30
0.0
 11
253.687
 21
204.837
 31
0.0
  0
LINE
  5
1377
330
156B
100
AcDbEntity
  8
0
100
AcDbLine
 10
250.687
 20
198.257
 30
0.0
 11
253.687
 21
198.257
 31
0.0
  0
LINE
  5
1378
330
156B
100
AcDbEntity
  8
0
100
AcDbLine
 10
250.687
 20
190.837
 30
0.0
 11
253.687
 21
190.837
 31
0.0
  0
LINE
  5
1379
330
156B
100
AcDbEntity
  8
0
100
AcDbLine
 10
283.687
 20
190.837
 30
0.0
 11
286.687
 21
190.837
 31
0.0
  0
LINE
  5
137A
330
156B
100
AcDbEntity
  8
0
100
AcDbLine
 10
283.687
 20
198.257
 30
0.0
 11
286.687
 21
198.257
 31
0.0
  0
LINE
  5
137B
330
156B
100
AcDbEntity
  8
0
100
AcDbLine
 10
283.687
 20
204.837
 30
0.0
 11
286.687
 21
204.837
 31
0.0
  0
LINE
  5
137C
330
156B
100
AcDbEntity
  8
0
100
AcDbLine
 10
283.687
 20
212.257
 30
0.0
 11
286.687
 21
212.257
 31
0.0
  0
LINE
  5
137D
330
156B
100
AcDbEntity
  8
0
100
AcDbLine
 10
316.687
 20
212.257
 30
0.0
 11
319.687
 21
212.257
 31
0.0
  0
LINE
  5
137E
330
156B
100
AcDbEntity
  8
0
100
AcDbLine
 10
316.687
 20
204.837
 30
0.0
 11
319.687
 21
204.837
 31
0.0
  0
LINE
  5
137F
330
156B
100
AcDbEntity
  8
0
100
AcDbLine
 10
316.687
 20
198.257
 30
0.0
 11
319.687
 21
198.257
 31
0.0
  0
LINE
  5
1380
330
156B
100
AcDbEntity
  8
0
100
AcDbLine
 10
316.687
 20
190.837
 30
0.0
 11
319.687
 21
190.837
 31
0.0
  0
LINE
  5
1381
330
156B
100
AcDbEntity
  8
0
100
AcDbLine
 10
283.687
 20
223.962
 30
0.0
 11
286.687
 21
223.962
 31
0.0
  0
LINE
  5
1382
330
156B
100
AcDbEntity
  8
0
100
AcDbLine
 10
283.687
 20
231.382
 30
0.0
 11
286.687
 21
231.382
 31
0.0
  0
LINE
  5
1383
330
156B
100
AcDbEntity
  8
0
100
AcDbLine
 10
283.687
 20
238.212
 30
0.0
 11
286.687
 21
238.212
 31
0.0
  0
LINE
  5
1384
330
156B
100
AcDbEntity
  8
0
100
AcDbLine
 10
283.687
 20
245.632
 30
0.0
 11
286.687
 21
245.632
 31
0.0
  0
LINE
  5
1385
330
156B
100
AcDbEntity
  8
0
100
AcDbLine
 10
316.687
 20
245.632
 30
0.0
 11
319.687
 21
245.632
 31
0.0
  0
LINE
  5
1386
330
156B
100
AcDbEntity
  8
0
100
AcDbLine
 10
316.687
 20
238.212
 30
0.0
 11
319.687
 21
238.212
 31
0.0
  0
LINE
  5
1387
330
156B
100
AcDbEntity
  8
0
100
AcDbLine
 10
316.687
 20
231.382
 30
0.0
 11
319.687
 21
231.382
 31
0.0
  0
LINE
  5
1388
330
156B
100
AcDbEntity
  8
0
100
AcDbLine
 10
316.687
 20
223.962
 30
0.0
 11
319.687
 21
223.962
 31
0.0
  0
LINE
  5
1389
330
156B
100
AcDbEntity
  8
0
100
AcDbLine
 10
250.6870000000001
 20
223.962
 30
0.0
 11
253.687
 21
223.962
 31
0.0
  0
LINE
  5
138A
330
156B
100
AcDbEntity
  8
0
100
AcDbLine
 10
250.6870000000001
 20
231.382
 30
0.0
 11
253.687
 21
231.382
 31
0.0
  0
LINE
  5
138B
330
156B
100
AcDbEntity
  8
0
100
AcDbLine
 10
250.6870000000001
 20
238.212
 30
0.0
 11
253.687
 21
238.212
 31
0.0
  0
LINE
  5
138C
330
156B
100
AcDbEntity
  8
0
100
AcDbLine
 10
250.6870000000001
 20
245.632
 30
0.0
 11
253.687
 21
245.632
 31
0.0
  0
LINE
  5
138D
330
156B
100
AcDbEntity
  8
0
100
AcDbLine
 10
220.687
 20
238.212
 30
0.0
 11
217.687
 21
238.212
 31
0.0
  0
LINE
  5
138E
330
156B
100
AcDbEntity
  8
0
100
AcDbLine
 10
220.6870000000001
 20
245.632
 30
0.0
 11
217.687
 21
245.632
 31
0.0
  0
LINE
  5
138F
330
156B
100
AcDbEntity
  8
0
100
AcDbLine
 10
220.687
 20
231.382
 30
0.0
 11
217.687
 21
231.382
 31
0.0
  0
LINE
  5
1390
330
156B
100
AcDbEntity
  8
0
100
AcDbLine
 10
220.687
 20
223.962
 30
0.0
 11
217.687
 21
223.962
 31
0.0
  0
LINE
  5
1391
330
156B
100
AcDbEntity
  8
0
100
AcDbLine
 10
316.687
 20
179.2569999999999
 30
0.0
 11
319.687
 21
179.2569999999999
 31
0.0
  0
LINE
  5
1392
330
156B
100
AcDbEntity
  8
0
100
AcDbLine
 10
316.687
 20
171.837
 30
0.0
 11
319.687
 21
171.837
 31
0.0
  0
LINE
  5
1393
330
156B
100
AcDbEntity
  8
0
100
AcDbLine
 10
316.687
 20
165.2569999999999
 30
0.0
 11
319.687
 21
165.2569999999999
 31
0.0
  0
LINE
  5
1394
330
156B
100
AcDbEntity
  8
0
100
AcDbLine
 10
316.687
 20
157.837
 30
0.0
 11
319.687
 21
157.837
 31
0.0
  0
LINE
  5
1395
330
156B
100
AcDbEntity
  8
0
100
AcDbLine
 10
283.687
 20
179.2569999999999
 30
0.0
 11
286.687
 21
179.2569999999999
 31
0.0
  0
LINE
  5
1396
330
156B
100
AcDbEntity
  8
0
100
AcDbLine
 10
283.687
 20
171.837
 30
0.0
 11
286.687
 21
171.837
 31
0.0
  0
LINE
  5
1397
330
156B
100
AcDbEntity
  8
0
100
AcDbLine
 10
283.687
 20
165.2569999999999
 30
0.0
 11
286.687
 21
165.2569999999999
 31
0.0
  0
LINE
  5
1398
330
156B
100
AcDbEntity
  8
0
100
AcDbLine
 10
283.687
 20
157.837
 30
0.0
 11
286.687
 21
157.837
 31
0.0
  0
LINE
  5
1399
330
156B
100
AcDbEntity
  8
0
100
AcDbLine
 10
250.687
 20
179.257
 30
0.0
 11
253.687
 21
179.257
 31
0.0
  0
LINE
  5
139A
330
156B
100
AcDbEntity
  8
0
100
AcDbLine
 10
250.687
 20
171.837
 30
0.0
 11
253.687
 21
171.837
 31
0.0
  0
LINE
  5
139B
330
156B
100
AcDbEntity
  8
0
100
AcDbLine
 10
250.687
 20
165.257
 30
0.0
 11
253.687
 21
165.257
 31
0.0
  0
LINE
  5
139C
330
156B
100
AcDbEntity
  8
0
100
AcDbLine
 10
253.687
 20
157.837
 30
0.0
 11
250.687
 21
157.837
 31
0.0
  0
LINE
  5
139D
330
156B
100
AcDbEntity
  8
0
100
AcDbLine
 10
220.687
 20
179.257
 30
0.0
 11
217.687
 21
179.257
 31
0.0
  0
LINE
  5
139E
330
156B
100
AcDbEntity
  8
0
100
AcDbLine
 10
220.687
 20
171.837
 30
0.0
 11
217.687
 21
171.837
 31
0.0
  0
LINE
  5
139F
330
156B
100
AcDbEntity
  8
0
100
AcDbLine
 10
220.687
 20
165.257
 30
0.0
 11
217.687
 21
165.257
 31
0.0
  0
LINE
  5
13A0
330
156B
100
AcDbEntity
  8
0
100
AcDbLine
 10
220.687
 20
157.837
 30
0.0
 11
217.687
 21
157.837
 31
0.0
  0
LINE
  5
13A1
330
156B
100
AcDbEntity
  8
0
100
AcDbLine
 10
220.687
 20
124.837
 30
0.0
 11
217.687
 21
124.837
 31
0.0
  0
LINE
  5
13A2
330
156B
100
AcDbEntity
  8
0
100
AcDbLine
 10
220.687
 20
132.257
 30
0.0
 11
217.687
 21
132.257
 31
0.0
  0
LINE
  5
13A3
330
156B
100
AcDbEntity
  8
0
100
AcDbLine
 10
220.687
 20
138.837
 30
0.0
 11
217.687
 21
138.837
 31
0.0
  0
LINE
  5
13A4
330
156B
100
AcDbEntity
  8
0
100
AcDbLine
 10
220.687
 20
146.257
 30
0.0
 11
217.687
 21
146.257
 31
0.0
  0
LINE
  5
13A5
330
156B
100
AcDbEntity
  8
0
100
AcDbLine
 10
250.687
 20
124.837
 30
0.0
 11
253.687
 21
124.837
 31
0.0
  0
LINE
  5
13A6
330
156B
100
AcDbEntity
  8
0
100
AcDbLine
 10
250.687
 20
132.257
 30
0.0
 11
253.687
 21
132.257
 31
0.0
  0
LINE
  5
13A7
330
156B
100
AcDbEntity
  8
0
100
AcDbLine
 10
250.687
 20
138.837
 30
0.0
 11
253.687
 21
138.837
 31
0.0
  0
LINE
  5
13A8
330
156B
100
AcDbEntity
  8
0
100
AcDbLine
 10
250.687
 20
146.257
 30
0.0
 11
253.687
 21
146.257
 31
0.0
  0
LINE
  5
13A9
330
156B
100
AcDbEntity
  8
0
100
AcDbLine
 10
283.687
 20
146.2569999999999
 30
0.0
 11
286.687
 21
146.2569999999999
 31
0.0
  0
LINE
  5
13AA
330
156B
100
AcDbEntity
  8
0
100
AcDbLine
 10
283.687
 20
138.837
 30
0.0
 11
286.687
 21
138.837
 31
0.0
  0
LINE
  5
13AB
330
156B
100
AcDbEntity
  8
0
100
AcDbLine
 10
283.687
 20
132.2569999999999
 30
0.0
 11
286.687
 21
132.2569999999999
 31
0.0
  0
LINE
  5
13AC
330
156B
100
AcDbEntity
  8
0
100
AcDbLine
 10
283.687
 20
124.837
 30
0.0
 11
286.687
 21
124.837
 31
0.0
  0
LINE
  5
13AD
330
156B
100
AcDbEntity
  8
0
100
AcDbLine
 10
316.687
 20
124.837
 30
0.0
 11
319.687
 21
124.837
 31
0.0
  0
LINE
  5
13AE
330
156B
100
AcDbEntity
  8
0
100
AcDbLine
 10
316.687
 20
132.2569999999999
 30
0.0
 11
319.687
 21
132.2569999999999
 31
0.0
  0
LINE
  5
13AF
330
156B
100
AcDbEntity
  8
0
100
AcDbLine
 10
316.687
 20
138.837
 30
0.0
 11
319.687
 21
138.837
 31
0.0
  0
LINE
  5
13B0
330
156B
100
AcDbEntity
  8
0
100
AcDbLine
 10
316.687
 20
146.2569999999999
 30
0.0
 11
319.687
 21
146.2569999999999
 31
0.0
  0
LINE
  5
13B1
330
156B
100
AcDbEntity
  8
0
100
AcDbLine
 10
283.687
 20
113.1319999999999
 30
0.0
 11
286.687
 21
113.1319999999999
 31
0.0
  0
LINE
  5
13B2
330
156B
100
AcDbEntity
  8
0
100
AcDbLine
 10
283.687
 20
105.712
 30
0.0
 11
286.687
 21
105.712
 31
0.0
  0
LINE
  5
13B3
330
156B
100
AcDbEntity
  8
0
100
AcDbLine
 10
283.687
 20
98.88200000000001
 30
0.0
 11
286.687
 21
98.88200000000001
 31
0.0
  0
LINE
  5
13B4
330
156B
100
AcDbEntity
  8
0
100
AcDbLine
 10
283.687
 20
91.46199999999998
 30
0.0
 11
286.687
 21
91.46199999999998
 31
0.0
  0
LINE
  5
13B5
330
156B
100
AcDbEntity
  8
0
100
AcDbLine
 10
316.687
 20
91.46199999999998
 30
0.0
 11
319.687
 21
91.46199999999998
 31
0.0
  0
LINE
  5
13B6
330
156B
100
AcDbEntity
  8
0
100
AcDbLine
 10
316.687
 20
98.88200000000001
 30
0.0
 11
319.687
 21
98.88200000000001
 31
0.0
  0
LINE
  5
13B7
330
156B
100
AcDbEntity
  8
0
100
AcDbLine
 10
316.687
 20
105.712
 30
0.0
 11
319.687
 21
105.712
 31
0.0
  0
LINE
  5
13B8
330
156B
100
AcDbEntity
  8
0
100
AcDbLine
 10
316.687
 20
113.1319999999999
 30
0.0
 11
319.687
 21
113.1319999999999
 31
0.0
  0
LINE
  5
13B9
330
156B
100
AcDbEntity
  8
0
100
AcDbLine
 10
250.687
 20
113.132
 30
0.0
 11
253.687
 21
113.132
 31
0.0
  0
LINE
  5
13BA
330
156B
100
AcDbEntity
  8
0
100
AcDbLine
 10
250.687
 20
105.712
 30
0.0
 11
253.687
 21
105.712
 31
0.0
  0
LINE
  5
13BB
330
156B
100
AcDbEntity
  8
0
100
AcDbLine
 10
250.687
 20
98.88200000000006
 30
0.0
 11
253.687
 21
98.88200000000006
 31
0.0
  0
LINE
  5
13BC
330
156B
100
AcDbEntity
  8
0
100
AcDbLine
 10
250.687
 20
91.46200000000005
 30
0.0
 11
253.687
 21
91.46200000000005
 31
0.0
  0
LINE
  5
13BD
330
156B
100
AcDbEntity
  8
0
100
AcDbLine
 10
220.687
 20
98.88200000000006
 30
0.0
 11
217.687
 21
98.88200000000006
 31
0.0
  0
LINE
  5
13BE
330
156B
100
AcDbEntity
  8
0
100
AcDbLine
 10
220.687
 20
91.46200000000005
 30
0.0
 11
217.687
 21
91.46200000000005
 31
0.0
  0
LINE
  5
13BF
330
156B
100
AcDbEntity
  8
0
100
AcDbLine
 10
220.687
 20
105.712
 30
0.0
 11
217.687
 21
105.712
 31
0.0
  0
LINE
  5
13C0
330
156B
100
AcDbEntity
  8
0
100
AcDbLine
 10
220.687
 20
113.132
 30
0.0
 11
217.687
 21
113.132
 31
0.0
  0
LINE
  5
13C4
330
156B
100
AcDbEntity
  8
0
100
AcDbLine
 10
183.1870000000001
 20
250.297
 30
0.0
 11
188.1870000000001
 21
250.297
 31
0.0
  0
LINE
  5
13C5
330
156B
100
AcDbEntity
  8
0
100
AcDbLine
 10
183.1870000000001
 20
250.297
 30
0.0
 11
188.1870000000001
 21
254.047
 31
0.0
  0
LINE
  5
13C6
330
156B
100
AcDbEntity
  8
0
100
AcDbLine
 10
186.937
 20
88.04700000000009
 30
0.0
 11
186.937
 21
83.04700000000009
 31
0.0
  0
LINE
  5
13C7
330
156B
100
AcDbEntity
  8
0
100
AcDbLine
 10
349.187
 20
86.79700000000002
 30
0.0
 11
354.187
 21
86.79700000000002
 31
0.0
  0
LINE
  5
13C8
330
156B
100
AcDbEntity
  8
0
100
AcDbLine
 10
349.187
 20
250.297
 30
0.0
 11
354.187
 21
250.297
 31
0.0
  0
LINE
  5
13C9
330
156B
100
AcDbEntity
  8
0
100
AcDbLine
 10
354.187
 20
250.297
 30
0.0
 11
349.187
 21
254.047
 31
0.0
  0
LINE
  5
13CA
330
156B
100
AcDbEntity
  8
0
100
AcDbLine
 10
354.187
 20
86.79700000000002
 30
0.0
 11
349.187
 21
83.04700000000002
 31
0.0
  0
LINE
  5
13CB
330
156B
100
AcDbEntity
  8
0
100
AcDbLine
 10
183.187
 20
88.04700000000009
 30
0.0
 11
186.937
 21
83.04700000000009
 31
0.0
  0
DIMENSION
  5
1428
330
156B
100
AcDbEntity
  8
5
100
AcDbDimension
  2
*D12
 10
171.187
 20
154.547
 30
0.0
 11
171.187
 21
168.744
 31
0.0
 70
   160
  1
 28 
 71
     5
 42
27.99999999999997
  3
GEN-ISO
100
AcDbAlignedDimension
 13
188.187
 23
182.547
 33
0.0
 14
188.187
 24
154.547
 34
0.0
 50
270.0
100
AcDbRotatedDimension
1001
GENIUS_GENDTOL_13
1000

1000
h7
1000

1040
0.0
1000
 28 
  0
POLYLINE
  5
143D
330
156B
100
AcDbEntity
  8
SCHRAFFUR_RAND
100
AcDb2dPolyline
 66
     1
 10
0.0
 20
0.0
 30
0.0
 70
     1
  0
VERTEX
  5
143E
330
143D
100
AcDbEntity
  8
SCHRAFFUR_RAND
100
AcDbVertex
100
AcDb2dVertex
 10
186.937
 20
254.047
 30
0.0
  0
VERTEX
  5
143F
330
143D
100
AcDbEntity
  8
SCHRAFFUR_RAND
100
AcDbVertex
100
AcDb2dVertex
 10
183.187
 20
249.047
 30
0.0
  0
VERTEX
  5
1440
330
143D
100
AcDbEntity
  8
SCHRAFFUR_RAND
100
AcDbVertex
100
AcDb2dVertex
 10
186.937
 20
249.047
 30
0.0
  0
VERTEX
  5
1441
330
143D
100
AcDbEntity
  8
SCHRAFFUR_RAND
100
AcDbVertex
100
AcDb2dVertex
 10
186.937
 20
254.047
 30
0.0
  0
SEQEND
  5
1442
330
143D
100
AcDbEntity
  8
SCHRAFFUR_RAND
  0
INSERT
  5
1460
330
156B
100
AcDbEntity
  8
8
100
AcDbBlockReference
  2
*X6
 10
100.14
 20
437.234
 30
0.0
 50
270.0
1001
ACAD
1000
HATCH
1002
{
1070
    19
1000
ANSI31,_I
1040
0.18
1040
1.570999999999999
1002
}
  0
POLYLINE
  5
1461
330
156B
100
AcDbEntity
  8
SCHRAFFUR_RAND
100
AcDb2dPolyline
 66
     1
 10
0.0
 20
0.0
 30
0.0
 70
     1
  0
VERTEX
  5
1462
330
1461
100
AcDbEntity
  8
SCHRAFFUR_RAND
100
AcDbVertex
100
AcDb2dVertex
 10
354.1869999999999
 20
249.047
 30
0.0
  0
VERTEX
  5
1463
330
1461
100
AcDbEntity
  8
SCHRAFFUR_RAND
100
AcDbVertex
100
AcDb2dVertex
 10
350.437
 20
254.047
 30
0.0
  0
VERTEX
  5
1464
330
1461
100
AcDbEntity
  8
SCHRAFFUR_RAND
100
AcDbVertex
100
AcDb2dVertex
 10
350.437
 20
249.047
 30
0.0
  0
VERTEX
  5
1465
330
1461
100
AcDbEntity
  8
SCHRAFFUR_RAND
100
AcDbVertex
100
AcDb2dVertex
 10
354.1869999999999
 20
249.047
 30
0.0
  0
SEQEND
  5
1466
330
1461
100
AcDbEntity
  8
SCHRAFFUR_RAND
  0
INSERT
  5
1484
330
156B
100
AcDbEntity
  8
8
100
AcDbBlockReference
  2
*X7
 10
100.14
 20
437.234
 30
0.0
 50
270.0
1001
ACAD
1000
HATCH
1002
{
1070
    19
1000
ANSI31,_I
1040
0.18
1040
1.570999999999999
1002
}
  0
POLYLINE
  5
1485
330
156B
100
AcDbEntity
  8
SCHRAFFUR_RAND
100
AcDb2dPolyline
 66
     1
 10
0.0
 20
0.0
 30
0.0
 70
     1
  0
VERTEX
  5
1486
330
1485
100
AcDbEntity
  8
SCHRAFFUR_RAND
100
AcDbVertex
100
AcDb2dVertex
 10
349.187
 20
83.04700000000002
 30
0.0
  0
VERTEX
  5
1487
330
1485
100
AcDbEntity
  8
SCHRAFFUR_RAND
100
AcDbVertex
100
AcDb2dVertex
 10
354.1869999999999
 20
86.79700000000002
 30
0.0
  0
VERTEX
  5
1488
330
1485
100
AcDbEntity
  8
SCHRAFFUR_RAND
100
AcDbVertex
100
AcDb2dVertex
 10
349.187
 20
86.79700000000002
 30
0.0
  0
VERTEX
  5
1489
330
1485
100
AcDbEntity
  8
SCHRAFFUR_RAND
100
AcDbVertex
100
AcDb2dVertex
 10
349.187
 20
83.04700000000002
 30
0.0
  0
SEQEND
  5
148A
330
1485
100
AcDbEntity
  8
SCHRAFFUR_RAND
  0
INSERT
  5
14A2
330
156B
100
AcDbEntity
  8
8
100
AcDbBlockReference
  2
*X8
 10
100.14
 20
437.234
 30
0.0
 50
270.0
1001
ACAD
1000
HATCH
1002
{
1070
    19
1000
ANSI31,_I
1040
0.18
1040
1.570999999999999
1002
}
  0
POLYLINE
  5
14A3
330
156B
100
AcDbEntity
  8
SCHRAFFUR_RAND
100
AcDb2dPolyline
 66
     1
 10
0.0
 20
0.0
 30
0.0
 70
     1
  0
VERTEX
  5
14A4
330
14A3
100
AcDbEntity
  8
SCHRAFFUR_RAND
100
AcDbVertex
100
AcDb2dVertex
 10
183.187
 20
88.04700000000002
 30
0.0
  0
VERTEX
  5
14A5
330
14A3
100
AcDbEntity
  8
SCHRAFFUR_RAND
100
AcDbVertex
100
AcDb2dVertex
 10
186.937
 20
83.04700000000002
 30
0.0
  0
VERTEX
  5
14A6
330
14A3
100
AcDbEntity
  8
SCHRAFFUR_RAND
100
AcDbVertex
100
AcDb2dVertex
 10
186.937
 20
88.04700000000002
 30
0.0
  0
VERTEX
  5
14A7
330
14A3
100
AcDbEntity
  8
SCHRAFFUR_RAND
100
AcDbVertex
100
AcDb2dVertex
 10
183.187
 20
88.04700000000002
 30
0.0
  0
SEQEND
  5
14A8
330
14A3
100
AcDbEntity
  8
SCHRAFFUR_RAND
  0
INSERT
  5
14C7
330
156B
100
AcDbEntity
  8
8
100
AcDbBlockReference
  2
*X9
 10
100.14
 20
437.234
 30
0.0
 50
270.0
1001
ACAD
1000
HATCH
1002
{
1070
    19
1000
ANSI31,_I
1040
0.18
1040
1.570999999999999
1002
}
  0
DIMENSION
  5
19B8
330
156B
100
AcDbEntity
  8
5
100
AcDbDimension
  2
*D14
 10
171.1890730675056
 20
182.547
 30
0.0
 11
168.8390730675056
 21
185.047
 31
0.0
 70
    32
  1
<>
 71
     5
 42
5.0
  3
GEN-ISO
100
AcDbAlignedDimension
 13
188.187
 23
187.547
 33
0.0
 14
188.187
 24
182.547
 34
0.0
 50
270.0
100
AcDbRotatedDimension
1001
ACAD
1000
DSTYLE
1002
{
1070
    40
1040
1.0
1002
}
1001
GENIUS_GENDTOL_13
1000

1000
h7
1000

1040
0.0
1000
<>
  0
DIMENSION
  5
19F9
330
156B
100
AcDbEntity
  8
5
100
AcDbDimension
  2
*D15
 10
283.6870000000001
 20
372.647001
 30
0.0
 11
285.1870000000001
 21
374.997001
 31
0.0
 70
    32
  1
<>
 71
     5
 42
3.0
  3
GEN-ISO
100
AcDbAlignedDimension
 13
286.6870000000001
 23
362.647
 33
0.0
 14
283.6870000000001
 24
362.647
 34
0.0
100
AcDbRotatedDimension
1001
ACAD
1000
DSTYLE
1002
{
1070
    40
1040
1.0
1002
}
1001
GENIUS_GENDTOL_13
1000

1000
h7
1000

1040
0.0
1000
<>
  0
ARC
  5
1C50
330
156B
100
AcDbEntity
  8
0
100
AcDbCircle
 10
309.1870000000001
 20
364.147
 30
0.0
 40
4.0
100
AcDbArc
 50
202.0239999999986
 51
337.9760000000014
  0
ARC
  5
1C51
330
156B
100
AcDbEntity
  8
0
100
AcDbCircle
 10
327.062
 20
364.147
 30
0.0
 40
4.0
100
AcDbArc
 50
205.8069999999999
 51
337.9760000000014
  0
ARC
  5
1C52
330
156B
100
AcDbEntity
  8
0
100
AcDbCircle
 10
341.812
 20
364.147
 30
0.0
 40
4.0
100
AcDbArc
 50
202.0239999999986
 51
337.9760000000014
  0
VIEWPORT
  5
176B
102
{ACAD_XDICTIONARY
360
1CB3
102
}
330
1568
100
AcDbEntity
 67
     1
  8
0
100
AcDbViewport
 10
12.78640005692097
 20
9.0
 30
0.0
 40
27.05027932960894
 41
18.0
 68
     1
 69
     1
 12
12.78640005692097
 22
9.0
 13
0.0
 23
0.0
 14
1.0
 24
1.0
 15
10.0
 25
10.0
 16
0.0
 26
0.0
 36
1.0
 17
0.0
 27
0.0
 37
0.0
 42
50.0
 43
0.0
 44
0.0
 45
18.0
 50
0.0
 51
0.0
 72
  1000
 90
    32800
  1

281
     0
 71
     1
 74
     0
110
0.0
120
0.0
130
0.0
111
1.0
121
0.0
131
0.0
112
0.0
122
1.0
132
0.0
 79
     0
146
0.0
1001
GENIUS_GENSCREG_15
1000
PF
1040
1.0
1000
DF
1040
1.0
1000
MIN
1011
-0.7387396078835025
1021
0.0
1031
0.0
1000
MAX
1011
26.31153972172544
1021
18.0
1031
0.0
1000
FLAGS
1070
     4
1001
GENIUS_GENODEF_13
1002
{
1000
HIER
1070
     0
1002
}
1002
{
1000
MANEDIT
1070
     0
1002
}
1002
{
1000
NOSEL
1070
     0
1002
}
1002
{
1000
BEHIND
1070
     0
1002
}
1002
{
1000
OTHER
1070
     0
1002
}
1002
{
1000
REACTOR
1002
}
1001
GENIUS_GENOBJ-N-SDF_13
1002
{
1000
OWNER
1000
GEN
1002
}
  0
ENDSEC
  0
SECTION
  2
OBJECTS
  0
DICTIONARY
  5
155F
330
0
100
AcDbDictionary
281
     1
  3
ACAD_COLOR
350
1B48
  3
ACAD_GROUP
350
1560
  3
ACAD_LAYOUT
350
1B4B
  3
ACAD_MATERIAL
350
1B47
  3
ACAD_MLINESTYLE
350
156E
  3
ACAD_PLOTSETTINGS
350
1B4C
  3
ACAD_PLOTSTYLENAME
350
1B45
  3
ACAD_TABLESTYLE
350
1B49
  3
ACDBHEADERROUNDTRIPXREC
350
1CB2
  3
AcDbVariableDictionary
350
1C30
  3
AcmDictionary
350
1BA5
  3
AMG
350
1B56
  3
AMGSNAPSETTINGS
350
1C28
  0
DICTIONARY
  5
1CB3
330
176B
100
AcDbDictionary
280
     1
281
     1
  3
ACAD_XREC_ROUNDTRIP
360
1CB4
  0
DICTIONARY
  5
1B48
102
{ACAD_REACTORS
330
155F
102
}
330
155F
100
AcDbDictionary
281
     1
  0
DICTIONARY
  5
1560
102
{ACAD_REACTORS
330
155F
102
}
330
155F
100
AcDbDictionary
281
     1
  0
DICTIONARY
  5
1B4B
102
{ACAD_REACTORS
330
155F
102
}
330
155F
100
AcDbDictionary
281
     1
  3
Layout1
350
1B4E
  3
Model
350
1B4D
  0
DICTIONARY
  5
1B47
102
{ACAD_REACTORS
330
155F
102
}
330
155F
100
AcDbDictionary
281
     1
  0
DICTIONARY
  5
156E
102
{ACAD_REACTORS
330
155F
102
}
330
155F
100
AcDbDictionary
281
     1
  3
STANDARD
350
156F
  0
DICTIONARY
  5
1B4C
102
{ACAD_REACTORS
330
155F
102
}
330
155F
100
AcDbDictionary
281
     1
  0
ACDBDICTIONARYWDFLT
  5
1B45
102
{ACAD_REACTORS
330
155F
102
}
330
155F
100
AcDbDictionary
281
     1
  3
Normal
350
1B46
100
AcDbDictionaryWithDefault
340
1B46
  0
DICTIONARY
  5
1B49
102
{ACAD_REACTORS
330
155F
102
}
330
155F
100
AcDbDictionary
281
     1
  3
Standard
350
1B4A
  0
DICTIONARY
  5
1CB2
102
{ACAD_REACTORS
330
155F
102
}
330
155F
100
AcDbDictionary
281
     1
  0
DICTIONARY
  5
1C30
102
{ACAD_REACTORS
330
155F
102
}
330
155F
100
AcDbDictionary
281
     1
  3
CTABLESTYLE
350
1C31
  3
DIMASSOC
350
1CAF
  3
PROJECTNAME
350
1CB0
  0
DICTIONARY
  5
1BA5
102
{ACAD_REACTORS
330
155F
102
}
330
155F
100
AcDbDictionary
281
     1
  3
AcmStdDictionary
350
1BA6
  3
AMDTSECTSYM_ARROWCOLOR
350
1C6C
  0
DICTIONARY
  5
1B56
102
{ACAD_REACTORS
330
155F
102
}
330
155F
100
AcDbDictionary
281
     1
  0
DICTIONARY
  5
1C28
102
{ACAD_REACTORS
330
155F
102
}
330
155F
100
AcDbDictionary
281
     1
  0
XRECORD
  5
1CB4
102
{ACAD_REACTORS
330
1CB3
102
}
330
1CB3
100
AcDbXrecord
280
     1
102
SHADEPLOT
 70
     0
  0
LAYOUT
  5
1B4E
102
{ACAD_XDICTIONARY
360
1CB7
102
}
102
{ACAD_REACTORS
330
1B4B
102
}
330
1B4B
100
AcDbPlotSettings
  1

  2
\\RD-SR-210\PH-PR-011
  4

  6

 40
0.0
 41
0.0
 42
0.0
 43
0.0
 44
0.0
 45
0.0
 46
0.0
 47
0.0
 48
0.0
 49
0.0
140
0.0
141
0.0
142
1.0
143
1.0
 70
   688
 72
     0
 73
     0
 74
     5
  7

 75
    16
147
1.0
148
0.0
149
0.0
100
AcDbLayout
  1
Layout1
 70
     0
 71
     1
 10
0.0
 20
0.0
 11
420.0
 21
297.001
 12
0.0
 22
0.0
 32
0.0
 14
1.000000000000000E+20
 24
1.000000000000000E+20
 34
1.000000000000000E+20
 15
-1.000000000000000E+20
 25
-1.000000000000000E+20
 35
-1.000000000000000E+20
146
0.0
 13
0.0
 23
0.0
 33
0.0
 16
1.0
 26
0.0
 36
0.0
 17
0.0
 27
1.0
 37
0.0
 76
     0
330
1568
331
176B
  0
LAYOUT
  5
1B4D
102
{ACAD_XDICTIONARY
360
1CB5
102
}
102
{ACAD_REACTORS
330
1B4B
102
}
330
1B4B
100
AcDbPlotSettings
  1

  2
\\RD-SR-210\PH-PR-011
  4

  6

 40
0.0
 41
0.0
 42
0.0
 43
0.0
 44
0.0
 45
0.0
 46
0.0
 47
0.0
 48
0.0
 49
0.0
140
0.0
141
0.0
142
1.0
143
1.0
 70
  1712
 72
     0
 73
     0
 74
     0
  7

 75
     0
147
1.0
148
0.0
149
0.0
100
AcDbLayout
  1
Model
 70
     1
 71
     0
 10
0.0
 20
0.0
 11
12.0
 21
9.0
 12
0.0
 22
0.0
 32
0.0
 14
0.0
 24
0.0
 34
0.0
 15
0.0
 25
0.0
 35
0.0
146
0.0
 13
0.0
 23
0.0
 33
0.0
 16
1.0
 26
0.0
 36
0.0
 17
0.0
 27
1.0
 37
0.0
 76
     0
330
156B
  0
MLINESTYLE
  5
156F
102
{ACAD_REACTORS
330
156E
102
}
330
156E
100
AcDbMlineStyle
  2
STANDARD
 70
     0
  3

 62
   256
 51
90.0
 52
90.0
 71
     2
 49
0.5
 62
   256
  6
BYLAYER
 49
-0.5
 62
   256
  6
BYLAYER
  0
ACDBPLACEHOLDER
  5
1B46
102
{ACAD_REACTORS
330
1B45
102
}
330
1B45
  0
TABLESTYLE
  5
1B4A
102
{ACAD_REACTORS
330
1B49
102
}
330
1B49
100
AcDbTableStyle
  3
Standard
 70
     0
 71
     0
 40
1.5
 41
1.5
280
     0
281
     0
  7
STANDARD
140
4.5
170
     2
 62
     0
 63
     7
283
     0
274
    -2
284
     1
 64
     0
275
    -2
285
     1
 65
     0
276
    -2
286
     1
 66
     0
277
    -2
287
     1
 67
     0
278
    -2
288
     1
 68
     0
279
    -2
289
     1
 69
     0
  7
STANDARD
140
6.0
170
     5
 62
     0
 63
     7
283
     0
274
    -2
284
     1
 64
     0
275
    -2
285
     1
 65
     0
276
    -2
286
     1
 66
     0
277
    -2
287
     1
 67
     0
278
    -2
288
     1
 68
     0
279
    -2
289
     1
 69
     0
  7
STANDARD
140
4.5
170
     5
 62
     0
 63
     7
283
     0
274
    -2
284
     1
 64
     0
275
    -2
285
     1
 65
     0
276
    -2
286
     1
 66
     0
277
    -2
287
     1
 67
     0
278
    -2
288
     1
 68
     0
279
    -2
289
     1
 69
     0
  0
DICTIONARYVAR
  5
1C31
102
{ACAD_REACTORS
330
1C30
102
}
330
1C30
100
DictionaryVariables
280
     0
  1
STANDARD
  0
DICTIONARYVAR
  5
1CAF
102
{ACAD_REACTORS
330
1C30
102
}
330
1C30
100
DictionaryVariables
280
     0
  1
1
  0
DICTIONARYVAR
  5
1CB0
102
{ACAD_REACTORS
330
1C30
102
}
330
1C30
100
DictionaryVariables
280
     0
  1

  0
DICTIONARY
  5
1BA6
102
{ACAD_REACTORS
330
1BA5
102
}
330
1BA5
100
AcDbDictionary
281
     1
  0
XRECORD
  5
1C6C
102
{ACAD_REACTORS
330
1BA5
102
}
330
1BA5
100
AcDbXrecord
280
     1
 90
-1023410169
  0
DICTIONARY
  5
1CB7
330
1B4E
100
AcDbDictionary
280
     1
281
     1
  3
ACAD_XREC_ROUNDTRIP
360
1CB8
  0
DICTIONARY
  5
1CB5
330
1B4D
100
AcDbDictionary
280
     1
281
     1
  3
ACAD_XREC_ROUNDTRIP
360
1CB6
  0
XRECORD
  5
1CB8
102
{ACAD_REACTORS
330
1CB7
102
}
330
1CB7
100
AcDbXrecord
280
     1
102
SHADEPLOT
 70
     0
102
SHADEPLOTRESLEVEL
 70
     2
102
SHADEPLOTCUSTOMDPI
 70
   300
  0
XRECORD
  5
1CB6
102
{ACAD_REACTORS
330
1CB5
102
}
330
1CB5
100
AcDbXrecord
280
     1
102
SHADEPLOT
 70
     0
102
SHADEPLOTRESLEVEL
 70
     2
102
SHADEPLOTCUSTOMDPI
 70
   300
  0
ENDSEC
  0
EOF
