  0
SECTION
  2
HEADER
  9
$ACADVER
  1
AC1015
  9
$ACADMAINTVER
 70
    20
  9
$DWGCODEPAGE
  3
ANSI_1252
  9
$INSBASE
 10
0.0
 20
0.0
 30
0.0
  9
$EXTMIN
 10
162.8690464708812
 20
86.00330602782435
 30
-0.0000000349181948
  9
$EXTMAX
 10
381.4761817693127
 20
402.9923618038554
 30
0.0000000814935746
  9
$LIMMIN
 10
0.0
 20
0.0
  9
$LIMMAX
 10
12.0
 20
9.0
  9
$ORTHOMODE
 70
     0
  9
$REGENMODE
 70
     1
  9
$FILLMODE
 70
     1
  9
$QTEXTMODE
 70
     0
  9
$MIRRTEXT
 70
     0
  9
$LTSCALE
 40
1.0
  9
$ATTMODE
 70
     1
  9
$TEXTSIZE
 40
3.5
  9
$TRACEWID
 40
0.05
  9
$TEXTSTYLE
  7
STANDARD
  9
$CLAYER
  8
0
  9
$CELTYPE
  6
BYLAYER
  9
$CECOLOR
 62
   256
  9
$CELTSCALE
 40
1.0
  9
$DISPSILH
 70
     0
  9
$DIMSCALE
 40
1.0
  9
$DIMASZ
 40
3.5
  9
$DIMEXO
 40
0.0
  9
$DIMDLI
 40
0.38
  9
$DIMRND
 40
0.0
  9
$DIMDLE
 40
0.0
  9
$DIMEXE
 40
3.5
  9
$DIMTP
 40
0.0
  9
$DIMTM
 40
0.0
  9
$DIMTXT
 40
3.5
  9
$DIMCEN
 40
1.75
  9
$DIMTSZ
 40
0.0
  9
$DIMTOL
 70
     0
  9
$DIMLIM
 70
     0
  9
$DIMTIH
 70
     0
  9
$DIMTOH
 70
     0
  9
$DIMSE1
 70
     0
  9
$DIMSE2
 70
     0
  9
$DIMTAD
 70
     1
  9
$DIMZIN
 70
    12
  9
$DIMBLK
  1

  9
$DIMASO
 70
     1
  9
$DIMSHO
 70
     1
  9
$DIMPOST
  1

  9
$DIMAPOST
  1

  9
$DIMALT
 70
     0
  9
$DIMALTD
 70
     2
  9
$DIMALTF
 40
25.4
  9
$DIMLFAC
 40
1.0
  9
$DIMTOFL
 70
     0
  9
$DIMTVP
 40
0.0
  9
$DIMTIX
 70
     0
  9
$DIMSOXD
 70
     0
  9
$DIMSAH
 70
     0
  9
$DIMBLK1
  1

  9
$DIMBLK2
  1

  9
$DIMSTYLE
  2
GEN-ISO
  9
$DIMCLRD
 70
   256
  9
$DIMCLRE
 70
   256
  9
$DIMCLRT
 70
   256
  9
$DIMTFAC
 40
1.0
  9
$DIMGAP
 40
0.0
  9
$DIMJUST
 70
     0
  9
$DIMSD1
 70
     0
  9
$DIMSD2
 70
     0
  9
$DIMTOLJ
 70
     1
  9
$DIMTZIN
 70
     0
  9
$DIMALTZ
 70
     0
  9
$DIMALTTZ
 70
     0
  9
$DIMUPT
 70
     0
  9
$DIMDEC
 70
     2
  9
$DIMTDEC
 70
     2
  9
$DIMALTU
 70
     2
  9
$DIMALTTD
 70
     2
  9
$DIMTXSTY
  7
STANDARD
  9
$DIMAUNIT
 70
     0
  9
$DIMADEC
 70
     0
  9
$DIMALTRND
 40
0.0
  9
$DIMAZIN
 70
     0
  9
$DIMDSEP
 70
    46
  9
$DIMATFIT
 70
     3
  9
$DIMFRAC
 70
     0
  9
$DIMLDRBLK
  1

  9
$DIMLUNIT
 70
     2
  9
$DIMLWD
 70
    -2
  9
$DIMLWE
 70
    -2
  9
$DIMTMOVE
 70
     0
  9
$LUNITS
 70
     2
  9
$LUPREC
 70
     2
  9
$SKETCHINC
 40
0.1
  9
$FILLETRAD
 40
0.0
  9
$AUNITS
 70
     0
  9
$AUPREC
 70
     2
  9
$MENU
  1
.
  9
$ELEVATION
 40
0.0
  9
$PELEVATION
 40
0.0
  9
$THICKNESS
 40
0.0
  9
$LIMCHECK
 70
     0
  9
$CHAMFERA
 40
0.0
  9
$CHAMFERB
 40
0.0
  9
$CHAMFERC
 40
0.0
  9
$CHAMFERD
 40
0.0
  9
$SKPOLY
 70
     0
  9
$TDCREATE
 40
2444972.041666667
  9
$TDUCREATE
 40
2444972.000000000
  9
$TDUPDATE
 40
2454088.803832222
  9
$TDUUPDATE
 40
2454088.762165556
  9
$TDINDWG
 40
0.0213482292
  9
$TDUSRTIMER
 40
0.0213482292
  9
$USRTIMER
 70
     1
  9
$ANGBASE
 50
0.0
  9
$ANGDIR
 70
     0
  9
$PDMODE
 70
     0
  9
$PDSIZE
 40
0.0
  9
$PLINEWID
 40
0.0
  9
$SPLFRAME
 70
     0
  9
$SPLINETYPE
 70
     6
  9
$SPLINESEGS
 70
     8
  9
$HANDSEED
  5
17F7
  9
$SURFTAB1
 70
     6
  9
$SURFTAB2
 70
     6
  9
$SURFTYPE
 70
     6
  9
$SURFU
 70
     6
  9
$SURFV
 70
     6
  9
$UCSBASE
  2

  9
$UCSNAME
  2

  9
$UCSORG
 10
0.0
 20
0.0
 30
0.0
  9
$UCSXDIR
 10
1.0
 20
0.0
 30
0.0
  9
$UCSYDIR
 10
0.0
 20
1.0
 30
0.0
  9
$UCSORTHOREF
  2

  9
$UCSORTHOVIEW
 70
     0
  9
$UCSORGTOP
 10
0.0
 20
0.0
 30
0.0
  9
$UCSORGBOTTOM
 10
0.0
 20
0.0
 30
0.0
  9
$UCSORGLEFT
 10
0.0
 20
0.0
 30
0.0
  9
$UCSORGRIGHT
 10
0.0
 20
0.0
 30
0.0
  9
$UCSORGFRONT
 10
0.0
 20
0.0
 30
0.0
  9
$UCSORGBACK
 10
0.0
 20
0.0
 30
0.0
  9
$PUCSBASE
  2

  9
$PUCSNAME
  2

  9
$PUCSORG
 10
0.0
 20
0.0
 30
0.0
  9
$PUCSXDIR
 10
1.0
 20
0.0
 30
0.0
  9
$PUCSYDIR
 10
0.0
 20
1.0
 30
0.0
  9
$PUCSORTHOREF
  2

  9
$PUCSORTHOVIEW
 70
     0
  9
$PUCSORGTOP
 10
0.0
 20
0.0
 30
0.0
  9
$PUCSORGBOTTOM
 10
0.0
 20
0.0
 30
0.0
  9
$PUCSORGLEFT
 10
0.0
 20
0.0
 30
0.0
  9
$PUCSORGRIGHT
 10
0.0
 20
0.0
 30
0.0
  9
$PUCSORGFRONT
 10
0.0
 20
0.0
 30
0.0
  9
$PUCSORGBACK
 10
0.0
 20
0.0
 30
0.0
  9
$USERI1
 70
     0
  9
$USERI2
 70
     0
  9
$USERI3
 70
     0
  9
$USERI4
 70
     0
  9
$USERI5
 70
     0
  9
$USERR1
 40
0.0
  9
$USERR2
 40
0.0
  9
$USERR3
 40
0.0
  9
$USERR4
 40
0.0
  9
$USERR5
 40
0.0
  9
$WORLDVIEW
 70
     1
  9
$SHADEDGE
 70
     3
  9
$SHADEDIF
 70
    70
  9
$TILEMODE
 70
     1
  9
$MAXACTVP
 70
    48
  9
$PINSBASE
 10
0.0
 20
0.0
 30
0.0
  9
$PLIMCHECK
 70
     0
  9
$PEXTMIN
 10
0.0
 20
0.0
 30
0.0
  9
$PEXTMAX
 10
420.0
 20
297.001
 30
0.0
  9
$PLIMMIN
 10
0.0
 20
0.0
  9
$PLIMMAX
 10
420.0
 20
297.001
  9
$UNITMODE
 70
     0
  9
$VISRETAIN
 70
     1
  9
$PLINEGEN
 70
     1
  9
$PSLTSCALE
 70
     1
  9
$TREEDEPTH
 70
 -3020
  9
$CMLSTYLE
  2
STANDARD
  9
$CMLJUST
 70
     0
  9
$CMLSCALE
 40
1.0
  9
$PROXYGRAPHICS
 70
     1
  9
$MEASUREMENT
 70
     0
  9
$CELWEIGHT
370
    -1
  9
$ENDCAPS
280
     0
  9
$JOINSTYLE
280
     0
  9
$LWDISPLAY
290
     0
  9
$INSUNITS
 70
     0
  9
$HYPERLINKBASE
  1

  9
$STYLESHEET
  1

  9
$XEDIT
290
     1
  9
$CEPSNTYPE
380
     0
  9
$PSTYLEMODE
290
     1
  9
$FINGERPRINTGUID
  2
{1820C455-2B1C-495A-B2FD-B531CEEA247D}
  9
$VERSIONGUID
  2
{D0760D0D-BE93-44D5-892B-405240BC9922}
  9
$EXTNAMES
290
     1
  9
$PSVPSCALE
 40
0.0
  9
$OLESTARTUP
290
     0
  0
ENDSEC
  0
SECTION
  2
CLASSES
  0
CLASS
  1
ACDBDICTIONARYWDFLT
  2
AcDbDictionaryWithDefault
  3
ObjectDBX Classes
 90
        0
280
     0
281
     0
  0
CLASS
  1
TABLESTYLE
  2
AcDbTableStyle
  3
ObjectDBX Classes
 90
     2047
280
     0
281
     0
  0
CLASS
  1
ACME_DOCUMENT
  2
AcMeDbDoc
  3
AcMeServices
 90
        0
280
     0
281
     0
  0
CLASS
  1
AMGSETTINGSOBJ
  2
AmgSettingsObj
  3
"AcadM|Product Description: AutoCAD Mechanical 2000|Company: Autodesk"
 90
        0
280
     0
281
     0
  0
CLASS
  1
ACMESCOPE
  2
AcMeScope
  3
AcMeServices
 90
        0
280
     0
281
     0
  0
CLASS
  1
ACMECOMMANDHISTORY
  2
AcMeCommandHistory
  3
AcMeServices
 90
        0
280
     0
281
     0
  0
CLASS
  1
ACIMSYSVARMAN
  2
AcImSysVarManager
  3
AcMeServices
 90
        0
280
     0
281
     0
  0
CLASS
  1
ACIMINTSYSVAR
  2
AcImIntSysVar
  3
AcMeServices
 90
        0
280
     0
281
     0
  0
CLASS
  1
ACMEDRAWINGMAN
  2
AcMeDrawingMan
  3
AcMeServices
 90
        0
280
     0
281
     0
  0
CLASS
  1
ACMEVIEW
  2
AcMeView
  3
AcMeServices
 90
        0
280
     0
281
     0
  0
CLASS
  1
ACDBENTITYCACHE
  2
AcMeEntityCache
  3
AcMeServices
 90
        0
280
     0
281
     0
  0
CLASS
  1
GSMANAGER
  2
AcMeGSManager
  3
AcMeServices
 90
        0
280
     0
281
     0
  0
CLASS
  1
AMDTINTERNALREACTOR
  2
AmdtInternalReactor
  3
AcMeServices
 90
        0
280
     0
281
     0
  0
CLASS
  1
ACMESTATEMGR
  2
AcMeStateMgr
  3
AcMeServices
 90
        0
280
     0
281
     0
  0
CLASS
  1
ACGREFMASTER
  2
AcGrefMaster
  3
AcAttribServices
 90
        0
280
     0
281
     0
  0
CLASS
  1
AM_DRAWING_MGR
  2
AcDmDwgMgr
  3
AcMechDwgViewMgmt
 90
        0
280
     0
281
     0
  0
CLASS
  1
AM_DWG_DOCUMENT
  2
AcDmDwgDocument
  3
AcMechDwgViewMgmt
 90
        0
280
     0
281
     0
  0
CLASS
  1
AM_DWG_SHEET
  2
AcDmSheet
  3
AcMechDwgViewMgmt
 90
        0
280
     0
281
     0
  0
CLASS
  1
AM_VIEWDIMPARMAP
  2
AcDmViewDimParMap
  3
AcMechDwgViewMgmt
 90
        0
280
     0
281
     0
  0
CLASS
  1
ACIMREALSYSVAR
  2
AcImRealSysVar
  3
AcMeServices
 90
        0
280
     0
281
     0
  0
CLASS
  1
AM_DWGMGR_NAME
  2
AcDmDwgMgrName
  3
AcMechDwgViewMgmt
 90
        0
280
     0
281
     0
  0
CLASS
  1
ACME_DATABASE
  2
AcMeDbDatabase
  3
AcMeServices
 90
        0
280
     0
281
     0
  0
CLASS
  1
ACRFINSADJUSTERMGR
  2
AcRfInsAdjusterMgr
  3
AcMeServices
 90
        0
280
     0
281
     0
  0
CLASS
  1
ACGREFACADMASTER
  2
AcGrefacadMaster
  3
AcGrefServices
 90
        0
280
     0
281
     0
  0
CLASS
  1
AMDTMENUSTATEMGR
  2
AmdtMenuStateMgr
  3
McadcomServices
 90
        0
280
     0
281
     0
  0
CLASS
  1
AMDTMCOMMENUSTATE
  2
AmdtMcomMenuState
  3
McadcomServices
 90
        0
280
     0
281
     0
  0
CLASS
  1
AMIMASTER
  2
AmiMaster
  3
AmiServices
 90
        0
280
     0
281
     0
  0
CLASS
  1
MAPIAMMOUDLE
  2
MApiAmModule
  3
MApiAmServices
 90
        0
280
     0
281
     0
  0
CLASS
  1
ACIMSTRSYSVAR
  2
AcImStrSysVar
  3
AcMeServices
 90
        0
280
     0
281
     0
  0
CLASS
  1
AMDTADMENUSTATE
  2
AmdtAdMenuState
  3
DesignerServices
 90
        0
280
     0
281
     0
  0
CLASS
  1
ADAPPL
  2
AcAdAppl
  3
DesignerServices
 90
        0
280
     0
281
     0
  0
CLASS
  1
DEPMGR
  2
AcAdDepMgr
  3
DesignerServices
 90
        0
280
     0
281
     0
  0
CLASS
  1
PARAMMGR
  2
AcAdParamMgr
  3
DesignerServices
 90
        0
280
     0
281
     0
  0
CLASS
  1
PARAMSCOPE
  2
AcAdParamScope
  3
DesignerServices
 90
        0
280
     0
281
     0
  0
CLASS
  1
NAMEDAPPL
  2
AcAdNamedAppl
  3
DesignerServices
 90
        0
280
     0
281
     0
  0
CLASS
  1
AMDTDMMENUSTATE
  2
AmdtDmMenuState
  3
AcMechDwgViewMgmt
 90
        0
280
     0
281
     0
  0
CLASS
  1
AMDTAMMENUSTATE
  2
AmdtAmMenuState
  3
DesignerAssemblies
 90
        0
280
     0
281
     0
  0
CLASS
  1
ACAMPROJECT
  2
AcAmProject
  3
DesignerAssemblies
 90
        0
280
     0
281
     0
  0
CLASS
  1
ACAMGRCOMPDEF
  2
AcAmGrCompDef
  3
DesignerAssemblies
 90
        0
280
     0
281
     0
  0
CLASS
  1
ACCMCONTEXT
  2
AcCmContext
  3
DesignerAssemblies
 90
        0
280
     0
281
     0
  0
CLASS
  1
ACAMCOMPDEF
  2
AcAmCompDef
  3
DesignerAssemblies
 90
        0
280
     0
281
     0
  0
CLASS
  1
ACAMCOMPDEFMGR
  2
AcAmCompDefMgr
  3
DesignerAssemblies
 90
        0
280
     0
281
     0
  0
CLASS
  1
AMCONTEXTMGR
  2
AcAmContextMgr
  3
DesignerAssemblies
 90
        0
280
     0
281
     0
  0
CLASS
  1
ACAMCONTEXTMODELER
  2
AcAmContextModeler
  3
DesignerAssemblies
 90
        0
280
     0
281
     0
  0
CLASS
  1
ACMDATADICTIONARY
  2
AcmDataDictionary
  3
"AcmSymBB|Product Description: AutoCAD Mechanical 2004 DX|Company: Autodesk"
 90
        0
280
     0
281
     0
  0
CLASS
  1
CATALOGSTATE
  2
AcAmCatalogState
  3
DesignerAssemblies
 90
        0
280
     0
281
     0
  0
CLASS
  1
ACAMGRCOMPDEFSET
  2
AcAmGrCompDefSet
  3
DesignerAssemblies
 90
        0
280
     0
281
     0
  0
CLASS
  1
AMDTBROWSERDBTAB
  2
AmdtBrowserDbTab
  3
McadcomServices
 90
        0
280
     0
281
     0
  0
CLASS
  1
CBROWSERAPPOBJECT
  2
CBrowserAppObject
  3
McadcomServices
 90
        0
280
     0
281
     0
  0
CLASS
  1
DM_PLACEHOLDER
  2
AcDmSelsetPlaceholder
  3
AcMechDwgViewMgmt
 90
        0
280
     0
281
     0
  0
CLASS
  1
ACMSTANDARDANSI
  2
AcmStandardANSI
  3
"Amdt_StdImp|Product Description: AutoCAD Mechanical 2004 DX|Company: Autodesk"
 90
        0
280
     0
281
     0
  0
CLASS
  1
AMGOBJPROPCFG
  2
AmgObjPropCfg
  3
"AmgLay|Product Description: AutoCAD Mechanical 2000|Company: Autodesk"
 90
        1
280
     0
281
     0
  0
CLASS
  1
ACMSURFSTANDARDANSI
  2
AcmSurfTextStdANSI
  3
"Amdt_StdImp|Product Description: AutoCAD Mechanical 2004 DX|Company: Autodesk"
 90
        0
280
     0
281
     0
  0
CLASS
  1
ACMFCFSTANDARDANSI
  2
AcmFCFStdANSI
  3
"Amdt_StdImp|Product Description: AutoCAD Mechanical 2004 DX|Company: Autodesk"
 90
        0
280
     0
281
     0
  0
CLASS
  1
ACMWELDSTANDARDANSI
  2
AcmWeldingStdANSI
  3
"Amdt_StdImp|Product Description: AutoCAD Mechanical 2004 DX|Company: Autodesk"
 90
        0
280
     0
281
     0
  0
CLASS
  1
ACMIDSTANDARDANSI
  2
AcmIdStdANSI
  3
"Amdt_StdImp|Product Description: AutoCAD Mechanical 2004 DX|Company: Autodesk"
 90
        0
280
     0
281
     0
  0
CLASS
  1
ACMDATUMSTANDARDANSI
  2
AcmDatumStdANSI
  3
"Amdt_StdImp|Product Description: AutoCAD Mechanical 2004 DX|Company: Autodesk"
 90
        0
280
     0
281
     0
  0
CLASS
  1
ACMBOMSTANDARDANSI
  2
AcmBOMStdANSI
  3
"Amdt_StdImp|Product Description: AutoCAD Mechanical 2004 DX|Company: Autodesk"
 90
        0
280
     0
281
     0
  0
CLASS
  1
ACMDETAILSTANDARDANSI
  2
AmdtDetailSymStdANSI
  3
"Amdt_StdImp|Product Description: AutoCAD Mechanical 2004 DX|Company: Autodesk"
 90
        0
280
     0
281
     0
  0
CLASS
  1
ACMSECTIONSTANDARDANSI
  2
AmdtSectionSymStdANSI
  3
"Amdt_StdImp|Product Description: AutoCAD Mechanical 2004 DX|Company: Autodesk"
 90
        0
280
     0
281
     0
  0
CLASS
  1
ACMCENTERLINESTANDARDANSI
  2
AmdtCenterLineStdANSI
  3
"Amdt_StdImp|Product Description: AutoCAD Mechanical 2004 DX|Company: Autodesk"
 90
        0
280
     0
281
     0
  0
CLASS
  1
ACMTHREADLINESTANDARDANSI
  2
AmdtThreadLineStdANSI
  3
"Amdt_StdImp|Product Description: AutoCAD Mechanical 2004 DX|Company: Autodesk"
 90
        0
280
     0
281
     0
  0
CLASS
  1
ACMNOTESTANDARDANSI
  2
AmdtNoteStdANSI
  3
"Amdt_StdImp|Product Description: AutoCAD Mechanical 2004 DX|Company: Autodesk"
 90
        0
280
     0
281
     0
  0
CLASS
  1
AMDTNOTETEMPLATEDB
  2
AmdtNoteTemplateDB
  3
AMDT_STDIMP_MODULE_NAME
 90
        0
280
     0
281
     0
  0
CLASS
  1
ACAMGLAYSTD
  2
AcAmgLayStd
  3
"AcAmgLayStd|Product Description: AutoCAD Mechanical 2000|Company: Autodesk"
 90
        0
280
     0
281
     0
  0
CLASS
  1
ACAMGDIMSTD
  2
AcAmgDimStd
  3
"AcAmgDimStd|Product Description: AutoCAD Mechanical 2000|Company: Autodesk"
 90
        0
280
     0
281
     0
  0
CLASS
  1
ACAMGHOLECHARTSTDANSI
  2
AcAmgHoleChartStdANSI
  3
ACMSYMBB_MODULE_NAME
 90
        0
280
     0
281
     0
  0
CLASS
  1
ACAMGTITLESTD
  2
AcAmgTitleStd
  3
"TITLEAPP"
 90
        0
280
     0
281
     0
  0
CLASS
  1
DICTIONARYVAR
  2
AcDbDictionaryVar
  3
ObjectDBX Classes
 90
        0
280
     0
281
     0
  0
CLASS
  1
ACAMGFILTERDAT
  2
AcAmgFilterDat
  3
"AcadM|Product Description: AutoCAD Mechanical 2000|Company: Autodesk"
 90
        0
280
     0
281
     0
  0
CLASS
  1
ACDBPLACEHOLDER
  2
AcDbPlaceHolder
  3
ObjectDBX Classes
 90
        0
280
     0
281
     0
  0
CLASS
  1
LAYOUT
  2
AcDbLayout
  3
ObjectDBX Classes
 90
        0
280
     0
281
     0
  0
ENDSEC
  0
SECTION
  2
TABLES
  0
TABLE
  2
VPORT
  5
1555
330
0
100
AcDbSymbolTable
 70
     4
  0
VPORT
  5
17F1
330
1555
100
AcDbSymbolTableRecord
100
AcDbViewportTableRecord
  2
*Active
 70
     0
 10
0.0
 20
0.0
 11
1.0
 21
1.0
 12
272.172614120097
 22
244.4978339158399
 13
0.0
 23
0.0
 14
1.0
 24
1.0
 15
0.0
 25
0.0
 16
0.0
 26
0.0
 36
1.0
 17
0.0
 27
0.0
 37
0.0
 40
319.2916397162928
 41
1.494545454545454
 42
50.0
 43
0.0
 44
0.0
 50
0.0
 51
0.0
 71
     0
 72
  1000
 73
     1
 74
     1
 75
     0
 76
     0
 77
     0
 78
     0
281
     0
 65
     1
110
0.0
120
0.0
130
0.0
111
1.0
121
0.0
131
0.0
112
0.0
122
1.0
132
0.0
 79
     0
146
0.0
  0
ENDTAB
  0
TABLE
  2
LTYPE
  5
1552
330
0
100
AcDbSymbolTable
 70
    11
  0
LTYPE
  5
155F
330
1552
100
AcDbSymbolTableRecord
100
AcDbLinetypeTableRecord
  2
BYBLOCK
 70
     0
  3

 72
    65
 73
     0
 40
0.0
  0
LTYPE
  5
1560
330
1552
100
AcDbSymbolTableRecord
100
AcDbLinetypeTableRecord
  2
BYLAYER
 70
     0
  3

 72
    65
 73
     0
 40
0.0
  0
LTYPE
  5
1561
330
1552
100
AcDbSymbolTableRecord
100
AcDbLinetypeTableRecord
  2
CONTINUOUS
 70
     0
  3
Solid line
 72
    65
 73
     0
 40
0.0
  0
LTYPE
  5
1570
330
1552
100
AcDbSymbolTableRecord
100
AcDbLinetypeTableRecord
  2
GEN7
 70
     0
  3
____ _ ____ _ ____ _ ____ _ ____ _ ____ _ ____ _ ____ _ ____ _
 72
    65
 73
     4
 40
22.0
 49
10.75
 74
     0
 49
-3.75
 74
     0
 49
3.75
 74
     0
 49
-3.75
 74
     0
  0
LTYPE
  5
15EA
330
1552
100
AcDbSymbolTableRecord
100
AcDbLinetypeTableRecord
  2
HIDDEN
 70
     0
  3
Verdeckt
 72
    65
 73
     2
 40
0.375
 49
0.25
 74
     0
 49
-0.125
 74
     0
  0
LTYPE
  5
15EB
330
1552
100
AcDbSymbolTableRecord
100
AcDbLinetypeTableRecord
  2
PHANTOM2
 70
     0
  3
Phantom (.5x) ___ _ _ ___ _ _ ___ _ _ ___ _ _
 72
    65
 73
     6
 40
1.25
 49
0.625
 74
     0
 49
-0.125
 74
     0
 49
0.125
 74
     0
 49
-0.125
 74
     0
 49
0.125
 74
     0
 49
-0.125
 74
     0
  0
LTYPE
  5
15EC
330
1552
100
AcDbSymbolTableRecord
100
AcDbLinetypeTableRecord
  2
CENTER
 70
     0
  3
Mitte ____ _ ____ _ ____ _ ____ _ ____ _ ____
 72
    65
 73
     4
 40
2.0
 49
1.25
 74
     0
 49
-0.25
 74
     0
 49
0.25
 74
     0
 49
-0.25
 74
     0
  0
LTYPE
  5
1623
330
1552
100
AcDbSymbolTableRecord
100
AcDbLinetypeTableRecord
  2
Amconstr
 70
     0
  3
_______________________
 72
    65
 73
     2
 40
9999.0
 49
9999.0
 74
     0
 49
0.0
 74
     0
  0
LTYPE
  5
1629
330
1552
100
AcDbSymbolTableRecord
100
AcDbLinetypeTableRecord
  2
CENTER2
 70
     0
  3
Center (.5x) ___ _ ___ _ ___ _ ___ _ ___ _ ___
 72
    65
 73
     4
 40
1.125
 49
0.75
 74
     0
 49
-0.125
 74
     0
 49
0.125
 74
     0
 49
-0.125
 74
     0
  0
LTYPE
  5
162A
330
1552
100
AcDbSymbolTableRecord
100
AcDbLinetypeTableRecord
  2
HIDDEN2
 70
     0
  3
Hidden (.5x) _ _ _ _ _ _ _ _ _ _ _ _ _ _ _ _ _
 72
    65
 73
     2
 40
0.1875
 49
0.125
 74
     0
 49
-0.0625
 74
     0
  0
LTYPE
  5
162B
330
1552
100
AcDbSymbolTableRecord
100
AcDbLinetypeTableRecord
  2
Amzigzag2
 70
     0
  3
/\/-/\/-/\/-/\/-/\/-/\/
 72
    65
 73
     2
 40
0.4401
 49
0.0001
 74
     4
 75
   136
340
1627
 46
0.0016
 50
0.0
 44
0.0
 45
0.0
 49
-0.4400000000000001
 74
     0
  0
LTYPE
  5
1639
330
1552
100
AcDbSymbolTableRecord
100
AcDbLinetypeTableRecord
  2
ACANSTGB
 70
     0
  3
__ . . __ . .
 72
    65
 73
     6
 40
0.35433070866
 49
0.15748031496
 74
     0
 49
-0.03937007874
 74
     0
 49
0.03937007874
 74
     0
 49
-0.03937007874
 74
     0
 49
0.03937007874
 74
     0
 49
-0.03937007874
 74
     0
  0
LTYPE
  5
163A
330
1552
100
AcDbSymbolTableRecord
100
AcDbLinetypeTableRecord
  2
ACANSTGL
 70
     0
  3
_ _ _ _ _
 72
    65
 73
     2
 40
0.11811023622
 49
0.07874015748
 74
     0
 49
-0.03937007874
 74
     0
  0
ENDTAB
  0
TABLE
  2
LAYER
  5
154F
330
0
100
AcDbSymbolTable
 70
    10
  0
LAYER
  5
155B
330
154F
100
AcDbSymbolTableRecord
100
AcDbLayerTableRecord
  2
0
 70
     0
 62
     7
  6
CONTINUOUS
370
    -3
390
15AB
  0
LAYER
  5
1578
330
154F
100
AcDbSymbolTableRecord
100
AcDbLayerTableRecord
  2
5
 70
     0
 62
     3
  6
CONTINUOUS
370
    -3
390
15AB
  0
LAYER
  5
1579
330
154F
100
AcDbSymbolTableRecord
100
AcDbLayerTableRecord
  2
6
 70
     0
 62
     2
  6
CONTINUOUS
370
    -3
390
15AB
  0
LAYER
  5
157A
330
154F
100
AcDbSymbolTableRecord
100
AcDbLayerTableRecord
  2
7
 70
     0
 62
     4
  6
GEN7
370
    -3
390
15AB
  0
LAYER
  5
157B
330
154F
100
AcDbSymbolTableRecord
100
AcDbLayerTableRecord
  2
8
 70
     0
 62
     1
  6
CONTINUOUS
370
    -3
390
15AB
  0
LAYER
  5
157C
330
154F
100
AcDbSymbolTableRecord
100
AcDbLayerTableRecord
  2
ND_0
 70
     1
 62
     2
  6
CONTINUOUS
370
    -3
390
15AB
  0
LAYER
  5
157F
330
154F
100
AcDbSymbolTableRecord
100
AcDbLayerTableRecord
  2
PUNKTE
 70
     0
 62
     1
  6
CONTINUOUS
370
    -3
390
15AB
  0
LAYER
  5
1580
330
154F
100
AcDbSymbolTableRecord
100
AcDbLayerTableRecord
  2
SCHRAFFUR_RAND
 70
     1
 62
    -1
  6
CONTINUOUS
370
    -3
390
15AB
  0
LAYER
  5
1673
330
154F
100
AcDbSymbolTableRecord
100
AcDbLayerTableRecord
  2
Defpoints
 70
     0
 62
     7
  6
CONTINUOUS
290
     0
370
    -3
390
15AB
  0
LAYER
  5
1756
330
154F
100
AcDbSymbolTableRecord
100
AcDbLayerTableRecord
  2
AM_7
 70
     0
 62
     4
  6
CENTER
370
    15
390
15AB
1001
AcAecLayerStandard
1000

1000

  0
ENDTAB
  0
TABLE
  2
STYLE
  5
1550
330
0
100
AcDbSymbolTable
 70
     4
  0
STYLE
  5
155C
330
1550
100
AcDbSymbolTableRecord
100
AcDbTextStyleTableRecord
  2
STANDARD
 70
     0
 40
0.0
 41
1.0
 50
0.0
 71
     0
 42
3.5
  3
isocp
  4

  0
STYLE
  5
1627
330
1550
100
AcDbSymbolTableRecord
100
AcDbTextStyleTableRecord
  2

 70
     1
 40
0.0
 41
1.0
 50
0.0
 71
     0
 42
0.2
  3
genltshp.shx
  4

  0
STYLE
  5
162C
330
1550
100
AcDbSymbolTableRecord
100
AcDbTextStyleTableRecord
  2
ACANSTS
 70
     0
 40
1.0
 41
1.0
 50
0.0
 71
     0
 42
0.2
  3
romans.shx
  4

  0
STYLE
  5
1638
330
1550
100
AcDbSymbolTableRecord
100
AcDbTextStyleTableRecord
  2
ACANSGDT
 70
     0
 40
0.0
 41
1.0
 50
0.0
 71
     0
 42
0.2
  3
AMGDT
  4

  0
ENDTAB
  0
TABLE
  2
VIEW
  5
1553
330
0
100
AcDbSymbolTable
 70
     0
  0
ENDTAB
  0
TABLE
  2
UCS
  5
1554
330
0
100
AcDbSymbolTable
 70
     0
  0
ENDTAB
  0
TABLE
  2
APPID
  5
1556
330
0
100
AcDbSymbolTable
 70
    15
  0
APPID
  5
155D
330
1556
100
AcDbSymbolTableRecord
100
AcDbRegAppTableRecord
  2
ACAD
 70
     0
  0
APPID
  5
15BD
330
1556
100
AcDbSymbolTableRecord
100
AcDbRegAppTableRecord
  2
MCAD_NO_VIS
 70
     0
  0
APPID
  5
15BE
330
1556
100
AcDbSymbolTableRecord
100
AcDbRegAppTableRecord
  2
ACAD_TEMP_GRAPHIC
 70
     0
  0
APPID
  5
15EE
330
1556
100
AcDbSymbolTableRecord
100
AcDbRegAppTableRecord
  2
AD_DRAW
 70
     0
  0
APPID
  5
15F1
330
1556
100
AcDbSymbolTableRecord
100
AcDbRegAppTableRecord
  2
ACATTRIBSERVICES
 70
     0
  0
APPID
  5
1611
330
1556
100
AcDbSymbolTableRecord
100
AcDbRegAppTableRecord
  2
DESIGNERASSEMBLIES
 70
     0
  0
APPID
  5
1617
330
1556
100
AcDbSymbolTableRecord
100
AcDbRegAppTableRecord
  2
ACADM_DIM_EDIT
 70
     0
  0
APPID
  5
1618
330
1556
100
AcDbSymbolTableRecord
100
AcDbRegAppTableRecord
  2
AMDT_DM_ADJ
 70
     0
  0
APPID
  5
1646
330
1556
100
AcDbSymbolTableRecord
100
AcDbRegAppTableRecord
  2
ACAD_DSTYLE_DIMARC_LENGTH_SYMBOL
 70
     0
  0
APPID
  5
1647
330
1556
100
AcDbSymbolTableRecord
100
AcDbRegAppTableRecord
  2
ACAD_DSTYLE_DIMJOGGED_JOGANGLE_SYMBOL
 70
     0
  0
APPID
  5
1672
330
1556
100
AcDbSymbolTableRecord
100
AcDbRegAppTableRecord
  2
GENIUS_GENDTOL_13
 70
     0
  0
APPID
  5
169C
330
1556
100
AcDbSymbolTableRecord
100
AcDbRegAppTableRecord
  2
AcAecLayerStandard
 70
     0
  0
APPID
  5
1758
330
1556
100
AcDbSymbolTableRecord
100
AcDbRegAppTableRecord
  2
GENIUS_GENODEF_13
 70
     0
  0
APPID
  5
1759
330
1556
100
AcDbSymbolTableRecord
100
AcDbRegAppTableRecord
  2
GENIUS_GENOBJ-N-CEN_13
 70
     0
  0
APPID
  5
175A
330
1556
100
AcDbSymbolTableRecord
100
AcDbRegAppTableRecord
  2
GENIUS_GENCEN_19
 70
     0
  0
ENDTAB
  0
TABLE
  2
DIMSTYLE
  5
1557
330
0
100
AcDbSymbolTable
 70
     8
100
AcDbDimStyleTable
 71
     1
340
1582
  0
DIMSTYLE
105
1582
102
{ACAD_REACTORS
330
10F6
330
1116
330
1432
102
}
330
1557
100
AcDbSymbolTableRecord
100
AcDbDimStyleTableRecord
  2
GEN-ISO
 70
     0
 41
3.5
 42
1.0
 43
8.0
 44
2.0
 47
0.1
 48
0.1
 73
     0
 74
     0
 77
     1
 78
     8
140
3.5
141
2.0
146
0.71
147
1.5
172
     1
176
   256
177
   256
178
     2
271
     2
272
     2
340
155C
  0
DIMSTYLE
105
1645
330
1557
100
AcDbSymbolTableRecord
100
AcDbDimStyleTableRecord
  2
AM_ANSI
 70
     0
  4
mm
 41
0.1
 42
0.05
 43
0.5
 44
0.1
 47
0.1
 48
0.1
 78
     7
 79
     2
140
0.12
141
0.0
146
0.71
147
0.06
176
   256
177
   256
178
     2
274
     4
284
     7
340
155C
371
    -1
372
    -1
1001
ACAD_DSTYLE_DIMARC_LENGTH_SYMBOL
1070
   379
1070
     1
1001
ACAD_DSTYLE_DIMJOGGED_JOGANGLE_SYMBOL
1070
   384
1040
0.7853981633974483
  0
DIMSTYLE
105
164E
330
1557
100
AcDbSymbolTableRecord
100
AcDbDimStyleTableRecord
  2
AM_ANSI$3
 70
     0
  4
mm
 41
0.1
 42
0.05
 43
0.5
 44
0.1
 47
0.1
 48
0.1
 78
     7
 79
     2
140
0.12
141
0.0
146
0.71
147
0.06
176
   256
177
   256
178
     2
274
     4
284
     7
288
     1
289
     0
340
155C
371
    -1
372
    -1
1001
ACAD_DSTYLE_DIMARC_LENGTH_SYMBOL
1070
   379
1070
     1
1001
ACAD_DSTYLE_DIMJOGGED_JOGANGLE_SYMBOL
1070
   384
1040
0.7853981633974483
  0
DIMSTYLE
105
1651
330
1557
100
AcDbSymbolTableRecord
100
AcDbDimStyleTableRecord
  2
AM_ANSI$4
 70
     0
  4
mm
 41
0.1
 42
0.05
 43
0.5
 44
0.1
 47
0.1
 48
0.1
 78
     7
 79
     2
140
0.12
141
0.0
146
0.71
147
0.06
176
   256
177
   256
178
     2
274
     4
284
     7
288
     1
289
     0
340
155C
371
    -1
372
    -1
1001
ACAD_DSTYLE_DIMARC_LENGTH_SYMBOL
1070
   379
1070
     1
1001
ACAD_DSTYLE_DIMJOGGED_JOGANGLE_SYMBOL
1070
   384
1040
0.7853981633974483
  0
DIMSTYLE
105
1656
330
1557
100
AcDbSymbolTableRecord
100
AcDbDimStyleTableRecord
  2
AM_ANSI$7
 70
     0
  4
mm
 41
0.1
 42
0.05
 43
0.5
 44
0.1
 47
0.1
 48
0.1
 78
     7
 79
     2
140
0.24
141
0.0
146
0.71
147
0.06
176
   256
177
   256
178
     2
274
     4
284
     7
340
155C
371
    -1
372
    -1
1001
ACAD_DSTYLE_DIMARC_LENGTH_SYMBOL
1070
   379
1070
     1
1001
ACAD_DSTYLE_DIMJOGGED_JOGANGLE_SYMBOL
1070
   384
1040
0.7853981633974483
  0
DIMSTYLE
105
1659
330
1557
100
AcDbSymbolTableRecord
100
AcDbDimStyleTableRecord
  2
AM_ANSI$SF
 70
     0
  4
mm
 41
0.1
 42
0.05
 43
0.5
 44
0.1
 47
0.1
 48
0.1
 75
     1
 76
     1
 78
     7
 79
     2
140
0.12
141
0.0
146
0.71
147
0.06
176
   256
177
   256
178
     2
274
     4
284
     7
340
155C
371
    -1
372
    -1
1001
ACAD_DSTYLE_DIMARC_LENGTH_SYMBOL
1070
   379
1070
     1
1001
ACAD_DSTYLE_DIMJOGGED_JOGANGLE_SYMBOL
1070
   384
1040
0.7853981633974483
  0
DIMSTYLE
105
1660
330
1557
100
AcDbSymbolTableRecord
100
AcDbDimStyleTableRecord
  2
AM_ANSI$SH
 70
     0
  4
mm
 41
0.1
 42
0.05
 43
0.5
 44
0.1
 47
0.1
 48
0.1
 75
     1
 76
     1
 78
     7
 79
     2
140
0.12
141
0.0
146
0.71
147
0.06
173
     1
176
   256
177
   256
178
     2
274
     4
284
     7
340
155C
343
165A
371
    -1
372
    -1
1001
ACAD_DSTYLE_DIMARC_LENGTH_SYMBOL
1070
   379
1070
     1
1001
ACAD_DSTYLE_DIMJOGGED_JOGANGLE_SYMBOL
1070
   384
1040
0.7853981633974483
  0
DIMSTYLE
105
16A8
102
{ACAD_REACTORS
330
10F6
330
1116
330
1432
330
16AC
330
16E1
330
170B
102
}
330
1557
100
AcDbSymbolTableRecord
100
AcDbDimStyleTableRecord
  2
GEN-ISO$0
 70
     0
 41
3.5
 42
1.0
 43
8.0
 44
2.0
 47
0.1
 48
0.1
 73
     0
 74
     0
 77
     1
 78
     8
140
3.5
141
2.0
146
0.71
147
1.5
172
     1
176
   256
177
   256
178
     2
271
     2
272
     2
340
155C
  0
ENDTAB
  0
TABLE
  2
BLOCK_RECORD
  5
154E
330
0
100
AcDbSymbolTable
 70
    19
  0
BLOCK_RECORD
  5
1565
330
154E
100
AcDbSymbolTableRecord
100
AcDbBlockTableRecord
  2
*MODEL_SPACE
340
15B2
  0
BLOCK_RECORD
  5
1562
330
154E
100
AcDbSymbolTableRecord
100
AcDbBlockTableRecord
  2
*PAPER_SPACE
340
15B3
  0
BLOCK_RECORD
  5
1588
330
154E
100
AcDbSymbolTableRecord
100
AcDbBlockTableRecord
  2
*X0
340
0
102
{BLKREFS
331
1080
102
}
  0
BLOCK_RECORD
  5
1589
330
154E
100
AcDbSymbolTableRecord
100
AcDbBlockTableRecord
  2
*X1
340
0
102
{BLKREFS
331
108C
102
}
  0
BLOCK_RECORD
  5
158A
330
154E
100
AcDbSymbolTableRecord
100
AcDbBlockTableRecord
  2
*X2
340
0
102
{BLKREFS
331
1099
102
}
  0
BLOCK_RECORD
  5
158B
330
154E
100
AcDbSymbolTableRecord
100
AcDbBlockTableRecord
  2
*X3
340
0
102
{BLKREFS
331
10A6
102
}
  0
BLOCK_RECORD
  5
1591
330
154E
100
AcDbSymbolTableRecord
100
AcDbBlockTableRecord
  2
*X4
340
0
102
{BLKREFS
331
10EB
102
}
  0
BLOCK_RECORD
  5
1593
330
154E
100
AcDbSymbolTableRecord
100
AcDbBlockTableRecord
  2
*X5
340
0
102
{BLKREFS
331
110B
102
}
  0
BLOCK_RECORD
  5
15A1
330
154E
100
AcDbSymbolTableRecord
100
AcDbBlockTableRecord
  2
*D6
340
0
  0
BLOCK_RECORD
  5
15A3
330
154E
100
AcDbSymbolTableRecord
100
AcDbBlockTableRecord
  2
*X7
340
0
102
{BLKREFS
331
1474
102
}
  0
BLOCK_RECORD
  5
15A4
330
154E
100
AcDbSymbolTableRecord
100
AcDbBlockTableRecord
  2
*X8
340
0
102
{BLKREFS
331
1493
102
}
  0
BLOCK_RECORD
  5
15A5
330
154E
100
AcDbSymbolTableRecord
100
AcDbBlockTableRecord
  2
*X9
340
0
102
{BLKREFS
331
14AD
102
}
  0
BLOCK_RECORD
  5
15A6
330
154E
100
AcDbSymbolTableRecord
100
AcDbBlockTableRecord
  2
*X10
340
0
102
{BLKREFS
331
14C6
102
}
  0
BLOCK_RECORD
  5
165A
330
154E
100
AcDbSymbolTableRecord
100
AcDbBlockTableRecord
  2
GENAXEH
340
0
  0
BLOCK_RECORD
  5
1674
330
154E
100
AcDbSymbolTableRecord
100
AcDbBlockTableRecord
  2
*D13
340
0
  0
BLOCK_RECORD
  5
1681
330
154E
100
AcDbSymbolTableRecord
100
AcDbBlockTableRecord
  2
*D14
340
0
  0
BLOCK_RECORD
  5
16AD
330
154E
100
AcDbSymbolTableRecord
100
AcDbBlockTableRecord
  2
*D15
340
0
  0
BLOCK_RECORD
  5
16E2
330
154E
100
AcDbSymbolTableRecord
100
AcDbBlockTableRecord
  2
*D16
340
0
  0
BLOCK_RECORD
  5
170C
330
154E
100
AcDbSymbolTableRecord
100
AcDbBlockTableRecord
  2
*D17
340
0
  0
BLOCK_RECORD
  5
17C5
330
154E
100
AcDbSymbolTableRecord
100
AcDbBlockTableRecord
  2
*D18
340
0
  0
ENDTAB
  0
ENDSEC
  0
SECTION
  2
BLOCKS
  0
BLOCK
  5
1566
330
1565
100
AcDbEntity
  8
0
100
AcDbBlockBegin
  2
*MODEL_SPACE
 70
     0
 10
0.0
 20
0.0
 30
0.0
  3
*MODEL_SPACE
  1

  0
ENDBLK
  5
1567
330
1565
100
AcDbEntity
  8
0
100
AcDbBlockEnd
  0
BLOCK
  5
1563
330
1562
100
AcDbEntity
 67
     1
  8
0
100
AcDbBlockBegin
  2
*PAPER_SPACE
 70
     0
 10
0.0
 20
0.0
 30
0.0
  3
*PAPER_SPACE
  1

  0
ENDBLK
  5
1564
330
1562
100
AcDbEntity
 67
     1
  8
0
100
AcDbBlockEnd
  0
BLOCK
  5
107B
330
1588
100
AcDbEntity
  8
0
100
AcDbBlockBegin
  2
*X0
 70
     1
 10
0.0
 20
0.0
 30
0.0
  3
*X0
  1

  0
LINE
  5
107C
330
1588
100
AcDbEntity
  8
8
100
AcDbLine
 10
74.947
 20
125.547
 30
0.0
 11
77.947
 21
122.547
 31
0.0
  0
LINE
  5
107D
330
1588
100
AcDbEntity
  8
8
100
AcDbLine
 10
79.438
 20
125.547
 30
0.0
 11
82.43799999999998
 21
122.547
 31
0.0
  0
LINE
  5
107E
330
1588
100
AcDbEntity
  8
8
100
AcDbLine
 10
83.92799999999999
 20
125.547
 30
0.0
 11
86.58700000000001
 21
122.888
 31
0.0
  0
ENDBLK
  5
107F
330
1588
100
AcDbEntity
  8
0
100
AcDbBlockEnd
  0
BLOCK
  5
1088
330
1589
100
AcDbEntity
  8
0
100
AcDbBlockBegin
  2
*X1
 70
     1
 10
0.0
 20
0.0
 30
0.0
  3
*X1
  1

  0
LINE
  5
1089
330
1589
100
AcDbEntity
  8
8
100
AcDbLine
 10
77.86799999999999
 20
158.547
 30
0.0
 11
80.868
 21
155.547
 31
0.0
  0
LINE
  5
108A
330
1589
100
AcDbEntity
  8
8
100
AcDbLine
 10
82.35899999999999
 20
158.547
 30
0.0
 11
85.35899999999999
 21
155.547
 31
0.0
  0
ENDBLK
  5
108B
330
1589
100
AcDbEntity
  8
0
100
AcDbBlockEnd
  0
BLOCK
  5
1094
330
158A
100
AcDbEntity
  8
0
100
AcDbBlockBegin
  2
*X2
 70
     1
 10
0.0
 20
0.0
 30
0.0
  3
*X2
  1

  0
LINE
  5
1095
330
158A
100
AcDbEntity
  8
8
100
AcDbLine
 10
76.29899999999999
 20
191.547
 30
0.0
 11
79.29899999999999
 21
188.547
 31
0.0
  0
LINE
  5
1096
330
158A
100
AcDbEntity
  8
8
100
AcDbLine
 10
80.789
 20
191.547
 30
0.0
 11
83.78899999999999
 21
188.547
 31
0.0
  0
LINE
  5
1097
330
158A
100
AcDbEntity
  8
8
100
AcDbLine
 10
85.28
 20
191.547
 30
0.0
 11
86.58700000000001
 21
190.24
 31
0.0
  0
ENDBLK
  5
1098
330
158A
100
AcDbEntity
  8
0
100
AcDbBlockEnd
  0
BLOCK
  5
10A1
330
158B
100
AcDbEntity
  8
0
100
AcDbBlockBegin
  2
*X3
 70
     1
 10
0.0
 20
0.0
 30
0.0
  3
*X3
  1

  0
LINE
  5
10A2
330
158B
100
AcDbEntity
  8
8
100
AcDbLine
 10
74.73
 20
224.547
 30
0.0
 11
77.73
 21
221.547
 31
0.0
  0
LINE
  5
10A3
330
158B
100
AcDbEntity
  8
8
100
AcDbLine
 10
79.22
 20
224.547
 30
0.0
 11
82.21999999999999
 21
221.547
 31
0.0
  0
LINE
  5
10A4
330
158B
100
AcDbEntity
  8
8
100
AcDbLine
 10
83.71
 20
224.547
 30
0.0
 11
86.58700000000001
 21
221.671
 31
0.0
  0
ENDBLK
  5
10A5
330
158B
100
AcDbEntity
  8
0
100
AcDbBlockEnd
  0
BLOCK
  5
10E1
330
1591
100
AcDbEntity
  8
0
100
AcDbBlockBegin
  2
*X4
 70
     1
 10
0.0
 20
0.0
 30
0.0
  3
*X4
  1

  0
LINE
  5
10E2
330
1591
100
AcDbEntity
  8
8
100
AcDbLine
 10
103.426
 20
88.04700000000002
 30
0.0
 11
107.426
 21
92.047
 31
0.0
  0
LINE
  5
10E3
330
1591
100
AcDbEntity
  8
8
100
AcDbLine
 10
98.93600000000001
 20
88.04700000000002
 30
0.0
 11
102.936
 21
92.047
 31
0.0
  0
LINE
  5
10E4
330
1591
100
AcDbEntity
  8
8
100
AcDbLine
 10
94.44599999999999
 20
88.04700000000002
 30
0.0
 11
98.44599999999999
 21
92.047
 31
0.0
  0
LINE
  5
10E5
330
1591
100
AcDbEntity
  8
8
100
AcDbLine
 10
89.95499999999999
 20
88.04700000000002
 30
0.0
 11
93.955
 21
92.047
 31
0.0
  0
LINE
  5
10E6
330
1591
100
AcDbEntity
  8
8
100
AcDbLine
 10
85.46499999999999
 20
88.04700000000002
 30
0.0
 11
89.465
 21
92.047
 31
0.0
  0
LINE
  5
10E7
330
1591
100
AcDbEntity
  8
8
100
AcDbLine
 10
80.975
 20
88.04700000000002
 30
0.0
 11
84.975
 21
92.047
 31
0.0
  0
LINE
  5
10E8
330
1591
100
AcDbEntity
  8
8
100
AcDbLine
 10
76.485
 20
88.04700000000002
 30
0.0
 11
80.485
 21
92.047
 31
0.0
  0
LINE
  5
10E9
330
1591
100
AcDbEntity
  8
8
100
AcDbLine
 10
74.587
 20
90.63799999999998
 30
0.0
 11
75.995
 21
92.047
 31
0.0
  0
ENDBLK
  5
10EA
330
1591
100
AcDbEntity
  8
0
100
AcDbBlockEnd
  0
BLOCK
  5
1101
330
1593
100
AcDbEntity
  8
0
100
AcDbBlockBegin
  2
*X5
 70
     1
 10
0.0
 20
0.0
 30
0.0
  3
*X5
  1

  0
LINE
  5
1102
330
1593
100
AcDbEntity
  8
8
100
AcDbLine
 10
104.291
 20
255.047
 30
0.0
 11
108.291
 21
259.047
 31
0.0
  0
LINE
  5
1103
330
1593
100
AcDbEntity
  8
8
100
AcDbLine
 10
99.801
 20
255.047
 30
0.0
 11
103.801
 21
259.047
 31
0.0
  0
LINE
  5
1104
330
1593
100
AcDbEntity
  8
8
100
AcDbLine
 10
95.311
 20
255.047
 30
0.0
 11
99.311
 21
259.047
 31
0.0
  0
LINE
  5
1105
330
1593
100
AcDbEntity
  8
8
100
AcDbLine
 10
90.821
 20
255.047
 30
0.0
 11
94.821
 21
259.047
 31
0.0
  0
LINE
  5
1106
330
1593
100
AcDbEntity
  8
8
100
AcDbLine
 10
86.33
 20
255.047
 30
0.0
 11
90.32999999999999
 21
259.047
 31
0.0
  0
LINE
  5
1107
330
1593
100
AcDbEntity
  8
8
100
AcDbLine
 10
81.84000000000001
 20
255.047
 30
0.0
 11
85.84000000000001
 21
259.047
 31
0.0
  0
LINE
  5
1108
330
1593
100
AcDbEntity
  8
8
100
AcDbLine
 10
77.34999999999999
 20
255.047
 30
0.0
 11
81.34999999999999
 21
259.047
 31
0.0
  0
LINE
  5
1109
330
1593
100
AcDbEntity
  8
8
100
AcDbLine
 10
74.587
 20
256.773
 30
0.0
 11
76.85999999999999
 21
259.047
 31
0.0
  0
ENDBLK
  5
110A
330
1593
100
AcDbEntity
  8
0
100
AcDbBlockEnd
  0
BLOCK
  5
142A
330
15A1
100
AcDbEntity
  8
0
100
AcDbBlockBegin
  2
*D6
 70
     1
 10
0.0
 20
0.0
 30
0.0
  3
*D6
  1

  0
LINE
  5
142B
330
15A1
100
AcDbEntity
  8
5
100
AcDbLine
 10
255.687
 20
92.047
 30
0.0
 11
255.687
 21
75.76100000000001
 31
0.0
  0
TEXT
  5
142C
330
15A1
100
AcDbEntity
  8
6
100
AcDbText
 10
243.141
 20
80.67199999999999
 30
0.0
 40
3.5
  1
 3 
 41
1.809523809523809
 72
     5
 11
252.641
 21
80.67199999999999
 31
0.0
100
AcDbText
  0
LINE
  5
142D
330
15A1
100
AcDbEntity
  8
5
100
AcDbLine
 10
252.258
 20
78.047
 30
0.0
 11
249.337
 21
78.047
 31
0.0
  0
LINE
  5
142E
330
15A1
100
AcDbEntity
  8
5
100
AcDbLine
 10
249.337
 20
78.047
 30
0.0
 11
258.687
 21
78.047
 31
0.0
  0
SOLID
  5
142F
330
15A1
100
AcDbEntity
  8
5
100
AcDbTrace
 10
255.687
 20
78.047
 30
0.0
 11
252.258
 21
78.682
 31
0.0
 12
252.258
 22
77.41199999999999
 32
0.0
 13
252.258
 23
77.41199999999999
 33
0.0
  0
LINE
  5
1430
330
15A1
100
AcDbEntity
  8
5
100
AcDbLine
 10
245.516
 20
78.047
 30
0.0
 11
255.687
 21
78.047
 31
0.0
  0
ENDBLK
  5
1431
330
15A1
100
AcDbEntity
  8
0
100
AcDbBlockEnd
  0
BLOCK
  5
145C
330
15A3
100
AcDbEntity
  8
0
100
AcDbBlockBegin
  2
*X7
 70
     1
 10
0.0
 20
0.0
 30
0.0
  3
*X7
  1

  0
LINE
  5
145D
330
15A3
100
AcDbEntity
  8
8
100
AcDbLine
 10
191.072
 20
88.2
 30
0.0
 11
191.187
 21
88.2
 31
0.0
  0
LINE
  5
145E
330
15A3
100
AcDbEntity
  8
8
100
AcDbLine
 10
190.937
 20
88.37999999999999
 30
0.0
 11
191.187
 21
88.37999999999999
 31
0.0
  0
LINE
  5
145F
330
15A3
100
AcDbEntity
  8
8
100
AcDbLine
 10
190.802
 20
88.55999999999999
 30
0.0
 11
191.187
 21
88.55999999999999
 31
0.0
  0
LINE
  5
1460
330
15A3
100
AcDbEntity
  8
8
100
AcDbLine
 10
190.667
 20
88.74
 30
0.0
 11
191.187
 21
88.74
 31
0.0
  0
LINE
  5
1461
330
15A3
100
AcDbEntity
  8
8
100
AcDbLine
 10
190.532
 20
88.92000000000001
 30
0.0
 11
191.187
 21
88.92000000000001
 31
0.0
  0
LINE
  5
1462
330
15A3
100
AcDbEntity
  8
8
100
AcDbLine
 10
190.397
 20
89.1
 30
0.0
 11
191.187
 21
89.1
 31
0.0
  0
LINE
  5
1463
330
15A3
100
AcDbEntity
  8
8
100
AcDbLine
 10
190.262
 20
89.28
 30
0.0
 11
191.187
 21
89.28
 31
0.0
  0
LINE
  5
1464
330
15A3
100
AcDbEntity
  8
8
100
AcDbLine
 10
190.127
 20
89.45999999999999
 30
0.0
 11
191.187
 21
89.45999999999999
 31
0.0
  0
LINE
  5
1465
330
15A3
100
AcDbEntity
  8
8
100
AcDbLine
 10
189.992
 20
89.64
 30
0.0
 11
191.187
 21
89.64
 31
0.0
  0
LINE
  5
1466
330
15A3
100
AcDbEntity
  8
8
100
AcDbLine
 10
189.857
 20
89.81999999999999
 30
0.0
 11
191.187
 21
89.81999999999999
 31
0.0
  0
LINE
  5
1467
330
15A3
100
AcDbEntity
  8
8
100
AcDbLine
 10
189.722
 20
90.0
 30
0.0
 11
191.187
 21
90.0
 31
0.0
  0
LINE
  5
1468
330
15A3
100
AcDbEntity
  8
8
100
AcDbLine
 10
189.587
 20
90.18
 30
0.0
 11
191.187
 21
90.18
 31
0.0
  0
LINE
  5
1469
330
15A3
100
AcDbEntity
  8
8
100
AcDbLine
 10
189.452
 20
90.35999999999999
 30
0.0
 11
191.187
 21
90.35999999999999
 31
0.0
  0
LINE
  5
146A
330
15A3
100
AcDbEntity
  8
8
100
AcDbLine
 10
189.317
 20
90.54
 30
0.0
 11
191.187
 21
90.54
 31
0.0
  0
LINE
  5
146B
330
15A3
100
AcDbEntity
  8
8
100
AcDbLine
 10
189.182
 20
90.72
 30
0.0
 11
191.187
 21
90.72
 31
0.0
  0
LINE
  5
146C
330
15A3
100
AcDbEntity
  8
8
100
AcDbLine
 10
189.047
 20
90.90000000000001
 30
0.0
 11
191.187
 21
90.90000000000001
 31
0.0
  0
LINE
  5
146D
330
15A3
100
AcDbEntity
  8
8
100
AcDbLine
 10
188.912
 20
91.08
 30
0.0
 11
191.187
 21
91.08
 31
0.0
  0
LINE
  5
146E
330
15A3
100
AcDbEntity
  8
8
100
AcDbLine
 10
188.777
 20
91.26000000000001
 30
0.0
 11
191.187
 21
91.26000000000001
 31
0.0
  0
LINE
  5
146F
330
15A3
100
AcDbEntity
  8
8
100
AcDbLine
 10
188.642
 20
91.44
 30
0.0
 11
191.187
 21
91.44
 31
0.0
  0
LINE
  5
1470
330
15A3
100
AcDbEntity
  8
8
100
AcDbLine
 10
188.507
 20
91.62
 30
0.0
 11
191.187
 21
91.62
 31
0.0
  0
LINE
  5
1471
330
15A3
100
AcDbEntity
  8
8
100
AcDbLine
 10
188.372
 20
91.79999999999999
 30
0.0
 11
191.187
 21
91.79999999999999
 31
0.0
  0
LINE
  5
1472
330
15A3
100
AcDbEntity
  8
8
100
AcDbLine
 10
188.237
 20
91.98
 30
0.0
 11
191.187
 21
91.98
 31
0.0
  0
ENDBLK
  5
1473
330
15A3
100
AcDbEntity
  8
0
100
AcDbBlockEnd
  0
BLOCK
  5
147B
330
15A4
100
AcDbEntity
  8
0
100
AcDbBlockBegin
  2
*X8
 70
     1
 10
0.0
 20
0.0
 30
0.0
  3
*X8
  1

  0
LINE
  5
147C
330
15A4
100
AcDbEntity
  8
8
100
AcDbLine
 10
356.1869999999999
 20
255.24
 30
0.0
 11
359.042
 21
255.24
 31
0.0
  0
LINE
  5
147D
330
15A4
100
AcDbEntity
  8
8
100
AcDbLine
 10
356.1869999999999
 20
255.42
 30
0.0
 11
358.907
 21
255.42
 31
0.0
  0
LINE
  5
147E
330
15A4
100
AcDbEntity
  8
8
100
AcDbLine
 10
356.1869999999999
 20
255.6
 30
0.0
 11
358.772
 21
255.6
 31
0.0
  0
LINE
  5
147F
330
15A4
100
AcDbEntity
  8
8
100
AcDbLine
 10
356.1869999999999
 20
255.78
 30
0.0
 11
358.637
 21
255.78
 31
0.0
  0
LINE
  5
1480
330
15A4
100
AcDbEntity
  8
8
100
AcDbLine
 10
356.1869999999999
 20
255.96
 30
0.0
 11
358.502
 21
255.96
 31
0.0
  0
LINE
  5
1481
330
15A4
100
AcDbEntity
  8
8
100
AcDbLine
 10
356.1869999999999
 20
256.14
 30
0.0
 11
358.367
 21
256.14
 31
0.0
  0
LINE
  5
1482
330
15A4
100
AcDbEntity
  8
8
100
AcDbLine
 10
356.1869999999999
 20
256.32
 30
0.0
 11
358.232
 21
256.32
 31
0.0
  0
LINE
  5
1483
330
15A4
100
AcDbEntity
  8
8
100
AcDbLine
 10
356.1869999999999
 20
256.5
 30
0.0
 11
358.097
 21
256.5
 31
0.0
  0
LINE
  5
1484
330
15A4
100
AcDbEntity
  8
8
100
AcDbLine
 10
356.1869999999999
 20
256.68
 30
0.0
 11
357.962
 21
256.68
 31
0.0
  0
LINE
  5
1485
330
15A4
100
AcDbEntity
  8
8
100
AcDbLine
 10
356.1869999999999
 20
256.86
 30
0.0
 11
357.827
 21
256.86
 31
0.0
  0
LINE
  5
1486
330
15A4
100
AcDbEntity
  8
8
100
AcDbLine
 10
356.1869999999999
 20
257.04
 30
0.0
 11
357.6919999999999
 21
257.04
 31
0.0
  0
LINE
  5
1487
330
15A4
100
AcDbEntity
  8
8
100
AcDbLine
 10
356.1869999999999
 20
257.22
 30
0.0
 11
357.5569999999999
 21
257.22
 31
0.0
  0
LINE
  5
1488
330
15A4
100
AcDbEntity
  8
8
100
AcDbLine
 10
356.1869999999999
 20
257.4
 30
0.0
 11
357.422
 21
257.4
 31
0.0
  0
LINE
  5
1489
330
15A4
100
AcDbEntity
  8
8
100
AcDbLine
 10
356.1869999999999
 20
257.58
 30
0.0
 11
357.287
 21
257.58
 31
0.0
  0
LINE
  5
148A
330
15A4
100
AcDbEntity
  8
8
100
AcDbLine
 10
356.1869999999999
 20
257.76
 30
0.0
 11
357.152
 21
257.76
 31
0.0
  0
LINE
  5
148B
330
15A4
100
AcDbEntity
  8
8
100
AcDbLine
 10
356.1869999999999
 20
257.94
 30
0.0
 11
357.017
 21
257.94
 31
0.0
  0
LINE
  5
148C
330
15A4
100
AcDbEntity
  8
8
100
AcDbLine
 10
356.1869999999999
 20
258.12
 30
0.0
 11
356.882
 21
258.12
 31
0.0
  0
LINE
  5
148D
330
15A4
100
AcDbEntity
  8
8
100
AcDbLine
 10
356.1869999999999
 20
258.3
 30
0.0
 11
356.747
 21
258.3
 31
0.0
  0
LINE
  5
148E
330
15A4
100
AcDbEntity
  8
8
100
AcDbLine
 10
356.1869999999999
 20
258.48
 30
0.0
 11
356.612
 21
258.48
 31
0.0
  0
LINE
  5
148F
330
15A4
100
AcDbEntity
  8
8
100
AcDbLine
 10
356.1869999999999
 20
258.66
 30
0.0
 11
356.477
 21
258.66
 31
0.0
  0
LINE
  5
1490
330
15A4
100
AcDbEntity
  8
8
100
AcDbLine
 10
356.1869999999999
 20
258.84
 30
0.0
 11
356.342
 21
258.84
 31
0.0
  0
LINE
  5
1491
330
15A4
100
AcDbEntity
  8
8
100
AcDbLine
 10
356.1869999999999
 20
259.02
 30
0.0
 11
356.207
 21
259.02
 31
0.0
  0
ENDBLK
  5
1492
330
15A4
100
AcDbEntity
  8
0
100
AcDbBlockEnd
  0
BLOCK
  5
149A
330
15A5
100
AcDbEntity
  8
0
100
AcDbBlockBegin
  2
*X9
 70
     1
 10
0.0
 20
0.0
 30
0.0
  3
*X9
  1

  0
LINE
  5
149B
330
15A5
100
AcDbEntity
  8
8
100
AcDbLine
 10
188.312
 20
256.14
 30
0.0
 11
192.187
 21
256.14
 31
0.0
  0
LINE
  5
149C
330
15A5
100
AcDbEntity
  8
8
100
AcDbLine
 10
188.552
 20
256.32
 30
0.0
 11
192.187
 21
256.32
 31
0.0
  0
LINE
  5
149D
330
15A5
100
AcDbEntity
  8
8
100
AcDbLine
 10
188.792
 20
256.5
 30
0.0
 11
192.187
 21
256.5
 31
0.0
  0
LINE
  5
149E
330
15A5
100
AcDbEntity
  8
8
100
AcDbLine
 10
189.032
 20
256.68
 30
0.0
 11
192.187
 21
256.68
 31
0.0
  0
LINE
  5
149F
330
15A5
100
AcDbEntity
  8
8
100
AcDbLine
 10
189.272
 20
256.86
 30
0.0
 11
192.187
 21
256.86
 31
0.0
  0
LINE
  5
14A0
330
15A5
100
AcDbEntity
  8
8
100
AcDbLine
 10
189.512
 20
257.04
 30
0.0
 11
192.187
 21
257.04
 31
0.0
  0
LINE
  5
14A1
330
15A5
100
AcDbEntity
  8
8
100
AcDbLine
 10
189.752
 20
257.22
 30
0.0
 11
192.187
 21
257.22
 31
0.0
  0
LINE
  5
14A2
330
15A5
100
AcDbEntity
  8
8
100
AcDbLine
 10
189.992
 20
257.4
 30
0.0
 11
192.187
 21
257.4
 31
0.0
  0
LINE
  5
14A3
330
15A5
100
AcDbEntity
  8
8
100
AcDbLine
 10
190.232
 20
257.58
 30
0.0
 11
192.187
 21
257.58
 31
0.0
  0
LINE
  5
14A4
330
15A5
100
AcDbEntity
  8
8
100
AcDbLine
 10
190.472
 20
257.76
 30
0.0
 11
192.187
 21
257.76
 31
0.0
  0
LINE
  5
14A5
330
15A5
100
AcDbEntity
  8
8
100
AcDbLine
 10
190.712
 20
257.94
 30
0.0
 11
192.187
 21
257.94
 31
0.0
  0
LINE
  5
14A6
330
15A5
100
AcDbEntity
  8
8
100
AcDbLine
 10
190.952
 20
258.12
 30
0.0
 11
192.187
 21
258.12
 31
0.0
  0
LINE
  5
14A7
330
15A5
100
AcDbEntity
  8
8
100
AcDbLine
 10
191.192
 20
258.3
 30
0.0
 11
192.187
 21
258.3
 31
0.0
  0
LINE
  5
14A8
330
15A5
100
AcDbEntity
  8
8
100
AcDbLine
 10
191.432
 20
258.48
 30
0.0
 11
192.187
 21
258.48
 31
0.0
  0
LINE
  5
14A9
330
15A5
100
AcDbEntity
  8
8
100
AcDbLine
 10
191.672
 20
258.66
 30
0.0
 11
192.187
 21
258.66
 31
0.0
  0
LINE
  5
14AA
330
15A5
100
AcDbEntity
  8
8
100
AcDbLine
 10
191.912
 20
258.84
 30
0.0
 11
192.187
 21
258.84
 31
0.0
  0
LINE
  5
14AB
330
15A5
100
AcDbEntity
  8
8
100
AcDbLine
 10
192.152
 20
259.02
 30
0.0
 11
192.187
 21
259.02
 31
0.0
  0
ENDBLK
  5
14AC
330
15A5
100
AcDbEntity
  8
0
100
AcDbBlockEnd
  0
BLOCK
  5
14B4
330
15A6
100
AcDbEntity
  8
0
100
AcDbBlockBegin
  2
*X10
 70
     1
 10
0.0
 20
0.0
 30
0.0
  3
*X10
  1

  0
LINE
  5
14B5
330
15A6
100
AcDbEntity
  8
8
100
AcDbLine
 10
355.187
 20
88.2
 30
0.0
 11
355.392
 21
88.2
 31
0.0
  0
LINE
  5
14B6
330
15A6
100
AcDbEntity
  8
8
100
AcDbLine
 10
355.187
 20
88.37999999999999
 30
0.0
 11
355.6319999999999
 21
88.37999999999999
 31
0.0
  0
LINE
  5
14B7
330
15A6
100
AcDbEntity
  8
8
100
AcDbLine
 10
355.187
 20
88.55999999999999
 30
0.0
 11
355.872
 21
88.55999999999999
 31
0.0
  0
LINE
  5
14B8
330
15A6
100
AcDbEntity
  8
8
100
AcDbLine
 10
355.187
 20
88.74
 30
0.0
 11
356.112
 21
88.74
 31
0.0
  0
LINE
  5
14B9
330
15A6
100
AcDbEntity
  8
8
100
AcDbLine
 10
355.187
 20
88.92000000000001
 30
0.0
 11
356.352
 21
88.92000000000001
 31
0.0
  0
LINE
  5
14BA
330
15A6
100
AcDbEntity
  8
8
100
AcDbLine
 10
355.187
 20
89.1
 30
0.0
 11
356.592
 21
89.1
 31
0.0
  0
LINE
  5
14BB
330
15A6
100
AcDbEntity
  8
8
100
AcDbLine
 10
355.187
 20
89.28
 30
0.0
 11
356.832
 21
89.28
 31
0.0
  0
LINE
  5
14BC
330
15A6
100
AcDbEntity
  8
8
100
AcDbLine
 10
355.187
 20
89.45999999999999
 30
0.0
 11
357.072
 21
89.45999999999999
 31
0.0
  0
LINE
  5
14BD
330
15A6
100
AcDbEntity
  8
8
100
AcDbLine
 10
355.187
 20
89.64
 30
0.0
 11
357.3119999999999
 21
89.64
 31
0.0
  0
LINE
  5
14BE
330
15A6
100
AcDbEntity
  8
8
100
AcDbLine
 10
355.187
 20
89.81999999999999
 30
0.0
 11
357.552
 21
89.81999999999999
 31
0.0
  0
LINE
  5
14BF
330
15A6
100
AcDbEntity
  8
8
100
AcDbLine
 10
355.187
 20
90.0
 30
0.0
 11
357.792
 21
90.0
 31
0.0
  0
LINE
  5
14C0
330
15A6
100
AcDbEntity
  8
8
100
AcDbLine
 10
355.187
 20
90.18
 30
0.0
 11
358.032
 21
90.18
 31
0.0
  0
LINE
  5
14C1
330
15A6
100
AcDbEntity
  8
8
100
AcDbLine
 10
355.187
 20
90.35999999999999
 30
0.0
 11
358.272
 21
90.35999999999999
 31
0.0
  0
LINE
  5
14C2
330
15A6
100
AcDbEntity
  8
8
100
AcDbLine
 10
355.187
 20
90.54
 30
0.0
 11
358.5119999999999
 21
90.54
 31
0.0
  0
LINE
  5
14C3
330
15A6
100
AcDbEntity
  8
8
100
AcDbLine
 10
355.187
 20
90.72
 30
0.0
 11
358.752
 21
90.72
 31
0.0
  0
LINE
  5
14C4
330
15A6
100
AcDbEntity
  8
8
100
AcDbLine
 10
355.187
 20
90.90000000000001
 30
0.0
 11
358.992
 21
90.90000000000001
 31
0.0
  0
ENDBLK
  5
14C5
330
15A6
100
AcDbEntity
  8
0
100
AcDbBlockEnd
  0
BLOCK
  5
165C
330
165A
100
AcDbEntity
  8
0
100
AcDbBlockBegin
  2
GENAXEH
 70
     0
 10
0.0
 20
0.0
 30
0.0
  3
GENAXEH
  1

  0
LINE
  5
165B
330
165A
100
AcDbEntity
  8
0
100
AcDbLine
 10
-1.0
 20
0.0
 30
0.0
 11
1.0
 21
0.0
 31
0.0
  0
ENDBLK
  5
165D
330
165A
100
AcDbEntity
  8
0
100
AcDbBlockEnd
  0
BLOCK
  5
167E
330
1674
100
AcDbEntity
  8
0
100
AcDbBlockBegin
  2
*D13
 70
     1
 10
0.0
 20
0.0
 30
0.0
  3
*D13
  1

  0
LINE
  5
17BC
330
1674
100
AcDbEntity
  8
5
370
    -2
100
AcDbLine
 10
360.6870000000001
 20
373.1470000000001
 30
0.0
 11
381.4460000000001
 21
373.1470000000001
 31
0.0
  0
LINE
  5
17BD
330
1674
100
AcDbEntity
  8
5
370
    -2
100
AcDbLine
 10
360.6870000000001
 20
338.1470000000001
 30
0.0
 11
381.4460000000001
 21
338.1470000000001
 31
0.0
  0
LINE
  5
17BE
330
1674
100
AcDbEntity
  8
5
370
    -2
100
AcDbLine
 10
379.4460000000001
 20
369.6470000000001
 30
0.0
 11
379.4460000000001
 21
341.647
 31
0.0
  0
SOLID
  5
17BF
330
1674
100
AcDbEntity
  8
5
100
AcDbTrace
 10
378.8626666666668
 20
369.6470000000001
 30
0.0
 11
380.0293333333334
 21
369.6470000000001
 31
0.0
 12
379.4460000000001
 22
373.1470000000001
 32
0.0
 13
379.4460000000001
 23
373.1470000000001
 33
0.0
  0
SOLID
  5
17C0
330
1674
100
AcDbEntity
  8
5
100
AcDbTrace
 10
378.8626666666668
 20
341.647
 30
0.0
 11
380.0293333333334
 21
341.647
 31
0.0
 12
379.4460000000001
 22
338.1470000000001
 32
0.0
 13
379.4460000000001
 23
338.1470000000001
 33
0.0
  0
MTEXT
  5
17C1
330
1674
100
AcDbEntity
  8
5
 62
     2
100
AcDbMText
 10
376.196
 20
355.5220000000001
 30
0.0
 40
3.5
 41
0.0
 71
     5
 72
     1
  1
\A1;35
 11
0.0000000000000001
 21
1.0
 31
0.0
 73
     1
 44
1.0
1001
ACAD
1000
MTEXTBEGIN
1070
    73
1070
     1
1070
    44
1040
1.0
1070
    74
1070
     0
1000
MTEXTEND
  0
POINT
  5
17C2
330
1674
100
AcDbEntity
  8
Defpoints
 62
     0
100
AcDbPoint
 10
359.6870000000001
 20
373.1470000000001
 30
0.0
  0
POINT
  5
17C3
330
1674
100
AcDbEntity
  8
Defpoints
 62
     0
100
AcDbPoint
 10
359.6870000000001
 20
338.1470000000001
 30
0.0
  0
POINT
  5
17C4
330
1674
100
AcDbEntity
  8
Defpoints
 62
     0
100
AcDbPoint
 10
379.4460000000001
 20
338.1470000000001
 30
0.0
  0
ENDBLK
  5
167F
330
1674
100
AcDbEntity
  8
0
100
AcDbBlockEnd
  0
BLOCK
  5
168B
330
1681
100
AcDbEntity
  8
0
100
AcDbBlockBegin
  2
*D14
 70
     1
 10
0.0
 20
0.0
 30
0.0
  3
*D14
  1

  0
LINE
  5
17B3
330
1681
100
AcDbEntity
  8
5
370
    -2
100
AcDbLine
 10
188.687
 20
374.147
 30
0.0
 11
188.687
 21
400.147
 31
0.0
  0
LINE
  5
17B4
330
1681
100
AcDbEntity
  8
5
370
    -2
100
AcDbLine
 10
359.6870000000001
 20
374.147
 30
0.0
 11
359.6870000000001
 21
400.147
 31
0.0
  0
LINE
  5
17B5
330
1681
100
AcDbEntity
  8
5
370
    -2
100
AcDbLine
 10
192.187
 20
398.1470000000001
 30
0.0
 11
356.1870000000001
 21
398.1470000000001
 31
0.0
  0
SOLID
  5
17B6
330
1681
100
AcDbEntity
  8
5
100
AcDbTrace
 10
192.187
 20
398.7303333333334
 30
0.0
 11
192.187
 21
397.5636666666667
 31
0.0
 12
188.687
 22
398.1470000000001
 32
0.0
 13
188.687
 23
398.1470000000001
 33
0.0
  0
SOLID
  5
17B7
330
1681
100
AcDbEntity
  8
5
100
AcDbTrace
 10
356.1870000000001
 20
398.7303333333334
 30
0.0
 11
356.1870000000001
 21
397.5636666666667
 31
0.0
 12
359.6870000000001
 22
398.1470000000001
 32
0.0
 13
359.6870000000001
 23
398.1470000000001
 33
0.0
  0
MTEXT
  5
17B8
330
1681
100
AcDbEntity
  8
5
 62
     2
100
AcDbMText
 10
273.955
 20
401.397
 30
0.0
 40
3.5
 41
0.0
 71
     5
 72
     1
  1
\A1;o  171 
 73
     1
 44
1.0
1001
ACAD
1000
MTEXTBEGIN
1070
    73
1070
     1
1070
    44
1040
1.0
1070
    74
1070
     0
1000
MTEXTEND
  0
POINT
  5
17B9
330
1681
100
AcDbEntity
  8
Defpoints
 62
     0
100
AcDbPoint
 10
188.687
 20
373.1470000000001
 30
0.0
  0
POINT
  5
17BA
330
1681
100
AcDbEntity
  8
Defpoints
 62
     0
100
AcDbPoint
 10
359.6870000000001
 20
373.1470000000001
 30
0.0
  0
POINT
  5
17BB
330
1681
100
AcDbEntity
  8
Defpoints
 62
     0
100
AcDbPoint
 10
359.6870000000001
 20
398.1470000000001
 30
0.0
  0
ENDBLK
  5
168C
330
1681
100
AcDbEntity
  8
0
100
AcDbBlockEnd
  0
BLOCK
  5
16B7
330
16AD
100
AcDbEntity
  8
0
100
AcDbBlockBegin
  2
*D15
 70
     1
 10
0.0
 20
0.0
 30
0.0
  3
*D15
  1

  0
LINE
  5
17D1
330
16AD
100
AcDbEntity
  8
5
370
    -2
100
AcDbLine
 10
289.187
 20
374.147
 30
0.0
 11
289.187
 21
387.2467617313715
 31
0.0
  0
LINE
  5
17D2
330
16AD
100
AcDbEntity
  8
5
370
    -2
100
AcDbLine
 10
259.187
 20
374.147
 30
0.0
 11
259.187
 21
387.2467617313715
 31
0.0
  0
LINE
  5
17D3
330
16AD
100
AcDbEntity
  8
5
370
    -2
100
AcDbLine
 10
285.687
 20
385.2467617313715
 30
0.0
 11
262.687
 21
385.2467617313715
 31
0.0
  0
SOLID
  5
17D4
330
16AD
100
AcDbEntity
  8
5
100
AcDbTrace
 10
285.687
 20
385.8300950647048
 30
0.0
 11
285.687
 21
384.6634283980382
 31
0.0
 12
289.187
 22
385.2467617313715
 32
0.0
 13
289.187
 23
385.2467617313715
 33
0.0
  0
SOLID
  5
17D5
330
16AD
100
AcDbEntity
  8
5
100
AcDbTrace
 10
262.687
 20
385.8300950647048
 30
0.0
 11
262.687
 21
384.6634283980382
 31
0.0
 12
259.187
 22
385.2467617313715
 32
0.0
 13
259.187
 23
385.2467617313715
 33
0.0
  0
MTEXT
  5
17D6
330
16AD
100
AcDbEntity
  8
5
 62
     2
100
AcDbMText
 10
274.187
 20
388.4967617313715
 30
0.0
 40
3.5
 41
0.0
 71
     5
 72
     1
  1
\A1;30
 73
     1
 44
1.0
1001
ACAD
1000
MTEXTBEGIN
1070
    73
1070
     1
1070
    44
1040
1.0
1070
    74
1070
     0
1000
MTEXTEND
  0
POINT
  5
17D7
330
16AD
100
AcDbEntity
  8
Defpoints
 62
     0
100
AcDbPoint
 10
289.187
 20
373.1470000000001
 30
0.0
  0
POINT
  5
17D8
330
16AD
100
AcDbEntity
  8
Defpoints
 62
     0
100
AcDbPoint
 10
259.187
 20
373.1470000000001
 30
0.0
  0
POINT
  5
17D9
330
16AD
100
AcDbEntity
  8
Defpoints
 62
     0
100
AcDbPoint
 10
259.187
 20
385.2467617313715
 30
0.0
  0
ENDBLK
  5
16B8
330
16AD
100
AcDbEntity
  8
0
100
AcDbBlockEnd
  0
BLOCK
  5
16ED
330
16E2
100
AcDbEntity
  8
0
100
AcDbBlockBegin
  2
*D16
 70
     1
 10
0.0
 20
0.0
 30
0.0
  3
*D16
  1

  0
LINE
  5
17DA
330
16E2
100
AcDbEntity
  8
5
370
    -2
100
AcDbLine
 10
289.187
 20
374.147
 30
0.0
 11
289.187
 21
387.2467617313715
 31
0.0
  0
LINE
  5
17DB
330
16E2
100
AcDbEntity
  8
5
370
    -2
100
AcDbLine
 10
292.187
 20
374.147
 30
0.0
 11
292.187
 21
387.2467617313715
 31
0.0
  0
LINE
  5
17DC
330
16E2
100
AcDbEntity
  8
5
370
    -2
100
AcDbLine
 10
285.687
 20
385.2467617313715
 30
0.0
 11
282.187
 21
385.2467617313715
 31
0.0
  0
LINE
  5
17DD
330
16E2
100
AcDbEntity
  8
5
370
    -2
100
AcDbLine
 10
295.687
 20
385.2467617313715
 30
0.0
 11
303.7319747468306
 21
385.2467617313715
 31
0.0
  0
LINE
  5
17DE
330
16E2
100
AcDbEntity
  8
5
370
    -2
100
AcDbLine
 10
289.187
 20
385.2467617313715
 30
0.0
 11
292.187
 21
385.2467617313715
 31
0.0
  0
SOLID
  5
17DF
330
16E2
100
AcDbEntity
  8
5
100
AcDbTrace
 10
285.687
 20
385.8300950647048
 30
0.0
 11
285.687
 21
384.6634283980382
 31
0.0
 12
289.187
 22
385.2467617313715
 32
0.0
 13
289.187
 23
385.2467617313715
 33
0.0
  0
SOLID
  5
17E0
330
16E2
100
AcDbEntity
  8
5
100
AcDbTrace
 10
295.687
 20
385.8300950647048
 30
0.0
 11
295.687
 21
384.6634283980382
 31
0.0
 12
292.187
 22
385.2467617313715
 32
0.0
 13
292.187
 23
385.2467617313715
 33
0.0
  0
MTEXT
  5
17E1
330
16E2
100
AcDbEntity
  8
5
 62
     2
100
AcDbMText
 10
301.4594873734153
 20
388.4967617313715
 30
0.0
 40
3.5
 41
0.0
 71
     5
 72
     1
  1
\A1;3
 73
     1
 44
1.0
1001
ACAD
1000
MTEXTBEGIN
1070
    73
1070
     1
1070
    44
1040
1.0
1070
    74
1070
     0
1000
MTEXTEND
  0
POINT
  5
17E2
330
16E2
100
AcDbEntity
  8
Defpoints
 62
     0
100
AcDbPoint
 10
289.187
 20
373.1470000000001
 30
0.0
  0
POINT
  5
17E3
330
16E2
100
AcDbEntity
  8
Defpoints
 62
     0
100
AcDbPoint
 10
292.187
 20
373.1470000000001
 30
0.0
  0
POINT
  5
17E4
330
16E2
100
AcDbEntity
  8
Defpoints
 62
     0
100
AcDbPoint
 10
292.187
 20
385.2467617313715
 30
0.0
  0
ENDBLK
  5
16EE
330
16E2
100
AcDbEntity
  8
0
100
AcDbBlockEnd
  0
BLOCK
  5
1716
330
170C
100
AcDbEntity
  8
0
100
AcDbBlockBegin
  2
*D17
 70
     1
 10
0.0
 20
0.0
 30
0.0
  3
*D17
  1

  0
LINE
  5
17E5
330
170C
100
AcDbEntity
  8
5
370
    -2
100
AcDbLine
 10
191.687
 20
189.0470000000001
 30
0.0
 11
165.8982734102233
 21
189.0470000000001
 31
0.0
  0
LINE
  5
17E6
330
170C
100
AcDbEntity
  8
5
370
    -2
100
AcDbLine
 10
191.687
 20
159.0470000000001
 30
0.0
 11
165.8982734102233
 21
159.0470000000001
 31
0.0
  0
LINE
  5
17E7
330
170C
100
AcDbEntity
  8
5
370
    -2
100
AcDbLine
 10
167.8982734102232
 20
185.5470000000001
 30
0.0
 11
167.8982734102232
 21
162.5470000000001
 31
0.0
  0
SOLID
  5
17E8
330
170C
100
AcDbEntity
  8
5
100
AcDbTrace
 10
167.3149400768899
 20
185.5470000000001
 30
0.0
 11
168.4816067435566
 21
185.5470000000001
 31
0.0
 12
167.8982734102232
 22
189.0470000000001
 32
0.0
 13
167.8982734102232
 23
189.0470000000001
 33
0.0
  0
SOLID
  5
17E9
330
170C
100
AcDbEntity
  8
5
100
AcDbTrace
 10
167.3149400768899
 20
162.5470000000001
 30
0.0
 11
168.4816067435566
 21
162.5470000000001
 31
0.0
 12
167.8982734102232
 22
159.0470000000001
 32
0.0
 13
167.8982734102232
 23
159.0470000000001
 33
0.0
  0
MTEXT
  5
17EA
330
170C
100
AcDbEntity
  8
5
 62
     2
100
AcDbMText
 10
164.6482734102232
 20
174.0470000000001
 30
0.0
 40
3.5
 41
0.0
 71
     5
 72
     1
  1
\A1;30
 11
0.0000000000000001
 21
1.0
 31
0.0
 73
     1
 44
1.0
1001
ACAD
1000
MTEXTBEGIN
1070
    73
1070
     1
1070
    44
1040
1.0
1070
    74
1070
     0
1000
MTEXTEND
  0
POINT
  5
17EB
330
170C
100
AcDbEntity
  8
Defpoints
 62
     0
100
AcDbPoint
 10
192.687
 20
189.047
 30
0.0
  0
POINT
  5
17EC
330
170C
100
AcDbEntity
  8
Defpoints
 62
     0
100
AcDbPoint
 10
192.687
 20
159.0470000000001
 30
0.0
  0
POINT
  5
17ED
330
170C
100
AcDbEntity
  8
Defpoints
 62
     0
100
AcDbPoint
 10
167.8982734102232
 20
159.0470000000001
 30
0.0
  0
ENDBLK
  5
1717
330
170C
100
AcDbEntity
  8
0
100
AcDbBlockEnd
  0
BLOCK
  5
17CF
330
17C5
100
AcDbEntity
  8
0
100
AcDbBlockBegin
  2
*D18
 70
     1
 10
0.0
 20
0.0
 30
0.0
  3
*D18
  1

  0
LINE
  5
17C6
330
17C5
100
AcDbEntity
  8
5
370
    -2
100
AcDbLine
 10
191.687
 20
192.047
 30
0.0
 11
176.6870000000001
 21
192.047
 31
0.0
  0
LINE
  5
17C7
330
17C5
100
AcDbEntity
  8
5
370
    -2
100
AcDbLine
 10
179.687
 20
202.2180000000001
 30
0.0
 11
180.687
 21
202.2180000000001
 31
0.0
  0
LINE
  5
17C8
330
17C5
100
AcDbEntity
  8
5
370
    -2
100
AcDbLine
 10
178.687
 20
195.5470000000001
 30
0.0
 11
178.687
 21
198.7180000000001
 31
0.0
  0
SOLID
  5
17C9
330
17C5
100
AcDbEntity
  8
5
100
AcDbTrace
 10
178.1036666666667
 20
195.5470000000001
 30
0.0
 11
179.2703333333334
 21
195.5470000000001
 31
0.0
 12
178.687
 22
192.047
 32
0.0
 13
178.687
 23
192.047
 33
0.0
  0
SOLID
  5
17CA
330
17C5
100
AcDbEntity
  8
5
100
AcDbTrace
 10
178.1036666666667
 20
198.7180000000001
 30
0.0
 11
179.2703333333334
 21
198.7180000000001
 31
0.0
 12
178.687
 22
202.2180000000001
 32
0.0
 13
178.687
 23
202.2180000000001
 33
0.0
  0
MTEXT
  5
17CB
330
17C5
100
AcDbEntity
  8
5
 62
     2
100
AcDbMText
 10
175.437
 20
199.843
 30
0.0
 40
3.5
 41
0.0
 71
     5
 72
     1
  1
\A1; 3 
 11
0.0000000000000001
 21
1.0
 31
0.0
 73
     1
 44
1.0
1001
ACAD
1000
MTEXTBEGIN
1070
    73
1070
     1
1070
    44
1040
1.0
1070
    74
1070
     0
1000
MTEXTEND
  0
POINT
  5
17CC
330
17C5
100
AcDbEntity
  8
Defpoints
 62
     0
100
AcDbPoint
 10
192.687
 20
192.047
 30
0.0
  0
POINT
  5
17CD
330
17C5
100
AcDbEntity
  8
Defpoints
 62
     0
100
AcDbPoint
 10
178.687
 20
202.2180000000001
 30
0.0
  0
POINT
  5
17CE
330
17C5
100
AcDbEntity
  8
Defpoints
 62
     0
100
AcDbPoint
 10
178.687
 20
202.2180000000001
 30
0.0
  0
ENDBLK
  5
17D0
330
17C5
100
AcDbEntity
  8
0
100
AcDbBlockEnd
  0
ENDSEC
  0
SECTION
  2
ENTITIES
  0
POINT
  5
1014
330
1565
100
AcDbEntity
  8
PUNKTE
100
AcDbPoint
 10
325.187
 20
361.1470000000001
 30
0.0
 50
270.0
  0
POINT
  5
1015
330
1565
100
AcDbEntity
  8
PUNKTE
100
AcDbPoint
 10
322.187
 20
361.1470000000001
 30
0.0
 50
270.0
  0
POINT
  5
1016
330
1565
100
AcDbEntity
  8
PUNKTE
100
AcDbPoint
 10
323.687
 20
361.1470000000001
 30
0.0
 50
270.0
  0
POINT
  5
1017
330
1565
100
AcDbEntity
  8
PUNKTE
100
AcDbPoint
 10
325.187
 20
367.1470000000001
 30
0.0
 50
270.0
  0
LINE
  5
1018
330
1565
100
AcDbEntity
  8
0
100
AcDbLine
 10
188.687
 20
373.1470000000001
 30
0.0
 11
188.687
 21
338.1470000000001
 31
0.0
  0
LINE
  5
1019
330
1565
100
AcDbEntity
  8
0
100
AcDbLine
 10
188.687
 20
338.1470000000001
 30
0.0
 11
359.6870000000001
 21
338.1470000000001
 31
0.0
  0
LINE
  5
101A
330
1565
100
AcDbEntity
  8
0
100
AcDbLine
 10
359.6870000000001
 20
338.1470000000001
 30
0.0
 11
359.6870000000001
 21
373.1470000000001
 31
0.0
  0
LINE
  5
101B
330
1565
100
AcDbEntity
  8
7
100
AcDbLine
 10
274.187
 20
379.536
 30
0.0
 11
274.187
 21
329.967
 31
0.0
  0
LINE
  5
101C
330
1565
100
AcDbEntity
  8
0
100
AcDbLine
 10
223.187
 20
373.1470000000001
 30
0.0
 11
223.187
 21
361.1470000000001
 31
0.0
  0
LINE
  5
101D
330
1565
100
AcDbEntity
  8
0
100
AcDbLine
 10
226.187
 20
373.1470000000001
 30
0.0
 11
226.187
 21
361.1470000000001
 31
0.0
  0
LINE
  5
101E
330
1565
100
AcDbEntity
  8
0
100
AcDbLine
 10
256.187
 20
373.1470000000001
 30
0.0
 11
256.187
 21
361.1470000000001
 31
0.0
  0
LINE
  5
101F
330
1565
100
AcDbEntity
  8
0
100
AcDbLine
 10
259.187
 20
373.1470000000001
 30
0.0
 11
259.187
 21
361.1470000000001
 31
0.0
  0
LINE
  5
1020
330
1565
100
AcDbEntity
  8
0
100
AcDbLine
 10
289.187
 20
373.1470000000001
 30
0.0
 11
289.187
 21
361.1470000000001
 31
0.0
  0
LINE
  5
1021
330
1565
100
AcDbEntity
  8
0
100
AcDbLine
 10
292.187
 20
373.1470000000001
 30
0.0
 11
292.187
 21
361.1470000000001
 31
0.0
  0
LINE
  5
1022
330
1565
100
AcDbEntity
  8
0
100
AcDbLine
 10
322.187
 20
373.1470000000001
 30
0.0
 11
322.187
 21
361.1470000000001
 31
0.0
  0
LINE
  5
1023
330
1565
100
AcDbEntity
  8
0
100
AcDbLine
 10
325.187
 20
373.1470000000001
 30
0.0
 11
325.187
 21
361.1470000000001
 31
0.0
  0
LINE
  5
1024
330
1565
100
AcDbEntity
  8
0
100
AcDbLine
 10
325.187
 20
361.1470000000001
 30
0.0
 11
322.187
 21
361.1470000000001
 31
0.0
  0
LINE
  5
1025
330
1565
100
AcDbEntity
  8
0
100
AcDbLine
 10
259.187
 20
361.1470000000001
 30
0.0
 11
256.187
 21
361.1470000000001
 31
0.0
  0
LINE
  5
1026
330
1565
100
AcDbEntity
  8
0
100
AcDbLine
 10
226.187
 20
361.1470000000001
 30
0.0
 11
223.187
 21
361.1470000000001
 31
0.0
  0
LINE
  5
1027
330
1565
100
AcDbEntity
  8
0
100
AcDbLine
 10
292.187
 20
361.1470000000001
 30
0.0
 11
289.187
 21
361.1470000000001
 31
0.0
  0
ARC
  5
1028
330
1565
100
AcDbEntity
  8
0
100
AcDbCircle
 10
332.562
 20
374.647
 30
0.0
 40
4.0
100
AcDbArc
 50
202.0239999999986
 51
337.9760000000014
  0
ARC
  5
1029
330
1565
100
AcDbEntity
  8
0
100
AcDbCircle
 10
347.312
 20
374.647
 30
0.0
 40
4.0
100
AcDbArc
 50
202.0239999999986
 51
337.9760000000014
  0
LINE
  5
102A
330
1565
100
AcDbEntity
  8
0
100
AcDbLine
 10
188.687
 20
373.1470000000001
 30
0.0
 11
359.6870000000001
 21
373.1470000000001
 31
0.0
  0
ARC
  5
102B
330
1565
100
AcDbEntity
  8
0
100
AcDbCircle
 10
314.687
 20
374.647
 30
0.0
 40
4.0
100
AcDbArc
 50
202.0239999999986
 51
337.9760000000014
  0
ARC
  5
102C
330
1565
100
AcDbEntity
  8
0
100
AcDbCircle
 10
299.687
 20
374.647
 30
0.0
 40
4.0
100
AcDbArc
 50
202.0239999999986
 51
337.9760000000014
  0
ARC
  5
102D
330
1565
100
AcDbEntity
  8
0
100
AcDbCircle
 10
266.687
 20
374.647
 30
0.0
 40
4.0
100
AcDbArc
 50
202.0239999999986
 51
337.9760000000014
  0
ARC
  5
102E
330
1565
100
AcDbEntity
  8
0
100
AcDbCircle
 10
281.687
 20
374.647
 30
0.0
 40
4.0
100
AcDbArc
 50
202.0239999999986
 51
337.9760000000014
  0
ARC
  5
102F
330
1565
100
AcDbEntity
  8
0
100
AcDbCircle
 10
248.6870000000001
 20
374.647
 30
0.0
 40
4.0
100
AcDbArc
 50
202.0239999999986
 51
337.9760000000014
  0
ARC
  5
1030
330
1565
100
AcDbEntity
  8
0
100
AcDbCircle
 10
233.6870000000001
 20
374.647
 30
0.0
 40
4.0
100
AcDbArc
 50
202.0239999999986
 51
337.9760000000014
  0
ARC
  5
1031
330
1565
100
AcDbEntity
  8
0
100
AcDbCircle
 10
215.812
 20
374.647
 30
0.0
 40
4.0
100
AcDbArc
 50
202.0239999999986
 51
334.1930000000001
  0
ARC
  5
1032
330
1565
100
AcDbEntity
  8
0
100
AcDbCircle
 10
201.062
 20
374.647
 30
0.0
 40
4.0
100
AcDbArc
 50
202.0239999999986
 51
337.9760000000014
  0
LINE
  5
1037
330
1565
100
AcDbEntity
  8
0
100
AcDbLine
 10
192.687
 20
373.1470000000001
 30
0.0
 11
192.687
 21
338.1470000000001
 31
0.0
  0
LINE
  5
1038
330
1565
100
AcDbEntity
  8
0
100
AcDbLine
 10
355.687
 20
338.1470000000001
 30
0.0
 11
355.687
 21
373.1470000000001
 31
0.0
  0
POLYLINE
  5
1074
330
1565
100
AcDbEntity
  8
SCHRAFFUR_RAND
100
AcDb2dPolyline
 66
     1
 10
0.0
 20
0.0
 30
0.0
 70
     1
  0
VERTEX
  5
1075
330
1074
100
AcDbEntity
  8
SCHRAFFUR_RAND
100
AcDbVertex
100
AcDb2dVertex
 10
74.587
 20
125.547
 30
0.0
  0
VERTEX
  5
1076
330
1074
100
AcDbEntity
  8
SCHRAFFUR_RAND
100
AcDbVertex
100
AcDb2dVertex
 10
74.587
 20
122.547
 30
0.0
  0
VERTEX
  5
1077
330
1074
100
AcDbEntity
  8
SCHRAFFUR_RAND
100
AcDbVertex
100
AcDb2dVertex
 10
86.58700000000001
 20
122.547
 30
0.0
  0
VERTEX
  5
1078
330
1074
100
AcDbEntity
  8
SCHRAFFUR_RAND
100
AcDbVertex
100
AcDb2dVertex
 10
86.58700000000001
 20
125.547
 30
0.0
  0
VERTEX
  5
1079
330
1074
100
AcDbEntity
  8
SCHRAFFUR_RAND
100
AcDbVertex
100
AcDb2dVertex
 10
74.587
 20
125.547
 30
0.0
  0
SEQEND
  5
107A
330
1074
100
AcDbEntity
  8
SCHRAFFUR_RAND
  0
INSERT
  5
1080
330
1565
100
AcDbEntity
  8
8
100
AcDbBlockReference
  2
*X0
 10
100.64
 20
447.734
 30
0.0
 50
270.0
1001
ACAD
1000
HATCH
1002
{
1070
    19
1000
ANSI31,_I
1040
3.174999999999999
1040
-0.7850000000000001
1002
}
  0
POLYLINE
  5
1081
330
1565
100
AcDbEntity
  8
SCHRAFFUR_RAND
100
AcDb2dPolyline
 66
     1
 10
0.0
 20
0.0
 30
0.0
 70
     1
  0
VERTEX
  5
1082
330
1081
100
AcDbEntity
  8
SCHRAFFUR_RAND
100
AcDbVertex
100
AcDb2dVertex
 10
74.587
 20
158.547
 30
0.0
  0
VERTEX
  5
1083
330
1081
100
AcDbEntity
  8
SCHRAFFUR_RAND
100
AcDbVertex
100
AcDb2dVertex
 10
74.587
 20
155.547
 30
0.0
  0
VERTEX
  5
1084
330
1081
100
AcDbEntity
  8
SCHRAFFUR_RAND
100
AcDbVertex
100
AcDb2dVertex
 10
86.58700000000001
 20
155.547
 30
0.0
  0
VERTEX
  5
1085
330
1081
100
AcDbEntity
  8
SCHRAFFUR_RAND
100
AcDbVertex
100
AcDb2dVertex
 10
86.58700000000001
 20
158.547
 30
0.0
  0
VERTEX
  5
1086
330
1081
100
AcDbEntity
  8
SCHRAFFUR_RAND
100
AcDbVertex
100
AcDb2dVertex
 10
74.587
 20
158.547
 30
0.0
  0
SEQEND
  5
1087
330
1081
100
AcDbEntity
  8
SCHRAFFUR_RAND
  0
INSERT
  5
108C
330
1565
100
AcDbEntity
  8
8
100
AcDbBlockReference
  2
*X1
 10
100.64
 20
447.734
 30
0.0
 50
270.0
1001
ACAD
1000
HATCH
1002
{
1070
    19
1000
ANSI31,_I
1040
3.174999999999999
1040
-0.7850000000000001
1002
}
  0
POLYLINE
  5
108D
330
1565
100
AcDbEntity
  8
SCHRAFFUR_RAND
100
AcDb2dPolyline
 66
     1
 10
0.0
 20
0.0
 30
0.0
 70
     1
  0
VERTEX
  5
108E
330
108D
100
AcDbEntity
  8
SCHRAFFUR_RAND
100
AcDbVertex
100
AcDb2dVertex
 10
74.587
 20
191.547
 30
0.0
  0
VERTEX
  5
108F
330
108D
100
AcDbEntity
  8
SCHRAFFUR_RAND
100
AcDbVertex
100
AcDb2dVertex
 10
74.587
 20
188.547
 30
0.0
  0
VERTEX
  5
1090
330
108D
100
AcDbEntity
  8
SCHRAFFUR_RAND
100
AcDbVertex
100
AcDb2dVertex
 10
86.58700000000001
 20
188.547
 30
0.0
  0
VERTEX
  5
1091
330
108D
100
AcDbEntity
  8
SCHRAFFUR_RAND
100
AcDbVertex
100
AcDb2dVertex
 10
86.58700000000001
 20
191.547
 30
0.0
  0
VERTEX
  5
1092
330
108D
100
AcDbEntity
  8
SCHRAFFUR_RAND
100
AcDbVertex
100
AcDb2dVertex
 10
74.587
 20
191.547
 30
0.0
  0
SEQEND
  5
1093
330
108D
100
AcDbEntity
  8
SCHRAFFUR_RAND
  0
INSERT
  5
1099
330
1565
100
AcDbEntity
  8
8
100
AcDbBlockReference
  2
*X2
 10
100.64
 20
447.734
 30
0.0
 50
270.0
1001
ACAD
1000
HATCH
1002
{
1070
    19
1000
ANSI31,_I
1040
3.174999999999999
1040
-0.7850000000000001
1002
}
  0
POLYLINE
  5
109A
330
1565
100
AcDbEntity
  8
SCHRAFFUR_RAND
100
AcDb2dPolyline
 66
     1
 10
0.0
 20
0.0
 30
0.0
 70
     1
  0
VERTEX
  5
109B
330
109A
100
AcDbEntity
  8
SCHRAFFUR_RAND
100
AcDbVertex
100
AcDb2dVertex
 10
74.587
 20
224.547
 30
0.0
  0
VERTEX
  5
109C
330
109A
100
AcDbEntity
  8
SCHRAFFUR_RAND
100
AcDbVertex
100
AcDb2dVertex
 10
74.587
 20
221.547
 30
0.0
  0
VERTEX
  5
109D
330
109A
100
AcDbEntity
  8
SCHRAFFUR_RAND
100
AcDbVertex
100
AcDb2dVertex
 10
86.58700000000001
 20
221.547
 30
0.0
  0
VERTEX
  5
109E
330
109A
100
AcDbEntity
  8
SCHRAFFUR_RAND
100
AcDbVertex
100
AcDb2dVertex
 10
86.58700000000001
 20
224.547
 30
0.0
  0
VERTEX
  5
109F
330
109A
100
AcDbEntity
  8
SCHRAFFUR_RAND
100
AcDbVertex
100
AcDb2dVertex
 10
74.587
 20
224.547
 30
0.0
  0
SEQEND
  5
10A0
330
109A
100
AcDbEntity
  8
SCHRAFFUR_RAND
  0
INSERT
  5
10A6
330
1565
100
AcDbEntity
  8
8
100
AcDbBlockReference
  2
*X3
 10
100.64
 20
447.734
 30
0.0
 50
270.0
1001
ACAD
1000
HATCH
1002
{
1070
    19
1000
ANSI31,_I
1040
3.174999999999999
1040
-0.7850000000000001
1002
}
  0
POLYLINE
  5
10D8
330
1565
100
AcDbEntity
  8
SCHRAFFUR_RAND
100
AcDb2dPolyline
 66
     1
 10
0.0
 20
0.0
 30
0.0
 70
     1
  0
VERTEX
  5
10D9
330
10D8
100
AcDbEntity
  8
SCHRAFFUR_RAND
100
AcDbVertex
100
AcDb2dVertex
 10
109.587
 20
88.04700000000002
 30
0.0
  0
VERTEX
  5
10DA
330
10D8
100
AcDbEntity
  8
SCHRAFFUR_RAND
100
AcDbVertex
100
AcDb2dVertex
 10
109.587
 20
92.047
 30
0.0
  0
VERTEX
  5
10DB
330
10D8
100
AcDbEntity
  8
SCHRAFFUR_RAND
100
AcDbVertex
100
AcDb2dVertex
 10
95.34399999999999
 20
92.047
 30
0.0
  0
VERTEX
  5
10DC
330
10D8
100
AcDbEntity
  8
SCHRAFFUR_RAND
100
AcDbVertex
100
AcDb2dVertex
 10
78.83
 20
92.047
 30
0.0
  0
VERTEX
  5
10DD
330
10D8
100
AcDbEntity
  8
SCHRAFFUR_RAND
100
AcDbVertex
100
AcDb2dVertex
 10
74.587
 20
92.047
 30
0.0
  0
VERTEX
  5
10DE
330
10D8
100
AcDbEntity
  8
SCHRAFFUR_RAND
100
AcDbVertex
100
AcDb2dVertex
 10
74.587
 20
88.04700000000002
 30
0.0
  0
VERTEX
  5
10DF
330
10D8
100
AcDbEntity
  8
SCHRAFFUR_RAND
100
AcDbVertex
100
AcDb2dVertex
 10
109.587
 20
88.04700000000002
 30
0.0
  0
SEQEND
  5
10E0
330
10D8
100
AcDbEntity
  8
SCHRAFFUR_RAND
  0
INSERT
  5
10EB
330
1565
100
AcDbEntity
  8
8
100
AcDbBlockReference
  2
*X4
 10
100.64
 20
447.734
 30
0.0
 50
270.0
1001
ACAD
1000
HATCH
1002
{
1070
    19
1000
ANSI31,_I
1040
3.174999999999999
1040
0.7850000000000001
1002
}
  0
DIMENSION
  5
10F6
330
1565
100
AcDbEntity
  8
5
100
AcDbDimension
  2
*D14
 10
359.6870000000001
 20
398.1470000000001
 30
0.0
 11
273.955
 21
398.1470000000001
 31
0.0
 70
   160
  1
o  171 
 71
     5
 42
171.0
  3
GEN-ISO
100
AcDbAlignedDimension
 13
188.687
 23
373.1470000000001
 33
0.0
 14
359.6870000000001
 24
373.1470000000001
 34
0.0
100
AcDbRotatedDimension
  0
POLYLINE
  5
10F7
330
1565
100
AcDbEntity
  8
SCHRAFFUR_RAND
100
AcDb2dPolyline
 66
     1
 10
0.0
 20
0.0
 30
0.0
 70
     1
  0
VERTEX
  5
10F8
330
10F7
100
AcDbEntity
  8
SCHRAFFUR_RAND
100
AcDbVertex
100
AcDb2dVertex
 10
109.587
 20
255.047
 30
0.0
  0
VERTEX
  5
10F9
330
10F7
100
AcDbEntity
  8
SCHRAFFUR_RAND
100
AcDbVertex
100
AcDb2dVertex
 10
109.587
 20
259.047
 30
0.0
  0
VERTEX
  5
10FA
330
10F7
100
AcDbEntity
  8
SCHRAFFUR_RAND
100
AcDbVertex
100
AcDb2dVertex
 10
74.587
 20
259.047
 30
0.0
  0
VERTEX
  5
10FB
330
10F7
100
AcDbEntity
  8
SCHRAFFUR_RAND
100
AcDbVertex
100
AcDb2dVertex
 10
74.587
 20
255.047
 30
0.0
  0
VERTEX
  5
10FC
330
10F7
100
AcDbEntity
  8
SCHRAFFUR_RAND
100
AcDbVertex
100
AcDb2dVertex
 10
78.82899999999999
 20
255.047
 30
0.0
  0
VERTEX
  5
10FD
330
10F7
100
AcDbEntity
  8
SCHRAFFUR_RAND
100
AcDbVertex
100
AcDb2dVertex
 10
95.34399999999999
 20
255.047
 30
0.0
  0
VERTEX
  5
10FE
330
10F7
100
AcDbEntity
  8
SCHRAFFUR_RAND
100
AcDbVertex
100
AcDb2dVertex
 10
99.587
 20
255.047
 30
0.0
  0
VERTEX
  5
10FF
330
10F7
100
AcDbEntity
  8
SCHRAFFUR_RAND
100
AcDbVertex
100
AcDb2dVertex
 10
109.587
 20
255.047
 30
0.0
  0
SEQEND
  5
1100
330
10F7
100
AcDbEntity
  8
SCHRAFFUR_RAND
  0
INSERT
  5
110B
330
1565
100
AcDbEntity
  8
8
100
AcDbBlockReference
  2
*X5
 10
100.64
 20
447.734
 30
0.0
 50
270.0
1001
ACAD
1000
HATCH
1002
{
1070
    19
1000
ANSI31,_I
1040
3.174999999999999
1040
0.7850000000000001
1002
}
  0
DIMENSION
  5
1116
330
1565
100
AcDbEntity
  8
5
100
AcDbDimension
  2
*D13
 10
379.4460000000001
 20
338.1470000000001
 30
0.0
 11
379.446
 21
355.5220000000001
 31
0.0
 70
   160
  1
35
 71
     5
 42
35.0
  3
GEN-ISO
100
AcDbAlignedDimension
 13
359.6870000000001
 23
373.1470000000001
 33
0.0
 14
359.6870000000001
 24
338.1470000000001
 34
0.0
 50
270.0
100
AcDbRotatedDimension
  0
POLYLINE
  5
1120
330
1565
100
AcDbEntity
  8
ND_0
100
AcDb2dPolyline
 66
     1
 10
0.0
 20
0.0
 30
0.0
 70
   132
 75
     6
  0
VERTEX
  5
1121
330
1120
100
AcDbEntity
  8
ND_0
100
AcDbVertex
100
AcDb2dVertex
 10
74.587
 20
218.587
 30
0.0
 70
     8
  0
VERTEX
  5
1122
330
1120
100
AcDbEntity
  8
ND_0
100
AcDbVertex
100
AcDb2dVertex
 10
74.587
 20
218.587
 30
0.0
 70
    16
  0
VERTEX
  5
1123
330
1120
100
AcDbEntity
  8
ND_0
100
AcDbVertex
100
AcDb2dVertex
 10
77.813
 20
218.459
 30
0.0
 70
     8
  0
VERTEX
  5
1124
330
1120
100
AcDbEntity
  8
ND_0
100
AcDbVertex
100
AcDb2dVertex
 10
81.027
 20
217.96
 30
0.0
 70
     8
  0
VERTEX
  5
1125
330
1120
100
AcDbEntity
  8
ND_0
100
AcDbVertex
100
AcDb2dVertex
 10
81.027
 20
217.96
 30
0.0
 70
    16
  0
VERTEX
  5
1126
330
1120
100
AcDbEntity
  8
ND_0
100
AcDbVertex
100
AcDb2dVertex
 10
81.027
 20
217.96
 30
0.0
 70
     8
  0
VERTEX
  5
1127
330
1120
100
AcDbEntity
  8
ND_0
100
AcDbVertex
100
AcDb2dVertex
 10
81.027
 20
217.96
 30
0.0
 70
    16
  0
VERTEX
  5
1128
330
1120
100
AcDbEntity
  8
ND_0
100
AcDbVertex
100
AcDb2dVertex
 10
85.38299999999999
 20
216.397
 30
0.0
 70
     8
  0
VERTEX
  5
1129
330
1120
100
AcDbEntity
  8
ND_0
100
AcDbVertex
100
AcDb2dVertex
 10
89.609
 20
215.839
 30
0.0
 70
     8
  0
VERTEX
  5
112A
330
1120
100
AcDbEntity
  8
ND_0
100
AcDbVertex
100
AcDb2dVertex
 10
89.609
 20
215.839
 30
0.0
 70
    16
  0
VERTEX
  5
112B
330
1120
100
AcDbEntity
  8
ND_0
100
AcDbVertex
100
AcDb2dVertex
 10
89.609
 20
215.839
 30
0.0
 70
     8
  0
VERTEX
  5
112C
330
1120
100
AcDbEntity
  8
ND_0
100
AcDbVertex
100
AcDb2dVertex
 10
89.609
 20
215.839
 30
0.0
 70
    16
  0
VERTEX
  5
112D
330
1120
100
AcDbEntity
  8
ND_0
100
AcDbVertex
100
AcDb2dVertex
 10
92.443
 20
216.989
 30
0.0
 70
     8
  0
VERTEX
  5
112E
330
1120
100
AcDbEntity
  8
ND_0
100
AcDbVertex
100
AcDb2dVertex
 10
95.347
 20
218.009
 30
0.0
 70
     8
  0
VERTEX
  5
112F
330
1120
100
AcDbEntity
  8
ND_0
100
AcDbVertex
100
AcDb2dVertex
 10
95.347
 20
218.009
 30
0.0
 70
    16
  0
VERTEX
  5
1130
330
1120
100
AcDbEntity
  8
ND_0
100
AcDbVertex
100
AcDb2dVertex
 10
95.347
 20
218.009
 30
0.0
 70
     8
  0
VERTEX
  5
1131
330
1120
100
AcDbEntity
  8
ND_0
100
AcDbVertex
100
AcDb2dVertex
 10
95.347
 20
218.009
 30
0.0
 70
    16
  0
VERTEX
  5
1132
330
1120
100
AcDbEntity
  8
ND_0
100
AcDbVertex
100
AcDb2dVertex
 10
97.50900000000001
 20
217.795
 30
0.0
 70
     8
  0
VERTEX
  5
1133
330
1120
100
AcDbEntity
  8
ND_0
100
AcDbVertex
100
AcDb2dVertex
 10
99.587
 20
216.996
 30
0.0
 70
     8
  0
VERTEX
  5
1134
330
1120
100
AcDbEntity
  8
ND_0
100
AcDbVertex
100
AcDb2dVertex
 10
99.587
 20
216.996
 30
0.0
 70
    16
  0
SEQEND
  5
1135
330
1120
100
AcDbEntity
  8
ND_0
  0
POLYLINE
  5
1136
330
1565
100
AcDbEntity
  8
SCHRAFFUR_RAND
100
AcDb2dPolyline
 66
     1
 10
0.0
 20
0.0
 30
0.0
 70
     1
  0
VERTEX
  5
1137
330
1136
100
AcDbEntity
  8
SCHRAFFUR_RAND
100
AcDbVertex
100
AcDb2dVertex
 10
89.65700000000001
 20
227.048
 30
0.0
  0
VERTEX
  5
1138
330
1136
100
AcDbEntity
  8
SCHRAFFUR_RAND
100
AcDbVertex
100
AcDb2dVertex
 10
86.58700000000001
 20
223.047
 30
0.0
  0
VERTEX
  5
1139
330
1136
100
AcDbEntity
  8
SCHRAFFUR_RAND
100
AcDbVertex
100
AcDb2dVertex
 10
90.58799999999999
 20
226.117
 30
0.0
  0
VERTEX
  5
113A
330
1136
100
AcDbEntity
  8
SCHRAFFUR_RAND
100
AcDbVertex
100
AcDb2dVertex
 10
90.12200000000001
 20
226.582
 30
0.0
  0
VERTEX
  5
113B
330
1136
100
AcDbEntity
  8
SCHRAFFUR_RAND
100
AcDbVertex
100
AcDb2dVertex
 10
89.65700000000001
 20
227.048
 30
0.0
  0
SEQEND
  5
113C
330
1136
100
AcDbEntity
  8
SCHRAFFUR_RAND
  0
POLYLINE
  5
1159
330
1565
100
AcDbEntity
  8
SCHRAFFUR_RAND
100
AcDb2dPolyline
 66
     1
 10
0.0
 20
0.0
 30
0.0
 70
     1
  0
VERTEX
  5
115A
330
1159
100
AcDbEntity
  8
SCHRAFFUR_RAND
100
AcDbVertex
100
AcDb2dVertex
 10
90.157
 20
96.04799999999999
 30
0.0
  0
VERTEX
  5
115B
330
1159
100
AcDbEntity
  8
SCHRAFFUR_RAND
100
AcDbVertex
100
AcDb2dVertex
 10
87.087
 20
92.047
 30
0.0
  0
VERTEX
  5
115C
330
1159
100
AcDbEntity
  8
SCHRAFFUR_RAND
100
AcDbVertex
100
AcDb2dVertex
 10
91.088
 20
95.11700000000001
 30
0.0
  0
VERTEX
  5
115D
330
1159
100
AcDbEntity
  8
SCHRAFFUR_RAND
100
AcDbVertex
100
AcDb2dVertex
 10
90.62200000000002
 20
95.58200000000001
 30
0.0
  0
VERTEX
  5
115E
330
1159
100
AcDbEntity
  8
SCHRAFFUR_RAND
100
AcDbVertex
100
AcDb2dVertex
 10
90.157
 20
96.04799999999999
 30
0.0
  0
SEQEND
  5
115F
330
1159
100
AcDbEntity
  8
SCHRAFFUR_RAND
  0
POLYLINE
  5
117C
330
1565
100
AcDbEntity
  8
SCHRAFFUR_RAND
100
AcDb2dPolyline
 66
     1
 10
0.0
 20
0.0
 30
0.0
 70
     1
  0
VERTEX
  5
117D
330
117C
100
AcDbEntity
  8
SCHRAFFUR_RAND
100
AcDbVertex
100
AcDb2dVertex
 10
69.587
 20
205.915
 30
0.0
  0
VERTEX
  5
117E
330
117C
100
AcDbEntity
  8
SCHRAFFUR_RAND
100
AcDbVertex
100
AcDb2dVertex
 10
74.587
 20
206.573
 30
0.0
  0
VERTEX
  5
117F
330
117C
100
AcDbEntity
  8
SCHRAFFUR_RAND
100
AcDbVertex
100
AcDb2dVertex
 10
69.587
 20
207.232
 30
0.0
  0
VERTEX
  5
1180
330
117C
100
AcDbEntity
  8
SCHRAFFUR_RAND
100
AcDbVertex
100
AcDb2dVertex
 10
69.587
 20
206.573
 30
0.0
  0
VERTEX
  5
1181
330
117C
100
AcDbEntity
  8
SCHRAFFUR_RAND
100
AcDbVertex
100
AcDb2dVertex
 10
69.587
 20
205.915
 30
0.0
  0
SEQEND
  5
1182
330
117C
100
AcDbEntity
  8
SCHRAFFUR_RAND
  0
POLYLINE
  5
119F
330
1565
100
AcDbEntity
  8
SCHRAFFUR_RAND
100
AcDb2dPolyline
 66
     1
 10
0.0
 20
0.0
 30
0.0
 70
     1
  0
VERTEX
  5
11A0
330
119F
100
AcDbEntity
  8
SCHRAFFUR_RAND
100
AcDbVertex
100
AcDb2dVertex
 10
114.587
 20
207.232
 30
0.0
  0
VERTEX
  5
11A1
330
119F
100
AcDbEntity
  8
SCHRAFFUR_RAND
100
AcDbVertex
100
AcDb2dVertex
 10
109.587
 20
206.573
 30
0.0
  0
VERTEX
  5
11A2
330
119F
100
AcDbEntity
  8
SCHRAFFUR_RAND
100
AcDbVertex
100
AcDb2dVertex
 10
114.587
 20
205.915
 30
0.0
  0
VERTEX
  5
11A3
330
119F
100
AcDbEntity
  8
SCHRAFFUR_RAND
100
AcDbVertex
100
AcDb2dVertex
 10
114.587
 20
206.573
 30
0.0
  0
VERTEX
  5
11A4
330
119F
100
AcDbEntity
  8
SCHRAFFUR_RAND
100
AcDbVertex
100
AcDb2dVertex
 10
114.587
 20
207.232
 30
0.0
  0
SEQEND
  5
11A5
330
119F
100
AcDbEntity
  8
SCHRAFFUR_RAND
  0
POINT
  5
12D0
330
1565
100
AcDbEntity
  8
PUNKTE
100
AcDbPoint
 10
192.687
 20
259.547
 30
0.0
 50
270.0
  0
POINT
  5
12D1
330
1565
100
AcDbEntity
  8
PUNKTE
100
AcDbPoint
 10
192.687
 20
255.5470000000001
 30
0.0
 50
270.0
  0
POINT
  5
12D2
330
1565
100
AcDbEntity
  8
PUNKTE
100
AcDbPoint
 10
192.687
 20
257.547
 30
0.0
 50
270.0
  0
POINT
  5
12D3
330
1565
100
AcDbEntity
  8
PUNKTE
100
AcDbPoint
 10
192.687
 20
256.547
 30
0.0
 50
270.0
  0
POINT
  5
12D4
330
1565
100
AcDbEntity
  8
PUNKTE
100
AcDbPoint
 10
188.687
 20
256.547
 30
0.0
 50
270.0
  0
POINT
  5
12D5
330
1565
100
AcDbEntity
  8
PUNKTE
100
AcDbPoint
 10
192.687
 20
88.54700000000013
 30
0.0
 50
270.0
  0
POINT
  5
12D6
330
1565
100
AcDbEntity
  8
PUNKTE
100
AcDbPoint
 10
188.687
 20
91.54700000000014
 30
0.0
 50
270.0
  0
POINT
  5
12D7
330
1565
100
AcDbEntity
  8
PUNKTE
100
AcDbPoint
 10
190.6869999999999
 20
90.04700000000013
 30
0.0
 50
270.0
  0
POINT
  5
12D8
330
1565
100
AcDbEntity
  8
PUNKTE
100
AcDbPoint
 10
190.6869999999999
 20
90.04700000000013
 30
0.0
 50
270.0
  0
POINT
  5
12DA
330
1565
100
AcDbEntity
  8
PUNKTE
100
AcDbPoint
 10
192.687
 20
92.54700000000013
 30
0.0
 50
270.0
  0
POINT
  5
12DB
330
1565
100
AcDbEntity
  8
PUNKTE
100
AcDbPoint
 10
188.687
 20
92.54700000000013
 30
0.0
 50
270.0
  0
POINT
  5
12DC
330
1565
100
AcDbEntity
  8
PUNKTE
100
AcDbPoint
 10
190.6869999999999
 20
92.54700000000013
 30
0.0
 50
270.0
  0
POINT
  5
12DD
330
1565
100
AcDbEntity
  8
PUNKTE
100
AcDbPoint
 10
191.687
 20
92.54700000000013
 30
0.0
 50
270.0
  0
POINT
  5
12DE
330
1565
100
AcDbEntity
  8
PUNKTE
100
AcDbPoint
 10
192.187
 20
90.54700000000014
 30
0.0
 50
270.0
  0
POINT
  5
12DF
330
1565
100
AcDbEntity
  8
PUNKTE
100
AcDbPoint
 10
191.687
 20
88.54700000000013
 30
0.0
 50
270.0
  0
POINT
  5
12E0
330
1565
100
AcDbEntity
  8
PUNKTE
100
AcDbPoint
 10
355.687
 20
255.547
 30
0.0
 50
270.0
  0
POINT
  5
12E1
330
1565
100
AcDbEntity
  8
PUNKTE
100
AcDbPoint
 10
359.687
 20
255.547
 30
0.0
 50
270.0
  0
POINT
  5
12E2
330
1565
100
AcDbEntity
  8
PUNKTE
100
AcDbPoint
 10
357.687
 20
255.547
 30
0.0
 50
270.0
  0
POINT
  5
12E3
330
1565
100
AcDbEntity
  8
PUNKTE
100
AcDbPoint
 10
356.687
 20
255.547
 30
0.0
 50
270.0
  0
POINT
  5
12E4
330
1565
100
AcDbEntity
  8
PUNKTE
100
AcDbPoint
 10
355.687
 20
259.547
 30
0.0
 50
270.0
  0
POINT
  5
12E5
330
1565
100
AcDbEntity
  8
PUNKTE
100
AcDbPoint
 10
356.687
 20
259.547
 30
0.0
 50
270.0
  0
POINT
  5
12E8
330
1565
100
AcDbEntity
  8
PUNKTE
100
AcDbPoint
 10
355.687
 20
92.54700000000008
 30
0.0
 50
270.0
  0
LINE
  5
12ED
330
1565
100
AcDbEntity
  8
0
100
AcDbLine
 10
188.687
 20
92.54700000000013
 30
0.0
 11
188.687
 21
256.547
 31
0.0
  0
LINE
  5
12EE
330
1565
100
AcDbEntity
  8
0
100
AcDbLine
 10
359.687
 20
91.54700000000008
 30
0.0
 11
359.687
 21
255.547
 31
0.0
  0
LINE
  5
12EF
330
1565
100
AcDbEntity
  8
0
100
AcDbLine
 10
356.687
 20
259.547
 30
0.0
 11
192.687
 21
259.547
 31
0.0
  0
LINE
  5
12F0
330
1565
100
AcDbEntity
  8
0
100
AcDbLine
 10
355.687
 20
88.54700000000008
 30
0.0
 11
191.687
 21
88.54700000000013
 31
0.0
  0
LINE
  5
12F2
330
1565
100
AcDbEntity
  8
7
100
AcDbLine
 10
274.187
 20
86.01500000000005
 30
0.0
 11
274.187
 21
261.253
 31
0.0
  0
LINE
  5
12F3
330
1565
100
AcDbEntity
  8
0
100
AcDbLine
 10
325.187
 20
255.5470000000001
 30
0.0
 11
325.187
 21
92.54700000000008
 31
0.0
  0
LINE
  5
12F4
330
1565
100
AcDbEntity
  8
0
100
AcDbLine
 10
322.187
 20
255.5470000000001
 30
0.0
 11
322.187
 21
92.54700000000008
 31
0.0
  0
LINE
  5
12F5
330
1565
100
AcDbEntity
  8
0
100
AcDbLine
 10
292.187
 20
255.5470000000001
 30
0.0
 11
292.187
 21
92.54700000000008
 31
0.0
  0
LINE
  5
12F6
330
1565
100
AcDbEntity
  8
0
100
AcDbLine
 10
289.187
 20
255.5470000000001
 30
0.0
 11
289.187
 21
92.54700000000008
 31
0.0
  0
LINE
  5
12F7
330
1565
100
AcDbEntity
  8
0
100
AcDbLine
 10
259.187
 20
255.5470000000001
 30
0.0
 11
259.187
 21
92.54700000000008
 31
0.0
  0
LINE
  5
12F8
330
1565
100
AcDbEntity
  8
0
100
AcDbLine
 10
256.187
 20
255.5470000000001
 30
0.0
 11
256.187
 21
92.54700000000008
 31
0.0
  0
LINE
  5
12F9
330
1565
100
AcDbEntity
  8
0
100
AcDbLine
 10
226.187
 20
255.5470000000001
 30
0.0
 11
226.187
 21
92.54700000000013
 31
0.0
  0
LINE
  5
12FA
330
1565
100
AcDbEntity
  8
0
100
AcDbLine
 10
223.187
 20
255.5470000000001
 30
0.0
 11
223.187
 21
92.54700000000013
 31
0.0
  0
LINE
  5
12FB
330
1565
100
AcDbEntity
  8
0
100
AcDbLine
 10
197.354
 20
123.0470000000001
 30
0.0
 11
197.354
 21
126.0470000000001
 31
0.0
  0
LINE
  5
12FC
330
1565
100
AcDbEntity
  8
0
100
AcDbLine
 10
204.77
 20
123.0470000000001
 30
0.0
 11
204.77
 21
126.0470000000001
 31
0.0
  0
LINE
  5
12FD
330
1565
100
AcDbEntity
  8
0
100
AcDbLine
 10
212.104
 20
123.0470000000001
 30
0.0
 11
212.104
 21
126.0470000000001
 31
0.0
  0
LINE
  5
12FE
330
1565
100
AcDbEntity
  8
0
100
AcDbLine
 10
219.52
 20
123.0470000000001
 30
0.0
 11
219.52
 21
126.0470000000001
 31
0.0
  0
LINE
  5
12FF
330
1565
100
AcDbEntity
  8
0
100
AcDbLine
 10
229.979
 20
123.0470000000001
 30
0.0
 11
229.979
 21
126.0470000000001
 31
0.0
  0
LINE
  5
1300
330
1565
100
AcDbEntity
  8
0
100
AcDbLine
 10
237.395
 20
123.0470000000001
 30
0.0
 11
237.395
 21
126.0470000000001
 31
0.0
  0
LINE
  5
1301
330
1565
100
AcDbEntity
  8
0
100
AcDbLine
 10
244.979
 20
123.0470000000001
 30
0.0
 11
244.979
 21
126.0470000000001
 31
0.0
  0
LINE
  5
1302
330
1565
100
AcDbEntity
  8
0
100
AcDbLine
 10
252.395
 20
123.0470000000001
 30
0.0
 11
252.395
 21
126.0470000000001
 31
0.0
  0
LINE
  5
1303
330
1565
100
AcDbEntity
  8
0
100
AcDbLine
 10
262.979
 20
123.047
 30
0.0
 11
262.979
 21
126.047
 31
0.0
  0
LINE
  5
1304
330
1565
100
AcDbEntity
  8
0
100
AcDbLine
 10
270.395
 20
123.047
 30
0.0
 11
270.395
 21
126.047
 31
0.0
  0
LINE
  5
1305
330
1565
100
AcDbEntity
  8
0
100
AcDbLine
 10
277.9790000000001
 20
123.047
 30
0.0
 11
277.9790000000001
 21
126.047
 31
0.0
  0
LINE
  5
1306
330
1565
100
AcDbEntity
  8
0
100
AcDbLine
 10
285.395
 20
123.047
 30
0.0
 11
285.395
 21
126.047
 31
0.0
  0
LINE
  5
1307
330
1565
100
AcDbEntity
  8
0
100
AcDbLine
 10
295.979
 20
123.047
 30
0.0
 11
295.979
 21
126.047
 31
0.0
  0
LINE
  5
1308
330
1565
100
AcDbEntity
  8
0
100
AcDbLine
 10
303.395
 20
123.047
 30
0.0
 11
303.395
 21
126.047
 31
0.0
  0
LINE
  5
1309
330
1565
100
AcDbEntity
  8
0
100
AcDbLine
 10
310.979
 20
123.047
 30
0.0
 11
310.979
 21
126.047
 31
0.0
  0
LINE
  5
130A
330
1565
100
AcDbEntity
  8
0
100
AcDbLine
 10
318.395
 20
123.047
 30
0.0
 11
318.395
 21
126.047
 31
0.0
  0
LINE
  5
130B
330
1565
100
AcDbEntity
  8
0
100
AcDbLine
 10
328.8540000000001
 20
123.047
 30
0.0
 11
328.8540000000001
 21
126.047
 31
0.0
  0
LINE
  5
130C
330
1565
100
AcDbEntity
  8
0
100
AcDbLine
 10
336.27
 20
123.047
 30
0.0
 11
336.27
 21
126.047
 31
0.0
  0
LINE
  5
130D
330
1565
100
AcDbEntity
  8
0
100
AcDbLine
 10
343.6040000000001
 20
123.047
 30
0.0
 11
343.6040000000001
 21
126.047
 31
0.0
  0
LINE
  5
130E
330
1565
100
AcDbEntity
  8
0
100
AcDbLine
 10
351.02
 20
123.047
 30
0.0
 11
351.02
 21
126.047
 31
0.0
  0
LINE
  5
130F
330
1565
100
AcDbEntity
  8
0
100
AcDbLine
 10
204.77
 20
189.047
 30
0.0
 11
204.77
 21
192.047
 31
0.0
  0
LINE
  5
1310
330
1565
100
AcDbEntity
  8
0
100
AcDbLine
 10
212.104
 20
189.047
 30
0.0
 11
212.104
 21
192.047
 31
0.0
  0
LINE
  5
1311
330
1565
100
AcDbEntity
  8
0
100
AcDbLine
 10
212.104
 20
222.0470000000001
 30
0.0
 11
212.104
 21
225.047
 31
0.0
  0
LINE
  5
1312
330
1565
100
AcDbEntity
  8
0
100
AcDbLine
 10
204.77
 20
222.0470000000001
 30
0.0
 11
204.77
 21
225.047
 31
0.0
  0
LINE
  5
1313
330
1565
100
AcDbEntity
  8
0
100
AcDbLine
 10
219.52
 20
189.047
 30
0.0
 11
219.52
 21
192.047
 31
0.0
  0
LINE
  5
1314
330
1565
100
AcDbEntity
  8
0
100
AcDbLine
 10
219.52
 20
222.0470000000001
 30
0.0
 11
219.52
 21
225.047
 31
0.0
  0
LINE
  5
1315
330
1565
100
AcDbEntity
  8
0
100
AcDbLine
 10
197.354
 20
189.047
 30
0.0
 11
197.354
 21
192.047
 31
0.0
  0
LINE
  5
1316
330
1565
100
AcDbEntity
  8
0
100
AcDbLine
 10
197.354
 20
222.0470000000001
 30
0.0
 11
197.354
 21
225.047
 31
0.0
  0
LINE
  5
1317
330
1565
100
AcDbEntity
  8
0
100
AcDbLine
 10
229.979
 20
189.047
 30
0.0
 11
229.979
 21
192.047
 31
0.0
  0
LINE
  5
1318
330
1565
100
AcDbEntity
  8
0
100
AcDbLine
 10
229.979
 20
222.0470000000001
 30
0.0
 11
229.979
 21
225.047
 31
0.0
  0
LINE
  5
1319
330
1565
100
AcDbEntity
  8
0
100
AcDbLine
 10
237.395
 20
189.047
 30
0.0
 11
237.395
 21
192.047
 31
0.0
  0
LINE
  5
131A
330
1565
100
AcDbEntity
  8
0
100
AcDbLine
 10
237.395
 20
222.0470000000001
 30
0.0
 11
237.395
 21
225.047
 31
0.0
  0
LINE
  5
131B
330
1565
100
AcDbEntity
  8
0
100
AcDbLine
 10
244.979
 20
189.047
 30
0.0
 11
244.979
 21
192.047
 31
0.0
  0
LINE
  5
131C
330
1565
100
AcDbEntity
  8
0
100
AcDbLine
 10
244.979
 20
222.0470000000001
 30
0.0
 11
244.979
 21
225.047
 31
0.0
  0
LINE
  5
131D
330
1565
100
AcDbEntity
  8
0
100
AcDbLine
 10
252.395
 20
189.047
 30
0.0
 11
252.395
 21
192.047
 31
0.0
  0
LINE
  5
131E
330
1565
100
AcDbEntity
  8
0
100
AcDbLine
 10
252.395
 20
222.0470000000001
 30
0.0
 11
252.395
 21
225.047
 31
0.0
  0
LINE
  5
131F
330
1565
100
AcDbEntity
  8
0
100
AcDbLine
 10
295.979
 20
189.047
 30
0.0
 11
295.979
 21
192.047
 31
0.0
  0
LINE
  5
1320
330
1565
100
AcDbEntity
  8
0
100
AcDbLine
 10
295.979
 20
222.0470000000001
 30
0.0
 11
295.979
 21
225.047
 31
0.0
  0
LINE
  5
1321
330
1565
100
AcDbEntity
  8
0
100
AcDbLine
 10
303.395
 20
189.047
 30
0.0
 11
303.395
 21
192.047
 31
0.0
  0
LINE
  5
1322
330
1565
100
AcDbEntity
  8
0
100
AcDbLine
 10
303.395
 20
222.0470000000001
 30
0.0
 11
303.395
 21
225.047
 31
0.0
  0
LINE
  5
1323
330
1565
100
AcDbEntity
  8
0
100
AcDbLine
 10
310.979
 20
189.047
 30
0.0
 11
310.979
 21
192.047
 31
0.0
  0
LINE
  5
1324
330
1565
100
AcDbEntity
  8
0
100
AcDbLine
 10
310.979
 20
222.0470000000001
 30
0.0
 11
310.979
 21
225.047
 31
0.0
  0
LINE
  5
1325
330
1565
100
AcDbEntity
  8
0
100
AcDbLine
 10
318.395
 20
189.047
 30
0.0
 11
318.395
 21
192.047
 31
0.0
  0
LINE
  5
1326
330
1565
100
AcDbEntity
  8
0
100
AcDbLine
 10
318.395
 20
222.0470000000001
 30
0.0
 11
318.395
 21
225.047
 31
0.0
  0
LINE
  5
1327
330
1565
100
AcDbEntity
  8
0
100
AcDbLine
 10
328.8540000000001
 20
189.047
 30
0.0
 11
328.8540000000001
 21
192.047
 31
0.0
  0
LINE
  5
1328
330
1565
100
AcDbEntity
  8
0
100
AcDbLine
 10
328.8540000000001
 20
222.0470000000001
 30
0.0
 11
328.8540000000001
 21
225.047
 31
0.0
  0
LINE
  5
1329
330
1565
100
AcDbEntity
  8
0
100
AcDbLine
 10
336.27
 20
189.047
 30
0.0
 11
336.27
 21
192.047
 31
0.0
  0
LINE
  5
132A
330
1565
100
AcDbEntity
  8
0
100
AcDbLine
 10
336.27
 20
222.047
 30
0.0
 11
336.27
 21
225.047
 31
0.0
  0
LINE
  5
132B
330
1565
100
AcDbEntity
  8
0
100
AcDbLine
 10
343.6040000000001
 20
189.047
 30
0.0
 11
343.6040000000001
 21
192.047
 31
0.0
  0
LINE
  5
132C
330
1565
100
AcDbEntity
  8
0
100
AcDbLine
 10
343.6040000000001
 20
222.047
 30
0.0
 11
343.6040000000001
 21
225.047
 31
0.0
  0
LINE
  5
132D
330
1565
100
AcDbEntity
  8
0
100
AcDbLine
 10
351.02
 20
189.047
 30
0.0
 11
351.02
 21
192.047
 31
0.0
  0
LINE
  5
132E
330
1565
100
AcDbEntity
  8
0
100
AcDbLine
 10
351.02
 20
222.047
 30
0.0
 11
351.02
 21
225.047
 31
0.0
  0
LINE
  5
132F
330
1565
100
AcDbEntity
  8
0
100
AcDbLine
 10
351.02
 20
156.047
 30
0.0
 11
351.02
 21
159.047
 31
0.0
  0
LINE
  5
1330
330
1565
100
AcDbEntity
  8
0
100
AcDbLine
 10
343.6040000000001
 20
156.047
 30
0.0
 11
343.6040000000001
 21
159.047
 31
0.0
  0
LINE
  5
1331
330
1565
100
AcDbEntity
  8
0
100
AcDbLine
 10
336.27
 20
156.047
 30
0.0
 11
336.27
 21
159.047
 31
0.0
  0
LINE
  5
1332
330
1565
100
AcDbEntity
  8
0
100
AcDbLine
 10
328.8540000000001
 20
156.047
 30
0.0
 11
328.8540000000001
 21
159.047
 31
0.0
  0
LINE
  5
1333
330
1565
100
AcDbEntity
  8
0
100
AcDbLine
 10
318.395
 20
156.047
 30
0.0
 11
318.395
 21
159.047
 31
0.0
  0
LINE
  5
1334
330
1565
100
AcDbEntity
  8
0
100
AcDbLine
 10
310.979
 20
156.047
 30
0.0
 11
310.979
 21
159.047
 31
0.0
  0
LINE
  5
1335
330
1565
100
AcDbEntity
  8
0
100
AcDbLine
 10
303.395
 20
156.047
 30
0.0
 11
303.395
 21
159.047
 31
0.0
  0
LINE
  5
1336
330
1565
100
AcDbEntity
  8
0
100
AcDbLine
 10
295.979
 20
156.047
 30
0.0
 11
295.979
 21
159.047
 31
0.0
  0
LINE
  5
1337
330
1565
100
AcDbEntity
  8
0
100
AcDbLine
 10
285.395
 20
156.047
 30
0.0
 11
285.395
 21
159.047
 31
0.0
  0
LINE
  5
1338
330
1565
100
AcDbEntity
  8
0
100
AcDbLine
 10
277.9790000000001
 20
156.047
 30
0.0
 11
277.9790000000001
 21
159.047
 31
0.0
  0
LINE
  5
1339
330
1565
100
AcDbEntity
  8
0
100
AcDbLine
 10
270.395
 20
156.047
 30
0.0
 11
270.395
 21
159.047
 31
0.0
  0
LINE
  5
133A
330
1565
100
AcDbEntity
  8
0
100
AcDbLine
 10
262.979
 20
156.047
 30
0.0
 11
262.979
 21
159.047
 31
0.0
  0
LINE
  5
133B
330
1565
100
AcDbEntity
  8
0
100
AcDbLine
 10
252.395
 20
156.0470000000001
 30
0.0
 11
252.395
 21
159.0470000000001
 31
0.0
  0
LINE
  5
133C
330
1565
100
AcDbEntity
  8
0
100
AcDbLine
 10
244.979
 20
156.0470000000001
 30
0.0
 11
244.979
 21
159.0470000000001
 31
0.0
  0
LINE
  5
133D
330
1565
100
AcDbEntity
  8
0
100
AcDbLine
 10
237.395
 20
156.0470000000001
 30
0.0
 11
237.395
 21
159.0470000000001
 31
0.0
  0
LINE
  5
133E
330
1565
100
AcDbEntity
  8
0
100
AcDbLine
 10
229.979
 20
156.0470000000001
 30
0.0
 11
229.979
 21
159.0470000000001
 31
0.0
  0
LINE
  5
133F
330
1565
100
AcDbEntity
  8
0
100
AcDbLine
 10
219.52
 20
156.0470000000001
 30
0.0
 11
219.52
 21
159.0470000000001
 31
0.0
  0
LINE
  5
1340
330
1565
100
AcDbEntity
  8
0
100
AcDbLine
 10
212.104
 20
156.0470000000001
 30
0.0
 11
212.104
 21
159.0470000000001
 31
0.0
  0
LINE
  5
1341
330
1565
100
AcDbEntity
  8
0
100
AcDbLine
 10
204.77
 20
156.0470000000001
 30
0.0
 11
204.77
 21
159.0470000000001
 31
0.0
  0
LINE
  5
1342
330
1565
100
AcDbEntity
  8
0
100
AcDbLine
 10
197.354
 20
156.0470000000001
 30
0.0
 11
197.354
 21
159.0470000000001
 31
0.0
  0
LINE
  5
1343
330
1565
100
AcDbEntity
  8
0
100
AcDbLine
 10
262.979
 20
222.0470000000001
 30
0.0
 11
262.979
 21
225.047
 31
0.0
  0
LINE
  5
1344
330
1565
100
AcDbEntity
  8
0
100
AcDbLine
 10
270.395
 20
222.0470000000001
 30
0.0
 11
270.395
 21
225.047
 31
0.0
  0
LINE
  5
1345
330
1565
100
AcDbEntity
  8
0
100
AcDbLine
 10
277.9790000000001
 20
222.0470000000001
 30
0.0
 11
277.9790000000001
 21
225.047
 31
0.0
  0
LINE
  5
1346
330
1565
100
AcDbEntity
  8
0
100
AcDbLine
 10
285.395
 20
222.0470000000001
 30
0.0
 11
285.395
 21
225.047
 31
0.0
  0
LINE
  5
1347
330
1565
100
AcDbEntity
  8
0
100
AcDbLine
 10
285.395
 20
189.047
 30
0.0
 11
285.395
 21
192.047
 31
0.0
  0
LINE
  5
1348
330
1565
100
AcDbEntity
  8
0
100
AcDbLine
 10
277.9790000000001
 20
189.047
 30
0.0
 11
277.9790000000001
 21
192.047
 31
0.0
  0
LINE
  5
1349
330
1565
100
AcDbEntity
  8
0
100
AcDbLine
 10
270.395
 20
189.047
 30
0.0
 11
270.395
 21
192.047
 31
0.0
  0
LINE
  5
134A
330
1565
100
AcDbEntity
  8
0
100
AcDbLine
 10
262.979
 20
189.047
 30
0.0
 11
262.979
 21
192.047
 31
0.0
  0
LINE
  5
134B
330
1565
100
AcDbEntity
  8
0
100
AcDbLine
 10
226.187
 20
217.7570000000001
 30
0.0
 11
223.187
 21
217.7570000000001
 31
0.0
  0
LINE
  5
134C
330
1565
100
AcDbEntity
  8
0
100
AcDbLine
 10
226.187
 20
210.337
 30
0.0
 11
223.187
 21
210.337
 31
0.0
  0
LINE
  5
134D
330
1565
100
AcDbEntity
  8
0
100
AcDbLine
 10
226.187
 20
203.757
 30
0.0
 11
223.187
 21
203.757
 31
0.0
  0
LINE
  5
134E
330
1565
100
AcDbEntity
  8
0
100
AcDbLine
 10
226.187
 20
196.337
 30
0.0
 11
223.187
 21
196.337
 31
0.0
  0
LINE
  5
134F
330
1565
100
AcDbEntity
  8
0
100
AcDbLine
 10
256.187
 20
217.7570000000001
 30
0.0
 11
259.187
 21
217.7570000000001
 31
0.0
  0
LINE
  5
1350
330
1565
100
AcDbEntity
  8
0
100
AcDbLine
 10
256.187
 20
210.337
 30
0.0
 11
259.187
 21
210.337
 31
0.0
  0
LINE
  5
1351
330
1565
100
AcDbEntity
  8
0
100
AcDbLine
 10
256.187
 20
203.757
 30
0.0
 11
259.187
 21
203.757
 31
0.0
  0
LINE
  5
1352
330
1565
100
AcDbEntity
  8
0
100
AcDbLine
 10
256.187
 20
196.337
 30
0.0
 11
259.187
 21
196.337
 31
0.0
  0
LINE
  5
1353
330
1565
100
AcDbEntity
  8
0
100
AcDbLine
 10
289.187
 20
196.337
 30
0.0
 11
292.187
 21
196.337
 31
0.0
  0
LINE
  5
1354
330
1565
100
AcDbEntity
  8
0
100
AcDbLine
 10
289.187
 20
203.757
 30
0.0
 11
292.187
 21
203.757
 31
0.0
  0
LINE
  5
1355
330
1565
100
AcDbEntity
  8
0
100
AcDbLine
 10
289.187
 20
210.337
 30
0.0
 11
292.187
 21
210.337
 31
0.0
  0
LINE
  5
1356
330
1565
100
AcDbEntity
  8
0
100
AcDbLine
 10
289.187
 20
217.7570000000001
 30
0.0
 11
292.187
 21
217.7570000000001
 31
0.0
  0
LINE
  5
1357
330
1565
100
AcDbEntity
  8
0
100
AcDbLine
 10
322.187
 20
217.7570000000001
 30
0.0
 11
325.187
 21
217.7570000000001
 31
0.0
  0
LINE
  5
1358
330
1565
100
AcDbEntity
  8
0
100
AcDbLine
 10
322.187
 20
210.337
 30
0.0
 11
325.187
 21
210.337
 31
0.0
  0
LINE
  5
1359
330
1565
100
AcDbEntity
  8
0
100
AcDbLine
 10
322.187
 20
203.757
 30
0.0
 11
325.187
 21
203.757
 31
0.0
  0
LINE
  5
135A
330
1565
100
AcDbEntity
  8
0
100
AcDbLine
 10
322.187
 20
196.337
 30
0.0
 11
325.187
 21
196.337
 31
0.0
  0
LINE
  5
135B
330
1565
100
AcDbEntity
  8
0
100
AcDbLine
 10
289.187
 20
229.462
 30
0.0
 11
292.187
 21
229.462
 31
0.0
  0
LINE
  5
135C
330
1565
100
AcDbEntity
  8
0
100
AcDbLine
 10
289.187
 20
236.8820000000001
 30
0.0
 11
292.187
 21
236.8820000000001
 31
0.0
  0
LINE
  5
135D
330
1565
100
AcDbEntity
  8
0
100
AcDbLine
 10
289.187
 20
243.7120000000001
 30
0.0
 11
292.187
 21
243.7120000000001
 31
0.0
  0
LINE
  5
135E
330
1565
100
AcDbEntity
  8
0
100
AcDbLine
 10
289.187
 20
251.1320000000001
 30
0.0
 11
292.187
 21
251.1320000000001
 31
0.0
  0
LINE
  5
135F
330
1565
100
AcDbEntity
  8
0
100
AcDbLine
 10
322.187
 20
251.1320000000001
 30
0.0
 11
325.187
 21
251.1320000000001
 31
0.0
  0
LINE
  5
1360
330
1565
100
AcDbEntity
  8
0
100
AcDbLine
 10
322.187
 20
243.7120000000001
 30
0.0
 11
325.187
 21
243.7120000000001
 31
0.0
  0
LINE
  5
1361
330
1565
100
AcDbEntity
  8
0
100
AcDbLine
 10
322.187
 20
236.8820000000001
 30
0.0
 11
325.187
 21
236.8820000000001
 31
0.0
  0
LINE
  5
1362
330
1565
100
AcDbEntity
  8
0
100
AcDbLine
 10
322.187
 20
229.462
 30
0.0
 11
325.187
 21
229.462
 31
0.0
  0
LINE
  5
1363
330
1565
100
AcDbEntity
  8
0
100
AcDbLine
 10
256.187
 20
229.462
 30
0.0
 11
259.187
 21
229.462
 31
0.0
  0
LINE
  5
1364
330
1565
100
AcDbEntity
  8
0
100
AcDbLine
 10
256.187
 20
236.8820000000001
 30
0.0
 11
259.187
 21
236.8820000000001
 31
0.0
  0
LINE
  5
1365
330
1565
100
AcDbEntity
  8
0
100
AcDbLine
 10
256.187
 20
243.7120000000001
 30
0.0
 11
259.187
 21
243.7120000000001
 31
0.0
  0
LINE
  5
1366
330
1565
100
AcDbEntity
  8
0
100
AcDbLine
 10
256.187
 20
251.1320000000001
 30
0.0
 11
259.187
 21
251.1320000000001
 31
0.0
  0
LINE
  5
1367
330
1565
100
AcDbEntity
  8
0
100
AcDbLine
 10
226.187
 20
243.7120000000001
 30
0.0
 11
223.187
 21
243.7120000000001
 31
0.0
  0
LINE
  5
1368
330
1565
100
AcDbEntity
  8
0
100
AcDbLine
 10
226.187
 20
251.1320000000001
 30
0.0
 11
223.187
 21
251.1320000000001
 31
0.0
  0
LINE
  5
1369
330
1565
100
AcDbEntity
  8
0
100
AcDbLine
 10
226.187
 20
236.8820000000001
 30
0.0
 11
223.187
 21
236.8820000000001
 31
0.0
  0
LINE
  5
136A
330
1565
100
AcDbEntity
  8
0
100
AcDbLine
 10
226.187
 20
229.462
 30
0.0
 11
223.187
 21
229.462
 31
0.0
  0
LINE
  5
136B
330
1565
100
AcDbEntity
  8
0
100
AcDbLine
 10
322.187
 20
184.757
 30
0.0
 11
325.187
 21
184.757
 31
0.0
  0
LINE
  5
136C
330
1565
100
AcDbEntity
  8
0
100
AcDbLine
 10
322.187
 20
177.337
 30
0.0
 11
325.187
 21
177.337
 31
0.0
  0
LINE
  5
136D
330
1565
100
AcDbEntity
  8
0
100
AcDbLine
 10
322.187
 20
170.757
 30
0.0
 11
325.187
 21
170.757
 31
0.0
  0
LINE
  5
136E
330
1565
100
AcDbEntity
  8
0
100
AcDbLine
 10
322.187
 20
163.337
 30
0.0
 11
325.187
 21
163.337
 31
0.0
  0
LINE
  5
136F
330
1565
100
AcDbEntity
  8
0
100
AcDbLine
 10
289.187
 20
184.757
 30
0.0
 11
292.187
 21
184.757
 31
0.0
  0
LINE
  5
1370
330
1565
100
AcDbEntity
  8
0
100
AcDbLine
 10
289.187
 20
177.337
 30
0.0
 11
292.187
 21
177.337
 31
0.0
  0
LINE
  5
1371
330
1565
100
AcDbEntity
  8
0
100
AcDbLine
 10
289.187
 20
170.757
 30
0.0
 11
292.187
 21
170.757
 31
0.0
  0
LINE
  5
1372
330
1565
100
AcDbEntity
  8
0
100
AcDbLine
 10
289.187
 20
163.337
 30
0.0
 11
292.187
 21
163.337
 31
0.0
  0
LINE
  5
1373
330
1565
100
AcDbEntity
  8
0
100
AcDbLine
 10
256.187
 20
184.757
 30
0.0
 11
259.187
 21
184.757
 31
0.0
  0
LINE
  5
1374
330
1565
100
AcDbEntity
  8
0
100
AcDbLine
 10
256.187
 20
177.337
 30
0.0
 11
259.187
 21
177.337
 31
0.0
  0
LINE
  5
1375
330
1565
100
AcDbEntity
  8
0
100
AcDbLine
 10
256.187
 20
170.757
 30
0.0
 11
259.187
 21
170.757
 31
0.0
  0
LINE
  5
1376
330
1565
100
AcDbEntity
  8
0
100
AcDbLine
 10
259.187
 20
163.337
 30
0.0
 11
256.187
 21
163.337
 31
0.0
  0
LINE
  5
1377
330
1565
100
AcDbEntity
  8
0
100
AcDbLine
 10
226.187
 20
184.757
 30
0.0
 11
223.187
 21
184.757
 31
0.0
  0
LINE
  5
1378
330
1565
100
AcDbEntity
  8
0
100
AcDbLine
 10
226.187
 20
177.3370000000001
 30
0.0
 11
223.187
 21
177.3370000000001
 31
0.0
  0
LINE
  5
1379
330
1565
100
AcDbEntity
  8
0
100
AcDbLine
 10
226.187
 20
170.757
 30
0.0
 11
223.187
 21
170.757
 31
0.0
  0
LINE
  5
137A
330
1565
100
AcDbEntity
  8
0
100
AcDbLine
 10
226.187
 20
163.3370000000001
 30
0.0
 11
223.187
 21
163.3370000000001
 31
0.0
  0
LINE
  5
137B
330
1565
100
AcDbEntity
  8
0
100
AcDbLine
 10
192.687
 20
259.547
 30
0.0
 11
192.687
 21
92.54700000000013
 31
0.0
  0
LINE
  5
137C
330
1565
100
AcDbEntity
  8
0
100
AcDbLine
 10
188.687
 20
92.54700000000013
 30
0.0
 11
355.687
 21
92.54700000000008
 31
0.0
  0
LINE
  5
137D
330
1565
100
AcDbEntity
  8
0
100
AcDbLine
 10
355.687
 20
88.54700000000008
 30
0.0
 11
355.687
 21
255.547
 31
0.0
  0
LINE
  5
137E
330
1565
100
AcDbEntity
  8
0
100
AcDbLine
 10
359.687
 20
255.547
 30
0.0
 11
192.687
 21
255.5470000000001
 31
0.0
  0
LINE
  5
137F
330
1565
100
AcDbEntity
  8
0
100
AcDbLine
 10
192.687
 20
225.047
 30
0.0
 11
223.187
 21
225.047
 31
0.0
  0
LINE
  5
1380
330
1565
100
AcDbEntity
  8
0
100
AcDbLine
 10
226.187
 20
225.047
 30
0.0
 11
256.187
 21
225.047
 31
0.0
  0
LINE
  5
1381
330
1565
100
AcDbEntity
  8
0
100
AcDbLine
 10
259.187
 20
225.047
 30
0.0
 11
289.187
 21
225.047
 31
0.0
  0
LINE
  5
1382
330
1565
100
AcDbEntity
  8
0
100
AcDbLine
 10
292.187
 20
225.047
 30
0.0
 11
322.187
 21
225.047
 31
0.0
  0
LINE
  5
1383
330
1565
100
AcDbEntity
  8
0
100
AcDbLine
 10
325.187
 20
225.047
 30
0.0
 11
355.687
 21
225.047
 31
0.0
  0
LINE
  5
1384
330
1565
100
AcDbEntity
  8
0
100
AcDbLine
 10
325.187
 20
222.0470000000001
 30
0.0
 11
355.687
 21
222.047
 31
0.0
  0
LINE
  5
1385
330
1565
100
AcDbEntity
  8
0
100
AcDbLine
 10
292.187
 20
222.0470000000001
 30
0.0
 11
322.187
 21
222.0470000000001
 31
0.0
  0
LINE
  5
1386
330
1565
100
AcDbEntity
  8
0
100
AcDbLine
 10
259.187
 20
222.0470000000001
 30
0.0
 11
289.187
 21
222.0470000000001
 31
0.0
  0
LINE
  5
1387
330
1565
100
AcDbEntity
  8
0
100
AcDbLine
 10
226.187
 20
222.0470000000001
 30
0.0
 11
256.187
 21
222.0470000000001
 31
0.0
  0
LINE
  5
1388
330
1565
100
AcDbEntity
  8
0
100
AcDbLine
 10
192.687
 20
222.0470000000001
 30
0.0
 11
223.187
 21
222.0470000000001
 31
0.0
  0
LINE
  5
1389
330
1565
100
AcDbEntity
  8
0
100
AcDbLine
 10
259.187
 20
192.047
 30
0.0
 11
289.187
 21
192.047
 31
0.0
  0
LINE
  5
138A
330
1565
100
AcDbEntity
  8
0
100
AcDbLine
 10
226.187
 20
192.047
 30
0.0
 11
256.187
 21
192.047
 31
0.0
  0
LINE
  5
138B
330
1565
100
AcDbEntity
  8
0
100
AcDbLine
 10
226.187
 20
189.047
 30
0.0
 11
256.187
 21
189.047
 31
0.0
  0
LINE
  5
138C
330
1565
100
AcDbEntity
  8
0
100
AcDbLine
 10
192.687
 20
192.047
 30
0.0
 11
223.187
 21
192.047
 31
0.0
  0
LINE
  5
138D
330
1565
100
AcDbEntity
  8
0
100
AcDbLine
 10
192.687
 20
189.047
 30
0.0
 11
223.187
 21
189.047
 31
0.0
  0
LINE
  5
138E
330
1565
100
AcDbEntity
  8
0
100
AcDbLine
 10
259.187
 20
189.047
 30
0.0
 11
289.187
 21
189.047
 31
0.0
  0
LINE
  5
138F
330
1565
100
AcDbEntity
  8
0
100
AcDbLine
 10
292.187
 20
189.047
 30
0.0
 11
322.187
 21
189.047
 31
0.0
  0
LINE
  5
1390
330
1565
100
AcDbEntity
  8
0
100
AcDbLine
 10
292.187
 20
192.047
 30
0.0
 11
322.187
 21
192.047
 31
0.0
  0
LINE
  5
1391
330
1565
100
AcDbEntity
  8
0
100
AcDbLine
 10
325.187
 20
192.047
 30
0.0
 11
355.687
 21
192.047
 31
0.0
  0
LINE
  5
1392
330
1565
100
AcDbEntity
  8
0
100
AcDbLine
 10
325.187
 20
189.047
 30
0.0
 11
355.687
 21
189.047
 31
0.0
  0
LINE
  5
1393
330
1565
100
AcDbEntity
  8
0
100
AcDbLine
 10
226.187
 20
159.0470000000001
 30
0.0
 11
256.187
 21
159.047
 31
0.0
  0
LINE
  5
1394
330
1565
100
AcDbEntity
  8
0
100
AcDbLine
 10
259.187
 20
159.047
 30
0.0
 11
289.187
 21
159.047
 31
0.0
  0
LINE
  5
1395
330
1565
100
AcDbEntity
  8
0
100
AcDbLine
 10
292.187
 20
159.047
 30
0.0
 11
322.187
 21
159.047
 31
0.0
  0
LINE
  5
1396
330
1565
100
AcDbEntity
  8
0
100
AcDbLine
 10
325.187
 20
159.047
 30
0.0
 11
355.687
 21
159.047
 31
0.0
  0
LINE
  5
1397
330
1565
100
AcDbEntity
  8
0
100
AcDbLine
 10
325.187
 20
156.047
 30
0.0
 11
355.687
 21
156.047
 31
0.0
  0
LINE
  5
1398
330
1565
100
AcDbEntity
  8
0
100
AcDbLine
 10
292.187
 20
156.047
 30
0.0
 11
322.187
 21
156.047
 31
0.0
  0
LINE
  5
1399
330
1565
100
AcDbEntity
  8
0
100
AcDbLine
 10
259.187
 20
156.047
 30
0.0
 11
289.187
 21
156.047
 31
0.0
  0
LINE
  5
139A
330
1565
100
AcDbEntity
  8
0
100
AcDbLine
 10
226.187
 20
156.0470000000001
 30
0.0
 11
256.187
 21
156.047
 31
0.0
  0
LINE
  5
139B
330
1565
100
AcDbEntity
  8
0
100
AcDbLine
 10
192.687
 20
156.0470000000001
 30
0.0
 11
223.187
 21
156.0470000000001
 31
0.0
  0
LINE
  5
139C
330
1565
100
AcDbEntity
  8
0
100
AcDbLine
 10
192.687
 20
159.0470000000001
 30
0.0
 11
223.187
 21
159.0470000000001
 31
0.0
  0
LINE
  5
139D
330
1565
100
AcDbEntity
  8
0
100
AcDbLine
 10
192.687
 20
126.0470000000001
 30
0.0
 11
223.187
 21
126.0470000000001
 31
0.0
  0
LINE
  5
139E
330
1565
100
AcDbEntity
  8
0
100
AcDbLine
 10
192.687
 20
123.0470000000001
 30
0.0
 11
223.187
 21
123.0470000000001
 31
0.0
  0
LINE
  5
139F
330
1565
100
AcDbEntity
  8
0
100
AcDbLine
 10
226.187
 20
126.0470000000001
 30
0.0
 11
256.187
 21
126.047
 31
0.0
  0
LINE
  5
13A0
330
1565
100
AcDbEntity
  8
0
100
AcDbLine
 10
226.187
 20
123.0470000000001
 30
0.0
 11
256.187
 21
123.047
 31
0.0
  0
LINE
  5
13A1
330
1565
100
AcDbEntity
  8
0
100
AcDbLine
 10
259.187
 20
126.047
 30
0.0
 11
289.187
 21
126.047
 31
0.0
  0
LINE
  5
13A2
330
1565
100
AcDbEntity
  8
0
100
AcDbLine
 10
259.187
 20
123.047
 30
0.0
 11
289.187
 21
123.047
 31
0.0
  0
LINE
  5
13A3
330
1565
100
AcDbEntity
  8
0
100
AcDbLine
 10
292.187
 20
126.047
 30
0.0
 11
322.187
 21
126.047
 31
0.0
  0
LINE
  5
13A4
330
1565
100
AcDbEntity
  8
0
100
AcDbLine
 10
292.187
 20
123.047
 30
0.0
 11
322.187
 21
123.047
 31
0.0
  0
LINE
  5
13A5
330
1565
100
AcDbEntity
  8
0
100
AcDbLine
 10
325.187
 20
126.047
 30
0.0
 11
355.687
 21
126.047
 31
0.0
  0
LINE
  5
13A6
330
1565
100
AcDbEntity
  8
0
100
AcDbLine
 10
325.187
 20
123.047
 30
0.0
 11
355.687
 21
123.047
 31
0.0
  0
LINE
  5
13A7
330
1565
100
AcDbEntity
  8
0
100
AcDbLine
 10
226.187
 20
152.257
 30
0.0
 11
223.187
 21
152.257
 31
0.0
  0
LINE
  5
13A8
330
1565
100
AcDbEntity
  8
0
100
AcDbLine
 10
226.187
 20
144.8370000000001
 30
0.0
 11
223.187
 21
144.8370000000001
 31
0.0
  0
LINE
  5
13A9
330
1565
100
AcDbEntity
  8
0
100
AcDbLine
 10
226.187
 20
137.257
 30
0.0
 11
223.187
 21
137.257
 31
0.0
  0
LINE
  5
13AA
330
1565
100
AcDbEntity
  8
0
100
AcDbLine
 10
226.187
 20
129.8370000000001
 30
0.0
 11
223.187
 21
129.8370000000001
 31
0.0
  0
LINE
  5
13AB
330
1565
100
AcDbEntity
  8
0
100
AcDbLine
 10
226.187
 20
119.1320000000001
 30
0.0
 11
223.187
 21
119.1320000000001
 31
0.0
  0
LINE
  5
13AC
330
1565
100
AcDbEntity
  8
0
100
AcDbLine
 10
226.187
 20
111.7120000000001
 30
0.0
 11
223.187
 21
111.7120000000001
 31
0.0
  0
LINE
  5
13AD
330
1565
100
AcDbEntity
  8
0
100
AcDbLine
 10
226.187
 20
103.8820000000001
 30
0.0
 11
223.187
 21
103.8820000000001
 31
0.0
  0
LINE
  5
13AE
330
1565
100
AcDbEntity
  8
0
100
AcDbLine
 10
226.187
 20
96.4620000000001
 30
0.0
 11
223.187
 21
96.4620000000001
 31
0.0
  0
LINE
  5
13AF
330
1565
100
AcDbEntity
  8
0
100
AcDbLine
 10
256.187
 20
152.257
 30
0.0
 11
259.187
 21
152.257
 31
0.0
  0
LINE
  5
13B0
330
1565
100
AcDbEntity
  8
0
100
AcDbLine
 10
256.187
 20
144.837
 30
0.0
 11
259.187
 21
144.837
 31
0.0
  0
LINE
  5
13B1
330
1565
100
AcDbEntity
  8
0
100
AcDbLine
 10
256.187
 20
137.257
 30
0.0
 11
259.187
 21
137.257
 31
0.0
  0
LINE
  5
13B2
330
1565
100
AcDbEntity
  8
0
100
AcDbLine
 10
256.187
 20
129.837
 30
0.0
 11
259.187
 21
129.837
 31
0.0
  0
LINE
  5
13B3
330
1565
100
AcDbEntity
  8
0
100
AcDbLine
 10
256.187
 20
119.132
 30
0.0
 11
259.187
 21
119.132
 31
0.0
  0
LINE
  5
13B4
330
1565
100
AcDbEntity
  8
0
100
AcDbLine
 10
256.187
 20
111.712
 30
0.0
 11
259.187
 21
111.712
 31
0.0
  0
LINE
  5
13B5
330
1565
100
AcDbEntity
  8
0
100
AcDbLine
 10
256.187
 20
103.882
 30
0.0
 11
259.187
 21
103.882
 31
0.0
  0
LINE
  5
13B6
330
1565
100
AcDbEntity
  8
0
100
AcDbLine
 10
256.187
 20
96.46200000000005
 30
0.0
 11
259.187
 21
96.46200000000005
 31
0.0
  0
LINE
  5
13B7
330
1565
100
AcDbEntity
  8
0
100
AcDbLine
 10
289.187
 20
96.46200000000005
 30
0.0
 11
292.187
 21
96.46200000000005
 31
0.0
  0
LINE
  5
13B8
330
1565
100
AcDbEntity
  8
0
100
AcDbLine
 10
289.187
 20
103.882
 30
0.0
 11
292.187
 21
103.882
 31
0.0
  0
LINE
  5
13B9
330
1565
100
AcDbEntity
  8
0
100
AcDbLine
 10
289.187
 20
111.712
 30
0.0
 11
292.187
 21
111.712
 31
0.0
  0
LINE
  5
13BA
330
1565
100
AcDbEntity
  8
0
100
AcDbLine
 10
289.187
 20
119.132
 30
0.0
 11
292.187
 21
119.132
 31
0.0
  0
LINE
  5
13BB
330
1565
100
AcDbEntity
  8
0
100
AcDbLine
 10
289.187
 20
129.837
 30
0.0
 11
292.187
 21
129.837
 31
0.0
  0
LINE
  5
13BC
330
1565
100
AcDbEntity
  8
0
100
AcDbLine
 10
289.187
 20
137.257
 30
0.0
 11
292.187
 21
137.257
 31
0.0
  0
LINE
  5
13BD
330
1565
100
AcDbEntity
  8
0
100
AcDbLine
 10
289.187
 20
144.837
 30
0.0
 11
292.187
 21
144.837
 31
0.0
  0
LINE
  5
13BE
330
1565
100
AcDbEntity
  8
0
100
AcDbLine
 10
289.187
 20
152.257
 30
0.0
 11
292.187
 21
152.257
 31
0.0
  0
LINE
  5
13BF
330
1565
100
AcDbEntity
  8
0
100
AcDbLine
 10
322.187
 20
152.257
 30
0.0
 11
325.187
 21
152.257
 31
0.0
  0
LINE
  5
13C0
330
1565
100
AcDbEntity
  8
0
100
AcDbLine
 10
322.187
 20
144.837
 30
0.0
 11
325.187
 21
144.837
 31
0.0
  0
LINE
  5
13C1
330
1565
100
AcDbEntity
  8
0
100
AcDbLine
 10
322.187
 20
137.257
 30
0.0
 11
325.187
 21
137.257
 31
0.0
  0
LINE
  5
13C2
330
1565
100
AcDbEntity
  8
0
100
AcDbLine
 10
322.187
 20
129.837
 30
0.0
 11
325.187
 21
129.837
 31
0.0
  0
LINE
  5
13C3
330
1565
100
AcDbEntity
  8
0
100
AcDbLine
 10
322.187
 20
119.132
 30
0.0
 11
325.187
 21
119.132
 31
0.0
  0
LINE
  5
13C4
330
1565
100
AcDbEntity
  8
0
100
AcDbLine
 10
322.187
 20
111.712
 30
0.0
 11
325.187
 21
111.712
 31
0.0
  0
LINE
  5
13C5
330
1565
100
AcDbEntity
  8
0
100
AcDbLine
 10
322.187
 20
103.882
 30
0.0
 11
325.187
 21
103.882
 31
0.0
  0
LINE
  5
13C6
330
1565
100
AcDbEntity
  8
0
100
AcDbLine
 10
322.187
 20
96.46200000000005
 30
0.0
 11
325.187
 21
96.46200000000005
 31
0.0
  0
LINE
  5
13CD
330
1565
100
AcDbEntity
  8
0
100
AcDbLine
 10
192.687
 20
256.547
 30
0.0
 11
188.687
 21
256.547
 31
0.0
  0
LINE
  5
13CE
330
1565
100
AcDbEntity
  8
0
100
AcDbLine
 10
192.687
 20
259.547
 30
0.0
 11
188.687
 21
256.547
 31
0.0
  0
LINE
  5
13CF
330
1565
100
AcDbEntity
  8
0
100
AcDbLine
 10
355.687
 20
91.54700000000008
 30
0.0
 11
359.687
 21
91.54700000000008
 31
0.0
  0
LINE
  5
13D0
330
1565
100
AcDbEntity
  8
0
100
AcDbLine
 10
355.687
 20
88.54700000000008
 30
0.0
 11
359.687
 21
91.54700000000008
 31
0.0
  0
LINE
  5
13D3
330
1565
100
AcDbEntity
  8
0
100
AcDbLine
 10
191.687
 20
92.54700000000013
 30
0.0
 11
191.687
 21
88.54700000000013
 31
0.0
  0
LINE
  5
13D4
330
1565
100
AcDbEntity
  8
0
100
AcDbLine
 10
191.687
 20
88.54700000000013
 30
0.0
 11
188.687
 21
92.54700000000013
 31
0.0
  0
LINE
  5
13D5
330
1565
100
AcDbEntity
  8
0
100
AcDbLine
 10
356.687
 20
255.547
 30
0.0
 11
356.687
 21
259.547
 31
0.0
  0
LINE
  5
13D6
330
1565
100
AcDbEntity
  8
0
100
AcDbLine
 10
356.687
 20
259.546
 30
0.0
 11
359.687
 21
255.546
 31
0.0
  0
DIMENSION
  5
1432
330
1565
100
AcDbEntity
  8
5
100
AcDbDimension
  2
*D18
 10
178.687
 20
202.2180000000001
 30
0.0
 11
178.687
 21
199.843
 31
0.0
 70
   160
  1
 3 
 71
     5
 42
10.17099999999999
  3
GEN-ISO
100
AcDbAlignedDimension
 13
192.687
 23
192.047
 33
0.0
 14
178.687
 24
202.2180000000001
 34
0.0
 50
90.0
100
AcDbRotatedDimension
  0
POLYLINE
  5
1433
330
1565
100
AcDbEntity
  8
SCHRAFFUR_RAND
100
AcDb2dPolyline
 66
     1
 10
0.0
 20
0.0
 30
0.0
 70
     1
  0
VERTEX
  5
1434
330
1433
100
AcDbEntity
  8
SCHRAFFUR_RAND
100
AcDbVertex
100
AcDb2dVertex
 10
270.617
 20
263.048
 30
0.0
  0
VERTEX
  5
1435
330
1433
100
AcDbEntity
  8
SCHRAFFUR_RAND
100
AcDbVertex
100
AcDb2dVertex
 10
273.687
 20
259.047
 30
0.0
  0
VERTEX
  5
1436
330
1433
100
AcDbEntity
  8
SCHRAFFUR_RAND
100
AcDbVertex
100
AcDb2dVertex
 10
269.686
 20
262.117
 30
0.0
  0
VERTEX
  5
1437
330
1433
100
AcDbEntity
  8
SCHRAFFUR_RAND
100
AcDbVertex
100
AcDb2dVertex
 10
270.152
 20
262.582
 30
0.0
  0
VERTEX
  5
1438
330
1433
100
AcDbEntity
  8
SCHRAFFUR_RAND
100
AcDbVertex
100
AcDb2dVertex
 10
270.617
 20
263.048
 30
0.0
  0
SEQEND
  5
1439
330
1433
100
AcDbEntity
  8
SCHRAFFUR_RAND
  0
POLYLINE
  5
1456
330
1565
100
AcDbEntity
  8
SCHRAFFUR_RAND
100
AcDb2dPolyline
 66
     1
 10
0.0
 20
0.0
 30
0.0
 70
     1
  0
VERTEX
  5
1457
330
1456
100
AcDbEntity
  8
SCHRAFFUR_RAND
100
AcDbVertex
100
AcDb2dVertex
 10
188.187
 20
92.047
 30
0.0
  0
VERTEX
  5
1458
330
1456
100
AcDbEntity
  8
SCHRAFFUR_RAND
100
AcDbVertex
100
AcDb2dVertex
 10
191.187
 20
88.04700000000002
 30
0.0
  0
VERTEX
  5
1459
330
1456
100
AcDbEntity
  8
SCHRAFFUR_RAND
100
AcDbVertex
100
AcDb2dVertex
 10
191.187
 20
92.047
 30
0.0
  0
VERTEX
  5
145A
330
1456
100
AcDbEntity
  8
SCHRAFFUR_RAND
100
AcDbVertex
100
AcDb2dVertex
 10
188.187
 20
92.047
 30
0.0
  0
SEQEND
  5
145B
330
1456
100
AcDbEntity
  8
SCHRAFFUR_RAND
  0
INSERT
  5
1474
330
1565
100
AcDbEntity
  8
8
100
AcDbBlockReference
  2
*X7
 10
100.64
 20
447.734
 30
0.0
 50
270.0
1001
ACAD
1000
HATCH
1002
{
1070
    19
1000
ANSI31,_I
1040
0.18
1040
1.570999999999999
1002
}
  0
POLYLINE
  5
1475
330
1565
100
AcDbEntity
  8
SCHRAFFUR_RAND
100
AcDb2dPolyline
 66
     1
 10
0.0
 20
0.0
 30
0.0
 70
     1
  0
VERTEX
  5
1476
330
1475
100
AcDbEntity
  8
SCHRAFFUR_RAND
100
AcDbVertex
100
AcDb2dVertex
 10
359.187
 20
255.047
 30
0.0
  0
VERTEX
  5
1477
330
1475
100
AcDbEntity
  8
SCHRAFFUR_RAND
100
AcDbVertex
100
AcDb2dVertex
 10
356.1869999999999
 20
259.047
 30
0.0
  0
VERTEX
  5
1478
330
1475
100
AcDbEntity
  8
SCHRAFFUR_RAND
100
AcDbVertex
100
AcDb2dVertex
 10
356.1869999999999
 20
255.047
 30
0.0
  0
VERTEX
  5
1479
330
1475
100
AcDbEntity
  8
SCHRAFFUR_RAND
100
AcDbVertex
100
AcDb2dVertex
 10
359.187
 20
255.047
 30
0.0
  0
SEQEND
  5
147A
330
1475
100
AcDbEntity
  8
SCHRAFFUR_RAND
  0
INSERT
  5
1493
330
1565
100
AcDbEntity
  8
8
100
AcDbBlockReference
  2
*X8
 10
100.64
 20
447.734
 30
0.0
 50
270.0
1001
ACAD
1000
HATCH
1002
{
1070
    19
1000
ANSI31,_I
1040
0.18
1040
1.570999999999999
1002
}
  0
POLYLINE
  5
1494
330
1565
100
AcDbEntity
  8
SCHRAFFUR_RAND
100
AcDb2dPolyline
 66
     1
 10
0.0
 20
0.0
 30
0.0
 70
     1
  0
VERTEX
  5
1495
330
1494
100
AcDbEntity
  8
SCHRAFFUR_RAND
100
AcDbVertex
100
AcDb2dVertex
 10
192.187
 20
259.047
 30
0.0
  0
VERTEX
  5
1496
330
1494
100
AcDbEntity
  8
SCHRAFFUR_RAND
100
AcDbVertex
100
AcDb2dVertex
 10
188.187
 20
256.047
 30
0.0
  0
VERTEX
  5
1497
330
1494
100
AcDbEntity
  8
SCHRAFFUR_RAND
100
AcDbVertex
100
AcDb2dVertex
 10
192.187
 20
256.047
 30
0.0
  0
VERTEX
  5
1498
330
1494
100
AcDbEntity
  8
SCHRAFFUR_RAND
100
AcDbVertex
100
AcDb2dVertex
 10
192.187
 20
259.047
 30
0.0
  0
SEQEND
  5
1499
330
1494
100
AcDbEntity
  8
SCHRAFFUR_RAND
  0
INSERT
  5
14AD
330
1565
100
AcDbEntity
  8
8
100
AcDbBlockReference
  2
*X9
 10
100.64
 20
447.734
 30
0.0
 50
270.0
1001
ACAD
1000
HATCH
1002
{
1070
    19
1000
ANSI31,_I
1040
0.18
1040
1.570999999999999
1002
}
  0
POLYLINE
  5
14AE
330
1565
100
AcDbEntity
  8
SCHRAFFUR_RAND
100
AcDb2dPolyline
 66
     1
 10
0.0
 20
0.0
 30
0.0
 70
     1
  0
VERTEX
  5
14AF
330
14AE
100
AcDbEntity
  8
SCHRAFFUR_RAND
100
AcDbVertex
100
AcDb2dVertex
 10
355.187
 20
88.04700000000002
 30
0.0
  0
VERTEX
  5
14B0
330
14AE
100
AcDbEntity
  8
SCHRAFFUR_RAND
100
AcDbVertex
100
AcDb2dVertex
 10
359.187
 20
91.04700000000001
 30
0.0
  0
VERTEX
  5
14B1
330
14AE
100
AcDbEntity
  8
SCHRAFFUR_RAND
100
AcDbVertex
100
AcDb2dVertex
 10
355.187
 20
91.04700000000001
 30
0.0
  0
VERTEX
  5
14B2
330
14AE
100
AcDbEntity
  8
SCHRAFFUR_RAND
100
AcDbVertex
100
AcDb2dVertex
 10
355.187
 20
88.04700000000002
 30
0.0
  0
SEQEND
  5
14B3
330
14AE
100
AcDbEntity
  8
SCHRAFFUR_RAND
  0
INSERT
  5
14C6
330
1565
100
AcDbEntity
  8
8
100
AcDbBlockReference
  2
*X10
 10
100.64
 20
447.734
 30
0.0
 50
270.0
1001
ACAD
1000
HATCH
1002
{
1070
    19
1000
ANSI31,_I
1040
0.18
1040
1.570999999999999
1002
}
  0
POLYLINE
  5
14C7
330
1565
100
AcDbEntity
  8
ND_0
100
AcDb2dPolyline
 66
     1
 10
0.0
 20
0.0
 30
0.0
 70
   132
 75
     6
  0
VERTEX
  5
14C8
330
14C7
100
AcDbEntity
  8
ND_0
100
AcDbVertex
100
AcDb2dVertex
 10
378.712
 20
213.804
 30
0.0
 70
     8
  0
VERTEX
  5
14C9
330
14C7
100
AcDbEntity
  8
ND_0
100
AcDbVertex
100
AcDb2dVertex
 10
378.712
 20
213.804
 30
0.0
 70
    16
  0
VERTEX
  5
14CA
330
14C7
100
AcDbEntity
  8
ND_0
100
AcDbVertex
100
AcDb2dVertex
 10
376.605
 20
213.749
 30
0.0
 70
     8
  0
VERTEX
  5
14CB
330
14C7
100
AcDbEntity
  8
ND_0
100
AcDbVertex
100
AcDb2dVertex
 10
375.561
 20
213.103
 30
0.0
 70
     8
  0
VERTEX
  5
14CC
330
14C7
100
AcDbEntity
  8
ND_0
100
AcDbVertex
100
AcDb2dVertex
 10
375.561
 20
213.103
 30
0.0
 70
    16
  0
VERTEX
  5
14CD
330
14C7
100
AcDbEntity
  8
ND_0
100
AcDbVertex
100
AcDb2dVertex
 10
375.561
 20
213.103
 30
0.0
 70
     8
  0
VERTEX
  5
14CE
330
14C7
100
AcDbEntity
  8
ND_0
100
AcDbVertex
100
AcDb2dVertex
 10
375.561
 20
213.103
 30
0.0
 70
    16
  0
VERTEX
  5
14CF
330
14C7
100
AcDbEntity
  8
ND_0
100
AcDbVertex
100
AcDb2dVertex
 10
376.18
 20
212.456
 30
0.0
 70
     8
  0
VERTEX
  5
14D0
330
14C7
100
AcDbEntity
  8
ND_0
100
AcDbVertex
100
AcDb2dVertex
 10
376.611
 20
211.773
 30
0.0
 70
     8
  0
VERTEX
  5
14D1
330
14C7
100
AcDbEntity
  8
ND_0
100
AcDbVertex
100
AcDb2dVertex
 10
376.611
 20
211.773
 30
0.0
 70
    16
  0
VERTEX
  5
14D2
330
14C7
100
AcDbEntity
  8
ND_0
100
AcDbVertex
100
AcDb2dVertex
 10
376.611
 20
211.773
 30
0.0
 70
     8
  0
VERTEX
  5
14D3
330
14C7
100
AcDbEntity
  8
ND_0
100
AcDbVertex
100
AcDb2dVertex
 10
376.611
 20
211.773
 30
0.0
 70
    16
  0
VERTEX
  5
14D4
330
14C7
100
AcDbEntity
  8
ND_0
100
AcDbVertex
100
AcDb2dVertex
 10
376.3069999999999
 20
211.395
 30
0.0
 70
     8
  0
VERTEX
  5
14D5
330
14C7
100
AcDbEntity
  8
ND_0
100
AcDbVertex
100
AcDb2dVertex
 10
375.841
 20
211.003
 30
0.0
 70
     8
  0
VERTEX
  5
14D6
330
14C7
100
AcDbEntity
  8
ND_0
100
AcDbVertex
100
AcDb2dVertex
 10
375.841
 20
211.003
 30
0.0
 70
    16
  0
VERTEX
  5
14D7
330
14C7
100
AcDbEntity
  8
ND_0
100
AcDbVertex
100
AcDb2dVertex
 10
375.841
 20
211.003
 30
0.0
 70
     8
  0
VERTEX
  5
14D8
330
14C7
100
AcDbEntity
  8
ND_0
100
AcDbVertex
100
AcDb2dVertex
 10
375.841
 20
211.003
 30
0.0
 70
    16
  0
VERTEX
  5
14D9
330
14C7
100
AcDbEntity
  8
ND_0
100
AcDbVertex
100
AcDb2dVertex
 10
375.504
 20
210.205
 30
0.0
 70
     8
  0
VERTEX
  5
14DA
330
14C7
100
AcDbEntity
  8
ND_0
100
AcDbVertex
100
AcDb2dVertex
 10
375.35
 20
209.322
 30
0.0
 70
     8
  0
VERTEX
  5
14DB
330
14C7
100
AcDbEntity
  8
ND_0
100
AcDbVertex
100
AcDb2dVertex
 10
375.35
 20
209.322
 30
0.0
 70
    16
  0
VERTEX
  5
14DC
330
14C7
100
AcDbEntity
  8
ND_0
100
AcDbVertex
100
AcDb2dVertex
 10
375.35
 20
209.322
 30
0.0
 70
     8
  0
VERTEX
  5
14DD
330
14C7
100
AcDbEntity
  8
ND_0
100
AcDbVertex
100
AcDb2dVertex
 10
375.35
 20
209.322
 30
0.0
 70
    16
  0
VERTEX
  5
14DE
330
14C7
100
AcDbEntity
  8
ND_0
100
AcDbVertex
100
AcDb2dVertex
 10
375.005
 20
208.569
 30
0.0
 70
     8
  0
VERTEX
  5
14DF
330
14C7
100
AcDbEntity
  8
ND_0
100
AcDbVertex
100
AcDb2dVertex
 10
374.72
 20
207.852
 30
0.0
 70
     8
  0
VERTEX
  5
14E0
330
14C7
100
AcDbEntity
  8
ND_0
100
AcDbVertex
100
AcDb2dVertex
 10
374.72
 20
207.852
 30
0.0
 70
    16
  0
VERTEX
  5
14E1
330
14C7
100
AcDbEntity
  8
ND_0
100
AcDbVertex
100
AcDb2dVertex
 10
374.72
 20
207.852
 30
0.0
 70
     8
  0
VERTEX
  5
14E2
330
14C7
100
AcDbEntity
  8
ND_0
100
AcDbVertex
100
AcDb2dVertex
 10
374.72
 20
207.852
 30
0.0
 70
    16
  0
VERTEX
  5
14E3
330
14C7
100
AcDbEntity
  8
ND_0
100
AcDbVertex
100
AcDb2dVertex
 10
374.917
 20
206.882
 30
0.0
 70
     8
  0
VERTEX
  5
14E4
330
14C7
100
AcDbEntity
  8
ND_0
100
AcDbVertex
100
AcDb2dVertex
 10
375.561
 20
205.891
 30
0.0
 70
     8
  0
VERTEX
  5
14E5
330
14C7
100
AcDbEntity
  8
ND_0
100
AcDbVertex
100
AcDb2dVertex
 10
375.561
 20
205.891
 30
0.0
 70
    16
  0
VERTEX
  5
14E6
330
14C7
100
AcDbEntity
  8
ND_0
100
AcDbVertex
100
AcDb2dVertex
 10
375.561
 20
205.891
 30
0.0
 70
     8
  0
VERTEX
  5
14E7
330
14C7
100
AcDbEntity
  8
ND_0
100
AcDbVertex
100
AcDb2dVertex
 10
375.561
 20
205.891
 30
0.0
 70
    16
  0
VERTEX
  5
14E8
330
14C7
100
AcDbEntity
  8
ND_0
100
AcDbVertex
100
AcDb2dVertex
 10
376.095
 20
205.124
 30
0.0
 70
     8
  0
VERTEX
  5
14E9
330
14C7
100
AcDbEntity
  8
ND_0
100
AcDbVertex
100
AcDb2dVertex
 10
376.331
 20
204.421
 30
0.0
 70
     8
  0
VERTEX
  5
14EA
330
14C7
100
AcDbEntity
  8
ND_0
100
AcDbVertex
100
AcDb2dVertex
 10
376.331
 20
204.421
 30
0.0
 70
    16
  0
VERTEX
  5
14EB
330
14C7
100
AcDbEntity
  8
ND_0
100
AcDbVertex
100
AcDb2dVertex
 10
376.331
 20
204.421
 30
0.0
 70
     8
  0
VERTEX
  5
14EC
330
14C7
100
AcDbEntity
  8
ND_0
100
AcDbVertex
100
AcDb2dVertex
 10
376.331
 20
204.421
 30
0.0
 70
    16
  0
VERTEX
  5
14ED
330
14C7
100
AcDbEntity
  8
ND_0
100
AcDbVertex
100
AcDb2dVertex
 10
375.3769999999999
 20
203.324
 30
0.0
 70
     8
  0
VERTEX
  5
14EE
330
14C7
100
AcDbEntity
  8
ND_0
100
AcDbVertex
100
AcDb2dVertex
 10
373.88
 20
202.25
 30
0.0
 70
     8
  0
VERTEX
  5
14EF
330
14C7
100
AcDbEntity
  8
ND_0
100
AcDbVertex
100
AcDb2dVertex
 10
373.88
 20
202.25
 30
0.0
 70
    16
  0
VERTEX
  5
14F0
330
14C7
100
AcDbEntity
  8
ND_0
100
AcDbVertex
100
AcDb2dVertex
 10
373.88
 20
202.25
 30
0.0
 70
     8
  0
VERTEX
  5
14F1
330
14C7
100
AcDbEntity
  8
ND_0
100
AcDbVertex
100
AcDb2dVertex
 10
373.88
 20
202.25
 30
0.0
 70
    16
  0
VERTEX
  5
14F2
330
14C7
100
AcDbEntity
  8
ND_0
100
AcDbVertex
100
AcDb2dVertex
 10
373.531
 20
201.756
 30
0.0
 70
     8
  0
VERTEX
  5
14F3
330
14C7
100
AcDbEntity
  8
ND_0
100
AcDbVertex
100
AcDb2dVertex
 10
373.25
 20
201.2
 30
0.0
 70
     8
  0
VERTEX
  5
14F4
330
14C7
100
AcDbEntity
  8
ND_0
100
AcDbVertex
100
AcDb2dVertex
 10
373.25
 20
201.2
 30
0.0
 70
    16
  0
VERTEX
  5
14F5
330
14C7
100
AcDbEntity
  8
ND_0
100
AcDbVertex
100
AcDb2dVertex
 10
373.25
 20
201.2
 30
0.0
 70
     8
  0
VERTEX
  5
14F6
330
14C7
100
AcDbEntity
  8
ND_0
100
AcDbVertex
100
AcDb2dVertex
 10
373.25
 20
201.2
 30
0.0
 70
    16
  0
VERTEX
  5
14F7
330
14C7
100
AcDbEntity
  8
ND_0
100
AcDbVertex
100
AcDb2dVertex
 10
372.749
 20
200.11
 30
0.0
 70
     8
  0
VERTEX
  5
14F8
330
14C7
100
AcDbEntity
  8
ND_0
100
AcDbVertex
100
AcDb2dVertex
 10
372.69
 20
199.099
 30
0.0
 70
     8
  0
VERTEX
  5
14F9
330
14C7
100
AcDbEntity
  8
ND_0
100
AcDbVertex
100
AcDb2dVertex
 10
372.69
 20
199.099
 30
0.0
 70
    16
  0
VERTEX
  5
14FA
330
14C7
100
AcDbEntity
  8
ND_0
100
AcDbVertex
100
AcDb2dVertex
 10
372.69
 20
199.099
 30
0.0
 70
     8
  0
VERTEX
  5
14FB
330
14C7
100
AcDbEntity
  8
ND_0
100
AcDbVertex
100
AcDb2dVertex
 10
372.69
 20
199.099
 30
0.0
 70
    16
  0
VERTEX
  5
14FC
330
14C7
100
AcDbEntity
  8
ND_0
100
AcDbVertex
100
AcDb2dVertex
 10
373.402
 20
198.419
 30
0.0
 70
     8
  0
VERTEX
  5
14FD
330
14C7
100
AcDbEntity
  8
ND_0
100
AcDbVertex
100
AcDb2dVertex
 10
374.44
 20
198.049
 30
0.0
 70
     8
  0
VERTEX
  5
14FE
330
14C7
100
AcDbEntity
  8
ND_0
100
AcDbVertex
100
AcDb2dVertex
 10
374.44
 20
198.049
 30
0.0
 70
    16
  0
SEQEND
  5
14FF
330
14C7
100
AcDbEntity
  8
ND_0
  0
POLYLINE
  5
1500
330
1565
100
AcDbEntity
  8
ND_0
100
AcDb2dPolyline
 66
     1
 10
0.0
 20
0.0
 30
0.0
 70
   132
 75
     6
  0
VERTEX
  5
1501
330
1500
100
AcDbEntity
  8
ND_0
100
AcDbVertex
100
AcDb2dVertex
 10
391.315
 20
180.473
 30
0.0
 70
     8
  0
VERTEX
  5
1502
330
1500
100
AcDbEntity
  8
ND_0
100
AcDbVertex
100
AcDb2dVertex
 10
391.315
 20
180.473
 30
0.0
 70
    16
  0
VERTEX
  5
1503
330
1500
100
AcDbEntity
  8
ND_0
100
AcDbVertex
100
AcDb2dVertex
 10
391.977
 20
180.011
 30
0.0
 70
     8
  0
VERTEX
  5
1504
330
1500
100
AcDbEntity
  8
ND_0
100
AcDbVertex
100
AcDb2dVertex
 10
392.716
 20
179.773
 30
0.0
 70
     8
  0
VERTEX
  5
1505
330
1500
100
AcDbEntity
  8
ND_0
100
AcDbVertex
100
AcDb2dVertex
 10
392.716
 20
179.773
 30
0.0
 70
    16
  0
VERTEX
  5
1506
330
1500
100
AcDbEntity
  8
ND_0
100
AcDbVertex
100
AcDb2dVertex
 10
392.716
 20
179.773
 30
0.0
 70
     8
  0
VERTEX
  5
1507
330
1500
100
AcDbEntity
  8
ND_0
100
AcDbVertex
100
AcDb2dVertex
 10
392.716
 20
179.773
 30
0.0
 70
    16
  0
VERTEX
  5
1508
330
1500
100
AcDbEntity
  8
ND_0
100
AcDbVertex
100
AcDb2dVertex
 10
393.796
 20
180.007
 30
0.0
 70
     8
  0
VERTEX
  5
1509
330
1500
100
AcDbEntity
  8
ND_0
100
AcDbVertex
100
AcDb2dVertex
 10
394.886
 20
180.403
 30
0.0
 70
     8
  0
VERTEX
  5
150A
330
1500
100
AcDbEntity
  8
ND_0
100
AcDbVertex
100
AcDb2dVertex
 10
394.886
 20
180.403
 30
0.0
 70
    16
  0
VERTEX
  5
150B
330
1500
100
AcDbEntity
  8
ND_0
100
AcDbVertex
100
AcDb2dVertex
 10
394.886
 20
180.403
 30
0.0
 70
     8
  0
VERTEX
  5
150C
330
1500
100
AcDbEntity
  8
ND_0
100
AcDbVertex
100
AcDb2dVertex
 10
394.886
 20
180.403
 30
0.0
 70
    16
  0
VERTEX
  5
150D
330
1500
100
AcDbEntity
  8
ND_0
100
AcDbVertex
100
AcDb2dVertex
 10
395.715
 20
180.46
 30
0.0
 70
     8
  0
VERTEX
  5
150E
330
1500
100
AcDbEntity
  8
ND_0
100
AcDbVertex
100
AcDb2dVertex
 10
396.567
 20
180.403
 30
0.0
 70
     8
  0
VERTEX
  5
150F
330
1500
100
AcDbEntity
  8
ND_0
100
AcDbVertex
100
AcDb2dVertex
 10
396.567
 20
180.403
 30
0.0
 70
    16
  0
VERTEX
  5
1510
330
1500
100
AcDbEntity
  8
ND_0
100
AcDbVertex
100
AcDb2dVertex
 10
396.567
 20
180.403
 30
0.0
 70
     8
  0
VERTEX
  5
1511
330
1500
100
AcDbEntity
  8
ND_0
100
AcDbVertex
100
AcDb2dVertex
 10
396.567
 20
180.403
 30
0.0
 70
    16
  0
VERTEX
  5
1512
330
1500
100
AcDbEntity
  8
ND_0
100
AcDbVertex
100
AcDb2dVertex
 10
397.402
 20
180.36
 30
0.0
 70
     8
  0
VERTEX
  5
1513
330
1500
100
AcDbEntity
  8
ND_0
100
AcDbVertex
100
AcDb2dVertex
 10
398.177
 20
180.193
 30
0.0
 70
     8
  0
VERTEX
  5
1514
330
1500
100
AcDbEntity
  8
ND_0
100
AcDbVertex
100
AcDb2dVertex
 10
398.177
 20
180.193
 30
0.0
 70
    16
  0
VERTEX
  5
1515
330
1500
100
AcDbEntity
  8
ND_0
100
AcDbVertex
100
AcDb2dVertex
 10
398.177
 20
180.193
 30
0.0
 70
     8
  0
VERTEX
  5
1516
330
1500
100
AcDbEntity
  8
ND_0
100
AcDbVertex
100
AcDb2dVertex
 10
398.177
 20
180.193
 30
0.0
 70
    16
  0
VERTEX
  5
1517
330
1500
100
AcDbEntity
  8
ND_0
100
AcDbVertex
100
AcDb2dVertex
 10
399.047
 20
179.576
 30
0.0
 70
     8
  0
VERTEX
  5
1518
330
1500
100
AcDbEntity
  8
ND_0
100
AcDbVertex
100
AcDb2dVertex
 10
399.858
 20
178.793
 30
0.0
 70
     8
  0
VERTEX
  5
1519
330
1500
100
AcDbEntity
  8
ND_0
100
AcDbVertex
100
AcDb2dVertex
 10
399.858
 20
178.793
 30
0.0
 70
    16
  0
VERTEX
  5
151A
330
1500
100
AcDbEntity
  8
ND_0
100
AcDbVertex
100
AcDb2dVertex
 10
399.858
 20
178.793
 30
0.0
 70
     8
  0
VERTEX
  5
151B
330
1500
100
AcDbEntity
  8
ND_0
100
AcDbVertex
100
AcDb2dVertex
 10
399.858
 20
178.793
 30
0.0
 70
    16
  0
VERTEX
  5
151C
330
1500
100
AcDbEntity
  8
ND_0
100
AcDbVertex
100
AcDb2dVertex
 10
401.086
 20
178.026
 30
0.0
 70
     8
  0
VERTEX
  5
151D
330
1500
100
AcDbEntity
  8
ND_0
100
AcDbVertex
100
AcDb2dVertex
 10
402.449
 20
177.532
 30
0.0
 70
     8
  0
VERTEX
  5
151E
330
1500
100
AcDbEntity
  8
ND_0
100
AcDbVertex
100
AcDb2dVertex
 10
402.449
 20
177.532
 30
0.0
 70
    16
  0
VERTEX
  5
151F
330
1500
100
AcDbEntity
  8
ND_0
100
AcDbVertex
100
AcDb2dVertex
 10
402.449
 20
177.532
 30
0.0
 70
     8
  0
VERTEX
  5
1520
330
1500
100
AcDbEntity
  8
ND_0
100
AcDbVertex
100
AcDb2dVertex
 10
402.449
 20
177.532
 30
0.0
 70
    16
  0
VERTEX
  5
1521
330
1500
100
AcDbEntity
  8
ND_0
100
AcDbVertex
100
AcDb2dVertex
 10
403.4219999999999
 20
177.28
 30
0.0
 70
     8
  0
VERTEX
  5
1522
330
1500
100
AcDbEntity
  8
ND_0
100
AcDbVertex
100
AcDb2dVertex
 10
404.4089999999999
 20
177.112
 30
0.0
 70
     8
  0
VERTEX
  5
1523
330
1500
100
AcDbEntity
  8
ND_0
100
AcDbVertex
100
AcDb2dVertex
 10
404.4089999999999
 20
177.112
 30
0.0
 70
    16
  0
SEQEND
  5
1524
330
1500
100
AcDbEntity
  8
ND_0
  0
DIMENSION
  5
16AC
330
1565
100
AcDbEntity
  8
5
100
AcDbDimension
  2
*D15
 10
259.187
 20
385.2467617313715
 30
0.0
 11
274.187
 21
388.4967617313715
 31
0.0
 70
    32
 71
     5
 42
30.0
  3
GEN-ISO$0
100
AcDbAlignedDimension
 13
289.187
 23
373.1470000000001
 33
0.0
 14
259.187
 24
373.1470000000001
 34
0.0
100
AcDbRotatedDimension
  0
DIMENSION
  5
16E1
330
1565
100
AcDbEntity
  8
5
100
AcDbDimension
  2
*D16
 10
292.187
 20
385.2467617313715
 30
0.0
 11
301.4594873734153
 21
388.4967617313715
 31
0.0
 70
    32
 71
     5
 42
3.0
  3
GEN-ISO$0
100
AcDbAlignedDimension
 13
289.187
 23
373.1470000000001
 33
0.0
 14
292.187
 24
373.1470000000001
 34
0.0
100
AcDbRotatedDimension
  0
DIMENSION
  5
170B
330
1565
100
AcDbEntity
  8
5
100
AcDbDimension
  2
*D17
 10
167.8982734102232
 20
159.0470000000001
 30
0.0
 11
164.6482734102232
 21
174.0470000000001
 31
0.0
 70
    32
 71
     5
 42
30.0
  3
GEN-ISO$0
100
AcDbAlignedDimension
 13
192.687
 23
189.047
 33
0.0
 14
192.687
 24
159.0470000000001
 34
0.0
 50
270.0
100
AcDbRotatedDimension
  0
LINE
  5
1757
330
1565
100
AcDbEntity
  8
AM_7
100
AcDbLine
 10
359.797
 20
173.547
 30
0.0
 11
188.577
 21
173.5470000000001
 31
0.0
1001
GENIUS_GENODEF_13
1002
{
1000
HIER
1070
     0
1002
}
1002
{
1000
MANEDIT
1070
     0
1002
}
1002
{
1000
NOSEL
1070
     0
1002
}
1002
{
1000
BEHIND
1070
     0
1002
}
1002
{
1000
OTHER
1070
     0
1002
}
1002
{
1000
REACTOR
1002
}
1001
GENIUS_GENOBJ-N-CEN_13
1002
{
1000
OWNER
1000
GEN
1002
}
1001
GENIUS_GENCEN_19
1002
{
1040
0.11
1002
}
  0
ENDSEC
  0
SECTION
  2
OBJECTS
  0
DICTIONARY
  5
1559
330
0
100
AcDbDictionary
281
     1
  3
ACAD_COLOR
350
15AD
  3
ACAD_GROUP
350
155A
  3
ACAD_LAYOUT
350
15B0
  3
ACAD_MATERIAL
350
15AC
  3
ACAD_MLINESTYLE
350
1568
  3
ACAD_PLOTSETTINGS
350
15B1
  3
ACAD_PLOTSTYLENAME
350
15AA
  3
ACAD_TABLESTYLE
350
15AE
  3
ACDBHEADERROUNDTRIPXREC
350
17F2
  3
AcDbVariableDictionary
350
1667
  3
AcmDictionary
350
1612
  3
AMG
350
15B8
  3
AMGSNAPSETTINGS
350
1669
  0
DICTIONARY
  5
15AD
102
{ACAD_REACTORS
330
1559
102
}
330
1559
100
AcDbDictionary
281
     1
  0
DICTIONARY
  5
155A
102
{ACAD_REACTORS
330
1559
102
}
330
1559
100
AcDbDictionary
281
     1
  0
DICTIONARY
  5
15B0
102
{ACAD_REACTORS
330
1559
102
}
330
1559
100
AcDbDictionary
281
     1
  3
Layout1
350
15B3
  3
Model
350
15B2
  0
DICTIONARY
  5
15AC
102
{ACAD_REACTORS
330
1559
102
}
330
1559
100
AcDbDictionary
281
     1
  0
DICTIONARY
  5
1568
102
{ACAD_REACTORS
330
1559
102
}
330
1559
100
AcDbDictionary
281
     1
  3
STANDARD
350
1569
  0
DICTIONARY
  5
15B1
102
{ACAD_REACTORS
330
1559
102
}
330
1559
100
AcDbDictionary
281
     1
  0
ACDBDICTIONARYWDFLT
  5
15AA
102
{ACAD_REACTORS
330
1559
102
}
330
1559
100
AcDbDictionary
281
     1
  3
Normal
350
15AB
100
AcDbDictionaryWithDefault
340
15AB
  0
DICTIONARY
  5
15AE
102
{ACAD_REACTORS
330
1559
102
}
330
1559
100
AcDbDictionary
281
     1
  3
Standard
350
15AF
  0
DICTIONARY
  5
17F2
102
{ACAD_REACTORS
330
1559
102
}
330
1559
100
AcDbDictionary
281
     1
  0
DICTIONARY
  5
1667
102
{ACAD_REACTORS
330
1559
102
}
330
1559
100
AcDbDictionary
281
     1
  3
CTABLESTYLE
350
1668
  3
DIMASSOC
350
17EF
  3
PROJECTNAME
350
17F0
  0
DICTIONARY
  5
1612
102
{ACAD_REACTORS
330
1559
102
}
330
1559
100
AcDbDictionary
281
     1
  3
AcmStdDictionary
350
161D
  3
AMDTSECTSYM_ARROWCOLOR
350
163C
  0
DICTIONARY
  5
15B8
102
{ACAD_REACTORS
330
1559
102
}
330
1559
100
AcDbDictionary
281
     1
  0
DICTIONARY
  5
1669
102
{ACAD_REACTORS
330
1559
102
}
330
1559
100
AcDbDictionary
281
     1
  0
LAYOUT
  5
15B3
102
{ACAD_XDICTIONARY
360
17F5
102
}
102
{ACAD_REACTORS
330
15B0
102
}
330
15B0
100
AcDbPlotSettings
  1

  2
\\RD-SR-210\PH-PR-011
  4

  6

 40
0.0
 41
0.0
 42
0.0
 43
0.0
 44
0.0
 45
0.0
 46
0.0
 47
0.0
 48
0.0
 49
0.0
140
0.0
141
0.0
142
1.0
143
1.0
 70
   688
 72
     0
 73
     0
 74
     5
  7

 75
    16
147
1.0
148
0.0
149
0.0
100
AcDbLayout
  1
Layout1
 70
     1
 71
     1
 10
0.0
 20
0.0
 11
420.0
 21
297.001
 12
0.0
 22
0.0
 32
0.0
 14
0.0
 24
0.0
 34
0.0
 15
420.0
 25
297.001
 35
0.0
146
0.0
 13
0.0
 23
0.0
 33
0.0
 16
1.0
 26
0.0
 36
0.0
 17
0.0
 27
1.0
 37
0.0
 76
     0
330
1562
  0
LAYOUT
  5
15B2
102
{ACAD_XDICTIONARY
360
17F3
102
}
102
{ACAD_REACTORS
330
15B0
102
}
330
15B0
100
AcDbPlotSettings
  1

  2
\\RD-SR-210\PH-PR-011
  4

  6

 40
0.0
 41
0.0
 42
0.0
 43
0.0
 44
0.0
 45
0.0
 46
0.0
 47
0.0
 48
0.0
 49
0.0
140
0.0
141
0.0
142
1.0
143
1.0
 70
  1712
 72
     0
 73
     0
 74
     0
  7

 75
     0
147
1.0
148
0.0
149
0.0
100
AcDbLayout
  1
Model
 70
     1
 71
     0
 10
0.0
 20
0.0
 11
12.0
 21
9.0
 12
0.0
 22
0.0
 32
0.0
 14
0.0
 24
0.0
 34
0.0
 15
0.0
 25
0.0
 35
0.0
146
0.0
 13
0.0
 23
0.0
 33
0.0
 16
1.0
 26
0.0
 36
0.0
 17
0.0
 27
1.0
 37
0.0
 76
     0
330
1565
  0
MLINESTYLE
  5
1569
102
{ACAD_REACTORS
330
1568
102
}
330
1568
100
AcDbMlineStyle
  2
STANDARD
 70
     0
  3

 62
   256
 51
90.0
 52
90.0
 71
     2
 49
0.5
 62
   256
  6
BYLAYER
 49
-0.5
 62
   256
  6
BYLAYER
  0
ACDBPLACEHOLDER
  5
15AB
102
{ACAD_REACTORS
330
15AA
102
}
330
15AA
  0
TABLESTYLE
  5
15AF
102
{ACAD_REACTORS
330
15AE
102
}
330
15AE
100
AcDbTableStyle
  3
Standard
 70
     0
 71
     0
 40
0.06
 41
0.06
280
     0
281
     0
  7
STANDARD
140
0.18
170
     2
 62
     0
 63
     7
283
     0
274
    -2
284
     1
 64
     0
275
    -2
285
     1
 65
     0
276
    -2
286
     1
 66
     0
277
    -2
287
     1
 67
     0
278
    -2
288
     1
 68
     0
279
    -2
289
     1
 69
     0
  7
STANDARD
140
0.25
170
     5
 62
     0
 63
     7
283
     0
274
    -2
284
     1
 64
     0
275
    -2
285
     1
 65
     0
276
    -2
286
     1
 66
     0
277
    -2
287
     1
 67
     0
278
    -2
288
     1
 68
     0
279
    -2
289
     1
 69
     0
  7
STANDARD
140
0.18
170
     5
 62
     0
 63
     7
283
     0
274
    -2
284
     1
 64
     0
275
    -2
285
     1
 65
     0
276
    -2
286
     1
 66
     0
277
    -2
287
     1
 67
     0
278
    -2
288
     1
 68
     0
279
    -2
289
     1
 69
     0
  0
DICTIONARYVAR
  5
1668
102
{ACAD_REACTORS
330
1667
102
}
330
1667
100
DictionaryVariables
280
     0
  1
STANDARD
  0
DICTIONARYVAR
  5
17EF
102
{ACAD_REACTORS
330
1667
102
}
330
1667
100
DictionaryVariables
280
     0
  1
1
  0
DICTIONARYVAR
  5
17F0
102
{ACAD_REACTORS
330
1667
102
}
330
1667
100
DictionaryVariables
280
     0
  1

  0
DICTIONARY
  5
161D
102
{ACAD_REACTORS
330
1612
102
}
330
1612
100
AcDbDictionary
281
     1
  0
XRECORD
  5
163C
102
{ACAD_REACTORS
330
1612
102
}
330
1612
100
AcDbXrecord
280
     1
 90
-1023410169
  0
DICTIONARY
  5
17F5
330
15B3
100
AcDbDictionary
280
     1
281
     1
  3
ACAD_XREC_ROUNDTRIP
360
17F6
  0
DICTIONARY
  5
17F3
330
15B2
100
AcDbDictionary
280
     1
281
     1
  3
ACAD_XREC_ROUNDTRIP
360
17F4
  0
XRECORD
  5
17F6
102
{ACAD_REACTORS
330
17F5
102
}
330
17F5
100
AcDbXrecord
280
     1
102
SHADEPLOT
 70
     0
102
SHADEPLOTRESLEVEL
 70
     2
102
SHADEPLOTCUSTOMDPI
 70
   300
  0
XRECORD
  5
17F4
102
{ACAD_REACTORS
330
17F3
102
}
330
17F3
100
AcDbXrecord
280
     1
102
SHADEPLOT
 70
     0
102
SHADEPLOTRESLEVEL
 70
     2
102
SHADEPLOTCUSTOMDPI
 70
   300
  0
ENDSEC
  0
EOF
